  0
SECTION
  2
HEADER
  9
$ACADVER
  1
AC1009
  9
$INSBASE
 10
0.0
 20
0.0
 30
0.0
  9
$EXTMIN
 10
111.6100741858581
 20
101.8536820375456
 30
0.0
  9
$EXTMAX
 10
283.80714053124501
 20
146.49386667327681
 30
0.0
  9
$LIMMIN
 10
-27.525825626869491
 20
-16.37935648370539
  9
$LIMMAX
 10
25.674174373130509
 20
19.753976849628032
  9
$ORTHOMODE
 70
     0
  9
$REGENMODE
 70
     1
  9
$FILLMODE
 70
     1
  9
$QTEXTMODE
 70
     0
  9
$MIRRTEXT
 70
     0
  9
$DRAGMODE
 70
     2
  9
$LTSCALE
 40
1.0
  9
$OSMODE
 70
   167
  9
$ATTMODE
 70
     1
  9
$TEXTSIZE
 40
3.5
  9
$TRACEWID
 40
0.5
  9
$TEXTSTYLE
  7
STANDARD
  9
$CLAYER
  8
0
  9
$CELTYPE
  6
BYLAYER
  9
$CECOLOR
 62
   256
  9
$DIMSCALE
 40
1.0
  9
$DIMASZ
 40
0.18
  9
$DIMEXO
 40
0.0625
  9
$DIMDLI
 40
0.38
  9
$DIMRND
 40
0.0
  9
$DIMDLE
 40
0.0
  9
$DIMEXE
 40
0.18
  9
$DIMTP
 40
0.0
  9
$DIMTM
 40
0.0
  9
$DIMTXT
 40
0.18
  9
$DIMCEN
 40
0.09
  9
$DIMTSZ
 40
0.0
  9
$DIMTOL
 70
     0
  9
$DIMLIM
 70
     0
  9
$DIMTIH
 70
     1
  9
$DIMTOH
 70
     1
  9
$DIMSE1
 70
     0
  9
$DIMSE2
 70
     0
  9
$DIMTAD
 70
     0
  9
$DIMZIN
 70
     0
  9
$DIMBLK
  1

  9
$DIMASO
 70
     1
  9
$DIMSHO
 70
     1
  9
$DIMPOST
  1

  9
$DIMAPOST
  1

  9
$DIMALT
 70
     0
  9
$DIMALTD
 70
     2
  9
$DIMALTF
 40
25.399999999999999
  9
$DIMLFAC
 40
1.0
  9
$DIMTOFL
 70
     0
  9
$DIMTVP
 40
0.0
  9
$DIMTIX
 70
     0
  9
$DIMSOXD
 70
     0
  9
$DIMSAH
 70
     0
  9
$DIMBLK1
  1

  9
$DIMBLK2
  1

  9
$DIMSTYLE
  2
DMST_1
  9
$DIMCLRD
 70
     0
  9
$DIMCLRE
 70
     0
  9
$DIMCLRT
 70
     0
  9
$DIMTFAC
 40
1.0
  9
$DIMGAP
 40
0.09
  9
$LUNITS
 70
     2
  9
$LUPREC
 70
     4
  9
$SKETCHINC
 40
0.1
  9
$FILLETRAD
 40
2.0
  9
$AUNITS
 70
     0
  9
$AUPREC
 70
     0
  9
$MENU
  1
ACAD
  9
$ELEVATION
 40
0.0
  9
$PELEVATION
 40
0.0
  9
$THICKNESS
 40
0.0
  9
$LIMCHECK
 70
     0
  9
$BLIPMODE
 70
     0
  9
$CHAMFERA
 40
0.0
  9
$CHAMFERB
 40
0.0
  9
$SKPOLY
 70
     0
  9
$TDCREATE
 40
2455400.589254607
  9
$TDUPDATE
 40
2456853.3890302549
  9
$TDINDWG
 40
0.0353932176
  9
$TDUSRTIMER
 40
0.0353932176
  9
$USRTIMER
 70
     1
  9
$ANGBASE
 50
0.0
  9
$ANGDIR
 70
     0
  9
$PDMODE
 70
     0
  9
$PDSIZE
 40
0.0
  9
$PLINEWID
 40
0.0
  9
$COORDS
 70
     1
  9
$SPLFRAME
 70
     0
  9
$SPLINETYPE
 70
     6
  9
$SPLINESEGS
 70
     8
  9
$ATTDIA
 70
     0
  9
$ATTREQ
 70
     1
  9
$HANDLING
 70
     1
  9
$HANDSEED
  5
AB0
  9
$SURFTAB1
 70
     6
  9
$SURFTAB2
 70
     6
  9
$SURFTYPE
 70
     6
  9
$SURFU
 70
     6
  9
$SURFV
 70
     6
  9
$UCSNAME
  2

  9
$UCSORG
 10
0.0
 20
0.0
 30
0.0
  9
$UCSXDIR
 10
1.0
 20
0.0
 30
0.0
  9
$UCSYDIR
 10
0.0
 20
1.0
 30
0.0
  9
$PUCSNAME
  2

  9
$PUCSORG
 10
0.0
 20
0.0
 30
0.0
  9
$PUCSXDIR
 10
1.0
 20
0.0
 30
0.0
  9
$PUCSYDIR
 10
0.0
 20
1.0
 30
0.0
  9
$USERI1
 70
     0
  9
$USERI2
 70
     0
  9
$USERI3
 70
     0
  9
$USERI4
 70
     0
  9
$USERI5
 70
     0
  9
$USERR1
 40
0.0
  9
$USERR2
 40
0.0
  9
$USERR3
 40
0.0
  9
$USERR4
 40
0.0
  9
$USERR5
 40
0.0
  9
$WORLDVIEW
 70
     1
  9
$SHADEDGE
 70
     3
  9
$SHADEDIF
 70
    70
  9
$TILEMODE
 70
     1
  9
$MAXACTVP
 70
    64
  9
$PLIMCHECK
 70
     0
  9
$PEXTMIN
 10
1.0000000000000000E+020
 20
1.0000000000000000E+020
 30
1.0000000000000000E+020
  9
$PEXTMAX
 10
-1.0000000000000000E+020
 20
-1.0000000000000000E+020
 30
-1.0000000000000000E+020
  9
$PLIMMIN
 10
0.0
 20
0.0
  9
$PLIMMAX
 10
12.0
 20
9.0
  9
$UNITMODE
 70
     0
  9
$VISRETAIN
 70
     1
  9
$PLINEGEN
 70
     0
  9
$PSLTSCALE
 70
     1
  0
ENDSEC
  0
SECTION
  2
TABLES
  0
TABLE
  2
VPORT
 70
     1
  0
VPORT
  2
*ACTIVE
 70
     0
 10
0.0
 20
0.0
 11
1.0
 21
1.0
 12
179.398757694631
 22
125.42707564765659
 13
0.0
 23
0.0
 14
1.0
 24
1.0
 15
0.0
 25
0.0
 16
0.0
 26
0.0
 36
1.0
 17
0.0
 27
0.0
 37
0.0
 40
150.4289547365351
 41
1.6603375527426161
 42
50.0
 43
0.0
 44
0.0
 50
0.0
 51
0.0
 71
     0
 72
   100
 73
     1
 74
     1
 75
     0
 76
     0
 77
     0
 78
     0
  0
ENDTAB
  0
TABLE
  2
LTYPE
 70
    10
  0
LTYPE
  2
CONTINUOUS
 70
     0
  3
Solid line
 72
    65
 73
     0
 40
0.0
  0
LTYPE
  2
BORDER
 70
     0
  3
__ __ . __ __ .
 72
    65
 73
     6
 40
2.4500000000000002
 49
0.7000000000000001
 49
-0.35
 49
0.7000000000000001
 49
-0.35
 49
0.0
 49
-0.35
  0
LTYPE
  2
CENTER
 70
     0
  3
____ _ ____ _
 72
    65
 73
     4
 40
2.7999999999999989
 49
1.75
 49
-0.35
 49
0.35
 49
-0.35
  0
LTYPE
  2
DASHDOT
 70
     0
  3
__ . __ . __ .
 72
    65
 73
     4
 40
1.399999999999999
 49
0.7000000000000001
 49
-0.35
 49
0.0
 49
-0.35
  0
LTYPE
  2
DASHED
 70
     0
  3
__ __ __ __ __
 72
    65
 73
     2
 40
1.05
 49
0.7000000000000001
 49
-0.35
  0
LTYPE
  2
DIVIDE
 70
     0
  3
__ . . __ . . 
 72
    65
 73
     6
 40
1.75
 49
0.7000000000000001
 49
-0.35
 49
0.0
 49
-0.35
 49
0.0
 49
-0.35
  0
LTYPE
  2
DOT
 70
     0
  3
..............
 72
    65
 73
     4
 40
0.7000000000000001
 49
0.0
 49
-0.35
 49
0.0
 49
-0.35
  0
LTYPE
  2
HIDDEN
 70
     0
  3
_ _ _ _ _ _ _
 72
    65
 73
     2
 40
0.525
 49
0.35
 49
-0.175
  0
LTYPE
  2
PHANTOM
 70
     0
  3
_____ _ _ _____ _ _ 
 72
    65
 73
     6
 40
3.5
 49
1.75
 49
-0.35
 49
0.35
 49
-0.35
 49
0.35
 49
-0.35
  0
LTYPE
  2
PHANTOM2
 70
     0
  3
___ _ _ ___ _ _ ___ _ _ ___ _ _
 72
    65
 73
     6
 40
1.25
 49
0.625
 49
-0.125
 49
0.125
 49
-0.125
 49
0.125
 49
-0.125
  0
ENDTAB
  0
TABLE
  2
LAYER
 70
     3
  0
LAYER
  2
0
 70
     0
 62
     7
  6
CONTINUOUS
  0
LAYER
  2
1
 70
     0
 62
     7
  6
CONTINUOUS
  0
LAYER
  2
DEFPOINTS
 70
     0
 62
     7
  6
CONTINUOUS
  0
ENDTAB
  0
TABLE
  2
STYLE
 70
     4
  0
STYLE
  2
STANDARD
 70
     0
 40
0.0
 41
1.0
 50
0.0
 71
     0
 42
3.5
  3
txt
  4

  0
STYLE
  2
SIMPLEX
 70
     0
 40
0.0
 41
1.0
 50
0.0
 71
     0
 42
3.5
  3
simplex
  4

  0
STYLE
  2
COMPLEX
 70
     0
 40
0.0
 41
1.0
 50
0.0
 71
     0
 42
3.5
  3
complex
  4

  0
STYLE
  2
ITALIC
 70
     0
 40
0.0
 41
1.0
 50
0.0
 71
     0
 42
3.5
  3
italic
  4

  0
ENDTAB
  0
TABLE
  2
VIEW
 70
     0
  0
ENDTAB
  0
TABLE
  2
UCS
 70
     0
  0
ENDTAB
  0
TABLE
  2
APPID
 70
     3
  0
APPID
  2
ACAD
 70
     0
  0
APPID
  2
ACAD_NAV_VCDISPLAY
 70
     0
  0
APPID
  2
ACAD_MLEADERVER
 70
     0
  0
ENDTAB
  0
TABLE
  2
DIMSTYLE
 70
     7
  0
DIMSTYLE
  2
DMST_1
 70
     0
  3

  4

  5

  6

  7

 40
1.0
 41
2.5
 42
0.5
 43
7.0
 44
1.0
 45
0.0
 46
0.0
 47
0.0
 48
0.0
140
2.5
141
0.0
142
0.0
143
25.399999999999999
144
1.0
145
0.0
146
1.0
147
0.09
 71
     0
 72
     0
 73
     0
 74
     0
 75
     0
 76
     0
 77
     1
 78
     9
170
     0
171
     2
172
     0
173
     0
174
     0
175
     0
176
     2
177
     2
178
     2
  0
DIMSTYLE
  2
DMST_2
 70
     0
  3

  4

  5

  6

  7

 40
1.0
 41
2.5
 42
0.5
 43
7.0
 44
1.0
 45
0.0
 46
0.0
 47
0.6
 48
0.6
140
2.5
141
0.0
142
0.0
143
25.399999999999999
144
1.0
145
0.0
146
0.7
147
0.09
 71
     1
 72
     0
 73
     0
 74
     0
 75
     0
 76
     0
 77
     1
 78
     9
170
     0
171
     2
172
     0
173
     0
174
     0
175
     0
176
     2
177
     2
178
     2
  0
DIMSTYLE
  2
DMST_3
 70
     0
  3

  4

  5

  6

  7

 40
1.0
 41
0.3333333333333333
 42
0.0666666666666667
 43
7.0
 44
0.1333333333333333
 45
0.0
 46
0.0
 47
0.0
 48
0.0
140
0.3333333333333333
141
0.0
142
0.0
143
25.399999999999999
144
1.0
145
0.0
146
1.0
147
0.09
 71
     0
 72
     0
 73
     0
 74
     0
 75
     0
 76
     0
 77
     1
 78
     9
170
     0
171
     2
172
     0
173
     0
174
     0
175
     0
176
     2
177
     2
178
     2
  0
DIMSTYLE
  2
DMST_4
 70
     0
  3

  4

  5

  6

  7

 40
1.0
 41
0.3333333333333333
 42
0.0666666666666667
 43
7.0
 44
0.1333333333333333
 45
0.0
 46
0.0
 47
0.0
 48
0.0
140
0.3333333333333333
141
0.0
142
0.0
143
25.399999999999999
144
1.0
145
0.0
146
1.0
147
0.09
 71
     0
 72
     0
 73
     0
 74
     0
 75
     0
 76
     0
 77
     1
 78
     9
170
     0
171
     2
172
     0
173
     0
174
     0
175
     0
176
     2
177
     2
178
     2
  0
DIMSTYLE
  2
DMST_5
 70
     0
  3

  4

  5

  6

  7

 40
1.0
 41
0.3333333333333333
 42
0.0666666666666667
 43
7.0
 44
0.1333333333333333
 45
0.0
 46
0.0
 47
0.6
 48
0.6
140
0.3333333333333333
141
0.0
142
0.0
143
25.399999999999999
144
1.0
145
0.0
146
0.7
147
0.09
 71
     1
 72
     0
 73
     0
 74
     0
 75
     0
 76
     0
 77
     1
 78
     9
170
     0
171
     2
172
     0
173
     0
174
     0
175
     0
176
     2
177
     2
178
     2
  0
DIMSTYLE
  2
DMST_6
 70
     0
  3

  4

  5

  6

  7

 40
1.0
 41
0.3333333333333333
 42
0.0666666666666667
 43
7.0
 44
0.1333333333333333
 45
0.0
 46
0.0
 47
0.0
 48
0.0
140
0.3333333333333333
141
0.0
142
0.0
143
25.399999999999999
144
1.0
145
0.0
146
1.0
147
0.09
 71
     0
 72
     0
 73
     0
 74
     0
 75
     0
 76
     0
 77
     1
 78
     9
170
     0
171
     2
172
     0
173
     0
174
     1
175
     0
176
     2
177
     2
178
     2
  0
DIMSTYLE
  2
DMST_7
 70
     0
  3

  4

  5

  6

  7

 40
1.0
 41
0.3333333333333333
 42
0.0666666666666667
 43
7.0
 44
0.1333333333333333
 45
0.0
 46
0.0
 47
0.0
 48
0.0
140
0.3333333333333333
141
0.0
142
0.0
143
25.399999999999999
144
1.0
145
0.0
146
1.0
147
0.09
 71
     0
 72
     0
 73
     0
 74
     0
 75
     0
 76
     0
 77
     1
 78
     9
170
     0
171
     2
172
     1
173
     0
174
     0
175
     0
176
     2
177
     2
178
     2
  0
ENDTAB
  0
ENDSEC
  0
SECTION
  2
BLOCKS
  0
BLOCK
  8
0
  2
$MODEL_SPACE
 70
     0
 10
0.0
 20
0.0
 30
0.0
  3
$MODEL_SPACE
  1

  0
ENDBLK
  5
38
  8
0
  0
BLOCK
 67
     1
  8
0
  2
$PAPER_SPACE
 70
     0
 10
0.0
 20
0.0
 30
0.0
  3
$PAPER_SPACE
  1

  0
ENDBLK
  5
34
 67
     1
  8
0
  0
BLOCK
  8
0
  2
*X0
 70
     1
 10
0.0
 20
0.0
 30
0.0
  3
*X0
  1

  0
LINE
  5
54
  8
0
 62
     5
 10
-170.79166635056541
 20
-111.67753944336999
 30
0.0
 11
-169.4129912562818
 21
-110.2988643490864
 31
0.0
  0
LINE
  5
55
  8
0
 62
     5
 10
-170.8940240520773
 20
-111.921318501119
 30
0.0
 11
-168.98935208183019
 21
-110.01664653087209
 31
0.0
  0
LINE
  5
56
  8
0
 62
     5
 10
-170.84226024305681
 20
-112.01097604833581
 30
0.0
 11
-168.66110832145259
 21
-109.82982412673179
 31
0.0
  0
LINE
  5
57
  8
0
 62
     5
 10
-170.7904964340363
 20
-112.10063359555259
 30
0.0
 11
-168.37946257414501
 21
-109.6895997356615
 31
0.0
  0
LINE
  5
58
  8
0
 62
     5
 10
-170.73873262501581
 20
-112.1902911427694
 30
0.0
 11
-168.1273739184447
 21
-109.5789324361985
 31
0.0
  0
LINE
  5
59
  8
0
 62
     5
 10
-170.6869688159953
 20
-112.2799486899862
 30
0.0
 11
-167.89509657537221
 21
-109.4880764493634
 31
0.0
  0
LINE
  5
5A
  8
0
 62
     5
 10
-170.63520500697479
 20
-112.369606237203
 30
0.0
 11
-167.67833783152321
 21
-109.41273906175159
 31
0.0
  0
LINE
  5
5B
  8
0
 62
     5
 10
-170.58344119795419
 20
-112.4592637844198
 30
0.0
 11
-167.4740299085783
 21
-109.3498524950441
 31
0.0
  0
LINE
  5
5C
  8
0
 62
     5
 10
-170.5316773889337
 20
-112.54892133163661
 30
0.0
 11
-167.27990010790239
 21
-109.2971440506055
 31
0.0
  0
LINE
  5
5D
  8
0
 62
     5
 10
-170.47991357991319
 20
-112.63857887885339
 30
0.0
 11
-167.0942261654761
 21
-109.25289146441651
 31
0.0
  0
LINE
  5
5E
  8
0
 62
     5
 10
-170.4281497708927
 20
-112.7282364260702
 30
0.0
 11
-166.91567666653
 21
-109.2157633217077
 31
0.0
  0
LINE
  5
5F
  8
0
 62
     5
 10
-170.37638596187219
 20
-112.817893973287
 30
0.0
 11
-166.74381558109459
 21
-109.1853235925096
 31
0.0
  0
LINE
  5
60
  8
0
 62
     5
 10
-170.3246221528517
 20
-112.9075515205038
 30
0.0
 11
-166.57754648357411
 21
-109.16047585122639
 31
0.0
  0
LINE
  5
61
  8
0
 62
     5
 10
-170.27285834383119
 20
-112.9972090677206
 30
0.0
 11
-166.41636385212249
 21
-109.1407145760121
 31
0.0
  0
LINE
  5
62
  8
0
 62
     5
 10
-170.2210945348107
 20
-113.08686661493741
 30
0.0
 11
-166.25979299289759
 21
-109.1255650730245
 31
0.0
  0
LINE
  5
63
  8
0
 62
     5
 10
-170.1693307257901
 20
-113.17652416215419
 30
0.0
 11
-166.14305128416041
 21
-109.1502447205249
 31
0.0
  0
LINE
  5
64
  8
0
 62
     5
 10
-170.11756691676959
 20
-113.266181709371
 30
0.0
 11
-166.09128747513989
 21
-109.2399022677417
 31
0.0
  0
LINE
  5
65
  8
0
 62
     5
 10
-170.0658031077491
 20
-113.3558392565878
 30
0.0
 11
-166.03952366611941
 21
-109.3295598149585
 31
0.0
  0
LINE
  5
66
  8
0
 62
     5
 10
-170.01403929872859
 20
-113.4454968038046
 30
0.0
 11
-165.98775985709901
 21
-109.4192173621754
 31
0.0
  0
LINE
  5
67
  8
0
 62
     5
 10
-169.96227548970811
 20
-113.5351543510214
 30
0.0
 11
-165.93599604807849
 21
-109.5088749093922
 31
0.0
  0
LINE
  5
68
  8
0
 62
     5
 10
-169.91051168068759
 20
-113.62481189823821
 30
0.0
 11
-165.88423223905801
 21
-109.59853245660899
 31
0.0
  0
LINE
  5
69
  8
0
 62
     5
 10
-169.85874787166711
 20
-113.71446944545499
 30
0.0
 11
-165.83246843003749
 21
-109.6881900038258
 31
0.0
  0
LINE
  5
6A
  8
0
 62
     5
 10
-169.80698406264651
 20
-113.8041269926718
 30
0.0
 11
-165.78070462101701
 21
-109.7778475510426
 31
0.0
  0
LINE
  5
6B
  8
0
 62
     5
 10
-169.75522025362599
 20
-113.8937845398886
 30
0.0
 11
-165.72894081199649
 21
-109.8675050982594
 31
0.0
  0
LINE
  5
6C
  8
0
 62
     5
 10
-169.70345644460551
 20
-113.9834420871054
 30
0.0
 11
-165.67717700297601
 21
-109.9571626454763
 31
0.0
  0
LINE
  5
6D
  8
0
 62
     5
 10
-169.65169263558499
 20
-114.0730996343222
 30
0.0
 11
-165.62541319395561
 21
-110.0468201926931
 31
0.0
  0
LINE
  5
6E
  8
0
 62
     5
 10
-169.59992882656451
 20
-114.16275718153901
 30
0.0
 11
-165.57364938493509
 21
-110.13647773990991
 31
0.0
  0
LINE
  5
6F
  8
0
 62
     5
 10
-169.54816501754399
 20
-114.2524147287558
 30
0.0
 11
-165.52188557591461
 21
-110.2261352871267
 31
0.0
  0
LINE
  5
70
  8
0
 62
     5
 10
-169.49640120852351
 20
-114.3420722759726
 30
0.0
 11
-165.4701217668941
 21
-110.3157928343435
 31
0.0
  0
LINE
  5
71
  8
0
 62
     5
 10
-169.44463739950291
 20
-114.4317298231894
 30
0.0
 11
-165.41835795787361
 21
-110.4054503815603
 31
0.0
  0
LINE
  5
72
  8
0
 62
     5
 10
-169.3928735904824
 20
-114.5213873704063
 30
0.0
 11
-165.3665941488531
 21
-110.4951079287772
 31
0.0
  0
LINE
  5
73
  8
0
 62
     5
 10
-169.34110978146191
 20
-114.6110449176231
 30
0.0
 11
-165.31483033983261
 21
-110.584765475994
 31
0.0
  0
LINE
  5
74
  8
0
 62
     5
 10
-169.2893459724414
 20
-114.70070246483991
 30
0.0
 11
-165.2630665308121
 21
-110.67442302321081
 31
0.0
  0
LINE
  5
75
  8
0
 62
     5
 10
-169.23758216342091
 20
-114.79036001205669
 30
0.0
 11
-165.2113027217917
 21
-110.76408057042759
 31
0.0
  0
LINE
  5
76
  8
0
 62
     5
 10
-169.1858183544004
 20
-114.8800175592735
 30
0.0
 11
-165.1595389127711
 21
-110.8537381176444
 31
0.0
  0
LINE
  5
77
  8
0
 62
     5
 10
-169.13405454537991
 20
-114.9696751064903
 30
0.0
 11
-165.1077751037507
 21
-110.9433956648612
 31
0.0
  0
LINE
  5
78
  8
0
 62
     5
 10
-169.08229073635931
 20
-115.0593326537071
 30
0.0
 11
-165.0560112947301
 21
-111.0330532120781
 31
0.0
  0
LINE
  5
79
  8
0
 62
     5
 10
-169.0305269273388
 20
-115.1489902009239
 30
0.0
 11
-165.0042474857097
 21
-111.1227107592949
 31
0.0
  0
LINE
  5
7A
  8
0
 62
     5
 10
-168.97876311831831
 20
-115.23864774814071
 30
0.0
 11
-164.9524836766891
 21
-111.21236830651171
 31
0.0
  0
LINE
  5
7B
  8
0
 62
     5
 10
-168.9269993092978
 20
-115.3283052953575
 30
0.0
 11
-164.90071986766881
 21
-111.30202585372849
 31
0.0
  0
LINE
  5
7C
  8
0
 62
     5
 10
-169.05132514379781
 20
-115.5940524860949
 30
0.0
 11
-164.8489560586483
 21
-111.3916834009453
 31
0.0
  0
LINE
  5
7D
  8
0
 62
     5
 10
-169.2445103090557
 20
-115.9286590075901
 30
0.0
 11
-164.79719224962781
 21
-111.4813409481621
 31
0.0
  0
LINE
  5
7E
  8
0
 62
     5
 10
-169.43769547431361
 20
-116.2632655290852
 30
0.0
 11
-164.7454284406073
 21
-111.570998495379
 31
0.0
  0
LINE
  5
7F
  8
0
 62
     5
 10
-169.63088063957139
 20
-116.59787205058041
 30
0.0
 11
-164.69366463158681
 21
-111.6606560425958
 31
0.0
  0
LINE
  5
80
  8
0
 62
     5
 10
-169.8240658048293
 20
-116.9324785720755
 30
0.0
 11
-164.6419008225663
 21
-111.75031358981261
 31
0.0
  0
LINE
  5
81
  8
0
 62
     5
 10
-170.0172509700871
 20
-117.2670850935707
 30
0.0
 11
-164.59013701354581
 21
-111.83997113702939
 31
0.0
  0
LINE
  5
82
  8
0
 62
     5
 10
-170.21043613534499
 20
-117.6016916150659
 30
0.0
 11
-164.53837320452541
 21
-111.9296286842462
 31
0.0
  0
LINE
  5
83
  8
0
 62
     5
 10
-170.40362130060291
 20
-117.93629813656101
 30
0.0
 11
-164.4866093955049
 21
-112.019286231463
 31
0.0
  0
LINE
  5
84
  8
0
 62
     5
 10
-170.59680646586071
 20
-118.2709046580562
 30
0.0
 11
-164.43484558648441
 21
-112.1089437786799
 31
0.0
  0
LINE
  5
85
  8
0
 62
     5
 10
-170.7899916311186
 20
-118.6055111795513
 30
0.0
 11
-164.3830817774639
 21
-112.1986013258967
 31
0.0
  0
LINE
  5
86
  8
0
 62
     5
 10
-170.9075155132401
 20
-118.8644564179102
 30
0.0
 11
-164.33131796844339
 21
-112.28825887311351
 31
0.0
  0
LINE
  5
87
  8
0
 62
     5
 10
-170.84975982195229
 20
-118.9481220828597
 30
0.0
 11
-164.2795541594229
 21
-112.37791642033029
 31
0.0
  0
LINE
  5
88
  8
0
 62
     5
 10
-170.7908284357604
 20
-119.0306120529051
 30
0.0
 11
-164.22779035040239
 21
-112.4675739675471
 31
0.0
  0
LINE
  5
89
  8
0
 62
     5
 10
-170.73068553929261
 20
-119.11189051267471
 30
0.0
 11
-164.17602654138199
 21
-112.5572315147639
 31
0.0
  0
LINE
  5
8A
  8
0
 62
     5
 10
-170.66932997778679
 20
-119.1919563074061
 30
0.0
 11
-164.08088323008329
 21
-112.6035095597024
 31
0.0
  0
LINE
  5
8B
  8
0
 62
     5
 10
-170.60682351468481
 20
-119.27087120054139
 30
0.0
 11
-163.93946187384589
 21
-112.6035095597024
 31
0.0
  0
LINE
  5
8C
  8
0
 62
     5
 10
-170.54317323674681
 20
-119.3486422788407
 30
0.0
 11
-163.7980405176086
 21
-112.6035095597024
 31
0.0
  0
LINE
  5
8D
  8
0
 62
     5
 10
-170.47838519699499
 20
-119.4252755953263
 30
0.0
 11
-163.65661916137131
 21
-112.6035095597024
 31
0.0
  0
LINE
  5
8E
  8
0
 62
     5
 10
-170.4124644363134
 20
-119.50077619088199
 30
0.0
 11
-163.51519780513399
 21
-112.6035095597024
 31
0.0
  0
LINE
  5
8F
  8
0
 62
     5
 10
-170.3454150012908
 20
-119.5751481120966
 30
0.0
 11
-163.37377644889671
 21
-112.6035095597024
 31
0.0
  0
LINE
  5
90
  8
0
 62
     5
 10
-170.2772399584353
 20
-119.6483944254785
 30
0.0
 11
-163.23235509265939
 21
-112.6035095597024
 31
0.0
  0
LINE
  5
91
  8
0
 62
     5
 10
-170.2079414048568
 20
-119.7205172281373
 30
0.0
 11
-163.09093373642199
 21
-112.6035095597024
 31
0.0
  0
LINE
  5
92
  8
0
 62
     5
 10
-170.13752047548999
 20
-119.79151765500779
 30
0.0
 11
-162.9495123801847
 21
-112.6035095597024
 31
0.0
  0
LINE
  5
93
  8
0
 62
     5
 10
-170.06597734690931
 20
-119.8613958826644
 30
0.0
 11
-162.80809102394741
 21
-112.6035095597024
 31
0.0
  0
LINE
  5
94
  8
0
 62
     5
 10
-169.9933112377592
 20
-119.93015112975171
 30
0.0
 11
-162.6666696677101
 21
-112.6035095597024
 31
0.0
  0
LINE
  5
95
  8
0
 62
     5
 10
-169.9195132647601
 20
-119.99777451298991
 30
0.0
 11
-162.52524831147281
 21
-112.6035095597024
 31
0.0
  0
LINE
  5
96
  8
0
 62
     5
 10
-169.8444848773384
 20
-120.0641674818054
 30
0.0
 11
-162.38382695523549
 21
-112.6035095597024
 31
0.0
  0
LINE
  5
97
  8
0
 62
     5
 10
-169.7683264123942
 20
-120.1294303730985
 30
0.0
 11
-162.2424055989982
 21
-112.6035095597024
 31
0.0
  0
LINE
  5
98
  8
0
 62
     5
 10
-169.69103341654611
 20
-120.19355873348771
 30
0.0
 11
-162.1009842427608
 21
-112.6035095597024
 31
0.0
  0
LINE
  5
99
  8
0
 62
     5
 10
-169.61260043766319
 20
-120.25654711084211
 30
0.0
 11
-161.95956288652351
 21
-112.6035095597024
 31
0.0
  0
LINE
  5
9A
  8
0
 62
     5
 10
-169.53302100598381
 20
-120.3183890354001
 30
0.0
 11
-161.8181415302862
 21
-112.6035095597024
 31
0.0
  0
LINE
  5
9B
  8
0
 62
     5
 10
-169.45228761145071
 20
-120.37907699710431
 30
0.0
 11
-161.67672017404891
 21
-112.6035095597024
 31
0.0
  0
LINE
  5
9C
  8
0
 62
     5
 10
-169.37039167710441
 20
-120.4386024189953
 30
0.0
 11
-161.53529881781159
 21
-112.6035095597024
 31
0.0
  0
LINE
  5
9D
  8
0
 62
     5
 10
-169.28732352834871
 20
-120.4969556264769
 30
0.0
 11
-161.39387746157431
 21
-112.6035095597024
 31
0.0
  0
LINE
  5
9E
  8
0
 62
     5
 10
-169.20307235786751
 20
-120.5541258122329
 30
0.0
 11
-161.2524561053369
 21
-112.6035095597024
 31
0.0
  0
LINE
  5
9F
  8
0
 62
     5
 10
-169.11762618594119
 20
-120.61010099654401
 30
0.0
 11
-161.11103474909959
 21
-112.6035095597024
 31
0.0
  0
LINE
  5
A0
  8
0
 62
     5
 10
-169.03097181587131
 20
-120.6648679827114
 30
0.0
 11
-160.9696133928623
 21
-112.6035095597024
 31
0.0
  0
LINE
  5
A1
  8
0
 62
     5
 10
-168.9430947841812
 20
-120.7184123072586
 30
0.0
 11
-160.82819203662501
 21
-112.6035095597024
 31
0.0
  0
LINE
  5
A2
  8
0
 62
     5
 10
-168.8539793052189
 20
-120.77071818453371
 30
0.0
 11
-160.6867706803877
 21
-112.6035095597024
 31
0.0
  0
LINE
  5
A3
  8
0
 62
     5
 10
-168.76360820973349
 20
-120.8217684452855
 30
0.0
 11
-160.54534932415041
 21
-112.6035095597024
 31
0.0
  0
LINE
  5
A4
  8
0
 62
     5
 10
-168.67195207451809
 20
-120.8715336663075
 30
0.0
 11
-160.40392796791301
 21
-112.6035095597024
 31
0.0
  0
LINE
  5
A5
  8
0
 62
     5
 10
-168.5789572076562
 20
-120.9199601556828
 30
0.0
 11
-160.26250661167569
 21
-112.6035095597024
 31
0.0
  0
LINE
  5
A6
  8
0
 62
     5
 10
-168.48465301951919
 20
-120.9670773237832
 30
0.0
 11
-160.12340234053349
 21
-112.6058266447975
 31
0.0
  0
LINE
  5
A7
  8
0
 62
     5
 10
-168.38901665868181
 20
-121.0128623191831
 30
0.0
 11
-160.0776683804701
 21
-112.7015140409714
 31
0.0
  0
LINE
  5
A8
  8
0
 62
     5
 10
-168.29202352793359
 20
-121.0572905446722
 30
0.0
 11
-160.033240154981
 21
-112.79850717171961
 31
0.0
  0
LINE
  5
A9
  8
0
 62
     5
 10
-168.1936471800872
 20
-121.1003355530631
 30
0.0
 11
-159.99019514659011
 21
-112.896883519566
 31
0.0
  0
LINE
  5
AA
  8
0
 62
     5
 10
-168.0938592034741
 20
-121.14196893268731
 30
0.0
 11
-159.9485617669659
 21
-112.9966714961791
 31
0.0
  0
LINE
  5
AB
  8
0
 62
     5
 10
-167.99262909611321
 20
-121.1821601815637
 30
0.0
 11
-159.90837051808961
 21
-113.09790160354009
 31
0.0
  0
LINE
  5
AC
  8
0
 62
     5
 10
-167.8899241274049
 20
-121.22087656909289
 30
0.0
 11
-159.86965413056029
 21
-113.2006065722482
 31
0.0
  0
LINE
  5
AD
  8
0
 62
     5
 10
-167.78570918606081
 20
-121.258082983986
 30
0.0
 11
-159.83244771566731
 21
-113.3048215135924
 31
0.0
  0
LINE
  5
AE
  8
0
 62
     5
 10
-167.67994661280491
 20
-121.2937417669673
 30
0.0
 11
-159.7967889326859
 21
-113.4105840868483
 31
0.0
  0
LINE
  5
AF
  8
0
 62
     5
 10
-167.57259601620311
 20
-121.3278125266029
 30
0.0
 11
-159.76271817305039
 21
-113.51793468345021
 31
0.0
  0
LINE
  5
B0
  8
0
 62
     5
 10
-167.46361406974771
 20
-121.3602519363848
 30
0.0
 11
-159.7302787632685
 21
-113.62691662990559
 31
0.0
  0
LINE
  5
B1
  8
0
 62
     5
 10
-164.06545033682821
 20
-118.1035095597024
 30
0.0
 11
-159.69954224615799
 21
-113.7376014690324
 31
0.0
  0
LINE
  5
B2
  8
0
 62
     5
 10
-167.35292923062099
 20
-121.3909884534953
 30
0.0
 11
-164.26385946083349
 21
-118.3019186837077
 31
0.0
  0
LINE
  5
B3
  8
0
 62
     5
 10
-163.92402898059089
 20
-118.1035095597024
 30
0.0
 11
-159.67060990799069
 21
-113.85009048710241
 31
0.0
  0
LINE
  5
B4
  8
0
 62
     5
 10
-167.24044021255099
 20
-121.4199207916627
 30
0.0
 11
-164.45704462609109
 21
-118.6365252052026
 31
0.0
  0
LINE
  5
B5
  8
0
 62
     5
 10
-163.7826076243536
 20
-118.1035095597024
 30
0.0
 11
-159.64348009367461
 21
-113.9643820290237
 31
0.0
  0
LINE
  5
B6
  8
0
 62
     5
 10
-167.1261486706297
 20
-121.4470506059787
 30
0.0
 11
-164.65022979134881
 21
-118.97113172669761
 31
0.0
  0
LINE
  5
B7
  8
0
 62
     5
 10
-163.64118626811629
 20
-118.1035095597024
 30
0.0
 11
-159.61821239883761
 21
-114.080535690424
 31
0.0
  0
LINE
  5
B8
  8
0
 62
     5
 10
-167.00999500922941
 20
-121.4723183008157
 30
0.0
 11
-164.84341495660641
 21
-119.3057382481926
 31
0.0
  0
LINE
  5
B9
  8
0
 62
     5
 10
-163.49976491187891
 20
-118.1035095597024
 30
0.0
 11
-159.59487095527069
 21
-114.1986156030943
 31
0.0
  0
LINE
  5
BA
  8
0
 62
     5
 10
-166.89191509655899
 20
-121.49565974438261
 30
0.0
 11
-165.0366001218641
 21
-119.6403447696876
 31
0.0
  0
LINE
  5
BB
  8
0
 62
     5
 10
-163.3583435556416
 20
-118.1035095597024
 30
0.0
 11
-159.57352482969389
 21
-114.3186908337548
 31
0.0
  0
LINE
  5
BC
  8
0
 62
     5
 10
-166.77183986589861
 20
-121.5170058699595
 30
0.0
 11
-165.22978528712181
 21
-119.97495129118261
 31
0.0
  0
LINE
  5
BD
  8
0
 62
     5
 10
-163.21692219940431
 20
-118.1035095597024
 30
0.0
 11
-159.55424846778931
 21
-114.4408358280876
 31
0.0
  0
LINE
  5
BE
  8
0
 62
     5
 10
-166.64969487156591
 20
-121.53628223186411
 30
0.0
 11
-165.42297045237939
 21
-120.3095578126776
 31
0.0
  0
LINE
  5
BF
  8
0
 62
     5
 10
-163.07550084316699
 20
-118.1035095597024
 30
0.0
 11
-159.53712218950031
 21
-114.5651309060358
 31
0.0
  0
LINE
  5
C0
  8
0
 62
     5
 10
-166.52539979361771
 20
-121.5534085101532
 30
0.0
 11
-165.61615561763711
 21
-120.6441643341726
 31
0.0
  0
LINE
  5
C1
  8
0
 62
     5
 10
-162.9340794869297
 20
-118.1035095597024
 30
0.0
 11
-159.52223274252901
 21
-114.6916628153018
 31
0.0
  0
LINE
  5
C2
  8
0
 62
     5
 10
-166.39886788435169
 20
-121.5682979571245
 30
0.0
 11
-165.80934078289471
 21
-120.97877085566761
 31
0.0
  0
LINE
  5
C3
  8
0
 62
     5
 10
-162.79265813069239
 20
-118.1035095597024
 30
0.0
 11
-159.50986531976901
 21
-114.8207167487792
 31
0.0
  0
LINE
  5
C4
  8
0
 62
     5
 10
-166.26981395087441
 20
-121.58066537988461
 30
0.0
 11
-166.0025259481524
 21
-121.3133773771626
 31
0.0
  0
LINE
  5
C5
  8
0
 62
     5
 10
-162.65123677445499
 20
-118.1035095597024
 30
0.0
 11
-159.500113991799
 21
-114.9523867770465
 31
0.0
  0
LINE
  5
C6
  8
0
 62
     5
 10
-162.50981541821761
 20
-118.1035095597024
 30
0.0
 11
-159.4929563823776
 21
-115.0866505238624
 31
0.0
  0
LINE
  5
C7
  8
0
 62
     5
 10
-162.36839406198041
 20
-118.1035095597024
 30
0.0
 11
-159.48851768200879
 21
-115.2236331797309
 31
0.0
  0
LINE
  5
C8
  8
0
 62
     5
 10
-162.22697270574309
 20
-118.1035095597024
 30
0.0
 11
-159.48710960331499
 21
-115.3636464572745
 31
0.0
  0
LINE
  5
C9
  8
0
 62
     5
 10
-162.08555134950581
 20
-118.1035095597024
 30
0.0
 11
-159.48913857227879
 21
-115.5070967824755
 31
0.0
  0
LINE
  5
CA
  8
0
 62
     5
 10
-161.94412999326849
 20
-118.1035095597024
 30
0.0
 11
-159.49441582793261
 21
-115.6537953943667
 31
0.0
  0
LINE
  5
CB
  8
0
 62
     5
 10
-161.8027086370312
 20
-118.1035095597024
 30
0.0
 11
-159.5034041199275
 21
-115.8042050425988
 31
0.0
  0
LINE
  5
CC
  8
0
 62
     5
 10
-161.6612872807938
 20
-118.1035095597024
 30
0.0
 11
-159.51664245329511
 21
-115.95886473220369
 31
0.0
  0
LINE
  5
CD
  8
0
 62
     5
 10
-161.51986592455651
 20
-118.1035095597024
 30
0.0
 11
-159.53391976740241
 21
-116.1175634025483
 31
0.0
  0
LINE
  5
CE
  8
0
 62
     5
 10
-161.3784445683192
 20
-118.1035095597024
 30
0.0
 11
-159.5565555855884
 21
-116.2816205769718
 31
0.0
  0
LINE
  5
CF
  8
0
 62
     5
 10
-161.23702321208191
 20
-118.1035095597024
 30
0.0
 11
-159.58416772933549
 21
-116.4506540769561
 31
0.0
  0
LINE
  5
D0
  8
0
 62
     5
 10
-161.09560185584459
 20
-118.1035095597024
 30
0.0
 11
-159.61811959891111
 21
-116.626027302769
 31
0.0
  0
LINE
  5
D1
  8
0
 62
     5
 10
-160.9541804996073
 20
-118.1035095597024
 30
0.0
 11
-159.65892391711989
 21
-116.8082529772151
 31
0.0
  0
LINE
  5
D2
  8
0
 62
     5
 10
-160.8127591433699
 20
-118.1035095597024
 30
0.0
 11
-159.70750868069251
 21
-116.998259097025
 31
0.0
  0
LINE
  5
D3
  8
0
 62
     5
 10
-160.67133778713259
 20
-118.1035095597024
 30
0.0
 11
-159.76539155837051
 21
-117.1975633309403
 31
0.0
  0
LINE
  5
D4
  8
0
 62
     5
 10
-160.5299164308953
 20
-118.1035095597024
 30
0.0
 11
-159.8345548550445
 21
-117.40814798385161
 31
0.0
  0
LINE
  5
D5
  8
0
 62
     5
 10
-160.3884950746579
 20
-118.1035095597024
 30
0.0
 11
-159.9176432615869
 21
-117.63265774663139
 31
0.0
  0
LINE
  5
D6
  8
0
 62
     5
 10
-160.24707371842069
 20
-118.1035095597024
 30
0.0
 11
-160.01827192258941
 21
-117.8747077638712
 31
0.0
  0
ENDBLK
  5
D7
  8
0
  0
BLOCK
  8
0
  2
TB_FRAME_A3
 70
     0
 10
192.5563077984788
 20
-122.8451736277903
 30
0.0
  3
TB_FRAME_A3
  1

  0
INSERT
  5
DA
  8
0
  2
*X0
 10
0.0
 20
0.0
 30
0.0
  0
LINE
  5
DB
  8
1
 62
     2
 10
-172.913142936177
 20
-109.0990362916552
 30
0.0
 11
-172.913142936177
 21
-121.6249651598873
 31
0.0
  0
LINE
  5
DC
  8
1
 62
     4
 10
-157.26181209252911
 20
-107.8788278237523
 30
0.0
 11
-157.26181209252911
 21
-122.8451736277903
 31
0.0
  0
LINE
  5
DD
  8
1
 62
     5
 10
-170.92483404043841
 20
-118.8390650835083
 30
0.0
 11
-168.91244762049351
 21
-115.3535095597024
 31
0.0
  0
LINE
  5
DE
  8
1
 62
     5
 10
-168.91244762049351
 20
-115.3535095597024
 30
0.0
 11
-170.92483404043841
 21
-111.8679540358965
 31
0.0
  0
LINE
  5
DF
  8
1
 62
     5
 10
-160.12453505978931
 20
-118.1035095597024
 30
0.0
 11
-164.1493078996792
 21
-118.1035095597024
 31
0.0
  0
LINE
  5
E0
  8
1
 62
     5
 10
-164.1493078996792
 20
-118.1035095597024
 30
0.0
 11
-166.16169431962331
 21
-121.5890650835083
 31
0.0
  0
LINE
  5
E1
  8
1
 62
     5
 10
-164.1493078996792
 20
-112.6035095597024
 30
0.0
 11
-160.12453505978931
 21
-112.6035095597024
 31
0.0
  0
LINE
  5
E2
  8
1
 62
     5
 10
-166.16169431962331
 20
-109.1179540358965
 30
0.0
 11
-164.1493078996792
 21
-112.6035095597024
 31
0.0
  0
LINE
  5
E3
  8
1
 62
     2
 10
-204.37174831597821
 20
-121.6249651598873
 30
0.0
 11
-204.37174831597821
 21
-109.0990362916551
 31
0.0
  0
LINE
  5
E4
  8
1
 62
     1
 10
-193.4436922015212
 20
57.154826372209833
 30
0.0
 11
-206.4436922015212
 21
57.154826372209712
 31
0.0
  0
LINE
  5
E5
  8
1
 62
     4
 10
60.556307798478791
 20
148.15482637221001
 30
0.0
 11
60.556307798478791
 21
138.15482637221001
 31
0.0
  0
LINE
  5
E6
  8
1
 62
     1
 10
64.556307798478997
 20
-107.8788278237523
 30
0.0
 11
64.556307798478997
 21
-122.8451736277903
 31
0.0
  0
LINE
  5
E7
  8
1
 62
     1
 10
192.5563077984788
 20
148.15482637221001
 30
0.0
 11
192.5563077984788
 21
-122.8451736277903
 31
0.0
  0
LINE
  5
E8
  8
1
 62
     1
 10
192.5563077984788
 20
-122.8451736277903
 30
0.0
 11
-206.4436922015212
 21
-122.8451736277903
 31
0.0
  0
LINE
  5
E9
  8
1
 62
     1
 10
-206.4436922015212
 20
-122.8451736277903
 30
0.0
 11
-206.4436922015212
 21
148.15482637221021
 31
0.0
  0
LINE
  5
EA
  8
1
 62
     4
 10
-190.4436922015212
 20
138.15482637221001
 30
0.0
 11
-190.4436922015212
 21
148.15482637221001
 31
0.0
  0
LINE
  5
EB
  8
1
 62
     4
 10
-206.4436922015212
 20
-78.345173627790274
 30
0.0
 11
-193.4436922015212
 21
-78.345173627790274
 31
0.0
  0
LINE
  5
EC
  8
1
 62
     4
 10
-206.4436922015212
 20
-63.84517362779026
 30
0.0
 11
-193.4436922015212
 21
-63.84517362779026
 31
0.0
  0
LINE
  5
ED
  8
1
 62
     4
 10
-206.4436922015212
 20
-50.345173627790288
 30
0.0
 11
-193.4436922015212
 21
-50.345173627790288
 31
0.0
  0
LINE
  5
EE
  8
1
 62
     4
 10
-206.4436922015212
 20
-36.845173627790288
 30
0.0
 11
-193.4436922015212
 21
-36.845173627790288
 31
0.0
  0
LINE
  5
EF
  8
1
 62
     4
 10
-101.4436922015212
 20
138.15482637221001
 30
0.0
 11
-101.4436922015212
 21
148.15482637221001
 31
0.0
  0
LINE
  5
F0
  8
1
 62
     4
 10
-162.9436922015212
 20
143.15482637220919
 30
0.0
 11
-162.9436922015212
 21
138.15482637221001
 31
0.0
  0
LINE
  5
F1
  8
1
 62
     1
 10
-206.4436922015212
 20
138.15482637221001
 30
0.0
 11
192.5563077984788
 21
138.15482637221001
 31
0.0
  0
LINE
  5
F2
  8
1
 62
     4
 10
-136.4436922015212
 20
138.15482637221001
 30
0.0
 11
-136.4436922015212
 21
148.15482637221001
 31
0.0
  0
LINE
  5
F3
  8
1
 62
     4
 10
-101.4436922015212
 20
143.15482637221001
 30
0.0
 11
-190.4436922015212
 21
143.15482637221001
 31
0.0
  0
LINE
  5
F4
  8
1
 62
     4
 10
-67.443692201521074
 20
148.15482637221001
 30
0.0
 11
-67.443692201521074
 21
138.15482637221001
 31
0.0
  0
LINE
  5
F5
  8
1
 62
     1
 10
-206.4436922015212
 20
148.15482637221021
 30
0.0
 11
192.5563077984788
 21
148.15482637221001
 31
0.0
  0
LINE
  5
F6
  8
1
 62
     4
 10
70.556307798478798
 20
148.15482637221001
 30
0.0
 11
70.556307798478798
 21
138.15482637221001
 31
0.0
  0
LINE
  5
F7
  8
1
 62
     4
 10
88.556307798478798
 20
148.15482637221001
 30
0.0
 11
88.556307798478798
 21
138.15482637221001
 31
0.0
  0
LINE
  5
F8
  8
1
 62
     4
 10
110.5563077984788
 20
148.15482637221001
 30
0.0
 11
110.5563077984788
 21
138.15482637221001
 31
0.0
  0
LINE
  5
F9
  8
1
 62
     4
 10
127.5563077984788
 20
148.15482637221001
 30
0.0
 11
127.5563077984788
 21
138.15482637221001
 31
0.0
  0
LINE
  5
FA
  8
1
 62
     4
 10
143.5563077984788
 20
148.15482637221001
 30
0.0
 11
143.5563077984788
 21
138.15482637221001
 31
0.0
  0
LINE
  5
FB
  8
1
 62
     4
 10
-63.443692201521088
 20
-122.8451736277903
 30
0.0
 11
-63.443692201521088
 21
-112.8451736277903
 31
0.0
  0
LINE
  5
FC
  8
1
 62
     4
 10
-63.443692201521088
 20
-117.8451736277903
 30
0.0
 11
64.556307798478997
 21
-117.8451736277903
 31
0.0
  0
LINE
  5
FD
  8
1
 62
     4
 10
-87.443692201521216
 20
-122.8451736277903
 30
0.0
 11
-87.443692201521216
 21
-107.8788278237523
 31
0.0
  0
LINE
  5
FE
  8
1
 62
     4
 10
-157.26181209252911
 20
-117.8451736277903
 30
0.0
 11
-87.443692201521216
 21
-117.8451736277903
 31
0.0
  0
LINE
  5
FF
  8
1
 62
     4
 10
-122.2618120925291
 20
-112.8451736277903
 30
0.0
 11
-122.2618120925291
 21
-122.8451736277903
 31
0.0
  0
LINE
  5
100
  8
1
 62
     4
 10
-31.44369220152112
 20
-112.8451736277903
 30
0.0
 11
-31.44369220152112
 21
-122.8451736277903
 31
0.0
  0
LINE
  5
101
  8
1
 62
     4
 10
-157.26181209252911
 20
-107.8788278237523
 30
0.0
 11
-157.26181209252911
 21
-122.8451736277903
 31
0.0
  0
LINE
  5
102
  8
1
 62
     1
 10
-193.4436922015212
 20
138.15482637221001
 30
0.0
 11
-193.4436922015212
 21
-107.8788278237523
 31
0.0
  0
LINE
  5
103
  8
1
 62
     1
 10
-206.4436922015212
 20
-107.8788278237523
 30
0.0
 11
64.556307798478997
 21
-107.8788278237523
 31
0.0
  0
LINE
  5
104
  8
1
 62
     1
 10
-206.4436922015212
 20
0.1643631569511221
 30
0.0
 11
-193.4436922015212
 21
0.1643631569511221
 31
0.0
  0
LINE
  5
105
  8
1
 62
     4
 10
-206.4436922015212
 20
-23.345173627790292
 30
0.0
 11
-193.4436922015212
 21
-23.345173627790292
 31
0.0
  0
LINE
  5
106
  8
1
 62
     4
 10
-206.4436922015212
 20
-9.8451736277902864
 30
0.0
 11
-193.4436922015212
 21
-9.8451736277902864
 31
0.0
  0
LINE
  5
107
  8
1
 62
     1
 10
-206.4436922015212
 20
-91.845173627790246
 30
0.0
 11
-193.4436922015212
 21
-91.845173627790246
 31
0.0
  0
LINE
  5
108
  8
1
 62
     4
 10
-13.44369220152112
 20
-107.8788278237523
 30
0.0
 11
-13.44369220152112
 21
-112.8451736277903
 31
0.0
  0
LINE
  5
109
  8
1
 62
     4
 10
0.5563077984788835
 20
-112.8451736277902
 30
0.0
 11
0.5563077984788835
 21
-122.8451736277904
 31
0.0
  0
LINE
  5
10A
  8
1
 62
     4
 10
32.556307798478883
 20
-122.8451736277903
 30
0.0
 11
32.556307798478883
 21
-107.8788278237523
 31
0.0
  0
LINE
  5
10B
  8
1
 62
     4
 10
-157.26181209252911
 20
-112.8451736277903
 30
0.0
 11
64.556307798478997
 21
-112.8451736277903
 31
0.0
  0
ARC
  5
10C
  8
1
 62
     5
 10
-165.73702113994941
 20
-115.3535095597024
 30
0.0
 40
6.250000000000048
 50
93.896118862666071
 51
146.10388113734669
  0
ARC
  5
10D
  8
1
 62
     5
 10
-165.73702113994941
 20
-115.3535095597024
 30
0.0
 40
6.2500000000011173
 50
213.89611886265331
 51
266.10388113733387
  0
ARC
  5
10E
  8
1
 62
     5
 10
-165.73702113994941
 20
-115.3535095597024
 30
0.0
 40
6.2499999999992673
 50
333.89611886265681
 51
26.103881137343201
  0
TEXT
  5
10F
  8
1
 62
     2
 10
-202.65945184865441
 20
-121.2620007257712
 30
0.0
 40
2.7999999999999989
  1
PRESSPRODUKTE
 41
0.7200000000000002
  7
COMPLEX
 11
-202.65945184865441
 21
-119.8620007257712
 31
0.0
 73
     2
  0
TEXT
  5
110
  8
1
 62
     2
 10
-202.65945184865441
 20
-112.2620007257712
 30
0.0
 40
2.7999999999999989
  1
ALU MENZIKEN
 41
0.7200000000000002
  7
COMPLEX
 11
-202.65945184865441
 21
-110.8620007257712
 31
0.0
 73
     2
  0
TEXT
  5
111
  8
1
 62
     2
 10
-202.65945184865441
 20
-116.7620007257712
 30
0.0
 40
2.7999999999999989
  1
INDUSTRIE AG
 41
0.7200000000000002
  7
COMPLEX
 11
-202.65945184865441
 21
-115.3620007257712
 31
0.0
 73
     2
  0
TEXT
  5
112
  8
1
 62
     4
 10
-205.64369220152119
 20
144.35482637221
 30
0.0
 40
2.0
  1
Produkte
 41
0.9
  0
TEXT
  5
113
  8
1
 62
     4
 10
-205.64369220152119
 20
139.95482637220999
 30
0.0
 40
2.0
  1
Code
 41
0.9
  0
TEXT
  5
114
  8
1
 62
     4
 10
-201.4436922015212
 20
-90.333361479226653
 30
0.0
 40
2.0
  1
cm
 41
0.9
 72
     1
 11
-199.94369220152109
 21
-89.333361479226653
 31
0.0
 73
     2
  0
TEXT
  5
115
  8
1
 62
     4
 10
-200.84369220152121
 20
-81.857232333400546
 30
0.0
 40
2.0
  1
iy
 41
0.9
 72
     1
 11
-199.94369220152109
 21
-80.857232333400546
 31
0.0
 73
     2
  0
TEXT
  5
116
  8
1
 62
     4
 10
-202.1936922015212
 20
-75.854956969578339
 30
0.0
 40
2.0
  1
cm\U+FFF3
 41
0.9
 72
     1
 11
-199.94369220152109
 21
-74.854956969578325
 31
0.0
 73
     2
  0
TEXT
  5
117
  8
1
 62
     4
 10
-201.74369220152121
 20
-67.378827823752275
 30
0.0
 40
2.0
  1
Wy
 41
0.9
 72
     1
 11
-199.94369220152109
 21
-66.378827823752275
 31
0.0
 73
     2
  0
TEXT
  5
118
  8
1
 62
     4
 10
-202.1936922015212
 20
-62.344159224402567
 30
0.0
 40
2.0
  1
cm\U+FFF4
 41
0.9
 72
     1
 11
-199.94369220152109
 21
-61.344159224402581
 31
0.0
 73
     2
  0
TEXT
  5
119
  8
1
 62
     4
 10
-201.4436922015212
 20
-48.833361479226667
 30
0.0
 40
2.0
  1
cm
 41
0.9
 72
     1
 11
-199.94369220152109
 21
-47.833361479226667
 31
0.0
 73
     2
  0
TEXT
  5
11A
  8
1
 62
     4
 10
-202.1936922015212
 20
-35.322563734050789
 30
0.0
 40
2.0
  1
cm\U+FFF3
 41
0.9
 72
     1
 11
-199.94369220152109
 21
-34.322563734050789
 31
0.0
 73
     2
  0
TEXT
  5
11B
  8
1
 62
     4
 10
-202.1936922015212
 20
-21.811765988875081
 30
0.0
 40
2.0
  1
cm\U+FFF4
 41
0.9
 72
     1
 11
-199.94369220152109
 21
-20.811765988875081
 31
0.0
 73
     2
  0
TEXT
  5
11C
  8
1
 62
     4
 10
-203.24369220152121
 20
-2.390405235419625
 30
0.0
 40
1.5000000000000011
  1
Diese Zeichnung darf ohne unsere schriftliche
 50
90.0
 41
0.9
  0
TEXT
  5
11D
  8
1
 62
     4
 10
-200.5436922015212
 20
-2.390405235419625
 30
0.0
 40
1.5000000000000011
  1
Genehmigung weder kopiert noch vervielfÌltigt,
 50
90.0
 41
0.9
  0
TEXT
  5
11E
  8
1
 62
     4
 10
-197.84369220152121
 20
-2.390405235419625
 30
0.0
 40
1.5000000000000011
  1
  auch niemals dritten Personen mitgeteilt
 50
90.0
 41
0.9
  0
TEXT
  5
11F
  8
1
 62
     4
 10
-195.14369220152119
 20
-2.390405235419625
 30
0.0
 40
1.5000000000000011
  1
     oder zugÌnglich gemacht werden
 50
90.0
 41
0.9
  0
TEXT
  5
120
  8
1
 62
     4
 10
50.556307798478883
 20
-111.3451736277903
 30
0.0
 40
2.0
  1
Fz
 41
0.9
 11
50.556307798478883
 21
-110.3451736277903
 31
0.0
 73
     2
  0
TEXT
  5
121
  8
1
 62
     4
 10
34.770942615693372
 20
-111.3451736277903
 30
0.0
 40
2.0
  1
U
 41
0.9
 11
34.770942615693372
 21
-110.3451736277903
 31
0.0
 73
     2
  0
TEXT
  5
122
  8
1
 62
     4
 10
129.25630779847879
 20
144.15482637221001
 30
0.0
 40
2.0
  1
Gew.Kg/m
 41
0.9
 72
     1
 11
135.5563077984788
 21
146.15482637221001
 31
0.0
 73
     3
  0
TEXT
  5
123
  8
1
 62
     4
 10
111.8563077984788
 20
144.15482637221001
 30
0.0
 40
2.0
  1
Min.Mat.St.
 41
0.9
 72
     1
 11
119.0563077984788
 21
146.15482637221001
 31
0.0
 73
     3
  0
TEXT
  5
124
  8
1
 62
     4
 10
90.106307798478795
 20
144.15482637221001
 30
0.0
 40
2.0
  1
Preis-Klasse
 41
0.9
 72
     1
 11
99.556307798478784
 21
146.15482637221001
 31
0.0
 73
     3
  0
TEXT
  5
125
  8
1
 62
     4
 10
-84.743692201518712
 20
-111.3451736277903
 30
0.0
 40
2.0
  1
Legierung:
 41
0.9
 11
-84.743692201518712
 21
-110.3451736277903
 31
0.0
 73
     2
  0
TEXT
  5
126
  8
1
 62
     4
 10
76.556307798478784
 20
139.65482637221001
 30
0.0
 40
2.0
  1
i.
 41
0.9
 11
76.556307798478784
 21
140.65482637221001
 31
0.0
 73
     2
  0
TEXT
  5
127
  8
1
 62
     4
 10
76.056307798478571
 20
144.45482637220999
 30
0.0
 40
2.0
  1
a.
 41
0.9
 72
     1
 11
76.956307798478576
 21
145.45482637220999
 31
0.0
 73
     2
  0
TEXT
  5
128
  8
1
 62
     4
 10
74.056307798478784
 20
140.45482637220999
 30
0.0
 40
2.0
  1
Abw.
 50
90.0
 41
0.9
 72
     1
 11
72.056307798478784
 21
143.15482637221001
 31
0.0
 73
     3
  0
TEXT
  5
129
  8
1
 62
     4
 10
-155.26181209252911
 20
-111.3451736277903
 30
0.0
 40
2.0
  1
Kunden Zchg.Nr.
 41
0.9
 11
-155.26181209252911
 21
-110.3451736277903
 31
0.0
 73
     2
  0
TEXT
  5
12A
  8
1
 62
     4
 10
-134.4436922015212
 20
139.65482637221001
 30
0.0
 40
2.0
  1
Mst:
 41
0.9
 11
-134.4436922015212
 21
140.65482637221001
 31
0.0
 73
     2
  0
TEXT
  5
12B
  8
1
 62
     4
 10
-160.44369220152109
 20
139.65482637221001
 30
0.0
 40
2.0
  1
Mat.St: %%p
 41
0.9
 11
-160.44369220152109
 21
140.65482637221001
 31
0.0
 73
     2
  0
TEXT
  5
12C
  8
1
 62
     4
 10
-187.9436922015212
 20
139.65482637221001
 30
0.0
 40
2.0
  1
Breiten: %%p
 41
0.9
 11
-187.9436922015212
 21
140.65482637221001
 31
0.0
 73
     2
  0
TEXT
  5
12D
  8
1
 62
     4
 10
-99.743692201521185
 20
144.35482637221
 30
0.0
 40
2.0
  1
Unbemasste Kanten
 41
0.9
  0
TEXT
  5
12E
  8
1
 62
     4
 10
-99.743692201521185
 20
139.95482637220999
 30
0.0
 40
2.0
  1
gerundet mit R
 41
0.9
  0
TEXT
  5
12F
  8
1
 62
     4
 10
-134.84369220152121
 20
144.65482637221001
 30
0.0
 40
2.0
  1
(1)=Ergaenzungsmass
 41
0.9
 72
     1
 11
-118.9436922015212
 21
145.65482637221001
 31
0.0
 73
     2
  0
TEXT
  5
130
  8
1
 62
     4
 10
-190.4436922015212
 20
144.65482637221001
 30
0.0
 40
2.0
  1
Toleranz fuer untolerierte Masse
 41
0.9
 72
     1
 11
-163.44369220152109
 21
145.65482637221001
 31
0.0
 73
     2
  0
TEXT
  5
131
  8
1
 62
     4
 10
-85.043692201521083
 20
-118.8451736277903
 30
0.0
 40
2.0
  1
Aenderungen
 41
0.9
 72
     1
 11
-75.443692201521088
 21
-117.8451736277903
 31
0.0
 73
     2
  0
TEXT
  5
132
  8
1
 62
     4
 10
-120.2618120925291
 20
-121.3451736277903
 30
0.0
 40
2.0
  1
Gepr.
 41
0.9
 11
-120.2618120925291
 21
-120.3451736277903
 31
0.0
 73
     2
  0
TEXT
  5
133
  8
1
 62
     4
 10
-120.2618120925291
 20
-116.3451736277903
 30
0.0
 40
2.0
  1
Gez.
 41
0.9
 11
-120.2618120925291
 21
-115.3451736277903
 31
0.0
 73
     2
  0
TEXT
  5
134
  8
1
 62
     4
 10
-155.26181209252911
 20
-121.3451736277903
 30
0.0
 40
2.0
  1
Best. Dat.
 41
0.9
 11
-155.26181209252911
 21
-120.3451736277903
 31
0.0
 73
     2
  0
TEXT
  5
135
  8
1
 62
     4
 10
-155.26181209252911
 20
-116.3451736277903
 30
0.0
 40
2.0
  1
Kunden No.
 41
0.9
 11
-155.26181209252911
 21
-115.3451736277903
 31
0.0
 73
     2
  0
TEXT
  5
136
  8
1
 62
     4
 10
-201.4436922015212
 20
-13.335636843048871
 30
0.0
 40
2.0
  1
Jx
 41
0.9
 72
     1
 11
-199.94369220152109
 21
-12.335636843048871
 31
0.0
 73
     2
  0
TEXT
  5
137
  8
1
 62
     4
 10
-204.4436922015212
 20
-7.5533098899985758
 30
0.0
 40
2.0
  1
Werte
 41
0.9
 72
     1
 11
-199.94369220152109
 21
-6.5533098899985758
 31
0.0
 73
     2
  0
TEXT
  5
138
  8
1
 62
     4
 10
-206.06369220152121
 20
-3.928353621286778
 30
0.0
 40
2.0
  1
Statische
 41
0.7650000000000001
 72
     1
 11
-199.94369220152109
 21
-2.928353621286778
 31
0.0
 73
     2
  0
TEXT
  5
139
  8
1
 62
     4
 10
-201.74369220152121
 20
-26.846434588224682
 30
0.0
 40
2.0
  1
Wx
 41
0.9
 72
     1
 11
-199.94369220152109
 21
-25.846434588224682
 31
0.0
 73
     2
  0
TEXT
  5
13A
  8
1
 62
     4
 10
-200.84369220152121
 20
-40.357232333400603
 30
0.0
 40
2.0
  1
ix
 41
0.9
 72
     1
 11
-199.94369220152109
 21
-39.357232333400589
 31
0.0
 73
     2
  0
TEXT
  5
13B
  8
1
 62
     4
 10
-201.4436922015212
 20
-53.868030078576467
 30
0.0
 40
2.0
  1
Jy
 41
0.9
 72
     1
 11
-199.94369220152109
 21
-52.86803007857646
 31
0.0
 73
     2
  0
TEXT
  5
13C
  8
1
 62
     4
 10
-203.24369220152121
 20
-95.434334435585669
 30
0.0
 40
2.0
  1
Mess
 41
0.9
 72
     1
 11
-199.94369220152109
 21
-94.434334435585683
 31
0.0
 73
     2
  0
TEXT
  5
13D
  8
1
 62
     4
 10
-202.34369220152121
 20
-98.214569295028838
 30
0.0
 40
2.0
  1
pro
 41
0.9
 72
     1
 11
-199.94369220152109
 21
-97.214569295028852
 31
0.0
 73
     2
  0
TEXT
  5
13E
  8
1
 62
     4
 10
-204.14369220152119
 20
-100.99480415447201
 30
0.0
 40
2.0
  1
gramm
 41
0.9
 72
     1
 11
-199.94369220152109
 21
-99.99480415447205
 31
0.0
 73
     2
  0
TEXT
  5
13F
  8
1
 62
     2
 10
-194.80416345282461
 20
139.95630602710489
 30
0.0
 40
2.0
  1
0
 41
0.9
 72
     1
 11
-194.35416345282459
 21
139.95630602710489
 31
0.0
  0
TEXT
  5
140
  8
1
 62
     2
 10
-172.6254005467049
 20
139.65482637221001
 30
0.0
 40
2.0
  1
0.20
 41
0.9
 11
-172.6254005467049
 21
140.65482637221001
 31
0.0
 73
     2
  0
TEXT
  5
141
  8
1
 62
     2
 10
-146.8186056870552
 20
139.65482637221001
 30
0.0
 40
2.0
  1
0.00
 41
0.9
 11
-146.8186056870552
 21
140.65482637221001
 31
0.0
 73
     2
  0
TEXT
  5
142
  8
1
 62
     2
 10
-126.9598238361353
 20
139.65482637221001
 30
0.0
 40
2.0
  1
1:1/7.5:1
 41
0.9
 11
-126.9598238361353
 21
140.65482637221001
 31
0.0
 73
     2
  0
TEXT
  5
143
  8
1
 62
     2
 10
-75.690462590834699
 20
139.94317331288789
 30
0.0
 40
2.0
  1
 
 41
0.9
  0
TEXT
  5
144
  8
1
 62
     2
 10
64.356307798478795
 20
141.15482637221001
 30
0.0
 40
4.0
  1
P
 41
0.9
 72
     1
 11
65.556307798478798
 21
143.15482637221001
 31
0.0
 73
     2
  0
TEXT
  5
145
  8
1
 62
     2
 10
79.596497404104895
 20
144.65482637221001
 30
0.0
 40
2.0
  1
114
 41
0.9
 11
79.596497404104895
 21
145.65482637221001
 31
0.0
 73
     2
  0
TEXT
  5
146
  8
1
 62
     2
 10
79.596497404104895
 20
139.65482637221001
 30
0.0
 40
2.0
  1
 
 41
0.9
 11
79.596497404104895
 21
140.65482637221001
 31
0.0
 73
     2
  0
TEXT
  5
147
  8
1
 62
     2
 10
97.456307798478804
 20
140.10322212874789
 30
0.0
 40
2.0
  1
1 A
 41
0.9
 72
     1
 11
99.556307798478784
 21
141.10322212874789
 31
0.0
 73
     2
  0
TEXT
  5
148
  8
1
 62
     2
 10
118.15630779847881
 20
140.10322212874789
 30
0.0
 40
2.0
  1
 
 41
0.9
 72
     1
 11
119.0563077984788
 21
141.10322212874789
 31
0.0
 73
     2
  0
TEXT
  5
149
  8
1
 62
     2
 10
132.5563077984788
 20
140.10322212874789
 30
0.0
 40
2.0
  1
0.310
 41
0.9
 72
     1
 11
135.5563077984788
 21
141.10322212874789
 31
0.0
 73
     2
  0
TEXT
  5
14A
  8
1
 62
     2
 10
148.57173690157799
 20
141.15482637221001
 30
0.0
 40
4.0
  1
M88158.9
 41
1.169999999999999
  7
COMPLEX
 11
148.57173690157799
 21
143.15482637221001
 31
0.0
 73
     2
  0
TEXT
  5
14B
  8
1
 62
     2
 10
186.15734115502491
 20
141.40482637221001
 30
0.0
 40
3.5
  1
*
 41
0.9
  7
COMPLEX
 72
     1
 11
186.90734115502491
 21
143.15482637221001
 31
0.0
 73
     2
  0
TEXT
  5
14C
  8
1
 62
     2
 10
-203.09369220152121
 20
-17.573701415961992
 30
0.0
 40
2.0
  1
0.020
 41
0.9
 72
     1
 11
-199.94369220152109
 21
-16.573701415961992
 31
0.0
 73
     2
  0
TEXT
  5
14D
  8
1
 62
     2
 10
-203.09369220152121
 20
-31.084499161137789
 30
0.0
 40
2.0
  1
0.070
 41
0.9
 72
     1
 11
-199.94369220152109
 21
-30.084499161137789
 31
0.0
 73
     2
  0
TEXT
  5
14E
  8
1
 62
     2
 10
-202.9436922015212
 20
-44.595296906313671
 30
0.0
 40
2.0
  1
0.000
 41
0.9
 72
     1
 11
-199.94369220152109
 21
-43.595296906313678
 31
0.0
 73
     2
  0
TEXT
  5
14F
  8
1
 62
     2
 10
-202.7936922015212
 20
-58.106094651489471
 30
0.0
 40
2.0
  1
2.110
 41
0.9
 72
     1
 11
-199.94369220152109
 21
-57.106094651489471
 31
0.0
 73
     2
  0
TEXT
  5
150
  8
1
 62
     2
 10
-203.24369220152121
 20
-71.616892396665278
 30
0.0
 40
2.0
  1
0.840
 41
0.9
 72
     1
 11
-199.94369220152109
 21
-70.616892396665264
 31
0.0
 73
     2
  0
TEXT
  5
151
  8
1
 62
     2
 10
-202.9436922015212
 20
-86.095296906313607
 30
0.0
 40
2.0
  1
0.000
 41
0.9
 72
     1
 11
-199.94369220152109
 21
-85.095296906313607
 31
0.0
 73
     2
  0
TEXT
  5
152
  8
1
 62
     2
 10
-201.51869220152119
 20
-106.5401354152784
 30
0.0
 40
3.5
  1
 
 41
0.9
 72
     1
 11
-199.94369220152109
 21
-104.7901354152784
 31
0.0
 73
     2
  0
TEXT
  5
153
  8
1
 62
     2
 10
-127.6780298482349
 20
-111.3451736277903
 30
0.0
 40
2.0
  1
 
 41
0.9
 11
-127.6780298482349
 21
-110.3451736277903
 31
0.0
 73
     2
  0
TEXT
  5
154
  8
1
 62
     2
 10
-135.69453756809469
 20
-116.3451736277903
 30
0.0
 40
2.0
  1
10582
 41
0.9
 11
-135.69453756809469
 21
-115.3451736277903
 31
0.0
 73
     2
  0
TEXT
  5
155
  8
1
 62
     2
 10
-137.91616390660519
 20
-121.3451736277903
 30
0.0
 40
2.0
  1
12.8.87
 41
0.9
 11
-137.91616390660519
 21
-120.3451736277903
 31
0.0
 73
     2
  0
TEXT
  5
156
  8
1
 62
     2
 10
-110.0827645122651
 20
-116.3451736277903
 30
0.0
 40
2.0
  1
24.8.87 ky
 41
0.9
 11
-110.0827645122651
 21
-115.3451736277903
 31
0.0
 73
     2
  0
TEXT
  5
157
  8
1
 62
     2
 10
-110.05843924456499
 20
-121.3451736277903
 30
0.0
 40
2.0
  1
24.8.87 Mb
 41
0.9
 11
-110.05843924456499
 21
-120.3451736277903
 31
0.0
 73
     2
  0
TEXT
  5
158
  8
1
 62
     2
 10
-64.82024099966479
 20
-111.3451736277903
 30
0.0
 40
2.0
  1
6043
 41
0.9
 11
-64.82024099966479
 21
-110.3451736277903
 31
0.0
 73
     2
  0
TEXT
  5
159
  8
1
 62
     2
 10
-58.912955051611021
 20
-116.3451736277903
 30
0.0
 40
2.0
  1
a, 26.3.96, ky
 41
0.9
 11
-58.912955051611021
 21
-115.3451736277903
 31
0.0
 73
     2
  0
TEXT
  5
15A
  8
1
 62
     2
 10
-26.973093838936009
 20
-116.3451736277903
 30
0.0
 40
2.0
  1
 
 41
0.9
 11
-26.973093838936009
 21
-115.3451736277903
 31
0.0
 73
     2
  0
TEXT
  5
15B
  8
1
 62
     2
 10
-26.973093838936009
 20
-121.3451736277903
 30
0.0
 40
2.0
  1
 
 41
0.9
 11
-26.973093838936009
 21
-120.3451736277903
 31
0.0
 73
     2
  0
TEXT
  5
15C
  8
1
 62
     2
 10
4.5862588210349884
 20
-116.3451736277903
 30
0.0
 40
2.0
  1
 
 41
0.9
 11
4.5862588210349884
 21
-115.3451736277903
 31
0.0
 73
     2
  0
TEXT
  5
15D
  8
1
 62
     2
 10
4.5862588210349884
 20
-121.3451736277903
 30
0.0
 40
2.0
  1
 
 41
0.9
 11
4.5862588210349884
 21
-120.3451736277903
 31
0.0
 73
     2
  0
TEXT
  5
15E
  8
1
 62
     2
 10
36.548154244525989
 20
-116.3451736277903
 30
0.0
 40
2.0
  1
 
 41
0.9
 11
36.548154244525989
 21
-115.3451736277903
 31
0.0
 73
     2
  0
TEXT
  5
15F
  8
1
 62
     2
 10
36.548154244525989
 20
-121.3451736277903
 30
0.0
 40
2.0
  1
 
 41
0.9
 11
36.548154244525989
 21
-120.3451736277903
 31
0.0
 73
     2
  0
TEXT
  5
160
  8
1
 62
     2
 10
-58.912955051611021
 20
-121.3451736277903
 30
0.0
 40
2.0
  1
 
 41
0.9
 11
-58.912955051611021
 21
-120.3451736277903
 31
0.0
 73
     2
  0
TEXT
  5
161
  8
1
 62
     2
 10
-46.865905542084377
 20
-111.3451736277903
 30
0.0
 40
2.0
  1
AlMgSi0.5 F22
 41
0.9
 11
-46.865905542084377
 21
-110.3451736277903
 31
0.0
 73
     2
  0
TEXT
  5
162
  8
1
 62
     2
 10
-9.4374630217730111
 20
-111.3620007257713
 30
0.0
 40
2.0
  1
16
 41
0.9
 11
-9.4374630217730111
 21
-110.3620007257713
 31
0.0
 73
     2
  0
TEXT
  5
163
  8
1
 62
     2
 10
2.0996295552872941
 20
-111.3620007257713
 30
0.0
 40
2.0
  1
195
 41
0.9
 11
2.0996295552872941
 21
-110.3620007257713
 31
0.0
 73
     2
  0
TEXT
  5
164
  8
1
 62
     2
 10
13.086480660571
 20
-111.3620007257713
 30
0.0
 40
2.0
  1
255
 41
0.9
 11
13.086480660571
 21
-110.3620007257713
 31
0.0
 73
     2
  0
TEXT
  5
165
  8
1
 62
     2
 10
23.667466322674979
 20
-111.3620007257713
 30
0.0
 40
2.0
  1
4 -V
 41
0.9
 11
23.667466322674979
 21
-110.3620007257713
 31
0.0
 73
     2
  0
TEXT
  5
166
  8
1
 62
     2
 10
39.341619725275592
 20
-111.3451736277903
 30
0.0
 40
2.0
  1
50
 41
0.9
 11
39.341619725275592
 21
-110.3451736277903
 31
0.0
 73
     2
  0
TEXT
  5
167
  8
1
 62
     2
 10
56.39576461938529
 20
-111.3451736277903
 30
0.0
 40
2.0
  1
69
 41
0.9
 11
56.39576461938529
 21
-110.3451736277903
 31
0.0
 73
     2
  0
ENDBLK
  5
168
  8
0
  0
BLOCK
  8
1
  2
*X2
 70
     1
 10
0.0
 20
0.0
 30
0.0
  3
*X2
  1

  0
LINE
  5
16B
  8
1
 62
     5
 10
24.008012760361449
 20
-9.9331127365928253
 30
0.0
 11
24.87405314765833
 21
-9.0670723492959446
 31
0.0
  0
LINE
  5
16C
  8
1
 62
     5
 10
26.65407918196043
 20
-10.115473439740031
 30
0.0
 11
30.38721435738924
 21
-6.3823382643112296
 31
0.0
  0
LINE
  5
16D
  8
1
 62
     5
 10
32.415108923380842
 20
-7.182870823065814
 30
0.0
 11
34.554617890593732
 21
-5.0433618558529236
 31
0.0
  0
LINE
  5
16E
  8
1
 62
     5
 10
34.824549604131747
 20
-7.6018572670611047
 30
0.0
 11
38.115090986599952
 21
-4.3113158845929043
 31
0.0
  0
LINE
  5
16F
  8
1
 62
     5
 10
36.75168181918766
 20
-8.5031521767513922
 30
0.0
 11
41.295767074939597
 21
-3.9590669209994389
 31
0.0
  0
LINE
  5
170
  8
1
 62
     5
 10
41.592335297047718
 20
-6.4909258236374967
 30
0.0
 11
44.207947242813823
 21
-3.8753138778713949
 31
0.0
  0
LINE
  5
171
  8
1
 62
     5
 10
45.036288996548812
 20
-5.8753992488826192
 30
0.0
 11
47.036374367560022
 21
-3.8753138778713949
 31
0.0
  0
LINE
  5
172
  8
1
 62
     5
 10
47.864801492306214
 20
-5.875313877871398
 30
0.0
 11
49.864801492306214
 21
-3.8753138778713949
 31
0.0
  0
LINE
  5
173
  8
1
 62
     5
 10
50.693228617052412
 20
-5.875313877871398
 30
0.0
 11
52.693228617052412
 21
-3.8753138778713949
 31
0.0
  0
LINE
  5
174
  8
1
 62
     5
 10
53.506718984642028
 20
-5.8902506350279467
 30
0.0
 11
55.499855316344949
 21
-3.8971143033250391
 31
0.0
  0
LINE
  5
175
  8
1
 62
     5
 10
55.906850168434353
 20
-6.3185465759818369
 30
0.0
 11
58.142990202773632
 21
-4.082406541642551
 31
0.0
  0
LINE
  5
176
  8
1
 62
     5
 10
57.883732747597982
 20
-7.170091121564389
 30
0.0
 11
60.622902228713947
 21
-4.4309216404484184
 31
0.0
  0
LINE
  5
177
  8
1
 62
     5
 10
59.539843358289247
 20
-8.3424076356193133
 30
0.0
 11
62.962091794929513
 21
-4.9201591989790527
 31
0.0
  0
LINE
  5
178
  8
1
 62
     5
 10
63.42837970980429
 20
-7.2822984088504548
 30
0.0
 11
65.179304442841612
 21
-5.5313736758131373
 31
0.0
  0
LINE
  5
179
  8
1
 62
     5
 10
63.054354543044923
 20
-7.6563235756098393
 30
0.0
 11
63.304320334231249
 21
-7.406357784423502
 31
0.0
  0
LINE
  5
17A
  8
1
 62
     5
 10
66.068966973458828
 20
-7.4701382699421153
 30
0.0
 11
67.285225274449886
 21
-6.253879968951054
 31
0.0
  0
LINE
  5
17B
  8
1
 62
     5
 10
68.095610416521154
 20
-8.2719219516259663
 30
0.0
 11
69.291099330192182
 21
-7.0764330379549518
 31
0.0
  0
LINE
  5
17C
  8
1
 62
     5
 10
69.621450607043499
 20
-9.5745088858498324
 30
0.0
 11
71.201120210446916
 21
-7.9948392824464136
 31
0.0
  0
LINE
  5
17D
  8
1
 62
     5
 10
71.84842920500877
 20
-10.17595741263076
 30
0.0
 11
73.023267209838309
 21
-9.0011194078012196
 31
0.0
  0
ENDBLK
  5
17E
  8
0
  0
BLOCK
  8
1
  2
*D3
 70
     1
 10
0.0
 20
0.0
 30
0.0
  3
*D3
  1

  0
LINE
  5
181
  8
1
 62
     2
 10
9.6705043905838011
 20
-3.875313877871398
 30
0.0
 11
9.6705043905838011
 21
1.1246861221286
 31
0.0
  0
LINE
  5
182
  8
1
 62
     2
 10
9.6705043905838011
 20
-10.375313877871401
 30
0.0
 11
9.6705043905838011
 21
-15.375313877871401
 31
0.0
  0
LINE
  5
183
  8
1
 62
     2
 10
9.6705043905838011
 20
-10.375313877871401
 30
0.0
 11
9.6705043905838011
 21
-3.875313877871398
 31
0.0
  0
LINE
  5
184
  8
1
 62
     2
 10
43.272491984939329
 20
-3.875313877871398
 30
0.0
 11
8.6705043905838011
 21
-3.875313877871398
 31
0.0
  0
LINE
  5
185
  8
1
 62
     2
 10
24.004643116941651
 20
-10.375313877871401
 30
0.0
 11
8.6705043905838011
 21
-10.375313877871401
 31
0.0
  0
LINE
  5
186
  8
1
 62
     2
 10
9.6705043905838011
 20
-10.375313877871401
 30
0.0
 11
9.9955043905838021
 21
-12.875313877871401
 31
0.0
  0
LINE
  5
187
  8
1
 62
     2
 10
9.9955043905838021
 20
-12.875313877871401
 30
0.0
 11
9.3455043905838018
 21
-12.875313877871401
 31
0.0
  0
LINE
  5
188
  8
1
 62
     2
 10
9.3455043905838018
 20
-12.875313877871401
 30
0.0
 11
9.6705043905838011
 21
-10.375313877871401
 31
0.0
  0
LINE
  5
189
  8
1
 62
     2
 10
9.6705043905838011
 20
-3.875313877871398
 30
0.0
 11
9.3455043905838018
 21
-1.3753138778713989
 31
0.0
  0
LINE
  5
18A
  8
1
 62
     2
 10
9.3455043905838018
 20
-1.3753138778713989
 30
0.0
 11
9.9955043905838021
 21
-1.3753138778713989
 31
0.0
  0
LINE
  5
18B
  8
1
 62
     2
 10
9.9955043905838021
 20
-1.3753138778713989
 30
0.0
 11
9.6705043905838011
 21
-3.875313877871398
 31
0.0
  0
TEXT
  5
18C
  8
1
 62
     2
 10
8.6705043905838011
 20
-9.0643763778713993
 30
0.0
 40
2.5
  1
6.5
 50
90.0
 41
0.7650000000000001
  0
ENDBLK
  5
18D
  8
0
  0
BLOCK
  8
1
  2
*D4
 70
     1
 10
0.0
 20
0.0
 30
0.0
  3
*D4
  1

  0
LINE
  5
190
  8
1
 62
     2
 10
24.004643116941651
 20
-24.767506519501691
 30
0.0
 11
74.004643116941637
 21
-24.767506519501691
 31
0.0
  0
LINE
  5
191
  8
1
 62
     2
 10
74.004643116941637
 20
-10.37531387787139
 30
0.0
 11
74.004643116941637
 21
-25.767506519501691
 31
0.0
  0
LINE
  5
192
  8
1
 62
     2
 10
24.004643116941651
 20
-10.37531387787139
 30
0.0
 11
24.004643116941651
 21
-25.767506519501691
 31
0.0
  0
LINE
  5
193
  8
1
 62
     2
 10
74.004643116941637
 20
-24.767506519501691
 30
0.0
 11
71.504643116941637
 21
-25.09250651950169
 31
0.0
  0
LINE
  5
194
  8
1
 62
     2
 10
71.504643116941637
 20
-25.09250651950169
 30
0.0
 11
71.504643116941637
 21
-24.442506519501691
 31
0.0
  0
LINE
  5
195
  8
1
 62
     2
 10
71.504643116941637
 20
-24.442506519501691
 30
0.0
 11
74.004643116941637
 21
-24.767506519501691
 31
0.0
  0
LINE
  5
196
  8
1
 62
     2
 10
24.004643116941651
 20
-24.767506519501691
 30
0.0
 11
26.504643116941651
 21
-24.442506519501691
 31
0.0
  0
LINE
  5
197
  8
1
 62
     2
 10
26.504643116941651
 20
-24.442506519501691
 30
0.0
 11
26.504643116941651
 21
-25.09250651950169
 31
0.0
  0
LINE
  5
198
  8
1
 62
     2
 10
26.504643116941651
 20
-25.09250651950169
 30
0.0
 11
24.004643116941651
 21
-24.767506519501691
 31
0.0
  0
TEXT
  5
199
  8
1
 62
     2
 10
44.907924366941643
 20
-23.767506519501691
 30
0.0
 40
2.5
  1
50
 41
0.7650000000000001
  0
TEXT
  5
19A
  8
1
 62
     2
 10
49.345424366941643
 20
-23.392506519501691
 30
0.0
 40
1.75
  1
%%p0.6
 41
0.7650000000000001
  0
ENDBLK
  5
19B
  8
0
  0
BLOCK
  8
0
  2
_1__S
 70
     0
 10
25.0489908053456
 20
30.482298438276299
 30
0.0
  3
_1__S
  1

  0
INSERT
  5
19E
  8
1
  2
*X2
 10
0.0
 20
0.0
 30
0.0
  0
POINT
  5
19F
  8
1
  6
CENTER
 62
     6
 10
37.069422506245147
 20
-8.8753138778713971
 30
0.0
  0
POINT
  5
1A0
  8
1
  6
CENTER
 62
     6
 10
27.79702329717783
 20
-9.9753138778714003
 30
0.0
  0
POINT
  5
1A1
  8
1
  6
CENTER
 62
     6
 10
70.212262936705443
 20
-9.9753138778714003
 30
0.0
  0
LINE
  5
1A2
  8
1
  6
CENTER
 62
     1
 10
54.236794248943959
 20
-0.375313877871406
 30
0.0
 11
43.772491984939343
 21
-0.3753138778713989
 31
0.0
  0
LINE
  5
1A3
  8
1
 62
     7
 10
36.697785764656189
 20
-8.2031130579885101
 30
0.0
 11
36.764648982435702
 21
-8.5753403223888274
 31
0.0
  0
LINE
  5
1A4
  8
1
 62
     7
 10
36.325558500255852
 20
-8.2699762757680233
 30
0.0
 11
36.697785764656189
 21
-8.2031130579885101
 31
0.0
  0
LINE
  5
1A5
  8
1
 62
     7
 10
36.044208995431113
 20
-7.8051866595471822
 30
0.0
 11
36.15570553749393
 21
-8.1665622914910276
 31
0.0
  0
LINE
  5
1A6
  8
1
 62
     7
 10
35.682833363487248
 20
-7.9166832016099846
 30
0.0
 11
36.044208995431113
 21
-7.8051866595471822
 31
0.0
  0
LINE
  5
1A7
  8
1
 62
     7
 10
35.347210906968471
 20
-7.4894309366749336
 30
0.0
 11
35.501695973146482
 21
-7.834623912534453
 31
0.0
  0
LINE
  5
1A8
  8
1
 62
     7
 10
35.002017931108931
 20
-7.6439160028529596
 30
0.0
 11
35.347210906968471
 21
-7.4894309366749336
 31
0.0
  0
LINE
  5
1A9
  8
1
 62
     7
 10
34.617073634945648
 20
-7.2605039268000411
 30
0.0
 11
34.812268257137148
 21
-7.5844219499514276
 31
0.0
  0
LINE
  5
1AA
  8
1
 62
     7
 10
34.293155611794248
 20
-7.455698548991549
 30
0.0
 11
34.617073634945648
 21
-7.2605039268000411
 31
0.0
  0
LINE
  5
1AB
  8
1
 62
     7
 10
33.864568185221017
 20
-7.1217827677005436
 30
0.0
 11
34.09759284679302
 21
-7.4196473902290228
 31
0.0
  0
LINE
  5
1AC
  8
1
 62
     7
 10
33.566703562692517
 20
-7.3548074292725483
 30
0.0
 11
33.864568185221017
 21
-7.1217827677005436
 31
0.0
  0
LINE
  5
1AD
  8
1
 62
     7
 10
33.100795539648267
 20
-7.0753138778714018
 30
0.0
 11
33.368212654148053
 21
-7.3427309923711803
 31
0.0
  0
LINE
  5
1AE
  8
1
 62
     7
 10
27.79702329717783
 20
-9.9753138778714003
 30
0.0
 11
28.302066256149491
 21
-9.7444663476353952
 31
0.0
  0
LINE
  5
1AF
  8
1
 62
     7
 10
28.38938883307549
 20
-9.5982495378292327
 30
0.0
 11
28.364699281005031
 21
-9.2208714087950572
 31
0.0
  0
LINE
  5
1B0
  8
1
 62
     7
 10
28.364699281005031
 20
-9.2208714087950572
 30
0.0
 11
28.742077410039229
 21
-9.1961818567245999
 31
0.0
  0
LINE
  5
1B1
  8
1
 62
     7
 10
28.882047922389841
 20
-9.0549277000588475
 30
0.0
 11
28.90329144779065
 21
-8.6773399104213667
 31
0.0
  0
LINE
  5
1B2
  8
1
 62
     7
 10
28.90329144779065
 20
-8.6773399104213667
 30
0.0
 11
29.280879237428149
 21
-8.6985834358221563
 31
0.0
  0
LINE
  5
1B3
  8
1
 62
     7
 10
29.436942096860829
 20
-8.5753403223888274
 30
0.0
 11
29.503805314640349
 21
-8.2031130579885101
 31
0.0
  0
LINE
  5
1B4
  8
1
 62
     7
 10
29.503805314640349
 20
-8.2031130579885101
 30
0.0
 11
29.8760325790407
 21
-8.2699762757680233
 31
0.0
  0
LINE
  5
1B5
  8
1
 62
     7
 10
30.045885541802601
 20
-8.1665622914910276
 30
0.0
 11
30.157382083865429
 21
-7.8051866595471822
 31
0.0
  0
LINE
  5
1B6
  8
1
 62
     7
 10
30.157382083865429
 20
-7.8051866595471822
 30
0.0
 11
30.51875771580929
 21
-7.9166832016099846
 31
0.0
  0
LINE
  5
1B7
  8
1
 62
     7
 10
30.699895106150059
 20
-7.834623912534453
 30
0.0
 11
30.854380172328071
 21
-7.4894309366749336
 31
0.0
  0
LINE
  5
1B8
  8
1
 62
     7
 10
30.854380172328071
 20
-7.4894309366749336
 30
0.0
 11
31.1995731481876
 21
-7.6439160028529596
 31
0.0
  0
LINE
  5
1B9
  8
1
 62
     7
 10
31.389322822159389
 20
-7.5844219499514276
 30
0.0
 11
31.58451744435088
 21
-7.2605039268000411
 31
0.0
  0
LINE
  5
1BA
  8
1
 62
     7
 10
31.58451744435088
 20
-7.2605039268000411
 30
0.0
 11
31.90843546750229
 21
-7.455698548991549
 31
0.0
  0
LINE
  5
1BB
  8
1
 62
     7
 10
32.103998232503507
 20
-7.4196473902290228
 30
0.0
 11
32.337022894075517
 21
-7.1217827677005436
 31
0.0
  0
LINE
  5
1BC
  8
1
 62
     7
 10
32.337022894075517
 20
-7.1217827677005436
 30
0.0
 11
32.63488751660401
 21
-7.3548074292725483
 31
0.0
  0
LINE
  5
1BD
  8
1
 62
     7
 10
32.833378425148489
 20
-7.3427309923711803
 30
0.0
 11
33.100795539648267
 21
-7.0753138778714018
 31
0.0
  0
LINE
  5
1BE
  8
1
 62
     7
 10
27.79702329717783
 20
-9.9753138778714003
 30
0.0
 11
24.565502360372861
 21
-10.371596209300829
 31
0.0
  0
LINE
  5
1BF
  8
1
 62
     7
 10
37.181236692268861
 20
-8.8753138778713971
 30
0.0
 11
37.779710695650508
 21
-8.8753138778713971
 31
0.0
  0
LINE
  5
1C0
  8
1
 62
     7
 10
45.046071545484487
 20
-5.875313877871398
 30
0.0
 11
52.963214688398772
 21
-5.875313877871398
 31
0.0
  0
LINE
  5
1C1
  8
1
  6
CENTER
 62
     2
 10
49.004643116941651
 20
-3.647922360707796
 30
0.0
 11
49.004643116941651
 21
-10.668969839905101
 31
0.0
  0
LINE
  5
1C2
  8
1
 62
     7
 10
61.244637251447571
 20
-8.5753403223888274
 30
0.0
 11
61.311500469227077
 21
-8.2031130579885101
 31
0.0
  0
LINE
  5
1C3
  8
1
 62
     7
 10
61.311500469227077
 20
-8.2031130579885101
 30
0.0
 11
61.683727733627443
 21
-8.2699762757680233
 31
0.0
  0
LINE
  5
1C4
  8
1
 62
     7
 10
61.853580696389344
 20
-8.1665622914910276
 30
0.0
 11
61.965077238452167
 21
-7.8051866595471822
 31
0.0
  0
LINE
  5
1C5
  8
1
 62
     7
 10
61.965077238452167
 20
-7.8051866595471822
 30
0.0
 11
62.326452870396032
 21
-7.9166832016099846
 31
0.0
  0
LINE
  5
1C6
  8
1
 62
     7
 10
62.507590260736798
 20
-7.834623912534453
 30
0.0
 11
62.66207532691481
 21
-7.4894309366749336
 31
0.0
  0
LINE
  5
1C7
  8
1
 62
     7
 10
62.66207532691481
 20
-7.4894309366749336
 30
0.0
 11
63.007268302774342
 21
-7.6439160028529596
 31
0.0
  0
LINE
  5
1C8
  8
1
 62
     7
 10
63.19701797674611
 20
-7.5844219499514276
 30
0.0
 11
63.392212598937611
 21
-7.2605039268000411
 31
0.0
  0
LINE
  5
1C9
  8
1
 62
     7
 10
63.392212598937611
 20
-7.2605039268000411
 30
0.0
 11
63.716130622089032
 21
-7.455698548991549
 31
0.0
  0
LINE
  5
1CA
  8
1
 62
     7
 10
63.911693387090253
 20
-7.4196473902290228
 30
0.0
 11
64.144718048662256
 21
-7.1217827677005436
 31
0.0
  0
LINE
  5
1CB
  8
1
 62
     7
 10
64.144718048662256
 20
-7.1217827677005436
 30
0.0
 11
64.442582671190735
 21
-7.3548074292725483
 31
0.0
  0
LINE
  5
1CC
  8
1
 62
     7
 10
64.64107357973522
 20
-7.3427309923711803
 30
0.0
 11
64.908490694234999
 21
-7.0753138778714018
 31
0.0
  0
LINE
  5
1CD
  8
1
 62
     7
 10
69.7072199777338
 20
-9.7444663476353952
 30
0.0
 11
70.212262936705443
 21
-9.9753138778714003
 31
0.0
  0
LINE
  5
1CE
  8
1
 62
     7
 10
69.644586952878242
 20
-9.2208714087950572
 30
0.0
 11
69.619897400807787
 21
-9.5982495378292327
 31
0.0
  0
LINE
  5
1CF
  8
1
 62
     7
 10
69.267208823844044
 20
-9.1961818567245999
 30
0.0
 11
69.644586952878242
 21
-9.2208714087950572
 31
0.0
  0
LINE
  5
1D0
  8
1
 62
     7
 10
69.105994786092609
 20
-8.6773399104213667
 30
0.0
 11
69.127238311493414
 21
-9.0549277000588475
 31
0.0
  0
LINE
  5
1D1
  8
1
 62
     7
 10
68.728406996455121
 20
-8.6985834358221563
 30
0.0
 11
69.105994786092609
 21
-8.6773399104213667
 31
0.0
  0
LINE
  5
1D2
  8
1
 62
     7
 10
68.505480919242913
 20
-8.2031130579885101
 30
0.0
 11
68.572344137022441
 21
-8.5753403223888274
 31
0.0
  0
LINE
  5
1D3
  8
1
 62
     7
 10
68.133253654842576
 20
-8.2699762757680233
 30
0.0
 11
68.505480919242913
 21
-8.2031130579885101
 31
0.0
  0
LINE
  5
1D4
  8
1
 62
     7
 10
67.851904150017845
 20
-7.8051866595471822
 30
0.0
 11
67.963400692080668
 21
-8.1665622914910276
 31
0.0
  0
LINE
  5
1D5
  8
1
 62
     7
 10
67.490528518073987
 20
-7.9166832016099846
 30
0.0
 11
67.851904150017845
 21
-7.8051866595471822
 31
0.0
  0
LINE
  5
1D6
  8
1
 62
     7
 10
67.154906061555209
 20
-7.4894309366749336
 30
0.0
 11
67.309391127733221
 21
-7.834623912534453
 31
0.0
  0
LINE
  5
1D7
  8
1
 62
     7
 10
66.809713085695677
 20
-7.6439160028529596
 30
0.0
 11
67.154906061555209
 21
-7.4894309366749336
 31
0.0
  0
LINE
  5
1D8
  8
1
 62
     7
 10
66.424768789532393
 20
-7.2605039268000411
 30
0.0
 11
66.619963411723887
 21
-7.5844219499514276
 31
0.0
  0
LINE
  5
1D9
  8
1
 62
     7
 10
66.100850766381001
 20
-7.455698548991549
 30
0.0
 11
66.424768789532393
 21
-7.2605039268000411
 31
0.0
  0
LINE
  5
1DA
  8
1
 62
     7
 10
65.672263339807756
 20
-7.1217827677005436
 30
0.0
 11
65.905288001379759
 21
-7.4196473902290228
 31
0.0
  0
LINE
  5
1DB
  8
1
 62
     7
 10
65.374398717279263
 20
-7.3548074292725483
 30
0.0
 11
65.672263339807756
 21
-7.1217827677005436
 31
0.0
  0
LINE
  5
1DC
  8
1
 62
     7
 10
64.908490694234999
 20
-7.0753138778714018
 30
0.0
 11
65.175907808734792
 21
-7.3427309923711803
 31
0.0
  0
LINE
  5
1DD
  8
1
 62
     7
 10
73.443783873510441
 20
-10.371596209300829
 30
0.0
 11
70.212262936705443
 21
-9.9753138778714003
 31
0.0
  0
LINE
  5
1DE
  8
1
 62
     7
 10
60.229575538232773
 20
-8.8753138778713971
 30
0.0
 11
60.828049541614369
 21
-8.8753138778713971
 31
0.0
  0
LINE
  5
1DF
  8
1
 62
     7
 10
43.772491984939343
 20
-3.875313877871398
 30
0.0
 11
54.236794248943937
 21
-3.875313877871398
 31
0.0
  0
ARC
  5
1E0
  8
1
  6
CENTER
 62
     1
 10
24.50464311694164
 20
-9.8753138778714007
 30
0.0
 40
4.0000000000001164
 50
121.8627495686754
 51
201.00373531442389
  0
ARC
  5
1E1
  8
1
  6
CENTER
 62
     1
 10
43.772491984939343
 20
-40.875313877871399
 30
0.0
 40
40.499999999999993
 50
90.0
 51
121.86274956867319
  0
ARC
  5
1E2
  8
1
  6
CENTER
 62
     1
 10
54.236794248943937
 20
-40.875313877871399
 30
0.0
 40
40.5
 50
58.137250431327061
 51
90.0
  0
ARC
  5
1E3
  8
1
  6
CENTER
 62
     1
 10
73.504643116941637
 20
-9.8753138778714007
 30
0.0
 40
3.9999999999999911
 50
338.99626468557523
 51
58.137250431327061
  0
ARC
  5
1E4
  8
1
 62
     7
 10
33.100795539633069
 20
-13.375313877889271
 30
0.0
 40
6.0000000000234284
 50
49.632406455814753
 51
51.70178771394098
  0
ARC
  5
1E5
  8
1
 62
     7
 10
36.912285993230043
 20
-8.5488202725451856
 30
0.0
 40
0.1499999999999917
 50
190.1834433763168
 51
231.70178771394819
  0
ARC
  5
1E6
  8
1
 62
     7
 10
36.299038450412212
 20
-8.1223392649736681
 30
0.0
 40
0.149999999999994
 50
238.66509903869101
 51
280.18344337631589
  0
ARC
  5
1E7
  8
1
 62
     7
 10
36.299038450412212
 20
-8.1223392649736681
 30
0.0
 40
0.1499999999999692
 50
197.14675470105729
 51
238.66509903869101
  0
ARC
  5
1E8
  8
1
 62
     7
 10
35.638610336969897
 20
-7.7733502886916872
 30
0.0
 40
0.1499999999999983
 50
245.62841036342181
 51
287.14675470105158
  0
ARC
  5
1E9
  8
1
 62
     7
 10
35.638610336969897
 20
-7.7733502886916872
 30
0.0
 40
0.149999999999984
 50
204.1100660257901
 51
245.62841036342181
  0
ARC
  5
1EA
  8
1
 62
     7
 10
34.940744307266137
 20
-7.5070016390295171
 30
0.0
 40
0.1500000000000035
 50
252.5917216881644
 51
294.11006602579562
  0
ARC
  5
1EB
  8
1
 62
     7
 10
34.940744307266137
 20
-7.5070016390295171
 30
0.0
 40
0.1499999999999709
 50
211.07337735053389
 51
252.5917216881644
  0
ARC
  5
1EC
  8
1
 62
     7
 10
34.215735300872339
 20
-7.3272224988625183
 30
0.0
 40
0.1499999999999978
 50
259.55503301289531
 51
301.0733773505255
  0
ARC
  5
1ED
  8
1
 62
     7
 10
34.215735300872339
 20
-7.3272224988625183
 30
0.0
 40
0.1499999999999809
 50
218.03668867526531
 51
259.55503301289531
  0
ARC
  5
1EE
  8
1
 62
     7
 10
33.474278671326047
 20
-7.2366649751932073
 30
0.0
 40
0.1500000000000038
 50
266.51834433761542
 51
308.03668867524948
  0
ARC
  5
1EF
  8
1
 62
     7
 10
33.474278671326047
 20
-7.2366649751932073
 30
0.0
 40
0.1500000000000022
 50
224.9999999999942
 51
266.51834433761542
  0
ARC
  5
1F0
  8
1
 62
     7
 10
28.239708827771391
 20
-9.6080421887555474
 30
0.0
 40
0.1500000000000126
 50
294.56442642588138
 51
322.22483493552301
  0
ARC
  5
1F1
  8
1
 62
     7
 10
28.239708827771391
 20
-9.6080421887555474
 30
0.0
 40
0.1500000000000082
 50
322.22483493552301
 51
3.7431792731522799
  0
ARC
  5
1F2
  8
1
 62
     7
 10
28.7322847591129
 20
-9.0465018514204871
 30
0.0
 40
0.1500000000000138
 50
273.74317927315741
 51
315.26152361078971
  0
ARC
  5
1F3
  8
1
 62
     7
 10
28.7322847591129
 20
-9.0465018514204871
 30
0.0
 40
0.1500000000000173
 50
315.26152361078971
 51
356.77986794841718
  0
ARC
  5
1F4
  8
1
 62
     7
 10
29.289305086066491
 20
-8.5488202725451856
 30
0.0
 40
0.1500000000000046
 50
266.77986794842468
 51
308.29821228605391
  0
ARC
  5
1F5
  8
1
 62
     7
 10
29.289305086066491
 20
-8.5488202725451856
 30
0.0
 40
0.1500000000000052
 50
308.29821228605391
 51
349.81655662368303
  0
ARC
  5
1F6
  8
1
 62
     7
 10
29.90255262888434
 20
-8.1223392649736681
 30
0.0
 40
0.1500000000000057
 50
259.81655662368411
 51
301.33490096131129
  0
ARC
  5
1F7
  8
1
 62
     7
 10
29.90255262888434
 20
-8.1223392649736681
 30
0.0
 40
0.1499999999999977
 50
301.33490096131129
 51
342.85324529894177
  0
ARC
  5
1F8
  8
1
 62
     7
 10
30.562980742326641
 20
-7.7733502886916872
 30
0.0
 40
0.1499999999999943
 50
252.85324529894851
 51
294.37158963658078
  0
ARC
  5
1F9
  8
1
 62
     7
 10
30.562980742326641
 20
-7.7733502886916872
 30
0.0
 40
0.1500000000000013
 50
294.37158963658078
 51
335.88993397421029
  0
ARC
  5
1FA
  8
1
 62
     7
 10
31.260846772030391
 20
-7.5070016390295171
 30
0.0
 40
0.1500000000000201
 50
245.88993397420569
 51
287.40827831183941
  0
ARC
  5
1FB
  8
1
 62
     7
 10
31.260846772030391
 20
-7.5070016390295171
 30
0.0
 40
0.1500000000000067
 50
287.40827831183941
 51
328.92662264946819
  0
ARC
  5
1FC
  8
1
 62
     7
 10
31.985855778424209
 20
-7.3272224988625183
 30
0.0
 40
0.1500000000000074
 50
238.9266226494745
 51
280.44496698710333
  0
ARC
  5
1FD
  8
1
 62
     7
 10
31.985855778424209
 20
-7.3272224988625183
 30
0.0
 40
0.1499999999999972
 50
280.44496698710333
 51
321.96331132473222
  0
ARC
  5
1FE
  8
1
 62
     7
 10
32.727312407970523
 20
-7.2366649751932073
 30
0.0
 40
0.1500000000000021
 50
231.9633113247377
 51
273.48165566236833
  0
ARC
  5
1FF
  8
1
 62
     7
 10
32.727312407970523
 20
-7.2366649751932073
 30
0.0
 40
0.1500000000000012
 50
273.48165566236833
 51
314.99999999999812
  0
ARC
  5
200
  8
1
 62
     7
 10
24.50464311694164
 20
-9.8753138778714007
 30
0.0
 40
0.5
 50
180.0
 51
270.0
  0
ARC
  5
201
  8
1
 62
     7
 10
24.50464311694164
 20
-9.8753138778714007
 30
0.0
 40
0.5000000000000018
 50
270.0
 51
276.99129172726163
  0
ARC
  5
202
  8
1
 62
     7
 10
45.046071545484487
 20
-15.875313877871401
 30
0.0
 40
10.0
 50
90.0
 51
134.86768294947311
  0
ARC
  5
203
  8
1
 62
     7
 10
24.50464311694164
 20
-9.8753138778714007
 30
0.0
 40
0.500000000000007
 50
121.86274956867371
 51
180.0
  0
ARC
  5
204
  8
1
 62
     7
 10
43.772491984939343
 20
-40.875313877871399
 30
0.0
 40
37.0
 50
90.0
 51
121.862749568673
  0
ARC
  5
205
  8
1
 62
     7
 10
64.908490694250204
 20
-13.375313877889271
 30
0.0
 40
6.0000000000234284
 50
128.298212286059
 51
130.3675935441857
  0
ARC
  5
206
  8
1
 62
     7
 10
61.09700024065323
 20
-8.5488202725451856
 30
0.0
 40
0.1500000000000052
 50
308.29821228605391
 51
349.81655662368308
  0
ARC
  5
207
  8
1
 62
     7
 10
61.710247783471068
 20
-8.1223392649736681
 30
0.0
 40
0.1500000000000057
 50
259.81655662368411
 51
301.33490096130902
  0
ARC
  5
208
  8
1
 62
     7
 10
61.710247783471068
 20
-8.1223392649736681
 30
0.0
 40
0.149999999999994
 50
301.33490096130902
 51
342.85324529894177
  0
ARC
  5
209
  8
1
 62
     7
 10
62.37067589691339
 20
-7.7733502886916872
 30
0.0
 40
0.1499999999999943
 50
252.85324529894851
 51
294.37158963657828
  0
ARC
  5
20A
  8
1
 62
     7
 10
62.37067589691339
 20
-7.7733502886916872
 30
0.0
 40
0.1499999999999983
 50
294.37158963657828
 51
335.88993397420978
  0
ARC
  5
20B
  8
1
 62
     7
 10
63.068541926617129
 20
-7.5070016390295171
 30
0.0
 40
0.1500000000000186
 50
245.88993397420691
 51
287.40827831184077
  0
ARC
  5
20C
  8
1
 62
     7
 10
63.068541926617129
 20
-7.5070016390295171
 30
0.0
 40
0.1500000000000078
 50
287.40827831184077
 51
328.92662264946608
  0
ARC
  5
20D
  8
1
 62
     7
 10
63.793550933010927
 20
-7.3272224988625183
 30
0.0
 40
0.1500000000000001
 50
238.9266226494791
 51
280.44496698710998
  0
ARC
  5
20E
  8
1
 62
     7
 10
63.793550933010927
 20
-7.3272224988625183
 30
0.0
 40
0.1500000000000004
 50
280.44496698710998
 51
321.96331132473642
  0
ARC
  5
20F
  8
1
 62
     7
 10
64.535007562557226
 20
-7.2366649751932073
 30
0.0
 40
0.1499999999999802
 50
231.9633113247483
 51
273.48165566238458
  0
ARC
  5
210
  8
1
 62
     7
 10
64.535007562557226
 20
-7.2366649751932073
 30
0.0
 40
0.1500000000000038
 50
273.48165566238458
 51
315.00000000000961
  0
ARC
  5
211
  8
1
 62
     7
 10
69.769577406111878
 20
-9.6080421887555474
 30
0.0
 40
0.1500000000000054
 50
217.77516506447799
 51
245.43557357412109
  0
ARC
  5
212
  8
1
 62
     7
 10
69.769577406111878
 20
-9.6080421887555474
 30
0.0
 40
0.1499999999999916
 50
176.25682072684751
 51
217.77516506447799
  0
ARC
  5
213
  8
1
 62
     7
 10
69.277001474770358
 20
-9.0465018514204871
 30
0.0
 40
0.1500000000000148
 50
224.73847638921131
 51
266.2568207268427
  0
ARC
  5
214
  8
1
 62
     7
 10
69.277001474770358
 20
-9.0465018514204871
 30
0.0
 40
0.1499999999999772
 50
183.22013205158271
 51
224.73847638921131
  0
ARC
  5
215
  8
1
 62
     7
 10
68.719981147816782
 20
-8.5488202725451856
 30
0.0
 40
0.1500000000000052
 50
231.70178771394609
 51
273.2201320515739
  0
ARC
  5
216
  8
1
 62
     7
 10
68.719981147816782
 20
-8.5488202725451856
 30
0.0
 40
0.1499999999999917
 50
190.1834433763168
 51
231.70178771394609
  0
ARC
  5
217
  8
1
 62
     7
 10
68.106733604998936
 20
-8.1223392649736681
 30
0.0
 40
0.1499999999999977
 50
238.66509903868871
 51
280.18344337631589
  0
ARC
  5
218
  8
1
 62
     7
 10
68.106733604998936
 20
-8.1223392649736681
 30
0.0
 40
0.1499999999999692
 50
197.14675470105729
 51
238.66509903868871
  0
ARC
  5
219
  8
1
 62
     7
 10
67.446305491556643
 20
-7.7733502886916872
 30
0.0
 40
0.1500000000000013
 50
245.62841036341931
 51
287.14675470104902
  0
ARC
  5
21A
  8
1
 62
     7
 10
67.446305491556643
 20
-7.7733502886916872
 30
0.0
 40
0.1499999999999905
 50
204.110066025789
 51
245.62841036341931
  0
ARC
  5
21B
  8
1
 62
     7
 10
66.748439461852882
 20
-7.5070016390295171
 30
0.0
 40
0.1500000000000057
 50
252.5917216881619
 51
294.11006602579562
  0
ARC
  5
21C
  8
1
 62
     7
 10
66.748439461852882
 20
-7.5070016390295171
 30
0.0
 40
0.149999999999977
 50
211.07337735053261
 51
252.5917216881619
  0
ARC
  5
21D
  8
1
 62
     7
 10
66.023430455459064
 20
-7.3272224988625183
 30
0.0
 40
0.1499999999999978
 50
259.55503301289531
 51
301.0733773505255
  0
ARC
  5
21E
  8
1
 62
     7
 10
66.023430455459064
 20
-7.3272224988625183
 30
0.0
 40
0.1499999999999809
 50
218.03668867526531
 51
259.55503301289531
  0
ARC
  5
21F
  8
1
 62
     7
 10
65.281973825912758
 20
-7.2366649751932073
 30
0.0
 40
0.1500000000000012
 50
266.51834433763167
 51
308.03668867526022
  0
ARC
  5
220
  8
1
 62
     7
 10
65.281973825912758
 20
-7.2366649751932073
 30
0.0
 40
0.1499999999999821
 50
225.00000000000199
 51
266.51834433763167
  0
ARC
  5
221
  8
1
 62
     7
 10
73.504643116941637
 20
-9.8753138778714007
 30
0.0
 40
0.5000000000000018
 50
270.0
 51
0.0
  0
ARC
  5
222
  8
1
 62
     7
 10
73.504643116941637
 20
-9.8753138778714007
 30
0.0
 40
0.5000000000000503
 50
263.00870827273849
 51
270.0
  0
ARC
  5
223
  8
1
 62
     7
 10
52.963214688398772
 20
-15.875313877871401
 30
0.0
 40
10.000000000000011
 50
45.132317050526879
 51
90.0
  0
ARC
  5
224
  8
1
 62
     7
 10
73.504643116941637
 20
-9.8753138778714007
 30
0.0
 40
0.5
 50
0.0
 51
58.137250431326947
  0
ARC
  5
225
  8
1
 62
     7
 10
54.236794248943937
 20
-40.875313877871399
 30
0.0
 40
37.000000000000007
 50
58.137250431327061
 51
90.0
  0
ARC
  5
226
  8
1
 62
     7
 10
37.181236692268861
 20
-8.5753138778714018
 30
0.0
 40
0.2999999999999973
 50
229.63240645581479
 51
270.0
  0
ARC
  5
227
  8
1
 62
     7
 10
37.779710695650508
 20
-8.5753138778714018
 30
0.0
 40
0.2999999999999972
 50
270.0
 51
314.86768294947359
  0
ARC
  5
228
  8
1
 62
     7
 10
60.828049541614369
 20
-8.5753138778714018
 30
0.0
 40
0.2999999999999972
 50
270.0
 51
310.36759354418518
  0
ARC
  5
229
  8
1
 62
     7
 10
60.229575538232773
 20
-8.5753138778714018
 30
0.0
 40
0.3000000000000042
 50
225.13231705052539
 51
270.0
  0
DIMENSION
  5
22A
  8
1
  6
CONTINUOUS
 62
     2
  2
*D3
 10
9.6705043905838011
 20
-3.875313877871398
 30
0.0
 11
7.4205043905838011
 21
-7.125313877871398
 31
0.0
  3
DMST_1
 13
24.50464311694164
 23
-10.375313877871401
 33
0.0
 14
43.772491984939343
 24
-3.875313877871398
 34
0.0
 50
90.0
  0
DIMENSION
  5
22B
  8
1
  6
CONTINUOUS
 62
     2
  2
*D4
 10
74.004643116941637
 20
-24.767506519501691
 30
0.0
 11
49.004643116941651
 21
-22.517506519501691
 31
0.0
  3
DMST_2
 13
24.004643116941651
 23
-9.8753138778714007
 33
0.0
 14
74.004643116941637
 24
-9.8753138778714007
 34
0.0
  0
ENDBLK
  5
22C
  8
0
  0
BLOCK
  8
0
  2
_HIRA3
 70
     0
 10
-319.66130519909223
 20
-380.4367322877157
 30
0.0
  3
_HIRA3
  1

  0
LINE
  5
22F
  8
1
  6
DASHED
 62
     6
 10
-319.66130519909223
 20
-380.4367322877157
 30
0.0
 11
-319.66130519909223
 21
-134.4030780917532
 31
0.0
  0
LINE
  5
230
  8
1
  6
DASHED
 62
     6
 10
-61.661305199092112
 20
-380.4367322877157
 30
0.0
 11
-319.66130519909223
 21
-380.4367322877157
 31
0.0
  0
LINE
  5
231
  8
1
  6
DASHED
 62
     6
 10
-61.661305199092112
 20
-395.40307809175317
 30
0.0
 11
-61.661305199092112
 21
-380.4367322877157
 31
0.0
  0
LINE
  5
232
  8
1
  6
DASHED
 62
     6
 10
66.338694800907888
 20
-395.40307809175317
 30
0.0
 11
-61.661305199092112
 21
-395.40307809175317
 31
0.0
  0
LINE
  5
233
  8
1
  6
DASHED
 62
     6
 10
66.338694800907888
 20
-134.4030780917532
 30
0.0
 11
66.338694800907888
 21
-395.40307809175317
 31
0.0
  0
LINE
  5
234
  8
1
  6
DASHED
 62
     6
 10
-319.66130519909223
 20
-134.4030780917532
 30
0.0
 11
66.338694800907888
 21
-134.4030780917532
 31
0.0
  0
ENDBLK
  5
235
  8
0
  0
BLOCK
  8
1
  2
*D7
 70
     1
 10
0.0
 20
0.0
 30
0.0
  3
*D7
  1

  0
LINE
  5
238
  8
1
 62
     2
 10
11.935220610695991
 20
-10.5086114720963
 30
0.0
 11
15.90384757729287
 21
-10.5086114720963
 31
0.0
  0
LINE
  5
239
  8
1
 62
     2
 10
15.90384757729287
 20
-7.0752781387629522
 30
0.0
 11
15.90384757729287
 21
-10.641944805429629
 31
0.0
  0
LINE
  5
23A
  8
1
 62
     2
 10
11.935220610695991
 20
-2.5752781387629509
 30
0.0
 11
11.935220610695991
 21
-10.641944805429629
 31
0.0
  0
LINE
  5
23B
  8
1
 62
     2
 10
15.90384757729287
 20
-10.5086114720963
 30
0.0
 11
15.57051424395954
 21
-10.551944805429629
 31
0.0
  0
LINE
  5
23C
  8
1
 62
     2
 10
15.57051424395954
 20
-10.551944805429629
 30
0.0
 11
15.57051424395954
 21
-10.46527813876296
 31
0.0
  0
LINE
  5
23D
  8
1
 62
     2
 10
15.57051424395954
 20
-10.46527813876296
 30
0.0
 11
15.90384757729287
 21
-10.5086114720963
 31
0.0
  0
LINE
  5
23E
  8
1
 62
     2
 10
11.935220610695991
 20
-10.5086114720963
 30
0.0
 11
12.268553944029319
 21
-10.46527813876296
 31
0.0
  0
LINE
  5
23F
  8
1
 62
     2
 10
12.268553944029319
 20
-10.46527813876296
 30
0.0
 11
12.268553944029319
 21
-10.551944805429629
 31
0.0
  0
LINE
  5
240
  8
1
 62
     2
 10
12.268553944029319
 20
-10.551944805429629
 30
0.0
 11
11.935220610695991
 21
-10.5086114720963
 31
0.0
  0
TEXT
  5
241
  8
1
 62
     2
 10
13.40599242732776
 20
-10.375278138762971
 30
0.0
 40
0.3333333333333333
  1
3.969
 41
0.7650000000000001
  0
TEXT
  5
242
  8
1
 62
     2
 10
13.196825760661101
 20
-10.375278138762971
 30
0.0
 40
0.3333333333333333
  1
(
 41
0.7650000000000001
  0
TEXT
  5
243
  8
1
 62
     2
 10
14.59974242732776
 20
-10.375278138762971
 30
0.0
 40
0.3333333333333333
  1
)
 41
0.7650000000000001
  0
ENDBLK
  5
244
  8
0
  0
BLOCK
  8
1
  2
*D8
 70
     1
 10
0.0
 20
0.0
 30
0.0
  3
*D8
  1

  0
LINE
  5
247
  8
1
 62
     2
 10
15.90384757729287
 20
-10.5086114720963
 30
0.0
 11
21.0999999999995
 21
-10.5086114720963
 31
0.0
  0
LINE
  5
248
  8
1
 62
     2
 10
21.0999999999995
 20
-4.0752781387629513
 30
0.0
 11
21.0999999999995
 21
-10.641944805429629
 31
0.0
  0
LINE
  5
249
  8
1
 62
     2
 10
15.90384757729287
 20
-7.0752781387629522
 30
0.0
 11
15.90384757729287
 21
-10.641944805429629
 31
0.0
  0
LINE
  5
24A
  8
1
 62
     2
 10
21.0999999999995
 20
-10.5086114720963
 30
0.0
 11
20.766666666666168
 21
-10.551944805429629
 31
0.0
  0
LINE
  5
24B
  8
1
 62
     2
 10
20.766666666666168
 20
-10.551944805429629
 30
0.0
 11
20.766666666666168
 21
-10.46527813876296
 31
0.0
  0
LINE
  5
24C
  8
1
 62
     2
 10
20.766666666666168
 20
-10.46527813876296
 30
0.0
 11
21.0999999999995
 21
-10.5086114720963
 31
0.0
  0
LINE
  5
24D
  8
1
 62
     2
 10
15.90384757729287
 20
-10.5086114720963
 30
0.0
 11
16.237180910626201
 21
-10.46527813876296
 31
0.0
  0
LINE
  5
24E
  8
1
 62
     2
 10
16.237180910626201
 20
-10.46527813876296
 30
0.0
 11
16.237180910626201
 21
-10.551944805429629
 31
0.0
  0
LINE
  5
24F
  8
1
 62
     2
 10
16.237180910626201
 20
-10.551944805429629
 30
0.0
 11
15.90384757729287
 21
-10.5086114720963
 31
0.0
  0
TEXT
  5
250
  8
1
 62
     2
 10
18.969947521278542
 20
-10.375278138762971
 30
0.0
 40
0.3333333333333333
  1
5.196
 41
0.7650000000000001
  0
TEXT
  5
251
  8
1
 62
     2
 10
18.76078085461188
 20
-10.375278138762971
 30
0.0
 40
0.3333333333333333
  1
(
 41
0.7650000000000001
  0
TEXT
  5
252
  8
1
 62
     2
 10
20.078697521278539
 20
-10.375278138762971
 30
0.0
 40
0.3333333333333333
  1
)
 41
0.7650000000000001
  0
ENDBLK
  5
253
  8
0
  0
BLOCK
  8
1
  2
*D9
 70
     1
 10
0.0
 20
0.0
 30
0.0
  3
*D9
  1

  0
LINE
  5
256
  8
1
 62
     2
 10
21.905152782656799
 20
-5.0917557571115344
 30
0.0
 11
22.759642675500391
 21
-4.8188261562257226
 31
0.0
  0
LINE
  5
257
  8
1
 62
     2
 10
21.61937634430608
 20
-5.1830346006822534
 30
0.0
 11
21.905152782656799
 21
-5.0917557571115344
 31
0.0
  0
LINE
  5
258
  8
1
 62
     2
 10
20.984317592415699
 20
-5.3858764752838146
 30
0.0
 11
21.61937634430608
 21
-5.1830346006822534
 31
0.0
  0
LINE
  5
259
  8
1
 62
     2
 10
21.88486859519664
 20
-5.0282498819224974
 30
0.0
 11
21.864584407736491
 21
-4.9647440067334614
 31
0.0
  0
LINE
  5
25A
  8
1
 62
     2
 10
21.59909215684592
 20
-5.1195287254932156
 30
0.0
 11
21.578807969385771
 21
-5.0560228503041786
 31
0.0
  0
LINE
  5
25B
  8
1
 62
     2
 10
21.61937634430608
 20
-5.1830346006822534
 30
0.0
 11
21.315031690209992
 21
-5.3257343568559099
 31
0.0
  0
LINE
  5
25C
  8
1
 62
     2
 10
21.315031690209992
 20
-5.3257343568559099
 30
0.0
 11
21.288662246511791
 21
-5.2431767191101599
 31
0.0
  0
LINE
  5
25D
  8
1
 62
     2
 10
21.288662246511791
 20
-5.2431767191101599
 30
0.0
 11
21.61937634430608
 21
-5.1830346006822534
 31
0.0
  0
LINE
  5
25E
  8
1
 62
     2
 10
21.905152782656799
 20
-5.0917557571115344
 30
0.0
 11
22.209497436752891
 21
-4.949056000937877
 31
0.0
  0
LINE
  5
25F
  8
1
 62
     2
 10
22.209497436752891
 20
-4.949056000937877
 30
0.0
 11
22.235866880451098
 21
-5.031613638683627
 31
0.0
  0
LINE
  5
260
  8
1
 62
     2
 10
22.235866880451098
 20
-5.031613638683627
 30
0.0
 11
21.905152782656799
 21
-5.0917557571115344
 31
0.0
  0
TEXT
  5
261
  8
1
 62
     2
 10
22.2265068561451
 20
-4.8491436348354799
 30
0.0
 40
0.3333333333333333
  1
0.3
 50
17.713818411179052
 41
0.7650000000000001
  0
ENDBLK
  5
262
  8
0
  0
BLOCK
  8
1
  2
*D10
 70
     1
 10
0.0
 20
0.0
 30
0.0
  3
*D10
  1

  0
LINE
  5
265
  8
1
 62
     2
 10
11.099999999999509
 20
-11.5086114720963
 30
0.0
 11
9.8474346388309435
 21
-11.5086114720963
 31
0.0
  0
LINE
  5
266
  8
1
 62
     2
 10
11.099999999999509
 20
-11.5086114720963
 30
0.0
 11
11.935220610695991
 21
-11.5086114720963
 31
0.0
  0
LINE
  5
267
  8
1
 62
     2
 10
12.60188727736265
 20
-11.5086114720963
 30
0.0
 11
11.935220610695991
 21
-11.5086114720963
 31
0.0
  0
LINE
  5
268
  8
1
 62
     2
 10
11.935220610695991
 20
-2.5752781387629509
 30
0.0
 11
11.935220610695991
 21
-11.641944805429629
 31
0.0
  0
LINE
  5
269
  8
1
 62
     2
 10
11.099999999999509
 20
-2.5752781387629509
 30
0.0
 11
11.099999999999509
 21
-11.641944805429629
 31
0.0
  0
LINE
  5
26A
  8
1
 62
     2
 10
11.935220610695991
 20
-11.5086114720963
 30
0.0
 11
12.268553944029319
 21
-11.46527813876296
 31
0.0
  0
LINE
  5
26B
  8
1
 62
     2
 10
12.268553944029319
 20
-11.46527813876296
 30
0.0
 11
12.268553944029319
 21
-11.551944805429629
 31
0.0
  0
LINE
  5
26C
  8
1
 62
     2
 10
12.268553944029319
 20
-11.551944805429629
 30
0.0
 11
11.935220610695991
 21
-11.5086114720963
 31
0.0
  0
LINE
  5
26D
  8
1
 62
     2
 10
11.099999999999509
 20
-11.5086114720963
 30
0.0
 11
10.76666666666617
 21
-11.551944805429629
 31
0.0
  0
LINE
  5
26E
  8
1
 62
     2
 10
10.76666666666617
 20
-11.551944805429629
 30
0.0
 11
10.76666666666617
 21
-11.46527813876296
 31
0.0
  0
LINE
  5
26F
  8
1
 62
     2
 10
10.76666666666617
 20
-11.46527813876296
 30
0.0
 11
11.099999999999509
 21
-11.5086114720963
 31
0.0
  0
TEXT
  5
270
  8
1
 62
     2
 10
9.8474346388309435
 20
-11.375278138762971
 30
0.0
 40
0.3333333333333333
  1
0.835
 41
0.7650000000000001
  0
ENDBLK
  5
271
  8
0
  0
BLOCK
  8
1
  2
*D11
 70
     1
 10
0.0
 20
0.0
 30
0.0
  3
*D11
  1

  0
LINE
  5
274
  8
1
 62
     2
 10
11.93522061069598
 20
-11.5086114720963
 30
0.0
 11
21.0999999999995
 21
-11.5086114720963
 31
0.0
  0
LINE
  5
275
  8
1
 62
     2
 10
21.0999999999995
 20
-4.0752781387629513
 30
0.0
 11
21.0999999999995
 21
-11.641944805429629
 31
0.0
  0
LINE
  5
276
  8
1
 62
     2
 10
11.93522061069598
 20
-2.5752781387629509
 30
0.0
 11
11.93522061069598
 21
-11.641944805429629
 31
0.0
  0
LINE
  5
277
  8
1
 62
     2
 10
21.0999999999995
 20
-11.5086114720963
 30
0.0
 11
20.766666666666168
 21
-11.551944805429629
 31
0.0
  0
LINE
  5
278
  8
1
 62
     2
 10
20.766666666666168
 20
-11.551944805429629
 30
0.0
 11
20.766666666666168
 21
-11.46527813876296
 31
0.0
  0
LINE
  5
279
  8
1
 62
     2
 10
20.766666666666168
 20
-11.46527813876296
 30
0.0
 11
21.0999999999995
 21
-11.5086114720963
 31
0.0
  0
LINE
  5
27A
  8
1
 62
     2
 10
11.93522061069598
 20
-11.5086114720963
 30
0.0
 11
12.268553944029319
 21
-11.46527813876296
 31
0.0
  0
LINE
  5
27B
  8
1
 62
     2
 10
12.268553944029319
 20
-11.46527813876296
 30
0.0
 11
12.268553944029319
 21
-11.551944805429629
 31
0.0
  0
LINE
  5
27C
  8
1
 62
     2
 10
12.268553944029319
 20
-11.551944805429629
 30
0.0
 11
11.93522061069598
 21
-11.5086114720963
 31
0.0
  0
TEXT
  5
27D
  8
1
 62
     2
 10
16.04656863868107
 20
-11.375278138762971
 30
0.0
 40
0.3333333333333333
  1
9.165
 41
0.7650000000000001
  0
ENDBLK
  5
27E
  8
0
  0
BLOCK
  8
1
  2
*D12
 70
     1
 10
0.0
 20
0.0
 30
0.0
  3
*D12
  1

  0
LINE
  5
281
  8
1
 62
     2
 10
21.099999999999511
 20
-11.5086114720963
 30
0.0
 11
24.99999999999952
 21
-11.5086114720963
 31
0.0
  0
LINE
  5
282
  8
1
 62
     2
 10
24.99999999999952
 20
-3.5752781387629509
 30
0.0
 11
24.99999999999952
 21
-11.641944805429629
 31
0.0
  0
LINE
  5
283
  8
1
 62
     2
 10
21.099999999999511
 20
-4.0752781387629513
 30
0.0
 11
21.099999999999511
 21
-11.641944805429629
 31
0.0
  0
LINE
  5
284
  8
1
 62
     2
 10
24.99999999999952
 20
-11.5086114720963
 30
0.0
 11
24.666666666666181
 21
-11.551944805429629
 31
0.0
  0
LINE
  5
285
  8
1
 62
     2
 10
24.666666666666181
 20
-11.551944805429629
 30
0.0
 11
24.666666666666181
 21
-11.46527813876296
 31
0.0
  0
LINE
  5
286
  8
1
 62
     2
 10
24.666666666666181
 20
-11.46527813876296
 30
0.0
 11
24.99999999999952
 21
-11.5086114720963
 31
0.0
  0
LINE
  5
287
  8
1
 62
     2
 10
21.099999999999511
 20
-11.5086114720963
 30
0.0
 11
21.43333333333284
 21
-11.46527813876296
 31
0.0
  0
LINE
  5
288
  8
1
 62
     2
 10
21.43333333333284
 20
-11.46527813876296
 30
0.0
 11
21.43333333333284
 21
-11.551944805429629
 31
0.0
  0
LINE
  5
289
  8
1
 62
     2
 10
21.43333333333284
 20
-11.551944805429629
 30
0.0
 11
21.099999999999511
 21
-11.5086114720963
 31
0.0
  0
TEXT
  5
28A
  8
1
 62
     2
 10
22.791458333332841
 20
-11.375278138762971
 30
0.0
 40
0.3333333333333333
  1
3.9
 41
0.7650000000000001
  0
ENDBLK
  5
28B
  8
0
  0
BLOCK
  8
1
  2
*D13
 70
     1
 10
0.0
 20
0.0
 30
0.0
  3
*D13
  1

  0
LINE
  5
28E
  8
1
 62
     2
 10
20.158008277519411
 20
-4.0086114720962831
 30
0.0
 11
20.158008277519411
 21
-4.8450994669921439
 31
0.0
  0
LINE
  5
28F
  8
1
 62
     2
 10
20.158008277519411
 20
-4.0086114720962831
 30
0.0
 11
20.158008277519411
 21
-3.608611472096285
 31
0.0
  0
LINE
  5
290
  8
1
 62
     2
 10
20.158008277519411
 20
-2.9419448054296198
 30
0.0
 11
20.158008277519411
 21
-3.608611472096285
 31
0.0
  0
LINE
  5
291
  8
1
 62
     2
 10
21.14095315309665
 20
-3.608611472096285
 30
0.0
 11
20.024674944186071
 21
-3.608611472096285
 31
0.0
  0
LINE
  5
292
  8
1
 62
     2
 10
21.033333333332841
 20
-4.0086114720962831
 30
0.0
 11
20.024674944186071
 21
-4.0086114720962831
 31
0.0
  0
LINE
  5
293
  8
1
 62
     2
 10
20.158008277519411
 20
-3.608611472096285
 30
0.0
 11
20.114674944186071
 21
-3.275278138762951
 31
0.0
  0
LINE
  5
294
  8
1
 62
     2
 10
20.114674944186071
 20
-3.275278138762951
 30
0.0
 11
20.20134161085274
 21
-3.275278138762951
 31
0.0
  0
LINE
  5
295
  8
1
 62
     2
 10
20.20134161085274
 20
-3.275278138762951
 30
0.0
 11
20.158008277519411
 21
-3.608611472096285
 31
0.0
  0
LINE
  5
296
  8
1
 62
     2
 10
20.158008277519411
 20
-4.0086114720962831
 30
0.0
 11
20.20134161085274
 21
-4.3419448054296161
 31
0.0
  0
LINE
  5
297
  8
1
 62
     2
 10
20.20134161085274
 20
-4.3419448054296161
 30
0.0
 11
20.114674944186071
 21
-4.3419448054296161
 31
0.0
  0
LINE
  5
298
  8
1
 62
     2
 10
20.114674944186071
 20
-4.3419448054296161
 30
0.0
 11
20.158008277519411
 21
-4.0086114720962831
 31
0.0
  0
TEXT
  5
299
  8
1
 62
     2
 10
20.024674944186081
 20
-4.8450994669921457
 30
0.0
 40
0.3333333333333333
  1
0.4
 50
90.0
 41
0.7650000000000001
  0
ENDBLK
  5
29A
  8
0
  0
BLOCK
  8
1
  2
*D14
 70
     1
 10
0.0
 20
0.0
 30
0.0
  3
*D14
  1

  0
LINE
  5
29D
  8
1
 62
     2
 10
2.848997776243706
 20
-4.0086114720962831
 30
0.0
 11
2.848997776243706
 21
-2.5086114720962831
 31
0.0
  0
LINE
  5
29E
  8
1
 62
     2
 10
0.0666666666661788
 20
-2.5086114720962831
 30
0.0
 11
2.982331109577038
 21
-2.5086114720962831
 31
0.0
  0
LINE
  5
29F
  8
1
 62
     2
 10
0.0666666666661788
 20
-4.0086114720962831
 30
0.0
 11
2.982331109577038
 21
-4.0086114720962831
 31
0.0
  0
LINE
  5
2A0
  8
1
 62
     2
 10
2.848997776243706
 20
-2.5086114720962831
 30
0.0
 11
2.8923311095770381
 21
-2.8419448054296179
 31
0.0
  0
LINE
  5
2A1
  8
1
 62
     2
 10
2.8923311095770381
 20
-2.8419448054296179
 30
0.0
 11
2.805664442910373
 21
-2.8419448054296179
 31
0.0
  0
LINE
  5
2A2
  8
1
 62
     2
 10
2.805664442910373
 20
-2.8419448054296179
 30
0.0
 11
2.848997776243706
 21
-2.5086114720962831
 31
0.0
  0
LINE
  5
2A3
  8
1
 62
     2
 10
2.848997776243706
 20
-4.0086114720962831
 30
0.0
 11
2.805664442910373
 21
-3.6752781387629501
 31
0.0
  0
LINE
  5
2A4
  8
1
 62
     2
 10
2.805664442910373
 20
-3.6752781387629501
 30
0.0
 11
2.8923311095770381
 21
-3.6752781387629501
 31
0.0
  0
LINE
  5
2A5
  8
1
 62
     2
 10
2.8923311095770381
 20
-3.6752781387629501
 30
0.0
 11
2.848997776243706
 21
-4.0086114720962831
 31
0.0
  0
TEXT
  5
2A6
  8
1
 62
     2
 10
2.715664442910374
 20
-3.47465313876295
 30
0.0
 40
0.3333333333333333
  1
1.5
 50
90.0
 41
0.7650000000000001
  0
ENDBLK
  5
2A7
  8
0
  0
BLOCK
  8
1
  2
*D15
 70
     1
 10
0.0
 20
0.0
 30
0.0
  3
*D15
  1

  0
LINE
  5
2AA
  8
1
 62
     2
 10
2.848997776243706
 20
-2.5086114720962831
 30
0.0
 11
2.848997776243706
 21
0.491388527903716
 31
0.0
  0
LINE
  5
2AB
  8
1
 62
     2
 10
3.891904904789981
 20
0.491388527903716
 30
0.0
 11
2.7156644429103731
 21
0.491388527903716
 31
0.0
  0
LINE
  5
2AC
  8
1
 62
     2
 10
0.0666666666661788
 20
-2.5086114720962831
 30
0.0
 11
2.982331109577038
 21
-2.5086114720962831
 31
0.0
  0
LINE
  5
2AD
  8
1
 62
     2
 10
2.848997776243706
 20
-2.5086114720962831
 30
0.0
 11
2.805664442910373
 21
-2.1752781387629501
 31
0.0
  0
LINE
  5
2AE
  8
1
 62
     2
 10
2.805664442910373
 20
-2.1752781387629501
 30
0.0
 11
2.8923311095770381
 21
-2.1752781387629501
 31
0.0
  0
LINE
  5
2AF
  8
1
 62
     2
 10
2.8923311095770381
 20
-2.1752781387629501
 30
0.0
 11
2.848997776243706
 21
-2.5086114720962831
 31
0.0
  0
LINE
  5
2B0
  8
1
 62
     2
 10
2.848997776243706
 20
0.491388527903716
 30
0.0
 11
2.8923311095770381
 21
0.1580551945703826
 31
0.0
  0
LINE
  5
2B1
  8
1
 62
     2
 10
2.8923311095770381
 20
0.1580551945703826
 30
0.0
 11
2.805664442910373
 21
0.1580551945703826
 31
0.0
  0
LINE
  5
2B2
  8
1
 62
     2
 10
2.805664442910373
 20
0.1580551945703826
 30
0.0
 11
2.848997776243706
 21
0.491388527903716
 31
0.0
  0
TEXT
  5
2B3
  8
1
 62
     2
 10
2.715664442910374
 20
-1.0936114720962831
 30
0.0
 40
0.3333333333333333
  1
3
 50
90.0
 41
0.7650000000000001
  0
TEXT
  5
2B4
  8
1
 62
     2
 10
2.715664442910374
 20
-1.30277813876295
 30
0.0
 40
0.3333333333333333
  1
(
 50
90.0
 41
0.7650000000000001
  0
TEXT
  5
2B5
  8
1
 62
     2
 10
2.715664442910374
 20
-0.7569448054296173
 30
0.0
 40
0.3333333333333333
  1
)
 50
90.0
 41
0.7650000000000001
  0
ENDBLK
  5
2B6
  8
0
  0
BLOCK
  8
1
  2
*D16
 70
     1
 10
0.0
 20
0.0
 30
0.0
  3
*D16
  1

  0
LINE
  5
2B9
  8
1
 62
     2
 10
7.9665926045944104
 20
-4.0086114720962831
 30
0.0
 11
7.9665926045944104
 21
-1.00861147209629
 31
0.0
  0
LINE
  5
2BA
  8
1
 62
     2
 10
15.83718091062622
 20
-1.00861147209629
 30
0.0
 11
7.8332592712610758
 21
-1.00861147209629
 31
0.0
  0
LINE
  5
2BB
  8
1
 62
     2
 10
24.43333333333284
 20
-4.0086114720962831
 30
0.0
 11
7.8332592712610758
 21
-4.0086114720962831
 31
0.0
  0
LINE
  5
2BC
  8
1
 62
     2
 10
7.9665926045944104
 20
-1.00861147209629
 30
0.0
 11
8.0099259379277417
 21
-1.341944805429625
 31
0.0
  0
LINE
  5
2BD
  8
1
 62
     2
 10
8.0099259379277417
 20
-1.341944805429625
 30
0.0
 11
7.9232592712610757
 21
-1.341944805429625
 31
0.0
  0
LINE
  5
2BE
  8
1
 62
     2
 10
7.9232592712610757
 20
-1.341944805429625
 30
0.0
 11
7.9665926045944104
 21
-1.00861147209629
 31
0.0
  0
LINE
  5
2BF
  8
1
 62
     2
 10
7.9665926045944104
 20
-4.0086114720962831
 30
0.0
 11
7.9232592712610757
 21
-3.6752781387629501
 31
0.0
  0
LINE
  5
2C0
  8
1
 62
     2
 10
7.9232592712610757
 20
-3.6752781387629501
 30
0.0
 11
8.0099259379277417
 21
-3.6752781387629501
 31
0.0
  0
LINE
  5
2C1
  8
1
 62
     2
 10
8.0099259379277417
 20
-3.6752781387629501
 30
0.0
 11
7.9665926045944104
 21
-4.0086114720962831
 31
0.0
  0
TEXT
  5
2C2
  8
1
 62
     2
 10
7.8332592712610802
 20
-2.5936114720962911
 30
0.0
 40
0.3333333333333333
  1
3
 50
90.0
 41
0.7650000000000001
  0
ENDBLK
  5
2C3
  8
0
  0
BLOCK
  8
1
  2
*D17
 70
     1
 10
0.0
 20
0.0
 30
0.0
  3
*D17
  1

  0
LINE
  5
2C6
  8
1
 62
     2
 10
2.848997776243706
 20
0.491388527903716
 30
0.0
 11
2.848997776243706
 21
2.491388527903716
 31
0.0
  0
LINE
  5
2C7
  8
1
 62
     2
 10
5.1654844653351386
 20
2.491388527903716
 30
0.0
 11
2.7156644429103731
 21
2.491388527903716
 31
0.0
  0
LINE
  5
2C8
  8
1
 62
     2
 10
3.891904904789981
 20
0.491388527903716
 30
0.0
 11
2.7156644429103731
 21
0.491388527903716
 31
0.0
  0
LINE
  5
2C9
  8
1
 62
     2
 10
2.848997776243706
 20
0.491388527903716
 30
0.0
 11
2.805664442910373
 21
0.8247218612370494
 31
0.0
  0
LINE
  5
2CA
  8
1
 62
     2
 10
2.805664442910373
 20
0.8247218612370494
 30
0.0
 11
2.8923311095770381
 21
0.8247218612370494
 31
0.0
  0
LINE
  5
2CB
  8
1
 62
     2
 10
2.8923311095770381
 20
0.8247218612370494
 30
0.0
 11
2.848997776243706
 21
0.491388527903716
 31
0.0
  0
LINE
  5
2CC
  8
1
 62
     2
 10
2.848997776243706
 20
2.491388527903716
 30
0.0
 11
2.8923311095770381
 21
2.1580551945703821
 31
0.0
  0
LINE
  5
2CD
  8
1
 62
     2
 10
2.8923311095770381
 20
2.1580551945703821
 30
0.0
 11
2.805664442910373
 21
2.1580551945703821
 31
0.0
  0
LINE
  5
2CE
  8
1
 62
     2
 10
2.805664442910373
 20
2.1580551945703821
 30
0.0
 11
2.848997776243706
 21
2.491388527903716
 31
0.0
  0
TEXT
  5
2CF
  8
1
 62
     2
 10
2.715664442910374
 20
1.406388527903716
 30
0.0
 40
0.3333333333333333
  1
2
 50
90.0
 41
0.7650000000000001
  0
ENDBLK
  5
2D0
  8
0
  0
BLOCK
  8
1
  2
*D18
 70
     1
 10
0.0
 20
0.0
 30
0.0
  3
*D18
  1

  0
LINE
  5
2D3
  8
1
 62
     2
 10
1.463980037984604
 20
-4.0086114720962831
 30
0.0
 11
1.463980037984604
 21
2.491388527903716
 31
0.0
  0
LINE
  5
2D4
  8
1
 62
     2
 10
5.1654844653351386
 20
2.491388527903716
 30
0.0
 11
1.3306467046512711
 21
2.491388527903716
 31
0.0
  0
LINE
  5
2D5
  8
1
 62
     2
 10
24.43333333333285
 20
-4.0086114720962831
 30
0.0
 11
1.3306467046512711
 21
-4.0086114720962831
 31
0.0
  0
LINE
  5
2D6
  8
1
 62
     2
 10
1.463980037984604
 20
-4.0086114720962831
 30
0.0
 11
1.4206467046512721
 21
-3.6752781387629501
 31
0.0
  0
LINE
  5
2D7
  8
1
 62
     2
 10
1.4206467046512721
 20
-3.6752781387629501
 30
0.0
 11
1.5073133713179381
 21
-3.6752781387629501
 31
0.0
  0
LINE
  5
2D8
  8
1
 62
     2
 10
1.5073133713179381
 20
-3.6752781387629501
 30
0.0
 11
1.463980037984604
 21
-4.0086114720962831
 31
0.0
  0
LINE
  5
2D9
  8
1
 62
     2
 10
1.463980037984604
 20
2.491388527903716
 30
0.0
 11
1.5073133713179381
 21
2.1580551945703821
 31
0.0
  0
LINE
  5
2DA
  8
1
 62
     2
 10
1.5073133713179381
 20
2.1580551945703821
 30
0.0
 11
1.4206467046512721
 21
2.1580551945703821
 31
0.0
  0
LINE
  5
2DB
  8
1
 62
     2
 10
1.4206467046512721
 20
2.1580551945703821
 30
0.0
 11
1.463980037984604
 21
2.491388527903716
 31
0.0
  0
TEXT
  5
2DC
  8
1
 62
     2
 10
1.330646704651274
 20
-1.0171531387629491
 30
0.0
 40
0.3333333333333333
  1
6.5
 50
90.0
 41
0.7650000000000001
  0
ENDBLK
  5
2DD
  8
0
  0
BLOCK
  8
1
  2
*D19
 70
     1
 10
0.0
 20
0.0
 30
0.0
  3
*D19
  1

  0
LINE
  5
2E0
  8
1
 62
     2
 10
-25.00000000000049
 20
-12.5086114720963
 30
0.0
 11
24.99999999999952
 21
-12.5086114720963
 31
0.0
  0
LINE
  5
2E1
  8
1
 62
     2
 10
24.99999999999952
 20
-3.5752781387629509
 30
0.0
 11
24.99999999999952
 21
-12.641944805429629
 31
0.0
  0
LINE
  5
2E2
  8
1
 62
     2
 10
-25.00000000000049
 20
-3.5752781387629509
 30
0.0
 11
-25.00000000000049
 21
-12.641944805429629
 31
0.0
  0
LINE
  5
2E3
  8
1
 62
     2
 10
24.99999999999952
 20
-12.5086114720963
 30
0.0
 11
24.666666666666181
 21
-12.551944805429629
 31
0.0
  0
LINE
  5
2E4
  8
1
 62
     2
 10
24.666666666666181
 20
-12.551944805429629
 30
0.0
 11
24.666666666666181
 21
-12.46527813876296
 31
0.0
  0
LINE
  5
2E5
  8
1
 62
     2
 10
24.666666666666181
 20
-12.46527813876296
 30
0.0
 11
24.99999999999952
 21
-12.5086114720963
 31
0.0
  0
LINE
  5
2E6
  8
1
 62
     2
 10
-25.00000000000049
 20
-12.5086114720963
 30
0.0
 11
-24.666666666667162
 21
-12.46527813876296
 31
0.0
  0
LINE
  5
2E7
  8
1
 62
     2
 10
-24.666666666667162
 20
-12.46527813876296
 30
0.0
 11
-24.666666666667162
 21
-12.551944805429629
 31
0.0
  0
LINE
  5
2E8
  8
1
 62
     2
 10
-24.666666666667162
 20
-12.551944805429629
 30
0.0
 11
-25.00000000000049
 21
-12.5086114720963
 31
0.0
  0
TEXT
  5
2E9
  8
1
 62
     2
 10
-0.5462291666671569
 20
-12.375278138762971
 30
0.0
 40
0.3333333333333333
  1
50
 41
0.7650000000000001
  0
TEXT
  5
2EA
  8
1
 62
     2
 10
0.0454374999995098
 20
-12.32527813876297
 30
0.0
 40
0.2333333333333333
  1
%%p0.6
 41
0.7650000000000001
  0
ENDBLK
  5
2EB
  8
0
  0
BLOCK
  8
1
  2
*D20
 70
     1
 10
0.0
 20
0.0
 30
0.0
  3
*D20
  1

  0
LINE
  5
2EE
  8
1
 62
     2
 10
15.90384757729287
 20
-7.0086114720962822
 30
0.0
 11
21.61937634430608
 21
-5.1830346006822516
 31
0.0
  0
LINE
  5
2EF
  8
1
 62
     2
 10
21.61937634430608
 20
-5.1830346006822516
 30
0.0
 11
21.315031690209999
 21
-5.3257343568559099
 31
0.0
  0
LINE
  5
2F0
  8
1
 62
     2
 10
21.315031690209999
 20
-5.3257343568559099
 30
0.0
 11
21.288662246511791
 21
-5.2431767191101617
 31
0.0
  0
LINE
  5
2F1
  8
1
 62
     2
 10
21.288662246511791
 20
-5.2431767191101617
 30
0.0
 11
21.61937634430608
 21
-5.1830346006822516
 31
0.0
  0
TEXT
  5
2F2
  8
1
 62
     2
 10
19.441687898086009
 20
-5.7386328296496822
 30
0.0
 40
0.3333333333333333
  1
6
 50
17.713818411179759
 41
0.7650000000000001
  0
TEXT
  5
2F3
  8
1
 62
     2
 10
19.09399323142603
 20
-5.8496887559940394
 30
0.0
 40
0.3333333333333333
  1
R
 50
17.713818411179759
 41
0.7650000000000001
  0
ENDBLK
  5
2F4
  8
0
  0
BLOCK
  8
1
  2
*D21
 70
     1
 10
0.0
 20
0.0
 30
0.0
  3
*D21
  1

  0
LINE
  5
2F7
  8
1
 62
     2
 10
14.142209577393331
 20
-1.2682344655376441
 30
0.0
 11
13.130455974832049
 21
0.3846535845790278
 31
0.0
  0
LINE
  5
2F8
  8
1
 62
     2
 10
14.142209577393331
 20
-1.2682344655376441
 30
0.0
 11
13.931226582026341
 21
-1.0065570600268521
 31
0.0
  0
LINE
  5
2F9
  8
1
 62
     2
 10
13.931226582026341
 20
-1.0065570600268521
 30
0.0
 11
14.00514471623444
 21
-0.961310838678486
 31
0.0
  0
LINE
  5
2FA
  8
1
 62
     2
 10
14.00514471623444
 20
-0.961310838678486
 30
0.0
 11
14.142209577393331
 21
-1.2682344655376441
 31
0.0
  0
TEXT
  5
2FB
  8
1
 62
     2
 10
13.434732382753969
 20
0.1429540906616578
 30
0.0
 40
0.3333333333333333
  1
0.15
 50
301.47132560533811
 41
0.7650000000000001
  0
TEXT
  5
2FC
  8
1
 62
     2
 10
13.24417618130604
 20
0.454263155884208
 30
0.0
 40
0.3333333333333333
  1
R
 50
301.47132560533811
 41
0.7650000000000001
  0
ENDBLK
  5
2FD
  8
0
  0
BLOCK
  8
1
  2
*D22
 70
     1
 10
0.0
 20
0.0
 30
0.0
  3
*D22
  1

  0
LINE
  5
300
  8
1
 62
     2
 10
10.301393653117771
 20
-3.6390716734556379
 30
0.0
 11
11.062212107400001
 21
-2.4606473811396792
 31
0.0
  0
LINE
  5
301
  8
1
 62
     2
 10
11.062212107400001
 20
-2.4606473811396792
 30
0.0
 11
10.91781694549444
 21
-2.764191325416542
 31
0.0
  0
LINE
  5
302
  8
1
 62
     2
 10
10.91781694549444
 20
-2.764191325416542
 30
0.0
 11
10.84500657177079
 21
-2.7171832347370231
 31
0.0
  0
LINE
  5
303
  8
1
 62
     2
 10
10.84500657177079
 20
-2.7171832347370231
 30
0.0
 11
11.062212107400001
 21
-2.4606473811396792
 31
0.0
  0
TEXT
  5
304
  8
1
 62
     2
 10
10.38735407544322
 20
-3.2601078446125551
 30
0.0
 40
0.3333333333333333
  1
0.3
 50
57.152761467085718
 41
0.7650000000000001
  0
TEXT
  5
305
  8
1
 62
     2
 10
10.18937769354293
 20
-3.5667515339486862
 30
0.0
 40
0.3333333333333333
  1
R
 50
57.152761467085718
 41
0.7650000000000001
  0
ENDBLK
  5
306
  8
0
  0
BLOCK
  8
1
  2
*D23
 70
     1
 10
0.0
 20
0.0
 30
0.0
  3
*D23
  1

  0
LINE
  5
309
  8
1
 62
     2
 10
12.72458425388114
 20
-3.6831843589895059
 30
0.0
 11
11.979847741325029
 21
-2.4645921636414561
 31
0.0
  0
LINE
  5
30A
  8
1
 62
     2
 10
11.979847741325029
 20
-2.4645921636414561
 30
0.0
 11
12.19064641527353
 21
-2.7264180751751308
 31
0.0
  0
LINE
  5
30B
  8
1
 62
     2
 10
12.19064641527353
 20
-2.7264180751751308
 30
0.0
 11
12.11669643771604
 21
-2.7716122333192681
 31
0.0
  0
LINE
  5
30C
  8
1
 62
     2
 10
12.11669643771604
 20
-2.7716122333192681
 30
0.0
 11
11.979847741325029
 21
-2.4645921636414561
 31
0.0
  0
TEXT
  5
30D
  8
1
 62
     2
 10
12.568709458503861
 20
-3.172443720744444
 30
0.0
 40
0.3333333333333333
  1
0.3
 50
301.43097881641472
 41
0.7650000000000001
  0
TEXT
  5
30E
  8
1
 62
     2
 10
12.37837252324297
 20
-2.8610005460311529
 30
0.0
 40
0.3333333333333333
  1
R
 50
301.43097881641472
 41
0.7650000000000001
  0
ENDBLK
  5
30F
  8
0
  0
BLOCK
  8
1
  2
*D24
 70
     1
 10
0.0
 20
0.0
 30
0.0
  3
*D24
  1

  0
LINE
  5
312
  8
1
 62
     2
 10
13.74935906990785
 20
-2.895252401066287
 30
0.0
 11
12.230138674501021
 21
-2.2414157947433591
 31
0.0
  0
LINE
  5
313
  8
1
 62
     2
 10
12.230138674501021
 20
-2.2414157947433591
 30
0.0
 11
12.55345041100423
 21
-2.3333854089002508
 31
0.0
  0
LINE
  5
314
  8
1
 62
     2
 10
12.55345041100423
 20
-2.3333854089002508
 30
0.0
 11
12.519189385953
 21
-2.412992527134425
 31
0.0
  0
LINE
  5
315
  8
1
 62
     2
 10
12.519189385953
 20
-2.412992527134425
 30
0.0
 11
12.230138674501021
 21
-2.2414157947433591
 31
0.0
  0
TEXT
  5
316
  8
1
 62
     2
 10
13.170952291293631
 20
-2.5011624580642571
 30
0.0
 40
0.3333333333333333
  1
0.15
 50
336.71409681801521
 41
0.7650000000000001
  0
TEXT
  5
317
  8
1
 62
     2
 10
12.83568385103816
 20
-2.3568708333292481
 30
0.0
 40
0.3333333333333333
  1
R
 50
336.71409681801521
 41
0.7650000000000001
  0
ENDBLK
  5
318
  8
0
  0
BLOCK
  8
1
  2
*D25
 70
     1
 10
0.0
 20
0.0
 30
0.0
  3
*D25
  1

  0
LINE
  5
31B
  8
1
 62
     2
 10
17.264001569643359
 20
3.0982814037570279
 30
0.0
 11
16.50685095987167
 21
0.7317225755746079
 31
0.0
  0
LINE
  5
31C
  8
1
 62
     2
 10
16.50685095987167
 20
0.7317225755746079
 30
0.0
 11
16.567152368895741
 21
1.062407665892571
 31
0.0
  0
LINE
  5
31D
  8
1
 62
     2
 10
16.567152368895741
 20
1.062407665892571
 30
0.0
 11
16.64969729549389
 21
1.035998459088552
 31
0.0
  0
LINE
  5
31E
  8
1
 62
     2
 10
16.64969729549389
 20
1.035998459088552
 30
0.0
 11
16.50685095987167
 21
0.7317225755746079
 31
0.0
  0
TEXT
  5
31F
  8
1
 62
     2
 10
17.00750268766495
 20
2.734123331868441
 30
0.0
 40
0.3333333333333333
  1
37
 50
72.258583494162124
 41
0.7650000000000001
  0
TEXT
  5
320
  8
1
 62
     2
 10
16.896279297471089
 20
2.3864821986954721
 30
0.0
 40
0.3333333333333333
  1
R
 50
72.258583494162124
 41
0.7650000000000001
  0
ENDBLK
  5
321
  8
0
  0
BLOCK
  8
1
  2
*D26
 70
     1
 10
0.0
 20
0.0
 30
0.0
  3
*D26
  1

  0
LINE
  5
324
  8
1
 62
     2
 10
24.99357976415024
 20
-3.5884802170526982
 30
0.0
 11
23.21763475249875
 21
-3.3011051877374831
 31
0.0
  0
LINE
  5
325
  8
1
 62
     2
 10
24.99357976415024
 20
-3.5884802170526982
 30
0.0
 11
24.657604630153539
 21
-3.5780112999748179
 31
0.0
  0
LINE
  5
326
  8
1
 62
     2
 10
24.657604630153539
 20
-3.5780112999748179
 30
0.0
 11
24.671448545945971
 21
-3.4924574741886909
 31
0.0
  0
LINE
  5
327
  8
1
 62
     2
 10
24.671448545945971
 20
-3.4924574741886909
 30
0.0
 11
24.99357976415024
 21
-3.5884802170526982
 31
0.0
  0
TEXT
  5
328
  8
1
 62
     2
 10
23.59924631231717
 20
-3.227788101115475
 30
0.0
 40
0.3333333333333333
  1
0.5
 50
350.80834046881472
 41
0.7650000000000001
  0
TEXT
  5
329
  8
1
 62
     2
 10
23.23893308448713
 20
-3.169483917297292
 30
0.0
 40
0.3333333333333333
  1
R
 50
350.80834046881472
 41
0.7650000000000001
  0
ENDBLK
  5
32A
  8
0
  0
BLOCK
  8
1
  2
*D27
 70
     1
 10
0.0
 20
0.0
 30
0.0
  3
*D27
  1

  0
LINE
  5
32D
  8
1
 62
     2
 10
3.958571571456651
 20
-9.5086114720962822
 30
0.0
 11
7.3181576180033554
 21
-0.0898439520940704
 31
0.0
  0
LINE
  5
32E
  8
1
 62
     2
 10
7.3181576180033554
 20
-0.0898439520940704
 30
0.0
 11
7.2469860757051423
 21
-0.4183610756291801
 31
0.0
  0
LINE
  5
32F
  8
1
 62
     2
 10
7.2469860757051423
 20
-0.4183610756291801
 30
0.0
 11
7.1653567571984551
 21
-0.3892446632257752
 31
0.0
  0
LINE
  5
330
  8
1
 62
     2
 10
7.1653567571984551
 20
-0.3892446632257752
 30
0.0
 11
7.3181576180033554
 21
-0.0898439520940704
 31
0.0
  0
TEXT
  5
331
  8
1
 62
     2
 10
5.4451171108514238
 20
-4.9441324070187553
 30
0.0
 40
0.3333333333333333
  1
10
 50
70.369159263297476
 41
0.7650000000000001
  0
TEXT
  5
332
  8
1
 62
     2
 10
5.32249222015247
 20
-5.287917421498836
 30
0.0
 40
0.3333333333333333
  1
R
 50
70.369159263297476
 41
0.7650000000000001
  0
ENDBLK
  5
333
  8
0
  0
BLOCK
  8
1
  2
*D28
 70
     1
 10
0.0
 20
0.0
 30
0.0
  3
*D28
  1

  0
LINE
  5
336
  8
1
 62
     2
 10
16.21840514387177
 20
-1.02316903867517
 30
0.0
 11
17.0345125680238
 21
-1.839276462827178
 31
0.0
  0
LINE
  5
337
  8
1
 62
     2
 10
15.589290010714
 20
-1.02316903867517
 30
0.0
 11
14.77318258656198
 21
-1.8392764628272129
 31
0.0
  0
LINE
  5
338
  8
1
 62
     2
 10
17.0345125680238
 20
-1.839276462827178
 30
0.0
 11
17.128793472182011
 21
-1.9335573669853809
 31
0.0
  0
LINE
  5
339
  8
1
 62
     2
 10
14.77318258656198
 20
-1.8392764628272129
 30
0.0
 11
14.678901682403771
 21
-1.933557366985418
 31
0.0
  0
ARC
  5
33A
  8
1
 62
     2
 10
15.903847577292879
 20
-0.7086114720962862
 30
0.0
 40
1.5990017643921031
 50
225.00000000000091
 51
315.00000000000091
  0
LINE
  5
33B
  8
1
 62
     2
 10
14.77318258656198
 20
-1.8392764628272129
 30
0.0
 11
15.05941581084234
 21
-2.015513321080423
 31
0.0
  0
LINE
  5
33C
  8
1
 62
     2
 10
15.05941581084234
 20
-2.015513321080423
 30
0.0
 11
15.004841844742909
 21
-2.0828393438003889
 31
0.0
  0
LINE
  5
33D
  8
1
 62
     2
 10
15.004841844742909
 20
-2.0828393438003889
 30
0.0
 11
14.77318258656198
 21
-1.8392764628272129
 31
0.0
  0
LINE
  5
33E
  8
1
 62
     2
 10
17.0345125680238
 20
-1.839276462827178
 30
0.0
 11
16.802853309842881
 21
-2.0828393438003601
 31
0.0
  0
LINE
  5
33F
  8
1
 62
     2
 10
16.802853309842881
 20
-2.0828393438003601
 30
0.0
 11
16.748279343743459
 21
-2.015513321080395
 31
0.0
  0
LINE
  5
340
  8
1
 62
     2
 10
16.748279343743459
 20
-2.015513321080395
 30
0.0
 11
17.0345125680238
 21
-1.839276462827178
 31
0.0
  0
TEXT
  5
341
  8
1
 62
     2
 10
15.592180910626221
 20
-2.174279903155055
 30
0.0
 40
0.3333333333333333
  1
90%%d
 50
0.0000000000006268
 41
0.7650000000000001
  0
ENDBLK
  5
342
  8
0
  0
BLOCK
  8
0
  2
M88158_TOP_
 70
     0
 10
0.0
 20
0.0
 30
0.0
  3
M88158_TOP_
  1

  0
POINT
  5
345
  8
1
  6
CENTER
 62
     6
 10
15.90384757729289
 20
-1.00861147209629
 30
0.0
  0
POINT
  5
346
  8
1
  6
CENTER
 62
     6
 10
-11.93522061069697
 20
-2.5086114720962831
 30
0.0
  0
POINT
  5
347
  8
1
  6
CENTER
 62
     6
 10
-21.100000000000481
 20
-4.0086114720962831
 30
0.0
  0
POINT
  5
348
  8
1
  6
CENTER
 62
     6
 10
-21.2076198197643
 20
-3.608611472096285
 30
0.0
  0
POINT
  5
349
  8
1
  6
CENTER
 62
     6
 10
-11.100000000000479
 20
-2.5086114720962831
 30
0.0
  0
POINT
  5
34A
  8
1
  6
CENTER
 62
     6
 10
11.935220610695991
 20
-2.5086114720962831
 30
0.0
  0
POINT
  5
34B
  8
1
  6
CENTER
 62
     6
 10
21.0999999999995
 20
-4.0086114720962831
 30
0.0
  0
POINT
  5
34C
  8
1
  6
CENTER
 62
     6
 10
21.20761981976332
 20
-3.608611472096285
 30
0.0
  0
POINT
  5
34D
  8
1
  6
CENTER
 62
     6
 10
11.0999999999995
 20
-2.5086114720962831
 30
0.0
  0
LINE
  5
34E
  8
1
  6
CENTER
 62
     2
 10
13.309264356050001
 20
-2.098611963716507
 30
0.0
 11
12.889034432283079
 21
-1.3033672006236099
 31
0.0
  0
LINE
  5
34F
  8
1
  6
CENTER
 62
     2
 10
15.90384757729289
 20
-1.645519054593783
 30
0.0
 11
15.90384757729289
 21
-1.00861147209629
 31
0.0
  0
LINE
  5
350
  8
1
 62
     2
 10
7.1113876196471963
 20
-2.5086114720962982
 30
0.0
 11
-0.0000000000004903
 21
-2.5086114720962831
 31
0.0
  0
LINE
  5
351
  8
1
  6
CENTER
 62
     2
 10
15.90384757729289
 20
-1.00861147209629
 30
0.0
 11
15.90384757729287
 21
-0.5557895702849856
 31
0.0
  0
LINE
  5
352
  8
1
  6
CENTER
 62
     2
 10
3.958571571456651
 20
-8.8909888996772821
 30
0.0
 11
3.958571571456651
 21
-10.126234044858499
 31
0.0
  0
LINE
  5
353
  8
1
  6
CENTER
 62
     2
 10
4.5761941438744032
 20
-9.5086114720962929
 30
0.0
 11
3.340948998693178
 21
-9.5086114720962929
 31
0.0
  0
LINE
  5
354
  8
1
  6
CENTER
 62
     2
 10
-16.19409329843209
 20
-7.008611472096284
 30
0.0
 11
-15.59609163846909
 21
-7.008611472096284
 31
0.0
  0
LINE
  5
355
  8
1
  6
CENTER
 62
     2
 10
-12.21960356070141
 20
-1.710946276682519
 30
0.0
 11
-15.903847577293851
 21
-7.008611472096284
 31
0.0
  0
LINE
  5
356
  8
1
  6
CENTER
 62
     2
 10
-12.88903443228406
 20
-1.3033672006236099
 30
0.0
 11
-15.903847577293851
 21
-7.008611472096284
 31
0.0
  0
LINE
  5
357
  8
1
  6
CENTER
 62
     2
 10
-13.60293991335587
 20
-0.979952050755002
 30
0.0
 11
-15.903847577293851
 21
-7.008611472096284
 31
0.0
  0
LINE
  5
358
  8
1
  6
CENTER
 62
     2
 10
-14.350788449901509
 20
-0.7454718565904266
 30
0.0
 11
-15.903847577293851
 21
-7.008611472096284
 31
0.0
  0
LINE
  5
359
  8
1
  6
CENTER
 62
     2
 10
-15.12154775898334
 20
-0.6033856766409109
 30
0.0
 11
-15.903847577293851
 21
-7.008611472096284
 31
0.0
  0
LINE
  5
35A
  8
1
 62
     2
 10
-0.0000000000004903
 20
-4.0086114720962831
 30
0.0
 11
-21.100000000000481
 21
-4.0086114720962831
 31
0.0
  0
LINE
  5
35B
  8
1
 62
     2
 10
-24.450993911310579
 20
-4.0086114720962831
 30
0.0
 11
-21.100000000000481
 21
-4.0086114720962831
 31
0.0
  0
LINE
  5
35C
  8
1
  6
CENTER
 62
     2
 10
-15.903847577293851
 20
-7.008611472096284
 30
0.0
 11
-20.754829429176361
 21
-2.753392844434229
 31
0.0
  0
LINE
  5
35D
  8
1
  6
CENTER
 62
     2
 10
-15.903847577293851
 20
-7.008611472096284
 30
0.0
 11
-20.20317239267187
 21
-2.1966766607786621
 31
0.0
  0
LINE
  5
35E
  8
1
  6
CENTER
 62
     2
 10
-15.903847577293851
 20
-7.008611472096284
 30
0.0
 11
-19.588091593886301
 21
-1.710946276682519
 31
0.0
  0
LINE
  5
35F
  8
1
  6
CENTER
 62
     2
 10
-15.903847577293851
 20
-7.008611472096284
 30
0.0
 11
-18.918660722303649
 21
-1.3033672006236099
 31
0.0
  0
LINE
  5
360
  8
1
  6
CENTER
 62
     2
 10
-15.903847577293851
 20
-7.008611472096284
 30
0.0
 11
-18.20475524123184
 21
-0.979952050755002
 31
0.0
  0
LINE
  5
361
  8
1
  6
CENTER
 62
     2
 10
-15.903847577293851
 20
-7.008611472096284
 30
0.0
 11
-17.45690670468619
 21
-0.7454718565904266
 31
0.0
  0
LINE
  5
362
  8
1
  6
CENTER
 62
     2
 10
-15.903847577293851
 20
-7.008611472096284
 30
0.0
 11
-16.686147395604369
 21
-0.6033856766409109
 31
0.0
  0
LINE
  5
363
  8
1
  6
CENTER
 62
     2
 10
-15.903847577293851
 20
-0.5557895702849856
 30
0.0
 11
-15.903847577293851
 21
-7.008611472096284
 31
0.0
  0
LINE
  5
364
  8
1
 62
     7
 10
-12.30685735228594
 20
-1.8364106522133941
 30
0.0
 11
-12.23999413450642
 21
-2.2086379166137089
 31
0.0
  0
LINE
  5
365
  8
1
 62
     7
 10
-12.679084616686289
 20
-1.9032738699929079
 30
0.0
 11
-12.30685735228594
 21
-1.8364106522133941
 31
0.0
  0
LINE
  5
366
  8
1
 62
     7
 10
-12.960434121511019
 20
-1.4384842537720659
 30
0.0
 11
-12.848937579448201
 21
-1.7998598857159089
 31
0.0
  0
LINE
  5
367
  8
1
 62
     7
 10
-13.321809753454881
 20
-1.549980795834869
 30
0.0
 11
-12.960434121511019
 21
-1.4384842537720659
 31
0.0
  0
LINE
  5
368
  8
1
 62
     7
 10
-13.65743220997366
 20
-1.1227285308998201
 30
0.0
 11
-13.50294714379565
 21
-1.4679215067593381
 31
0.0
  0
LINE
  5
369
  8
1
 62
     7
 10
-14.0026251858332
 20
-1.2772135970778451
 30
0.0
 11
-13.65743220997366
 21
-1.1227285308998201
 31
0.0
  0
LINE
  5
36A
  8
1
 62
     7
 10
-14.38756948199647
 20
-0.8938015210249254
 30
0.0
 11
-14.19237485980498
 21
-1.2177195441763109
 31
0.0
  0
LINE
  5
36B
  8
1
 62
     7
 10
-14.711487505147881
 20
-1.0889961432164339
 30
0.0
 11
-14.38756948199647
 21
-0.8938015210249254
 31
0.0
  0
LINE
  5
36C
  8
1
 62
     7
 10
-15.140074931721109
 20
-0.7550803619254289
 30
0.0
 11
-14.90705027014911
 21
-1.0529449844539069
 31
0.0
  0
LINE
  5
36D
  8
1
 62
     7
 10
-15.437939554249599
 20
-0.9881050234974317
 30
0.0
 11
-15.140074931721109
 21
-0.7550803619254289
 31
0.0
  0
LINE
  5
36E
  8
1
 62
     7
 10
-15.903847577293851
 20
-0.7086114720962862
 30
0.0
 11
-15.636430462794079
 21
-0.9760285865960648
 31
0.0
  0
LINE
  5
36F
  8
1
 62
     7
 10
-21.2076198197643
 20
-3.608611472096285
 30
0.0
 11
-20.702576860792639
 21
-3.3777639418602781
 31
0.0
  0
LINE
  5
370
  8
1
 62
     7
 10
-20.615254283866641
 20
-3.231547132054116
 30
0.0
 11
-20.6399438359371
 21
-2.8541690030199391
 31
0.0
  0
LINE
  5
371
  8
1
 62
     7
 10
-20.6399438359371
 20
-2.8541690030199391
 30
0.0
 11
-20.262565706902901
 21
-2.8294794509494841
 31
0.0
  0
LINE
  5
372
  8
1
 62
     7
 10
-20.122595194552279
 20
-2.6882252942837321
 30
0.0
 11
-20.10135166915148
 21
-2.3106375046462491
 31
0.0
  0
LINE
  5
373
  8
1
 62
     7
 10
-20.10135166915148
 20
-2.3106375046462491
 30
0.0
 11
-19.723763879513971
 21
-2.3318810300470432
 31
0.0
  0
LINE
  5
374
  8
1
 62
     7
 10
-19.56770102008128
 20
-2.2086379166137089
 30
0.0
 11
-19.500837802301781
 21
-1.8364106522133941
 31
0.0
  0
LINE
  5
375
  8
1
 62
     7
 10
-19.500837802301781
 20
-1.8364106522133941
 30
0.0
 11
-19.12861053790143
 21
-1.9032738699929079
 31
0.0
  0
LINE
  5
376
  8
1
 62
     7
 10
-18.958757575139519
 20
-1.7998598857159089
 30
0.0
 11
-18.847261033076698
 21
-1.4384842537720659
 31
0.0
  0
LINE
  5
377
  8
1
 62
     7
 10
-18.847261033076698
 20
-1.4384842537720659
 30
0.0
 11
-18.48588540113284
 21
-1.549980795834869
 31
0.0
  0
LINE
  5
378
  8
1
 62
     7
 10
-18.304748010792071
 20
-1.4679215067593381
 30
0.0
 11
-18.150262944614049
 21
-1.1227285308998201
 31
0.0
  0
LINE
  5
379
  8
1
 62
     7
 10
-18.150262944614049
 20
-1.1227285308998201
 30
0.0
 11
-17.80506996875452
 21
-1.2772135970778451
 31
0.0
  0
LINE
  5
37A
  8
1
 62
     7
 10
-17.615320294782741
 20
-1.2177195441763109
 30
0.0
 11
-17.420125672591251
 21
-0.8938015210249254
 31
0.0
  0
LINE
  5
37B
  8
1
 62
     7
 10
-17.420125672591251
 20
-0.8938015210249254
 30
0.0
 11
-17.09620764943984
 21
-1.0889961432164339
 31
0.0
  0
LINE
  5
37C
  8
1
 62
     7
 10
-16.900644884438609
 20
-1.0529449844539069
 30
0.0
 11
-16.66762022286661
 21
-0.7550803619254289
 31
0.0
  0
LINE
  5
37D
  8
1
 62
     7
 10
-16.66762022286661
 20
-0.7550803619254289
 30
0.0
 11
-16.36975560033812
 21
-0.9881050234974317
 31
0.0
  0
LINE
  5
37E
  8
1
 62
     7
 10
-16.171264691793638
 20
-0.9760285865960648
 30
0.0
 11
-15.903847577293851
 21
-0.7086114720962862
 31
0.0
  0
LINE
  5
37F
  8
1
 62
     7
 10
-21.2076198197643
 20
-3.608611472096285
 30
0.0
 11
-24.43914075656928
 21
-4.00489380352571
 31
0.0
  0
LINE
  5
380
  8
1
 62
     2
 10
-0.0000000000004903
 20
-2.5086114720962831
 30
0.0
 11
-11.100000000000479
 21
-2.5086114720962831
 31
0.0
  0
LINE
  5
381
  8
1
 62
     2
 10
-11.195780397497989
 20
-2.5086114720962831
 30
0.0
 11
-11.100000000000479
 21
-2.5086114720962831
 31
0.0
  0
LINE
  5
382
  8
1
 62
     7
 10
-11.823406424673269
 20
-2.5086114720962831
 30
0.0
 11
-11.224932421291619
 21
-2.5086114720962831
 31
0.0
  0
LINE
  5
383
  8
1
 62
     7
 10
-3.9585715714576311
 20
0.4913885279037168
 30
0.0
 11
3.958571571456651
 21
0.4913885279037168
 31
0.0
  0
LINE
  5
384
  8
1
  6
CENTER
 62
     2
 10
15.59609163846811
 20
-7.008611472096284
 30
0.0
 11
16.19409329843111
 21
-7.008611472096284
 31
0.0
  0
LINE
  5
385
  8
1
  6
CENTER
 62
     2
 10
-0.0000000000004903
 20
2.718780045067319
 30
0.0
 11
-0.0000000000004903
 21
-4.3022674341299796
 31
0.0
  0
LINE
  5
386
  8
1
  6
CENTER
 62
     2
 10
15.90384757729287
 20
-7.008611472096284
 30
0.0
 11
12.219603560700429
 21
-1.710946276682519
 31
0.0
  0
LINE
  5
387
  8
1
  6
CENTER
 62
     2
 10
15.90384757729287
 20
-7.008611472096284
 30
0.0
 11
13.812946400740589
 21
-3.051781849177273
 31
0.0
  0
LINE
  5
388
  8
1
  6
CENTER
 62
     2
 10
15.90384757729287
 20
-7.008611472096284
 30
0.0
 11
13.60293991335489
 21
-0.979952050755002
 31
0.0
  0
LINE
  5
389
  8
1
  6
CENTER
 62
     2
 10
15.90384757729287
 20
-7.008611472096284
 30
0.0
 11
14.350788449900531
 21
-0.7454718565904266
 31
0.0
  0
LINE
  5
38A
  8
1
  6
CENTER
 62
     2
 10
15.90384757729287
 20
-7.008611472096284
 30
0.0
 11
15.121547758982359
 21
-0.6033856766409109
 31
0.0
  0
LINE
  5
38B
  8
1
 62
     2
 10
21.0999999999995
 20
-4.0086114720962831
 30
0.0
 11
-0.0000000000004903
 21
-4.0086114720962831
 31
0.0
  0
LINE
  5
38C
  8
1
 62
     2
 10
21.0999999999995
 20
-4.0086114720962831
 30
0.0
 11
24.450993911309599
 21
-4.0086114720962831
 31
0.0
  0
LINE
  5
38D
  8
1
  6
CENTER
 62
     2
 10
20.754829429175381
 20
-2.753392844434229
 30
0.0
 11
15.90384757729287
 21
-7.008611472096284
 31
0.0
  0
LINE
  5
38E
  8
1
  6
CENTER
 62
     2
 10
20.20317239267089
 20
-2.1966766607786621
 30
0.0
 11
15.90384757729287
 21
-7.008611472096284
 31
0.0
  0
LINE
  5
38F
  8
1
  6
CENTER
 62
     2
 10
19.58809159388532
 20
-1.710946276682519
 30
0.0
 11
15.90384757729287
 21
-7.008611472096284
 31
0.0
  0
LINE
  5
390
  8
1
  6
CENTER
 62
     2
 10
18.918660722302668
 20
-1.3033672006236099
 30
0.0
 11
15.90384757729287
 21
-7.008611472096284
 31
0.0
  0
LINE
  5
391
  8
1
  6
CENTER
 62
     2
 10
18.20475524123086
 20
-0.979952050755002
 30
0.0
 11
15.90384757729287
 21
-7.008611472096284
 31
0.0
  0
LINE
  5
392
  8
1
  6
CENTER
 62
     2
 10
17.45690670468521
 20
-0.7454718565904266
 30
0.0
 11
15.90384757729287
 21
-7.008611472096284
 31
0.0
  0
LINE
  5
393
  8
1
  6
CENTER
 62
     2
 10
16.686147395603381
 20
-0.6033856766409109
 30
0.0
 11
15.90384757729287
 21
-7.008611472096284
 31
0.0
  0
LINE
  5
394
  8
1
  6
CENTER
 62
     2
 10
15.90384757729287
 20
-7.008611472096284
 30
0.0
 11
15.903847577292879
 21
-2.6248666986461791
 31
0.0
  0
LINE
  5
395
  8
1
 62
     7
 10
12.239994134505441
 20
-2.2086379166137089
 30
0.0
 11
12.306857352284959
 21
-1.8364106522133941
 31
0.0
  0
LINE
  5
396
  8
1
 62
     7
 10
12.306857352284959
 20
-1.8364106522133941
 30
0.0
 11
12.67908461668531
 21
-1.9032738699929079
 31
0.0
  0
LINE
  5
397
  8
1
 62
     7
 10
12.84893757944722
 20
-1.7998598857159089
 30
0.0
 11
12.96043412151004
 21
-1.4384842537720659
 31
0.0
  0
LINE
  5
398
  8
1
 62
     7
 10
12.96043412151004
 20
-1.4384842537720659
 30
0.0
 11
13.3218097534539
 21
-1.549980795834869
 31
0.0
  0
LINE
  5
399
  8
1
 62
     7
 10
13.502947143794669
 20
-1.4679215067593381
 30
0.0
 11
13.657432209972679
 21
-1.1227285308998201
 31
0.0
  0
LINE
  5
39A
  8
1
 62
     7
 10
13.657432209972679
 20
-1.1227285308998201
 30
0.0
 11
14.002625185832221
 21
-1.2772135970778451
 31
0.0
  0
LINE
  5
39B
  8
1
 62
     7
 10
14.192374859804
 20
-1.2177195441763109
 30
0.0
 11
14.38756948199549
 21
-0.8938015210249254
 31
0.0
  0
LINE
  5
39C
  8
1
 62
     7
 10
14.38756948199549
 20
-0.8938015210249254
 30
0.0
 11
14.7114875051469
 21
-1.0889961432164339
 31
0.0
  0
LINE
  5
39D
  8
1
 62
     7
 10
14.90705027014813
 20
-1.0529449844539069
 30
0.0
 11
15.140074931720131
 21
-0.7550803619254289
 31
0.0
  0
LINE
  5
39E
  8
1
 62
     7
 10
15.140074931720131
 20
-0.7550803619254289
 30
0.0
 11
15.43793955424862
 21
-0.9881050234974317
 31
0.0
  0
LINE
  5
39F
  8
1
 62
     7
 10
15.636430462793101
 20
-0.9760285865960648
 30
0.0
 11
15.90384757729287
 21
-0.7086114720962862
 31
0.0
  0
LINE
  5
3A0
  8
1
 62
     7
 10
20.702576860791659
 20
-3.3777639418602781
 30
0.0
 11
21.20761981976332
 21
-3.608611472096285
 31
0.0
  0
LINE
  5
3A1
  8
1
 62
     7
 10
20.639943835936119
 20
-2.8541690030199391
 30
0.0
 11
20.61525428386566
 21
-3.231547132054116
 31
0.0
  0
LINE
  5
3A2
  8
1
 62
     7
 10
20.26256570690192
 20
-2.8294794509494841
 30
0.0
 11
20.639943835936119
 21
-2.8541690030199391
 31
0.0
  0
LINE
  5
3A3
  8
1
 62
     7
 10
20.1013516691505
 20
-2.3106375046462491
 30
0.0
 11
20.122595194551302
 21
-2.6882252942837321
 31
0.0
  0
LINE
  5
3A4
  8
1
 62
     7
 10
19.72376387951299
 20
-2.3318810300470432
 30
0.0
 11
20.1013516691505
 21
-2.3106375046462491
 31
0.0
  0
LINE
  5
3A5
  8
1
 62
     7
 10
19.500837802300801
 20
-1.8364106522133941
 30
0.0
 11
19.56770102008031
 21
-2.2086379166137089
 31
0.0
  0
LINE
  5
3A6
  8
1
 62
     7
 10
19.12861053790045
 20
-1.9032738699929079
 30
0.0
 11
19.500837802300801
 21
-1.8364106522133941
 31
0.0
  0
LINE
  5
3A7
  8
1
 62
     7
 10
18.847261033075721
 20
-1.4384842537720659
 30
0.0
 11
18.958757575138542
 21
-1.7998598857159089
 31
0.0
  0
LINE
  5
3A8
  8
1
 62
     7
 10
18.48588540113186
 20
-1.549980795834869
 30
0.0
 11
18.847261033075721
 21
-1.4384842537720659
 31
0.0
  0
LINE
  5
3A9
  8
1
 62
     7
 10
18.150262944613079
 20
-1.1227285308998201
 30
0.0
 11
18.304748010791091
 21
-1.4679215067593381
 31
0.0
  0
LINE
  5
3AA
  8
1
 62
     7
 10
17.805069968753539
 20
-1.2772135970778451
 30
0.0
 11
18.150262944613079
 21
-1.1227285308998201
 31
0.0
  0
LINE
  5
3AB
  8
1
 62
     7
 10
17.42012567259027
 20
-0.8938015210249254
 30
0.0
 11
17.61532029478176
 21
-1.2177195441763109
 31
0.0
  0
LINE
  5
3AC
  8
1
 62
     7
 10
17.09620764943886
 20
-1.0889961432164339
 30
0.0
 11
17.42012567259027
 21
-0.8938015210249254
 31
0.0
  0
LINE
  5
3AD
  8
1
 62
     7
 10
16.667620222865629
 20
-0.7550803619254289
 30
0.0
 11
16.900644884437629
 21
-1.0529449844539069
 31
0.0
  0
LINE
  5
3AE
  8
1
 62
     7
 10
16.36975560033714
 20
-0.9881050234974317
 30
0.0
 11
16.667620222865629
 21
-0.7550803619254289
 31
0.0
  0
LINE
  5
3AF
  8
1
 62
     7
 10
15.90384757729287
 20
-0.7086114720962862
 30
0.0
 11
16.171264691792661
 21
-0.9760285865960648
 31
0.0
  0
LINE
  5
3B0
  8
1
 62
     7
 10
24.4391407565683
 20
-4.00489380352571
 30
0.0
 11
21.20761981976332
 21
-3.608611472096285
 31
0.0
  0
LINE
  5
3B1
  8
1
 62
     2
 10
11.0999999999995
 20
-2.5086114720962831
 30
0.0
 11
8.4907504985942097
 21
-2.5086114720962911
 31
0.0
  0
LINE
  5
3B2
  8
1
 62
     2
 10
11.0999999999995
 20
-2.5086114720962831
 30
0.0
 11
11.19578039749701
 21
-2.5086114720962831
 31
0.0
  0
LINE
  5
3B3
  8
1
 62
     7
 10
11.224932421290641
 20
-2.5086114720962831
 30
0.0
 11
11.823406424672241
 21
-2.5086114720962831
 31
0.0
  0
LINE
  5
3B4
  8
1
 62
     7
 10
-5.23215113200279
 20
2.491388527903716
 30
0.0
 11
5.2321511320018086
 21
2.491388527903716
 31
0.0
  0
ARC
  5
3B5
  8
1
 62
     2
 10
15.903847577249641
 20
-7.0086114721158648
 30
0.0
 40
6.300000000046972
 50
16.196635616016341
 51
17.713818411229731
  0
ARC
  5
3B6
  8
1
 62
     2
 10
15.90384757729287
 20
-7.008611472096284
 30
0.0
 40
6.0000000000000071
 50
15.6119123371955
 51
17.713818411179751
  0
ARC
  5
3B7
  8
1
 62
     2
 10
15.90384757729287
 20
-7.008611472096284
 30
0.0
 40
6.3000000000000007
 50
125.13617709003771
 51
137.3485971950299
  0
ARC
  5
3B8
  8
1
 62
     2
 10
15.90384757729287
 20
-7.008611472096284
 30
0.0
 40
5.9999999999999956
 50
131.4096221092708
 51
138.2409121065605
  0
ARC
  5
3B9
  8
1
 62
     2
 10
15.90384757729289
 20
-7.0086114720945627
 30
0.0
 40
5.9999999999982823
 50
86.839949337442505
 51
90.0
  0
ARC
  5
3BA
  8
1
 62
     2
 10
-15.903847577293851
 20
-7.008611472096284
 30
0.0
 40
6.3000000000000007
 50
41.096454200017682
 51
54.863822909962281
  0
ARC
  5
3BB
  8
1
 62
     2
 10
-15.903847577293851
 20
-7.008611472096284
 30
0.0
 40
6.0000000000000018
 50
39.490413673562472
 51
48.590377890729172
  0
ARC
  5
3BC
  8
1
 62
     2
 10
-15.90384757729586
 20
-7.0086114720991519
 30
0.0
 40
6.0000000000034968
 50
51.963342599591222
 51
58.363345449611089
  0
ARC
  5
3BD
  8
1
 62
     2
 10
-15.90384757729378
 20
-7.0086114720975328
 30
0.0
 40
6.0000000000010347
 50
59.053916182860007
 51
65.156430204748816
  0
ARC
  5
3BE
  8
1
 62
     2
 10
-15.90384757729559
 20
-7.0086114721017321
 30
0.0
 40
6.0000000000056879
 50
65.979565810262798
 51
72.107463894951451
  0
ARC
  5
3BF
  8
1
 62
     2
 10
-15.903847577293851
 20
-7.008611472096284
 30
0.0
 40
5.9999999999999973
 50
73.073636674743625
 51
79.03831245814348
  0
ARC
  5
3C0
  8
1
 62
     2
 10
-15.90384757729387
 20
-7.0086114720987771
 30
0.0
 40
6.0000000000024594
 50
79.943347713608944
 51
86.122773243431524
  0
ARC
  5
3C1
  8
1
 62
     2
 10
-15.903847577297
 20
-7.0086114721013608
 30
0.0
 40
6.3000000000059666
 50
55.432769656792928
 51
61.975132325085099
  0
ARC
  5
3C2
  8
1
 62
     2
 10
-15.903847577293851
 20
-7.008611472096284
 30
0.0
 40
6.3000000000000016
 50
62.417063314352419
 51
68.883457939260964
  0
ARC
  5
3C3
  8
1
 62
     2
 10
-15.90384757729559
 20
-7.0086114721017321
 30
0.0
 40
6.3000000000057108
 50
69.349091519896703
 51
75.795534718327204
  0
ARC
  5
3C4
  8
1
 62
     2
 10
-15.903847577293851
 20
-7.008611472096284
 30
0.0
 40
6.3000000000000034
 50
76.268677283733254
 51
82.858883689074347
  0
ARC
  5
3C5
  8
1
 62
     2
 10
-15.90384757729378
 20
-7.0086114720975328
 30
0.0
 40
6.3000000000012317
 50
83.236828140851713
 51
89.849280742881362
  0
ARC
  5
3C6
  8
1
 62
     2
 10
-15.90384757729387
 20
-7.0086114720945627
 30
0.0
 40
5.9999999999982823
 50
86.839708211929576
 51
93.160050662557509
  0
ARC
  5
3C7
  8
1
 62
     2
 10
-15.903847577293851
 20
-7.008611472096284
 30
0.0
 40
5.9999999999999991
 50
150.0
 51
164.38808766280451
  0
ARC
  5
3C8
  8
1
 62
     2
 10
-15.90384757725062
 20
-7.0086114721158648
 30
0.0
 40
6.300000000046972
 50
147.3666840884984
 51
163.80336438398371
  0
ARC
  5
3C9
  8
1
 62
     2
 10
-15.90384757727986
 20
-7.008611472105656
 30
0.0
 40
6.0000000000168008
 50
142.4084258389093
 51
149.99999999998931
  0
ARC
  5
3CA
  8
1
 62
     2
 10
-15.903847577293851
 20
-7.008611472096284
 30
0.0
 40
6.300000000000006
 50
138.96364379585131
 51
147.12678602539921
  0
ARC
  5
3CB
  8
1
 62
     2
 10
-15.903847577291851
 20
-7.0086114720991519
 30
0.0
 40
6.0000000000034381
 50
135.65898026984249
 51
141.8554460647299
  0
ARC
  5
3CC
  8
1
 62
     2
 10
-15.90384757729972
 20
-7.0086114720904709
 30
0.0
 40
6.2999999999917531
 50
131.9743718494328
 51
138.48213103885931
  0
ARC
  5
3CD
  8
1
 62
     2
 10
-15.903847577286109
 20
-7.0086114721048087
 30
0.0
 40
6.0000000000115001
 50
128.71174511860451
 51
134.89982939648229
  0
ARC
  5
3CE
  8
1
 62
     2
 10
-15.903847577291851
 20
-7.0086114720991519
 30
0.0
 40
6.0000000000034941
 50
121.6366545503889
 51
128.03665740040881
  0
ARC
  5
3CF
  8
1
 62
     2
 10
-15.90384757729378
 20
-7.0086114720975328
 30
0.0
 40
6.0000000000011644
 50
114.84356979525241
 51
120.9460838171412
  0
ARC
  5
3D0
  8
1
 62
     2
 10
-15.9038475772907
 20
-7.0086114721013608
 30
0.0
 40
6.3000000000059666
 50
118.024867674915
 51
124.5672303432071
  0
ARC
  5
3D1
  8
1
 62
     2
 10
-15.90384757728866
 20
-7.0086114721027686
 30
0.0
 40
6.3000000000082981
 50
125.142878609504
 51
131.53028445974169
  0
ARC
  5
3D2
  8
1
 62
     2
 10
-15.90384757729211
 20
-7.0086114721017321
 30
0.0
 40
6.0000000000057172
 50
107.89253610504861
 51
114.0204341897372
  0
ARC
  5
3D3
  8
1
 62
     2
 10
-15.903847577293851
 20
-7.008611472096284
 30
0.0
 40
6.0000000000000018
 50
100.96168754185661
 51
106.9263633252565
  0
ARC
  5
3D4
  8
1
 62
     2
 10
-15.90384757729211
 20
-7.0086114721017321
 30
0.0
 40
6.3000000000057117
 50
104.2044652816728
 51
110.6509084801033
  0
ARC
  5
3D5
  8
1
 62
     2
 10
-15.903847577293851
 20
-7.008611472096284
 30
0.0
 40
6.3000000000000016
 50
111.11654206073911
 51
117.5829366856476
  0
ARC
  5
3D6
  8
1
 62
     2
 10
-15.90384757729387
 20
-7.0086114720987771
 30
0.0
 40
6.0000000000024913
 50
93.87722675656812
 51
100.0566522863907
  0
ARC
  5
3D7
  8
1
 62
     2
 10
-15.90384757729378
 20
-7.0086114720975328
 30
0.0
 40
6.3000000000012504
 50
90.150719257120002
 51
96.763171859149665
  0
ARC
  5
3D8
  8
1
 62
     2
 10
-15.903847577293851
 20
-7.008611472096284
 30
0.0
 40
6.299999999999998
 50
97.14111631092571
 51
103.7313227162668
  0
ARC
  5
3D9
  8
1
 62
     7
 10
-15.90384757730906
 20
-7.0086114721141533
 30
0.0
 40
6.0000000000234337
 50
49.632406455814639
 51
51.701787713941002
  0
ARC
  5
3DA
  8
1
 62
     7
 10
-12.09235712371208
 20
-2.1821178667700698
 30
0.0
 40
0.1499999999999899
 50
190.183443376317
 51
231.70178771394541
  0
ARC
  5
3DB
  8
1
 62
     7
 10
-12.705604666529929
 20
-1.7556368591985529
 30
0.0
 40
0.1499999999999977
 50
238.66509903868871
 51
280.18344337631589
  0
ARC
  5
3DC
  8
1
 62
     7
 10
-12.705604666529929
 20
-1.7556368591985529
 30
0.0
 40
0.1499999999999724
 50
197.14675470105661
 51
238.66509903868871
  0
ARC
  5
3DD
  8
1
 62
     7
 10
-13.36603277997223
 20
-1.4066478829165721
 30
0.0
 40
0.1500000000000013
 50
245.62841036341931
 51
287.14675470105101
  0
ARC
  5
3DE
  8
1
 62
     7
 10
-13.36603277997223
 20
-1.4066478829165721
 30
0.0
 40
0.1499999999999886
 50
204.11006602578911
 51
245.62841036341931
  0
ARC
  5
3DF
  8
1
 62
     7
 10
-14.06389880967598
 20
-1.1402992332544031
 30
0.0
 40
0.1500000000000063
 50
252.5917216881605
 51
294.11006602579067
  0
ARC
  5
3E0
  8
1
 62
     7
 10
-14.06389880967598
 20
-1.1402992332544031
 30
0.0
 40
0.1499999999999811
 50
211.07337735053119
 51
252.5917216881605
  0
ARC
  5
3E1
  8
1
 62
     7
 10
-14.78890781606979
 20
-0.9605200930874028
 30
0.0
 40
0.1499999999999975
 50
259.55503301289588
 51
301.0733773505255
  0
ARC
  5
3E2
  8
1
 62
     7
 10
-14.78890781606979
 20
-0.9605200930874028
 30
0.0
 40
0.1499999999999823
 50
218.03668867526491
 51
259.55503301289588
  0
ARC
  5
3E3
  8
1
 62
     7
 10
-15.53036444561608
 20
-0.8699625694180916
 30
0.0
 40
0.1500000000000034
 50
266.51834433761951
 51
308.03668867525272
  0
ARC
  5
3E4
  8
1
 62
     7
 10
-15.53036444561608
 20
-0.8699625694180916
 30
0.0
 40
0.150000000000006
 50
224.99999999999281
 51
266.51834433761951
  0
ARC
  5
3E5
  8
1
 62
     7
 10
-20.764934289170728
 20
-3.241339782980432
 30
0.0
 40
0.1500000000000074
 50
294.56442642587791
 51
322.22483493552079
  0
ARC
  5
3E6
  8
1
 62
     7
 10
-20.764934289170728
 20
-3.241339782980432
 30
0.0
 40
0.1499999999999989
 50
322.22483493552079
 51
3.7431792731530549
  0
ARC
  5
3E7
  8
1
 62
     7
 10
-20.27235835782923
 20
-2.6797994456453709
 30
0.0
 40
0.1500000000000129
 50
273.74317927315741
 51
315.26152361078982
  0
ARC
  5
3E8
  8
1
 62
     7
 10
-20.27235835782923
 20
-2.6797994456453709
 30
0.0
 40
0.150000000000017
 50
315.26152361078982
 51
356.77986794841758
  0
ARC
  5
3E9
  8
1
 62
     7
 10
-19.715338030875639
 20
-2.1821178667700698
 30
0.0
 40
0.1500000000000049
 50
266.77986794842877
 51
308.29821228605522
  0
ARC
  5
3EA
  8
1
 62
     7
 10
-19.715338030875639
 20
-2.1821178667700698
 30
0.0
 40
0.1500000000000067
 50
308.29821228605522
 51
349.81655662368371
  0
ARC
  5
3EB
  8
1
 62
     7
 10
-19.10209048805779
 20
-1.7556368591985529
 30
0.0
 40
0.1500000000000055
 50
259.81655662368411
 51
301.33490096131129
  0
ARC
  5
3EC
  8
1
 62
     7
 10
-19.10209048805779
 20
-1.7556368591985529
 30
0.0
 40
0.1499999999999977
 50
301.33490096131129
 51
342.85324529894331
  0
ARC
  5
3ED
  8
1
 62
     7
 10
-18.44166237461549
 20
-1.4066478829165721
 30
0.0
 40
0.1499999999999938
 50
252.85324529894839
 51
294.37158963658078
  0
ARC
  5
3EE
  8
1
 62
     7
 10
-18.44166237461549
 20
-1.4066478829165721
 30
0.0
 40
0.1500000000000013
 50
294.37158963658078
 51
335.88993397421069
  0
ARC
  5
3EF
  8
1
 62
     7
 10
-17.743796344911729
 20
-1.1402992332544031
 30
0.0
 40
0.1500000000000153
 50
245.8899339742093
 51
287.40827831183941
  0
ARC
  5
3F0
  8
1
 62
     7
 10
-17.743796344911729
 20
-1.1402992332544031
 30
0.0
 40
0.1500000000000063
 50
287.40827831183941
 51
328.92662264946853
  0
ARC
  5
3F1
  8
1
 62
     7
 10
-17.018787338517932
 20
-0.9605200930874028
 30
0.0
 40
0.1500000000000079
 50
238.9266226494745
 51
280.44496698710469
  0
ARC
  5
3F2
  8
1
 62
     7
 10
-17.018787338517932
 20
-0.9605200930874028
 30
0.0
 40
0.1499999999999978
 50
280.44496698710469
 51
321.96331132473563
  0
ARC
  5
3F3
  8
1
 62
     7
 10
-16.277330708971601
 20
-0.8699625694180916
 30
0.0
 40
0.1500000000000064
 50
231.96331132473551
 51
273.4816556623656
  0
ARC
  5
3F4
  8
1
 62
     7
 10
-16.277330708971601
 20
-0.8699625694180916
 30
0.0
 40
0.150000000000001
 50
273.4816556623656
 51
314.9999999999971
  0
ARC
  5
3F5
  8
1
 62
     7
 10
-24.50000000000049
 20
-3.5086114720962831
 30
0.0
 40
0.5
 50
180.0
 51
270.0
  0
ARC
  5
3F6
  8
1
 62
     7
 10
-24.50000000000049
 20
-3.5086114720962831
 30
0.0
 40
0.5
 50
270.0
 51
276.99129172726168
  0
ARC
  5
3F7
  8
1
 62
     2
 10
-3.9585715712847711
 20
-9.5086114722678872
 30
0.0
 40
10.00000000024357
 50
134.96763624518499
 51
135.57299599918539
  0
ARC
  5
3F8
  8
1
 62
     7
 10
-3.9585715714576311
 20
-9.5086114720962822
 30
0.0
 40
10.0
 50
90.0
 51
134.86768294947311
  0
ARC
  5
3F9
  8
1
 62
     7
 10
-24.50000000000049
 20
-3.5086114720962831
 30
0.0
 40
0.5000000000000016
 50
121.8627495686727
 51
180.0
  0
ARC
  5
3FA
  8
1
 62
     7
 10
-5.23215113200279
 20
-34.508611472096291
 30
0.0
 40
36.999999999999993
 50
90.0
 51
121.862749568673
  0
ARC
  5
3FB
  8
1
 62
     2
 10
15.903847577294879
 20
-7.0086114720991519
 30
0.0
 40
6.0000000000034941
 50
121.6366545503889
 51
128.03665740040881
  0
ARC
  5
3FC
  8
1
 62
     2
 10
15.903847577292799
 20
-7.0086114720975328
 30
0.0
 40
6.0000000000011013
 50
114.8435697952512
 51
120.94608381714011
  0
ARC
  5
3FD
  8
1
 62
     2
 10
15.903847577294609
 20
-7.0086114721017321
 30
0.0
 40
6.0000000000057137
 50
107.89253610504851
 51
114.0204341897372
  0
ARC
  5
3FE
  8
1
 62
     2
 10
15.90384757729287
 20
-7.008611472096284
 30
0.0
 40
5.9999999999999991
 50
100.96168754185651
 51
106.9263633252564
  0
ARC
  5
3FF
  8
1
 62
     2
 10
15.90384757729289
 20
-7.0086114720987771
 30
0.0
 40
6.0000000000024922
 50
93.877226756568476
 51
100.056652286391
  0
ARC
  5
400
  8
1
 62
     2
 10
15.90384757729602
 20
-7.0086114721013608
 30
0.0
 40
6.3000000000059631
 50
118.0248676749149
 51
124.5672303432071
  0
ARC
  5
401
  8
1
 62
     2
 10
15.90384757729287
 20
-7.008611472096284
 30
0.0
 40
6.2999999999999989
 50
111.11654206073911
 51
117.5829366856476
  0
ARC
  5
402
  8
1
 62
     2
 10
15.903847577294609
 20
-7.0086114721017321
 30
0.0
 40
6.3000000000057117
 50
104.2044652816728
 51
110.6509084801033
  0
ARC
  5
403
  8
1
 62
     2
 10
15.90384757729287
 20
-7.008611472096284
 30
0.0
 40
6.299999999999998
 50
97.141116310925653
 51
103.7313227162668
  0
ARC
  5
404
  8
1
 62
     2
 10
15.903847577292799
 20
-7.0086114720975328
 30
0.0
 40
6.3000000000012459
 50
90.150719257118624
 51
96.763171859148272
  0
ARC
  5
405
  8
1
 62
     2
 10
15.90384757729289
 20
-7.0086114720945627
 30
0.0
 40
5.9999999999982716
 50
90.0
 51
93.160291788070424
  0
ARC
  5
406
  8
1
 62
     2
 10
15.90384757729287
 20
-7.008611472096284
 30
0.0
 40
5.9999999999997797
 50
17.713818411179751
 51
30.000000000000011
  0
ARC
  5
407
  8
1
 62
     2
 10
15.903847577249641
 20
-7.0086114721158648
 30
0.0
 40
6.3000000000469809
 50
17.713818411229731
 51
32.633315911501562
  0
ARC
  5
408
  8
1
 62
     2
 10
15.90384757727888
 20
-7.008611472105656
 30
0.0
 40
6.000000000016799
 50
30.000000000010711
 51
37.591574161090719
  0
ARC
  5
409
  8
1
 62
     2
 10
15.90384757729287
 20
-7.008611472096284
 30
0.0
 40
6.3000000000000016
 50
32.873213974600752
 51
41.036356204148689
  0
ARC
  5
40A
  8
1
 62
     2
 10
15.90384757729087
 20
-7.0086114720991519
 30
0.0
 40
6.0000000000033511
 50
38.144553935270132
 51
44.341019730157541
  0
ARC
  5
40B
  8
1
 62
     2
 10
15.903847577298739
 20
-7.0086114720904709
 30
0.0
 40
6.2999999999917531
 50
41.517868961140742
 51
48.025628150567201
  0
ARC
  5
40C
  8
1
 62
     2
 10
15.903847577285131
 20
-7.0086114721048087
 30
0.0
 40
6.0000000000114957
 50
45.100170603517711
 51
51.288254881395538
  0
ARC
  5
40D
  8
1
 62
     2
 10
15.90384757729087
 20
-7.0086114720991519
 30
0.0
 40
6.0000000000034968
 50
51.963342599591222
 51
58.363345449611103
  0
ARC
  5
40E
  8
1
 62
     2
 10
15.903847577292799
 20
-7.0086114720975328
 30
0.0
 40
6.0000000000011111
 50
59.05391618285875
 51
65.156430204747522
  0
ARC
  5
40F
  8
1
 62
     2
 10
15.903847577289721
 20
-7.0086114721013608
 30
0.0
 40
6.3000000000059666
 50
55.432769656792928
 51
61.975132325085013
  0
ARC
  5
410
  8
1
 62
     2
 10
15.90384757728768
 20
-7.0086114721027686
 30
0.0
 40
6.3000000000082936
 50
48.469715540258321
 51
54.857121390495998
  0
ARC
  5
411
  8
1
 62
     2
 10
15.903847577291129
 20
-7.0086114721017321
 30
0.0
 40
6.0000000000056879
 50
65.979565810262798
 51
72.107463894951366
  0
ARC
  5
412
  8
1
 62
     2
 10
15.90384757729287
 20
-7.008611472096284
 30
0.0
 40
6.0
 50
73.073636674743526
 51
79.038312458143409
  0
ARC
  5
413
  8
1
 62
     2
 10
15.903847577291129
 20
-7.0086114721017321
 30
0.0
 40
6.3000000000057108
 50
69.349091519896675
 51
75.795534718327204
  0
ARC
  5
414
  8
1
 62
     2
 10
15.90384757729287
 20
-7.008611472096284
 30
0.0
 40
6.3000000000000016
 50
62.417063314352419
 51
68.883457939260964
  0
ARC
  5
415
  8
1
 62
     2
 10
15.90384757729289
 20
-7.0086114720987771
 30
0.0
 40
6.0000000000024523
 50
79.94334771360927
 51
86.122773243431908
  0
ARC
  5
416
  8
1
 62
     2
 10
15.903847577292799
 20
-7.0086114720975328
 30
0.0
 40
6.3000000000012504
 50
83.236828140850349
 51
89.849280742879984
  0
ARC
  5
417
  8
1
 62
     2
 10
15.90384757729287
 20
-7.008611472096284
 30
0.0
 40
6.300000000000006
 50
76.268677283733183
 51
82.858883689074347
  0
ARC
  5
418
  8
1
 62
     7
 10
15.903847577308079
 20
-7.0086114721141533
 30
0.0
 40
6.0000000000234284
 50
128.298212286059
 51
130.3675935441857
  0
ARC
  5
419
  8
1
 62
     7
 10
12.0923571237111
 20
-2.1821178667700698
 30
0.0
 40
0.1500000000000067
 50
308.29821228605522
 51
349.81655662368308
  0
ARC
  5
41A
  8
1
 62
     7
 10
12.70560466652895
 20
-1.7556368591985529
 30
0.0
 40
0.1500000000000055
 50
259.81655662368411
 51
301.33490096131078
  0
ARC
  5
41B
  8
1
 62
     7
 10
12.70560466652895
 20
-1.7556368591985529
 30
0.0
 40
0.1499999999999968
 50
301.33490096131078
 51
342.85324529894302
  0
ARC
  5
41C
  8
1
 62
     7
 10
13.366032779971251
 20
-1.4066478829165721
 30
0.0
 40
0.1499999999999938
 50
252.85324529894839
 51
294.37158963658021
  0
ARC
  5
41D
  8
1
 62
     7
 10
13.366032779971251
 20
-1.4066478829165721
 30
0.0
 40
0.1500000000000006
 50
294.37158963658021
 51
335.88993397421069
  0
ARC
  5
41E
  8
1
 62
     7
 10
14.063898809675001
 20
-1.1402992332544031
 30
0.0
 40
0.1500000000000153
 50
245.8899339742093
 51
287.40827831183941
  0
ARC
  5
41F
  8
1
 62
     7
 10
14.063898809675001
 20
-1.1402992332544031
 30
0.0
 40
0.1500000000000063
 50
287.40827831183941
 51
328.92662264946853
  0
ARC
  5
420
  8
1
 62
     7
 10
14.788907816068811
 20
-0.9605200930874028
 30
0.0
 40
0.1500000000000088
 50
238.92662264947401
 51
280.44496698710333
  0
ARC
  5
421
  8
1
 62
     7
 10
14.788907816068811
 20
-0.9605200930874028
 30
0.0
 40
0.1499999999999972
 50
280.44496698710333
 51
321.96331132473472
  0
ARC
  5
422
  8
1
 62
     7
 10
15.530364445615101
 20
-0.8699625694180916
 30
0.0
 40
0.1499999999999823
 50
231.96331132474731
 51
273.4816556623806
  0
ARC
  5
423
  8
1
 62
     7
 10
15.530364445615101
 20
-0.8699625694180916
 30
0.0
 40
0.1500000000000034
 50
273.4816556623806
 51
315.00000000000722
  0
ARC
  5
424
  8
1
 62
     7
 10
20.764934289169751
 20
-3.241339782980432
 30
0.0
 40
0.1500000000000017
 50
217.7751650644783
 51
245.43557357412089
  0
ARC
  5
425
  8
1
 62
     7
 10
20.764934289169751
 20
-3.241339782980432
 30
0.0
 40
0.1499999999999917
 50
176.256820726847
 51
217.7751650644783
  0
ARC
  5
426
  8
1
 62
     7
 10
20.272358357828249
 20
-2.6797994456453709
 30
0.0
 40
0.150000000000017
 50
224.73847638921021
 51
266.2568207268427
  0
ARC
  5
427
  8
1
 62
     7
 10
20.272358357828249
 20
-2.6797994456453709
 30
0.0
 40
0.1499999999999808
 50
183.2201320515824
 51
224.73847638921021
  0
ARC
  5
428
  8
1
 62
     7
 10
19.715338030874651
 20
-2.1821178667700698
 30
0.0
 40
0.1500000000000001
 50
231.70178771394799
 51
273.2201320515739
  0
ARC
  5
429
  8
1
 62
     7
 10
19.715338030874651
 20
-2.1821178667700698
 30
0.0
 40
0.1499999999999917
 50
190.1834433763168
 51
231.70178771394799
  0
ARC
  5
42A
  8
1
 62
     7
 10
19.102090488056799
 20
-1.7556368591985529
 30
0.0
 40
0.1499999999999977
 50
238.66509903868871
 51
280.18344337631589
  0
ARC
  5
42B
  8
1
 62
     7
 10
19.102090488056799
 20
-1.7556368591985529
 30
0.0
 40
0.149999999999969
 50
197.14675470105709
 51
238.66509903868871
  0
ARC
  5
42C
  8
1
 62
     7
 10
18.441662374614509
 20
-1.4066478829165721
 30
0.0
 40
0.1499999999999998
 50
245.6284103634205
 51
287.14675470105158
  0
ARC
  5
42D
  8
1
 62
     7
 10
18.441662374614509
 20
-1.4066478829165721
 30
0.0
 40
0.149999999999987
 50
204.11006602578931
 51
245.6284103634205
  0
ARC
  5
42E
  8
1
 62
     7
 10
17.743796344910759
 20
-1.1402992332544031
 30
0.0
 40
0.1500000000000063
 50
252.5917216881605
 51
294.11006602579067
  0
ARC
  5
42F
  8
1
 62
     7
 10
17.743796344910759
 20
-1.1402992332544031
 30
0.0
 40
0.1499999999999796
 50
211.0733773505315
 51
252.5917216881605
  0
ARC
  5
430
  8
1
 62
     7
 10
17.01878733851694
 20
-0.9605200930874028
 30
0.0
 40
0.1499999999999978
 50
259.55503301289531
 51
301.0733773505255
  0
ARC
  5
431
  8
1
 62
     7
 10
17.01878733851694
 20
-0.9605200930874028
 30
0.0
 40
0.1499999999999837
 50
218.0366886752644
 51
259.55503301289531
  0
ARC
  5
432
  8
1
 62
     7
 10
16.277330708970609
 20
-0.8699625694180916
 30
0.0
 40
0.150000000000001
 50
266.5183443376344
 51
308.03668867526449
  0
ARC
  5
433
  8
1
 62
     7
 10
16.277330708970609
 20
-0.8699625694180916
 30
0.0
 40
0.1499999999999771
 50
225.00000000000381
 51
266.5183443376344
  0
ARC
  5
434
  8
1
 62
     7
 10
24.49999999999951
 20
-3.5086114720962831
 30
0.0
 40
0.5
 50
270.0
 51
0.0
  0
ARC
  5
435
  8
1
 62
     7
 10
24.49999999999951
 20
-3.5086114720962831
 30
0.0
 40
0.5000000000000461
 50
263.00870827273832
 51
270.0
  0
ARC
  5
436
  8
1
 62
     2
 10
3.958571571283791
 20
-9.5086114722678872
 30
0.0
 40
10.00000000024357
 50
44.427004000814577
 51
45.032363754814988
  0
ARC
  5
437
  8
1
 62
     7
 10
3.958571571456651
 20
-9.5086114720962822
 30
0.0
 40
10.0
 50
45.132317050526879
 51
90.0
  0
ARC
  5
438
  8
1
 62
     7
 10
24.49999999999951
 20
-3.5086114720962831
 30
0.0
 40
0.5
 50
0.0
 51
58.137250431327317
  0
ARC
  5
439
  8
1
 62
     7
 10
5.2321511320018086
 20
-34.508611472096291
 30
0.0
 40
36.999999999999993
 50
58.137250431327061
 51
90.0
  0
ARC
  5
43A
  8
1
 62
     7
 10
-11.823406424673269
 20
-2.2086114720962851
 30
0.0
 40
0.2999999999999983
 50
229.63240645581499
 51
270.0
  0
ARC
  5
43B
  8
1
 62
     7
 10
-11.224932421291619
 20
-2.2086114720962851
 30
0.0
 40
0.2999999999999989
 50
270.0
 51
314.86768294947387
  0
ARC
  5
43C
  8
1
 62
     7
 10
11.823406424672241
 20
-2.2086114720962851
 30
0.0
 40
0.2999999999999989
 50
270.0
 51
310.36759354418479
  0
ARC
  5
43D
  8
1
 62
     7
 10
11.224932421290641
 20
-2.2086114720962851
 30
0.0
 40
0.3000000000000039
 50
225.1323170505259
 51
270.0
  0
TEXT
  5
43E
  8
1
 62
     2
 10
0.2963837129051043
 20
14.42479645802405
 30
0.0
 40
0.3333333333333333
  1
 = SichtflÌche
 41
0.8100000000000001
 11
0.2963837129051043
 21
14.591463124690719
 31
0.0
 73
     2
  0
TEXT
  5
43F
  8
1
 62
     1
 10
0.1163837129051043
 20
14.42479645802405
 30
0.0
 40
0.3333333333333333
  1
_
 41
0.8100000000000001
 72
     2
 11
0.2963837129051043
 21
14.591463124690719
 31
0.0
 73
     2
  0
DIMENSION
  5
440
  8
1
  6
CONTINUOUS
 62
     2
  2
*D7
 10
15.90384757729287
 20
-10.5086114720963
 30
0.0
 11
13.919534093994431
 21
-10.208611472096299
 31
0.0
  1
(<>
  3
DMST_3
 13
11.935220610695991
 23
-2.5086114720962831
 33
0.0
 14
15.90384757729287
 24
-7.008611472096284
 34
0.0
  0
DIMENSION
  5
441
  8
1
  6
CONTINUOUS
 62
     2
  2
*D8
 10
21.0999999999995
 20
-10.5086114720963
 30
0.0
 11
19.44098918794521
 21
-10.208611472096299
 31
0.0
  1
(<>
  3
DMST_3
 13
15.90384757729287
 23
-7.008611472096284
 33
0.0
 14
21.0999999999995
 24
-4.0086114720962831
 34
0.0
  0
DIMENSION
  5
442
  8
1
  6
CONTINUOUS
 62
     2
  2
*D9
 10
21.905152782656788
 20
-5.0917557571115379
 30
0.0
 11
22.422080109712201
 21
-4.6117143323689671
 31
0.0
 70
     1
  3
DMST_4
 13
21.61937634430608
 23
-5.1830346006822534
 33
0.0
 14
21.90515278265681
 24
-5.0917557571115344
 34
0.0
  0
DIMENSION
  5
443
  8
1
  6
CONTINUOUS
 62
     2
  2
*D10
 10
11.099999999999509
 20
-11.5086114720963
 30
0.0
 11
10.36097630549761
 21
-11.208611472096299
 31
0.0
  3
DMST_4
 13
11.935220610695991
 23
-2.5086114720962831
 33
0.0
 14
11.0999999999995
 24
-2.5086114720962831
 34
0.0
  0
DIMENSION
  5
444
  8
1
  6
CONTINUOUS
 62
     2
  2
*D11
 10
21.0999999999995
 20
-11.5086114720963
 30
0.0
 11
16.517610305347741
 21
-11.208611472096299
 31
0.0
  3
DMST_4
 13
11.935220610695991
 23
-2.5086114720962831
 33
0.0
 14
21.0999999999995
 24
-4.0086114720962831
 34
0.0
  0
DIMENSION
  5
445
  8
1
  6
CONTINUOUS
 62
     2
  2
*D12
 10
24.99999999999952
 20
-11.5086114720963
 30
0.0
 11
23.04999999999951
 21
-11.208611472096299
 31
0.0
  3
DMST_4
 13
21.0999999999995
 23
-4.0086114720962831
 33
0.0
 14
24.99999999999952
 24
-3.5086114720962831
 34
0.0
  0
DIMENSION
  5
446
  8
1
  6
CONTINUOUS
 62
     2
  2
*D13
 10
20.158008277519411
 20
-4.0086114720962831
 30
0.0
 11
19.85800827751941
 21
-4.586557800325477
 31
0.0
  3
DMST_4
 13
21.20761981976332
 23
-3.608611472096285
 33
0.0
 14
21.0999999999995
 24
-4.0086114720962831
 34
0.0
 50
90.0
  0
DIMENSION
  5
447
  8
1
  6
CONTINUOUS
 62
     2
  2
*D14
 10
2.848997776243706
 20
-2.5086114720962831
 30
0.0
 11
2.5489977762437079
 21
-3.2586114720962831
 31
0.0
  3
DMST_4
 13
-0.0000000000004903
 23
-4.0086114720962831
 33
0.0
 14
-0.0000000000004903
 24
-2.5086114720962831
 34
0.0
 50
90.0
  0
DIMENSION
  5
448
  8
1
  6
CONTINUOUS
 62
     2
  2
*D15
 10
2.848997776243706
 20
0.491388527903716
 30
0.0
 11
2.5489977762437079
 21
-1.0086114720962831
 31
0.0
  1
(<>
  3
DMST_3
 13
-0.0000000000004903
 23
-2.5086114720962831
 33
0.0
 14
3.958571571456651
 24
0.4913885279037168
 34
0.0
 50
90.0
  0
DIMENSION
  5
449
  8
1
  6
CONTINUOUS
 62
     2
  2
*D16
 10
7.9665926045944104
 20
-4.0086114720962831
 30
0.0
 11
7.6665926045944106
 21
-2.5086114720962911
 31
0.0
  3
DMST_4
 13
15.90384757729289
 23
-1.00861147209629
 33
0.0
 14
24.49999999999951
 24
-4.0086114720962831
 34
0.0
 50
90.0
  0
DIMENSION
  5
44A
  8
1
  6
CONTINUOUS
 62
     2
  2
*D17
 10
2.848997776243706
 20
2.491388527903716
 30
0.0
 11
2.5489977762437079
 21
1.491388527903716
 31
0.0
  3
DMST_4
 13
3.958571571456651
 23
0.4913885279037168
 33
0.0
 14
5.2321511320018086
 24
2.491388527903716
 34
0.0
 50
90.0
  0
DIMENSION
  5
44B
  8
1
  6
CONTINUOUS
 62
     2
  2
*D18
 10
1.463980037984604
 20
2.491388527903716
 30
0.0
 11
1.163980037984607
 21
-0.7586114720962833
 31
0.0
  3
DMST_4
 13
24.49999999999951
 23
-4.0086114720962831
 33
0.0
 14
5.2321511320018086
 24
2.491388527903716
 34
0.0
 50
90.0
  0
DIMENSION
  5
44C
  8
1
  6
CONTINUOUS
 62
     2
  2
*D19
 10
24.99999999999952
 20
-12.5086114720963
 30
0.0
 11
-0.0000000000004903
 21
-12.208611472096299
 31
0.0
  3
DMST_5
 13
-25.00000000000049
 23
-3.5086114720962831
 33
0.0
 14
24.99999999999952
 24
-3.5086114720962831
 34
0.0
  0
DIMENSION
  5
44D
  8
1
  6
CONTINUOUS
 62
     2
  2
*D20
 10
15.90384757729287
 20
-7.008611472096284
 30
0.0
 11
19.298100086971651
 21
-5.6095337658375657
 31
0.0
 70
     4
  3
DMST_6
 15
21.6193763443063
 25
-5.1830346006821859
 35
0.0
 40
0.0
  0
DIMENSION
  5
44E
  8
1
  6
CONTINUOUS
 62
     2
  2
*D21
 10
14.063898809675001
 20
-1.1402992332544031
 30
0.0
 11
13.66095795118849
 21
0.0926133679112631
 31
0.0
 70
     4
  3
DMST_7
 15
14.142209577393331
 25
-1.2682344655376441
 35
0.0
 40
0.0
  0
DIMENSION
  5
44F
  8
1
  6
CONTINUOUS
 62
     2
  2
*D22
 10
11.224932421290641
 20
-2.2086114720962851
 30
0.0
 11
10.28857920553722
 21
-3.1058235682838382
 31
0.0
 70
     4
  3
DMST_4
 15
11.06221210739999
 25
-2.4606473811396832
 35
0.0
 40
0.0
  0
DIMENSION
  5
450
  8
1
  6
CONTINUOUS
 62
     2
  2
*D23
 10
11.823406424672241
 20
-2.2086114720962851
 30
0.0
 11
12.75057448198608
 21
-3.1504158728915002
 31
0.0
 70
     4
  3
DMST_4
 15
11.97984774132502
 25
-2.4645921636414529
 35
0.0
 40
0.0
  0
DIMENSION
  5
451
  8
1
  6
CONTINUOUS
 62
     2
  2
*D24
 10
12.0923571237111
 20
-2.1821178667700698
 30
0.0
 11
13.384762681764791
 21
-2.4117347604134509
 31
0.0
 70
     4
  3
DMST_4
 15
12.230138674501021
 25
-2.2414157947433608
 35
0.0
 40
0.0
  0
DIMENSION
  5
452
  8
1
  6
CONTINUOUS
 62
     2
  2
*D25
 10
5.2321511320018086
 20
-34.508611472096291
 30
0.0
 11
16.857904092716051
 21
2.813483511852453
 31
0.0
 70
     4
  3
DMST_4
 15
16.50685095987166
 25
0.7317225755745996
 35
0.0
 40
0.0
  0
DIMENSION
  5
453
  8
1
  6
CONTINUOUS
 62
     2
  2
*D26
 10
24.49999999999951
 20
-3.5086114720962831
 30
0.0
 11
23.70093448310055
 21
-3.0754082180273552
 31
0.0
 70
     4
  3
DMST_7
 15
24.99357976415024
 25
-3.5884802170526982
 35
0.0
 40
0.0
  0
DIMENSION
  5
454
  8
1
  6
CONTINUOUS
 62
     2
  2
*D27
 10
3.958571571456651
 20
-9.5086114720962822
 30
0.0
 11
5.2839381696265368
 21
-4.8999127656429797
 31
0.0
 70
     4
  3
DMST_6
 15
7.3181576180033563
 25
-0.0898439520940677
 35
0.0
 40
0.0
  0
DIMENSION
  5
455
  8
1
  6
CONTINUOUS
 62
     2
  2
*D28
 10
15.9038475772929
 20
-2.3076132364883839
 30
0.0
 11
15.90384757729289
 21
-2.0076132364883881
 31
0.0
 70
     5
  3
DMST_4
 13
15.636430462793101
 23
-0.9760285865960648
 33
0.0
 14
16.171264691792661
 24
-0.9760285865960648
 34
0.0
 15
15.90384757729287
 25
-0.7086114720962862
 35
0.0
1001
ACAD
1000
DSTYLE
1002
{
1070
   271
1070
     0
1002
}
  0
INSERT
  5
456
  8
0
  2
TB_FRAME_A3
 10
25.674174373130509
 20
-16.379356483705369
 30
0.0
 41
0.1333333333333333
 42
0.1333333333333333
 43
0.1333333333333333
  0
INSERT
  5
457
  8
0
  2
_1__S
 10
15.3385737290081
 20
19.071271535618319
 30
0.0
 41
0.1333333333333333
 42
0.1333333333333333
 43
0.1333333333333333
  0
INSERT
  5
458
  8
0
  2
_HIRA3
 10
-25.792492293536171
 20
-14.38384370983372
 30
0.0
 41
0.1333333333333333
 42
0.1333333333333333
 43
0.1333333333333333
  0
ENDBLK
  5
459
  8
0
  0
BLOCK
  8
0
  2
*U39
 70
     1
 10
0.0
 20
0.0
 30
0.0
  3
*U39
  1

  0
TEXT
  5
A78
  8
0
 10
111.6100741858581
 20
142.99386667327681
 30
0.0
 40
3.5
  1
Hohlflachschiene F50
  0
ENDBLK
  5
A7A
  8
0
  0
BLOCK
  8
0
  2
*U40
 70
     1
 10
0.0
 20
0.0
 30
0.0
  3
*U40
  1

  0
TEXT
  5
A7C
  8
1
 62
     2
 10
260.36078010665472
 20
112.98589664372339
 30
0.0
 40
2.5
  1
6.5
 50
90.0
  0
ENDBLK
  5
A7E
  8
0
  0
BLOCK
  8
0
  2
*U41
 70
     1
 10
0.0
 20
0.0
 30
0.0
  3
*U41
  1

  0
TEXT
  5
A80
  8
1
 62
     2
 10
292.8265854996792
 20
97.933704002093094
 30
0.0
 40
2.5
  1
50
  0
TEXT
  5
A81
  8
1
 62
     2
 10
297.40991883301251
 20
98.308704002093094
 30
0.0
 40
1.75
  1
±0.6000
  0
ENDBLK
  5
A83
  8
0
  0
BLOCK
  8
0
  2
*U42
 70
     1
 10
0.0
 20
0.0
 30
0.0
  3
*U42
  1

  0
TEXT
  5
A85
  8
1
 62
     2
 10
176.42232632029899
 20
75.041173891814864
 30
0.0
 40
2.5
  1
2.7885
 50
90.0
  0
ENDBLK
  5
A87
  8
0
  0
BLOCK
  8
0
  2
*U43
 70
     1
 10
0.0
 20
0.0
 30
0.0
  3
*U43
  1

  0
TEXT
  5
A89
  8
1
 62
     2
 10
184.88000516723989
 20
73.812673248555399
 30
0.0
 40
2.5
  1
21.45
  0
TEXT
  5
A8A
  8
1
 62
     2
 10
194.88000516723989
 20
74.187673248555399
 30
0.0
 40
1.75
  1
±0.6000
  0
ENDBLK
  5
A8C
  8
0
  0
BLOCK
  8
0
  2
*U44
 70
     1
 10
0.0
 20
0.0
 30
0.0
  3
*U44
  1

  0
TEXT
  5
A8E
  8
0
 62
     0
 10
194.03667183390669
 20
75.429859302676405
 30
0.0
 40
0.18
  1
35.0064
  0
ENDBLK
  5
A90
  8
0
  0
BLOCK
  8
0
  2
*U45
 70
     1
 10
0.0
 20
0.0
 30
0.0
  3
*U45
  1

  0
TEXT
  5
A92
  8
0
 10
220.8071405312451
 20
142.99386667327681
 30
0.0
 40
3.5
  1
Hohlflachschiene F35
  0
ENDBLK
  5
A94
  8
0
  0
BLOCK
  8
0
  2
*U46
 70
     1
 10
0.0
 20
0.0
 30
0.0
  3
*U46
  1

  0
TEXT
  5
A96
  8
0
 62
     0
 10
138.45664010086671
 20
94.040553192656347
 30
0.0
 40
0.18
  1
49.9966
  0
ENDBLK
  5
A98
  8
0
  0
ENDSEC
  0
SECTION
  2
ENTITIES
  0
INSERT
  5
727
  8
1
  2
*X2
 10
89.990312162215147
 20
112.552238078861
 30
0.0
  0
POINT
  5
728
  8
1
  6
CENTER
 62
     6
 10
127.05973466846029
 20
103.6769242009897
 30
0.0
  0
POINT
  5
729
  8
1
  6
CENTER
 62
     6
 10
117.78733545939301
 20
102.57692420098959
 30
0.0
  0
POINT
  5
72A
  8
1
  6
CENTER
 62
     6
 10
160.20257509892059
 20
102.57692420098959
 30
0.0
  0
LINE
  5
72C
  8
1
 62
     7
 10
126.68809792687129
 20
104.34912502087251
 30
0.0
 11
126.75496114465081
 21
103.9768977564722
 31
0.0
  0
LINE
  5
72D
  8
1
 62
     7
 10
126.315870662471
 20
104.28226180309299
 30
0.0
 11
126.68809792687129
 21
104.34912502087251
 31
0.0
  0
LINE
  5
72E
  8
1
 62
     7
 10
126.0345211576462
 20
104.74705141931391
 30
0.0
 11
126.14601769970911
 21
104.38567578737
 31
0.0
  0
LINE
  5
72F
  8
1
 62
     7
 10
125.6731455257024
 20
104.6355548772511
 30
0.0
 11
126.0345211576462
 21
104.74705141931391
 31
0.0
  0
LINE
  5
730
  8
1
 62
     7
 10
125.3375230691836
 20
105.0628071421861
 30
0.0
 11
125.4920081353616
 21
104.7176141663266
 31
0.0
  0
LINE
  5
731
  8
1
 62
     7
 10
124.9923300933241
 20
104.9083220760081
 30
0.0
 11
125.3375230691836
 21
105.0628071421861
 31
0.0
  0
LINE
  5
732
  8
1
 62
     7
 10
124.6073857971608
 20
105.291734152061
 30
0.0
 11
124.8025804193523
 21
104.9678161289096
 31
0.0
  0
LINE
  5
733
  8
1
 62
     7
 10
124.2834677740094
 20
105.0965395298695
 30
0.0
 11
124.6073857971608
 21
105.291734152061
 31
0.0
  0
LINE
  5
734
  8
1
 62
     7
 10
123.85488034743619
 20
105.4304553111605
 30
0.0
 11
124.0879050090082
 21
105.13259068863201
 31
0.0
  0
LINE
  5
735
  8
1
 62
     7
 10
123.5570157249076
 20
105.1974306495885
 30
0.0
 11
123.85488034743619
 21
105.4304553111605
 31
0.0
  0
LINE
  5
736
  8
1
 62
     7
 10
123.09110770186339
 20
105.4769242009896
 30
0.0
 11
123.3585248163632
 21
105.20950708648989
 31
0.0
  0
LINE
  5
737
  8
1
 62
     7
 10
117.78733545939301
 20
102.57692420098959
 30
0.0
 11
118.29237841836461
 21
102.8077717312257
 31
0.0
  0
LINE
  5
738
  8
1
 62
     7
 10
118.37970099529061
 20
102.9539885410318
 30
0.0
 11
118.35501144322021
 21
103.331366670066
 31
0.0
  0
LINE
  5
739
  8
1
 62
     7
 10
118.35501144322021
 20
103.331366670066
 30
0.0
 11
118.73238957225441
 21
103.3560562221365
 31
0.0
  0
LINE
  5
73A
  8
1
 62
     7
 10
118.87236008460501
 20
103.4973103788022
 30
0.0
 11
118.8936036100058
 21
103.8748981684397
 31
0.0
  0
LINE
  5
73B
  8
1
 62
     7
 10
118.8936036100058
 20
103.8748981684397
 30
0.0
 11
119.2711913996433
 21
103.85365464303889
 31
0.0
  0
LINE
  5
73C
  8
1
 62
     7
 10
119.42725425907599
 20
103.9768977564722
 30
0.0
 11
119.49411747685549
 21
104.34912502087251
 31
0.0
  0
LINE
  5
73D
  8
1
 62
     7
 10
119.49411747685549
 20
104.34912502087251
 30
0.0
 11
119.8663447412558
 21
104.28226180309299
 31
0.0
  0
LINE
  5
73E
  8
1
 62
     7
 10
120.0361977040177
 20
104.38567578737
 30
0.0
 11
120.1476942460806
 21
104.74705141931391
 31
0.0
  0
LINE
  5
73F
  8
1
 62
     7
 10
120.1476942460806
 20
104.74705141931391
 30
0.0
 11
120.50906987802441
 21
104.6355548772511
 31
0.0
  0
LINE
  5
740
  8
1
 62
     7
 10
120.6902072683652
 20
104.7176141663266
 30
0.0
 11
120.8446923345432
 21
105.0628071421861
 31
0.0
  0
LINE
  5
741
  8
1
 62
     7
 10
120.8446923345432
 20
105.0628071421861
 30
0.0
 11
121.1898853104027
 21
104.9083220760081
 31
0.0
  0
LINE
  5
742
  8
1
 62
     7
 10
121.3796349843745
 20
104.9678161289096
 30
0.0
 11
121.574829606566
 21
105.291734152061
 31
0.0
  0
LINE
  5
743
  8
1
 62
     7
 10
121.574829606566
 20
105.291734152061
 30
0.0
 11
121.89874762971741
 21
105.0965395298695
 31
0.0
  0
LINE
  5
744
  8
1
 62
     7
 10
122.0943103947186
 20
105.13259068863201
 30
0.0
 11
122.32733505629059
 21
105.4304553111605
 31
0.0
  0
LINE
  5
745
  8
1
 62
     7
 10
122.32733505629059
 20
105.4304553111605
 30
0.0
 11
122.6251996788191
 21
105.1974306495885
 31
0.0
  0
LINE
  5
746
  8
1
 62
     7
 10
122.8236905873636
 20
105.20950708648989
 30
0.0
 11
123.09110770186339
 21
105.4769242009896
 31
0.0
  0
LINE
  5
747
  8
1
 62
     7
 10
117.78733545939301
 20
102.57692420098959
 30
0.0
 11
114.55581452258799
 21
102.1806418695602
 31
0.0
  0
LINE
  5
748
  8
1
 62
     7
 10
127.171548854484
 20
103.6769242009897
 30
0.0
 11
127.7700228578656
 21
103.6769242009897
 31
0.0
  0
LINE
  5
749
  8
1
 62
     7
 10
135.0363837076996
 20
106.6769242009897
 30
0.0
 11
142.95352685061391
 21
106.6769242009897
 31
0.0
  0
LINE
  5
74A
  8
1
  6
CENTER
 62
     2
 10
138.99495527915681
 20
108.9043157181533
 30
0.0
 11
138.99495527915681
 21
101.88326823895591
 31
0.0
  0
LINE
  5
74B
  8
1
 62
     7
 10
151.23494941366269
 20
103.9768977564722
 30
0.0
 11
151.3018126314422
 21
104.34912502087251
 31
0.0
  0
LINE
  5
74C
  8
1
 62
     7
 10
151.3018126314422
 20
104.34912502087251
 30
0.0
 11
151.67403989584261
 21
104.28226180309299
 31
0.0
  0
LINE
  5
74D
  8
1
 62
     7
 10
151.84389285860451
 20
104.38567578737
 30
0.0
 11
151.95538940066729
 21
104.74705141931391
 31
0.0
  0
LINE
  5
74E
  8
1
 62
     7
 10
151.95538940066729
 20
104.74705141931391
 30
0.0
 11
152.31676503261119
 21
104.6355548772511
 31
0.0
  0
LINE
  5
74F
  8
1
 62
     7
 10
152.49790242295191
 20
104.7176141663266
 30
0.0
 11
152.65238748913001
 21
105.0628071421861
 31
0.0
  0
LINE
  5
750
  8
1
 62
     7
 10
152.65238748913001
 20
105.0628071421861
 30
0.0
 11
152.99758046498951
 21
104.9083220760081
 31
0.0
  0
LINE
  5
751
  8
1
 62
     7
 10
153.1873301389613
 20
104.9678161289096
 30
0.0
 11
153.38252476115281
 21
105.291734152061
 31
0.0
  0
LINE
  5
752
  8
1
 62
     7
 10
153.38252476115281
 20
105.291734152061
 30
0.0
 11
153.70644278430419
 21
105.0965395298695
 31
0.0
  0
LINE
  5
753
  8
1
 62
     7
 10
153.90200554930539
 20
105.13259068863201
 30
0.0
 11
154.1350302108774
 21
105.4304553111605
 31
0.0
  0
LINE
  5
754
  8
1
 62
     7
 10
154.1350302108774
 20
105.4304553111605
 30
0.0
 11
154.4328948334059
 21
105.1974306495885
 31
0.0
  0
LINE
  5
755
  8
1
 62
     7
 10
154.6313857419504
 20
105.20950708648989
 30
0.0
 11
154.89880285645009
 21
105.4769242009896
 31
0.0
  0
LINE
  5
756
  8
1
 62
     7
 10
159.69753213994889
 20
102.8077717312257
 30
0.0
 11
160.20257509892059
 21
102.57692420098959
 31
0.0
  0
LINE
  5
757
  8
1
 62
     7
 10
159.63489911509339
 20
103.331366670066
 30
0.0
 11
159.61020956302289
 21
102.9539885410318
 31
0.0
  0
LINE
  5
758
  8
1
 62
     7
 10
159.25752098605921
 20
103.3560562221365
 30
0.0
 11
159.63489911509339
 21
103.331366670066
 31
0.0
  0
LINE
  5
759
  8
1
 62
     7
 10
159.0963069483077
 20
103.8748981684397
 30
0.0
 11
159.1175504737086
 21
103.4973103788022
 31
0.0
  0
LINE
  5
75A
  8
1
 62
     7
 10
158.7187191586703
 20
103.85365464303889
 30
0.0
 11
159.0963069483077
 21
103.8748981684397
 31
0.0
  0
LINE
  5
75B
  8
1
 62
     7
 10
158.49579308145809
 20
104.34912502087251
 30
0.0
 11
158.5626562992376
 21
103.9768977564722
 31
0.0
  0
LINE
  5
75C
  8
1
 62
     7
 10
158.12356581705771
 20
104.28226180309299
 30
0.0
 11
158.49579308145809
 21
104.34912502087251
 31
0.0
  0
LINE
  5
75D
  8
1
 62
     7
 10
157.84221631223301
 20
104.74705141931391
 30
0.0
 11
157.95371285429579
 21
104.38567578737
 31
0.0
  0
LINE
  5
75E
  8
1
 62
     7
 10
157.48084068028911
 20
104.6355548772511
 30
0.0
 11
157.84221631223301
 21
104.74705141931391
 31
0.0
  0
LINE
  5
75F
  8
1
 62
     7
 10
157.14521822377031
 20
105.0628071421861
 30
0.0
 11
157.29970328994841
 21
104.7176141663266
 31
0.0
  0
LINE
  5
760
  8
1
 62
     7
 10
156.80002524791081
 20
104.9083220760081
 30
0.0
 11
157.14521822377031
 21
105.0628071421861
 31
0.0
  0
LINE
  5
761
  8
1
 62
     7
 10
156.41508095174751
 20
105.291734152061
 30
0.0
 11
156.61027557393899
 21
104.9678161289096
 31
0.0
  0
LINE
  5
762
  8
1
 62
     7
 10
156.09116292859611
 20
105.0965395298695
 30
0.0
 11
156.41508095174751
 21
105.291734152061
 31
0.0
  0
LINE
  5
763
  8
1
 62
     7
 10
155.66257550202289
 20
105.4304553111605
 30
0.0
 11
155.89560016359491
 21
105.13259068863201
 31
0.0
  0
LINE
  5
764
  8
1
 62
     7
 10
155.3647108794944
 20
105.1974306495885
 30
0.0
 11
155.66257550202289
 21
105.4304553111605
 31
0.0
  0
LINE
  5
765
  8
1
 62
     7
 10
154.89880285645009
 20
105.4769242009896
 30
0.0
 11
155.1662199709499
 21
105.20950708648989
 31
0.0
  0
LINE
  5
766
  8
1
 62
     7
 10
163.43409603572559
 20
102.1806418695602
 30
0.0
 11
160.20257509892059
 21
102.57692420098959
 31
0.0
  0
LINE
  5
767
  8
1
 62
     7
 10
150.21988770044791
 20
103.6769242009897
 30
0.0
 11
150.81836170382951
 21
103.6769242009897
 31
0.0
  0
LINE
  5
768
  8
1
 62
     7
 10
133.7628041471545
 20
108.6769242009896
 30
0.0
 11
144.2271064111591
 21
108.6769242009896
 31
0.0
  0
ARC
  5
76D
  8
1
 62
     7
 10
123.0911077018482
 20
99.176924200971825
 30
0.0
 40
6.0000000000234284
 50
49.632406455814611
 51
51.701787713940909
  0
ARC
  5
76E
  8
1
 62
     7
 10
126.9025981554452
 20
104.00341780631589
 30
0.0
 40
0.1499999999999917
 50
190.18344337631649
 51
231.70178771394791
  0
ARC
  5
76F
  8
1
 62
     7
 10
126.2893506126274
 20
104.42989881388741
 30
0.0
 40
0.149999999999994
 50
238.6650990386907
 51
280.18344337631572
  0
ARC
  5
770
  8
1
 62
     7
 10
126.2893506126274
 20
104.42989881388741
 30
0.0
 40
0.1499999999999692
 50
197.14675470105769
 51
238.6650990386907
  0
ARC
  5
771
  8
1
 62
     7
 10
125.62892249918499
 20
104.77888779016941
 30
0.0
 40
0.1499999999999983
 50
245.62841036342181
 51
287.1467547010518
  0
ARC
  5
772
  8
1
 62
     7
 10
125.62892249918499
 20
104.77888779016941
 30
0.0
 40
0.149999999999984
 50
204.1100660257903
 51
245.62841036342181
  0
ARC
  5
773
  8
1
 62
     7
 10
124.93105646948131
 20
105.0452364398315
 30
0.0
 40
0.1500000000000035
 50
252.59172168816451
 51
294.11006602579567
  0
ARC
  5
774
  8
1
 62
     7
 10
124.93105646948131
 20
105.0452364398315
 30
0.0
 40
0.1499999999999709
 50
211.073377350534
 51
252.59172168816451
  0
ARC
  5
775
  8
1
 62
     7
 10
124.2060474630875
 20
105.2250155799985
 30
0.0
 40
0.1499999999999978
 50
259.55503301289508
 51
301.07337735052562
  0
ARC
  5
776
  8
1
 62
     7
 10
124.2060474630875
 20
105.2250155799985
 30
0.0
 40
0.1499999999999809
 50
218.03668867526531
 51
259.55503301289508
  0
ARC
  5
777
  8
1
 62
     7
 10
123.46459083354119
 20
105.3155731036679
 30
0.0
 40
0.1500000000000038
 50
266.51834433761508
 51
308.03668867524971
  0
ARC
  5
778
  8
1
 62
     7
 10
123.46459083354119
 20
105.3155731036679
 30
0.0
 40
0.1500000000000022
 50
224.99999999999429
 51
266.51834433761508
  0
ARC
  5
779
  8
1
 62
     7
 10
118.2300209899865
 20
102.9441958901055
 30
0.0
 40
0.1500000000000126
 50
294.56442642588132
 51
322.22483493552318
  0
ARC
  5
77A
  8
1
 62
     7
 10
118.2300209899865
 20
102.9441958901055
 30
0.0
 40
0.1500000000000082
 50
322.22483493552318
 51
3.7431792731522262
  0
ARC
  5
77B
  8
1
 62
     7
 10
118.72259692132801
 20
103.50573622744059
 30
0.0
 40
0.1500000000000138
 50
273.74317927315718
 51
315.26152361078988
  0
ARC
  5
77C
  8
1
 62
     7
 10
118.72259692132801
 20
103.50573622744059
 30
0.0
 40
0.1500000000000173
 50
315.26152361078988
 51
356.77986794841752
  0
ARC
  5
77D
  8
1
 62
     7
 10
119.2796172482816
 20
104.00341780631589
 30
0.0
 40
0.1500000000000046
 50
266.77986794842491
 51
308.2982122860538
  0
ARC
  5
77E
  8
1
 62
     7
 10
119.2796172482816
 20
104.00341780631589
 30
0.0
 40
0.1500000000000052
 50
308.2982122860538
 51
349.81655662368269
  0
ARC
  5
77F
  8
1
 62
     7
 10
119.8928647910995
 20
104.42989881388741
 30
0.0
 40
0.1500000000000057
 50
259.81655662368428
 51
301.33490096131118
  0
ARC
  5
780
  8
1
 62
     7
 10
119.8928647910995
 20
104.42989881388741
 30
0.0
 40
0.1499999999999977
 50
301.33490096131118
 51
342.85324529894149
  0
ARC
  5
781
  8
1
 62
     7
 10
120.55329290454181
 20
104.77888779016941
 30
0.0
 40
0.1499999999999943
 50
252.8532452989482
 51
294.37158963658101
  0
ARC
  5
782
  8
1
 62
     7
 10
120.55329290454181
 20
104.77888779016941
 30
0.0
 40
0.1500000000000013
 50
294.37158963658101
 51
335.88993397421052
  0
ARC
  5
783
  8
1
 62
     7
 10
121.2511589342455
 20
105.0452364398315
 30
0.0
 40
0.1500000000000201
 50
245.88993397420609
 51
287.40827831183958
  0
ARC
  5
784
  8
1
 62
     7
 10
121.2511589342455
 20
105.0452364398315
 30
0.0
 40
0.1500000000000067
 50
287.40827831183958
 51
328.92662264946779
  0
ARC
  5
785
  8
1
 62
     7
 10
121.9761679406393
 20
105.2250155799985
 30
0.0
 40
0.1500000000000074
 50
238.92662264947441
 51
280.4449669871031
  0
ARC
  5
786
  8
1
 62
     7
 10
121.9761679406393
 20
105.2250155799985
 30
0.0
 40
0.1499999999999972
 50
280.4449669871031
 51
321.96331132473182
  0
ARC
  5
787
  8
1
 62
     7
 10
122.71762457018571
 20
105.3155731036679
 30
0.0
 40
0.1500000000000021
 50
231.9633113247381
 51
273.48165566236861
  0
ARC
  5
788
  8
1
 62
     7
 10
122.71762457018571
 20
105.3155731036679
 30
0.0
 40
0.1500000000000012
 50
273.48165566236861
 51
314.99999999999829
  0
ARC
  5
789
  8
1
 62
     7
 10
114.4949552791568
 20
102.6769242009897
 30
0.0
 40
0.5
 50
180.0
 51
270.0
  0
ARC
  5
78A
  8
1
 62
     7
 10
114.4949552791568
 20
102.6769242009897
 30
0.0
 40
0.5000000000000018
 50
270.0
 51
276.99129172726163
  0
ARC
  5
78B
  8
1
 62
     7
 10
135.0363837076996
 20
96.676924200989674
 30
0.0
 40
10.0
 50
90.0
 51
134.86768294947279
  0
ARC
  5
78C
  8
1
 62
     7
 10
114.4949552791568
 20
102.6769242009897
 30
0.0
 40
0.500000000000007
 50
121.86274956867339
 51
180.0
  0
ARC
  5
78D
  8
1
 62
     7
 10
133.7628041471545
 20
71.676924200989674
 30
0.0
 40
37.0
 50
90.0
 51
121.862749568673
  0
ARC
  5
78E
  8
1
 62
     7
 10
154.8988028564653
 20
99.176924200971825
 30
0.0
 40
6.0000000000234284
 50
128.29821228605911
 51
130.36759354418601
  0
ARC
  5
78F
  8
1
 62
     7
 10
151.08731240286841
 20
104.00341780631589
 30
0.0
 40
0.1500000000000052
 50
308.2982122860538
 51
349.81655662368348
  0
ARC
  5
790
  8
1
 62
     7
 10
151.70055994568619
 20
104.42989881388741
 30
0.0
 40
0.1500000000000057
 50
259.81655662368428
 51
301.33490096130942
  0
ARC
  5
791
  8
1
 62
     7
 10
151.70055994568619
 20
104.42989881388741
 30
0.0
 40
0.149999999999994
 50
301.33490096130942
 51
342.85324529894149
  0
ARC
  5
792
  8
1
 62
     7
 10
152.36098805912849
 20
104.77888779016941
 30
0.0
 40
0.1499999999999943
 50
252.8532452989482
 51
294.37158963657822
  0
ARC
  5
793
  8
1
 62
     7
 10
152.36098805912849
 20
104.77888779016941
 30
0.0
 40
0.1499999999999983
 50
294.37158963657822
 51
335.88993397420973
  0
ARC
  5
794
  8
1
 62
     7
 10
153.05885408883231
 20
105.0452364398315
 30
0.0
 40
0.1500000000000186
 50
245.8899339742068
 51
287.4082783118406
  0
ARC
  5
795
  8
1
 62
     7
 10
153.05885408883231
 20
105.0452364398315
 30
0.0
 40
0.1500000000000078
 50
287.4082783118406
 51
328.92662264946603
  0
ARC
  5
796
  8
1
 62
     7
 10
153.78386309522611
 20
105.2250155799985
 30
0.0
 40
0.1500000000000001
 50
238.9266226494791
 51
280.44496698710981
  0
ARC
  5
797
  8
1
 62
     7
 10
153.78386309522611
 20
105.2250155799985
 30
0.0
 40
0.1500000000000004
 50
280.44496698710981
 51
321.96331132473631
  0
ARC
  5
798
  8
1
 62
     7
 10
154.52531972477229
 20
105.3155731036679
 30
0.0
 40
0.1499999999999802
 50
231.9633113247485
 51
273.48165566238492
  0
ARC
  5
799
  8
1
 62
     7
 10
154.52531972477229
 20
105.3155731036679
 30
0.0
 40
0.1500000000000038
 50
273.48165566238492
 51
315.00000000000978
  0
ARC
  5
79A
  8
1
 62
     7
 10
159.759889568327
 20
102.9441958901055
 30
0.0
 40
0.1500000000000054
 50
217.7751650644779
 51
245.43557357412161
  0
ARC
  5
79B
  8
1
 62
     7
 10
159.759889568327
 20
102.9441958901055
 30
0.0
 40
0.1499999999999916
 50
176.25682072684779
 51
217.7751650644779
  0
ARC
  5
79C
  8
1
 62
     7
 10
159.26731363698551
 20
103.50573622744059
 30
0.0
 40
0.1500000000000148
 50
224.7384763892112
 51
266.25682072684282
  0
ARC
  5
79D
  8
1
 62
     7
 10
159.26731363698551
 20
103.50573622744059
 30
0.0
 40
0.1499999999999772
 50
183.2201320515824
 51
224.7384763892112
  0
ARC
  5
79E
  8
1
 62
     7
 10
158.71029331003189
 20
104.00341780631589
 30
0.0
 40
0.1500000000000052
 50
231.70178771394609
 51
273.22013205157418
  0
ARC
  5
79F
  8
1
 62
     7
 10
158.71029331003189
 20
104.00341780631589
 30
0.0
 40
0.1499999999999917
 50
190.18344337631649
 51
231.70178771394609
  0
ARC
  5
7A0
  8
1
 62
     7
 10
158.0970457672141
 20
104.42989881388741
 30
0.0
 40
0.1499999999999977
 50
238.66509903868879
 51
280.18344337631572
  0
ARC
  5
7A1
  8
1
 62
     7
 10
158.0970457672141
 20
104.42989881388741
 30
0.0
 40
0.1499999999999692
 50
197.14675470105769
 51
238.66509903868879
  0
ARC
  5
7A2
  8
1
 62
     7
 10
157.4366176537718
 20
104.77888779016941
 30
0.0
 40
0.1500000000000013
 50
245.62841036341891
 51
287.14675470104919
  0
ARC
  5
7A3
  8
1
 62
     7
 10
157.4366176537718
 20
104.77888779016941
 30
0.0
 40
0.1499999999999905
 50
204.1100660257888
 51
245.62841036341891
  0
ARC
  5
7A4
  8
1
 62
     7
 10
156.73875162406799
 20
105.0452364398315
 30
0.0
 40
0.1500000000000057
 50
252.59172168816201
 51
294.11006602579567
  0
ARC
  5
7A5
  8
1
 62
     7
 10
156.73875162406799
 20
105.0452364398315
 30
0.0
 40
0.149999999999977
 50
211.07337735053261
 51
252.59172168816201
  0
ARC
  5
7A6
  8
1
 62
     7
 10
156.01374261767421
 20
105.2250155799985
 30
0.0
 40
0.1499999999999978
 50
259.55503301289508
 51
301.07337735052562
  0
ARC
  5
7A7
  8
1
 62
     7
 10
156.01374261767421
 20
105.2250155799985
 30
0.0
 40
0.1499999999999809
 50
218.03668867526531
 51
259.55503301289508
  0
ARC
  5
7A8
  8
1
 62
     7
 10
155.27228598812789
 20
105.3155731036679
 30
0.0
 40
0.1500000000000012
 50
266.51834433763139
 51
308.03668867526011
  0
ARC
  5
7A9
  8
1
 62
     7
 10
155.27228598812789
 20
105.3155731036679
 30
0.0
 40
0.1499999999999821
 50
225.00000000000171
 51
266.51834433763139
  0
ARC
  5
7AA
  8
1
 62
     7
 10
163.49495527915681
 20
102.6769242009897
 30
0.0
 40
0.5000000000000018
 50
270.0
 51
0.0
  0
ARC
  5
7AB
  8
1
 62
     7
 10
163.49495527915681
 20
102.6769242009897
 30
0.0
 40
0.5000000000000503
 50
263.00870827273849
 51
270.0
  0
ARC
  5
7AC
  8
1
 62
     7
 10
142.95352685061391
 20
96.676924200989674
 30
0.0
 40
10.000000000000011
 50
45.13231705052717
 51
90.0
  0
ARC
  5
7AD
  8
1
 62
     7
 10
163.49495527915681
 20
102.6769242009897
 30
0.0
 40
0.5
 50
0.0
 51
58.137250431326947
  0
ARC
  5
7AE
  8
1
 62
     7
 10
144.2271064111591
 20
71.676924200989674
 30
0.0
 40
37.000000000000007
 50
58.137250431326947
 51
90.0
  0
ARC
  5
7AF
  8
1
 62
     7
 10
127.171548854484
 20
103.9769242009897
 30
0.0
 40
0.2999999999999973
 50
229.63240645581459
 51
270.0
  0
ARC
  5
7B0
  8
1
 62
     7
 10
127.7700228578656
 20
103.9769242009897
 30
0.0
 40
0.2999999999999972
 50
270.0
 51
314.86768294947342
  0
ARC
  5
7B1
  8
1
 62
     7
 10
150.81836170382951
 20
103.9769242009897
 30
0.0
 40
0.2999999999999972
 50
270.0
 51
310.36759354418541
  0
ARC
  5
7B2
  8
1
 62
     7
 10
150.21988770044791
 20
103.9769242009897
 30
0.0
 40
0.3000000000000042
 50
225.13231705052539
 51
270.0
  0
INSERT
  5
7DF
  8
0
  2
*U39
 10
0.0
 20
0.0
 30
0.0
  0
INSERT
  5
92C
  8
1
  2
*X2
 10
218.1101236873493
 20
109.3233265536188
 30
0.0
 41
0.7001280000000066
 42
0.7001280000000066
 43
0.7001280000000066
  0
POINT
  5
92D
  8
1
  6
CENTER
 62
     6
 10
244.0634643278018
 20
103.10947079893241
 30
0.0
  0
POINT
  5
92E
  8
1
  6
CENTER
 62
     6
 10
237.57159801435591
 20
102.3393299989324
 30
0.0
  0
POINT
  5
92F
  8
1
  6
CENTER
 62
     6
 10
267.26769491269931
 20
102.3393299989324
 30
0.0
  0
LINE
  5
931
  8
1
 62
     7
 10
243.8032710391866
 20
103.5800974145553
 30
0.0
 11
243.85008385012421
 21
103.3194906843853
 31
0.0
  0
LINE
  5
932
  8
1
 62
     7
 10
243.54266430901649
 20
103.5332846036178
 30
0.0
 11
243.8032710391866
 21
103.5800974145553
 31
0.0
  0
LINE
  5
933
  8
1
 62
     7
 10
243.3456836429026
 20
103.85869682804319
 30
0.0
 11
243.42374549390399
 21
103.6056876296017
 31
0.0
  0
LINE
  5
934
  8
1
 62
     7
 10
243.09267444446101
 20
103.7806349770419
 30
0.0
 11
243.3456836429026
 21
103.85869682804319
 31
0.0
  0
LINE
  5
935
  8
1
 62
     7
 10
242.85769576522341
 20
104.07976625078641
 30
0.0
 11
242.96585508563649
 21
103.8380869829838
 31
0.0
  0
LINE
  5
936
  8
1
 62
     7
 10
242.61601649742079
 20
103.9716069303733
 30
0.0
 11
242.85769576522341
 21
104.07976625078641
 31
0.0
  0
LINE
  5
937
  8
1
 62
     7
 10
242.34650621723671
 20
104.2400444603561
 30
0.0
 11
242.48316743768231
 21
104.0132603826431
 31
0.0
  0
LINE
  5
938
  8
1
 62
     7
 10
242.1197221395237
 20
104.1033832399103
 30
0.0
 11
242.34650621723671
 21
104.2400444603561
 31
0.0
  0
LINE
  5
939
  8
1
 62
     7
 10
241.81965608173189
 20
104.3371670280341
 30
0.0
 11
241.98280317198891
 21
104.1286236655924
 31
0.0
  0
LINE
  5
93A
  8
1
 62
     7
 10
241.61111271929019
 20
104.174019937777
 30
0.0
 11
241.81965608173189
 21
104.3371670280341
 31
0.0
  0
LINE
  5
93B
  8
1
 62
     7
 10
241.28491746693231
 20
104.3697011989324
 30
0.0
 11
241.4721436764728
 21
104.18247498939191
 31
0.0
  0
LINE
  5
93C
  8
1
 62
     7
 10
237.57159801435591
 20
102.3393299989324
 30
0.0
 11
237.92519273113481
 21
102.5009528185814
 31
0.0
  0
LINE
  5
93D
  8
1
 62
     7
 10
237.98632971227281
 20
102.60332330119741
 30
0.0
 11
237.96904386556091
 21
102.86753629592179
 31
0.0
  0
LINE
  5
93E
  8
1
 62
     7
 10
237.96904386556091
 20
102.86753629592179
 30
0.0
 11
238.23325686028539
 21
102.88482214263379
 31
0.0
  0
LINE
  5
93F
  8
1
 62
     7
 10
238.3312541351564
 20
102.9837181328319
 30
0.0
 11
238.34612732210809
 21
103.24807791681521
 31
0.0
  0
LINE
  5
940
  8
1
 62
     7
 10
238.34612732210809
 20
103.24807791681521
 30
0.0
 11
238.61048710609151
 21
103.2332047298634
 31
0.0
  0
LINE
  5
941
  8
1
 62
     7
 10
238.71975108374039
 20
103.3194906843853
 30
0.0
 11
238.76656389467789
 21
103.5800974145553
 31
0.0
  0
LINE
  5
942
  8
1
 62
     7
 10
238.76656389467789
 20
103.5800974145553
 30
0.0
 11
239.027170624848
 21
103.5332846036178
 31
0.0
  0
LINE
  5
943
  8
1
 62
     7
 10
239.1460894399606
 20
103.6056876296017
 30
0.0
 11
239.22415129096191
 21
103.85869682804319
 31
0.0
  0
LINE
  5
944
  8
1
 62
     7
 10
239.22415129096191
 20
103.85869682804319
 30
0.0
 11
239.4771604894035
 21
103.7806349770419
 31
0.0
  0
LINE
  5
945
  8
1
 62
     7
 10
239.60397984822811
 20
103.8380869829838
 30
0.0
 11
239.7121391686411
 21
104.07976625078641
 31
0.0
  0
LINE
  5
946
  8
1
 62
     7
 10
239.7121391686411
 20
104.07976625078641
 30
0.0
 11
239.9538184364437
 21
103.9716069303733
 31
0.0
  0
LINE
  5
947
  8
1
 62
     7
 10
240.0866674961822
 20
104.0132603826431
 30
0.0
 11
240.22332871662789
 21
104.2400444603561
 31
0.0
  0
LINE
  5
948
  8
1
 62
     7
 10
240.22332871662789
 20
104.2400444603561
 30
0.0
 11
240.4501127943409
 21
104.1033832399103
 31
0.0
  0
LINE
  5
949
  8
1
 62
     7
 10
240.58703176187561
 20
104.1286236655924
 30
0.0
 11
240.75017885213271
 21
104.3371670280341
 31
0.0
  0
LINE
  5
94A
  8
1
 62
     7
 10
240.75017885213271
 20
104.3371670280341
 30
0.0
 11
240.95872221457441
 21
104.174019937777
 31
0.0
  0
LINE
  5
94B
  8
1
 62
     7
 10
241.0976912573918
 20
104.18247498939191
 30
0.0
 11
241.28491746693231
 21
104.3697011989324
 31
0.0
  0
LINE
  5
94C
  8
1
 62
     7
 10
237.57159801435591
 20
102.3393299989324
 30
0.0
 11
235.30911972391249
 21
102.0618816427933
 31
0.0
  0
LINE
  5
94D
  8
1
 62
     7
 10
244.14174857023431
 20
103.10947079893241
 30
0.0
 11
244.56075697727391
 21
103.10947079893241
 31
0.0
  0
LINE
  5
94E
  8
1
 62
     7
 10
249.6481396663464
 20
105.2098547989324
 30
0.0
 11
255.19115326070869
 21
105.2098547989324
 31
0.0
  0
LINE
  5
94F
  8
1
  6
CENTER
 62
     2
 10
252.4196464635275
 20
106.76931396706109
 30
0.0
 11
252.4196464635275
 21
101.8536820375456
 31
0.0
  0
LINE
  5
950
  8
1
 62
     7
 10
260.98920907693099
 20
103.3194906843853
 30
0.0
 11
261.03602188786851
 21
103.5800974145553
 31
0.0
  0
LINE
  5
951
  8
1
 62
     7
 10
261.03602188786851
 20
103.5800974145553
 30
0.0
 11
261.2966286180386
 21
103.5332846036178
 31
0.0
  0
LINE
  5
952
  8
1
 62
     7
 10
261.41554743315118
 20
103.6056876296017
 30
0.0
 11
261.49360928415251
 21
103.85869682804319
 31
0.0
  0
LINE
  5
953
  8
1
 62
     7
 10
261.49360928415251
 20
103.85869682804319
 30
0.0
 11
261.7466184825941
 21
103.7806349770419
 31
0.0
  0
LINE
  5
954
  8
1
 62
     7
 10
261.87343784141859
 20
103.8380869829838
 30
0.0
 11
261.98159716183181
 21
104.07976625078641
 31
0.0
  0
LINE
  5
955
  8
1
 62
     7
 10
261.98159716183181
 20
104.07976625078641
 30
0.0
 11
262.22327642963421
 21
103.9716069303733
 31
0.0
  0
LINE
  5
956
  8
1
 62
     7
 10
262.3561254893728
 20
104.0132603826431
 30
0.0
 11
262.49278670981852
 21
104.2400444603561
 31
0.0
  0
LINE
  5
957
  8
1
 62
     7
 10
262.49278670981852
 20
104.2400444603561
 30
0.0
 11
262.7195707875315
 21
104.1033832399103
 31
0.0
  0
LINE
  5
958
  8
1
 62
     7
 10
262.85648975506632
 20
104.1286236655924
 30
0.0
 11
263.0196368453233
 21
104.3371670280341
 31
0.0
  0
LINE
  5
959
  8
1
 62
     7
 10
263.0196368453233
 20
104.3371670280341
 30
0.0
 11
263.22818020776498
 21
104.174019937777
 31
0.0
  0
LINE
  5
95A
  8
1
 62
     7
 10
263.36714925058237
 20
104.18247498939191
 30
0.0
 11
263.55437546012291
 21
104.3697011989324
 31
0.0
  0
LINE
  5
95B
  8
1
 62
     7
 10
266.91410019592041
 20
102.5009528185814
 30
0.0
 11
267.26769491269931
 21
102.3393299989324
 31
0.0
  0
LINE
  5
95C
  8
1
 62
     7
 10
266.87024906149429
 20
102.86753629592179
 30
0.0
 11
266.85296321478228
 21
102.60332330119741
 31
0.0
  0
LINE
  5
95D
  8
1
 62
     7
 10
266.60603606676978
 20
102.88482214263379
 30
0.0
 11
266.87024906149429
 21
102.86753629592179
 31
0.0
  0
LINE
  5
95E
  8
1
 62
     7
 10
266.49316560494702
 20
103.24807791681521
 30
0.0
 11
266.5080387918988
 21
102.9837181328319
 31
0.0
  0
LINE
  5
95F
  8
1
 62
     7
 10
266.2288058209636
 20
103.2332047298634
 30
0.0
 11
266.49316560494702
 21
103.24807791681521
 31
0.0
  0
LINE
  5
960
  8
1
 62
     7
 10
266.07272903237731
 20
103.5800974145553
 30
0.0
 11
266.11954184331478
 21
103.3194906843853
 31
0.0
  0
LINE
  5
961
  8
1
 62
     7
 10
265.81212230220711
 20
103.5332846036178
 30
0.0
 11
266.07272903237731
 21
103.5800974145553
 31
0.0
  0
LINE
  5
962
  8
1
 62
     7
 10
265.61514163609331
 20
103.85869682804319
 30
0.0
 11
265.69320348709459
 21
103.6056876296017
 31
0.0
  0
LINE
  5
963
  8
1
 62
     7
 10
265.36213243765161
 20
103.7806349770419
 30
0.0
 11
265.61514163609331
 21
103.85869682804319
 31
0.0
  0
LINE
  5
964
  8
1
 62
     7
 10
265.12715375841412
 20
104.07976625078641
 30
0.0
 11
265.23531307882712
 21
103.8380869829838
 31
0.0
  0
LINE
  5
965
  8
1
 62
     7
 10
264.8854744906115
 20
103.9716069303733
 30
0.0
 11
265.12715375841412
 21
104.07976625078641
 31
0.0
  0
LINE
  5
966
  8
1
 62
     7
 10
264.61596421042731
 20
104.2400444603561
 30
0.0
 11
264.75262543087302
 21
104.0132603826431
 31
0.0
  0
LINE
  5
967
  8
1
 62
     7
 10
264.38918013271427
 20
104.1033832399103
 30
0.0
 11
264.61596421042731
 21
104.2400444603561
 31
0.0
  0
LINE
  5
968
  8
1
 62
     7
 10
264.08911407492252
 20
104.3371670280341
 30
0.0
 11
264.2522611651795
 21
104.1286236655924
 31
0.0
  0
LINE
  5
969
  8
1
 62
     7
 10
263.88057071248079
 20
104.174019937777
 30
0.0
 11
264.08911407492252
 21
104.3371670280341
 31
0.0
  0
LINE
  5
96A
  8
1
 62
     7
 10
263.55437546012291
 20
104.3697011989324
 30
0.0
 11
263.7416016696634
 21
104.18247498939191
 31
0.0
  0
LINE
  5
96B
  8
1
 62
     7
 10
269.53017320314268
 20
102.0618816427933
 30
0.0
 11
267.26769491269931
 21
102.3393299989324
 31
0.0
  0
LINE
  5
96C
  8
1
 62
     7
 10
260.27853594978143
 20
103.10947079893241
 30
0.0
 11
260.69754435682091
 21
103.10947079893241
 31
0.0
  0
LINE
  5
96D
  8
1
 62
     7
 10
248.756470955781
 20
106.6101107989324
 30
0.0
 11
256.0828219712742
 21
106.6101107989324
 31
0.0
  0
ARC
  5
972
  8
1
 62
     7
 10
241.2849174669216
 20
99.958894798919843
 30
0.0
 40
4.2007680000164216
 50
49.632406455815989
 51
51.701787713941251
  0
ARC
  5
973
  8
1
 62
     7
 10
243.95344865521761
 20
103.33805811384219
 30
0.0
 40
0.1050191999999947
 50
190.1834433763174
 51
231.70178771394751
  0
ARC
  5
974
  8
1
 62
     7
 10
243.52409687955961
 20
103.63664940871119
 30
0.0
 40
0.1050191999999963
 50
238.6650990386907
 51
280.18344337631532
  0
ARC
  5
975
  8
1
 62
     7
 10
243.52409687955961
 20
103.63664940871119
 30
0.0
 40
0.1050191999999789
 50
197.14675470105641
 51
238.6650990386907
  0
ARC
  5
976
  8
1
 62
     7
 10
243.06171266535151
 20
103.8809863626976
 30
0.0
 40
0.1050191999999993
 50
245.6284103634222
 51
287.1467547010509
  0
ARC
  5
977
  8
1
 62
     7
 10
243.06171266535151
 20
103.8809863626976
 30
0.0
 40
0.1050191999999893
 50
204.1100660257901
 51
245.6284103634222
  0
ARC
  5
978
  8
1
 62
     7
 10
242.57311711770711
 20
104.0674645100883
 30
0.0
 40
0.1050192000000029
 50
252.5917216881642
 51
294.11006602579567
  0
ARC
  5
979
  8
1
 62
     7
 10
242.57311711770711
 20
104.0674645100883
 30
0.0
 40
0.1050191999999801
 50
211.07337735053329
 51
252.5917216881642
  0
ARC
  5
97A
  8
1
 62
     7
 10
242.0655180120786
 20
104.1933329199351
 30
0.0
 40
0.105019199999999
 50
259.5550330128948
 51
301.07337735052607
  0
ARC
  5
97B
  8
1
 62
     7
 10
242.0655180120786
 20
104.1933329199351
 30
0.0
 40
0.1050191999999871
 50
218.0366886752652
 51
259.5550330128948
  0
ARC
  5
97C
  8
1
 62
     7
 10
241.54640346494759
 20
104.2567347778666
 30
0.0
 40
0.1050192000000031
 50
266.51834433761428
 51
308.03668867525067
  0
ARC
  5
97D
  8
1
 62
     7
 10
241.54640346494759
 20
104.2567347778666
 30
0.0
 40
0.105019200000002
 50
224.9999999999948
 51
266.51834433761428
  0
ARC
  5
97E
  8
1
 62
     7
 10
237.88153454951939
 20
102.59646719208961
 30
0.0
 40
0.1050192000000093
 50
294.56442642588257
 51
322.22483493552119
  0
ARC
  5
97F
  8
1
 62
     7
 10
237.88153454951939
 20
102.59646719208961
 30
0.0
 40
0.1050192000000063
 50
322.22483493552119
 51
3.74317927315164
  0
ARC
  5
980
  8
1
 62
     7
 10
238.22640075117761
 20
102.9896173053874
 30
0.0
 40
0.1050192000000101
 50
273.74317927315752
 51
315.26152361079039
  0
ARC
  5
981
  8
1
 62
     7
 10
238.22640075117761
 20
102.9896173053874
 30
0.0
 40
0.1050192000000126
 50
315.26152361079039
 51
356.7798679484174
  0
ARC
  5
982
  8
1
 62
     7
 10
238.6163862786469
 20
103.33805811384219
 30
0.0
 40
0.1050192000000037
 50
266.77986794842491
 51
308.29821228605363
  0
ARC
  5
983
  8
1
 62
     7
 10
238.6163862786469
 20
103.33805811384219
 30
0.0
 40
0.1050192000000041
 50
308.29821228605363
 51
349.81655662368257
  0
ARC
  5
984
  8
1
 62
     7
 10
239.04573805430499
 20
103.63664940871119
 30
0.0
 40
0.1050192000000045
 50
259.81655662368468
 51
301.33490096131021
  0
ARC
  5
985
  8
1
 62
     7
 10
239.04573805430499
 20
103.63664940871119
 30
0.0
 40
0.1050191999999989
 50
301.33490096131021
 51
342.85324529894172
  0
ARC
  5
986
  8
1
 62
     7
 10
239.50812226851309
 20
103.8809863626976
 30
0.0
 40
0.1050191999999965
 50
252.85324529894871
 51
294.3715896365818
  0
ARC
  5
987
  8
1
 62
     7
 10
239.50812226851309
 20
103.8809863626976
 30
0.0
 40
0.1050192000000014
 50
294.3715896365818
 51
335.8899339742099
  0
ARC
  5
988
  8
1
 62
     7
 10
239.99671781615751
 20
104.0674645100883
 30
0.0
 40
0.1050192000000146
 50
245.8899339742043
 51
287.40827831183969
  0
ARC
  5
989
  8
1
 62
     7
 10
239.99671781615751
 20
104.0674645100883
 30
0.0
 40
0.1050192000000052
 50
287.40827831183969
 51
328.9266226494683
  0
ARC
  5
98A
  8
1
 62
     7
 10
240.504316921786
 20
104.1933329199351
 30
0.0
 40
0.1050192000000057
 50
238.92662264947381
 51
280.4449669871052
  0
ARC
  5
98B
  8
1
 62
     7
 10
240.504316921786
 20
104.1933329199351
 30
0.0
 40
0.1050191999999985
 50
280.4449669871052
 51
321.96331132473301
  0
ARC
  5
98C
  8
1
 62
     7
 10
241.02343146891701
 20
104.2567347778666
 30
0.0
 40
0.105019200000002
 50
231.9633113247385
 51
273.48165566236662
  0
ARC
  5
98D
  8
1
 62
     7
 10
241.02343146891701
 20
104.2567347778666
 30
0.0
 40
0.1050192000000013
 50
273.48165566236662
 51
315.0
  0
ARC
  5
98E
  8
1
 62
     7
 10
235.2665104635276
 20
102.4093427989324
 30
0.0
 40
0.3500640000000017
 50
180.0
 51
270.0
  0
ARC
  5
98F
  8
1
 62
     7
 10
235.2665104635276
 20
102.4093427989324
 30
0.0
 40
0.3500640000000029
 50
270.0
 51
276.99129172725992
  0
ARC
  5
990
  8
1
 62
     7
 10
249.6481396663464
 20
98.208574798932375
 30
0.0
 40
7.0012800000000333
 50
90.0
 51
134.86768294947191
  0
ARC
  5
991
  8
1
 62
     7
 10
235.2665104635276
 20
102.4093427989324
 30
0.0
 40
0.3500640000000064
 50
121.8627495686728
 51
180.0
  0
ARC
  5
992
  8
1
 62
     7
 10
248.756470955781
 20
80.705374798932269
 30
0.0
 40
25.904736000000121
 50
90.0
 51
121.8627495686728
  0
ARC
  5
993
  8
1
 62
     7
 10
263.55437546013349
 20
99.958894798919843
 30
0.0
 40
4.2007680000164216
 50
128.29821228605871
 51
130.36759354418399
  0
ARC
  5
994
  8
1
 62
     7
 10
260.88584427183758
 20
103.33805811384219
 30
0.0
 40
0.1050192000000041
 50
308.29821228605363
 51
349.81655662368257
  0
ARC
  5
995
  8
1
 62
     7
 10
261.31519604749548
 20
103.63664940871119
 30
0.0
 40
0.1050192000000045
 50
259.81655662368468
 51
301.33490096130919
  0
ARC
  5
996
  8
1
 62
     7
 10
261.31519604749548
 20
103.63664940871119
 30
0.0
 40
0.1050191999999963
 50
301.33490096130919
 51
342.85324529894172
  0
ARC
  5
997
  8
1
 62
     7
 10
261.77758026170369
 20
103.8809863626976
 30
0.0
 40
0.1050191999999965
 50
252.85324529894871
 51
294.37158963657782
  0
ARC
  5
998
  8
1
 62
     7
 10
261.77758026170369
 20
103.8809863626976
 30
0.0
 40
0.1050191999999993
 50
294.37158963657782
 51
335.8899339742099
  0
ARC
  5
999
  8
1
 62
     7
 10
262.26617580934811
 20
104.0674645100883
 30
0.0
 40
0.1050192000000135
 50
245.88993397420791
 51
287.40827831183969
  0
ARC
  5
99A
  8
1
 62
     7
 10
262.26617580934811
 20
104.0674645100883
 30
0.0
 40
0.1050192000000059
 50
287.40827831183969
 51
328.92662264946671
  0
ARC
  5
99B
  8
1
 62
     7
 10
262.77377491497651
 20
104.1933329199351
 30
0.0
 40
0.1050192000000006
 50
238.92662264947811
 51
280.4449669871093
  0
ARC
  5
99C
  8
1
 62
     7
 10
262.77377491497651
 20
104.1933329199351
 30
0.0
 40
0.1050192000000008
 50
280.4449669871093
 51
321.9633113247362
  0
ARC
  5
99D
  8
1
 62
     7
 10
263.29288946210761
 20
104.2567347778666
 30
0.0
 40
0.1050191999999866
 50
231.96331132474791
 51
273.48165566238572
  0
ARC
  5
99E
  8
1
 62
     7
 10
263.29288946210761
 20
104.2567347778666
 30
0.0
 40
0.1050192000000031
 50
273.48165566238572
 51
315.0000000000108
  0
ARC
  5
99F
  8
1
 62
     7
 10
266.95775837753592
 20
102.59646719208961
 30
0.0
 40
0.1050192000000043
 50
217.7751650644783
 51
245.43557357412149
  0
ARC
  5
9A0
  8
1
 62
     7
 10
266.95775837753592
 20
102.59646719208961
 30
0.0
 40
0.1050191999999946
 50
176.2568207268483
 51
217.7751650644783
  0
ARC
  5
9A1
  8
1
 62
     7
 10
266.61289217587762
 20
102.9896173053874
 30
0.0
 40
0.1050192000000108
 50
224.7384763892108
 51
266.25682072684248
  0
ARC
  5
9A2
  8
1
 62
     7
 10
266.61289217587762
 20
102.9896173053874
 30
0.0
 40
0.1050191999999845
 50
183.2201320515826
 51
224.7384763892108
  0
ARC
  5
9A3
  8
1
 62
     7
 10
266.22290664840818
 20
103.33805811384219
 30
0.0
 40
0.1050192000000041
 50
231.7017877139464
 51
273.22013205157509
  0
ARC
  5
9A4
  8
1
 62
     7
 10
266.22290664840818
 20
103.33805811384219
 30
0.0
 40
0.1050191999999947
 50
190.1834433763174
 51
231.7017877139464
  0
ARC
  5
9A5
  8
1
 62
     7
 10
265.79355487275018
 20
103.63664940871119
 30
0.0
 40
0.1050191999999989
 50
238.66509903868979
 51
280.18344337631532
  0
ARC
  5
9A6
  8
1
 62
     7
 10
265.79355487275018
 20
103.63664940871119
 30
0.0
 40
0.1050191999999789
 50
197.14675470105641
 51
238.66509903868979
  0
ARC
  5
9A7
  8
1
 62
     7
 10
265.33117065854208
 20
103.8809863626976
 30
0.0
 40
0.1050192000000014
 50
245.62841036341769
 51
287.14675470104748
  0
ARC
  5
9A8
  8
1
 62
     7
 10
265.33117065854208
 20
103.8809863626976
 30
0.0
 40
0.1050191999999938
 50
204.1100660257901
 51
245.62841036341769
  0
ARC
  5
9A9
  8
1
 62
     7
 10
264.84257511089771
 20
104.0674645100883
 30
0.0
 40
0.1050192000000045
 50
252.59172168816289
 51
294.11006602579567
  0
ARC
  5
9AA
  8
1
 62
     7
 10
264.84257511089771
 20
104.0674645100883
 30
0.0
 40
0.1050191999999844
 50
211.07337735053329
 51
252.59172168816289
  0
ARC
  5
9AB
  8
1
 62
     7
 10
264.3349760052692
 20
104.1933329199351
 30
0.0
 40
0.105019199999999
 50
259.5550330128948
 51
301.07337735052607
  0
ARC
  5
9AC
  8
1
 62
     7
 10
264.3349760052692
 20
104.1933329199351
 30
0.0
 40
0.1050191999999871
 50
218.0366886752652
 51
259.5550330128948
  0
ARC
  5
9AD
  8
1
 62
     7
 10
263.81586145813822
 20
104.2567347778666
 30
0.0
 40
0.1050192000000013
 50
266.51834433763298
 51
308.03668867526028
  0
ARC
  5
9AE
  8
1
 62
     7
 10
263.81586145813822
 20
104.2567347778666
 30
0.0
 40
0.1050191999999879
 50
225.00000000000131
 51
266.51834433763298
  0
ARC
  5
9AF
  8
1
 62
     7
 10
269.57278246352769
 20
102.4093427989324
 30
0.0
 40
0.3500640000000029
 50
270.0
 51
0.0
  0
ARC
  5
9B0
  8
1
 62
     7
 10
269.57278246352769
 20
102.4093427989324
 30
0.0
 40
0.3500640000000368
 50
263.00870827274008
 51
270.0
  0
ARC
  5
9B1
  8
1
 62
     7
 10
255.19115326070869
 20
98.208574798932375
 30
0.0
 40
7.0012800000000377
 50
45.13231705052808
 51
90.0
  0
ARC
  5
9B2
  8
1
 62
     7
 10
269.57278246352769
 20
102.4093427989324
 30
0.0
 40
0.3500640000000017
 50
0.0
 51
58.13725043132721
  0
ARC
  5
9B3
  8
1
 62
     7
 10
256.0828219712742
 20
80.705374798932269
 30
0.0
 40
25.904736000000131
 50
58.13725043132721
 51
90.0
  0
ARC
  5
9B4
  8
1
 62
     7
 10
244.14174857023431
 20
103.31950919893239
 30
0.0
 40
0.2100383999999991
 50
229.63240645581601
 51
270.0
  0
ARC
  5
9B5
  8
1
 62
     7
 10
244.56075697727391
 20
103.31950919893239
 30
0.0
 40
0.210038399999999
 50
270.0
 51
314.86768294947478
  0
ARC
  5
9B6
  8
1
 62
     7
 10
260.69754435682091
 20
103.31950919893239
 30
0.0
 40
0.210038399999999
 50
270.0
 51
310.36759354418399
  0
ARC
  5
9B7
  8
1
 62
     7
 10
260.27853594978143
 20
103.31950919893239
 30
0.0
 40
0.2100384000000039
 50
225.13231705052519
 51
270.0
  0
INSERT
  5
9FD
  8
0
  2
*U45
 10
0.0
 20
0.0
 30
0.0
  0
ENDSEC
  0
EOF
