  0
SECTION
  2
HEADER
  9
$ACADVER
  1
AC1027
  9
$ACADMAINTVER
 70
    81
  9
$DWGCODEPAGE
  3
ANSI_1252
  9
$LASTSAVEDBY
  1
gen
  9
$REQUIREDVERSIONS
160
                 0
  9
$INSBASE
 10
0.0
 20
0.0
 30
0.0
  9
$EXTMIN
 10
514.7657697752272
 20
124.2091145453741
 30
0.0
  9
$EXTMAX
 10
623.1462040097901
 20
298.532623390038
 30
0.0
  9
$LIMMIN
 10
0.0
 20
0.0
  9
$LIMMAX
 10
420.0
 20
297.0
  9
$ORTHOMODE
 70
     0
  9
$REGENMODE
 70
     1
  9
$FILLMODE
 70
     1
  9
$QTEXTMODE
 70
     0
  9
$MIRRTEXT
 70
     0
  9
$LTSCALE
 40
1.0
  9
$ATTMODE
 70
     1
  9
$TEXTSIZE
 40
2.5
  9
$TRACEWID
 40
1.0
  9
$TEXTSTYLE
  7
Standard
  9
$CLAYER
  8
Körper
  9
$CELTYPE
  6
ByLayer
  9
$CECOLOR
 62
   256
  9
$CELTSCALE
 40
1.0
  9
$DISPSILH
 70
     0
  9
$DIMSCALE
 40
1.0
  9
$DIMASZ
 40
2.5
  9
$DIMEXO
 40
0.625
  9
$DIMDLI
 40
3.75
  9
$DIMRND
 40
0.0
  9
$DIMDLE
 40
0.0
  9
$DIMEXE
 40
1.25
  9
$DIMTP
 40
0.0
  9
$DIMTM
 40
0.0
  9
$DIMTXT
 40
2.5
  9
$DIMCEN
 40
2.5
  9
$DIMTSZ
 40
0.0
  9
$DIMTOL
 70
     0
  9
$DIMLIM
 70
     0
  9
$DIMTIH
 70
     0
  9
$DIMTOH
 70
     0
  9
$DIMSE1
 70
     0
  9
$DIMSE2
 70
     0
  9
$DIMTAD
 70
     1
  9
$DIMZIN
 70
     8
  9
$DIMBLK
  1

  9
$DIMASO
 70
     1
  9
$DIMSHO
 70
     1
  9
$DIMPOST
  1

  9
$DIMAPOST
  1

  9
$DIMALT
 70
     0
  9
$DIMALTD
 70
     3
  9
$DIMALTF
 40
0.03937007874016
  9
$DIMLFAC
 40
1.0
  9
$DIMTOFL
 70
     1
  9
$DIMTVP
 40
0.0
  9
$DIMTIX
 70
     0
  9
$DIMSOXD
 70
     0
  9
$DIMSAH
 70
     0
  9
$DIMBLK1
  1

  9
$DIMBLK2
  1

  9
$DIMSTYLE
  2
ISO-25
  9
$DIMCLRD
 70
     0
  9
$DIMCLRE
 70
     0
  9
$DIMCLRT
 70
     0
  9
$DIMTFAC
 40
1.0
  9
$DIMGAP
 40
0.625
  9
$DIMJUST
 70
     0
  9
$DIMSD1
 70
     0
  9
$DIMSD2
 70
     0
  9
$DIMTOLJ
 70
     0
  9
$DIMTZIN
 70
     8
  9
$DIMALTZ
 70
     0
  9
$DIMALTTZ
 70
     0
  9
$DIMUPT
 70
     0
  9
$DIMDEC
 70
     2
  9
$DIMTDEC
 70
     2
  9
$DIMALTU
 70
     2
  9
$DIMALTTD
 70
     3
  9
$DIMTXSTY
  7
Standard
  9
$DIMAUNIT
 70
     0
  9
$DIMADEC
 70
     0
  9
$DIMALTRND
 40
0.0
  9
$DIMAZIN
 70
     0
  9
$DIMDSEP
 70
    44
  9
$DIMATFIT
 70
     3
  9
$DIMFRAC
 70
     0
  9
$DIMLDRBLK
  1

  9
$DIMLUNIT
 70
     2
  9
$DIMLWD
 70
    -2
  9
$DIMLWE
 70
    -2
  9
$DIMTMOVE
 70
     0
  9
$DIMFXL
 40
1.0
  9
$DIMFXLON
 70
     0
  9
$DIMJOGANG
 40
0.7853981633974483
  9
$DIMTFILL
 70
     0
  9
$DIMTFILLCLR
 70
     0
  9
$DIMARCSYM
 70
     0
  9
$DIMLTYPE
  6

  9
$DIMLTEX1
  6

  9
$DIMLTEX2
  6

  9
$DIMTXTDIRECTION
 70
     0
  9
$LUNITS
 70
     2
  9
$LUPREC
 70
     4
  9
$SKETCHINC
 40
1.0
  9
$FILLETRAD
 40
0.0
  9
$AUNITS
 70
     0
  9
$AUPREC
 70
     0
  9
$MENU
  1
.
  9
$ELEVATION
 40
0.0
  9
$PELEVATION
 40
0.0
  9
$THICKNESS
 40
0.0
  9
$LIMCHECK
 70
     0
  9
$CHAMFERA
 40
0.0
  9
$CHAMFERB
 40
0.0
  9
$CHAMFERC
 40
0.0
  9
$CHAMFERD
 40
0.0
  9
$SKPOLY
 70
     0
  9
$TDCREATE
 40
2457415.374911354
  9
$TDUCREATE
 40
2457415.291578021
  9
$TDUPDATE
 40
2458323.353990579
  9
$TDUUPDATE
 40
2458323.270657245
  9
$TDINDWG
 40
0.1884401852
  9
$TDUSRTIMER
 40
0.1884401273
  9
$USRTIMER
 70
     1
  9
$ANGBASE
 50
0.0
  9
$ANGDIR
 70
     0
  9
$PDMODE
 70
     0
  9
$PDSIZE
 40
0.0
  9
$PLINEWID
 40
0.0
  9
$SPLFRAME
 70
     0
  9
$SPLINETYPE
 70
     6
  9
$SPLINESEGS
 70
     8
  9
$HANDSEED
  5
A22
  9
$SURFTAB1
 70
     6
  9
$SURFTAB2
 70
     6
  9
$SURFTYPE
 70
     6
  9
$SURFU
 70
     6
  9
$SURFV
 70
     6
  9
$UCSBASE
  2

  9
$UCSNAME
  2

  9
$UCSORG
 10
0.0
 20
0.0
 30
0.0
  9
$UCSXDIR
 10
1.0
 20
0.0
 30
0.0
  9
$UCSYDIR
 10
0.0
 20
1.0
 30
0.0
  9
$UCSORTHOREF
  2

  9
$UCSORTHOVIEW
 70
     0
  9
$UCSORGTOP
 10
0.0
 20
0.0
 30
0.0
  9
$UCSORGBOTTOM
 10
0.0
 20
0.0
 30
0.0
  9
$UCSORGLEFT
 10
0.0
 20
0.0
 30
0.0
  9
$UCSORGRIGHT
 10
0.0
 20
0.0
 30
0.0
  9
$UCSORGFRONT
 10
0.0
 20
0.0
 30
0.0
  9
$UCSORGBACK
 10
0.0
 20
0.0
 30
0.0
  9
$PUCSBASE
  2

  9
$PUCSNAME
  2

  9
$PUCSORG
 10
0.0
 20
0.0
 30
0.0
  9
$PUCSXDIR
 10
1.0
 20
0.0
 30
0.0
  9
$PUCSYDIR
 10
0.0
 20
1.0
 30
0.0
  9
$PUCSORTHOREF
  2

  9
$PUCSORTHOVIEW
 70
     0
  9
$PUCSORGTOP
 10
0.0
 20
0.0
 30
0.0
  9
$PUCSORGBOTTOM
 10
0.0
 20
0.0
 30
0.0
  9
$PUCSORGLEFT
 10
0.0
 20
0.0
 30
0.0
  9
$PUCSORGRIGHT
 10
0.0
 20
0.0
 30
0.0
  9
$PUCSORGFRONT
 10
0.0
 20
0.0
 30
0.0
  9
$PUCSORGBACK
 10
0.0
 20
0.0
 30
0.0
  9
$USERI1
 70
     0
  9
$USERI2
 70
     0
  9
$USERI3
 70
     0
  9
$USERI4
 70
     0
  9
$USERI5
 70
     0
  9
$USERR1
 40
0.0
  9
$USERR2
 40
0.0
  9
$USERR3
 40
0.0
  9
$USERR4
 40
0.0
  9
$USERR5
 40
0.0
  9
$WORLDVIEW
 70
     1
  9
$SHADEDGE
 70
     3
  9
$SHADEDIF
 70
    70
  9
$TILEMODE
 70
     1
  9
$MAXACTVP
 70
    64
  9
$PINSBASE
 10
0.0
 20
0.0
 30
0.0
  9
$PLIMCHECK
 70
     0
  9
$PEXTMIN
 10
0.0
 20
0.0
 30
0.0
  9
$PEXTMAX
 10
0.0
 20
0.0
 30
0.0
  9
$PLIMMIN
 10
0.0
 20
0.0
  9
$PLIMMAX
 10
12.0
 20
9.0
  9
$UNITMODE
 70
     0
  9
$VISRETAIN
 70
     1
  9
$PLINEGEN
 70
     0
  9
$PSLTSCALE
 70
     1
  9
$TREEDEPTH
 70
  3020
  9
$CMLSTYLE
  2
Standard
  9
$CMLJUST
 70
     0
  9
$CMLSCALE
 40
20.0
  9
$PROXYGRAPHICS
 70
     1
  9
$MEASUREMENT
 70
     1
  9
$CELWEIGHT
370
    -1
  9
$ENDCAPS
280
     0
  9
$JOINSTYLE
280
     0
  9
$LWDISPLAY
290
     0
  9
$INSUNITS
 70
     4
  9
$HYPERLINKBASE
  1

  9
$STYLESHEET
  1

  9
$XEDIT
290
     1
  9
$CEPSNTYPE
380
     0
  9
$PSTYLEMODE
290
     0
  9
$FINGERPRINTGUID
  2
{D5EF4541-C1F0-43D3-B921-7B1836D369F7}
  9
$VERSIONGUID
  2
{E98F23ED-2045-43D0-ADE9-2D0DC45E260F}
  9
$EXTNAMES
290
     1
  9
$PSVPSCALE
 40
0.0
  9
$OLESTARTUP
290
     0
  9
$SORTENTS
280
   127
  9
$INDEXCTL
280
     0
  9
$HIDETEXT
280
     1
  9
$XCLIPFRAME
280
     2
  9
$HALOGAP
280
     0
  9
$OBSCOLOR
 70
   257
  9
$OBSLTYPE
280
     0
  9
$INTERSECTIONDISPLAY
280
     0
  9
$INTERSECTIONCOLOR
 70
   257
  9
$DIMASSOC
280
     2
  9
$PROJECTNAME
  1

  9
$CAMERADISPLAY
290
     0
  9
$LENSLENGTH
 40
50.0
  9
$CAMERAHEIGHT
 40
1524.0
  9
$STEPSPERSEC
 40
2.0
  9
$STEPSIZE
 40
6.0
  9
$3DDWFPREC
 40
2.0
  9
$PSOLWIDTH
 40
5.0
  9
$PSOLHEIGHT
 40
80.0
  9
$LOFTANG1
 40
1.570796326794896
  9
$LOFTANG2
 40
1.570796326794896
  9
$LOFTMAG1
 40
0.0
  9
$LOFTMAG2
 40
0.0
  9
$LOFTPARAM
 70
     7
  9
$LOFTNORMALS
280
     1
  9
$LATITUDE
 40
37.795
  9
$LONGITUDE
 40
-122.394
  9
$NORTHDIRECTION
 40
0.0
  9
$TIMEZONE
 70
 -8000
  9
$LIGHTGLYPHDISPLAY
280
     1
  9
$TILEMODELIGHTSYNCH
280
     1
  9
$CMATERIAL
347
E3
  9
$SOLIDHIST
280
     0
  9
$SHOWHIST
280
     1
  9
$DWFFRAME
280
     2
  9
$DGNFRAME
280
     0
  9
$REALWORLDSCALE
290
     1
  9
$INTERFERECOLOR
 62
     1
  9
$INTERFEREOBJVS
345
F0
  9
$INTERFEREVPVS
346
ED
  9
$CSHADOW
280
     0
  9
$SHADOWPLANELOCATION
 40
0.0
  0
ENDSEC
  0
SECTION
  2
CLASSES
  0
CLASS
  1
ACDBDICTIONARYWDFLT
  2
AcDbDictionaryWithDefault
  3
ObjectDBX Classes
 90
        0
 91
        1
280
     0
281
     0
  0
CLASS
  1
DICTIONARYVAR
  2
AcDbDictionaryVar
  3
ObjectDBX Classes
 90
        0
 91
        9
280
     0
281
     0
  0
CLASS
  1
TABLESTYLE
  2
AcDbTableStyle
  3
ObjectDBX Classes
 90
     4095
 91
        1
280
     0
281
     0
  0
CLASS
  1
MATERIAL
  2
AcDbMaterial
  3
ObjectDBX Classes
 90
     1153
 91
        3
280
     0
281
     0
  0
CLASS
  1
VISUALSTYLE
  2
AcDbVisualStyle
  3
ObjectDBX Classes
 90
     4095
 91
       24
280
     0
281
     0
  0
CLASS
  1
SCALE
  2
AcDbScale
  3
ObjectDBX Classes
 90
     1153
 91
       17
280
     0
281
     0
  0
CLASS
  1
MLEADERSTYLE
  2
AcDbMLeaderStyle
  3
ACDB_MLEADERSTYLE_CLASS
 90
     4095
 91
        2
280
     0
281
     0
  0
CLASS
  1
CELLSTYLEMAP
  2
AcDbCellStyleMap
  3
ObjectDBX Classes
 90
     1152
 91
        2
280
     0
281
     0
  0
CLASS
  1
EXACXREFPANELOBJECT
  2
ExAcXREFPanelObject
  3
EXAC_ESW
 90
     1025
 91
        0
280
     0
281
     0
  0
CLASS
  1
NPOCOLLECTION
  2
AcDbImpNonPersistentObjectsCollection
  3
ObjectDBX Classes
 90
     1153
 91
        0
280
     0
281
     0
  0
CLASS
  1
LAYER_INDEX
  2
AcDbLayerIndex
  3
ObjectDBX Classes
 90
        0
 91
        0
280
     0
281
     0
  0
CLASS
  1
SPATIAL_INDEX
  2
AcDbSpatialIndex
  3
ObjectDBX Classes
 90
        0
 91
        0
280
     0
281
     0
  0
CLASS
  1
IDBUFFER
  2
AcDbIdBuffer
  3
ObjectDBX Classes
 90
        0
 91
        0
280
     0
281
     0
  0
CLASS
  1
ACDBSECTIONVIEWSTYLE
  2
AcDbSectionViewStyle
  3
ObjectDBX Classes
 90
     1025
 91
        1
280
     0
281
     0
  0
CLASS
  1
ACDBDETAILVIEWSTYLE
  2
AcDbDetailViewStyle
  3
ObjectDBX Classes
 90
     1025
 91
        1
280
     0
281
     0
  0
CLASS
  1
SORTENTSTABLE
  2
AcDbSortentsTable
  3
ObjectDBX Classes
 90
        0
 91
        1
280
     0
281
     0
  0
CLASS
  1
DIMASSOC
  2
AcDbDimAssoc
  3
"AcDbDimAssoc|Product Desc:     AcDim ARX App For Dimension|Company:          Autodesk, Inc.|WEB Address:      www.autodesk.com"
 90
        0
 91
        1
280
     0
281
     0
  0
ENDSEC
  0
SECTION
  2
TABLES
  0
TABLE
  2
VPORT
  5
8
330
0
100
AcDbSymbolTable
 70
     1
  0
VPORT
  5
E1
330
8
100
AcDbSymbolTableRecord
100
AcDbViewportTableRecord
  2
*Active
 70
     0
 10
0.0
 20
0.0
 11
1.0
 21
1.0
 12
536.2097610266259
 22
226.1200171965151
 13
0.0
 23
0.0
 14
10.0
 24
10.0
 15
10.0
 25
10.0
 16
0.0
 26
0.0
 36
1.0
 17
0.0
 27
0.0
 37
0.0
 40
111.1131985140307
 41
2.020084566596194
 42
50.0
 43
0.0
 44
0.0
 50
0.0
 51
0.0
 71
     0
 72
  1000
 73
     1
 74
     3
 75
     0
 76
     1
 77
     0
 78
     0
281
     0
 65
     1
110
0.0
120
0.0
130
0.0
111
1.0
121
0.0
131
0.0
112
0.0
122
1.0
132
0.0
 79
     0
146
0.0
348
EC
 60
     3
 61
     5
292
     1
282
     1
141
0.0
142
0.0
 63
   250
421
  3355443
1001
ACAD_NAV_VCDISPLAY
1070
     3
  0
ENDTAB
  0
TABLE
  2
LTYPE
  5
5
330
0
100
AcDbSymbolTable
 70
     2
  0
LTYPE
  5
14
330
5
100
AcDbSymbolTableRecord
100
AcDbLinetypeTableRecord
  2
ByBlock
 70
     0
  3

 72
    65
 73
     0
 40
0.0
  0
LTYPE
  5
15
330
5
100
AcDbSymbolTableRecord
100
AcDbLinetypeTableRecord
  2
ByLayer
 70
     0
  3

 72
    65
 73
     0
 40
0.0
  0
LTYPE
  5
16
330
5
100
AcDbSymbolTableRecord
100
AcDbLinetypeTableRecord
  2
Continuous
 70
     0
  3
Solid line
 72
    65
 73
     0
 40
0.0
  0
LTYPE
  5
832
330
5
100
AcDbSymbolTableRecord
100
AcDbLinetypeTableRecord
  2
STRICHPUNKT
 70
     0
  3
Strichpunkt __ . __ . __ . __ . __ . __ . __ . 
 72
    65
 73
     4
 40
1.0
 49
0.5
 74
     0
 49
-0.25
 74
     0
 49
0.0
 74
     0
 49
-0.25
 74
     0
  0
ENDTAB
  0
TABLE
  2
LAYER
  5
2
102
{ACAD_XDICTIONARY
360
1F6
102
}
330
0
100
AcDbSymbolTable
 70
    10
  0
LAYER
  5
10
102
{ACAD_XDICTIONARY
360
133
102
}
330
2
100
AcDbSymbolTableRecord
100
AcDbLayerTableRecord
  2
0
 70
     0
 62
     7
  6
Continuous
370
    -3
390
F
347
E5
348
0
  0
LAYER
  5
586
330
2
100
AcDbSymbolTableRecord
100
AcDbLayerTableRecord
  2
Körper
 70
     0
 62
     7
  6
Continuous
370
    -3
390
F
347
E5
348
0
1001
AcAecLayerStandard
1000

1000

1001
AcCmTransparency
1071
        0
  0
LAYER
  5
752
330
2
100
AcDbSymbolTableRecord
100
AcDbLayerTableRecord
  2
Defpoints
 70
     0
 62
     7
  6
Continuous
290
     0
370
    -3
390
F
347
E5
348
0
  0
LAYER
  5
833
102
{ACAD_XDICTIONARY
360
834
102
}
330
2
100
AcDbSymbolTableRecord
100
AcDbLayerTableRecord
  2
370--KK
 70
     0
 62
     7
  6
Continuous
370
    25
390
F
347
E5
348
0
  0
LAYER
  5
835
102
{ACAD_XDICTIONARY
360
836
102
}
330
2
100
AcDbSymbolTableRecord
100
AcDbLayerTableRecord
  2
370-MITT
 70
     0
 62
     3
  6
STRICHPUNKT
290
     0
370
    18
390
F
347
E5
348
0
  0
LAYER
  5
851
330
2
100
AcDbSymbolTableRecord
100
AcDbLayerTableRecord
  2
Schraube unsichtbar
 70
     0
 62
   140
  6
Continuous
370
    15
390
F
347
E5
348
0
1001
AcAecLayerStandard
1000

1000

1001
AcCmTransparency
1071
        0
  0
LAYER
  5
903
330
2
100
AcDbSymbolTableRecord
100
AcDbLayerTableRecord
  2
Bemassung
 70
     0
 62
     3
  6
Continuous
370
     9
390
F
347
E5
348
0
1001
AcAecLayerStandard
1000

1000

1001
AcCmTransparency
1071
        0
  0
LAYER
  5
904
330
2
100
AcDbSymbolTableRecord
100
AcDbLayerTableRecord
  2
1
 70
     0
 62
     7
  6
Continuous
370
    -3
390
F
347
E5
348
0
  0
LAYER
  5
905
330
2
100
AcDbSymbolTableRecord
100
AcDbLayerTableRecord
  2
Schraffur Solid
 70
     0
 62
     9
  6
Continuous
370
    -3
390
F
347
E5
348
0
1001
AcAecLayerStandard
1000

1000

1001
AcCmTransparency
1071
        0
  0
LAYER
  5
906
330
2
100
AcDbSymbolTableRecord
100
AcDbLayerTableRecord
  2
Solid Red
 70
     0
 62
    10
  6
Continuous
370
    -3
390
F
347
E5
348
0
1001
AcAecLayerStandard
1000

1000

1001
AcCmTransparency
1071
        0
  0
ENDTAB
  0
TABLE
  2
STYLE
  5
3
330
0
100
AcDbSymbolTable
 70
     2
  0
STYLE
  5
11
330
3
100
AcDbSymbolTableRecord
100
AcDbTextStyleTableRecord
  2
Standard
 70
     0
 40
0.0
 41
1.0
 50
0.0
 71
     0
 42
2.5
  3
arial.ttf
  4

1001
ACAD
1000
Arial
1071
       34
  0
STYLE
  5
129
330
3
100
AcDbSymbolTableRecord
100
AcDbTextStyleTableRecord
  2
Beschriftung
 70
     0
 40
0.0
 41
1.0
 50
0.0
 71
     0
 42
2.5
  3
arial.ttf
  4

1001
AcadAnnotative
1000
AnnotativeData
1002
{
1070
     1
1070
     1
1002
}
1001
ACAD
1000
Arial
1071
       34
  0
ENDTAB
  0
TABLE
  2
VIEW
  5
6
330
0
100
AcDbSymbolTable
 70
     0
  0
ENDTAB
  0
TABLE
  2
UCS
  5
7
330
0
100
AcDbSymbolTable
 70
     0
  0
ENDTAB
  0
TABLE
  2
APPID
  5
9
330
0
100
AcDbSymbolTable
 70
    15
  0
APPID
  5
12
330
9
100
AcDbSymbolTableRecord
100
AcDbRegAppTableRecord
  2
ACAD
 70
     0
  0
APPID
  5
A0
330
9
100
AcDbSymbolTableRecord
100
AcDbRegAppTableRecord
  2
ACAD_PSEXT
 70
     0
  0
APPID
  5
12A
330
9
100
AcDbSymbolTableRecord
100
AcDbRegAppTableRecord
  2
AcadAnnoPO
 70
     0
  0
APPID
  5
12B
330
9
100
AcDbSymbolTableRecord
100
AcDbRegAppTableRecord
  2
AcadAnnotative
 70
     0
  0
APPID
  5
12C
330
9
100
AcDbSymbolTableRecord
100
AcDbRegAppTableRecord
  2
ACAD_DSTYLE_DIMJAG
 70
     0
  0
APPID
  5
12D
330
9
100
AcDbSymbolTableRecord
100
AcDbRegAppTableRecord
  2
ACAD_DSTYLE_DIMTALN
 70
     0
  0
APPID
  5
15C
330
9
100
AcDbSymbolTableRecord
100
AcDbRegAppTableRecord
  2
ACAD_MLEADERVER
 70
     0
  0
APPID
  5
20E
330
9
100
AcDbSymbolTableRecord
100
AcDbRegAppTableRecord
  2
ACAD_NAV_VCDISPLAY
 70
     0
  0
APPID
  5
24C
330
9
100
AcDbSymbolTableRecord
100
AcDbRegAppTableRecord
  2
AcAecLayerStandard
 70
     0
  0
APPID
  5
24D
330
9
100
AcDbSymbolTableRecord
100
AcDbRegAppTableRecord
  2
AcCmTransparency
 70
     0
  0
APPID
  5
24E
330
9
100
AcDbSymbolTableRecord
100
AcDbRegAppTableRecord
  2
ACAD_DSTYLE_DIMBREAK
 70
     0
  0
APPID
  5
47B
330
9
100
AcDbSymbolTableRecord
100
AcDbRegAppTableRecord
  2
ACAD_EXEMPT_FROM_CAD_STANDARDS
 70
     0
  0
APPID
  5
8CE
330
9
100
AcDbSymbolTableRecord
100
AcDbRegAppTableRecord
  2
AcadAnnoMonitorAlertIconDisabled
 70
     0
  0
APPID
  5
909
330
9
100
AcDbSymbolTableRecord
100
AcDbRegAppTableRecord
  2
GradientColor1ACI
 70
     0
  0
APPID
  5
90A
330
9
100
AcDbSymbolTableRecord
100
AcDbRegAppTableRecord
  2
GradientColor2ACI
 70
     0
  0
ENDTAB
  0
TABLE
  2
DIMSTYLE
  5
A
330
0
100
AcDbSymbolTable
 70
     9
100
AcDbDimStyleTable
 71
     2
340
27
340
12E
  0
DIMSTYLE
105
1A7
330
A
100
AcDbSymbolTableRecord
100
AcDbDimStyleTableRecord
  2
Standard
 70
     0
340
11
  0
DIMSTYLE
105
12E
330
A
100
AcDbSymbolTableRecord
100
AcDbDimStyleTableRecord
  2
Beschriftung
 70
     0
 40
0.0
 41
2.5
 42
0.625
 43
3.75
 44
1.25
 73
     0
 74
     0
 77
     1
 78
     8
140
2.5
141
2.5
143
0.03937007874016
147
0.625
171
     3
172
     1
271
     2
272
     2
274
     3
278
    44
283
     0
284
     8
340
11
1001
AcadAnnotative
1000
AnnotativeData
1002
{
1070
     1
1070
     1
1002
}
1001
ACAD_DSTYLE_DIMJAG
1070
   388
1040
1.5
1001
ACAD_DSTYLE_DIMTALN
1070
   392
1070
     0
  0
DIMSTYLE
105
27
102
{ACAD_REACTORS
330
A02
102
}
330
A
100
AcDbSymbolTableRecord
100
AcDbDimStyleTableRecord
  2
ISO-25
 70
     0
 41
2.5
 42
0.625
 43
3.75
 44
1.25
 73
     0
 74
     0
 77
     1
 78
     8
140
2.5
141
2.5
143
0.03937007874016
147
0.625
171
     3
172
     1
271
     2
272
     2
274
     3
278
    44
283
     0
284
     8
340
11
  0
DIMSTYLE
105
248
330
A
100
AcDbSymbolTableRecord
100
AcDbDimStyleTableRecord
  2
1-2
 70
     0
 40
0.5
 41
2.5
 42
0.625
 43
3.75
 44
1.25
 73
     0
 74
     0
 77
     1
 78
     8
140
2.5
141
2.5
143
0.03937007874016
147
0.625
171
     3
172
     1
271
     2
272
     2
274
     3
278
    44
283
     0
284
     8
340
11
1001
ACAD_DSTYLE_DIMBREAK
1070
   391
1040
3.75
1001
ACAD_DSTYLE_DIMJAG
1070
   388
1040
1.5
1001
ACAD_DSTYLE_DIMTALN
1070
   392
1070
     0
  0
DIMSTYLE
105
249
330
A
100
AcDbSymbolTableRecord
100
AcDbDimStyleTableRecord
  2
1-1
 70
     0
 41
2.5
 42
0.625
 43
3.75
 44
1.25
 73
     0
 74
     0
 77
     1
 78
     8
140
2.5
141
2.5
143
0.03937007874016
147
0.625
171
     3
172
     1
271
     2
272
     2
274
     3
278
    44
283
     0
284
     8
340
11
1001
ACAD_DSTYLE_DIMBREAK
1070
   391
1040
3.75
1001
ACAD_DSTYLE_DIMJAG
1070
   388
1040
1.5
1001
ACAD_DSTYLE_DIMTALN
1070
   392
1070
     0
  0
DIMSTYLE
105
24A
330
A
100
AcDbSymbolTableRecord
100
AcDbDimStyleTableRecord
  2
2-1
 70
     0
 40
0.5
 41
2.5
 42
0.625
 43
4.0
 44
1.25
 73
     0
 74
     0
 77
     1
 78
     8
140
2.5
141
2.5
143
0.03937007874016
147
0.625
171
     3
172
     1
271
     2
272
     2
274
     3
278
    44
283
     0
284
     8
340
11
1001
ACAD_DSTYLE_DIMBREAK
1070
   391
1040
3.75
1001
ACAD_DSTYLE_DIMJAG
1070
   388
1040
1.5
1001
ACAD_DSTYLE_DIMTALN
1070
   392
1070
     0
  0
DIMSTYLE
105
24B
330
A
100
AcDbSymbolTableRecord
100
AcDbDimStyleTableRecord
  2
1-20
 70
     0
 40
20.0
 41
2.5
 42
0.625
 43
3.75
 44
1.25
 73
     0
 74
     0
 77
     1
 78
     8
140
2.5
141
2.5
143
0.03937007874016
147
0.625
171
     3
172
     1
271
     2
272
     2
274
     3
278
    44
283
     0
284
     8
340
11
1001
ACAD_DSTYLE_DIMBREAK
1070
   391
1040
3.75
1001
ACAD_DSTYLE_DIMJAG
1070
   388
1040
1.5
1001
ACAD_DSTYLE_DIMTALN
1070
   392
1070
     0
  0
DIMSTYLE
105
907
330
A
100
AcDbSymbolTableRecord
100
AcDbDimStyleTableRecord
  2
4-1
 70
     0
 40
0.25
 41
2.5
 42
0.625
 43
4.0
 44
1.25
 73
     0
 74
     0
 77
     1
 78
     8
140
2.5
141
2.5
143
0.03937007874016
147
0.625
171
     3
172
     1
271
     2
272
     2
274
     3
278
    44
283
     0
284
     8
340
11
1001
ACAD_DSTYLE_DIMBREAK
1070
   391
1040
3.75
1001
ACAD_DSTYLE_DIMJAG
1070
   388
1040
1.5
1001
ACAD_DSTYLE_DIMTALN
1070
   392
1070
     0
  0
DIMSTYLE
105
908
330
A
100
AcDbSymbolTableRecord
100
AcDbDimStyleTableRecord
  2
1-10
 70
     0
 40
10.0
 41
2.5
 42
0.625
 43
3.75
 44
1.25
 73
     0
 74
     0
 77
     1
 78
     8
140
2.5
141
2.5
143
0.03937007874016
147
0.625
171
     3
172
     1
271
     2
272
     2
274
     3
278
    44
283
     0
284
     8
340
11
1001
ACAD_DSTYLE_DIMBREAK
1070
   391
1040
3.75
1001
ACAD_DSTYLE_DIMJAG
1070
   388
1040
1.5
1001
ACAD_DSTYLE_DIMTALN
1070
   392
1070
     0
  0
ENDTAB
  0
TABLE
  2
BLOCK_RECORD
  5
1
330
0
100
AcDbSymbolTable
 70
     4
  0
BLOCK_RECORD
  5
1F
102
{ACAD_XDICTIONARY
360
1C5
102
}
330
1
100
AcDbSymbolTableRecord
100
AcDbBlockTableRecord
  2
*Model_Space
340
22
 70
     0
280
     1
281
     0
  0
BLOCK_RECORD
  5
D2
330
1
100
AcDbSymbolTableRecord
100
AcDbBlockTableRecord
  2
*Paper_Space
340
D3
 70
     0
280
     1
281
     0
  0
BLOCK_RECORD
  5
D6
330
1
100
AcDbSymbolTableRecord
100
AcDbBlockTableRecord
  2
*Paper_Space0
340
D7
 70
     0
280
     1
281
     0
  0
BLOCK_RECORD
  5
76B
330
1
100
AcDbSymbolTableRecord
100
AcDbBlockTableRecord
  2
*D1
340
0
 70
     0
280
     1
281
     0
  0
BLOCK_RECORD
  5
8B7
330
1
100
AcDbSymbolTableRecord
100
AcDbBlockTableRecord
  2
*D2
340
0
 70
     0
280
     1
281
     0
  0
BLOCK_RECORD
  5
A03
330
1
100
AcDbSymbolTableRecord
100
AcDbBlockTableRecord
  2
*D3
340
0
 70
     0
280
     1
281
     0
  0
ENDTAB
  0
ENDSEC
  0
SECTION
  2
BLOCKS
  0
BLOCK
  5
20
330
1F
100
AcDbEntity
  8
0
100
AcDbBlockBegin
  2
*Model_Space
 70
     0
 10
0.0
 20
0.0
 30
0.0
  3
*Model_Space
  1

  0
ENDBLK
  5
21
330
1F
100
AcDbEntity
  8
0
100
AcDbBlockEnd
  0
BLOCK
  5
D4
330
D2
100
AcDbEntity
 67
     1
  8
0
100
AcDbBlockBegin
  2
*Paper_Space
 70
     0
 10
0.0
 20
0.0
 30
0.0
  3
*Paper_Space
  1

  0
ENDBLK
  5
D5
330
D2
100
AcDbEntity
 67
     1
  8
0
100
AcDbBlockEnd
  0
BLOCK
  5
D8
330
D6
100
AcDbEntity
 67
     1
  8
0
100
AcDbBlockBegin
  2
*Paper_Space0
 70
     0
 10
0.0
 20
0.0
 30
0.0
  3
*Paper_Space0
  1

  0
ENDBLK
  5
D9
330
D6
100
AcDbEntity
 67
     1
  8
0
100
AcDbBlockEnd
  0
BLOCK
  5
76C
330
76B
100
AcDbEntity
  8
0
100
AcDbBlockBegin
  2
*D1
 70
     1
 10
0.0
 20
0.0
 30
0.0
  3
*D1
  1

  0
LINE
  5
9D7
330
76B
100
AcDbEntity
  8
Körper
 62
     0
440
 16777216
370
    -2
100
AcDbLine
 10
742.7471083159152
 20
235.3890746530506
 30
0.0
 11
762.3501528501087
 21
235.3890746530506
 31
0.0
  0
LINE
  5
9D8
330
76B
100
AcDbEntity
  8
Körper
 62
     0
440
 16777216
370
    -2
100
AcDbLine
 10
752.152069848176
 20
232.8890746530506
 30
0.0
 11
762.3501528501087
 21
232.8890746530506
 31
0.0
  0
LINE
  5
9D9
330
76B
100
AcDbEntity
  8
Körper
 62
     0
440
 16777216
370
    -2
100
AcDbLine
 10
761.1001528501088
 20
237.8890746530506
 30
0.0
 11
761.1001528501088
 21
240.3890746530505
 31
0.0
  0
LINE
  5
9DA
330
76B
100
AcDbEntity
  8
Körper
 62
     0
440
 16777216
370
    -2
100
AcDbLine
 10
761.1001528501088
 20
230.3890746530505
 30
0.0
 11
761.1001528501088
 21
222.0261824293125
 31
0.0
  0
LINE
  5
9DB
330
76B
100
AcDbEntity
  8
Körper
 62
     0
440
 16777216
370
    -2
100
AcDbLine
 10
761.1001528501088
 20
235.3890746530506
 30
0.0
 11
761.1001528501088
 21
232.8890746530506
 31
0.0
  0
SOLID
  5
9DC
330
76B
100
AcDbEntity
  8
Körper
 62
     0
440
 16777216
100
AcDbTrace
 10
760.683486183442
 20
237.8890746530506
 30
0.0
 11
761.5168195167754
 21
237.8890746530506
 31
0.0
 12
761.1001528501088
 22
235.3890746530506
 32
0.0
 13
761.1001528501088
 23
235.3890746530506
 33
0.0
  0
SOLID
  5
9DD
330
76B
100
AcDbEntity
  8
Körper
 62
     0
440
 16777216
100
AcDbTrace
 10
760.683486183442
 20
230.3890746530505
 30
0.0
 11
761.5168195167754
 21
230.3890746530505
 31
0.0
 12
761.1001528501088
 22
232.8890746530506
 32
0.0
 13
761.1001528501088
 23
232.8890746530506
 33
0.0
  0
MTEXT
  5
9DE
330
76B
100
AcDbEntity
  8
Körper
 62
     0
440
 16777216
100
AcDbMText
 10
758.9727654012683
 20
224.9576285411816
 30
0.0
 40
2.5
 41
0.0
 46
0.0
 71
     5
 72
     1
  1
2,5
 11
0.0000000000000001
 21
1.0
 31
0.0
 73
     1
 44
1.0
  0
POINT
  5
9DF
330
76B
100
AcDbEntity
  8
Defpoints
 62
     0
440
 16777216
100
AcDbPoint
 10
742.1221083159154
 20
235.3890746530506
 30
0.0
  0
POINT
  5
9E0
330
76B
100
AcDbEntity
  8
Defpoints
 62
     0
440
 16777216
100
AcDbPoint
 10
751.5270698481757
 20
232.8890746530506
 30
0.0
  0
POINT
  5
9E1
330
76B
100
AcDbEntity
  8
Defpoints
 62
     0
440
 16777216
100
AcDbPoint
 10
761.1001528501088
 20
232.8890746530506
 30
0.0
  0
ENDBLK
  5
76D
330
76B
100
AcDbEntity
  8
0
100
AcDbBlockEnd
  0
BLOCK
  5
8B8
330
8B7
100
AcDbEntity
  8
0
100
AcDbBlockBegin
  2
*D2
 70
     1
 10
0.0
 20
0.0
 30
0.0
  3
*D2
  1

  0
LINE
  5
8EB
330
8B7
100
AcDbEntity
  8
Körper
 62
     0
440
 16777216
370
    -2
100
AcDbLine
 10
704.7111930202109
 20
214.2640746530597
 30
0.0
 11
704.7111930202109
 21
193.6324442144437
 31
0.0
  0
LINE
  5
8EC
330
8B7
100
AcDbEntity
  8
Körper
 62
     0
440
 16777216
370
    -2
100
AcDbLine
 10
731.131787100644
 20
207.3547763116371
 30
0.0
 11
731.131787100644
 21
193.6324442144437
 31
0.0
  0
LINE
  5
8ED
330
8B7
100
AcDbEntity
  8
Körper
 62
     0
440
 16777216
370
    -2
100
AcDbLine
 10
707.2111930202107
 20
194.8824442144437
 30
0.0
 11
728.631787100644
 21
194.8824442144437
 31
0.0
  0
SOLID
  5
8EE
330
8B7
100
AcDbEntity
  8
Körper
 62
     0
440
 16777216
100
AcDbTrace
 10
707.2111930202107
 20
195.2991108811103
 30
0.0
 11
707.2111930202107
 21
194.465777547777
 31
0.0
 12
704.7111930202109
 22
194.8824442144437
 32
0.0
 13
704.7111930202109
 23
194.8824442144437
 33
0.0
  0
SOLID
  5
8EF
330
8B7
100
AcDbEntity
  8
Körper
 62
     0
440
 16777216
100
AcDbTrace
 10
728.631787100644
 20
195.2991108811103
 30
0.0
 11
728.631787100644
 21
194.465777547777
 31
0.0
 12
731.131787100644
 22
194.8824442144437
 32
0.0
 13
731.131787100644
 23
194.8824442144437
 33
0.0
  0
MTEXT
  5
8F0
330
8B7
100
AcDbEntity
  8
Körper
 62
     0
440
 16777216
100
AcDbMText
 10
717.9214900604273
 20
196.7838766837479
 30
0.0
 40
2.5
 41
0.0
 46
0.0
 71
     5
 72
     1
  1
min. 25 mm
 73
     1
 44
1.0
  0
POINT
  5
8F1
330
8B7
100
AcDbEntity
  8
Defpoints
 62
     0
440
 16777216
100
AcDbPoint
 10
704.7111930202109
 20
214.8890746530597
 30
0.0
  0
POINT
  5
8F2
330
8B7
100
AcDbEntity
  8
Defpoints
 62
     0
440
 16777216
100
AcDbPoint
 10
731.131787100644
 20
207.9797763116371
 30
0.0
  0
POINT
  5
8F3
330
8B7
100
AcDbEntity
  8
Defpoints
 62
     0
440
 16777216
100
AcDbPoint
 10
731.131787100644
 20
194.8824442144437
 30
0.0
  0
ENDBLK
  5
8B9
330
8B7
100
AcDbEntity
  8
0
100
AcDbBlockEnd
  0
BLOCK
  5
A04
330
A03
100
AcDbEntity
  8
0
100
AcDbBlockBegin
  2
*D3
 70
     1
 10
0.0
 20
0.0
 30
0.0
  3
*D3
  1

  0
LINE
  5
A12
330
A03
100
AcDbEntity
  8
Körper
 62
     0
440
 16777216
370
    -2
100
AcDbLine
 10
607.8907697752272
 20
245.6076233900381
 30
0.0
 11
617.4640320487354
 21
245.6076233900381
 31
0.0
  0
LINE
  5
A13
330
A03
100
AcDbEntity
  8
Körper
 62
     0
440
 16777216
370
    -2
100
AcDbLine
 10
607.6407697752272
 20
249.607623390038
 30
0.0
 11
617.4640320487354
 21
249.607623390038
 31
0.0
  0
LINE
  5
A14
330
A03
100
AcDbEntity
  8
Körper
 62
     0
440
 16777216
370
    -2
100
AcDbLine
 10
616.2140320487353
 20
243.1076233900381
 30
0.0
 11
616.2140320487353
 21
240.6076233900381
 31
0.0
  0
LINE
  5
A15
330
A03
100
AcDbEntity
  8
Körper
 62
     0
440
 16777216
370
    -2
100
AcDbLine
 10
616.2140320487353
 20
252.107623390038
 30
0.0
 11
616.2140320487353
 21
254.607623390038
 31
0.0
  0
LINE
  5
A16
330
A03
100
AcDbEntity
  8
Körper
 62
     0
440
 16777216
370
    -2
100
AcDbLine
 10
616.2140320487353
 20
245.6076233900381
 30
0.0
 11
616.2140320487353
 21
249.607623390038
 31
0.0
  0
SOLID
  5
A17
330
A03
100
AcDbEntity
  8
Körper
 62
     0
440
 16777216
100
AcDbTrace
 10
615.7973653820687
 20
243.1076233900381
 30
0.0
 11
616.630698715402
 21
243.1076233900381
 31
0.0
 12
616.2140320487353
 22
245.6076233900381
 32
0.0
 13
616.2140320487353
 23
245.6076233900381
 33
0.0
  0
SOLID
  5
A18
330
A03
100
AcDbEntity
  8
Körper
 62
     0
440
 16777216
100
AcDbTrace
 10
615.7973653820687
 20
252.107623390038
 30
0.0
 11
616.630698715402
 21
252.107623390038
 31
0.0
 12
616.2140320487353
 22
249.607623390038
 32
0.0
 13
616.2140320487353
 23
249.607623390038
 33
0.0
  0
MTEXT
  5
A19
330
A03
100
AcDbEntity
  8
Körper
 62
     0
440
 16777216
100
AcDbMText
 10
614.3390320487354
 20
247.6076233900382
 30
0.0
 40
2.5
 41
0.0
 46
0.0
 71
     5
 72
     1
  1
4
 11
0.0000000000000001
 21
1.0
 31
0.0
 73
     1
 44
1.0
  0
POINT
  5
A1A
330
A03
100
AcDbEntity
  8
Defpoints
 62
     0
440
 16777216
100
AcDbPoint
 10
607.2657697752272
 20
245.6076233900381
 30
0.0
  0
POINT
  5
A1B
330
A03
100
AcDbEntity
  8
Defpoints
 62
     0
440
 16777216
100
AcDbPoint
 10
607.0157697752271
 20
249.607623390038
 30
0.0
  0
POINT
  5
A1C
330
A03
100
AcDbEntity
  8
Defpoints
 62
     0
440
 16777216
100
AcDbPoint
 10
616.2140320487353
 20
249.607623390038
 30
0.0
  0
ENDBLK
  5
A05
330
A03
100
AcDbEntity
  8
0
100
AcDbBlockEnd
  0
ENDSEC
  0
SECTION
  2
ENTITIES
  0
LINE
  5
96B
330
1F
100
AcDbEntity
  8
Körper
  6
Continuous
 62
     7
100
AcDbLine
 10
543.1017984181067
 20
287.2816650436103
 30
0.0
 11
564.9721878643682
 21
262.9921368204045
 31
0.0
  0
HATCH
  5
96C
330
1F
100
AcDbEntity
  8
Schraffur Solid
100
AcDbHatch
 10
0.0
 20
0.0
 30
0.0
210
0.0
220
0.0
230
1.0
  2
ANSI31
 70
     0
 71
     0
 91
        1
 92
        7
 72
     0
 73
     1
 93
        8
 10
548.7657697752272
 20
274.607623390038
 10
541.7657697752272
 20
274.607623390038
 10
538.2657697752271
 20
274.607623390038
 10
514.7657697752272
 20
274.607623390038
 10
514.7657697752272
 20
229.6076233900381
 10
560.7657697752272
 20
229.6076233900381
 10
560.7657697752272
 20
244.6076233900381
 10
548.7657697752336
 20
244.6076233900381
 97
        0
 75
     1
 76
     1
 52
0.0
 41
1.0
 77
     0
 78
     1
 53
45.0
 43
-3737.177363834175
 44
9697.554102582522
 45
-2.245064030267287
 46
2.245064030267287
 79
     0
 47
0.1409672054694261
 98
        1
 10
532.2873325254637
 20
254.8408301827908
1001
GradientColor1ACI
1070
     5
1001
GradientColor2ACI
1070
     2
1001
ACAD
1010
0.0
1020
0.0
1030
0.0
  0
LINE
  5
96D
330
1F
100
AcDbEntity
  8
1
  6
Continuous
 62
     7
100
AcDbLine
 10
538.2657697752271
 20
274.607623390038
 30
0.0
 11
541.7657697752272
 21
274.607623390038
 31
0.0
  0
LINE
  5
96E
330
1F
100
AcDbEntity
  8
Körper
  6
Continuous
 62
     7
100
AcDbLine
 10
607.2657697752272
 20
261.607623390038
 30
0.0
 11
606.7657697752272
 21
261.607623390038
 31
0.0
  0
LINE
  5
96F
330
1F
100
AcDbEntity
  8
Körper
  6
Continuous
 62
     7
100
AcDbLine
 10
567.630007990752
 20
265.2749501227077
 30
0.0
 11
567.6334074090716
 21
265.2711746861819
 31
0.0
  0
LINE
  5
970
330
1F
100
AcDbEntity
  8
Körper
  6
Continuous
 62
     7
100
AcDbLine
 10
568.0032753174844
 20
265.1076233900381
 30
0.0
 11
607.2657697752272
 21
265.1076233900381
 31
0.0
  0
LINE
  5
971
330
1F
100
AcDbEntity
  8
Körper
  6
Continuous
 62
     7
100
AcDbLine
 10
607.2657697752272
 20
265.1076233900381
 30
0.0
 11
607.2657697752272
 21
261.607623390038
 31
0.0
  0
LINE
  5
972
330
1F
100
AcDbEntity
  8
Körper
  6
Continuous
 62
     7
100
AcDbLine
 10
540.6414821680908
 20
295.2487446581504
 30
0.0
 11
567.6334074090735
 21
265.2711746861783
 31
0.0
  0
LINE
  5
973
330
1F
100
AcDbEntity
  8
Körper
  6
Continuous
 62
     7
100
AcDbLine
 10
567.9986098448713
 20
261.607623390038
 30
0.0
 11
566.7657697752272
 21
261.607623390038
 31
0.0
  0
LINE
  5
974
330
1F
100
AcDbEntity
  8
1
  6
Continuous
 62
     7
100
AcDbLine
 10
565.2657697752272
 20
260.6076233900381
 30
0.0
 11
566.7657697752272
 21
260.6076233900381
 31
0.0
  0
LINE
  5
975
330
1F
100
AcDbEntity
  8
1
  6
Continuous
 62
     7
100
AcDbLine
 10
607.2657697752272
 20
260.6076233900381
 30
0.0
 11
623.1462040097901
 21
260.6076233900381
 31
0.0
  0
LINE
  5
976
102
{ACAD_REACTORS
330
A1D
102
}
330
1F
100
AcDbEntity
  8
1
  6
Continuous
 62
     7
100
AcDbLine
 10
607.2657697752272
 20
249.607623390038
 30
0.0
 11
606.7657697752272
 21
249.607623390038
 31
0.0
  0
LINE
  5
977
102
{ACAD_REACTORS
330
A1D
102
}
330
1F
100
AcDbEntity
  8
1
  6
Continuous
 62
     7
100
AcDbLine
 10
607.2657697752272
 20
245.6076233900381
 30
0.0
 11
595.3319894775428
 21
245.6076233900381
 31
0.0
  0
LINE
  5
978
330
1F
100
AcDbEntity
  8
1
  6
Continuous
 62
     7
100
AcDbLine
 10
590.6458396719768
 20
245.6076233900381
 30
0.0
 11
565.2657697752272
 21
245.6076233900381
 31
0.0
  0
LINE
  5
979
330
1F
100
AcDbEntity
  8
1
  6
Continuous
 62
     7
100
AcDbLine
 10
553.2657697752272
 20
260.6076233900381
 30
0.0
 11
565.2657697752272
 21
260.6076233900381
 31
0.0
  0
LINE
  5
97A
330
1F
100
AcDbEntity
  8
1
  6
Continuous
 62
     7
100
AcDbLine
 10
552.2657697752272
 20
259.607623390038
 30
0.0
 11
553.2657697752272
 21
260.6076233900381
 31
0.0
  0
LINE
  5
97B
330
1F
100
AcDbEntity
  8
1
  6
Continuous
 62
     7
100
AcDbLine
 10
553.2657697752281
 20
250.6076233900381
 30
0.0
 11
606.7657697752272
 21
250.6076233900381
 31
0.0
  0
LINE
  5
97C
330
1F
100
AcDbEntity
  8
1
  6
Continuous
 62
     7
100
AcDbLine
 10
552.2657697752281
 20
251.607623390038
 30
0.0
 11
552.2657697752272
 21
259.607623390038
 31
0.0
  0
LINE
  5
97D
330
1F
100
AcDbEntity
  8
1
  6
Continuous
 62
     7
100
AcDbLine
 10
607.2657697752272
 20
250.6076233900381
 30
0.0
 11
623.1462040097901
 21
250.6076233900381
 31
0.0
  0
LINE
  5
97E
330
1F
100
AcDbEntity
  8
1
  6
Continuous
 62
     7
100
AcDbLine
 10
538.2657697752271
 20
274.607623390038
 30
0.0
 11
538.2657697752271
 21
276.107623390038
 31
0.0
  0
LINE
  5
97F
330
1F
100
AcDbEntity
  8
1
  6
Continuous
 62
     7
100
AcDbLine
 10
534.7657697752272
 20
274.607623390038
 30
0.0
 11
534.7657697752272
 21
276.107623390038
 31
0.0
  0
LINE
  5
980
330
1F
100
AcDbEntity
  8
1
  6
Continuous
 62
     7
100
AcDbLine
 10
549.7657697752272
 20
247.2056996013921
 30
0.0
 11
549.7657697752272
 21
246.1076233900381
 31
0.0
  0
ARC
  5
981
330
1F
100
AcDbEntity
  8
1
  6
Continuous
 62
     7
100
AcDbCircle
 10
550.2657697752272
 20
246.1076233900381
 30
0.0
 40
0.5
100
AcDbArc
 50
180.0
 51
270.0
  0
LINE
  5
982
330
1F
100
AcDbEntity
  8
1
  6
Continuous
 62
     7
100
AcDbLine
 10
550.9308332846883
 20
249.357623390038
 30
0.0
 11
549.832757073335
 21
247.4556996013921
 31
0.0
  0
ARC
  5
983
330
1F
100
AcDbEntity
  8
1
  6
Continuous
 62
     7
100
AcDbCircle
 10
550.2657697752272
 20
247.2056996013921
 30
0.0
 40
0.5
100
AcDbArc
 50
149.999999999999
 51
180.0
  0
LINE
  5
984
330
1F
100
AcDbEntity
  8
1
  6
Continuous
 62
     7
100
AcDbLine
 10
558.167693563875
 20
249.607623390038
 30
0.0
 11
551.3638459865802
 21
249.607623390038
 31
0.0
  0
ARC
  5
985
330
1F
100
AcDbEntity
  8
1
  6
Continuous
 62
     7
100
AcDbCircle
 10
551.3638459865802
 20
249.107623390038
 30
0.0
 40
0.5
100
AcDbArc
 50
90.0
 51
149.999999999999
  0
LINE
  5
986
330
1F
100
AcDbEntity
  8
1
  6
Continuous
 62
     7
100
AcDbLine
 10
559.6987824771201
 20
247.4556996013921
 30
0.0
 11
558.6007062657661
 21
249.357623390038
 31
0.0
  0
ARC
  5
987
330
1F
100
AcDbEntity
  8
1
  6
Continuous
 62
     7
100
AcDbCircle
 10
558.167693563875
 20
249.107623390038
 30
0.0
 40
0.5
100
AcDbArc
 50
30.00000000000094
 51
90.0
  0
LINE
  5
988
330
1F
100
AcDbEntity
  8
1
  6
Continuous
 62
     7
100
AcDbLine
 10
559.7657697752272
 20
246.1076233900381
 30
0.0
 11
559.7657697752272
 21
247.2056996013921
 31
0.0
  0
ARC
  5
989
330
1F
100
AcDbEntity
  8
1
  6
Continuous
 62
     7
100
AcDbCircle
 10
559.2657697752271
 20
247.2056996013921
 30
0.0
 40
0.5
100
AcDbArc
 50
0.0
 51
30.00000000000094
  0
LINE
  5
98A
330
1F
100
AcDbEntity
  8
1
  6
Continuous
 62
     7
100
AcDbLine
 10
550.2657697752272
 20
245.6076233900381
 30
0.0
 11
559.2657697752271
 21
245.6076233900381
 31
0.0
  0
ARC
  5
98B
330
1F
100
AcDbEntity
  8
1
  6
Continuous
 62
     7
100
AcDbCircle
 10
559.2657697752271
 20
246.1076233900381
 30
0.0
 40
0.5
100
AcDbArc
 50
270.0
 51
0.0
  0
LINE
  5
98C
330
1F
100
AcDbEntity
  8
1
  6
Continuous
 62
     7
100
AcDbLine
 10
548.7657697752336
 20
244.6076233900381
 30
0.0
 11
548.7657697752272
 21
274.607623390038
 31
0.0
  0
LINE
  5
98D
330
1F
100
AcDbEntity
  8
1
  6
Continuous
 62
     7
100
AcDbLine
 10
550.0648078809041
 20
249.857623390038
 30
0.0
 11
548.966731669552
 21
247.9556996013921
 31
0.0
  0
ARC
  5
98E
330
1F
100
AcDbEntity
  8
1
  6
Continuous
 62
     7
100
AcDbCircle
 10
550.2657697752272
 20
247.2056996013921
 30
0.0
 40
1.5
100
AcDbArc
 50
149.999999999999
 51
180.0
  0
LINE
  5
98F
330
1F
100
AcDbEntity
  8
1
  6
Continuous
 62
     7
100
AcDbLine
 10
559.0337189676589
 20
250.6076233900381
 30
0.0
 11
551.3638459865814
 21
250.6076233900381
 31
0.0
  0
ARC
  5
990
330
1F
100
AcDbEntity
  8
1
  6
Continuous
 62
     7
100
AcDbCircle
 10
551.3638459865814
 20
249.107623390038
 30
0.0
 40
1.5
100
AcDbArc
 50
90.0
 51
149.999999999999
  0
LINE
  5
991
330
1F
100
AcDbEntity
  8
1
  6
Continuous
 62
     7
100
AcDbLine
 10
560.5648078809041
 20
247.9556996013921
 30
0.0
 11
559.466731669551
 21
249.857623390038
 31
0.0
  0
LINE
  5
992
330
1F
100
AcDbEntity
  8
1
  6
Continuous
 62
     7
100
AcDbLine
 10
560.7657697752272
 20
246.1076233900381
 30
0.0
 11
560.7657697752272
 21
247.2056996013921
 31
0.0
  0
ARC
  5
993
330
1F
100
AcDbEntity
  8
1
  6
Continuous
 62
     7
100
AcDbCircle
 10
559.2657697752271
 20
247.2056996013921
 30
0.0
 40
1.5
100
AcDbArc
 50
0.0
 51
30.00000000000094
  0
ARC
  5
994
330
1F
100
AcDbEntity
  8
1
  6
Continuous
 62
     7
100
AcDbCircle
 10
559.2657697752271
 20
246.1076233900381
 30
0.0
 40
1.5
100
AcDbArc
 50
270.0
 51
0.0
  0
LINE
  5
995
330
1F
100
AcDbEntity
  8
1
  6
Continuous
 62
     7
100
AcDbLine
 10
548.7657697752272
 20
246.1076233900381
 30
0.0
 11
548.7657697752272
 21
247.2056996013921
 31
0.0
  0
ARC
  5
996
330
1F
100
AcDbEntity
  8
1
  6
Continuous
 62
     7
100
AcDbCircle
 10
550.2657697752272
 20
246.1076233900381
 30
0.0
 40
1.5
100
AcDbArc
 50
180.0
 51
270.0
  0
LINE
  5
997
330
1F
100
AcDbEntity
  8
1
  6
Continuous
 62
     7
100
AcDbLine
 10
559.2657697752271
 20
244.6076233900381
 30
0.0
 11
550.2657697752272
 21
244.6076233900381
 31
0.0
  0
LINE
  5
998
330
1F
100
AcDbEntity
  8
1
  6
Continuous
 62
     7
100
AcDbLine
 10
548.7657697752272
 20
274.607623390038
 30
0.0
 11
541.7657697752272
 21
274.607623390038
 31
0.0
  0
LINE
  5
999
330
1F
100
AcDbEntity
  8
1
  6
Continuous
 62
     7
100
AcDbLine
 10
514.7657697752272
 20
274.607623390038
 30
0.0
 11
538.2657697752281
 21
274.607623390038
 31
0.0
  0
LINE
  5
99A
330
1F
100
AcDbEntity
  8
1
  6
Continuous
 62
     7
100
AcDbLine
 10
606.7657697752272
 20
249.607623390038
 30
0.0
 11
606.7657697752272
 21
250.6076233900381
 31
0.0
  0
LINE
  5
99B
330
1F
100
AcDbEntity
  8
1
  6
Continuous
 62
     7
100
AcDbLine
 10
606.7657697752272
 20
249.607623390038
 30
0.0
 11
605.7661871830203
 21
249.607623390038
 31
0.0
  0
LINE
  5
99C
330
1F
100
AcDbEntity
  8
1
  6
Continuous
 62
     7
100
AcDbLine
 10
595.4458396720081
 20
249.607623390038
 30
0.0
 11
566.7657697752272
 21
249.607623390038
 31
0.0
  0
LINE
  5
99D
330
1F
100
AcDbEntity
  8
1
  6
Continuous
 62
     7
100
AcDbLine
 10
606.7657697752272
 20
250.6076233900381
 30
0.0
 11
607.2657697752272
 21
250.6076233900381
 31
0.0
  0
LINE
  5
99E
330
1F
100
AcDbEntity
  8
Körper
  6
Continuous
 62
     7
100
AcDbLine
 10
606.7657697752272
 20
260.6076233900381
 30
0.0
 11
606.7657697752272
 21
261.607623390038
 31
0.0
  0
LINE
  5
99F
330
1F
100
AcDbEntity
  8
Körper
  6
Continuous
 62
     7
100
AcDbLine
 10
606.7657697752272
 20
261.607623390038
 30
0.0
 11
567.9986098448713
 21
261.607623390038
 31
0.0
  0
LINE
  5
9A0
330
1F
100
AcDbEntity
  8
1
  6
Continuous
 62
     7
100
AcDbLine
 10
606.7657697752272
 20
260.6076233900381
 30
0.0
 11
607.2657697752272
 21
260.6076233900381
 31
0.0
  0
LINE
  5
9A1
330
1F
100
AcDbEntity
  8
1
  6
Continuous
 62
     7
100
AcDbLine
 10
607.2657697752272
 20
245.6076233900381
 30
0.0
 11
607.2657697752272
 21
249.607623390038
 31
0.0
  0
LINE
  5
9A2
330
1F
100
AcDbEntity
  8
1
  6
Continuous
 62
     7
100
AcDbLine
 10
566.7657697752272
 20
249.607623390038
 30
0.0
 11
566.7657697752272
 21
250.6076233900381
 31
0.0
  0
LINE
  5
9A3
330
1F
100
AcDbEntity
  8
1
  6
Continuous
 62
     7
100
AcDbLine
 10
553.2657697752281
 20
250.6076233900381
 30
0.0
 11
558.167693563875
 21
250.6076233900381
 31
0.0
  0
LINE
  5
9A4
330
1F
100
AcDbEntity
  8
1
  6
Continuous
 62
     7
100
AcDbLine
 10
552.2657697752281
 20
251.607623390038
 30
0.0
 11
553.2657697752281
 21
250.6076233900381
 31
0.0
  0
ARC
  5
9A5
330
1F
100
AcDbEntity
  8
1
  6
Continuous
 62
     7
100
AcDbCircle
 10
558.167693563875
 20
249.107623390038
 30
0.0
 40
1.5
100
AcDbArc
 50
30.00000000000094
 51
90.0
  0
LINE
  5
9A6
330
1F
100
AcDbEntity
  8
1
  6
Continuous
 62
     7
100
AcDbLine
 10
566.7657697752272
 20
249.607623390038
 30
0.0
 11
565.2657697752272
 21
249.607623390038
 31
0.0
  0
LINE
  5
9A7
330
1F
100
AcDbEntity
  8
Körper
  6
Continuous
 62
     7
100
AcDbLine
 10
566.7657697752272
 20
260.6076233900381
 30
0.0
 11
566.7657697752272
 21
261.607623390038
 31
0.0
  0
LINE
  5
9A8
330
1F
100
AcDbEntity
  8
1
  6
Continuous
 62
     7
100
AcDbLine
 10
566.7657697752272
 20
260.6076233900381
 30
0.0
 11
606.7657697752272
 21
260.6076233900381
 31
0.0
  0
LINE
  5
9A9
330
1F
100
AcDbEntity
  8
1
  6
Continuous
 62
     7
100
AcDbLine
 10
565.2657697752272
 20
245.6076233900381
 30
0.0
 11
565.2657697752272
 21
249.607623390038
 31
0.0
  0
LINE
  5
9AA
330
1F
100
AcDbEntity
  8
Körper
  6
Continuous
 62
     7
100
AcDbLine
 10
538.2657697752271
 20
276.107623390038
 30
0.0
 11
538.2657697752271
 21
280.0340812399077
 31
0.0
  0
LINE
  5
9AB
330
1F
100
AcDbEntity
  8
Körper
  6
Continuous
 62
     7
100
AcDbLine
 10
534.7657697752272
 20
276.107623390038
 30
0.0
 11
534.7657697752272
 21
278.7966282825069
 31
0.0
  0
ARC
  5
9AC
330
1F
100
AcDbEntity
  8
Körper
  6
Continuous
 62
     7
100
AcDbCircle
 10
533.2657697752272
 20
288.607623390038
 30
0.0
 40
9.925000000000011
100
AcDbArc
 50
278.6926203197657
 51
300.2502892191484
  0
ARC
  5
9AD
330
1F
100
AcDbEntity
  8
Körper
  6
Continuous
 62
     7
100
AcDbCircle
 10
533.2657697752272
 20
288.607623390038
 30
0.0
 40
9.925
100
AcDbArc
 50
300.2502892191484
 51
352.3224536692681
  0
ARC
  5
9AE
330
1F
100
AcDbEntity
  8
Körper
  6
Continuous
 62
     7
100
AcDbCircle
 10
533.2657697752272
 20
288.607623390038
 30
0.0
 40
6.425000000000008
100
AcDbArc
 50
40.35573523599388
 51
352.3224536692681
  0
ARC
  5
9AF
330
1F
100
AcDbEntity
  8
Körper
  6
Continuous
 62
     7
100
AcDbCircle
 10
533.2657697752272
 20
288.607623390038
 30
0.0
 40
6.425000000000013
100
AcDbArc
 50
0.0
 51
40.35573523599388
  0
ARC
  5
9B0
330
1F
100
AcDbEntity
  8
Körper
  6
Continuous
 62
     7
100
AcDbCircle
 10
533.2657697752272
 20
288.607623390038
 30
0.0
 40
6.425000000000013
100
AcDbArc
 50
352.3224536692681
 51
0.0
  0
ARC
  5
9B1
330
1F
100
AcDbEntity
  8
Körper
  6
Continuous
 62
     7
100
AcDbCircle
 10
533.2657697752272
 20
288.607623390038
 30
0.0
 40
9.925000000000011
100
AcDbArc
 50
41.9999999999771
 51
278.6926203197657
  0
ARC
  5
9B2
330
1F
100
AcDbEntity
  8
Körper
  6
Continuous
 62
     7
100
AcDbCircle
 10
568.0032753174852
 20
265.607623390038
 30
0.0
 40
0.4999999999999964
100
AcDbArc
 50
222.2910839209375
 51
270.0
  0
ARC
  5
9B3
330
1F
100
AcDbEntity
  8
Körper
  6
Continuous
 62
     7
100
AcDbCircle
 10
568.1872957661997
 20
266.0200738633898
 30
0.0
 40
4.416482939704271
100
AcDbArc
 50
223.2827468015388
 51
267.551400380744
  0
LWPOLYLINE
  5
9B4
330
1F
100
AcDbEntity
  8
Körper
100
AcDbPolyline
 90
       19
 70
     0
 43
0.0
 10
541.4193567953969
 20
204.2658698762239
 42
-0.440282597308315
 10
541.2029798803083
 20
203.407623390041
 42
-0.0347436399097145
 10
539.4071720064308
 20
202.5951276064002
 42
-0.0890901016736919
 10
537.2496583561858
 20
202.2076257654513
 10
534.4738373868493
 20
202.2076257654513
 42
-0.4143860509126948
 10
520.7657697752254
 20
215.907623390041
 10
520.7657697752272
 20
229.3076233900388
 42
-0.4142135623730951
 10
521.0657697752265
 20
229.6076233900381
 10
560.4657697752261
 20
229.6076233900381
 42
-0.4142135623730951
 10
560.7657697752272
 20
229.3076233900352
 10
560.7657697752272
 20
228.7076233900366
 42
-0.4142135623730951
 10
560.4657697752261
 20
228.4076233900337
 10
551.5958602595181
 20
228.4076233900337
 42
0.0875197005895412
 10
549.885180682302
 20
228.1058757655551
 10
549.8851806823002
 20
217.4076233900337
 42
-0.4142135623730951
 10
548.3851806823
 20
215.9076233900337
 10
546.9657697752261
 20
215.9076233900337
 42
-0.2639791593475116
 10
540.8756270006375
 20
205.1761868436183
 10
541.4464780448795
 20
204.2204632536336
  0
LINE
  5
9B5
330
1F
100
AcDbEntity
  8
Körper
100
AcDbLine
 10
534.4657697752261
 20
215.9076233900373
 30
0.0
 11
534.4657697752261
 21
217.6585301064184
 31
0.0
  0
LINE
  5
9B6
330
1F
100
AcDbEntity
  8
Körper
100
AcDbLine
 10
534.4657697752261
 20
215.9076233900373
 30
0.0
 11
532.9606547399013
 21
215.9076233900373
 31
0.0
  0
LWPOLYLINE
  5
9B8
330
1F
100
AcDbEntity
  8
Körper
100
AcDbPolyline
 90
       31
 70
     1
 43
0.0
 10
590.1658396720192
 20
232.5076233900832
 42
0.4142135623698985
 10
590.4658396720212
 20
232.2076233900839
 10
591.9643432453909
 20
232.2076233900803
 42
0.4142135623730951
 10
592.2643432453948
 20
232.5076233900795
 10
592.2643432454093
 20
238.1106074523918
 42
-0.4142135623714969
 10
592.5643432454132
 20
238.4106074523948
 10
593.4661720882083
 20
238.4106074523948
 42
0.4142135623762917
 10
593.7661720882148
 20
238.7106074523904
 10
593.7661720882176
 20
244.0685880926099
 42
-0.2225848818882211
 10
593.9460798883861
 20
244.4526987324093
 10
597.712922245342
 20
247.5917340298615
 42
-0.1754523787642339
 10
598.0330144451742
 20
247.7076233900584
 10
601.0695129689644
 20
247.7076233900512
 10
601.5695129689662
 20
248.2076233900512
 10
602.0695129689644
 20
247.7076233900475
 10
605.2661871830147
 20
247.7076233900366
 42
0.4142135623730951
 10
605.7661871830166
 20
248.2076233900366
 10
605.7661871830183
 20
249.9076233900337
 42
0.4142135623730951
 10
605.4661871830192
 20
250.2076233900366
 10
596.3468646396375
 20
250.2076233900657
 42
0.1754523787642339
 10
596.0267724398087
 20
250.0917340298688
 10
590.3457474722032
 20
245.3575465568934
 42
0.2225848818882211
 10
590.1658396720336
 20
244.9734359170939
 10
590.1658396720282
 20
237.6112116817744
 42
0.4142135623730951
 10
590.3658396720291
 20
237.4112116817701
 10
590.9658396720276
 20
237.4112116817773
 42
-0.4142135623677675
 10
591.1658396720192
 20
237.211211681773
 10
591.1658396720156
 20
233.6112116817744
 42
-0.4142135623730951
 10
590.9658396720147
 20
233.4112116817774
 10
590.3658396720236
 20
233.4112116817737
 42
0.4142135623730951
 10
590.1658396720229
 20
233.211211681773
  0
LWPOLYLINE
  5
9B9
330
1F
100
AcDbEntity
  8
Körper
100
AcDbPolyline
 90
       21
 70
     1
 43
0.0
 10
593.3619203015147
 20
237.8076233900788
 42
-0.4142135623730951
 10
593.6619203015159
 20
237.5076233900796
 10
593.6619203015067
 20
230.1076233900817
 42
-0.4142135623730951
 10
593.3619203015057
 20
229.8076233900788
 10
589.9619203015077
 20
229.8076233900861
 42
-0.4142135623730951
 10
587.9619203015079
 20
231.8076233900897
 10
587.9619203015153
 20
236.8266760206748
 42
0.3972757320827917
 10
587.0200611568267
 20
237.8249844103771
 42
-0.2207655433448734
 10
584.7944837227585
 20
239.0199095794738
 42
-0.9999999999995024
 10
585.5944837227594
 20
239.6199095794723
 42
2.999999999997726
 10
585.5944837227614
 20
242.0199095794738
 42
-0.9999999999995024
 10
584.7944837227621
 20
242.6199095794796
 42
-0.2360679774996697
 10
587.1944837227645
 20
243.819909579473
 10
588.9643091673723
 20
243.8199095794694
 42
-0.4142135623730951
 10
589.9643091673731
 20
242.8199095794694
 10
589.9643091673604
 20
232.1076233900817
 42
0.4142135623730951
 10
590.2643091673597
 20
231.8076233900861
 10
592.1658737500489
 20
231.8076233900824
 42
0.4142135623728287
 10
592.4658737500501
 20
232.1076233900817
 10
592.4658737500556
 20
237.5076233900796
 42
-0.4142135623730951
 10
592.7658737500568
 20
237.8076233900788
  0
CIRCLE
  5
9BA
330
1F
100
AcDbEntity
  8
Körper
100
AcDbCircle
 10
587.1944837227581
 20
240.8199095794731
 30
0.0
 40
1.5
  0
HATCH
  5
9BB
330
1F
100
AcDbEntity
  8
Solid Red
100
AcDbHatch
 10
0.0
 20
0.0
 30
0.0
210
0.0
220
0.0
230
1.0
  2
SOLID
 70
     1
 71
     0
 91
        1
 92
        7
 72
     0
 73
     1
 93
        4
 10
596.3468646396365
 20
250.6076233900381
 10
596.3468646396365
 20
250.2076233900512
 10
605.4661871830201
 20
250.2076233900512
 10
605.4661871830201
 20
250.6076233900381
 97
        0
 75
     1
 76
     1
 47
0.013146048652825
 98
        1
 10
597.1763207557321
 20
250.453400589518
450
        0
451
        0
460
0.0
461
0.0
452
        0
462
1.0
453
        2
463
0.0
 63
     5
421
      255
463
1.0
 63
     2
421
 16776960
470
LINEAR
1001
GradientColor1ACI
1070
     5
1001
GradientColor2ACI
1070
     2
1001
ACAD
1010
0.0
1020
0.0
1030
0.0
  0
LINE
  5
9BC
330
1F
100
AcDbEntity
  8
Bemassung
100
AcDbLine
 10
596.3468646396365
 20
250.2076233900366
 30
0.0
 11
596.3468646396365
 21
250.6076233900381
 31
0.0
  0
LINE
  5
9BD
330
1F
100
AcDbEntity
  8
Bemassung
100
AcDbLine
 10
596.3468646396365
 20
250.6076233900381
 30
0.0
 11
605.4661871830201
 21
250.6076233900381
 31
0.0
  0
LINE
  5
9BE
330
1F
100
AcDbEntity
  8
Bemassung
100
AcDbLine
 10
605.4661871830201
 20
250.6076233900381
 30
0.0
 11
605.4661871830201
 21
250.2076233900366
 31
0.0
  0
LINE
  5
9BF
330
1F
100
AcDbEntity
  8
Bemassung
100
AcDbLine
 10
596.3468646396384
 20
250.2076233900512
 30
0.0
 11
605.4661871830192
 21
250.2076233900512
 31
0.0
  0
LINE
  5
9C0
330
1F
100
AcDbEntity
  8
Körper
100
AcDbLine
 10
585.6944837227581
 20
240.8199095794731
 30
0.0
 11
545.7455024378766
 21
210.5208218288967
 31
0.0
  0
LWPOLYLINE
  5
9C1
330
1F
100
AcDbEntity
  8
Schraube unsichtbar
100
AcDbPolyline
 90
       11
 70
     1
 43
0.0
 10
559.3808150173706
 20
227.4076233900337
 42
-0.4142135623730951
 10
557.8808150173706
 20
225.9076233900337
 10
554.1808150173697
 20
225.9076233900337
 42
-0.4142135623730951
 10
552.6808150173698
 20
227.4076233900337
 10
552.6808150173698
 20
228.4076233900337
 10
554.2808150173721
 20
228.4076233900337
 10
554.2808150173721
 20
238.3793869004872
 10
556.0308150173721
 20
241.4076233900337
 10
557.7808150173721
 20
238.4157272394801
 10
557.7808150173721
 20
228.4076233900337
 10
559.3808150173706
 20
228.4076233900337
  0
LINE
  5
9C2
330
1F
100
AcDbEntity
  8
Körper
100
AcDbLine
 10
548.7657697752336
 20
244.6076233900381
 30
0.0
 11
560.7657697752272
 21
244.6076233900381
 31
0.0
  0
LINE
  5
9C3
330
1F
100
AcDbEntity
  8
Schraffur Solid
100
AcDbLine
 10
560.7657697752272
 20
244.6076233900381
 30
0.0
 11
560.7657697752272
 21
229.6076233900381
 31
0.0
  0
LINE
  5
9C4
330
1F
100
AcDbEntity
  8
Körper
100
AcDbLine
 10
560.7657697752272
 20
229.6076233900381
 30
0.0
 11
514.7657697752272
 21
229.6076233900381
 31
0.0
  0
LWPOLYLINE
  5
9C5
330
1F
100
AcDbEntity
  8
Körper
100
AcDbPolyline
 90
       19
 70
     0
 43
0.0
 10
541.4193567953863
 20
126.2673586561469
 42
-0.440282597308315
 10
541.2029798802977
 20
125.4091121699639
 42
-0.0347436399097145
 10
539.4071720064204
 20
124.5966163863232
 42
-0.0890901016736919
 10
537.2496583561751
 20
124.2091145453742
 10
534.4738373868387
 20
124.2091145453742
 42
-0.4143860509126948
 10
520.7657697752148
 20
137.9091121699639
 10
520.7657697752166
 20
151.3091121699618
 42
-0.4142135623730951
 10
521.0657697752159
 20
151.609112169961
 10
560.4657697752156
 20
151.609112169961
 42
-0.4142135623730951
 10
560.7657697752166
 20
151.3091121699581
 10
560.7657697752166
 20
150.7091121699596
 42
-0.4142135623730951
 10
560.4657697752156
 20
150.4091121699566
 10
551.5958602595075
 20
150.4091121699566
 42
0.0875197005895412
 10
549.8851806822914
 20
150.1073645454781
 10
549.8851806822896
 20
139.4091121699567
 42
-0.4142135623730951
 10
548.3851806822896
 20
137.9091121699567
 10
546.9657697752155
 20
137.9091121699567
 42
-0.2639791593475116
 10
540.8756270006271
 20
127.1776756235413
 10
541.4464780448688
 20
126.2219520335566
  0
LINE
  5
9C6
330
1F
100
AcDbEntity
  8
Körper
100
AcDbLine
 10
534.4657697752155
 20
137.9091121699603
 30
0.0
 11
534.4657697752155
 21
139.6600188863413
 31
0.0
  0
LINE
  5
9C7
330
1F
100
AcDbEntity
  8
Körper
100
AcDbLine
 10
534.4657697752155
 20
137.9091121699603
 30
0.0
 11
532.9606547398908
 21
137.9091121699603
 31
0.0
  0
LWPOLYLINE
  5
9C8
330
1F
100
AcDbEntity
  8
Körper
100
AcDbPolyline
 90
       31
 70
     1
 43
0.0
 10
569.6061863488676
 20
133.5091121700062
 42
0.4142135623698985
 10
569.9061863488696
 20
133.2091121700069
 10
571.4046899222394
 20
133.2091121700033
 42
0.4142135623730951
 10
571.7046899222432
 20
133.5091121700025
 10
571.7046899222578
 20
139.1120962323149
 42
-0.4142135623714969
 10
572.0046899222616
 20
139.4120962323178
 10
572.9065187650567
 20
139.4120962323178
 42
0.4142135623762917
 10
573.2065187650632
 20
139.7120962323134
 10
573.2065187650658
 20
145.0700768725329
 42
-0.2225848818882211
 10
573.3864265652345
 20
145.4541875123323
 10
577.1532689221904
 20
148.5932228097845
 42
-0.1754523787642339
 10
577.4733611220226
 20
148.7091121699814
 10
580.5098596458129
 20
148.7091121699742
 10
581.0098596458145
 20
149.2091121699741
 10
581.5098596458127
 20
148.7091121699705
 10
584.7065338598631
 20
148.7091121699596
 42
0.4142135623730951
 10
585.206533859865
 20
149.2091121699596
 10
585.2065338598666
 20
150.9091121699567
 42
0.4142135623730951
 10
584.9065338598675
 20
151.2091121699596
 10
575.7872113164856
 20
151.2091121699887
 42
0.1754523787642339
 10
575.4671191166571
 20
151.0932228097918
 10
569.7860941490517
 20
146.3590353368164
 42
0.2225848818882211
 10
569.6061863488821
 20
145.9749246970169
 10
569.6061863488766
 20
138.6127004616974
 42
0.4142135623730951
 10
569.8061863488772
 20
138.4127004616931
 10
570.4061863488758
 20
138.4127004617003
 42
-0.4142135623677675
 10
570.6061863488676
 20
138.212700461696
 10
570.6061863488639
 20
134.6127004616974
 42
-0.4142135623730951
 10
570.4061863488631
 20
134.4127004617003
 10
569.8061863488718
 20
134.4127004616967
 42
0.4142135623730951
 10
569.6061863488712
 20
134.212700461696
  0
LWPOLYLINE
  5
9C9
330
1F
100
AcDbEntity
  8
Körper
100
AcDbPolyline
 90
       21
 70
     1
 43
0.0
 10
572.8022669783631
 20
138.8091121700018
 42
-0.4142135623730951
 10
573.1022669783642
 20
138.5091121700025
 10
573.1022669783551
 20
131.1091121700047
 42
-0.4142135623730951
 10
572.802266978354
 20
130.8091121700018
 10
569.4022669783562
 20
130.8091121700091
 42
-0.4142135623730951
 10
567.4022669783562
 20
132.8091121700127
 10
567.4022669783635
 20
137.8281648005978
 42
0.3972757320827917
 10
566.4604078336751
 20
138.8264731903001
 42
-0.2207655433448734
 10
564.2348303996068
 20
140.0213983593967
 42
-0.9999999999995024
 10
565.0348303996078
 20
140.6213983593953
 42
2.999999999997726
 10
565.0348303996097
 20
143.0213983593968
 42
-0.9999999999995024
 10
564.2348303996103
 20
143.6213983594026
 42
-0.2360679774996697
 10
566.6348303996127
 20
144.821398359396
 10
568.4046558442205
 20
144.8213983593924
 42
-0.4142135623730951
 10
569.4046558442213
 20
143.8213983593924
 10
569.4046558442087
 20
133.1091121700047
 42
0.4142135623730951
 10
569.704655844208
 20
132.8091121700091
 10
571.6062204268974
 20
132.8091121700055
 42
0.4142135623728287
 10
571.9062204268984
 20
133.1091121700047
 10
571.9062204269038
 20
138.5091121700025
 42
-0.4142135623730951
 10
572.2062204269048
 20
138.8091121700018
  0
CIRCLE
  5
9CA
330
1F
100
AcDbEntity
  8
Körper
100
AcDbCircle
 10
566.6348303996056
 20
141.8213983593954
 30
0.0
 40
1.5
  0
HATCH
  5
9CB
330
1F
100
AcDbEntity
  8
Solid Red
100
AcDbHatch
 10
0.0
 20
0.0
 30
0.0
210
0.0
220
0.0
230
1.0
  2
SOLID
 70
     1
 71
     0
 91
        1
 92
        7
 72
     0
 73
     1
 93
        4
 10
575.787211316484
 20
151.6002266267638
 10
575.787211316484
 20
151.2002266267769
 10
584.9065338598675
 20
151.2002266267769
 10
584.9065338598675
 20
151.6002266267638
 97
        0
 75
     1
 76
     1
 47
0.013146048652825
 98
        1
 10
576.6166674325794
 20
151.4460038262437
450
        0
451
        0
460
0.0
461
0.0
452
        0
462
1.0
453
        2
463
0.0
 63
     5
421
      255
463
1.0
 63
     2
421
 16776960
470
LINEAR
1001
GradientColor1ACI
1070
     5
1001
GradientColor2ACI
1070
     2
1001
ACAD
1010
0.0
1020
0.0
1030
0.0
  0
LINE
  5
9CC
330
1F
100
AcDbEntity
  8
Bemassung
100
AcDbLine
 10
584.9065338598675
 20
151.6002266267638
 30
0.0
 11
584.9065338598675
 21
151.2002266267623
 31
0.0
  0
LINE
  5
9CD
330
1F
100
AcDbEntity
  8
Körper
100
AcDbLine
 10
565.1348303996059
 20
141.8213983593954
 30
0.0
 11
540.8756270006271
 21
127.1776756235413
 31
0.0
  0
DIMENSION
  5
A02
102
{ACAD_XDICTIONARY
360
A11
102
}
102
{ACAD_REACTORS
330
A1D
102
}
330
1F
100
AcDbEntity
  8
Körper
100
AcDbDimension
280
     0
  2
*D3
 10
616.2140320487353
 20
249.607623390038
 30
0.0
 11
614.3390320487354
 21
247.6076233900382
 31
0.0
 70
    32
 71
     5
 42
3.999999999999886
 73
     0
 74
     0
 75
     0
  3
ISO-25
100
AcDbAlignedDimension
 13
607.2657697752272
 23
245.6076233900381
 33
0.0
 14
607.0157697752271
 24
249.607623390038
 34
0.0
 50
90.0
100
AcDbRotatedDimension
  0
ENDSEC
  0
SECTION
  2
OBJECTS
  0
DICTIONARY
  5
C
330
0
100
AcDbDictionary
281
     1
  3
ACAD_CIP_PREVIOUS_PRODUCT_INFO
350
20D
  3
ACAD_COLOR
350
79
  3
ACAD_DETAILVIEWSTYLE
350
212
  3
ACAD_GROUP
350
D
  3
ACAD_LAYOUT
350
1A
  3
ACAD_MATERIAL
350
78
  3
ACAD_MLEADERSTYLE
350
124
  3
ACAD_MLINESTYLE
350
17
  3
ACAD_PLOTSETTINGS
350
19
  3
ACAD_PLOTSTYLENAME
350
E
  3
ACAD_SCALELIST
350
103
  3
ACAD_SECTIONVIEWSTYLE
350
210
  3
ACAD_TABLESTYLE
350
97
  3
ACAD_VISUALSTYLE
350
E6
  3
ACDB_RECOMPOSE_DATA
350
A21
  3
AcDbVariableDictionary
350
67
  0
DICTIONARY
  5
1F6
330
2
100
AcDbDictionary
280
     1
281
     1
  3
ACAD_LAYERSTATES
360
1F7
  0
DICTIONARY
  5
133
330
10
100
AcDbDictionary
280
     1
281
     1
  0
DICTIONARY
  5
834
330
833
100
AcDbDictionary
280
     1
281
     1
  0
DICTIONARY
  5
836
330
835
100
AcDbDictionary
280
     1
281
     1
  0
DICTIONARY
  5
1C5
330
1F
100
AcDbDictionary
280
     1
281
     1
  3
ACAD_SORTENTS
360
84C
  0
DICTIONARY
  5
A11
330
A02
100
AcDbDictionary
280
     1
281
     1
  3
ACAD_DIMASSOC
360
A1D
  0
XRECORD
  5
20D
102
{ACAD_REACTORS
330
C
102
}
330
C
100
AcDbXrecord
280
     1
300
ACDLT
300
2015
300
ACDLT_F_S
  0
DICTIONARY
  5
79
102
{ACAD_REACTORS
330
C
102
}
330
C
100
AcDbDictionary
281
     1
  0
DICTIONARY
  5
212
102
{ACAD_REACTORS
330
C
102
}
330
C
100
AcDbDictionary
281
     1
  3
Metric50
350
213
  0
DICTIONARY
  5
D
102
{ACAD_REACTORS
330
C
102
}
330
C
100
AcDbDictionary
281
     1
  0
DICTIONARY
  5
1A
102
{ACAD_REACTORS
330
C
102
}
330
C
100
AcDbDictionary
281
     1
  3
Layout1
350
D3
  3
Layout2
350
D7
  3
Model
350
22
  0
DICTIONARY
  5
78
102
{ACAD_REACTORS
330
C
102
}
330
C
100
AcDbDictionary
281
     1
  3
ByBlock
350
E4
  3
ByLayer
350
E3
  3
Global
350
E5
  0
DICTIONARY
  5
124
102
{ACAD_REACTORS
330
C
102
}
330
C
100
AcDbDictionary
281
     1
  3
Beschriftung
350
132
  3
Standard
350
125
  0
DICTIONARY
  5
17
102
{ACAD_REACTORS
330
C
102
}
330
C
100
AcDbDictionary
281
     1
  3
Standard
350
18
  0
DICTIONARY
  5
19
102
{ACAD_REACTORS
330
C
102
}
330
C
100
AcDbDictionary
281
     1
  0
ACDBDICTIONARYWDFLT
  5
E
102
{ACAD_REACTORS
330
C
102
}
330
C
100
AcDbDictionary
281
     1
  3
Normal
350
F
100
AcDbDictionaryWithDefault
340
F
  0
DICTIONARY
  5
103
102
{ACAD_REACTORS
330
C
102
}
330
C
100
AcDbDictionary
281
     1
  3
A0
350
104
  3
A1
350
1B5
  3
A2
350
1B6
  3
A3
350
1B7
  3
A4
350
1B8
  3
A5
350
1B9
  3
A6
350
1BA
  3
A7
350
1BB
  3
A8
350
1BC
  3
A9
350
1BD
  3
B0
350
1BE
  3
B1
350
1BF
  3
B2
350
1C0
  3
B3
350
1C1
  3
B4
350
1C2
  3
B5
350
1C3
  3
B6
350
1C4
  0
DICTIONARY
  5
210
102
{ACAD_REACTORS
330
C
102
}
330
C
100
AcDbDictionary
281
     1
  3
Metric50
350
211
  0
DICTIONARY
  5
97
102
{ACAD_REACTORS
330
C
102
}
330
C
100
AcDbDictionary
281
     1
  3
Standard
350
98
  0
DICTIONARY
  5
E6
102
{ACAD_REACTORS
330
C
102
}
330
C
100
AcDbDictionary
281
     1
  3
2dWireframe
350
EC
  3
Basic
350
EB
  3
Brighten
350
F2
  3
ColorChange
350
F6
  3
Conceptual
350
EF
  3
Dim
350
F1
  3
EdgeColorOff
350
1DD
  3
Facepattern
350
F5
  3
Flat
350
E7
  3
FlatWithEdges
350
E8
  3
Gouraud
350
E9
  3
GouraudWithEdges
350
EA
  3
Hidden
350
EE
  3
JitterOff
350
1DB
  3
Linepattern
350
F4
  3
OverhangOff
350
1DC
  3
Realistic
350
F0
  3
Shaded
350
1EA
  3
Shaded with edges
350
1E9
  3
Shades of Gray
350
1E6
  3
Sketchy
350
1E7
  3
Thicken
350
F3
  3
Wireframe
350
ED
  3
X-Ray
350
1E8
  0
XRECORD
  5
A21
102
{ACAD_REACTORS
330
C
102
}
330
C
100
AcDbXrecord
280
     1
 90
        1
330
98
330
211
330
213
  0
DICTIONARY
  5
67
102
{ACAD_REACTORS
330
C
102
}
330
C
100
AcDbDictionary
281
     1
  3
CANNOSCALE
350
13D
  3
CMLEADERSTYLE
350
13C
  3
CTABLESTYLE
350
C5
  3
CVIEWDETAILSTYLE
350
21E
  3
CVIEWSECTIONSTYLE
350
21F
  3
DIMASSOC
350
68
  3
HIDETEXT
350
6C
  3
LAYEREVAL
350
1A5
  3
LAYERNOTIFY
350
1A6
  0
DICTIONARY
  5
1F7
102
{ACAD_REACTORS
330
1F6
102
}
330
1F6
100
AcDbDictionary
281
     1
  0
SORTENTSTABLE
  5
84C
102
{ACAD_REACTORS
330
1C5
102
}
330
1C5
100
AcDbSortentsTable
330
1F
  0
DIMASSOC
  5
A1D
102
{ACAD_REACTORS
330
A11
102
}
330
A11
100
AcDbDimAssoc
330
A02
 90
        3
 70
     0
 71
     0
  1
AcDbOsnapPointRef
 72
    13
331
977
 73
     2
 91
        0
 40
0.0
 10
0.0
 20
0.0
 30
2.000000000000000E+50
 75
     0
  1
AcDbOsnapPointRef
 72
     2
331
976
 73
     2
 91
        0
 40
0.5
 10
0.0
 20
0.0
 30
0.0
 75
     0
  0
ACDBDETAILVIEWSTYLE
  5
213
102
{ACAD_XDICTIONARY
360
8AE
102
}
102
{ACAD_REACTORS
330
212
102
}
330
212
100
AcDbModelDocViewStyle
 70
     0
  3
Metric50
290
     0
100
AcDbDetailViewStyle
 70
     0
 71
     0
 90
        3
 71
     1
340
11
 62
   256
 40
5.0
340
0
 62
   256
 40
5.0
300

 40
0.0
280
     1
 71
     2
340
16
 90
       25
 62
   256
 71
     3
340
11
 62
   256
 40
5.0
 90
        0
 40
15.0
 90
        1
300
%<\AcVar ViewDetailId>% (%<\AcVar ViewScale \f "%sn">%)
 71
     4
340
16
 90
       25
 62
   256
340
16
 90
       25
 62
   256
280
     0
  0
LAYOUT
  5
D3
102
{ACAD_REACTORS
330
1A
102
}
330
1A
100
AcDbPlotSettings
  1

  2
C:\Documents and Settings\basas\Application Data\Autodesk\AutoCAD 2005\R16.1\enu\plotters\Default Windows System Printer.pc3
  4

  6

 40
0.0
 41
0.0
 42
0.0
 43
0.0
 44
0.0
 45
0.0
 46
0.0
 47
0.0
 48
0.0
 49
0.0
140
0.0
141
0.0
142
1.0
143
1.0
 70
   688
 72
     0
 73
     0
 74
     5
  7

 75
    16
147
1.0
 76
     0
 77
     2
 78
   300
148
0.0
149
0.0
100
AcDbLayout
  1
Layout1
 70
     1
 71
     1
 10
0.0
 20
0.0
 11
12.0
 21
9.0
 12
0.0
 22
0.0
 32
0.0
 14
0.0
 24
0.0
 34
0.0
 15
0.0
 25
0.0
 35
0.0
146
0.0
 13
0.0
 23
0.0
 33
0.0
 16
1.0
 26
0.0
 36
0.0
 17
0.0
 27
1.0
 37
0.0
 76
     0
330
D2
  0
LAYOUT
  5
D7
102
{ACAD_REACTORS
330
1A
102
}
330
1A
100
AcDbPlotSettings
  1

  2
C:\Documents and Settings\basas\Application Data\Autodesk\AutoCAD 2005\R16.1\enu\plotters\Default Windows System Printer.pc3
  4

  6

 40
0.0
 41
0.0
 42
0.0
 43
0.0
 44
0.0
 45
0.0
 46
0.0
 47
0.0
 48
0.0
 49
0.0
140
0.0
141
0.0
142
1.0
143
1.0
 70
   688
 72
     0
 73
     0
 74
     5
  7

 75
    16
147
1.0
 76
     0
 77
     2
 78
   300
148
0.0
149
0.0
100
AcDbLayout
  1
Layout2
 70
     1
 71
     2
 10
0.0
 20
0.0
 11
12.0
 21
9.0
 12
0.0
 22
0.0
 32
0.0
 14
0.0
 24
0.0
 34
0.0
 15
0.0
 25
0.0
 35
0.0
146
0.0
 13
0.0
 23
0.0
 33
0.0
 16
1.0
 26
0.0
 36
0.0
 17
0.0
 27
1.0
 37
0.0
 76
     0
330
D6
  0
LAYOUT
  5
22
102
{ACAD_XDICTIONARY
360
1FC
102
}
102
{ACAD_REACTORS
330
1A
102
}
330
1A
100
AcDbPlotSettings
  1

  2
none_device
  4
ISO_A4_(210.00_x_297.00_MM)
  6

 40
7.5
 41
20.0
 42
7.5
 43
20.0
 44
210.0
 45
297.0
 46
0.0
 47
0.0
 48
0.0
 49
0.0
140
0.0
141
0.0
142
1.0
143
1.0
 70
 11952
 72
     1
 73
     1
 74
     0
  7

 75
    16
147
1.0
 76
     0
 77
     2
 78
   300
148
-89.84411190053284
149
0.1008333333332985
100
AcDbLayout
  1
Model
 70
     1
 71
     0
 10
0.0
 20
0.0
 11
12.0
 21
9.0
 12
0.0
 22
0.0
 32
0.0
 14
0.0
 24
0.0
 34
0.0
 15
0.0
 25
0.0
 35
0.0
146
0.0
 13
0.0
 23
0.0
 33
0.0
 16
1.0
 26
0.0
 36
0.0
 17
0.0
 27
1.0
 37
0.0
 76
     0
330
1F
331
E1
1001
ACAD_PSEXT
1000
None
1000
None
1000
Not applicable
1000
The layout will not be plotted unless a new plotter configuration name is selected.
1070
     0
  0
MATERIAL
  5
E4
102
{ACAD_XDICTIONARY
360
1F0
102
}
102
{ACAD_REACTORS
330
78
102
}
330
78
100
AcDbMaterial
  1
ByBlock
 94
       63
  0
MATERIAL
  5
E3
102
{ACAD_XDICTIONARY
360
1EE
102
}
102
{ACAD_REACTORS
330
78
102
}
330
78
100
AcDbMaterial
  1
ByLayer
 94
       63
  0
MATERIAL
  5
E5
102
{ACAD_XDICTIONARY
360
16A
102
}
102
{ACAD_REACTORS
330
78
102
}
330
78
100
AcDbMaterial
  1
Global
 43
0.0007999999797903
 43
0.0
 43
0.0
 43
0.0
 43
0.0
 43
0.0007999999797903
 43
0.0
 43
0.0
 43
0.0
 43
0.0
 43
1.0
 43
0.0
 43
0.0
 43
0.0
 43
0.0
 43
1.0
 49
0.0007999999797903
 49
0.0
 49
0.0
 49
0.0
 49
0.0
 49
0.0007999999797903
 49
0.0
 49
0.0
 49
0.0
 49
0.0
 49
1.0
 49
0.0
 49
0.0
 49
0.0
 49
0.0
 49
1.0
142
0.0007999999797903
142
0.0
142
0.0
142
0.0
142
0.0
142
0.0007999999797903
142
0.0
142
0.0
142
0.0
142
0.0
142
1.0
142
0.0
142
0.0
142
0.0
142
0.0
142
1.0
144
0.0007999999797903
144
0.0
144
0.0
144
0.0
144
0.0
144
0.0007999999797903
144
0.0
144
0.0
144
0.0
144
0.0
144
1.0
144
0.0
144
0.0
144
0.0
144
0.0
144
1.0
 94
       63
1001
ACAD
1070
    -1
1070
     3
1070
     0
1000

1071
        0
1070
     0
  0
MLEADERSTYLE
  5
132
102
{ACAD_REACTORS
330
124
102
}
330
124
100
AcDbMLeaderStyle
179
     2
170
     2
171
     1
172
     0
 90
        2
 40
0.0
 41
0.0
173
     1
 91
-1056964608
340
14
 92
       -2
290
     1
 42
2.0
291
     1
 43
8.0
  3
Standard
 44
4.0
300

342
11
174
     1
178
     1
175
     1
176
     0
 93
-1056964608
 45
4.0
292
     0
297
     0
 46
4.0
 94
-1056964608
 47
1.0
 49
1.0
140
1.0
293
     1
141
0.0
294
     1
177
     0
142
1.0
295
     0
296
     1
143
3.75
271
     0
272
     9
273
     9
298
     0
  0
MLEADERSTYLE
  5
125
102
{ACAD_REACTORS
330
124
102
}
330
124
100
AcDbMLeaderStyle
179
     2
170
     2
171
     1
172
     0
 90
        2
 40
0.0
 41
0.0
173
     1
 91
-1056964608
340
14
 92
       -2
290
     1
 42
2.0
291
     1
 43
8.0
  3
Standard
 44
4.0
300

342
11
174
     1
178
     1
175
     1
176
     0
 93
-1056964608
 45
4.0
292
     0
297
     0
 46
4.0
 94
-1056964608
 47
1.0
 49
1.0
140
1.0
293
     1
141
0.0
294
     1
177
     0
142
1.0
295
     0
296
     0
143
3.75
271
     0
272
     9
273
     9
298
     0
  0
MLINESTYLE
  5
18
102
{ACAD_REACTORS
330
17
102
}
330
17
100
AcDbMlineStyle
  2
STANDARD
 70
     0
  3

 62
   256
 51
90.0
 52
90.0
 71
     2
 49
0.5
 62
   256
  6
BYLAYER
 49
-0.5
 62
   256
  6
BYLAYER
  0
ACDBPLACEHOLDER
  5
F
102
{ACAD_REACTORS
330
E
102
}
330
E
  0
SCALE
  5
104
102
{ACAD_REACTORS
330
103
102
}
330
103
100
AcDbScale
 70
     0
300
1:1
140
1.0
141
1.0
290
     1
  0
SCALE
  5
1B5
102
{ACAD_REACTORS
330
103
102
}
330
103
100
AcDbScale
 70
     0
300
1:2
140
1.0
141
2.0
290
     0
  0
SCALE
  5
1B6
102
{ACAD_REACTORS
330
103
102
}
330
103
100
AcDbScale
 70
     0
300
1:4
140
1.0
141
4.0
290
     0
  0
SCALE
  5
1B7
102
{ACAD_REACTORS
330
103
102
}
330
103
100
AcDbScale
 70
     0
300
1:5
140
1.0
141
5.0
290
     0
  0
SCALE
  5
1B8
102
{ACAD_REACTORS
330
103
102
}
330
103
100
AcDbScale
 70
     0
300
1:8
140
1.0
141
8.0
290
     0
  0
SCALE
  5
1B9
102
{ACAD_REACTORS
330
103
102
}
330
103
100
AcDbScale
 70
     0
300
1:10
140
1.0
141
10.0
290
     0
  0
SCALE
  5
1BA
102
{ACAD_REACTORS
330
103
102
}
330
103
100
AcDbScale
 70
     0
300
1:16
140
1.0
141
16.0
290
     0
  0
SCALE
  5
1BB
102
{ACAD_REACTORS
330
103
102
}
330
103
100
AcDbScale
 70
     0
300
1:20
140
1.0
141
20.0
290
     0
  0
SCALE
  5
1BC
102
{ACAD_REACTORS
330
103
102
}
330
103
100
AcDbScale
 70
     0
300
1:30
140
1.0
141
30.0
290
     0
  0
SCALE
  5
1BD
102
{ACAD_REACTORS
330
103
102
}
330
103
100
AcDbScale
 70
     0
300
1:40
140
1.0
141
40.0
290
     0
  0
SCALE
  5
1BE
102
{ACAD_REACTORS
330
103
102
}
330
103
100
AcDbScale
 70
     0
300
1:50
140
1.0
141
50.0
290
     0
  0
SCALE
  5
1BF
102
{ACAD_REACTORS
330
103
102
}
330
103
100
AcDbScale
 70
     0
300
1:100
140
1.0
141
100.0
290
     0
  0
SCALE
  5
1C0
102
{ACAD_REACTORS
330
103
102
}
330
103
100
AcDbScale
 70
     0
300
2:1
140
2.0
141
1.0
290
     0
  0
SCALE
  5
1C1
102
{ACAD_REACTORS
330
103
102
}
330
103
100
AcDbScale
 70
     0
300
4:1
140
4.0
141
1.0
290
     0
  0
SCALE
  5
1C2
102
{ACAD_REACTORS
330
103
102
}
330
103
100
AcDbScale
 70
     0
300
8:1
140
8.0
141
1.0
290
     0
  0
SCALE
  5
1C3
102
{ACAD_REACTORS
330
103
102
}
330
103
100
AcDbScale
 70
     0
300
10:1
140
10.0
141
1.0
290
     0
  0
SCALE
  5
1C4
102
{ACAD_REACTORS
330
103
102
}
330
103
100
AcDbScale
 70
     0
300
100:1
140
100.0
141
1.0
290
     0
  0
ACDBSECTIONVIEWSTYLE
  5
211
102
{ACAD_XDICTIONARY
360
8AC
102
}
102
{ACAD_REACTORS
330
210
102
}
330
210
100
AcDbModelDocViewStyle
 70
     0
  3
Metric50
290
     0
100
AcDbSectionViewStyle
 70
     0
 71
     0
 90
      102
 71
     1
340
11
 62
   256
 40
5.0
340
0
340
0
 62
   256
 40
5.0
300
I, O, Q, S, X, Z
 40
10.0
 90
        0
 40
2.5
 90
        0
 71
     2
340
16
 90
       25
 62
   256
340
16
 90
       50
 62
   256
 40
5.0
 40
2.5
 40
5.0
 71
     3
340
11
 62
   256
 40
5.0
 90
        0
 40
15.0
 90
        1
300
%<\AcVar ViewSectionStartId>%-%<\AcVar ViewSectionEndId>% (%<\AcVar ViewScale \f "%sn">%)
 71
     4
 62
   256
 62
   257
300
ANSI31
 40
1.0
 90
        0
290
     0
290
     0
 90
        6
 40
0.0
 40
1.570796326794896
 40
0.2617993877991494
 40
1.308996938995747
 40
-0.2617993877991494
 40
1.832595714594045
  0
TABLESTYLE
  5
98
102
{ACAD_XDICTIONARY
360
159
102
}
102
{ACAD_REACTORS
330
97
102
}
330
97
100
AcDbTableStyle
280
     0
  3
Standard
 70
     0
 71
     0
 40
1.5
 41
1.5
280
     0
281
     0
  7
Standard
140
4.5
170
     2
 62
     0
 63
     7
283
     0
 90
      512
 91
        0
  1

274
    -2
284
     1
 64
     0
275
    -2
285
     1
 65
     0
276
    -2
286
     1
 66
     0
277
    -2
287
     1
 67
     0
278
    -2
288
     1
 68
     0
279
    -2
289
     1
 69
     0
  7
Standard
140
6.0
170
     5
 62
     0
 63
     7
283
     0
 90
      512
 91
        0
  1

274
    -2
284
     1
 64
     0
275
    -2
285
     1
 65
     0
276
    -2
286
     1
 66
     0
277
    -2
287
     1
 67
     0
278
    -2
288
     1
 68
     0
279
    -2
289
     1
 69
     0
  7
Standard
140
4.5
170
     5
 62
     0
 63
     7
283
     0
 90
      512
 91
        0
  1

274
    -2
284
     1
 64
     0
275
    -2
285
     1
 65
     0
276
    -2
286
     1
 66
     0
277
    -2
287
     1
 67
     0
278
    -2
288
     1
 68
     0
279
    -2
289
     1
 69
     0
  0
VISUALSTYLE
  5
EC
102
{ACAD_REACTORS
330
E6
102
}
330
E6
100
AcDbVisualStyle
  2
2dWireframe
 70
     4
177
     3
291
     0
 70
    58
 90
        0
176
     1
 90
        2
176
     1
 90
        1
176
     1
 90
        0
176
     1
 40
0.6
176
     1
 40
30.0
176
     1
 62
     7
420
 16777215
176
     1
 90
        1
176
     1
 90
        4
176
     1
 62
     7
176
     1
 62
   257
176
     1
 90
        1
176
     1
 90
        1
176
     1
 40
1.0
176
     1
 90
        0
176
     1
 62
   257
176
     1
 40
1.0
176
     1
 90
        1
176
     1
 90
        6
176
     1
 90
        2
176
     1
 62
     7
176
     1
 90
        5
176
     1
 90
        0
176
     1
 90
        0
176
     1
290
     0
176
     1
 90
        1
176
     1
 40
0.0
176
     1
 90
        0
176
     1
290
     1
176
     1
290
     1
176
     1
290
     0
176
     1
290
     0
176
     1
290
     0
176
     1
290
     0
176
     1
290
     0
176
     1
290
     0
176
     1
290
     0
176
     1
 90
       50
176
     1
 40
0.0
176
     1
 40
1.0
176
     1
 90
        0
176
     1
 62
    18
176
     1
 90
       50
176
     1
 90
        3
176
     1
 62
     5
420
      255
176
     1
290
     0
176
     1
 90
       50
176
     1
 90
       50
176
     1
 90
       50
176
     1
290
     0
176
     1
 90
       50
176
     1
 62
   256
176
     0
 40
1.0
176
     0
 90
        2
176
     1
  1
strokes_ogs.tif
176
     1
290
     0
176
     1
 40
1.0
176
     1
 40
1.0
176
     1
  0
VISUALSTYLE
  5
EB
102
{ACAD_REACTORS
330
E6
102
}
330
E6
100
AcDbVisualStyle
  2
Basic
 70
     7
177
     3
291
     1
 70
    58
 90
        1
176
     1
 90
        0
176
     1
 90
        1
176
     1
 90
        0
176
     1
 40
0.6
176
     1
 40
30.0
176
     1
 62
     7
420
 16777215
176
     1
 90
        0
176
     1
 90
        4
176
     1
 62
     7
176
     1
 62
   257
176
     1
 90
        1
176
     1
 90
        1
176
     1
 40
1.0
176
     1
 90
        8
176
     1
 62
     7
176
     1
 40
1.0
176
     1
 90
        1
176
     1
 90
        6
176
     1
 90
        2
176
     1
 62
     7
176
     1
 90
        5
176
     1
 90
        0
176
     1
 90
        0
176
     1
290
     0
176
     1
 90
        1
176
     1
 40
0.0
176
     1
 90
        0
176
     1
290
     0
176
     1
290
     1
176
     1
290
     1
176
     1
290
     0
176
     1
290
     0
176
     1
290
     0
176
     1
290
     0
176
     1
290
     0
176
     1
290
     0
176
     1
 90
       50
176
     1
 40
0.0
176
     1
 40
1.0
176
     1
 90
        0
176
     1
 62
    18
176
     1
 90
       50
176
     1
 90
        3
176
     1
 62
     5
420
      255
176
     1
290
     0
176
     1
 90
       50
176
     1
 90
       50
176
     1
 90
       50
176
     1
290
     0
176
     1
 90
       50
176
     1
 62
   256
176
     0
 40
1.0
176
     0
 90
        2
176
     1
  1
strokes_ogs.tif
176
     1
290
     0
176
     1
 40
1.0
176
     1
 40
1.0
176
     1
  0
VISUALSTYLE
  5
F2
102
{ACAD_REACTORS
330
E6
102
}
330
E6
100
AcDbVisualStyle
  2
Brighten
 70
    12
177
     3
291
     1
 70
    58
 90
        2
176
     1
 90
        2
176
     1
 90
        1
176
     1
 90
        0
176
     1
 40
0.6
176
     1
 40
30.0
176
     1
 62
     7
420
 16777215
176
     1
 90
        1
176
     1
 90
        4
176
     1
 62
     7
176
     1
 62
   257
176
     1
 90
        1
176
     1
 90
        1
176
     1
 40
1.0
176
     1
 90
        8
176
     1
 62
     7
176
     1
 40
1.0
176
     1
 90
        1
176
     1
 90
        6
176
     1
 90
        2
176
     1
 62
     7
176
     1
 90
        5
176
     1
 90
        0
176
     1
 90
        0
176
     1
290
     0
176
     1
 90
        1
176
     1
 40
50.0
176
     1
 90
        0
176
     1
290
     0
176
     1
290
     1
176
     1
290
     1
176
     1
290
     0
176
     1
290
     0
176
     1
290
     0
176
     1
290
     0
176
     1
290
     0
176
     1
290
     0
176
     1
 90
       50
176
     1
 40
0.0
176
     1
 40
1.0
176
     1
 90
        0
176
     1
 62
    18
176
     1
 90
       50
176
     1
 90
        3
176
     1
 62
     5
420
      255
176
     1
290
     0
176
     1
 90
       50
176
     1
 90
       50
176
     1
 90
       50
176
     1
290
     0
176
     1
 90
       50
176
     1
 62
   256
176
     0
 40
1.0
176
     0
 90
        2
176
     1
  1
strokes_ogs.tif
176
     1
290
     0
176
     1
 40
1.0
176
     1
 40
1.0
176
     1
  0
VISUALSTYLE
  5
F6
102
{ACAD_REACTORS
330
E6
102
}
330
E6
100
AcDbVisualStyle
  2
ColorChange
 70
    16
177
     3
291
     1
 70
    58
 90
        2
176
     1
 90
        2
176
     1
 90
        3
176
     1
 90
        0
176
     1
 40
0.6
176
     1
 40
30.0
176
     1
 62
     8
420
  8421504
176
     1
 90
        1
176
     1
 90
        4
176
     1
 62
     7
176
     1
 62
   257
176
     1
 90
        1
176
     1
 90
        1
176
     1
 40
1.0
176
     1
 90
        8
176
     1
 62
     8
420
  8421504
176
     1
 40
1.0
176
     1
 90
        1
176
     1
 90
        6
176
     1
 90
        2
176
     1
 62
     7
176
     1
 90
        5
176
     1
 90
        0
176
     1
 90
        0
176
     1
290
     0
176
     1
 90
        1
176
     1
 40
0.0
176
     1
 90
        0
176
     1
290
     0
176
     1
290
     1
176
     1
290
     1
176
     1
290
     0
176
     1
290
     0
176
     1
290
     0
176
     1
290
     0
176
     1
290
     0
176
     1
290
     0
176
     1
 90
       50
176
     1
 40
0.0
176
     1
 40
1.0
176
     1
 90
        0
176
     1
 62
    18
176
     1
 90
       50
176
     1
 90
        3
176
     1
 62
     5
420
      255
176
     1
290
     0
176
     1
 90
       50
176
     1
 90
       50
176
     1
 90
       50
176
     1
290
     0
176
     1
 90
       50
176
     1
 62
   256
176
     0
 40
1.0
176
     0
 90
        2
176
     1
  1
strokes_ogs.tif
176
     1
290
     0
176
     1
 40
1.0
176
     1
 40
1.0
176
     1
  0
VISUALSTYLE
  5
EF
102
{ACAD_REACTORS
330
E6
102
}
330
E6
100
AcDbVisualStyle
  2
Conceptual
 70
     9
177
     3
291
     0
 70
    58
 90
        3
176
     1
 90
        2
176
     1
 90
        1
176
     1
 90
        0
176
     1
 40
0.6
176
     1
 40
30.0
176
     1
 62
     7
420
 16777215
176
     1
 90
        2
176
     1
 90
        2
176
     1
 62
     7
176
     1
 62
   257
176
     1
 90
        1
176
     1
 90
        1
176
     1
 40
40.0
176
     1
 90
        8
176
     1
 62
     7
176
     1
 40
1.0
176
     1
 90
        1
176
     1
 90
        6
176
     1
 90
        2
176
     1
 62
     7
176
     1
 90
        3
176
     1
 90
        0
176
     1
 90
        0
176
     1
290
     0
176
     1
 90
        1
176
     1
 40
0.0
176
     1
 90
        0
176
     1
290
     0
176
     1
290
     1
176
     1
290
     1
176
     1
290
     0
176
     1
290
     0
176
     1
290
     0
176
     1
290
     0
176
     1
290
     0
176
     1
290
     0
176
     1
 90
       50
176
     1
 40
0.0
176
     1
 40
1.0
176
     1
 90
        0
176
     1
 62
    18
176
     1
 90
       50
176
     1
 90
        3
176
     1
 62
     5
420
      255
176
     1
290
     0
176
     1
 90
       50
176
     1
 90
       50
176
     1
 90
       50
176
     1
290
     0
176
     1
 90
       50
176
     1
 62
   256
176
     0
 40
1.0
176
     0
 90
        2
176
     1
  1
strokes_ogs.tif
176
     1
290
     0
176
     1
 40
1.0
176
     1
 40
1.0
176
     1
  0
VISUALSTYLE
  5
F1
102
{ACAD_REACTORS
330
E6
102
}
330
E6
100
AcDbVisualStyle
  2
Dim
 70
    11
177
     3
291
     1
 70
    58
 90
        2
176
     1
 90
        2
176
     1
 90
        1
176
     1
 90
        0
176
     1
 40
0.6
176
     1
 40
30.0
176
     1
 62
     7
420
 16777215
176
     1
 90
        1
176
     1
 90
        4
176
     1
 62
     7
176
     1
 62
   257
176
     1
 90
        1
176
     1
 90
        1
176
     1
 40
1.0
176
     1
 90
        8
176
     1
 62
     7
176
     1
 40
1.0
176
     1
 90
        1
176
     1
 90
        6
176
     1
 90
        2
176
     1
 62
     7
176
     1
 90
        5
176
     1
 90
        0
176
     1
 90
        0
176
     1
290
     0
176
     1
 90
        1
176
     1
 40
-50.0
176
     1
 90
        0
176
     1
290
     0
176
     1
290
     1
176
     1
290
     1
176
     1
290
     0
176
     1
290
     0
176
     1
290
     0
176
     1
290
     0
176
     1
290
     0
176
     1
290
     0
176
     1
 90
       50
176
     1
 40
0.0
176
     1
 40
1.0
176
     1
 90
        0
176
     1
 62
    18
176
     1
 90
       50
176
     1
 90
        3
176
     1
 62
     5
420
      255
176
     1
290
     0
176
     1
 90
       50
176
     1
 90
       50
176
     1
 90
       50
176
     1
290
     0
176
     1
 90
       50
176
     1
 62
   256
176
     0
 40
1.0
176
     0
 90
        2
176
     1
  1
strokes_ogs.tif
176
     1
290
     0
176
     1
 40
1.0
176
     1
 40
1.0
176
     1
  0
VISUALSTYLE
  5
1DD
102
{ACAD_REACTORS
330
E6
102
}
330
E6
100
AcDbVisualStyle
  2
EdgeColorOff
 70
    22
177
     3
291
     1
 70
    58
 90
        2
176
     0
 90
        2
176
     0
 90
        0
176
     0
 90
        0
176
     0
 40
0.6
176
     0
 40
30.0
176
     0
 62
     7
420
 16777215
176
     0
 90
        1
176
     0
 90
        4
176
     0
 62
     7
176
     0
 62
   257
176
     0
 90
        1
176
     0
 90
        1
176
     0
 40
1.0
176
     0
 90
        8
176
     2
 62
     7
176
     0
 40
1.0
176
     0
 90
        1
176
     0
 90
        6
176
     0
 90
        2
176
     0
 62
     7
176
     0
 90
        5
176
     0
 90
        0
176
     0
 90
        0
176
     0
290
     0
176
     0
 90
        1
176
     0
 40
0.0
176
     0
 90
        0
176
     0
290
     0
176
     1
290
     1
176
     1
290
     1
176
     1
290
     0
176
     1
290
     0
176
     1
290
     0
176
     1
290
     0
176
     1
290
     0
176
     1
290
     0
176
     1
 90
       50
176
     1
 40
0.0
176
     1
 40
1.0
176
     1
 90
        0
176
     1
 62
    18
176
     1
 90
       50
176
     1
 90
        3
176
     1
 62
     5
420
      255
176
     1
290
     0
176
     1
 90
       50
176
     1
 90
       50
176
     1
 90
       50
176
     1
290
     0
176
     1
 90
       50
176
     1
 62
   256
176
     0
 40
1.0
176
     0
 90
        2
176
     1
  1
strokes_ogs.tif
176
     1
290
     0
176
     1
 40
1.0
176
     1
 40
1.0
176
     1
  0
VISUALSTYLE
  5
F5
102
{ACAD_REACTORS
330
E6
102
}
330
E6
100
AcDbVisualStyle
  2
Facepattern
 70
    15
177
     3
291
     1
 70
    58
 90
        2
176
     1
 90
        2
176
     1
 90
        1
176
     1
 90
        0
176
     1
 40
0.6
176
     1
 40
30.0
176
     1
 62
     7
420
 16777215
176
     1
 90
        1
176
     1
 90
        4
176
     1
 62
     7
176
     1
 62
   257
176
     1
 90
        1
176
     1
 90
        1
176
     1
 40
1.0
176
     1
 90
        8
176
     1
 62
     7
176
     1
 40
1.0
176
     1
 90
        1
176
     1
 90
        6
176
     1
 90
        2
176
     1
 62
     7
176
     1
 90
        5
176
     1
 90
        0
176
     1
 90
        0
176
     1
290
     0
176
     1
 90
        1
176
     1
 40
0.0
176
     1
 90
        0
176
     1
290
     0
176
     1
290
     1
176
     1
290
     1
176
     1
290
     0
176
     1
290
     0
176
     1
290
     0
176
     1
290
     0
176
     1
290
     0
176
     1
290
     0
176
     1
 90
       50
176
     1
 40
0.0
176
     1
 40
1.0
176
     1
 90
        0
176
     1
 62
    18
176
     1
 90
       50
176
     1
 90
        3
176
     1
 62
     5
420
      255
176
     1
290
     0
176
     1
 90
       50
176
     1
 90
       50
176
     1
 90
       50
176
     1
290
     0
176
     1
 90
       50
176
     1
 62
   256
176
     0
 40
1.0
176
     0
 90
        2
176
     1
  1
strokes_ogs.tif
176
     1
290
     0
176
     1
 40
1.0
176
     1
 40
1.0
176
     1
  0
VISUALSTYLE
  5
E7
102
{ACAD_REACTORS
330
E6
102
}
330
E6
100
AcDbVisualStyle
  2
Flat
 70
     0
177
     3
291
     1
 70
    58
 90
        2
176
     1
 90
        1
176
     1
 90
        1
176
     1
 90
        2
176
     1
 40
0.6
176
     1
 40
30.0
176
     1
 62
     7
420
 16777215
176
     1
 90
        0
176
     1
 90
        0
176
     1
 62
     7
176
     1
 62
   257
176
     1
 90
        1
176
     1
 90
        1
176
     1
 40
1.0
176
     1
 90
        8
176
     1
 62
     7
176
     1
 40
1.0
176
     1
 90
        1
176
     1
 90
        6
176
     1
 90
        2
176
     1
 62
     7
176
     1
 90
        5
176
     1
 90
        0
176
     1
 90
        0
176
     1
290
     0
176
     1
 90
       13
176
     1
 40
0.0
176
     1
 90
        0
176
     1
290
     0
176
     1
290
     1
176
     1
290
     1
176
     1
290
     0
176
     1
290
     0
176
     1
290
     0
176
     1
290
     0
176
     1
290
     0
176
     1
290
     0
176
     1
 90
       50
176
     1
 40
0.0
176
     1
 40
1.0
176
     1
 90
        0
176
     1
 62
    18
176
     1
 90
       50
176
     1
 90
        3
176
     1
 62
     5
420
      255
176
     1
290
     0
176
     1
 90
       50
176
     1
 90
       50
176
     1
 90
       50
176
     1
290
     0
176
     1
 90
       50
176
     1
 62
   256
176
     0
 40
1.0
176
     0
 90
        2
176
     1
  1
strokes_ogs.tif
176
     1
290
     0
176
     1
 40
1.0
176
     1
 40
1.0
176
     1
  0
VISUALSTYLE
  5
E8
102
{ACAD_REACTORS
330
E6
102
}
330
E6
100
AcDbVisualStyle
  2
FlatWithEdges
 70
     1
177
     3
291
     1
 70
    58
 90
        2
176
     1
 90
        1
176
     1
 90
        1
176
     1
 90
        2
176
     1
 40
0.6
176
     1
 40
30.0
176
     1
 62
     7
420
 16777215
176
     1
 90
        1
176
     1
 90
        0
176
     1
 62
     7
176
     1
 62
   257
176
     1
 90
        1
176
     1
 90
        1
176
     1
 40
1.0
176
     1
 90
        0
176
     1
 62
   257
176
     1
 40
1.0
176
     1
 90
        1
176
     1
 90
        6
176
     1
 90
        2
176
     1
 62
     7
176
     1
 90
        5
176
     1
 90
        0
176
     1
 90
        0
176
     1
290
     0
176
     1
 90
       13
176
     1
 40
0.0
176
     1
 90
        0
176
     1
290
     0
176
     1
290
     1
176
     1
290
     1
176
     1
290
     0
176
     1
290
     0
176
     1
290
     0
176
     1
290
     0
176
     1
290
     0
176
     1
290
     0
176
     1
 90
       50
176
     1
 40
0.0
176
     1
 40
1.0
176
     1
 90
        0
176
     1
 62
    18
176
     1
 90
       50
176
     1
 90
        3
176
     1
 62
     5
420
      255
176
     1
290
     0
176
     1
 90
       50
176
     1
 90
       50
176
     1
 90
       50
176
     1
290
     0
176
     1
 90
       50
176
     1
 62
   256
176
     0
 40
1.0
176
     0
 90
        2
176
     1
  1
strokes_ogs.tif
176
     1
290
     0
176
     1
 40
1.0
176
     1
 40
1.0
176
     1
  0
VISUALSTYLE
  5
E9
102
{ACAD_REACTORS
330
E6
102
}
330
E6
100
AcDbVisualStyle
  2
Gouraud
 70
     2
177
     3
291
     1
 70
    58
 90
        2
176
     1
 90
        2
176
     1
 90
        1
176
     1
 90
        2
176
     1
 40
0.6
176
     1
 40
30.0
176
     1
 62
     7
420
 16777215
176
     1
 90
        0
176
     1
 90
        0
176
     1
 62
     7
176
     1
 62
   257
176
     1
 90
        1
176
     1
 90
        1
176
     1
 40
1.0
176
     1
 90
        0
176
     1
 62
     7
176
     1
 40
1.0
176
     1
 90
        1
176
     1
 90
        6
176
     1
 90
        2
176
     1
 62
     7
176
     1
 90
        5
176
     1
 90
        0
176
     1
 90
        0
176
     1
290
     0
176
     1
 90
       13
176
     1
 40
0.0
176
     1
 90
        0
176
     1
290
     0
176
     1
290
     1
176
     1
290
     1
176
     1
290
     0
176
     1
290
     0
176
     1
290
     0
176
     1
290
     0
176
     1
290
     0
176
     1
290
     0
176
     1
 90
       50
176
     1
 40
0.0
176
     1
 40
1.0
176
     1
 90
        0
176
     1
 62
    18
176
     1
 90
       50
176
     1
 90
        3
176
     1
 62
     5
420
      255
176
     1
290
     0
176
     1
 90
       50
176
     1
 90
       50
176
     1
 90
       50
176
     1
290
     0
176
     1
 90
       50
176
     1
 62
   256
176
     0
 40
1.0
176
     0
 90
        2
176
     1
  1
strokes_ogs.tif
176
     1
290
     0
176
     1
 40
1.0
176
     1
 40
1.0
176
     1
  0
VISUALSTYLE
  5
EA
102
{ACAD_REACTORS
330
E6
102
}
330
E6
100
AcDbVisualStyle
  2
GouraudWithEdges
 70
     3
177
     3
291
     1
 70
    58
 90
        2
176
     1
 90
        2
176
     1
 90
        1
176
     1
 90
        2
176
     1
 40
0.6
176
     1
 40
30.0
176
     1
 62
     7
420
 16777215
176
     1
 90
        1
176
     1
 90
        0
176
     1
 62
     7
176
     1
 62
   257
176
     1
 90
        1
176
     1
 90
        1
176
     1
 40
1.0
176
     1
 90
        0
176
     1
 62
   257
176
     1
 40
1.0
176
     1
 90
        1
176
     1
 90
        6
176
     1
 90
        2
176
     1
 62
     7
176
     1
 90
        5
176
     1
 90
        0
176
     1
 90
        0
176
     1
290
     0
176
     1
 90
       13
176
     1
 40
0.0
176
     1
 90
        0
176
     1
290
     0
176
     1
290
     1
176
     1
290
     1
176
     1
290
     0
176
     1
290
     0
176
     1
290
     0
176
     1
290
     0
176
     1
290
     0
176
     1
290
     0
176
     1
 90
       50
176
     1
 40
0.0
176
     1
 40
1.0
176
     1
 90
        0
176
     1
 62
    18
176
     1
 90
       50
176
     1
 90
        3
176
     1
 62
     5
420
      255
176
     1
290
     0
176
     1
 90
       50
176
     1
 90
       50
176
     1
 90
       50
176
     1
290
     0
176
     1
 90
       50
176
     1
 62
   256
176
     0
 40
1.0
176
     0
 90
        2
176
     1
  1
strokes_ogs.tif
176
     1
290
     0
176
     1
 40
1.0
176
     1
 40
1.0
176
     1
  0
VISUALSTYLE
  5
EE
102
{ACAD_REACTORS
330
E6
102
}
330
E6
100
AcDbVisualStyle
  2
Hidden
 70
     6
177
     3
291
     0
 70
    58
 90
        1
176
     1
 90
        2
176
     1
 90
        2
176
     1
 90
        0
176
     1
 40
0.6
176
     1
 40
30.0
176
     1
 62
     7
420
 16777215
176
     1
 90
        2
176
     1
 90
        2
176
     1
 62
     7
176
     1
 62
   257
176
     1
 90
        2
176
     1
 90
        1
176
     1
 40
40.0
176
     1
 90
        0
176
     1
 62
   257
176
     1
 40
1.0
176
     1
 90
        1
176
     1
 90
        6
176
     1
 90
        2
176
     1
 62
     7
176
     1
 90
        3
176
     1
 90
        0
176
     1
 90
        0
176
     1
290
     0
176
     1
 90
        1
176
     1
 40
0.0
176
     1
 90
        0
176
     1
290
     0
176
     1
290
     1
176
     1
290
     1
176
     1
290
     0
176
     1
290
     0
176
     1
290
     0
176
     1
290
     0
176
     1
290
     0
176
     1
290
     0
176
     1
 90
       50
176
     1
 40
0.0
176
     1
 40
1.0
176
     1
 90
        0
176
     1
 62
    18
176
     1
 90
       50
176
     1
 90
        3
176
     1
 62
     5
420
      255
176
     1
290
     0
176
     1
 90
       50
176
     1
 90
       50
176
     1
 90
       50
176
     1
290
     0
176
     1
 90
       50
176
     1
 62
   256
176
     0
 40
1.0
176
     0
 90
        2
176
     1
  1
strokes_ogs.tif
176
     1
290
     0
176
     1
 40
1.0
176
     1
 40
1.0
176
     1
  0
VISUALSTYLE
  5
1DB
102
{ACAD_REACTORS
330
E6
102
}
330
E6
100
AcDbVisualStyle
  2
JitterOff
 70
    20
177
     3
291
     1
 70
    58
 90
        2
176
     0
 90
        2
176
     0
 90
        0
176
     0
 90
        0
176
     0
 40
0.6
176
     0
 40
30.0
176
     0
 62
     7
420
 16777215
176
     0
 90
        1
176
     0
 90
        4
176
     0
 62
     7
176
     0
 62
   257
176
     0
 90
        1
176
     0
 90
        1
176
     0
 40
1.0
176
     0
 90
       10
176
     2
 62
     7
176
     0
 40
1.0
176
     0
 90
        1
176
     0
 90
        6
176
     0
 90
        2
176
     0
 62
     7
176
     0
 90
        5
176
     0
 90
        0
176
     0
 90
        0
176
     0
290
     0
176
     0
 90
        1
176
     0
 40
0.0
176
     0
 90
        0
176
     0
290
     0
176
     1
290
     1
176
     1
290
     1
176
     1
290
     0
176
     1
290
     0
176
     1
290
     0
176
     1
290
     0
176
     1
290
     0
176
     1
290
     0
176
     1
 90
       50
176
     1
 40
0.0
176
     1
 40
1.0
176
     1
 90
        0
176
     1
 62
    18
176
     1
 90
       50
176
     1
 90
        3
176
     1
 62
     5
420
      255
176
     1
290
     0
176
     1
 90
       50
176
     1
 90
       50
176
     1
 90
       50
176
     1
290
     0
176
     1
 90
       50
176
     1
 62
   256
176
     0
 40
1.0
176
     0
 90
        2
176
     1
  1
strokes_ogs.tif
176
     1
290
     0
176
     1
 40
1.0
176
     1
 40
1.0
176
     1
  0
VISUALSTYLE
  5
F4
102
{ACAD_REACTORS
330
E6
102
}
330
E6
100
AcDbVisualStyle
  2
Linepattern
 70
    14
177
     3
291
     1
 70
    58
 90
        2
176
     1
 90
        2
176
     1
 90
        1
176
     1
 90
        0
176
     1
 40
0.6
176
     1
 40
30.0
176
     1
 62
     7
420
 16777215
176
     1
 90
        1
176
     1
 90
        4
176
     1
 62
     7
176
     1
 62
   257
176
     1
 90
        7
176
     1
 90
        7
176
     1
 40
1.0
176
     1
 90
        8
176
     1
 62
     7
176
     1
 40
1.0
176
     1
 90
        1
176
     1
 90
        6
176
     1
 90
        2
176
     1
 62
     7
176
     1
 90
        5
176
     1
 90
        0
176
     1
 90
        0
176
     1
290
     0
176
     1
 90
        1
176
     1
 40
0.0
176
     1
 90
        0
176
     1
290
     0
176
     1
290
     1
176
     1
290
     1
176
     1
290
     0
176
     1
290
     0
176
     1
290
     0
176
     1
290
     0
176
     1
290
     0
176
     1
290
     0
176
     1
 90
       50
176
     1
 40
0.0
176
     1
 40
1.0
176
     1
 90
        0
176
     1
 62
    18
176
     1
 90
       50
176
     1
 90
        3
176
     1
 62
     5
420
      255
176
     1
290
     0
176
     1
 90
       50
176
     1
 90
       50
176
     1
 90
       50
176
     1
290
     0
176
     1
 90
       50
176
     1
 62
   256
176
     0
 40
1.0
176
     0
 90
        2
176
     1
  1
strokes_ogs.tif
176
     1
290
     0
176
     1
 40
1.0
176
     1
 40
1.0
176
     1
  0
VISUALSTYLE
  5
1DC
102
{ACAD_REACTORS
330
E6
102
}
330
E6
100
AcDbVisualStyle
  2
OverhangOff
 70
    21
177
     3
291
     1
 70
    58
 90
        2
176
     0
 90
        2
176
     0
 90
        0
176
     0
 90
        0
176
     0
 40
0.6
176
     0
 40
30.0
176
     0
 62
     7
420
 16777215
176
     0
 90
        1
176
     0
 90
        4
176
     0
 62
     7
176
     0
 62
   257
176
     0
 90
        1
176
     0
 90
        1
176
     0
 40
1.0
176
     0
 90
        9
176
     2
 62
     7
176
     0
 40
1.0
176
     0
 90
        1
176
     0
 90
        6
176
     0
 90
        2
176
     0
 62
     7
176
     0
 90
        5
176
     0
 90
        0
176
     0
 90
        0
176
     0
290
     0
176
     0
 90
        1
176
     0
 40
0.0
176
     0
 90
        0
176
     0
290
     0
176
     1
290
     1
176
     1
290
     1
176
     1
290
     0
176
     1
290
     0
176
     1
290
     0
176
     1
290
     0
176
     1
290
     0
176
     1
290
     0
176
     1
 90
       50
176
     1
 40
0.0
176
     1
 40
1.0
176
     1
 90
        0
176
     1
 62
    18
176
     1
 90
       50
176
     1
 90
        3
176
     1
 62
     5
420
      255
176
     1
290
     0
176
     1
 90
       50
176
     1
 90
       50
176
     1
 90
       50
176
     1
290
     0
176
     1
 90
       50
176
     1
 62
   256
176
     0
 40
1.0
176
     0
 90
        2
176
     1
  1
strokes_ogs.tif
176
     1
290
     0
176
     1
 40
1.0
176
     1
 40
1.0
176
     1
  0
VISUALSTYLE
  5
F0
102
{ACAD_REACTORS
330
E6
102
}
330
E6
100
AcDbVisualStyle
  2
Realistic
 70
     8
177
     3
291
     0
 70
    58
 90
        2
176
     1
 90
        2
176
     1
 90
        0
176
     1
 90
        2
176
     1
 40
0.6
176
     1
 40
30.0
176
     1
 62
     7
420
 16777215
176
     1
 90
        0
176
     1
 90
        0
176
     1
 62
     7
176
     1
 62
   257
176
     1
 90
        1
176
     1
 90
        1
176
     1
 40
1.0
176
     1
 90
        8
176
     1
 62
   257
176
     1
 40
1.0
176
     1
 90
        1
176
     1
 90
        6
176
     1
 90
        2
176
     1
 62
     7
176
     1
 90
        3
176
     1
 90
        0
176
     1
 90
        0
176
     1
290
     0
176
     1
 90
       13
176
     1
 40
0.0
176
     1
 90
        0
176
     1
290
     0
176
     1
290
     1
176
     1
290
     1
176
     1
290
     0
176
     1
290
     0
176
     1
290
     0
176
     1
290
     0
176
     1
290
     0
176
     1
290
     0
176
     1
 90
       50
176
     1
 40
0.0
176
     1
 40
1.0
176
     1
 90
        0
176
     1
 62
    18
176
     1
 90
       50
176
     1
 90
        3
176
     1
 62
     5
420
      255
176
     1
290
     0
176
     1
 90
       50
176
     1
 90
       50
176
     1
 90
       50
176
     1
290
     0
176
     1
 90
       50
176
     1
 62
   256
176
     0
 40
1.0
176
     0
 90
        2
176
     1
  1
strokes_ogs.tif
176
     1
290
     0
176
     1
 40
1.0
176
     1
 40
1.0
176
     1
  0
VISUALSTYLE
  5
1EA
102
{ACAD_REACTORS
330
E6
102
}
330
E6
100
AcDbVisualStyle
  2
Shaded
 70
    27
177
     3
291
     0
 70
    58
 90
        2
176
     1
 90
        2
176
     1
 90
        1
176
     1
 90
        2
176
     1
 40
0.6
176
     1
 40
30.0
176
     1
 62
     7
420
 16777215
176
     1
 90
        0
176
     1
 90
        4
176
     1
 62
     7
176
     1
 62
   257
176
     1
 90
        1
176
     1
 90
        1
176
     1
 40
1.0
176
     1
 90
        8
176
     1
 62
   257
176
     1
 40
1.0
176
     1
 90
        1
176
     1
 90
        6
176
     1
 90
        2
176
     1
 62
     8
420
  7895160
176
     1
 90
        3
176
     1
 90
        0
176
     1
 90
        0
176
     1
290
     0
176
     1
 90
        5
176
     1
 40
0.0
176
     1
 90
        0
176
     1
290
     0
176
     1
290
     1
176
     1
290
     1
176
     1
290
     0
176
     1
290
     0
176
     1
290
     0
176
     1
290
     0
176
     1
290
     0
176
     1
290
     0
176
     1
 90
       50
176
     1
 40
0.0
176
     1
 40
1.0
176
     1
 90
        0
176
     1
 62
    18
176
     1
 90
       50
176
     1
 90
        3
176
     1
 62
     5
420
      255
176
     1
290
     0
176
     1
 90
       50
176
     1
 90
       50
176
     1
 90
       50
176
     1
290
     0
176
     1
 90
       50
176
     1
 62
   256
176
     0
 40
1.0
176
     0
 90
        2
176
     1
  1
strokes_ogs.tif
176
     1
290
     0
176
     1
 40
1.0
176
     1
 40
1.0
176
     1
  0
VISUALSTYLE
  5
1E9
102
{ACAD_REACTORS
330
E6
102
}
330
E6
100
AcDbVisualStyle
  2
Shaded with edges
 70
    26
177
     3
291
     0
 70
    58
 90
        2
176
     1
 90
        2
176
     1
 90
        1
176
     1
 90
        2
176
     1
 40
0.6
176
     1
 40
30.0
176
     1
 62
     7
420
 16777215
176
     1
 90
        1
176
     1
 90
       10
176
     1
 62
     7
176
     1
 62
   257
176
     1
 90
        2
176
     1
 90
        1
176
     1
 40
1.0
176
     1
 90
        8
176
     1
 62
   257
176
     1
 40
1.0
176
     1
 90
        1
176
     1
 90
        6
176
     1
 90
        2
176
     1
 62
     7
176
     1
 90
        3
176
     1
 90
        0
176
     1
 90
        0
176
     1
290
     0
176
     1
 90
        5
176
     1
 40
0.0
176
     1
 90
        0
176
     1
290
     0
176
     1
290
     1
176
     1
290
     1
176
     1
290
     0
176
     1
290
     0
176
     1
290
     0
176
     1
290
     0
176
     1
290
     0
176
     1
290
     0
176
     1
 90
       50
176
     1
 40
0.0
176
     1
 40
1.0
176
     1
 90
        0
176
     1
 62
    18
176
     1
 90
       50
176
     1
 90
        3
176
     1
 62
     5
420
      255
176
     1
290
     0
176
     1
 90
       50
176
     1
 90
       50
176
     1
 90
       50
176
     1
290
     0
176
     1
 90
       50
176
     1
 62
   256
176
     0
 40
1.0
176
     0
 90
        2
176
     1
  1
strokes_ogs.tif
176
     1
290
     0
176
     1
 40
1.0
176
     1
 40
1.0
176
     1
  0
VISUALSTYLE
  5
1E6
102
{ACAD_REACTORS
330
E6
102
}
330
E6
100
AcDbVisualStyle
  2
Shades of Gray
 70
    23
177
     3
291
     0
 70
    58
 90
        2
176
     1
 90
        2
176
     1
 90
        3
176
     1
 90
        0
176
     1
 40
0.6
176
     1
 40
30.0
176
     1
 62
     7
420
 16777215
176
     1
 90
        2
176
     1
 90
        2
176
     1
 62
     7
176
     1
 62
     7
176
     1
 90
        1
176
     1
 90
        1
176
     1
 40
40.0
176
     1
 90
        8
176
     1
 62
     7
176
     1
 40
1.0
176
     1
 90
        1
176
     1
 90
        6
176
     1
 90
        2
176
     1
 62
     7
176
     1
 90
        3
176
     1
 90
        0
176
     1
 90
        0
176
     1
290
     0
176
     1
 90
        1
176
     1
 40
0.0
176
     1
 90
        0
176
     1
290
     0
176
     1
290
     1
176
     1
290
     1
176
     1
290
     0
176
     1
290
     0
176
     1
290
     0
176
     1
290
     0
176
     1
290
     0
176
     1
290
     0
176
     1
 90
       50
176
     1
 40
0.0
176
     1
 40
1.0
176
     1
 90
        0
176
     1
 62
    18
176
     1
 90
       50
176
     1
 90
        3
176
     1
 62
     5
420
      255
176
     1
290
     0
176
     1
 90
       50
176
     1
 90
       50
176
     1
 90
       50
176
     1
290
     0
176
     1
 90
       50
176
     1
 62
   256
176
     0
 40
1.0
176
     0
 90
        2
176
     1
  1
strokes_ogs.tif
176
     1
290
     0
176
     1
 40
1.0
176
     1
 40
1.0
176
     1
  0
VISUALSTYLE
  5
1E7
102
{ACAD_REACTORS
330
E6
102
}
330
E6
100
AcDbVisualStyle
  2
Sketchy
 70
    24
177
     3
291
     0
 70
    58
 90
        1
176
     1
 90
        2
176
     1
 90
        2
176
     1
 90
        0
176
     1
 40
0.6
176
     1
 40
30.0
176
     1
 62
     7
420
 16777215
176
     1
 90
        2
176
     1
 90
        2
176
     1
 62
     7
176
     1
 62
     7
176
     1
 90
        1
176
     1
 90
        1
176
     1
 40
40.0
176
     1
 90
       11
176
     1
 62
     7
176
     1
 40
1.0
176
     1
 90
        1
176
     1
 90
        6
176
     1
 90
        2
176
     1
 62
     7
176
     1
 90
        6
176
     1
 90
        0
176
     1
 90
        0
176
     1
290
     0
176
     1
 90
        1
176
     1
 40
0.0
176
     1
 90
        0
176
     1
290
     0
176
     1
290
     1
176
     1
290
     1
176
     1
290
     0
176
     1
290
     0
176
     1
290
     0
176
     1
290
     0
176
     1
290
     0
176
     1
290
     0
176
     1
 90
       50
176
     1
 40
0.0
176
     1
 40
1.0
176
     1
 90
        0
176
     1
 62
    18
176
     1
 90
       50
176
     1
 90
        3
176
     1
 62
     5
420
      255
176
     1
290
     0
176
     1
 90
       50
176
     1
 90
       50
176
     1
 90
       50
176
     1
290
     0
176
     1
 90
       50
176
     1
 62
   256
176
     0
 40
1.0
176
     0
 90
        2
176
     1
  1
strokes_ogs.tif
176
     1
290
     0
176
     1
 40
1.0
176
     1
 40
1.0
176
     1
  0
VISUALSTYLE
  5
F3
102
{ACAD_REACTORS
330
E6
102
}
330
E6
100
AcDbVisualStyle
  2
Thicken
 70
    13
177
     3
291
     1
 70
    58
 90
        2
176
     1
 90
        2
176
     1
 90
        1
176
     1
 90
        0
176
     1
 40
0.6
176
     1
 40
30.0
176
     1
 62
     7
420
 16777215
176
     1
 90
        1
176
     1
 90
        4
176
     1
 62
     7
176
     1
 62
   257
176
     1
 90
        1
176
     1
 90
        1
176
     1
 40
1.0
176
     1
 90
       12
176
     1
 62
     7
176
     1
 40
1.0
176
     1
 90
        1
176
     1
 90
        6
176
     1
 90
        2
176
     1
 62
     7
176
     1
 90
        5
176
     1
 90
        0
176
     1
 90
        0
176
     1
290
     0
176
     1
 90
        1
176
     1
 40
0.0
176
     1
 90
        0
176
     1
290
     0
176
     1
290
     1
176
     1
290
     1
176
     1
290
     0
176
     1
290
     0
176
     1
290
     0
176
     1
290
     0
176
     1
290
     0
176
     1
290
     0
176
     1
 90
       50
176
     1
 40
0.0
176
     1
 40
1.0
176
     1
 90
        0
176
     1
 62
    18
176
     1
 90
       50
176
     1
 90
        3
176
     1
 62
     5
420
      255
176
     1
290
     0
176
     1
 90
       50
176
     1
 90
       50
176
     1
 90
       50
176
     1
290
     0
176
     1
 90
       50
176
     1
 62
   256
176
     0
 40
1.0
176
     0
 90
        2
176
     1
  1
strokes_ogs.tif
176
     1
290
     0
176
     1
 40
1.0
176
     1
 40
1.0
176
     1
  0
VISUALSTYLE
  5
ED
102
{ACAD_REACTORS
330
E6
102
}
330
E6
100
AcDbVisualStyle
  2
Wireframe
 70
     5
177
     3
291
     0
 70
    58
 90
        0
176
     1
 90
        2
176
     1
 90
        0
176
     1
 90
        0
176
     1
 40
0.6
176
     1
 40
30.0
176
     1
 62
     7
420
 16777215
176
     1
 90
        1
176
     1
 90
        4
176
     1
 62
     7
176
     1
 62
   257
176
     1
 90
        1
176
     1
 90
        1
176
     1
 40
1.0
176
     1
 90
        0
176
     1
 62
   257
176
     1
 40
1.0
176
     1
 90
        1
176
     1
 90
        6
176
     1
 90
        2
176
     1
 62
     7
176
     1
 90
        3
176
     1
 90
        0
176
     1
 90
        0
176
     1
290
     0
176
     1
 90
        1
176
     1
 40
0.0
176
     1
 90
        0
176
     1
290
     0
176
     1
290
     1
176
     1
290
     1
176
     1
290
     0
176
     1
290
     0
176
     1
290
     0
176
     1
290
     0
176
     1
290
     0
176
     1
290
     0
176
     1
 90
       50
176
     1
 40
0.0
176
     1
 40
1.0
176
     1
 90
        0
176
     1
 62
    18
176
     1
 90
       50
176
     1
 90
        3
176
     1
 62
     5
420
      255
176
     1
290
     0
176
     1
 90
       50
176
     1
 90
       50
176
     1
 90
       50
176
     1
290
     0
176
     1
 90
       50
176
     1
 62
   256
176
     0
 40
1.0
176
     0
 90
        2
176
     1
  1
strokes_ogs.tif
176
     1
290
     0
176
     1
 40
1.0
176
     1
 40
1.0
176
     1
  0
VISUALSTYLE
  5
1E8
102
{ACAD_REACTORS
330
E6
102
}
330
E6
100
AcDbVisualStyle
  2
X-Ray
 70
    25
177
     3
291
     0
 70
    58
 90
        2
176
     1
 90
        2
176
     1
 90
        1
176
     1
 90
        1
176
     1
 40
0.5
176
     1
 40
30.0
176
     1
 62
     7
420
 16777215
176
     1
 90
        1
176
     1
 90
        0
176
     1
 62
     7
176
     1
 62
   257
176
     1
 90
        1
176
     1
 90
        1
176
     1
 40
1.0
176
     1
 90
        8
176
     1
 62
     7
176
     1
 40
1.0
176
     1
 90
        1
176
     1
 90
        6
176
     1
 90
        2
176
     1
 62
     7
176
     1
 90
        3
176
     1
 90
        0
176
     1
 90
        0
176
     1
290
     0
176
     1
 90
       13
176
     1
 40
0.0
176
     1
 90
        0
176
     1
290
     0
176
     1
290
     1
176
     1
290
     1
176
     1
290
     0
176
     1
290
     0
176
     1
290
     0
176
     1
290
     0
176
     1
290
     0
176
     1
290
     0
176
     1
 90
       50
176
     1
 40
0.0
176
     1
 40
1.0
176
     1
 90
        0
176
     1
 62
    18
176
     1
 90
       50
176
     1
 90
        3
176
     1
 62
     5
420
      255
176
     1
290
     0
176
     1
 90
       50
176
     1
 90
       50
176
     1
 90
       50
176
     1
290
     0
176
     1
 90
       50
176
     1
 62
   256
176
     0
 40
1.0
176
     0
 90
        2
176
     1
  1
strokes_ogs.tif
176
     1
290
     0
176
     1
 40
1.0
176
     1
 40
1.0
176
     1
  0
DICTIONARYVAR
  5
13D
102
{ACAD_REACTORS
330
67
102
}
330
67
100
DictionaryVariables
280
     0
  1
1:1
  0
DICTIONARYVAR
  5
13C
102
{ACAD_REACTORS
330
67
102
}
330
67
100
DictionaryVariables
280
     0
  1
STANDARD
  0
DICTIONARYVAR
  5
C5
102
{ACAD_REACTORS
330
67
102
}
330
67
100
DictionaryVariables
280
     0
  1
STANDARD
  0
DICTIONARYVAR
  5
21E
102
{ACAD_REACTORS
330
67
102
}
330
67
100
DictionaryVariables
280
     0
  1
Metric50
  0
DICTIONARYVAR
  5
21F
102
{ACAD_REACTORS
330
67
102
}
330
67
100
DictionaryVariables
280
     0
  1
Metric50
  0
DICTIONARYVAR
  5
68
102
{ACAD_REACTORS
330
67
102
}
330
67
100
DictionaryVariables
280
     0
  1
2
  0
DICTIONARYVAR
  5
6C
102
{ACAD_REACTORS
330
67
102
}
330
67
100
DictionaryVariables
280
     0
  1
1
  0
DICTIONARYVAR
  5
1A5
102
{ACAD_REACTORS
330
67
102
}
330
67
100
DictionaryVariables
280
     0
  1
0
  0
DICTIONARYVAR
  5
1A6
102
{ACAD_REACTORS
330
67
102
}
330
67
100
DictionaryVariables
280
     0
  1
0
  0
DICTIONARY
  5
8AE
330
213
100
AcDbDictionary
280
     1
281
     1
  3
ACAD_XREC_ROUNDTRIP
360
A20
  0
DICTIONARY
  5
1FC
330
22
100
AcDbDictionary
280
     1
281
     1
  0
DICTIONARY
  5
1F0
330
E4
100
AcDbDictionary
280
     1
281
     1
  3
FBXASSET
360
1F1
  0
DICTIONARY
  5
1EE
330
E3
100
AcDbDictionary
280
     1
281
     1
  3
FBXASSET
360
1EF
  0
DICTIONARY
  5
16A
330
E5
100
AcDbDictionary
280
     1
281
     1
  3
BUMPTILE
360
16C
  3
DIFFUSETILE
360
16B
  3
FBXASSET
360
1F2
  3
OPACITYTILE
360
16D
  3
REFLECTIONTILE
360
16E
  0
DICTIONARY
  5
8AC
330
211
100
AcDbDictionary
280
     1
281
     1
  3
ACAD_XREC_ROUNDTRIP
360
A1F
  0
DICTIONARY
  5
159
330
98
100
AcDbDictionary
280
     1
281
     1
  3
ACAD_ROUNDTRIP_2008_TABLESTYLE_CELLSTYLEMAP
360
A1E
  0
XRECORD
  5
A20
102
{ACAD_REACTORS
330
8AE
102
}
330
8AE
100
AcDbXrecord
280
     1
102
DISPLAYNAME
  1
Metric50
102
FLAGS
 90
        0
  0
XRECORD
  5
1F1
102
{ACAD_REACTORS
330
1F0
102
}
330
1F0
100
AcDbXrecord
280
     1
 70
     1
 90
429727718
  1
F226E010-5D7B-4EF0-9E0F-00A2E58668EA
310
504B03040A0000080000C270623B3DEE336E79000000790000001B0000006175746F6465736B2D64657369676E2D7061636B6167652E786D6C3C3F786D6C2076657273696F6E3D22312E302220656E636F64696E673D227574662D3822203F3E3C666F726D6174733E3C666F726D61743E687474703A2F2F736368656D612E
310
6175746F6465736B2E636F6D2F64657369676E2D7061636B6167652F323030393C2F666F726D61743E3C2F666F726D6174733E504B0304140006080800C270623BD486FD9CA0000000F4000000130000005B436F6E74656E745F54797065735D2E786D6C7D8EC10E82300C865F65E91D8A1E8C310C0EEA1BF002731658846E
310
D98AC1B77784ABF1D8FE5FBFBF75BBCE937A534CCEB38643598122B6FEE978D0B0485F9C41B54DDD7D022595594E1A469170414C76A4D9A4D207E29CF43ECE46F218070CC6BECC4078ACAA135ACF422C856C0E68EA1BF5669944DDD7BCDE7B1F8E415D77AECB980613C2E4AC91FC167A2B244592486606FC29C8FD7F045B9A
310
EF7053A7E60B504B0304140006080800C270623B132FA9F8EA0000007C01000008000000636F72652E786D6C8D90DD6EC3200C855F05F976223169D2D18850ADDDF6047B010434436D200A30EDF147FA236D77BBB2757C3EDB3A62FF3D5DC8975DA20B7E00562110EB7530CE8F03E474A21CC85E8A2584F4CB06C4ABC90EB0
310
CA20C5B8843CDF251D7CB23E15D50763EFA28AD12620FA529A01A2FEB493AA544EC511CFD5ACF4598DB6628FAEC0393B436E479C29FBDCC9D905E486BFBF1D5ED8336D78D7D2961F90F2233FD2572C8316D9B6EB1A51AFB014C94D8FFB7AB12A5903B241DC51C628361FACED71DB63FB84BC4714F56AFF03E5D9FC13CACEA7
310
4D737FF7864590AC3C721D4851AF5994720DAAD43537F903504B0304140006080800C270623B55019EA25F0000007C00000007000000636E782E786D6C4DCB3B0E80201045D1AD90E915ED2CF8AC45050C11660C8261F98AB1B07AC9C97D42D718D865D3E909258CFD00CCE24AC6E326A164D74DC0B4128928FF326038472B
310
A13128B1252AC747C6BAB984FC68F0B87FE8960A5C09FE86CFB69FBA01504B0304140006080800C270623B0B97CEAB6F010000D40300000C0000006662782F636F72652E786D6CC553ED6E8320147D15C2DF05416B3BD720CDDA6D4FB017A04A1DA98241307DFC5D3F9AAE4BB774BFE60F25E7DCCB3DE7207C736A6AD42BD7
310
696B721C470C23650A5B6A53E538F803C930DA08EEACF55FCA3032B251391E602C78E56C6867A8B0C62BE30135B6543328BB4E798C8A1A1639EE8A0FD5C848060F15DD316A657194958AE20868A813BCF30E04A069C8F0C6E2B03F713AE18287A0CB99D5254CD307AD1C168BECED75FB1C3F92245BA624CDB68C64BB6C475E
310
1810298B57CB65C2E9D02CB8D7CD595DE194F4AAC42261EC89C43161C97B9CAED96ACDD20796AD19E37428BF6A0A6D796753D0C62F9259EED4D66111839091F8E61622F2A8933DE8A182D32144F88C095F070D8140C85EEEEBB38F2340BD2ABC752930A50D17AA9775503095456C7CD0CF0B4EA74E983A6E0EAE6FCE48EE9E
310
F1FB8E70D4D25460427A58EE831F74F249C31C5AAB1CE9FD0919EB1A59DF67E317877FA22EE26F4A2A6C6DDD7F29A2F301D1F9F7A0C37D149F504B0304140006080800C270623BD9317DDA7D0000009D0000000B0000006662782F636E782E786D6C4DCCD10AC2201886E15B91FFDC966B53037588D27D8CE686E4344CA3CB
310
6F8B1D74F4C1C3C72B86CF1AD0DBE5974F5102399D01B9784F938F8B845A66CC010D4AE494CADF0D501C572761675062C9A93E0F9ADC3CD650360D3E3E0E34BDE1DA901EDFAE96E18ED00E6BC65A6C29B78651DEB28B864689E657DA760FAB2F504B0304140006080800C270623B609261632A010000120200003100000066
310
62782F43354338414331352D463944372D343136342D413737322D4436384443373638323733412F636F72652E786D6C8D515B6EC32010BC0AE22B55850D0E7E24C24491A39EA0172086A42831583CAA1CBF503B52FB971F16CDCECC0E2C3B3CA63BF856CE6B6B7A480A0C8132A395DA5C7B18C30575101C3873D6863F3408
310
8C98540F330C39BB3A1BE7151AAD09CA84841A2BD50A0AEF558060BCA74B0FFDF8A52651881812C3DF8A598C3771550529523BF138F3C1A5006019924FC8877AE88E03A9D1C7EED4224A1A8A8E6D5BA153D39D86B6E9AA767B64E522E42C462D57B996298EBE68E55E35C962CE829E9EF147A7445012F20AE31D2204E1EA93
310
D03D6EF698BEE36E8F312B33FD9F28CEF24551D4266CAB35EE22F39013562E0DCEA48DE7FB338C7ACCD60590E76DBC1ADF20C705C635D951562EC4F4FCE4D8D0D5D107EBD2F76E6EE7C425F562DB50CECABCA1547ED7976ADE26FF01504B0304140006080800C270623BAB1CAE584E01000033030000300000006662782F43
310
354338414331352D463944372D343136342D413737322D4436384443373638323733412F636E782E786D6CD593CD6EC32010845F0571AD6CE3D48AD20813A9873E410FBD12D82434182C7EAAE6EDBB2424CD25871E7B41D6EC30B3FA84F9E67BB2E40B4234DE8DB46F1925E094D7C6ED479AD3AE5951B2113C789FEE6C9438
310
39C1488B4C05DF079FE72A69D8C96C13AAD6B8631503449F83828872B949AC57D26200B826A308D316B4064D6E46FCDA41C05550DC9E483A00797BFD207EFB092A45DE9514C1BBD22178396BD39D891265658C238DEA00936C654E5E433CB65A26D9F6EDB5EBC14EBF49A45CB856E66048291F6939A9A81BB5C8917738143C
310
A680F4AA299D66A042CEB3354A2684DC9D8D178FE0D9B8B41CAAD720F880EE7EF93C0C18769E099ECC04D5A102C8049A8A05632F4DDF376CF1DE0F6BB65CB3E189ADD68CF1AED805DF7A6FEB258C81E067A2BC4BE012153DEFCAF811BEEA23DA0464EDC3E90F2011406DBDD0B965FC673EDDF97D23AE807F81F801504B0304
310
140006080800C270623BCB23EE24670500003C100000340000006662782F43354338414331352D463944372D343136342D413737322D4436384443373638323733412F6F626A656374732E786D6CAD575B8F9B3818FD2B887DE69664A6332B866A72ABA26ADAAA51AB7D182932E030EC0046B69966F6D7EF31180224D3662F
310
7908D8D8DFF57CC79FFDF7873C335E2817292BEE4CCF764D8316118BD322B9332BB9B76E4CE37DE073C6646F99691424A777A69A36033FE1AC2AF5544CF7A4CAE468763DFFC310112DA869441911E2CE14D113CD894D2AC9622A9EED98486227FB83EDD9CDC2A1D88493F26924B4249C16129662BE8014A331CA1B0E5DD309
310
7C477D0F7CF5AF574DDF5EE5D4FE0CF5A78590A4884E948DC44CBDD97235B9BAB5AE66B3A935BB9E78D67C3D5F5ADEBBA9BBB85E2C6EEF57B7502C2487246D09A77B33F880D8F034F29DE65367B136FC9C49112B0A1AD5FEC3C3DA662D31A6252D62E431A502DA7A5EBBC3A1A762D3FB3C5563ADB23F7D9957FD1D3D41ADED
310
EDB36F290BFF840BE21254704115AA9AF868471BFCB9C7A8858C65FA5B2A8C9C48CA539219591A72C25FCD004BD592C01F8851E8E40AE1CA0333F08EF2FAB6A2347E8DDD7356EEAB2C53D034831AD93BE09F4A515B96FE45F9796DB009B9AAD242DE6887E46B49CDE0D677EAC9C0578FE9447F6C0269EC339220E570B3F93A
310
7274A16A6FB334838FEBF0B055F5785E79C95949B954F001B4DAC4B54F1525ADD6BB28736A039C19C4FC1894AF88FC2794EFD114E48DA787D961A6B5484E0AB1673C476E6CB7FE196EFB62756FA72FE0B3D1EAD335DDCCBF5AEC3B9DB143C2782B7F00974ACDCD7FCFDF30667DA4F6D217F82F2830C6A73A94DB8864A09E87
310
B4404214288D8C610A5CBE0F0F66B0015382D9B18B644117909317DF79C177FC37B2C156B5FADEB34042477C7B01F323967559C0B637C072C293B562EDDC5B31BFFA5F6AE67EB9FDB8ADF89E44F44113CB92EED32295383B8FE0ED1B3448C4C0A367FAFA83F1188E9E2661DB4F42AE5509445BC55C053E690F0B35386A1E28
310
88B02F618AF3FC5F6878484544B38C149455AD96EE185258ED4846F709A8C226A0D3C908C59CBEA4AA9318AC189885B33EE269A942D61D7A1D4FDB6FF8F26DF309A03483F9EB1C687D3EAE0A8F741FB18CF15DF8BA6B98D004F8B06788EEEF4378EB883A4A0A105F63B9A51C1DE25D9CEEF79500EF9E89E2F7CDA29FA98E48
310
4E5FDA026A35363539033BA3F608D7F06D75A221E004073B2B76298E7194E559E57DDD6305A296FB86FCB0CACB1DC95955C84BC2E4B6FEB4D677C2FB5D8CF84164F46406DBFA69CD41D9318D8FA91AA0401D41677C1AA4673D995CAF5CCFB5AE96EFE6D66CB576ADDB95BBB65CF77EB2BABAB9BEBE59DD7716D596047E7B42
310
F56B10D1C489E8573CD561FEB63996AD193C10299C0F4D413949F3FCB6B1D116FB0EF600E0DDC64D5E6634A785240ABE0FEA25FB4AD0550C6434F39B9C24F402299F3F6C473660E6827D5F54A9D11FA3BD7A76A16AE1AC10F954E56141D26CB4513B6E9745A2DD6E43D93D1B466F876AA4E3893E54B02C8D4138B191509653
310
09DAB980ED794E0510D3EFCA637D7BB860F74BD30F4A1266B4B5E489A025CE04500DB855911CCE1BBFA185535DD49D89C3CE7EC69F2E44D340AAEF4CF09B4C232AEC10C7A36A7C6AE18000BAB08E0401355224193AEB665337EE76A9D8807E70026AFDDD924BBA25EDD7807873529638B507B45ADBA61544FFC8F1D61C8348
310
BC8695EC7C394E74CED46A50598D53FA6E8016E259AB3EA0BE7EEE9667D76B0611B9E89EF4531034522D497852DF0B947DDAA4FBE51707AD80B1F96C9459952097974BB23805982B55E0401150A165964402AA8BDF1FBF7086BB686EAC5340E071C1F29C157A70AFEFB2C6F60937D3F811B440D5F5434C5CCF7BACBB7E7D11
310
D98544509BC4E219136DC1290F465803204F8E539D0247E560B47CB334F4813183D01AB4274D69730D37503CEAE6A84AA54F96E54F1B7FA75E0A3070B4ECC1DF504B0304140006080000C270623B000000000000000000000000350000006662782F43354338414331352D463944372D343136342D413737322D4436384443
310
373638323733412F76657274696365732E62696E504B0304140006080800C270623BF270F1330600000004000000360000006662782F43354338414331352D463944372D343136342D413737322D4436384443373638323733412F747269616E676C65732E62696E636660600000504B0304140006080000C270623B000000
310
000000000000000000370000006662782F43354338414331352D463944372D343136342D413737322D4436384443373638323733412F617474726962757465732E62696E504B0304140006080800C270623B08DA0BD19000000041010000360000006662782F43354338414331352D463944372D343136342D413737322D44
310
36384443373638323733412F6469726563746F72792E786D6C858F410AC3201045AF22B36F53E9A60B35CBEEBAE80D244E44489C6234F4F835464A48035D0DF398FF9F8AF63D0E6CC63039F212F8F9020C7D47C6792B21C5FE7403D62A1188E2E60C98D7234A5830286103A55745067B9D86B8A3CF9C7F90C11DE607FB1443
310
96D7B6A82D282E9A152AD114D5EF2CB866EEE831B8EEA07A7BB5A8D7D61A2BAAEB7FD5F70921FF497D00504B0304140006080800C270623B00848760FC000000A00100003B0000006662782F43354338414331352D463944372D343136342D413737322D4436384443373638323733412F7265736F75726365732F636F7265
310
2E786D6C8D504B6E833010BD0A9A6D65B009201719474DDA9EA017B0CC84580936F2A7EAF16B0295DA5D3733A3F7D13C3D71FC9AEFC527FA609C1D8095140AB4DA8DC64E03A478211C8AA314DEB9F84B068555330EB0C220C5E45D5A76483B1BD1C68C5A37E20EAA103042A1EFF91820E82BCEAA54296645B8958BD2373561
310
C9CA4C679D1421FA1CA0D89EAC13A4C7E092D71844B5B152A464C65D63C6FCD35C0C7A9007FEFE767A611DA979DB90869F28E1677E26AF34130D655DDBD6A25ACD524433FF64D41E55C411644DE933618CD0FA83353DED7ADA3C51DE532AAA55FEC79496F19FA6646C3CD47BDCCD1640B21CE4414851AD7DE5F52833EFB55B
310
F90D504B010214000A0000080000C270623B3DEE336E79000000790000001B00000000000000000000000000000000006175746F6465736B2D64657369676E2D7061636B6167652E786D6C504B01021400140006080800C270623BD486FD9CA0000000F40000001300000000000000000000000000B20000005B436F6E7465
310
6E745F54797065735D2E786D6C504B01021400140006080800C270623B132FA9F8EA0000007C010000080000000000000000000000000083010000636F72652E786D6C504B01021400140006080800C270623B55019EA25F0000007C000000070000000000000000000000000093020000636E782E786D6C504B0102140014
310
0006080800C270623B0B97CEAB6F010000D40300000C00000000000000000000000000170300006662782F636F72652E786D6C504B01021400140006080800C270623BD9317DDA7D0000009D0000000B00000000000000000000000000B00400006662782F636E782E786D6C504B01021400140006080800C270623B609261
310
632A010000120200003100000000000000000000000000560500006662782F43354338414331352D463944372D343136342D413737322D4436384443373638323733412F636F72652E786D6C504B01021400140006080800C270623BAB1CAE584E010000330300003000000000000000000000000000CF0600006662782F43
310
354338414331352D463944372D343136342D413737322D4436384443373638323733412F636E782E786D6C504B01021400140006080800C270623BCB23EE24670500003C10000034000000000000000000000000006B0800006662782F43354338414331352D463944372D343136342D413737322D44363844433736383237
310
33412F6F626A656374732E786D6C504B01021400140006080000C270623B0000000000000000000000003500000000000000000000000000240E00006662782F43354338414331352D463944372D343136342D413737322D4436384443373638323733412F76657274696365732E62696E504B01021400140006080800C270
310
623BF270F13306000000040000003600000000000000000000000000770E00006662782F43354338414331352D463944372D343136342D413737322D4436384443373638323733412F747269616E676C65732E62696E504B01021400140006080000C270623B00000000000000000000000037000000000000000000000000
310
00D10E00006662782F43354338414331352D463944372D343136342D413737322D4436384443373638323733412F617474726962757465732E62696E504B01021400140006080800C270623B08DA0BD190000000410100003600000000000000000000000000260F00006662782F43354338414331352D463944372D343136
310
342D413737322D4436384443373638323733412F6469726563746F72792E786D6C504B01021400140006080800C270623B00848760FC000000A00100003B000000000000000000000000000A1000006662782F43354338414331352D463944372D343136342D413737322D4436384443373638323733412F7265736F757263
310
65732F636F72652E786D6C504B0506000000000E000E00800400005F1100000000
  0
XRECORD
  5
1EF
102
{ACAD_REACTORS
330
1EE
102
}
330
1EE
100
AcDbXrecord
280
     1
 70
     1
 90
429727718
  1
E2304D28-6187-4406-84E4-1B0A0969D8AC
310
504B03040A0000080000C270623B3DEE336E79000000790000001B0000006175746F6465736B2D64657369676E2D7061636B6167652E786D6C3C3F786D6C2076657273696F6E3D22312E302220656E636F64696E673D227574662D3822203F3E3C666F726D6174733E3C666F726D61743E687474703A2F2F736368656D612E
310
6175746F6465736B2E636F6D2F64657369676E2D7061636B6167652F323030393C2F666F726D61743E3C2F666F726D6174733E504B0304140006080800C270623BD486FD9CA0000000F4000000130000005B436F6E74656E745F54797065735D2E786D6C7D8EC10E82300C865F65E91D8A1E8C310C0EEA1BF002731658846E
310
D98AC1B77784ABF1D8FE5FBFBF75BBCE937A534CCEB38643598122B6FEE978D0B0485F9C41B54DDD7D022595594E1A469170414C76A4D9A4D207E29CF43ECE46F218070CC6BECC4078ACAA135ACF422C856C0E68EA1BF5669944DDD7BCDE7B1F8E415D77AECB980613C2E4AC91FC167A2B244592486606FC29C8FD7F045B9A
310
EF7053A7E60B504B0304140006080800C270623B6C505844EA0000007C01000008000000636F72652E786D6C8D90416EC3201045AF82665B61834B1DC7C244B5EB1BF402088883128365A0EAF18B13476A775DCDE8CF7F33A3CF4FDFF30D7D993558EF3AA00501649CF2DABAA98314CFB80174127CF53EFEB2017272361D6C
310
32083EAD3E2DBBA4BC8BC6C5AC3AAFCD2ECA104C04A46EB9E920A88B99652153CC8E702D16A9AE7232057D76194EC96AF4386275DE67CFD6AC20081DC7633D50FCC1688F197BA3F8FD30F6781846D2B3C3D83475C5CB0D163CDAF9795FAD4646A34154841C31A598549F94B5A46E097B214D4B082F37FB1F282DFA9F50B22E
310
BE56FBBB0F2C80A0F991FB40F072CB22977B50B96EB9891F504B0304140006080800C270623B55019EA25F0000007C00000007000000636E782E786D6C4DCB3B0E80201045D1AD90E915ED2CF8AC45050C11660C8261F98AB1B07AC9C97D42D718D865D3E909258CFD00CCE24AC6E326A164D74DC0B4128928FF326038472B
310
A13128B1252AC747C6BAB984FC68F0B87FE8960A5C09FE86CFB69FBA01504B0304140006080800C270623B85AE40E170010000D40300000C0000006662782F636F72652E786D6CC553ED6E8320147D15C2DF4501E7FA15A4593BDF602F40913A53058360FAF8BB7E345D976EE97ECD1F4ACEB9977BCE41F8F6DCD4A8D7AEAB
310
ACC9308B2946DA285B54A6CC70F0C76885D1567067ADFF528691918DCEF00063C14B67433B43CA1AAF8D07D4D842CFA0EC3AED3152352C32DCA90FDDC858060F15DD296EA53AC952C72C061AEA04EFBC0301681A32BCB1381ECE9C4CB8E02154C5CC56054CAB8E9576585096E7EBC59E456F29DB4569FAC2A2D765BE8BF6FB
310
9CEED265BE5A2D124E8666C17DD55CD429A7A5D7051609A5EB88B18826EF2CDDD0C586A64F74B5A19493A1FCA629B4C5834DA132FE3999E54E6D1D160C848CC437B71091479DEC410F119C0C21C2674CF83668080442F6F2505F7C9C00EAB5F2D6A5C014365CA95ED641C3541AD3F1413F2F38993A61EAB839B8BE3B237978
310
C6EF3BC2514B538209E96179087ED0C9270D7368AD7651EFCFC858D7C8FA311BBF38FC1375157F5792B2B575FFA588CC0744E6DF830CF7517C02504B0304140006080800C270623BD959F09C7C0000009D0000000B0000006662782F636E782E786D6C4DCCD10A83201886E15B91FFDC4A2BF0400D0BBD8F581632D3E13476
310
F9ABD1C18E3E78F878F9F0D93D3A6C7ABB180490AA0164C3232E2E6C024A5E310334489E62CC7F374061DEAD808B41F22DC5F2BA69B1EB5C7C3ED5BBF0BCB11F29514A1BACD44471C74C8BC7C968CC28D13D316DC71A06B5E4F5AF74EE15965F504B0304140006080800C270623BD97BE6F829010000120200003100000066
310
62782F35423231414145462D414143322D343846332D424346452D3832314535314633343830382F636F72652E786D6C8D515B6EC32010BC0AE22B55850D0E8EDC081339517C825E8018E2A2C460F1A872FC42ED48ED5F7E58343B333BB0ECF098EEE05B39AFAD6921293004CA0C566A33B630862B6A203870E6AC0D7F6810
310
1831A916661872363A1BE7151AAC09CA84841A2BD50A0AEF558060B8A74B0BFDF0A52651881812C3DF8A590C3731AA8214A99D789CF9E05200B00CC927E4F5B1225D77EE51D79D2A449B7E8B8EA7FE8C9A8A9C6BD26F69831B562E42CE62D472956B99E2E8AB56EE55932CE62CE8E9197F704A042521AF30FE4084205C7D12
310
BAC7BB3DA6EFB8D963CCCA4CFF278AB37C5114B509DB6A8DBBC83CE484954B833369E3E5FE0CA31EB37501E4791BAF8637C87181714D680AB110D3F393E38EAE8E3E5897BE7773BB242EA917DB1DE5ACCC1B4AE5777DA9E66DF21F504B0304140006080800C270623BAB1CAE584E01000033030000300000006662782F3542
310
3231414145462D414143322D343846332D424346452D3832314535314633343830382F636E782E786D6CD593CD6EC32010845F0571AD6CE3D48AD20813A9873E410FBD12D82434182C7EAAE6EDBB2424CD25871E7B41D6EC30B3FA84F9E67BB2E40B4234DE8DB46F1925E094D7C6ED479AD3AE5951B2113C789FEE6C943839
310
C1488B4C05DF079FE72A69D8C96C13AAD6B8631503449F83828872B949AC57D26200B826A308D316B4064D6E46FCDA41C05550DC9E483A00797BFD207EFB092A45DE9514C1BBD22178396BD39D891265658C238DEA00936C654E5E433CB65A26D9F6EDB5EBC14EBF49A45CB856E66048291F6939A9A81BB5C8917738143CA6
310
80F4AA299D66A042CEB3354A2684DC9D8D178FE0D9B8B41CAAD720F880EE7EF93C0C18769E099ECC04D5A102C8049A8A05632F4DDF376CF1DE0F6BB65CB3E189ADD68CF1AED805DF7A6FEB258C81E067A2BC4BE012153DEFCAF811BEEA23DA0464EDC3E90F2011406DBDD0B965FC673EDDF97D23AE807F81F801504B030414
310
0006080800C270623B086A6785630500003C100000340000006662782F35423231414145462D414143322D343846332D424346452D3832314535314633343830382F6F626A656374732E786D6CAD575D739B3814FD2B0CFB0C189BA4CE0EA193D849C6D34DDBA9A79D7DC88C47804CD8006224913AFDF57B040203B65BEF87
310
1F0C12D2FD3CF7E8CA7FBFCB33E3957291B2E2DA74ED8969D02262715A24D76625B7D6DC34DE073E674CF696994641727A6DAA6933F013CEAA524FC5744BAA4C8E66EF6FFF3444440B6A1A514684B83645F44C7362934AB2988A173B2692D8C97667BB76B3702836E1A47C1E092D09A78584A5982F20C5688C7287C389E904
310
BEA3BE07BEFAD7AB66A75739B53F43FD69212429A20365233133D75BDE4D2FAEAC0BCF9B59DEE5D4B56EEF6F9796FB6E36595C2E1657377757502C2487246D09A75B3378406C781AF94EF3A9B3581B7ECCA48815058D6AFFE1616DB39618D3921631F29852016D3DAF27C3A1AB62D3FB3C5363ADB23F7D9E57FD1D3D41ADED
310
EDB36F290BFF820BE21C54704115AA9AF868471BFC4DF6510B19CBF4B75418399194A72433B234E484BF990196AA25813F10A3D0C915C2950766E0EEE5F56D4569FC1ABBC7ACDC5659A6A0690635B237C03F95A2B62CFD41F9716DB009B9AAD242CEB543F2ADA46670E53BF564E0ABC76CAA3F368134B619499072B8D97C1D
310
39BA50B5B75A9AC187FB70B756F5785C79C95949B954F001B4DAC4B54F1525ADD63D2B736A039C19C47C1F942F88FC4794EFDE14E48DA73B6FE7692D9293426C19CF911B7B52FF8C49FB62756F872FE0B3D1EAC335DDCCBF5AEC3B9DB143C238953F804BA566FEDFF3378C591FA9BDF405FE2B0A8CF1990EE53A2219A8E731
310
2D9010054A23639802976FC39D19ACC0946076EC2259D005E4E0C5775EF11DFF8D6CB055ADBEF72C90D011DF9EC1FC88655D16B0ED04580E78B256AC9D3B15F38BFFA5666E96EB0FEB8A6F49441F35B12CE9362D5289B3730FDEBE4183440C3C7AA16FDF198FE1E86112D6FD24E45A9540B455CC55E093F6B05083BDE68182
310
08FB12A638CFFF8586C7544434CB484159D56AE98E2185D58E64749F802A6C023A9B8E50CCE96BAA3A89C18A815938EB239E962A64DDA1D7F1B47DC297AFAB8F00A519DCBEFD41DEFA8419EEE93E6219E39BF06DD330A109F061CF10DDDF86F0D61175941420BEC6724B393AC49B38DD6E2B01DE3D12C56FAB453F531D911C
310
BEB405D46A6C6AD2033BA3F608D7F06D75A221E004073B2B36298E7194E551E57DDD6305A2967B427E58E5E586E4AC2AE439619AB4FEB4D677C2FB5D8CF84E64F46C06EBFA69DD82B2631A9F48A83A828EF83448CFDD7436F196D3B975E9CEDF599E37B9B4E6DE9D67B9B7939BC9D5E5D5727E83F00F2BA03DA1FA358868E2
310
44F42B9EEA307F5DEDCBD60C1E8914CE4353504ED23CBFAE6CB4C5BE833D0078B771959719CD69218982EFA37AC9BE1074150319CDFC2A27093D43CAA787F5C806CC9CB1EFB32A35FA7DB457CF2E542D1C15229FAB3C2C489A8D366AC7EDB248B4DB6D28BB67C3E8ED508D743CD1870A96A53108273612CA722A413B67B03D
310
CFA90062FA5D79AC6F0F67EC7E6DFA4149C28CB6963C13B4C49900AA413A552487F3C66F68E15417756DE2B0B35FF0A70BD13490EA6B13FC26D3880A3BC4F1A81A9F5A3820802EAC2341809E144986CEBAD9D48DBB5D2A36A01F9C805A7FB7E49C6E49FB3520DE9C94254EED01ADD6B66905D13F72BC35C72012AF61253B5F
310
F6139D33B59A005C0377BA075A8817AD7A87FAFAB95BAE5DAF1944E4AC7BD24F41D048B524E1497D2F5041D726DD2C3F3B68058CD527A3CCAA04B93C5F92C529C05CA902078A800A2DB32412505DFCFEF49933DC4573E33E05049E162CCF59A10737FA2E6BAC9F71338D9F400B545D3FC474E2BA4F75D7AF2F229B90086A93
310
58BC60A22D38E5C1086B00E4C171AAAF678ECAC168F96A69E803C383D01AB4074D69730D37503CEAE6A84AA54F96E54F1B7FA75E0A1470B4ECC1DF504B0304140006080000C270623B000000000000000000000000350000006662782F35423231414145462D414143322D343846332D424346452D38323145353146333438
310
30382F76657274696365732E62696E504B0304140006080800C270623BF270F1330600000004000000360000006662782F35423231414145462D414143322D343846332D424346452D3832314535314633343830382F747269616E676C65732E62696E636660600000504B0304140006080000C270623B0000000000000000
310
00000000370000006662782F35423231414145462D414143322D343846332D424346452D3832314535314633343830382F617474726962757465732E62696E504B0304140006080800C270623B08DA0BD19000000041010000360000006662782F35423231414145462D414143322D343846332D424346452D383231453531
310
4633343830382F6469726563746F72792E786D6C858F410AC3201045AF22B36F53E9A60B35CBEEBAE80D244E44489C6234F4F835464A48035D0DF398FF9F8AF63D0E6CC63039F212F8F9020C7D47C6792B21C5FE7403D62A1188E2E60C98D7234A5830286103A55745067B9D86B8A3CF9C7F90C11DE607FB144396D7B6A82D
310
282E9A152AD114D5EF2CB866EEE831B8EEA07A7BB5A8D7D61A2BAAEB7FD5F70921FF497D00504B0304140006080800C270623B7FFB76DCFC000000A00100003B0000006662782F35423231414145462D414143322D343846332D424346452D3832314535314633343830382F7265736F75726365732F636F72652E786D6C8D
310
504B6E833010BD0A9A6D65B029250419478572835EC032136A25D8C89FAAC7AF09546A77DDCC8CDE47F3F4F8E56BB9679FE8BCB6A6039653C8D0283B69337710C39534905D0477D6865F32C88C5CB0830D06C16767E37A40CA9A802624D4D8090F507A8F0132754F47075E7DE02273194352F85BBE4A759333E62C4F74D209
310
EE834B01B2FDC9364138F4363A859E173B2B788C7A3A347A4A3FF555A30341D9389EEB8192B78AF5A4AA5E18793D8D3D198691F6D5696C9ABAE4C566163CE8E527A37228034E204A4ACF843142CB7756B5B46E69F5449B96525E6CF23FA6B84EFF34456DC27379C4DD6D1E044B411E84E0C5D6575A8F32D3DEBA15DF504B01
310
0214000A0000080000C270623B3DEE336E79000000790000001B00000000000000000000000000000000006175746F6465736B2D64657369676E2D7061636B6167652E786D6C504B01021400140006080800C270623BD486FD9CA0000000F40000001300000000000000000000000000B20000005B436F6E74656E745F5479
310
7065735D2E786D6C504B01021400140006080800C270623B6C505844EA0000007C010000080000000000000000000000000083010000636F72652E786D6C504B01021400140006080800C270623B55019EA25F0000007C000000070000000000000000000000000093020000636E782E786D6C504B01021400140006080800
310
C270623B85AE40E170010000D40300000C00000000000000000000000000170300006662782F636F72652E786D6C504B01021400140006080800C270623BD959F09C7C0000009D0000000B00000000000000000000000000B10400006662782F636E782E786D6C504B01021400140006080800C270623BD97BE6F829010000
310
120200003100000000000000000000000000560500006662782F35423231414145462D414143322D343846332D424346452D3832314535314633343830382F636F72652E786D6C504B01021400140006080800C270623BAB1CAE584E010000330300003000000000000000000000000000CE0600006662782F354232314141
310
45462D414143322D343846332D424346452D3832314535314633343830382F636E782E786D6C504B01021400140006080800C270623B086A6785630500003C10000034000000000000000000000000006A0800006662782F35423231414145462D414143322D343846332D424346452D3832314535314633343830382F6F62
310
6A656374732E786D6C504B01021400140006080000C270623B00000000000000000000000035000000000000000000000000001F0E00006662782F35423231414145462D414143322D343846332D424346452D3832314535314633343830382F76657274696365732E62696E504B01021400140006080800C270623BF270F1
310
3306000000040000003600000000000000000000000000720E00006662782F35423231414145462D414143322D343846332D424346452D3832314535314633343830382F747269616E676C65732E62696E504B01021400140006080000C270623B0000000000000000000000003700000000000000000000000000CC0E0000
310
6662782F35423231414145462D414143322D343846332D424346452D3832314535314633343830382F617474726962757465732E62696E504B01021400140006080800C270623B08DA0BD190000000410100003600000000000000000000000000210F00006662782F35423231414145462D414143322D343846332D424346
310
452D3832314535314633343830382F6469726563746F72792E786D6C504B01021400140006080800C270623B7FFB76DCFC000000A00100003B00000000000000000000000000051000006662782F35423231414145462D414143322D343846332D424346452D3832314535314633343830382F7265736F75726365732F636F
310
72652E786D6C504B0506000000000E000E00800400005A1100000000
  0
XRECORD
  5
16C
102
{ACAD_REACTORS
330
16A
102
}
330
16A
100
AcDbXrecord
280
     1
270
     1
271
     1
  0
XRECORD
  5
16B
102
{ACAD_REACTORS
330
16A
102
}
330
16A
100
AcDbXrecord
280
     1
270
     1
271
     1
  0
XRECORD
  5
1F2
102
{ACAD_REACTORS
330
16A
102
}
330
16A
100
AcDbXrecord
280
     1
 70
     0
 90
1673772943
  1
AEB1D1DA-B7DF-4CBA-830A-738AA2653737
310
504B03040A0000080000C270623B3DEE336E79000000790000001B0000006175746F6465736B2D64657369676E2D7061636B6167652E786D6C3C3F786D6C2076657273696F6E3D22312E302220656E636F64696E673D227574662D3822203F3E3C666F726D6174733E3C666F726D61743E687474703A2F2F736368656D612E
310
6175746F6465736B2E636F6D2F64657369676E2D7061636B6167652F323030393C2F666F726D61743E3C2F666F726D6174733E504B0304140006080800C270623BD486FD9CA0000000F4000000130000005B436F6E74656E745F54797065735D2E786D6C7D8EC10E82300C865F65E91D8A1E8C310C0EEA1BF002731658846E
310
D98AC1B77784ABF1D8FE5FBFBF75BBCE937A534CCEB38643598122B6FEE978D0B0485F9C41B54DDD7D022595594E1A469170414C76A4D9A4D207E29CF43ECE46F218070CC6BECC4078ACAA135ACF422C856C0E68EA1BF5669944DDD7BCDE7B1F8E415D77AECB980613C2E4AC91FC167A2B244592486606FC29C8FD7F045B9A
310
EF7053A7E60B504B0304140006080800C270623BC5983BD0EB0000007C01000008000000636F72652E786D6C8D904D6EC3201085AF82665B6103F1BF3091AB2427E80510262E4A0C9681AAC72F4E1CA9DD7535A337EF9B193D7EFC9EEFE84BAFDE38DB03CD08206D951B8D9D7A88E18A1B4047C157E7C22F1B202B67DDC326
310
83E0D3EAE2B24BCAD9A06D48AA75A3DE45E9BD0E80D43D353D78F5A96799C91892C3DFB245AA9B9C74465F5D826334237A1E3163DA67AE46AF20CABAA887E1FD82D9401A5C9CCA136ED8E58CEBF650B2BAA8CE557BE6F9060B1ECCFCBAAF562D831E4130425A4C2926EC83161DA93A52BC91A62384E79BFD0F1497F19F5034
310
361CD8FEEE13F320687AE431103CDFB248E51154AA5B6EE207504B0304140006080800C270623B55019EA25F0000007C00000007000000636E782E786D6C4DCB3B0E80201045D1AD90E915ED2CF8AC45050C11660C8261F98AB1B07AC9C97D42D718D865D3E909258CFD00CCE24AC6E326A164D74DC0B4128928FF32603847
310
2BA13128B1252AC747C6BAB984FC68F0B87FE8960A5C09FE86CFB69FBA01504B0304140006080800C270623BEE35DAD072010000D40300000C0000006662782F636F72652E786D6CC553ED6E8230147D95A67F1768411435A5C6457D82BD4085CA1AA125A5253EFE2E1FC6B938E37E8D1FD09C736FEF39A7946D2E75853A69
310
5B657486A3906224756E0AA5CB0C7B770A96186D38B3C6B86F65186951CB0CF730E6ACB4C63713941BEDA476806A53C809146D2B1D4679058B0CB7F9A7AC4528BC838AF61C36223F8B5286510834D471D63A0B02D038A47F637E3A5E181971CEBC57C5C4AA02A6A9939216F3799AA4DBEDFB2188B7741924BBF92E58C6877D
310
90AE66F3384D16FBC56ACF48DFCC9953F5555D6EA570B2C03CA67415445140E38F2859D3C59A266F74B9A69491BEFCAEC937C58B4D5E69378B27B9635B8B79044206E2875B88C8A15674A0877046FA10E133247C1F340402213B71ACAE3ECE00753277C626C014C6DFA84E545EC2541AD2E141BF2F18193B61EAB039B87E38
310
237E79C6F31DE1A8852EC18470B03C7AD7EB64A38629B446DAA07317A48DAD45F59A8D270EFF44DDC43F94949BCAD8FF5244A60322D3EF41FAFBC8BF00504B0304140006080800C270623BD65DADFA7E0000009D0000000B0000006662782F636E782E786D6C4DCCD10A83201886E15B91FFDC651665A0C64C771FB12C62A6
310
C3E9D8E5AF46073BFAE0E1E3E5FD6773E86DE36B0D5E40792180ACBF8769F58B809C66CC00F592C710D2DF0D901F372BE060907C89213F4F9AEC3C66977675AB7F9C488DBA1A4309AE06D6E25ADD4ADCB5BAC2A4D1BAA135EBD440A190BCF895F63DC2F20B504B0304140006080800C270623B16D345222A01000012020000
310
310000006662782F32454241454532302D334338372D344246312D393744332D3036444436323438394243322F636F72652E786D6C8D515B6EC32010BC0AE2AB55850DC4719C0813358F9EA01720405294182C1E558E5FA81DA9FDCB0F8B66676607966DEFC30D7C6B1F8CB33D241586405BE994B1971EA678461D045BCEBC
310
73F10F0D022B06DDC30243CE2EDEA57186A4B351DB9851EB949E4111828E10C85BBEF430C82F3D884AA49819E15A8D425EC54557A4CAEDCCE32C449F038069483921A7C7DDFBF148315AECBB156A761F04AD578705C2EDE1D0D2A65BEFF694D59390B3948C9AE546E538E66CB47FD6A488398B6678C4975E8BA855D663BC46
310
84204C3F49B3C1ED06376FB8DB60CCEA42FF274AA37A52948C8D0B3AC79D640172C2EAA9C19972E9747B84D1F7D1F908CABC97A0E52BE4B8C2784968CBEA89989F9F1DDB66760CD1F9FCBD2FD753E692E564DB369CD56543B9FCAE2FD7B24DFE03504B0304140006080800C270623BAB1CAE584E0100003303000030000000
310
6662782F32454241454532302D334338372D344246312D393744332D3036444436323438394243322F636E782E786D6CD593CD6EC32010845F0571AD6CE3D48AD20813A9873E410FBD12D82434182C7EAAE6EDBB2424CD25871E7B41D6EC30B3FA84F9E67BB2E40B4234DE8DB46F1925E094D7C6ED479AD3AE5951B2113C78
310
9FEE6C943839C1488B4C05DF079FE72A69D8C96C13AAD6B8631503449F83828872B949AC57D26200B826A308D316B4064D6E46FCDA41C05550DC9E483A00797BFD207EFB092A45DE9514C1BBD22178396BD39D891265658C238DEA00936C654E5E433CB65A26D9F6EDB5EBC14EBF49A45CB856E66048291F6939A9A81BB5C8
310
917738143CA680F4AA299D66A042CEB3354A2684DC9D8D178FE0D9B8B41CAAD720F880EE7EF93C0C18769E099ECC04D5A102C8049A8A05632F4DDF376CF1DE0F6BB65CB3E189ADD68CF1AED805DF7A6FEB258C81E067A2BC4BE012153DEFCAF811BEEA23DA0464EDC3E90F2011406DBDD0B965FC673EDDF97D23AE807F81F8
310
01504B0304140006080800C270623B849BF81A650500003B100000340000006662782F32454241454532302D334338372D344246312D393744332D3036444436323438394243322F6F626A656374732E786D6CAD575B739B3814FE2B0CFB0C98D869921D42C797A6E3E9A4CDD4D3CE3E64C62340266C406224913AFBEBF713
310
080CD869BD173F18248ECEF53B1705EFF7456EBD502133CE6E6DDF9DD81665314F3296DEDA95DA39D7B6F53E0C04E7AA47665B8C14F4D6D6DB7618A48257A5D94AE88E54B91AEDDE2DFEB0644C19B5AD382752DEDA327EA2057149A57842E5B39B1045DC74B7777DB7211CB24D05299F464C4B222853D014FB0C5CAC46297F
310
B89CD85E1878FA7B18E87F43357D9BCAABED19CACF985484C547C2466CA6FE6CF5E1E2F2C6B99CCDA6CEECDD85EF2CEE162BC7BF9A4E96EF96CB9BF9871B08964A8093D144D09D1D7E846F4416075EF3A9D3D8287E4AA5983346E3DA7E5858EB6C3826B4A42C411C332A21AD67F564B8F4B56F7A9FA77A6D44F6B7CFB3AA7F
310
A2C7A8D5BD7DF635E5D19F30419E830A21A94655E31F636883BFC9C16B11E7B9F99649AB208A8A8CE4569E458288573B04A9260983011B8D4EA111AE2DB043FFC0AFAF2B52E3D7D83DA5E5AECA730D4D3BAC91BD05FEA992B566D95F549C96069D10AB2A63EADA18A45E4B6A873781576F86817E4C2FCCC7C691D62E272942
310
0E339BAF2343973AF7D62B3BFC7417ED373A1F4F0B2F052FA9501A3E80561BB8F6A9BD64C4FA67454E1F8031039F1F9CF2159EFF8CF43DA882B8896C3FDBCF8C142508933B2E0AC4C69DD43F6BD2BE38DDDBF10BEAD988FA98A6DBF957C481D7293B2C186FC50FE0D2A1B9FEEFF11BFAAC8FD45EF8C2E00509C6C5D4B87213
310
931CA5E73E63088806A595736CA196EFA2BD1DAE512951D9718AE461E790A397C07BC177FC37BC51AD6AF1BD27434047F5F68CCA0F5FD66901DDDE00CB519DAC051BE3DEF2F9E5FF9233F3D5E6D3A6123B12D37B5358567497B14CA1771EC0DB576810888145CFF4F50717090C3D0EC2A61F84C28892F0B6F6B9767CDA360B
310
BD38481E0888712EE5BAE605BF90709FC998E639619457AD94AE0D69AC7645C6CC09C8C2C6A1D38B118A057DC9F42431A018A8855E1F8BACD42EEB9A5E57A7DD376CF9B6FE0C50823EE711C90F44D1A1DAC73CE7621BBD6E9B4268037B383204F7F721BA8D433DCD0580AFA1DC561CE3E16D92ED769544D93DE1C4EFEB653F
310
505D1D397E69F3A795D8A4E40CC519A94784416F2B13F38020E8EB9C6D33747164E549E17DD96301B2E6FB06FFA82ACA2D2978C5D4396E9AB4F6B4DA77CCFB438CFC4154FC64879BFAE92C50B1139A1C42350081EE40276C1A8467FE61E1AFFCD5DC595CADEE9CD9723177AEA793B97335BD9ECF2FDE5D4EAFA6579D46B526
310
61D036A87E0AC29B6888412532E3E66FEB43D6DAE13D51D2FBD8E4939736CF6F6B175371E0E10CF0DD1D5C17654E0BCA14D1E8BDD72FF95782A162C0A3D95F1724A56770F9F27133D2013B679C7BD099467F8CCE9ADDA5CE85934CD45355448C64F9E8A031DC2D596ACC6E5DD93D9B82DE2EF5CAF81363A8E47996A0DE2456
310
4A794115AACE19C55E14540231FDA13C319787334EBF34E3A022514E5B4D9E0826E25C02D5805B15ABE1BEF51B26383D44DDDAE875EE33FE4C22DA16427D6BA3BCA92CA6D28DD01DF5DC53330704308475351050232CCD31583787BA75774AFB06E5070DD0C8EF48CE19968C5D83BA5B90B244D31E54D55A372320FE4786B7
310
EA5844E135AA5467CB61A333A61683CC6A8C3257034C10CF46F41EF9F573B37CB7A61978E4AC6BD24F41D070751411697D2DD0FA1995E6AB070F9380B5FE629579952296E773720405982B9DE04011506178964401AACBDF1F1F04C755B4B0EE3240E071C98B8233B3989BABACB579C2C534794459A0FAF6212F26BEFF580F
310
FDE61EB28D88A42E49E43336DA84D3168CB006401E755313024FC76044BE5E59A661CCC0B406EDD14CDADCC22D248FBE38EA54E917CBF2A773BF5793020C02137BF837504B0304140006080000C270623B000000000000000000000000350000006662782F32454241454532302D334338372D344246312D393744332D3036
310
444436323438394243322F76657274696365732E62696E504B0304140006080800C270623BF270F1330600000004000000360000006662782F32454241454532302D334338372D344246312D393744332D3036444436323438394243322F747269616E676C65732E62696E636660600000504B0304140006080000C270623B
310
000000000000000000000000370000006662782F32454241454532302D334338372D344246312D393744332D3036444436323438394243322F617474726962757465732E62696E504B0304140006080800C270623B08DA0BD19000000041010000360000006662782F32454241454532302D334338372D344246312D393744
310
332D3036444436323438394243322F6469726563746F72792E786D6C858F410AC3201045AF22B36F53E9A60B35CBEEBAE80D244E44489C6234F4F835464A48035D0DF398FF9F8AF63D0E6CC63039F212F8F9020C7D47C6792B21C5FE7403D62A1188E2E60C98D7234A5830286103A55745067B9D86B8A3CF9C7F90C11DE607
310
FB144396D7B6A82D282E9A152AD114D5EF2CB866EEE831B8EEA07A7BB5A8D7D61A2BAAEB7FD5F70921FF497D00504B0304140006080800C270623BAD7266E1FD000000A00100003B0000006662782F32454241454532302D334338372D344246312D393744332D3036444436323438394243322F7265736F75726365732F63
310
6F72652E786D6C8D50596E833010BD0A9ADFCA6008BB8C23AAD013F4029699502BC1465EAA1EBF26A152FBD79F99D15B344F8F9DBFD67BF289D629A307C8530A096A6966A5970182BF9216923367D618FF4B0689162B0EB0C3C0D9624DD80E481AED51FB886A33E3010AE7D04322EFF118C0C90F5C452A828F0A774B37216F
310
62C1344F231D759C396F6380E4F9649FC02D3A13AC44C7B227CB59086A3E346A8E3FD555A1055E3565338EAF132946DA92F2525D485BBC4DA4E94E55D194F5547713CB7633675EAD3F19A545E171065E50DA913C27B478CFCB9ED63D2D5F68DB53CAB25DFEC714B6F99FA6A0B43F1547DCA7CD01CF639007C159B6F715D7A3
310
CCB8F76EF937504B010214000A0000080000C270623B3DEE336E79000000790000001B00000000000000000000000000000000006175746F6465736B2D64657369676E2D7061636B6167652E786D6C504B01021400140006080800C270623BD486FD9CA0000000F40000001300000000000000000000000000B20000005B43
310
6F6E74656E745F54797065735D2E786D6C504B01021400140006080800C270623BC5983BD0EB0000007C010000080000000000000000000000000083010000636F72652E786D6C504B01021400140006080800C270623B55019EA25F0000007C000000070000000000000000000000000094020000636E782E786D6C504B01
310
021400140006080800C270623BEE35DAD072010000D40300000C00000000000000000000000000180300006662782F636F72652E786D6C504B01021400140006080800C270623BD65DADFA7E0000009D0000000B00000000000000000000000000B40400006662782F636E782E786D6C504B01021400140006080800C27062
310
3B16D345222A0100001202000031000000000000000000000000005B0500006662782F32454241454532302D334338372D344246312D393744332D3036444436323438394243322F636F72652E786D6C504B01021400140006080800C270623BAB1CAE584E010000330300003000000000000000000000000000D406000066
310
62782F32454241454532302D334338372D344246312D393744332D3036444436323438394243322F636E782E786D6C504B01021400140006080800C270623B849BF81A650500003B1000003400000000000000000000000000700800006662782F32454241454532302D334338372D344246312D393744332D303644443632
310
3438394243322F6F626A656374732E786D6C504B01021400140006080000C270623B0000000000000000000000003500000000000000000000000000270E00006662782F32454241454532302D334338372D344246312D393744332D3036444436323438394243322F76657274696365732E62696E504B0102140014000608
310
0800C270623BF270F133060000000400000036000000000000000000000000007A0E00006662782F32454241454532302D334338372D344246312D393744332D3036444436323438394243322F747269616E676C65732E62696E504B01021400140006080000C270623B000000000000000000000000370000000000000000
310
0000000000D40E00006662782F32454241454532302D334338372D344246312D393744332D3036444436323438394243322F617474726962757465732E62696E504B01021400140006080800C270623B08DA0BD190000000410100003600000000000000000000000000290F00006662782F32454241454532302D33433837
310
2D344246312D393744332D3036444436323438394243322F6469726563746F72792E786D6C504B01021400140006080800C270623BAD7266E1FD000000A00100003B000000000000000000000000000D1000006662782F32454241454532302D334338372D344246312D393744332D3036444436323438394243322F726573
310
6F75726365732F636F72652E786D6C504B0506000000000E000E0080040000631100000000
  0
XRECORD
  5
16D
102
{ACAD_REACTORS
330
16A
102
}
330
16A
100
AcDbXrecord
280
     1
270
     1
271
     1
  0
XRECORD
  5
16E
102
{ACAD_REACTORS
330
16A
102
}
330
16A
100
AcDbXrecord
280
     1
270
     1
271
     1
  0
XRECORD
  5
A1F
102
{ACAD_REACTORS
330
8AC
102
}
330
8AC
100
AcDbXrecord
280
     1
102
DISPLAYNAME
  1
Metric50
102
FLAGS
 90
        0
  0
CELLSTYLEMAP
  5
A1E
102
{ACAD_REACTORS
330
159
102
}
330
159
100
AcDbCellStyleMap
 90
        3
300
CELLSTYLE
  1
TABLEFORMAT_BEGIN
 90
        5
170
     1
 91
        0
 92
    32768
 62
   257
 93
        1
300
CONTENTFORMAT
  1
CONTENTFORMAT_BEGIN
 90
        0
 91
        0
 92
      512
 93
        0
300

 40
0.0
140
1.0
 94
        5
 62
     0
340
11
144
6.0
309
CONTENTFORMAT_END
171
     1
301
MARGIN
  1
CELLMARGIN_BEGIN
 40
1.5
 40
1.5
 40
1.5
 40
1.5
 40
0.18
 40
0.18
309
CELLMARGIN_END
 94
        6
 95
        1
302
GRIDFORMAT
  1
GRIDFORMAT_BEGIN
 90
        0
 91
        1
 62
     0
 92
       -2
340
14
 93
        0
 40
1.125
309
GRIDFORMAT_END
 95
        2
302
GRIDFORMAT
  1
GRIDFORMAT_BEGIN
 90
        0
 91
        1
 62
     0
 92
       -2
340
14
 93
        0
 40
1.125
309
GRIDFORMAT_END
 95
        4
302
GRIDFORMAT
  1
GRIDFORMAT_BEGIN
 90
        0
 91
        1
 62
     0
 92
       -2
340
14
 93
        0
 40
1.125
309
GRIDFORMAT_END
 95
        8
302
GRIDFORMAT
  1
GRIDFORMAT_BEGIN
 90
        0
 91
        1
 62
     0
 92
       -2
340
14
 93
        0
 40
1.125
309
GRIDFORMAT_END
 95
       16
302
GRIDFORMAT
  1
GRIDFORMAT_BEGIN
 90
        0
 91
        1
 62
     0
 92
       -2
340
14
 93
        0
 40
1.125
309
GRIDFORMAT_END
 95
       32
302
GRIDFORMAT
  1
GRIDFORMAT_BEGIN
 90
        0
 91
        1
 62
     0
 92
       -2
340
14
 93
        0
 40
1.125
309
GRIDFORMAT_END
309
TABLEFORMAT_END
  1
CELLSTYLE_BEGIN
 90
        1
 91
        1
300
_TITLE
309
CELLSTYLE_END
300
CELLSTYLE
  1
TABLEFORMAT_BEGIN
 90
        5
170
     1
 91
        0
 92
        0
 62
   257
 93
        1
300
CONTENTFORMAT
  1
CONTENTFORMAT_BEGIN
 90
        0
 91
        0
 92
      512
 93
        0
300

 40
0.0
140
1.0
 94
        5
 62
     0
340
11
144
4.5
309
CONTENTFORMAT_END
171
     1
301
MARGIN
  1
CELLMARGIN_BEGIN
 40
1.5
 40
1.5
 40
1.5
 40
1.5
 40
0.18
 40
0.18
309
CELLMARGIN_END
 94
        6
 95
        1
302
GRIDFORMAT
  1
GRIDFORMAT_BEGIN
 90
        0
 91
        1
 62
     0
 92
       -2
340
14
 93
        0
 40
1.125
309
GRIDFORMAT_END
 95
        2
302
GRIDFORMAT
  1
GRIDFORMAT_BEGIN
 90
        0
 91
        1
 62
     0
 92
       -2
340
14
 93
        0
 40
1.125
309
GRIDFORMAT_END
 95
        4
302
GRIDFORMAT
  1
GRIDFORMAT_BEGIN
 90
        0
 91
        1
 62
     0
 92
       -2
340
14
 93
        0
 40
1.125
309
GRIDFORMAT_END
 95
        8
302
GRIDFORMAT
  1
GRIDFORMAT_BEGIN
 90
        0
 91
        1
 62
     0
 92
       -2
340
14
 93
        0
 40
1.125
309
GRIDFORMAT_END
 95
       16
302
GRIDFORMAT
  1
GRIDFORMAT_BEGIN
 90
        0
 91
        1
 62
     0
 92
       -2
340
14
 93
        0
 40
1.125
309
GRIDFORMAT_END
 95
       32
302
GRIDFORMAT
  1
GRIDFORMAT_BEGIN
 90
        0
 91
        1
 62
     0
 92
       -2
340
14
 93
        0
 40
1.125
309
GRIDFORMAT_END
309
TABLEFORMAT_END
  1
CELLSTYLE_BEGIN
 90
        2
 91
        1
300
_HEADER
309
CELLSTYLE_END
300
CELLSTYLE
  1
TABLEFORMAT_BEGIN
 90
        5
170
     1
 91
        0
 92
        0
 62
   257
 93
        1
300
CONTENTFORMAT
  1
CONTENTFORMAT_BEGIN
 90
        0
 91
        0
 92
      512
 93
        0
300

 40
0.0
140
1.0
 94
        2
 62
     0
340
11
144
4.5
309
CONTENTFORMAT_END
171
     1
301
MARGIN
  1
CELLMARGIN_BEGIN
 40
1.5
 40
1.5
 40
1.5
 40
1.5
 40
0.18
 40
0.18
309
CELLMARGIN_END
 94
        6
 95
        1
302
GRIDFORMAT
  1
GRIDFORMAT_BEGIN
 90
        0
 91
        1
 62
     0
 92
       -2
340
14
 93
        0
 40
1.125
309
GRIDFORMAT_END
 95
        2
302
GRIDFORMAT
  1
GRIDFORMAT_BEGIN
 90
        0
 91
        1
 62
     0
 92
       -2
340
14
 93
        0
 40
1.125
309
GRIDFORMAT_END
 95
        4
302
GRIDFORMAT
  1
GRIDFORMAT_BEGIN
 90
        0
 91
        1
 62
     0
 92
       -2
340
14
 93
        0
 40
1.125
309
GRIDFORMAT_END
 95
        8
302
GRIDFORMAT
  1
GRIDFORMAT_BEGIN
 90
        0
 91
        1
 62
     0
 92
       -2
340
14
 93
        0
 40
1.125
309
GRIDFORMAT_END
 95
       16
302
GRIDFORMAT
  1
GRIDFORMAT_BEGIN
 90
        0
 91
        1
 62
     0
 92
       -2
340
14
 93
        0
 40
1.125
309
GRIDFORMAT_END
 95
       32
302
GRIDFORMAT
  1
GRIDFORMAT_BEGIN
 90
        0
 91
        1
 62
     0
 92
       -2
340
14
 93
        0
 40
1.125
309
GRIDFORMAT_END
309
TABLEFORMAT_END
  1
CELLSTYLE_BEGIN
 90
        3
 91
        2
300
_DATA
309
CELLSTYLE_END
  0
ENDSEC
  0
SECTION
  2
ACDSDATA
 70
     2
 71
     8
  0
ACDSSCHEMA
 90
        0
  1
AcDb_Thumbnail_Schema
  2
AcDbDs::ID
280
    10
 91
        8
  2
Thumbnail_Data
280
    15
 91
        0
101
ACDSRECORD
 95
        0
 90
        1
  2
AcDbDs::TreatedAsObjectData
280
     1
291
     1
101
ACDSRECORD
 95
        0
 90
        2
  2
AcDbDs::Legacy
280
     1
291
     1
101
ACDSRECORD
  1
AcDbDs::ID
 90
        3
  2
AcDs:Indexable
280
     1
291
     1
101
ACDSRECORD
  1
AcDbDs::ID
 90
        4
  2
AcDbDs::HandleAttribute
280
     7
282
     1
  0
ACDSSCHEMA
 90
        1
  1
AcDbDs::TreatedAsObjectDataSchema
  2
AcDbDs::TreatedAsObjectData
280
     1
 91
        0
  0
ACDSSCHEMA
 90
        2
  1
AcDbDs::LegacySchema
  2
AcDbDs::Legacy
280
     1
 91
        0
  0
ACDSSCHEMA
 90
        3
  1
AcDbDs::IndexedPropertySchema
  2
AcDs:Indexable
280
     1
 91
        0
  0
ACDSSCHEMA
 90
        4
  1
AcDbDs::HandleAttributeSchema
  2
AcDbDs::HandleAttribute
280
     7
 91
        1
284
     1
  0
ACDSRECORD
 90
        0
  2
AcDbDs::ID
280
    10
320
22
  2
Thumbnail_Data
280
    15
 94
     1563
310
89504E470D0A1A0A0000000D49484452000001000000007E0803000000FCF33F5100000300504C5445212830000000C8C8C80000000000000000000000000000000000000000000000000000330000660000990000CC0000FF0033000033330033660033990033CC0033FF0066000066330066660066990066CC0066FF0099
310
000099330099660099990099CC0099FF00CC0000CC3300CC6600CC9900CCCC00CCFF00FF0000FF3300FF6600FF9900FFCC00FFFF3300003300333300663300993300CC3300FF3333003333333333663333993333CC3333FF3366003366333366663366993366CC3366FF3399003399333399663399993399CC3399FF33CC00
310
33CC3333CC6633CC9933CCCC33CCFF33FF0033FF3333FF6633FF9933FFCC33FFFF6600006600336600666600996600CC6600FF6633006633336633666633996633CC6633FF6666006666336666666666996666CC6666FF6699006699336699666699996699CC6699FF66CC0066CC3366CC6666CC9966CCCC66CCFF66FF0066
310
FF3366FF6666FF9966FFCC66FFFF9900009900339900669900999900CC9900FF9933009933339933669933999933CC9933FF9966009966339966669966999966CC9966FF9999009999339999669999999999CC9999FF99CC0099CC3399CC6699CC9999CCCC99CCFF99FF0099FF3399FF6699FF9999FFCC99FFFFCC0000CC00
310
33CC0066CC0099CC00CCCC00FFCC3300CC3333CC3366CC3399CC33CCCC33FFCC6600CC6633CC6666CC6699CC66CCCC66FFCC9900CC9933CC9966CC9999CC99CCCC99FFCCCC00CCCC33CCCC66CCCC99CCCCCCCCCCFFCCFF00CCFF33CCFF66CCFF99CCFFCCCCFFFFFF0000FF0033FF0066FF0099FF00CCFF00FFFF3300FF3333
310
FF3366FF3399FF33CCFF33FFFF6600FF6633FF6666FF6699FF66CCFF66FFFF9900FF9933FF9966FF9999FF99CCFF99FFFFCC00FFCC33FFCC66FFCC99FFCCCCFFCCFFFFFF00FFFF33FFFF66FFFF99FFFFCCFFFFFF0000000D0D0D1A1A1A2828283535354343435050505D5D5D6B6B6B787878868686939393A1A1A1AEAEAEBB
310
BBBBC9C9C9D6D6D6E4E4E4F1F1F1FFFFFF000000000000000000000000000000000000000000000000000000000000B21171F60000027F4944415478DAED5D3972C33010DBDFC8FF7F40DEC4067DACE8E22DA5C9C400608F6579DC00E45E94968AF803E08DD0C5465E5702345FF4F863B301C8F23FBE4153005CAE00CA0264
310
93414B80D209425B00412BA804D053A0F401084505AE4C1092D110672DA09A0FA03C0A46C375FCB37A50322142160D4415C8396B288011641448EFD7FADE0FC70954E6C080BF52304C3DFE5934043DFFFAFD73808A271CF0575A1EE8F22FD70740CEFFF48499332812A271B0FCFC6B0927E72A18A0AD126E8A880FB7813A18
310
E23145B0F88082FF511EFF121C6160CF04452AA101FF804E29D8CF04740418668290E62F6C02671884347F5913B832C15BBC767C7C56DC92CF4D60580B9D4B46609902E564C0FC7E0164992225FFC8A77537E765A90607FC2F7EA933FA6072917DFEE549CD9F29484EF92FD117806A06CCC67F5922D10B30E31F4B6A6600AA
310
8BA86CFCF39365B581D4847F2E0126FCDFE3DF98C09EFE50093076FE8D09E0C80E990418F34FB5095C174BB87CC0887F6D02D9B5124E1368C4284C20A7CCD45AF174A99B7A756050EEAE79E0F6C1DE4832126005FFF04F173C4282FF8D00027D54530114D646270268B4D14D173DB504A83C9FCAB5918EBFDB8AFE5013A02C
310
FB23A40550BA531CBD0A21425901BDAE3971016AC29ACDC32194FC3F4D86B41480F404D8639FF83E2A86611886611886611886611886611886611886611886611886418A873BC47D6D78110A3055A5FE17540468CF696F237B22007503C10301B81B286E04E07F049705B8F911212D00946640DB31BD6F19C37D1775B76FB0
310
3890775161F01328774D7924006ACB1014005518D0DA44A4E24BFFF8B9A6F041A7340C190520FAD4D5C1F49751C08D83381EB928DC38F77F7DDD37F9E39FA512DA619E0000000049454E44AE426082BF729802104F67264EA7D67780B50230D3037134F64B865262651D5F1EC0228DFA0980FAA99FFAA99FFAA99FFAA99FFA
310
A99FFAA97F09F9A0F9697ECAA77CCA9FB3FD0182F783EBFCEED4CE0000000049454E44AE426082
  0
ENDSEC
  0
EOF
