  0
SECTION
  2
HEADER
  9
$ACADVER
  1
AC1009
  9
$INSBASE
 10
0.0
 20
0.0
 30
0.0
  9
$EXTMIN
 10
-0.0064082024693448
 20
-0.0090630292066862
 30
-0.0015258207003583
  9
$EXTMAX
 10
210.00640918035811
 20
303.10441659216809
 30
0.0000000349246037
  9
$LIMMIN
 10
0.0
 20
0.0
  9
$LIMMAX
 10
210.0
 20
297.0
  9
$ORTHOMODE
 70
     0
  9
$REGENMODE
 70
     1
  9
$FILLMODE
 70
     1
  9
$QTEXTMODE
 70
     0
  9
$MIRRTEXT
 70
     1
  9
$DRAGMODE
 70
     2
  9
$LTSCALE
 40
1.0
  9
$OSMODE
 70
    39
  9
$ATTMODE
 70
     1
  9
$TEXTSIZE
 40
2.5
  9
$TRACEWID
 40
1.0
  9
$TEXTSTYLE
  7
STANDARD
  9
$CLAYER
  8
0
  9
$CELTYPE
  6
BYLAYER
  9
$CECOLOR
 62
   256
  9
$DIMSCALE
 40
1.0
  9
$DIMASZ
 40
3.5
  9
$DIMEXO
 40
1.0
  9
$DIMDLI
 40
3.75
  9
$DIMRND
 40
0.0
  9
$DIMDLE
 40
0.0
  9
$DIMEXE
 40
1.0
  9
$DIMTP
 40
0.0
  9
$DIMTM
 40
0.0
  9
$DIMTXT
 40
3.5
  9
$DIMCEN
 40
2.5
  9
$DIMTSZ
 40
0.0
  9
$DIMTOL
 70
     0
  9
$DIMLIM
 70
     0
  9
$DIMTIH
 70
     1
  9
$DIMTOH
 70
     1
  9
$DIMSE1
 70
     0
  9
$DIMSE2
 70
     0
  9
$DIMTAD
 70
     1
  9
$DIMZIN
 70
     0
  9
$DIMBLK
  1

  9
$DIMASO
 70
     1
  9
$DIMSHO
 70
     1
  9
$DIMPOST
  1

  9
$DIMAPOST
  1

  9
$DIMALT
 70
     0
  9
$DIMALTD
 70
     3
  9
$DIMALTF
 40
0.0393700787401575
  9
$DIMLFAC
 40
1.0
  9
$DIMTOFL
 70
     1
  9
$DIMTVP
 40
0.0
  9
$DIMTIX
 70
     0
  9
$DIMSOXD
 70
     0
  9
$DIMSAH
 70
     0
  9
$DIMBLK1
  1

  9
$DIMBLK2
  1

  9
$DIMSTYLE
  2
ISO-25
  9
$DIMCLRD
 70
     0
  9
$DIMCLRE
 70
     0
  9
$DIMCLRT
 70
     0
  9
$DIMTFAC
 40
1.0
  9
$DIMGAP
 40
2.0
  9
$LUNITS
 70
     2
  9
$LUPREC
 70
     2
  9
$SKETCHINC
 40
1.0
  9
$FILLETRAD
 40
10.0
  9
$AUNITS
 70
     0
  9
$AUPREC
 70
     2
  9
$MENU
  1
.
  9
$ELEVATION
 40
0.0
  9
$PELEVATION
 40
0.0
  9
$THICKNESS
 40
0.0
  9
$LIMCHECK
 70
     0
  9
$BLIPMODE
 70
     0
  9
$CHAMFERA
 40
10.0
  9
$CHAMFERB
 40
10.0
  9
$SKPOLY
 70
     0
  9
$TDCREATE
 40
2455138.756580058
  9
$TDUPDATE
 40
2456744.5058179512
  9
$TDINDWG
 40
0.0042215278
  9
$TDUSRTIMER
 40
0.0042215278
  9
$USRTIMER
 70
     1
  9
$ANGBASE
 50
0.0
  9
$ANGDIR
 70
     0
  9
$PDMODE
 70
     0
  9
$PDSIZE
 40
-1.0
  9
$PLINEWID
 40
0.0
  9
$COORDS
 70
     1
  9
$SPLFRAME
 70
     0
  9
$SPLINETYPE
 70
     6
  9
$SPLINESEGS
 70
     8
  9
$ATTDIA
 70
     0
  9
$ATTREQ
 70
     1
  9
$HANDLING
 70
     1
  9
$HANDSEED
  5
A2E
  9
$SURFTAB1
 70
     6
  9
$SURFTAB2
 70
     6
  9
$SURFTYPE
 70
     6
  9
$SURFU
 70
     6
  9
$SURFV
 70
     6
  9
$UCSNAME
  2

  9
$UCSORG
 10
0.0
 20
0.0
 30
0.0
  9
$UCSXDIR
 10
1.0
 20
0.0
 30
0.0
  9
$UCSYDIR
 10
0.0
 20
1.0
 30
0.0
  9
$PUCSNAME
  2

  9
$PUCSORG
 10
0.0
 20
0.0
 30
0.0
  9
$PUCSXDIR
 10
1.0
 20
0.0
 30
0.0
  9
$PUCSYDIR
 10
0.0
 20
1.0
 30
0.0
  9
$USERI1
 70
     0
  9
$USERI2
 70
     0
  9
$USERI3
 70
     0
  9
$USERI4
 70
     0
  9
$USERI5
 70
     0
  9
$USERR1
 40
0.0
  9
$USERR2
 40
0.0
  9
$USERR3
 40
0.0
  9
$USERR4
 40
0.0
  9
$USERR5
 40
0.0
  9
$WORLDVIEW
 70
     1
  9
$SHADEDGE
 70
     3
  9
$SHADEDIF
 70
    70
  9
$TILEMODE
 70
     1
  9
$MAXACTVP
 70
    64
  9
$PLIMCHECK
 70
     0
  9
$PEXTMIN
 10
1.0000000000000000E+020
 20
1.0000000000000000E+020
 30
1.0000000000000000E+020
  9
$PEXTMAX
 10
-1.0000000000000000E+020
 20
-1.0000000000000000E+020
 30
-1.0000000000000000E+020
  9
$PLIMMIN
 10
0.0
 20
0.0
  9
$PLIMMAX
 10
420.0
 20
297.0
  9
$UNITMODE
 70
     0
  9
$VISRETAIN
 70
     1
  9
$PLINEGEN
 70
     0
  9
$PSLTSCALE
 70
     1
  0
ENDSEC
  0
SECTION
  2
TABLES
  0
TABLE
  2
VPORT
 70
     1
  0
VPORT
  2
*ACTIVE
 70
     0
 10
0.0
 20
0.0
 11
1.0
 21
1.0
 12
105.00000048894439
 22
151.5476767814807
 13
0.0
 23
0.0
 14
10.0
 24
10.0
 15
10.0
 25
10.0
 16
0.0
 26
0.0
 36
1.0
 17
0.0
 27
0.0
 37
0.0
 40
305.02989782762171
 41
1.6603375527426161
 42
50.0
 43
0.0
 44
0.0
 50
0.0
 51
0.0
 71
     0
 72
  2000
 73
     1
 74
     3
 75
     0
 76
     0
 77
     0
 78
     0
  0
ENDTAB
  0
TABLE
  2
LTYPE
 70
     6
  0
LTYPE
  2
CONTINUOUS
 70
     0
  3
Solid line
 72
    65
 73
     0
 40
0.0
  0
LTYPE
  2
HIDDEN
 70
     0
  3
Hidden __ __ __ __ __ __ __ __ __ __ __ __ __ __
 72
    65
 73
     2
 40
1.905
 49
1.27
 49
-0.635
  0
LTYPE
  2
PHANTOM
 70
     0
  3
Phantom ______  __  __  ______  __  __  ______
 72
    65
 73
     6
 40
12.699999999999999
 49
6.3499999999999988
 49
-1.27
 49
1.27
 49
-1.27
 49
1.27
 49
-1.27
  0
LTYPE
  2
CENTER
 70
     0
  3
Center ____ _ ____ _ ____ _ ____ _ ____ _ ____
 72
    65
 73
     4
 40
10.16
 49
6.3499999999999988
 49
-1.27
 49
1.27
 49
-1.27
  0
LTYPE
  2
CENTERX2
 70
     0
  3
Center (2x) ________  __  ________  __  _____
 72
    65
 73
     4
 40
20.32
 49
12.699999999999999
 49
-2.54
 49
2.54
 49
-2.54
  0
LTYPE
  2
DOT2
 70
     0
  3
Dot (.5x) ........................................
 72
    65
 73
     2
 40
0.635
 49
0.0
 49
-0.635
  0
ENDTAB
  0
TABLE
  2
LAYER
 70
    10
  0
LAYER
  2
0
 70
     0
 62
     7
  6
CONTINUOUS
  0
LAYER
  2
VORLAGE_TEXT
 70
     0
 62
     7
  6
CONTINUOUS
  0
LAYER
  2
VORLAGE_BEMASSUNG
 70
     0
 62
    -5
  6
CONTINUOUS
  0
LAYER
  2
TEXT
 70
     0
 62
     7
  6
CONTINUOUS
  0
LAYER
  2
LINIEN-DICK
 70
     0
 62
     7
  6
CONTINUOUS
  0
LAYER
  2
LINIEN-NORMAL
 70
     0
 62
     7
  6
CONTINUOUS
  0
LAYER
  2
LINIEN-DÜNN
 70
     0
 62
     7
  6
CONTINUOUS
  0
LAYER
  2
TEXT-DEUTSCH
 70
     0
 62
     7
  6
CONTINUOUS
  0
LAYER
  2
TEXT-ENGLISCH
 70
     0
 62
    -7
  6
CONTINUOUS
  0
LAYER
  2
Defpoints
 70
     0
 62
     7
  6
CONTINUOUS
  0
ENDTAB
  0
TABLE
  2
STYLE
 70
     3
  0
STYLE
  2
STANDARD
 70
     0
 40
0.0
 41
1.0
 50
0.0
 71
     0
 42
2.5
  3
txt
  4

  0
STYLE
  2
SLDTEXTSTYLE0
 70
     0
 40
0.0
 41
0.605
 50
0.0
 71
     0
 42
0.2
  3
TXT
  4

  0
STYLE
  2
SLDTEXTSTYLE1
 70
     0
 40
0.0
 41
0.5629999999999999
 50
0.0
 71
     0
 42
0.2
  3
TXT
  4

  0
ENDTAB
  0
TABLE
  2
VIEW
 70
     0
  0
ENDTAB
  0
TABLE
  2
UCS
 70
     0
  0
ENDTAB
  0
TABLE
  2
APPID
 70
     3
  0
APPID
  2
ACAD
 70
     0
  0
APPID
  2
ACAD_NAV_VCDISPLAY
 70
     0
  0
APPID
  2
ACAD_MLEADERVER
 70
     0
  0
ENDTAB
  0
TABLE
  2
DIMSTYLE
 70
     8
  0
DIMSTYLE
  2
ISO-25
 70
     0
  3

  4

  5

  6

  7

 40
1.0
 41
2.5
 42
0.625
 43
3.75
 44
1.25
 45
0.0
 46
0.0
 47
0.0
 48
0.0
140
2.5
141
2.5
142
0.0
143
0.03937007874016
144
1.0
145
0.0
146
1.0
147
0.625
 71
     0
 72
     0
 73
     0
 74
     0
 75
     0
 76
     0
 77
     1
 78
     8
170
     0
171
     3
172
     1
173
     0
174
     0
175
     0
176
     0
177
     0
178
     0
  0
DIMSTYLE
  2
SLDDIMSTYLE0
 70
     0
  3

  4

  5

  6

  7

 40
1.0
 41
3.5
 42
0.0625
 43
0.38
 44
0.0
 45
0.000000001
 46
0.0
 47
0.0
 48
0.0
140
3.5
141
0.09
142
0.0
143
25.399999999999999
144
1.0
145
0.0
146
1.0
147
0.875
 71
     0
 72
     0
 73
     0
 74
     0
 75
     0
 76
     0
 77
     1
 78
    12
170
     0
171
     2
172
     0
173
     1
174
     0
175
     0
176
     0
177
     0
178
     0
  0
DIMSTYLE
  2
SLDDIMSTYLE1
 70
     0
  3
<>
  4

  5

  6

  7

 40
1.0
 41
3.5
 42
0.0625
 43
0.38
 44
0.0
 45
0.000000001
 46
0.0
 47
0.0
 48
0.0
140
3.5
141
0.09
142
0.0
143
25.399999999999999
144
1.0
145
0.0
146
1.0
147
0.875
 71
     0
 72
     0
 73
     1
 74
     1
 75
     0
 76
     0
 77
     0
 78
    12
170
     0
171
     2
172
     0
173
     1
174
     0
175
     0
176
     0
177
     0
178
     0
  0
DIMSTYLE
  2
SLDDIMSTYLE2
 70
     0
  3

  4

  5

  6

  7

 40
1.0
 41
3.5
 42
0.0625
 43
0.38
 44
0.0
 45
0.000000001
 46
0.0
 47
0.0
 48
0.0
140
3.5
141
0.09
142
0.0
143
25.399999999999999
144
1.0
145
0.0
146
1.0
147
0.875
 71
     0
 72
     0
 73
     0
 74
     0
 75
     0
 76
     0
 77
     1
 78
    12
170
     0
171
     2
172
     0
173
     1
174
     0
175
     0
176
     0
177
     0
178
     0
  0
DIMSTYLE
  2
SLDDIMSTYLE3
 70
     0
  3

  4

  5

  6

  7

 40
1.0
 41
3.5
 42
0.0625
 43
0.38
 44
0.0
 45
0.000000001
 46
0.0
 47
0.0
 48
0.0
140
3.5
141
0.09
142
0.0
143
25.399999999999999
144
1.0
145
0.0
146
1.0
147
0.875
 71
     0
 72
     0
 73
     0
 74
     0
 75
     0
 76
     0
 77
     1
 78
    12
170
     0
171
     2
172
     0
173
     1
174
     0
175
     0
176
     0
177
     0
178
     0
  0
DIMSTYLE
  2
SLDDIMSTYLE4
 70
     0
  3

  4

  5

  6

  7

 40
1.0
 41
3.5
 42
0.0625
 43
0.38
 44
0.0
 45
0.000000001
 46
0.0
 47
0.0
 48
0.0
140
0.0
141
0.09
142
0.0
143
25.399999999999999
144
1.0
145
0.0
146
3.5
147
0.0
 71
     0
 72
     0
 73
     1
 74
     1
 75
     0
 76
     0
 77
     0
 78
     0
170
     0
171
     2
172
     0
173
     1
174
     0
175
     0
176
     0
177
     0
178
     0
  0
DIMSTYLE
  2
SLDDIMSTYLE5
 70
     0
  3

  4

  5

  6

  7

 40
1.0
 41
3.5
 42
0.0625
 43
0.38
 44
0.0
 45
0.0
 46
0.0
 47
0.0
 48
0.0
140
3.5
141
0.09
142
0.0
143
25.399999999999999
144
1.0
145
0.0
146
1.0
147
0.875
 71
     0
 72
     0
 73
     0
 74
     0
 75
     0
 76
     0
 77
     1
 78
    12
170
     0
171
     2
172
     0
173
     1
174
     0
175
     0
176
     0
177
     0
178
     0
  0
DIMSTYLE
  2
SLDDIMSTYLE6
 70
     0
  3

  4

  5

  6

  7

 40
1.0
 41
3.5
 42
0.0625
 43
0.38
 44
0.0
 45
0.000000001
 46
0.0
 47
0.0
 48
0.0
140
3.5
141
0.09
142
0.0
143
25.399999999999999
144
1.0
145
0.0
146
1.0
147
0.875
 71
     0
 72
     0
 73
     0
 74
     0
 75
     0
 76
     0
 77
     1
 78
    12
170
     0
171
     2
172
     0
173
     1
174
     0
175
     0
176
     0
177
     0
178
     0
  0
ENDTAB
  0
ENDSEC
  0
SECTION
  2
BLOCKS
  0
BLOCK
  8
0
  2
$MODEL_SPACE
 70
     0
 10
0.0
 20
0.0
 30
0.0
  3
$MODEL_SPACE
  1

  0
ENDBLK
  5
21
  8
0
  0
BLOCK
 67
     1
  8
0
  2
$PAPER_SPACE
 70
     0
 10
0.0
 20
0.0
 30
0.0
  3
$PAPER_SPACE
  1

  0
ENDBLK
  5
1D
 67
     1
  8
0
  0
BLOCK
  8
0
  2
SW_NOTE_0
 70
     0
 10
0.0
 20
0.0
 30
0.0
  3
SW_NOTE_0
  1

  0
INSERT
  5
99
  8
0
  2
*U26
 10
0.0
 20
0.0
 30
0.0
  0
INSERT
  5
9A
  8
0
  2
*U27
 10
0.0
 20
0.0
 30
0.0
  0
INSERT
  5
9B
  8
0
  2
*U28
 10
0.0
 20
0.0
 30
0.0
  0
ENDBLK
  5
75
  8
0
  0
BLOCK
  8
0
  2
SW_NOTE_1
 70
     0
 10
0.0
 20
0.0
 30
0.0
  3
SW_NOTE_1
  1

  0
INSERT
  5
A0
  8
0
  2
*U29
 10
0.0
 20
0.0
 30
0.0
  0
INSERT
  5
A1
  8
0
  2
*U30
 10
0.0
 20
0.0
 30
0.0
  0
ENDBLK
  5
9F
  8
0
  0
BLOCK
  8
0
  2
SW_NOTE_2
 70
     0
 10
0.0
 20
0.0
 30
0.0
  3
SW_NOTE_2
  1

  0
INSERT
  5
C0
  8
0
  2
*U56
 10
0.0
 20
0.0
 30
0.0
  0
INSERT
  5
C1
  8
0
  2
*U57
 10
0.0
 20
0.0
 30
0.0
  0
ENDBLK
  5
BF
  8
0
  0
BLOCK
  8
0
  2
SW_TABLEANNOTATION_0
 70
     0
 10
0.0
 20
0.0
 30
0.0
  3
SW_TABLEANNOTATION_0
  1

  0
LINE
  5
CB
  8
LINIEN-DÜNN
 62
     0
 10
0.0
 20
0.0
 30
0.0
 11
0.0
 21
-21.079681700535151
 31
0.0
  0
LINE
  5
CC
  8
LINIEN-DÜNN
 62
     0
 10
0.0
 20
-21.079681700535151
 30
0.0
 11
44.532029389572479
 21
-21.079681700535151
 31
0.0
  0
LINE
  5
CD
  8
LINIEN-DÜNN
 62
     0
 10
44.532029389572479
 20
-21.079681700535151
 30
0.0
 11
44.532029389572479
 21
0.0
 31
0.0
  0
LINE
  5
CE
  8
LINIEN-DÜNN
 62
     0
 10
44.532029389572479
 20
0.0
 30
0.0
 11
0.0
 21
0.0
 31
0.0
  0
LINE
  5
CF
  8
LINIEN-DÜNN
 62
     0
 10
27.91534433171589
 20
0.0
 30
0.0
 11
27.91534433171589
 21
-21.079681700535151
 31
0.0
  0
LINE
  5
D0
  8
LINIEN-DÜNN
 62
     0
 10
0.0000000000000069
 20
-8.7313334951064228
 30
0.0
 11
44.532029389572479
 21
-8.7313334951064228
 31
0.0
  0
LINE
  5
D1
  8
LINIEN-DÜNN
 62
     0
 10
0.0000000000000069
 20
-12.847449563582661
 30
0.0
 11
44.532029389572479
 21
-12.847449563582661
 31
0.0
  0
LINE
  5
D2
  8
LINIEN-DÜNN
 62
     0
 10
0.0000000000000069
 20
-16.963565632058899
 30
0.0
 11
44.532029389572479
 21
-16.963565632058899
 31
0.0
  0
INSERT
  5
D3
  8
0
  2
*U63
 10
0.0
 20
0.0
 30
0.0
  0
INSERT
  5
D4
  8
0
  2
*U64
 10
0.0
 20
0.0
 30
0.0
  0
INSERT
  5
D5
  8
0
  2
*U65
 10
0.0
 20
0.0
 30
0.0
  0
INSERT
  5
D6
  8
0
  2
*U66
 10
0.0
 20
0.0
 30
0.0
  0
INSERT
  5
D7
  8
0
  2
*U67
 10
0.0
 20
0.0
 30
0.0
  0
INSERT
  5
D8
  8
0
  2
*U68
 10
0.0
 20
0.0
 30
0.0
  0
INSERT
  5
D9
  8
0
  2
*U69
 10
0.0
 20
0.0
 30
0.0
  0
INSERT
  5
DA
  8
0
  2
*U70
 10
0.0
 20
0.0
 30
0.0
  0
ENDBLK
  5
CA
  8
0
  0
BLOCK
  8
0
  2
*D5
 70
     1
 10
0.0
 20
0.0
 30
0.0
  3
*D5
  1

  0
SOLID
  5
109
  8
LINIEN-DÜNN
 10
54.463578855766571
 20
226.589526182247
 30
0.0
 11
57.963578855766571
 21
226.07952618224701
 31
0.0
 12
57.963578855766571
 22
227.09952618224699
 32
0.0
 13
57.963578855766571
 23
227.09952618224699
 33
0.0
  0
SOLID
  5
10A
  8
LINIEN-DÜNN
 10
89.463578855766585
 20
226.589526182247
 30
0.0
 11
85.963578855766556
 21
227.09952618224699
 31
0.0
 12
85.963578855766556
 22
226.07952618224701
 32
0.0
 13
85.963578855766556
 23
226.07952618224701
 33
0.0
  0
LINE
  5
10B
  8
LINIEN-DÜNN
 10
54.463578855766571
 20
201.14947746717129
 30
0.0
 11
54.463578855766571
 21
227.589526182247
 31
0.0
  0
LINE
  5
10C
  8
LINIEN-DÜNN
 10
89.463578855766585
 20
201.14947746717129
 30
0.0
 11
89.463578855766585
 21
227.589526182247
 31
0.0
  0
LINE
  5
10D
  8
LINIEN-DÜNN
 10
54.463578855766571
 20
226.589526182247
 30
0.0
 11
89.463578855766585
 21
226.589526182247
 31
0.0
  0
INSERT
  5
10E
  8
0
  2
*U71
 10
0.0
 20
0.0
 30
0.0
  0
ENDBLK
  5
108
  8
0
  0
BLOCK
  8
0
  2
*D6
 70
     1
 10
0.0
 20
0.0
 30
0.0
  3
*D6
  1

  0
SOLID
  5
113
  8
LINIEN-DÜNN
 10
111.4635788557666
 20
206.14947746717129
 30
0.0
 11
110.95357885576649
 21
202.64947746717129
 31
0.0
 12
111.9735788557666
 22
202.64947746717129
 32
0.0
 13
111.9735788557666
 23
202.64947746717129
 33
0.0
  0
SOLID
  5
114
  8
LINIEN-DÜNN
 10
111.4635788557666
 20
126.14947746717129
 30
0.0
 11
111.9735788557666
 21
129.64947746717129
 31
0.0
 12
110.95357885576649
 22
129.64947746717129
 32
0.0
 13
110.95357885576649
 23
129.64947746717129
 33
0.0
  0
LINE
  5
115
  8
LINIEN-DÜNN
 10
84.463578855766585
 20
206.14947746717129
 30
0.0
 11
112.4635788557666
 21
206.14947746717129
 31
0.0
  0
LINE
  5
116
  8
LINIEN-DÜNN
 10
84.463578855766585
 20
126.14947746717129
 30
0.0
 11
112.4635788557666
 21
126.14947746717129
 31
0.0
  0
LINE
  5
117
  8
LINIEN-DÜNN
 10
111.4635788557666
 20
206.14947746717129
 30
0.0
 11
111.4635788557666
 21
126.14947746717129
 31
0.0
  0
INSERT
  5
118
  8
0
  2
*U72
 10
0.0
 20
0.0
 30
0.0
  0
ENDBLK
  5
112
  8
0
  0
BLOCK
  8
0
  2
*D7
 70
     1
 10
0.0
 20
0.0
 30
0.0
  3
*D7
  1

  0
SOLID
  5
11E
  8
LINIEN-DÜNN
 10
69.009614492035993
 20
193.45242453150061
 30
0.0
 11
66.081021424473732
 21
191.46913366916439
 31
0.0
 12
66.768769923069755
 22
190.71587275641309
 32
0.0
 13
66.768769923069755
 23
190.71587275641309
 33
0.0
  0
SOLID
  5
11F
  8
LINIEN-DÜNN
 10
74.917543219497119
 20
198.84653040284201
 30
0.0
 11
77.84613628705938
 21
200.8298212651782
 31
0.0
 12
77.158387788463358
 22
201.5830821779295
 32
0.0
 13
77.158387788463358
 23
201.5830821779295
 33
0.0
  0
LINE
  5
120
  8
LINIEN-DÜNN
 10
69.009614492035993
 20
193.45242453150061
 30
0.0
 11
63.840176855507487
 21
188.7325818940769
 31
0.0
  0
LINE
  5
121
  8
LINIEN-DÜNN
 10
74.917543219497119
 20
198.84653040284201
 30
0.0
 11
92.332200748228246
 21
214.74660482088541
 31
0.0
  0
LINE
  5
122
  8
LINIEN-DÜNN
 10
92.332200748228246
 20
214.74660482088541
 30
0.0
 11
152.08386649420501
 21
214.74660482088541
 31
0.0
  0
INSERT
  5
128
  8
LINIEN-DÜNN
  2
SW_SYMBOL_HOLE_SINK
 10
111.4054193163943
 20
215.25247313265561
 30
0.0
 41
0.0045117370892019
 42
0.0045117370892019
 43
0.0045117370892019
  0
INSERT
  5
129
  8
0
  2
*U73
 10
0.0
 20
0.0
 30
0.0
  0
TEXT
  8
LINIEN-DÜNN
  40
3.5
  5
5BD
  72
0
  71
0
 10
125.833
 20
214.708
 30
-1.57650e-012
  1
 
  7
SLDTEXTSTYLE0
  0
INSERT
  5
12B
  8
0
  2
*U74
 10
0.0
 20
0.0
 30
0.0
  0
INSERT
  5
12C
  8
0
  2
*U75
 10
0.0
 20
0.0
 30
0.0
  0
INSERT
  5
12D
  8
0
  2
*U76
 10
0.0
 20
0.0
 30
0.0
  0
INSERT
  5
12E
  8
0
  2
*U77
 10
0.0
 20
0.0
 30
0.0
  0
INSERT
  5
12F
  8
0
  2
*U78
 10
0.0
 20
0.0
 30
0.0
  0
INSERT
  5
130
  8
0
  2
*U79
 10
0.0
 20
0.0
 30
0.0
  0
TEXT
  8
LINIEN-DÜNN
  40
3.5
  5
5BE
  72
0
  71
0
 10
108.464
 20
220.151
 30
-1.61450e-012
  1
 
  7
SLDTEXTSTYLE0
  0
INSERT
  5
132
  8
0
  2
*U80
 10
0.0
 20
0.0
 30
0.0
  0
TEXT
  8
LINIEN-DÜNN
  40
3.5
  5
5BF
  72
0
  71
0
 10
111.926
 20
220.151
 30
-1.61450e-012
  1
 
  7
SLDTEXTSTYLE0
  0
INSERT
  5
134
  8
0
  2
*U81
 10
0.0
 20
0.0
 30
0.0
  0
ENDBLK
  5
11D
  8
0
  0
BLOCK
  8
0
  2
SW_SYMBOL_HOLE_SINK
 70
     0
 10
0.0
 20
0.0
 30
0.0
  3
SW_SYMBOL_HOLE_SINK
  1

  0
LINE
  5
126
  8
LINIEN-DÜNN
 62
     0
 10
0.0
 20
875.0
 30
0.0
 11
800.0
 21
75.0
 31
0.0
  0
LINE
  5
127
  8
LINIEN-DÜNN
 62
     0
 10
800.0
 20
75.0
 30
0.0
 11
1600.0
 21
875.0
 31
0.0
  0
ENDBLK
  5
125
  8
0
  0
BLOCK
  8
0
  2
*D9
 70
     1
 10
0.0
 20
0.0
 30
0.0
  3
*D9
  1

  0
SOLID
  5
13A
  8
LINIEN-DÜNN
 10
36.252244219203291
 20
206.14947746717129
 30
0.0
 11
36.762244219203282
 21
209.64947746717129
 31
0.0
 12
35.742244219203293
 22
209.64947746717129
 32
0.0
 13
35.742244219203293
 23
209.64947746717129
 33
0.0
  0
SOLID
  5
13B
  8
LINIEN-DÜNN
 10
36.252244219203291
 20
196.14947746717129
 30
0.0
 11
35.742244219203293
 21
192.64947746717129
 31
0.0
 12
36.762244219203282
 22
192.64947746717129
 32
0.0
 13
36.762244219203282
 23
192.64947746717129
 33
0.0
  0
LINE
  5
13C
  8
LINIEN-DÜNN
 10
59.463578855766571
 20
206.14947746717129
 30
0.0
 11
35.252244219203291
 21
206.14947746717129
 31
0.0
  0
LINE
  5
13D
  8
LINIEN-DÜNN
 10
64.463578855766571
 20
196.14947746717129
 30
0.0
 11
35.252244219203291
 21
196.14947746717129
 31
0.0
  0
LINE
  5
13E
  8
LINIEN-DÜNN
 10
36.252244219203291
 20
206.14947746717129
 30
0.0
 11
36.252244219203291
 21
213.14947746717129
 31
0.0
  0
LINE
  5
13F
  8
LINIEN-DÜNN
 10
36.252244219203291
 20
206.14947746717129
 30
0.0
 11
36.252244219203291
 21
196.14947746717129
 31
0.0
  0
LINE
  5
140
  8
LINIEN-DÜNN
 10
36.252244219203291
 20
196.14947746717129
 30
0.0
 11
36.252244219203291
 21
189.14947746717129
 31
0.0
  0
INSERT
  5
141
  8
0
  2
*U82
 10
0.0
 20
0.0
 30
0.0
  0
ENDBLK
  5
139
  8
0
  0
BLOCK
  8
0
  2
*D10
 70
     1
 10
0.0
 20
0.0
 30
0.0
  3
*D10
  1

  0
SOLID
  5
146
  8
LINIEN-DÜNN
 10
36.252244219203263
 20
196.14947746717129
 30
0.0
 11
35.742244219203258
 21
192.64947746717129
 31
0.0
 12
36.762244219203261
 22
192.64947746717129
 32
0.0
 13
36.762244219203261
 23
192.64947746717129
 33
0.0
  0
SOLID
  5
147
  8
LINIEN-DÜNN
 10
36.252244219203263
 20
136.14947746717129
 30
0.0
 11
36.762244219203261
 21
139.64947746717129
 31
0.0
 12
35.742244219203258
 22
139.64947746717129
 32
0.0
 13
35.742244219203258
 23
139.64947746717129
 33
0.0
  0
LINE
  5
148
  8
LINIEN-DÜNN
 10
64.463578855766571
 20
196.14947746717129
 30
0.0
 11
35.252244219203263
 21
196.14947746717129
 31
0.0
  0
LINE
  5
149
  8
LINIEN-DÜNN
 10
64.463578855766571
 20
136.14947746717129
 30
0.0
 11
35.252244219203263
 21
136.14947746717129
 31
0.0
  0
LINE
  5
14A
  8
LINIEN-DÜNN
 10
36.252244219203263
 20
196.14947746717129
 30
0.0
 11
36.252244219203263
 21
136.14947746717129
 31
0.0
  0
INSERT
  5
14B
  8
0
  2
*U83
 10
0.0
 20
0.0
 30
0.0
  0
ENDBLK
  5
145
  8
0
  0
BLOCK
  8
0
  2
*D11
 70
     1
 10
0.0
 20
0.0
 30
0.0
  3
*D11
  1

  0
SOLID
  5
151
  8
LINIEN-DÜNN
 10
56.220938168647258
 20
127.906836780052
 30
0.0
 11
53.385439976089188
 21
125.79258750430429
 31
0.0
 12
54.10668889289947
 22
125.071338587494
 32
0.0
 13
54.10668889289947
 23
125.071338587494
 33
0.0
  0
LINE
  5
152
  8
LINIEN-DÜNN
 10
56.220938168647258
 20
127.906836780052
 30
0.0
 11
43.888300601905321
 21
115.57419921331019
 31
0.0
  0
LINE
  5
153
  8
LINIEN-DÜNN
 10
56.220938168647258
 20
127.906836780052
 30
0.0
 11
60.463578855766571
 21
132.14947746717129
 31
0.0
  0
INSERT
  5
154
  8
0
  2
*U84
 10
0.0
 20
0.0
 30
0.0
  0
INSERT
  5
155
  8
0
  2
*U85
 10
0.0
 20
0.0
 30
0.0
  0
ENDBLK
  5
150
  8
0
  0
BLOCK
  8
0
  2
SW_NOTE_3
 70
     0
 10
0.0
 20
0.0
 30
0.0
  3
SW_NOTE_3
  1

  0
INSERT
  5
159
  8
0
  2
*U86
 10
0.0
 20
0.0
 30
0.0
  0
INSERT
  5
15A
  8
0
  2
*U87
 10
0.0
 20
0.0
 30
0.0
  0
ENDBLK
  5
158
  8
0
  0
BLOCK
  8
0
  2
SW_CENTERMARKSYMBOL_0
 70
     0
 10
0.0
 20
0.0
 30
0.0
  3
SW_CENTERMARKSYMBOL_0
  1

  0
LINE
  5
161
  8
LINIEN-DÜNN
 62
     0
 10
0.0
 20
0.0
 30
0.0
 11
0.0
 21
2.5000000000000022
 31
0.0
  0
LINE
  5
162
  8
LINIEN-DÜNN
 62
     0
 10
0.0
 20
0.0
 30
0.0
 11
-2.5000000000000022
 21
0.0
 31
0.0
  0
LINE
  5
163
  8
LINIEN-DÜNN
 62
     0
 10
0.0
 20
0.0
 30
0.0
 11
0.0
 21
-2.5000000000000022
 31
0.0
  0
LINE
  5
164
  8
LINIEN-DÜNN
 62
     0
 10
0.0
 20
0.0
 30
0.0
 11
2.5000000000000022
 21
0.0
 31
0.0
  0
LINE
  5
165
  8
LINIEN-DÜNN
 62
     0
 10
0.0
 20
5.0000000000000044
 30
0.0
 11
0.0
 21
6.5000000000000053
 31
0.0
  0
LINE
  5
166
  8
LINIEN-DÜNN
 62
     0
 10
-5.0000000000000044
 20
0.0
 30
0.0
 11
-6.499999999999992
 21
0.0
 31
0.0
  0
LINE
  5
167
  8
LINIEN-DÜNN
 62
     0
 10
0.0
 20
-5.0000000000000044
 30
0.0
 11
0.0
 21
-6.5000000000000053
 31
0.0
  0
LINE
  5
168
  8
LINIEN-DÜNN
 62
     0
 10
5.0000000000000044
 20
0.0
 30
0.0
 11
6.5000000000000053
 21
0.0
 31
0.0
  0
ENDBLK
  5
160
  8
0
  0
BLOCK
  8
0
  2
SW_CENTERMARKSYMBOL_1
 70
     0
 10
0.0
 20
0.0
 30
0.0
  3
SW_CENTERMARKSYMBOL_1
  1

  0
LINE
  5
16D
  8
LINIEN-DÜNN
 62
     0
 10
0.0
 20
0.0
 30
0.0
 11
0.0
 21
2.5000000000000022
 31
0.0
  0
LINE
  5
16E
  8
LINIEN-DÜNN
 62
     0
 10
0.0
 20
0.0
 30
0.0
 11
-2.5000000000000022
 21
0.0
 31
0.0
  0
LINE
  5
16F
  8
LINIEN-DÜNN
 62
     0
 10
0.0
 20
0.0
 30
0.0
 11
0.0
 21
-2.5000000000000022
 31
0.0
  0
LINE
  5
170
  8
LINIEN-DÜNN
 62
     0
 10
0.0
 20
0.0
 30
0.0
 11
2.5000000000000022
 21
0.0
 31
0.0
  0
LINE
  5
171
  8
LINIEN-DÜNN
 62
     0
 10
0.0
 20
5.0000000000000044
 30
0.0
 11
0.0
 21
6.5000000000000053
 31
0.0
  0
LINE
  5
172
  8
LINIEN-DÜNN
 62
     0
 10
-5.0000000000000044
 20
0.0
 30
0.0
 11
-6.5000000000000053
 21
0.0
 31
0.0
  0
LINE
  5
173
  8
LINIEN-DÜNN
 62
     0
 10
0.0
 20
-5.0000000000000044
 30
0.0
 11
0.0
 21
-6.5000000000000053
 31
0.0
  0
LINE
  5
174
  8
LINIEN-DÜNN
 62
     0
 10
4.9999999999999902
 20
0.0
 30
0.0
 11
6.5000000000000053
 21
0.0
 31
0.0
  0
ENDBLK
  5
16C
  8
0
  0
BLOCK
  8
0
  2
SW_HATCH_0
 70
     0
 10
0.0
 20
0.0
 30
0.0
  3
SW_HATCH_0
  1

  0
LINE
  5
1D0
  8
0
  6
CONTINUOUS
 62
     0
 10
0.0
 20
0.0
 30
0.0
 11
-0.5127205148969666
 21
-0.5127205148969805
 31
0.0
  0
LINE
  5
1D1
  8
0
  6
CONTINUOUS
 62
     0
 10
4.452735068832693
 20
-0.0373929917019764
 30
0.0
 11
3.2401280605346692
 21
-1.2500000000000011
 31
0.0
  0
LINE
  5
1D2
  8
0
  6
CONTINUOUS
 62
     0
 10
6.9874274698956951
 20
-1.9928286511735609
 30
0.0
 11
6.6542117209871376
 21
-2.3260444000821048
 31
0.0
  0
LINE
  5
1D3
  8
0
  6
CONTINUOUS
 62
     0
 10
7.4067268438456511
 20
-6.063657337758074
 30
0.0
 11
6.2173443087315921
 21
-7.2530398728721526
 31
0.0
  0
LINE
  5
1D4
  8
0
  6
CONTINUOUS
 62
     0
 10
7.63032614155264
 20
-10.330186100585671
 30
0.0
 11
6.4409436064386059
 21
-11.51956863569969
 31
0.0
  0
LINE
  5
1D5
  8
0
  6
CONTINUOUS
 62
     0
 10
7.8539254392596467
 20
-14.5967148634134
 30
0.0
 11
6.6645429041456401
 21
-15.78609739852741
 31
0.0
  0
LINE
  5
1D6
  8
0
  6
CONTINUOUS
 62
     0
 10
22.398366816740189
 20
-0.0522734859328394
 30
0.0
 11
19.73568089085915
 21
-2.7149594118138909
 31
0.0
  0
LINE
  5
1D7
  8
0
  6
CONTINUOUS
 62
     0
 10
20.780704499949621
 20
-6.1600638632578697
 30
0.0
 11
19.459761371532728
 21
-7.4810069916747208
 31
0.0
  0
LINE
  5
1D8
  8
0
  6
CONTINUOUS
 62
     0
 10
26.940768363207528
 20
0.0
 30
0.0
 11
25.690768363207471
 21
-1.250000000000028
 31
0.0
  0
LINE
  5
1D9
  8
0
  6
CONTINUOUS
 62
     0
 10
12.680896423742119
 20
-18.75
 30
0.0
 11
11.430896423742061
 21
-20.000000000000011
 31
0.0
  0
LINE
  5
1DA
  8
0
  6
CONTINUOUS
 62
     0
 10
20.53237232160923
 20
-10.898524102132731
 30
0.0
 11
19.211429193192281
 21
-12.2194672305497
 31
0.0
  0
LINE
  5
1DB
  8
0
  6
CONTINUOUS
 62
     0
 10
30.97038418160378
 20
-0.4605122421382224
 30
0.0
 11
30.180896423742031
 21
-1.2499999999999869
 31
0.0
  0
LINE
  5
1DC
  8
0
  6
CONTINUOUS
 62
     0
 10
17.182178348081891
 20
-18.738846136194791
 30
0.0
 11
15.92102448427668
 21
-19.999999999999979
 31
0.0
  0
LINE
  5
1DD
  8
0
  6
CONTINUOUS
 62
     0
 10
20.28404014326879
 20
-15.636984341007739
 30
0.0
 11
18.960095475975219
 21
-16.960929008301449
 31
0.0
  0
ENDBLK
  5
1CF
  8
0
  0
BLOCK
  8
0
  2
*D16
 70
     1
 10
0.0
 20
0.0
 30
0.0
  3
*D16
  1

  0
SOLID
  5
1E3
  8
LINIEN-DÜNN
 10
49.740795078376323
 20
265.04454589768562
 30
0.0
 11
50.250795078376321
 21
268.54454589768562
 31
0.0
 12
49.230795078376318
 22
268.54454589768562
 32
0.0
 13
49.230795078376318
 23
268.54454589768562
 33
0.0
  0
SOLID
  5
1E4
  8
LINIEN-DÜNN
 10
49.740795078376323
 20
245.04454589768559
 30
0.0
 11
49.230795078376318
 21
241.54454589768559
 31
0.0
 12
50.250795078376321
 22
241.54454589768559
 32
0.0
 13
50.250795078376321
 23
241.54454589768559
 33
0.0
  0
LINE
  5
1E5
  8
LINIEN-DÜNN
 10
53.463578855766563
 20
265.04454589768562
 30
0.0
 11
48.740795078376323
 21
265.04454589768562
 31
0.0
  0
LINE
  5
1E6
  8
LINIEN-DÜNN
 10
67.510161925925686
 20
245.04454589768559
 30
0.0
 11
48.740795078376323
 21
245.04454589768559
 31
0.0
  0
LINE
  5
1E7
  8
LINIEN-DÜNN
 10
49.740795078376323
 20
265.04454589768562
 30
0.0
 11
49.740795078376323
 21
272.04454589768562
 31
0.0
  0
LINE
  5
1E8
  8
LINIEN-DÜNN
 10
49.740795078376323
 20
265.04454589768562
 30
0.0
 11
49.740795078376323
 21
245.04454589768559
 31
0.0
  0
LINE
  5
1E9
  8
LINIEN-DÜNN
 10
49.740795078376323
 20
245.04454589768559
 30
0.0
 11
49.740795078376323
 21
238.04454589768551
 31
0.0
  0
INSERT
  5
1EA
  8
0
  2
*U93
 10
0.0
 20
0.0
 30
0.0
  0
ENDBLK
  5
1E2
  8
0
  0
BLOCK
  8
0
  2
*D17
 70
     1
 10
0.0
 20
0.0
 30
0.0
  3
*D17
  1

  0
SOLID
  5
1EF
  8
LINIEN-DÜNN
 10
66.465454628080792
 20
236.20934063396979
 30
0.0
 11
62.965454628080792
 21
236.71934063396981
 31
0.0
 12
62.965454628080792
 22
235.6993406339698
 32
0.0
 13
62.965454628080792
 23
235.6993406339698
 33
0.0
  0
SOLID
  5
1F0
  8
LINIEN-DÜNN
 10
77.461703083452377
 20
236.20934063396979
 30
0.0
 11
80.961703083452377
 21
235.6993406339698
 31
0.0
 12
80.961703083452377
 22
236.71934063396981
 32
0.0
 13
80.961703083452377
 23
236.71934063396981
 33
0.0
  0
LINE
  5
1F1
  8
LINIEN-DÜNN
 10
66.465454628080792
 20
247.18987398519971
 30
0.0
 11
66.465454628080792
 21
235.2093406339697
 31
0.0
  0
LINE
  5
1F2
  8
LINIEN-DÜNN
 10
77.461703083452377
 20
247.18987398519971
 30
0.0
 11
77.461703083452377
 21
235.2093406339697
 31
0.0
  0
LINE
  5
1F3
  8
LINIEN-DÜNN
 10
66.465454628080792
 20
236.20934063396979
 30
0.0
 11
59.465454628080792
 21
236.20934063396979
 31
0.0
  0
LINE
  5
1F4
  8
LINIEN-DÜNN
 10
66.465454628080792
 20
236.20934063396979
 30
0.0
 11
77.461703083452377
 21
236.20934063396979
 31
0.0
  0
LINE
  5
1F5
  8
LINIEN-DÜNN
 10
77.461703083452377
 20
236.20934063396979
 30
0.0
 11
84.461703083452363
 21
236.20934063396979
 31
0.0
  0
INSERT
  5
1F6
  8
0
  2
*U94
 10
0.0
 20
0.0
 30
0.0
  0
ENDBLK
  5
1EE
  8
0
  0
BLOCK
  8
0
  2
*D18
 70
     1
 10
0.0
 20
0.0
 30
0.0
  3
*D18
  1

  0
SOLID
  5
1FB
  8
LINIEN-DÜNN
 10
99.463578855766556
 20
263.79454589768562
 30
0.0
 11
98.953578855766565
 21
260.29454589768562
 31
0.0
 12
99.973578855766561
 22
260.29454589768562
 32
0.0
 13
99.973578855766561
 23
260.29454589768562
 33
0.0
  0
SOLID
  5
1FC
  8
LINIEN-DÜNN
 10
99.463578855766556
 20
265.04454589768562
 30
0.0
 11
99.973578855766561
 21
268.54454589768562
 31
0.0
 12
98.953578855766565
 22
268.54454589768562
 32
0.0
 13
98.953578855766565
 23
268.54454589768562
 33
0.0
  0
LINE
  5
1FD
  8
LINIEN-DÜNN
 10
90.463578855766571
 20
263.79454589768562
 30
0.0
 11
100.4635788557665
 21
263.79454589768562
 31
0.0
  0
LINE
  5
1FE
  8
LINIEN-DÜNN
 10
90.463578855766571
 20
265.04454589768562
 30
0.0
 11
100.4635788557665
 21
265.04454589768562
 31
0.0
  0
LINE
  5
1FF
  8
LINIEN-DÜNN
 10
99.463578855766556
 20
263.79454589768562
 30
0.0
 11
99.463578855766556
 21
256.79454589768551
 31
0.0
  0
LINE
  5
200
  8
LINIEN-DÜNN
 10
99.463578855766556
 20
263.79454589768562
 30
0.0
 11
99.463578855766556
 21
265.04454589768562
 31
0.0
  0
LINE
  5
201
  8
LINIEN-DÜNN
 10
99.463578855766556
 20
265.04454589768562
 30
0.0
 11
99.463578855766556
 21
280.0997091008627
 31
0.0
  0
INSERT
  5
202
  8
0
  2
*U95
 10
0.0
 20
0.0
 30
0.0
  0
ENDBLK
  5
1FA
  8
0
  0
BLOCK
  8
0
  2
*D19
 70
     1
 10
0.0
 20
0.0
 30
0.0
  3
*D19
  1

  0
LINE
  5
539
  8
LINIEN-DÜNN
 62
     0
 10
73.963578855766571
 20
268.3892509343541
 30
0.0
 11
73.963578855766656
 21
278.79646846465442
 31
0.0
  0
LINE
  5
53A
  8
LINIEN-DÜNN
 62
     0
 10
67.742762099868969
 20
261.97966889920951
 30
0.0
 11
66.871164226827531
 21
278.61074705144489
 31
0.0
  0
ARC
  5
53B
  8
LINIEN-DÜNN
 62
     0
 10
73.963578855766642
 20
143.27941407061709
 30
0.0
 40
135.51705439403719
 50
91.47981966628339
 51
91.520180333716695
  0
SOLID
  5
53C
  8
LINIEN-DÜNN
 62
     0
 10
70.456337818220504
 20
279.3345558946599
 30
0.0
 11
70.471403572680671
 21
278.16798650788792
 31
0.0
 12
73.963578855766656
 22
278.79646846465442
 32
0.0
 13
73.963578855766656
 23
278.79646846465442
 33
0.0
  0
SOLID
  5
53D
  8
LINIEN-DÜNN
 62
     0
 10
70.391445809245909
 20
278.16589274016582
 30
0.0
 11
70.345437392232753
 21
279.33165186480312
 31
0.0
 12
66.871164226827531
 22
278.61074705144489
 32
0.0
 13
66.871164226827531
 23
278.61074705144489
 33
0.0
  0
TEXT
  8
LINIEN-DÜNN
  40
3.5
  5
5C0
  62
0
  72
0
  71
0
 10
55.4280
 20
276.545
 30
0.000000
  1
3.00%%d
  7
SLDTEXTSTYLE0
  0
POINT
  5
53F
  8
Defpoints
 62
     0
 10
71.598480143298403
 20
278.77582856087861
 30
0.0
  0
POINT
  5
540
  8
Defpoints
 62
     0
 10
73.963578855766599
 20
243.042914137607
 30
0.0
  0
POINT
  5
541
  8
Defpoints
 62
     0
 10
67.746033097134159
 20
261.91725455328731
 30
0.0
  0
POINT
  5
542
  8
Defpoints
 62
     0
 10
68.465454628080806
 20
248.18987398519971
 30
0.0
  0
POINT
  5
543
  8
Defpoints
 62
     0
 10
73.963578855766585
 20
268.3267509343541
 30
0.0
  0
ENDBLK
  5
207
  8
0
  0
BLOCK
  8
0
  2
*D20
 70
     1
 10
0.0
 20
0.0
 30
0.0
  3
*D20
  1

  0
SOLID
  5
214
  8
LINIEN-DÜNN
 10
67.048500135216841
 20
246.88033233531249
 30
0.0
 11
64.213001942658778
 21
244.76608305956469
 31
0.0
 12
64.93425085946906
 22
244.04483414275441
 32
0.0
 13
64.93425085946906
 23
244.04483414275441
 33
0.0
  0
LINE
  5
215
  8
LINIEN-DÜNN
 10
67.048500135216841
 20
246.88033233531249
 30
0.0
 11
57.52295951925953
 21
237.35479171935529
 31
0.0
  0
LINE
  5
216
  8
LINIEN-DÜNN
 10
67.048500135216841
 20
246.88033233531249
 30
0.0
 11
68.462713697589933
 21
248.29454589768559
 31
0.0
  0
INSERT
  5
217
  8
0
  2
*U96
 10
0.0
 20
0.0
 30
0.0
  0
INSERT
  5
218
  8
0
  2
*U97
 10
0.0
 20
0.0
 30
0.0
  0
ENDBLK
  5
213
  8
0
  0
BLOCK
  8
0
  2
*D21
 70
     1
 10
0.0
 20
0.0
 30
0.0
  3
*D21
  1

  0
SOLID
  5
21E
  8
LINIEN-DÜNN
 10
63.912217423152917
 20
263.20875946005867
 30
0.0
 11
61.1238173665921
 21
261.03277115021609
 31
0.0
 12
61.86072626224928
 22
260.32752985852841
 32
0.0
 13
61.86072626224928
 23
260.32752985852841
 33
0.0
  0
LINE
  5
21F
  8
LINIEN-DÜNN
 10
63.912217423152917
 20
263.20875946005867
 30
0.0
 11
55.997093806884017
 21
254.9382213168696
 31
0.0
  0
INSERT
  5
220
  8
0
  2
*U98
 10
0.0
 20
0.0
 30
0.0
  0
INSERT
  5
221
  8
0
  2
*U99
 10
0.0
 20
0.0
 30
0.0
  0
ENDBLK
  5
21D
  8
0
  0
BLOCK
  8
0
  2
*D22
 70
     1
 10
0.0
 20
0.0
 30
0.0
  3
*D22
  1

  0
SOLID
  5
24C
  8
LINIEN-DÜNN
 10
141.39158171318331
 20
178.14760169485709
 30
0.0
 11
140.88158171318329
 21
174.64760169485709
 31
0.0
 12
141.9015817131833
 22
174.64760169485709
 32
0.0
 13
141.9015817131833
 23
174.64760169485709
 33
0.0
  0
SOLID
  5
24D
  8
LINIEN-DÜNN
 10
141.39158171318331
 20
154.1513532394855
 30
0.0
 11
141.9015817131833
 21
157.6513532394855
 31
0.0
 12
140.88158171318329
 22
157.6513532394855
 32
0.0
 13
140.88158171318329
 23
157.6513532394855
 33
0.0
  0
LINE
  5
24E
  8
LINIEN-DÜNN
 10
157.46318524492619
 20
178.14760169485709
 30
0.0
 11
140.39158171318331
 21
178.14760169485709
 31
0.0
  0
LINE
  5
24F
  8
LINIEN-DÜNN
 10
157.46318524492619
 20
154.1513532394855
 30
0.0
 11
140.39158171318331
 21
154.1513532394855
 31
0.0
  0
LINE
  5
250
  8
LINIEN-DÜNN
 10
141.39158171318331
 20
178.14760169485709
 30
0.0
 11
141.39158171318331
 21
154.1513532394855
 31
0.0
  0
INSERT
  5
251
  8
0
  2
*U104
 10
0.0
 20
0.0
 30
0.0
  0
ENDBLK
  5
24B
  8
0
  0
BLOCK
  8
0
  2
*D23
 70
     1
 10
0.0
 20
0.0
 30
0.0
  3
*D23
  1

  0
LINE
  5
582
  8
LINIEN-DÜNN
 62
     0
 10
180.34152276046331
 20
166.14947746717129
 30
0.0
 11
188.56633373233629
 21
166.14947746717121
 31
0.0
  0
LINE
  5
583
  8
LINIEN-DÜNN
 62
     0
 10
172.252980158936
 20
178.8702942230689
 30
0.0
 11
188.21132704898241
 21
179.7066357446046
 31
0.0
  0
ARC
  5
584
  8
LINIEN-DÜNN
 62
     0
 10
-70.474663139892428
 20
166.14947746717129
 30
0.0
 40
259.04099687222867
 50
358.45169871850288
 51
359.22584935925153
  0
ARC
  5
585
  8
LINIEN-DÜNN
 62
     0
 10
-70.474663139892428
 20
166.14947746717129
 30
0.0
 40
259.04099687222867
 50
3.7741506407484691
 51
4.5483012814969861
  0
SOLID
  5
586
  8
LINIEN-DÜNN
 62
     0
 10
187.95936880470271
 20
162.65349815453209
 30
0.0
 11
189.12600884813349
 21
162.645616519226
 31
0.0
 12
188.56633373233629
 22
166.14947746717121
 32
0.0
 13
188.56633373233629
 23
166.14947746717121
 33
0.0
  0
SOLID
  5
587
  8
LINIEN-DÜNN
 62
     0
 10
188.58685723623159
 20
183.2349859052664
 30
0.0
 11
187.42222852535491
 21
183.16605784920341
 31
0.0
 12
188.21132704898241
 22
179.7066357446046
 32
0.0
 13
188.21132704898241
 23
179.7066357446046
 33
0.0
  0
TEXT
  8
LINIEN-DÜNN
  40
3.5
  5
5C1
  62
0
  72
0
  71
0
 10
185.759
 20
170.378
 30
0.000000
  1
3.00%%d
  7
SLDTEXTSTYLE0
  0
POINT
  5
589
  8
Defpoints
 62
     0
 10
188.52688053381939
 20
170.67036622850429
 30
0.0
  0
POINT
  5
58A
  8
Defpoints
 62
     0
 10
180.27902276046331
 20
166.14947746717129
 30
0.0
  0
POINT
  5
58B
  8
Defpoints
 62
     0
 10
158.46318524492619
 20
178.14760169485709
 30
0.0
  0
POINT
  5
58C
  8
Defpoints
 62
     0
 10
172.19056581301379
 20
178.86702322580371
 30
0.0
  0
POINT
  5
58D
  8
Defpoints
 62
     0
 10
149.9792249444576
 20
166.14947746717129
 30
0.0
  0
ENDBLK
  5
255
  8
0
  0
BLOCK
  8
0
  2
*D24
 70
     1
 10
0.0
 20
0.0
 30
0.0
  3
*D24
  1

  0
SOLID
  5
262
  8
LINIEN-DÜNN
 10
173.4820707197851
 20
180.70083889978491
 30
0.0
 11
175.65786133316789
 21
177.91228457779019
 31
0.0
 12
176.3631548681868
 22
178.64914347165029
 32
0.0
 13
176.3631548681868
 23
178.64914347165029
 33
0.0
  0
LINE
  5
263
  8
LINIEN-DÜNN
 10
173.4820707197851
 20
180.70083889978491
 30
0.0
 11
165.20566325040701
 21
188.6227038999557
 31
0.0
  0
LINE
  5
264
  8
LINIEN-DÜNN
 10
173.4820707197851
 20
180.70083889978491
 30
0.0
 11
178.53894548156961
 21
175.86058914965551
 31
0.0
  0
INSERT
  5
265
  8
0
  2
*U105
 10
0.0
 20
0.0
 30
0.0
  0
INSERT
  5
266
  8
0
  2
*U106
 10
0.0
 20
0.0
 30
0.0
  0
ENDBLK
  5
261
  8
0
  0
BLOCK
  8
0
  2
*D25
 70
     1
 10
0.0
 20
0.0
 30
0.0
  3
*D25
  1

  0
SOLID
  5
26B
  8
LINIEN-DÜNN
 10
157.153643595039
 20
154.73439874662151
 30
0.0
 11
154.2680797809671
 21
152.6890084477009
 31
0.0
 12
154.9717603001657
 22
151.950609011826
 32
0.0
 13
154.9717603001657
 23
151.950609011826
 33
0.0
  0
LINE
  5
26C
  8
LINIEN-DÜNN
 10
157.153643595039
 20
154.73439874662151
 30
0.0
 11
165.2600562066028
 21
162.45965469645151
 31
0.0
  0
LINE
  5
26D
  8
LINIEN-DÜNN
 10
157.153643595039
 20
154.73439874662151
 30
0.0
 11
152.0861964860938
 21
149.90521871290539
 31
0.0
  0
INSERT
  5
26E
  8
0
  2
*U107
 10
0.0
 20
0.0
 30
0.0
  0
INSERT
  5
26F
  8
0
  2
*U108
 10
0.0
 20
0.0
 30
0.0
  0
ENDBLK
  5
26A
  8
0
  0
BLOCK
  8
0
  2
*U26
 70
     1
 10
0.0
 20
0.0
 30
0.0
  3
*U26
  1

  0
TEXT
  5
2F8
  8
LINIEN-DÜNN
 62
     0
 10
0.0
 20
1.011737089201882
 30
0.0
 40
3.5
  1
Oberflächen geschliffen N7
 41
0.605
  7
SLDTEXTSTYLE0
  0
ENDBLK
  5
2FA
  8
0
  0
BLOCK
  8
0
  2
*U27
 70
     1
 10
0.0
 20
0.0
 30
0.0
  3
*U27
  1

  0
TEXT
  5
2FC
  8
LINIEN-DÜNN
 62
     0
 10
0.0
 20
-3.5090964030771681
 30
0.0
 40
3.5
  1
in Längsrichtung
 41
0.605
  7
SLDTEXTSTYLE0
  0
ENDBLK
  5
2FE
  8
0
  0
BLOCK
  8
0
  2
*U28
 70
     1
 10
0.0
 20
0.0
 30
0.0
  3
*U28
  1

  0
TEXT
  5
300
  8
LINIEN-DÜNN
 62
     0
 10
0.0
 20
-12.55076338763527
 30
0.0
 40
3.5
  1
Material: Edelstahl 1.4301
 41
0.605
  7
SLDTEXTSTYLE0
  0
ENDBLK
  5
302
  8
0
  0
BLOCK
  8
0
  2
*U29
 70
     1
 10
0.0
 20
0.0
 30
0.0
  3
*U29
  1

  0
TEXT
  5
304
  8
LINIEN-DÜNN
 62
     0
 10
0.0
 20
1.0117370892018771
 30
0.0
 40
3.5
  1
Bodenmulde Planet BM D10 schmal
 41
0.605
  7
SLDTEXTSTYLE0
  0
ENDBLK
  5
306
  8
0
  0
BLOCK
  8
0
  2
*U30
 70
     1
 10
0.0
 20
0.0
 30
0.0
  3
*U30
  1

  0
TEXT
  5
308
  8
LINIEN-DÜNN
 62
     0
 10
19.782287999987599
 20
-3.5090964030771761
 30
0.0
 40
3.5
  1
Darstellung Typ 0
 41
0.605
  7
SLDTEXTSTYLE0
  0
ENDBLK
  5
30A
  8
0
  0
BLOCK
  8
0
  2
*U31
 70
     1
 10
0.0
 20
0.0
 30
0.0
  3
*U31
  1

  0
TEXT
  5
30C
  8
VORLAGE_TEXT
 10
19.309380392192899
 20
31.52368978558474
 30
0.0
 40
2.0
  1
Rohmass:
 41
0.605
  7
SLDTEXTSTYLE0
  0
ENDBLK
  5
30E
  8
0
  0
BLOCK
  8
0
  2
*U32
 70
     1
 10
0.0
 20
0.0
 30
0.0
  3
*U32
  1

  0
TEXT
  5
310
  8
TEXT
 10
68.270019238133756
 20
36.457859022376972
 30
0.0
 40
2.5
  1
1.4301 (X5CrNi18-10)
 41
0.605
  7
SLDTEXTSTYLE0
  0
ENDBLK
  5
312
  8
0
  0
BLOCK
  8
0
  2
*U33
 70
     1
 10
0.0
 20
0.0
 30
0.0
  3
*U33
  1

  0
TEXT
  5
314
  8
VORLAGE_TEXT
 10
189.31073577479921
 20
47.260240175864197
 30
0.0
 40
2.0
  1
mm
 41
0.605
  7
SLDTEXTSTYLE0
  0
ENDBLK
  5
316
  8
0
  0
BLOCK
  8
0
  2
*U34
 70
     1
 10
0.0
 20
0.0
 30
0.0
  3
*U34
  1

  0
TEXT
  5
318
  8
VORLAGE_TEXT
 10
151.6093056155789
 20
26.51652003115947
 30
0.0
 40
2.0
  1
Artikel-Nr.
 41
0.605
  7
SLDTEXTSTYLE0
  0
ENDBLK
  5
31A
  8
0
  0
BLOCK
  8
0
  2
*U35
 70
     1
 10
0.0
 20
0.0
 30
0.0
  3
*U35
  1

  0
TEXT
  5
31C
  8
VORLAGE_TEXT
 10
112.020352513548
 20
41.502400962945671
 30
0.0
 40
2.0
  1
Geändert
 41
0.605
  7
SLDTEXTSTYLE0
  0
ENDBLK
  5
31E
  8
0
  0
BLOCK
  8
0
  2
*U36
 70
     1
 10
0.0
 20
0.0
 30
0.0
  3
*U36
  1

  0
TEXT
  5
320
  8
VORLAGE_TEXT
 10
111.7614967989804
 20
31.525377080505461
 30
0.0
 40
2.0
  1
Status:
 41
0.605
  7
SLDTEXTSTYLE0
  0
ENDBLK
  5
322
  8
0
  0
BLOCK
  8
0
  2
*U37
 70
     1
 10
0.0
 20
0.0
 30
0.0
  3
*U37
  1

  0
TEXT
  5
324
  8
VORLAGE_TEXT
 10
52.194329317388757
 20
36.517225029626822
 30
0.0
 40
2.0
  1
Material:
 41
0.605
  7
SLDTEXTSTYLE0
  0
ENDBLK
  5
326
  8
0
  0
BLOCK
  8
0
  2
*U38
 70
     1
 10
0.0
 20
0.0
 30
0.0
  3
*U38
  1

  0
TEXT
  5
328
  8
VORLAGE_TEXT
 10
19.311450101977851
 20
36.495506687794062
 30
0.0
 40
2.0
  1
Gewicht:
 41
0.605
  7
SLDTEXTSTYLE0
  0
ENDBLK
  5
32A
  8
0
  0
BLOCK
  8
0
  2
*U39
 70
     1
 10
0.0
 20
0.0
 30
0.0
  3
*U39
  1

  0
TEXT
  5
32C
  8
TEXT
 10
32.005230465757947
 20
36.426136784639112
 30
0.0
 40
2.5
  1
37.4 g
 41
0.605
  7
SLDTEXTSTYLE0
  0
ENDBLK
  5
32E
  8
0
  0
BLOCK
  8
0
  2
*U40
 70
     1
 10
0.0
 20
0.0
 30
0.0
  3
*U40
  1

  0
TEXT
  5
330
  8
VORLAGE_TEXT
 10
52.226003491047003
 20
31.50133908605364
 30
0.0
 40
2.0
  1
Behandlung:
 41
0.605
  7
SLDTEXTSTYLE0
  0
ENDBLK
  5
332
  8
0
  0
BLOCK
  8
0
  2
*U41
 70
     1
 10
0.0
 20
0.0
 30
0.0
  3
*U41
  1

  0
TEXT
  5
334
  8
VORLAGE_TEXT
 10
19.28203931839473
 20
46.495970597247421
 30
0.0
 40
2.0
  1
Klassifizierung:
 41
0.605
  7
SLDTEXTSTYLE0
  0
ENDBLK
  5
336
  8
0
  0
BLOCK
  8
0
  2
*U42
 70
     1
 10
0.0
 20
0.0
 30
0.0
  3
*U42
  1

  0
TEXT
  5
338
  8
VORLAGE_TEXT
 10
52.220741653649043
 20
46.505473021986859
 30
0.0
 40
2.0
  1
Änderung:
 41
0.605
  7
SLDTEXTSTYLE0
  0
ENDBLK
  5
33A
  8
0
  0
BLOCK
  8
0
  2
*U43
 70
     1
 10
0.0
 20
0.0
 30
0.0
  3
*U43
  1

  0
TEXT
  5
33C
  8
TEXT
 10
171.61171919171159
 20
31.632220981029882
 30
0.0
 40
3.5
  1
A4
 41
0.605
  7
SLDTEXTSTYLE0
  0
ENDBLK
  5
33E
  8
0
  0
BLOCK
  8
0
  2
*U44
 70
     1
 10
0.0
 20
0.0
 30
0.0
  3
*U44
  1

  0
TEXT
  5
340
  8
VORLAGE_TEXT
 10
189.29330066470911
 20
21.946908787568809
 30
0.0
 40
2.0
  1
Index
 41
0.605
  7
SLDTEXTSTYLE0
  0
ENDBLK
  5
342
  8
0
  0
BLOCK
  8
0
  2
*U45
 70
     1
 10
0.0
 20
0.0
 30
0.0
  3
*U45
  1

  0
TEXT
  5
344
  8
TEXT
 10
186.8606144351597
 20
31.63900724387382
 30
0.0
 40
3.5
  1
2 / 2
 41
0.5629999999999999
  7
SLDTEXTSTYLE1
  0
ENDBLK
  5
346
  8
0
  0
BLOCK
  8
0
  2
*U46
 70
     1
 10
0.0
 20
0.0
 30
0.0
  3
*U46
  1

  0
TEXT
  5
348
  8
VORLAGE_TEXT
 10
185.07987876940251
 20
37.017304510823983
 30
0.0
 40
2.0
  1
Blatt / Anz.
 41
0.605
  7
SLDTEXTSTYLE0
  0
ENDBLK
  5
34A
  8
0
  0
BLOCK
  8
0
  2
*U47
 70
     1
 10
0.0
 20
0.0
 30
0.0
  3
*U47
  1

  0
TEXT
  5
34C
  8
VORLAGE_TEXT
 10
52.224998485070337
 20
26.8008232309171
 30
0.0
 40
2.0
  1
Benennung:
 41
0.605
  7
SLDTEXTSTYLE0
  0
ENDBLK
  5
34E
  8
0
  0
BLOCK
  8
0
  2
*U48
 70
     1
 10
0.0
 20
0.0
 30
0.0
  3
*U48
  1

  0
TEXT
  5
350
  8
VORLAGE_TEXT
 10
151.57388881247101
 20
21.51907636275833
 30
0.0
 40
2.0
  1
Zeichnungs-Nr.
 41
0.605
  7
SLDTEXTSTYLE0
  0
ENDBLK
  5
352
  8
0
  0
BLOCK
  8
0
  2
*U49
 70
     1
 10
0.0
 20
0.0
 30
0.0
  3
*U49
  1

  0
TEXT
  5
354
  8
VORLAGE_TEXT
 10
168.80500542804191
 20
47.003865285264183
 30
0.0
 40
2.0
  1
Massstab
 41
0.605
  7
SLDTEXTSTYLE0
  0
ENDBLK
  5
356
  8
0
  0
BLOCK
  8
0
  2
*U50
 70
     1
 10
0.0
 20
0.0
 30
0.0
  3
*U50
  1

  0
TEXT
  5
358
  8
TEXT
 10
171.45268611228519
 20
41.778742679842729
 30
0.0
 40
3.5
  1
1:1
 41
0.605
  7
SLDTEXTSTYLE0
  0
ENDBLK
  5
35A
  8
0
  0
BLOCK
  8
0
  2
*U51
 70
     1
 10
0.0
 20
0.0
 30
0.0
  3
*U51
  1

  0
TEXT
  5
35C
  8
VORLAGE_TEXT
 10
111.9937631722054
 20
46.526330870401793
 30
0.0
 40
2.0
  1
Erstellt/Gez.
 41
0.605
  7
SLDTEXTSTYLE0
  0
ENDBLK
  5
35E
  8
0
  0
BLOCK
  8
0
  2
*U52
 70
     1
 10
0.0
 20
0.0
 30
0.0
  3
*U52
  1

  0
TEXT
  5
360
  8
VORLAGE_TEXT
 10
112.00771417549041
 20
36.528616321881863
 30
0.0
 40
2.0
  1
Geprüft/Freig.
 41
0.605
  7
SLDTEXTSTYLE0
  0
ENDBLK
  5
362
  8
0
  0
BLOCK
  8
0
  2
*U53
 70
     1
 10
0.0
 20
0.0
 30
0.0
  3
*U53
  1

  0
TEXT
  5
364
  8
VORLAGE_TEXT
 10
203.0575164332522
 20
10.00037679321837
 30
0.0
 40
2.0
  1
CAD-System: SolidWorks
 50
90.000000000000185
 41
0.605
  7
SLDTEXTSTYLE0
  0
ENDBLK
  5
366
  8
0
  0
BLOCK
  8
0
  2
*U54
 70
     1
 10
0.0
 20
0.0
 30
0.0
  3
*U54
  1

  0
TEXT
  5
368
  8
TEXT
 10
166.52024551372921
 20
5.5945543798745394
 30
0.0
 40
2.5
  1
Plotdatum: 02.11.2009
 41
0.605
  7
SLDTEXTSTYLE0
  0
ENDBLK
  5
36A
  8
0
  0
BLOCK
  8
0
  2
*U55
 70
     1
 10
0.0
 20
0.0
 30
0.0
  3
*U55
  1

  0
TEXT
  5
36C
  8
VORLAGE_TEXT
 10
170.30328314142389
 20
37.235881088637079
 30
0.0
 40
2.0
  1
Format
 41
0.605
  7
SLDTEXTSTYLE0
  0
ENDBLK
  5
36E
  8
0
  0
BLOCK
  8
0
  2
*U56
 70
     1
 10
0.0
 20
0.0
 30
0.0
  3
*U56
  1

  0
TEXT
  5
370
  8
VORLAGE_TEXT
 62
     0
 10
-0.5781354795439313
 20
0.000000000000007
 30
0.0
 40
2.0
  1
Dieses Dokument ist unser geistiges Eigentum. Es darf ohne unsere ausdrückliche Genehmigung weder kopiert, vervielfältigt oder verwertet,
 50
90.000000000000185
 41
0.605
  7
SLDTEXTSTYLE0
  0
ENDBLK
  5
372
  8
0
  0
BLOCK
  8
0
  2
*U57
 70
     1
 10
0.0
 20
0.0
 30
0.0
  3
*U57
  1

  0
TEXT
  5
374
  8
VORLAGE_TEXT
 62
     0
 10
2.4559709585385572
 20
0.0000000000000071
 30
0.0
 40
2.0
  1
noch an Dritte weitergegeben werden. Zuwiderhandlung ist strafbar und wird gerichtlich verfolgt.  Copyright reserved!   
 50
90.000000000000185
 41
0.605
  7
SLDTEXTSTYLE0
  0
TEXT
  5
375
  8
VORLAGE_TEXT
 62
     0
 10
2.4559709585380869
 20
134.511666666667
 30
0.0
 40
2.0
  1
©  
 50
90.000000000000185
 41
0.605
  7
SLDTEXTSTYLE0
  0
TEXT
  5
376
  8
VORLAGE_TEXT
 62
     0
 10
2.4559709585380798
 20
136.6964347430654
 30
0.0
 40
2.0
  1
Planet GDZ AG
 50
90.000000000000185
 41
0.605
  7
SLDTEXTSTYLE0
  0
ENDBLK
  5
378
  8
0
  0
BLOCK
  8
0
  2
*U58
 70
     1
 10
0.0
 20
0.0
 30
0.0
  3
*U58
  1

  0
TEXT
  5
37A
  8
LINIEN-DÜNN
 10
26.167551157725391
 20
13.494765353552451
 30
0.0
 40
1.5
  1
Neustadtstrasse 2
 41
0.605
  7
SLDTEXTSTYLE0
  0
ENDBLK
  5
37C
  8
0
  0
BLOCK
  8
0
  2
*U59
 70
     1
 10
0.0
 20
0.0
 30
0.0
  3
*U59
  1

  0
TEXT
  5
37E
  8
0
 62
     7
 10
27.337345833663719
 20
15.989987787568859
 30
0.0
 40
1.5
  1
Planet GDZ AG
 41
0.605
  7
SLDTEXTSTYLE0
  0
ENDBLK
  5
380
  8
0
  0
BLOCK
  8
0
  2
*U60
 70
     1
 10
0.0
 20
0.0
 30
0.0
  3
*U60
  1

  0
TEXT
  5
382
  8
LINIEN-DÜNN
 10
24.320054943540359
 20
10.99650982892938
 30
0.0
 40
1.5
  1
CH - 8317 Tagelswangen
 41
0.605
  7
SLDTEXTSTYLE0
  0
ENDBLK
  5
384
  8
0
  0
BLOCK
  8
0
  2
*U61
 70
     1
 10
0.0
 20
0.0
 30
0.0
  3
*U61
  1

  0
TEXT
  5
386
  8
LINIEN-DÜNN
 10
129.28555860926349
 20
45.441854914183608
 30
0.0
 40
3.5
  1
02/11/09
 41
0.605
  7
SLDTEXTSTYLE0
  0
ENDBLK
  5
388
  8
0
  0
BLOCK
  8
0
  2
*U62
 70
     1
 10
0.0
 20
0.0
 30
0.0
  3
*U62
  1

  0
TEXT
  5
38A
  8
LINIEN-DÜNN
 10
149.59646402472339
 20
45.441854914183637
 30
0.0
 40
3.5
  1
Schaar
 41
0.605
  7
SLDTEXTSTYLE0
  0
ENDBLK
  5
38C
  8
0
  0
BLOCK
  8
0
  2
*U63
 70
     1
 10
0.0
 20
0.0
 30
0.0
  3
*U63
  1

  0
TEXT
  5
38E
  8
LINIEN-DÜNN
 62
     0
 10
8.5201718566588482
 20
-5.7226274969830584
 30
-0.00000000000062
 40
2.5
  1
Art. Nr.
 41
0.605
  7
SLDTEXTSTYLE0
  0
ENDBLK
  5
390
  8
0
  0
BLOCK
  8
0
  2
*U64
 70
     1
 10
0.0
 20
0.0
 30
0.0
  3
*U64
  1

  0
TEXT
  5
392
  8
LINIEN-DÜNN
 62
     0
 10
30.402506330751741
 20
-5.7226274969830566
 30
-0.00000000000062
 40
2.5
  1
Mass C
 41
0.605
  7
SLDTEXTSTYLE0
  0
ENDBLK
  5
394
  8
0
  0
BLOCK
  8
0
  2
*U65
 70
     1
 10
0.0
 20
0.0
 30
0.0
  3
*U65
  1

  0
TEXT
  5
396
  8
LINIEN-DÜNN
 62
     0
 10
6.7024634873143754
 20
-12.14635227877439
 30
-0.00000000000062
 40
2.5
  1
900344-0
 41
0.605
  7
SLDTEXTSTYLE0
  0
ENDBLK
  5
398
  8
0
  0
BLOCK
  8
0
  2
*U66
 70
     1
 10
0.0
 20
0.0
 30
0.0
  3
*U66
  1

  0
TEXT
  5
39A
  8
LINIEN-DÜNN
 62
     0
 10
31.930283738070099
 20
-12.14635227877439
 30
-0.00000000000062
 40
2.5
  1
0 mm
 41
0.605
  7
SLDTEXTSTYLE0
  0
ENDBLK
  5
39C
  8
0
  0
BLOCK
  8
0
  2
*U67
 70
     1
 10
0.0
 20
0.0
 30
0.0
  3
*U67
  1

  0
TEXT
  5
39E
  8
LINIEN-DÜNN
 62
     0
 10
6.7024634873143754
 20
-16.262468347250628
 30
-0.00000000000062
 40
2.5
  1
900344-2
 41
0.605
  7
SLDTEXTSTYLE0
  0
ENDBLK
  5
3A0
  8
0
  0
BLOCK
  8
0
  2
*U68
 70
     1
 10
0.0
 20
0.0
 30
0.0
  3
*U68
  1

  0
TEXT
  5
3A2
  8
LINIEN-DÜNN
 62
     0
 10
31.930283738070099
 20
-16.262468347250628
 30
-0.00000000000062
 40
2.5
  1
2 mm
 41
0.605
  7
SLDTEXTSTYLE0
  0
ENDBLK
  5
3A4
  8
0
  0
BLOCK
  8
0
  2
*U69
 70
     1
 10
0.0
 20
0.0
 30
0.0
  3
*U69
  1

  0
TEXT
  5
3A6
  8
LINIEN-DÜNN
 62
     0
 10
6.7024634873143754
 20
-20.37858441572687
 30
-0.00000000000062
 40
2.5
  1
900344-4
 41
0.605
  7
SLDTEXTSTYLE0
  0
ENDBLK
  5
3A8
  8
0
  0
BLOCK
  8
0
  2
*U70
 70
     1
 10
0.0
 20
0.0
 30
0.0
  3
*U70
  1

  0
TEXT
  5
3AA
  8
LINIEN-DÜNN
 62
     0
 10
31.930283738070099
 20
-20.37858441572687
 30
-0.00000000000062
 40
2.5
  1
4 mm
 41
0.605
  7
SLDTEXTSTYLE0
  0
ENDBLK
  5
3AC
  8
0
  0
BLOCK
  8
0
  2
*U71
 70
     1
 10
0.0
 20
0.0
 30
0.0
  3
*U71
  1

  0
TEXT
  5
3AE
  8
LINIEN-DÜNN
 10
69.772082970764146
 20
227.6012630386181
 30
-0.0000000000016592
 40
3.5
  1
35
 41
0.605
  7
SLDTEXTSTYLE0
  0
ENDBLK
  5
3B0
  8
0
  0
BLOCK
  8
0
  2
*U72
 70
     1
 10
0.0
 20
0.0
 30
0.0
  3
*U72
  1

  0
TEXT
  5
3B2
  8
LINIEN-DÜNN
 10
110.4518419993954
 20
163.9579815821688
 30
-0.0000000000012218
 40
3.5
  1
80
 50
90.000000000000398
 41
0.605
  7
SLDTEXTSTYLE0
  0
ENDBLK
  5
3B4
  8
0
  0
BLOCK
  8
0
  2
*U73
 70
     1
 10
0.0
 20
0.0
 30
0.0
  3
*U73
  1

  0
TEXT
  5
3B7
  8
LINIEN-DÜNN
 10
120.6609747747612
 20
215.7583416772566
 30
-0.0000000000015765
 40
3.5
  1
\U+2205
 41
0.605
  7
SLDTEXTSTYLE0
  0
ENDBLK
  5
3B9
  8
0
  0
BLOCK
  8
0
  2
*U74
 70
     1
 10
0.0
 20
0.0
 30
0.0
  3
*U74
  1

  0
TEXT
  5
3BB
  8
LINIEN-DÜNN
 10
126.9294713185317
 20
215.7583416772566
 30
-0.0000000000015765
 40
3.5
  1
8
 41
0.605
  7
SLDTEXTSTYLE0
  0
ENDBLK
  5
3BD
  8
0
  0
BLOCK
  8
0
  2
*U75
 70
     1
 10
0.0
 20
0.0
 30
0.0
  3
*U75
  1

  0
TEXT
  5
3BF
  8
LINIEN-DÜNN
 10
129.29307421020971
 20
215.7583416772566
 30
-0.0000000000015765
 40
3.5
  1
 X
 41
0.605
  7
SLDTEXTSTYLE0
  0
ENDBLK
  5
3C1
  8
0
  0
BLOCK
  8
0
  2
*U76
 70
     1
 10
0.0
 20
0.0
 30
0.0
  3
*U76
  1

  0
TEXT
  5
3C3
  8
LINIEN-DÜNN
 10
134.11971959742269
 20
215.7583416772566
 30
-0.0000000000015765
 40
3.5
  1
90°
 41
0.605
  7
SLDTEXTSTYLE0
  0
ENDBLK
  5
3C5
  8
0
  0
BLOCK
  8
0
  2
*U77
 70
     1
 10
0.0
 20
0.0
 30
0.0
  3
*U77
  1

  0
TEXT
  5
3C7
  8
LINIEN-DÜNN
 10
96.757200748228229
 20
221.2007476883532
 30
-0.0000000000016145
 40
3.5
  1
2
 41
0.605
  7
SLDTEXTSTYLE0
  0
ENDBLK
  5
3C9
  8
0
  0
BLOCK
  8
0
  2
*U78
 70
     1
 10
0.0
 20
0.0
 30
0.0
  3
*U78
  1

  0
TEXT
  5
3CB
  8
LINIEN-DÜNN
 10
99.1208036399062
 20
221.2007476883532
 30
-0.0000000000016145
 40
3.5
  1
 x
 41
0.605
  7
SLDTEXTSTYLE0
  0
ENDBLK
  5
3CD
  8
0
  0
BLOCK
  8
0
  2
*U79
 70
     1
 10
0.0
 20
0.0
 30
0.0
  3
*U79
  1

  0
TEXT
  5
3CF
  8
LINIEN-DÜNN
 10
103.291636795419
 20
221.2007476883532
 30
-0.0000000000016145
 40
3.5
  1
\U+2205
 41
0.605
  7
SLDTEXTSTYLE0
  0
ENDBLK
  5
3D1
  8
0
  0
BLOCK
  8
0
  2
*U80
 70
     1
 10
0.0
 20
0.0
 30
0.0
  3
*U80
  1

  0
TEXT
  5
3D3
  8
LINIEN-DÜNN
 10
109.5619620448914
 20
221.2007476883532
 30
-0.0000000000016145
 40
3.5
  1
5
 41
0.605
  7
SLDTEXTSTYLE0
  0
ENDBLK
  5
3D5
  8
0
  0
BLOCK
  8
0
  2
*U81
 70
     1
 10
0.0
 20
0.0
 30
0.0
  3
*U81
  1

  0
TEXT
  5
3D7
  8
LINIEN-DÜNN
 10
113.0232251791448
 20
221.2007476883532
 30
-0.0000000000016145
 40
3.5
  1
DURCHGANGSLOCH
 41
0.605
  7
SLDTEXTSTYLE0
  0
ENDBLK
  5
3D9
  8
0
  0
BLOCK
  8
0
  2
*U82
 70
     1
 10
0.0
 20
0.0
 30
0.0
  3
*U82
  1

  0
TEXT
  5
3DB
  8
LINIEN-DÜNN
 10
35.240507362832062
 20
198.9579815821688
 30
-0.0000000000014662
 40
3.5
  1
10
 50
90.000000000000398
 41
0.605
  7
SLDTEXTSTYLE0
  0
ENDBLK
  5
3DD
  8
0
  0
BLOCK
  8
0
  2
*U83
 70
     1
 10
0.0
 20
0.0
 30
0.0
  3
*U83
  1

  0
TEXT
  5
3DF
  8
LINIEN-DÜNN
 10
35.240507362832041
 20
163.9579815821688
 30
-0.0000000000012218
 40
3.5
  1
60
 50
90.000000000000398
 41
0.605
  7
SLDTEXTSTYLE0
  0
ENDBLK
  5
3E1
  8
0
  0
BLOCK
  8
0
  2
*U84
 70
     1
 10
0.0
 20
0.0
 30
0.0
  3
*U84
  1

  0
TEXT
  5
3E3
  8
LINIEN-DÜNN
 10
44.313848612443053
 20
117.3937152330397
 30
-0.0000000000008917
 40
3.5
  1
R
 50
45.000000000000092
 41
0.605
  7
SLDTEXTSTYLE0
  0
ENDBLK
  5
3E5
  8
0
  0
BLOCK
  8
0
  2
*U85
 70
     1
 10
0.0
 20
0.0
 30
0.0
  3
*U85
  1

  0
TEXT
  5
3E7
  8
LINIEN-DÜNN
 10
46.323218332708521
 20
119.4030849533052
 30
-0.0000000000009057
 40
3.5
  1
6
 50
45.000000000000092
 41
0.605
  7
SLDTEXTSTYLE0
  0
ENDBLK
  5
3E9
  8
0
  0
BLOCK
  8
0
  2
*U86
 70
     1
 10
0.0
 20
0.0
 30
0.0
  3
*U86
  1

  0
TEXT
  5
3EB
  8
LINIEN-DÜNN
 62
     0
 10
0.5029225071375016
 20
-1.7605775342023859
 30
0.0
 40
3.5
  1
Mass C: Versatz der Mulde
 41
0.605
  7
SLDTEXTSTYLE0
  0
ENDBLK
  5
3ED
  8
0
  0
BLOCK
  8
0
  2
*U87
 70
     1
 10
0.0
 20
0.0
 30
0.0
  3
*U87
  1

  0
TEXT
  5
3EF
  8
LINIEN-DÜNN
 62
     0
 10
0.5029225071375016
 20
-6.2814110264814387
 30
0.0
 40
3.5
  1
von der Mittellinie
 41
0.605
  7
SLDTEXTSTYLE0
  0
ENDBLK
  5
3F1
  8
0
  0
BLOCK
  8
0
  2
*U88
 70
     1
 10
0.0
 20
0.0
 30
0.0
  3
*U88
  1

  0
SOLID
  5
3F3
  8
LINIEN-DÜNN
 10
73.791041044149864
 20
146.90438762721669
 30
0.0
 11
72.32679271704464
 21
150.13645424384879
 31
0.0
 12
74.760130307538347
 22
147.5539852801499
 32
0.0
 13
74.760130307538347
 23
147.5539852801499
 33
0.0
  0
POLYLINE
  5
3F4
  8
LINIEN-DÜNN
 66
     1
 10
0.0
 20
0.0
 30
0.0
  0
VERTEX
  5
3F5
  8
LINIEN-DÜNN
 10
74.275585675844098
 20
147.2291864536833
 30
0.0
  0
VERTEX
  5
3F6
  8
LINIEN-DÜNN
 10
96.681146120454414
 20
113.80389932551689
 30
0.0
  0
SEQEND
  5
3F7
  8
LINIEN-DÜNN
  0
ENDBLK
  5
3F9
  8
0
  0
BLOCK
  8
0
  2
*U89
 70
     1
 10
0.0
 20
0.0
 30
0.0
  3
*U89
  1

  0
TEXT
  5
3FB
  8
0
 62
     7
 10
48.539653486862463
 20
156.9027112499592
 30
0.0
 40
5.0
  1
A
 41
0.605
  7
SLDTEXTSTYLE0
  0
ENDBLK
  5
3FD
  8
0
  0
BLOCK
  8
0
  2
*U90
 70
     1
 10
0.0
 20
0.0
 30
0.0
  3
*U90
  1

  0
TEXT
  5
3FF
  8
0
 62
     7
 10
96.978337373997974
 20
156.9027112499592
 30
0.0
 40
5.0
  1
A
 41
0.605
  7
SLDTEXTSTYLE0
  0
ENDBLK
  5
401
  8
0
  0
BLOCK
  8
0
  2
*U91
 70
     1
 10
0.0
 20
0.0
 30
0.0
  3
*U91
  1

  0
TEXT
  5
403
  8
0
 62
     7
 10
60.010499540855463
 20
212.6725417048165
 30
0.0
 40
5.0
  1
B
 41
0.605
  7
SLDTEXTSTYLE0
  0
ENDBLK
  5
405
  8
0
  0
BLOCK
  8
0
  2
*U92
 70
     1
 10
0.0
 20
0.0
 30
0.0
  3
*U92
  1

  0
TEXT
  5
407
  8
0
 62
     7
 10
60.010499540855477
 20
119.4212048229209
 30
0.0
 40
5.0
  1
B
 41
0.605
  7
SLDTEXTSTYLE0
  0
ENDBLK
  5
409
  8
0
  0
BLOCK
  8
0
  2
*U93
 70
     1
 10
0.0
 20
0.0
 30
0.0
  3
*U93
  1

  0
TEXT
  5
52D
  8
LINIEN-DÜNN
 10
48.72905822200515
 20
252.85305001268301
 30
-0.0000000000018426
 40
3.5
  1
20
 50
90.000000000000398
 41
0.605
  7
SLDTEXTSTYLE0
  0
ENDBLK
  5
52F
  8
0
  0
BLOCK
  8
0
  2
*U94
 70
     1
 10
0.0
 20
0.0
 30
0.0
  3
*U94
  1

  0
TEXT
  5
531
  8
LINIEN-DÜNN
 10
69.772082970764188
 20
237.2210774903408
 30
-0.0000000000017263
 40
3.5
  1
11
 41
0.605
  7
SLDTEXTSTYLE0
  0
ENDBLK
  5
533
  8
0
  0
BLOCK
  8
0
  2
*U95
 70
     1
 10
0.0
 20
0.0
 30
0.0
  3
*U95
  1

  0
TEXT
  5
535
  8
LINIEN-DÜNN
 10
98.451841999395313
 20
270.84006120328002
 30
-0.0000000000019682
 40
3.5
  1
1.25
 50
90.0
 41
0.605
  7
SLDTEXTSTYLE0
  0
ENDBLK
  5
537
  8
0
  0
BLOCK
  8
0
  2
*U96
 70
     1
 10
0.0
 20
0.0
 30
0.0
  3
*U96
  1

  0
TEXT
  5
545
  8
LINIEN-DÜNN
 10
57.980340214003959
 20
239.14247505487799
 30
-0.0000000000017418
 40
3.5
  1
R
 50
45.000000000000149
 41
0.605
  7
SLDTEXTSTYLE0
  0
ENDBLK
  5
547
  8
0
  0
BLOCK
  8
0
  2
*U97
 70
     1
 10
0.0
 20
0.0
 30
0.0
  3
*U97
  1

  0
TEXT
  5
549
  8
LINIEN-DÜNN
 10
59.989709934269399
 20
241.1518447751435
 30
-0.0000000000017559
 40
3.5
  1
2
 50
45.000000000000149
 41
0.605
  7
SLDTEXTSTYLE0
  0
ENDBLK
  5
54B
  8
0
  0
BLOCK
  8
0
  2
*U98
 70
     1
 10
0.0
 20
0.0
 30
0.0
  3
*U98
  1

  0
TEXT
  5
54D
  8
LINIEN-DÜNN
 10
56.404219830101191
 20
256.77615932391973
 30
-0.000000000001865
 40
3.5
  1
R
 50
44.99999999999995
 41
0.605
  7
SLDTEXTSTYLE0
  0
ENDBLK
  5
54F
  8
0
  0
BLOCK
  8
0
  2
*U99
 70
     1
 10
0.0
 20
0.0
 30
0.0
  3
*U99
  1

  0
TEXT
  5
551
  8
LINIEN-DÜNN
 10
58.41358955036668
 20
258.78552904418513
 30
-0.000000000001879
 40
3.5
  1
2
 50
44.99999999999995
 41
0.605
  7
SLDTEXTSTYLE0
  0
ENDBLK
  5
553
  8
0
  0
BLOCK
  8
0
  2
*U100
 70
     1
 10
0.0
 20
0.0
 30
0.0
  3
*U100
  1

  0
TEXT
  5
555
  8
LINIEN-DÜNN
 10
88.966904929088074
 20
243.93686999682481
 30
0.0
 40
3.5
  1
A-A
 41
0.605
  7
SLDTEXTSTYLE0
  0
ENDBLK
  5
557
  8
0
  0
BLOCK
  8
0
  2
*X101
 70
     1
 10
0.0
 20
0.0
 30
0.0
  3
*X101
  1

  0
LINE
  5
561
  8
0
 62
     0
 10
174.06785715741211
 20
201.00862552061949
 30
0.0
 11
175.31785715741211
 21
202.25862552061949
 31
0.0
  0
LINE
  5
562
  8
0
 62
     0
 10
174.06785715741211
 20
205.49875358115409
 30
0.0
 11
174.71858104342931
 21
206.14947746717129
 31
0.0
  0
ENDBLK
  5
564
  8
0
  0
BLOCK
  8
0
  2
*X102
 70
     1
 10
0.0
 20
0.0
 30
0.0
  3
*X102
  1

  0
LINE
  5
566
  8
0
 62
     0
 10
174.06785715741211
 20
142.63696073367001
 30
0.0
 11
175.31785715741211
 21
143.88696073367001
 31
0.0
  0
LINE
  5
567
  8
0
 62
     0
 10
174.06785715741211
 20
147.12708879420461
 30
0.0
 11
175.31785715741211
 21
148.37708879420461
 31
0.0
  0
LINE
  5
568
  8
0
 62
     0
 10
173.73673843645781
 20
151.28609813378489
 30
0.0
 11
174.6185052556468
 21
152.1678649529739
 31
0.0
  0
LINE
  5
569
  8
0
 62
     0
 10
170.2428062703863
 20
152.28229402824789
 30
0.0
 11
171.43218880550029
 21
153.471676563362
 31
0.0
  0
LINE
  5
56A
  8
0
 62
     0
 10
165.97627750755871
 20
152.5058933259549
 30
0.0
 11
167.1656600426727
 21
153.69527586106901
 31
0.0
  0
LINE
  5
56B
  8
0
 62
     0
 10
161.7097487447312
 20
152.729492623662
 30
0.0
 11
162.89913127984519
 21
153.91887515877599
 31
0.0
  0
LINE
  5
56C
  8
0
 62
     0
 10
157.5602529899337
 20
153.07012492939921
 30
0.0
 11
158.6326025170176
 21
154.142474456483
 31
0.0
  0
LINE
  5
56D
  8
0
 62
     0
 10
155.41228461764351
 20
155.41228461764339
 30
0.0
 11
156.56785715741211
 21
156.56785715741211
 31
0.0
  0
LINE
  5
56E
  8
0
 62
     0
 10
155.31785715741211
 20
159.80798521794659
 30
0.0
 11
156.56785715741211
 21
161.05798521794659
 31
0.0
  0
LINE
  5
56F
  8
0
 62
     0
 10
169.75935262034309
 20
178.7396087414123
 30
0.0
 11
171.08029574875999
 21
180.06055186982911
 31
0.0
  0
LINE
  5
570
  8
0
 62
     0
 10
174.06785715741211
 20
183.0481132784812
 30
0.0
 11
175.31785715741211
 21
184.2981132784812
 31
0.0
  0
LINE
  5
571
  8
0
 62
     0
 10
155.31785715741211
 20
164.2981132784812
 30
0.0
 11
156.56785715741211
 21
165.5481132784812
 31
0.0
  0
LINE
  5
572
  8
0
 62
     0
 10
165.02089238146809
 20
178.49127656307181
 30
0.0
 11
166.34183550988499
 21
179.81221969148871
 31
0.0
  0
LINE
  5
573
  8
0
 62
     0
 10
174.06785715741211
 20
187.5382413390158
 30
0.0
 11
175.31785715741211
 21
188.7882413390158
 31
0.0
  0
LINE
  5
574
  8
0
 62
     0
 10
155.31785715741211
 20
168.7882413390158
 30
0.0
 11
156.56785715741211
 21
170.0382413390158
 31
0.0
  0
LINE
  5
575
  8
0
 62
     0
 10
160.28243214259311
 20
178.2429443847314
 30
0.0
 11
161.60337527101001
 21
179.5638875131483
 31
0.0
  0
LINE
  5
576
  8
0
 62
     0
 10
174.06785715741211
 20
192.0283693995504
 30
0.0
 11
174.7535711963788
 21
192.71408343851701
 31
0.0
  0
LINE
  5
577
  8
0
 62
     0
 10
155.31785715741211
 20
173.27836939955029
 30
0.0
 11
156.56785715741211
 21
174.52836939955029
 31
0.0
  0
ENDBLK
  5
579
  8
0
  0
BLOCK
  8
0
  2
*X103
 70
     1
 10
0.0
 20
0.0
 30
0.0
  3
*X103
  1

  0
LINE
  5
57B
  8
0
 62
     0
 10
174.06785715741211
 20
129.16657655206629
 30
0.0
 11
175.31785715741211
 21
130.41657655206629
 31
0.0
  0
ENDBLK
  5
57D
  8
0
  0
BLOCK
  8
0
  2
*U104
 70
     1
 10
0.0
 20
0.0
 30
0.0
  3
*U104
  1

  0
TEXT
  5
57F
  8
LINIEN-DÜNN
 10
140.37984485681201
 20
163.9579815821688
 30
-0.0000000000012218
 40
3.5
  1
24
 50
90.000000000000398
 41
0.605
  7
SLDTEXTSTYLE0
  0
ENDBLK
  5
581
  8
0
  0
BLOCK
  8
0
  2
*U105
 70
     1
 10
0.0
 20
0.0
 30
0.0
  3
*U105
  1

  0
TEXT
  5
58F
  8
LINIEN-DÜNN
 10
167.043601257457
 20
188.21557787673839
 30
-0.0000000000013862
 40
3.5
  1
R
 50
314.99999999999972
 41
0.605
  7
SLDTEXTSTYLE0
  0
ENDBLK
  5
591
  8
0
  0
BLOCK
  8
0
  2
*U106
 70
     1
 10
0.0
 20
0.0
 30
0.0
  3
*U106
  1

  0
TEXT
  5
593
  8
LINIEN-DÜNN
 10
169.05297097772251
 20
186.20620815647291
 30
-0.0000000000013722
 40
3.5
  1
2
 50
314.99999999999972
 41
0.605
  7
SLDTEXTSTYLE0
  0
ENDBLK
  5
595
  8
0
  0
BLOCK
  8
0
  2
*U107
 70
     1
 10
0.0
 20
0.0
 30
0.0
  3
*U107
  1

  0
TEXT
  5
597
  8
LINIEN-DÜNN
 10
159.86312687805969
 20
158.4935373517412
 30
-0.0000000000011787
 40
3.5
  1
R
 50
45.000000000000782
 41
0.605
  7
SLDTEXTSTYLE0
  0
ENDBLK
  5
599
  8
0
  0
BLOCK
  8
0
  2
*U108
 70
     1
 10
0.0
 20
0.0
 30
0.0
  3
*U108
  1

  0
TEXT
  5
59B
  8
LINIEN-DÜNN
 10
161.87249659832511
 20
160.50290707200659
 30
-0.0000000000011927
 40
3.5
  1
2
 50
45.000000000000782
 41
0.605
  7
SLDTEXTSTYLE0
  0
ENDBLK
  5
59D
  8
0
  0
BLOCK
  8
0
  2
*U109
 70
     1
 10
0.0
 20
0.0
 30
0.0
  3
*U109
  1

  0
TEXT
  5
59F
  8
LINIEN-DÜNN
 10
159.88208166888731
 20
138.67323868516019
 30
0.0
 40
3.5
  1
B-B
 41
0.605
  7
SLDTEXTSTYLE0
  0
ENDBLK
  5
5A1
  8
0
  0
ENDSEC
  0
SECTION
  2
ENTITIES
  0
LINE
  5
48
  8
LINIEN-DÜNN
 10
111.0000000000001
 20
44.999999999999979
 30
0.0
 11
165.99999999999989
 21
44.999999999999979
 31
0.0
  0
LINE
  5
49
  8
LINIEN-NORMAL
 10
18.000000000000011
 20
39.999999999999979
 30
0.0
 11
111.0000000000001
 21
39.999999999999979
 31
0.0
  0
LINE
  5
4A
  8
LINIEN-NORMAL
 10
149.0
 20
9.9999999999999822
 30
0.0
 11
149.00000000000011
 21
29.999999999999979
 31
0.0
  0
LINE
  5
4B
  8
LINIEN-DÜNN
 10
18.000000000000011
 20
34.999999999999922
 30
0.0
 11
111.0
 21
34.999999999999957
 31
0.0
  0
LINE
  5
4C
  8
VORLAGE_BEMASSUNG
 10
18.00000000000005
 20
17.41580717009893
 30
0.0
 11
51.000000000000071
 21
17.415807170098891
 31
0.0
  0
LINE
  5
4D
  8
LINIEN-DÜNN
 10
13.0
 20
148.5
 30
0.0
 11
0.0
 21
148.5
 31
0.0
  0
LINE
  5
4E
  8
LINIEN-DÜNN
  6
CENTERX2
 10
184.99999999999989
 20
43.99999999999995
 30
0.0
 11
198.0
 21
43.99999999999995
 31
0.0
  0
LINE
  5
4F
  8
LINIEN-DÜNN
 10
195.25
 20
46.749999999999957
 30
0.0
 11
195.25
 21
41.24999999999995
 31
0.0
  0
LINE
  5
50
  8
LINIEN-DÜNN
 10
185.5
 20
45.19999999999996
 30
0.0
 11
190.30000000000001
 21
46.24999999999995
 31
0.0
  0
LINE
  5
51
  8
LINIEN-DÜNN
 10
190.30000000000001
 20
46.24999999999995
 30
0.0
 11
190.30000000000001
 21
41.749999999999957
 31
0.0
  0
LINE
  5
52
  8
LINIEN-DÜNN
 10
190.30000000000001
 20
41.749999999999957
 30
0.0
 11
185.5
 21
42.79999999999994
 31
0.0
  0
LINE
  5
53
  8
LINIEN-DÜNN
 10
185.5
 20
42.79999999999994
 30
0.0
 11
185.5
 21
45.19999999999996
 31
0.0
  0
LINE
  5
54
  8
LINIEN-DÜNN
 10
149.00000000000011
 20
49.999999999999972
 30
0.0
 11
149.00000000000011
 21
34.999999999999957
 31
0.0
  0
LINE
  5
55
  8
LINIEN-DÜNN
 10
129.00000000000011
 20
49.999999999999972
 30
0.0
 11
129.00000000000011
 21
34.999999999999957
 31
0.0
  0
LINE
  5
56
  8
LINIEN-DÜNN
 10
111.0000000000001
 20
39.999999999999979
 30
0.0
 11
165.99999999999989
 21
39.999999999999979
 31
0.0
  0
LINE
  5
57
  8
LINIEN-NORMAL
 10
165.99999999999989
 20
49.999999999999972
 30
0.0
 11
165.99999999999989
 21
29.999999999999989
 31
0.0
  0
LINE
  5
58
  8
LINIEN-NORMAL
 10
111.0
 20
34.999999999999957
 30
0.0
 11
165.99999999999989
 21
34.999999999999957
 31
0.0
  0
LINE
  5
59
  8
LINIEN-NORMAL
 10
51.000000000000057
 20
49.999999999999972
 30
0.0
 11
51.000000000000057
 21
29.999999999999972
 31
0.0
  0
LINE
  5
5A
  8
LINIEN-DICK
 10
18.000000000000011
 20
287.0
 30
0.0
 11
18.00000000000005
 21
10.0
 31
0.0
  0
LINE
  5
5B
  8
LINIEN-DICK
 10
200.0
 20
287.0
 30
0.0
 11
18.000000000000011
 21
287.0
 31
0.0
  0
LINE
  5
5C
  8
LINIEN-DICK
 10
200.0
 20
10.0
 30
0.0
 11
200.0
 21
287.0
 31
0.0
  0
LINE
  5
5D
  8
LINIEN-DICK
 10
18.00000000000005
 20
10.0
 30
0.0
 11
200.0
 21
10.0
 31
0.0
  0
LINE
  5
5E
  8
LINIEN-NORMAL
 10
199.99999999999989
 20
24.999999999999989
 30
0.0
 11
149.00000000000011
 21
24.999999999999979
 31
0.0
  0
LINE
  5
5F
  8
LINIEN-NORMAL
 10
199.99999999999989
 20
29.999999999999989
 30
0.0
 11
17.999999999999979
 21
29.999999999999972
 31
0.0
  0
LINE
  5
60
  8
LINIEN-DÜNN
 10
184.99999999999989
 20
9.9999999999999822
 30
0.0
 11
184.99999999999989
 21
14.999999999999959
 31
0.0
  0
LINE
  5
61
  8
LINIEN-NORMAL
 10
111.0000000000001
 20
49.999999999999972
 30
0.0
 11
111.0000000000001
 21
29.999999999999979
 31
0.0
  0
LINE
  5
62
  8
LINIEN-NORMAL
 10
165.99999999999989
 20
39.999999999999979
 30
0.0
 11
200.0
 21
39.99999999999995
 31
0.0
  0
LINE
  5
63
  8
LINIEN-NORMAL
 10
51.000000000000057
 20
29.999999999999972
 30
0.0
 11
51.000000000000071
 21
9.9999999999999822
 31
0.0
  0
LINE
  5
64
  8
LINIEN-DICK
 10
18.000000000000011
 20
49.999999999999929
 30
0.0
 11
200.0
 21
49.999999999999957
 31
0.0
  0
LINE
  5
65
  8
LINIEN-DÜNN
 10
210.0
 20
4.9999999999999778
 30
0.0
 11
210.0
 21
-0.000000000000026
 31
0.0
  0
LINE
  5
66
  8
LINIEN-DÜNN
 10
210.0
 20
-0.000000000000026
 30
0.0
 11
205.0
 21
-0.0000000000000266
 31
0.0
  0
LINE
  5
67
  8
LINIEN-NORMAL
 10
182.99999999999989
 20
49.999999999999972
 30
0.0
 11
182.99999999999989
 21
29.999999999999989
 31
0.0
  0
LINE
  5
68
  8
LINIEN-DÜNN
 10
0.0
 20
5.0
 30
0.0
 11
0.0000000000000555
 21
0.0
 31
0.0
  0
LINE
  5
69
  8
LINIEN-DÜNN
 10
0.0000000000000555
 20
0.0
 30
0.0
 11
5.0000000000000533
 21
0.0
 31
0.0
  0
LINE
  5
6A
  8
LINIEN-DÜNN
 10
-0.0000000000000327
 20
292.00000000000011
 30
0.0
 11
-0.0000000000000327
 21
297.0
 31
0.0
  0
LINE
  5
6B
  8
LINIEN-DÜNN
 10
-0.0000000000000327
 20
297.0
 30
0.0
 11
4.9999999999999671
 21
297.0
 31
0.0
  0
LINE
  5
6C
  8
LINIEN-DÜNN
 10
205.0
 20
297.00000000000011
 30
0.0
 11
210.0
 21
297.0
 31
0.0
  0
LINE
  5
6D
  8
LINIEN-DÜNN
 10
210.0
 20
297.0
 30
0.0
 11
210.0
 21
292.00000000000011
 31
0.0
  0
LINE
  5
6E
  8
LINIEN-DÜNN
 10
210.0
 20
5.0
 30
0.0
 11
210.0
 21
0.0
 31
0.0
  0
LINE
  5
6F
  8
LINIEN-DÜNN
 10
210.0
 20
0.0
 30
0.0
 11
205.0
 21
-0.0000000000000006
 31
0.0
  0
CIRCLE
  5
70
  8
LINIEN-DÜNN
 10
195.25
 20
43.999999999999972
 30
0.0
 40
2.24999999999994
  0
CIRCLE
  5
71
  8
LINIEN-DÜNN
 10
195.25
 20
43.999999999999972
 30
0.0
 40
1.1999999999999771
  0
POINT
  5
72
  8
VORLAGE_BEMASSUNG
 10
0.0000000000000528
 20
0.0
 30
0.0
  0
INSERT
  5
9C
  8
LINIEN-DÜNN
  2
SW_NOTE_0
 10
121.3296283447234
 20
257.21948278249067
 30
0.0
  0
INSERT
  5
A2
  8
LINIEN-DÜNN
  2
SW_NOTE_1
 10
61.195750417899319
 20
18.38073985574723
 30
0.0
  0
INSERT
  5
A3
  8
0
  2
*U31
 10
0.0
 20
0.0
 30
0.0
  0
INSERT
  5
A4
  8
0
  2
*U32
 10
0.0
 20
0.0
 30
0.0
  0
INSERT
  5
A5
  8
0
  2
*U33
 10
0.0
 20
0.0
 30
0.0
  0
INSERT
  5
A6
  8
0
  2
*U34
 10
0.0
 20
0.0
 30
0.0
  0
INSERT
  5
A7
  8
0
  2
*U35
 10
0.0
 20
0.0
 30
0.0
  0
INSERT
  5
A8
  8
0
  2
*U36
 10
0.0
 20
0.0
 30
0.0
  0
INSERT
  5
A9
  8
0
  2
*U37
 10
0.0
 20
0.0
 30
0.0
  0
INSERT
  5
AA
  8
0
  2
*U38
 10
0.0
 20
0.0
 30
0.0
  0
INSERT
  5
AB
  8
0
  2
*U39
 10
0.0
 20
0.0
 30
0.0
  0
INSERT
  5
AC
  8
0
  2
*U40
 10
0.0
 20
0.0
 30
0.0
  0
INSERT
  5
AD
  8
0
  2
*U41
 10
0.0
 20
0.0
 30
0.0
  0
INSERT
  5
AE
  8
0
  2
*U42
 10
0.0
 20
0.0
 30
0.0
  0
INSERT
  5
AF
  8
0
  2
*U43
 10
0.0
 20
0.0
 30
0.0
  0
INSERT
  5
B0
  8
0
  2
*U44
 10
0.0
 20
0.0
 30
0.0
  0
INSERT
  5
B2
  8
0
  2
*U45
 10
0.0
 20
0.0
 30
0.0
  0
INSERT
  5
B3
  8
0
  2
*U46
 10
0.0
 20
0.0
 30
0.0
  0
INSERT
  5
B4
  8
0
  2
*U47
 10
0.0
 20
0.0
 30
0.0
  0
INSERT
  5
B5
  8
0
  2
*U48
 10
0.0
 20
0.0
 30
0.0
  0
INSERT
  5
B6
  8
0
  2
*U49
 10
0.0
 20
0.0
 30
0.0
  0
INSERT
  5
B7
  8
0
  2
*U50
 10
0.0
 20
0.0
 30
0.0
  0
INSERT
  5
B8
  8
0
  2
*U51
 10
0.0
 20
0.0
 30
0.0
  0
INSERT
  5
B9
  8
0
  2
*U52
 10
0.0
 20
0.0
 30
0.0
  0
INSERT
  5
BA
  8
0
  2
*U53
 10
0.0
 20
0.0
 30
0.0
  0
INSERT
  5
BB
  8
0
  2
*U54
 10
0.0
 20
0.0
 30
0.0
  0
INSERT
  5
BC
  8
0
  2
*U55
 10
0.0
 20
0.0
 30
0.0
  0
INSERT
  5
C2
  8
VORLAGE_TEXT
  2
SW_NOTE_2
 10
13.137612181699939
 20
149.6148628795799
 30
0.0
  0
INSERT
  5
C3
  8
0
  2
*U58
 10
0.0
 20
0.0
 30
0.0
  0
INSERT
  5
C4
  8
0
  2
*U59
 10
0.0
 20
0.0
 30
0.0
  0
INSERT
  5
C5
  8
0
  2
*U60
 10
0.0
 20
0.0
 30
0.0
  0
INSERT
  5
C6
  8
0
  2
*U61
 10
0.0
 20
0.0
 30
0.0
  0
INSERT
  5
C7
  8
0
  2
*U62
 10
0.0
 20
0.0
 30
0.0
  0
INSERT
  5
DB
  8
LINIEN-DÜNN
  2
SW_TABLEANNOTATION_0
 10
51.530768223700527
 20
102.1077692694177
 30
0.0
  0
CIRCLE
  5
DC
  8
0
  6
CONTINUOUS
 62
     7
 10
71.963578855766571
 20
196.14947746717129
 30
0.0
 40
4.0
  0
LINE
  5
DD
  8
0
  6
CONTINUOUS
 62
     7
 10
54.463578855766571
 20
200.14947746717129
 30
0.0
 11
54.463578855766578
 21
132.14947746717129
 31
0.0
  0
ARC
  5
DE
  8
0
  6
CONTINUOUS
 62
     7
 10
60.463578855766563
 20
200.14947746717129
 30
0.0
 40
5.999999999999992
 50
90.0
 51
180.0
  0
LINE
  5
DF
  8
0
  6
CONTINUOUS
 62
     7
 10
83.463578855766556
 20
206.14947746717129
 30
0.0
 11
60.463578855766563
 21
206.14947746717129
 31
0.0
  0
ARC
  5
E0
  8
0
  6
CONTINUOUS
 62
     7
 10
83.463578855766556
 20
200.14947746717129
 30
0.0
 40
6.0
 50
0.0
 51
90.0
  0
LINE
  5
E1
  8
0
  6
CONTINUOUS
 62
     7
 10
89.463578855766585
 20
132.14947746717129
 30
0.0
 11
89.463578855766585
 21
200.14947746717129
 31
0.0
  0
ARC
  5
E2
  8
0
  6
CONTINUOUS
 62
     7
 10
83.463578855766585
 20
132.14947746717129
 30
0.0
 40
6.0000000000000142
 50
270.0000000000008
 51
0.0
  0
LINE
  5
E3
  8
0
  6
CONTINUOUS
 62
     7
 10
60.463578855766571
 20
126.14947746717129
 30
0.0
 11
83.463578855766585
 21
126.14947746717129
 31
0.0
  0
ARC
  5
E4
  8
0
  6
CONTINUOUS
 62
     7
 10
60.463578855766571
 20
132.14947746717129
 30
0.0
 40
6.0000000000000142
 50
180.0
 51
270.0000000000008
  0
CIRCLE
  5
E5
  8
0
  6
CONTINUOUS
 62
     7
 10
71.963578855766585
 20
136.14947746717129
 30
0.0
 40
4.0
  0
LINE
  5
E6
  8
0
  6
CONTINUOUS
 62
     7
 10
62.450555632444051
 20
182.1625006904938
 30
0.0
 11
65.746033097134145
 21
178.86702322580371
 31
0.0
  0
LINE
  5
E7
  8
0
  6
CONTINUOUS
 62
     7
 10
62.450555632444051
 20
150.13645424384879
 30
0.0
 11
65.746033097134145
 21
153.43193170853891
 31
0.0
  0
LINE
  5
E8
  8
0
  6
CONTINUOUS
 62
     7
 10
78.18112461439901
 20
178.86702322580371
 30
0.0
 11
81.476602079089105
 21
182.1625006904938
 31
0.0
  0
CIRCLE
  5
E9
  8
0
  6
CONTINUOUS
 62
     7
 10
71.963578855766585
 20
136.14947746717129
 30
0.0
 40
2.75
  0
LINE
  5
EA
  8
0
  6
CONTINUOUS
 62
     7
 10
78.18112461439901
 20
153.43193170853891
 30
0.0
 11
81.476602079089105
 21
150.13645424384879
 31
0.0
  0
CIRCLE
  5
EB
  8
0
  6
CONTINUOUS
 62
     7
 10
71.963578855766571
 20
196.14947746717129
 30
0.0
 40
2.75
  0
LINE
  5
EC
  8
0
  6
CONTINUOUS
 62
     7
 10
77.461703083452363
 20
178.14760169485709
 30
0.0
 11
78.18112461439901
 21
178.86702322580371
 31
0.0
  0
LINE
  5
ED
  8
0
  6
CONTINUOUS
 62
     7
 10
66.465454628080792
 20
178.14760169485709
 30
0.0
 11
65.746033097134145
 21
178.86702322580371
 31
0.0
  0
LINE
  5
EE
  8
0
  6
CONTINUOUS
 62
     7
 10
77.461703083452363
 20
154.1513532394855
 30
0.0
 11
78.18112461439901
 21
153.43193170853891
 31
0.0
  0
LINE
  5
EF
  8
0
  6
CONTINUOUS
 62
     7
 10
66.465454628080792
 20
154.1513532394855
 30
0.0
 11
65.746033097134145
 21
153.43193170853891
 31
0.0
  0
LINE
  5
F0
  8
0
  6
CONTINUOUS
 62
     7
 10
68.462713697589933
 20
156.1486123089947
 30
0.0
 11
66.465454628080792
 21
154.1513532394855
 31
0.0
  0
LINE
  5
F1
  8
0
  6
CONTINUOUS
 62
     7
 10
68.462713697589933
 20
176.15034262534789
 30
0.0
 11
66.465454628080792
 21
178.14760169485709
 31
0.0
  0
LINE
  5
F2
  8
0
  6
CONTINUOUS
 62
     7
 10
77.461703083452363
 20
154.1513532394855
 30
0.0
 11
75.464444013943208
 21
156.1486123089947
 31
0.0
  0
LINE
  5
F3
  8
0
  6
CONTINUOUS
 62
     7
 10
77.461703083452363
 20
178.14760169485709
 30
0.0
 11
75.464444013943208
 21
176.15034262534789
 31
0.0
  0
LINE
  5
F4
  8
0
  6
CONTINUOUS
 62
     8
 10
81.476602079089105
 20
150.13645424384879
 30
0.0
 11
62.450555632444051
 21
150.13645424384879
 31
0.0
  0
LINE
  5
F5
  8
0
  6
CONTINUOUS
 62
     8
 10
81.476602079089105
 20
182.1625006904938
 30
0.0
 11
81.476602079089105
 21
150.13645424384879
 31
0.0
  0
LINE
  5
F6
  8
0
  6
CONTINUOUS
 62
     8
 10
62.450555632444051
 20
182.1625006904938
 30
0.0
 11
81.476602079089105
 21
182.1625006904938
 31
0.0
  0
LINE
  5
F7
  8
0
  6
CONTINUOUS
 62
     8
 10
62.450555632444051
 20
150.13645424384879
 30
0.0
 11
62.450555632444051
 21
182.1625006904938
 31
0.0
  0
LINE
  5
F8
  8
0
  6
CONTINUOUS
 62
     8
 10
65.746033097134145
 20
178.86702322580371
 30
0.0
 11
65.746033097134145
 21
153.43193170853891
 31
0.0
  0
LINE
  5
F9
  8
0
  6
CONTINUOUS
 62
     8
 10
78.18112461439901
 20
178.86702322580371
 30
0.0
 11
65.746033097134145
 21
178.86702322580371
 31
0.0
  0
LINE
  5
FA
  8
0
  6
CONTINUOUS
 62
     8
 10
65.746033097134145
 20
153.43193170853891
 30
0.0
 11
78.18112461439901
 21
153.43193170853891
 31
0.0
  0
LINE
  5
FB
  8
0
  6
CONTINUOUS
 62
     8
 10
78.18112461439901
 20
153.43193170853891
 30
0.0
 11
78.18112461439901
 21
178.86702322580371
 31
0.0
  0
LINE
  5
FC
  8
0
  6
CONTINUOUS
 62
     8
 10
66.465454628080792
 20
178.14760169485709
 30
0.0
 11
77.461703083452363
 21
178.14760169485709
 31
0.0
  0
LINE
  5
FD
  8
0
  6
CONTINUOUS
 62
     8
 10
77.461703083452363
 20
178.14760169485709
 30
0.0
 11
77.461703083452363
 21
154.1513532394855
 31
0.0
  0
LINE
  5
FE
  8
0
  6
CONTINUOUS
 62
     8
 10
77.461703083452363
 20
154.1513532394855
 30
0.0
 11
66.465454628080792
 21
154.1513532394855
 31
0.0
  0
LINE
  5
FF
  8
0
  6
CONTINUOUS
 62
     8
 10
66.465454628080792
 20
154.1513532394855
 30
0.0
 11
66.465454628080792
 21
178.14760169485709
 31
0.0
  0
LINE
  5
100
  8
0
  6
CONTINUOUS
 62
     8
 10
68.462713697589933
 20
176.15034262534789
 30
0.0
 11
68.462713697589933
 21
156.1486123089947
 31
0.0
  0
LINE
  5
101
  8
0
  6
CONTINUOUS
 62
     8
 10
75.464444013943222
 20
156.1486123089947
 30
0.0
 11
75.464444013943222
 21
176.15034262534789
 31
0.0
  0
LINE
  5
102
  8
0
  6
CONTINUOUS
 62
     8
 10
75.464444013943222
 20
176.15034262534789
 30
0.0
 11
68.462713697589933
 21
176.15034262534789
 31
0.0
  0
LINE
  5
103
  8
0
  6
CONTINUOUS
 62
     8
 10
68.462713697589933
 20
156.1486123089947
 30
0.0
 11
75.464444013943222
 21
156.1486123089947
 31
0.0
  0
DIMENSION
  5
104
  8
LINIEN-DÜNN
  2
*D5
 10
89.463578855766585
 20
226.589526182247
 30
0.0
 11
71.963578855766571
 21
226.589526182247
 31
0.0
 70
   128
 13
54.463578855766571
 23
200.14947746717129
 33
0.0
 14
89.463578855766585
 24
200.14947746717129
 34
0.0
  0
DIMENSION
  5
10F
  8
LINIEN-DÜNN
  2
*D6
 10
111.4635788557665
 20
126.14947746717129
 30
0.0
 11
111.4635788557665
 21
166.14947746717129
 31
0.0
 70
   128
 13
83.463578855766556
 23
206.14947746717129
 33
0.0
 14
83.463578855766585
 24
126.14947746717129
 34
0.0
 50
90.000000000000185
  0
DIMENSION
  5
119
  8
LINIEN-DÜNN
  2
*D7
 10
74.917543219497119
 20
198.84653040284201
 30
0.0
 11
122.8330336212166
 21
220.1890108319821
 31
0.0
 70
   131
  1
<> x %%c 5 DURCHGANGSLOCH\P{\fGDT;w}%%c 8 X 90°\P
 15
69.009614492035993
 25
193.45242453150061
 35
0.0
 40
0.0
  0
DIMENSION
  5
135
  8
LINIEN-DÜNN
  2
*D9
 10
36.252244219203277
 20
196.14947746717129
 30
0.0
 11
36.252244219203277
 21
201.14947746717129
 31
0.0
 70
   128
 13
60.463578855766571
 23
206.14947746717129
 33
0.0
 14
65.463578855766571
 24
196.14947746717129
 34
0.0
 50
90.000000000000185
  0
DIMENSION
  5
142
  8
LINIEN-DÜNN
  2
*D10
 10
36.252244219203277
 20
136.14947746717129
 30
0.0
 11
36.25224421920327
 21
166.14947746717129
 31
0.0
 70
   128
 13
65.463578855766571
 23
196.14947746717129
 33
0.0
 14
65.463578855766571
 24
136.14947746717129
 34
0.0
 50
90.000000000000185
  0
DIMENSION
  5
14C
  8
LINIEN-DÜNN
  2
*D11
 10
60.463578855766571
 20
132.14947746717129
 30
0.0
 11
46.658166038735892
 21
118.34406465014079
 31
0.0
 70
   132
  1
<>
 15
56.220938168647258
 25
127.906836780052
 35
0.0
 40
0.0
  0
INSERT
  5
15B
  8
LINIEN-DÜNN
  2
SW_NOTE_3
 10
96.681146120454414
 20
113.80389932551689
 30
0.0
  0
INSERT
  5
15D
  8
0
  2
*U88
 10
0.0
 20
0.0
 30
0.0
  0
INSERT
  5
169
  8
LINIEN-DÜNN
  2
SW_CENTERMARKSYMBOL_0
 10
71.963578855766571
 20
196.14947746717129
 30
0.0
  0
INSERT
  5
175
  8
LINIEN-DÜNN
  2
SW_CENTERMARKSYMBOL_1
 10
71.963578855766585
 20
136.14947746717129
 30
0.0
  0
LINE
  5
176
  8
0
  6
CENTER
 62
     7
 10
44.708434935834269
 20
166.234387952525
 30
0.0
 11
97.147118822969787
 21
166.234387952525
 31
0.0
  0
LINE
  5
177
  8
0
  6
CONTINUOUS
 62
     7
 10
46.708434935834269
 20
154.23438795252491
 30
0.0
 11
46.708434935834269
 21
166.234387952525
 31
0.0
  0
SOLID
  5
178
  8
0
  6
CONTINUOUS
 62
     7
 10
46.708434935834269
 20
166.234387952525
 30
0.0
 11
45.208434935834269
 21
160.234387952525
 31
0.0
 12
48.208434935834283
 22
160.234387952525
 32
0.0
 13
48.208434935834283
 23
160.234387952525
 33
0.0
  0
LINE
  5
179
  8
0
  6
CONTINUOUS
 62
     7
 10
95.147118822969759
 20
154.23438795252491
 30
0.0
 11
95.147118822969759
 21
166.234387952525
 31
0.0
  0
SOLID
  5
17A
  8
0
  6
CONTINUOUS
 62
     7
 10
95.147118822969759
 20
166.234387952525
 30
0.0
 11
93.647118822969773
 21
160.234387952525
 31
0.0
 12
96.647118822969773
 22
160.234387952525
 32
0.0
 13
96.647118822969773
 23
160.234387952525
 33
0.0
  0
INSERT
  5
17B
  8
0
  2
*U89
 10
0.0
 20
0.0
 30
0.0
  0
INSERT
  5
17C
  8
0
  2
*U90
 10
0.0
 20
0.0
 30
0.0
  0
LINE
  5
17D
  8
0
  6
CENTER
 62
     7
 10
72.010499540855463
 20
212.0042184073823
 30
0.0
 11
72.010499540855463
 21
114.7528815254867
 31
0.0
  0
LINE
  5
17E
  8
0
  6
CONTINUOUS
 62
     7
 10
60.010499540855463
 20
210.0042184073823
 30
0.0
 11
72.010499540855463
 21
210.0042184073823
 31
0.0
  0
SOLID
  5
17F
  8
0
  6
CONTINUOUS
 62
     7
 10
72.010499540855463
 20
210.0042184073823
 30
0.0
 11
66.010499540855463
 21
211.5042184073823
 31
0.0
 12
66.010499540855463
 22
208.5042184073823
 32
0.0
 13
66.010499540855463
 23
208.5042184073823
 33
0.0
  0
LINE
  5
180
  8
0
  6
CONTINUOUS
 62
     7
 10
60.010499540855477
 20
116.7528815254867
 30
0.0
 11
72.010499540855463
 21
116.7528815254867
 31
0.0
  0
SOLID
  5
181
  8
0
  6
CONTINUOUS
 62
     7
 10
72.010499540855463
 20
116.7528815254867
 30
0.0
 11
66.010499540855477
 21
118.2528815254867
 31
0.0
 12
66.010499540855477
 22
115.2528815254867
 32
0.0
 13
66.010499540855477
 23
115.2528815254867
 33
0.0
  0
INSERT
  5
182
  8
0
  2
*U91
 10
0.0
 20
0.0
 30
0.0
  0
INSERT
  5
183
  8
0
  2
*U92
 10
0.0
 20
0.0
 30
0.0
  0
LINE
  5
184
  8
LINIEN-DÜNN
  6
CENTERX2
 10
71.963578855766585
 20
220.11306980252141
 30
0.0
 11
71.963578855766585
 21
107.38786165594649
 31
0.0
  0
LINE
  5
185
  8
0
  6
CONTINUOUS
 62
     7
 10
119.409826866701
 20
76.180712832057424
 30
0.0
 11
119.409826866701
 21
75.160036817200236
 31
0.0
  0
LINE
  5
186
  8
0
  6
CONTINUOUS
 62
     7
 10
172.33309413229551
 20
87.229559704352255
 30
0.0
 11
152.9869913329764
 21
76.061292281561677
 31
0.0
  0
LINE
  5
187
  8
0
  6
CONTINUOUS
 62
     7
 10
152.9869913329764
 20
76.061292281561677
 30
0.0
 11
142.83327668908251
 21
81.922906977504681
 31
0.0
  0
ARC
  5
188
  8
0
  6
CONTINUOUS
 62
     7
 10
152.9869913329764
 20
65.909947794789602
 30
0.0
 40
3.0
 50
239.99822781231171
 51
300.01683738305042
  0
LINE
  5
189
  8
0
  6
CONTINUOUS
 62
     7
 10
154.4868694319305
 20
63.311801207647569
 30
0.0
 11
168.8631022658563
 21
71.611023768753611
 31
0.0
  0
LINE
  5
18A
  8
0
  6
CONTINUOUS
 62
     7
 10
148.69258176943569
 20
64.925049883189828
 30
0.0
 11
151.4871132340223
 21
63.311801207647569
 31
0.0
  0
LINE
  5
18B
  8
0
  6
CONTINUOUS
 62
     7
 10
170.47464876928689
 20
74.098389353391752
 30
0.0
 11
170.80043828558721
 21
77.687643790514301
 31
0.0
  0
LINE
  5
18C
  8
0
  6
CONTINUOUS
 62
     7
 10
195.75654395467691
 20
93.529219333211117
 30
0.0
 11
195.75654395467691
 21
94.549895348068304
 31
0.0
  0
POLYLINE
  8
0
  5
5C2
  62
7
  66
     1
 10
0.000000
 20
0.000000
 30
0.000000
  70
     8
  0
VERTEX
  8
0
  5
5C3
 10
168.861
 20
71.6128
 30
0.000000
  70
    32
  0
VERTEX
  8
0
  5
5C4
 10
168.866
 20
71.6160
 30
0.000000
  70
    32
  0
VERTEX
  8
0
  5
5C5
 10
168.872
 20
71.6191
 30
0.000000
  70
    32
  0
VERTEX
  8
0
  5
5C6
 10
168.877
 20
71.6223
 30
0.000000
  70
    32
  0
VERTEX
  8
0
  5
5C7
 10
168.883
 20
71.6255
 30
0.000000
  70
    32
  0
VERTEX
  8
0
  5
5C8
 10
168.889
 20
71.6287
 30
0.000000
  70
    32
  0
VERTEX
  8
0
  5
5C9
 10
168.894
 20
71.6319
 30
0.000000
  70
    32
  0
VERTEX
  8
0
  5
5CA
 10
168.900
 20
71.6351
 30
0.000000
  70
    32
  0
VERTEX
  8
0
  5
5CB
 10
168.905
 20
71.6382
 30
0.000000
  70
    32
  0
VERTEX
  8
0
  5
5CC
 10
168.911
 20
71.6414
 30
0.000000
  70
    32
  0
VERTEX
  8
0
  5
5CD
 10
168.917
 20
71.6447
 30
0.000000
  70
    32
  0
VERTEX
  8
0
  5
5CE
 10
168.922
 20
71.6479
 30
0.000000
  70
    32
  0
VERTEX
  8
0
  5
5CF
 10
168.928
 20
71.6511
 30
0.000000
  70
    32
  0
VERTEX
  8
0
  5
5D0
 10
168.933
 20
71.6543
 30
0.000000
  70
    32
  0
VERTEX
  8
0
  5
5D1
 10
168.939
 20
71.6576
 30
0.000000
  70
    32
  0
VERTEX
  8
0
  5
5D2
 10
168.944
 20
71.6608
 30
0.000000
  70
    32
  0
VERTEX
  8
0
  5
5D3
 10
168.950
 20
71.6641
 30
0.000000
  70
    32
  0
VERTEX
  8
0
  5
5D4
 10
168.955
 20
71.6673
 30
0.000000
  70
    32
  0
VERTEX
  8
0
  5
5D5
 10
168.961
 20
71.6706
 30
0.000000
  70
    32
  0
VERTEX
  8
0
  5
5D6
 10
168.966
 20
71.6739
 30
0.000000
  70
    32
  0
VERTEX
  8
0
  5
5D7
 10
168.972
 20
71.6772
 30
0.000000
  70
    32
  0
VERTEX
  8
0
  5
5D8
 10
168.977
 20
71.6805
 30
0.000000
  70
    32
  0
VERTEX
  8
0
  5
5D9
 10
168.983
 20
71.6839
 30
0.000000
  70
    32
  0
VERTEX
  8
0
  5
5DA
 10
168.988
 20
71.6872
 30
0.000000
  70
    32
  0
VERTEX
  8
0
  5
5DB
 10
168.994
 20
71.6906
 30
0.000000
  70
    32
  0
VERTEX
  8
0
  5
5DC
 10
168.999
 20
71.6940
 30
0.000000
  70
    32
  0
VERTEX
  8
0
  5
5DD
 10
169.005
 20
71.6974
 30
0.000000
  70
    32
  0
VERTEX
  8
0
  5
5DE
 10
169.010
 20
71.7008
 30
0.000000
  70
    32
  0
VERTEX
  8
0
  5
5DF
 10
169.016
 20
71.7043
 30
0.000000
  70
    32
  0
VERTEX
  8
0
  5
5E0
 10
169.021
 20
71.7077
 30
0.000000
  70
    32
  0
VERTEX
  8
0
  5
5E1
 10
169.027
 20
71.7112
 30
0.000000
  70
    32
  0
VERTEX
  8
0
  5
5E2
 10
169.032
 20
71.7147
 30
0.000000
  70
    32
  0
VERTEX
  8
0
  5
5E3
 10
169.037
 20
71.7182
 30
0.000000
  70
    32
  0
VERTEX
  8
0
  5
5E4
 10
169.043
 20
71.7217
 30
0.000000
  70
    32
  0
VERTEX
  8
0
  5
5E5
 10
169.048
 20
71.7252
 30
0.000000
  70
    32
  0
VERTEX
  8
0
  5
5E6
 10
169.053
 20
71.7288
 30
0.000000
  70
    32
  0
VERTEX
  8
0
  5
5E7
 10
169.059
 20
71.7323
 30
0.000000
  70
    32
  0
VERTEX
  8
0
  5
5E8
 10
169.064
 20
71.7359
 30
0.000000
  70
    32
  0
VERTEX
  8
0
  5
5E9
 10
169.070
 20
71.7395
 30
0.000000
  70
    32
  0
VERTEX
  8
0
  5
5EA
 10
169.075
 20
71.7431
 30
0.000000
  70
    32
  0
VERTEX
  8
0
  5
5EB
 10
169.080
 20
71.7467
 30
0.000000
  70
    32
  0
VERTEX
  8
0
  5
5EC
 10
169.085
 20
71.7503
 30
0.000000
  70
    32
  0
VERTEX
  8
0
  5
5ED
 10
169.091
 20
71.7540
 30
0.000000
  70
    32
  0
VERTEX
  8
0
  5
5EE
 10
169.096
 20
71.7577
 30
0.000000
  70
    32
  0
VERTEX
  8
0
  5
5EF
 10
169.101
 20
71.7613
 30
0.000000
  70
    32
  0
VERTEX
  8
0
  5
5F0
 10
169.107
 20
71.7650
 30
0.000000
  70
    32
  0
VERTEX
  8
0
  5
5F1
 10
169.112
 20
71.7687
 30
0.000000
  70
    32
  0
VERTEX
  8
0
  5
5F2
 10
169.117
 20
71.7724
 30
0.000000
  70
    32
  0
VERTEX
  8
0
  5
5F3
 10
169.122
 20
71.7762
 30
0.000000
  70
    32
  0
VERTEX
  8
0
  5
5F4
 10
169.128
 20
71.7799
 30
0.000000
  70
    32
  0
VERTEX
  8
0
  5
5F5
 10
169.133
 20
71.7836
 30
0.000000
  70
    32
  0
VERTEX
  8
0
  5
5F6
 10
169.138
 20
71.7874
 30
0.000000
  70
    32
  0
VERTEX
  8
0
  5
5F7
 10
169.143
 20
71.7912
 30
0.000000
  70
    32
  0
VERTEX
  8
0
  5
5F8
 10
169.149
 20
71.7950
 30
0.000000
  70
    32
  0
VERTEX
  8
0
  5
5F9
 10
169.154
 20
71.7987
 30
0.000000
  70
    32
  0
VERTEX
  8
0
  5
5FA
 10
169.159
 20
71.8026
 30
0.000000
  70
    32
  0
VERTEX
  8
0
  5
5FB
 10
169.164
 20
71.8064
 30
0.000000
  70
    32
  0
VERTEX
  8
0
  5
5FC
 10
169.169
 20
71.8102
 30
0.000000
  70
    32
  0
VERTEX
  8
0
  5
5FD
 10
169.174
 20
71.8140
 30
0.000000
  70
    32
  0
VERTEX
  8
0
  5
5FE
 10
169.180
 20
71.8179
 30
0.000000
  70
    32
  0
VERTEX
  8
0
  5
5FF
 10
169.185
 20
71.8217
 30
0.000000
  70
    32
  0
VERTEX
  8
0
  5
600
 10
169.190
 20
71.8256
 30
0.000000
  70
    32
  0
VERTEX
  8
0
  5
601
 10
169.195
 20
71.8295
 30
0.000000
  70
    32
  0
VERTEX
  8
0
  5
602
 10
169.200
 20
71.8334
 30
0.000000
  70
    32
  0
VERTEX
  8
0
  5
603
 10
169.205
 20
71.8373
 30
0.000000
  70
    32
  0
VERTEX
  8
0
  5
604
 10
169.210
 20
71.8412
 30
0.000000
  70
    32
  0
VERTEX
  8
0
  5
605
 10
169.216
 20
71.8451
 30
0.000000
  70
    32
  0
VERTEX
  8
0
  5
606
 10
169.221
 20
71.8490
 30
0.000000
  70
    32
  0
VERTEX
  8
0
  5
607
 10
169.226
 20
71.8529
 30
0.000000
  70
    32
  0
VERTEX
  8
0
  5
608
 10
169.231
 20
71.8568
 30
0.000000
  70
    32
  0
VERTEX
  8
0
  5
609
 10
169.236
 20
71.8608
 30
0.000000
  70
    32
  0
VERTEX
  8
0
  5
60A
 10
169.241
 20
71.8647
 30
0.000000
  70
    32
  0
VERTEX
  8
0
  5
60B
 10
169.246
 20
71.8687
 30
0.000000
  70
    32
  0
VERTEX
  8
0
  5
60C
 10
169.251
 20
71.8727
 30
0.000000
  70
    32
  0
VERTEX
  8
0
  5
60D
 10
169.256
 20
71.8766
 30
0.000000
  70
    32
  0
VERTEX
  8
0
  5
60E
 10
169.261
 20
71.8806
 30
0.000000
  70
    32
  0
VERTEX
  8
0
  5
60F
 10
169.266
 20
71.8846
 30
0.000000
  70
    32
  0
VERTEX
  8
0
  5
610
 10
169.271
 20
71.8886
 30
0.000000
  70
    32
  0
VERTEX
  8
0
  5
611
 10
169.276
 20
71.8926
 30
0.000000
  70
    32
  0
VERTEX
  8
0
  5
612
 10
169.281
 20
71.8967
 30
0.000000
  70
    32
  0
VERTEX
  8
0
  5
613
 10
169.286
 20
71.9007
 30
0.000000
  70
    32
  0
VERTEX
  8
0
  5
614
 10
169.291
 20
71.9047
 30
0.000000
  70
    32
  0
VERTEX
  8
0
  5
615
 10
169.296
 20
71.9088
 30
0.000000
  70
    32
  0
VERTEX
  8
0
  5
616
 10
169.301
 20
71.9128
 30
0.000000
  70
    32
  0
VERTEX
  8
0
  5
617
 10
169.306
 20
71.9169
 30
0.000000
  70
    32
  0
VERTEX
  8
0
  5
618
 10
169.311
 20
71.9210
 30
0.000000
  70
    32
  0
VERTEX
  8
0
  5
619
 10
169.316
 20
71.9250
 30
0.000000
  70
    32
  0
VERTEX
  8
0
  5
61A
 10
169.321
 20
71.9291
 30
0.000000
  70
    32
  0
VERTEX
  8
0
  5
61B
 10
169.326
 20
71.9332
 30
0.000000
  70
    32
  0
VERTEX
  8
0
  5
61C
 10
169.331
 20
71.9373
 30
0.000000
  70
    32
  0
VERTEX
  8
0
  5
61D
 10
169.336
 20
71.9414
 30
0.000000
  70
    32
  0
VERTEX
  8
0
  5
61E
 10
169.341
 20
71.9456
 30
0.000000
  70
    32
  0
VERTEX
  8
0
  5
61F
 10
169.346
 20
71.9497
 30
0.000000
  70
    32
  0
VERTEX
  8
0
  5
620
 10
169.351
 20
71.9538
 30
0.000000
  70
    32
  0
VERTEX
  8
0
  5
621
 10
169.356
 20
71.9580
 30
0.000000
  70
    32
  0
VERTEX
  8
0
  5
622
 10
169.361
 20
71.9622
 30
0.000000
  70
    32
  0
VERTEX
  8
0
  5
623
 10
169.366
 20
71.9663
 30
0.000000
  70
    32
  0
VERTEX
  8
0
  5
624
 10
169.371
 20
71.9705
 30
0.000000
  70
    32
  0
VERTEX
  8
0
  5
625
 10
169.375
 20
71.9747
 30
0.000000
  70
    32
  0
VERTEX
  8
0
  5
626
 10
169.380
 20
71.9789
 30
0.000000
  70
    32
  0
VERTEX
  8
0
  5
627
 10
169.385
 20
71.9831
 30
0.000000
  70
    32
  0
VERTEX
  8
0
  5
628
 10
169.390
 20
71.9873
 30
0.000000
  70
    32
  0
VERTEX
  8
0
  5
629
 10
169.395
 20
71.9915
 30
0.000000
  70
    32
  0
VERTEX
  8
0
  5
62A
 10
169.400
 20
71.9958
 30
0.000000
  70
    32
  0
VERTEX
  8
0
  5
62B
 10
169.405
 20
72.0000
 30
0.000000
  70
    32
  0
VERTEX
  8
0
  5
62C
 10
169.409
 20
72.0043
 30
0.000000
  70
    32
  0
VERTEX
  8
0
  5
62D
 10
169.414
 20
72.0086
 30
0.000000
  70
    32
  0
VERTEX
  8
0
  5
62E
 10
169.419
 20
72.0128
 30
0.000000
  70
    32
  0
VERTEX
  8
0
  5
62F
 10
169.424
 20
72.0171
 30
0.000000
  70
    32
  0
VERTEX
  8
0
  5
630
 10
169.429
 20
72.0214
 30
0.000000
  70
    32
  0
VERTEX
  8
0
  5
631
 10
169.433
 20
72.0257
 30
0.000000
  70
    32
  0
VERTEX
  8
0
  5
632
 10
169.438
 20
72.0300
 30
0.000000
  70
    32
  0
VERTEX
  8
0
  5
633
 10
169.443
 20
72.0343
 30
0.000000
  70
    32
  0
VERTEX
  8
0
  5
634
 10
169.448
 20
72.0387
 30
0.000000
  70
    32
  0
VERTEX
  8
0
  5
635
 10
169.452
 20
72.0430
 30
0.000000
  70
    32
  0
VERTEX
  8
0
  5
636
 10
169.457
 20
72.0474
 30
0.000000
  70
    32
  0
VERTEX
  8
0
  5
637
 10
169.462
 20
72.0517
 30
0.000000
  70
    32
  0
VERTEX
  8
0
  5
638
 10
169.467
 20
72.0561
 30
0.000000
  70
    32
  0
VERTEX
  8
0
  5
639
 10
169.471
 20
72.0605
 30
0.000000
  70
    32
  0
VERTEX
  8
0
  5
63A
 10
169.476
 20
72.0649
 30
0.000000
  70
    32
  0
VERTEX
  8
0
  5
63B
 10
169.481
 20
72.0693
 30
0.000000
  70
    32
  0
VERTEX
  8
0
  5
63C
 10
169.485
 20
72.0737
 30
0.000000
  70
    32
  0
VERTEX
  8
0
  5
63D
 10
169.490
 20
72.0781
 30
0.000000
  70
    32
  0
VERTEX
  8
0
  5
63E
 10
169.495
 20
72.0826
 30
0.000000
  70
    32
  0
VERTEX
  8
0
  5
63F
 10
169.499
 20
72.0870
 30
0.000000
  70
    32
  0
VERTEX
  8
0
  5
640
 10
169.504
 20
72.0914
 30
0.000000
  70
    32
  0
VERTEX
  8
0
  5
641
 10
169.509
 20
72.0959
 30
0.000000
  70
    32
  0
VERTEX
  8
0
  5
642
 10
169.513
 20
72.1004
 30
0.000000
  70
    32
  0
VERTEX
  8
0
  5
643
 10
169.518
 20
72.1048
 30
0.000000
  70
    32
  0
VERTEX
  8
0
  5
644
 10
169.522
 20
72.1093
 30
0.000000
  70
    32
  0
VERTEX
  8
0
  5
645
 10
169.527
 20
72.1138
 30
0.000000
  70
    32
  0
VERTEX
  8
0
  5
646
 10
169.532
 20
72.1183
 30
0.000000
  70
    32
  0
VERTEX
  8
0
  5
647
 10
169.536
 20
72.1229
 30
0.000000
  70
    32
  0
VERTEX
  8
0
  5
648
 10
169.541
 20
72.1274
 30
0.000000
  70
    32
  0
VERTEX
  8
0
  5
649
 10
169.545
 20
72.1319
 30
0.000000
  70
    32
  0
VERTEX
  8
0
  5
64A
 10
169.550
 20
72.1364
 30
0.000000
  70
    32
  0
VERTEX
  8
0
  5
64B
 10
169.554
 20
72.1410
 30
0.000000
  70
    32
  0
VERTEX
  8
0
  5
64C
 10
169.559
 20
72.1456
 30
0.000000
  70
    32
  0
VERTEX
  8
0
  5
64D
 10
169.564
 20
72.1501
 30
0.000000
  70
    32
  0
VERTEX
  8
0
  5
64E
 10
169.568
 20
72.1547
 30
0.000000
  70
    32
  0
VERTEX
  8
0
  5
64F
 10
169.573
 20
72.1593
 30
0.000000
  70
    32
  0
VERTEX
  8
0
  5
650
 10
169.577
 20
72.1639
 30
0.000000
  70
    32
  0
VERTEX
  8
0
  5
651
 10
169.582
 20
72.1685
 30
0.000000
  70
    32
  0
VERTEX
  8
0
  5
652
 10
169.586
 20
72.1731
 30
0.000000
  70
    32
  0
VERTEX
  8
0
  5
653
 10
169.590
 20
72.1777
 30
0.000000
  70
    32
  0
VERTEX
  8
0
  5
654
 10
169.595
 20
72.1824
 30
0.000000
  70
    32
  0
VERTEX
  8
0
  5
655
 10
169.599
 20
72.1870
 30
0.000000
  70
    32
  0
VERTEX
  8
0
  5
656
 10
169.604
 20
72.1917
 30
0.000000
  70
    32
  0
VERTEX
  8
0
  5
657
 10
169.608
 20
72.1963
 30
0.000000
  70
    32
  0
VERTEX
  8
0
  5
658
 10
169.613
 20
72.2010
 30
0.000000
  70
    32
  0
VERTEX
  8
0
  5
659
 10
169.617
 20
72.2057
 30
0.000000
  70
    32
  0
VERTEX
  8
0
  5
65A
 10
169.622
 20
72.2103
 30
0.000000
  70
    32
  0
VERTEX
  8
0
  5
65B
 10
169.626
 20
72.2150
 30
0.000000
  70
    32
  0
VERTEX
  8
0
  5
65C
 10
169.630
 20
72.2197
 30
0.000000
  70
    32
  0
VERTEX
  8
0
  5
65D
 10
169.635
 20
72.2244
 30
0.000000
  70
    32
  0
VERTEX
  8
0
  5
65E
 10
169.639
 20
72.2292
 30
0.000000
  70
    32
  0
VERTEX
  8
0
  5
65F
 10
169.643
 20
72.2339
 30
0.000000
  70
    32
  0
VERTEX
  8
0
  5
660
 10
169.648
 20
72.2386
 30
0.000000
  70
    32
  0
VERTEX
  8
0
  5
661
 10
169.652
 20
72.2434
 30
0.000000
  70
    32
  0
VERTEX
  8
0
  5
662
 10
169.657
 20
72.2481
 30
0.000000
  70
    32
  0
VERTEX
  8
0
  5
663
 10
169.661
 20
72.2529
 30
0.000000
  70
    32
  0
VERTEX
  8
0
  5
664
 10
169.665
 20
72.2576
 30
0.000000
  70
    32
  0
VERTEX
  8
0
  5
665
 10
169.669
 20
72.2624
 30
0.000000
  70
    32
  0
VERTEX
  8
0
  5
666
 10
169.674
 20
72.2672
 30
0.000000
  70
    32
  0
VERTEX
  8
0
  5
667
 10
169.678
 20
72.2720
 30
0.000000
  70
    32
  0
VERTEX
  8
0
  5
668
 10
169.682
 20
72.2768
 30
0.000000
  70
    32
  0
VERTEX
  8
0
  5
669
 10
169.687
 20
72.2816
 30
0.000000
  70
    32
  0
VERTEX
  8
0
  5
66A
 10
169.691
 20
72.2864
 30
0.000000
  70
    32
  0
VERTEX
  8
0
  5
66B
 10
169.695
 20
72.2913
 30
0.000000
  70
    32
  0
VERTEX
  8
0
  5
66C
 10
169.699
 20
72.2961
 30
0.000000
  70
    32
  0
VERTEX
  8
0
  5
66D
 10
169.704
 20
72.3010
 30
0.000000
  70
    32
  0
VERTEX
  8
0
  5
66E
 10
169.708
 20
72.3058
 30
0.000000
  70
    32
  0
VERTEX
  8
0
  5
66F
 10
169.712
 20
72.3107
 30
0.000000
  70
    32
  0
VERTEX
  8
0
  5
670
 10
169.716
 20
72.3155
 30
0.000000
  70
    32
  0
VERTEX
  8
0
  5
671
 10
169.720
 20
72.3204
 30
0.000000
  70
    32
  0
VERTEX
  8
0
  5
672
 10
169.725
 20
72.3253
 30
0.000000
  70
    32
  0
VERTEX
  8
0
  5
673
 10
169.729
 20
72.3302
 30
0.000000
  70
    32
  0
VERTEX
  8
0
  5
674
 10
169.733
 20
72.3351
 30
0.000000
  70
    32
  0
VERTEX
  8
0
  5
675
 10
169.737
 20
72.3400
 30
0.000000
  70
    32
  0
VERTEX
  8
0
  5
676
 10
169.741
 20
72.3449
 30
0.000000
  70
    32
  0
VERTEX
  8
0
  5
677
 10
169.745
 20
72.3499
 30
0.000000
  70
    32
  0
VERTEX
  8
0
  5
678
 10
169.750
 20
72.3548
 30
0.000000
  70
    32
  0
VERTEX
  8
0
  5
679
 10
169.754
 20
72.3597
 30
0.000000
  70
    32
  0
VERTEX
  8
0
  5
67A
 10
169.758
 20
72.3647
 30
0.000000
  70
    32
  0
VERTEX
  8
0
  5
67B
 10
169.762
 20
72.3697
 30
0.000000
  70
    32
  0
VERTEX
  8
0
  5
67C
 10
169.766
 20
72.3746
 30
0.000000
  70
    32
  0
VERTEX
  8
0
  5
67D
 10
169.770
 20
72.3796
 30
0.000000
  70
    32
  0
VERTEX
  8
0
  5
67E
 10
169.774
 20
72.3846
 30
0.000000
  70
    32
  0
VERTEX
  8
0
  5
67F
 10
169.778
 20
72.3896
 30
0.000000
  70
    32
  0
VERTEX
  8
0
  5
680
 10
169.782
 20
72.3946
 30
0.000000
  70
    32
  0
VERTEX
  8
0
  5
681
 10
169.786
 20
72.3996
 30
0.000000
  70
    32
  0
VERTEX
  8
0
  5
682
 10
169.790
 20
72.4046
 30
0.000000
  70
    32
  0
VERTEX
  8
0
  5
683
 10
169.794
 20
72.4096
 30
0.000000
  70
    32
  0
VERTEX
  8
0
  5
684
 10
169.798
 20
72.4147
 30
0.000000
  70
    32
  0
VERTEX
  8
0
  5
685
 10
169.802
 20
72.4197
 30
0.000000
  70
    32
  0
VERTEX
  8
0
  5
686
 10
169.806
 20
72.4248
 30
0.000000
  70
    32
  0
VERTEX
  8
0
  5
687
 10
169.810
 20
72.4298
 30
0.000000
  70
    32
  0
VERTEX
  8
0
  5
688
 10
169.814
 20
72.4349
 30
0.000000
  70
    32
  0
VERTEX
  8
0
  5
689
 10
169.818
 20
72.4400
 30
0.000000
  70
    32
  0
VERTEX
  8
0
  5
68A
 10
169.822
 20
72.4450
 30
0.000000
  70
    32
  0
VERTEX
  8
0
  5
68B
 10
169.826
 20
72.4501
 30
0.000000
  70
    32
  0
VERTEX
  8
0
  5
68C
 10
169.830
 20
72.4552
 30
0.000000
  70
    32
  0
VERTEX
  8
0
  5
68D
 10
169.834
 20
72.4603
 30
0.000000
  70
    32
  0
VERTEX
  8
0
  5
68E
 10
169.838
 20
72.4654
 30
0.000000
  70
    32
  0
VERTEX
  8
0
  5
68F
 10
169.842
 20
72.4706
 30
0.000000
  70
    32
  0
VERTEX
  8
0
  5
690
 10
169.846
 20
72.4757
 30
0.000000
  70
    32
  0
VERTEX
  8
0
  5
691
 10
169.849
 20
72.4808
 30
0.000000
  70
    32
  0
VERTEX
  8
0
  5
692
 10
169.853
 20
72.4860
 30
0.000000
  70
    32
  0
VERTEX
  8
0
  5
693
 10
169.857
 20
72.4911
 30
0.000000
  70
    32
  0
VERTEX
  8
0
  5
694
 10
169.861
 20
72.4963
 30
0.000000
  70
    32
  0
VERTEX
  8
0
  5
695
 10
169.865
 20
72.5015
 30
0.000000
  70
    32
  0
VERTEX
  8
0
  5
696
 10
169.869
 20
72.5066
 30
0.000000
  70
    32
  0
VERTEX
  8
0
  5
697
 10
169.872
 20
72.5118
 30
0.000000
  70
    32
  0
VERTEX
  8
0
  5
698
 10
169.876
 20
72.5170
 30
0.000000
  70
    32
  0
VERTEX
  8
0
  5
699
 10
169.880
 20
72.5222
 30
0.000000
  70
    32
  0
VERTEX
  8
0
  5
69A
 10
169.884
 20
72.5274
 30
0.000000
  70
    32
  0
VERTEX
  8
0
  5
69B
 10
169.888
 20
72.5326
 30
0.000000
  70
    32
  0
VERTEX
  8
0
  5
69C
 10
169.891
 20
72.5378
 30
0.000000
  70
    32
  0
VERTEX
  8
0
  5
69D
 10
169.895
 20
72.5431
 30
0.000000
  70
    32
  0
VERTEX
  8
0
  5
69E
 10
169.899
 20
72.5483
 30
0.000000
  70
    32
  0
VERTEX
  8
0
  5
69F
 10
169.903
 20
72.5536
 30
0.000000
  70
    32
  0
VERTEX
  8
0
  5
6A0
 10
169.906
 20
72.5588
 30
0.000000
  70
    32
  0
VERTEX
  8
0
  5
6A1
 10
169.910
 20
72.5641
 30
0.000000
  70
    32
  0
VERTEX
  8
0
  5
6A2
 10
169.914
 20
72.5693
 30
0.000000
  70
    32
  0
VERTEX
  8
0
  5
6A3
 10
169.917
 20
72.5746
 30
0.000000
  70
    32
  0
VERTEX
  8
0
  5
6A4
 10
169.921
 20
72.5799
 30
0.000000
  70
    32
  0
VERTEX
  8
0
  5
6A5
 10
169.925
 20
72.5852
 30
0.000000
  70
    32
  0
VERTEX
  8
0
  5
6A6
 10
169.928
 20
72.5905
 30
0.000000
  70
    32
  0
VERTEX
  8
0
  5
6A7
 10
169.932
 20
72.5958
 30
0.000000
  70
    32
  0
VERTEX
  8
0
  5
6A8
 10
169.936
 20
72.6011
 30
0.000000
  70
    32
  0
VERTEX
  8
0
  5
6A9
 10
169.939
 20
72.6064
 30
0.000000
  70
    32
  0
VERTEX
  8
0
  5
6AA
 10
169.943
 20
72.6117
 30
0.000000
  70
    32
  0
VERTEX
  8
0
  5
6AB
 10
169.946
 20
72.6171
 30
0.000000
  70
    32
  0
VERTEX
  8
0
  5
6AC
 10
169.950
 20
72.6224
 30
0.000000
  70
    32
  0
VERTEX
  8
0
  5
6AD
 10
169.954
 20
72.6277
 30
0.000000
  70
    32
  0
VERTEX
  8
0
  5
6AE
 10
169.957
 20
72.6331
 30
0.000000
  70
    32
  0
VERTEX
  8
0
  5
6AF
 10
169.961
 20
72.6385
 30
0.000000
  70
    32
  0
VERTEX
  8
0
  5
6B0
 10
169.964
 20
72.6438
 30
0.000000
  70
    32
  0
VERTEX
  8
0
  5
6B1
 10
169.968
 20
72.6492
 30
0.000000
  70
    32
  0
VERTEX
  8
0
  5
6B2
 10
169.971
 20
72.6546
 30
0.000000
  70
    32
  0
VERTEX
  8
0
  5
6B3
 10
169.975
 20
72.6600
 30
0.000000
  70
    32
  0
VERTEX
  8
0
  5
6B4
 10
169.978
 20
72.6654
 30
0.000000
  70
    32
  0
VERTEX
  8
0
  5
6B5
 10
169.982
 20
72.6708
 30
0.000000
  70
    32
  0
VERTEX
  8
0
  5
6B6
 10
169.985
 20
72.6762
 30
0.000000
  70
    32
  0
VERTEX
  8
0
  5
6B7
 10
169.989
 20
72.6816
 30
0.000000
  70
    32
  0
VERTEX
  8
0
  5
6B8
 10
169.992
 20
72.6870
 30
0.000000
  70
    32
  0
VERTEX
  8
0
  5
6B9
 10
169.996
 20
72.6924
 30
0.000000
  70
    32
  0
VERTEX
  8
0
  5
6BA
 10
169.999
 20
72.6979
 30
0.000000
  70
    32
  0
VERTEX
  8
0
  5
6BB
 10
170.003
 20
72.7033
 30
0.000000
  70
    32
  0
VERTEX
  8
0
  5
6BC
 10
170.006
 20
72.7088
 30
0.000000
  70
    32
  0
VERTEX
  8
0
  5
6BD
 10
170.009
 20
72.7142
 30
0.000000
  70
    32
  0
VERTEX
  8
0
  5
6BE
 10
170.013
 20
72.7197
 30
0.000000
  70
    32
  0
VERTEX
  8
0
  5
6BF
 10
170.016
 20
72.7252
 30
0.000000
  70
    32
  0
VERTEX
  8
0
  5
6C0
 10
170.020
 20
72.7307
 30
0.000000
  70
    32
  0
VERTEX
  8
0
  5
6C1
 10
170.023
 20
72.7361
 30
0.000000
  70
    32
  0
VERTEX
  8
0
  5
6C2
 10
170.026
 20
72.7416
 30
0.000000
  70
    32
  0
VERTEX
  8
0
  5
6C3
 10
170.030
 20
72.7471
 30
0.000000
  70
    32
  0
VERTEX
  8
0
  5
6C4
 10
170.033
 20
72.7526
 30
0.000000
  70
    32
  0
VERTEX
  8
0
  5
6C5
 10
170.036
 20
72.7582
 30
0.000000
  70
    32
  0
VERTEX
  8
0
  5
6C6
 10
170.040
 20
72.7637
 30
0.000000
  70
    32
  0
VERTEX
  8
0
  5
6C7
 10
170.043
 20
72.7692
 30
0.000000
  70
    32
  0
VERTEX
  8
0
  5
6C8
 10
170.046
 20
72.7747
 30
0.000000
  70
    32
  0
VERTEX
  8
0
  5
6C9
 10
170.049
 20
72.7803
 30
0.000000
  70
    32
  0
VERTEX
  8
0
  5
6CA
 10
170.053
 20
72.7858
 30
0.000000
  70
    32
  0
VERTEX
  8
0
  5
6CB
 10
170.056
 20
72.7914
 30
0.000000
  70
    32
  0
VERTEX
  8
0
  5
6CC
 10
170.059
 20
72.7969
 30
0.000000
  70
    32
  0
VERTEX
  8
0
  5
6CD
 10
170.062
 20
72.8025
 30
0.000000
  70
    32
  0
VERTEX
  8
0
  5
6CE
 10
170.066
 20
72.8081
 30
0.000000
  70
    32
  0
VERTEX
  8
0
  5
6CF
 10
170.069
 20
72.8137
 30
0.000000
  70
    32
  0
VERTEX
  8
0
  5
6D0
 10
170.072
 20
72.8192
 30
0.000000
  70
    32
  0
VERTEX
  8
0
  5
6D1
 10
170.075
 20
72.8248
 30
0.000000
  70
    32
  0
VERTEX
  8
0
  5
6D2
 10
170.078
 20
72.8304
 30
0.000000
  70
    32
  0
VERTEX
  8
0
  5
6D3
 10
170.082
 20
72.8360
 30
0.000000
  70
    32
  0
VERTEX
  8
0
  5
6D4
 10
170.085
 20
72.8416
 30
0.000000
  70
    32
  0
VERTEX
  8
0
  5
6D5
 10
170.088
 20
72.8473
 30
0.000000
  70
    32
  0
VERTEX
  8
0
  5
6D6
 10
170.091
 20
72.8529
 30
0.000000
  70
    32
  0
VERTEX
  8
0
  5
6D7
 10
170.094
 20
72.8585
 30
0.000000
  70
    32
  0
VERTEX
  8
0
  5
6D8
 10
170.097
 20
72.8642
 30
0.000000
  70
    32
  0
VERTEX
  8
0
  5
6D9
 10
170.100
 20
72.8698
 30
0.000000
  70
    32
  0
VERTEX
  8
0
  5
6DA
 10
170.103
 20
72.8754
 30
0.000000
  70
    32
  0
VERTEX
  8
0
  5
6DB
 10
170.106
 20
72.8811
 30
0.000000
  70
    32
  0
VERTEX
  8
0
  5
6DC
 10
170.109
 20
72.8868
 30
0.000000
  70
    32
  0
VERTEX
  8
0
  5
6DD
 10
170.113
 20
72.8924
 30
0.000000
  70
    32
  0
VERTEX
  8
0
  5
6DE
 10
170.116
 20
72.8981
 30
0.000000
  70
    32
  0
VERTEX
  8
0
  5
6DF
 10
170.119
 20
72.9038
 30
0.000000
  70
    32
  0
VERTEX
  8
0
  5
6E0
 10
170.122
 20
72.9095
 30
0.000000
  70
    32
  0
VERTEX
  8
0
  5
6E1
 10
170.125
 20
72.9152
 30
0.000000
  70
    32
  0
VERTEX
  8
0
  5
6E2
 10
170.128
 20
72.9209
 30
0.000000
  70
    32
  0
VERTEX
  8
0
  5
6E3
 10
170.131
 20
72.9266
 30
0.000000
  70
    32
  0
VERTEX
  8
0
  5
6E4
 10
170.134
 20
72.9323
 30
0.000000
  70
    32
  0
VERTEX
  8
0
  5
6E5
 10
170.136
 20
72.9380
 30
0.000000
  70
    32
  0
VERTEX
  8
0
  5
6E6
 10
170.139
 20
72.9437
 30
0.000000
  70
    32
  0
VERTEX
  8
0
  5
6E7
 10
170.142
 20
72.9494
 30
0.000000
  70
    32
  0
VERTEX
  8
0
  5
6E8
 10
170.145
 20
72.9552
 30
0.000000
  70
    32
  0
VERTEX
  8
0
  5
6E9
 10
170.148
 20
72.9609
 30
0.000000
  70
    32
  0
VERTEX
  8
0
  5
6EA
 10
170.151
 20
72.9667
 30
0.000000
  70
    32
  0
VERTEX
  8
0
  5
6EB
 10
170.154
 20
72.9724
 30
0.000000
  70
    32
  0
VERTEX
  8
0
  5
6EC
 10
170.157
 20
72.9782
 30
0.000000
  70
    32
  0
VERTEX
  8
0
  5
6ED
 10
170.160
 20
72.9839
 30
0.000000
  70
    32
  0
VERTEX
  8
0
  5
6EE
 10
170.163
 20
72.9897
 30
0.000000
  70
    32
  0
VERTEX
  8
0
  5
6EF
 10
170.165
 20
72.9955
 30
0.000000
  70
    32
  0
VERTEX
  8
0
  5
6F0
 10
170.168
 20
73.0013
 30
0.000000
  70
    32
  0
VERTEX
  8
0
  5
6F1
 10
170.171
 20
73.0070
 30
0.000000
  70
    32
  0
VERTEX
  8
0
  5
6F2
 10
170.174
 20
73.0128
 30
0.000000
  70
    32
  0
VERTEX
  8
0
  5
6F3
 10
170.177
 20
73.0186
 30
0.000000
  70
    32
  0
VERTEX
  8
0
  5
6F4
 10
170.179
 20
73.0244
 30
0.000000
  70
    32
  0
VERTEX
  8
0
  5
6F5
 10
170.182
 20
73.0302
 30
0.000000
  70
    32
  0
VERTEX
  8
0
  5
6F6
 10
170.185
 20
73.0361
 30
0.000000
  70
    32
  0
VERTEX
  8
0
  5
6F7
 10
170.188
 20
73.0419
 30
0.000000
  70
    32
  0
VERTEX
  8
0
  5
6F8
 10
170.190
 20
73.0477
 30
0.000000
  70
    32
  0
VERTEX
  8
0
  5
6F9
 10
170.193
 20
73.0535
 30
0.000000
  70
    32
  0
VERTEX
  8
0
  5
6FA
 10
170.196
 20
73.0594
 30
0.000000
  70
    32
  0
VERTEX
  8
0
  5
6FB
 10
170.198
 20
73.0652
 30
0.000000
  70
    32
  0
VERTEX
  8
0
  5
6FC
 10
170.201
 20
73.0711
 30
0.000000
  70
    32
  0
VERTEX
  8
0
  5
6FD
 10
170.204
 20
73.0769
 30
0.000000
  70
    32
  0
VERTEX
  8
0
  5
6FE
 10
170.207
 20
73.0828
 30
0.000000
  70
    32
  0
VERTEX
  8
0
  5
6FF
 10
170.209
 20
73.0886
 30
0.000000
  70
    32
  0
VERTEX
  8
0
  5
700
 10
170.212
 20
73.0945
 30
0.000000
  70
    32
  0
VERTEX
  8
0
  5
701
 10
170.214
 20
73.1004
 30
0.000000
  70
    32
  0
VERTEX
  8
0
  5
702
 10
170.217
 20
73.1063
 30
0.000000
  70
    32
  0
VERTEX
  8
0
  5
703
 10
170.220
 20
73.1122
 30
0.000000
  70
    32
  0
VERTEX
  8
0
  5
704
 10
170.222
 20
73.1180
 30
0.000000
  70
    32
  0
VERTEX
  8
0
  5
705
 10
170.225
 20
73.1239
 30
0.000000
  70
    32
  0
VERTEX
  8
0
  5
706
 10
170.227
 20
73.1298
 30
0.000000
  70
    32
  0
VERTEX
  8
0
  5
707
 10
170.230
 20
73.1357
 30
0.000000
  70
    32
  0
VERTEX
  8
0
  5
708
 10
170.232
 20
73.1417
 30
0.000000
  70
    32
  0
VERTEX
  8
0
  5
709
 10
170.235
 20
73.1476
 30
0.000000
  70
    32
  0
VERTEX
  8
0
  5
70A
 10
170.238
 20
73.1535
 30
0.000000
  70
    32
  0
VERTEX
  8
0
  5
70B
 10
170.240
 20
73.1594
 30
0.000000
  70
    32
  0
VERTEX
  8
0
  5
70C
 10
170.243
 20
73.1654
 30
0.000000
  70
    32
  0
VERTEX
  8
0
  5
70D
 10
170.245
 20
73.1713
 30
0.000000
  70
    32
  0
VERTEX
  8
0
  5
70E
 10
170.247
 20
73.1772
 30
0.000000
  70
    32
  0
VERTEX
  8
0
  5
70F
 10
170.250
 20
73.1832
 30
0.000000
  70
    32
  0
VERTEX
  8
0
  5
710
 10
170.252
 20
73.1891
 30
0.000000
  70
    32
  0
VERTEX
  8
0
  5
711
 10
170.255
 20
73.1951
 30
0.000000
  70
    32
  0
VERTEX
  8
0
  5
712
 10
170.257
 20
73.2011
 30
0.000000
  70
    32
  0
VERTEX
  8
0
  5
713
 10
170.260
 20
73.2070
 30
0.000000
  70
    32
  0
VERTEX
  8
0
  5
714
 10
170.262
 20
73.2130
 30
0.000000
  70
    32
  0
VERTEX
  8
0
  5
715
 10
170.264
 20
73.2190
 30
0.000000
  70
    32
  0
VERTEX
  8
0
  5
716
 10
170.267
 20
73.2250
 30
0.000000
  70
    32
  0
VERTEX
  8
0
  5
717
 10
170.269
 20
73.2309
 30
0.000000
  70
    32
  0
VERTEX
  8
0
  5
718
 10
170.271
 20
73.2369
 30
0.000000
  70
    32
  0
VERTEX
  8
0
  5
719
 10
170.274
 20
73.2429
 30
0.000000
  70
    32
  0
VERTEX
  8
0
  5
71A
 10
170.276
 20
73.2489
 30
0.000000
  70
    32
  0
VERTEX
  8
0
  5
71B
 10
170.278
 20
73.2549
 30
0.000000
  70
    32
  0
VERTEX
  8
0
  5
71C
 10
170.281
 20
73.2609
 30
0.000000
  70
    32
  0
VERTEX
  8
0
  5
71D
 10
170.283
 20
73.2670
 30
0.000000
  70
    32
  0
VERTEX
  8
0
  5
71E
 10
170.285
 20
73.2730
 30
0.000000
  70
    32
  0
VERTEX
  8
0
  5
71F
 10
170.288
 20
73.2790
 30
0.000000
  70
    32
  0
VERTEX
  8
0
  5
720
 10
170.290
 20
73.2850
 30
0.000000
  70
    32
  0
VERTEX
  8
0
  5
721
 10
170.292
 20
73.2911
 30
0.000000
  70
    32
  0
VERTEX
  8
0
  5
722
 10
170.294
 20
73.2971
 30
0.000000
  70
    32
  0
VERTEX
  8
0
  5
723
 10
170.297
 20
73.3032
 30
0.000000
  70
    32
  0
VERTEX
  8
0
  5
724
 10
170.299
 20
73.3092
 30
0.000000
  70
    32
  0
VERTEX
  8
0
  5
725
 10
170.301
 20
73.3153
 30
0.000000
  70
    32
  0
VERTEX
  8
0
  5
726
 10
170.303
 20
73.3213
 30
0.000000
  70
    32
  0
VERTEX
  8
0
  5
727
 10
170.305
 20
73.3274
 30
0.000000
  70
    32
  0
VERTEX
  8
0
  5
728
 10
170.307
 20
73.3334
 30
0.000000
  70
    32
  0
VERTEX
  8
0
  5
729
 10
170.310
 20
73.3395
 30
0.000000
  70
    32
  0
VERTEX
  8
0
  5
72A
 10
170.312
 20
73.3456
 30
0.000000
  70
    32
  0
VERTEX
  8
0
  5
72B
 10
170.314
 20
73.3517
 30
0.000000
  70
    32
  0
VERTEX
  8
0
  5
72C
 10
170.316
 20
73.3577
 30
0.000000
  70
    32
  0
VERTEX
  8
0
  5
72D
 10
170.318
 20
73.3638
 30
0.000000
  70
    32
  0
VERTEX
  8
0
  5
72E
 10
170.320
 20
73.3699
 30
0.000000
  70
    32
  0
VERTEX
  8
0
  5
72F
 10
170.322
 20
73.3760
 30
0.000000
  70
    32
  0
VERTEX
  8
0
  5
730
 10
170.324
 20
73.3821
 30
0.000000
  70
    32
  0
VERTEX
  8
0
  5
731
 10
170.326
 20
73.3882
 30
0.000000
  70
    32
  0
VERTEX
  8
0
  5
732
 10
170.328
 20
73.3943
 30
0.000000
  70
    32
  0
VERTEX
  8
0
  5
733
 10
170.330
 20
73.4004
 30
0.000000
  70
    32
  0
VERTEX
  8
0
  5
734
 10
170.332
 20
73.4065
 30
0.000000
  70
    32
  0
VERTEX
  8
0
  5
735
 10
170.334
 20
73.4127
 30
0.000000
  70
    32
  0
VERTEX
  8
0
  5
736
 10
170.336
 20
73.4188
 30
0.000000
  70
    32
  0
VERTEX
  8
0
  5
737
 10
170.338
 20
73.4249
 30
0.000000
  70
    32
  0
VERTEX
  8
0
  5
738
 10
170.340
 20
73.4311
 30
0.000000
  70
    32
  0
VERTEX
  8
0
  5
739
 10
170.342
 20
73.4372
 30
0.000000
  70
    32
  0
VERTEX
  8
0
  5
73A
 10
170.344
 20
73.4433
 30
0.000000
  70
    32
  0
VERTEX
  8
0
  5
73B
 10
170.346
 20
73.4495
 30
0.000000
  70
    32
  0
VERTEX
  8
0
  5
73C
 10
170.348
 20
73.4556
 30
0.000000
  70
    32
  0
VERTEX
  8
0
  5
73D
 10
170.350
 20
73.4618
 30
0.000000
  70
    32
  0
VERTEX
  8
0
  5
73E
 10
170.352
 20
73.4679
 30
0.000000
  70
    32
  0
VERTEX
  8
0
  5
73F
 10
170.353
 20
73.4741
 30
0.000000
  70
    32
  0
VERTEX
  8
0
  5
740
 10
170.355
 20
73.4802
 30
0.000000
  70
    32
  0
VERTEX
  8
0
  5
741
 10
170.357
 20
73.4864
 30
0.000000
  70
    32
  0
VERTEX
  8
0
  5
742
 10
170.359
 20
73.4926
 30
0.000000
  70
    32
  0
VERTEX
  8
0
  5
743
 10
170.361
 20
73.4988
 30
0.000000
  70
    32
  0
VERTEX
  8
0
  5
744
 10
170.363
 20
73.5049
 30
0.000000
  70
    32
  0
VERTEX
  8
0
  5
745
 10
170.364
 20
73.5111
 30
0.000000
  70
    32
  0
VERTEX
  8
0
  5
746
 10
170.366
 20
73.5173
 30
0.000000
  70
    32
  0
VERTEX
  8
0
  5
747
 10
170.368
 20
73.5235
 30
0.000000
  70
    32
  0
VERTEX
  8
0
  5
748
 10
170.370
 20
73.5297
 30
0.000000
  70
    32
  0
VERTEX
  8
0
  5
749
 10
170.371
 20
73.5359
 30
0.000000
  70
    32
  0
VERTEX
  8
0
  5
74A
 10
170.373
 20
73.5421
 30
0.000000
  70
    32
  0
VERTEX
  8
0
  5
74B
 10
170.375
 20
73.5483
 30
0.000000
  70
    32
  0
VERTEX
  8
0
  5
74C
 10
170.376
 20
73.5545
 30
0.000000
  70
    32
  0
VERTEX
  8
0
  5
74D
 10
170.378
 20
73.5607
 30
0.000000
  70
    32
  0
VERTEX
  8
0
  5
74E
 10
170.380
 20
73.5669
 30
0.000000
  70
    32
  0
VERTEX
  8
0
  5
74F
 10
170.381
 20
73.5731
 30
0.000000
  70
    32
  0
VERTEX
  8
0
  5
750
 10
170.383
 20
73.5794
 30
0.000000
  70
    32
  0
VERTEX
  8
0
  5
751
 10
170.385
 20
73.5856
 30
0.000000
  70
    32
  0
VERTEX
  8
0
  5
752
 10
170.386
 20
73.5918
 30
0.000000
  70
    32
  0
VERTEX
  8
0
  5
753
 10
170.388
 20
73.5980
 30
0.000000
  70
    32
  0
VERTEX
  8
0
  5
754
 10
170.390
 20
73.6043
 30
0.000000
  70
    32
  0
VERTEX
  8
0
  5
755
 10
170.391
 20
73.6105
 30
0.000000
  70
    32
  0
VERTEX
  8
0
  5
756
 10
170.393
 20
73.6167
 30
0.000000
  70
    32
  0
VERTEX
  8
0
  5
757
 10
170.394
 20
73.6230
 30
0.000000
  70
    32
  0
VERTEX
  8
0
  5
758
 10
170.396
 20
73.6292
 30
0.000000
  70
    32
  0
VERTEX
  8
0
  5
759
 10
170.397
 20
73.6355
 30
0.000000
  70
    32
  0
VERTEX
  8
0
  5
75A
 10
170.399
 20
73.6417
 30
0.000000
  70
    32
  0
VERTEX
  8
0
  5
75B
 10
170.400
 20
73.6480
 30
0.000000
  70
    32
  0
VERTEX
  8
0
  5
75C
 10
170.402
 20
73.6542
 30
0.000000
  70
    32
  0
VERTEX
  8
0
  5
75D
 10
170.403
 20
73.6605
 30
0.000000
  70
    32
  0
VERTEX
  8
0
  5
75E
 10
170.405
 20
73.6668
 30
0.000000
  70
    32
  0
VERTEX
  8
0
  5
75F
 10
170.406
 20
73.6730
 30
0.000000
  70
    32
  0
VERTEX
  8
0
  5
760
 10
170.408
 20
73.6793
 30
0.000000
  70
    32
  0
VERTEX
  8
0
  5
761
 10
170.409
 20
73.6856
 30
0.000000
  70
    32
  0
VERTEX
  8
0
  5
762
 10
170.411
 20
73.6919
 30
0.000000
  70
    32
  0
VERTEX
  8
0
  5
763
 10
170.412
 20
73.6981
 30
0.000000
  70
    32
  0
VERTEX
  8
0
  5
764
 10
170.414
 20
73.7044
 30
0.000000
  70
    32
  0
VERTEX
  8
0
  5
765
 10
170.415
 20
73.7107
 30
0.000000
  70
    32
  0
VERTEX
  8
0
  5
766
 10
170.416
 20
73.7170
 30
0.000000
  70
    32
  0
VERTEX
  8
0
  5
767
 10
170.418
 20
73.7233
 30
0.000000
  70
    32
  0
VERTEX
  8
0
  5
768
 10
170.419
 20
73.7296
 30
0.000000
  70
    32
  0
VERTEX
  8
0
  5
769
 10
170.420
 20
73.7359
 30
0.000000
  70
    32
  0
VERTEX
  8
0
  5
76A
 10
170.422
 20
73.7422
 30
0.000000
  70
    32
  0
VERTEX
  8
0
  5
76B
 10
170.423
 20
73.7485
 30
0.000000
  70
    32
  0
VERTEX
  8
0
  5
76C
 10
170.424
 20
73.7548
 30
0.000000
  70
    32
  0
VERTEX
  8
0
  5
76D
 10
170.426
 20
73.7611
 30
0.000000
  70
    32
  0
VERTEX
  8
0
  5
76E
 10
170.427
 20
73.7674
 30
0.000000
  70
    32
  0
VERTEX
  8
0
  5
76F
 10
170.428
 20
73.7737
 30
0.000000
  70
    32
  0
VERTEX
  8
0
  5
770
 10
170.429
 20
73.7800
 30
0.000000
  70
    32
  0
VERTEX
  8
0
  5
771
 10
170.431
 20
73.7863
 30
0.000000
  70
    32
  0
VERTEX
  8
0
  5
772
 10
170.432
 20
73.7926
 30
0.000000
  70
    32
  0
VERTEX
  8
0
  5
773
 10
170.433
 20
73.7990
 30
0.000000
  70
    32
  0
VERTEX
  8
0
  5
774
 10
170.434
 20
73.8053
 30
0.000000
  70
    32
  0
VERTEX
  8
0
  5
775
 10
170.435
 20
73.8116
 30
0.000000
  70
    32
  0
VERTEX
  8
0
  5
776
 10
170.437
 20
73.8180
 30
0.000000
  70
    32
  0
VERTEX
  8
0
  5
777
 10
170.438
 20
73.8243
 30
0.000000
  70
    32
  0
VERTEX
  8
0
  5
778
 10
170.439
 20
73.8306
 30
0.000000
  70
    32
  0
VERTEX
  8
0
  5
779
 10
170.440
 20
73.8370
 30
0.000000
  70
    32
  0
VERTEX
  8
0
  5
77A
 10
170.441
 20
73.8433
 30
0.000000
  70
    32
  0
VERTEX
  8
0
  5
77B
 10
170.442
 20
73.8496
 30
0.000000
  70
    32
  0
VERTEX
  8
0
  5
77C
 10
170.443
 20
73.8560
 30
0.000000
  70
    32
  0
VERTEX
  8
0
  5
77D
 10
170.444
 20
73.8623
 30
0.000000
  70
    32
  0
VERTEX
  8
0
  5
77E
 10
170.445
 20
73.8687
 30
0.000000
  70
    32
  0
VERTEX
  8
0
  5
77F
 10
170.447
 20
73.8750
 30
0.000000
  70
    32
  0
VERTEX
  8
0
  5
780
 10
170.448
 20
73.8814
 30
0.000000
  70
    32
  0
VERTEX
  8
0
  5
781
 10
170.449
 20
73.8877
 30
0.000000
  70
    32
  0
VERTEX
  8
0
  5
782
 10
170.450
 20
73.8941
 30
0.000000
  70
    32
  0
VERTEX
  8
0
  5
783
 10
170.451
 20
73.9004
 30
0.000000
  70
    32
  0
VERTEX
  8
0
  5
784
 10
170.451
 20
73.9068
 30
0.000000
  70
    32
  0
VERTEX
  8
0
  5
785
 10
170.452
 20
73.9132
 30
0.000000
  70
    32
  0
VERTEX
  8
0
  5
786
 10
170.453
 20
73.9195
 30
0.000000
  70
    32
  0
VERTEX
  8
0
  5
787
 10
170.454
 20
73.9259
 30
0.000000
  70
    32
  0
VERTEX
  8
0
  5
788
 10
170.455
 20
73.9323
 30
0.000000
  70
    32
  0
VERTEX
  8
0
  5
789
 10
170.456
 20
73.9386
 30
0.000000
  70
    32
  0
VERTEX
  8
0
  5
78A
 10
170.457
 20
73.9450
 30
0.000000
  70
    32
  0
VERTEX
  8
0
  5
78B
 10
170.458
 20
73.9514
 30
0.000000
  70
    32
  0
VERTEX
  8
0
  5
78C
 10
170.459
 20
73.9578
 30
0.000000
  70
    32
  0
VERTEX
  8
0
  5
78D
 10
170.459
 20
73.9641
 30
0.000000
  70
    32
  0
VERTEX
  8
0
  5
78E
 10
170.460
 20
73.9705
 30
0.000000
  70
    32
  0
VERTEX
  8
0
  5
78F
 10
170.461
 20
73.9769
 30
0.000000
  70
    32
  0
VERTEX
  8
0
  5
790
 10
170.462
 20
73.9833
 30
0.000000
  70
    32
  0
VERTEX
  8
0
  5
791
 10
170.463
 20
73.9897
 30
0.000000
  70
    32
  0
VERTEX
  8
0
  5
792
 10
170.463
 20
73.9961
 30
0.000000
  70
    32
  0
VERTEX
  8
0
  5
793
 10
170.464
 20
74.0025
 30
0.000000
  70
    32
  0
VERTEX
  8
0
  5
794
 10
170.465
 20
74.0088
 30
0.000000
  70
    32
  0
VERTEX
  8
0
  5
795
 10
170.466
 20
74.0152
 30
0.000000
  70
    32
  0
VERTEX
  8
0
  5
796
 10
170.466
 20
74.0216
 30
0.000000
  70
    32
  0
VERTEX
  8
0
  5
797
 10
170.467
 20
74.0280
 30
0.000000
  70
    32
  0
VERTEX
  8
0
  5
798
 10
170.468
 20
74.0344
 30
0.000000
  70
    32
  0
VERTEX
  8
0
  5
799
 10
170.469
 20
74.0408
 30
0.000000
  70
    32
  0
VERTEX
  8
0
  5
79A
 10
170.469
 20
74.0472
 30
0.000000
  70
    32
  0
VERTEX
  8
0
  5
79B
 10
170.470
 20
74.0536
 30
0.000000
  70
    32
  0
VERTEX
  8
0
  5
79C
 10
170.471
 20
74.0600
 30
0.000000
  70
    32
  0
VERTEX
  8
0
  5
79D
 10
170.471
 20
74.0664
 30
0.000000
  70
    32
  0
VERTEX
  8
0
  5
79E
 10
170.472
 20
74.0728
 30
0.000000
  70
    32
  0
VERTEX
  8
0
  5
79F
 10
170.473
 20
74.0792
 30
0.000000
  70
    32
  0
VERTEX
  8
0
  5
7A0
 10
170.473
 20
74.0856
 30
0.000000
  70
    32
  0
VERTEX
  8
0
  5
7A1
 10
170.474
 20
74.0920
 30
0.000000
  70
    32
  0
VERTEX
  8
0
  5
7A2
 10
170.475
 20
74.0984
 30
0.000000
  70
    32
  0
SEQEND
  8
0
  5
7A3
  0
POLYLINE
  5
18E
  8
0
  6
CONTINUOUS
 62
     7
 66
     1
 10
0.0
 20
0.0
 30
0.0
 70
   128
  0
VERTEX
  5
40A
  8
0
  6
CONTINUOUS
 62
     7
 10
175.96796172153921
 20
95.978609543758054
 30
0.0
  0
VERTEX
  5
40B
  8
0
  6
CONTINUOUS
 62
     7
 10
176.21801853978849
 20
95.846019293566854
 30
0.0
  0
VERTEX
  5
40C
  8
0
  6
CONTINUOUS
 62
     7
 10
176.48665257517919
 20
95.726148837473801
 30
0.0
  0
VERTEX
  5
40D
  8
0
  6
CONTINUOUS
 62
     7
 10
176.77192831333079
 20
95.619861844861916
 30
0.0
  0
VERTEX
  5
40E
  8
0
  6
CONTINUOUS
 62
     7
 10
177.07179033601281
 20
95.527924115948537
 30
0.0
  0
VERTEX
  5
40F
  8
0
  6
CONTINUOUS
 62
     7
 10
177.3840781304803
 20
95.450998064177213
 30
0.0
  0
VERTEX
  5
410
  8
0
  6
CONTINUOUS
 62
     7
 10
177.7065416560182
 20
95.389637943513719
 30
0.0
  0
VERTEX
  5
411
  8
0
  6
CONTINUOUS
 62
     7
 10
178.03685755553579
 20
95.344285855033519
 30
0.0
  0
VERTEX
  5
412
  8
0
  6
CONTINUOUS
 62
     7
 10
178.3726458954078
 20
95.315268561573319
 30
0.0
  0
VERTEX
  5
413
  8
0
  6
CONTINUOUS
 62
     7
 10
178.71148731295099
 20
95.302795133397453
 30
0.0
  0
VERTEX
  5
414
  8
0
  6
CONTINUOUS
 62
     7
 10
179.0509404479873
 20
95.306955441841737
 30
0.0
  0
VERTEX
  5
415
  8
0
  6
CONTINUOUS
 62
     7
 10
179.38855953290039
 20
95.32771951178853
 30
0.0
  0
VERTEX
  5
416
  8
0
  6
CONTINUOUS
 62
     7
 10
179.72191201444679
 20
95.36493773763803
 30
0.0
  0
VERTEX
  5
417
  8
0
  6
CONTINUOUS
 62
     7
 10
180.04859608035841
 20
95.418341961220165
 30
0.0
  0
VERTEX
  5
418
  8
0
  6
CONTINUOUS
 62
     7
 10
180.36625796445409
 20
95.487547403880185
 30
0.0
  0
VERTEX
  5
419
  8
0
  6
CONTINUOUS
 62
     7
 10
180.67260890558001
 20
95.572055438817983
 30
0.0
  0
VERTEX
  5
41A
  8
0
  6
CONTINUOUS
 62
     7
 10
180.96544163818521
 20
95.671257183705336
 30
0.0
  0
VERTEX
  5
41B
  8
0
  6
CONTINUOUS
 62
     7
 10
181.24264629572099
 20
95.784437887697052
 30
0.0
  0
VERTEX
  5
41C
  8
0
  6
CONTINUOUS
 62
     7
 10
181.50222561227781
 20
95.91078208122741
 30
0.0
  0
VERTEX
  5
41D
  8
0
  6
CONTINUOUS
 62
     7
 10
181.7423093129315
 20
96.049379451486814
 30
0.0
  0
VERTEX
  5
41E
  8
0
  6
CONTINUOUS
 62
     7
 10
181.96116758911739
 20
96.199231401246621
 30
0.0
  0
VERTEX
  5
41F
  8
0
  6
CONTINUOUS
 62
     7
 10
182.1572235619405
 20
96.359258243774917
 30
0.0
  0
VERTEX
  5
420
  8
0
  6
CONTINUOUS
 62
     7
 10
182.32906464362389
 20
96.528306982004338
 30
0.0
  0
VERTEX
  5
421
  8
0
  6
CONTINUOUS
 62
     7
 10
182.4754527152364
 20
96.705159615902147
 30
0.0
  0
VERTEX
  5
422
  8
0
  6
CONTINUOUS
 62
     7
 10
182.5953330473676
 20
96.888541918188579
 30
0.0
  0
VERTEX
  5
423
  8
0
  6
CONTINUOUS
 62
     7
 10
182.68784189947741
 20
97.077132615173454
 30
0.0
  0
VERTEX
  5
424
  8
0
  6
CONTINUOUS
 62
     7
 10
182.75231274316641
 20
97.269572906563425
 30
0.0
  0
VERTEX
  5
425
  8
0
  6
CONTINUOUS
 62
     7
 10
182.78828106452869
 20
97.464476255649316
 30
0.0
  0
VERTEX
  5
426
  8
0
  6
CONTINUOUS
 62
     7
 10
182.79548771098459
 20
97.660438379334735
 30
0.0
  0
VERTEX
  5
427
  8
0
  6
CONTINUOUS
 62
     7
 10
182.77388075848111
 20
97.856047366028022
 30
0.0
  0
VERTEX
  5
428
  8
0
  6
CONTINUOUS
 62
     7
 10
182.72361588560619
 20
98.049893848497774
 30
0.0
  0
VERTEX
  5
429
  8
0
  6
CONTINUOUS
 62
     7
 10
182.64505525192089
 20
98.240581158395756
 30
0.0
  0
VERTEX
  5
42A
  8
0
  6
CONTINUOUS
 62
     7
 10
182.53876488859089
 20
98.426735389284559
 30
0.0
  0
VERTEX
  5
42B
  8
0
  6
CONTINUOUS
 62
     7
 10
182.4055106201198
 20
98.607015295664965
 30
0.0
  0
VERTEX
  5
42C
  8
0
  6
CONTINUOUS
 62
     7
 10
182.24625254656539
 20
98.780121956680347
 30
0.0
  0
VERTEX
  5
42D
  8
0
  6
CONTINUOUS
 62
     7
 10
182.062138125997
 20
98.94480813487138
 30
0.0
  0
VERTEX
  5
42E
  8
0
  6
CONTINUOUS
 62
     7
 10
181.8544939070338
 20
99.099887262550425
 30
0.0
  0
VERTEX
  5
42F
  8
0
  6
CONTINUOUS
 62
     7
 10
181.62481597103161
 20
99.244241991048895
 30
0.0
  0
VERTEX
  5
430
  8
0
  6
CONTINUOUS
 62
     7
 10
181.37475915278239
 20
99.376832241240152
 30
0.0
  0
VERTEX
  5
431
  8
0
  6
CONTINUOUS
 62
     7
 10
181.1061251173916
 20
99.496702697333177
 30
0.0
  0
VERTEX
  5
432
  8
0
  6
CONTINUOUS
 62
     7
 10
180.82084937924009
 20
99.602989689945048
 30
0.0
  0
VERTEX
  5
433
  8
0
  6
CONTINUOUS
 62
     7
 10
180.52098735655821
 20
99.694927418858441
 30
0.0
  0
VERTEX
  5
434
  8
0
  6
CONTINUOUS
 62
     7
 10
180.20869956209069
 20
99.771853470629765
 30
0.0
  0
VERTEX
  5
435
  8
0
  6
CONTINUOUS
 62
     7
 10
179.8862360365527
 20
99.833213591293244
 30
0.0
  0
VERTEX
  5
436
  8
0
  6
CONTINUOUS
 62
     7
 10
179.5559201370352
 20
99.878565679773445
 30
0.0
  0
VERTEX
  5
437
  8
0
  6
CONTINUOUS
 62
     7
 10
179.22013179716311
 20
99.907582973233644
 30
0.0
  0
VERTEX
  5
438
  8
0
  6
CONTINUOUS
 62
     7
 10
178.88129037961991
 20
99.920056401409497
 30
0.0
  0
VERTEX
  5
439
  8
0
  6
CONTINUOUS
 62
     7
 10
178.5418372445836
 20
99.915896092965212
 30
0.0
  0
VERTEX
  5
43A
  8
0
  6
CONTINUOUS
 62
     7
 10
178.20421815967049
 20
99.895132023018434
 30
0.0
  0
VERTEX
  5
43B
  8
0
  6
CONTINUOUS
 62
     7
 10
177.87086567812409
 20
99.857913797168933
 30
0.0
  0
VERTEX
  5
43C
  8
0
  6
CONTINUOUS
 62
     7
 10
177.54418161221261
 20
99.804509573586813
 30
0.0
  0
VERTEX
  5
43D
  8
0
  6
CONTINUOUS
 62
     7
 10
177.22651972811681
 20
99.735304130926764
 30
0.0
  0
VERTEX
  5
43E
  8
0
  6
CONTINUOUS
 62
     7
 10
176.9201687869909
 20
99.650796095988952
 30
0.0
  0
VERTEX
  5
43F
  8
0
  6
CONTINUOUS
 62
     7
 10
176.62733605438569
 20
99.551594351101627
 30
0.0
  0
VERTEX
  5
440
  8
0
  6
CONTINUOUS
 62
     7
 10
176.35013139684989
 20
99.438413647109911
 30
0.0
  0
VERTEX
  5
441
  8
0
  6
CONTINUOUS
 62
     7
 10
176.09055208029309
 20
99.312069453579554
 30
0.0
  0
VERTEX
  5
442
  8
0
  6
CONTINUOUS
 62
     7
 10
175.85046837963941
 20
99.173472083320135
 30
0.0
  0
VERTEX
  5
443
  8
0
  6
CONTINUOUS
 62
     7
 10
175.63161010345351
 20
99.023620133560343
 30
0.0
  0
VERTEX
  5
444
  8
0
  6
CONTINUOUS
 62
     7
 10
175.43555413063041
 20
98.863593291032032
 30
0.0
  0
VERTEX
  5
445
  8
0
  6
CONTINUOUS
 62
     7
 10
175.26371304894701
 20
98.694544552802626
 30
0.0
  0
VERTEX
  5
446
  8
0
  6
CONTINUOUS
 62
     7
 10
175.1173249773345
 20
98.517691918904816
 30
0.0
  0
VERTEX
  5
447
  8
0
  6
CONTINUOUS
 62
     7
 10
174.9974446452033
 20
98.334309616618356
 30
0.0
  0
VERTEX
  5
448
  8
0
  6
CONTINUOUS
 62
     7
 10
174.90493579309361
 20
98.145718919633495
 30
0.0
  0
VERTEX
  5
449
  8
0
  6
CONTINUOUS
 62
     7
 10
174.84046494940449
 20
97.953278628243524
 30
0.0
  0
VERTEX
  5
44A
  8
0
  6
CONTINUOUS
 62
     7
 10
174.80449662804219
 20
97.758375279157633
 30
0.0
  0
VERTEX
  5
44B
  8
0
  6
CONTINUOUS
 62
     7
 10
174.7972899815864
 20
97.562413155472228
 30
0.0
  0
VERTEX
  5
44C
  8
0
  6
CONTINUOUS
 62
     7
 10
174.81889693408979
 20
97.366804168778913
 30
0.0
  0
VERTEX
  5
44D
  8
0
  6
CONTINUOUS
 62
     7
 10
174.86916180696471
 20
97.172957686309175
 30
0.0
  0
VERTEX
  5
44E
  8
0
  6
CONTINUOUS
 62
     7
 10
174.9477224406501
 20
96.982270376411194
 30
0.0
  0
VERTEX
  5
44F
  8
0
  6
CONTINUOUS
 62
     7
 10
175.05401280397999
 20
96.796116145522376
 30
0.0
  0
VERTEX
  5
450
  8
0
  6
CONTINUOUS
 62
     7
 10
175.18726707245111
 20
96.615836239141998
 30
0.0
  0
VERTEX
  5
451
  8
0
  6
CONTINUOUS
 62
     7
 10
175.34652514600549
 20
96.442729578126603
 30
0.0
  0
VERTEX
  5
452
  8
0
  6
CONTINUOUS
 62
     7
 10
175.530639566574
 20
96.278043399935584
 30
0.0
  0
VERTEX
  5
453
  8
0
  6
CONTINUOUS
 62
     7
 10
175.73828378553711
 20
96.122964272256525
 30
0.0
  0
VERTEX
  5
454
  8
0
  6
CONTINUOUS
 62
     7
 10
175.96796172153921
 20
95.978609543758054
 30
0.0
  0
SEQEND
  5
455
  8
0
  6
CONTINUOUS
 62
     7
  0
LINE
  5
18F
  8
0
  6
CONTINUOUS
 62
     7
 10
169.2504473002671
 20
106.3878129694976
 30
0.0
 11
121.1671861795818
 21
78.62993716752554
 31
0.0
  0
ARC
  5
190
  8
0
  6
CONTINUOUS
 62
     7
 10
173.49308798738639
 20
98.232456868272124
 30
0.0
 40
9.1929229920518463
 50
62.515308001450052
 51
117.48469199855001
  0
LINE
  5
191
  8
0
  6
CONTINUOUS
 62
     7
 10
193.99918464179621
 20
96.999119683536435
 30
0.0
 11
177.73572867450571
 21
106.3878129694976
 31
0.0
  0
POLYLINE
  5
192
  8
0
  6
CONTINUOUS
 62
     7
 66
     1
 10
0.0
 20
0.0
 30
0.0
 70
   128
  0
VERTEX
  5
456
  8
0
  6
CONTINUOUS
 62
     7
 10
193.99918464179621
 20
92.100671012600174
 30
0.0
  0
VERTEX
  5
457
  8
0
  6
CONTINUOUS
 62
     7
 10
194.2910414008025
 20
92.281637019064704
 30
0.0
  0
VERTEX
  5
458
  8
0
  6
CONTINUOUS
 62
     7
 10
194.55979140022311
 20
92.474161550042496
 30
0.0
  0
VERTEX
  5
459
  8
0
  6
CONTINUOUS
 62
     7
 10
194.80406515166399
 20
92.677263544654295
 30
0.0
  0
VERTEX
  5
45A
  8
0
  6
CONTINUOUS
 62
     7
 10
195.0226178920804
 20
92.889908041690688
 30
0.0
  0
VERTEX
  5
45B
  8
0
  6
CONTINUOUS
 62
     7
 10
195.21433592680401
 20
93.111011453537216
 30
0.0
  0
VERTEX
  5
45C
  8
0
  6
CONTINUOUS
 62
     7
 10
195.3782423046755
 20
93.339447087888615
 30
0.0
  0
VERTEX
  5
45D
  8
0
  6
CONTINUOUS
 62
     7
 10
195.5135017963639
 20
93.574050889114304
 30
0.0
  0
VERTEX
  5
45E
  8
0
  6
CONTINUOUS
 62
     7
 10
195.6194251505039
 20
93.813627370019276
 30
0.0
  0
VERTEX
  5
45F
  8
0
  6
CONTINUOUS
 62
     7
 10
195.69547260596249
 20
94.056955703772644
 30
0.0
  0
VERTEX
  5
460
  8
0
  6
CONTINUOUS
 62
     7
 10
195.7412566423385
 20
94.302795944961474
 30
0.0
  0
VERTEX
  5
461
  8
0
  6
CONTINUOUS
 62
     7
 10
195.75654395467691
 20
94.549895348068304
 30
0.0
  0
VERTEX
  5
462
  8
0
  6
CONTINUOUS
 62
     7
 10
195.7412566423385
 20
94.796994751175106
 30
0.0
  0
VERTEX
  5
463
  8
0
  6
CONTINUOUS
 62
     7
 10
195.69547260596249
 20
95.042834992363964
 30
0.0
  0
VERTEX
  5
464
  8
0
  6
CONTINUOUS
 62
     7
 10
195.6194251505039
 20
95.286163326117332
 30
0.0
  0
VERTEX
  5
465
  8
0
  6
CONTINUOUS
 62
     7
 10
195.5135017963639
 20
95.525739807022291
 30
0.0
  0
VERTEX
  5
466
  8
0
  6
CONTINUOUS
 62
     7
 10
195.3782423046755
 20
95.760343608247993
 30
0.0
  0
VERTEX
  5
467
  8
0
  6
CONTINUOUS
 62
     7
 10
195.21433592680401
 20
95.988779242599364
 30
0.0
  0
VERTEX
  5
468
  8
0
  6
CONTINUOUS
 62
     7
 10
195.0226178920804
 20
96.209882654445934
 30
0.0
  0
VERTEX
  5
469
  8
0
  6
CONTINUOUS
 62
     7
 10
194.80406515166399
 20
96.422527151482313
 30
0.0
  0
VERTEX
  5
46A
  8
0
  6
CONTINUOUS
 62
     7
 10
194.55979140022311
 20
96.625629146094084
 30
0.0
  0
VERTEX
  5
46B
  8
0
  6
CONTINUOUS
 62
     7
 10
194.2910414008025
 20
96.818153677071905
 30
0.0
  0
VERTEX
  5
46C
  8
0
  6
CONTINUOUS
 62
     7
 10
193.99918464179621
 20
96.999119683536435
 30
0.0
  0
SEQEND
  5
46D
  8
0
  6
CONTINUOUS
 62
     7
  0
LINE
  5
193
  8
0
  6
CONTINUOUS
 62
     7
 10
145.9159235211109
 20
64.342795210628125
 30
0.0
 11
193.99918464179621
 21
92.100671012600174
 31
0.0
  0
ARC
  5
194
  8
0
  6
CONTINUOUS
 62
     7
 10
141.67328283399169
 20
72.498151311853576
 30
0.0
 40
9.1929229920518338
 50
242.51530800145039
 51
297.48469199855072
  0
LINE
  5
195
  8
0
  6
CONTINUOUS
 62
     7
 10
121.16718617958171
 20
73.731488496589293
 30
0.0
 11
137.43064214687229
 21
64.34279521062814
 31
0.0
  0
POLYLINE
  5
196
  8
0
  6
CONTINUOUS
 62
     7
 66
     1
 10
0.0
 20
0.0
 30
0.0
 70
   128
  0
VERTEX
  5
46E
  8
0
  6
CONTINUOUS
 62
     7
 10
121.1671861795818
 20
78.62993716752554
 30
0.0
  0
VERTEX
  5
46F
  8
0
  6
CONTINUOUS
 62
     7
 10
120.8753294205755
 20
78.448971161061024
 30
0.0
  0
VERTEX
  5
470
  8
0
  6
CONTINUOUS
 62
     7
 10
120.6065794211549
 20
78.256446630083218
 30
0.0
  0
VERTEX
  5
471
  8
0
  6
CONTINUOUS
 62
     7
 10
120.362305669714
 20
78.053344635471419
 30
0.0
  0
VERTEX
  5
472
  8
0
  6
CONTINUOUS
 62
     7
 10
120.14375292929751
 20
77.840700138435025
 30
0.0
  0
VERTEX
  5
473
  8
0
  6
CONTINUOUS
 62
     7
 10
119.952034894574
 20
77.619596726588497
 30
0.0
  0
VERTEX
  5
474
  8
0
  6
CONTINUOUS
 62
     7
 10
119.7881285167025
 20
77.391161092237112
 30
0.0
  0
VERTEX
  5
475
  8
0
  6
CONTINUOUS
 62
     7
 10
119.6528690250141
 20
77.156557291011424
 30
0.0
  0
VERTEX
  5
476
  8
0
  6
CONTINUOUS
 62
     7
 10
119.54694567087409
 20
76.916980810106466
 30
0.0
  0
VERTEX
  5
477
  8
0
  6
CONTINUOUS
 62
     7
 10
119.4708982154155
 20
76.673652476353084
 30
0.0
  0
VERTEX
  5
478
  8
0
  6
CONTINUOUS
 62
     7
 10
119.4251141790395
 20
76.427812235164254
 30
0.0
  0
VERTEX
  5
479
  8
0
  6
CONTINUOUS
 62
     7
 10
119.409826866701
 20
76.180712832057424
 30
0.0
  0
VERTEX
  5
47A
  8
0
  6
CONTINUOUS
 62
     7
 10
119.4251141790395
 20
75.933613428950608
 30
0.0
  0
VERTEX
  5
47B
  8
0
  6
CONTINUOUS
 62
     7
 10
119.4708982154155
 20
75.687773187761763
 30
0.0
  0
VERTEX
  5
47C
  8
0
  6
CONTINUOUS
 62
     7
 10
119.54694567087409
 20
75.444444854008395
 30
0.0
  0
VERTEX
  5
47D
  8
0
  6
CONTINUOUS
 62
     7
 10
119.6528690250141
 20
75.204868373103423
 30
0.0
  0
VERTEX
  5
47E
  8
0
  6
CONTINUOUS
 62
     7
 10
119.7881285167025
 20
74.970264571877735
 30
0.0
  0
VERTEX
  5
47F
  8
0
  6
CONTINUOUS
 62
     7
 10
119.9520348945739
 20
74.741828937526364
 30
0.0
  0
VERTEX
  5
480
  8
0
  6
CONTINUOUS
 62
     7
 10
120.14375292929751
 20
74.520725525679794
 30
0.0
  0
VERTEX
  5
481
  8
0
  6
CONTINUOUS
 62
     7
 10
120.3623056697139
 20
74.308081028643429
 30
0.0
  0
VERTEX
  5
482
  8
0
  6
CONTINUOUS
 62
     7
 10
120.6065794211549
 20
74.104979034031643
 30
0.0
  0
VERTEX
  5
483
  8
0
  6
CONTINUOUS
 62
     7
 10
120.8753294205755
 20
73.912454503053823
 30
0.0
  0
VERTEX
  5
484
  8
0
  6
CONTINUOUS
 62
     7
 10
121.16718617958171
 20
73.731488496589293
 30
0.0
  0
SEQEND
  5
485
  8
0
  6
CONTINUOUS
 62
     7
  0
POLYLINE
  5
197
  8
0
  6
CONTINUOUS
 62
     7
 66
     1
 10
0.0
 20
0.0
 30
0.0
 70
   128
  0
VERTEX
  5
486
  8
0
  6
CONTINUOUS
 62
     7
 10
133.5415548503463
 20
71.486366189076833
 30
0.0
  0
VERTEX
  5
487
  8
0
  6
CONTINUOUS
 62
     7
 10
133.79161166859561
 20
71.353775938885605
 30
0.0
  0
VERTEX
  5
488
  8
0
  6
CONTINUOUS
 62
     7
 10
134.0602457039864
 20
71.233905482792565
 30
0.0
  0
VERTEX
  5
489
  8
0
  6
CONTINUOUS
 62
     7
 10
134.34552144213791
 20
71.127618490180694
 30
0.0
  0
VERTEX
  5
48A
  8
0
  6
CONTINUOUS
 62
     7
 10
134.64538346481979
 20
71.035680761267315
 30
0.0
  0
VERTEX
  5
48B
  8
0
  6
CONTINUOUS
 62
     7
 10
134.95767125928731
 20
70.958754709495992
 30
0.0
  0
VERTEX
  5
48C
  8
0
  6
CONTINUOUS
 62
     7
 10
135.28013478482521
 20
70.897394588832498
 30
0.0
  0
VERTEX
  5
48D
  8
0
  6
CONTINUOUS
 62
     7
 10
135.61045068434279
 20
70.852042500352283
 30
0.0
  0
VERTEX
  5
48E
  8
0
  6
CONTINUOUS
 62
     7
 10
135.94623902421489
 20
70.823025206892098
 30
0.0
  0
VERTEX
  5
48F
  8
0
  6
CONTINUOUS
 62
     7
 10
136.28508044175811
 20
70.810551778716231
 30
0.0
  0
VERTEX
  5
490
  8
0
  6
CONTINUOUS
 62
     7
 10
136.62453357679439
 20
70.814712087160515
 30
0.0
  0
VERTEX
  5
491
  8
0
  6
CONTINUOUS
 62
     7
 10
136.96215266170751
 20
70.835476157107308
 30
0.0
  0
VERTEX
  5
492
  8
0
  6
CONTINUOUS
 62
     7
 10
137.29550514325391
 20
70.872694382956809
 30
0.0
  0
VERTEX
  5
493
  8
0
  6
CONTINUOUS
 62
     7
 10
137.62218920916541
 20
70.926098606538915
 30
0.0
  0
VERTEX
  5
494
  8
0
  6
CONTINUOUS
 62
     7
 10
137.93985109326121
 20
70.995304049198978
 30
0.0
  0
VERTEX
  5
495
  8
0
  6
CONTINUOUS
 62
     7
 10
138.2462020343871
 20
71.079812084136776
 30
0.0
  0
VERTEX
  5
496
  8
0
  6
CONTINUOUS
 62
     7
 10
138.5390347669923
 20
71.1790138290241
 30
0.0
  0
VERTEX
  5
497
  8
0
  6
CONTINUOUS
 62
     7
 10
138.81623942452811
 20
71.292194533015831
 30
0.0
  0
VERTEX
  5
498
  8
0
  6
CONTINUOUS
 62
     7
 10
139.0758187410849
 20
71.418538726546174
 30
0.0
  0
VERTEX
  5
499
  8
0
  6
CONTINUOUS
 62
     7
 10
139.31590244173859
 20
71.557136096805579
 30
0.0
  0
VERTEX
  5
49A
  8
0
  6
CONTINUOUS
 62
     7
 10
139.53476071792451
 20
71.706988046565371
 30
0.0
  0
VERTEX
  5
49B
  8
0
  6
CONTINUOUS
 62
     7
 10
139.73081669074759
 20
71.867014889093696
 30
0.0
  0
VERTEX
  5
49C
  8
0
  6
CONTINUOUS
 62
     7
 10
139.90265777243101
 20
72.036063627323102
 30
0.0
  0
VERTEX
  5
49D
  8
0
  6
CONTINUOUS
 62
     7
 10
140.04904584404349
 20
72.212916261220926
 30
0.0
  0
VERTEX
  5
49E
  8
0
  6
CONTINUOUS
 62
     7
 10
140.16892617617469
 20
72.396298563507344
 30
0.0
  0
VERTEX
  5
49F
  8
0
  6
CONTINUOUS
 62
     7
 10
140.2614350282845
 20
72.584889260492218
 30
0.0
  0
VERTEX
  5
4A0
  8
0
  6
CONTINUOUS
 62
     7
 10
140.3259058719735
 20
72.777329551882204
 30
0.0
  0
VERTEX
  5
4A1
  8
0
  6
CONTINUOUS
 62
     7
 10
140.36187419333581
 20
72.972232900968081
 30
0.0
  0
VERTEX
  5
4A2
  8
0
  6
CONTINUOUS
 62
     7
 10
140.36908083979159
 20
73.168195024653485
 30
0.0
  0
VERTEX
  5
4A3
  8
0
  6
CONTINUOUS
 62
     7
 10
140.3474738872882
 20
73.363804011346801
 30
0.0
  0
VERTEX
  5
4A4
  8
0
  6
CONTINUOUS
 62
     7
 10
140.29720901441331
 20
73.557650493816539
 30
0.0
  0
VERTEX
  5
4A5
  8
0
  6
CONTINUOUS
 62
     7
 10
140.21864838072801
 20
73.74833780371452
 30
0.0
  0
VERTEX
  5
4A6
  8
0
  6
CONTINUOUS
 62
     7
 10
140.11235801739801
 20
73.934492034603338
 30
0.0
  0
VERTEX
  5
4A7
  8
0
  6
CONTINUOUS
 62
     7
 10
139.97910374892689
 20
74.114771940983729
 30
0.0
  0
VERTEX
  5
4A8
  8
0
  6
CONTINUOUS
 62
     7
 10
139.81984567537251
 20
74.287878601999125
 30
0.0
  0
VERTEX
  5
4A9
  8
0
  6
CONTINUOUS
 62
     7
 10
139.63573125480411
 20
74.452564780190144
 30
0.0
  0
VERTEX
  5
4AA
  8
0
  6
CONTINUOUS
 62
     7
 10
139.42808703584089
 20
74.607643907869189
 30
0.0
  0
VERTEX
  5
4AB
  8
0
  6
CONTINUOUS
 62
     7
 10
139.1984090998387
 20
74.751998636367688
 30
0.0
  0
VERTEX
  5
4AC
  8
0
  6
CONTINUOUS
 62
     7
 10
138.94835228158951
 20
74.884588886558916
 30
0.0
  0
VERTEX
  5
4AD
  8
0
  6
CONTINUOUS
 62
     7
 10
138.67971824619869
 20
75.004459342651941
 30
0.0
  0
VERTEX
  5
4AE
  8
0
  6
CONTINUOUS
 62
     7
 10
138.39444250804709
 20
75.110746335263826
 30
0.0
  0
VERTEX
  5
4AF
  8
0
  6
CONTINUOUS
 62
     7
 10
138.09458048536521
 20
75.202684064177205
 30
0.0
  0
VERTEX
  5
4B0
  8
0
  6
CONTINUOUS
 62
     7
 10
137.78229269089769
 20
75.279610115948529
 30
0.0
  0
VERTEX
  5
4B1
  8
0
  6
CONTINUOUS
 62
     7
 10
137.45982916535979
 20
75.340970236612009
 30
0.0
  0
VERTEX
  5
4B2
  8
0
  6
CONTINUOUS
 62
     7
 10
137.12951326584221
 20
75.386322325092223
 30
0.0
  0
VERTEX
  5
4B3
  8
0
  6
CONTINUOUS
 62
     7
 10
136.7937249259702
 20
75.415339618552409
 30
0.0
  0
VERTEX
  5
4B4
  8
0
  6
CONTINUOUS
 62
     7
 10
136.454883508427
 20
75.427813046728275
 30
0.0
  0
VERTEX
  5
4B5
  8
0
  6
CONTINUOUS
 62
     7
 10
136.11543037339069
 20
75.423652738283977
 30
0.0
  0
VERTEX
  5
4B6
  8
0
  6
CONTINUOUS
 62
     7
 10
135.77781128847761
 20
75.402888668337212
 30
0.0
  0
VERTEX
  5
4B7
  8
0
  6
CONTINUOUS
 62
     7
 10
135.44445880693121
 20
75.365670442487712
 30
0.0
  0
VERTEX
  5
4B8
  8
0
  6
CONTINUOUS
 62
     7
 10
135.11777474101959
 20
75.312266218905592
 30
0.0
  0
VERTEX
  5
4B9
  8
0
  6
CONTINUOUS
 62
     7
 10
134.8001128569239
 20
75.243060776245528
 30
0.0
  0
VERTEX
  5
4BA
  8
0
  6
CONTINUOUS
 62
     7
 10
134.49376191579799
 20
75.15855274130773
 30
0.0
  0
VERTEX
  5
4BB
  8
0
  6
CONTINUOUS
 62
     7
 10
134.20092918319281
 20
75.059350996420406
 30
0.0
  0
VERTEX
  5
4BC
  8
0
  6
CONTINUOUS
 62
     7
 10
133.92372452565689
 20
74.946170292428675
 30
0.0
  0
VERTEX
  5
4BD
  8
0
  6
CONTINUOUS
 62
     7
 10
133.66414520910021
 20
74.819826098898318
 30
0.0
  0
VERTEX
  5
4BE
  8
0
  6
CONTINUOUS
 62
     7
 10
133.4240615084465
 20
74.681228728638914
 30
0.0
  0
VERTEX
  5
4BF
  8
0
  6
CONTINUOUS
 62
     7
 10
133.2052032322606
 20
74.531376778879107
 30
0.0
  0
VERTEX
  5
4C0
  8
0
  6
CONTINUOUS
 62
     7
 10
133.0091472594375
 20
74.371349936350811
 30
0.0
  0
VERTEX
  5
4C1
  8
0
  6
CONTINUOUS
 62
     7
 10
132.8373061777541
 20
74.202301198121376
 30
0.0
  0
VERTEX
  5
4C2
  8
0
  6
CONTINUOUS
 62
     7
 10
132.69091810614159
 20
74.025448564223566
 30
0.0
  0
VERTEX
  5
4C3
  8
0
  6
CONTINUOUS
 62
     7
 10
132.57103777401039
 20
73.842066261937134
 30
0.0
  0
VERTEX
  5
4C4
  8
0
  6
CONTINUOUS
 62
     7
 10
132.47852892190059
 20
73.653475564952274
 30
0.0
  0
VERTEX
  5
4C5
  8
0
  6
CONTINUOUS
 62
     7
 10
132.41405807821161
 20
73.461035273562288
 30
0.0
  0
VERTEX
  5
4C6
  8
0
  6
CONTINUOUS
 62
     7
 10
132.37808975684931
 20
73.266131924476412
 30
0.0
  0
VERTEX
  5
4C7
  8
0
  6
CONTINUOUS
 62
     7
 10
132.37088311039341
 20
73.070169800791007
 30
0.0
  0
VERTEX
  5
4C8
  8
0
  6
CONTINUOUS
 62
     7
 10
132.39249006289691
 20
72.874560814097677
 30
0.0
  0
VERTEX
  5
4C9
  8
0
  6
CONTINUOUS
 62
     7
 10
132.4427549357718
 20
72.680714331627954
 30
0.0
  0
VERTEX
  5
4CA
  8
0
  6
CONTINUOUS
 62
     7
 10
132.52131556945719
 20
72.490027021729958
 30
0.0
  0
VERTEX
  5
4CB
  8
0
  6
CONTINUOUS
 62
     7
 10
132.62760593278711
 20
72.303872790841154
 30
0.0
  0
VERTEX
  5
4CC
  8
0
  6
CONTINUOUS
 62
     7
 10
132.7608602012582
 20
72.123592884460749
 30
0.0
  0
VERTEX
  5
4CD
  8
0
  6
CONTINUOUS
 62
     7
 10
132.92011827481261
 20
71.950486223445381
 30
0.0
  0
VERTEX
  5
4CE
  8
0
  6
CONTINUOUS
 62
     7
 10
133.104232695381
 20
71.785800045254334
 30
0.0
  0
VERTEX
  5
4CF
  8
0
  6
CONTINUOUS
 62
     7
 10
133.3118769143442
 20
71.630720917575303
 30
0.0
  0
VERTEX
  5
4D0
  8
0
  6
CONTINUOUS
 62
     7
 10
133.5415548503463
 20
71.486366189076833
 30
0.0
  0
SEQEND
  5
4D1
  8
0
  6
CONTINUOUS
 62
     7
  0
ARC
  5
198
  8
0
  6
CONTINUOUS
 62
     7
 10
141.67328283399161
 20
71.477475296996445
 30
0.0
 40
9.1929229920518836
 50
242.51530800145079
 51
297.48469199855072
  0
LINE
  5
199
  8
0
  6
CONTINUOUS
 62
     7
 10
145.9159235211109
 20
63.322119195770938
 30
0.0
 11
193.99918464179621
 21
91.079994997742986
 31
0.0
  0
LINE
  5
19A
  8
0
  6
CONTINUOUS
 62
     7
 10
121.16718617958171
 20
72.710812481732106
 30
0.0
 11
137.43064214687229
 21
63.322119195770938
 31
0.0
  0
POLYLINE
  5
19B
  8
0
  6
CONTINUOUS
 62
     7
 66
     1
 10
0.0
 20
0.0
 30
0.0
 70
   128
  0
VERTEX
  5
4D2
  8
0
  6
CONTINUOUS
 62
     7
 10
138.67351936454301
 20
71.231379611557472
 30
0.0
  0
VERTEX
  5
4D3
  8
0
  6
CONTINUOUS
 62
     7
 10
138.7398549771373
 20
71.293153426189889
 30
0.0
  0
VERTEX
  5
4D4
  8
0
  6
CONTINUOUS
 62
     7
 10
138.868832150732
 20
71.435693667803747
 30
0.0
  0
VERTEX
  5
4D5
  8
0
  6
CONTINUOUS
 62
     7
 10
138.97216774004011
 20
71.585035264956986
 30
0.0
  0
VERTEX
  5
4D6
  8
0
  6
CONTINUOUS
 62
     7
 10
139.04880138207989
 20
71.739645770771332
 30
0.0
  0
VERTEX
  5
4D7
  8
0
  6
CONTINUOUS
 62
     7
 10
139.0979467119821
 20
71.897938672235654
 30
0.0
  0
VERTEX
  5
4D8
  8
0
  6
CONTINUOUS
 62
     7
 10
139.1190994321577
 20
72.058289669976432
 30
0.0
  0
VERTEX
  5
4D9
  8
0
  6
CONTINUOUS
 62
     7
 10
139.11204248707361
 20
72.219053345767279
 30
0.0
  0
VERTEX
  5
4DA
  8
0
  6
CONTINUOUS
 62
     7
 10
139.07684829053579
 20
72.378580046746578
 30
0.0
  0
VERTEX
  5
4DB
  8
0
  6
CONTINUOUS
 62
     7
 10
139.0138779826261
 20
72.535232813088129
 30
0.0
  0
VERTEX
  5
4DC
  8
0
  6
CONTINUOUS
 62
     7
 10
138.92377772391629
 20
72.687404175424234
 30
0.0
  0
VERTEX
  5
4DD
  8
0
  6
CONTINUOUS
 62
     7
 10
138.80747206498569
 20
72.83353264965659
 30
0.0
  0
VERTEX
  5
4DE
  8
0
  6
CONTINUOUS
 62
     7
 10
138.66615445928161
 20
72.972118759896091
 30
0.0
  0
VERTEX
  5
4DF
  8
0
  6
CONTINUOUS
 62
     7
 10
138.50127501667211
 20
73.101740425114755
 30
0.0
  0
VERTEX
  5
4E0
  8
0
  6
CONTINUOUS
 62
     7
 10
138.31452562335551
 20
73.221067551621303
 30
0.0
  0
VERTEX
  5
4E1
  8
0
  6
CONTINUOUS
 62
     7
 10
138.10782258081991
 20
73.328875681622335
 30
0.0
  0
VERTEX
  5
4E2
  8
0
  6
CONTINUOUS
 62
     7
 10
137.88328694199529
 20
73.424058557816394
 30
0.0
  0
VERTEX
  5
4E3
  8
0
  6
CONTINUOUS
 62
     7
 10
137.64322274638161
 20
73.505639475090661
 30
0.0
  0
VERTEX
  5
4E4
  8
0
  6
CONTINUOUS
 62
     7
 10
137.39009337748439
 20
73.572781302837299
 30
0.0
  0
VERTEX
  5
4E5
  8
0
  6
CONTINUOUS
 62
     7
 10
137.12649628516729
 20
73.624795075046237
 30
0.0
  0
VERTEX
  5
4E6
  8
0
  6
CONTINUOUS
 62
     7
 10
136.8551363323015
 20
73.661147060028711
 30
0.0
  0
VERTEX
  5
4E7
  8
0
  6
CONTINUOUS
 62
     7
 10
136.5787980392119
 20
73.681464237226706
 30
0.0
  0
VERTEX
  5
4E8
  8
0
  6
CONTINUOUS
 62
     7
 10
136.30031701073131
 20
73.685538124908646
 30
0.0
  0
VERTEX
  5
4E9
  8
0
  6
CONTINUOUS
 62
     7
 10
136.02255083905669
 20
73.673326919474064
 30
0.0
  0
VERTEX
  5
4EA
  8
0
  6
CONTINUOUS
 62
     7
 10
135.74834978098721
 20
73.644955924415129
 30
0.0
  0
VERTEX
  5
4EB
  8
0
  6
CONTINUOUS
 62
     7
 10
135.4805275104321
 20
73.600716264533204
 30
0.0
  0
VERTEX
  5
4EC
  8
0
  6
CONTINUOUS
 62
     7
 10
135.22183224630859
 20
73.541061898604525
 30
0.0
  0
VERTEX
  5
4ED
  8
0
  6
CONTINUOUS
 62
     7
 10
134.97491855209719
 20
73.466604961148775
 30
0.0
  0
VERTEX
  5
4EE
  8
0
  6
CONTINUOUS
 62
     7
 10
134.74232009642819
 20
73.37810948110058
 30
0.0
  0
VERTEX
  5
4EF
  8
0
  6
CONTINUOUS
 62
     7
 10
134.52642365421281
 20
73.276483541838743
 30
0.0
  0
VERTEX
  5
4F0
  8
0
  6
CONTINUOUS
 62
     7
 10
134.32944461510249
 20
73.162769963022001
 30
0.0
  0
VERTEX
  5
4F1
  8
0
  6
CONTINUOUS
 62
     7
 10
134.15340425059401
 20
73.038135599848019
 30
0.0
  0
VERTEX
  5
4F2
  8
0
  6
CONTINUOUS
 62
     7
 10
134.00010897304779
 20
72.903859369540228
 30
0.0
  0
VERTEX
  5
4F3
  8
0
  6
CONTINUOUS
 62
     7
 10
133.87113179945311
 20
72.761319127926356
 30
0.0
  0
VERTEX
  5
4F4
  8
0
  6
CONTINUOUS
 62
     7
 10
133.76779621014501
 20
72.611977530773132
 30
0.0
  0
VERTEX
  5
4F5
  8
0
  6
CONTINUOUS
 62
     7
 10
133.6911625681052
 20
72.457367024958799
 30
0.0
  0
VERTEX
  5
4F6
  8
0
  6
CONTINUOUS
 62
     7
 10
133.64201723820301
 20
72.299074123494464
 30
0.0
  0
VERTEX
  5
4F7
  8
0
  6
CONTINUOUS
 62
     7
 10
133.62086451802739
 20
72.138723125753685
 30
0.0
  0
VERTEX
  5
4F8
  8
0
  6
CONTINUOUS
 62
     7
 10
133.62792146311151
 20
71.977959449962839
 30
0.0
  0
VERTEX
  5
4F9
  8
0
  6
CONTINUOUS
 62
     7
 10
133.66311565964929
 20
71.81843274898354
 30
0.0
  0
VERTEX
  5
4FA
  8
0
  6
CONTINUOUS
 62
     7
 10
133.7260859675589
 20
71.661779982641974
 30
0.0
  0
VERTEX
  5
4FB
  8
0
  6
CONTINUOUS
 62
     7
 10
133.8161862262688
 20
71.509608620305883
 30
0.0
  0
VERTEX
  5
4FC
  8
0
  6
CONTINUOUS
 62
     7
 10
133.9324918851994
 20
71.363480146073542
 30
0.0
  0
VERTEX
  5
4FD
  8
0
  6
CONTINUOUS
 62
     7
 10
134.06644458564179
 20
71.231379611557685
 30
0.0
  0
SEQEND
  5
4FE
  8
0
  6
CONTINUOUS
 62
     7
  0
ARC
  5
19C
  8
0
  6
CONTINUOUS
 62
     7
 10
122.462487474523
 20
75.495292243303993
 30
0.0
 40
3.0710149767267372
 50
186.2673353104409
 51
245.05280564717509
  0
POLYLINE
  5
19D
  8
0
  6
CONTINUOUS
 62
     7
 10
175.6328259499945
 20
88.018630453486637
 30
0.0
 66
     1
 70
     8
  0
VERTEX
  8
0
  5
7A4
 10
175.633
 20
88.0186
 30
0.000000
  70
    32
  0
VERTEX
  8
0
  5
7A5
 10
175.604
 20
88.0186
 30
0.000000
  70
    32
  0
VERTEX
  8
0
  5
7A6
 10
175.576
 20
88.0184
 30
0.000000
  70
    32
  0
VERTEX
  8
0
  5
7A7
 10
175.547
 20
88.0182
 30
0.000000
  70
    32
  0
VERTEX
  8
0
  5
7A8
 10
175.518
 20
88.0178
 30
0.000000
  70
    32
  0
VERTEX
  8
0
  5
7A9
 10
175.490
 20
88.0174
 30
0.000000
  70
    32
  0
VERTEX
  8
0
  5
7AA
 10
175.461
 20
88.0168
 30
0.000000
  70
    32
  0
VERTEX
  8
0
  5
7AB
 10
175.432
 20
88.0161
 30
0.000000
  70
    32
  0
VERTEX
  8
0
  5
7AC
 10
175.404
 20
88.0154
 30
0.000000
  70
    32
  0
VERTEX
  8
0
  5
7AD
 10
175.375
 20
88.0145
 30
0.000000
  70
    32
  0
VERTEX
  8
0
  5
7AE
 10
175.347
 20
88.0136
 30
0.000000
  70
    32
  0
VERTEX
  8
0
  5
7AF
 10
175.318
 20
88.0125
 30
0.000000
  70
    32
  0
VERTEX
  8
0
  5
7B0
 10
175.290
 20
88.0113
 30
0.000000
  70
    32
  0
VERTEX
  8
0
  5
7B1
 10
175.261
 20
88.0101
 30
0.000000
  70
    32
  0
VERTEX
  8
0
  5
7B2
 10
175.232
 20
88.0087
 30
0.000000
  70
    32
  0
VERTEX
  8
0
  5
7B3
 10
175.204
 20
88.0072
 30
0.000000
  70
    32
  0
VERTEX
  8
0
  5
7B4
 10
175.175
 20
88.0057
 30
0.000000
  70
    32
  0
VERTEX
  8
0
  5
7B5
 10
175.147
 20
88.0040
 30
0.000000
  70
    32
  0
VERTEX
  8
0
  5
7B6
 10
175.118
 20
88.0022
 30
0.000000
  70
    32
  0
VERTEX
  8
0
  5
7B7
 10
175.090
 20
88.0003
 30
0.000000
  70
    32
  0
VERTEX
  8
0
  5
7B8
 10
175.062
 20
87.9984
 30
0.000000
  70
    32
  0
VERTEX
  8
0
  5
7B9
 10
175.033
 20
87.9963
 30
0.000000
  70
    32
  0
VERTEX
  8
0
  5
7BA
 10
175.005
 20
87.9941
 30
0.000000
  70
    32
  0
VERTEX
  8
0
  5
7BB
 10
174.976
 20
87.9918
 30
0.000000
  70
    32
  0
VERTEX
  8
0
  5
7BC
 10
174.948
 20
87.9895
 30
0.000000
  70
    32
  0
VERTEX
  8
0
  5
7BD
 10
174.920
 20
87.9870
 30
0.000000
  70
    32
  0
VERTEX
  8
0
  5
7BE
 10
174.892
 20
87.9844
 30
0.000000
  70
    32
  0
VERTEX
  8
0
  5
7BF
 10
174.863
 20
87.9817
 30
0.000000
  70
    32
  0
VERTEX
  8
0
  5
7C0
 10
174.835
 20
87.9790
 30
0.000000
  70
    32
  0
VERTEX
  8
0
  5
7C1
 10
174.807
 20
87.9761
 30
0.000000
  70
    32
  0
VERTEX
  8
0
  5
7C2
 10
174.779
 20
87.9731
 30
0.000000
  70
    32
  0
VERTEX
  8
0
  5
7C3
 10
174.751
 20
87.9700
 30
0.000000
  70
    32
  0
VERTEX
  8
0
  5
7C4
 10
174.722
 20
87.9669
 30
0.000000
  70
    32
  0
VERTEX
  8
0
  5
7C5
 10
174.694
 20
87.9636
 30
0.000000
  70
    32
  0
VERTEX
  8
0
  5
7C6
 10
174.666
 20
87.9602
 30
0.000000
  70
    32
  0
VERTEX
  8
0
  5
7C7
 10
174.638
 20
87.9567
 30
0.000000
  70
    32
  0
VERTEX
  8
0
  5
7C8
 10
174.610
 20
87.9532
 30
0.000000
  70
    32
  0
VERTEX
  8
0
  5
7C9
 10
174.582
 20
87.9495
 30
0.000000
  70
    32
  0
VERTEX
  8
0
  5
7CA
 10
174.555
 20
87.9457
 30
0.000000
  70
    32
  0
VERTEX
  8
0
  5
7CB
 10
174.527
 20
87.9419
 30
0.000000
  70
    32
  0
VERTEX
  8
0
  5
7CC
 10
174.499
 20
87.9379
 30
0.000000
  70
    32
  0
VERTEX
  8
0
  5
7CD
 10
174.471
 20
87.9338
 30
0.000000
  70
    32
  0
VERTEX
  8
0
  5
7CE
 10
174.444
 20
87.9297
 30
0.000000
  70
    32
  0
VERTEX
  8
0
  5
7CF
 10
174.416
 20
87.9254
 30
0.000000
  70
    32
  0
VERTEX
  8
0
  5
7D0
 10
174.388
 20
87.9210
 30
0.000000
  70
    32
  0
VERTEX
  8
0
  5
7D1
 10
174.361
 20
87.9166
 30
0.000000
  70
    32
  0
VERTEX
  8
0
  5
7D2
 10
174.333
 20
87.9120
 30
0.000000
  70
    32
  0
VERTEX
  8
0
  5
7D3
 10
174.306
 20
87.9074
 30
0.000000
  70
    32
  0
VERTEX
  8
0
  5
7D4
 10
174.278
 20
87.9026
 30
0.000000
  70
    32
  0
VERTEX
  8
0
  5
7D5
 10
174.251
 20
87.8978
 30
0.000000
  70
    32
  0
VERTEX
  8
0
  5
7D6
 10
174.224
 20
87.8928
 30
0.000000
  70
    32
  0
VERTEX
  8
0
  5
7D7
 10
174.196
 20
87.8878
 30
0.000000
  70
    32
  0
VERTEX
  8
0
  5
7D8
 10
174.169
 20
87.8827
 30
0.000000
  70
    32
  0
VERTEX
  8
0
  5
7D9
 10
174.142
 20
87.8774
 30
0.000000
  70
    32
  0
VERTEX
  8
0
  5
7DA
 10
174.115
 20
87.8721
 30
0.000000
  70
    32
  0
VERTEX
  8
0
  5
7DB
 10
174.088
 20
87.8667
 30
0.000000
  70
    32
  0
VERTEX
  8
0
  5
7DC
 10
174.061
 20
87.8611
 30
0.000000
  70
    32
  0
VERTEX
  8
0
  5
7DD
 10
174.034
 20
87.8555
 30
0.000000
  70
    32
  0
VERTEX
  8
0
  5
7DE
 10
174.007
 20
87.8498
 30
0.000000
  70
    32
  0
VERTEX
  8
0
  5
7DF
 10
173.980
 20
87.8440
 30
0.000000
  70
    32
  0
VERTEX
  8
0
  5
7E0
 10
173.953
 20
87.8381
 30
0.000000
  70
    32
  0
VERTEX
  8
0
  5
7E1
 10
173.927
 20
87.8321
 30
0.000000
  70
    32
  0
VERTEX
  8
0
  5
7E2
 10
173.900
 20
87.8260
 30
0.000000
  70
    32
  0
VERTEX
  8
0
  5
7E3
 10
173.874
 20
87.8198
 30
0.000000
  70
    32
  0
VERTEX
  8
0
  5
7E4
 10
173.847
 20
87.8136
 30
0.000000
  70
    32
  0
VERTEX
  8
0
  5
7E5
 10
173.821
 20
87.8072
 30
0.000000
  70
    32
  0
VERTEX
  8
0
  5
7E6
 10
173.794
 20
87.8007
 30
0.000000
  70
    32
  0
VERTEX
  8
0
  5
7E7
 10
173.768
 20
87.7942
 30
0.000000
  70
    32
  0
VERTEX
  8
0
  5
7E8
 10
173.742
 20
87.7875
 30
0.000000
  70
    32
  0
VERTEX
  8
0
  5
7E9
 10
173.716
 20
87.7808
 30
0.000000
  70
    32
  0
VERTEX
  8
0
  5
7EA
 10
173.690
 20
87.7739
 30
0.000000
  70
    32
  0
VERTEX
  8
0
  5
7EB
 10
173.664
 20
87.7670
 30
0.000000
  70
    32
  0
VERTEX
  8
0
  5
7EC
 10
173.638
 20
87.7600
 30
0.000000
  70
    32
  0
VERTEX
  8
0
  5
7ED
 10
173.612
 20
87.7529
 30
0.000000
  70
    32
  0
VERTEX
  8
0
  5
7EE
 10
173.586
 20
87.7457
 30
0.000000
  70
    32
  0
VERTEX
  8
0
  5
7EF
 10
173.560
 20
87.7384
 30
0.000000
  70
    32
  0
VERTEX
  8
0
  5
7F0
 10
173.535
 20
87.7310
 30
0.000000
  70
    32
  0
VERTEX
  8
0
  5
7F1
 10
173.509
 20
87.7235
 30
0.000000
  70
    32
  0
VERTEX
  8
0
  5
7F2
 10
173.484
 20
87.7159
 30
0.000000
  70
    32
  0
VERTEX
  8
0
  5
7F3
 10
173.458
 20
87.7083
 30
0.000000
  70
    32
  0
VERTEX
  8
0
  5
7F4
 10
173.433
 20
87.7005
 30
0.000000
  70
    32
  0
VERTEX
  8
0
  5
7F5
 10
173.408
 20
87.6927
 30
0.000000
  70
    32
  0
VERTEX
  8
0
  5
7F6
 10
173.383
 20
87.6848
 30
0.000000
  70
    32
  0
VERTEX
  8
0
  5
7F7
 10
173.358
 20
87.6767
 30
0.000000
  70
    32
  0
VERTEX
  8
0
  5
7F8
 10
173.333
 20
87.6686
 30
0.000000
  70
    32
  0
VERTEX
  8
0
  5
7F9
 10
173.308
 20
87.6604
 30
0.000000
  70
    32
  0
VERTEX
  8
0
  5
7FA
 10
173.283
 20
87.6522
 30
0.000000
  70
    32
  0
VERTEX
  8
0
  5
7FB
 10
173.258
 20
87.6438
 30
0.000000
  70
    32
  0
VERTEX
  8
0
  5
7FC
 10
173.234
 20
87.6353
 30
0.000000
  70
    32
  0
VERTEX
  8
0
  5
7FD
 10
173.209
 20
87.6268
 30
0.000000
  70
    32
  0
VERTEX
  8
0
  5
7FE
 10
173.185
 20
87.6182
 30
0.000000
  70
    32
  0
VERTEX
  8
0
  5
7FF
 10
173.161
 20
87.6095
 30
0.000000
  70
    32
  0
VERTEX
  8
0
  5
800
 10
173.136
 20
87.6007
 30
0.000000
  70
    32
  0
VERTEX
  8
0
  5
801
 10
173.112
 20
87.5918
 30
0.000000
  70
    32
  0
VERTEX
  8
0
  5
802
 10
173.088
 20
87.5828
 30
0.000000
  70
    32
  0
VERTEX
  8
0
  5
803
 10
173.064
 20
87.5737
 30
0.000000
  70
    32
  0
VERTEX
  8
0
  5
804
 10
173.040
 20
87.5646
 30
0.000000
  70
    32
  0
VERTEX
  8
0
  5
805
 10
173.017
 20
87.5554
 30
0.000000
  70
    32
  0
VERTEX
  8
0
  5
806
 10
172.993
 20
87.5461
 30
0.000000
  70
    32
  0
VERTEX
  8
0
  5
807
 10
172.969
 20
87.5367
 30
0.000000
  70
    32
  0
VERTEX
  8
0
  5
808
 10
172.946
 20
87.5272
 30
0.000000
  70
    32
  0
VERTEX
  8
0
  5
809
 10
172.922
 20
87.5176
 30
0.000000
  70
    32
  0
VERTEX
  8
0
  5
80A
 10
172.899
 20
87.5080
 30
0.000000
  70
    32
  0
VERTEX
  8
0
  5
80B
 10
172.876
 20
87.4983
 30
0.000000
  70
    32
  0
VERTEX
  8
0
  5
80C
 10
172.853
 20
87.4885
 30
0.000000
  70
    32
  0
VERTEX
  8
0
  5
80D
 10
172.830
 20
87.4786
 30
0.000000
  70
    32
  0
VERTEX
  8
0
  5
80E
 10
172.807
 20
87.4686
 30
0.000000
  70
    32
  0
VERTEX
  8
0
  5
80F
 10
172.784
 20
87.4586
 30
0.000000
  70
    32
  0
VERTEX
  8
0
  5
810
 10
172.762
 20
87.4484
 30
0.000000
  70
    32
  0
VERTEX
  8
0
  5
811
 10
172.739
 20
87.4382
 30
0.000000
  70
    32
  0
VERTEX
  8
0
  5
812
 10
172.717
 20
87.4279
 30
0.000000
  70
    32
  0
VERTEX
  8
0
  5
813
 10
172.695
 20
87.4176
 30
0.000000
  70
    32
  0
VERTEX
  8
0
  5
814
 10
172.672
 20
87.4071
 30
0.000000
  70
    32
  0
VERTEX
  8
0
  5
815
 10
172.650
 20
87.3966
 30
0.000000
  70
    32
  0
VERTEX
  8
0
  5
816
 10
172.628
 20
87.3860
 30
0.000000
  70
    32
  0
VERTEX
  8
0
  5
817
 10
172.607
 20
87.3753
 30
0.000000
  70
    32
  0
VERTEX
  8
0
  5
818
 10
172.585
 20
87.3645
 30
0.000000
  70
    32
  0
VERTEX
  8
0
  5
819
 10
172.563
 20
87.3537
 30
0.000000
  70
    32
  0
VERTEX
  8
0
  5
81A
 10
172.542
 20
87.3428
 30
0.000000
  70
    32
  0
VERTEX
  8
0
  5
81B
 10
172.520
 20
87.3318
 30
0.000000
  70
    32
  0
VERTEX
  8
0
  5
81C
 10
172.499
 20
87.3207
 30
0.000000
  70
    32
  0
VERTEX
  8
0
  5
81D
 10
172.478
 20
87.3096
 30
0.000000
  70
    32
  0
VERTEX
  8
0
  5
81E
 10
172.457
 20
87.2984
 30
0.000000
  70
    32
  0
VERTEX
  8
0
  5
81F
 10
172.436
 20
87.2871
 30
0.000000
  70
    32
  0
VERTEX
  8
0
  5
820
 10
172.415
 20
87.2757
 30
0.000000
  70
    32
  0
VERTEX
  8
0
  5
821
 10
172.394
 20
87.2643
 30
0.000000
  70
    32
  0
VERTEX
  8
0
  5
822
 10
172.374
 20
87.2528
 30
0.000000
  70
    32
  0
VERTEX
  8
0
  5
823
 10
172.353
 20
87.2412
 30
0.000000
  70
    32
  0
VERTEX
  8
0
  5
824
 10
172.333
 20
87.2296
 30
0.000000
  70
    32
  0
SEQEND
  8
0
  5
825
  0
LINE
  5
19E
  8
0
  6
CONTINUOUS
 62
     7
 10
152.9869913329764
 20
76.061292281561677
 30
0.0
 11
152.9869913329764
 21
74.945468399160731
 31
0.0
  0
POLYLINE
  5
19F
  8
0
  6
CONTINUOUS
 62
     7
 10
142.83327668908251
 20
81.922906977504695
 30
0.0
 66
     1
 70
     8
  0
VERTEX
  8
0
  5
826
 10
142.833
 20
81.9229
 30
0.000000
  70
    32
  0
VERTEX
  8
0
  5
827
 10
142.813
 20
81.9346
 30
0.000000
  70
    32
  0
VERTEX
  8
0
  5
828
 10
142.793
 20
81.9461
 30
0.000000
  70
    32
  0
VERTEX
  8
0
  5
829
 10
142.772
 20
81.9576
 30
0.000000
  70
    32
  0
VERTEX
  8
0
  5
82A
 10
142.751
 20
81.9691
 30
0.000000
  70
    32
  0
VERTEX
  8
0
  5
82B
 10
142.730
 20
81.9804
 30
0.000000
  70
    32
  0
VERTEX
  8
0
  5
82C
 10
142.710
 20
81.9917
 30
0.000000
  70
    32
  0
VERTEX
  8
0
  5
82D
 10
142.689
 20
82.0029
 30
0.000000
  70
    32
  0
VERTEX
  8
0
  5
82E
 10
142.667
 20
82.0141
 30
0.000000
  70
    32
  0
VERTEX
  8
0
  5
82F
 10
142.646
 20
82.0252
 30
0.000000
  70
    32
  0
VERTEX
  8
0
  5
830
 10
142.625
 20
82.0361
 30
0.000000
  70
    32
  0
VERTEX
  8
0
  5
831
 10
142.603
 20
82.0471
 30
0.000000
  70
    32
  0
VERTEX
  8
0
  5
832
 10
142.582
 20
82.0579
 30
0.000000
  70
    32
  0
VERTEX
  8
0
  5
833
 10
142.560
 20
82.0686
 30
0.000000
  70
    32
  0
VERTEX
  8
0
  5
834
 10
142.538
 20
82.0793
 30
0.000000
  70
    32
  0
VERTEX
  8
0
  5
835
 10
142.516
 20
82.0899
 30
0.000000
  70
    32
  0
VERTEX
  8
0
  5
836
 10
142.494
 20
82.1005
 30
0.000000
  70
    32
  0
VERTEX
  8
0
  5
837
 10
142.472
 20
82.1109
 30
0.000000
  70
    32
  0
VERTEX
  8
0
  5
838
 10
142.449
 20
82.1213
 30
0.000000
  70
    32
  0
VERTEX
  8
0
  5
839
 10
142.427
 20
82.1316
 30
0.000000
  70
    32
  0
VERTEX
  8
0
  5
83A
 10
142.405
 20
82.1418
 30
0.000000
  70
    32
  0
VERTEX
  8
0
  5
83B
 10
142.382
 20
82.1519
 30
0.000000
  70
    32
  0
VERTEX
  8
0
  5
83C
 10
142.359
 20
82.1620
 30
0.000000
  70
    32
  0
VERTEX
  8
0
  5
83D
 10
142.336
 20
82.1719
 30
0.000000
  70
    32
  0
VERTEX
  8
0
  5
83E
 10
142.313
 20
82.1818
 30
0.000000
  70
    32
  0
VERTEX
  8
0
  5
83F
 10
142.290
 20
82.1916
 30
0.000000
  70
    32
  0
VERTEX
  8
0
  5
840
 10
142.267
 20
82.2013
 30
0.000000
  70
    32
  0
VERTEX
  8
0
  5
841
 10
142.244
 20
82.2110
 30
0.000000
  70
    32
  0
VERTEX
  8
0
  5
842
 10
142.221
 20
82.2205
 30
0.000000
  70
    32
  0
VERTEX
  8
0
  5
843
 10
142.197
 20
82.2300
 30
0.000000
  70
    32
  0
VERTEX
  8
0
  5
844
 10
142.174
 20
82.2394
 30
0.000000
  70
    32
  0
VERTEX
  8
0
  5
845
 10
142.150
 20
82.2487
 30
0.000000
  70
    32
  0
VERTEX
  8
0
  5
846
 10
142.126
 20
82.2579
 30
0.000000
  70
    32
  0
VERTEX
  8
0
  5
847
 10
142.102
 20
82.2671
 30
0.000000
  70
    32
  0
VERTEX
  8
0
  5
848
 10
142.078
 20
82.2761
 30
0.000000
  70
    32
  0
VERTEX
  8
0
  5
849
 10
142.054
 20
82.2851
 30
0.000000
  70
    32
  0
VERTEX
  8
0
  5
84A
 10
142.030
 20
82.2940
 30
0.000000
  70
    32
  0
VERTEX
  8
0
  5
84B
 10
142.006
 20
82.3028
 30
0.000000
  70
    32
  0
VERTEX
  8
0
  5
84C
 10
141.982
 20
82.3115
 30
0.000000
  70
    32
  0
VERTEX
  8
0
  5
84D
 10
141.957
 20
82.3202
 30
0.000000
  70
    32
  0
VERTEX
  8
0
  5
84E
 10
141.933
 20
82.3287
 30
0.000000
  70
    32
  0
VERTEX
  8
0
  5
84F
 10
141.908
 20
82.3371
 30
0.000000
  70
    32
  0
VERTEX
  8
0
  5
850
 10
141.883
 20
82.3455
 30
0.000000
  70
    32
  0
VERTEX
  8
0
  5
851
 10
141.859
 20
82.3538
 30
0.000000
  70
    32
  0
VERTEX
  8
0
  5
852
 10
141.834
 20
82.3620
 30
0.000000
  70
    32
  0
VERTEX
  8
0
  5
853
 10
141.809
 20
82.3701
 30
0.000000
  70
    32
  0
VERTEX
  8
0
  5
854
 10
141.784
 20
82.3781
 30
0.000000
  70
    32
  0
VERTEX
  8
0
  5
855
 10
141.759
 20
82.3860
 30
0.000000
  70
    32
  0
VERTEX
  8
0
  5
856
 10
141.733
 20
82.3939
 30
0.000000
  70
    32
  0
VERTEX
  8
0
  5
857
 10
141.708
 20
82.4016
 30
0.000000
  70
    32
  0
VERTEX
  8
0
  5
858
 10
141.683
 20
82.4093
 30
0.000000
  70
    32
  0
VERTEX
  8
0
  5
859
 10
141.657
 20
82.4168
 30
0.000000
  70
    32
  0
VERTEX
  8
0
  5
85A
 10
141.632
 20
82.4243
 30
0.000000
  70
    32
  0
VERTEX
  8
0
  5
85B
 10
141.606
 20
82.4317
 30
0.000000
  70
    32
  0
VERTEX
  8
0
  5
85C
 10
141.580
 20
82.4390
 30
0.000000
  70
    32
  0
VERTEX
  8
0
  5
85D
 10
141.555
 20
82.4462
 30
0.000000
  70
    32
  0
VERTEX
  8
0
  5
85E
 10
141.529
 20
82.4533
 30
0.000000
  70
    32
  0
VERTEX
  8
0
  5
85F
 10
141.503
 20
82.4603
 30
0.000000
  70
    32
  0
VERTEX
  8
0
  5
860
 10
141.477
 20
82.4673
 30
0.000000
  70
    32
  0
VERTEX
  8
0
  5
861
 10
141.451
 20
82.4741
 30
0.000000
  70
    32
  0
VERTEX
  8
0
  5
862
 10
141.425
 20
82.4809
 30
0.000000
  70
    32
  0
VERTEX
  8
0
  5
863
 10
141.398
 20
82.4875
 30
0.000000
  70
    32
  0
VERTEX
  8
0
  5
864
 10
141.372
 20
82.4941
 30
0.000000
  70
    32
  0
VERTEX
  8
0
  5
865
 10
141.346
 20
82.5005
 30
0.000000
  70
    32
  0
VERTEX
  8
0
  5
866
 10
141.319
 20
82.5069
 30
0.000000
  70
    32
  0
VERTEX
  8
0
  5
867
 10
141.293
 20
82.5132
 30
0.000000
  70
    32
  0
VERTEX
  8
0
  5
868
 10
141.266
 20
82.5194
 30
0.000000
  70
    32
  0
VERTEX
  8
0
  5
869
 10
141.240
 20
82.5255
 30
0.000000
  70
    32
  0
VERTEX
  8
0
  5
86A
 10
141.213
 20
82.5315
 30
0.000000
  70
    32
  0
VERTEX
  8
0
  5
86B
 10
141.186
 20
82.5374
 30
0.000000
  70
    32
  0
VERTEX
  8
0
  5
86C
 10
141.159
 20
82.5432
 30
0.000000
  70
    32
  0
VERTEX
  8
0
  5
86D
 10
141.133
 20
82.5489
 30
0.000000
  70
    32
  0
VERTEX
  8
0
  5
86E
 10
141.106
 20
82.5545
 30
0.000000
  70
    32
  0
VERTEX
  8
0
  5
86F
 10
141.079
 20
82.5600
 30
0.000000
  70
    32
  0
VERTEX
  8
0
  5
870
 10
141.052
 20
82.5654
 30
0.000000
  70
    32
  0
VERTEX
  8
0
  5
871
 10
141.024
 20
82.5708
 30
0.000000
  70
    32
  0
VERTEX
  8
0
  5
872
 10
140.997
 20
82.5760
 30
0.000000
  70
    32
  0
VERTEX
  8
0
  5
873
 10
140.970
 20
82.5811
 30
0.000000
  70
    32
  0
VERTEX
  8
0
  5
874
 10
140.943
 20
82.5862
 30
0.000000
  70
    32
  0
VERTEX
  8
0
  5
875
 10
140.916
 20
82.5911
 30
0.000000
  70
    32
  0
VERTEX
  8
0
  5
876
 10
140.888
 20
82.5960
 30
0.000000
  70
    32
  0
VERTEX
  8
0
  5
877
 10
140.861
 20
82.6007
 30
0.000000
  70
    32
  0
VERTEX
  8
0
  5
878
 10
140.833
 20
82.6054
 30
0.000000
  70
    32
  0
VERTEX
  8
0
  5
879
 10
140.806
 20
82.6099
 30
0.000000
  70
    32
  0
VERTEX
  8
0
  5
87A
 10
140.778
 20
82.6144
 30
0.000000
  70
    32
  0
VERTEX
  8
0
  5
87B
 10
140.751
 20
82.6187
 30
0.000000
  70
    32
  0
VERTEX
  8
0
  5
87C
 10
140.723
 20
82.6230
 30
0.000000
  70
    32
  0
VERTEX
  8
0
  5
87D
 10
140.695
 20
82.6272
 30
0.000000
  70
    32
  0
VERTEX
  8
0
  5
87E
 10
140.667
 20
82.6312
 30
0.000000
  70
    32
  0
VERTEX
  8
0
  5
87F
 10
140.640
 20
82.6352
 30
0.000000
  70
    32
  0
VERTEX
  8
0
  5
880
 10
140.612
 20
82.6391
 30
0.000000
  70
    32
  0
VERTEX
  8
0
  5
881
 10
140.584
 20
82.6428
 30
0.000000
  70
    32
  0
VERTEX
  8
0
  5
882
 10
140.556
 20
82.6465
 30
0.000000
  70
    32
  0
VERTEX
  8
0
  5
883
 10
140.528
 20
82.6501
 30
0.000000
  70
    32
  0
VERTEX
  8
0
  5
884
 10
140.500
 20
82.6536
 30
0.000000
  70
    32
  0
VERTEX
  8
0
  5
885
 10
140.472
 20
82.6569
 30
0.000000
  70
    32
  0
VERTEX
  8
0
  5
886
 10
140.444
 20
82.6602
 30
0.000000
  70
    32
  0
VERTEX
  8
0
  5
887
 10
140.416
 20
82.6634
 30
0.000000
  70
    32
  0
VERTEX
  8
0
  5
888
 10
140.388
 20
82.6665
 30
0.000000
  70
    32
  0
VERTEX
  8
0
  5
889
 10
140.360
 20
82.6694
 30
0.000000
  70
    32
  0
VERTEX
  8
0
  5
88A
 10
140.331
 20
82.6723
 30
0.000000
  70
    32
  0
VERTEX
  8
0
  5
88B
 10
140.303
 20
82.6751
 30
0.000000
  70
    32
  0
VERTEX
  8
0
  5
88C
 10
140.275
 20
82.6778
 30
0.000000
  70
    32
  0
VERTEX
  8
0
  5
88D
 10
140.247
 20
82.6803
 30
0.000000
  70
    32
  0
VERTEX
  8
0
  5
88E
 10
140.218
 20
82.6828
 30
0.000000
  70
    32
  0
VERTEX
  8
0
  5
88F
 10
140.190
 20
82.6852
 30
0.000000
  70
    32
  0
VERTEX
  8
0
  5
890
 10
140.162
 20
82.6875
 30
0.000000
  70
    32
  0
VERTEX
  8
0
  5
891
 10
140.133
 20
82.6896
 30
0.000000
  70
    32
  0
VERTEX
  8
0
  5
892
 10
140.105
 20
82.6917
 30
0.000000
  70
    32
  0
VERTEX
  8
0
  5
893
 10
140.076
 20
82.6937
 30
0.000000
  70
    32
  0
VERTEX
  8
0
  5
894
 10
140.048
 20
82.6956
 30
0.000000
  70
    32
  0
VERTEX
  8
0
  5
895
 10
140.019
 20
82.6973
 30
0.000000
  70
    32
  0
VERTEX
  8
0
  5
896
 10
139.991
 20
82.6990
 30
0.000000
  70
    32
  0
VERTEX
  8
0
  5
897
 10
139.962
 20
82.7006
 30
0.000000
  70
    32
  0
VERTEX
  8
0
  5
898
 10
139.934
 20
82.7020
 30
0.000000
  70
    32
  0
VERTEX
  8
0
  5
899
 10
139.905
 20
82.7034
 30
0.000000
  70
    32
  0
VERTEX
  8
0
  5
89A
 10
139.877
 20
82.7047
 30
0.000000
  70
    32
  0
VERTEX
  8
0
  5
89B
 10
139.848
 20
82.7058
 30
0.000000
  70
    32
  0
VERTEX
  8
0
  5
89C
 10
139.820
 20
82.7069
 30
0.000000
  70
    32
  0
VERTEX
  8
0
  5
89D
 10
139.791
 20
82.7079
 30
0.000000
  70
    32
  0
VERTEX
  8
0
  5
89E
 10
139.763
 20
82.7087
 30
0.000000
  70
    32
  0
VERTEX
  8
0
  5
89F
 10
139.734
 20
82.7095
 30
0.000000
  70
    32
  0
VERTEX
  8
0
  5
8A0
 10
139.705
 20
82.7102
 30
0.000000
  70
    32
  0
VERTEX
  8
0
  5
8A1
 10
139.677
 20
82.7107
 30
0.000000
  70
    32
  0
VERTEX
  8
0
  5
8A2
 10
139.648
 20
82.7112
 30
0.000000
  70
    32
  0
VERTEX
  8
0
  5
8A3
 10
139.619
 20
82.7115
 30
0.000000
  70
    32
  0
VERTEX
  8
0
  5
8A4
 10
139.591
 20
82.7118
 30
0.000000
  70
    32
  0
VERTEX
  8
0
  5
8A5
 10
139.562
 20
82.7119
 30
0.000000
  70
    32
  0
VERTEX
  8
0
  5
8A6
 10
139.534
 20
82.7120
 30
0.000000
  70
    32
  0
SEQEND
  8
0
  5
8A7
  0
LINE
  5
1A0
  8
0
  6
CONTINUOUS
 62
     7
 10
162.17937948840159
 20
95.785139780964982
 30
0.0
 11
162.17937948840159
 21
90.541124233104796
 31
0.0
  0
LINE
  5
1A1
  8
0
  6
CONTINUOUS
 62
     7
 10
162.17937948840159
 20
81.367945008409293
 30
0.0
 11
162.17937948840159
 21
90.541124233104796
 31
0.0
  0
ARC
  5
1A2
  8
0
  6
CONTINUOUS
 62
     7
 10
192.7957408752589
 20
93.798565450534468
 30
0.0
 40
2.9730291296939089
 50
293.87778488080949
 51
354.80207416157748
  0
POLYLINE
  5
1A3
  8
0
  6
CONTINUOUS
 62
     7
 66
     1
 10
0.0
 20
0.0
 30
0.0
 70
   128
  0
VERTEX
  5
4FF
  8
0
  6
CONTINUOUS
 62
     7
 10
181.09992623573601
 20
95.723622966238764
 30
0.0
  0
VERTEX
  5
500
  8
0
  6
CONTINUOUS
 62
     7
 10
181.16626184833021
 20
95.78539678087111
 30
0.0
  0
VERTEX
  5
501
  8
0
  6
CONTINUOUS
 62
     7
 10
181.29523902192491
 20
95.927937022484997
 30
0.0
  0
VERTEX
  5
502
  8
0
  6
CONTINUOUS
 62
     7
 10
181.39857461123299
 20
96.077278619638236
 30
0.0
  0
VERTEX
  5
503
  8
0
  6
CONTINUOUS
 62
     7
 10
181.4752082532728
 20
96.231889125452554
 30
0.0
  0
VERTEX
  5
504
  8
0
  6
CONTINUOUS
 62
     7
 10
181.52435358317501
 20
96.390182026916875
 30
0.0
  0
VERTEX
  5
505
  8
0
  6
CONTINUOUS
 62
     7
 10
181.54550630335061
 20
96.550533024657653
 30
0.0
  0
VERTEX
  5
506
  8
0
  6
CONTINUOUS
 62
     7
 10
181.53844935826649
 20
96.7112967004485
 30
0.0
  0
VERTEX
  5
507
  8
0
  6
CONTINUOUS
 62
     7
 10
181.5032551617287
 20
96.870823401427785
 30
0.0
  0
VERTEX
  5
508
  8
0
  6
CONTINUOUS
 62
     7
 10
181.44028485381901
 20
97.02747616776935
 30
0.0
  0
VERTEX
  5
509
  8
0
  6
CONTINUOUS
 62
     7
 10
181.3501845951092
 20
97.179647530105484
 30
0.0
  0
VERTEX
  5
50A
  8
0
  6
CONTINUOUS
 62
     7
 10
181.2338789361786
 20
97.325776004337811
 30
0.0
  0
VERTEX
  5
50B
  8
0
  6
CONTINUOUS
 62
     7
 10
181.09256133047461
 20
97.464362114577327
 30
0.0
  0
VERTEX
  5
50C
  8
0
  6
CONTINUOUS
 62
     7
 10
180.92768188786499
 20
97.593983779796005
 30
0.0
  0
VERTEX
  5
50D
  8
0
  6
CONTINUOUS
 62
     7
 10
180.7409324945485
 20
97.713310906302524
 30
0.0
  0
VERTEX
  5
50E
  8
0
  6
CONTINUOUS
 62
     7
 10
180.5342294520128
 20
97.821119036303585
 30
0.0
  0
VERTEX
  5
50F
  8
0
  6
CONTINUOUS
 62
     7
 10
180.30969381318829
 20
97.916301912497616
 30
0.0
  0
VERTEX
  5
510
  8
0
  6
CONTINUOUS
 62
     7
 10
180.06962961757449
 20
97.997882829771896
 30
0.0
  0
VERTEX
  5
511
  8
0
  6
CONTINUOUS
 62
     7
 10
179.8165002486773
 20
98.065024657518535
 30
0.0
  0
VERTEX
  5
512
  8
0
  6
CONTINUOUS
 62
     7
 10
179.55290315636029
 20
98.117038429727472
 30
0.0
  0
VERTEX
  5
513
  8
0
  6
CONTINUOUS
 62
     7
 10
179.28154320349441
 20
98.153390414709946
 30
0.0
  0
VERTEX
  5
514
  8
0
  6
CONTINUOUS
 62
     7
 10
179.0052049104049
 20
98.173707591907942
 30
0.0
  0
VERTEX
  5
515
  8
0
  6
CONTINUOUS
 62
     7
 10
178.72672388192419
 20
98.177781479589896
 30
0.0
  0
VERTEX
  5
516
  8
0
  6
CONTINUOUS
 62
     7
 10
178.4489577102496
 20
98.1655702741553
 30
0.0
  0
VERTEX
  5
517
  8
0
  6
CONTINUOUS
 62
     7
 10
178.17475665218021
 20
98.137199279096365
 30
0.0
  0
VERTEX
  5
518
  8
0
  6
CONTINUOUS
 62
     7
 10
177.90693438162501
 20
98.09295961921444
 30
0.0
  0
VERTEX
  5
519
  8
0
  6
CONTINUOUS
 62
     7
 10
177.6482391175015
 20
98.033305253285761
 30
0.0
  0
VERTEX
  5
51A
  8
0
  6
CONTINUOUS
 62
     7
 10
177.40132542329019
 20
97.958848315829997
 30
0.0
  0
VERTEX
  5
51B
  8
0
  6
CONTINUOUS
 62
     7
 10
177.16872696762121
 20
97.870352835781816
 30
0.0
  0
VERTEX
  5
51C
  8
0
  6
CONTINUOUS
 62
     7
 10
176.95283052540569
 20
97.768726896519993
 30
0.0
  0
VERTEX
  5
51D
  8
0
  6
CONTINUOUS
 62
     7
 10
176.7558514862954
 20
97.655013317703236
 30
0.0
  0
VERTEX
  5
51E
  8
0
  6
CONTINUOUS
 62
     7
 10
176.57981112178689
 20
97.530378954529255
 30
0.0
  0
VERTEX
  5
51F
  8
0
  6
CONTINUOUS
 62
     7
 10
176.4265158442407
 20
97.396102724221464
 30
0.0
  0
VERTEX
  5
520
  8
0
  6
CONTINUOUS
 62
     7
 10
176.29753867064599
 20
97.253562482607592
 30
0.0
  0
VERTEX
  5
521
  8
0
  6
CONTINUOUS
 62
     7
 10
176.19420308133789
 20
97.104220885454353
 30
0.0
  0
VERTEX
  5
522
  8
0
  6
CONTINUOUS
 62
     7
 10
176.11756943929811
 20
96.949610379640035
 30
0.0
  0
VERTEX
  5
523
  8
0
  6
CONTINUOUS
 62
     7
 10
176.06842410939589
 20
96.791317478175714
 30
0.0
  0
VERTEX
  5
524
  8
0
  6
CONTINUOUS
 62
     7
 10
176.0472713892203
 20
96.630966480434921
 30
0.0
  0
VERTEX
  5
525
  8
0
  6
CONTINUOUS
 62
     7
 10
176.05432833430439
 20
96.47020280464406
 30
0.0
  0
VERTEX
  5
526
  8
0
  6
CONTINUOUS
 62
     7
 10
176.0895225308422
 20
96.310676103664775
 30
0.0
  0
VERTEX
  5
527
  8
0
  6
CONTINUOUS
 62
     7
 10
176.1524928387519
 20
96.15402333732321
 30
0.0
  0
VERTEX
  5
528
  8
0
  6
CONTINUOUS
 62
     7
 10
176.24259309746171
 20
96.001851974987105
 30
0.0
  0
VERTEX
  5
529
  8
0
  6
CONTINUOUS
 62
     7
 10
176.35889875639239
 20
95.855723500754777
 30
0.0
  0
VERTEX
  5
52A
  8
0
  6
CONTINUOUS
 62
     7
 10
176.4928514568351
 20
95.723622966238565
 30
0.0
  0
SEQEND
  5
52B
  8
0
  6
CONTINUOUS
 62
     7
  0
LINE
  5
1A4
  8
0
  6
CONTINUOUS
 62
     8
 10
152.9869913329764
 20
74.945468399160745
 30
0.0
 11
139.5335448713835
 21
82.711977726639077
 31
0.0
  0
LINE
  5
1A5
  8
0
  6
CONTINUOUS
 62
     8
 10
175.6328259499945
 20
88.018630453486665
 30
0.0
 11
152.9869913329764
 21
74.945468399160745
 31
0.0
  0
LINE
  5
1A6
  8
0
  6
CONTINUOUS
 62
     8
 10
162.17937948840159
 20
95.785139780964982
 30
0.0
 11
175.6328259499945
 21
88.018630453486665
 31
0.0
  0
LINE
  5
1A7
  8
0
  6
CONTINUOUS
 62
     8
 10
139.5335448713835
 20
82.711977726639077
 30
0.0
 11
162.17937948840159
 21
95.785139780964982
 31
0.0
  0
LINE
  5
1A8
  8
0
  6
CONTINUOUS
 62
     8
 10
145.9159235211109
 20
63.322119195770938
 30
0.0
 11
145.9159235211109
 21
64.342795210628125
 31
0.0
  0
LINE
  5
1A9
  8
0
  6
CONTINUOUS
 62
     8
 10
137.43064214687229
 20
63.322119195770938
 30
0.0
 11
137.43064214687229
 21
64.34279521062814
 31
0.0
  0
LINE
  5
1AA
  8
0
  6
CONTINUOUS
 62
     8
 10
193.99918464179621
 20
91.079994997742986
 30
0.0
 11
193.99918464179621
 21
92.100671012600174
 31
0.0
  0
LINE
  5
1AB
  8
0
  6
CONTINUOUS
 62
     8
 10
121.16718617958171
 20
72.710812481732106
 30
0.0
 11
121.16718617958171
 21
73.731488496589293
 31
0.0
  0
ARC
  5
1AC
  8
0
  6
CONTINUOUS
 62
     8
 10
152.9869913329764
 20
68.326355065331072
 30
0.0
 40
4.2449276024817451
 50
240.06311154618021
 51
299.93688845382093
  0
LINE
  5
1AD
  8
0
  6
CONTINUOUS
 62
     8
 10
150.86857818522211
 20
64.647804252071481
 30
0.0
 11
150.86857818522211
 21
66.181225875565431
 31
0.0
  0
LINE
  5
1AE
  8
0
  6
CONTINUOUS
 62
     8
 10
155.10540448073081
 20
68.627093634203547
 30
0.0
 11
155.10540448073081
 21
64.647804252071467
 31
0.0
  0
LINE
  5
1AF
  8
0
  6
CONTINUOUS
 62
     8
 10
155.10540448073081
 20
64.647804252071467
 30
0.0
 11
169.60534432441671
 21
73.018441349810857
 31
0.0
  0
LINE
  5
1B0
  8
0
  6
CONTINUOUS
 62
     8
 10
169.60534432441671
 20
73.018441349810857
 30
0.0
 11
169.98650930387791
 21
77.217772590863248
 31
0.0
  0
LINE
  5
1B1
  8
0
  6
CONTINUOUS
 62
     8
 10
149.5404521993473
 20
65.414515063818456
 30
0.0
 11
150.86857818522211
 21
64.647804252071481
 31
0.0
  0
LINE
  5
1B2
  8
0
  6
CONTINUOUS
 62
     8
 10
162.17937948840159
 20
90.541124233104796
 30
0.0
 11
145.04192422635469
 21
80.647881893909457
 31
0.0
  0
POLYLINE
  5
1B3
  8
0
  6
CONTINUOUS
 62
     8
 10
154.48767654128119
 20
63.312267693764724
 30
0.0
 66
     1
 70
     8
  0
VERTEX
  8
0
  5
8A8
 10
154.488
 20
63.3123
 30
0.000000
  70
    32
  0
VERTEX
  8
0
  5
8A9
 10
154.496
 20
63.3173
 30
0.000000
  70
    32
  0
VERTEX
  8
0
  5
8AA
 10
154.505
 20
63.3224
 30
0.000000
  70
    32
  0
VERTEX
  8
0
  5
8AB
 10
154.513
 20
63.3276
 30
0.000000
  70
    32
  0
VERTEX
  8
0
  5
8AC
 10
154.522
 20
63.3329
 30
0.000000
  70
    32
  0
VERTEX
  8
0
  5
8AD
 10
154.530
 20
63.3383
 30
0.000000
  70
    32
  0
VERTEX
  8
0
  5
8AE
 10
154.538
 20
63.3438
 30
0.000000
  70
    32
  0
VERTEX
  8
0
  5
8AF
 10
154.547
 20
63.3494
 30
0.000000
  70
    32
  0
VERTEX
  8
0
  5
8B0
 10
154.555
 20
63.3551
 30
0.000000
  70
    32
  0
VERTEX
  8
0
  5
8B1
 10
154.563
 20
63.3608
 30
0.000000
  70
    32
  0
VERTEX
  8
0
  5
8B2
 10
154.571
 20
63.3667
 30
0.000000
  70
    32
  0
VERTEX
  8
0
  5
8B3
 10
154.579
 20
63.3727
 30
0.000000
  70
    32
  0
VERTEX
  8
0
  5
8B4
 10
154.587
 20
63.3787
 30
0.000000
  70
    32
  0
VERTEX
  8
0
  5
8B5
 10
154.595
 20
63.3849
 30
0.000000
  70
    32
  0
VERTEX
  8
0
  5
8B6
 10
154.603
 20
63.3912
 30
0.000000
  70
    32
  0
VERTEX
  8
0
  5
8B7
 10
154.611
 20
63.3975
 30
0.000000
  70
    32
  0
VERTEX
  8
0
  5
8B8
 10
154.618
 20
63.4039
 30
0.000000
  70
    32
  0
VERTEX
  8
0
  5
8B9
 10
154.626
 20
63.4105
 30
0.000000
  70
    32
  0
VERTEX
  8
0
  5
8BA
 10
154.634
 20
63.4171
 30
0.000000
  70
    32
  0
VERTEX
  8
0
  5
8BB
 10
154.642
 20
63.4238
 30
0.000000
  70
    32
  0
VERTEX
  8
0
  5
8BC
 10
154.649
 20
63.4306
 30
0.000000
  70
    32
  0
VERTEX
  8
0
  5
8BD
 10
154.657
 20
63.4375
 30
0.000000
  70
    32
  0
VERTEX
  8
0
  5
8BE
 10
154.664
 20
63.4445
 30
0.000000
  70
    32
  0
VERTEX
  8
0
  5
8BF
 10
154.671
 20
63.4516
 30
0.000000
  70
    32
  0
VERTEX
  8
0
  5
8C0
 10
154.679
 20
63.4588
 30
0.000000
  70
    32
  0
VERTEX
  8
0
  5
8C1
 10
154.686
 20
63.4661
 30
0.000000
  70
    32
  0
VERTEX
  8
0
  5
8C2
 10
154.693
 20
63.4734
 30
0.000000
  70
    32
  0
VERTEX
  8
0
  5
8C3
 10
154.701
 20
63.4809
 30
0.000000
  70
    32
  0
VERTEX
  8
0
  5
8C4
 10
154.708
 20
63.4884
 30
0.000000
  70
    32
  0
VERTEX
  8
0
  5
8C5
 10
154.715
 20
63.4961
 30
0.000000
  70
    32
  0
VERTEX
  8
0
  5
8C6
 10
154.722
 20
63.5038
 30
0.000000
  70
    32
  0
VERTEX
  8
0
  5
8C7
 10
154.729
 20
63.5116
 30
0.000000
  70
    32
  0
VERTEX
  8
0
  5
8C8
 10
154.736
 20
63.5195
 30
0.000000
  70
    32
  0
VERTEX
  8
0
  5
8C9
 10
154.742
 20
63.5275
 30
0.000000
  70
    32
  0
VERTEX
  8
0
  5
8CA
 10
154.749
 20
63.5356
 30
0.000000
  70
    32
  0
VERTEX
  8
0
  5
8CB
 10
154.756
 20
63.5438
 30
0.000000
  70
    32
  0
VERTEX
  8
0
  5
8CC
 10
154.763
 20
63.5520
 30
0.000000
  70
    32
  0
VERTEX
  8
0
  5
8CD
 10
154.769
 20
63.5604
 30
0.000000
  70
    32
  0
VERTEX
  8
0
  5
8CE
 10
154.776
 20
63.5688
 30
0.000000
  70
    32
  0
VERTEX
  8
0
  5
8CF
 10
154.782
 20
63.5774
 30
0.000000
  70
    32
  0
VERTEX
  8
0
  5
8D0
 10
154.789
 20
63.5860
 30
0.000000
  70
    32
  0
VERTEX
  8
0
  5
8D1
 10
154.795
 20
63.5947
 30
0.000000
  70
    32
  0
VERTEX
  8
0
  5
8D2
 10
154.801
 20
63.6035
 30
0.000000
  70
    32
  0
VERTEX
  8
0
  5
8D3
 10
154.808
 20
63.6123
 30
0.000000
  70
    32
  0
VERTEX
  8
0
  5
8D4
 10
154.814
 20
63.6213
 30
0.000000
  70
    32
  0
VERTEX
  8
0
  5
8D5
 10
154.820
 20
63.6304
 30
0.000000
  70
    32
  0
VERTEX
  8
0
  5
8D6
 10
154.826
 20
63.6395
 30
0.000000
  70
    32
  0
VERTEX
  8
0
  5
8D7
 10
154.832
 20
63.6487
 30
0.000000
  70
    32
  0
VERTEX
  8
0
  5
8D8
 10
154.838
 20
63.6580
 30
0.000000
  70
    32
  0
VERTEX
  8
0
  5
8D9
 10
154.844
 20
63.6674
 30
0.000000
  70
    32
  0
VERTEX
  8
0
  5
8DA
 10
154.850
 20
63.6769
 30
0.000000
  70
    32
  0
VERTEX
  8
0
  5
8DB
 10
154.856
 20
63.6865
 30
0.000000
  70
    32
  0
VERTEX
  8
0
  5
8DC
 10
154.861
 20
63.6961
 30
0.000000
  70
    32
  0
VERTEX
  8
0
  5
8DD
 10
154.867
 20
63.7058
 30
0.000000
  70
    32
  0
VERTEX
  8
0
  5
8DE
 10
154.873
 20
63.7156
 30
0.000000
  70
    32
  0
VERTEX
  8
0
  5
8DF
 10
154.878
 20
63.7255
 30
0.000000
  70
    32
  0
VERTEX
  8
0
  5
8E0
 10
154.884
 20
63.7355
 30
0.000000
  70
    32
  0
VERTEX
  8
0
  5
8E1
 10
154.889
 20
63.7456
 30
0.000000
  70
    32
  0
VERTEX
  8
0
  5
8E2
 10
154.894
 20
63.7557
 30
0.000000
  70
    32
  0
VERTEX
  8
0
  5
8E3
 10
154.900
 20
63.7660
 30
0.000000
  70
    32
  0
VERTEX
  8
0
  5
8E4
 10
154.905
 20
63.7763
 30
0.000000
  70
    32
  0
VERTEX
  8
0
  5
8E5
 10
154.910
 20
63.7866
 30
0.000000
  70
    32
  0
VERTEX
  8
0
  5
8E6
 10
154.915
 20
63.7971
 30
0.000000
  70
    32
  0
VERTEX
  8
0
  5
8E7
 10
154.920
 20
63.8077
 30
0.000000
  70
    32
  0
VERTEX
  8
0
  5
8E8
 10
154.925
 20
63.8183
 30
0.000000
  70
    32
  0
VERTEX
  8
0
  5
8E9
 10
154.930
 20
63.8290
 30
0.000000
  70
    32
  0
VERTEX
  8
0
  5
8EA
 10
154.935
 20
63.8398
 30
0.000000
  70
    32
  0
VERTEX
  8
0
  5
8EB
 10
154.940
 20
63.8507
 30
0.000000
  70
    32
  0
VERTEX
  8
0
  5
8EC
 10
154.944
 20
63.8616
 30
0.000000
  70
    32
  0
VERTEX
  8
0
  5
8ED
 10
154.949
 20
63.8726
 30
0.000000
  70
    32
  0
VERTEX
  8
0
  5
8EE
 10
154.954
 20
63.8838
 30
0.000000
  70
    32
  0
VERTEX
  8
0
  5
8EF
 10
154.958
 20
63.8949
 30
0.000000
  70
    32
  0
VERTEX
  8
0
  5
8F0
 10
154.963
 20
63.9062
 30
0.000000
  70
    32
  0
VERTEX
  8
0
  5
8F1
 10
154.967
 20
63.9175
 30
0.000000
  70
    32
  0
VERTEX
  8
0
  5
8F2
 10
154.971
 20
63.9289
 30
0.000000
  70
    32
  0
VERTEX
  8
0
  5
8F3
 10
154.976
 20
63.9404
 30
0.000000
  70
    32
  0
VERTEX
  8
0
  5
8F4
 10
154.980
 20
63.9520
 30
0.000000
  70
    32
  0
VERTEX
  8
0
  5
8F5
 10
154.984
 20
63.9636
 30
0.000000
  70
    32
  0
VERTEX
  8
0
  5
8F6
 10
154.988
 20
63.9754
 30
0.000000
  70
    32
  0
VERTEX
  8
0
  5
8F7
 10
154.992
 20
63.9871
 30
0.000000
  70
    32
  0
VERTEX
  8
0
  5
8F8
 10
154.996
 20
63.9990
 30
0.000000
  70
    32
  0
VERTEX
  8
0
  5
8F9
 10
155.000
 20
64.0110
 30
0.000000
  70
    32
  0
VERTEX
  8
0
  5
8FA
 10
155.004
 20
64.0230
 30
0.000000
  70
    32
  0
VERTEX
  8
0
  5
8FB
 10
155.007
 20
64.0350
 30
0.000000
  70
    32
  0
VERTEX
  8
0
  5
8FC
 10
155.011
 20
64.0472
 30
0.000000
  70
    32
  0
VERTEX
  8
0
  5
8FD
 10
155.015
 20
64.0594
 30
0.000000
  70
    32
  0
VERTEX
  8
0
  5
8FE
 10
155.018
 20
64.0717
 30
0.000000
  70
    32
  0
VERTEX
  8
0
  5
8FF
 10
155.022
 20
64.0841
 30
0.000000
  70
    32
  0
VERTEX
  8
0
  5
900
 10
155.025
 20
64.0966
 30
0.000000
  70
    32
  0
VERTEX
  8
0
  5
901
 10
155.028
 20
64.1091
 30
0.000000
  70
    32
  0
VERTEX
  8
0
  5
902
 10
155.032
 20
64.1217
 30
0.000000
  70
    32
  0
VERTEX
  8
0
  5
903
 10
155.035
 20
64.1343
 30
0.000000
  70
    32
  0
VERTEX
  8
0
  5
904
 10
155.038
 20
64.1470
 30
0.000000
  70
    32
  0
VERTEX
  8
0
  5
905
 10
155.041
 20
64.1598
 30
0.000000
  70
    32
  0
VERTEX
  8
0
  5
906
 10
155.044
 20
64.1727
 30
0.000000
  70
    32
  0
VERTEX
  8
0
  5
907
 10
155.047
 20
64.1856
 30
0.000000
  70
    32
  0
VERTEX
  8
0
  5
908
 10
155.050
 20
64.1986
 30
0.000000
  70
    32
  0
VERTEX
  8
0
  5
909
 10
155.053
 20
64.2117
 30
0.000000
  70
    32
  0
VERTEX
  8
0
  5
90A
 10
155.055
 20
64.2248
 30
0.000000
  70
    32
  0
VERTEX
  8
0
  5
90B
 10
155.058
 20
64.2380
 30
0.000000
  70
    32
  0
VERTEX
  8
0
  5
90C
 10
155.061
 20
64.2513
 30
0.000000
  70
    32
  0
VERTEX
  8
0
  5
90D
 10
155.063
 20
64.2646
 30
0.000000
  70
    32
  0
VERTEX
  8
0
  5
90E
 10
155.066
 20
64.2780
 30
0.000000
  70
    32
  0
VERTEX
  8
0
  5
90F
 10
155.068
 20
64.2915
 30
0.000000
  70
    32
  0
VERTEX
  8
0
  5
910
 10
155.070
 20
64.3050
 30
0.000000
  70
    32
  0
VERTEX
  8
0
  5
911
 10
155.073
 20
64.3186
 30
0.000000
  70
    32
  0
VERTEX
  8
0
  5
912
 10
155.075
 20
64.3323
 30
0.000000
  70
    32
  0
VERTEX
  8
0
  5
913
 10
155.077
 20
64.3460
 30
0.000000
  70
    32
  0
VERTEX
  8
0
  5
914
 10
155.079
 20
64.3598
 30
0.000000
  70
    32
  0
VERTEX
  8
0
  5
915
 10
155.081
 20
64.3736
 30
0.000000
  70
    32
  0
VERTEX
  8
0
  5
916
 10
155.083
 20
64.3875
 30
0.000000
  70
    32
  0
VERTEX
  8
0
  5
917
 10
155.085
 20
64.4015
 30
0.000000
  70
    32
  0
VERTEX
  8
0
  5
918
 10
155.086
 20
64.4155
 30
0.000000
  70
    32
  0
VERTEX
  8
0
  5
919
 10
155.088
 20
64.4296
 30
0.000000
  70
    32
  0
VERTEX
  8
0
  5
91A
 10
155.090
 20
64.4437
 30
0.000000
  70
    32
  0
VERTEX
  8
0
  5
91B
 10
155.091
 20
64.4579
 30
0.000000
  70
    32
  0
VERTEX
  8
0
  5
91C
 10
155.093
 20
64.4722
 30
0.000000
  70
    32
  0
VERTEX
  8
0
  5
91D
 10
155.094
 20
64.4865
 30
0.000000
  70
    32
  0
VERTEX
  8
0
  5
91E
 10
155.096
 20
64.5009
 30
0.000000
  70
    32
  0
VERTEX
  8
0
  5
91F
 10
155.097
 20
64.5154
 30
0.000000
  70
    32
  0
VERTEX
  8
0
  5
920
 10
155.098
 20
64.5298
 30
0.000000
  70
    32
  0
VERTEX
  8
0
  5
921
 10
155.099
 20
64.5444
 30
0.000000
  70
    32
  0
VERTEX
  8
0
  5
922
 10
155.100
 20
64.5590
 30
0.000000
  70
    32
  0
VERTEX
  8
0
  5
923
 10
155.101
 20
64.5737
 30
0.000000
  70
    32
  0
VERTEX
  8
0
  5
924
 10
155.102
 20
64.5884
 30
0.000000
  70
    32
  0
VERTEX
  8
0
  5
925
 10
155.103
 20
64.6032
 30
0.000000
  70
    32
  0
VERTEX
  8
0
  5
926
 10
155.104
 20
64.6180
 30
0.000000
  70
    32
  0
VERTEX
  8
0
  5
927
 10
155.105
 20
64.6329
 30
0.000000
  70
    32
  0
VERTEX
  8
0
  5
928
 10
155.105
 20
64.6478
 30
0.000000
  70
    32
  0
SEQEND
  8
0
  5
929
  0
POLYLINE
  5
1B4
  8
0
  6
CONTINUOUS
 62
     8
 10
150.86857818522199
 20
64.647804252071438
 30
0.0
 66
     1
 70
     8
  0
VERTEX
  8
0
  5
92A
 10
150.869
 20
64.6478
 30
0.000000
  70
    32
  0
VERTEX
  8
0
  5
92B
 10
150.869
 20
64.6329
 30
0.000000
  70
    32
  0
VERTEX
  8
0
  5
92C
 10
150.870
 20
64.6180
 30
0.000000
  70
    32
  0
VERTEX
  8
0
  5
92D
 10
150.871
 20
64.6031
 30
0.000000
  70
    32
  0
VERTEX
  8
0
  5
92E
 10
150.872
 20
64.5884
 30
0.000000
  70
    32
  0
VERTEX
  8
0
  5
92F
 10
150.873
 20
64.5736
 30
0.000000
  70
    32
  0
VERTEX
  8
0
  5
930
 10
150.874
 20
64.5590
 30
0.000000
  70
    32
  0
VERTEX
  8
0
  5
931
 10
150.875
 20
64.5443
 30
0.000000
  70
    32
  0
VERTEX
  8
0
  5
932
 10
150.876
 20
64.5298
 30
0.000000
  70
    32
  0
VERTEX
  8
0
  5
933
 10
150.877
 20
64.5153
 30
0.000000
  70
    32
  0
VERTEX
  8
0
  5
934
 10
150.878
 20
64.5008
 30
0.000000
  70
    32
  0
VERTEX
  8
0
  5
935
 10
150.880
 20
64.4865
 30
0.000000
  70
    32
  0
VERTEX
  8
0
  5
936
 10
150.881
 20
64.4721
 30
0.000000
  70
    32
  0
VERTEX
  8
0
  5
937
 10
150.883
 20
64.4579
 30
0.000000
  70
    32
  0
VERTEX
  8
0
  5
938
 10
150.884
 20
64.4436
 30
0.000000
  70
    32
  0
VERTEX
  8
0
  5
939
 10
150.886
 20
64.4295
 30
0.000000
  70
    32
  0
VERTEX
  8
0
  5
93A
 10
150.888
 20
64.4154
 30
0.000000
  70
    32
  0
VERTEX
  8
0
  5
93B
 10
150.889
 20
64.4014
 30
0.000000
  70
    32
  0
VERTEX
  8
0
  5
93C
 10
150.891
 20
64.3874
 30
0.000000
  70
    32
  0
VERTEX
  8
0
  5
93D
 10
150.893
 20
64.3735
 30
0.000000
  70
    32
  0
VERTEX
  8
0
  5
93E
 10
150.895
 20
64.3596
 30
0.000000
  70
    32
  0
VERTEX
  8
0
  5
93F
 10
150.897
 20
64.3458
 30
0.000000
  70
    32
  0
VERTEX
  8
0
  5
940
 10
150.899
 20
64.3321
 30
0.000000
  70
    32
  0
VERTEX
  8
0
  5
941
 10
150.902
 20
64.3185
 30
0.000000
  70
    32
  0
VERTEX
  8
0
  5
942
 10
150.904
 20
64.3049
 30
0.000000
  70
    32
  0
VERTEX
  8
0
  5
943
 10
150.906
 20
64.2913
 30
0.000000
  70
    32
  0
VERTEX
  8
0
  5
944
 10
150.908
 20
64.2779
 30
0.000000
  70
    32
  0
VERTEX
  8
0
  5
945
 10
150.911
 20
64.2645
 30
0.000000
  70
    32
  0
VERTEX
  8
0
  5
946
 10
150.913
 20
64.2511
 30
0.000000
  70
    32
  0
VERTEX
  8
0
  5
947
 10
150.916
 20
64.2379
 30
0.000000
  70
    32
  0
VERTEX
  8
0
  5
948
 10
150.919
 20
64.2246
 30
0.000000
  70
    32
  0
VERTEX
  8
0
  5
949
 10
150.921
 20
64.2115
 30
0.000000
  70
    32
  0
VERTEX
  8
0
  5
94A
 10
150.924
 20
64.1984
 30
0.000000
  70
    32
  0
VERTEX
  8
0
  5
94B
 10
150.927
 20
64.1854
 30
0.000000
  70
    32
  0
VERTEX
  8
0
  5
94C
 10
150.930
 20
64.1725
 30
0.000000
  70
    32
  0
VERTEX
  8
0
  5
94D
 10
150.933
 20
64.1596
 30
0.000000
  70
    32
  0
VERTEX
  8
0
  5
94E
 10
150.936
 20
64.1468
 30
0.000000
  70
    32
  0
VERTEX
  8
0
  5
94F
 10
150.939
 20
64.1341
 30
0.000000
  70
    32
  0
VERTEX
  8
0
  5
950
 10
150.942
 20
64.1214
 30
0.000000
  70
    32
  0
VERTEX
  8
0
  5
951
 10
150.946
 20
64.1088
 30
0.000000
  70
    32
  0
VERTEX
  8
0
  5
952
 10
150.949
 20
64.0963
 30
0.000000
  70
    32
  0
VERTEX
  8
0
  5
953
 10
150.953
 20
64.0839
 30
0.000000
  70
    32
  0
VERTEX
  8
0
  5
954
 10
150.956
 20
64.0715
 30
0.000000
  70
    32
  0
VERTEX
  8
0
  5
955
 10
150.960
 20
64.0592
 30
0.000000
  70
    32
  0
VERTEX
  8
0
  5
956
 10
150.963
 20
64.0469
 30
0.000000
  70
    32
  0
VERTEX
  8
0
  5
957
 10
150.967
 20
64.0348
 30
0.000000
  70
    32
  0
VERTEX
  8
0
  5
958
 10
150.971
 20
64.0227
 30
0.000000
  70
    32
  0
VERTEX
  8
0
  5
959
 10
150.974
 20
64.0107
 30
0.000000
  70
    32
  0
VERTEX
  8
0
  5
95A
 10
150.978
 20
63.9987
 30
0.000000
  70
    32
  0
VERTEX
  8
0
  5
95B
 10
150.982
 20
63.9869
 30
0.000000
  70
    32
  0
VERTEX
  8
0
  5
95C
 10
150.986
 20
63.9751
 30
0.000000
  70
    32
  0
VERTEX
  8
0
  5
95D
 10
150.990
 20
63.9633
 30
0.000000
  70
    32
  0
VERTEX
  8
0
  5
95E
 10
150.994
 20
63.9517
 30
0.000000
  70
    32
  0
VERTEX
  8
0
  5
95F
 10
150.999
 20
63.9401
 30
0.000000
  70
    32
  0
VERTEX
  8
0
  5
960
 10
151.003
 20
63.9286
 30
0.000000
  70
    32
  0
VERTEX
  8
0
  5
961
 10
151.007
 20
63.9172
 30
0.000000
  70
    32
  0
VERTEX
  8
0
  5
962
 10
151.012
 20
63.9059
 30
0.000000
  70
    32
  0
VERTEX
  8
0
  5
963
 10
151.016
 20
63.8946
 30
0.000000
  70
    32
  0
VERTEX
  8
0
  5
964
 10
151.021
 20
63.8834
 30
0.000000
  70
    32
  0
VERTEX
  8
0
  5
965
 10
151.025
 20
63.8723
 30
0.000000
  70
    32
  0
VERTEX
  8
0
  5
966
 10
151.030
 20
63.8613
 30
0.000000
  70
    32
  0
VERTEX
  8
0
  5
967
 10
151.034
 20
63.8503
 30
0.000000
  70
    32
  0
VERTEX
  8
0
  5
968
 10
151.039
 20
63.8395
 30
0.000000
  70
    32
  0
VERTEX
  8
0
  5
969
 10
151.044
 20
63.8287
 30
0.000000
  70
    32
  0
VERTEX
  8
0
  5
96A
 10
151.049
 20
63.8180
 30
0.000000
  70
    32
  0
VERTEX
  8
0
  5
96B
 10
151.054
 20
63.8073
 30
0.000000
  70
    32
  0
VERTEX
  8
0
  5
96C
 10
151.059
 20
63.7968
 30
0.000000
  70
    32
  0
VERTEX
  8
0
  5
96D
 10
151.064
 20
63.7863
 30
0.000000
  70
    32
  0
VERTEX
  8
0
  5
96E
 10
151.069
 20
63.7759
 30
0.000000
  70
    32
  0
VERTEX
  8
0
  5
96F
 10
151.075
 20
63.7656
 30
0.000000
  70
    32
  0
VERTEX
  8
0
  5
970
 10
151.080
 20
63.7554
 30
0.000000
  70
    32
  0
VERTEX
  8
0
  5
971
 10
151.085
 20
63.7452
 30
0.000000
  70
    32
  0
VERTEX
  8
0
  5
972
 10
151.091
 20
63.7352
 30
0.000000
  70
    32
  0
VERTEX
  8
0
  5
973
 10
151.096
 20
63.7252
 30
0.000000
  70
    32
  0
VERTEX
  8
0
  5
974
 10
151.102
 20
63.7153
 30
0.000000
  70
    32
  0
VERTEX
  8
0
  5
975
 10
151.107
 20
63.7055
 30
0.000000
  70
    32
  0
VERTEX
  8
0
  5
976
 10
151.113
 20
63.6957
 30
0.000000
  70
    32
  0
VERTEX
  8
0
  5
977
 10
151.119
 20
63.6861
 30
0.000000
  70
    32
  0
VERTEX
  8
0
  5
978
 10
151.124
 20
63.6765
 30
0.000000
  70
    32
  0
VERTEX
  8
0
  5
979
 10
151.130
 20
63.6670
 30
0.000000
  70
    32
  0
VERTEX
  8
0
  5
97A
 10
151.136
 20
63.6576
 30
0.000000
  70
    32
  0
VERTEX
  8
0
  5
97B
 10
151.142
 20
63.6483
 30
0.000000
  70
    32
  0
VERTEX
  8
0
  5
97C
 10
151.148
 20
63.6391
 30
0.000000
  70
    32
  0
VERTEX
  8
0
  5
97D
 10
151.154
 20
63.6300
 30
0.000000
  70
    32
  0
VERTEX
  8
0
  5
97E
 10
151.160
 20
63.6209
 30
0.000000
  70
    32
  0
VERTEX
  8
0
  5
97F
 10
151.167
 20
63.6120
 30
0.000000
  70
    32
  0
VERTEX
  8
0
  5
980
 10
151.173
 20
63.6031
 30
0.000000
  70
    32
  0
VERTEX
  8
0
  5
981
 10
151.179
 20
63.5943
 30
0.000000
  70
    32
  0
VERTEX
  8
0
  5
982
 10
151.185
 20
63.5856
 30
0.000000
  70
    32
  0
VERTEX
  8
0
  5
983
 10
151.192
 20
63.5770
 30
0.000000
  70
    32
  0
VERTEX
  8
0
  5
984
 10
151.198
 20
63.5684
 30
0.000000
  70
    32
  0
VERTEX
  8
0
  5
985
 10
151.205
 20
63.5600
 30
0.000000
  70
    32
  0
VERTEX
  8
0
  5
986
 10
151.212
 20
63.5517
 30
0.000000
  70
    32
  0
VERTEX
  8
0
  5
987
 10
151.218
 20
63.5434
 30
0.000000
  70
    32
  0
VERTEX
  8
0
  5
988
 10
151.225
 20
63.5352
 30
0.000000
  70
    32
  0
VERTEX
  8
0
  5
989
 10
151.232
 20
63.5271
 30
0.000000
  70
    32
  0
VERTEX
  8
0
  5
98A
 10
151.239
 20
63.5191
 30
0.000000
  70
    32
  0
VERTEX
  8
0
  5
98B
 10
151.246
 20
63.5112
 30
0.000000
  70
    32
  0
VERTEX
  8
0
  5
98C
 10
151.253
 20
63.5034
 30
0.000000
  70
    32
  0
VERTEX
  8
0
  5
98D
 10
151.260
 20
63.4957
 30
0.000000
  70
    32
  0
VERTEX
  8
0
  5
98E
 10
151.267
 20
63.4881
 30
0.000000
  70
    32
  0
VERTEX
  8
0
  5
98F
 10
151.274
 20
63.4805
 30
0.000000
  70
    32
  0
VERTEX
  8
0
  5
990
 10
151.281
 20
63.4731
 30
0.000000
  70
    32
  0
VERTEX
  8
0
  5
991
 10
151.288
 20
63.4657
 30
0.000000
  70
    32
  0
VERTEX
  8
0
  5
992
 10
151.296
 20
63.4584
 30
0.000000
  70
    32
  0
VERTEX
  8
0
  5
993
 10
151.303
 20
63.4512
 30
0.000000
  70
    32
  0
VERTEX
  8
0
  5
994
 10
151.310
 20
63.4442
 30
0.000000
  70
    32
  0
VERTEX
  8
0
  5
995
 10
151.318
 20
63.4372
 30
0.000000
  70
    32
  0
VERTEX
  8
0
  5
996
 10
151.325
 20
63.4303
 30
0.000000
  70
    32
  0
VERTEX
  8
0
  5
997
 10
151.333
 20
63.4234
 30
0.000000
  70
    32
  0
VERTEX
  8
0
  5
998
 10
151.340
 20
63.4167
 30
0.000000
  70
    32
  0
VERTEX
  8
0
  5
999
 10
151.348
 20
63.4101
 30
0.000000
  70
    32
  0
VERTEX
  8
0
  5
99A
 10
151.356
 20
63.4036
 30
0.000000
  70
    32
  0
VERTEX
  8
0
  5
99B
 10
151.364
 20
63.3971
 30
0.000000
  70
    32
  0
VERTEX
  8
0
  5
99C
 10
151.372
 20
63.3908
 30
0.000000
  70
    32
  0
VERTEX
  8
0
  5
99D
 10
151.379
 20
63.3846
 30
0.000000
  70
    32
  0
VERTEX
  8
0
  5
99E
 10
151.387
 20
63.3784
 30
0.000000
  70
    32
  0
VERTEX
  8
0
  5
99F
 10
151.395
 20
63.3723
 30
0.000000
  70
    32
  0
VERTEX
  8
0
  5
9A0
 10
151.403
 20
63.3664
 30
0.000000
  70
    32
  0
VERTEX
  8
0
  5
9A1
 10
151.412
 20
63.3605
 30
0.000000
  70
    32
  0
VERTEX
  8
0
  5
9A2
 10
151.420
 20
63.3547
 30
0.000000
  70
    32
  0
VERTEX
  8
0
  5
9A3
 10
151.428
 20
63.3490
 30
0.000000
  70
    32
  0
VERTEX
  8
0
  5
9A4
 10
151.436
 20
63.3435
 30
0.000000
  70
    32
  0
VERTEX
  8
0
  5
9A5
 10
151.445
 20
63.3380
 30
0.000000
  70
    32
  0
VERTEX
  8
0
  5
9A6
 10
151.453
 20
63.3326
 30
0.000000
  70
    32
  0
VERTEX
  8
0
  5
9A7
 10
151.461
 20
63.3273
 30
0.000000
  70
    32
  0
VERTEX
  8
0
  5
9A8
 10
151.470
 20
63.3221
 30
0.000000
  70
    32
  0
VERTEX
  8
0
  5
9A9
 10
151.478
 20
63.3170
 30
0.000000
  70
    32
  0
VERTEX
  8
0
  5
9AA
 10
151.487
 20
63.3120
 30
0.000000
  70
    32
  0
SEQEND
  8
0
  5
9AB
  0
POLYLINE
  5
1B5
  8
0
  6
CONTINUOUS
 62
     8
 10
168.86310226585633
 20
71.611023768753611
 30
0.0
 66
     1
 70
     8
  0
VERTEX
  8
0
  5
9AC
 10
168.863
 20
71.6110
 30
0.000000
  70
    32
  0
VERTEX
  8
0
  5
9AD
 10
168.873
 20
71.6170
 30
0.000000
  70
    32
  0
VERTEX
  8
0
  5
9AE
 10
168.884
 20
71.6231
 30
0.000000
  70
    32
  0
VERTEX
  8
0
  5
9AF
 10
168.894
 20
71.6293
 30
0.000000
  70
    32
  0
VERTEX
  8
0
  5
9B0
 10
168.904
 20
71.6356
 30
0.000000
  70
    32
  0
VERTEX
  8
0
  5
9B1
 10
168.914
 20
71.6419
 30
0.000000
  70
    32
  0
VERTEX
  8
0
  5
9B2
 10
168.924
 20
71.6484
 30
0.000000
  70
    32
  0
VERTEX
  8
0
  5
9B3
 10
168.934
 20
71.6549
 30
0.000000
  70
    32
  0
VERTEX
  8
0
  5
9B4
 10
168.944
 20
71.6615
 30
0.000000
  70
    32
  0
VERTEX
  8
0
  5
9B5
 10
168.953
 20
71.6682
 30
0.000000
  70
    32
  0
VERTEX
  8
0
  5
9B6
 10
168.963
 20
71.6751
 30
0.000000
  70
    32
  0
VERTEX
  8
0
  5
9B7
 10
168.973
 20
71.6820
 30
0.000000
  70
    32
  0
VERTEX
  8
0
  5
9B8
 10
168.982
 20
71.6889
 30
0.000000
  70
    32
  0
VERTEX
  8
0
  5
9B9
 10
168.992
 20
71.6960
 30
0.000000
  70
    32
  0
VERTEX
  8
0
  5
9BA
 10
169.002
 20
71.7032
 30
0.000000
  70
    32
  0
VERTEX
  8
0
  5
9BB
 10
169.011
 20
71.7104
 30
0.000000
  70
    32
  0
VERTEX
  8
0
  5
9BC
 10
169.020
 20
71.7178
 30
0.000000
  70
    32
  0
VERTEX
  8
0
  5
9BD
 10
169.030
 20
71.7252
 30
0.000000
  70
    32
  0
VERTEX
  8
0
  5
9BE
 10
169.039
 20
71.7327
 30
0.000000
  70
    32
  0
VERTEX
  8
0
  5
9BF
 10
169.048
 20
71.7403
 30
0.000000
  70
    32
  0
VERTEX
  8
0
  5
9C0
 10
169.057
 20
71.7480
 30
0.000000
  70
    32
  0
VERTEX
  8
0
  5
9C1
 10
169.066
 20
71.7557
 30
0.000000
  70
    32
  0
VERTEX
  8
0
  5
9C2
 10
169.075
 20
71.7636
 30
0.000000
  70
    32
  0
VERTEX
  8
0
  5
9C3
 10
169.084
 20
71.7715
 30
0.000000
  70
    32
  0
VERTEX
  8
0
  5
9C4
 10
169.093
 20
71.7796
 30
0.000000
  70
    32
  0
VERTEX
  8
0
  5
9C5
 10
169.102
 20
71.7877
 30
0.000000
  70
    32
  0
VERTEX
  8
0
  5
9C6
 10
169.110
 20
71.7959
 30
0.000000
  70
    32
  0
VERTEX
  8
0
  5
9C7
 10
169.119
 20
71.8042
 30
0.000000
  70
    32
  0
VERTEX
  8
0
  5
9C8
 10
169.127
 20
71.8125
 30
0.000000
  70
    32
  0
VERTEX
  8
0
  5
9C9
 10
169.136
 20
71.8210
 30
0.000000
  70
    32
  0
VERTEX
  8
0
  5
9CA
 10
169.144
 20
71.8295
 30
0.000000
  70
    32
  0
VERTEX
  8
0
  5
9CB
 10
169.153
 20
71.8381
 30
0.000000
  70
    32
  0
VERTEX
  8
0
  5
9CC
 10
169.161
 20
71.8468
 30
0.000000
  70
    32
  0
VERTEX
  8
0
  5
9CD
 10
169.169
 20
71.8556
 30
0.000000
  70
    32
  0
VERTEX
  8
0
  5
9CE
 10
169.177
 20
71.8645
 30
0.000000
  70
    32
  0
VERTEX
  8
0
  5
9CF
 10
169.186
 20
71.8735
 30
0.000000
  70
    32
  0
VERTEX
  8
0
  5
9D0
 10
169.194
 20
71.8825
 30
0.000000
  70
    32
  0
VERTEX
  8
0
  5
9D1
 10
169.201
 20
71.8916
 30
0.000000
  70
    32
  0
VERTEX
  8
0
  5
9D2
 10
169.209
 20
71.9008
 30
0.000000
  70
    32
  0
VERTEX
  8
0
  5
9D3
 10
169.217
 20
71.9101
 30
0.000000
  70
    32
  0
VERTEX
  8
0
  5
9D4
 10
169.225
 20
71.9194
 30
0.000000
  70
    32
  0
VERTEX
  8
0
  5
9D5
 10
169.233
 20
71.9289
 30
0.000000
  70
    32
  0
VERTEX
  8
0
  5
9D6
 10
169.240
 20
71.9384
 30
0.000000
  70
    32
  0
VERTEX
  8
0
  5
9D7
 10
169.248
 20
71.9480
 30
0.000000
  70
    32
  0
VERTEX
  8
0
  5
9D8
 10
169.255
 20
71.9577
 30
0.000000
  70
    32
  0
VERTEX
  8
0
  5
9D9
 10
169.262
 20
71.9675
 30
0.000000
  70
    32
  0
VERTEX
  8
0
  5
9DA
 10
169.270
 20
71.9773
 30
0.000000
  70
    32
  0
VERTEX
  8
0
  5
9DB
 10
169.277
 20
71.9872
 30
0.000000
  70
    32
  0
VERTEX
  8
0
  5
9DC
 10
169.284
 20
71.9972
 30
0.000000
  70
    32
  0
VERTEX
  8
0
  5
9DD
 10
169.291
 20
72.0073
 30
0.000000
  70
    32
  0
VERTEX
  8
0
  5
9DE
 10
169.298
 20
72.0174
 30
0.000000
  70
    32
  0
VERTEX
  8
0
  5
9DF
 10
169.305
 20
72.0277
 30
0.000000
  70
    32
  0
VERTEX
  8
0
  5
9E0
 10
169.312
 20
72.0380
 30
0.000000
  70
    32
  0
VERTEX
  8
0
  5
9E1
 10
169.319
 20
72.0484
 30
0.000000
  70
    32
  0
VERTEX
  8
0
  5
9E2
 10
169.326
 20
72.0588
 30
0.000000
  70
    32
  0
VERTEX
  8
0
  5
9E3
 10
169.332
 20
72.0694
 30
0.000000
  70
    32
  0
VERTEX
  8
0
  5
9E4
 10
169.339
 20
72.0800
 30
0.000000
  70
    32
  0
VERTEX
  8
0
  5
9E5
 10
169.345
 20
72.0907
 30
0.000000
  70
    32
  0
VERTEX
  8
0
  5
9E6
 10
169.352
 20
72.1014
 30
0.000000
  70
    32
  0
VERTEX
  8
0
  5
9E7
 10
169.358
 20
72.1123
 30
0.000000
  70
    32
  0
VERTEX
  8
0
  5
9E8
 10
169.364
 20
72.1232
 30
0.000000
  70
    32
  0
VERTEX
  8
0
  5
9E9
 10
169.371
 20
72.1342
 30
0.000000
  70
    32
  0
VERTEX
  8
0
  5
9EA
 10
169.377
 20
72.1452
 30
0.000000
  70
    32
  0
VERTEX
  8
0
  5
9EB
 10
169.383
 20
72.1564
 30
0.000000
  70
    32
  0
VERTEX
  8
0
  5
9EC
 10
169.389
 20
72.1676
 30
0.000000
  70
    32
  0
VERTEX
  8
0
  5
9ED
 10
169.395
 20
72.1789
 30
0.000000
  70
    32
  0
VERTEX
  8
0
  5
9EE
 10
169.400
 20
72.1902
 30
0.000000
  70
    32
  0
VERTEX
  8
0
  5
9EF
 10
169.406
 20
72.2017
 30
0.000000
  70
    32
  0
VERTEX
  8
0
  5
9F0
 10
169.412
 20
72.2132
 30
0.000000
  70
    32
  0
VERTEX
  8
0
  5
9F1
 10
169.417
 20
72.2247
 30
0.000000
  70
    32
  0
VERTEX
  8
0
  5
9F2
 10
169.423
 20
72.2364
 30
0.000000
  70
    32
  0
VERTEX
  8
0
  5
9F3
 10
169.428
 20
72.2481
 30
0.000000
  70
    32
  0
VERTEX
  8
0
  5
9F4
 10
169.434
 20
72.2599
 30
0.000000
  70
    32
  0
VERTEX
  8
0
  5
9F5
 10
169.439
 20
72.2717
 30
0.000000
  70
    32
  0
VERTEX
  8
0
  5
9F6
 10
169.444
 20
72.2836
 30
0.000000
  70
    32
  0
VERTEX
  8
0
  5
9F7
 10
169.449
 20
72.2956
 30
0.000000
  70
    32
  0
VERTEX
  8
0
  5
9F8
 10
169.454
 20
72.3077
 30
0.000000
  70
    32
  0
VERTEX
  8
0
  5
9F9
 10
169.459
 20
72.3198
 30
0.000000
  70
    32
  0
VERTEX
  8
0
  5
9FA
 10
169.464
 20
72.3320
 30
0.000000
  70
    32
  0
VERTEX
  8
0
  5
9FB
 10
169.469
 20
72.3442
 30
0.000000
  70
    32
  0
VERTEX
  8
0
  5
9FC
 10
169.474
 20
72.3566
 30
0.000000
  70
    32
  0
VERTEX
  8
0
  5
9FD
 10
169.478
 20
72.3690
 30
0.000000
  70
    32
  0
VERTEX
  8
0
  5
9FE
 10
169.483
 20
72.3814
 30
0.000000
  70
    32
  0
VERTEX
  8
0
  5
9FF
 10
169.487
 20
72.3939
 30
0.000000
  70
    32
  0
VERTEX
  8
0
  5
A00
 10
169.492
 20
72.4065
 30
0.000000
  70
    32
  0
VERTEX
  8
0
  5
A01
 10
169.496
 20
72.4192
 30
0.000000
  70
    32
  0
VERTEX
  8
0
  5
A02
 10
169.500
 20
72.4319
 30
0.000000
  70
    32
  0
VERTEX
  8
0
  5
A03
 10
169.505
 20
72.4447
 30
0.000000
  70
    32
  0
VERTEX
  8
0
  5
A04
 10
169.509
 20
72.4575
 30
0.000000
  70
    32
  0
VERTEX
  8
0
  5
A05
 10
169.513
 20
72.4704
 30
0.000000
  70
    32
  0
VERTEX
  8
0
  5
A06
 10
169.517
 20
72.4834
 30
0.000000
  70
    32
  0
VERTEX
  8
0
  5
A07
 10
169.520
 20
72.4964
 30
0.000000
  70
    32
  0
VERTEX
  8
0
  5
A08
 10
169.524
 20
72.5095
 30
0.000000
  70
    32
  0
VERTEX
  8
0
  5
A09
 10
169.528
 20
72.5227
 30
0.000000
  70
    32
  0
VERTEX
  8
0
  5
A0A
 10
169.532
 20
72.5359
 30
0.000000
  70
    32
  0
VERTEX
  8
0
  5
A0B
 10
169.535
 20
72.5492
 30
0.000000
  70
    32
  0
VERTEX
  8
0
  5
A0C
 10
169.538
 20
72.5625
 30
0.000000
  70
    32
  0
VERTEX
  8
0
  5
A0D
 10
169.542
 20
72.5759
 30
0.000000
  70
    32
  0
VERTEX
  8
0
  5
A0E
 10
169.545
 20
72.5894
 30
0.000000
  70
    32
  0
VERTEX
  8
0
  5
A0F
 10
169.548
 20
72.6029
 30
0.000000
  70
    32
  0
VERTEX
  8
0
  5
A10
 10
169.551
 20
72.6165
 30
0.000000
  70
    32
  0
VERTEX
  8
0
  5
A11
 10
169.554
 20
72.6301
 30
0.000000
  70
    32
  0
VERTEX
  8
0
  5
A12
 10
169.557
 20
72.6438
 30
0.000000
  70
    32
  0
VERTEX
  8
0
  5
A13
 10
169.560
 20
72.6576
 30
0.000000
  70
    32
  0
VERTEX
  8
0
  5
A14
 10
169.563
 20
72.6714
 30
0.000000
  70
    32
  0
VERTEX
  8
0
  5
A15
 10
169.566
 20
72.6852
 30
0.000000
  70
    32
  0
VERTEX
  8
0
  5
A16
 10
169.568
 20
72.6991
 30
0.000000
  70
    32
  0
VERTEX
  8
0
  5
A17
 10
169.571
 20
72.7131
 30
0.000000
  70
    32
  0
VERTEX
  8
0
  5
A18
 10
169.573
 20
72.7271
 30
0.000000
  70
    32
  0
VERTEX
  8
0
  5
A19
 10
169.576
 20
72.7412
 30
0.000000
  70
    32
  0
VERTEX
  8
0
  5
A1A
 10
169.578
 20
72.7554
 30
0.000000
  70
    32
  0
VERTEX
  8
0
  5
A1B
 10
169.580
 20
72.7695
 30
0.000000
  70
    32
  0
VERTEX
  8
0
  5
A1C
 10
169.582
 20
72.7838
 30
0.000000
  70
    32
  0
VERTEX
  8
0
  5
A1D
 10
169.585
 20
72.7981
 30
0.000000
  70
    32
  0
VERTEX
  8
0
  5
A1E
 10
169.587
 20
72.8124
 30
0.000000
  70
    32
  0
VERTEX
  8
0
  5
A1F
 10
169.588
 20
72.8268
 30
0.000000
  70
    32
  0
VERTEX
  8
0
  5
A20
 10
169.590
 20
72.8413
 30
0.000000
  70
    32
  0
VERTEX
  8
0
  5
A21
 10
169.592
 20
72.8558
 30
0.000000
  70
    32
  0
VERTEX
  8
0
  5
A22
 10
169.594
 20
72.8703
 30
0.000000
  70
    32
  0
VERTEX
  8
0
  5
A23
 10
169.595
 20
72.8849
 30
0.000000
  70
    32
  0
VERTEX
  8
0
  5
A24
 10
169.597
 20
72.8996
 30
0.000000
  70
    32
  0
VERTEX
  8
0
  5
A25
 10
169.598
 20
72.9143
 30
0.000000
  70
    32
  0
VERTEX
  8
0
  5
A26
 10
169.599
 20
72.9290
 30
0.000000
  70
    32
  0
VERTEX
  8
0
  5
A27
 10
169.600
 20
72.9438
 30
0.000000
  70
    32
  0
VERTEX
  8
0
  5
A28
 10
169.602
 20
72.9586
 30
0.000000
  70
    32
  0
VERTEX
  8
0
  5
A29
 10
169.603
 20
72.9735
 30
0.000000
  70
    32
  0
VERTEX
  8
0
  5
A2A
 10
169.604
 20
72.9884
 30
0.000000
  70
    32
  0
VERTEX
  8
0
  5
A2B
 10
169.605
 20
73.0034
 30
0.000000
  70
    32
  0
VERTEX
  8
0
  5
A2C
 10
169.605
 20
73.0184
 30
0.000000
  70
    32
  0
SEQEND
  8
0
  5
A2D
  0
LINE
  5
1B6
  8
0
  6
CONTINUOUS
 62
     8
 10
170.1244465950233
 20
85.95453462075703
 30
0.0
 11
162.17937948840159
 21
90.541124233104796
 31
0.0
  0
ARC
  5
1B7
  8
0
  6
CONTINUOUS
 62
     8
 10
169.06887778116311
 20
74.340117671260003
 30
0.0
 40
1.4264026958435829
 50
292.09216368754369
 51
350.2431638456664
  0
LINE
  5
1B8
  8
0
  6
CONTINUOUS
 62
     7
 10
65.214684461235592
 20
248.1718372420838
 30
0.0
 11
64.495262930288945
 21
261.89921781017142
 31
0.0
  0
ARC
  5
1B9
  8
0
  6
CONTINUOUS
 62
     7
 10
62.498003860779789
 20
261.79454589768551
 30
0.0
 40
2.0000000000000009
 50
3.0000000000007052
 51
90.0
  0
LINE
  5
1BA
  8
0
  6
CONTINUOUS
 62
     7
 10
54.463578855766571
 20
263.79454589768551
 30
0.0
 11
62.498003860779789
 21
263.79454589768551
 31
0.0
  0
LINE
  5
1BB
  8
0
  6
CONTINUOUS
 62
     7
 10
54.463578855766571
 20
263.79454589768551
 30
0.0
 11
54.463578855766571
 21
265.04454589768562
 31
0.0
  0
LINE
  5
1BC
  8
0
  6
CONTINUOUS
 62
     7
 10
62.450555632444051
 20
265.04454589768562
 30
0.0
 11
54.463578855766571
 21
265.04454589768562
 31
0.0
  0
ARC
  5
1BD
  8
0
  6
CONTINUOUS
 62
     7
 10
62.450555632444051
 20
261.74454589768561
 30
0.0
 40
3.3000000000000109
 50
2.99999999999967
 51
90.0
  0
LINE
  5
1BE
  8
0
  6
CONTINUOUS
 62
     7
 10
66.465454628080792
 20
248.18987398519971
 30
0.0
 11
65.746033097134145
 21
261.91725455328719
 31
0.0
  0
ARC
  5
1BF
  8
0
  6
CONTINUOUS
 62
     7
 10
68.462713697589933
 20
248.29454589768559
 30
0.0
 40
2.0
 50
183.00000000000071
 51
270.0000000000008
  0
LINE
  5
1C0
  8
0
  6
CONTINUOUS
 62
     7
 10
75.464444013943222
 20
246.29454589768559
 30
0.0
 11
68.462713697589933
 21
246.29454589768559
 31
0.0
  0
ARC
  5
1C1
  8
0
  6
CONTINUOUS
 62
     7
 10
75.464444013943222
 20
248.29454589768559
 30
0.0
 40
2.0
 50
270.0000000000008
 51
357.00000000000091
  0
LINE
  5
1C2
  8
0
  6
CONTINUOUS
 62
     7
 10
78.18112461439901
 20
261.91725455328719
 30
0.0
 11
77.461703083452363
 21
248.18987398519971
 31
0.0
  0
ARC
  5
1C3
  8
0
  6
CONTINUOUS
 62
     7
 10
81.476602079089105
 20
261.74454589768561
 30
0.0
 40
3.3000000000000109
 50
90.0
 51
177.00000000000031
  0
LINE
  5
1C4
  8
0
  6
CONTINUOUS
 62
     7
 10
89.463578855766585
 20
265.04454589768562
 30
0.0
 11
81.476602079089105
 21
265.04454589768562
 31
0.0
  0
LINE
  5
1C5
  8
0
  6
CONTINUOUS
 62
     7
 10
89.463578855766585
 20
265.04454589768562
 30
0.0
 11
89.463578855766585
 21
263.79454589768551
 31
0.0
  0
LINE
  5
1C6
  8
0
  6
CONTINUOUS
 62
     7
 10
81.429153850753366
 20
263.79454589768551
 30
0.0
 11
89.463578855766585
 21
263.79454589768551
 31
0.0
  0
ARC
  5
1C7
  8
0
  6
CONTINUOUS
 62
     7
 10
81.429153850753366
 20
261.79454589768551
 30
0.0
 40
2.000000000000008
 50
90.0
 51
176.99999999999929
  0
LINE
  5
1C8
  8
0
  6
CONTINUOUS
 62
     7
 10
79.43189478124421
 20
261.89921781017142
 30
0.0
 11
78.712473250297563
 21
248.1718372420838
 31
0.0
  0
ARC
  5
1C9
  8
0
  6
CONTINUOUS
 62
     7
 10
75.416995785607483
 20
248.34454589768561
 30
0.0
 40
3.3000000000000109
 50
270.0000000000008
 51
357.00000000000063
  0
LINE
  5
1CA
  8
0
  6
CONTINUOUS
 62
     7
 10
75.416995785607483
 20
245.04454589768551
 30
0.0
 11
68.510161925925686
 21
245.04454589768551
 31
0.0
  0
ARC
  5
1CB
  8
0
  6
CONTINUOUS
 62
     7
 10
68.510161925925686
 20
248.34454589768561
 30
0.0
 40
3.3000000000000109
 50
183.00000000000091
 51
270.0000000000008
  0
LINE
  5
1CC
  8
0
  6
CONTINUOUS
 62
     7
 10
62.450555632444051
 20
265.04454589768562
 30
0.0
 11
81.476602079089105
 21
265.04454589768562
 31
0.0
  0
INSERT
  5
1DE
  8
0
  6
CONTINUOUS
 62
     7
  2
SW_HATCH_0
 10
58.493194674162787
 20
265.04454589768562
 30
0.0
  0
DIMENSION
  5
1DF
  8
LINIEN-DÜNN
  2
*D16
 10
49.740795078376323
 20
245.04454589768559
 30
0.0
 11
49.740795078376323
 21
255.04454589768551
 31
0.0
 70
   128
 13
54.463578855766571
 23
265.04454589768562
 33
0.0
 14
68.510161925925686
 24
245.04454589768559
 34
0.0
 50
90.000000000000185
  0
DIMENSION
  5
1EB
  8
LINIEN-DÜNN
  2
*D17
 10
77.461703083452377
 20
236.20934063396979
 30
0.0
 11
71.963578855766585
 21
236.20934063396979
 31
0.0
 70
   128
 13
66.465454628080792
 23
248.18987398519971
 33
0.0
 14
77.461703083452377
 24
248.18987398519971
 34
0.0
  0
DIMENSION
  5
1F7
  8
LINIEN-DÜNN
  2
*D18
 10
99.463578855766556
 20
265.04454589768562
 30
0.0
 11
99.463578855766556
 21
274.67613515207148
 31
0.0
 70
   128
 13
89.463578855766585
 23
263.79454589768562
 33
0.0
 14
89.463578855766585
 24
265.04454589768562
 34
0.0
 50
90.000000000000185
  0
DIMENSION
  5
203
  8
LINIEN-DÜNN
  2
*D19
 10
73.963578855766585
 20
268.32675093435398
 30
0.0
 11
66.201916042939061
 21
278.57401345291493
 31
0.0
 70
   130
 13
67.746033097134145
 23
261.91725455328731
 33
0.0
 14
68.465454628080792
 24
248.18987398519971
 34
0.0
 15
73.963578855766585
 25
243.042914137607
 35
0.0
 16
71.598480143298403
 26
278.77582856087861
 36
0.0
1001
ACAD
1000
DSTYLE
1002
{
1070
   271
1070
     2
1002
}
  0
DIMENSION
  5
210
  8
LINIEN-DÜNN
  2
*D20
 10
68.462713697589933
 20
248.29454589768559
 30
0.0
 11
60.209442678455488
 21
240.04127487855121
 31
0.0
 70
   132
  1
<>
 15
67.048500135216841
 25
246.88033233531249
 35
0.0
 40
0.0
  0
DIMENSION
  5
219
  8
LINIEN-DÜNN
  2
*D21
 10
62.498003860779797
 20
261.79454589768562
 30
0.0
 11
58.33714854505974
 21
257.63369058196548
 31
0.0
 70
   132
  1
<>
 15
63.912217423152917
 25
263.20875946005867
 35
0.0
 40
0.0
  0
INSERT
  5
222
  8
0
  2
*U100
 10
0.0
 20
0.0
 30
0.0
  0
LINE
  5
223
  8
LINIEN-DÜNN
  6
CENTERX2
 10
73.963578855766585
 20
243.042914137607
 30
0.0
 11
73.963578855766585
 21
268.32675093435398
 31
0.0
  0
ARC
  5
224
  8
0
  6
CONTINUOUS
 62
     7
 10
172.06785715741211
 20
150.18390247218451
 30
0.0
 40
2.0000000000000209
 50
0.0
 51
87.000000000000156
  0
LINE
  5
225
  8
0
  6
CONTINUOUS
 62
     7
 10
172.17252906989799
 20
152.1811615416936
 30
0.0
 11
158.44514850181031
 21
152.9005830726403
 31
0.0
  0
ARC
  5
226
  8
0
  6
CONTINUOUS
 62
     7
 10
158.61785715741209
 20
156.1960605373304
 30
0.0
 40
3.3000000000000109
 50
180.0
 51
267.00000000000011
  0
LINE
  5
227
  8
0
  6
CONTINUOUS
 62
     7
 10
155.31785715741211
 20
156.1960605373304
 30
0.0
 11
155.31785715741211
 21
176.10289439701219
 31
0.0
  0
ARC
  5
228
  8
0
  6
CONTINUOUS
 62
     7
 10
158.61785715741209
 20
176.10289439701219
 30
0.0
 40
3.3000000000000109
 50
93.000000000000696
 51
180.0
  0
LINE
  5
229
  8
0
  6
CONTINUOUS
 62
     7
 10
158.44514850181031
 20
179.39837186170229
 30
0.0
 11
172.17252906989799
 21
180.11779339264891
 31
0.0
  0
ARC
  5
22A
  8
0
  6
CONTINUOUS
 62
     7
 10
172.06785715741211
 20
182.1150524621581
 30
0.0
 40
2.0
 50
273.00000000000068
 51
0.0
  0
LINE
  5
22B
  8
0
  6
CONTINUOUS
 62
     7
 10
174.06785715741211
 20
193.39987777825101
 30
0.0
 11
174.06785715741211
 21
182.1150524621581
 31
0.0
  0
LINE
  5
22C
  8
0
  6
CONTINUOUS
 62
     7
 10
175.31785715741211
 20
192.14975267047461
 30
0.0
 11
174.06785715741211
 21
193.39987777825101
 31
0.0
  0
LINE
  5
22D
  8
0
  6
CONTINUOUS
 62
     7
 10
175.31785715741211
 20
182.1625006904938
 30
0.0
 11
175.31785715741211
 21
192.14975267047461
 31
0.0
  0
ARC
  5
22E
  8
0
  6
CONTINUOUS
 62
     7
 10
172.0178571574121
 20
182.1625006904938
 30
0.0
 40
3.3000000000000109
 50
273.00000000000102
 51
0.0
  0
LINE
  5
22F
  8
0
  6
CONTINUOUS
 62
     7
 10
158.46318524492619
 20
178.14760169485709
 30
0.0
 11
172.19056581301379
 21
178.86702322580371
 31
0.0
  0
ARC
  5
230
  8
0
  6
CONTINUOUS
 62
     7
 10
158.56785715741211
 20
176.15034262534789
 30
0.0
 40
2.0000000000000209
 50
92.999999999999858
 51
180.0
  0
LINE
  5
231
  8
0
  6
CONTINUOUS
 62
     7
 10
156.56785715741211
 20
156.1486123089947
 30
0.0
 11
156.56785715741211
 21
176.15034262534789
 31
0.0
  0
ARC
  5
232
  8
0
  6
CONTINUOUS
 62
     7
 10
158.56785715741211
 20
156.1486123089947
 30
0.0
 40
2.0
 50
180.0
 51
267.00000000000091
  0
LINE
  5
233
  8
0
  6
CONTINUOUS
 62
     7
 10
172.19056581301379
 20
153.43193170853891
 30
0.0
 11
158.46318524492619
 21
154.1513532394855
 31
0.0
  0
ARC
  5
234
  8
0
  6
CONTINUOUS
 62
     7
 10
172.0178571574121
 20
150.13645424384879
 30
0.0
 40
3.3000000000000109
 50
0.0
 51
86.999999999999844
  0
LINE
  5
235
  8
0
  6
CONTINUOUS
 62
     7
 10
175.31785715741211
 20
140.14920226386801
 30
0.0
 11
175.31785715741211
 21
150.13645424384879
 31
0.0
  0
POLYLINE
  5
236
  8
0
  6
CONTINUOUS
 62
     7
 66
     1
 10
0.0
 20
0.0
 30
0.0
 70
   128
  0
VERTEX
  5
558
  8
0
  6
CONTINUOUS
 62
     7
 10
174.06785715741211
 20
138.89907715609161
 30
0.0
  0
VERTEX
  5
559
  8
0
  6
CONTINUOUS
 62
     7
 10
174.71548248742059
 20
139.54677879799641
 30
0.0
  0
VERTEX
  5
55A
  8
0
  6
CONTINUOUS
 62
     7
 10
175.31785715741211
 20
140.14920226386801
 30
0.0
  0
SEQEND
  5
55B
  8
0
  6
CONTINUOUS
 62
     7
  0
LINE
  5
237
  8
0
  6
CONTINUOUS
 62
     7
 10
174.06785715741211
 20
150.18390247218451
 30
0.0
 11
174.06785715741211
 21
138.89907715609161
 31
0.0
  0
LINE
  5
238
  8
0
  6
CONTINUOUS
 62
     7
 10
174.06785715741211
 20
133.3998777782509
 30
0.0
 11
174.06785715741211
 21
126.14947746717129
 31
0.0
  0
LINE
  5
239
  8
0
  6
CONTINUOUS
 62
     7
 10
175.31785715741211
 20
132.14975267047461
 30
0.0
 11
174.06785715741211
 21
133.3998777782509
 31
0.0
  0
LINE
  5
23A
  8
0
  6
CONTINUOUS
 62
     7
 10
175.31785715741211
 20
126.14947746717129
 30
0.0
 11
175.31785715741211
 21
132.14975267047461
 31
0.0
  0
LINE
  5
23B
  8
0
  6
CONTINUOUS
 62
     7
 10
175.31785715741211
 20
126.14947746717129
 30
0.0
 11
174.06785715741211
 21
126.14947746717129
 31
0.0
  0
LINE
  5
23C
  8
0
  6
CONTINUOUS
 62
     7
 10
174.06785715741211
 20
133.3998777782509
 30
0.0
 11
174.06785715741211
 21
138.89907715609161
 31
0.0
  0
LINE
  5
23D
  8
0
  6
CONTINUOUS
 62
     7
 10
175.31785715741211
 20
132.14975267047461
 30
0.0
 11
175.31785715741211
 21
140.14920226386801
 31
0.0
  0
POLYLINE
  5
23E
  8
0
  6
CONTINUOUS
 62
     7
 66
     1
 10
0.0
 20
0.0
 30
0.0
 70
   128
  0
VERTEX
  5
55C
  8
0
  6
CONTINUOUS
 62
     7
 10
174.06785715741211
 20
198.89907715609161
 30
0.0
  0
VERTEX
  5
55D
  8
0
  6
CONTINUOUS
 62
     7
 10
174.7154824874207
 20
199.5467787979965
 30
0.0
  0
VERTEX
  5
55E
  8
0
  6
CONTINUOUS
 62
     7
 10
175.31785715741211
 20
200.14920226386801
 30
0.0
  0
SEQEND
  5
55F
  8
0
  6
CONTINUOUS
 62
     7
  0
LINE
  5
23F
  8
0
  6
CONTINUOUS
 62
     7
 10
175.31785715741211
 20
192.14975267047461
 30
0.0
 11
175.31785715741211
 21
200.14920226386801
 31
0.0
  0
LINE
  5
240
  8
0
  6
CONTINUOUS
 62
     7
 10
174.06785715741211
 20
193.39987777825101
 30
0.0
 11
174.06785715741211
 21
198.89907715609161
 31
0.0
  0
LINE
  5
241
  8
0
  6
CONTINUOUS
 62
     7
 10
174.06785715741211
 20
206.14947746717129
 30
0.0
 11
175.31785715741211
 21
206.14947746717129
 31
0.0
  0
LINE
  5
242
  8
0
  6
CONTINUOUS
 62
     7
 10
175.31785715741211
 20
200.14920226386801
 30
0.0
 11
175.31785715741211
 21
206.14947746717129
 31
0.0
  0
LINE
  5
243
  8
0
  6
CONTINUOUS
 62
     7
 10
174.06785715741211
 20
206.14947746717129
 30
0.0
 11
174.06785715741211
 21
198.89907715609161
 31
0.0
  0
LINE
  5
244
  8
0
  6
CONTINUOUS
 62
     7
 10
175.31785715741211
 20
182.1625006904938
 30
0.0
 11
175.31785715741211
 21
150.13645424384879
 31
0.0
  0
INSERT
  5
245
  8
0
  6
CONTINUOUS
 62
     7
  2
*X101
 10
0.0
 20
0.0
 30
0.0
1001
ACAD
1000
HATCH
1002
{
1070
    19
1000
ANSI31
1040
1.0
1040
0.0
1000
R14_HATCH_DATA
1000
245
1011
1.0
1021
0.0
1031
0.0
1021
0.0
1031
0.0
1011
0.0
1021
0.0
1031
0.0
1021
1.0
1031
0.0
1011
0.0
1021
0.0
1031
0.0
1021
0.0
1031
1.0
1040
0.0
1010
0.0
1020
0.0
1030
1.0
1000
ANSI31
1070
     0
1070
     0
1071
        1
1071
        0
1071
        4
1070
     4
1070
     3
1070
     1
1070
     0
1071
       11
1071
        7
1040
0.0163767726241785
1040
0.0163767726241785
1040
0.0163767726241785
1040
0.0163767726241785
1040
0.0172966615236466
1040
0.0172966615236466
1040
0.0172966615236466
1040
0.0181522604981351
1040
0.0181522604981351
1040
0.0181522604981351
1040
0.0181522604981351
1040
174.06785715741211
1040
198.89907715609161
1040
1.0
1040
174.28372927157969
1040
199.1149806988339
1040
1.0
1040
174.4996049527135
1040
199.33088067514069
1040
1.0
1040
174.7154824874207
1040
199.5467787979965
1040
1.0
1040
174.91627260203359
1040
199.74758806187739
1040
1.0
1040
175.1170643758856
1040
199.94839566668179
1040
1.0
1040
175.31785715741211
1040
200.14920226386801
1040
1.0
1070
     1
1040
175.31785715741211
1040
200.14920226386801
1040
175.31785715741211
1040
206.14947746717129
1070
     1
1040
175.31785715741211
1040
206.14947746717129
1040
174.06785715741211
1040
206.14947746717129
1070
     1
1040
174.06785715741211
1040
206.14947746717129
1040
174.06785715741211
1040
198.89907715609161
1071
        0
1070
     0
1070
     1
1040
0.0
1040
1.0
1070
     0
1070
     1
1040
0.7853981633974483
1040
0.0
1040
0.0
1040
-2.2450640302672871
1040
2.245064030267288
1070
     0
1071
        1
1040
0.0
1040
0.0
1040
0.0
1002
}
  0
INSERT
  5
246
  8
0
  6
CONTINUOUS
 62
     7
  2
*X102
 10
0.0
 20
0.0
 30
0.0
1001
ACAD
1000
HATCH
1002
{
1070
    19
1000
ANSI31
1040
1.0
1040
0.0
1000
R14_HATCH_DATA
1000
246
1011
1.0
1021
0.0
1031
0.0
1021
0.0
1031
0.0
1011
0.0
1021
0.0
1031
0.0
1021
1.0
1031
0.0
1011
0.0
1021
0.0
1031
0.0
1021
0.0
1031
1.0
1040
0.0
1010
0.0
1020
0.0
1030
1.0
1000
ANSI31
1070
     0
1070
     0
1071
        1
1071
        0
1071
       20
1070
     1
1040
174.06785715741211
1040
150.18390247218451
1040
174.06785715741211
1040
138.89907715609161
1070
     4
1070
     3
1070
     1
1070
     0
1071
       11
1071
        7
1040
0.0163767726241785
1040
0.0163767726241785
1040
0.0163767726241785
1040
0.0163767726241785
1040
0.0172966615236466
1040
0.0172966615236466
1040
0.0172966615236466
1040
0.0181522604981351
1040
0.0181522604981351
1040
0.0181522604981351
1040
0.0181522604981351
1040
174.06785715741211
1040
138.89907715609161
1040
1.0
1040
174.28372927157969
1040
139.1149806988339
1040
1.0
1040
174.4996049527135
1040
139.33088067514061
1040
1.0
1040
174.71548248742059
1040
139.54677879799641
1040
1.0
1040
174.91627260203359
1040
139.74758806187731
1040
1.0
1040
175.1170643758856
1040
139.94839566668179
1040
1.0
1040
175.31785715741211
1040
140.14920226386801
1040
1.0
1070
     1
1040
175.31785715741211
1040
140.14920226386801
1040
175.31785715741211
1040
150.13645424384879
1070
     2
1040
172.0178571574121
1040
150.13645424384879
1040
3.2999999999999989
1040
0.0
1040
1.518436449235063
1070
     1
1070
     1
1040
172.19056581301379
1040
153.43193170853891
1040
158.46318524492619
1040
154.1513532394855
1070
     2
1040
158.56785715741211
1040
156.1486123089947
1040
2.0
1040
1.6231562043547241
1040
3.1415926535897931
1070
     0
1070
     1
1040
156.56785715741211
1040
156.1486123089947
1040
156.56785715741211
1040
176.15034262534789
1070
     2
1040
158.56785715741211
1040
176.15034262534789
1040
2.0
1040
3.1415926535897931
1040
4.6600291028248764
1070
     0
1070
     1
1040
158.46318524492619
1040
178.14760169485709
1040
172.19056581301379
1040
178.86702322580371
1070
     2
1040
172.0178571574121
1040
182.1625006904938
1040
3.2999999999999989
1040
4.7647488579445358
1040
6.2831853071796004
1070
     1
1070
     1
1040
175.31785715741211
1040
182.1625006904938
1040
175.31785715741211
1040
192.14975267047461
1070
     4
1070
     3
1070
     1
1070
     0
1071
        8
1071
        4
1040
0.0068709790660718
1040
0.0068709790660718
1040
0.0068709790660718
1040
0.0068709790660718
1040
0.0086388344857346
1040
0.0086388344857346
1040
0.0086388344857346
1040
0.0086388344857346
1040
175.31785715741211
1040
192.14975267047461
1040
1.0
1040
174.90118397389
1040
192.56645452342821
1040
1.0
1040
174.4845143444706
1040
192.98315993054831
1040
1.0
1040
174.06785715741211
1040
193.39987777825101
1040
1.0
1070
     1
1040
174.06785715741211
1040
193.39987777825101
1040
174.06785715741211
1040
182.1150524621581
1070
     2
1040
172.06785715741211
1040
182.1150524621581
1040
2.0
1040
0.0
1040
1.5184364492350679
1070
     0
1070
     1
1040
172.17252906989799
1040
180.11779339264891
1040
158.44514850181031
1040
179.39837186170229
1070
     2
1040
158.61785715741209
1040
176.10289439701219
1040
3.2999999999999989
1040
1.6231562043547381
1040
3.1415926535897931
1070
     1
1070
     1
1040
155.31785715741211
1040
176.10289439701219
1040
155.31785715741211
1040
156.1960605373304
1070
     2
1040
158.61785715741209
1040
156.1960605373304
1040
3.2999999999999989
1040
3.1415926535897931
1040
4.6600291028248622
1070
     1
1070
     1
1040
158.44514850181031
1040
152.9005830726403
1040
172.17252906989799
1040
152.1811615416936
1070
     2
1040
172.06785715741211
1040
150.18390247218451
1040
2.0
1040
4.7647488579445323
1040
6.2831853071796004
1070
     0
1071
        0
1070
     0
1070
     1
1040
0.0
1040
1.0
1070
     0
1070
     1
1040
0.7853981633974483
1040
0.0
1040
0.0
1040
-2.2450640302672871
1040
2.245064030267288
1070
     0
1071
        1
1040
0.0
1040
0.0
1040
0.0
1002
}
  0
INSERT
  5
247
  8
0
  6
CONTINUOUS
 62
     7
  2
*X103
 10
0.0
 20
0.0
 30
0.0
1001
ACAD
1000
HATCH
1002
{
1070
    19
1000
ANSI31
1040
1.0
1040
0.0
1000
R14_HATCH_DATA
1000
247
1011
1.0
1021
0.0
1031
0.0
1021
0.0
1031
0.0
1011
0.0
1021
0.0
1031
0.0
1021
1.0
1031
0.0
1011
0.0
1021
0.0
1031
0.0
1021
0.0
1031
1.0
1040
0.0
1010
0.0
1020
0.0
1030
1.0
1000
ANSI31
1070
     0
1070
     0
1071
        1
1071
        0
1071
        4
1070
     1
1040
174.06785715741211
1040
126.14947746717129
1040
175.31785715741211
1040
126.14947746717129
1070
     1
1040
175.31785715741211
1040
126.14947746717129
1040
175.31785715741211
1040
132.14975267047461
1070
     4
1070
     3
1070
     1
1070
     0
1071
        8
1071
        4
1040
0.0068709790660718
1040
0.0068709790660718
1040
0.0068709790660718
1040
0.0068709790660718
1040
0.0086388344857346
1040
0.0086388344857346
1040
0.0086388344857346
1040
0.0086388344857346
1040
175.31785715741211
1040
132.14975267047461
1040
1.0
1040
174.90118397389
1040
132.56645452342821
1040
1.0
1040
174.4845143444706
1040
132.98315993054831
1040
1.0
1040
174.06785715741211
1040
133.3998777782509
1040
1.0
1070
     1
1040
174.06785715741211
1040
133.3998777782509
1040
174.06785715741211
1040
126.14947746717129
1071
        0
1070
     0
1070
     1
1040
0.0
1040
1.0
1070
     0
1070
     1
1040
0.7853981633974483
1040
0.0
1040
0.0
1040
-2.2450640302672871
1040
2.245064030267288
1070
     0
1071
        1
1040
0.0
1040
0.0
1040
0.0
1002
}
  0
DIMENSION
  5
248
  8
LINIEN-DÜNN
  2
*D22
 10
141.3915817131832
 20
154.1513532394855
 30
0.0
 11
141.3915817131832
 21
166.14947746717129
 31
0.0
 70
   128
 13
158.46318524492619
 23
178.14760169485709
 33
0.0
 14
158.46318524492619
 24
154.1513532394855
 34
0.0
 50
90.000000000000185
  0
DIMENSION
  5
252
  8
LINIEN-DÜNN
  2
*D23
 10
149.9792249444576
 20
166.14947746717129
 30
0.0
 11
188.4775668524014
 21
172.93038025191709
 31
0.0
 70
   130
 13
158.46318524492619
 23
178.14760169485709
 33
0.0
 14
172.19056581301379
 24
178.86702322580371
 34
0.0
 15
180.27902276046331
 25
166.14947746717129
 35
0.0
 16
188.52688053381939
 26
170.67036622850429
 36
0.0
1001
ACAD
1000
DSTYLE
1002
{
1070
   271
1070
     2
1002
}
  0
DIMENSION
  5
25E
  8
LINIEN-DÜNN
  2
*D24
 10
172.06785715741211
 20
182.1150524621581
 30
0.0
 11
167.90109519025759
 21
186.28183442931251
 31
0.0
 70
   132
  1
<>
 15
173.4820707197851
 25
180.70083889978491
 35
0.0
 40
0.0
  0
DIMENSION
  5
267
  8
LINIEN-DÜNN
  2
*D25
 10
158.56785715741211
 20
156.1486123089947
 30
0.0
 11
162.56317047833051
 21
160.14392562991321
 31
0.0
 70
   132
  1
<>
 15
157.153643595039
 25
154.73439874662151
 35
0.0
 40
0.0
  0
INSERT
  5
270
  8
0
  2
*U109
 10
0.0
 20
0.0
 30
0.0
  0
LINE
  5
271
  8
LINIEN-DÜNN
  6
CENTERX2
 10
180.27902276046331
 20
166.14947746717129
 30
0.0
 11
149.9792249444576
 21
166.14947746717129
 31
0.0
  0
ENDSEC
  0
EOF
