  0
SECTION
  2
HEADER
  9
$ACADVER
  1
AC1015
  9
$ACADMAINTVER
 70
    14
  9
$DWGCODEPAGE
  3
ANSI_1252
  9
$INSBASE
 10
0.0
 20
0.0
 30
0.0
  9
$EXTMIN
 10
23.86388881343327
 20
12.11936650530083
 30
0.0
  9
$EXTMAX
 10
1465.233889574188
 20
916.2021110051082
 30
0.0
  9
$LIMMIN
 10
0.0
 20
0.0
  9
$LIMMAX
 10
500.0
 20
600.0
  9
$ORTHOMODE
 70
     1
  9
$REGENMODE
 70
     1
  9
$FILLMODE
 70
     1
  9
$QTEXTMODE
 70
     0
  9
$MIRRTEXT
 70
     1
  9
$LTSCALE
 40
10.0
  9
$ATTMODE
 70
     1
  9
$TEXTSIZE
 40
0.2
  9
$TRACEWID
 40
0.05
  9
$TEXTSTYLE
  7
PASSDIN
  9
$CLAYER
  8
BEMASSUNG
  9
$CELTYPE
  6
CONTINUOUS
  9
$CECOLOR
 62
   256
  9
$CELTSCALE
 40
1.0
  9
$DISPSILH
 70
     0
  9
$DIMSCALE
 40
1.8
  9
$DIMASZ
 40
4.0
  9
$DIMEXO
 40
0.5
  9
$DIMDLI
 40
0.0
  9
$DIMRND
 40
0.0
  9
$DIMDLE
 40
0.0
  9
$DIMEXE
 40
1.0
  9
$DIMTP
 40
0.0
  9
$DIMTM
 40
0.0
  9
$DIMTXT
 40
4.5
  9
$DIMCEN
 40
1.0
  9
$DIMTSZ
 40
0.0
  9
$DIMTOL
 70
     0
  9
$DIMLIM
 70
     0
  9
$DIMTIH
 70
     0
  9
$DIMTOH
 70
     0
  9
$DIMSE1
 70
     0
  9
$DIMSE2
 70
     0
  9
$DIMTAD
 70
     1
  9
$DIMZIN
 70
     8
  9
$DIMBLK
  1

  9
$DIMASO
 70
     1
  9
$DIMSHO
 70
     1
  9
$DIMPOST
  1

  9
$DIMAPOST
  1

  9
$DIMALT
 70
     0
  9
$DIMALTD
 70
     2
  9
$DIMALTF
 40
25.4
  9
$DIMLFAC
 40
1.0
  9
$DIMTOFL
 70
     1
  9
$DIMTVP
 40
0.0
  9
$DIMTIX
 70
     0
  9
$DIMSOXD
 70
     0
  9
$DIMSAH
 70
     0
  9
$DIMBLK1
  1

  9
$DIMBLK2
  1

  9
$DIMSTYLE
  2
EXTERN-FUER-KUNDE
  9
$DIMCLRD
 70
   256
  9
$DIMCLRE
 70
   256
  9
$DIMCLRT
 70
     3
  9
$DIMTFAC
 40
1.0
  9
$DIMGAP
 40
1.5
  9
$DIMJUST
 70
     0
  9
$DIMSD1
 70
     0
  9
$DIMSD2
 70
     0
  9
$DIMTOLJ
 70
     1
  9
$DIMTZIN
 70
     8
  9
$DIMALTZ
 70
     0
  9
$DIMALTTZ
 70
     0
  9
$DIMUPT
 70
     0
  9
$DIMDEC
 70
     2
  9
$DIMTDEC
 70
     2
  9
$DIMALTU
 70
     2
  9
$DIMALTTD
 70
     2
  9
$DIMTXSTY
  7
NORM
  9
$DIMAUNIT
 70
     0
  9
$DIMADEC
 70
     0
  9
$DIMALTRND
 40
0.0
  9
$DIMAZIN
 70
     0
  9
$DIMDSEP
 70
    46
  9
$DIMATFIT
 70
     3
  9
$DIMFRAC
 70
     0
  9
$DIMLDRBLK
  1

  9
$DIMLUNIT
 70
     2
  9
$DIMLWD
 70
    -2
  9
$DIMLWE
 70
    -2
  9
$DIMTMOVE
 70
     2
  9
$LUNITS
 70
     2
  9
$LUPREC
 70
     2
  9
$SKETCHINC
 40
0.1
  9
$FILLETRAD
 40
0.0
  9
$AUNITS
 70
     1
  9
$AUPREC
 70
     4
  9
$MENU
  1
CADIM
  9
$ELEVATION
 40
0.0
  9
$PELEVATION
 40
0.0
  9
$THICKNESS
 40
0.0
  9
$LIMCHECK
 70
     0
  9
$CHAMFERA
 40
0.0
  9
$CHAMFERB
 40
0.0
  9
$CHAMFERC
 40
0.0
  9
$CHAMFERD
 40
0.0
  9
$SKPOLY
 70
     0
  9
$TDCREATE
 40
2451001.503576851
  9
$TDUCREATE
 40
2451001.461910185
  9
$TDUPDATE
 40
2452433.544469039
  9
$TDUUPDATE
 40
2452433.502802373
  9
$TDINDWG
 40
0.1376458102
  9
$TDUSRTIMER
 40
0.1376458102
  9
$USRTIMER
 70
     1
  9
$ANGBASE
 50
0.0
  9
$ANGDIR
 70
     0
  9
$PDMODE
 70
     0
  9
$PDSIZE
 40
0.0
  9
$PLINEWID
 40
0.0
  9
$SPLFRAME
 70
     0
  9
$SPLINETYPE
 70
     6
  9
$SPLINESEGS
 70
     8
  9
$HANDSEED
  5
1FE
  9
$SURFTAB1
 70
     6
  9
$SURFTAB2
 70
     6
  9
$SURFTYPE
 70
     6
  9
$SURFU
 70
     6
  9
$SURFV
 70
     6
  9
$UCSBASE
  2

  9
$UCSNAME
  2

  9
$UCSORG
 10
0.0
 20
0.0
 30
0.0
  9
$UCSXDIR
 10
1.0
 20
0.0
 30
0.0
  9
$UCSYDIR
 10
0.0
 20
1.0
 30
0.0
  9
$UCSORTHOREF
  2

  9
$UCSORTHOVIEW
 70
     0
  9
$UCSORGTOP
 10
0.0
 20
0.0
 30
0.0
  9
$UCSORGBOTTOM
 10
0.0
 20
0.0
 30
0.0
  9
$UCSORGLEFT
 10
0.0
 20
0.0
 30
0.0
  9
$UCSORGRIGHT
 10
0.0
 20
0.0
 30
0.0
  9
$UCSORGFRONT
 10
0.0
 20
0.0
 30
0.0
  9
$UCSORGBACK
 10
0.0
 20
0.0
 30
0.0
  9
$PUCSBASE
  2

  9
$PUCSNAME
  2

  9
$PUCSORG
 10
0.0
 20
0.0
 30
0.0
  9
$PUCSXDIR
 10
1.0
 20
0.0
 30
0.0
  9
$PUCSYDIR
 10
0.0
 20
1.0
 30
0.0
  9
$PUCSORTHOREF
  2

  9
$PUCSORTHOVIEW
 70
     0
  9
$PUCSORGTOP
 10
0.0
 20
0.0
 30
0.0
  9
$PUCSORGBOTTOM
 10
0.0
 20
0.0
 30
0.0
  9
$PUCSORGLEFT
 10
0.0
 20
0.0
 30
0.0
  9
$PUCSORGRIGHT
 10
0.0
 20
0.0
 30
0.0
  9
$PUCSORGFRONT
 10
0.0
 20
0.0
 30
0.0
  9
$PUCSORGBACK
 10
0.0
 20
0.0
 30
0.0
  9
$USERI1
 70
     0
  9
$USERI2
 70
     0
  9
$USERI3
 70
     0
  9
$USERI4
 70
     0
  9
$USERI5
 70
     0
  9
$USERR1
 40
0.0
  9
$USERR2
 40
0.0
  9
$USERR3
 40
0.0
  9
$USERR4
 40
0.0
  9
$USERR5
 40
0.0
  9
$WORLDVIEW
 70
     1
  9
$SHADEDGE
 70
     3
  9
$SHADEDIF
 70
    70
  9
$TILEMODE
 70
     1
  9
$MAXACTVP
 70
    16
  9
$PINSBASE
 10
0.0
 20
0.0
 30
0.0
  9
$PLIMCHECK
 70
     0
  9
$PEXTMIN
 10
-7.427996568890034
 20
0.0
 30
0.0
  9
$PEXTMAX
 10
1189.0
 20
841.0
 30
0.0
  9
$PLIMMIN
 10
0.0
 20
0.0
  9
$PLIMMAX
 10
1189.0
 20
841.0
  9
$UNITMODE
 70
     0
  9
$VISRETAIN
 70
     0
  9
$PLINEGEN
 70
     0
  9
$PSLTSCALE
 70
     1
  9
$TREEDEPTH
 70
  3020
  9
$CMLSTYLE
  2
STANDARD
  9
$CMLJUST
 70
     0
  9
$CMLSCALE
 40
1.0
  9
$PROXYGRAPHICS
 70
     1
  9
$MEASUREMENT
 70
     0
  9
$CELWEIGHT
370
    -1
  9
$ENDCAPS
280
     0
  9
$JOINSTYLE
280
     0
  9
$LWDISPLAY
290
     0
  9
$INSUNITS
 70
     0
  9
$HYPERLINKBASE
  1

  9
$STYLESHEET
  1

  9
$XEDIT
290
     1
  9
$CEPSNTYPE
380
     0
  9
$PSTYLEMODE
290
     1
  9
$FINGERPRINTGUID
  2
{BBF57B4C-0DC1-473F-8A41-7454C26AE28F}
  9
$VERSIONGUID
  2
{FA58E27E-D1D8-4CDF-87A5-9DF79DCC95C1}
  9
$EXTNAMES
290
     1
  9
$PSVPSCALE
 40
0.0
  9
$OLESTARTUP
290
     0
  0
ENDSEC
  0
SECTION
  2
CLASSES
  0
CLASS
  1
DICTIONARYVAR
  2
AcDbDictionaryVar
  3
AutoCAD 2000
 90
        0
280
     0
281
     0
  0
CLASS
  1
LWPOLYLINE
  2
AcDbPolyline
  3
AutoCAD 2000
 90
    32768
280
     0
281
     1
  0
CLASS
  1
XRECORD
  2
AcDbXrecord
  3
AutoCAD 2000
 90
    32768
280
     0
281
     0
  0
CLASS
  1
ACDBDICTIONARYWDFLT
  2
AcDbDictionaryWithDefault
  3
AutoCAD 2000
 90
        0
280
     0
281
     0
  0
CLASS
  1
ACDBPLACEHOLDER
  2
AcDbPlaceHolder
  3
AutoCAD 2000
 90
        0
280
     0
281
     0
  0
CLASS
  1
LAYOUT
  2
AcDbLayout
  3
AutoCAD 2000
 90
        0
280
     0
281
     0
  0
CLASS
  1
VLO-VL
  2
vlo_VL
  3
VL|AutoLISP based application
 90
    32768
280
     0
281
     0
  0
CLASS
  1
ACME_DOCUMENT
  2
AcMeDbDoc
  3
AcMeServices
 90
    32768
280
     0
281
     0
  0
CLASS
  1
AMGSETTINGSOBJ
  2
AmgSettingsObj
  3
"AcadM|Product Description: AutoCAD Mechanical 2000|Company: Autodesk"
 90
        0
280
     0
281
     0
  0
CLASS
  1
ACMESCOPE
  2
AcMeScope
  3
AcMeServices
 90
        0
280
     0
281
     0
  0
CLASS
  1
ACMECOMMANDHISTORY
  2
AcMeCommandHistory
  3
AcMeServices
 90
    32768
280
     0
281
     0
  0
CLASS
  1
ACIMSYSVARMAN
  2
AcImSysVarManager
  3
AcMeServices
 90
        0
280
     0
281
     0
  0
CLASS
  1
ACIMREALSYSVAR
  2
AcImRealSysVar
  3
AcMeServices
 90
    32768
280
     0
281
     0
  0
CLASS
  1
ACIMINTSYSVAR
  2
AcImIntSysVar
  3
AcMeServices
 90
    32768
280
     0
281
     0
  0
CLASS
  1
ACMEDRAWINGMAN
  2
AcMeDrawingMan
  3
AcMeServices
 90
    32768
280
     0
281
     0
  0
CLASS
  1
ACMEVIEW
  2
AcMeView
  3
AcMeServices
 90
    32768
280
     0
281
     0
  0
CLASS
  1
ACDBENTITYCACHE
  2
AcMeEntityCache
  3
AcMeServices
 90
    32768
280
     0
281
     0
  0
CLASS
  1
GSMANAGER
  2
AcMeGSManager
  3
AcMeServices
 90
    32768
280
     0
281
     0
  0
CLASS
  1
AMDTINTERNALREACTOR
  2
AmdtInternalReactor
  3
AcMeServices
 90
    32768
280
     0
281
     0
  0
CLASS
  1
ACMESTATEMGR
  2
AcMeStateMgr
  3
AcMeServices
 90
        0
280
     0
281
     0
  0
CLASS
  1
ACGREFMASTER
  2
AcGrefMaster
  3
AcAttribServices
 90
        0
280
     0
281
     0
  0
CLASS
  1
ACME_DATABASE
  2
AcMeDbDatabase
  3
AcMeServices
 90
    32768
280
     0
281
     0
  0
CLASS
  1
ACRFINSADJUSTERMGR
  2
AcRfInsAdjusterMgr
  3
AcMeServices
 90
    32768
280
     0
281
     0
  0
CLASS
  1
ACGREFACADMASTER
  2
AcGrefacadMaster
  3
AcGrefServices
 90
    32768
280
     0
281
     0
  0
CLASS
  1
AMIMASTER
  2
AmiMaster
  3
AmiServices
 90
    32768
280
     0
281
     0
  0
CLASS
  1
ACMDATADICTIONARY
  2
AcmDataDictionary
  3
"AcmSymBB|Product Description: AutoCAD Mechanical 2000|Company: Autodesk"
 90
    32768
280
     0
281
     0
  0
CLASS
  1
ACMDATAENTRYBLOCK
  2
AcmDataEntryBlock
  3
"AcmSymBB|Product Description: AutoCAD Mechanical 2000|Company: Autodesk"
 90
    32768
280
     0
281
     0
  0
CLASS
  1
ACIMSTRSYSVAR
  2
AcImStrSysVar
  3
AcMeServices
 90
        0
280
     0
281
     0
  0
CLASS
  1
ACMSTANDARDANSI
  2
AcmStandardANSI
  3
"Amdt_StdImp|Product Description: AutoCAD Mechanical 2000|Company: Autodesk"
 90
        0
280
     0
281
     0
  0
CLASS
  1
AMGOBJPROPCFG
  2
AmgObjPropCfg
  3
"AmgLay|Product Description: AutoCAD Mechanical 2000|Company: Autodesk"
 90
        1
280
     0
281
     0
  0
CLASS
  1
ACMSURFSTANDARDANSI
  2
AcmSurfTextStdANSI
  3
"Amdt_StdImp|Product Description: AutoCAD Mechanical 2000|Company: Autodesk"
 90
        0
280
     0
281
     0
  0
CLASS
  1
ACMFCFSTANDARDANSI
  2
AcmFCFStdANSI
  3
"Amdt_StdImp|Product Description: AutoCAD Mechanical 2000|Company: Autodesk"
 90
        0
280
     0
281
     0
  0
CLASS
  1
ACMWELDSTANDARDANSI
  2
AcmWeldingStdANSI
  3
"Amdt_StdImp|Product Description: AutoCAD Mechanical 2000|Company: Autodesk"
 90
        0
280
     0
281
     0
  0
CLASS
  1
ACMIDSTANDARDANSI
  2
AcmIdStdANSI
  3
"Amdt_StdImp|Product Description: AutoCAD Mechanical 2000|Company: Autodesk"
 90
        0
280
     0
281
     0
  0
CLASS
  1
ACMDATUMSTANDARDANSI
  2
AcmDatumStdANSI
  3
"Amdt_StdImp|Product Description: AutoCAD Mechanical 2000|Company: Autodesk"
 90
        0
280
     0
281
     0
  0
CLASS
  1
ACMBOMSTANDARDANSI
  2
AcmBOMStdANSI
  3
"Amdt_StdImp|Product Description: AutoCAD Mechanical 2000|Company: Autodesk"
 90
        0
280
     0
281
     0
  0
CLASS
  1
ACMDETAILSTANDARDANSI
  2
AmdtDetailSymStdANSI
  3
"Amdt_StdImp|Product Description: AutoCAD Mechanical 2000|Company: Autodesk"
 90
        0
280
     0
281
     0
  0
CLASS
  1
ACMSECTIONSTANDARDANSI
  2
AmdtSectionSymStdANSI
  3
"Amdt_StdImp|Product Description: AutoCAD Mechanical 2000|Company: Autodesk"
 90
        0
280
     0
281
     0
  0
CLASS
  1
ACMCENTERLINESTANDARDANSI
  2
AmdtCenterLineStdANSI
  3
"Amdt_StdImp|Product Description: AutoCAD Mechanical 2000|Company: Autodesk"
 90
        0
280
     0
281
     0
  0
CLASS
  1
ACMNOTESTANDARDANSI
  2
AmdtNoteStdANSI
  3
"Amdt_StdImp|Product Description: AutoCAD Mechanical 2000|Company: Autodesk"
 90
        0
280
     0
281
     0
  0
CLASS
  1
ACAMGLAYSTD
  2
AcAmgLayStd
  3
"AcAmgLayStd|Product Description: AutoCAD Mechanical 2000|Company: Autodesk"
 90
        0
280
     0
281
     0
  0
CLASS
  1
ACAMGDIMSTD
  2
AcAmgDimStd
  3
"AcAmgDimStd|Product Description: AutoCAD Mechanical 2000|Company: Autodesk"
 90
        0
280
     0
281
     0
  0
CLASS
  1
ACAMGHOLECHARTSTDANSI
  2
AcAmgHoleChartStdANSI
  3
ACMSYMBB_MODULE_NAME
 90
        0
280
     0
281
     0
  0
CLASS
  1
ACAMGTITLESTD
  2
AcAmgTitleStd
  3
"TITLEAPP"
 90
        0
280
     0
281
     0
  0
CLASS
  1
ACAMGFILTERDAT
  2
AcAmgFilterDat
  3
"AcadM|Product Description: AutoCAD Mechanical 2000|Company: Autodesk"
 90
    32768
280
     0
281
     0
  0
ENDSEC
  0
SECTION
  2
TABLES
  0
TABLE
  2
VPORT
  5
19
330
0
100
AcDbSymbolTable
 70
     1
  0
VPORT
  5
1A
330
19
100
AcDbSymbolTableRecord
100
AcDbViewportTableRecord
  2
*Active
 70
     0
 10
0.0
 20
0.0
 11
1.0
 21
1.0
 12
812.5482489282838
 22
655.5815804260603
 13
0.0
 23
0.0
 14
2.0
 24
2.0
 15
20.0
 25
20.0
 16
0.0
 26
0.0
 36
1.0
 17
0.0
 27
0.0
 37
0.0
 40
641.6275183738226
 41
1.712406015037594
 42
50.0
 43
0.0
 44
0.0
 50
0.0
 51
0.0
 71
     0
 72
  5000
 73
     1
 74
     0
 75
     0
 76
     1
 77
     0
 78
     0
281
     0
 65
     1
110
0.0
120
0.0
130
0.0
111
1.0
121
0.0
131
0.0
112
0.0
122
1.0
132
0.0
 79
     0
146
0.0
  0
ENDTAB
  0
TABLE
  2
LTYPE
  5
14
330
0
100
AcDbSymbolTable
 70
    12
  0
LTYPE
  5
15
330
14
100
AcDbSymbolTableRecord
100
AcDbLinetypeTableRecord
  2
BYBLOCK
 70
     0
  3

 72
    65
 73
     0
 40
0.0
  0
LTYPE
  5
16
330
14
100
AcDbSymbolTableRecord
100
AcDbLinetypeTableRecord
  2
BYLAYER
 70
     0
  3

 72
    65
 73
     0
 40
0.0
  0
LTYPE
  5
10
330
14
100
AcDbSymbolTableRecord
100
AcDbLinetypeTableRecord
  2
CONTINUOUS
 70
     0
  3
Durchgezogene Linie
 72
    65
 73
     0
 40
0.0
  0
LTYPE
  5
BE
330
14
100
AcDbSymbolTableRecord
100
AcDbLinetypeTableRecord
  2
VERDECKT
 70
     0
  3
__ __ __ __ __ __ __ __ __ __ __ __ __ __ __ __
 72
    65
 73
     2
 40
0.375
 49
0.25
 74
     0
 49
-0.125
 74
     0
  0
LTYPE
  5
2E
330
14
100
AcDbSymbolTableRecord
100
AcDbLinetypeTableRecord
  2
STRICHPUNKT
 70
     0
  3
__ . __ . __ . __ . __ . __ . __ . __ . __ . __
 72
    65
 73
     4
 40
1.0
 49
0.5
 74
     0
 49
-0.25
 74
     0
 49
0.0
 74
     0
 49
-0.25
 74
     0
  0
LTYPE
  5
1CE
330
14
100
AcDbSymbolTableRecord
100
AcDbLinetypeTableRecord
  2
Amconstr
 70
     0
  3
_______________________
 72
    65
 73
     2
 40
9999.0
 49
9999.0
 74
     0
 49
0.0
 74
     0
  0
LTYPE
  5
1CB
330
14
100
AcDbSymbolTableRecord
100
AcDbLinetypeTableRecord
  2
HIDDEN
 70
     0
  3
Hidden __ __ __ __ __ __ __ __ __ __ __ __ __ _
 72
    65
 73
     2
 40
0.375
 49
0.25
 74
     0
 49
-0.125
 74
     0
  0
LTYPE
  5
1CC
330
14
100
AcDbSymbolTableRecord
100
AcDbLinetypeTableRecord
  2
CENTER
 70
     0
  3
Center ____ _ ____ _ ____ _ ____ _ ____ _ ____
 72
    65
 73
     4
 40
2.0
 49
1.25
 74
     0
 49
-0.25
 74
     0
 49
0.25
 74
     0
 49
-0.25
 74
     0
  0
LTYPE
  5
1CD
330
14
100
AcDbSymbolTableRecord
100
AcDbLinetypeTableRecord
  2
PHANTOM2
 70
     0
  3
Phantom (.5x) ___ _ _ ___ _ _ ___ _ _ ___ _ _
 72
    65
 73
     6
 40
1.25
 49
0.625
 74
     0
 49
-0.125
 74
     0
 49
0.125
 74
     0
 49
-0.125
 74
     0
 49
0.125
 74
     0
 49
-0.125
 74
     0
  0
LTYPE
  5
1CF
330
14
100
AcDbSymbolTableRecord
100
AcDbLinetypeTableRecord
  2
CENTER2
 70
     0
  3
Center (.5x) ___ _ ___ _ ___ _ ___ _ ___ _ ___
 72
    65
 73
     4
 40
1.125
 49
0.75
 74
     0
 49
-0.125
 74
     0
 49
0.125
 74
     0
 49
-0.125
 74
     0
  0
LTYPE
  5
1D0
330
14
100
AcDbSymbolTableRecord
100
AcDbLinetypeTableRecord
  2
HIDDEN2
 70
     0
  3
Hidden (.5x) _ _ _ _ _ _ _ _ _ _ _ _ _ _ _ _ _
 72
    65
 73
     2
 40
0.1875
 49
0.125
 74
     0
 49
-0.0625
 74
     0
  0
LTYPE
  5
1D1
330
14
100
AcDbSymbolTableRecord
100
AcDbLinetypeTableRecord
  2
Amzigzag2
 70
     0
  3
/\/-/\/-/\/-/\/-/\/-/\/
 72
    65
 73
     2
 40
0.4401
 49
0.0001
 74
     4
 75
   135
340
1D2
 46
0.0016
 50
0.0
 44
0.0
 45
0.0
 49
-0.4400000000000001
 74
     0
  0
LTYPE
  5
1E3
330
14
100
AcDbSymbolTableRecord
100
AcDbLinetypeTableRecord
  2
ACANSTGB
 70
     0
  3
__ . . __ . .
 72
    65
 73
     6
 40
0.35433070866
 49
0.15748031496
 74
     0
 49
-0.03937007874
 74
     0
 49
0.03937007874
 74
     0
 49
-0.03937007874
 74
     0
 49
0.03937007874
 74
     0
 49
-0.03937007874
 74
     0
  0
LTYPE
  5
1E4
330
14
100
AcDbSymbolTableRecord
100
AcDbLinetypeTableRecord
  2
ACANSTGL
 70
     0
  3
_ _ _ _ _
 72
    65
 73
     2
 40
0.11811023622
 49
0.07874015748
 74
     0
 49
-0.03937007874
 74
     0
  0
ENDTAB
  0
TABLE
  2
LAYER
  5
C
330
0
100
AcDbSymbolTable
 70
     7
  0
LAYER
  5
D
330
C
100
AcDbSymbolTableRecord
100
AcDbLayerTableRecord
  2
0
 70
     0
 62
     7
  6
CONTINUOUS
370
    -3
390
E
  0
LAYER
  5
38
330
C
100
AcDbSymbolTableRecord
100
AcDbLayerTableRecord
  2
DEFPOINTS
 70
     0
 62
     7
  6
CONTINUOUS
290
     0
370
    -3
390
E
  0
LAYER
  5
C2
330
C
100
AcDbSymbolTableRecord
100
AcDbLayerTableRecord
  2
6
 70
     0
 62
     7
  6
CONTINUOUS
370
    -3
390
E
  0
LAYER
  5
BD
330
C
100
AcDbSymbolTableRecord
100
AcDbLayerTableRecord
  2
AVERDECKTE
 70
     0
 62
    12
  6
VERDECKT
370
    -3
390
E
  0
LAYER
  5
2D
330
C
100
AcDbSymbolTableRecord
100
AcDbLayerTableRecord
  2
ACHSEN
 70
     0
 62
    12
  6
STRICHPUNKT
370
    -3
390
E
  0
LAYER
  5
24
330
C
100
AcDbSymbolTableRecord
100
AcDbLayerTableRecord
  2
BEMASSUNG
 70
     0
 62
     2
  6
CONTINUOUS
370
    -3
390
E
  0
LAYER
  5
28
330
C
100
AcDbSymbolTableRecord
100
AcDbLayerTableRecord
  2
UMRISS05
 70
     0
 62
     4
  6
CONTINUOUS
370
    -3
390
E
  0
ENDTAB
  0
TABLE
  2
STYLE
  5
11
330
0
100
AcDbSymbolTable
 70
     6
  0
STYLE
  5
12
330
11
100
AcDbSymbolTableRecord
100
AcDbTextStyleTableRecord
  2
STANDARD
 70
     0
 40
0.0
 41
1.0
 50
0.0
 71
     0
 42
0.2
  3
txt
  4

  0
STYLE
  5
1F
330
11
100
AcDbSymbolTableRecord
100
AcDbTextStyleTableRecord
  2
NORM
 70
     0
 40
0.0
 41
1.0
 50
0.0
 71
     0
 42
2.399999999999999
  3
SIMPLEX
  4

  0
STYLE
  5
25
330
11
100
AcDbSymbolTableRecord
100
AcDbTextStyleTableRecord
  2
PASSDIN
 70
     0
 40
0.0
 41
1.0
 50
0.0
 71
     0
 42
0.2
  3
isocp.shx
  4

  0
STYLE
  5
1D2
330
11
100
AcDbSymbolTableRecord
100
AcDbTextStyleTableRecord
  2

 70
     1
 40
0.0
 41
1.0
 50
0.0
 71
     0
 42
0.2
  3
ltypeshp.shx
  4

  0
STYLE
  5
1DC
330
11
100
AcDbSymbolTableRecord
100
AcDbTextStyleTableRecord
  2
ACANSTS
 70
     0
 40
1.0
 41
1.0
 50
0.0
 71
     0
 42
0.2
  3
romans.shx
  4

  0
STYLE
  5
1DF
330
11
100
AcDbSymbolTableRecord
100
AcDbTextStyleTableRecord
  2
ACANSGDT
 70
     0
 40
0.0
 41
1.0
 50
0.0
 71
     0
 42
0.2
  3
amgdtans.shx
  4

  0
ENDTAB
  0
TABLE
  2
VIEW
  5
17
330
0
100
AcDbSymbolTable
 70
     0
  0
ENDTAB
  0
TABLE
  2
UCS
  5
18
330
0
100
AcDbSymbolTable
 70
     0
  0
ENDTAB
  0
TABLE
  2
APPID
  5
1B
330
0
100
AcDbSymbolTable
 70
     1
  0
APPID
  5
1C
330
1B
100
AcDbSymbolTableRecord
100
AcDbRegAppTableRecord
  2
ACAD
 70
     0
  0
ENDTAB
  0
TABLE
  2
DIMSTYLE
  5
1D
330
0
100
AcDbSymbolTable
 70
     7
100
AcDbDimStyleTable
 71
     1
340
1E
  0
DIMSTYLE
105
1E
102
{ACAD_REACTORS
330
166
330
2F
330
D8
330
68
330
4A
330
AB
330
17B
330
3D
330
84
330
9E
330
C6
330
E6
330
91
330
18B
330
11B
330
128
330
10C
330
75
330
135
330
57
102
}
330
1D
100
AcDbSymbolTableRecord
100
AcDbDimStyleTableRecord
  2
EXTERN-FUER-KUNDE
 70
     0
 40
1.8
 41
4.0
 42
0.5
 43
0.0
 44
1.0
 73
     0
 74
     0
 77
     1
 78
     8
140
4.5
141
1.0
147
1.5
172
     1
176
   256
177
   256
178
     3
271
     2
272
     2
279
     2
284
     8
340
1F
  0
DIMSTYLE
105
1EC
330
1D
100
AcDbSymbolTableRecord
100
AcDbDimStyleTableRecord
  2
AM_ANSI
 70
     0
  4
mm
 41
0.1
 42
0.05
 43
0.5
 44
0.1
 47
0.1
 48
0.1
 78
     7
 79
     2
140
0.12
141
0.0
146
0.71
147
0.06
176
   256
177
   256
178
     2
274
     4
284
     7
340
12
371
    -1
372
    -1
  0
DIMSTYLE
105
1ED
330
1D
100
AcDbSymbolTableRecord
100
AcDbDimStyleTableRecord
  2
AM_ANSI$3
 70
     0
  4
mm
 41
0.1
 42
0.05
 43
0.5
 44
0.1
 47
0.1
 48
0.1
 78
     7
 79
     2
140
0.12
141
0.0
146
0.71
147
0.06
176
   256
177
   256
178
     2
274
     4
284
     7
288
     1
289
     0
340
12
371
    -1
372
    -1
  0
DIMSTYLE
105
1EE
330
1D
100
AcDbSymbolTableRecord
100
AcDbDimStyleTableRecord
  2
AM_ANSI$4
 70
     0
  4
mm
 41
0.1
 42
0.05
 43
0.5
 44
0.1
 47
0.1
 48
0.1
 78
     7
 79
     2
140
0.12
141
0.0
146
0.71
147
0.06
176
   256
177
   256
178
     2
274
     4
284
     7
288
     1
289
     0
340
12
371
    -1
372
    -1
  0
DIMSTYLE
105
1EF
330
1D
100
AcDbSymbolTableRecord
100
AcDbDimStyleTableRecord
  2
AM_ANSI$7
 70
     0
  4
mm
 41
0.1
 42
0.05
 43
0.5
 44
0.1
 47
0.1
 48
0.1
 78
     7
 79
     2
140
0.24
141
0.0
146
0.71
147
0.06
176
   256
177
   256
178
     2
274
     4
284
     7
340
12
371
    -1
372
    -1
  0
DIMSTYLE
105
1F0
330
1D
100
AcDbSymbolTableRecord
100
AcDbDimStyleTableRecord
  2
AM_ANSI$SF
 70
     0
  4
mm
 41
0.1
 42
0.05
 43
0.5
 44
0.1
 47
0.1
 48
0.1
 75
     1
 76
     1
 78
     7
 79
     2
140
0.12
141
0.0
146
0.71
147
0.06
176
   256
177
   256
178
     2
274
     4
284
     7
340
12
371
    -1
372
    -1
  0
DIMSTYLE
105
1F1
330
1D
100
AcDbSymbolTableRecord
100
AcDbDimStyleTableRecord
  2
AM_ANSI$SH
 70
     0
  4
mm
 41
0.1
 42
0.05
 43
0.5
 44
0.1
 47
0.1
 48
0.1
 75
     1
 76
     1
 78
     7
 79
     2
140
0.12
141
0.0
146
0.71
147
0.06
173
     1
176
   256
177
   256
178
     2
274
     4
284
     7
340
12
343
1F2
371
    -1
372
    -1
  0
ENDTAB
  0
TABLE
  2
BLOCK_RECORD
  5
1
330
0
100
AcDbSymbolTable
 70
    21
  0
BLOCK_RECORD
  5
2
330
1
100
AcDbSymbolTableRecord
100
AcDbBlockTableRecord
  2
*MODEL_SPACE
340
5
  0
BLOCK_RECORD
  5
8
330
1
100
AcDbSymbolTableRecord
100
AcDbBlockTableRecord
  2
*PAPER_SPACE
340
B
  0
BLOCK_RECORD
  5
167
330
1
100
AcDbSymbolTableRecord
100
AcDbBlockTableRecord
  2
*D0
340
0
  0
BLOCK_RECORD
  5
30
330
1
100
AcDbSymbolTableRecord
100
AcDbBlockTableRecord
  2
*D1
340
0
  0
BLOCK_RECORD
  5
4B
330
1
100
AcDbSymbolTableRecord
100
AcDbBlockTableRecord
  2
*D2
340
0
  0
BLOCK_RECORD
  5
17C
330
1
100
AcDbSymbolTableRecord
100
AcDbBlockTableRecord
  2
*D3
340
0
  0
BLOCK_RECORD
  5
3E
330
1
100
AcDbSymbolTableRecord
100
AcDbBlockTableRecord
  2
*D4
340
0
  0
BLOCK_RECORD
  5
18C
330
1
100
AcDbSymbolTableRecord
100
AcDbBlockTableRecord
  2
*D5
340
0
  0
BLOCK_RECORD
  5
58
330
1
100
AcDbSymbolTableRecord
100
AcDbBlockTableRecord
  2
*D6
340
0
  0
BLOCK_RECORD
  5
1F2
330
1
100
AcDbSymbolTableRecord
100
AcDbBlockTableRecord
  2
GENAXEH
340
0
  0
BLOCK_RECORD
  5
92
330
1
100
AcDbSymbolTableRecord
100
AcDbBlockTableRecord
  2
*D8
340
0
  0
BLOCK_RECORD
  5
69
330
1
100
AcDbSymbolTableRecord
100
AcDbBlockTableRecord
  2
*D9
340
0
  0
BLOCK_RECORD
  5
76
330
1
100
AcDbSymbolTableRecord
100
AcDbBlockTableRecord
  2
*D10
340
0
  0
BLOCK_RECORD
  5
85
330
1
100
AcDbSymbolTableRecord
100
AcDbBlockTableRecord
  2
*D11
340
0
  0
BLOCK_RECORD
  5
9F
330
1
100
AcDbSymbolTableRecord
100
AcDbBlockTableRecord
  2
*D12
340
0
  0
BLOCK_RECORD
  5
AC
330
1
100
AcDbSymbolTableRecord
100
AcDbBlockTableRecord
  2
*D13
340
0
  0
BLOCK_RECORD
  5
C7
330
1
100
AcDbSymbolTableRecord
100
AcDbBlockTableRecord
  2
*D14
340
0
  0
BLOCK_RECORD
  5
D9
330
1
100
AcDbSymbolTableRecord
100
AcDbBlockTableRecord
  2
*D15
340
0
  0
BLOCK_RECORD
  5
E7
330
1
100
AcDbSymbolTableRecord
100
AcDbBlockTableRecord
  2
*D16
340
0
  0
BLOCK_RECORD
  5
10D
330
1
100
AcDbSymbolTableRecord
100
AcDbBlockTableRecord
  2
*D17
340
0
  0
BLOCK_RECORD
  5
11C
330
1
100
AcDbSymbolTableRecord
100
AcDbBlockTableRecord
  2
*D18
340
0
  0
BLOCK_RECORD
  5
129
330
1
100
AcDbSymbolTableRecord
100
AcDbBlockTableRecord
  2
*D19
340
0
  0
BLOCK_RECORD
  5
136
330
1
100
AcDbSymbolTableRecord
100
AcDbBlockTableRecord
  2
*D20
340
0
  0
ENDTAB
  0
ENDSEC
  0
SECTION
  2
BLOCKS
  0
BLOCK
  5
3
330
2
100
AcDbEntity
  8
0
100
AcDbBlockBegin
  2
*MODEL_SPACE
 70
     0
 10
0.0
 20
0.0
 30
0.0
  3
*MODEL_SPACE
  1

  0
ENDBLK
  5
4
330
2
100
AcDbEntity
  8
0
100
AcDbBlockEnd
  0
BLOCK
  5
9
330
8
100
AcDbEntity
 67
     1
  8
0
100
AcDbBlockBegin
  2
*PAPER_SPACE
 70
     0
 10
0.0
 20
0.0
 30
0.0
  3
*PAPER_SPACE
  1

  0
ENDBLK
  5
A
330
8
100
AcDbEntity
 67
     1
  8
0
100
AcDbBlockEnd
  0
BLOCK
  5
171
330
167
100
AcDbEntity
  8
0
100
AcDbBlockBegin
  2
*D0
 70
     1
 10
0.0
 20
0.0
 30
0.0
  3
*D0
  1

  0
LINE
  5
168
330
167
100
AcDbEntity
  8
0
  6
ByBlock
100
AcDbLine
 10
1038.8964972729
 20
358.3601894760537
 30
0.0
 11
1065.931824217634
 21
358.3601894760537
 31
0.0
  0
LINE
  5
169
330
167
100
AcDbEntity
  8
0
  6
ByBlock
100
AcDbLine
 10
1038.8964972729
 20
150.3601894760536
 30
0.0
 11
1065.931824217634
 21
150.3601894760536
 31
0.0
  0
LINE
  5
16A
330
167
100
AcDbEntity
  8
0
  6
ByBlock
100
AcDbLine
 10
1064.131824217634
 20
351.1601894760536
 30
0.0
 11
1064.131824217634
 21
157.5601894760536
 31
0.0
  0
SOLID
  5
16B
330
167
100
AcDbEntity
  8
0
  6
ByBlock
100
AcDbTrace
 10
1062.931824217634
 20
351.1601894760536
 30
0.0
 11
1065.331824217634
 21
351.1601894760536
 31
0.0
 12
1064.131824217634
 22
358.3601894760537
 32
0.0
 13
1064.131824217634
 23
358.3601894760537
 33
0.0
  0
SOLID
  5
16C
330
167
100
AcDbEntity
  8
0
  6
ByBlock
100
AcDbTrace
 10
1062.931824217634
 20
157.5601894760536
 30
0.0
 11
1065.331824217634
 21
157.5601894760536
 31
0.0
 12
1064.131824217634
 22
150.3601894760536
 32
0.0
 13
1064.131824217634
 23
150.3601894760536
 33
0.0
  0
MTEXT
  5
16D
330
167
100
AcDbEntity
  8
0
  6
ByBlock
 62
     3
100
AcDbMText
 10
1057.381824217634
 20
254.3601894760536
 30
0.0
 40
8.099999999999999
 41
0.0
 71
     5
 72
     1
  1
\A1;208
  7
NORM
 11
0.0000000000000001
 21
1.0
 31
0.0
 73
     1
 44
1.0
  0
POINT
  5
16E
330
167
100
AcDbEntity
  8
DEFPOINTS
  6
ByBlock
 62
     0
100
AcDbPoint
 10
1037.9964972729
 20
358.3601894760537
 30
0.0
  0
POINT
  5
16F
330
167
100
AcDbEntity
  8
DEFPOINTS
  6
ByBlock
 62
     0
100
AcDbPoint
 10
1037.9964972729
 20
150.3601894760536
 30
0.0
  0
POINT
  5
170
330
167
100
AcDbEntity
  8
DEFPOINTS
  6
ByBlock
 62
     0
100
AcDbPoint
 10
1064.131824217634
 20
150.3601894760536
 30
0.0
  0
ENDBLK
  5
172
330
167
100
AcDbEntity
  8
0
100
AcDbBlockEnd
  0
BLOCK
  5
3B
330
30
100
AcDbEntity
  8
0
100
AcDbBlockBegin
  2
*D1
 70
     1
 10
0.0
 20
0.0
 30
0.0
  3
*D1
  1

  0
LINE
  5
31
330
30
100
AcDbEntity
  8
0
  6
ByBlock
100
AcDbLine
 10
940.7176664400584
 20
174.3601894760536
 30
0.0
 11
982.6071961645235
 21
174.3601894760536
 31
0.0
  0
LINE
  5
32
330
30
100
AcDbEntity
  8
0
  6
ByBlock
100
AcDbLine
 10
965.7176664400584
 20
277.8601894760536
 30
0.0
 11
982.6071961645235
 21
277.8601894760536
 31
0.0
  0
LINE
  5
33
330
30
100
AcDbEntity
  8
0
  6
ByBlock
100
AcDbLine
 10
980.8071961645234
 20
181.5601894760536
 30
0.0
 11
980.8071961645234
 21
270.6601894760536
 31
0.0
  0
SOLID
  5
34
330
30
100
AcDbEntity
  8
0
  6
ByBlock
100
AcDbTrace
 10
979.6071961645234
 20
181.5601894760536
 30
0.0
 11
982.0071961645234
 21
181.5601894760536
 31
0.0
 12
980.8071961645234
 22
174.3601894760536
 32
0.0
 13
980.8071961645234
 23
174.3601894760536
 33
0.0
  0
SOLID
  5
35
330
30
100
AcDbEntity
  8
0
  6
ByBlock
100
AcDbTrace
 10
979.6071961645234
 20
270.6601894760536
 30
0.0
 11
982.0071961645234
 21
270.6601894760536
 31
0.0
 12
980.8071961645234
 22
277.8601894760536
 32
0.0
 13
980.8071961645234
 23
277.8601894760536
 33
0.0
  0
MTEXT
  5
36
330
30
100
AcDbEntity
  8
0
  6
ByBlock
 62
     3
100
AcDbMText
 10
974.0571961645235
 20
226.1101894760536
 30
0.0
 40
8.099999999999999
 41
0.0
 71
     5
 72
     1
  1
\A1;103.5
  7
NORM
 11
0.0000000000000001
 21
1.0
 31
0.0
 73
     1
 44
1.0
  0
POINT
  5
37
330
30
100
AcDbEntity
  8
DEFPOINTS
  6
ByBlock
 62
     0
100
AcDbPoint
 10
939.8176664400585
 20
174.3601894760536
 30
0.0
  0
POINT
  5
39
330
30
100
AcDbEntity
  8
DEFPOINTS
  6
ByBlock
 62
     0
100
AcDbPoint
 10
964.8176664400585
 20
277.8601894760536
 30
0.0
  0
POINT
  5
3A
330
30
100
AcDbEntity
  8
DEFPOINTS
  6
ByBlock
 62
     0
100
AcDbPoint
 10
980.8071961645234
 20
277.8601894760536
 30
0.0
  0
ENDBLK
  5
3C
330
30
100
AcDbEntity
  8
0
100
AcDbBlockEnd
  0
BLOCK
  5
55
330
4B
100
AcDbEntity
  8
0
100
AcDbBlockBegin
  2
*D2
 70
     1
 10
0.0
 20
0.0
 30
0.0
  3
*D2
  1

  0
LINE
  5
4C
330
4B
100
AcDbEntity
  8
0
  6
ByBlock
100
AcDbLine
 10
940.7176664400584
 20
174.3601894760536
 30
0.0
 11
1001.557395688549
 21
174.3601894760536
 31
0.0
  0
LINE
  5
4D
330
4B
100
AcDbEntity
  8
0
  6
ByBlock
100
AcDbLine
 10
940.7176664400584
 20
334.3601894760536
 30
0.0
 11
1001.557395688549
 21
334.3601894760536
 31
0.0
  0
LINE
  5
4E
330
4B
100
AcDbEntity
  8
0
  6
ByBlock
100
AcDbLine
 10
999.7573956885494
 20
181.5601894760536
 30
0.0
 11
999.7573956885494
 21
327.1601894760536
 31
0.0
  0
SOLID
  5
4F
330
4B
100
AcDbEntity
  8
0
  6
ByBlock
100
AcDbTrace
 10
998.5573956885493
 20
181.5601894760536
 30
0.0
 11
1000.957395688549
 21
181.5601894760536
 31
0.0
 12
999.7573956885494
 22
174.3601894760536
 32
0.0
 13
999.7573956885494
 23
174.3601894760536
 33
0.0
  0
SOLID
  5
50
330
4B
100
AcDbEntity
  8
0
  6
ByBlock
100
AcDbTrace
 10
998.5573956885493
 20
327.1601894760536
 30
0.0
 11
1000.957395688549
 21
327.1601894760536
 31
0.0
 12
999.7573956885494
 22
334.3601894760536
 32
0.0
 13
999.7573956885494
 23
334.3601894760536
 33
0.0
  0
MTEXT
  5
51
330
4B
100
AcDbEntity
  8
0
  6
ByBlock
 62
     3
100
AcDbMText
 10
993.0073956885493
 20
254.3601894760536
 30
0.0
 40
8.099999999999999
 41
0.0
 71
     5
 72
     1
  1
\A1;160
  7
NORM
 11
0.0000000000000001
 21
1.0
 31
0.0
 73
     1
 44
1.0
  0
POINT
  5
52
330
4B
100
AcDbEntity
  8
DEFPOINTS
  6
ByBlock
 62
     0
100
AcDbPoint
 10
939.8176664400585
 20
174.3601894760536
 30
0.0
  0
POINT
  5
53
330
4B
100
AcDbEntity
  8
DEFPOINTS
  6
ByBlock
 62
     0
100
AcDbPoint
 10
939.8176664400585
 20
334.3601894760536
 30
0.0
  0
POINT
  5
54
330
4B
100
AcDbEntity
  8
DEFPOINTS
  6
ByBlock
 62
     0
100
AcDbPoint
 10
999.7573956885494
 20
334.3601894760536
 30
0.0
  0
ENDBLK
  5
56
330
4B
100
AcDbEntity
  8
0
100
AcDbBlockEnd
  0
BLOCK
  5
189
330
17C
100
AcDbEntity
  8
0
100
AcDbBlockBegin
  2
*D3
 70
     1
 10
0.0
 20
0.0
 30
0.0
  3
*D3
  1

  0
LINE
  5
17D
330
17C
100
AcDbEntity
  8
0
  6
ByBlock
100
AcDbLine
 10
965.6666847891932
 20
53.49127539336087
 30
0.0
 11
993.9869810455554
 21
53.49127539336086
 31
0.0
  0
LINE
  5
17E
330
17C
100
AcDbEntity
  8
0
  6
ByBlock
100
AcDbLine
 10
965.6666847891932
 20
38.49127539336086
 30
0.0
 11
993.9869810455554
 21
38.49127539336086
 31
0.0
  0
LINE
  5
17F
330
17C
100
AcDbEntity
  8
0
  6
ByBlock
100
AcDbLine
 10
992.1869810455556
 20
60.69127539336086
 30
0.0
 11
992.1869810455556
 21
67.89127539336087
 31
0.0
  0
LINE
  5
180
330
17C
100
AcDbEntity
  8
0
  6
ByBlock
100
AcDbLine
 10
992.1869810455556
 20
31.29127539336086
 30
0.0
 11
992.1869810455556
 21
24.09127539336086
 31
0.0
  0
MTEXT
  5
181
330
17C
100
AcDbEntity
  8
0
  6
ByBlock
 62
     3
100
AcDbMText
 10
984.749732439568
 20
45.99127539336087
 30
0.0
 40
8.099999999999999
 41
0.0
 71
     5
 72
     1
  1
\A1;15
  7
NORM
 11
0.0000000000000001
 21
1.0
 31
0.0
 73
     1
 44
1.0
  0
LINE
  5
182
330
17C
100
AcDbEntity
  8
0
  6
ByBlock
100
AcDbLine
 10
992.1869810455556
 20
53.49127539336086
 30
0.0
 11
992.1869810455556
 21
38.49127539336086
 31
0.0
  0
LINE
  5
183
330
17C
100
AcDbEntity
  8
0
  6
ByBlock
100
AcDbLine
 10
992.1869810455556
 20
53.49127539336086
 30
0.0
 11
992.1869810455556
 21
38.49127539336086
 31
0.0
  0
SOLID
  5
184
330
17C
100
AcDbEntity
  8
0
  6
ByBlock
100
AcDbTrace
 10
990.9869810455555
 20
60.69127539336086
 30
0.0
 11
993.3869810455556
 21
60.69127539336086
 31
0.0
 12
992.1869810455556
 22
53.49127539336086
 32
0.0
 13
992.1869810455556
 23
53.49127539336086
 33
0.0
  0
SOLID
  5
185
330
17C
100
AcDbEntity
  8
0
  6
ByBlock
100
AcDbTrace
 10
990.9869810455555
 20
31.29127539336086
 30
0.0
 11
993.3869810455556
 21
31.29127539336086
 31
0.0
 12
992.1869810455556
 22
38.49127539336086
 32
0.0
 13
992.1869810455556
 23
38.49127539336086
 33
0.0
  0
POINT
  5
186
330
17C
100
AcDbEntity
  8
DEFPOINTS
  6
ByBlock
 62
     0
100
AcDbPoint
 10
964.7666847891933
 20
53.49127539336087
 30
0.0
  0
POINT
  5
187
330
17C
100
AcDbEntity
  8
DEFPOINTS
  6
ByBlock
 62
     0
100
AcDbPoint
 10
964.7666847891933
 20
38.49127539336086
 30
0.0
  0
POINT
  5
188
330
17C
100
AcDbEntity
  8
DEFPOINTS
  6
ByBlock
 62
     0
100
AcDbPoint
 10
992.1869810455556
 20
38.49127539336086
 30
0.0
  0
ENDBLK
  5
18A
330
17C
100
AcDbEntity
  8
0
100
AcDbBlockEnd
  0
BLOCK
  5
48
330
3E
100
AcDbEntity
  8
0
100
AcDbBlockBegin
  2
*D4
 70
     1
 10
0.0
 20
0.0
 30
0.0
  3
*D4
  1

  0
LINE
  5
3F
330
3E
100
AcDbEntity
  8
0
  6
ByBlock
100
AcDbLine
 10
937.8176664400584
 20
173.4601894760536
 30
0.0
 11
937.8176664400584
 21
149.8684266986976
 31
0.0
  0
LINE
  5
40
330
3E
100
AcDbEntity
  8
0
  6
ByBlock
100
AcDbLine
 10
964.8176664400585
 20
198.4601894760536
 30
0.0
 11
964.8176664400585
 21
149.8684266986976
 31
0.0
  0
LINE
  5
41
330
3E
100
AcDbEntity
  8
0
  6
ByBlock
100
AcDbLine
 10
945.0176664400585
 20
151.6684266986976
 30
0.0
 11
957.6176664400584
 21
151.6684266986976
 31
0.0
  0
SOLID
  5
42
330
3E
100
AcDbEntity
  8
0
  6
ByBlock
100
AcDbTrace
 10
945.0176664400585
 20
152.8684266986976
 30
0.0
 11
945.0176664400585
 21
150.4684266986976
 31
0.0
 12
937.8176664400584
 22
151.6684266986976
 32
0.0
 13
937.8176664400584
 23
151.6684266986976
 33
0.0
  0
SOLID
  5
43
330
3E
100
AcDbEntity
  8
0
  6
ByBlock
100
AcDbTrace
 10
957.6176664400584
 20
152.8684266986976
 30
0.0
 11
957.6176664400584
 21
150.4684266986976
 31
0.0
 12
964.8176664400585
 22
151.6684266986976
 32
0.0
 13
964.8176664400585
 23
151.6684266986976
 33
0.0
  0
MTEXT
  5
44
330
3E
100
AcDbEntity
  8
0
  6
ByBlock
 62
     3
100
AcDbMText
 10
951.3176664400585
 20
158.4184266986976
 30
0.0
 40
8.099999999999999
 41
0.0
 71
     5
 72
     1
  1
\A1;27
  7
NORM
 73
     1
 44
1.0
  0
POINT
  5
45
330
3E
100
AcDbEntity
  8
DEFPOINTS
  6
ByBlock
 62
     0
100
AcDbPoint
 10
937.8176664400584
 20
174.3601894760536
 30
0.0
  0
POINT
  5
46
330
3E
100
AcDbEntity
  8
DEFPOINTS
  6
ByBlock
 62
     0
100
AcDbPoint
 10
964.8176664400585
 20
199.3601894760536
 30
0.0
  0
POINT
  5
47
330
3E
100
AcDbEntity
  8
DEFPOINTS
  6
ByBlock
 62
     0
100
AcDbPoint
 10
964.8176664400585
 20
151.6684266986976
 30
0.0
  0
ENDBLK
  5
49
330
3E
100
AcDbEntity
  8
0
100
AcDbBlockEnd
  0
BLOCK
  5
196
330
18C
100
AcDbEntity
  8
0
100
AcDbBlockBegin
  2
*D5
 70
     1
 10
0.0
 20
0.0
 30
0.0
  3
*D5
  1

  0
LINE
  5
18D
330
18C
100
AcDbEntity
  8
0
  6
ByBlock
100
AcDbLine
 10
1607.41504896614
 20
128.4601894760538
 30
0.0
 11
1607.41504896614
 21
92.21670854515851
 31
0.0
  0
LINE
  5
18E
330
18C
100
AcDbEntity
  8
0
  6
ByBlock
100
AcDbLine
 10
1627.415048966141
 20
128.4601894760538
 30
0.0
 11
1627.415048966141
 21
92.21670854515851
 31
0.0
  0
LINE
  5
18F
330
18C
100
AcDbEntity
  8
0
  6
ByBlock
100
AcDbLine
 10
1614.615048966141
 20
94.01670854515851
 30
0.0
 11
1620.215048966141
 21
94.01670854515851
 31
0.0
  0
SOLID
  5
190
330
18C
100
AcDbEntity
  8
0
  6
ByBlock
100
AcDbTrace
 10
1614.615048966141
 20
95.21670854515852
 30
0.0
 11
1614.615048966141
 21
92.8167085451585
 31
0.0
 12
1607.41504896614
 22
94.01670854515851
 32
0.0
 13
1607.41504896614
 23
94.01670854515851
 33
0.0
  0
SOLID
  5
191
330
18C
100
AcDbEntity
  8
0
  6
ByBlock
100
AcDbTrace
 10
1620.215048966141
 20
95.21670854515852
 30
0.0
 11
1620.215048966141
 21
92.8167085451585
 31
0.0
 12
1627.415048966141
 22
94.01670854515851
 32
0.0
 13
1627.415048966141
 23
94.01670854515851
 33
0.0
  0
MTEXT
  5
192
330
18C
100
AcDbEntity
  8
0
  6
ByBlock
 62
     3
100
AcDbMText
 10
1617.415048966141
 20
100.7667085451585
 30
0.0
 40
8.099999999999999
 41
0.0
 71
     5
 72
     1
  1
\A1;20
  7
NORM
 73
     1
 44
1.0
  0
POINT
  5
193
330
18C
100
AcDbEntity
  8
DEFPOINTS
  6
ByBlock
 62
     0
100
AcDbPoint
 10
1607.41504896614
 20
129.3601894760538
 30
0.0
  0
POINT
  5
194
330
18C
100
AcDbEntity
  8
DEFPOINTS
  6
ByBlock
 62
     0
100
AcDbPoint
 10
1627.415048966141
 20
129.3601894760538
 30
0.0
  0
POINT
  5
195
330
18C
100
AcDbEntity
  8
DEFPOINTS
  6
ByBlock
 62
     0
100
AcDbPoint
 10
1627.415048966141
 20
94.01670854515851
 30
0.0
  0
ENDBLK
  5
197
330
18C
100
AcDbEntity
  8
0
100
AcDbBlockEnd
  0
BLOCK
  5
62
330
58
100
AcDbEntity
  8
0
100
AcDbBlockBegin
  2
*D6
 70
     1
 10
0.0
 20
0.0
 30
0.0
  3
*D6
  1

  0
LINE
  5
59
330
58
100
AcDbEntity
  8
0
  6
ByBlock
100
AcDbLine
 10
965.7176664400584
 20
277.8601894760536
 30
0.0
 11
982.6071961645235
 21
277.8601894760536
 31
0.0
  0
LINE
  5
5A
330
58
100
AcDbEntity
  8
0
  6
ByBlock
100
AcDbLine
 10
940.7176664400584
 20
334.3601894760536
 30
0.0
 11
982.6071961645235
 21
334.3601894760536
 31
0.0
  0
LINE
  5
5B
330
58
100
AcDbEntity
  8
0
  6
ByBlock
100
AcDbLine
 10
980.8071961645234
 20
285.0601894760536
 30
0.0
 11
980.8071961645234
 21
327.1601894760536
 31
0.0
  0
SOLID
  5
5C
330
58
100
AcDbEntity
  8
0
  6
ByBlock
100
AcDbTrace
 10
979.6071961645234
 20
285.0601894760536
 30
0.0
 11
982.0071961645234
 21
285.0601894760536
 31
0.0
 12
980.8071961645234
 22
277.8601894760536
 32
0.0
 13
980.8071961645234
 23
277.8601894760536
 33
0.0
  0
SOLID
  5
5D
330
58
100
AcDbEntity
  8
0
  6
ByBlock
100
AcDbTrace
 10
979.6071961645234
 20
327.1601894760536
 30
0.0
 11
982.0071961645234
 21
327.1601894760536
 31
0.0
 12
980.8071961645234
 22
334.3601894760536
 32
0.0
 13
980.8071961645234
 23
334.3601894760536
 33
0.0
  0
MTEXT
  5
5E
330
58
100
AcDbEntity
  8
0
  6
ByBlock
 62
     3
100
AcDbMText
 10
974.0571961645235
 20
306.1101894760536
 30
0.0
 40
8.099999999999999
 41
0.0
 71
     5
 72
     1
  1
\A1;56.5
  7
NORM
 11
0.0000000000000001
 21
1.0
 31
0.0
 73
     1
 44
1.0
  0
POINT
  5
5F
330
58
100
AcDbEntity
  8
DEFPOINTS
  6
ByBlock
 62
     0
100
AcDbPoint
 10
964.8176664400585
 20
277.8601894760536
 30
0.0
  0
POINT
  5
60
330
58
100
AcDbEntity
  8
DEFPOINTS
  6
ByBlock
 62
     0
100
AcDbPoint
 10
939.8176664400585
 20
334.3601894760536
 30
0.0
  0
POINT
  5
61
330
58
100
AcDbEntity
  8
DEFPOINTS
  6
ByBlock
 62
     0
100
AcDbPoint
 10
980.8071961645234
 20
334.3601894760536
 30
0.0
  0
ENDBLK
  5
63
330
58
100
AcDbEntity
  8
0
100
AcDbBlockEnd
  0
BLOCK
  5
1F4
330
1F2
100
AcDbEntity
  8
0
100
AcDbBlockBegin
  2
GENAXEH
 70
     0
 10
0.0
 20
0.0
 30
0.0
  3
GENAXEH
  1

  0
LINE
  5
1F3
330
1F2
100
AcDbEntity
  8
0
100
AcDbLine
 10
-1.0
 20
0.0
 30
0.0
 11
1.0
 21
0.0
 31
0.0
  0
ENDBLK
  5
1F5
330
1F2
100
AcDbEntity
  8
0
100
AcDbBlockEnd
  0
BLOCK
  5
9C
330
92
100
AcDbEntity
  8
0
100
AcDbBlockBegin
  2
*D8
 70
     1
 10
0.0
 20
0.0
 30
0.0
  3
*D8
  1

  0
LINE
  5
93
330
92
100
AcDbEntity
  8
BEMASSUNG
  6
Continuous
370
    -2
100
AcDbLine
 10
727.8492297385492
 20
624.7592687390062
 30
0.0
 11
727.8492297385492
 21
601.1675059616502
 31
0.0
  0
LINE
  5
94
330
92
100
AcDbEntity
  8
BEMASSUNG
  6
Continuous
370
    -2
100
AcDbLine
 10
667.8492297385491
 20
602.4593584820963
 30
0.0
 11
667.8492297385491
 21
604.7675059616501
 31
0.0
  0
LINE
  5
95
330
92
100
AcDbEntity
  8
BEMASSUNG
  6
Continuous
370
    -2
100
AcDbLine
 10
720.6492297385491
 20
602.9675059616502
 30
0.0
 11
675.0492297385492
 21
602.9675059616502
 31
0.0
  0
SOLID
  5
96
330
92
100
AcDbEntity
  8
BEMASSUNG
  6
Continuous
100
AcDbTrace
 10
720.6492297385491
 20
604.1675059616502
 30
0.0
 11
720.6492297385491
 21
601.7675059616501
 31
0.0
 12
727.8492297385492
 22
602.9675059616502
 32
0.0
 13
727.8492297385492
 23
602.9675059616502
 33
0.0
  0
SOLID
  5
97
330
92
100
AcDbEntity
  8
BEMASSUNG
  6
Continuous
100
AcDbTrace
 10
675.0492297385492
 20
604.1675059616502
 30
0.0
 11
675.0492297385492
 21
601.7675059616501
 31
0.0
 12
667.8492297385491
 22
602.9675059616502
 32
0.0
 13
667.8492297385491
 23
602.9675059616502
 33
0.0
  0
MTEXT
  5
98
330
92
100
AcDbEntity
  8
BEMASSUNG
  6
Continuous
 62
     3
100
AcDbMText
 10
697.8492297385492
 20
609.7175059616501
 30
0.0
 40
8.099999999999999
 41
0.0
 71
     5
 72
     1
  1
\A1;60
  7
NORM
 73
     1
 44
1.0
  0
POINT
  5
99
330
92
100
AcDbEntity
  8
DEFPOINTS
  6
Continuous
 62
     0
100
AcDbPoint
 10
727.8492297385492
 20
625.6592687390061
 30
0.0
  0
POINT
  5
9A
330
92
100
AcDbEntity
  8
DEFPOINTS
  6
Continuous
 62
     0
100
AcDbPoint
 10
667.8492297385491
 20
601.5593584820964
 30
0.0
  0
POINT
  5
9B
330
92
100
AcDbEntity
  8
DEFPOINTS
  6
Continuous
 62
     0
100
AcDbPoint
 10
667.8492297385491
 20
602.9675059616502
 30
0.0
  0
ENDBLK
  5
9D
330
92
100
AcDbEntity
  8
0
100
AcDbBlockEnd
  0
BLOCK
  5
73
330
69
100
AcDbEntity
  8
0
100
AcDbBlockBegin
  2
*D9
 70
     1
 10
0.0
 20
0.0
 30
0.0
  3
*D9
  1

  0
LINE
  5
6A
330
69
100
AcDbEntity
  8
BEMASSUNG
370
    -2
100
AcDbLine
 10
666.9492297385492
 20
570.6592687390061
 30
0.0
 11
611.5009416085814
 21
570.6592687390061
 31
0.0
  0
LINE
  5
6B
330
69
100
AcDbEntity
  8
BEMASSUNG
370
    -2
100
AcDbLine
 10
666.9492297385492
 20
840.6592687390061
 30
0.0
 11
611.5009416085816
 21
840.6592687390061
 31
0.0
  0
LINE
  5
6C
330
69
100
AcDbEntity
  8
BEMASSUNG
370
    -2
100
AcDbLine
 10
613.3009416085814
 20
577.8592687390061
 30
0.0
 11
613.3009416085815
 21
833.4592687390061
 31
0.0
  0
SOLID
  5
6D
330
69
100
AcDbEntity
  8
BEMASSUNG
100
AcDbTrace
 10
612.1009416085813
 20
577.8592687390061
 30
0.0
 11
614.5009416085814
 21
577.8592687390061
 31
0.0
 12
613.3009416085814
 22
570.6592687390061
 32
0.0
 13
613.3009416085814
 23
570.6592687390061
 33
0.0
  0
SOLID
  5
6E
330
69
100
AcDbEntity
  8
BEMASSUNG
100
AcDbTrace
 10
612.1009416085814
 20
833.4592687390061
 30
0.0
 11
614.5009416085815
 21
833.4592687390061
 31
0.0
 12
613.3009416085815
 22
840.6592687390061
 32
0.0
 13
613.3009416085815
 23
840.6592687390061
 33
0.0
  0
MTEXT
  5
6F
330
69
100
AcDbEntity
  8
BEMASSUNG
 62
     3
100
AcDbMText
 10
606.5509416085813
 20
705.6592687390063
 30
0.0
 40
8.099999999999999
 41
0.0
 71
     5
 72
     1
  1
\A1;270
  7
NORM
 11
0.0000000000000001
 21
1.0
 31
0.0
 73
     1
 44
1.0
  0
POINT
  5
70
330
69
100
AcDbEntity
  8
DEFPOINTS
 62
     0
100
AcDbPoint
 10
667.8492297385491
 20
570.6592687390061
 30
0.0
  0
POINT
  5
71
330
69
100
AcDbEntity
  8
DEFPOINTS
 62
     0
100
AcDbPoint
 10
667.8492297385491
 20
840.6592687390061
 30
0.0
  0
POINT
  5
72
330
69
100
AcDbEntity
  8
DEFPOINTS
 62
     0
100
AcDbPoint
 10
613.3009416085815
 20
840.6592687390061
 30
0.0
  0
ENDBLK
  5
74
330
69
100
AcDbEntity
  8
0
100
AcDbBlockEnd
  0
BLOCK
  5
80
330
76
100
AcDbEntity
  8
0
100
AcDbBlockBegin
  2
*D10
 70
     1
 10
0.0
 20
0.0
 30
0.0
  3
*D10
  1

  0
LINE
  5
77
330
76
100
AcDbEntity
  8
BEMASSUNG
370
    -2
100
AcDbLine
 10
654.4492297385492
 20
737.6592687390061
 30
0.0
 11
629.4192297385495
 21
737.6592687390061
 31
0.0
  0
LINE
  5
78
330
76
100
AcDbEntity
  8
BEMASSUNG
370
    -2
100
AcDbLine
 10
654.4492297385492
 20
762.6592687390061
 30
0.0
 11
629.4192297385495
 21
762.6592687390061
 31
0.0
  0
LINE
  5
79
330
76
100
AcDbEntity
  8
BEMASSUNG
370
    -2
100
AcDbLine
 10
631.2192297385495
 20
744.8592687390061
 30
0.0
 11
631.2192297385495
 21
755.4592687390061
 31
0.0
  0
SOLID
  5
7A
330
76
100
AcDbEntity
  8
BEMASSUNG
100
AcDbTrace
 10
630.0192297385494
 20
744.8592687390061
 30
0.0
 11
632.4192297385495
 21
744.8592687390061
 31
0.0
 12
631.2192297385495
 22
737.6592687390061
 32
0.0
 13
631.2192297385495
 23
737.6592687390061
 33
0.0
  0
SOLID
  5
7B
330
76
100
AcDbEntity
  8
BEMASSUNG
100
AcDbTrace
 10
630.0192297385494
 20
755.4592687390061
 30
0.0
 11
632.4192297385495
 21
755.4592687390061
 31
0.0
 12
631.2192297385495
 22
762.6592687390061
 32
0.0
 13
631.2192297385495
 23
762.6592687390061
 33
0.0
  0
MTEXT
  5
7C
330
76
100
AcDbEntity
  8
BEMASSUNG
 62
     3
100
AcDbMText
 10
624.4692297385494
 20
750.1592687390062
 30
0.0
 40
8.099999999999999
 41
0.0
 71
     5
 72
     1
  1
\A1;25
  7
NORM
 11
0.0000000000000001
 21
1.0
 31
0.0
 73
     1
 44
1.0
  0
POINT
  5
7D
330
76
100
AcDbEntity
  8
DEFPOINTS
 62
     0
100
AcDbPoint
 10
655.3492297385491
 20
737.6592687390061
 30
0.0
  0
POINT
  5
7E
330
76
100
AcDbEntity
  8
DEFPOINTS
 62
     0
100
AcDbPoint
 10
655.3492297385491
 20
762.6592687390061
 30
0.0
  0
POINT
  5
7F
330
76
100
AcDbEntity
  8
DEFPOINTS
 62
     0
100
AcDbPoint
 10
631.2192297385495
 20
762.6592687390061
 30
0.0
  0
ENDBLK
  5
81
330
76
100
AcDbEntity
  8
0
100
AcDbBlockEnd
  0
BLOCK
  5
8F
330
85
100
AcDbEntity
  8
0
100
AcDbBlockBegin
  2
*D11
 70
     1
 10
0.0
 20
0.0
 30
0.0
  3
*D11
  1

  0
LINE
  5
86
330
85
100
AcDbEntity
  8
BEMASSUNG
370
    -2
100
AcDbLine
 10
666.9492297385492
 20
570.6592687390061
 30
0.0
 11
650.809061181739
 21
570.6592687390061
 31
0.0
  0
LINE
  5
87
330
85
100
AcDbEntity
  8
BEMASSUNG
370
    -2
100
AcDbLine
 10
669.9492297385492
 20
625.6592687390061
 30
0.0
 11
650.809061181739
 21
625.6592687390061
 31
0.0
  0
LINE
  5
88
330
85
100
AcDbEntity
  8
BEMASSUNG
370
    -2
100
AcDbLine
 10
652.6090611817389
 20
577.8592687390061
 30
0.0
 11
652.6090611817389
 21
618.4592687390061
 31
0.0
  0
SOLID
  5
89
330
85
100
AcDbEntity
  8
BEMASSUNG
100
AcDbTrace
 10
651.4090611817389
 20
577.8592687390061
 30
0.0
 11
653.809061181739
 21
577.8592687390061
 31
0.0
 12
652.6090611817389
 22
570.6592687390061
 32
0.0
 13
652.6090611817389
 23
570.6592687390061
 33
0.0
  0
SOLID
  5
8A
330
85
100
AcDbEntity
  8
BEMASSUNG
100
AcDbTrace
 10
651.4090611817389
 20
618.4592687390061
 30
0.0
 11
653.809061181739
 21
618.4592687390061
 31
0.0
 12
652.6090611817389
 22
625.6592687390061
 32
0.0
 13
652.6090611817389
 23
625.6592687390061
 33
0.0
  0
MTEXT
  5
8B
330
85
100
AcDbEntity
  8
BEMASSUNG
 62
     3
100
AcDbMText
 10
645.8590611817388
 20
598.1592687390063
 30
0.0
 40
8.099999999999999
 41
0.0
 71
     5
 72
     1
  1
\A1;55
  7
NORM
 11
0.0000000000000001
 21
1.0
 31
0.0
 73
     1
 44
1.0
  0
POINT
  5
8C
330
85
100
AcDbEntity
  8
DEFPOINTS
 62
     0
100
AcDbPoint
 10
667.8492297385491
 20
570.6592687390061
 30
0.0
  0
POINT
  5
8D
330
85
100
AcDbEntity
  8
DEFPOINTS
 62
     0
100
AcDbPoint
 10
670.8492297385491
 20
625.6592687390061
 30
0.0
  0
POINT
  5
8E
330
85
100
AcDbEntity
  8
DEFPOINTS
 62
     0
100
AcDbPoint
 10
652.6090611817389
 20
625.6592687390061
 30
0.0
  0
ENDBLK
  5
90
330
85
100
AcDbEntity
  8
0
100
AcDbBlockEnd
  0
BLOCK
  5
A9
330
9F
100
AcDbEntity
  8
0
100
AcDbBlockBegin
  2
*D12
 70
     1
 10
0.0
 20
0.0
 30
0.0
  3
*D12
  1

  0
LINE
  5
A0
330
9F
100
AcDbEntity
  8
BEMASSUNG
370
    -2
100
AcDbLine
 10
666.9492297385492
 20
570.6592687390061
 30
0.0
 11
629.4192297385495
 21
570.6592687390061
 31
0.0
  0
LINE
  5
A1
330
9F
100
AcDbEntity
  8
BEMASSUNG
370
    -2
100
AcDbLine
 10
641.9492297385492
 20
665.6592687390062
 30
0.0
 11
629.4192297385495
 21
665.6592687390062
 31
0.0
  0
LINE
  5
A2
330
9F
100
AcDbEntity
  8
BEMASSUNG
370
    -2
100
AcDbLine
 10
631.2192297385495
 20
577.8592687390061
 30
0.0
 11
631.2192297385495
 21
658.4592687390061
 31
0.0
  0
SOLID
  5
A3
330
9F
100
AcDbEntity
  8
BEMASSUNG
100
AcDbTrace
 10
630.0192297385494
 20
577.8592687390061
 30
0.0
 11
632.4192297385495
 21
577.8592687390061
 31
0.0
 12
631.2192297385495
 22
570.6592687390061
 32
0.0
 13
631.2192297385495
 23
570.6592687390061
 33
0.0
  0
SOLID
  5
A4
330
9F
100
AcDbEntity
  8
BEMASSUNG
100
AcDbTrace
 10
630.0192297385494
 20
658.4592687390061
 30
0.0
 11
632.4192297385495
 21
658.4592687390061
 31
0.0
 12
631.2192297385495
 22
665.6592687390062
 32
0.0
 13
631.2192297385495
 23
665.6592687390062
 33
0.0
  0
MTEXT
  5
A5
330
9F
100
AcDbEntity
  8
BEMASSUNG
 62
     3
100
AcDbMText
 10
624.4692297385494
 20
618.1592687390063
 30
0.0
 40
8.099999999999999
 41
0.0
 71
     5
 72
     1
  1
\A1;95
  7
NORM
 11
0.0000000000000001
 21
1.0
 31
0.0
 73
     1
 44
1.0
  0
POINT
  5
A6
330
9F
100
AcDbEntity
  8
DEFPOINTS
 62
     0
100
AcDbPoint
 10
667.8492297385491
 20
570.6592687390061
 30
0.0
  0
POINT
  5
A7
330
9F
100
AcDbEntity
  8
DEFPOINTS
 62
     0
100
AcDbPoint
 10
642.8492297385491
 20
665.6592687390062
 30
0.0
  0
POINT
  5
A8
330
9F
100
AcDbEntity
  8
DEFPOINTS
 62
     0
100
AcDbPoint
 10
631.2192297385495
 20
665.6592687390062
 30
0.0
  0
ENDBLK
  5
AA
330
9F
100
AcDbEntity
  8
0
100
AcDbBlockEnd
  0
BLOCK
  5
B8
330
AC
100
AcDbEntity
  8
0
100
AcDbBlockBegin
  2
*D13
 70
     1
 10
0.0
 20
0.0
 30
0.0
  3
*D13
  1

  0
LINE
  5
AD
330
AC
100
AcDbEntity
  8
BEMASSUNG
370
    -2
100
AcDbLine
 10
641.9152745790908
 20
502.1579125541211
 30
0.0
 11
629.4192297385495
 21
502.1579125541212
 31
0.0
  0
LINE
  5
AE
330
AC
100
AcDbEntity
  8
BEMASSUNG
370
    -2
100
AcDbLine
 10
641.9152745790908
 20
491.6579125541211
 30
0.0
 11
629.4192297385495
 21
491.6579125541211
 31
0.0
  0
LINE
  5
AF
330
AC
100
AcDbEntity
  8
BEMASSUNG
370
    -2
100
AcDbLine
 10
631.2192297385495
 20
509.3579125541212
 30
0.0
 11
631.2192297385495
 21
516.5579125541212
 31
0.0
  0
LINE
  5
B0
330
AC
100
AcDbEntity
  8
BEMASSUNG
370
    -2
100
AcDbLine
 10
631.2192297385495
 20
484.4579125541212
 30
0.0
 11
631.2192297385495
 21
477.2579125541212
 31
0.0
  0
MTEXT
  5
B1
330
AC
100
AcDbEntity
  8
BEMASSUNG
 62
     3
100
AcDbMText
 10
621.3192297385494
 20
496.9079125541212
 30
0.0
 40
8.099999999999999
 41
0.0
 71
     5
 72
     1
  1
\A1;10.5
  7
NORM
 11
0.0000000000000001
 21
1.0
 31
0.0
 73
     1
 44
1.0
  0
LINE
  5
B2
330
AC
100
AcDbEntity
  8
BEMASSUNG
370
    -2
100
AcDbLine
 10
631.2192297385495
 20
502.1579125541212
 30
0.0
 11
631.2192297385495
 21
491.6579125541211
 31
0.0
  0
SOLID
  5
B3
330
AC
100
AcDbEntity
  8
BEMASSUNG
100
AcDbTrace
 10
630.0192297385494
 20
509.3579125541212
 30
0.0
 11
632.4192297385495
 21
509.3579125541212
 31
0.0
 12
631.2192297385495
 22
502.1579125541212
 32
0.0
 13
631.2192297385495
 23
502.1579125541212
 33
0.0
  0
SOLID
  5
B4
330
AC
100
AcDbEntity
  8
BEMASSUNG
100
AcDbTrace
 10
630.0192297385494
 20
484.4579125541212
 30
0.0
 11
632.4192297385495
 21
484.4579125541212
 31
0.0
 12
631.2192297385495
 22
491.6579125541211
 32
0.0
 13
631.2192297385495
 23
491.6579125541211
 33
0.0
  0
POINT
  5
B5
330
AC
100
AcDbEntity
  8
DEFPOINTS
 62
     0
100
AcDbPoint
 10
642.8152745790908
 20
502.1579125541211
 30
0.0
  0
POINT
  5
B6
330
AC
100
AcDbEntity
  8
DEFPOINTS
 62
     0
100
AcDbPoint
 10
642.8152745790908
 20
491.6579125541211
 30
0.0
  0
POINT
  5
B7
330
AC
100
AcDbEntity
  8
DEFPOINTS
 62
     0
100
AcDbPoint
 10
631.2192297385495
 20
491.6579125541211
 30
0.0
  0
ENDBLK
  5
B9
330
AC
100
AcDbEntity
  8
0
100
AcDbBlockEnd
  0
BLOCK
  5
D3
330
C7
100
AcDbEntity
  8
0
100
AcDbBlockBegin
  2
*D14
 70
     1
 10
0.0
 20
0.0
 30
0.0
  3
*D14
  1

  0
LINE
  5
C8
330
C7
100
AcDbEntity
  8
BEMASSUNG
370
    -2
100
AcDbLine
 10
667.8492297385491
 20
569.7592687390062
 30
0.0
 11
667.8492297385491
 21
543.5157878081111
 31
0.0
  0
LINE
  5
C9
330
C7
100
AcDbEntity
  8
BEMASSUNG
370
    -2
100
AcDbLine
 10
670.8492297385491
 20
569.7592687390062
 30
0.0
 11
670.8492297385491
 21
543.5157878081111
 31
0.0
  0
LINE
  5
CA
330
C7
100
AcDbEntity
  8
BEMASSUNG
370
    -2
100
AcDbLine
 10
660.6492297385491
 20
545.315787808111
 30
0.0
 11
653.4492297385492
 21
545.315787808111
 31
0.0
  0
LINE
  5
CB
330
C7
100
AcDbEntity
  8
BEMASSUNG
370
    -2
100
AcDbLine
 10
678.0492297385492
 20
545.315787808111
 30
0.0
 11
685.2492297385492
 21
545.315787808111
 31
0.0
  0
MTEXT
  5
CC
330
C7
100
AcDbEntity
  8
BEMASSUNG
 62
     3
100
AcDbMText
 10
684.0557956680104
 20
552.4235527346791
 30
0.0
 40
8.099999999999999
 41
0.0
 71
     5
 72
     1
  1
\A1;3
  7
NORM
 73
     1
 44
1.0
  0
LINE
  5
CD
330
C7
100
AcDbEntity
  8
BEMASSUNG
370
    -2
100
AcDbLine
 10
667.8492297385491
 20
545.315787808111
 30
0.0
 11
670.8492297385491
 21
545.315787808111
 31
0.0
  0
SOLID
  5
CE
330
C7
100
AcDbEntity
  8
BEMASSUNG
100
AcDbTrace
 10
660.6492297385491
 20
546.5157878081111
 30
0.0
 11
660.6492297385491
 21
544.115787808111
 31
0.0
 12
667.8492297385491
 22
545.315787808111
 32
0.0
 13
667.8492297385491
 23
545.315787808111
 33
0.0
  0
SOLID
  5
CF
330
C7
100
AcDbEntity
  8
BEMASSUNG
100
AcDbTrace
 10
678.0492297385492
 20
546.5157878081111
 30
0.0
 11
678.0492297385492
 21
544.115787808111
 31
0.0
 12
670.8492297385491
 22
545.315787808111
 32
0.0
 13
670.8492297385491
 23
545.315787808111
 33
0.0
  0
POINT
  5
D0
330
C7
100
AcDbEntity
  8
DEFPOINTS
 62
     0
100
AcDbPoint
 10
667.8492297385491
 20
570.6592687390061
 30
0.0
  0
POINT
  5
D1
330
C7
100
AcDbEntity
  8
DEFPOINTS
 62
     0
100
AcDbPoint
 10
670.8492297385491
 20
570.6592687390061
 30
0.0
  0
POINT
  5
D2
330
C7
100
AcDbEntity
  8
DEFPOINTS
 62
     0
100
AcDbPoint
 10
670.8492297385491
 20
545.315787808111
 30
0.0
  0
ENDBLK
  5
D4
330
C7
100
AcDbEntity
  8
0
100
AcDbBlockEnd
  0
BLOCK
  5
E3
330
D9
100
AcDbEntity
  8
0
100
AcDbBlockBegin
  2
*D15
 70
     1
 10
0.0
 20
0.0
 30
0.0
  3
*D15
  1

  0
LINE
  5
DA
330
D9
100
AcDbEntity
  8
BEMASSUNG
370
    -2
100
AcDbLine
 10
641.9492297385492
 20
665.6592687390062
 30
0.0
 11
629.4192297385495
 21
665.6592687390062
 31
0.0
  0
LINE
  5
DB
330
D9
100
AcDbEntity
  8
BEMASSUNG
370
    -2
100
AcDbLine
 10
641.9492297385492
 20
715.6592687390062
 30
0.0
 11
629.4192297385495
 21
715.6592687390062
 31
0.0
  0
LINE
  5
DC
330
D9
100
AcDbEntity
  8
BEMASSUNG
370
    -2
100
AcDbLine
 10
631.2192297385495
 20
672.8592687390062
 30
0.0
 11
631.2192297385495
 21
708.4592687390061
 31
0.0
  0
SOLID
  5
DD
330
D9
100
AcDbEntity
  8
BEMASSUNG
100
AcDbTrace
 10
630.0192297385494
 20
672.8592687390062
 30
0.0
 11
632.4192297385495
 21
672.8592687390062
 31
0.0
 12
631.2192297385495
 22
665.6592687390062
 32
0.0
 13
631.2192297385495
 23
665.6592687390062
 33
0.0
  0
SOLID
  5
DE
330
D9
100
AcDbEntity
  8
BEMASSUNG
100
AcDbTrace
 10
630.0192297385494
 20
708.4592687390061
 30
0.0
 11
632.4192297385495
 21
708.4592687390061
 31
0.0
 12
631.2192297385495
 22
715.6592687390062
 32
0.0
 13
631.2192297385495
 23
715.6592687390062
 33
0.0
  0
MTEXT
  5
DF
330
D9
100
AcDbEntity
  8
BEMASSUNG
 62
     3
100
AcDbMText
 10
624.4692297385494
 20
690.6592687390062
 30
0.0
 40
8.099999999999999
 41
0.0
 71
     5
 72
     1
  1
\A1;50
  7
NORM
 11
0.0000000000000001
 21
1.0
 31
0.0
 73
     1
 44
1.0
  0
POINT
  5
E0
330
D9
100
AcDbEntity
  8
DEFPOINTS
 62
     0
100
AcDbPoint
 10
642.8492297385491
 20
665.6592687390062
 30
0.0
  0
POINT
  5
E1
330
D9
100
AcDbEntity
  8
DEFPOINTS
 62
     0
100
AcDbPoint
 10
642.8492297385491
 20
715.6592687390062
 30
0.0
  0
POINT
  5
E2
330
D9
100
AcDbEntity
  8
DEFPOINTS
 62
     0
100
AcDbPoint
 10
631.2192297385495
 20
715.6592687390062
 30
0.0
  0
ENDBLK
  5
E4
330
D9
100
AcDbEntity
  8
0
100
AcDbBlockEnd
  0
BLOCK
  5
F1
330
E7
100
AcDbEntity
  8
0
100
AcDbBlockBegin
  2
*D16
 70
     1
 10
0.0
 20
0.0
 30
0.0
  3
*D16
  1

  0
LINE
  5
E8
330
E7
100
AcDbEntity
  8
BEMASSUNG
370
    -2
100
AcDbLine
 10
642.8492297385491
 20
664.7592687390061
 30
0.0
 11
642.8492297385491
 21
646.2237087101791
 31
0.0
  0
LINE
  5
E9
330
E7
100
AcDbEntity
  8
BEMASSUNG
370
    -2
100
AcDbLine
 10
667.8492297385491
 20
648.3137776164986
 30
0.0
 11
667.8492297385491
 21
646.2237087101791
 31
0.0
  0
LINE
  5
EA
330
E7
100
AcDbEntity
  8
BEMASSUNG
370
    -2
100
AcDbLine
 10
650.0492297385492
 20
648.0237087101791
 30
0.0
 11
660.6492297385491
 21
648.0237087101791
 31
0.0
  0
SOLID
  5
EB
330
E7
100
AcDbEntity
  8
BEMASSUNG
100
AcDbTrace
 10
650.0492297385492
 20
649.2237087101791
 30
0.0
 11
650.0492297385492
 21
646.823708710179
 31
0.0
 12
642.8492297385491
 22
648.0237087101791
 32
0.0
 13
642.8492297385491
 23
648.0237087101791
 33
0.0
  0
SOLID
  5
EC
330
E7
100
AcDbEntity
  8
BEMASSUNG
100
AcDbTrace
 10
660.6492297385491
 20
649.2237087101791
 30
0.0
 11
660.6492297385491
 21
646.823708710179
 31
0.0
 12
667.8492297385491
 22
648.0237087101791
 32
0.0
 13
667.8492297385491
 23
648.0237087101791
 33
0.0
  0
MTEXT
  5
ED
330
E7
100
AcDbEntity
  8
BEMASSUNG
 62
     3
100
AcDbMText
 10
655.3492297385491
 20
654.7737087101791
 30
0.0
 40
8.099999999999999
 41
0.0
 71
     5
 72
     1
  1
\A1;25
  7
NORM
 73
     1
 44
1.0
  0
POINT
  5
EE
330
E7
100
AcDbEntity
  8
DEFPOINTS
 62
     0
100
AcDbPoint
 10
642.8492297385491
 20
665.6592687390062
 30
0.0
  0
POINT
  5
EF
330
E7
100
AcDbEntity
  8
DEFPOINTS
 62
     0
100
AcDbPoint
 10
667.8492297385491
 20
649.2137776164986
 30
0.0
  0
POINT
  5
F0
330
E7
100
AcDbEntity
  8
DEFPOINTS
 62
     0
100
AcDbPoint
 10
667.8492297385491
 20
648.0237087101791
 30
0.0
  0
ENDBLK
  5
F2
330
E7
100
AcDbEntity
  8
0
100
AcDbBlockEnd
  0
BLOCK
  5
117
330
10D
100
AcDbEntity
  8
0
100
AcDbBlockBegin
  2
*D17
 70
     1
 10
0.0
 20
0.0
 30
0.0
  3
*D17
  1

  0
LINE
  5
10E
330
10D
100
AcDbEntity
  8
BEMASSUNG
370
    -2
100
AcDbLine
 10
641.9492297385492
 20
715.6592687390062
 30
0.0
 11
629.4192297385495
 21
715.6592687390062
 31
0.0
  0
LINE
  5
10F
330
10D
100
AcDbEntity
  8
BEMASSUNG
370
    -2
100
AcDbLine
 10
654.4492297385492
 20
737.6592687390061
 30
0.0
 11
629.4192297385495
 21
737.6592687390061
 31
0.0
  0
LINE
  5
110
330
10D
100
AcDbEntity
  8
BEMASSUNG
370
    -2
100
AcDbLine
 10
631.2192297385495
 20
722.8592687390062
 30
0.0
 11
631.2192297385495
 21
730.4592687390061
 31
0.0
  0
SOLID
  5
111
330
10D
100
AcDbEntity
  8
BEMASSUNG
100
AcDbTrace
 10
630.0192297385494
 20
722.8592687390062
 30
0.0
 11
632.4192297385495
 21
722.8592687390062
 31
0.0
 12
631.2192297385495
 22
715.6592687390062
 32
0.0
 13
631.2192297385495
 23
715.6592687390062
 33
0.0
  0
SOLID
  5
112
330
10D
100
AcDbEntity
  8
BEMASSUNG
100
AcDbTrace
 10
630.0192297385494
 20
730.4592687390061
 30
0.0
 11
632.4192297385495
 21
730.4592687390061
 31
0.0
 12
631.2192297385495
 22
737.6592687390061
 32
0.0
 13
631.2192297385495
 23
737.6592687390061
 33
0.0
  0
MTEXT
  5
113
330
10D
100
AcDbEntity
  8
BEMASSUNG
 62
     3
100
AcDbMText
 10
624.4692297385494
 20
726.6592687390063
 30
0.0
 40
8.099999999999999
 41
0.0
 71
     5
 72
     1
  1
\A1;22
  7
NORM
 11
0.0000000000000001
 21
1.0
 31
0.0
 73
     1
 44
1.0
  0
POINT
  5
114
330
10D
100
AcDbEntity
  8
DEFPOINTS
 62
     0
100
AcDbPoint
 10
642.8492297385491
 20
715.6592687390062
 30
0.0
  0
POINT
  5
115
330
10D
100
AcDbEntity
  8
DEFPOINTS
 62
     0
100
AcDbPoint
 10
655.3492297385491
 20
737.6592687390061
 30
0.0
  0
POINT
  5
116
330
10D
100
AcDbEntity
  8
DEFPOINTS
 62
     0
100
AcDbPoint
 10
631.2192297385495
 20
737.6592687390061
 30
0.0
  0
ENDBLK
  5
118
330
10D
100
AcDbEntity
  8
0
100
AcDbBlockEnd
  0
BLOCK
  5
126
330
11C
100
AcDbEntity
  8
0
100
AcDbBlockBegin
  2
*D18
 70
     1
 10
0.0
 20
0.0
 30
0.0
  3
*D18
  1

  0
LINE
  5
11D
330
11C
100
AcDbEntity
  8
BEMASSUNG
370
    -2
100
AcDbLine
 10
669.9492297385492
 20
785.6592687390062
 30
0.0
 11
650.809061181739
 21
785.6592687390062
 31
0.0
  0
LINE
  5
11E
330
11C
100
AcDbEntity
  8
BEMASSUNG
370
    -2
100
AcDbLine
 10
666.9492297385492
 20
840.6592687390061
 30
0.0
 11
650.809061181739
 21
840.6592687390061
 31
0.0
  0
LINE
  5
11F
330
11C
100
AcDbEntity
  8
BEMASSUNG
370
    -2
100
AcDbLine
 10
652.6090611817389
 20
792.8592687390062
 30
0.0
 11
652.6090611817389
 21
833.4592687390061
 31
0.0
  0
SOLID
  5
120
330
11C
100
AcDbEntity
  8
BEMASSUNG
100
AcDbTrace
 10
651.4090611817389
 20
792.8592687390062
 30
0.0
 11
653.809061181739
 21
792.8592687390062
 31
0.0
 12
652.6090611817389
 22
785.6592687390062
 32
0.0
 13
652.6090611817389
 23
785.6592687390062
 33
0.0
  0
SOLID
  5
121
330
11C
100
AcDbEntity
  8
BEMASSUNG
100
AcDbTrace
 10
651.4090611817389
 20
833.4592687390061
 30
0.0
 11
653.809061181739
 21
833.4592687390061
 31
0.0
 12
652.6090611817389
 22
840.6592687390061
 32
0.0
 13
652.6090611817389
 23
840.6592687390061
 33
0.0
  0
MTEXT
  5
122
330
11C
100
AcDbEntity
  8
BEMASSUNG
 62
     3
100
AcDbMText
 10
645.8590611817387
 20
813.1592687390062
 30
0.0
 40
8.099999999999999
 41
0.0
 71
     5
 72
     1
  1
\A1;55
  7
NORM
 11
0.0000000000000001
 21
1.0
 31
0.0
 73
     1
 44
1.0
  0
POINT
  5
123
330
11C
100
AcDbEntity
  8
DEFPOINTS
 62
     0
100
AcDbPoint
 10
670.8492297385491
 20
785.6592687390062
 30
0.0
  0
POINT
  5
124
330
11C
100
AcDbEntity
  8
DEFPOINTS
 62
     0
100
AcDbPoint
 10
667.8492297385491
 20
840.6592687390061
 30
0.0
  0
POINT
  5
125
330
11C
100
AcDbEntity
  8
DEFPOINTS
 62
     0
100
AcDbPoint
 10
652.6090611817389
 20
840.6592687390061
 30
0.0
  0
ENDBLK
  5
127
330
11C
100
AcDbEntity
  8
0
100
AcDbBlockEnd
  0
BLOCK
  5
133
330
129
100
AcDbEntity
  8
0
100
AcDbBlockBegin
  2
*D19
 70
     1
 10
0.0
 20
0.0
 30
0.0
  3
*D19
  1

  0
LINE
  5
12A
330
129
100
AcDbEntity
  8
BEMASSUNG
370
    -2
100
AcDbLine
 10
654.4492297385492
 20
762.6592687390061
 30
0.0
 11
629.4192297385494
 21
762.6592687390061
 31
0.0
  0
LINE
  5
12B
330
129
100
AcDbEntity
  8
BEMASSUNG
370
    -2
100
AcDbLine
 10
666.9492297385492
 20
840.6592687390061
 30
0.0
 11
629.4192297385495
 21
840.6592687390061
 31
0.0
  0
LINE
  5
12C
330
129
100
AcDbEntity
  8
BEMASSUNG
370
    -2
100
AcDbLine
 10
631.2192297385495
 20
769.8592687390061
 30
0.0
 11
631.2192297385495
 21
833.4592687390061
 31
0.0
  0
SOLID
  5
12D
330
129
100
AcDbEntity
  8
BEMASSUNG
100
AcDbTrace
 10
630.0192297385494
 20
769.8592687390061
 30
0.0
 11
632.4192297385495
 21
769.8592687390061
 31
0.0
 12
631.2192297385494
 22
762.6592687390061
 32
0.0
 13
631.2192297385494
 23
762.6592687390061
 33
0.0
  0
SOLID
  5
12E
330
129
100
AcDbEntity
  8
BEMASSUNG
100
AcDbTrace
 10
630.0192297385494
 20
833.4592687390061
 30
0.0
 11
632.4192297385495
 21
833.4592687390061
 31
0.0
 12
631.2192297385495
 22
840.6592687390061
 32
0.0
 13
631.2192297385495
 23
840.6592687390061
 33
0.0
  0
MTEXT
  5
12F
330
129
100
AcDbEntity
  8
BEMASSUNG
 62
     3
100
AcDbMText
 10
624.4692297385492
 20
801.6592687390062
 30
0.0
 40
8.099999999999999
 41
0.0
 71
     5
 72
     1
  1
\A1;78
  7
NORM
 11
0.0000000000000001
 21
1.0
 31
0.0
 73
     1
 44
1.0
  0
POINT
  5
130
330
129
100
AcDbEntity
  8
DEFPOINTS
 62
     0
100
AcDbPoint
 10
655.3492297385491
 20
762.6592687390061
 30
0.0
  0
POINT
  5
131
330
129
100
AcDbEntity
  8
DEFPOINTS
 62
     0
100
AcDbPoint
 10
667.8492297385491
 20
840.6592687390061
 30
0.0
  0
POINT
  5
132
330
129
100
AcDbEntity
  8
DEFPOINTS
 62
     0
100
AcDbPoint
 10
631.2192297385495
 20
840.6592687390061
 30
0.0
  0
ENDBLK
  5
134
330
129
100
AcDbEntity
  8
0
100
AcDbBlockEnd
  0
BLOCK
  5
142
330
136
100
AcDbEntity
  8
0
100
AcDbBlockBegin
  2
*D20
 70
     1
 10
0.0
 20
0.0
 30
0.0
  3
*D20
  1

  0
LINE
  5
137
330
136
100
AcDbEntity
  8
BEMASSUNG
370
    -2
100
AcDbLine
 10
655.3492297385491
 20
763.5592687390061
 30
0.0
 11
655.3492297385491
 21
771.9592319737301
 31
0.0
  0
LINE
  5
138
330
136
100
AcDbEntity
  8
BEMASSUNG
370
    -2
100
AcDbLine
 10
667.8492297385491
 20
773.4210913304579
 30
0.0
 11
667.8492297385491
 21
768.3592319737301
 31
0.0
  0
LINE
  5
139
330
136
100
AcDbEntity
  8
BEMASSUNG
370
    -2
100
AcDbLine
 10
648.1492297385491
 20
770.1592319737301
 30
0.0
 11
640.9492297385492
 21
770.1592319737301
 31
0.0
  0
LINE
  5
13A
330
136
100
AcDbEntity
  8
BEMASSUNG
370
    -2
100
AcDbLine
 10
675.0492297385492
 20
770.1592319737301
 30
0.0
 11
682.2492297385491
 21
770.1592319737301
 31
0.0
  0
MTEXT
  5
13B
330
136
100
AcDbEntity
  8
BEMASSUNG
 62
     3
100
AcDbMText
 10
651.6354779468465
 20
778.1488170167149
 30
0.0
 40
8.099999999999999
 41
0.0
 71
     5
 72
     1
  1
\A1;12.5
  7
NORM
 73
     1
 44
1.0
  0
LINE
  5
13C
330
136
100
AcDbEntity
  8
BEMASSUNG
370
    -2
100
AcDbLine
 10
655.3492297385491
 20
770.1592319737301
 30
0.0
 11
667.8492297385491
 21
770.1592319737301
 31
0.0
  0
SOLID
  5
13D
330
136
100
AcDbEntity
  8
BEMASSUNG
100
AcDbTrace
 10
648.1492297385491
 20
771.3592319737301
 30
0.0
 11
648.1492297385491
 21
768.95923197373
 31
0.0
 12
655.3492297385491
 22
770.1592319737301
 32
0.0
 13
655.3492297385491
 23
770.1592319737301
 33
0.0
  0
SOLID
  5
13E
330
136
100
AcDbEntity
  8
BEMASSUNG
100
AcDbTrace
 10
675.0492297385492
 20
771.3592319737301
 30
0.0
 11
675.0492297385492
 21
768.95923197373
 31
0.0
 12
667.8492297385491
 22
770.1592319737301
 32
0.0
 13
667.8492297385491
 23
770.1592319737301
 33
0.0
  0
POINT
  5
13F
330
136
100
AcDbEntity
  8
DEFPOINTS
 62
     0
100
AcDbPoint
 10
655.3492297385491
 20
762.6592687390061
 30
0.0
  0
POINT
  5
140
330
136
100
AcDbEntity
  8
DEFPOINTS
 62
     0
100
AcDbPoint
 10
667.8492297385491
 20
774.3210913304579
 30
0.0
  0
POINT
  5
141
330
136
100
AcDbEntity
  8
DEFPOINTS
 62
     0
100
AcDbPoint
 10
667.8492297385491
 20
770.1592319737301
 30
0.0
  0
ENDBLK
  5
143
330
136
100
AcDbEntity
  8
0
100
AcDbBlockEnd
  0
ENDSEC
  0
SECTION
  2
ENTITIES
  0
LWPOLYLINE
  5
27
330
2
100
AcDbEntity
  8
UMRISS05
100
AcDbPolyline
 90
        4
 70
     0
 43
0.0
 10
670.8152745790908
 20
489.7903546563134
 10
754.7982480876844
 20
489.7903546563134
 10
754.7982480876844
 20
504.7903546563134
 10
670.8152745790908
 20
504.7903546563134
  0
LWPOLYLINE
  5
29
330
2
100
AcDbEntity
  8
UMRISS05
100
AcDbPolyline
 90
        4
 70
     1
 43
0.0
 10
753.5973699182108
 20
503.7903546563134
 10
671.8152745790908
 20
503.7903546563134
 10
671.8152745790908
 20
490.7903546563134
 10
753.5973699182108
 20
490.7903546563134
  0
LWPOLYLINE
  5
2A
330
2
100
AcDbEntity
  8
UMRISS05
100
AcDbPolyline
 90
        6
 70
     0
 43
0.0
 10
670.8492297385491
 20
785.6592687390062
 10
729.8492297385496
 20
785.6592687390062
 42
-0.4142135623730951
 10
754.8492297385496
 20
760.6592687390062
 10
754.8492297385496
 20
650.6592687390061
 42
-0.4142135623730951
 10
729.8492297385496
 20
625.6592687390061
 10
670.8492297385491
 20
625.6592687390061
  0
LWPOLYLINE
  5
2B
330
2
100
AcDbEntity
  8
UMRISS05
100
AcDbPolyline
 90
        4
 70
     1
 43
0.0
 10
732.9492297385495
 20
709.9592687390059
 10
732.9492297385495
 20
719.300262703913
 42
4.109609026488783
 10
722.7492297385492
 20
719.300262703913
 10
722.7492297385497
 20
709.9592687390059
 42
1.000000000000002
  0
LINE
  5
2C
330
2
100
AcDbEntity
  8
ACHSEN
100
AcDbLine
 10
714.8471010415256
 20
729.1592687390061
 30
0.0
 11
754.8492297385496
 21
729.1592687390061
 31
0.0
  0
DIMENSION
  5
2F
330
2
100
AcDbEntity
  8
BEMASSUNG
100
AcDbDimension
  2
*D1
 10
770.8387594630146
 20
729.1592687390061
 30
0.0
 11
764.0887594630146
 21
677.4092687390061
 31
0.0
 12
-209.9684367015088
 22
451.2990792629525
 32
0.0
  1
103.5
 71
     5
 42
-1.0
  3
EXTERN-FUER-KUNDE
100
AcDbAlignedDimension
 13
729.8492297385496
 23
625.6592687390061
 33
0.0
 14
754.8492297385496
 24
729.1592687390061
 34
0.0
 50
90.0
100
AcDbRotatedDimension
  0
DIMENSION
  5
3D
330
2
100
AcDbEntity
  8
BEMASSUNG
100
AcDbDimension
  2
*D4
 10
754.8492297385496
 20
602.9675059616502
 30
0.0
 11
741.3492297385496
 21
609.7175059616501
 31
0.0
 12
-209.9684367015088
 22
451.2990792629525
 32
0.0
 71
     5
 42
-1.0
  3
EXTERN-FUER-KUNDE
100
AcDbAlignedDimension
 13
727.8492297385496
 23
625.6592687390061
 33
0.0
 14
754.8492297385496
 24
650.6592687390061
 34
0.0
100
AcDbRotatedDimension
  0
DIMENSION
  5
4A
330
2
100
AcDbEntity
  8
BEMASSUNG
100
AcDbDimension
  2
*D2
 10
789.7889589870406
 20
785.6592687390062
 30
0.0
 11
783.0389589870406
 21
705.6592687390061
 31
0.0
 12
-209.9684367015088
 22
451.2990792629525
 32
0.0
 71
     5
 42
-1.0
  3
EXTERN-FUER-KUNDE
100
AcDbAlignedDimension
 13
729.8492297385496
 23
625.6592687390061
 33
0.0
 14
729.8492297385496
 24
785.6592687390062
 34
0.0
 50
90.0
100
AcDbRotatedDimension
  0
DIMENSION
  5
57
330
2
100
AcDbEntity
  8
BEMASSUNG
100
AcDbDimension
  2
*D6
 10
770.8387594630146
 20
785.6592687390062
 30
0.0
 11
764.0887594630146
 21
757.4092687390061
 31
0.0
 12
-209.9684367015088
 22
451.2990792629525
 32
0.0
  1
56.5
 71
     5
 42
-1.0
  3
EXTERN-FUER-KUNDE
100
AcDbAlignedDimension
 13
754.8492297385496
 23
729.1592687390061
 33
0.0
 14
729.8492297385496
 24
785.6592687390062
 34
0.0
 50
90.0
100
AcDbRotatedDimension
  0
LWPOLYLINE
  5
64
330
2
100
AcDbEntity
  8
UMRISS05
100
AcDbPolyline
 90
        4
 70
     1
 43
0.0
 10
667.8492297385491
 20
840.6592687390061
 10
670.8492297385491
 20
840.6592687390061
 10
670.8492297385491
 20
570.6592687390061
 10
667.8492297385491
 20
570.6592687390061
  0
LWPOLYLINE
  5
65
330
2
100
AcDbEntity
  8
UMRISS05
100
AcDbPolyline
 90
        4
 70
     0
 43
0.0
 10
667.8492297385491
 20
762.6592687390061
 10
655.3492297385491
 20
762.6592687390061
 10
655.3492297385491
 20
737.6592687390061
 10
667.8492297385491
 20
737.6592687390061
  0
LWPOLYLINE
  5
66
330
2
100
AcDbEntity
  8
UMRISS05
100
AcDbPolyline
 90
        4
 70
     0
 43
0.0
 10
670.8492297385491
 20
743.0213324689307
 10
677.9799806860069
 20
743.0213324689307
 10
677.9799806860069
 20
754.735258249676
 10
670.8492297385491
 20
754.735258249676
  0
LWPOLYLINE
  5
67
330
2
100
AcDbEntity
  8
UMRISS05
100
AcDbPolyline
 90
        4
 70
     0
 43
0.0
 10
670.8492297385491
 20
741.3456869014726
 10
686.5459349107541
 20
741.3456869014726
 10
686.5459349107541
 20
756.8891652888874
 10
670.8492297385491
 20
756.8891652888874
  0
DIMENSION
  5
68
330
2
100
AcDbEntity
  8
BEMASSUNG
100
AcDbDimension
  2
*D9
 10
613.3009416085815
 20
840.6592687390061
 30
0.0
 11
606.5509416085813
 21
705.6592687390063
 31
0.0
 71
     5
 42
270.0
  3
EXTERN-FUER-KUNDE
100
AcDbAlignedDimension
 13
667.8492297385491
 23
570.6592687390061
 33
0.0
 14
667.8492297385491
 24
840.6592687390061
 34
0.0
 50
90.0
100
AcDbRotatedDimension
  0
DIMENSION
  5
75
330
2
100
AcDbEntity
  8
BEMASSUNG
100
AcDbDimension
  2
*D10
 10
631.2192297385495
 20
762.6592687390061
 30
0.0
 11
624.4692297385494
 21
750.1592687390062
 31
0.0
 71
     5
 42
25.0
  3
EXTERN-FUER-KUNDE
100
AcDbAlignedDimension
 13
655.3492297385491
 23
737.6592687390061
 33
0.0
 14
655.3492297385491
 24
762.6592687390061
 34
0.0
 50
90.0
100
AcDbRotatedDimension
  0
LINE
  5
82
330
2
100
AcDbEntity
  8
UMRISS05
100
AcDbLine
 10
663.8844740067857
 20
750.1291032235122
 30
0.0
 11
663.8844740067857
 21
744.2721403331397
 31
0.0
  0
LINE
  5
83
330
2
100
AcDbEntity
  8
UMRISS05
100
AcDbLine
 10
657.5479238176408
 20
750.1291032235122
 30
0.0
 11
657.5479238176408
 21
744.2721403331397
 31
0.0
  0
DIMENSION
  5
84
330
2
100
AcDbEntity
  8
BEMASSUNG
100
AcDbDimension
  2
*D11
 10
652.6090611817389
 20
625.6592687390061
 30
0.0
 11
645.8590611817388
 21
598.1592687390063
 31
0.0
 71
     5
 42
55.0
  3
EXTERN-FUER-KUNDE
100
AcDbAlignedDimension
 13
667.8492297385491
 23
570.6592687390061
 33
0.0
 14
670.8492297385491
 24
625.6592687390061
 34
0.0
 50
90.0
100
AcDbRotatedDimension
  0
DIMENSION
  5
91
330
2
100
AcDbEntity
  8
BEMASSUNG
  6
Continuous
100
AcDbDimension
  2
*D8
 10
667.8492297385491
 20
602.9675059616502
 30
0.0
 11
697.8492297385492
 21
609.7175059616501
 31
0.0
  1
60
 71
     5
 42
60.0
  3
EXTERN-FUER-KUNDE
100
AcDbAlignedDimension
 13
727.8492297385492
 23
625.6592687390061
 33
0.0
 14
667.8492297385491
 24
601.5593584820964
 34
0.0
100
AcDbRotatedDimension
  0
DIMENSION
  5
9E
330
2
100
AcDbEntity
  8
BEMASSUNG
100
AcDbDimension
  2
*D12
 10
631.2192297385495
 20
665.6592687390062
 30
0.0
 11
624.4692297385494
 21
618.1592687390063
 31
0.0
 71
     5
 42
95.0
  3
EXTERN-FUER-KUNDE
100
AcDbAlignedDimension
 13
667.8492297385491
 23
570.6592687390061
 33
0.0
 14
642.8492297385491
 24
665.6592687390062
 34
0.0
 50
90.0
100
AcDbRotatedDimension
  0
DIMENSION
  5
AB
330
2
100
AcDbEntity
  8
BEMASSUNG
100
AcDbDimension
  2
*D13
 10
631.2192297385495
 20
491.6579125541211
 30
0.0
 11
621.3192297385494
 21
496.9079125541212
 31
0.0
 71
     5
 42
10.5
  3
EXTERN-FUER-KUNDE
100
AcDbAlignedDimension
 13
642.8152745790908
 23
502.1579125541211
 33
0.0
 14
642.8152745790908
 24
491.6579125541211
 34
0.0
 50
90.0
100
AcDbRotatedDimension
  0
LWPOLYLINE
  5
BA
330
2
100
AcDbEntity
  8
UMRISS05
100
AcDbPolyline
 90
        6
 70
     0
 43
0.0
 10
663.8844740067857
 20
502.1579125541211
 10
663.8844740067857
 20
504.0169188018178
 10
657.5479238176408
 20
505.5999875992506
 42
0.2614783766249172
 10
657.5479238176408
 20
488.2158375089916
 10
663.8844740067857
 20
489.7989063064242
 10
663.8844740067857
 20
491.6579125541211
  0
LWPOLYLINE
  5
BB
330
2
100
AcDbEntity
  8
UMRISS05
100
AcDbPolyline
 90
        6
 70
     1
 43
0.0
 10
670.8152745790908
 20
506.9079125541211
 10
667.8152745790908
 20
506.9079125541211
 10
667.8152745790908
 20
496.9079125541211
 10
667.8152745790908
 20
486.9079125541211
 10
670.8152745790908
 20
486.9079125541211
 10
670.8152745790908
 20
496.9079125541211
  0
LWPOLYLINE
  5
BC
330
2
100
AcDbEntity
  8
AVERDECKTE
  6
VERDECKT
100
AcDbPolyline
 90
        4
 70
     0
 43
0.0
 10
667.4427046342625
 20
502.1579125541211
 42
0.4142135623730951
 10
666.4427046342625
 20
501.1579125541211
 10
666.4427046342625
 20
492.6579125541211
 42
0.4142135623730951
 10
667.4427046342625
 20
491.6579125541211
  0
LWPOLYLINE
  5
BF
330
2
100
AcDbEntity
  8
AVERDECKTE
  6
VERDECKT
100
AcDbPolyline
 90
        4
 70
     0
 43
0.0
 10
645.406876557733
 20
491.6579125541211
 42
0.4142135623730951
 10
646.406876557733
 20
492.6579125541211
 10
646.406876557733
 20
501.1579125541211
 42
0.4142135623730951
 10
645.406876557733
 20
502.1579125541211
 42
0.4142135623730951
  0
LWPOLYLINE
  5
C0
330
2
100
AcDbEntity
  8
UMRISS05
100
AcDbPolyline
 90
        7
 70
     0
 43
0.0
 10
667.8152745790908
 20
491.6579125541211
 10
656.0689620126945
 20
491.6579125541211
 10
642.8152745790908
 20
491.6579125541211
 10
642.8152745790908
 20
496.9079125541211
 10
642.8152745790908
 20
502.1579125541211
 10
656.0689620126945
 20
502.1579125541211
 10
667.8152745790908
 20
502.1579125541211
  0
POINT
  5
C1
330
2
100
AcDbEntity
  8
6
  6
Continuous
 62
     7
100
AcDbPoint
 10
642.8152745790908
 20
491.6579125541211
 30
0.0
  0
POINT
  5
C3
330
2
100
AcDbEntity
  8
6
  6
Continuous
 62
     7
100
AcDbPoint
 10
667.8152745790908
 20
486.9079125541211
 30
0.0
  0
POINT
  5
C4
330
2
100
AcDbEntity
  8
6
  6
Continuous
 62
     7
100
AcDbPoint
 10
642.8152745790908
 20
502.1579125541211
 30
0.0
  0
POINT
  5
C5
330
2
100
AcDbEntity
  8
6
  6
Continuous
 62
     7
100
AcDbPoint
 10
667.8152745790908
 20
506.9079125541211
 30
0.0
  0
DIMENSION
  5
C6
330
2
100
AcDbEntity
  8
BEMASSUNG
100
AcDbDimension
  2
*D14
 10
670.8492297385491
 20
545.315787808111
 30
0.0
 11
684.0557956680104
 21
552.4235527346791
 31
0.0
 70
   128
 71
     5
 42
3.0
  3
EXTERN-FUER-KUNDE
100
AcDbAlignedDimension
 13
667.8492297385491
 23
570.6592687390061
 33
0.0
 14
670.8492297385491
 24
570.6592687390061
 34
0.0
100
AcDbRotatedDimension
  0
LWPOLYLINE
  5
D5
330
2
100
AcDbEntity
  8
UMRISS05
100
AcDbPolyline
 90
        4
 70
     0
 43
0.0
 10
667.8492297385491
 20
715.6592687390062
 10
642.8492297385491
 20
715.6592687390062
 10
642.8492297385491
 20
665.6592687390062
 10
667.8492297385491
 20
665.6592687390062
  0
LWPOLYLINE
  5
D6
330
2
100
AcDbEntity
  8
UMRISS05
100
AcDbPolyline
 90
        4
 70
     1
 43
0.0
 10
645.406876557733
 20
700.4156785477999
 10
645.406876557733
 20
680.6401155618437
 42
1.0
 10
667.4427046342625
 20
680.6401155618437
 10
667.4427046342625
 20
700.4156785477999
 42
1.0
  0
LWPOLYLINE
  5
D7
330
2
100
AcDbEntity
  8
UMRISS05
100
AcDbPolyline
 90
        4
 70
     1
 43
0.0
 10
646.406876557733
 20
700.4156785477999
 10
646.406876557733
 20
680.6401155618437
 42
1.0
 10
666.4427046342625
 20
680.6401155618437
 10
666.4427046342625
 20
700.4156785477999
 42
1.0
  0
DIMENSION
  5
D8
330
2
100
AcDbEntity
  8
BEMASSUNG
100
AcDbDimension
  2
*D15
 10
631.2192297385495
 20
715.6592687390062
 30
0.0
 11
624.4692297385494
 21
690.6592687390062
 31
0.0
 71
     5
 42
50.0
  3
EXTERN-FUER-KUNDE
100
AcDbAlignedDimension
 13
642.8492297385491
 23
665.6592687390062
 33
0.0
 14
642.8492297385491
 24
715.6592687390062
 34
0.0
 50
90.0
100
AcDbRotatedDimension
  0
LINE
  5
E5
330
2
100
AcDbEntity
  8
ACHSEN
100
AcDbLine
 10
727.8492297385492
 20
625.6592687390061
 30
0.0
 11
727.8492297385496
 21
743.1592687390061
 31
0.0
  0
DIMENSION
  5
E6
330
2
100
AcDbEntity
  8
BEMASSUNG
100
AcDbDimension
  2
*D16
 10
667.8492297385491
 20
648.0237087101791
 30
0.0
 11
655.3492297385491
 21
654.7737087101791
 31
0.0
 71
     5
 42
25.0
  3
EXTERN-FUER-KUNDE
100
AcDbAlignedDimension
 13
642.8492297385491
 23
665.6592687390062
 33
0.0
 14
667.8492297385491
 24
649.2137776164986
 34
0.0
100
AcDbRotatedDimension
  0
ARC
  5
F3
330
2
100
AcDbEntity
  8
UMRISS05
100
AcDbCircle
 10
727.6471120233582
 20
655.2132987778218
 30
0.0
 40
0.3
100
AcDbArc
 50
180.0
 51
270.0
  0
ARC
  5
F4
330
2
100
AcDbEntity
  8
UMRISS05
100
AcDbCircle
 10
728.0471120233583
 20
655.2132987778218
 30
0.0
 40
0.3
100
AcDbArc
 50
270.0
 51
0.0
  0
CIRCLE
  5
F5
330
2
100
AcDbEntity
  8
UMRISS05
100
AcDbCircle
 10
727.8492297385496
 20
656.9373343357296
 30
0.0
 40
3.5
  0
LINE
  5
F6
330
2
100
AcDbEntity
  8
UMRISS05
100
AcDbLine
 10
727.6471120233582
 20
654.9132987778216
 30
0.0
 11
728.0471120233583
 21
654.9132987778216
 31
0.0
  0
LINE
  5
F7
330
2
100
AcDbEntity
  8
UMRISS05
100
AcDbLine
 10
727.6471120233582
 20
658.9132987778216
 30
0.0
 11
728.0471120233583
 21
658.9132987778216
 31
0.0
  0
ARC
  5
F8
330
2
100
AcDbEntity
  8
UMRISS05
100
AcDbCircle
 10
727.6471120233582
 20
658.6132987778216
 30
0.0
 40
0.3
100
AcDbArc
 50
90.0
 51
180.0
  0
ARC
  5
F9
330
2
100
AcDbEntity
  8
UMRISS05
100
AcDbCircle
 10
728.0471120233583
 20
658.6132987778216
 30
0.0
 40
0.3
100
AcDbArc
 50
0.0
 51
90.0
  0
LINE
  5
FA
330
2
100
AcDbEntity
  8
UMRISS05
100
AcDbLine
 10
729.8471120233585
 20
657.1132987778216
 30
0.0
 11
729.8471120233585
 21
656.7132987778218
 31
0.0
  0
ARC
  5
FB
330
2
100
AcDbEntity
  8
UMRISS05
100
AcDbCircle
 10
726.1471120233582
 20
656.7132987778218
 30
0.0
 40
0.3
100
AcDbArc
 50
180.0
 51
270.0
  0
ARC
  5
FC
330
2
100
AcDbEntity
  8
UMRISS05
100
AcDbCircle
 10
726.1471120233582
 20
657.1132987778216
 30
0.0
 40
0.3
100
AcDbArc
 50
90.0
 51
180.0
  0
ARC
  5
FD
330
2
100
AcDbEntity
  8
UMRISS05
100
AcDbCircle
 10
727.2471120233581
 20
657.5132987778218
 30
0.0
 40
0.1
100
AcDbArc
 50
270.0
 51
0.0
  0
ARC
  5
FE
330
2
100
AcDbEntity
  8
UMRISS05
100
AcDbCircle
 10
728.4471120233583
 20
657.5132987778218
 30
0.0
 40
0.1
100
AcDbArc
 50
180.0
 51
270.0
  0
LINE
  5
FF
330
2
100
AcDbEntity
  8
UMRISS05
100
AcDbLine
 10
726.1471120233582
 20
656.4132987778216
 30
0.0
 11
727.2471120233581
 21
656.4132987778216
 31
0.0
  0
LINE
  5
100
330
2
100
AcDbEntity
  8
UMRISS05
100
AcDbLine
 10
727.3471120233584
 20
656.3132987778217
 30
0.0
 11
727.3471120233584
 21
655.2132987778218
 31
0.0
  0
ARC
  5
101
330
2
100
AcDbEntity
  8
UMRISS05
100
AcDbCircle
 10
727.2471120233581
 20
656.3132987778217
 30
0.0
 40
0.1
100
AcDbArc
 50
0.0
 51
90.0
  0
LINE
  5
102
330
2
100
AcDbEntity
  8
UMRISS05
100
AcDbLine
 10
725.8471120233584
 20
657.1132987778216
 30
0.0
 11
725.8471120233584
 21
656.7132987778218
 31
0.0
  0
LINE
  5
103
330
2
100
AcDbEntity
  8
UMRISS05
100
AcDbLine
 10
726.1471120233582
 20
657.4132987778216
 30
0.0
 11
727.2471120233581
 21
657.4132987778216
 31
0.0
  0
LINE
  5
104
330
2
100
AcDbEntity
  8
UMRISS05
100
AcDbLine
 10
728.3471120233585
 20
656.3132987778217
 30
0.0
 11
728.3471120233585
 21
655.2132987778218
 31
0.0
  0
ARC
  5
105
330
2
100
AcDbEntity
  8
UMRISS05
100
AcDbCircle
 10
728.4471120233583
 20
656.3132987778217
 30
0.0
 40
0.1
100
AcDbArc
 50
90.0
 51
180.0
  0
LINE
  5
106
330
2
100
AcDbEntity
  8
UMRISS05
100
AcDbLine
 10
728.4471120233583
 20
656.4132987778216
 30
0.0
 11
729.5471120233583
 21
656.4132987778216
 31
0.0
  0
LINE
  5
107
330
2
100
AcDbEntity
  8
UMRISS05
100
AcDbLine
 10
728.4471120233583
 20
657.4132987778216
 30
0.0
 11
729.5471120233583
 21
657.4132987778216
 31
0.0
  0
ARC
  5
108
330
2
100
AcDbEntity
  8
UMRISS05
100
AcDbCircle
 10
729.5471120233583
 20
656.7132987778218
 30
0.0
 40
0.3
100
AcDbArc
 50
270.0
 51
0.0
  0
ARC
  5
109
330
2
100
AcDbEntity
  8
UMRISS05
100
AcDbCircle
 10
729.5471120233583
 20
657.1132987778216
 30
0.0
 40
0.3
100
AcDbArc
 50
0.0
 51
90.0
  0
LINE
  5
10A
330
2
100
AcDbEntity
  8
UMRISS05
100
AcDbLine
 10
727.3471120233584
 20
658.6132987778216
 30
0.0
 11
727.3471120233584
 21
657.5132987778218
 31
0.0
  0
LINE
  5
10B
330
2
100
AcDbEntity
  8
UMRISS05
100
AcDbLine
 10
728.3471120233585
 20
658.6132987778216
 30
0.0
 11
728.3471120233585
 21
657.5132987778218
 31
0.0
  0
DIMENSION
  5
10C
330
2
100
AcDbEntity
  8
BEMASSUNG
100
AcDbDimension
  2
*D17
 10
631.2192297385495
 20
737.6592687390061
 30
0.0
 11
624.4692297385494
 21
726.6592687390063
 31
0.0
 71
     5
 42
22.0
  3
EXTERN-FUER-KUNDE
100
AcDbAlignedDimension
 13
642.8492297385491
 23
715.6592687390062
 33
0.0
 14
655.3492297385491
 24
737.6592687390061
 34
0.0
 50
90.0
100
AcDbRotatedDimension
  0
LINE
  5
119
330
2
100
AcDbEntity
  8
UMRISS05
100
AcDbLine
 10
655.3492297385491
 20
744.2721403331397
 30
0.0
 11
667.8492297385491
 21
744.2721403331397
 31
0.0
  0
CIRCLE
  5
11A
330
2
100
AcDbEntity
  8
UMRISS05
100
AcDbCircle
 10
712.7916593785353
 20
689.6192533186136
 30
0.0
 40
2.0
  0
DIMENSION
  5
11B
330
2
100
AcDbEntity
  8
BEMASSUNG
100
AcDbDimension
  2
*D18
 10
652.6090611817389
 20
840.6592687390061
 30
0.0
 11
645.8590611817387
 21
813.1592687390062
 31
0.0
 71
     5
 42
55.0
  3
EXTERN-FUER-KUNDE
100
AcDbAlignedDimension
 13
670.8492297385491
 23
785.6592687390062
 33
0.0
 14
667.8492297385491
 24
840.6592687390061
 34
0.0
 50
90.0
100
AcDbRotatedDimension
  0
DIMENSION
  5
128
330
2
100
AcDbEntity
  8
BEMASSUNG
100
AcDbDimension
  2
*D19
 10
631.2192297385495
 20
840.6592687390061
 30
0.0
 11
624.4692297385492
 21
801.6592687390062
 31
0.0
 71
     5
 42
78.0
  3
EXTERN-FUER-KUNDE
100
AcDbAlignedDimension
 13
655.3492297385491
 23
762.6592687390061
 33
0.0
 14
667.8492297385491
 24
840.6592687390061
 34
0.0
 50
90.0
100
AcDbRotatedDimension
  0
DIMENSION
  5
135
330
2
100
AcDbEntity
  8
BEMASSUNG
100
AcDbDimension
  2
*D20
 10
667.8492297385491
 20
770.1592319737301
 30
0.0
 11
651.6354779468465
 21
778.1488170167149
 31
0.0
 70
   128
  1
12.5
 71
     5
 42
12.5
  3
EXTERN-FUER-KUNDE
100
AcDbAlignedDimension
 13
655.3492297385491
 23
762.6592687390061
 33
0.0
 14
667.8492297385491
 24
774.3210913304579
 34
0.0
100
AcDbRotatedDimension
  0
LINE
  5
144
330
2
100
AcDbEntity
  8
UMRISS05
100
AcDbLine
 10
677.9799806860069
 20
748.8782953593036
 30
0.0
 11
670.8492297385491
 21
748.8782953593036
 31
0.0
  0
LINE
  5
145
330
2
100
AcDbEntity
  8
UMRISS05
100
AcDbLine
 10
667.8492297385491
 20
750.1291032235122
 30
0.0
 11
655.3492297385491
 21
750.1291032235122
 31
0.0
  0
LINE
  5
146
330
2
100
AcDbEntity
  8
UMRISS05
100
AcDbLine
 10
655.3492297385491
 20
755.986066113885
 30
0.0
 11
667.8492297385491
 21
755.986066113885
 31
0.0
  0
CIRCLE
  5
147
330
2
100
AcDbEntity
  8
UMRISS05
100
AcDbCircle
 10
706.8492297385492
 20
767.5535581113081
 30
0.0
 40
3.5
  0
CIRCLE
  5
148
330
2
100
AcDbEntity
  8
UMRISS05
100
AcDbCircle
 10
727.8492297385496
 20
753.0100877735216
 30
0.0
 40
2.0
  0
ARC
  5
149
330
2
100
AcDbEntity
  8
UMRISS05
100
AcDbCircle
 10
708.5471120233583
 20
767.7295225534003
 30
0.0
 40
0.3
100
AcDbArc
 50
0.0
 51
90.0
  0
ARC
  5
14A
330
2
100
AcDbEntity
  8
UMRISS05
100
AcDbCircle
 10
708.5471120233583
 20
767.3295225534002
 30
0.0
 40
0.3
100
AcDbArc
 50
270.0
 51
0.0
  0
LINE
  5
14B
330
2
100
AcDbEntity
  8
UMRISS05
100
AcDbLine
 10
708.847112023358
 20
767.7295225534003
 30
0.0
 11
708.847112023358
 21
767.3295225534002
 31
0.0
  0
LINE
  5
14C
330
2
100
AcDbEntity
  8
UMRISS05
100
AcDbLine
 10
705.1471120233582
 20
768.0295225534004
 30
0.0
 11
706.2471120233581
 21
768.0295225534004
 31
0.0
  0
LINE
  5
14D
330
2
100
AcDbEntity
  8
UMRISS05
100
AcDbLine
 10
705.1471120233582
 20
767.0295225534005
 30
0.0
 11
706.2471120233581
 21
767.0295225534005
 31
0.0
  0
ARC
  5
14E
330
2
100
AcDbEntity
  8
UMRISS05
100
AcDbCircle
 10
705.1471120233582
 20
767.7295225534003
 30
0.0
 40
0.3
100
AcDbArc
 50
90.0
 51
180.0
  0
ARC
  5
14F
330
2
100
AcDbEntity
  8
UMRISS05
100
AcDbCircle
 10
705.1471120233582
 20
767.3295225534002
 30
0.0
 40
0.3
100
AcDbArc
 50
180.0
 51
270.0
  0
LINE
  5
150
330
2
100
AcDbEntity
  8
UMRISS05
100
AcDbLine
 10
704.847112023358
 20
767.7295225534003
 30
0.0
 11
704.847112023358
 21
767.3295225534002
 31
0.0
  0
LINE
  5
151
330
2
100
AcDbEntity
  8
UMRISS05
100
AcDbLine
 10
707.347112023358
 20
766.9295225534006
 30
0.0
 11
707.347112023358
 21
765.8295225534002
 31
0.0
  0
ARC
  5
152
330
2
100
AcDbEntity
  8
UMRISS05
100
AcDbCircle
 10
707.0471120233583
 20
765.8295225534002
 30
0.0
 40
0.3
100
AcDbArc
 50
270.0
 51
0.0
  0
ARC
  5
153
330
2
100
AcDbEntity
  8
UMRISS05
100
AcDbCircle
 10
707.4471120233579
 20
766.9295225534006
 30
0.0
 40
0.1
100
AcDbArc
 50
90.0
 51
180.0
  0
LINE
  5
154
330
2
100
AcDbEntity
  8
UMRISS05
100
AcDbLine
 10
706.347112023358
 20
766.9295225534006
 30
0.0
 11
706.347112023358
 21
765.8295225534002
 31
0.0
  0
ARC
  5
155
330
2
100
AcDbEntity
  8
UMRISS05
100
AcDbCircle
 10
706.6471120233582
 20
765.8295225534002
 30
0.0
 40
0.3
100
AcDbArc
 50
180.0
 51
270.0
  0
ARC
  5
156
330
2
100
AcDbEntity
  8
UMRISS05
100
AcDbCircle
 10
706.2471120233581
 20
766.9295225534006
 30
0.0
 40
0.1
100
AcDbArc
 50
0.0
 51
90.0
  0
LINE
  5
157
330
2
100
AcDbEntity
  8
UMRISS05
100
AcDbLine
 10
706.6471120233582
 20
765.5295225534005
 30
0.0
 11
707.0471120233583
 21
765.5295225534005
 31
0.0
  0
LINE
  5
158
330
2
100
AcDbEntity
  8
UMRISS05
100
AcDbLine
 10
707.347112023358
 20
769.2295225534003
 30
0.0
 11
707.347112023358
 21
768.1295225534004
 31
0.0
  0
ARC
  5
159
330
2
100
AcDbEntity
  8
UMRISS05
100
AcDbCircle
 10
707.0471120233583
 20
769.2295225534003
 30
0.0
 40
0.3
100
AcDbArc
 50
0.0
 51
90.0
  0
ARC
  5
15A
330
2
100
AcDbEntity
  8
UMRISS05
100
AcDbCircle
 10
707.4471120233579
 20
768.1295225534004
 30
0.0
 40
0.1
100
AcDbArc
 50
180.0
 51
270.0
  0
LINE
  5
15B
330
2
100
AcDbEntity
  8
UMRISS05
100
AcDbLine
 10
706.347112023358
 20
769.2295225534003
 30
0.0
 11
706.347112023358
 21
768.1295225534004
 31
0.0
  0
ARC
  5
15C
330
2
100
AcDbEntity
  8
UMRISS05
100
AcDbCircle
 10
706.6471120233582
 20
769.2295225534003
 30
0.0
 40
0.3
100
AcDbArc
 50
90.0
 51
180.0
  0
ARC
  5
15D
330
2
100
AcDbEntity
  8
UMRISS05
100
AcDbCircle
 10
706.2471120233581
 20
768.1295225534004
 30
0.0
 40
0.1
100
AcDbArc
 50
270.0
 51
0.0
  0
LINE
  5
15E
330
2
100
AcDbEntity
  8
UMRISS05
100
AcDbLine
 10
706.6471120233582
 20
769.5295225534005
 30
0.0
 11
707.0471120233583
 21
769.5295225534005
 31
0.0
  0
LINE
  5
15F
330
2
100
AcDbEntity
  8
UMRISS05
100
AcDbLine
 10
707.4471120233579
 20
767.0295225534005
 30
0.0
 11
708.5471120233583
 21
767.0295225534005
 31
0.0
  0
LINE
  5
160
330
2
100
AcDbEntity
  8
UMRISS05
100
AcDbLine
 10
707.4471120233579
 20
768.0295225534004
 30
0.0
 11
708.5471120233583
 21
768.0295225534004
 31
0.0
  0
LINE
  5
161
330
2
100
AcDbEntity
  8
UMRISS05
100
AcDbLine
 10
829.8216965335672
 20
748.8782953593036
 30
0.0
 11
829.8216965335672
 21
742.5898198561472
 31
0.0
  0
LINE
  5
162
330
2
100
AcDbEntity
  8
UMRISS05
100
AcDbLine
 10
819.3488173588875
 20
742.5898198561472
 30
0.0
 11
819.3488173588875
 21
748.8782953593036
 31
0.0
  0
LINE
  5
163
330
2
100
AcDbEntity
  8
UMRISS05
100
AcDbLine
 10
816.3455721344144
 20
742.5898198561472
 30
0.0
 11
816.3455721344144
 21
748.8782953593036
 31
0.0
  0
LWPOLYLINE
  5
164
330
2
100
AcDbEntity
  8
UMRISS05
100
AcDbPolyline
 90
        2
 70
     0
 43
0.0
 10
811.5955721344144
 20
580.6592687390064
 10
811.5955721344144
 20
830.6592687390063
  0
LWPOLYLINE
  5
165
330
2
100
AcDbEntity
  8
UMRISS05
100
AcDbPolyline
 90
        2
 70
     0
 43
0.0
 10
831.5955721344149
 20
830.6592687390063
 10
831.5955721344149
 20
580.6592687390064
  0
DIMENSION
  5
166
330
2
100
AcDbEntity
  8
BEMASSUNG
100
AcDbDimension
  2
*D0
 10
854.1633875161259
 20
601.6592687390061
 30
0.0
 11
847.413387516126
 21
705.6592687390061
 31
0.0
 12
-209.9684367015088
 22
451.2990792629525
 32
0.0
 71
     5
 42
-1.0
  3
EXTERN-FUER-KUNDE
100
AcDbAlignedDimension
 13
828.0280605713915
 23
809.6592687390062
 33
0.0
 14
828.0280605713915
 24
601.6592687390061
 34
0.0
 50
90.0
100
AcDbRotatedDimension
  0
LINE
  5
173
330
2
100
AcDbEntity
  8
BEMASSUNG
  6
Continuous
100
AcDbLine
 10
854.1633875161259
 20
601.6592687390061
 30
0.0
 11
854.1633875161259
 21
556.2592687390061
 31
0.0
  0
LINE
  5
174
330
2
100
AcDbEntity
  8
ACHSEN
100
AcDbLine
 10
821.5955721344144
 20
607.8657579689298
 30
0.0
 11
821.5955721344144
 21
595.674439785307
 31
0.0
  0
CIRCLE
  5
175
330
2
100
AcDbEntity
  8
UMRISS05
100
AcDbCircle
 10
821.5955721344144
 20
601.6592687390061
 30
0.0
 40
4.75
  0
CIRCLE
  5
176
330
2
100
AcDbEntity
  8
UMRISS05
100
AcDbCircle
 10
821.5955721344144
 20
601.6592687390061
 30
0.0
 40
2.6
  0
LINE
  5
177
330
2
100
AcDbEntity
  8
BEMASSUNG
  6
Continuous
100
AcDbLine
 10
821.5955721344144
 20
570.6592687390063
 30
0.0
 11
855.963387516126
 21
570.6592687390061
 31
0.0
  0
LINE
  5
178
330
2
100
AcDbEntity
  8
BEMASSUNG
  6
Continuous
100
AcDbLine
 10
828.9280605713916
 20
584.6592687390061
 30
0.0
 11
855.963387516126
 21
584.6592687390061
 31
0.0
  0
MTEXT
  5
179
330
2
100
AcDbEntity
  8
0
  6
ByBlock
 62
     3
100
AcDbMText
 10
846.9590272979708
 20
577.7745832158507
 30
0.0
 40
8.099999999999999
 41
0.0
 71
     5
 72
     1
  1
\A1;14
  7
NORM
 11
0.0000000000000001
 21
1.0
 31
0.0
 73
     1
 44
1.0
  0
MTEXT
  5
17A
330
2
100
AcDbEntity
  8
0
  6
ByBlock
 62
     3
100
AcDbMText
 10
847.413387516126
 20
593.1592687390061
 30
0.0
 40
8.099999999999999
 41
0.0
 71
     5
 72
     1
  1
\A1;17
  7
NORM
 11
0.0000000000000001
 21
1.0
 31
0.0
 73
     1
 44
1.0
  0
DIMENSION
  5
17B
330
2
100
AcDbEntity
  8
BEMASSUNG
100
AcDbDimension
  2
*D3
 10
782.2185443440466
 20
489.7903546563134
 30
0.0
 11
774.7812957380593
 21
497.2903546563133
 31
0.0
 12
-209.9684367015088
 22
451.2990792629525
 32
0.0
 70
   128
 71
     5
 42
-1.0
  3
EXTERN-FUER-KUNDE
100
AcDbAlignedDimension
 13
754.7982480876844
 23
504.7903546563134
 33
0.0
 14
754.7982480876844
 24
489.7903546563134
 34
0.0
 50
90.0
100
AcDbRotatedDimension
  0
DIMENSION
  5
18B
330
2
100
AcDbEntity
  8
BEMASSUNG
100
AcDbDimension
  2
*D5
 10
831.5955721344144
 20
545.315787808111
 30
0.0
 11
821.5955721344144
 21
552.065787808111
 31
0.0
 12
-795.8194768317266
 22
451.2990792629525
 32
0.0
 71
     5
 42
-1.0
  3
EXTERN-FUER-KUNDE
100
AcDbAlignedDimension
 13
811.5955721344144
 23
580.6592687390064
 33
0.0
 14
831.5955721344144
 24
580.6592687390064
 34
0.0
100
AcDbRotatedDimension
  0
ARC
  5
198
330
2
100
AcDbEntity
  8
UMRISS05
100
AcDbCircle
 10
821.5955721344144
 20
580.6592687390064
 30
0.0
 40
10.0
100
AcDbArc
 50
180.0
 51
0.0
  0
LINE
  5
199
330
2
100
AcDbEntity
  8
ACHSEN
100
AcDbLine
 10
815.4957991174688
 20
584.6592687390061
 30
0.0
 11
828.0280605713915
 21
584.6592687390061
 31
0.0
  0
CIRCLE
  5
19A
330
2
100
AcDbEntity
  8
UMRISS05
100
AcDbCircle
 10
821.5955721344144
 20
584.6592687390061
 30
0.0
 40
4.75
  0
CIRCLE
  5
19B
330
2
100
AcDbEntity
  8
UMRISS05
100
AcDbCircle
 10
821.5955721344144
 20
584.6592687390061
 30
0.0
 40
2.6
  0
LINE
  5
19C
330
2
100
AcDbEntity
  8
ACHSEN
100
AcDbLine
 10
821.5955721344144
 20
590.8657579689297
 30
0.0
 11
821.5955721344144
 21
578.6744397853069
 31
0.0
  0
SOLID
  5
19D
330
2
100
AcDbEntity
  8
BEMASSUNG
  6
Continuous
100
AcDbTrace
 10
852.9633875161259
 20
563.459268739006
 30
0.0
 11
855.363387516126
 21
563.459268739006
 31
0.0
 12
854.1633875161259
 22
570.6592687390061
 32
0.0
 13
854.1633875161259
 23
570.6592687390061
 33
0.0
  0
LWPOLYLINE
  5
19E
330
2
100
AcDbEntity
  8
BEMASSUNG
  6
Continuous
100
AcDbPolyline
 90
        2
 70
     1
 43
0.25
 10
853.7883875161259
 20
584.6592687390061
 42
1.0
 10
854.538387516126
 20
584.6592687390061
 42
1.0
  0
LWPOLYLINE
  5
19F
330
2
100
AcDbEntity
  8
UMRISS05
100
AcDbPolyline
 90
        5
 70
     1
 43
0.0
 10
826.8455721344148
 20
715.6592687390062
 10
826.8455721344148
 20
665.6592687390062
 10
816.3455721344144
 20
665.6592687390062
 10
816.3455721344144
 20
715.6592687390062
 10
821.5955721344144
 20
715.6592687390062
  0
CIRCLE
  5
1A0
330
2
100
AcDbEntity
  8
UMRISS05
100
AcDbCircle
 10
744.115913805796
 20
670.2790144543159
 30
0.0
 40
2.0
  0
LINE
  5
1A1
330
2
100
AcDbEntity
  8
ACHSEN
100
AcDbLine
 10
821.5955721344144
 20
655.0959513705277
 30
0.0
 11
821.5955721344144
 21
634.3579538409258
 31
0.0
  0
LINE
  5
1A2
330
2
100
AcDbEntity
  8
ACHSEN
100
AcDbLine
 10
815.4957991174688
 20
601.6592687390061
 30
0.0
 11
828.0280605713915
 21
601.6592687390061
 31
0.0
  0
POINT
  5
1A3
330
2
100
AcDbEntity
  8
6
  6
Continuous
 62
     7
100
AcDbPoint
 10
826.3455721344149
 20
601.6592687390061
 30
0.0
  0
CIRCLE
  5
1A4
330
2
100
AcDbEntity
  8
UMRISS05
100
AcDbCircle
 10
821.5955721344144
 20
645.0699941738541
 30
0.0
 40
6.0
  0
CIRCLE
  5
1A5
330
2
100
AcDbEntity
  8
UMRISS05
100
AcDbCircle
 10
821.5955721344144
 20
645.0699941738541
 30
0.0
 40
8.0
  0
LINE
  5
1A6
330
2
100
AcDbEntity
  8
ACHSEN
100
AcDbLine
 10
811.5955721344144
 20
645.0699941738541
 30
0.0
 11
831.5955721344149
 21
645.0699941738541
 31
0.0
  0
LINE
  5
1A7
330
2
100
AcDbEntity
  8
UMRISS05
100
AcDbLine
 10
816.3455721344144
 20
736.3013443529908
 30
0.0
 11
826.8455721344148
 21
736.3013443529908
 31
0.0
  0
LINE
  5
1A8
330
2
100
AcDbEntity
  8
UMRISS05
100
AcDbLine
 10
829.8216965335672
 20
742.5898198561472
 30
0.0
 11
816.3455721344144
 21
742.5898198561472
 31
0.0
  0
LINE
  5
1A9
330
2
100
AcDbEntity
  8
ACHSEN
100
AcDbLine
 10
815.4957991174688
 20
725.547199935188
 30
0.0
 11
828.0280605713915
 21
725.547199935188
 31
0.0
  0
CIRCLE
  5
1AA
330
2
100
AcDbEntity
  8
UMRISS05
100
AcDbCircle
 10
821.5955721344144
 20
725.547199935188
 30
0.0
 40
4.75
  0
LINE
  5
1AB
330
2
100
AcDbEntity
  8
UMRISS05
100
AcDbLine
 10
816.3455721344144
 20
742.5898198561472
 30
0.0
 11
816.3455721344144
 21
736.3013443529908
 31
0.0
  0
CIRCLE
  5
1AC
330
2
100
AcDbEntity
  8
UMRISS05
100
AcDbCircle
 10
821.5955721344144
 20
725.547199935188
 30
0.0
 40
2.6
  0
LINE
  5
1AD
330
2
100
AcDbEntity
  8
ACHSEN
100
AcDbLine
 10
821.5955721344144
 20
731.7536891651116
 30
0.0
 11
821.5955721344144
 21
719.5623709814886
 31
0.0
  0
LINE
  5
1AE
330
2
100
AcDbEntity
  8
UMRISS05
100
AcDbLine
 10
826.8455721344148
 20
736.3013443529908
 30
0.0
 11
826.8455721344148
 21
742.5898198561472
 31
0.0
  0
LINE
  5
1AF
330
2
100
AcDbEntity
  8
BEMASSUNG
  6
Continuous
100
AcDbLine
 10
821.5955721344144
 20
840.6592687390064
 30
0.0
 11
855.963387516126
 21
840.6592687390061
 31
0.0
  0
LINE
  5
1B0
330
2
100
AcDbEntity
  8
BEMASSUNG
  6
Continuous
100
AcDbLine
 10
828.9280605713916
 20
826.6592687390062
 30
0.0
 11
855.963387516126
 21
826.6592687390062
 31
0.0
  0
MTEXT
  5
1B1
330
2
100
AcDbEntity
  8
0
  6
ByBlock
 62
     3
100
AcDbMText
 10
847.413387516126
 20
818.1592687390061
 30
0.0
 40
8.099999999999999
 41
0.0
 71
     5
 72
     1
  1
\A1;17
  7
NORM
 11
0.0000000000000001
 21
1.0
 31
0.0
 73
     1
 44
1.0
  0
MTEXT
  5
1B2
330
2
100
AcDbEntity
  8
0
  6
ByBlock
 62
     3
100
AcDbMText
 10
846.9954162743679
 20
833.6592687390062
 30
0.0
 40
8.099999999999999
 41
0.0
 71
     5
 72
     1
  1
\A1;14
  7
NORM
 11
0.0000000000000001
 21
1.0
 31
0.0
 73
     1
 44
1.0
  0
LINE
  5
1B3
330
2
100
AcDbEntity
  8
UMRISS05
100
AcDbLine
 10
826.8455721344148
 20
755.16677086246
 30
0.0
 11
813.8694477352618
 21
755.16677086246
 31
0.0
  0
LINE
  5
1B4
330
2
100
AcDbEntity
  8
UMRISS05
100
AcDbLine
 10
816.3455721344144
 20
761.4552463656163
 30
0.0
 11
826.8455721344148
 21
761.4552463656163
 31
0.0
  0
LINE
  5
1B5
330
2
100
AcDbEntity
  8
UMRISS05
100
AcDbLine
 10
813.8694477352618
 20
748.8782953593036
 30
0.0
 11
826.8455721344148
 21
748.8782953593036
 31
0.0
  0
LINE
  5
1B6
330
2
100
AcDbEntity
  8
UMRISS05
100
AcDbLine
 10
813.8694477352618
 20
748.8782953593036
 30
0.0
 11
826.8455721344148
 21
748.8782953593036
 31
0.0
  0
LINE
  5
1B7
330
2
100
AcDbEntity
  8
UMRISS05
100
AcDbLine
 10
816.3455721344144
 20
755.16677086246
 30
0.0
 11
816.3455721344144
 21
761.4552463656163
 31
0.0
  0
LINE
  5
1B8
330
2
100
AcDbEntity
  8
UMRISS05
100
AcDbLine
 10
813.8694477352618
 20
755.16677086246
 30
0.0
 11
813.8694477352618
 21
748.8782953593036
 31
0.0
  0
LINE
  5
1B9
330
2
100
AcDbEntity
  8
UMRISS05
100
AcDbLine
 10
826.8455721344148
 20
748.8782953593036
 30
0.0
 11
829.8216965335672
 21
748.8782953593036
 31
0.0
  0
LINE
  5
1BA
330
2
100
AcDbEntity
  8
UMRISS05
100
AcDbLine
 10
826.8455721344148
 20
761.4552463656163
 30
0.0
 11
826.8455721344148
 21
748.8782953593036
 31
0.0
  0
LINE
  5
1BB
330
2
100
AcDbEntity
  8
UMRISS05
100
AcDbLine
 10
823.869447735262
 20
755.16677086246
 30
0.0
 11
823.869447735262
 21
748.8782953593036
 31
0.0
  0
CIRCLE
  5
1BC
330
2
100
AcDbEntity
  8
UMRISS05
100
AcDbCircle
 10
821.5955721344144
 20
809.6592687390062
 30
0.0
 40
4.75
  0
LINE
  5
1BD
330
2
100
AcDbEntity
  8
ACHSEN
100
AcDbLine
 10
815.4957991174688
 20
809.6592687390062
 30
0.0
 11
828.0280605713915
 21
809.6592687390062
 31
0.0
  0
POINT
  5
1BE
330
2
100
AcDbEntity
  8
6
  6
Continuous
 62
     7
100
AcDbPoint
 10
826.3455721344149
 20
809.6592687390062
 30
0.0
  0
LINE
  5
1BF
330
2
100
AcDbEntity
  8
ACHSEN
100
AcDbLine
 10
821.5955721344144
 20
815.8657579689297
 30
0.0
 11
821.5955721344144
 21
803.6744397853071
 31
0.0
  0
CIRCLE
  5
1C0
330
2
100
AcDbEntity
  8
UMRISS05
100
AcDbCircle
 10
821.5955721344144
 20
809.6592687390062
 30
0.0
 40
2.6
  0
ARC
  5
1C1
330
2
100
AcDbEntity
  8
UMRISS05
100
AcDbCircle
 10
821.5955721344144
 20
830.6592687390063
 30
0.0
 40
10.0
100
AcDbArc
 50
0.0
 51
180.0
  0
LINE
  5
1C2
330
2
100
AcDbEntity
  8
ACHSEN
100
AcDbLine
 10
815.4957991174688
 20
826.6592687390062
 30
0.0
 11
828.0280605713915
 21
826.6592687390062
 31
0.0
  0
CIRCLE
  5
1C3
330
2
100
AcDbEntity
  8
UMRISS05
100
AcDbCircle
 10
821.5955721344144
 20
826.6592687390062
 30
0.0
 40
4.75
  0
CIRCLE
  5
1C4
330
2
100
AcDbEntity
  8
UMRISS05
100
AcDbCircle
 10
821.5955721344144
 20
826.6592687390062
 30
0.0
 40
2.6
  0
LINE
  5
1C5
330
2
100
AcDbEntity
  8
ACHSEN
100
AcDbLine
 10
821.5955721344144
 20
832.8657579689297
 30
0.0
 11
821.5955721344144
 21
820.6744397853071
 31
0.0
  0
LINE
  5
1C6
330
2
100
AcDbEntity
  8
BEMASSUNG
  6
Continuous
100
AcDbLine
 10
854.1633875161259
 20
809.6592687390062
 30
0.0
 11
854.1633875161259
 21
855.0592687390063
 31
0.0
  0
LWPOLYLINE
  5
1C7
330
2
100
AcDbEntity
  8
BEMASSUNG
  6
Continuous
100
AcDbPolyline
 90
        2
 70
     1
 43
0.25
 10
853.7883875161259
 20
826.6592687390062
 42
1.0
 10
854.538387516126
 20
826.6592687390062
 42
1.0
  0
SOLID
  5
1C8
330
2
100
AcDbEntity
  8
BEMASSUNG
  6
Continuous
100
AcDbTrace
 10
852.9633875161259
 20
847.8592687390062
 30
0.0
 11
855.363387516126
 21
847.8592687390062
 31
0.0
 12
854.1633875161259
 22
840.6592687390061
 32
0.0
 13
854.1633875161259
 23
840.6592687390061
 33
0.0
  0
ENDSEC
  0
SECTION
  2
OBJECTS
  0
DICTIONARY
  5
7
330
0
100
AcDbDictionary
281
     1
  3
ACAD_GROUP
350
21
  3
ACAD_LAYOUT
350
6
  3
ACAD_MLINESTYLE
350
22
  3
ACAD_PLOTSETTINGS
350
23
  3
ACAD_PLOTSTYLENAME
350
F
  3
AcDbVariableDictionary
350
1FB
  3
AcmDictionary
350
1D9
  3
AMG
350
1CA
  3
DWGPROPS
350
1FA
  0
DICTIONARY
  5
21
102
{ACAD_REACTORS
330
7
102
}
330
7
100
AcDbDictionary
281
     1
  0
DICTIONARY
  5
6
102
{ACAD_REACTORS
330
7
102
}
330
7
100
AcDbDictionary
281
     1
  3
Layout1
350
B
  3
Model
350
5
  0
DICTIONARY
  5
22
102
{ACAD_REACTORS
330
7
102
}
330
7
100
AcDbDictionary
281
     1
  3
STANDARD
350
26
  0
DICTIONARY
  5
23
102
{ACAD_REACTORS
330
7
102
}
330
7
100
AcDbDictionary
281
     1
  0
ACDBDICTIONARYWDFLT
  5
F
102
{ACAD_REACTORS
330
7
102
}
330
7
100
AcDbDictionary
281
     1
  3
Normal
350
E
100
AcDbDictionaryWithDefault
340
E
  0
DICTIONARY
  5
1FB
102
{ACAD_REACTORS
330
7
102
}
330
7
100
AcDbDictionary
281
     1
  3
DIMASSOC
350
1FD
  3
HIDETEXT
350
1FC
  0
DICTIONARY
  5
1D9
102
{ACAD_REACTORS
330
7
102
}
330
7
100
AcDbDictionary
281
     1
  3
AcmStdDictionary
350
1DA
  0
DICTIONARY
  5
1CA
102
{ACAD_REACTORS
330
7
102
}
330
7
100
AcDbDictionary
281
     1
  3
AcMgSettings
350
1D4
  3
AMGLAYCFG
350
1C9
  0
XRECORD
  5
1FA
102
{ACAD_REACTORS
330
7
102
}
330
7
100
AcDbXrecord
280
     1
  1
DWGPROPS COOKIE
  2

  3

  4

  6

  7

  8

  9

300
AmdtFileType=84
301
=
302
=
303
=
304
=
305
=
306
=
307
=
308
=
309
=
 40
0.1376458101851852
 41
2451001.503576851
 42
2452433.544469039
  1

 90
        1
  0
LAYOUT
  5
B
102
{ACAD_REACTORS
330
6
102
}
330
6
100
AcDbPlotSettings
  1

  2
HP LaserJet IIISi
  4

  6

 40
0.0
 41
0.0
 42
0.0
 43
0.0
 44
0.0
 45
0.0
 46
0.0
 47
0.0
 48
0.0
 49
0.0
140
0.0
141
0.0
142
1.0
143
1.0
 70
   688
 72
     0
 73
     0
 74
     5
  7
monochrome.ctb
 75
    16
147
1.0
148
0.0
149
0.0
100
AcDbLayout
  1
Layout1
 70
     1
 71
     1
 10
0.0
 20
0.0
 11
1189.0
 21
841.0
 12
0.0
 22
0.0
 32
0.0
 14
-7.427996568890034
 24
0.0
 34
0.0
 15
1189.0
 25
841.0
 35
0.0
146
0.0
 13
0.0
 23
0.0
 33
0.0
 16
1.0
 26
0.0
 36
0.0
 17
0.0
 27
1.0
 37
0.0
 76
     0
330
8
  0
LAYOUT
  5
5
102
{ACAD_REACTORS
330
6
102
}
330
6
100
AcDbPlotSettings
  1

  2
HP LaserJet 1100 (MS)
  4
A4
  6

 40
6.297083377838134
 41
5.916064739227294
 42
7.313079833984375
 43
7.14373779296875
 44
209.9733276367187
 45
296.9683227539062
 46
0.0
 47
0.0
 48
1211.556589429639
 49
8.081392949356995
140
1477.335725068248
141
453.6592570704433
142
1.0
143
1.569441677104741
 70
 11952
 72
     1
 73
     0
 74
     4
  7
monochrome.ctb
 75
     0
147
0.6371692650884419
148
-1211.556589429639
149
-8.081392949356995
100
AcDbLayout
  1
Model
 70
     1
 71
     0
 10
0.0
 20
0.0
 11
12.0
 21
9.0
 12
0.0
 22
0.0
 32
0.0
 14
0.0
 24
0.0
 34
0.0
 15
0.0
 25
0.0
 35
0.0
146
0.0
 13
0.0
 23
0.0
 33
0.0
 16
1.0
 26
0.0
 36
0.0
 17
0.0
 27
1.0
 37
0.0
 76
     0
330
2
  0
MLINESTYLE
  5
26
102
{ACAD_REACTORS
330
22
102
}
330
22
100
AcDbMlineStyle
  2
STANDARD
 70
     0
  3

 62
   256
 51
90.0
 52
90.0
 71
     2
 49
0.5
 62
   256
  6
BYLAYER
 49
-0.5
 62
   256
  6
BYLAYER
  0
ACDBPLACEHOLDER
  5
E
102
{ACAD_REACTORS
330
F
102
}
330
F
  0
DICTIONARYVAR
  5
1FD
102
{ACAD_REACTORS
330
1FB
102
}
330
1FB
100
DictionaryVariables
280
     0
  1
1
  0
DICTIONARYVAR
  5
1FC
102
{ACAD_REACTORS
330
1FB
102
}
330
1FB
100
DictionaryVariables
280
     0
  1
1
  0
DICTIONARY
  5
1DA
102
{ACAD_REACTORS
330
1D9
102
}
330
1D9
100
AcDbDictionary
281
     1
  3
ANSI
350
1DB
  0
DICTIONARY
  5
1D4
102
{ACAD_REACTORS
330
1CA
102
}
330
1CA
100
AcDbDictionary
281
     1
  3
DWGSETTINGS
350
1D3
  3
TRANSSETTINGS
350
1D5
  0
ENDSEC
  0
EOF
