  0
SECTION
  2
HEADER
  9
$ACADVER
  1
AC1015
  9
$ACADMAINTVER
 70
    14
  9
$DWGCODEPAGE
  3
ANSI_1252
  9
$INSBASE
 10
0.0
 20
0.0
 30
0.0
  9
$EXTMIN
 10
23.86388881343327
 20
12.11936650530083
 30
0.0
  9
$EXTMAX
 10
1465.233889574188
 20
916.2021110051082
 30
0.0
  9
$LIMMIN
 10
0.0
 20
0.0
  9
$LIMMAX
 10
500.0
 20
600.0
  9
$ORTHOMODE
 70
     1
  9
$REGENMODE
 70
     1
  9
$FILLMODE
 70
     1
  9
$QTEXTMODE
 70
     0
  9
$MIRRTEXT
 70
     1
  9
$LTSCALE
 40
10.0
  9
$ATTMODE
 70
     1
  9
$TEXTSIZE
 40
0.2
  9
$TRACEWID
 40
0.05
  9
$TEXTSTYLE
  7
PASSDIN
  9
$CLAYER
  8
BEMASSUNG
  9
$CELTYPE
  6
CONTINUOUS
  9
$CECOLOR
 62
   256
  9
$CELTSCALE
 40
1.0
  9
$DISPSILH
 70
     0
  9
$DIMSCALE
 40
1.8
  9
$DIMASZ
 40
4.0
  9
$DIMEXO
 40
0.5
  9
$DIMDLI
 40
0.0
  9
$DIMRND
 40
0.0
  9
$DIMDLE
 40
0.0
  9
$DIMEXE
 40
1.0
  9
$DIMTP
 40
0.0
  9
$DIMTM
 40
0.0
  9
$DIMTXT
 40
4.5
  9
$DIMCEN
 40
1.0
  9
$DIMTSZ
 40
0.0
  9
$DIMTOL
 70
     0
  9
$DIMLIM
 70
     0
  9
$DIMTIH
 70
     0
  9
$DIMTOH
 70
     0
  9
$DIMSE1
 70
     0
  9
$DIMSE2
 70
     0
  9
$DIMTAD
 70
     1
  9
$DIMZIN
 70
     8
  9
$DIMBLK
  1

  9
$DIMASO
 70
     1
  9
$DIMSHO
 70
     1
  9
$DIMPOST
  1

  9
$DIMAPOST
  1

  9
$DIMALT
 70
     0
  9
$DIMALTD
 70
     2
  9
$DIMALTF
 40
25.4
  9
$DIMLFAC
 40
1.0
  9
$DIMTOFL
 70
     1
  9
$DIMTVP
 40
0.0
  9
$DIMTIX
 70
     0
  9
$DIMSOXD
 70
     0
  9
$DIMSAH
 70
     0
  9
$DIMBLK1
  1

  9
$DIMBLK2
  1

  9
$DIMSTYLE
  2
EXTERN-FUER-KUNDE
  9
$DIMCLRD
 70
   256
  9
$DIMCLRE
 70
   256
  9
$DIMCLRT
 70
     3
  9
$DIMTFAC
 40
1.0
  9
$DIMGAP
 40
1.5
  9
$DIMJUST
 70
     0
  9
$DIMSD1
 70
     0
  9
$DIMSD2
 70
     0
  9
$DIMTOLJ
 70
     1
  9
$DIMTZIN
 70
     8
  9
$DIMALTZ
 70
     0
  9
$DIMALTTZ
 70
     0
  9
$DIMUPT
 70
     0
  9
$DIMDEC
 70
     2
  9
$DIMTDEC
 70
     2
  9
$DIMALTU
 70
     2
  9
$DIMALTTD
 70
     2
  9
$DIMTXSTY
  7
NORM
  9
$DIMAUNIT
 70
     0
  9
$DIMADEC
 70
     0
  9
$DIMALTRND
 40
0.0
  9
$DIMAZIN
 70
     0
  9
$DIMDSEP
 70
    46
  9
$DIMATFIT
 70
     3
  9
$DIMFRAC
 70
     0
  9
$DIMLDRBLK
  1

  9
$DIMLUNIT
 70
     2
  9
$DIMLWD
 70
    -2
  9
$DIMLWE
 70
    -2
  9
$DIMTMOVE
 70
     2
  9
$LUNITS
 70
     2
  9
$LUPREC
 70
     2
  9
$SKETCHINC
 40
0.1
  9
$FILLETRAD
 40
0.0
  9
$AUNITS
 70
     1
  9
$AUPREC
 70
     4
  9
$MENU
  1
CADIM
  9
$ELEVATION
 40
0.0
  9
$PELEVATION
 40
0.0
  9
$THICKNESS
 40
0.0
  9
$LIMCHECK
 70
     0
  9
$CHAMFERA
 40
0.0
  9
$CHAMFERB
 40
0.0
  9
$CHAMFERC
 40
0.0
  9
$CHAMFERD
 40
0.0
  9
$SKPOLY
 70
     0
  9
$TDCREATE
 40
2451001.503576851
  9
$TDUCREATE
 40
2451001.461910185
  9
$TDUPDATE
 40
2452433.544469039
  9
$TDUUPDATE
 40
2452433.502802373
  9
$TDINDWG
 40
0.1373910417
  9
$TDUSRTIMER
 40
0.1373910417
  9
$USRTIMER
 70
     1
  9
$ANGBASE
 50
0.0
  9
$ANGDIR
 70
     0
  9
$PDMODE
 70
     0
  9
$PDSIZE
 40
0.0
  9
$PLINEWID
 40
0.0
  9
$SPLFRAME
 70
     0
  9
$SPLINETYPE
 70
     6
  9
$SPLINESEGS
 70
     8
  9
$HANDSEED
  5
215
  9
$SURFTAB1
 70
     6
  9
$SURFTAB2
 70
     6
  9
$SURFTYPE
 70
     6
  9
$SURFU
 70
     6
  9
$SURFV
 70
     6
  9
$UCSBASE
  2

  9
$UCSNAME
  2

  9
$UCSORG
 10
0.0
 20
0.0
 30
0.0
  9
$UCSXDIR
 10
1.0
 20
0.0
 30
0.0
  9
$UCSYDIR
 10
0.0
 20
1.0
 30
0.0
  9
$UCSORTHOREF
  2

  9
$UCSORTHOVIEW
 70
     0
  9
$UCSORGTOP
 10
0.0
 20
0.0
 30
0.0
  9
$UCSORGBOTTOM
 10
0.0
 20
0.0
 30
0.0
  9
$UCSORGLEFT
 10
0.0
 20
0.0
 30
0.0
  9
$UCSORGRIGHT
 10
0.0
 20
0.0
 30
0.0
  9
$UCSORGFRONT
 10
0.0
 20
0.0
 30
0.0
  9
$UCSORGBACK
 10
0.0
 20
0.0
 30
0.0
  9
$PUCSBASE
  2

  9
$PUCSNAME
  2

  9
$PUCSORG
 10
0.0
 20
0.0
 30
0.0
  9
$PUCSXDIR
 10
1.0
 20
0.0
 30
0.0
  9
$PUCSYDIR
 10
0.0
 20
1.0
 30
0.0
  9
$PUCSORTHOREF
  2

  9
$PUCSORTHOVIEW
 70
     0
  9
$PUCSORGTOP
 10
0.0
 20
0.0
 30
0.0
  9
$PUCSORGBOTTOM
 10
0.0
 20
0.0
 30
0.0
  9
$PUCSORGLEFT
 10
0.0
 20
0.0
 30
0.0
  9
$PUCSORGRIGHT
 10
0.0
 20
0.0
 30
0.0
  9
$PUCSORGFRONT
 10
0.0
 20
0.0
 30
0.0
  9
$PUCSORGBACK
 10
0.0
 20
0.0
 30
0.0
  9
$USERI1
 70
     0
  9
$USERI2
 70
     0
  9
$USERI3
 70
     0
  9
$USERI4
 70
     0
  9
$USERI5
 70
     0
  9
$USERR1
 40
0.0
  9
$USERR2
 40
0.0
  9
$USERR3
 40
0.0
  9
$USERR4
 40
0.0
  9
$USERR5
 40
0.0
  9
$WORLDVIEW
 70
     1
  9
$SHADEDGE
 70
     3
  9
$SHADEDIF
 70
    70
  9
$TILEMODE
 70
     1
  9
$MAXACTVP
 70
    16
  9
$PINSBASE
 10
0.0
 20
0.0
 30
0.0
  9
$PLIMCHECK
 70
     0
  9
$PEXTMIN
 10
-7.427996568890034
 20
0.0
 30
0.0
  9
$PEXTMAX
 10
1189.0
 20
841.0
 30
0.0
  9
$PLIMMIN
 10
0.0
 20
0.0
  9
$PLIMMAX
 10
1189.0
 20
841.0
  9
$UNITMODE
 70
     0
  9
$VISRETAIN
 70
     0
  9
$PLINEGEN
 70
     0
  9
$PSLTSCALE
 70
     1
  9
$TREEDEPTH
 70
  3020
  9
$CMLSTYLE
  2
STANDARD
  9
$CMLJUST
 70
     0
  9
$CMLSCALE
 40
1.0
  9
$PROXYGRAPHICS
 70
     1
  9
$MEASUREMENT
 70
     0
  9
$CELWEIGHT
370
    -1
  9
$ENDCAPS
280
     0
  9
$JOINSTYLE
280
     0
  9
$LWDISPLAY
290
     0
  9
$INSUNITS
 70
     0
  9
$HYPERLINKBASE
  1

  9
$STYLESHEET
  1

  9
$XEDIT
290
     1
  9
$CEPSNTYPE
380
     0
  9
$PSTYLEMODE
290
     1
  9
$FINGERPRINTGUID
  2
{BBF57B4C-0DC1-473F-8A41-7454C26AE28F}
  9
$VERSIONGUID
  2
{FA58E27E-D1D8-4CDF-87A5-9DF79DCC95C1}
  9
$EXTNAMES
290
     1
  9
$PSVPSCALE
 40
0.0
  9
$OLESTARTUP
290
     0
  0
ENDSEC
  0
SECTION
  2
CLASSES
  0
CLASS
  1
DICTIONARYVAR
  2
AcDbDictionaryVar
  3
AutoCAD 2000
 90
        0
280
     0
281
     0
  0
CLASS
  1
LWPOLYLINE
  2
AcDbPolyline
  3
AutoCAD 2000
 90
    32768
280
     0
281
     1
  0
CLASS
  1
XRECORD
  2
AcDbXrecord
  3
AutoCAD 2000
 90
    32768
280
     0
281
     0
  0
CLASS
  1
ACDBDICTIONARYWDFLT
  2
AcDbDictionaryWithDefault
  3
AutoCAD 2000
 90
        0
280
     0
281
     0
  0
CLASS
  1
ACDBPLACEHOLDER
  2
AcDbPlaceHolder
  3
AutoCAD 2000
 90
        0
280
     0
281
     0
  0
CLASS
  1
LAYOUT
  2
AcDbLayout
  3
AutoCAD 2000
 90
        0
280
     0
281
     0
  0
CLASS
  1
VLO-VL
  2
vlo_VL
  3
VL|AutoLISP based application
 90
    32768
280
     0
281
     0
  0
CLASS
  1
ACME_DOCUMENT
  2
AcMeDbDoc
  3
AcMeServices
 90
    32768
280
     0
281
     0
  0
CLASS
  1
AMGSETTINGSOBJ
  2
AmgSettingsObj
  3
"AcadM|Product Description: AutoCAD Mechanical 2000|Company: Autodesk"
 90
        0
280
     0
281
     0
  0
CLASS
  1
ACMESCOPE
  2
AcMeScope
  3
AcMeServices
 90
        0
280
     0
281
     0
  0
CLASS
  1
ACMECOMMANDHISTORY
  2
AcMeCommandHistory
  3
AcMeServices
 90
    32768
280
     0
281
     0
  0
CLASS
  1
ACIMSYSVARMAN
  2
AcImSysVarManager
  3
AcMeServices
 90
        0
280
     0
281
     0
  0
CLASS
  1
ACIMREALSYSVAR
  2
AcImRealSysVar
  3
AcMeServices
 90
    32768
280
     0
281
     0
  0
CLASS
  1
ACIMINTSYSVAR
  2
AcImIntSysVar
  3
AcMeServices
 90
    32768
280
     0
281
     0
  0
CLASS
  1
ACMEDRAWINGMAN
  2
AcMeDrawingMan
  3
AcMeServices
 90
    32768
280
     0
281
     0
  0
CLASS
  1
ACMEVIEW
  2
AcMeView
  3
AcMeServices
 90
    32768
280
     0
281
     0
  0
CLASS
  1
ACDBENTITYCACHE
  2
AcMeEntityCache
  3
AcMeServices
 90
    32768
280
     0
281
     0
  0
CLASS
  1
GSMANAGER
  2
AcMeGSManager
  3
AcMeServices
 90
    32768
280
     0
281
     0
  0
CLASS
  1
AMDTINTERNALREACTOR
  2
AmdtInternalReactor
  3
AcMeServices
 90
    32768
280
     0
281
     0
  0
CLASS
  1
ACMESTATEMGR
  2
AcMeStateMgr
  3
AcMeServices
 90
        0
280
     0
281
     0
  0
CLASS
  1
ACGREFMASTER
  2
AcGrefMaster
  3
AcAttribServices
 90
        0
280
     0
281
     0
  0
CLASS
  1
ACME_DATABASE
  2
AcMeDbDatabase
  3
AcMeServices
 90
    32768
280
     0
281
     0
  0
CLASS
  1
ACRFINSADJUSTERMGR
  2
AcRfInsAdjusterMgr
  3
AcMeServices
 90
    32768
280
     0
281
     0
  0
CLASS
  1
ACGREFACADMASTER
  2
AcGrefacadMaster
  3
AcGrefServices
 90
    32768
280
     0
281
     0
  0
CLASS
  1
AMIMASTER
  2
AmiMaster
  3
AmiServices
 90
    32768
280
     0
281
     0
  0
CLASS
  1
ACMDATADICTIONARY
  2
AcmDataDictionary
  3
"AcmSymBB|Product Description: AutoCAD Mechanical 2000|Company: Autodesk"
 90
    32768
280
     0
281
     0
  0
CLASS
  1
ACMDATAENTRYBLOCK
  2
AcmDataEntryBlock
  3
"AcmSymBB|Product Description: AutoCAD Mechanical 2000|Company: Autodesk"
 90
    32768
280
     0
281
     0
  0
CLASS
  1
ACIMSTRSYSVAR
  2
AcImStrSysVar
  3
AcMeServices
 90
        0
280
     0
281
     0
  0
CLASS
  1
ACMSTANDARDANSI
  2
AcmStandardANSI
  3
"Amdt_StdImp|Product Description: AutoCAD Mechanical 2000|Company: Autodesk"
 90
        0
280
     0
281
     0
  0
CLASS
  1
AMGOBJPROPCFG
  2
AmgObjPropCfg
  3
"AmgLay|Product Description: AutoCAD Mechanical 2000|Company: Autodesk"
 90
        1
280
     0
281
     0
  0
CLASS
  1
ACMSURFSTANDARDANSI
  2
AcmSurfTextStdANSI
  3
"Amdt_StdImp|Product Description: AutoCAD Mechanical 2000|Company: Autodesk"
 90
        0
280
     0
281
     0
  0
CLASS
  1
ACMFCFSTANDARDANSI
  2
AcmFCFStdANSI
  3
"Amdt_StdImp|Product Description: AutoCAD Mechanical 2000|Company: Autodesk"
 90
        0
280
     0
281
     0
  0
CLASS
  1
ACMWELDSTANDARDANSI
  2
AcmWeldingStdANSI
  3
"Amdt_StdImp|Product Description: AutoCAD Mechanical 2000|Company: Autodesk"
 90
        0
280
     0
281
     0
  0
CLASS
  1
ACMIDSTANDARDANSI
  2
AcmIdStdANSI
  3
"Amdt_StdImp|Product Description: AutoCAD Mechanical 2000|Company: Autodesk"
 90
        0
280
     0
281
     0
  0
CLASS
  1
ACMDATUMSTANDARDANSI
  2
AcmDatumStdANSI
  3
"Amdt_StdImp|Product Description: AutoCAD Mechanical 2000|Company: Autodesk"
 90
        0
280
     0
281
     0
  0
CLASS
  1
ACMBOMSTANDARDANSI
  2
AcmBOMStdANSI
  3
"Amdt_StdImp|Product Description: AutoCAD Mechanical 2000|Company: Autodesk"
 90
        0
280
     0
281
     0
  0
CLASS
  1
ACMDETAILSTANDARDANSI
  2
AmdtDetailSymStdANSI
  3
"Amdt_StdImp|Product Description: AutoCAD Mechanical 2000|Company: Autodesk"
 90
        0
280
     0
281
     0
  0
CLASS
  1
ACMSECTIONSTANDARDANSI
  2
AmdtSectionSymStdANSI
  3
"Amdt_StdImp|Product Description: AutoCAD Mechanical 2000|Company: Autodesk"
 90
        0
280
     0
281
     0
  0
CLASS
  1
ACMCENTERLINESTANDARDANSI
  2
AmdtCenterLineStdANSI
  3
"Amdt_StdImp|Product Description: AutoCAD Mechanical 2000|Company: Autodesk"
 90
        0
280
     0
281
     0
  0
CLASS
  1
ACMNOTESTANDARDANSI
  2
AmdtNoteStdANSI
  3
"Amdt_StdImp|Product Description: AutoCAD Mechanical 2000|Company: Autodesk"
 90
        0
280
     0
281
     0
  0
CLASS
  1
ACAMGLAYSTD
  2
AcAmgLayStd
  3
"AcAmgLayStd|Product Description: AutoCAD Mechanical 2000|Company: Autodesk"
 90
        0
280
     0
281
     0
  0
CLASS
  1
ACAMGDIMSTD
  2
AcAmgDimStd
  3
"AcAmgDimStd|Product Description: AutoCAD Mechanical 2000|Company: Autodesk"
 90
        0
280
     0
281
     0
  0
CLASS
  1
ACAMGHOLECHARTSTDANSI
  2
AcAmgHoleChartStdANSI
  3
ACMSYMBB_MODULE_NAME
 90
        0
280
     0
281
     0
  0
CLASS
  1
ACAMGTITLESTD
  2
AcAmgTitleStd
  3
"TITLEAPP"
 90
        0
280
     0
281
     0
  0
CLASS
  1
ACAMGFILTERDAT
  2
AcAmgFilterDat
  3
"AcadM|Product Description: AutoCAD Mechanical 2000|Company: Autodesk"
 90
    32768
280
     0
281
     0
  0
ENDSEC
  0
SECTION
  2
TABLES
  0
TABLE
  2
VPORT
  5
19
330
0
100
AcDbSymbolTable
 70
     1
  0
VPORT
  5
1A
330
19
100
AcDbSymbolTableRecord
100
AcDbViewportTableRecord
  2
*Active
 70
     0
 10
0.0
 20
0.0
 11
1.0
 21
1.0
 12
732.843367647622
 22
257.8982495062391
 13
0.0
 23
0.0
 14
2.0
 24
2.0
 15
20.0
 25
20.0
 16
0.0
 26
0.0
 36
1.0
 17
0.0
 27
0.0
 37
0.0
 40
714.9822178169674
 41
1.712406015037593
 42
50.0
 43
0.0
 44
0.0
 50
0.0
 51
0.0
 71
     0
 72
  5000
 73
     1
 74
     0
 75
     0
 76
     1
 77
     0
 78
     0
281
     0
 65
     1
110
0.0
120
0.0
130
0.0
111
1.0
121
0.0
131
0.0
112
0.0
122
1.0
132
0.0
 79
     0
146
0.0
  0
ENDTAB
  0
TABLE
  2
LTYPE
  5
14
330
0
100
AcDbSymbolTable
 70
    12
  0
LTYPE
  5
15
330
14
100
AcDbSymbolTableRecord
100
AcDbLinetypeTableRecord
  2
BYBLOCK
 70
     0
  3

 72
    65
 73
     0
 40
0.0
  0
LTYPE
  5
16
330
14
100
AcDbSymbolTableRecord
100
AcDbLinetypeTableRecord
  2
BYLAYER
 70
     0
  3

 72
    65
 73
     0
 40
0.0
  0
LTYPE
  5
8
330
14
100
AcDbSymbolTableRecord
100
AcDbLinetypeTableRecord
  2
CONTINUOUS
 70
     0
  3
Durchgezogene Linie
 72
    65
 73
     0
 40
0.0
  0
LTYPE
  5
A5
330
14
100
AcDbSymbolTableRecord
100
AcDbLinetypeTableRecord
  2
VERDECKT
 70
     0
  3
__ __ __ __ __ __ __ __ __ __ __ __ __ __ __ __
 72
    65
 73
     2
 40
0.375
 49
0.25
 74
     0
 49
-0.125
 74
     0
  0
LTYPE
  5
2D
330
14
100
AcDbSymbolTableRecord
100
AcDbLinetypeTableRecord
  2
STRICHPUNKT
 70
     0
  3
__ . __ . __ . __ . __ . __ . __ . __ . __ . __
 72
    65
 73
     4
 40
1.0
 49
0.5
 74
     0
 49
-0.25
 74
     0
 49
0.0
 74
     0
 49
-0.25
 74
     0
  0
LTYPE
  5
1E5
330
14
100
AcDbSymbolTableRecord
100
AcDbLinetypeTableRecord
  2
Amconstr
 70
     0
  3
_______________________
 72
    65
 73
     2
 40
9999.0
 49
9999.0
 74
     0
 49
0.0
 74
     0
  0
LTYPE
  5
1E2
330
14
100
AcDbSymbolTableRecord
100
AcDbLinetypeTableRecord
  2
HIDDEN
 70
     0
  3
Hidden __ __ __ __ __ __ __ __ __ __ __ __ __ _
 72
    65
 73
     2
 40
0.375
 49
0.25
 74
     0
 49
-0.125
 74
     0
  0
LTYPE
  5
1E3
330
14
100
AcDbSymbolTableRecord
100
AcDbLinetypeTableRecord
  2
CENTER
 70
     0
  3
Center ____ _ ____ _ ____ _ ____ _ ____ _ ____
 72
    65
 73
     4
 40
2.0
 49
1.25
 74
     0
 49
-0.25
 74
     0
 49
0.25
 74
     0
 49
-0.25
 74
     0
  0
LTYPE
  5
1E4
330
14
100
AcDbSymbolTableRecord
100
AcDbLinetypeTableRecord
  2
PHANTOM2
 70
     0
  3
Phantom (.5x) ___ _ _ ___ _ _ ___ _ _ ___ _ _
 72
    65
 73
     6
 40
1.25
 49
0.625
 74
     0
 49
-0.125
 74
     0
 49
0.125
 74
     0
 49
-0.125
 74
     0
 49
0.125
 74
     0
 49
-0.125
 74
     0
  0
LTYPE
  5
1E6
330
14
100
AcDbSymbolTableRecord
100
AcDbLinetypeTableRecord
  2
CENTER2
 70
     0
  3
Center (.5x) ___ _ ___ _ ___ _ ___ _ ___ _ ___
 72
    65
 73
     4
 40
1.125
 49
0.75
 74
     0
 49
-0.125
 74
     0
 49
0.125
 74
     0
 49
-0.125
 74
     0
  0
LTYPE
  5
1E7
330
14
100
AcDbSymbolTableRecord
100
AcDbLinetypeTableRecord
  2
HIDDEN2
 70
     0
  3
Hidden (.5x) _ _ _ _ _ _ _ _ _ _ _ _ _ _ _ _ _
 72
    65
 73
     2
 40
0.1875
 49
0.125
 74
     0
 49
-0.0625
 74
     0
  0
LTYPE
  5
1E8
330
14
100
AcDbSymbolTableRecord
100
AcDbLinetypeTableRecord
  2
Amzigzag2
 70
     0
  3
/\/-/\/-/\/-/\/-/\/-/\/
 72
    65
 73
     2
 40
0.4401
 49
0.0001
 74
     4
 75
   135
340
1E9
 46
0.0016
 50
0.0
 44
0.0
 45
0.0
 49
-0.4400000000000001
 74
     0
  0
LTYPE
  5
1FA
330
14
100
AcDbSymbolTableRecord
100
AcDbLinetypeTableRecord
  2
ACANSTGB
 70
     0
  3
__ . . __ . .
 72
    65
 73
     6
 40
0.35433070866
 49
0.15748031496
 74
     0
 49
-0.03937007874
 74
     0
 49
0.03937007874
 74
     0
 49
-0.03937007874
 74
     0
 49
0.03937007874
 74
     0
 49
-0.03937007874
 74
     0
  0
LTYPE
  5
1FB
330
14
100
AcDbSymbolTableRecord
100
AcDbLinetypeTableRecord
  2
ACANSTGL
 70
     0
  3
_ _ _ _ _
 72
    65
 73
     2
 40
0.11811023622
 49
0.07874015748
 74
     0
 49
-0.03937007874
 74
     0
  0
ENDTAB
  0
TABLE
  2
LAYER
  5
10
330
0
100
AcDbSymbolTable
 70
     7
  0
LAYER
  5
4
330
10
100
AcDbSymbolTableRecord
100
AcDbLayerTableRecord
  2
0
 70
     0
 62
     7
  6
CONTINUOUS
370
    -3
390
5
  0
LAYER
  5
38
330
10
100
AcDbSymbolTableRecord
100
AcDbLayerTableRecord
  2
DEFPOINTS
 70
     0
 62
     7
  6
CONTINUOUS
290
     0
370
    -3
390
5
  0
LAYER
  5
91
330
10
100
AcDbSymbolTableRecord
100
AcDbLayerTableRecord
  2
6
 70
     0
 62
     7
  6
CONTINUOUS
370
    -3
390
5
  0
LAYER
  5
A4
330
10
100
AcDbSymbolTableRecord
100
AcDbLayerTableRecord
  2
AVERDECKTE
 70
     0
 62
    12
  6
VERDECKT
370
    -3
390
5
  0
LAYER
  5
2C
330
10
100
AcDbSymbolTableRecord
100
AcDbLayerTableRecord
  2
ACHSEN
 70
     0
 62
    12
  6
STRICHPUNKT
370
    -3
390
5
  0
LAYER
  5
24
330
10
100
AcDbSymbolTableRecord
100
AcDbLayerTableRecord
  2
BEMASSUNG
 70
     0
 62
     2
  6
CONTINUOUS
370
    -3
390
5
  0
LAYER
  5
28
330
10
100
AcDbSymbolTableRecord
100
AcDbLayerTableRecord
  2
UMRISS05
 70
     0
 62
     4
  6
CONTINUOUS
370
    -3
390
5
  0
ENDTAB
  0
TABLE
  2
STYLE
  5
11
330
0
100
AcDbSymbolTable
 70
     6
  0
STYLE
  5
12
330
11
100
AcDbSymbolTableRecord
100
AcDbTextStyleTableRecord
  2
STANDARD
 70
     0
 40
0.0
 41
1.0
 50
0.0
 71
     0
 42
0.2
  3
txt
  4

  0
STYLE
  5
1F
330
11
100
AcDbSymbolTableRecord
100
AcDbTextStyleTableRecord
  2
NORM
 70
     0
 40
0.0
 41
1.0
 50
0.0
 71
     0
 42
2.399999999999999
  3
SIMPLEX
  4

  0
STYLE
  5
25
330
11
100
AcDbSymbolTableRecord
100
AcDbTextStyleTableRecord
  2
PASSDIN
 70
     0
 40
0.0
 41
1.0
 50
0.0
 71
     0
 42
0.2
  3
isocp.shx
  4

  0
STYLE
  5
1E9
330
11
100
AcDbSymbolTableRecord
100
AcDbTextStyleTableRecord
  2

 70
     1
 40
0.0
 41
1.0
 50
0.0
 71
     0
 42
0.2
  3
ltypeshp.shx
  4

  0
STYLE
  5
1F3
330
11
100
AcDbSymbolTableRecord
100
AcDbTextStyleTableRecord
  2
ACANSTS
 70
     0
 40
1.0
 41
1.0
 50
0.0
 71
     0
 42
0.2
  3
romans.shx
  4

  0
STYLE
  5
1F6
330
11
100
AcDbSymbolTableRecord
100
AcDbTextStyleTableRecord
  2
ACANSGDT
 70
     0
 40
0.0
 41
1.0
 50
0.0
 71
     0
 42
0.2
  3
amgdtans.shx
  4

  0
ENDTAB
  0
TABLE
  2
VIEW
  5
17
330
0
100
AcDbSymbolTable
 70
     0
  0
ENDTAB
  0
TABLE
  2
UCS
  5
18
330
0
100
AcDbSymbolTable
 70
     0
  0
ENDTAB
  0
TABLE
  2
APPID
  5
1B
330
0
100
AcDbSymbolTable
 70
     1
  0
APPID
  5
1C
330
1B
100
AcDbSymbolTableRecord
100
AcDbRegAppTableRecord
  2
ACAD
 70
     0
  0
ENDTAB
  0
TABLE
  2
DIMSTYLE
  5
1D
330
0
100
AcDbSymbolTable
 70
     7
100
AcDbDimStyleTable
 71
     1
340
1E
  0
DIMSTYLE
105
1E
102
{ACAD_REACTORS
330
17B
330
57
330
E0
330
72
330
4A
330
81
330
188
330
3D
330
B7
330
65
330
92
330
10A
330
AA
330
199
330
16C
330
D3
330
FA
330
ED
330
C4
330
2F
102
}
330
1D
100
AcDbSymbolTableRecord
100
AcDbDimStyleTableRecord
  2
EXTERN-FUER-KUNDE
 70
     0
 40
1.8
 41
4.0
 42
0.5
 43
0.0
 44
1.0
 73
     0
 74
     0
 77
     1
 78
     8
140
4.5
141
1.0
147
1.5
172
     1
176
   256
177
   256
178
     3
271
     2
272
     2
279
     2
284
     8
340
1F
  0
DIMSTYLE
105
203
330
1D
100
AcDbSymbolTableRecord
100
AcDbDimStyleTableRecord
  2
AM_ANSI
 70
     0
  4
mm
 41
0.1
 42
0.05
 43
0.5
 44
0.1
 47
0.1
 48
0.1
 78
     7
 79
     2
140
0.12
141
0.0
146
0.71
147
0.06
176
   256
177
   256
178
     2
274
     4
284
     7
340
12
371
    -1
372
    -1
  0
DIMSTYLE
105
204
330
1D
100
AcDbSymbolTableRecord
100
AcDbDimStyleTableRecord
  2
AM_ANSI$3
 70
     0
  4
mm
 41
0.1
 42
0.05
 43
0.5
 44
0.1
 47
0.1
 48
0.1
 78
     7
 79
     2
140
0.12
141
0.0
146
0.71
147
0.06
176
   256
177
   256
178
     2
274
     4
284
     7
288
     1
289
     0
340
12
371
    -1
372
    -1
  0
DIMSTYLE
105
205
330
1D
100
AcDbSymbolTableRecord
100
AcDbDimStyleTableRecord
  2
AM_ANSI$4
 70
     0
  4
mm
 41
0.1
 42
0.05
 43
0.5
 44
0.1
 47
0.1
 48
0.1
 78
     7
 79
     2
140
0.12
141
0.0
146
0.71
147
0.06
176
   256
177
   256
178
     2
274
     4
284
     7
288
     1
289
     0
340
12
371
    -1
372
    -1
  0
DIMSTYLE
105
206
330
1D
100
AcDbSymbolTableRecord
100
AcDbDimStyleTableRecord
  2
AM_ANSI$7
 70
     0
  4
mm
 41
0.1
 42
0.05
 43
0.5
 44
0.1
 47
0.1
 48
0.1
 78
     7
 79
     2
140
0.24
141
0.0
146
0.71
147
0.06
176
   256
177
   256
178
     2
274
     4
284
     7
340
12
371
    -1
372
    -1
  0
DIMSTYLE
105
207
330
1D
100
AcDbSymbolTableRecord
100
AcDbDimStyleTableRecord
  2
AM_ANSI$SF
 70
     0
  4
mm
 41
0.1
 42
0.05
 43
0.5
 44
0.1
 47
0.1
 48
0.1
 75
     1
 76
     1
 78
     7
 79
     2
140
0.12
141
0.0
146
0.71
147
0.06
176
   256
177
   256
178
     2
274
     4
284
     7
340
12
371
    -1
372
    -1
  0
DIMSTYLE
105
208
330
1D
100
AcDbSymbolTableRecord
100
AcDbDimStyleTableRecord
  2
AM_ANSI$SH
 70
     0
  4
mm
 41
0.1
 42
0.05
 43
0.5
 44
0.1
 47
0.1
 48
0.1
 75
     1
 76
     1
 78
     7
 79
     2
140
0.12
141
0.0
146
0.71
147
0.06
173
     1
176
   256
177
   256
178
     2
274
     4
284
     7
340
12
343
209
371
    -1
372
    -1
  0
ENDTAB
  0
TABLE
  2
BLOCK_RECORD
  5
1
330
0
100
AcDbSymbolTable
 70
    21
  0
BLOCK_RECORD
  5
2
330
1
100
AcDbSymbolTableRecord
100
AcDbBlockTableRecord
  2
*MODEL_SPACE
340
A
  0
BLOCK_RECORD
  5
C
330
1
100
AcDbSymbolTableRecord
100
AcDbBlockTableRecord
  2
*PAPER_SPACE
340
F
  0
BLOCK_RECORD
  5
4B
330
1
100
AcDbSymbolTableRecord
100
AcDbBlockTableRecord
  2
*D0
340
0
  0
BLOCK_RECORD
  5
30
330
1
100
AcDbSymbolTableRecord
100
AcDbBlockTableRecord
  2
*D1
340
0
  0
BLOCK_RECORD
  5
189
330
1
100
AcDbSymbolTableRecord
100
AcDbBlockTableRecord
  2
*D2
340
0
  0
BLOCK_RECORD
  5
3E
330
1
100
AcDbSymbolTableRecord
100
AcDbBlockTableRecord
  2
*D3
340
0
  0
BLOCK_RECORD
  5
58
330
1
100
AcDbSymbolTableRecord
100
AcDbBlockTableRecord
  2
*D4
340
0
  0
BLOCK_RECORD
  5
17C
330
1
100
AcDbSymbolTableRecord
100
AcDbBlockTableRecord
  2
*D5
340
0
  0
BLOCK_RECORD
  5
19A
330
1
100
AcDbSymbolTableRecord
100
AcDbBlockTableRecord
  2
*D6
340
0
  0
BLOCK_RECORD
  5
209
330
1
100
AcDbSymbolTableRecord
100
AcDbBlockTableRecord
  2
GENAXEH
340
0
  0
BLOCK_RECORD
  5
AB
330
1
100
AcDbSymbolTableRecord
100
AcDbBlockTableRecord
  2
*D8
340
0
  0
BLOCK_RECORD
  5
66
330
1
100
AcDbSymbolTableRecord
100
AcDbBlockTableRecord
  2
*D9
340
0
  0
BLOCK_RECORD
  5
73
330
1
100
AcDbSymbolTableRecord
100
AcDbBlockTableRecord
  2
*D10
340
0
  0
BLOCK_RECORD
  5
82
330
1
100
AcDbSymbolTableRecord
100
AcDbBlockTableRecord
  2
*D11
340
0
  0
BLOCK_RECORD
  5
93
330
1
100
AcDbSymbolTableRecord
100
AcDbBlockTableRecord
  2
*D12
340
0
  0
BLOCK_RECORD
  5
B8
330
1
100
AcDbSymbolTableRecord
100
AcDbBlockTableRecord
  2
*D13
340
0
  0
BLOCK_RECORD
  5
C5
330
1
100
AcDbSymbolTableRecord
100
AcDbBlockTableRecord
  2
*D14
340
0
  0
BLOCK_RECORD
  5
D4
330
1
100
AcDbSymbolTableRecord
100
AcDbBlockTableRecord
  2
*D15
340
0
  0
BLOCK_RECORD
  5
E1
330
1
100
AcDbSymbolTableRecord
100
AcDbBlockTableRecord
  2
*D16
340
0
  0
BLOCK_RECORD
  5
EE
330
1
100
AcDbSymbolTableRecord
100
AcDbBlockTableRecord
  2
*D17
340
0
  0
BLOCK_RECORD
  5
FB
330
1
100
AcDbSymbolTableRecord
100
AcDbBlockTableRecord
  2
*D18
340
0
  0
BLOCK_RECORD
  5
10B
330
1
100
AcDbSymbolTableRecord
100
AcDbBlockTableRecord
  2
*D19
340
0
  0
BLOCK_RECORD
  5
16D
330
1
100
AcDbSymbolTableRecord
100
AcDbBlockTableRecord
  2
*D20
340
0
  0
ENDTAB
  0
ENDSEC
  0
SECTION
  2
BLOCKS
  0
BLOCK
  5
3
330
2
100
AcDbEntity
  8
0
100
AcDbBlockBegin
  2
*MODEL_SPACE
 70
     0
 10
0.0
 20
0.0
 30
0.0
  3
*MODEL_SPACE
  1

  0
ENDBLK
  5
9
330
2
100
AcDbEntity
  8
0
100
AcDbBlockEnd
  0
BLOCK
  5
D
330
C
100
AcDbEntity
 67
     1
  8
0
100
AcDbBlockBegin
  2
*PAPER_SPACE
 70
     0
 10
0.0
 20
0.0
 30
0.0
  3
*PAPER_SPACE
  1

  0
ENDBLK
  5
E
330
C
100
AcDbEntity
 67
     1
  8
0
100
AcDbBlockEnd
  0
BLOCK
  5
55
330
4B
100
AcDbEntity
  8
0
100
AcDbBlockBegin
  2
*D0
 70
     1
 10
0.0
 20
0.0
 30
0.0
  3
*D0
  1

  0
LINE
  5
4C
330
4B
100
AcDbEntity
  8
0
  6
ByBlock
100
AcDbLine
 10
1225.583747846462
 20
244.7432955719286
 30
0.0
 11
1286.423477094953
 21
244.7432955719286
 31
0.0
  0
LINE
  5
4D
330
4B
100
AcDbEntity
  8
0
  6
ByBlock
100
AcDbLine
 10
1225.583747846462
 20
404.7432955719286
 30
0.0
 11
1286.423477094953
 21
404.7432955719286
 31
0.0
  0
LINE
  5
4E
330
4B
100
AcDbEntity
  8
0
  6
ByBlock
100
AcDbLine
 10
1284.623477094953
 20
251.9432955719286
 30
0.0
 11
1284.623477094953
 21
397.5432955719286
 31
0.0
  0
SOLID
  5
4F
330
4B
100
AcDbEntity
  8
0
  6
ByBlock
100
AcDbTrace
 10
1283.423477094953
 20
251.9432955719286
 30
0.0
 11
1285.823477094953
 21
251.9432955719286
 31
0.0
 12
1284.623477094953
 22
244.7432955719286
 32
0.0
 13
1284.623477094953
 23
244.7432955719286
 33
0.0
  0
SOLID
  5
50
330
4B
100
AcDbEntity
  8
0
  6
ByBlock
100
AcDbTrace
 10
1283.423477094953
 20
397.5432955719286
 30
0.0
 11
1285.823477094953
 21
397.5432955719286
 31
0.0
 12
1284.623477094953
 22
404.7432955719286
 32
0.0
 13
1284.623477094953
 23
404.7432955719286
 33
0.0
  0
MTEXT
  5
51
330
4B
100
AcDbEntity
  8
0
  6
ByBlock
 62
     3
100
AcDbMText
 10
1277.873477094953
 20
324.7432955719286
 30
0.0
 40
8.099999999999999
 41
0.0
 71
     5
 72
     1
  1
\A1;160
  7
NORM
 11
0.0000000000000001
 21
1.0
 31
0.0
 73
     1
 44
1.0
  0
POINT
  5
52
330
4B
100
AcDbEntity
  8
DEFPOINTS
  6
ByBlock
 62
     0
100
AcDbPoint
 10
1224.683747846462
 20
244.7432955719286
 30
0.0
  0
POINT
  5
53
330
4B
100
AcDbEntity
  8
DEFPOINTS
  6
ByBlock
 62
     0
100
AcDbPoint
 10
1224.683747846462
 20
404.7432955719286
 30
0.0
  0
POINT
  5
54
330
4B
100
AcDbEntity
  8
DEFPOINTS
  6
ByBlock
 62
     0
100
AcDbPoint
 10
1284.623477094953
 20
404.7432955719286
 30
0.0
  0
ENDBLK
  5
56
330
4B
100
AcDbEntity
  8
0
100
AcDbBlockEnd
  0
BLOCK
  5
3B
330
30
100
AcDbEntity
  8
0
100
AcDbBlockBegin
  2
*D1
 70
     1
 10
0.0
 20
0.0
 30
0.0
  3
*D1
  1

  0
LINE
  5
31
330
30
100
AcDbEntity
  8
0
  6
ByBlock
100
AcDbLine
 10
1250.583747846462
 20
348.2432955719287
 30
0.0
 11
1267.473277570927
 21
348.2432955719287
 31
0.0
  0
LINE
  5
32
330
30
100
AcDbEntity
  8
0
  6
ByBlock
100
AcDbLine
 10
1225.583747846462
 20
404.7432955719286
 30
0.0
 11
1267.473277570927
 21
404.7432955719286
 31
0.0
  0
LINE
  5
33
330
30
100
AcDbEntity
  8
0
  6
ByBlock
100
AcDbLine
 10
1265.673277570927
 20
355.4432955719286
 30
0.0
 11
1265.673277570927
 21
397.5432955719286
 31
0.0
  0
SOLID
  5
34
330
30
100
AcDbEntity
  8
0
  6
ByBlock
100
AcDbTrace
 10
1264.473277570927
 20
355.4432955719286
 30
0.0
 11
1266.873277570927
 21
355.4432955719286
 31
0.0
 12
1265.673277570927
 22
348.2432955719287
 32
0.0
 13
1265.673277570927
 23
348.2432955719287
 33
0.0
  0
SOLID
  5
35
330
30
100
AcDbEntity
  8
0
  6
ByBlock
100
AcDbTrace
 10
1264.473277570927
 20
397.5432955719286
 30
0.0
 11
1266.873277570927
 21
397.5432955719286
 31
0.0
 12
1265.673277570927
 22
404.7432955719286
 32
0.0
 13
1265.673277570927
 23
404.7432955719286
 33
0.0
  0
MTEXT
  5
36
330
30
100
AcDbEntity
  8
0
  6
ByBlock
 62
     3
100
AcDbMText
 10
1258.923277570927
 20
376.4932955719286
 30
0.0
 40
8.099999999999999
 41
0.0
 71
     5
 72
     1
  1
\A1;56.5
  7
NORM
 11
0.0000000000000001
 21
1.0
 31
0.0
 73
     1
 44
1.0
  0
POINT
  5
37
330
30
100
AcDbEntity
  8
DEFPOINTS
  6
ByBlock
 62
     0
100
AcDbPoint
 10
1249.683747846462
 20
348.2432955719287
 30
0.0
  0
POINT
  5
39
330
30
100
AcDbEntity
  8
DEFPOINTS
  6
ByBlock
 62
     0
100
AcDbPoint
 10
1224.683747846462
 20
404.7432955719286
 30
0.0
  0
POINT
  5
3A
330
30
100
AcDbEntity
  8
DEFPOINTS
  6
ByBlock
 62
     0
100
AcDbPoint
 10
1265.673277570927
 20
404.7432955719286
 30
0.0
  0
ENDBLK
  5
3C
330
30
100
AcDbEntity
  8
0
100
AcDbBlockEnd
  0
BLOCK
  5
196
330
189
100
AcDbEntity
  8
0
100
AcDbBlockBegin
  2
*D2
 70
     1
 10
0.0
 20
0.0
 30
0.0
  3
*D2
  1

  0
LINE
  5
18A
330
189
100
AcDbEntity
  8
0
  6
ByBlock
100
AcDbLine
 10
1250.532766195597
 20
123.8743814892359
 30
0.0
 11
1278.853062451959
 21
123.8743814892359
 31
0.0
  0
LINE
  5
18B
330
189
100
AcDbEntity
  8
0
  6
ByBlock
100
AcDbLine
 10
1250.532766195597
 20
108.8743814892359
 30
0.0
 11
1278.853062451959
 21
108.8743814892359
 31
0.0
  0
LINE
  5
18C
330
189
100
AcDbEntity
  8
0
  6
ByBlock
100
AcDbLine
 10
1277.053062451959
 20
131.0743814892359
 30
0.0
 11
1277.053062451959
 21
138.2743814892359
 31
0.0
  0
LINE
  5
18D
330
189
100
AcDbEntity
  8
0
  6
ByBlock
100
AcDbLine
 10
1277.053062451959
 20
101.6743814892359
 30
0.0
 11
1277.053062451959
 21
94.47438148923591
 31
0.0
  0
MTEXT
  5
18E
330
189
100
AcDbEntity
  8
0
  6
ByBlock
 62
     3
100
AcDbMText
 10
1269.615813845971
 20
116.3743814892359
 30
0.0
 40
8.099999999999999
 41
0.0
 71
     5
 72
     1
  1
\A1;15
  7
NORM
 11
0.0000000000000001
 21
1.0
 31
0.0
 73
     1
 44
1.0
  0
LINE
  5
18F
330
189
100
AcDbEntity
  8
0
  6
ByBlock
100
AcDbLine
 10
1277.053062451959
 20
123.8743814892359
 30
0.0
 11
1277.053062451959
 21
108.8743814892359
 31
0.0
  0
LINE
  5
190
330
189
100
AcDbEntity
  8
0
  6
ByBlock
100
AcDbLine
 10
1277.053062451959
 20
123.8743814892359
 30
0.0
 11
1277.053062451959
 21
108.8743814892359
 31
0.0
  0
SOLID
  5
191
330
189
100
AcDbEntity
  8
0
  6
ByBlock
100
AcDbTrace
 10
1275.853062451959
 20
131.0743814892359
 30
0.0
 11
1278.253062451959
 21
131.0743814892359
 31
0.0
 12
1277.053062451959
 22
123.8743814892359
 32
0.0
 13
1277.053062451959
 23
123.8743814892359
 33
0.0
  0
SOLID
  5
192
330
189
100
AcDbEntity
  8
0
  6
ByBlock
100
AcDbTrace
 10
1275.853062451959
 20
101.6743814892359
 30
0.0
 11
1278.253062451959
 21
101.6743814892359
 31
0.0
 12
1277.053062451959
 22
108.8743814892359
 32
0.0
 13
1277.053062451959
 23
108.8743814892359
 33
0.0
  0
POINT
  5
193
330
189
100
AcDbEntity
  8
DEFPOINTS
  6
ByBlock
 62
     0
100
AcDbPoint
 10
1249.632766195597
 20
123.8743814892359
 30
0.0
  0
POINT
  5
194
330
189
100
AcDbEntity
  8
DEFPOINTS
  6
ByBlock
 62
     0
100
AcDbPoint
 10
1249.632766195597
 20
108.8743814892359
 30
0.0
  0
POINT
  5
195
330
189
100
AcDbEntity
  8
DEFPOINTS
  6
ByBlock
 62
     0
100
AcDbPoint
 10
1277.053062451959
 20
108.8743814892359
 30
0.0
  0
ENDBLK
  5
197
330
189
100
AcDbEntity
  8
0
100
AcDbBlockEnd
  0
BLOCK
  5
48
330
3E
100
AcDbEntity
  8
0
100
AcDbBlockBegin
  2
*D3
 70
     1
 10
0.0
 20
0.0
 30
0.0
  3
*D3
  1

  0
LINE
  5
3F
330
3E
100
AcDbEntity
  8
0
  6
ByBlock
100
AcDbLine
 10
1222.683747846462
 20
243.8432955719286
 30
0.0
 11
1222.683747846462
 21
220.2515327945727
 31
0.0
  0
LINE
  5
40
330
3E
100
AcDbEntity
  8
0
  6
ByBlock
100
AcDbLine
 10
1249.683747846462
 20
268.8432955719286
 30
0.0
 11
1249.683747846462
 21
220.2515327945727
 31
0.0
  0
LINE
  5
41
330
3E
100
AcDbEntity
  8
0
  6
ByBlock
100
AcDbLine
 10
1229.883747846462
 20
222.0515327945727
 30
0.0
 11
1242.483747846462
 21
222.0515327945727
 31
0.0
  0
SOLID
  5
42
330
3E
100
AcDbEntity
  8
0
  6
ByBlock
100
AcDbTrace
 10
1229.883747846462
 20
223.2515327945727
 30
0.0
 11
1229.883747846462
 21
220.8515327945727
 31
0.0
 12
1222.683747846462
 22
222.0515327945727
 32
0.0
 13
1222.683747846462
 23
222.0515327945727
 33
0.0
  0
SOLID
  5
43
330
3E
100
AcDbEntity
  8
0
  6
ByBlock
100
AcDbTrace
 10
1242.483747846462
 20
223.2515327945727
 30
0.0
 11
1242.483747846462
 21
220.8515327945727
 31
0.0
 12
1249.683747846462
 22
222.0515327945727
 32
0.0
 13
1249.683747846462
 23
222.0515327945727
 33
0.0
  0
MTEXT
  5
44
330
3E
100
AcDbEntity
  8
0
  6
ByBlock
 62
     3
100
AcDbMText
 10
1236.183747846462
 20
228.8015327945727
 30
0.0
 40
8.099999999999999
 41
0.0
 71
     5
 72
     1
  1
\A1;27
  7
NORM
 73
     1
 44
1.0
  0
POINT
  5
45
330
3E
100
AcDbEntity
  8
DEFPOINTS
  6
ByBlock
 62
     0
100
AcDbPoint
 10
1222.683747846462
 20
244.7432955719286
 30
0.0
  0
POINT
  5
46
330
3E
100
AcDbEntity
  8
DEFPOINTS
  6
ByBlock
 62
     0
100
AcDbPoint
 10
1249.683747846462
 20
269.7432955719286
 30
0.0
  0
POINT
  5
47
330
3E
100
AcDbEntity
  8
DEFPOINTS
  6
ByBlock
 62
     0
100
AcDbPoint
 10
1249.683747846462
 20
222.0515327945727
 30
0.0
  0
ENDBLK
  5
49
330
3E
100
AcDbEntity
  8
0
100
AcDbBlockEnd
  0
BLOCK
  5
62
330
58
100
AcDbEntity
  8
0
100
AcDbBlockBegin
  2
*D4
 70
     1
 10
0.0
 20
0.0
 30
0.0
  3
*D4
  1

  0
LINE
  5
59
330
58
100
AcDbEntity
  8
0
  6
ByBlock
100
AcDbLine
 10
1225.583747846462
 20
244.7432955719286
 30
0.0
 11
1267.473277570927
 21
244.7432955719286
 31
0.0
  0
LINE
  5
5A
330
58
100
AcDbEntity
  8
0
  6
ByBlock
100
AcDbLine
 10
1250.583747846462
 20
348.2432955719287
 30
0.0
 11
1267.473277570927
 21
348.2432955719287
 31
0.0
  0
LINE
  5
5B
330
58
100
AcDbEntity
  8
0
  6
ByBlock
100
AcDbLine
 10
1265.673277570927
 20
251.9432955719286
 30
0.0
 11
1265.673277570927
 21
341.0432955719286
 31
0.0
  0
SOLID
  5
5C
330
58
100
AcDbEntity
  8
0
  6
ByBlock
100
AcDbTrace
 10
1264.473277570927
 20
251.9432955719286
 30
0.0
 11
1266.873277570927
 21
251.9432955719286
 31
0.0
 12
1265.673277570927
 22
244.7432955719286
 32
0.0
 13
1265.673277570927
 23
244.7432955719286
 33
0.0
  0
SOLID
  5
5D
330
58
100
AcDbEntity
  8
0
  6
ByBlock
100
AcDbTrace
 10
1264.473277570927
 20
341.0432955719286
 30
0.0
 11
1266.873277570927
 21
341.0432955719286
 31
0.0
 12
1265.673277570927
 22
348.2432955719287
 32
0.0
 13
1265.673277570927
 23
348.2432955719287
 33
0.0
  0
MTEXT
  5
5E
330
58
100
AcDbEntity
  8
0
  6
ByBlock
 62
     3
100
AcDbMText
 10
1258.923277570927
 20
296.4932955719286
 30
0.0
 40
8.099999999999999
 41
0.0
 71
     5
 72
     1
  1
\A1;103.5
  7
NORM
 11
0.0000000000000001
 21
1.0
 31
0.0
 73
     1
 44
1.0
  0
POINT
  5
5F
330
58
100
AcDbEntity
  8
DEFPOINTS
  6
ByBlock
 62
     0
100
AcDbPoint
 10
1224.683747846462
 20
244.7432955719286
 30
0.0
  0
POINT
  5
60
330
58
100
AcDbEntity
  8
DEFPOINTS
  6
ByBlock
 62
     0
100
AcDbPoint
 10
1249.683747846462
 20
348.2432955719287
 30
0.0
  0
POINT
  5
61
330
58
100
AcDbEntity
  8
DEFPOINTS
  6
ByBlock
 62
     0
100
AcDbPoint
 10
1265.673277570927
 20
348.2432955719287
 30
0.0
  0
ENDBLK
  5
63
330
58
100
AcDbEntity
  8
0
100
AcDbBlockEnd
  0
BLOCK
  5
186
330
17C
100
AcDbEntity
  8
0
100
AcDbBlockBegin
  2
*D5
 70
     1
 10
0.0
 20
0.0
 30
0.0
  3
*D5
  1

  0
LINE
  5
17D
330
17C
100
AcDbEntity
  8
0
  6
ByBlock
100
AcDbLine
 10
1323.762578679304
 20
428.7432955719287
 30
0.0
 11
1350.797905624038
 21
428.7432955719287
 31
0.0
  0
LINE
  5
17E
330
17C
100
AcDbEntity
  8
0
  6
ByBlock
100
AcDbLine
 10
1323.762578679304
 20
220.7432955719287
 30
0.0
 11
1350.797905624038
 21
220.7432955719287
 31
0.0
  0
LINE
  5
17F
330
17C
100
AcDbEntity
  8
0
  6
ByBlock
100
AcDbLine
 10
1348.997905624038
 20
421.5432955719287
 30
0.0
 11
1348.997905624038
 21
227.9432955719286
 31
0.0
  0
SOLID
  5
180
330
17C
100
AcDbEntity
  8
0
  6
ByBlock
100
AcDbTrace
 10
1347.797905624038
 20
421.5432955719287
 30
0.0
 11
1350.197905624038
 21
421.5432955719287
 31
0.0
 12
1348.997905624038
 22
428.7432955719287
 32
0.0
 13
1348.997905624038
 23
428.7432955719287
 33
0.0
  0
SOLID
  5
181
330
17C
100
AcDbEntity
  8
0
  6
ByBlock
100
AcDbTrace
 10
1347.797905624038
 20
227.9432955719286
 30
0.0
 11
1350.197905624038
 21
227.9432955719286
 31
0.0
 12
1348.997905624038
 22
220.7432955719287
 32
0.0
 13
1348.997905624038
 23
220.7432955719287
 33
0.0
  0
MTEXT
  5
182
330
17C
100
AcDbEntity
  8
0
  6
ByBlock
 62
     3
100
AcDbMText
 10
1342.247905624038
 20
324.7432955719287
 30
0.0
 40
8.099999999999999
 41
0.0
 71
     5
 72
     1
  1
\A1;208
  7
NORM
 11
0.0000000000000001
 21
1.0
 31
0.0
 73
     1
 44
1.0
  0
POINT
  5
183
330
17C
100
AcDbEntity
  8
DEFPOINTS
  6
ByBlock
 62
     0
100
AcDbPoint
 10
1322.862578679304
 20
428.7432955719287
 30
0.0
  0
POINT
  5
184
330
17C
100
AcDbEntity
  8
DEFPOINTS
  6
ByBlock
 62
     0
100
AcDbPoint
 10
1322.862578679304
 20
220.7432955719287
 30
0.0
  0
POINT
  5
185
330
17C
100
AcDbEntity
  8
DEFPOINTS
  6
ByBlock
 62
     0
100
AcDbPoint
 10
1348.997905624038
 20
220.7432955719287
 30
0.0
  0
ENDBLK
  5
187
330
17C
100
AcDbEntity
  8
0
100
AcDbBlockEnd
  0
BLOCK
  5
1A4
330
19A
100
AcDbEntity
  8
0
100
AcDbBlockBegin
  2
*D6
 70
     1
 10
0.0
 20
0.0
 30
0.0
  3
*D6
  1

  0
LINE
  5
19B
330
19A
100
AcDbEntity
  8
0
  6
ByBlock
100
AcDbLine
 10
1021.564008835923
 20
128.4601894760538
 30
0.0
 11
1021.564008835923
 21
92.21670854515851
 31
0.0
  0
LINE
  5
19C
330
19A
100
AcDbEntity
  8
0
  6
ByBlock
100
AcDbLine
 10
1041.564008835923
 20
128.4601894760538
 30
0.0
 11
1041.564008835923
 21
92.21670854515851
 31
0.0
  0
LINE
  5
19D
330
19A
100
AcDbEntity
  8
0
  6
ByBlock
100
AcDbLine
 10
1028.764008835923
 20
94.01670854515851
 30
0.0
 11
1034.364008835923
 21
94.01670854515851
 31
0.0
  0
SOLID
  5
19E
330
19A
100
AcDbEntity
  8
0
  6
ByBlock
100
AcDbTrace
 10
1028.764008835923
 20
95.21670854515852
 30
0.0
 11
1028.764008835923
 21
92.8167085451585
 31
0.0
 12
1021.564008835923
 22
94.01670854515851
 32
0.0
 13
1021.564008835923
 23
94.01670854515851
 33
0.0
  0
SOLID
  5
19F
330
19A
100
AcDbEntity
  8
0
  6
ByBlock
100
AcDbTrace
 10
1034.364008835923
 20
95.21670854515852
 30
0.0
 11
1034.364008835923
 21
92.8167085451585
 31
0.0
 12
1041.564008835923
 22
94.01670854515851
 32
0.0
 13
1041.564008835923
 23
94.01670854515851
 33
0.0
  0
MTEXT
  5
1A0
330
19A
100
AcDbEntity
  8
0
  6
ByBlock
 62
     3
100
AcDbMText
 10
1031.564008835923
 20
100.7667085451585
 30
0.0
 40
8.099999999999999
 41
0.0
 71
     5
 72
     1
  1
\A1;20
  7
NORM
 73
     1
 44
1.0
  0
POINT
  5
1A1
330
19A
100
AcDbEntity
  8
DEFPOINTS
  6
ByBlock
 62
     0
100
AcDbPoint
 10
1021.564008835923
 20
129.3601894760538
 30
0.0
  0
POINT
  5
1A2
330
19A
100
AcDbEntity
  8
DEFPOINTS
  6
ByBlock
 62
     0
100
AcDbPoint
 10
1041.564008835923
 20
129.3601894760538
 30
0.0
  0
POINT
  5
1A3
330
19A
100
AcDbEntity
  8
DEFPOINTS
  6
ByBlock
 62
     0
100
AcDbPoint
 10
1041.564008835923
 20
94.01670854515851
 30
0.0
  0
ENDBLK
  5
1A5
330
19A
100
AcDbEntity
  8
0
100
AcDbBlockEnd
  0
BLOCK
  5
20B
330
209
100
AcDbEntity
  8
0
100
AcDbBlockBegin
  2
GENAXEH
 70
     0
 10
0.0
 20
0.0
 30
0.0
  3
GENAXEH
  1

  0
LINE
  5
20A
330
209
100
AcDbEntity
  8
0
100
AcDbLine
 10
-1.0
 20
0.0
 30
0.0
 11
1.0
 21
0.0
 31
0.0
  0
ENDBLK
  5
20C
330
209
100
AcDbEntity
  8
0
100
AcDbBlockEnd
  0
BLOCK
  5
B5
330
AB
100
AcDbEntity
  8
0
100
AcDbBlockBegin
  2
*D8
 70
     1
 10
0.0
 20
0.0
 30
0.0
  3
*D8
  1

  0
LINE
  5
AC
330
AB
100
AcDbEntity
  8
BEMASSUNG
  6
Continuous
370
    -2
100
AcDbLine
 10
714.590085687374
 20
166.3028367426146
 30
0.0
 11
714.590085687374
 21
142.7110739652586
 31
0.0
  0
LINE
  5
AD
330
AB
100
AcDbEntity
  8
BEMASSUNG
  6
Continuous
370
    -2
100
AcDbLine
 10
654.5900856873741
 20
144.0029264857048
 30
0.0
 11
654.5900856873741
 21
146.3110739652586
 31
0.0
  0
LINE
  5
AE
330
AB
100
AcDbEntity
  8
BEMASSUNG
  6
Continuous
370
    -2
100
AcDbLine
 10
707.390085687374
 20
144.5110739652586
 30
0.0
 11
661.7900856873741
 21
144.5110739652586
 31
0.0
  0
SOLID
  5
AF
330
AB
100
AcDbEntity
  8
BEMASSUNG
  6
Continuous
100
AcDbTrace
 10
707.390085687374
 20
145.7110739652586
 30
0.0
 11
707.390085687374
 21
143.3110739652586
 31
0.0
 12
714.590085687374
 22
144.5110739652586
 32
0.0
 13
714.590085687374
 23
144.5110739652586
 33
0.0
  0
SOLID
  5
B0
330
AB
100
AcDbEntity
  8
BEMASSUNG
  6
Continuous
100
AcDbTrace
 10
661.7900856873741
 20
145.7110739652586
 30
0.0
 11
661.7900856873741
 21
143.3110739652586
 31
0.0
 12
654.5900856873741
 22
144.5110739652586
 32
0.0
 13
654.5900856873741
 23
144.5110739652586
 33
0.0
  0
MTEXT
  5
B1
330
AB
100
AcDbEntity
  8
BEMASSUNG
  6
Continuous
 62
     3
100
AcDbMText
 10
684.5900856873741
 20
151.2610739652586
 30
0.0
 40
8.099999999999999
 41
0.0
 71
     5
 72
     1
  1
\A1;60
  7
NORM
 73
     1
 44
1.0
  0
POINT
  5
B2
330
AB
100
AcDbEntity
  8
DEFPOINTS
  6
Continuous
 62
     0
100
AcDbPoint
 10
714.590085687374
 20
167.2028367426146
 30
0.0
  0
POINT
  5
B3
330
AB
100
AcDbEntity
  8
DEFPOINTS
  6
Continuous
 62
     0
100
AcDbPoint
 10
654.5900856873741
 20
143.1029264857048
 30
0.0
  0
POINT
  5
B4
330
AB
100
AcDbEntity
  8
DEFPOINTS
  6
Continuous
 62
     0
100
AcDbPoint
 10
654.5900856873741
 20
144.5110739652586
 30
0.0
  0
ENDBLK
  5
B6
330
AB
100
AcDbEntity
  8
0
100
AcDbBlockEnd
  0
BLOCK
  5
70
330
66
100
AcDbEntity
  8
0
100
AcDbBlockBegin
  2
*D9
 70
     1
 10
0.0
 20
0.0
 30
0.0
  3
*D9
  1

  0
LINE
  5
67
330
66
100
AcDbEntity
  8
BEMASSUNG
370
    -2
100
AcDbLine
 10
653.6900856873741
 20
112.2028367426146
 30
0.0
 11
616.1600856873745
 21
112.2028367426146
 31
0.0
  0
LINE
  5
68
330
66
100
AcDbEntity
  8
BEMASSUNG
370
    -2
100
AcDbLine
 10
628.6900856873741
 20
207.2028367426146
 30
0.0
 11
616.1600856873745
 21
207.2028367426146
 31
0.0
  0
LINE
  5
69
330
66
100
AcDbEntity
  8
BEMASSUNG
370
    -2
100
AcDbLine
 10
617.9600856873744
 20
119.4028367426146
 30
0.0
 11
617.9600856873744
 21
200.0028367426146
 31
0.0
  0
SOLID
  5
6A
330
66
100
AcDbEntity
  8
BEMASSUNG
100
AcDbTrace
 10
616.7600856873743
 20
119.4028367426146
 30
0.0
 11
619.1600856873744
 21
119.4028367426146
 31
0.0
 12
617.9600856873744
 22
112.2028367426146
 32
0.0
 13
617.9600856873744
 23
112.2028367426146
 33
0.0
  0
SOLID
  5
6B
330
66
100
AcDbEntity
  8
BEMASSUNG
100
AcDbTrace
 10
616.7600856873743
 20
200.0028367426146
 30
0.0
 11
619.1600856873744
 21
200.0028367426146
 31
0.0
 12
617.9600856873744
 22
207.2028367426146
 32
0.0
 13
617.9600856873744
 23
207.2028367426146
 33
0.0
  0
MTEXT
  5
6C
330
66
100
AcDbEntity
  8
BEMASSUNG
 62
     3
100
AcDbMText
 10
611.2100856873744
 20
159.7028367426147
 30
0.0
 40
8.099999999999999
 41
0.0
 71
     5
 72
     1
  1
\A1;95
  7
NORM
 11
0.0000000000000001
 21
1.0
 31
0.0
 73
     1
 44
1.0
  0
POINT
  5
6D
330
66
100
AcDbEntity
  8
DEFPOINTS
 62
     0
100
AcDbPoint
 10
654.5900856873741
 20
112.2028367426146
 30
0.0
  0
POINT
  5
6E
330
66
100
AcDbEntity
  8
DEFPOINTS
 62
     0
100
AcDbPoint
 10
629.5900856873741
 20
207.2028367426146
 30
0.0
  0
POINT
  5
6F
330
66
100
AcDbEntity
  8
DEFPOINTS
 62
     0
100
AcDbPoint
 10
617.9600856873744
 20
207.2028367426146
 30
0.0
  0
ENDBLK
  5
71
330
66
100
AcDbEntity
  8
0
100
AcDbBlockEnd
  0
BLOCK
  5
7D
330
73
100
AcDbEntity
  8
0
100
AcDbBlockBegin
  2
*D10
 70
     1
 10
0.0
 20
0.0
 30
0.0
  3
*D10
  1

  0
LINE
  5
74
330
73
100
AcDbEntity
  8
BEMASSUNG
370
    -2
100
AcDbLine
 10
653.6900856873741
 20
112.2028367426146
 30
0.0
 11
598.2417975574064
 21
112.2028367426146
 31
0.0
  0
LINE
  5
75
330
73
100
AcDbEntity
  8
BEMASSUNG
370
    -2
100
AcDbLine
 10
653.6900856873741
 20
382.2028367426146
 30
0.0
 11
598.2417975574064
 21
382.2028367426146
 31
0.0
  0
LINE
  5
76
330
73
100
AcDbEntity
  8
BEMASSUNG
370
    -2
100
AcDbLine
 10
600.0417975574062
 20
119.4028367426146
 30
0.0
 11
600.0417975574064
 21
375.0028367426147
 31
0.0
  0
SOLID
  5
77
330
73
100
AcDbEntity
  8
BEMASSUNG
100
AcDbTrace
 10
598.8417975574062
 20
119.4028367426146
 30
0.0
 11
601.2417975574063
 21
119.4028367426146
 31
0.0
 12
600.0417975574062
 22
112.2028367426146
 32
0.0
 13
600.0417975574062
 23
112.2028367426146
 33
0.0
  0
SOLID
  5
78
330
73
100
AcDbEntity
  8
BEMASSUNG
100
AcDbTrace
 10
598.8417975574064
 20
375.0028367426147
 30
0.0
 11
601.2417975574065
 21
375.0028367426147
 31
0.0
 12
600.0417975574064
 22
382.2028367426146
 32
0.0
 13
600.0417975574064
 23
382.2028367426146
 33
0.0
  0
MTEXT
  5
79
330
73
100
AcDbEntity
  8
BEMASSUNG
 62
     3
100
AcDbMText
 10
593.2917975574063
 20
247.2028367426147
 30
0.0
 40
8.099999999999999
 41
0.0
 71
     5
 72
     1
  1
\A1;270
  7
NORM
 11
0.0000000000000001
 21
1.0
 31
0.0
 73
     1
 44
1.0
  0
POINT
  5
7A
330
73
100
AcDbEntity
  8
DEFPOINTS
 62
     0
100
AcDbPoint
 10
654.5900856873741
 20
112.2028367426146
 30
0.0
  0
POINT
  5
7B
330
73
100
AcDbEntity
  8
DEFPOINTS
 62
     0
100
AcDbPoint
 10
654.5900856873741
 20
382.2028367426146
 30
0.0
  0
POINT
  5
7C
330
73
100
AcDbEntity
  8
DEFPOINTS
 62
     0
100
AcDbPoint
 10
600.0417975574064
 20
382.2028367426146
 30
0.0
  0
ENDBLK
  5
7E
330
73
100
AcDbEntity
  8
0
100
AcDbBlockEnd
  0
BLOCK
  5
8E
330
82
100
AcDbEntity
  8
0
100
AcDbBlockBegin
  2
*D11
 70
     1
 10
0.0
 20
0.0
 30
0.0
  3
*D11
  1

  0
LINE
  5
83
330
82
100
AcDbEntity
  8
BEMASSUNG
370
    -2
100
AcDbLine
 10
628.6561305279157
 20
43.7014805577296
 30
0.0
 11
616.1600856873745
 21
43.70148055772961
 31
0.0
  0
LINE
  5
84
330
82
100
AcDbEntity
  8
BEMASSUNG
370
    -2
100
AcDbLine
 10
628.6561305279157
 20
33.20148055772961
 30
0.0
 11
616.1600856873745
 21
33.20148055772961
 31
0.0
  0
LINE
  5
85
330
82
100
AcDbEntity
  8
BEMASSUNG
370
    -2
100
AcDbLine
 10
617.9600856873744
 20
50.90148055772962
 30
0.0
 11
617.9600856873744
 21
58.10148055772962
 31
0.0
  0
LINE
  5
86
330
82
100
AcDbEntity
  8
BEMASSUNG
370
    -2
100
AcDbLine
 10
617.9600856873744
 20
26.00148055772961
 30
0.0
 11
617.9600856873744
 21
18.80148055772961
 31
0.0
  0
MTEXT
  5
87
330
82
100
AcDbEntity
  8
BEMASSUNG
 62
     3
100
AcDbMText
 10
608.0600856873744
 20
38.45148055772972
 30
0.0
 40
8.099999999999999
 41
0.0
 71
     5
 72
     1
  1
\A1;10.5
  7
NORM
 11
0.0000000000000001
 21
1.0
 31
0.0
 73
     1
 44
1.0
  0
LINE
  5
88
330
82
100
AcDbEntity
  8
BEMASSUNG
370
    -2
100
AcDbLine
 10
617.9600856873744
 20
43.70148055772961
 30
0.0
 11
617.9600856873744
 21
33.20148055772961
 31
0.0
  0
SOLID
  5
89
330
82
100
AcDbEntity
  8
BEMASSUNG
100
AcDbTrace
 10
616.7600856873743
 20
50.90148055772962
 30
0.0
 11
619.1600856873744
 21
50.90148055772962
 31
0.0
 12
617.9600856873744
 22
43.70148055772961
 32
0.0
 13
617.9600856873744
 23
43.70148055772961
 33
0.0
  0
SOLID
  5
8A
330
82
100
AcDbEntity
  8
BEMASSUNG
100
AcDbTrace
 10
616.7600856873743
 20
26.00148055772961
 30
0.0
 11
619.1600856873744
 21
26.00148055772961
 31
0.0
 12
617.9600856873744
 22
33.20148055772961
 32
0.0
 13
617.9600856873744
 23
33.20148055772961
 33
0.0
  0
POINT
  5
8B
330
82
100
AcDbEntity
  8
DEFPOINTS
 62
     0
100
AcDbPoint
 10
629.5561305279156
 20
43.7014805577296
 30
0.0
  0
POINT
  5
8C
330
82
100
AcDbEntity
  8
DEFPOINTS
 62
     0
100
AcDbPoint
 10
629.5561305279156
 20
33.20148055772961
 30
0.0
  0
POINT
  5
8D
330
82
100
AcDbEntity
  8
DEFPOINTS
 62
     0
100
AcDbPoint
 10
617.9600856873744
 20
33.20148055772961
 30
0.0
  0
ENDBLK
  5
8F
330
82
100
AcDbEntity
  8
0
100
AcDbBlockEnd
  0
BLOCK
  5
9F
330
93
100
AcDbEntity
  8
0
100
AcDbBlockBegin
  2
*D12
 70
     1
 10
0.0
 20
0.0
 30
0.0
  3
*D12
  1

  0
LINE
  5
94
330
93
100
AcDbEntity
  8
BEMASSUNG
370
    -2
100
AcDbLine
 10
654.5900856873741
 20
111.3028367426146
 30
0.0
 11
654.5900856873741
 21
85.05935581171952
 31
0.0
  0
LINE
  5
95
330
93
100
AcDbEntity
  8
BEMASSUNG
370
    -2
100
AcDbLine
 10
657.590085687374
 20
111.3028367426146
 30
0.0
 11
657.590085687374
 21
85.05935581171952
 31
0.0
  0
LINE
  5
96
330
93
100
AcDbEntity
  8
BEMASSUNG
370
    -2
100
AcDbLine
 10
647.390085687374
 20
86.85935581171952
 30
0.0
 11
640.1900856873741
 21
86.85935581171952
 31
0.0
  0
LINE
  5
97
330
93
100
AcDbEntity
  8
BEMASSUNG
370
    -2
100
AcDbLine
 10
664.7900856873741
 20
86.85935581171952
 30
0.0
 11
671.990085687374
 21
86.85935581171952
 31
0.0
  0
MTEXT
  5
98
330
93
100
AcDbEntity
  8
BEMASSUNG
 62
     3
100
AcDbMText
 10
670.7966516168353
 20
93.96712073828757
 30
0.0
 40
8.099999999999999
 41
0.0
 71
     5
 72
     1
  1
\A1;3
  7
NORM
 73
     1
 44
1.0
  0
LINE
  5
99
330
93
100
AcDbEntity
  8
BEMASSUNG
370
    -2
100
AcDbLine
 10
654.5900856873741
 20
86.85935581171952
 30
0.0
 11
657.590085687374
 21
86.85935581171952
 31
0.0
  0
SOLID
  5
9A
330
93
100
AcDbEntity
  8
BEMASSUNG
100
AcDbTrace
 10
647.390085687374
 20
88.05935581171953
 30
0.0
 11
647.390085687374
 21
85.65935581171952
 31
0.0
 12
654.5900856873741
 22
86.85935581171952
 32
0.0
 13
654.5900856873741
 23
86.85935581171952
 33
0.0
  0
SOLID
  5
9B
330
93
100
AcDbEntity
  8
BEMASSUNG
100
AcDbTrace
 10
664.7900856873741
 20
88.05935581171953
 30
0.0
 11
664.7900856873741
 21
85.65935581171952
 31
0.0
 12
657.590085687374
 22
86.85935581171952
 32
0.0
 13
657.590085687374
 23
86.85935581171952
 33
0.0
  0
POINT
  5
9C
330
93
100
AcDbEntity
  8
DEFPOINTS
 62
     0
100
AcDbPoint
 10
654.5900856873741
 20
112.2028367426146
 30
0.0
  0
POINT
  5
9D
330
93
100
AcDbEntity
  8
DEFPOINTS
 62
     0
100
AcDbPoint
 10
657.590085687374
 20
112.2028367426146
 30
0.0
  0
POINT
  5
9E
330
93
100
AcDbEntity
  8
DEFPOINTS
 62
     0
100
AcDbPoint
 10
657.590085687374
 20
86.85935581171952
 30
0.0
  0
ENDBLK
  5
A0
330
93
100
AcDbEntity
  8
0
100
AcDbBlockEnd
  0
BLOCK
  5
C2
330
B8
100
AcDbEntity
  8
0
100
AcDbBlockBegin
  2
*D13
 70
     1
 10
0.0
 20
0.0
 30
0.0
  3
*D13
  1

  0
LINE
  5
B9
330
B8
100
AcDbEntity
  8
BEMASSUNG
370
    -2
100
AcDbLine
 10
653.6900856873741
 20
112.2028367426146
 30
0.0
 11
637.5499171305639
 21
112.2028367426146
 31
0.0
  0
LINE
  5
BA
330
B8
100
AcDbEntity
  8
BEMASSUNG
370
    -2
100
AcDbLine
 10
656.6900856873741
 20
167.2028367426146
 30
0.0
 11
637.5499171305639
 21
167.2028367426146
 31
0.0
  0
LINE
  5
BB
330
B8
100
AcDbEntity
  8
BEMASSUNG
370
    -2
100
AcDbLine
 10
639.3499171305639
 20
119.4028367426146
 30
0.0
 11
639.3499171305639
 21
160.0028367426146
 31
0.0
  0
SOLID
  5
BC
330
B8
100
AcDbEntity
  8
BEMASSUNG
100
AcDbTrace
 10
638.1499171305638
 20
119.4028367426146
 30
0.0
 11
640.5499171305639
 21
119.4028367426146
 31
0.0
 12
639.3499171305639
 22
112.2028367426146
 32
0.0
 13
639.3499171305639
 23
112.2028367426146
 33
0.0
  0
SOLID
  5
BD
330
B8
100
AcDbEntity
  8
BEMASSUNG
100
AcDbTrace
 10
638.1499171305638
 20
160.0028367426146
 30
0.0
 11
640.5499171305639
 21
160.0028367426146
 31
0.0
 12
639.3499171305639
 22
167.2028367426146
 32
0.0
 13
639.3499171305639
 23
167.2028367426146
 33
0.0
  0
MTEXT
  5
BE
330
B8
100
AcDbEntity
  8
BEMASSUNG
 62
     3
100
AcDbMText
 10
632.5999171305639
 20
139.7028367426147
 30
0.0
 40
8.099999999999999
 41
0.0
 71
     5
 72
     1
  1
\A1;55
  7
NORM
 11
0.0000000000000001
 21
1.0
 31
0.0
 73
     1
 44
1.0
  0
POINT
  5
BF
330
B8
100
AcDbEntity
  8
DEFPOINTS
 62
     0
100
AcDbPoint
 10
654.5900856873741
 20
112.2028367426146
 30
0.0
  0
POINT
  5
C0
330
B8
100
AcDbEntity
  8
DEFPOINTS
 62
     0
100
AcDbPoint
 10
657.590085687374
 20
167.2028367426146
 30
0.0
  0
POINT
  5
C1
330
B8
100
AcDbEntity
  8
DEFPOINTS
 62
     0
100
AcDbPoint
 10
639.3499171305639
 20
167.2028367426146
 30
0.0
  0
ENDBLK
  5
C3
330
B8
100
AcDbEntity
  8
0
100
AcDbBlockEnd
  0
BLOCK
  5
D1
330
C5
100
AcDbEntity
  8
0
100
AcDbBlockBegin
  2
*D14
 70
     1
 10
0.0
 20
0.0
 30
0.0
  3
*D14
  1

  0
LINE
  5
C6
330
C5
100
AcDbEntity
  8
BEMASSUNG
370
    -2
100
AcDbLine
 10
642.0900856873741
 20
305.1028367426146
 30
0.0
 11
642.0900856873741
 21
313.5027999773386
 31
0.0
  0
LINE
  5
C7
330
C5
100
AcDbEntity
  8
BEMASSUNG
370
    -2
100
AcDbLine
 10
654.5900856873741
 20
314.9646593340663
 30
0.0
 11
654.5900856873741
 21
309.9027999773385
 31
0.0
  0
LINE
  5
C8
330
C5
100
AcDbEntity
  8
BEMASSUNG
370
    -2
100
AcDbLine
 10
634.890085687374
 20
311.7027999773386
 30
0.0
 11
627.6900856873741
 21
311.7027999773386
 31
0.0
  0
LINE
  5
C9
330
C5
100
AcDbEntity
  8
BEMASSUNG
370
    -2
100
AcDbLine
 10
661.7900856873741
 20
311.7027999773386
 30
0.0
 11
668.990085687374
 21
311.7027999773386
 31
0.0
  0
MTEXT
  5
CA
330
C5
100
AcDbEntity
  8
BEMASSUNG
 62
     3
100
AcDbMText
 10
638.3763338956714
 20
319.6923850203233
 30
0.0
 40
8.099999999999999
 41
0.0
 71
     5
 72
     1
  1
\A1;12.5
  7
NORM
 73
     1
 44
1.0
  0
LINE
  5
CB
330
C5
100
AcDbEntity
  8
BEMASSUNG
370
    -2
100
AcDbLine
 10
642.0900856873741
 20
311.7027999773386
 30
0.0
 11
654.5900856873741
 21
311.7027999773386
 31
0.0
  0
SOLID
  5
CC
330
C5
100
AcDbEntity
  8
BEMASSUNG
100
AcDbTrace
 10
634.890085687374
 20
312.9027999773386
 30
0.0
 11
634.890085687374
 21
310.5027999773386
 31
0.0
 12
642.0900856873741
 22
311.7027999773386
 32
0.0
 13
642.0900856873741
 23
311.7027999773386
 33
0.0
  0
SOLID
  5
CD
330
C5
100
AcDbEntity
  8
BEMASSUNG
100
AcDbTrace
 10
661.7900856873741
 20
312.9027999773386
 30
0.0
 11
661.7900856873741
 21
310.5027999773386
 31
0.0
 12
654.5900856873741
 22
311.7027999773386
 32
0.0
 13
654.5900856873741
 23
311.7027999773386
 33
0.0
  0
POINT
  5
CE
330
C5
100
AcDbEntity
  8
DEFPOINTS
 62
     0
100
AcDbPoint
 10
642.0900856873741
 20
304.2028367426146
 30
0.0
  0
POINT
  5
CF
330
C5
100
AcDbEntity
  8
DEFPOINTS
 62
     0
100
AcDbPoint
 10
654.5900856873741
 20
315.8646593340663
 30
0.0
  0
POINT
  5
D0
330
C5
100
AcDbEntity
  8
DEFPOINTS
 62
     0
100
AcDbPoint
 10
654.5900856873741
 20
311.7027999773386
 30
0.0
  0
ENDBLK
  5
D2
330
C5
100
AcDbEntity
  8
0
100
AcDbBlockEnd
  0
BLOCK
  5
DE
330
D4
100
AcDbEntity
  8
0
100
AcDbBlockBegin
  2
*D15
 70
     1
 10
0.0
 20
0.0
 30
0.0
  3
*D15
  1

  0
LINE
  5
D5
330
D4
100
AcDbEntity
  8
BEMASSUNG
370
    -2
100
AcDbLine
 10
641.1900856873741
 20
304.2028367426146
 30
0.0
 11
616.1600856873745
 21
304.2028367426147
 31
0.0
  0
LINE
  5
D6
330
D4
100
AcDbEntity
  8
BEMASSUNG
370
    -2
100
AcDbLine
 10
653.6900856873741
 20
382.2028367426146
 30
0.0
 11
616.1600856873745
 21
382.2028367426146
 31
0.0
  0
LINE
  5
D7
330
D4
100
AcDbEntity
  8
BEMASSUNG
370
    -2
100
AcDbLine
 10
617.9600856873744
 20
311.4028367426147
 30
0.0
 11
617.9600856873744
 21
375.0028367426147
 31
0.0
  0
SOLID
  5
D8
330
D4
100
AcDbEntity
  8
BEMASSUNG
100
AcDbTrace
 10
616.7600856873743
 20
311.4028367426147
 30
0.0
 11
619.1600856873744
 21
311.4028367426147
 31
0.0
 12
617.9600856873744
 22
304.2028367426147
 32
0.0
 13
617.9600856873744
 23
304.2028367426147
 33
0.0
  0
SOLID
  5
D9
330
D4
100
AcDbEntity
  8
BEMASSUNG
100
AcDbTrace
 10
616.7600856873743
 20
375.0028367426147
 30
0.0
 11
619.1600856873744
 21
375.0028367426147
 31
0.0
 12
617.9600856873744
 22
382.2028367426146
 32
0.0
 13
617.9600856873744
 23
382.2028367426146
 33
0.0
  0
MTEXT
  5
DA
330
D4
100
AcDbEntity
  8
BEMASSUNG
 62
     3
100
AcDbMText
 10
611.2100856873743
 20
343.2028367426147
 30
0.0
 40
8.099999999999999
 41
0.0
 71
     5
 72
     1
  1
\A1;78
  7
NORM
 11
0.0000000000000001
 21
1.0
 31
0.0
 73
     1
 44
1.0
  0
POINT
  5
DB
330
D4
100
AcDbEntity
  8
DEFPOINTS
 62
     0
100
AcDbPoint
 10
642.0900856873741
 20
304.2028367426146
 30
0.0
  0
POINT
  5
DC
330
D4
100
AcDbEntity
  8
DEFPOINTS
 62
     0
100
AcDbPoint
 10
654.5900856873741
 20
382.2028367426146
 30
0.0
  0
POINT
  5
DD
330
D4
100
AcDbEntity
  8
DEFPOINTS
 62
     0
100
AcDbPoint
 10
617.9600856873744
 20
382.2028367426146
 30
0.0
  0
ENDBLK
  5
DF
330
D4
100
AcDbEntity
  8
0
100
AcDbBlockEnd
  0
BLOCK
  5
EB
330
E1
100
AcDbEntity
  8
0
100
AcDbBlockBegin
  2
*D16
 70
     1
 10
0.0
 20
0.0
 30
0.0
  3
*D16
  1

  0
LINE
  5
E2
330
E1
100
AcDbEntity
  8
BEMASSUNG
370
    -2
100
AcDbLine
 10
628.6900856873741
 20
207.2028367426146
 30
0.0
 11
616.1600856873743
 21
207.2028367426146
 31
0.0
  0
LINE
  5
E3
330
E1
100
AcDbEntity
  8
BEMASSUNG
370
    -2
100
AcDbLine
 10
628.6900856873741
 20
257.2028367426146
 30
0.0
 11
616.1600856873745
 21
257.2028367426146
 31
0.0
  0
LINE
  5
E4
330
E1
100
AcDbEntity
  8
BEMASSUNG
370
    -2
100
AcDbLine
 10
617.9600856873743
 20
214.4028367426146
 30
0.0
 11
617.9600856873743
 21
250.0028367426146
 31
0.0
  0
SOLID
  5
E5
330
E1
100
AcDbEntity
  8
BEMASSUNG
100
AcDbTrace
 10
616.7600856873742
 20
214.4028367426146
 30
0.0
 11
619.1600856873743
 21
214.4028367426146
 31
0.0
 12
617.9600856873743
 22
207.2028367426146
 32
0.0
 13
617.9600856873743
 23
207.2028367426146
 33
0.0
  0
SOLID
  5
E6
330
E1
100
AcDbEntity
  8
BEMASSUNG
100
AcDbTrace
 10
616.7600856873742
 20
250.0028367426146
 30
0.0
 11
619.1600856873743
 21
250.0028367426146
 31
0.0
 12
617.9600856873744
 22
257.2028367426146
 32
0.0
 13
617.9600856873744
 23
257.2028367426146
 33
0.0
  0
MTEXT
  5
E7
330
E1
100
AcDbEntity
  8
BEMASSUNG
 62
     3
100
AcDbMText
 10
611.2100856873743
 20
232.2028367426147
 30
0.0
 40
8.099999999999999
 41
0.0
 71
     5
 72
     1
  1
\A1;50
  7
NORM
 11
0.0000000000000001
 21
1.0
 31
0.0
 73
     1
 44
1.0
  0
POINT
  5
E8
330
E1
100
AcDbEntity
  8
DEFPOINTS
 62
     0
100
AcDbPoint
 10
629.5900856873741
 20
207.2028367426146
 30
0.0
  0
POINT
  5
E9
330
E1
100
AcDbEntity
  8
DEFPOINTS
 62
     0
100
AcDbPoint
 10
629.5900856873741
 20
257.2028367426146
 30
0.0
  0
POINT
  5
EA
330
E1
100
AcDbEntity
  8
DEFPOINTS
 62
     0
100
AcDbPoint
 10
617.9600856873744
 20
257.2028367426146
 30
0.0
  0
ENDBLK
  5
EC
330
E1
100
AcDbEntity
  8
0
100
AcDbBlockEnd
  0
BLOCK
  5
F8
330
EE
100
AcDbEntity
  8
0
100
AcDbBlockBegin
  2
*D17
 70
     1
 10
0.0
 20
0.0
 30
0.0
  3
*D17
  1

  0
LINE
  5
EF
330
EE
100
AcDbEntity
  8
BEMASSUNG
370
    -2
100
AcDbLine
 10
641.1900856873741
 20
279.2028367426146
 30
0.0
 11
616.1600856873745
 21
279.2028367426147
 31
0.0
  0
LINE
  5
F0
330
EE
100
AcDbEntity
  8
BEMASSUNG
370
    -2
100
AcDbLine
 10
641.1900856873741
 20
304.2028367426146
 30
0.0
 11
616.1600856873745
 21
304.2028367426147
 31
0.0
  0
LINE
  5
F1
330
EE
100
AcDbEntity
  8
BEMASSUNG
370
    -2
100
AcDbLine
 10
617.9600856873744
 20
286.4028367426147
 30
0.0
 11
617.9600856873744
 21
297.0028367426147
 31
0.0
  0
SOLID
  5
F2
330
EE
100
AcDbEntity
  8
BEMASSUNG
100
AcDbTrace
 10
616.7600856873743
 20
286.4028367426147
 30
0.0
 11
619.1600856873744
 21
286.4028367426147
 31
0.0
 12
617.9600856873744
 22
279.2028367426147
 32
0.0
 13
617.9600856873744
 23
279.2028367426147
 33
0.0
  0
SOLID
  5
F3
330
EE
100
AcDbEntity
  8
BEMASSUNG
100
AcDbTrace
 10
616.7600856873743
 20
297.0028367426147
 30
0.0
 11
619.1600856873744
 21
297.0028367426147
 31
0.0
 12
617.9600856873744
 22
304.2028367426147
 32
0.0
 13
617.9600856873744
 23
304.2028367426147
 33
0.0
  0
MTEXT
  5
F4
330
EE
100
AcDbEntity
  8
BEMASSUNG
 62
     3
100
AcDbMText
 10
611.2100856873743
 20
291.7028367426147
 30
0.0
 40
8.099999999999999
 41
0.0
 71
     5
 72
     1
  1
\A1;25
  7
NORM
 11
0.0000000000000001
 21
1.0
 31
0.0
 73
     1
 44
1.0
  0
POINT
  5
F5
330
EE
100
AcDbEntity
  8
DEFPOINTS
 62
     0
100
AcDbPoint
 10
642.0900856873741
 20
279.2028367426146
 30
0.0
  0
POINT
  5
F6
330
EE
100
AcDbEntity
  8
DEFPOINTS
 62
     0
100
AcDbPoint
 10
642.0900856873741
 20
304.2028367426146
 30
0.0
  0
POINT
  5
F7
330
EE
100
AcDbEntity
  8
DEFPOINTS
 62
     0
100
AcDbPoint
 10
617.9600856873744
 20
304.2028367426147
 30
0.0
  0
ENDBLK
  5
F9
330
EE
100
AcDbEntity
  8
0
100
AcDbBlockEnd
  0
BLOCK
  5
105
330
FB
100
AcDbEntity
  8
0
100
AcDbBlockBegin
  2
*D18
 70
     1
 10
0.0
 20
0.0
 30
0.0
  3
*D18
  1

  0
LINE
  5
FC
330
FB
100
AcDbEntity
  8
BEMASSUNG
370
    -2
100
AcDbLine
 10
628.6900856873741
 20
257.2028367426146
 30
0.0
 11
616.1600856873745
 21
257.2028367426146
 31
0.0
  0
LINE
  5
FD
330
FB
100
AcDbEntity
  8
BEMASSUNG
370
    -2
100
AcDbLine
 10
641.1900856873741
 20
279.2028367426146
 30
0.0
 11
616.1600856873745
 21
279.2028367426147
 31
0.0
  0
LINE
  5
FE
330
FB
100
AcDbEntity
  8
BEMASSUNG
370
    -2
100
AcDbLine
 10
617.9600856873744
 20
264.4028367426146
 30
0.0
 11
617.9600856873744
 21
272.0028367426146
 31
0.0
  0
SOLID
  5
FF
330
FB
100
AcDbEntity
  8
BEMASSUNG
100
AcDbTrace
 10
616.7600856873743
 20
264.4028367426146
 30
0.0
 11
619.1600856873744
 21
264.4028367426146
 31
0.0
 12
617.9600856873744
 22
257.2028367426146
 32
0.0
 13
617.9600856873744
 23
257.2028367426146
 33
0.0
  0
SOLID
  5
100
330
FB
100
AcDbEntity
  8
BEMASSUNG
100
AcDbTrace
 10
616.7600856873743
 20
272.0028367426146
 30
0.0
 11
619.1600856873744
 21
272.0028367426146
 31
0.0
 12
617.9600856873744
 22
279.2028367426147
 32
0.0
 13
617.9600856873744
 23
279.2028367426147
 33
0.0
  0
MTEXT
  5
101
330
FB
100
AcDbEntity
  8
BEMASSUNG
 62
     3
100
AcDbMText
 10
611.2100856873743
 20
268.2028367426147
 30
0.0
 40
8.099999999999999
 41
0.0
 71
     5
 72
     1
  1
\A1;22
  7
NORM
 11
0.0000000000000001
 21
1.0
 31
0.0
 73
     1
 44
1.0
  0
POINT
  5
102
330
FB
100
AcDbEntity
  8
DEFPOINTS
 62
     0
100
AcDbPoint
 10
629.5900856873741
 20
257.2028367426146
 30
0.0
  0
POINT
  5
103
330
FB
100
AcDbEntity
  8
DEFPOINTS
 62
     0
100
AcDbPoint
 10
642.0900856873741
 20
279.2028367426146
 30
0.0
  0
POINT
  5
104
330
FB
100
AcDbEntity
  8
DEFPOINTS
 62
     0
100
AcDbPoint
 10
617.9600856873744
 20
279.2028367426147
 30
0.0
  0
ENDBLK
  5
106
330
FB
100
AcDbEntity
  8
0
100
AcDbBlockEnd
  0
BLOCK
  5
115
330
10B
100
AcDbEntity
  8
0
100
AcDbBlockBegin
  2
*D19
 70
     1
 10
0.0
 20
0.0
 30
0.0
  3
*D19
  1

  0
LINE
  5
10C
330
10B
100
AcDbEntity
  8
BEMASSUNG
370
    -2
100
AcDbLine
 10
629.5900856873741
 20
206.3028367426146
 30
0.0
 11
629.5900856873741
 21
187.7672767137875
 31
0.0
  0
LINE
  5
10D
330
10B
100
AcDbEntity
  8
BEMASSUNG
370
    -2
100
AcDbLine
 10
654.5900856873741
 20
189.8573456201071
 30
0.0
 11
654.5900856873741
 21
187.7672767137875
 31
0.0
  0
LINE
  5
10E
330
10B
100
AcDbEntity
  8
BEMASSUNG
370
    -2
100
AcDbLine
 10
636.7900856873741
 20
189.5672767137875
 30
0.0
 11
647.390085687374
 21
189.5672767137875
 31
0.0
  0
SOLID
  5
10F
330
10B
100
AcDbEntity
  8
BEMASSUNG
100
AcDbTrace
 10
636.7900856873741
 20
190.7672767137875
 30
0.0
 11
636.7900856873741
 21
188.3672767137875
 31
0.0
 12
629.5900856873741
 22
189.5672767137875
 32
0.0
 13
629.5900856873741
 23
189.5672767137875
 33
0.0
  0
SOLID
  5
110
330
10B
100
AcDbEntity
  8
BEMASSUNG
100
AcDbTrace
 10
647.390085687374
 20
190.7672767137875
 30
0.0
 11
647.390085687374
 21
188.3672767137875
 31
0.0
 12
654.5900856873741
 22
189.5672767137875
 32
0.0
 13
654.5900856873741
 23
189.5672767137875
 33
0.0
  0
MTEXT
  5
111
330
10B
100
AcDbEntity
  8
BEMASSUNG
 62
     3
100
AcDbMText
 10
642.0900856873741
 20
196.3172767137875
 30
0.0
 40
8.099999999999999
 41
0.0
 71
     5
 72
     1
  1
\A1;25
  7
NORM
 73
     1
 44
1.0
  0
POINT
  5
112
330
10B
100
AcDbEntity
  8
DEFPOINTS
 62
     0
100
AcDbPoint
 10
629.5900856873741
 20
207.2028367426146
 30
0.0
  0
POINT
  5
113
330
10B
100
AcDbEntity
  8
DEFPOINTS
 62
     0
100
AcDbPoint
 10
654.5900856873741
 20
190.7573456201071
 30
0.0
  0
POINT
  5
114
330
10B
100
AcDbEntity
  8
DEFPOINTS
 62
     0
100
AcDbPoint
 10
654.5900856873741
 20
189.5672767137875
 30
0.0
  0
ENDBLK
  5
116
330
10B
100
AcDbEntity
  8
0
100
AcDbBlockEnd
  0
BLOCK
  5
177
330
16D
100
AcDbEntity
  8
0
100
AcDbBlockBegin
  2
*D20
 70
     1
 10
0.0
 20
0.0
 30
0.0
  3
*D20
  1

  0
LINE
  5
16E
330
16D
100
AcDbEntity
  8
BEMASSUNG
370
    -2
100
AcDbLine
 10
656.6900856873741
 20
327.2028367426146
 30
0.0
 11
637.5499171305639
 21
327.2028367426146
 31
0.0
  0
LINE
  5
16F
330
16D
100
AcDbEntity
  8
BEMASSUNG
370
    -2
100
AcDbLine
 10
653.6900856873741
 20
382.2028367426146
 30
0.0
 11
637.5499171305639
 21
382.2028367426146
 31
0.0
  0
LINE
  5
170
330
16D
100
AcDbEntity
  8
BEMASSUNG
370
    -2
100
AcDbLine
 10
639.3499171305639
 20
334.4028367426147
 30
0.0
 11
639.3499171305639
 21
375.0028367426147
 31
0.0
  0
SOLID
  5
171
330
16D
100
AcDbEntity
  8
BEMASSUNG
100
AcDbTrace
 10
638.1499171305638
 20
334.4028367426147
 30
0.0
 11
640.5499171305639
 21
334.4028367426146
 31
0.0
 12
639.3499171305639
 22
327.2028367426146
 32
0.0
 13
639.3499171305639
 23
327.2028367426146
 33
0.0
  0
SOLID
  5
172
330
16D
100
AcDbEntity
  8
BEMASSUNG
100
AcDbTrace
 10
638.1499171305638
 20
375.0028367426147
 30
0.0
 11
640.5499171305639
 21
375.0028367426146
 31
0.0
 12
639.3499171305639
 22
382.2028367426146
 32
0.0
 13
639.3499171305639
 23
382.2028367426146
 33
0.0
  0
MTEXT
  5
173
330
16D
100
AcDbEntity
  8
BEMASSUNG
 62
     3
100
AcDbMText
 10
632.5999171305637
 20
354.7028367426147
 30
0.0
 40
8.099999999999999
 41
0.0
 71
     5
 72
     1
  1
\A1;55
  7
NORM
 11
0.0000000000000001
 21
1.0
 31
0.0
 73
     1
 44
1.0
  0
POINT
  5
174
330
16D
100
AcDbEntity
  8
DEFPOINTS
 62
     0
100
AcDbPoint
 10
657.590085687374
 20
327.2028367426146
 30
0.0
  0
POINT
  5
175
330
16D
100
AcDbEntity
  8
DEFPOINTS
 62
     0
100
AcDbPoint
 10
654.5900856873741
 20
382.2028367426146
 30
0.0
  0
POINT
  5
176
330
16D
100
AcDbEntity
  8
DEFPOINTS
 62
     0
100
AcDbPoint
 10
639.3499171305639
 20
382.2028367426146
 30
0.0
  0
ENDBLK
  5
178
330
16D
100
AcDbEntity
  8
0
100
AcDbBlockEnd
  0
ENDSEC
  0
SECTION
  2
ENTITIES
  0
LWPOLYLINE
  5
27
330
2
100
AcDbEntity
  8
UMRISS05
100
AcDbPolyline
 90
        4
 70
     0
 43
0.0
 10
657.5561305279157
 20
31.33392265992188
 10
741.5391040365093
 20
31.33392265992188
 10
741.5391040365093
 20
46.33392265992188
 10
657.5561305279157
 20
46.33392265992188
  0
LWPOLYLINE
  5
29
330
2
100
AcDbEntity
  8
UMRISS05
100
AcDbPolyline
 90
        4
 70
     1
 43
0.0
 10
740.3382258670358
 20
45.33392265992188
 10
658.5561305279156
 20
45.33392265992188
 10
658.5561305279156
 20
32.33392265992188
 10
740.3382258670358
 20
32.33392265992188
  0
LWPOLYLINE
  5
2A
330
2
100
AcDbEntity
  8
UMRISS05
100
AcDbPolyline
 90
        6
 70
     0
 43
0.0
 10
657.590085687374
 20
327.2028367426146
 10
716.5900856873745
 20
327.2028367426146
 42
-0.4142135623730951
 10
741.5900856873745
 20
302.2028367426146
 10
741.5900856873745
 20
192.2028367426146
 42
-0.4142135623730951
 10
716.5900856873745
 20
167.2028367426146
 10
657.590085687374
 20
167.2028367426146
  0
LINE
  5
2B
330
2
100
AcDbEntity
  8
ACHSEN
100
AcDbLine
 10
701.5879569903504
 20
270.7028367426146
 30
0.0
 11
741.5900856873745
 21
270.7028367426146
 31
0.0
  0
CIRCLE
  5
2E
330
2
100
AcDbEntity
  8
UMRISS05
100
AcDbCircle
 10
730.8567697546209
 20
211.8225824579244
 30
0.0
 40
2.0
  0
DIMENSION
  5
2F
330
2
100
AcDbEntity
  8
BEMASSUNG
100
AcDbDimension
  2
*D1
 10
757.5796154118395
 20
327.2028367426146
 30
0.0
 11
750.8296154118395
 21
298.9528367426146
 31
0.0
 12
-508.0936621590876
 22
-77.54045882931404
 32
0.0
  1
56.5
 71
     5
 42
-1.0
  3
EXTERN-FUER-KUNDE
100
AcDbAlignedDimension
 13
741.5900856873745
 23
270.7028367426146
 33
0.0
 14
716.5900856873745
 24
327.2028367426146
 34
0.0
 50
90.0
100
AcDbRotatedDimension
  0
DIMENSION
  5
3D
330
2
100
AcDbEntity
  8
BEMASSUNG
100
AcDbDimension
  2
*D3
 10
741.5900856873745
 20
144.5110739652586
 30
0.0
 11
728.0900856873745
 21
151.2610739652586
 31
0.0
 12
-508.0936621590876
 22
-77.54045882931404
 32
0.0
 71
     5
 42
-1.0
  3
EXTERN-FUER-KUNDE
100
AcDbAlignedDimension
 13
714.5900856873745
 23
167.2028367426146
 33
0.0
 14
741.5900856873745
 24
192.2028367426146
 34
0.0
100
AcDbRotatedDimension
  0
DIMENSION
  5
4A
330
2
100
AcDbEntity
  8
BEMASSUNG
100
AcDbDimension
  2
*D0
 10
776.5298149358654
 20
327.2028367426146
 30
0.0
 11
769.7798149358654
 21
247.2028367426146
 31
0.0
 12
-508.0936621590876
 22
-77.54045882931404
 32
0.0
 71
     5
 42
-1.0
  3
EXTERN-FUER-KUNDE
100
AcDbAlignedDimension
 13
716.5900856873745
 23
167.2028367426146
 33
0.0
 14
716.5900856873745
 24
327.2028367426146
 34
0.0
 50
90.0
100
AcDbRotatedDimension
  0
DIMENSION
  5
57
330
2
100
AcDbEntity
  8
BEMASSUNG
100
AcDbDimension
  2
*D4
 10
757.5796154118395
 20
270.7028367426146
 30
0.0
 11
750.8296154118395
 21
218.9528367426146
 31
0.0
 12
-508.0936621590876
 22
-77.54045882931404
 32
0.0
  1
103.5
 71
     5
 42
-1.0
  3
EXTERN-FUER-KUNDE
100
AcDbAlignedDimension
 13
716.5900856873745
 23
167.2028367426146
 33
0.0
 14
741.5900856873745
 24
270.7028367426146
 34
0.0
 50
90.0
100
AcDbRotatedDimension
  0
LWPOLYLINE
  5
64
330
2
100
AcDbEntity
  8
UMRISS05
100
AcDbPolyline
 90
        4
 70
     1
 43
0.0
 10
654.5900856873741
 20
382.2028367426146
 10
657.590085687374
 20
382.2028367426146
 10
657.590085687374
 20
112.2028367426146
 10
654.5900856873741
 20
112.2028367426146
  0
DIMENSION
  5
65
330
2
100
AcDbEntity
  8
BEMASSUNG
100
AcDbDimension
  2
*D9
 10
617.9600856873744
 20
207.2028367426146
 30
0.0
 11
611.2100856873744
 21
159.7028367426147
 31
0.0
 71
     5
 42
95.0
  3
EXTERN-FUER-KUNDE
100
AcDbAlignedDimension
 13
654.5900856873741
 23
112.2028367426146
 33
0.0
 14
629.5900856873741
 24
207.2028367426146
 34
0.0
 50
90.0
100
AcDbRotatedDimension
  0
DIMENSION
  5
72
330
2
100
AcDbEntity
  8
BEMASSUNG
100
AcDbDimension
  2
*D10
 10
600.0417975574064
 20
382.2028367426146
 30
0.0
 11
593.2917975574063
 21
247.2028367426147
 31
0.0
 71
     5
 42
270.0
  3
EXTERN-FUER-KUNDE
100
AcDbAlignedDimension
 13
654.5900856873741
 23
112.2028367426146
 33
0.0
 14
654.5900856873741
 24
382.2028367426146
 34
0.0
 50
90.0
100
AcDbRotatedDimension
  0
LINE
  5
7F
330
2
100
AcDbEntity
  8
ACHSEN
100
AcDbLine
 10
714.590085687374
 20
167.2028367426146
 30
0.0
 11
714.5900856873745
 21
284.7028367426146
 31
0.0
  0
LWPOLYLINE
  5
80
330
2
100
AcDbEntity
  8
UMRISS05
100
AcDbPolyline
 90
        6
 70
     1
 43
0.0
 10
657.5561305279157
 20
48.45148055772961
 10
654.5561305279156
 20
48.45148055772961
 10
654.5561305279156
 20
38.45148055772961
 10
654.5561305279156
 20
28.45148055772961
 10
657.5561305279157
 20
28.45148055772961
 10
657.5561305279157
 20
38.45148055772961
  0
DIMENSION
  5
81
330
2
100
AcDbEntity
  8
BEMASSUNG
100
AcDbDimension
  2
*D11
 10
617.9600856873744
 20
33.20148055772961
 30
0.0
 11
608.0600856873744
 21
38.45148055772972
 31
0.0
 71
     5
 42
10.5
  3
EXTERN-FUER-KUNDE
100
AcDbAlignedDimension
 13
629.5561305279156
 23
43.7014805577296
 33
0.0
 14
629.5561305279156
 24
33.20148055772961
 34
0.0
 50
90.0
100
AcDbRotatedDimension
  0
POINT
  5
90
330
2
100
AcDbEntity
  8
6
  6
Continuous
 62
     7
100
AcDbPoint
 10
654.5561305279156
 20
28.45148055772961
 30
0.0
  0
DIMENSION
  5
92
330
2
100
AcDbEntity
  8
BEMASSUNG
100
AcDbDimension
  2
*D12
 10
657.590085687374
 20
86.85935581171952
 30
0.0
 11
670.7966516168353
 21
93.96712073828757
 31
0.0
 70
   128
 71
     5
 42
3.0
  3
EXTERN-FUER-KUNDE
100
AcDbAlignedDimension
 13
654.5900856873741
 23
112.2028367426146
 33
0.0
 14
657.590085687374
 24
112.2028367426146
 34
0.0
100
AcDbRotatedDimension
  0
LWPOLYLINE
  5
A1
330
2
100
AcDbEntity
  8
UMRISS05
100
AcDbPolyline
 90
        6
 70
     0
 43
0.0
 10
650.6253299556106
 20
43.7014805577296
 10
650.6253299556106
 20
45.5604868054263
 10
644.2887797664657
 20
47.14355560285912
 42
0.2614783766249172
 10
644.2887797664657
 20
29.75940551260009
 10
650.6253299556106
 20
31.34247431003268
 10
650.6253299556106
 20
33.20148055772961
  0
LWPOLYLINE
  5
A2
330
2
100
AcDbEntity
  8
UMRISS05
100
AcDbPolyline
 90
        7
 70
     0
 43
0.0
 10
654.5561305279156
 20
33.20148055772961
 10
642.8098179615195
 20
33.20148055772961
 10
629.5561305279156
 20
33.20148055772961
 10
629.5561305279156
 20
38.45148055772961
 10
629.5561305279156
 20
43.7014805577296
 10
642.8098179615195
 20
43.7014805577296
 10
654.5561305279156
 20
43.7014805577296
  0
LWPOLYLINE
  5
A3
330
2
100
AcDbEntity
  8
AVERDECKTE
  6
VERDECKT
100
AcDbPolyline
 90
        4
 70
     0
 43
0.0
 10
632.1477325065579
 20
33.20148055772961
 42
0.4142135623730951
 10
633.147732506558
 20
34.20148055772961
 10
633.147732506558
 20
42.70148055772961
 42
0.4142135623730951
 10
632.1477325065579
 20
43.7014805577296
 42
0.4142135623730951
  0
POINT
  5
A6
330
2
100
AcDbEntity
  8
6
  6
Continuous
 62
     7
100
AcDbPoint
 10
629.5561305279156
 20
33.20148055772961
 30
0.0
  0
POINT
  5
A7
330
2
100
AcDbEntity
  8
6
  6
Continuous
 62
     7
100
AcDbPoint
 10
629.5561305279156
 20
43.7014805577296
 30
0.0
  0
LWPOLYLINE
  5
A8
330
2
100
AcDbEntity
  8
AVERDECKTE
  6
VERDECKT
100
AcDbPolyline
 90
        4
 70
     0
 43
0.0
 10
654.1835605830875
 20
43.7014805577296
 42
0.4142135623730951
 10
653.1835605830874
 20
42.70148055772961
 10
653.1835605830874
 20
34.20148055772961
 42
0.4142135623730951
 10
654.1835605830875
 20
33.20148055772961
  0
POINT
  5
A9
330
2
100
AcDbEntity
  8
6
  6
Continuous
 62
     7
100
AcDbPoint
 10
654.5561305279156
 20
48.45148055772961
 30
0.0
  0
DIMENSION
  5
AA
330
2
100
AcDbEntity
  8
BEMASSUNG
  6
Continuous
100
AcDbDimension
  2
*D8
 10
654.5900856873741
 20
144.5110739652586
 30
0.0
 11
684.5900856873741
 21
151.2610739652586
 31
0.0
  1
60
 71
     5
 42
60.0
  3
EXTERN-FUER-KUNDE
100
AcDbAlignedDimension
 13
714.590085687374
 23
167.2028367426146
 33
0.0
 14
654.5900856873741
 24
143.1029264857048
 34
0.0
100
AcDbRotatedDimension
  0
DIMENSION
  5
B7
330
2
100
AcDbEntity
  8
BEMASSUNG
100
AcDbDimension
  2
*D13
 10
639.3499171305639
 20
167.2028367426146
 30
0.0
 11
632.5999171305639
 21
139.7028367426147
 31
0.0
 71
     5
 42
55.0
  3
EXTERN-FUER-KUNDE
100
AcDbAlignedDimension
 13
654.5900856873741
 23
112.2028367426146
 33
0.0
 14
657.590085687374
 24
167.2028367426146
 34
0.0
 50
90.0
100
AcDbRotatedDimension
  0
DIMENSION
  5
C4
330
2
100
AcDbEntity
  8
BEMASSUNG
100
AcDbDimension
  2
*D14
 10
654.5900856873741
 20
311.7027999773386
 30
0.0
 11
638.3763338956714
 21
319.6923850203233
 31
0.0
 70
   128
  1
12.5
 71
     5
 42
12.5
  3
EXTERN-FUER-KUNDE
100
AcDbAlignedDimension
 13
642.0900856873741
 23
304.2028367426146
 33
0.0
 14
654.5900856873741
 24
315.8646593340663
 34
0.0
100
AcDbRotatedDimension
  0
DIMENSION
  5
D3
330
2
100
AcDbEntity
  8
BEMASSUNG
100
AcDbDimension
  2
*D15
 10
617.9600856873744
 20
382.2028367426146
 30
0.0
 11
611.2100856873743
 21
343.2028367426147
 31
0.0
 71
     5
 42
78.0
  3
EXTERN-FUER-KUNDE
100
AcDbAlignedDimension
 13
642.0900856873741
 23
304.2028367426146
 33
0.0
 14
654.5900856873741
 24
382.2028367426146
 34
0.0
 50
90.0
100
AcDbRotatedDimension
  0
DIMENSION
  5
E0
330
2
100
AcDbEntity
  8
BEMASSUNG
100
AcDbDimension
  2
*D16
 10
617.9600856873744
 20
257.2028367426146
 30
0.0
 11
611.2100856873743
 21
232.2028367426147
 31
0.0
 71
     5
 42
49.99999999999997
  3
EXTERN-FUER-KUNDE
100
AcDbAlignedDimension
 13
629.5900856873741
 23
207.2028367426146
 33
0.0
 14
629.5900856873741
 24
257.2028367426146
 34
0.0
 50
90.0
100
AcDbRotatedDimension
  0
DIMENSION
  5
ED
330
2
100
AcDbEntity
  8
BEMASSUNG
100
AcDbDimension
  2
*D17
 10
617.9600856873744
 20
304.2028367426147
 30
0.0
 11
611.2100856873743
 21
291.7028367426147
 31
0.0
 71
     5
 42
25.0
  3
EXTERN-FUER-KUNDE
100
AcDbAlignedDimension
 13
642.0900856873741
 23
279.2028367426146
 33
0.0
 14
642.0900856873741
 24
304.2028367426146
 34
0.0
 50
90.0
100
AcDbRotatedDimension
  0
DIMENSION
  5
FA
330
2
100
AcDbEntity
  8
BEMASSUNG
100
AcDbDimension
  2
*D18
 10
617.9600856873744
 20
279.2028367426147
 30
0.0
 11
611.2100856873743
 21
268.2028367426147
 31
0.0
 71
     5
 42
22.00000000000005
  3
EXTERN-FUER-KUNDE
100
AcDbAlignedDimension
 13
629.5900856873741
 23
257.2028367426146
 33
0.0
 14
642.0900856873741
 24
279.2028367426146
 34
0.0
 50
90.0
100
AcDbRotatedDimension
  0
LWPOLYLINE
  5
107
330
2
100
AcDbEntity
  8
UMRISS05
100
AcDbPolyline
 90
        4
 70
     0
 43
0.0
 10
654.5900856873741
 20
257.2028367426146
 10
629.5900856873741
 20
257.2028367426146
 10
629.5900856873741
 20
207.2028367426146
 10
654.5900856873741
 20
207.2028367426146
  0
LWPOLYLINE
  5
108
330
2
100
AcDbEntity
  8
UMRISS05
100
AcDbPolyline
 90
        4
 70
     1
 43
0.0
 10
632.1477325065579
 20
241.9592465514083
 10
632.1477325065579
 20
222.1836835654521
 42
1.0
 10
654.1835605830875
 20
222.1836835654521
 10
654.1835605830875
 20
241.9592465514083
 42
1.0
  0
LWPOLYLINE
  5
109
330
2
100
AcDbEntity
  8
UMRISS05
100
AcDbPolyline
 90
        4
 70
     1
 43
0.0
 10
633.147732506558
 20
241.9592465514083
 10
633.147732506558
 20
222.1836835654521
 42
1.0
 10
653.1835605830874
 20
222.1836835654521
 10
653.1835605830874
 20
241.9592465514083
 42
1.0
  0
DIMENSION
  5
10A
330
2
100
AcDbEntity
  8
BEMASSUNG
100
AcDbDimension
  2
*D19
 10
654.5900856873741
 20
189.5672767137875
 30
0.0
 11
642.0900856873741
 21
196.3172767137875
 31
0.0
 71
     5
 42
25.0
  3
EXTERN-FUER-KUNDE
100
AcDbAlignedDimension
 13
629.5900856873741
 23
207.2028367426146
 33
0.0
 14
654.5900856873741
 24
190.7573456201071
 34
0.0
100
AcDbRotatedDimension
  0
ARC
  5
117
330
2
100
AcDbEntity
  8
UMRISS05
100
AcDbCircle
 10
716.2879679721831
 20
198.2568667814302
 30
0.0
 40
0.3
100
AcDbArc
 50
270.0
 51
0.0
  0
ARC
  5
118
330
2
100
AcDbEntity
  8
UMRISS05
100
AcDbCircle
 10
716.2879679721831
 20
198.6568667814301
 30
0.0
 40
0.3
100
AcDbArc
 50
0.0
 51
90.0
  0
LINE
  5
119
330
2
100
AcDbEntity
  8
UMRISS05
100
AcDbLine
 10
716.5879679721833
 20
198.6568667814301
 30
0.0
 11
716.5879679721833
 21
198.2568667814302
 31
0.0
  0
LINE
  5
11A
330
2
100
AcDbEntity
  8
UMRISS05
100
AcDbLine
 10
714.387967972183
 20
196.4568667814301
 30
0.0
 11
714.7879679721832
 21
196.4568667814301
 31
0.0
  0
LINE
  5
11B
330
2
100
AcDbEntity
  8
UMRISS05
100
AcDbLine
 10
714.387967972183
 20
200.4568667814301
 30
0.0
 11
714.7879679721832
 21
200.4568667814301
 31
0.0
  0
ARC
  5
11C
330
2
100
AcDbEntity
  8
UMRISS05
100
AcDbCircle
 10
714.387967972183
 20
200.1568667814301
 30
0.0
 40
0.3
100
AcDbArc
 50
90.0
 51
180.0
  0
ARC
  5
11D
330
2
100
AcDbEntity
  8
UMRISS05
100
AcDbCircle
 10
712.8879679721831
 20
198.2568667814302
 30
0.0
 40
0.3
100
AcDbArc
 50
180.0
 51
270.0
  0
LINE
  5
11E
330
2
100
AcDbEntity
  8
UMRISS05
100
AcDbLine
 10
712.8879679721831
 20
197.9568667814301
 30
0.0
 11
713.987967972183
 21
197.9568667814301
 31
0.0
  0
LINE
  5
11F
330
2
100
AcDbEntity
  8
UMRISS05
100
AcDbLine
 10
714.0879679721834
 20
197.8568667814301
 30
0.0
 11
714.0879679721834
 21
196.7568667814303
 31
0.0
  0
ARC
  5
120
330
2
100
AcDbEntity
  8
UMRISS05
100
AcDbCircle
 10
714.387967972183
 20
196.7568667814303
 30
0.0
 40
0.3
100
AcDbArc
 50
180.0
 51
270.0
  0
ARC
  5
121
330
2
100
AcDbEntity
  8
UMRISS05
100
AcDbCircle
 10
713.987967972183
 20
197.8568667814301
 30
0.0
 40
0.1
100
AcDbArc
 50
0.0
 51
90.0
  0
LINE
  5
122
330
2
100
AcDbEntity
  8
UMRISS05
100
AcDbLine
 10
712.5879679721833
 20
198.6568667814301
 30
0.0
 11
712.5879679721833
 21
198.2568667814302
 31
0.0
  0
LINE
  5
123
330
2
100
AcDbEntity
  8
UMRISS05
100
AcDbLine
 10
712.8879679721831
 20
198.9568667814301
 30
0.0
 11
713.987967972183
 21
198.9568667814301
 31
0.0
  0
ARC
  5
124
330
2
100
AcDbEntity
  8
UMRISS05
100
AcDbCircle
 10
712.8879679721831
 20
198.6568667814301
 30
0.0
 40
0.3
100
AcDbArc
 50
90.0
 51
180.0
  0
ARC
  5
125
330
2
100
AcDbEntity
  8
UMRISS05
100
AcDbCircle
 10
713.987967972183
 20
199.0568667814302
 30
0.0
 40
0.1
100
AcDbArc
 50
270.0
 51
0.0
  0
LINE
  5
126
330
2
100
AcDbEntity
  8
UMRISS05
100
AcDbLine
 10
714.0879679721834
 20
200.1568667814301
 30
0.0
 11
714.0879679721834
 21
199.0568667814302
 31
0.0
  0
ARC
  5
127
330
2
100
AcDbEntity
  8
UMRISS05
100
AcDbCircle
 10
714.7879679721832
 20
200.1568667814301
 30
0.0
 40
0.3
100
AcDbArc
 50
0.0
 51
90.0
  0
LINE
  5
128
330
2
100
AcDbEntity
  8
UMRISS05
100
AcDbLine
 10
715.0879679721834
 20
197.8568667814301
 30
0.0
 11
715.0879679721834
 21
196.7568667814303
 31
0.0
  0
ARC
  5
129
330
2
100
AcDbEntity
  8
UMRISS05
100
AcDbCircle
 10
714.7879679721832
 20
196.7568667814303
 30
0.0
 40
0.3
100
AcDbArc
 50
270.0
 51
0.0
  0
ARC
  5
12A
330
2
100
AcDbEntity
  8
UMRISS05
100
AcDbCircle
 10
715.1879679721832
 20
197.8568667814301
 30
0.0
 40
0.1
100
AcDbArc
 50
90.0
 51
180.0
  0
ARC
  5
12B
330
2
100
AcDbEntity
  8
UMRISS05
100
AcDbCircle
 10
715.1879679721832
 20
199.0568667814302
 30
0.0
 40
0.1
100
AcDbArc
 50
180.0
 51
270.0
  0
LINE
  5
12C
330
2
100
AcDbEntity
  8
UMRISS05
100
AcDbLine
 10
715.0879679721834
 20
200.1568667814301
 30
0.0
 11
715.0879679721834
 21
199.0568667814302
 31
0.0
  0
CIRCLE
  5
12D
330
2
100
AcDbEntity
  8
UMRISS05
100
AcDbCircle
 10
714.5900856873745
 20
198.4809023393381
 30
0.0
 40
3.5
  0
LINE
  5
12E
330
2
100
AcDbEntity
  8
UMRISS05
100
AcDbLine
 10
715.1879679721832
 20
197.9568667814301
 30
0.0
 11
716.2879679721831
 21
197.9568667814301
 31
0.0
  0
LINE
  5
12F
330
2
100
AcDbEntity
  8
UMRISS05
100
AcDbLine
 10
715.1879679721832
 20
198.9568667814301
 30
0.0
 11
716.2879679721831
 21
198.9568667814301
 31
0.0
  0
CIRCLE
  5
130
330
2
100
AcDbEntity
  8
UMRISS05
100
AcDbCircle
 10
699.5325153273602
 20
231.162821322222
 30
0.0
 40
2.0
  0
LWPOLYLINE
  5
131
330
2
100
AcDbEntity
  8
UMRISS05
100
AcDbPolyline
 90
        4
 70
     0
 43
0.0
 10
654.5900856873741
 20
304.2028367426146
 10
642.0900856873741
 20
304.2028367426146
 10
642.0900856873741
 20
279.2028367426146
 10
654.5900856873741
 20
279.2028367426146
  0
LINE
  5
132
330
2
100
AcDbEntity
  8
UMRISS05
100
AcDbLine
 10
642.0900856873741
 20
297.5296341174935
 30
0.0
 11
654.5900856873741
 21
297.5296341174935
 31
0.0
  0
LINE
  5
133
330
2
100
AcDbEntity
  8
UMRISS05
100
AcDbLine
 10
642.0900856873741
 20
285.8157083367482
 30
0.0
 11
654.5900856873741
 21
285.8157083367482
 31
0.0
  0
LINE
  5
134
330
2
100
AcDbEntity
  8
UMRISS05
100
AcDbLine
 10
654.5900856873741
 20
291.6726712271206
 30
0.0
 11
642.0900856873741
 21
291.6726712271206
 31
0.0
  0
LINE
  5
135
330
2
100
AcDbEntity
  8
UMRISS05
100
AcDbLine
 10
644.2887797664657
 20
291.6726712271206
 30
0.0
 11
644.2887797664657
 21
285.8157083367482
 31
0.0
  0
LWPOLYLINE
  5
136
330
2
100
AcDbEntity
  8
UMRISS05
100
AcDbPolyline
 90
        4
 70
     0
 43
0.0
 10
657.590085687374
 20
282.889254905081
 10
673.286790859579
 20
282.889254905081
 10
673.286790859579
 20
298.4327332924958
 10
657.590085687374
 20
298.4327332924958
  0
LWPOLYLINE
  5
137
330
2
100
AcDbEntity
  8
UMRISS05
100
AcDbPolyline
 90
        4
 70
     0
 43
0.0
 10
657.590085687374
 20
284.5649004725391
 10
664.7208366348317
 20
284.5649004725391
 10
664.7208366348317
 20
296.2788262532844
 10
657.590085687374
 20
296.2788262532844
  0
LINE
  5
138
330
2
100
AcDbEntity
  8
UMRISS05
100
AcDbLine
 10
664.7208366348317
 20
290.421863362912
 30
0.0
 11
657.590085687374
 21
290.421863362912
 31
0.0
  0
LINE
  5
139
330
2
100
AcDbEntity
  8
UMRISS05
100
AcDbLine
 10
650.6253299556106
 20
291.6726712271206
 30
0.0
 11
650.6253299556106
 21
285.8157083367482
 31
0.0
  0
ARC
  5
13A
330
2
100
AcDbEntity
  8
UMRISS05
100
AcDbCircle
 10
711.5900856873745
 20
259.4528367426146
 30
0.0
 40
3.0
100
AcDbArc
 50
278.2132107017385
 51
81.78678929826135
  0
ARC
  5
13B
330
2
100
AcDbEntity
  8
UMRISS05
100
AcDbCircle
 10
711.5900856873745
 20
259.4528367426146
 30
0.0
 40
5.299999999999999
100
AcDbArc
 50
334.5065400800019
 51
25.49345991999809
  0
LINE
  5
13C
330
2
100
AcDbEntity
  8
UMRISS05
100
AcDbLine
 10
717.5900856873745
 20
255.3464302820636
 30
0.0
 11
717.5900856873745
 21
255.8502621618707
 31
0.0
  0
LINE
  5
13D
330
2
100
AcDbEntity
  8
UMRISS05
100
AcDbLine
 10
716.695955798265
 20
256.4735070375756
 30
0.0
 11
717.219495209926
 21
256.3332250750152
 31
0.0
  0
ARC
  5
13E
330
2
100
AcDbEntity
  8
UMRISS05
100
AcDbCircle
 10
716.8253653208162
 20
256.9564699507202
 30
0.0
 40
0.5
100
AcDbArc
 50
154.506540079946
 51
254.9999999999992
  0
ARC
  5
13F
330
2
100
AcDbEntity
  8
UMRISS05
100
AcDbCircle
 10
716.5900856873745
 20
255.3464302820636
 30
0.0
 40
1.0
100
AcDbArc
 50
278.2132107017385
 51
0.0
  0
ARC
  5
140
330
2
100
AcDbEntity
  8
UMRISS05
100
AcDbCircle
 10
717.0900856873745
 20
255.8502621618707
 30
0.0
 40
0.5
100
AcDbArc
 50
0.0
 51
74.99999999999997
  0
LINE
  5
141
330
2
100
AcDbEntity
  8
UMRISS05
100
AcDbLine
 10
711.5900856873745
 20
255.3464302820636
 30
0.0
 11
711.5900856873745
 21
255.988735127477
 31
0.0
  0
ARC
  5
142
330
2
100
AcDbEntity
  8
UMRISS05
100
AcDbCircle
 10
712.0900856873745
 20
255.988735127477
 30
0.0
 40
0.5
100
AcDbArc
 50
98.21321070173866
 51
180.0
  0
ARC
  5
143
330
2
100
AcDbEntity
  8
UMRISS05
100
AcDbCircle
 10
712.5900856873745
 20
255.3464302820636
 30
0.0
 40
1.0
100
AcDbArc
 50
180.0
 51
261.7867892982614
  0
ARC
  5
144
330
2
100
AcDbEntity
  8
UMRISS05
100
AcDbCircle
 10
714.5900856873745
 20
269.2028367426146
 30
0.0
 40
15.0
100
AcDbArc
 50
261.7867892982618
 51
278.2132107017381
  0
LINE
  5
145
330
2
100
AcDbEntity
  8
UMRISS05
100
AcDbLine
 10
715.8400856873745
 20
264.7028367426146
 30
0.0
 11
717.219495209926
 21
264.3332250750152
 31
0.0
  0
LINE
  5
146
330
2
100
AcDbEntity
  8
UMRISS05
100
AcDbLine
 10
716.695955798265
 20
262.4321664476536
 30
0.0
 11
717.219495209926
 21
262.572448410214
 31
0.0
  0
ARC
  5
147
330
2
100
AcDbEntity
  8
UMRISS05
100
AcDbCircle
 10
716.8253653208162
 20
261.9492035345091
 30
0.0
 40
0.5
100
AcDbArc
 50
105.0000000000007
 51
205.4934599200538
  0
LINE
  5
148
330
2
100
AcDbEntity
  8
UMRISS05
100
AcDbLine
 10
717.5900856873745
 20
263.0554113233586
 30
0.0
 11
717.5900856873745
 21
263.8502621618706
 31
0.0
  0
LINE
  5
149
330
2
100
AcDbEntity
  8
UMRISS05
100
AcDbLine
 10
715.8400856873745
 20
264.7028367426146
 30
0.0
 11
715.8400856873745
 21
267.4336625349591
 31
0.0
  0
ARC
  5
14A
330
2
100
AcDbEntity
  8
UMRISS05
100
AcDbCircle
 10
717.0900856873745
 20
263.0554113233586
 30
0.0
 40
0.5
100
AcDbArc
 50
285.0
 51
0.0
  0
ARC
  5
14B
330
2
100
AcDbEntity
  8
UMRISS05
100
AcDbCircle
 10
717.0900856873745
 20
263.8502621618706
 30
0.0
 40
0.5
100
AcDbArc
 50
0.0
 51
74.99999999999997
  0
LINE
  5
14C
330
2
100
AcDbEntity
  8
UMRISS05
100
AcDbLine
 10
713.3400856873745
 20
264.7028367426146
 30
0.0
 11
711.9606761648233
 21
264.3332250750152
 31
0.0
  0
LINE
  5
14D
330
2
100
AcDbEntity
  8
UMRISS05
100
AcDbLine
 10
711.5900856873745
 20
262.9169383577522
 30
0.0
 11
711.5900856873745
 21
263.8502621618706
 31
0.0
  0
ARC
  5
14E
330
2
100
AcDbEntity
  8
UMRISS05
100
AcDbCircle
 10
712.0900856873745
 20
262.9169383577522
 30
0.0
 40
0.5
100
AcDbArc
 50
180.0
 51
261.7867892982614
  0
ARC
  5
14F
330
2
100
AcDbEntity
  8
UMRISS05
100
AcDbCircle
 10
712.0900856873745
 20
263.8502621618706
 30
0.0
 40
0.5
100
AcDbArc
 50
104.9999999999999
 51
180.0
  0
LINE
  5
150
330
2
100
AcDbEntity
  8
UMRISS05
100
AcDbLine
 10
713.3400856873745
 20
264.7028367426146
 30
0.0
 11
713.3400856873745
 21
267.4336625349591
 31
0.0
  0
ARC
  5
151
330
2
100
AcDbEntity
  8
UMRISS05
100
AcDbCircle
 10
714.5900856873745
 20
270.7028367426146
 30
0.0
 40
3.5
100
AcDbArc
 50
290.9248324276381
 51
249.0751675723616
  0
ARC
  5
152
330
2
100
AcDbEntity
  8
UMRISS05
100
AcDbCircle
 10
695.2879679721831
 20
309.2730905570088
 30
0.0
 40
0.3
100
AcDbArc
 50
0.0
 51
90.0
  0
ARC
  5
153
330
2
100
AcDbEntity
  8
UMRISS05
100
AcDbCircle
 10
695.2879679721831
 20
308.8730905570087
 30
0.0
 40
0.3
100
AcDbArc
 50
270.0
 51
0.0
  0
LINE
  5
154
330
2
100
AcDbEntity
  8
UMRISS05
100
AcDbLine
 10
695.5879679721829
 20
309.2730905570088
 30
0.0
 11
695.5879679721829
 21
308.8730905570087
 31
0.0
  0
LINE
  5
155
330
2
100
AcDbEntity
  8
UMRISS05
100
AcDbLine
 10
691.8879679721831
 20
309.5730905570089
 30
0.0
 11
692.987967972183
 21
309.5730905570089
 31
0.0
  0
LINE
  5
156
330
2
100
AcDbEntity
  8
UMRISS05
100
AcDbLine
 10
691.8879679721831
 20
308.5730905570089
 30
0.0
 11
692.987967972183
 21
308.5730905570089
 31
0.0
  0
ARC
  5
157
330
2
100
AcDbEntity
  8
UMRISS05
100
AcDbCircle
 10
691.8879679721831
 20
309.2730905570088
 30
0.0
 40
0.3
100
AcDbArc
 50
90.0
 51
180.0
  0
ARC
  5
158
330
2
100
AcDbEntity
  8
UMRISS05
100
AcDbCircle
 10
691.8879679721831
 20
308.8730905570087
 30
0.0
 40
0.3
100
AcDbArc
 50
180.0
 51
270.0
  0
LINE
  5
159
330
2
100
AcDbEntity
  8
UMRISS05
100
AcDbLine
 10
691.5879679721829
 20
309.2730905570088
 30
0.0
 11
691.5879679721829
 21
308.8730905570087
 31
0.0
  0
LINE
  5
15A
330
2
100
AcDbEntity
  8
UMRISS05
100
AcDbLine
 10
694.0879679721829
 20
308.473090557009
 30
0.0
 11
694.0879679721829
 21
307.3730905570087
 31
0.0
  0
ARC
  5
15B
330
2
100
AcDbEntity
  8
UMRISS05
100
AcDbCircle
 10
693.7879679721832
 20
307.3730905570087
 30
0.0
 40
0.3
100
AcDbArc
 50
270.0
 51
0.0
  0
ARC
  5
15C
330
2
100
AcDbEntity
  8
UMRISS05
100
AcDbCircle
 10
694.1879679721828
 20
308.473090557009
 30
0.0
 40
0.1
100
AcDbArc
 50
90.0
 51
180.0
  0
LINE
  5
15D
330
2
100
AcDbEntity
  8
UMRISS05
100
AcDbLine
 10
693.0879679721829
 20
308.473090557009
 30
0.0
 11
693.0879679721829
 21
307.3730905570087
 31
0.0
  0
ARC
  5
15E
330
2
100
AcDbEntity
  8
UMRISS05
100
AcDbCircle
 10
693.387967972183
 20
307.3730905570087
 30
0.0
 40
0.3
100
AcDbArc
 50
180.0
 51
270.0
  0
ARC
  5
15F
330
2
100
AcDbEntity
  8
UMRISS05
100
AcDbCircle
 10
692.987967972183
 20
308.473090557009
 30
0.0
 40
0.1
100
AcDbArc
 50
0.0
 51
90.0
  0
LINE
  5
160
330
2
100
AcDbEntity
  8
UMRISS05
100
AcDbLine
 10
693.387967972183
 20
307.0730905570089
 30
0.0
 11
693.7879679721832
 21
307.0730905570089
 31
0.0
  0
LINE
  5
161
330
2
100
AcDbEntity
  8
UMRISS05
100
AcDbLine
 10
694.0879679721829
 20
310.7730905570087
 30
0.0
 11
694.0879679721829
 21
309.6730905570089
 31
0.0
  0
ARC
  5
162
330
2
100
AcDbEntity
  8
UMRISS05
100
AcDbCircle
 10
693.7879679721832
 20
310.7730905570087
 30
0.0
 40
0.3
100
AcDbArc
 50
0.0
 51
90.0
  0
ARC
  5
163
330
2
100
AcDbEntity
  8
UMRISS05
100
AcDbCircle
 10
694.1879679721828
 20
309.6730905570089
 30
0.0
 40
0.1
100
AcDbArc
 50
180.0
 51
270.0
  0
LINE
  5
164
330
2
100
AcDbEntity
  8
UMRISS05
100
AcDbLine
 10
693.0879679721829
 20
310.7730905570087
 30
0.0
 11
693.0879679721829
 21
309.6730905570089
 31
0.0
  0
ARC
  5
165
330
2
100
AcDbEntity
  8
UMRISS05
100
AcDbCircle
 10
693.387967972183
 20
310.7730905570087
 30
0.0
 40
0.3
100
AcDbArc
 50
90.0
 51
180.0
  0
ARC
  5
166
330
2
100
AcDbEntity
  8
UMRISS05
100
AcDbCircle
 10
692.987967972183
 20
309.6730905570089
 30
0.0
 40
0.1
100
AcDbArc
 50
270.0
 51
0.0
  0
LINE
  5
167
330
2
100
AcDbEntity
  8
UMRISS05
100
AcDbLine
 10
693.387967972183
 20
311.0730905570089
 30
0.0
 11
693.7879679721832
 21
311.0730905570089
 31
0.0
  0
LINE
  5
168
330
2
100
AcDbEntity
  8
UMRISS05
100
AcDbLine
 10
694.1879679721828
 20
308.5730905570089
 30
0.0
 11
695.2879679721831
 21
308.5730905570089
 31
0.0
  0
LINE
  5
169
330
2
100
AcDbEntity
  8
UMRISS05
100
AcDbLine
 10
694.1879679721828
 20
309.5730905570089
 30
0.0
 11
695.2879679721831
 21
309.5730905570089
 31
0.0
  0
CIRCLE
  5
16A
330
2
100
AcDbEntity
  8
UMRISS05
100
AcDbCircle
 10
693.5900856873741
 20
309.0971261149165
 30
0.0
 40
3.5
  0
CIRCLE
  5
16B
330
2
100
AcDbEntity
  8
UMRISS05
100
AcDbCircle
 10
714.5900856873745
 20
294.5536557771301
 30
0.0
 40
2.0
  0
DIMENSION
  5
16C
330
2
100
AcDbEntity
  8
BEMASSUNG
100
AcDbDimension
  2
*D20
 10
639.3499171305639
 20
382.2028367426146
 30
0.0
 11
632.5999171305637
 21
354.7028367426147
 31
0.0
 71
     5
 42
55.0
  3
EXTERN-FUER-KUNDE
100
AcDbAlignedDimension
 13
657.590085687374
 23
327.2028367426146
 33
0.0
 14
654.5900856873741
 24
382.2028367426146
 34
0.0
 50
90.0
100
AcDbRotatedDimension
  0
LWPOLYLINE
  5
179
330
2
100
AcDbEntity
  8
UMRISS05
100
AcDbPolyline
 90
        2
 70
     0
 43
0.0
 10
798.3364280832392
 20
122.2028367426148
 10
798.3364280832392
 20
372.2028367426149
  0
LWPOLYLINE
  5
17A
330
2
100
AcDbEntity
  8
UMRISS05
100
AcDbPolyline
 90
        2
 70
     0
 43
0.0
 10
818.3364280832398
 20
372.2028367426149
 10
818.3364280832398
 20
122.2028367426148
  0
DIMENSION
  5
17B
330
2
100
AcDbEntity
  8
BEMASSUNG
100
AcDbDimension
  2
*D5
 10
840.9042434649508
 20
143.2028367426146
 30
0.0
 11
834.1542434649509
 21
247.2028367426147
 31
0.0
 12
-508.0936621590876
 22
-77.54045882931404
 32
0.0
 71
     5
 42
-1.0
  3
EXTERN-FUER-KUNDE
100
AcDbAlignedDimension
 13
814.7689165202164
 23
351.2028367426147
 33
0.0
 14
814.7689165202164
 24
143.2028367426146
 34
0.0
 50
90.0
100
AcDbRotatedDimension
  0
DIMENSION
  5
188
330
2
100
AcDbEntity
  8
BEMASSUNG
100
AcDbDimension
  2
*D2
 10
768.9594002928715
 20
31.33392265992188
 30
0.0
 11
761.5221516868841
 21
38.83392265992188
 31
0.0
 12
-508.0936621590876
 22
-77.54045882931404
 32
0.0
 70
   128
 71
     5
 42
-1.0
  3
EXTERN-FUER-KUNDE
100
AcDbAlignedDimension
 13
741.5391040365093
 23
46.33392265992188
 33
0.0
 14
741.5391040365093
 24
31.33392265992188
 34
0.0
 50
90.0
100
AcDbRotatedDimension
  0
LINE
  5
198
330
2
100
AcDbEntity
  8
BEMASSUNG
  6
Continuous
100
AcDbLine
 10
840.9042434649508
 20
143.2028367426146
 30
0.0
 11
840.9042434649508
 21
97.80283674261466
 31
0.0
  0
DIMENSION
  5
199
330
2
100
AcDbEntity
  8
BEMASSUNG
100
AcDbDimension
  2
*D6
 10
818.3364280832398
 20
86.85935581171952
 30
0.0
 11
808.3364280832395
 21
93.60935581171952
 31
0.0
 12
-223.2275807526839
 22
-7.157352733438983
 32
0.0
 71
     5
 42
-1.0
  3
EXTERN-FUER-KUNDE
100
AcDbAlignedDimension
 13
798.3364280832392
 23
122.2028367426148
 33
0.0
 14
818.3364280832398
 24
122.2028367426148
 34
0.0
100
AcDbRotatedDimension
  0
MTEXT
  5
1A6
330
2
100
AcDbEntity
  8
0
  6
ByBlock
 62
     3
100
AcDbMText
 10
834.1542434649509
 20
134.7028367426146
 30
0.0
 40
8.099999999999999
 41
0.0
 71
     5
 72
     1
  1
\A1;17
  7
NORM
 11
0.0000000000000001
 21
1.0
 31
0.0
 73
     1
 44
1.0
  0
LINE
  5
1A7
330
2
100
AcDbEntity
  8
BEMASSUNG
  6
Continuous
100
AcDbLine
 10
808.3364280832393
 20
112.2028367426148
 30
0.0
 11
842.7042434649509
 21
112.2028367426146
 31
0.0
  0
LINE
  5
1A8
330
2
100
AcDbEntity
  8
BEMASSUNG
  6
Continuous
100
AcDbLine
 10
815.6689165202164
 20
126.2028367426146
 30
0.0
 11
842.7042434649509
 21
126.2028367426146
 31
0.0
  0
ARC
  5
1A9
330
2
100
AcDbEntity
  8
UMRISS05
100
AcDbCircle
 10
808.3364280832393
 20
122.2028367426148
 30
0.0
 40
10.0
100
AcDbArc
 50
180.0
 51
0.0
  0
LINE
  5
1AA
330
2
100
AcDbEntity
  8
ACHSEN
100
AcDbLine
 10
802.2366550662937
 20
126.2028367426146
 30
0.0
 11
814.7689165202164
 21
126.2028367426146
 31
0.0
  0
CIRCLE
  5
1AB
330
2
100
AcDbEntity
  8
UMRISS05
100
AcDbCircle
 10
808.3364280832393
 20
126.2028367426146
 30
0.0
 40
4.75
  0
CIRCLE
  5
1AC
330
2
100
AcDbEntity
  8
UMRISS05
100
AcDbCircle
 10
808.3364280832393
 20
126.2028367426146
 30
0.0
 40
2.6
  0
LINE
  5
1AD
330
2
100
AcDbEntity
  8
ACHSEN
100
AcDbLine
 10
808.3364280832393
 20
132.4093259725382
 30
0.0
 11
808.3364280832393
 21
120.2180077889154
 31
0.0
  0
MTEXT
  5
1AE
330
2
100
AcDbEntity
  8
0
  6
ByBlock
 62
     3
100
AcDbMText
 10
833.6998832467957
 20
119.3181512194591
 30
0.0
 40
8.099999999999999
 41
0.0
 71
     5
 72
     1
  1
\A1;14
  7
NORM
 11
0.0000000000000001
 21
1.0
 31
0.0
 73
     1
 44
1.0
  0
SOLID
  5
1AF
330
2
100
AcDbEntity
  8
BEMASSUNG
  6
Continuous
100
AcDbTrace
 10
839.7042434649508
 20
105.0028367426146
 30
0.0
 11
842.1042434649509
 21
105.0028367426146
 31
0.0
 12
840.9042434649508
 22
112.2028367426146
 32
0.0
 13
840.9042434649508
 23
112.2028367426146
 33
0.0
  0
LWPOLYLINE
  5
1B0
330
2
100
AcDbEntity
  8
BEMASSUNG
  6
Continuous
100
AcDbPolyline
 90
        2
 70
     1
 43
0.25
 10
840.5292434649508
 20
126.2028367426146
 42
1.0
 10
841.2792434649508
 20
126.2028367426146
 42
1.0
  0
LINE
  5
1B1
330
2
100
AcDbEntity
  8
ACHSEN
100
AcDbLine
 10
802.2366550662937
 20
143.2028367426146
 30
0.0
 11
814.7689165202164
 21
143.2028367426146
 31
0.0
  0
CIRCLE
  5
1B2
330
2
100
AcDbEntity
  8
UMRISS05
100
AcDbCircle
 10
808.3364280832393
 20
143.2028367426146
 30
0.0
 40
4.75
  0
POINT
  5
1B3
330
2
100
AcDbEntity
  8
6
  6
Continuous
 62
     7
100
AcDbPoint
 10
813.0864280832398
 20
143.2028367426146
 30
0.0
  0
CIRCLE
  5
1B4
330
2
100
AcDbEntity
  8
UMRISS05
100
AcDbCircle
 10
808.3364280832393
 20
143.2028367426146
 30
0.0
 40
2.6
  0
LINE
  5
1B5
330
2
100
AcDbEntity
  8
ACHSEN
100
AcDbLine
 10
808.3364280832393
 20
149.4093259725382
 30
0.0
 11
808.3364280832393
 21
137.2180077889154
 31
0.0
  0
LWPOLYLINE
  5
1B6
330
2
100
AcDbEntity
  8
UMRISS05
100
AcDbPolyline
 90
        5
 70
     1
 43
0.0
 10
813.5864280832397
 20
257.2028367426146
 10
813.5864280832397
 20
207.2028367426146
 10
803.0864280832393
 20
207.2028367426146
 10
803.0864280832393
 20
257.2028367426146
 10
808.3364280832393
 20
257.2028367426146
  0
LINE
  5
1B7
330
2
100
AcDbEntity
  8
ACHSEN
100
AcDbLine
 10
808.3364280832393
 20
196.6395193741361
 30
0.0
 11
808.3364280832393
 21
175.9015218445342
 31
0.0
  0
CIRCLE
  5
1B8
330
2
100
AcDbEntity
  8
UMRISS05
100
AcDbCircle
 10
808.3364280832393
 20
186.6135621774626
 30
0.0
 40
6.0
  0
CIRCLE
  5
1B9
330
2
100
AcDbEntity
  8
UMRISS05
100
AcDbCircle
 10
808.3364280832393
 20
186.6135621774626
 30
0.0
 40
8.0
  0
LINE
  5
1BA
330
2
100
AcDbEntity
  8
ACHSEN
100
AcDbLine
 10
798.3364280832392
 20
186.6135621774626
 30
0.0
 11
818.3364280832398
 21
186.6135621774626
 31
0.0
  0
LINE
  5
1BB
330
2
100
AcDbEntity
  8
UMRISS05
100
AcDbLine
 10
803.0864280832393
 20
284.1333878597556
 30
0.0
 11
803.0864280832393
 21
277.8449123565992
 31
0.0
  0
LINE
  5
1BC
330
2
100
AcDbEntity
  8
UMRISS05
100
AcDbLine
 10
813.5864280832397
 20
277.8449123565992
 30
0.0
 11
813.5864280832397
 21
284.1333878597556
 31
0.0
  0
LINE
  5
1BD
330
2
100
AcDbEntity
  8
ACHSEN
100
AcDbLine
 10
808.3364280832393
 20
273.29725716872
 30
0.0
 11
808.3364280832393
 21
261.105938985097
 31
0.0
  0
LINE
  5
1BE
330
2
100
AcDbEntity
  8
UMRISS05
100
AcDbLine
 10
803.0864280832393
 20
277.8449123565992
 30
0.0
 11
813.5864280832397
 21
277.8449123565992
 31
0.0
  0
LINE
  5
1BF
330
2
100
AcDbEntity
  8
ACHSEN
100
AcDbLine
 10
802.2366550662937
 20
267.0907679387965
 30
0.0
 11
814.7689165202164
 21
267.0907679387965
 31
0.0
  0
CIRCLE
  5
1C0
330
2
100
AcDbEntity
  8
UMRISS05
100
AcDbCircle
 10
808.3364280832393
 20
267.0907679387965
 30
0.0
 40
4.75
  0
CIRCLE
  5
1C1
330
2
100
AcDbEntity
  8
UMRISS05
100
AcDbCircle
 10
808.3364280832393
 20
267.0907679387965
 30
0.0
 40
2.6
  0
LINE
  5
1C2
330
2
100
AcDbEntity
  8
UMRISS05
100
AcDbLine
 10
803.0864280832393
 20
296.7103388660684
 30
0.0
 11
803.0864280832393
 21
302.9988143692248
 31
0.0
  0
LINE
  5
1C3
330
2
100
AcDbEntity
  8
UMRISS05
100
AcDbLine
 10
813.5864280832397
 20
302.9988143692248
 30
0.0
 11
813.5864280832397
 21
290.421863362912
 31
0.0
  0
LINE
  5
1C4
330
2
100
AcDbEntity
  8
UMRISS05
100
AcDbLine
 10
813.5864280832397
 20
296.7103388660684
 30
0.0
 11
800.6103036840867
 21
296.7103388660684
 31
0.0
  0
LINE
  5
1C5
330
2
100
AcDbEntity
  8
UMRISS05
100
AcDbLine
 10
800.6103036840867
 20
290.421863362912
 30
0.0
 11
813.5864280832397
 21
290.421863362912
 31
0.0
  0
LINE
  5
1C6
330
2
100
AcDbEntity
  8
UMRISS05
100
AcDbLine
 10
800.6103036840867
 20
290.421863362912
 30
0.0
 11
813.5864280832397
 21
290.421863362912
 31
0.0
  0
LINE
  5
1C7
330
2
100
AcDbEntity
  8
UMRISS05
100
AcDbLine
 10
816.5625524823921
 20
284.1333878597556
 30
0.0
 11
803.0864280832393
 21
284.1333878597556
 31
0.0
  0
LINE
  5
1C8
330
2
100
AcDbEntity
  8
UMRISS05
100
AcDbLine
 10
803.0864280832393
 20
284.1333878597556
 30
0.0
 11
803.0864280832393
 21
290.421863362912
 31
0.0
  0
LINE
  5
1C9
330
2
100
AcDbEntity
  8
UMRISS05
100
AcDbLine
 10
800.6103036840867
 20
296.7103388660684
 30
0.0
 11
800.6103036840867
 21
290.421863362912
 31
0.0
  0
LINE
  5
1CA
330
2
100
AcDbEntity
  8
UMRISS05
100
AcDbLine
 10
816.5625524823921
 20
290.421863362912
 30
0.0
 11
816.5625524823921
 21
284.1333878597556
 31
0.0
  0
LINE
  5
1CB
330
2
100
AcDbEntity
  8
UMRISS05
100
AcDbLine
 10
813.5864280832397
 20
290.421863362912
 30
0.0
 11
816.5625524823921
 21
290.421863362912
 31
0.0
  0
LINE
  5
1CC
330
2
100
AcDbEntity
  8
UMRISS05
100
AcDbLine
 10
806.0896733077125
 20
284.1333878597556
 30
0.0
 11
806.0896733077125
 21
290.421863362912
 31
0.0
  0
LINE
  5
1CD
330
2
100
AcDbEntity
  8
UMRISS05
100
AcDbLine
 10
810.6103036840869
 20
296.7103388660684
 30
0.0
 11
810.6103036840869
 21
290.421863362912
 31
0.0
  0
LINE
  5
1CE
330
2
100
AcDbEntity
  8
UMRISS05
100
AcDbLine
 10
803.0864280832393
 20
302.9988143692248
 30
0.0
 11
813.5864280832397
 21
302.9988143692248
 31
0.0
  0
SOLID
  5
1CF
330
2
100
AcDbEntity
  8
BEMASSUNG
  6
Continuous
100
AcDbTrace
 10
839.7042434649508
 20
389.4028367426146
 30
0.0
 11
842.1042434649509
 21
389.4028367426146
 31
0.0
 12
840.9042434649508
 22
382.2028367426146
 32
0.0
 13
840.9042434649508
 23
382.2028367426146
 33
0.0
  0
LINE
  5
1D0
330
2
100
AcDbEntity
  8
BEMASSUNG
  6
Continuous
100
AcDbLine
 10
840.9042434649508
 20
351.2028367426147
 30
0.0
 11
840.9042434649508
 21
396.6028367426146
 31
0.0
  0
CIRCLE
  5
1D1
330
2
100
AcDbEntity
  8
UMRISS05
100
AcDbCircle
 10
808.3364280832393
 20
351.2028367426147
 30
0.0
 40
4.75
  0
CIRCLE
  5
1D2
330
2
100
AcDbEntity
  8
UMRISS05
100
AcDbCircle
 10
808.3364280832393
 20
351.2028367426147
 30
0.0
 40
2.6
  0
LINE
  5
1D3
330
2
100
AcDbEntity
  8
ACHSEN
100
AcDbLine
 10
808.3364280832393
 20
357.4093259725382
 30
0.0
 11
808.3364280832393
 21
345.2180077889157
 31
0.0
  0
LINE
  5
1D4
330
2
100
AcDbEntity
  8
BEMASSUNG
  6
Continuous
100
AcDbLine
 10
808.3364280832393
 20
382.2028367426149
 30
0.0
 11
842.7042434649509
 21
382.2028367426146
 31
0.0
  0
LINE
  5
1D5
330
2
100
AcDbEntity
  8
BEMASSUNG
  6
Continuous
100
AcDbLine
 10
815.6689165202164
 20
368.2028367426147
 30
0.0
 11
842.7042434649509
 21
368.2028367426147
 31
0.0
  0
CIRCLE
  5
1D6
330
2
100
AcDbEntity
  8
UMRISS05
100
AcDbCircle
 10
808.3364280832393
 20
368.2028367426147
 30
0.0
 40
2.6
  0
CIRCLE
  5
1D7
330
2
100
AcDbEntity
  8
UMRISS05
100
AcDbCircle
 10
808.3364280832393
 20
368.2028367426147
 30
0.0
 40
4.75
  0
LINE
  5
1D8
330
2
100
AcDbEntity
  8
ACHSEN
100
AcDbLine
 10
808.3364280832393
 20
374.4093259725382
 30
0.0
 11
808.3364280832393
 21
362.2180077889157
 31
0.0
  0
LINE
  5
1D9
330
2
100
AcDbEntity
  8
ACHSEN
100
AcDbLine
 10
802.2366550662937
 20
368.2028367426147
 30
0.0
 11
814.7689165202164
 21
368.2028367426147
 31
0.0
  0
LINE
  5
1DA
330
2
100
AcDbEntity
  8
ACHSEN
100
AcDbLine
 10
802.2366550662937
 20
351.2028367426147
 30
0.0
 11
814.7689165202164
 21
351.2028367426147
 31
0.0
  0
POINT
  5
1DB
330
2
100
AcDbEntity
  8
6
  6
Continuous
 62
     7
100
AcDbPoint
 10
813.0864280832398
 20
351.2028367426147
 30
0.0
  0
ARC
  5
1DC
330
2
100
AcDbEntity
  8
UMRISS05
100
AcDbCircle
 10
808.3364280832393
 20
372.2028367426149
 30
0.0
 40
10.0
100
AcDbArc
 50
0.0
 51
180.0
  0
LWPOLYLINE
  5
1DD
330
2
100
AcDbEntity
  8
BEMASSUNG
  6
Continuous
100
AcDbPolyline
 90
        2
 70
     1
 43
0.25
 10
840.5292434649508
 20
368.2028367426147
 42
1.0
 10
841.2792434649508
 20
368.2028367426147
 42
1.0
  0
MTEXT
  5
1DE
330
2
100
AcDbEntity
  8
0
  6
ByBlock
 62
     3
100
AcDbMText
 10
834.1542434649509
 20
359.7028367426147
 30
0.0
 40
8.099999999999999
 41
0.0
 71
     5
 72
     1
  1
\A1;17
  7
NORM
 11
0.0000000000000001
 21
1.0
 31
0.0
 73
     1
 44
1.0
  0
MTEXT
  5
1DF
330
2
100
AcDbEntity
  8
0
  6
ByBlock
 62
     3
100
AcDbMText
 10
833.7362722231928
 20
375.2028367426146
 30
0.0
 40
8.099999999999999
 41
0.0
 71
     5
 72
     1
  1
\A1;14
  7
NORM
 11
0.0000000000000001
 21
1.0
 31
0.0
 73
     1
 44
1.0
  0
ENDSEC
  0
SECTION
  2
OBJECTS
  0
DICTIONARY
  5
7
330
0
100
AcDbDictionary
281
     1
  3
ACAD_GROUP
350
21
  3
ACAD_LAYOUT
350
B
  3
ACAD_MLINESTYLE
350
22
  3
ACAD_PLOTSETTINGS
350
23
  3
ACAD_PLOTSTYLENAME
350
6
  3
AcDbVariableDictionary
350
212
  3
AcmDictionary
350
1F0
  3
AMG
350
1E1
  3
DWGPROPS
350
211
  0
DICTIONARY
  5
21
102
{ACAD_REACTORS
330
7
102
}
330
7
100
AcDbDictionary
281
     1
  0
DICTIONARY
  5
B
102
{ACAD_REACTORS
330
7
102
}
330
7
100
AcDbDictionary
281
     1
  3
Layout1
350
F
  3
Model
350
A
  0
DICTIONARY
  5
22
102
{ACAD_REACTORS
330
7
102
}
330
7
100
AcDbDictionary
281
     1
  3
STANDARD
350
26
  0
DICTIONARY
  5
23
102
{ACAD_REACTORS
330
7
102
}
330
7
100
AcDbDictionary
281
     1
  0
ACDBDICTIONARYWDFLT
  5
6
102
{ACAD_REACTORS
330
7
102
}
330
7
100
AcDbDictionary
281
     1
  3
Normal
350
5
100
AcDbDictionaryWithDefault
340
5
  0
DICTIONARY
  5
212
102
{ACAD_REACTORS
330
7
102
}
330
7
100
AcDbDictionary
281
     1
  3
DIMASSOC
350
214
  3
HIDETEXT
350
213
  0
DICTIONARY
  5
1F0
102
{ACAD_REACTORS
330
7
102
}
330
7
100
AcDbDictionary
281
     1
  3
AcmStdDictionary
350
1F1
  0
DICTIONARY
  5
1E1
102
{ACAD_REACTORS
330
7
102
}
330
7
100
AcDbDictionary
281
     1
  3
AcMgSettings
350
1EB
  3
AMGLAYCFG
350
1E0
  0
XRECORD
  5
211
102
{ACAD_REACTORS
330
7
102
}
330
7
100
AcDbXrecord
280
     1
  1
DWGPROPS COOKIE
  2

  3

  4

  6

  7

  8

  9

300
AmdtFileType=84
301
=
302
=
303
=
304
=
305
=
306
=
307
=
308
=
309
=
 40
0.1373910416666666
 41
2451001.503576851
 42
2452433.544469039
  1

 90
        1
  0
LAYOUT
  5
F
102
{ACAD_REACTORS
330
B
102
}
330
B
100
AcDbPlotSettings
  1

  2
HP LaserJet IIISi
  4

  6

 40
0.0
 41
0.0
 42
0.0
 43
0.0
 44
0.0
 45
0.0
 46
0.0
 47
0.0
 48
0.0
 49
0.0
140
0.0
141
0.0
142
1.0
143
1.0
 70
   688
 72
     0
 73
     0
 74
     5
  7
monochrome.ctb
 75
    16
147
1.0
148
0.0
149
0.0
100
AcDbLayout
  1
Layout1
 70
     1
 71
     1
 10
0.0
 20
0.0
 11
1189.0
 21
841.0
 12
0.0
 22
0.0
 32
0.0
 14
-7.427996568890034
 24
0.0
 34
0.0
 15
1189.0
 25
841.0
 35
0.0
146
0.0
 13
0.0
 23
0.0
 33
0.0
 16
1.0
 26
0.0
 36
0.0
 17
0.0
 27
1.0
 37
0.0
 76
     0
330
C
  0
LAYOUT
  5
A
102
{ACAD_REACTORS
330
B
102
}
330
B
100
AcDbPlotSettings
  1

  2
HP LaserJet 1100 (MS)
  4
A4
  6

 40
6.297083377838134
 41
5.916064739227294
 42
7.313079833984375
 43
7.14373779296875
 44
209.9733276367187
 45
296.9683227539062
 46
0.0
 47
0.0
 48
1211.556589429639
 49
8.081392949356995
140
1477.335725068248
141
453.6592570704433
142
1.0
143
1.569441677104741
 70
 11952
 72
     1
 73
     0
 74
     4
  7
monochrome.ctb
 75
     0
147
0.6371692650884419
148
-1211.556589429639
149
-8.081392949356995
100
AcDbLayout
  1
Model
 70
     1
 71
     0
 10
0.0
 20
0.0
 11
12.0
 21
9.0
 12
0.0
 22
0.0
 32
0.0
 14
0.0
 24
0.0
 34
0.0
 15
0.0
 25
0.0
 35
0.0
146
0.0
 13
0.0
 23
0.0
 33
0.0
 16
1.0
 26
0.0
 36
0.0
 17
0.0
 27
1.0
 37
0.0
 76
     0
330
2
  0
MLINESTYLE
  5
26
102
{ACAD_REACTORS
330
22
102
}
330
22
100
AcDbMlineStyle
  2
STANDARD
 70
     0
  3

 62
   256
 51
90.0
 52
90.0
 71
     2
 49
0.5
 62
   256
  6
BYLAYER
 49
-0.5
 62
   256
  6
BYLAYER
  0
ACDBPLACEHOLDER
  5
5
102
{ACAD_REACTORS
330
6
102
}
330
6
  0
DICTIONARYVAR
  5
214
102
{ACAD_REACTORS
330
212
102
}
330
212
100
DictionaryVariables
280
     0
  1
1
  0
DICTIONARYVAR
  5
213
102
{ACAD_REACTORS
330
212
102
}
330
212
100
DictionaryVariables
280
     0
  1
1
  0
DICTIONARY
  5
1F1
102
{ACAD_REACTORS
330
1F0
102
}
330
1F0
100
AcDbDictionary
281
     1
  3
ANSI
350
1F2
  0
DICTIONARY
  5
1EB
102
{ACAD_REACTORS
330
1E1
102
}
330
1E1
100
AcDbDictionary
281
     1
  3
DWGSETTINGS
350
1EA
  3
TRANSSETTINGS
350
1EC
  0
ENDSEC
  0
EOF
