  0
SECTION
  2
HEADER
  9
$ACADVER
  1
AC1027
  9
$ACADMAINTVER
 70
    57
  9
$DWGCODEPAGE
  3
ANSI_1252
  9
$LASTSAVEDBY
  1
davsta
  9
$CUSTOMPROPERTYTAG
  1
AmdtFileType
  9
$CUSTOMPROPERTY
  1
84
  9
$REQUIREDVERSIONS
160
                 0
  9
$INSBASE
 10
0.0
 20
0.0
 30
0.0
  9
$EXTMIN
 10
265.0067879229609
 20
108.8466759494075
 30
0.0
  9
$EXTMAX
 10
475.3885844824503
 20
463.7582284456616
 30
0.0
  9
$LIMMIN
 10
0.0
 20
0.0
  9
$LIMMAX
 10
513.147040755
 20
602.5524232120756
  9
$ORTHOMODE
 70
     1
  9
$REGENMODE
 70
     1
  9
$FILLMODE
 70
     1
  9
$QTEXTMODE
 70
     0
  9
$MIRRTEXT
 70
     0
  9
$LTSCALE
 40
1.0
  9
$ATTMODE
 70
     1
  9
$TEXTSIZE
 40
3.5
  9
$TRACEWID
 40
0.05
  9
$TEXTSTYLE
  7
ARIAL-STANDARD
  9
$CLAYER
  8
BEMASSUNG
  9
$CELTYPE
  6
BYLAYER
  9
$CECOLOR
 62
   256
  9
$CELTSCALE
 40
1.0
  9
$DISPSILH
 70
     0
  9
$DIMSCALE
 40
1.0
  9
$DIMASZ
 40
3.5
  9
$DIMEXO
 40
1.0
  9
$DIMDLI
 40
10.0
  9
$DIMRND
 40
0.0
  9
$DIMDLE
 40
0.0
  9
$DIMEXE
 40
1.0
  9
$DIMTP
 40
0.1
  9
$DIMTM
 40
0.1
  9
$DIMTXT
 40
3.5
  9
$DIMCEN
 40
0.0
  9
$DIMTSZ
 40
0.0
  9
$DIMTOL
 70
     0
  9
$DIMLIM
 70
     0
  9
$DIMTIH
 70
     0
  9
$DIMTOH
 70
     0
  9
$DIMSE1
 70
     0
  9
$DIMSE2
 70
     0
  9
$DIMTAD
 70
     1
  9
$DIMZIN
 70
     8
  9
$DIMBLK
  1

  9
$DIMASO
 70
     1
  9
$DIMSHO
 70
     1
  9
$DIMPOST
  1

  9
$DIMAPOST
  1
"
  9
$DIMALT
 70
     0
  9
$DIMALTD
 70
     2
  9
$DIMALTF
 40
0.0393701
  9
$DIMLFAC
 40
1.0
  9
$DIMTOFL
 70
     1
  9
$DIMTVP
 40
0.0
  9
$DIMTIX
 70
     0
  9
$DIMSOXD
 70
     0
  9
$DIMSAH
 70
     0
  9
$DIMBLK1
  1

  9
$DIMBLK2
  1

  9
$DIMSTYLE
  2
AM_DIN
  9
$DIMCLRD
 70
   256
  9
$DIMCLRE
 70
   256
  9
$DIMCLRT
 70
     2
  9
$DIMTFAC
 40
0.71
  9
$DIMGAP
 40
1.5
  9
$DIMJUST
 70
     0
  9
$DIMSD1
 70
     0
  9
$DIMSD2
 70
     0
  9
$DIMTOLJ
 70
     0
  9
$DIMTZIN
 70
     8
  9
$DIMALTZ
 70
     0
  9
$DIMALTTZ
 70
     0
  9
$DIMUPT
 70
     0
  9
$DIMDEC
 70
     2
  9
$DIMTDEC
 70
     3
  9
$DIMALTU
 70
     2
  9
$DIMALTTD
 70
     4
  9
$DIMTXSTY
  7
STANDARD
  9
$DIMAUNIT
 70
     0
  9
$DIMADEC
 70
     0
  9
$DIMALTRND
 40
0.0
  9
$DIMAZIN
 70
     2
  9
$DIMDSEP
 70
    46
  9
$DIMATFIT
 70
     3
  9
$DIMFRAC
 70
     0
  9
$DIMLDRBLK
  1

  9
$DIMLUNIT
 70
     2
  9
$DIMLWD
 70
    -1
  9
$DIMLWE
 70
    -1
  9
$DIMTMOVE
 70
     0
  9
$DIMFXL
 40
1.0
  9
$DIMFXLON
 70
     0
  9
$DIMJOGANG
 40
1.570796326794896
  9
$DIMTFILL
 70
     0
  9
$DIMTFILLCLR
 70
     0
  9
$DIMARCSYM
 70
     0
  9
$DIMLTYPE
  6
BYBLOCK
  9
$DIMLTEX1
  6
BYBLOCK
  9
$DIMLTEX2
  6
BYBLOCK
  9
$DIMTXTDIRECTION
 70
     0
  9
$LUNITS
 70
     2
  9
$LUPREC
 70
     2
  9
$SKETCHINC
 40
0.1
  9
$FILLETRAD
 40
0.0
  9
$AUNITS
 70
     0
  9
$AUPREC
 70
     0
  9
$MENU
  1
.
  9
$ELEVATION
 40
0.0
  9
$PELEVATION
 40
0.0
  9
$THICKNESS
 40
0.0
  9
$LIMCHECK
 70
     0
  9
$CHAMFERA
 40
0.0
  9
$CHAMFERB
 40
0.0
  9
$CHAMFERC
 40
1.0
  9
$CHAMFERD
 40
0.0
  9
$SKPOLY
 70
     0
  9
$TDCREATE
 40
2451554.405552790
  9
$TDUCREATE
 40
2451554.322219456
  9
$TDUPDATE
 40
2458340.401490128
  9
$TDUUPDATE
 40
2458340.318156794
  9
$TDINDWG
 40
0.3179304977
  9
$TDUSRTIMER
 40
0.3179303125
  9
$USRTIMER
 70
     1
  9
$ANGBASE
 50
0.0
  9
$ANGDIR
 70
     0
  9
$PDMODE
 70
     0
  9
$PDSIZE
 40
0.0
  9
$PLINEWID
 40
0.0
  9
$SPLFRAME
 70
     0
  9
$SPLINETYPE
 70
     6
  9
$SPLINESEGS
 70
     8
  9
$HANDSEED
  5
49F
  9
$SURFTAB1
 70
     6
  9
$SURFTAB2
 70
     6
  9
$SURFTYPE
 70
     6
  9
$SURFU
 70
     6
  9
$SURFV
 70
     6
  9
$UCSBASE
  2

  9
$UCSNAME
  2

  9
$UCSORG
 10
0.0
 20
0.0
 30
0.0
  9
$UCSXDIR
 10
1.0
 20
0.0
 30
0.0
  9
$UCSYDIR
 10
0.0
 20
1.0
 30
0.0
  9
$UCSORTHOREF
  2

  9
$UCSORTHOVIEW
 70
     0
  9
$UCSORGTOP
 10
0.0
 20
0.0
 30
0.0
  9
$UCSORGBOTTOM
 10
0.0
 20
0.0
 30
0.0
  9
$UCSORGLEFT
 10
0.0
 20
0.0
 30
0.0
  9
$UCSORGRIGHT
 10
0.0
 20
0.0
 30
0.0
  9
$UCSORGFRONT
 10
0.0
 20
0.0
 30
0.0
  9
$UCSORGBACK
 10
0.0
 20
0.0
 30
0.0
  9
$PUCSBASE
  2

  9
$PUCSNAME
  2

  9
$PUCSORG
 10
0.0
 20
0.0
 30
0.0
  9
$PUCSXDIR
 10
1.0
 20
0.0
 30
0.0
  9
$PUCSYDIR
 10
0.0
 20
1.0
 30
0.0
  9
$PUCSORTHOREF
  2

  9
$PUCSORTHOVIEW
 70
     0
  9
$PUCSORGTOP
 10
0.0
 20
0.0
 30
0.0
  9
$PUCSORGBOTTOM
 10
0.0
 20
0.0
 30
0.0
  9
$PUCSORGLEFT
 10
0.0
 20
0.0
 30
0.0
  9
$PUCSORGRIGHT
 10
0.0
 20
0.0
 30
0.0
  9
$PUCSORGFRONT
 10
0.0
 20
0.0
 30
0.0
  9
$PUCSORGBACK
 10
0.0
 20
0.0
 30
0.0
  9
$USERI1
 70
     0
  9
$USERI2
 70
     0
  9
$USERI3
 70
     0
  9
$USERI4
 70
     0
  9
$USERI5
 70
     0
  9
$USERR1
 40
0.0
  9
$USERR2
 40
0.0
  9
$USERR3
 40
0.0
  9
$USERR4
 40
0.0
  9
$USERR5
 40
0.0
  9
$WORLDVIEW
 70
     1
  9
$SHADEDGE
 70
     3
  9
$SHADEDIF
 70
    70
  9
$TILEMODE
 70
     1
  9
$MAXACTVP
 70
    48
  9
$PINSBASE
 10
0.0
 20
0.0
 30
0.0
  9
$PLIMCHECK
 70
     0
  9
$PEXTMIN
 10
1.000000000000000E+20
 20
1.000000000000000E+20
 30
1.000000000000000E+20
  9
$PEXTMAX
 10
-1.000000000000000E+20
 20
-1.000000000000000E+20
 30
-1.000000000000000E+20
  9
$PLIMMIN
 10
0.0
 20
0.0
  9
$PLIMMAX
 10
12.0
 20
9.0
  9
$UNITMODE
 70
     0
  9
$VISRETAIN
 70
     1
  9
$PLINEGEN
 70
     0
  9
$PSLTSCALE
 70
     1
  9
$TREEDEPTH
 70
  3020
  9
$CMLSTYLE
  2
STANDARD
  9
$CMLJUST
 70
     0
  9
$CMLSCALE
 40
1.0
  9
$PROXYGRAPHICS
 70
     1
  9
$MEASUREMENT
 70
     1
  9
$CELWEIGHT
370
    -1
  9
$ENDCAPS
280
     0
  9
$JOINSTYLE
280
     0
  9
$LWDISPLAY
290
     0
  9
$INSUNITS
 70
     0
  9
$HYPERLINKBASE
  1

  9
$STYLESHEET
  1

  9
$XEDIT
290
     1
  9
$CEPSNTYPE
380
     0
  9
$PSTYLEMODE
290
     1
  9
$FINGERPRINTGUID
  2
{5090ECA2-5B78-4112-8CAA-6B19ADEBA102}
  9
$VERSIONGUID
  2
{547A01B1-38F3-48A4-96A5-CFF41D02A72A}
  9
$EXTNAMES
290
     1
  9
$PSVPSCALE
 40
0.0
  9
$OLESTARTUP
290
     0
  9
$SORTENTS
280
   127
  9
$INDEXCTL
280
     0
  9
$HIDETEXT
280
     1
  9
$XCLIPFRAME
280
     2
  9
$HALOGAP
280
     0
  9
$OBSCOLOR
 70
   257
  9
$OBSLTYPE
280
     0
  9
$INTERSECTIONDISPLAY
280
     0
  9
$INTERSECTIONCOLOR
 70
   257
  9
$DIMASSOC
280
     1
  9
$PROJECTNAME
  1

  9
$CAMERADISPLAY
290
     0
  9
$LENSLENGTH
 40
50.0
  9
$CAMERAHEIGHT
 40
0.0
  9
$STEPSPERSEC
 40
2.0
  9
$STEPSIZE
 40
6.0
  9
$3DDWFPREC
 40
2.0
  9
$PSOLWIDTH
 40
0.25
  9
$PSOLHEIGHT
 40
4.0
  9
$LOFTANG1
 40
1.570796326794896
  9
$LOFTANG2
 40
1.570796326794896
  9
$LOFTMAG1
 40
0.0
  9
$LOFTMAG2
 40
0.0
  9
$LOFTPARAM
 70
     7
  9
$LOFTNORMALS
280
     1
  9
$LATITUDE
 40
37.795
  9
$LONGITUDE
 40
-122.394
  9
$NORTHDIRECTION
 40
0.0
  9
$TIMEZONE
 70
 -8000
  9
$LIGHTGLYPHDISPLAY
280
     1
  9
$TILEMODELIGHTSYNCH
280
     1
  9
$CMATERIAL
347
2B1
  9
$SOLIDHIST
280
     0
  9
$SHOWHIST
280
     1
  9
$DWFFRAME
280
     2
  9
$DGNFRAME
280
     0
  9
$REALWORLDSCALE
290
     1
  9
$INTERFERECOLOR
 62
     1
  9
$INTERFEREOBJVS
345
2D3
  9
$INTERFEREVPVS
346
2D0
  9
$CSHADOW
280
     0
  9
$SHADOWPLANELOCATION
 40
0.0
  0
ENDSEC
  0
SECTION
  2
CLASSES
  0
CLASS
  1
ACDBDICTIONARYWDFLT
  2
AcDbDictionaryWithDefault
  3
ObjectDBX Classes
 90
        0
 91
        1
280
     0
281
     0
  0
CLASS
  1
ACME_DOCUMENT
  2
AcMeDbDoc
  3
AcMeServices
 90
     1024
 91
        1
280
     0
281
     0
  0
CLASS
  1
AMGSETTINGSOBJ
  2
AmgSettingsObj
  3
"AcadM|Product Description: AutoCAD Mechanical|Company: Autodesk, Inc."
 90
     1024
 91
        2
280
     0
281
     0
  0
CLASS
  1
ACMESCOPE
  2
AcMeScope
  3
AcMeServices
 90
     1024
 91
        1
280
     0
281
     0
  0
CLASS
  1
ACMECOMMANDHISTORY
  2
AcMeCommandHistory
  3
AcMeServices
 90
     1024
 91
        1
280
     0
281
     0
  0
CLASS
  1
ACIMSYSVARMAN
  2
AcImSysVarManager
  3
AcMeServices
 90
     1024
 91
        3
280
     0
281
     0
  0
CLASS
  1
ACIMREALSYSVAR
  2
AcImRealSysVar
  3
AcMeServices
 90
     1024
 91
        0
280
     0
281
     0
  0
CLASS
  1
ACIMINTSYSVAR
  2
AcImIntSysVar
  3
AcMeServices
 90
     1024
 91
        2
280
     0
281
     0
  0
CLASS
  1
ACMEDRAWINGMAN
  2
AcMeDrawingMan
  3
AcMeServices
 90
     1024
 91
        0
280
     0
281
     0
  0
CLASS
  1
ACMEVIEW
  2
AcMeView
  3
AcMeServices
 90
     1024
 91
        0
280
     0
281
     0
  0
CLASS
  1
ACDBENTITYCACHE
  2
AcMeEntityCache
  3
AcMeServices
 90
     1024
 91
        1
280
     0
281
     0
  0
CLASS
  1
GSMANAGER
  2
AcMeGSManager
  3
AcMeServices
 90
        0
 91
        0
280
     0
281
     0
  0
CLASS
  1
AMDTINTERNALREACTOR
  2
AmdtInternalReactor
  3
AcMeServices
 90
     1024
 91
        0
280
     0
281
     0
  0
CLASS
  1
ACMESTATEMGR
  2
AcMeStateMgr
  3
AcMeServices
 90
     1024
 91
        1
280
     0
281
     0
  0
CLASS
  1
ACGREFMASTER
  2
AcGrefMaster
  3
AcAttribServices
 90
     1024
 91
        1
280
     0
281
     0
  0
CLASS
  1
ACME_DATABASE
  2
AcMeDbDatabase
  3
AcMeServices
 90
     1024
 91
        1
280
     0
281
     0
  0
CLASS
  1
ACRFINSADJUSTERMGR
  2
AcRfInsAdjusterMgr
  3
AcMeServices
 90
     1024
 91
        1
280
     0
281
     0
  0
CLASS
  1
ACGREFACADMASTER
  2
AcGrefacadMaster
  3
AcGrefServices
 90
     1024
 91
        1
280
     0
281
     0
  0
CLASS
  1
AMIMASTER
  2
AmiMaster
  3
AmiServices
 90
     1024
 91
        1
280
     0
281
     0
  0
CLASS
  1
ACMDATADICTIONARY
  2
AcmDataDictionary
  3
"AcmSymBB|Product Description: AutoCAD Mechanical|Company: Autodesk, Inc."
 90
     1024
 91
        1
280
     0
281
     0
  0
CLASS
  1
ACMDATAENTRYBLOCK
  2
AcmDataEntryBlock
  3
AcmSymBB|Product Description: AutoCAD Mechanical|Company: Autodesk, Inc.
 90
     1024
 91
        0
280
     0
281
     0
  0
CLASS
  1
ACIMSTRSYSVAR
  2
AcImStrSysVar
  3
AcMeServices
 90
     1024
 91
        5
280
     0
281
     0
  0
CLASS
  1
ACMSTANDARDDIN
  2
AcmStandardDIN
  3
"Amdt_StdImp|Product Description: AutoCAD Mechanical|Company: Autodesk, Inc."
 90
     1024
 91
        1
280
     0
281
     0
  0
CLASS
  1
AMGOBJPROPCFG
  2
AmgObjPropCfg
  3
"AmgLay|Product Description: AutoCAD Mechanical|Company: Autodesk, Inc."
 90
     1024
 91
        1
280
     0
281
     0
  0
CLASS
  1
AMDTEDGESTANDARDDIN
  2
AmdtEdgeStdDIN
  3
"Amdt_StdImp|Product Description: AutoCAD Mechanical|Company: Autodesk, Inc."
 90
     1024
 91
        0
280
     0
281
     0
  0
CLASS
  1
ACMSURFSTANDARDDIN
  2
AcmSurfTextStdDIN
  3
"Amdt_StdImp|Product Description: AutoCAD Mechanical|Company: Autodesk, Inc."
 90
     1024
 91
        0
280
     0
281
     0
  0
CLASS
  1
ACMFCFSTANDARDDIN
  2
AcmFCFStdDIN
  3
"Amdt_StdImp|Product Description: AutoCAD Mechanical|Company: Autodesk, Inc."
 90
     1024
 91
        0
280
     0
281
     0
  0
CLASS
  1
ACMWELDSTANDARDDIN
  2
AcmWeldingStdDIN
  3
"Amdt_StdImp|Product Description: AutoCAD Mechanical|Company: Autodesk, Inc."
 90
     1024
 91
        1
280
     0
281
     0
  0
CLASS
  1
ACMIDSTANDARDDIN
  2
AcmIdStdDIN
  3
"Amdt_StdImp|Product Description: AutoCAD Mechanical|Company: Autodesk, Inc."
 90
     1024
 91
        0
280
     0
281
     0
  0
CLASS
  1
ACMDATUMSTANDARDDIN
  2
AcmDatumStdDIN
  3
"Amdt_StdImp|Product Description: AutoCAD Mechanical|Company: Autodesk, Inc."
 90
     1024
 91
        1
280
     0
281
     0
  0
CLASS
  1
ACMBOMSTANDARDDIN
  2
AcmBOMStdDIN
  3
"Amdt_StdImp|Product Description: AutoCAD Mechanical|Company: Autodesk, Inc."
 90
     1024
 91
        1
280
     0
281
     0
  0
CLASS
  1
ACMDETAILSTANDARDDIN
  2
AmdtDetailSymStdDIN
  3
"Amdt_StdImp|Product Description: AutoCAD Mechanical|Company: Autodesk, Inc."
 90
     1024
 91
        1
280
     0
281
     0
  0
CLASS
  1
ACMSECTIONSTANDARDDIN
  2
AmdtSectionSymStdDIN
  3
"Amdt_StdImp|Product Description: AutoCAD Mechanical|Company: Autodesk, Inc."
 90
     1024
 91
        1
280
     0
281
     0
  0
CLASS
  1
ACMCENTERLINESTANDARDDIN
  2
AmdtCenterLineStdDIN
  3
"Amdt_StdImp|Product Description: AutoCAD Mechanical|Company: Autodesk, Inc."
 90
     1024
 91
        1
280
     0
281
     0
  0
CLASS
  1
ACMNOTESTANDARDDIN
  2
AmdtNoteStdDIN
  3
"Amdt_StdImp|Product Description: AutoCAD Mechanical|Company: Autodesk, Inc."
 90
     1024
 91
        1
280
     0
281
     0
  0
CLASS
  1
ACAMGLAYSTD
  2
AcAmgLayStd
  3
"AmgLay|Product Description: AutoCAD Mechanical|Company: Autodesk, Inc."
 90
     1024
 91
        1
280
     0
281
     0
  0
CLASS
  1
ACAMGDIMSTD
  2
AcAmgDimStd
  3
"AmgDim|Product Description: AutoCAD Mechanical|Company: Autodesk, Inc."
 90
     1024
 91
        1
280
     0
281
     0
  0
CLASS
  1
ACAMGHOLECHARTSTDDIN
  2
AcAmgHoleChartStdDIN
  3
AmgDim|Product Description: AutoCAD Mechanical|Company: Autodesk, Inc.
 90
     1024
 91
        1
280
     0
281
     0
  0
CLASS
  1
ACAMGTITLESTD
  2
AcAmgTitleStd
  3
"AmgTitle|Product Description: AutoCAD Mechanical|Company: Autodesk, Inc."
 90
     1024
 91
        1
280
     0
281
     0
  0
CLASS
  1
ACAMGFILTERDAT
  2
AcAmgFilterDat
  3
"AcadM|Product Description: AutoCAD Mechanical|Company: Autodesk, Inc."
 90
     1024
 91
        0
280
     0
281
     0
  0
CLASS
  1
LAYER_INDEX
  2
AcDbLayerIndex
  3
ObjectDBX Classes
 90
        0
 91
        0
280
     0
281
     0
  0
CLASS
  1
IDBUFFER
  2
AcDbIdBuffer
  3
ObjectDBX Classes
 90
        0
 91
        0
280
     0
281
     0
  0
CLASS
  1
DICTIONARYVAR
  2
AcDbDictionaryVar
  3
ObjectDBX Classes
 90
        0
 91
       11
280
     0
281
     0
  0
CLASS
  1
MATERIAL
  2
AcDbMaterial
  3
ObjectDBX Classes
 90
     1153
 91
        3
280
     0
281
     0
  0
CLASS
  1
VISUALSTYLE
  2
AcDbVisualStyle
  3
ObjectDBX Classes
 90
     4095
 91
       24
280
     0
281
     0
  0
CLASS
  1
TABLESTYLE
  2
AcDbTableStyle
  3
ObjectDBX Classes
 90
     4095
 91
        1
280
     0
281
     0
  0
CLASS
  1
SCALE
  2
AcDbScale
  3
ObjectDBX Classes
 90
     1153
 91
       17
280
     0
281
     0
  0
CLASS
  1
MLEADERSTYLE
  2
AcDbMLeaderStyle
  3
ACDB_MLEADERSTYLE_CLASS
 90
     4095
 91
        1
280
     0
281
     0
  0
CLASS
  1
ACDBSECTIONVIEWSTYLE
  2
AcDbSectionViewStyle
  3
ObjectDBX Classes
 90
     1025
 91
        2
280
     0
281
     0
  0
CLASS
  1
ACDBDETAILVIEWSTYLE
  2
AcDbDetailViewStyle
  3
ObjectDBX Classes
 90
     1025
 91
        2
280
     0
281
     0
  0
CLASS
  1
AMDTMENUSTATEMGR
  2
AmdtMenuStateMgr
  3
McadcomServices
 90
     1024
 91
        1
280
     0
281
     0
  0
CLASS
  1
AMDTMCOMMENUSTATE
  2
AmdtMcomMenuState
  3
McadcomServices
 90
     1024
 91
        1
280
     0
281
     0
  0
CLASS
  1
MAPIAMMOUDLE
  2
MApiAmModule
  3
MApiAmServices
 90
     1024
 91
        1
280
     0
281
     0
  0
CLASS
  1
AMDTAMMENUSTATE
  2
AmdtAmMenuState
  3
DesignerAssemblies
 90
     1024
 91
        1
280
     0
281
     0
  0
CLASS
  1
ACAMPROJECT
  2
AcAmProject
  3
DesignerAssemblies
 90
     1024
 91
        1
280
     0
281
     0
  0
CLASS
  1
ACAMGRCOMPDEF
  2
AcAmGrCompDef
  3
DesignerAssemblies
 90
     1024
 91
        1
280
     0
281
     0
  0
CLASS
  1
ACAMCOMPDEF
  2
AcAmCompDef
  3
DesignerAssemblies
 90
     1024
 91
        1
280
     0
281
     0
  0
CLASS
  1
ACAMCOMPDEFMGR
  2
AcAmCompDefMgr
  3
DesignerAssemblies
 90
     1024
 91
        1
280
     0
281
     0
  0
CLASS
  1
AMCONTEXTMGR
  2
AcAmContextMgr
  3
DesignerAssemblies
 90
     1024
 91
        1
280
     0
281
     0
  0
CLASS
  1
ACAMCONTEXTMODELER
  2
AcAmContextModeler
  3
DesignerAssemblies
 90
     1024
 91
        1
280
     0
281
     0
  0
CLASS
  1
ACAMGRCOMPDEFSET
  2
AcAmGrCompDefSet
  3
DesignerAssemblies
 90
     1024
 91
        1
280
     0
281
     0
  0
CLASS
  1
AMDTBROWSERDBTAB
  2
AmdtBrowserDbTab
  3
McadcomServices
 90
     1024
 91
        1
280
     0
281
     0
  0
CLASS
  1
CBROWSERAPPOBJECT
  2
CBrowserAppObject
  3
McadcomServices
 90
     1024
 91
        2
280
     0
281
     0
  0
CLASS
  1
DM_PLACEHOLDER
  2
AcDmSelsetPlaceholder
  3
McadcomServices
 90
     1024
 91
        1
280
     0
281
     0
  0
CLASS
  1
AMDTEDGESTANDARDDIN13715
  2
AmdtEdgeStdDIN13715
  3
"Amdt_StdImp|Product Description: AutoCAD Mechanical|Company: Autodesk, Inc."
 90
     1024
 91
        1
280
     0
281
     0
  0
CLASS
  1
ACMSURFSTANDARDDIN2002
  2
AcmSurfTextStdDIN2002
  3
"Amdt_StdImp|Product Description: AutoCAD Mechanical|Company: Autodesk, Inc."
 90
     1024
 91
        1
280
     0
281
     0
  0
CLASS
  1
ACMFCFSTANDARDDIN2008
  2
AcmFCFStdDIN2008
  3
"Amdt_StdImp|Product Description: AutoCAD Mechanical|Company: Autodesk, Inc."
 90
     1024
 91
        1
280
     0
281
     0
  0
CLASS
  1
ACMIDSTANDARDDIN2008
  2
AcmIdStdDIN2008
  3
"Amdt_StdImp|Product Description: AutoCAD Mechanical|Company: Autodesk, Inc."
 90
     1024
 91
        1
280
     0
281
     0
  0
CLASS
  1
ACMTHREADLINESTANDARDDIN
  2
AmdtThreadLineStdDIN
  3
"Amdt_StdImp|Product Description: AutoCAD Mechanical|Company: Autodesk, Inc."
 90
     1024
 91
        1
280
     0
281
     0
  0
CLASS
  1
ACMTAPERSTANDARDDIN
  2
AcmTaperStdDIN
  3
"Amdt_StdImp|Product Description: AutoCAD Mechanical|Company: Autodesk, Inc."
 90
     1024
 91
        1
280
     0
281
     0
  0
CLASS
  1
ACMANOOTATIONVIEWSTANDARDDIN
  2
AmdtAnViewStdDIN
  3
"Amdt_StdImp|Product Description: AutoCAD Mechanical|Company: Autodesk, Inc."
 90
     1024
 91
        1
280
     0
281
     0
  0
CLASS
  1
ACMSECTIONSTANDARDCUSTOM
  2
AmdtSectionSymStdCustom
  3
"Amdt_StdImp|Product Description: AutoCAD Mechanical|Company: Autodesk, Inc."
 90
     1024
 91
        1
280
     0
281
     0
  0
CLASS
  1
ACMDETAILTANDARDCUSTOM
  2
AmdtDetailSymStdCustom
  3
"Amdt_StdImp|Product Description: AutoCAD Mechanical|Company: Autodesk, Inc."
 90
     1024
 91
        1
280
     0
281
     0
  0
CLASS
  1
FIELD
  2
AcDbField
  3
ObjectDBX Classes
 90
     1152
 91
        6
280
     0
281
     0
  0
CLASS
  1
FIELDLIST
  2
AcDbFieldList
  3
ObjectDBX Classes
 90
     1152
 91
        1
280
     0
281
     0
  0
CLASS
  1
AMDTNOTETEMPLATEDB
  2
AmdtNoteTemplateDB
  3
AcmSymBB|Product Description: AutoCAD Mechanical|Company: Autodesk, Inc.
 90
     1024
 91
        7
280
     0
281
     0
  0
CLASS
  1
CAMSSTRUCTBTNSTATE
  2
StructBtnState
  3
DesignerAssemblies
 90
     1024
 91
        0
280
     0
281
     0
  0
CLASS
  1
CELLSTYLEMAP
  2
AcDbCellStyleMap
  3
ObjectDBX Classes
 90
     1152
 91
        2
280
     0
281
     0
  0
ENDSEC
  0
SECTION
  2
TABLES
  0
TABLE
  2
VPORT
  5
1A
330
0
100
AcDbSymbolTable
 70
     1
  0
VPORT
  5
1B
330
1A
100
AcDbSymbolTableRecord
100
AcDbViewportTableRecord
  2
*Active
 70
     0
 10
0.0
 20
0.0
 11
1.0
 21
1.0
 12
361.5065463281972
 22
316.6041637906487
 13
0.0
 23
0.0
 14
10.0
 24
10.0
 15
10.0
 25
10.0
 16
0.0
 26
0.0
 36
1.0
 17
0.0
 27
0.0
 37
0.0
 40
317.0507530141244
 41
1.989317995069843
 42
50.0
 43
0.0
 44
0.0
 50
0.0
 51
0.0
 71
     0
 72
  5000
 73
     1
 74
     0
 75
     0
 76
     0
 77
     0
 78
     0
281
     0
 65
     0
110
0.0
120
0.0
130
0.0
111
1.0
121
0.0
131
0.0
112
0.0
122
1.0
132
0.0
 79
     0
146
0.0
348
2CF
 60
     3
 61
     5
292
     1
282
     1
141
0.0
142
0.0
 63
   250
421
  3355443
1001
ACAD_NAV_VCDISPLAY
1070
     3
  0
ENDTAB
  0
TABLE
  2
LTYPE
  5
15
330
0
100
AcDbSymbolTable
 70
    15
  0
LTYPE
  5
16
330
15
100
AcDbSymbolTableRecord
100
AcDbLinetypeTableRecord
  2
BYBLOCK
 70
     0
  3

 72
    65
 73
     0
 40
0.0
  0
LTYPE
  5
17
330
15
100
AcDbSymbolTableRecord
100
AcDbLinetypeTableRecord
  2
BYLAYER
 70
     0
  3

 72
    65
 73
     0
 40
0.0
  0
LTYPE
  5
9
330
15
100
AcDbSymbolTableRecord
100
AcDbLinetypeTableRecord
  2
CONTINUOUS
 70
     0
  3
Solid line
 72
    65
 73
     0
 40
0.0
  0
LTYPE
  5
5B
330
15
100
AcDbSymbolTableRecord
100
AcDbLinetypeTableRecord
  2
STRICHPUNKT2
 70
     0
  3
Strichpunkt (.5x) _._._._._._._._._._._._._._._
 72
    65
 73
     4
 40
12.7
 49
6.349999999999997
 74
     0
 49
-3.174999999999998
 74
     0
 49
0.0
 74
     0
 49
-3.174999999999998
 74
     0
  0
LTYPE
  5
287
330
15
100
AcDbSymbolTableRecord
100
AcDbLinetypeTableRecord
  2
AM_ISO02W050
 70
     0
  3
__ __ __ __ __ __ __ __ __ __ __ __ __ __ __
 72
    65
 73
     2
 40
7.5
 49
6.0
 74
     0
 49
-1.5
 74
     0
  0
LTYPE
  5
299
330
15
100
AcDbSymbolTableRecord
100
AcDbLinetypeTableRecord
  2
ACDINWELD
 70
     0
  3
_ _ _ _ _
 72
    65
 73
     2
 40
2.0
 49
2.0
 74
     0
 49
-1.0
 74
     0
  0
LTYPE
  5
29C
330
15
100
AcDbSymbolTableRecord
100
AcDbLinetypeTableRecord
  2
ACDINTGB
 70
     0
  3
__ . . __ . .
 72
    65
 73
     6
 40
9.0
 49
4.0
 74
     0
 49
-1.0
 74
     0
 49
1.0
 74
     0
 49
-1.0
 74
     0
 49
1.0
 74
     0
 49
-1.0
 74
     0
  0
LTYPE
  5
29D
330
15
100
AcDbSymbolTableRecord
100
AcDbLinetypeTableRecord
  2
ACDINTGL
 70
     0
  3
_ _ _ _ _
 72
    65
 73
     2
 40
3.0
 49
2.0
 74
     0
 49
-1.0
 74
     0
  0
LTYPE
  5
2A1
330
15
100
AcDbSymbolTableRecord
100
AcDbLinetypeTableRecord
  2
CENTER
 70
     0
  3
__ . __
 72
    65
 73
     4
 40
7.0
 49
4.0
 74
     0
 49
-1.0
 74
     0
 49
1.0
 74
     0
 49
-1.0
 74
     0
  0
LTYPE
  5
282
330
15
100
AcDbSymbolTableRecord
100
AcDbLinetypeTableRecord
  2
gen3
 70
     0
  3
-- -- -- -- -- -- -- -- -- -- -- -- -- -- --
 72
    65
 73
     2
 40
6.25
 49
4.75
 74
     0
 49
-1.5
 74
     0
  0
LTYPE
  5
283
330
15
100
AcDbSymbolTableRecord
100
AcDbLinetypeTableRecord
  2
gen7
 70
     0
  3
____ . ____ . ____ . ____ . ____ . ____ . ____
 72
    65
 73
     4
 40
13.75
 49
9.75
 74
     0
 49
-1.5
 74
     0
 49
1.0
 74
     0
 49
-1.5
 74
     0
  0
LTYPE
  5
284
330
15
100
AcDbSymbolTableRecord
100
AcDbLinetypeTableRecord
  2
gen3a
 70
     0
  3
 - - - - -
 72
    65
 73
     2
 40
3.125
 49
2.25
 74
     0
 49
-0.875
 74
     0
  0
LTYPE
  5
285
330
15
100
AcDbSymbolTableRecord
100
AcDbLinetypeTableRecord
  2
gen7a
 70
     0
  3
__ . __ . __
 72
    65
 73
     4
 40
6.875
 49
4.75
 74
     0
 49
-0.875
 74
     0
 49
0.375
 74
     0
 49
-0.875
 74
     0
  0
LTYPE
  5
286
330
15
100
AcDbSymbolTableRecord
100
AcDbLinetypeTableRecord
  2
gen4a
 70
     0
  3
_____ . . _____ . . _____ . . ____ .. ____
 72
    65
 73
     6
 40
16.25
 49
9.75
 74
     0
 49
-1.5
 74
     0
 49
1.0
 74
     0
 49
-1.5
 74
     0
 49
1.0
 74
     0
 49
-1.5
 74
     0
  0
LTYPE
  5
288
330
15
100
AcDbSymbolTableRecord
100
AcDbLinetypeTableRecord
  2
genzigzag
 70
     0
  3
/\/-/\/-/\/-/\/-/\/-/\/
 72
    65
 73
     2
 40
12.0001
 49
0.0001
 74
     4
 75
   135
340
289
 46
2.0
 50
0.0
 44
0.0
 45
0.0
 49
-12.0
 74
     0
  0
LTYPE
  5
30E
330
15
100
AcDbSymbolTableRecord
100
AcDbLinetypeTableRecord
  2
HIDDEN
 70
     0
  3
Hidden __ __ __ __ __ __ __ __ __ __ __ __ __ __
 72
    65
 73
     2
 40
9.525
 49
6.349999999999998
 74
     0
 49
-3.174999999999998
 74
     0
  0
LTYPE
  5
30F
330
15
100
AcDbSymbolTableRecord
100
AcDbLinetypeTableRecord
  2
PHANTOM2
 70
     0
  3
Phantom (.5x) ___ _ _ ___ _ _ ___ _ _ ___ _ _
 72
    65
 73
     6
 40
31.75
 49
15.875
 74
     0
 49
-3.174999999999998
 74
     0
 49
3.174999999999998
 74
     0
 49
-3.174999999999998
 74
     0
 49
3.174999999999998
 74
     0
 49
-3.174999999999998
 74
     0
  0
ENDTAB
  0
TABLE
  2
LAYER
  5
11
102
{ACAD_XDICTIONARY
360
42A
102
}
330
0
100
AcDbSymbolTable
 70
     8
  0
LAYER
  5
5
102
{ACAD_XDICTIONARY
360
419
102
}
330
11
100
AcDbSymbolTableRecord
100
AcDbLayerTableRecord
  2
0
 70
     0
 62
     7
  6
CONTINUOUS
370
    -3
390
6
347
2C1
348
0
  0
LAYER
  5
5A
102
{ACAD_XDICTIONARY
360
41B
102
}
330
11
100
AcDbSymbolTableRecord
100
AcDbLayerTableRecord
  2
ACHSEN
 70
     0
 62
    12
  6
STRICHPUNKT2
370
    -3
390
6
347
2C1
348
0
  0
LAYER
  5
27
102
{ACAD_XDICTIONARY
360
41D
102
}
330
11
100
AcDbSymbolTableRecord
100
AcDbLayerTableRecord
  2
BEMASSUNG
 70
     0
 62
     2
  6
CONTINUOUS
370
    -3
390
6
347
2C1
348
0
  0
LAYER
  5
34
330
11
100
AcDbSymbolTableRecord
100
AcDbLayerTableRecord
  2
DEFPOINTS
 70
     0
 62
     7
  6
CONTINUOUS
290
     0
370
    -3
390
6
347
2C1
348
0
  0
LAYER
  5
1BB
102
{ACAD_XDICTIONARY
360
41F
102
}
330
11
100
AcDbSymbolTableRecord
100
AcDbLayerTableRecord
  2
LAYER1
 70
     0
 62
     3
  6
CONTINUOUS
370
    -3
390
6
347
2C1
348
0
  0
LAYER
  5
47
102
{ACAD_XDICTIONARY
360
421
102
}
330
11
100
AcDbSymbolTableRecord
100
AcDbLayerTableRecord
  2
LAYER3
 70
     0
 62
     4
  6
CONTINUOUS
370
    -3
390
6
347
2C1
348
0
  0
LAYER
  5
BA
102
{ACAD_XDICTIONARY
360
423
102
}
330
11
100
AcDbSymbolTableRecord
100
AcDbLayerTableRecord
  2
BEMASSUNG-DEUTSCH
 70
     0
 62
     3
  6
CONTINUOUS
370
    -3
390
6
347
2C1
348
0
  0
LAYER
  5
3A5
102
{ACAD_XDICTIONARY
360
425
102
}
330
11
100
AcDbSymbolTableRecord
100
AcDbLayerTableRecord
  2
AM_5
 70
     0
 62
     3
  6
CONTINUOUS
370
    25
390
6
347
2C1
348
0
1001
AcAecLayerStandard
1000

1000

  0
ENDTAB
  0
TABLE
  2
STYLE
  5
12
330
0
100
AcDbSymbolTable
 70
     7
  0
STYLE
  5
13
330
12
100
AcDbSymbolTableRecord
100
AcDbTextStyleTableRecord
  2
STANDARD
 70
     0
 40
0.0
 41
1.0
 50
0.0
 71
     0
 42
10.0
  3
txt
  4

  0
STYLE
  5
20
330
12
100
AcDbSymbolTableRecord
100
AcDbTextStyleTableRecord
  2
ARIAL-STANDARD
 70
     0
 40
0.0
 41
1.0
 50
0.0
 71
     0
 42
3.5
  3
ARIAL.TTF
  4

1001
ACAD
1000
Arial
1071
       34
  0
STYLE
  5
2B
330
12
100
AcDbSymbolTableRecord
100
AcDbTextStyleTableRecord
  2
NORM
 70
     0
 40
0.0
 41
1.0
 50
0.0
 71
     0
 42
2.399999999999999
  3
SIMPLEX
  4

  0
STYLE
  5
293
330
12
100
AcDbSymbolTableRecord
100
AcDbTextStyleTableRecord
  2
ACDINTS
 70
     0
 40
1.0
 41
1.0
 50
0.0
 71
     0
 42
3.5
  3
isocp.shx
  4

  0
STYLE
  5
297
330
12
100
AcDbSymbolTableRecord
100
AcDbTextStyleTableRecord
  2
ACDINGDT
 70
     0
 40
0.0
 41
1.0
 50
0.0
 71
     0
 42
3.5
  3
amgdt.shx
  4

  0
STYLE
  5
289
330
12
100
AcDbSymbolTableRecord
100
AcDbTextStyleTableRecord
  2

 70
     1
 40
0.0
 41
1.0
 50
0.0
 71
     0
 42
3.5
  3
genltshp.shx
  4

  0
STYLE
  5
22
330
12
100
AcDbSymbolTableRecord
100
AcDbTextStyleTableRecord
  2
WMF
 70
     0
 40
6.5
 41
1.0
 50
0.0
 71
     0
 42
6.5
  3
ARIAL.TTF
  4

1001
ACAD
1000
Arial
1071
       34
  0
ENDTAB
  0
TABLE
  2
VIEW
  5
18
330
0
100
AcDbSymbolTable
 70
     0
  0
ENDTAB
  0
TABLE
  2
UCS
  5
19
330
0
100
AcDbSymbolTable
 70
     0
  0
ENDTAB
  0
TABLE
  2
APPID
  5
1C
330
0
100
AcDbSymbolTable
 70
    13
  0
APPID
  5
1D
330
1C
100
AcDbSymbolTableRecord
100
AcDbRegAppTableRecord
  2
ACAD
 70
     0
  0
APPID
  5
307
330
1C
100
AcDbSymbolTableRecord
100
AcDbRegAppTableRecord
  2
MCAD_NO_VIS
 70
     0
  0
APPID
  5
308
330
1C
100
AcDbSymbolTableRecord
100
AcDbRegAppTableRecord
  2
ACAD_TEMP_GRAPHIC
 70
     0
  0
APPID
  5
314
330
1C
100
AcDbSymbolTableRecord
100
AcDbRegAppTableRecord
  2
ACATTRIBSERVICES
 70
     0
  0
APPID
  5
32C
330
1C
100
AcDbSymbolTableRecord
100
AcDbRegAppTableRecord
  2
DESIGNERASSEMBLIES
 70
     0
  0
APPID
  5
345
330
1C
100
AcDbSymbolTableRecord
100
AcDbRegAppTableRecord
  2
ACAD_DSTYLE_DIMJAG
 70
     0
  0
APPID
  5
346
330
1C
100
AcDbSymbolTableRecord
100
AcDbRegAppTableRecord
  2
ACAD_DSTYLE_DIMBREAK
 70
     0
  0
APPID
  5
36E
330
1C
100
AcDbSymbolTableRecord
100
AcDbRegAppTableRecord
  2
ACAD_NAV_VCDISPLAY
 70
     0
  0
APPID
  5
39C
330
1C
100
AcDbSymbolTableRecord
100
AcDbRegAppTableRecord
  2
ACAD_EXEMPT_FROM_CAD_STANDARDS
 70
     0
  0
APPID
  5
3A6
330
1C
100
AcDbSymbolTableRecord
100
AcDbRegAppTableRecord
  2
AcAecLayerStandard
 70
     0
  0
APPID
  5
3BC
330
1C
100
AcDbSymbolTableRecord
100
AcDbRegAppTableRecord
  2
GENIUS_GENDTOL_13
 70
     0
  0
APPID
  5
3BD
330
1C
100
AcDbSymbolTableRecord
100
AcDbRegAppTableRecord
  2
ACAD_DSTYLE_DIMINSPECT
 70
     0
  0
APPID
  5
3C4
330
1C
100
AcDbSymbolTableRecord
100
AcDbRegAppTableRecord
  2
ACAD_DSTYLE_DIMRADIAL_EXTENSION
 70
     0
  0
ENDTAB
  0
TABLE
  2
DIMSTYLE
  5
1E
330
0
100
AcDbSymbolTable
 70
    10
100
AcDbDimStyleTable
 71
     3
340
344
340
1F
340
21
  0
DIMSTYLE
105
1F
330
1E
100
AcDbSymbolTableRecord
100
AcDbDimStyleTableRecord
  2
NORMAL
 70
     0
 41
3.5
 42
0.0
 43
8.0
 44
0.5
 73
     0
 74
     0
 77
     1
 78
     8
140
3.5
141
1.5
146
0.5
147
1.0
172
     1
174
     1
176
   256
177
   256
178
     3
271
     2
272
     2
279
     2
284
     8
340
20
  0
DIMSTYLE
105
2A
102
{ACAD_REACTORS
330
EE
330
29
330
1A8
330
173
330
165
330
39
330
116
330
14C
330
C7
330
AC
330
B9
330
DA
330
78
330
87
330
1E4
330
1CB
330
1BA
330
4A
330
23C
330
19A
330
22E
330
5D
330
6A
330
FC
330
9F
330
256
102
}
330
1E
100
AcDbSymbolTableRecord
100
AcDbDimStyleTableRecord
  2
PROSPEKT
 70
     0
 40
1.5
 41
3.5
 42
0.5
 43
8.0
 44
1.3
 73
     0
 74
     0
 77
     1
 78
     8
140
3.5
141
1.5
143
25.39999999999999
146
0.5
147
1.0
172
     1
174
     1
176
     2
177
     2
178
     3
271
     2
272
     2
279
     2
284
     8
285
     8
286
     8
340
2B
  0
DIMSTYLE
105
21
330
1E
100
AcDbSymbolTableRecord
100
AcDbDimStyleTableRecord
  2
WMF
 70
     0
 40
1.9
 41
2.799999999999998
 42
1.0
 43
0.0
 44
1.0
 73
     0
 74
     0
 77
     1
 78
     8
140
3.5
141
1.5
146
0.5
147
1.0
172
     1
174
     1
176
     7
177
     7
178
     7
271
     2
272
     2
279
     2
284
     8
285
     8
286
     8
340
22
  0
DIMSTYLE
105
344
102
{ACAD_REACTORS
330
472
102
}
330
1E
100
AcDbSymbolTableRecord
100
AcDbDimStyleTableRecord
  2
AM_DIN
 70
     0
  4
"
 41
3.5
 42
1.0
 43
10.0
 44
1.0
 47
0.1
 48
0.1
 50
90.0
 73
     0
 74
     0
 77
     1
 78
     8
 79
     2
140
3.5
141
0.0
143
0.0393701
146
0.71
147
1.5
172
     1
176
   256
177
   256
178
     2
271
     2
272
     3
274
     4
283
     0
284
     8
340
13
345
16
346
16
347
16
371
    -1
372
    -1
1001
ACAD_DSTYLE_DIMJAG
1070
   388
1040
1.5
1001
ACAD_DSTYLE_DIMBREAK
1070
   391
1040
3.75
  0
DIMSTYLE
105
348
330
1E
100
AcDbSymbolTableRecord
100
AcDbDimStyleTableRecord
  2
AM_DIN$3
 70
     0
  4
"
 41
3.5
 42
1.0
 43
10.0
 44
1.0
 47
0.1
 48
0.1
 50
90.0
 73
     0
 77
     1
 78
     8
 79
     2
140
3.5
141
0.0
143
0.0393701
146
0.71
147
1.5
176
   256
177
   256
178
     2
271
     2
272
     3
274
     4
283
     0
284
     8
288
     1
289
     0
340
13
345
16
346
16
347
16
371
    -1
372
    -1
1001
ACAD_DSTYLE_DIMBREAK
1070
   391
1040
3.75
1001
ACAD_DSTYLE_DIMJAG
1070
   388
1040
1.5
  0
DIMSTYLE
105
349
330
1E
100
AcDbSymbolTableRecord
100
AcDbDimStyleTableRecord
  2
AM_DIN$4
 70
     0
  4
"
 41
3.5
 42
1.0
 43
10.0
 44
1.0
 47
0.1
 48
0.1
 50
90.0
 73
     0
 74
     0
 77
     1
 78
     8
 79
     2
140
3.5
141
0.0
143
0.0393701
146
0.71
147
1.5
172
     1
176
   256
177
   256
178
     2
271
     2
272
     3
274
     4
283
     0
284
     8
340
13
345
16
346
16
347
16
371
    -1
372
    -1
1001
ACAD_DSTYLE_DIMBREAK
1070
   391
1040
3.75
1001
ACAD_DSTYLE_DIMJAG
1070
   388
1040
1.5
  0
DIMSTYLE
105
34A
330
1E
100
AcDbSymbolTableRecord
100
AcDbDimStyleTableRecord
  2
AM_DIN$6
 70
     0
  4
"
 41
3.5
 42
1.0
 43
10.0
 44
1.0
 47
0.1
 48
0.1
 50
90.0
 73
     0
 74
     0
 78
     8
 79
     2
140
3.5
141
0.0
143
0.0393701
146
0.71
147
1.5
172
     1
176
   256
177
   256
178
     2
271
     2
272
     3
274
     4
283
     0
284
     8
340
13
345
16
346
16
347
16
371
    -1
372
    -1
1001
ACAD_DSTYLE_DIMBREAK
1070
   391
1040
3.75
1001
ACAD_DSTYLE_DIMJAG
1070
   388
1040
1.5
  0
DIMSTYLE
105
34B
330
1E
100
AcDbSymbolTableRecord
100
AcDbDimStyleTableRecord
  2
AM_DIN$7
 70
     0
  4
"
 41
3.5
 42
1.0
 43
10.0
 44
1.0
 47
0.1
 48
0.1
 50
90.0
 73
     0
 74
     0
 77
     1
 78
     8
 79
     2
140
3.5
141
0.0
143
0.0393701
146
0.71
147
1.5
172
     1
176
   256
177
   256
178
     2
271
     2
272
     3
274
     4
283
     0
284
     8
340
13
345
16
346
16
347
16
371
    -1
372
    -1
1001
ACAD_DSTYLE_DIMBREAK
1070
   391
1040
3.75
1001
ACAD_DSTYLE_DIMJAG
1070
   388
1040
1.5
  0
DIMSTYLE
105
34C
330
1E
100
AcDbSymbolTableRecord
100
AcDbDimStyleTableRecord
  2
AM_DIN$SF
 70
     0
  4
"
 41
3.5
 42
1.0
 43
10.0
 44
1.0
 47
0.1
 48
0.1
 50
90.0
 73
     0
 74
     0
 75
     1
 76
     1
 77
     1
 78
     8
 79
     2
140
3.5
141
0.0
143
0.0393701
146
0.71
147
1.5
172
     1
176
   256
177
   256
178
     2
271
     2
272
     3
274
     4
283
     0
284
     8
340
13
345
16
346
16
347
16
371
    -1
372
    -1
1001
ACAD_DSTYLE_DIMBREAK
1070
   391
1040
3.75
1001
ACAD_DSTYLE_DIMJAG
1070
   388
1040
1.5
  0
DIMSTYLE
105
351
330
1E
100
AcDbSymbolTableRecord
100
AcDbDimStyleTableRecord
  2
AM_DIN$SH
 70
     0
  4
"
 41
3.5
 42
1.0
 43
10.0
 44
1.0
 47
0.1
 48
0.1
 50
90.0
 73
     0
 74
     0
 75
     1
 76
     1
 77
     1
 78
     8
 79
     2
140
3.5
141
0.0
143
0.0393701
144
2.0
146
0.71
147
1.5
172
     1
173
     1
176
   256
177
   256
178
     2
271
     2
272
     3
274
     4
283
     0
284
     8
340
13
343
34D
345
16
346
16
347
16
371
    -1
372
    -1
1001
ACAD_DSTYLE_DIMBREAK
1070
   391
1040
3.75
1001
ACAD_DSTYLE_DIMJAG
1070
   388
1040
1.5
  0
ENDTAB
  0
TABLE
  2
BLOCK_RECORD
  5
1
330
0
100
AcDbSymbolTable
 70
    30
  0
BLOCK_RECORD
  5
2
102
{ACAD_XDICTIONARY
360
3
102
}
330
1
100
AcDbSymbolTableRecord
100
AcDbBlockTableRecord
  2
*MODEL_SPACE
340
B
 70
     0
280
     1
281
     0
  0
BLOCK_RECORD
  5
D
330
1
100
AcDbSymbolTableRecord
100
AcDbBlockTableRecord
  2
*PAPER_SPACE
340
10
 70
     0
280
     1
281
     0
  0
BLOCK_RECORD
  5
6B
330
1
100
AcDbSymbolTableRecord
100
AcDbBlockTableRecord
  2
*D0
340
0
 70
     0
280
     1
281
     0
  0
BLOCK_RECORD
  5
5E
330
1
100
AcDbSymbolTableRecord
100
AcDbBlockTableRecord
  2
*D1
340
0
 70
     0
280
     1
281
     0
  0
BLOCK_RECORD
  5
4B
330
1
100
AcDbSymbolTableRecord
100
AcDbBlockTableRecord
  2
*D2
340
0
 70
     0
280
     1
281
     0
  0
BLOCK_RECORD
  5
3A
330
1
100
AcDbSymbolTableRecord
100
AcDbBlockTableRecord
  2
*D3
340
0
 70
     0
280
     1
281
     0
  0
BLOCK_RECORD
  5
2C
330
1
100
AcDbSymbolTableRecord
100
AcDbBlockTableRecord
  2
*D4
340
0
 70
     0
280
     1
281
     0
  0
BLOCK_RECORD
  5
88
330
1
100
AcDbSymbolTableRecord
100
AcDbBlockTableRecord
  2
*D5
340
0
 70
     0
280
     1
281
     0
  0
BLOCK_RECORD
  5
79
330
1
100
AcDbSymbolTableRecord
100
AcDbBlockTableRecord
  2
*D6
340
0
 70
     0
280
     1
281
     0
  0
BLOCK_RECORD
  5
C8
330
1
100
AcDbSymbolTableRecord
100
AcDbBlockTableRecord
  2
*D7
340
0
 70
     0
280
     1
281
     0
  0
BLOCK_RECORD
  5
166
330
1
100
AcDbSymbolTableRecord
100
AcDbBlockTableRecord
  2
*D8
340
0
 70
     0
280
     1
281
     0
  0
BLOCK_RECORD
  5
174
330
1
100
AcDbSymbolTableRecord
100
AcDbBlockTableRecord
  2
*D9
340
0
 70
     0
280
     1
281
     0
  0
BLOCK_RECORD
  5
BB
330
1
100
AcDbSymbolTableRecord
100
AcDbBlockTableRecord
  2
*D10
340
0
 70
     0
280
     1
281
     0
  0
BLOCK_RECORD
  5
AD
330
1
100
AcDbSymbolTableRecord
100
AcDbBlockTableRecord
  2
*D11
340
0
 70
     0
280
     1
281
     0
  0
BLOCK_RECORD
  5
DB
330
1
100
AcDbSymbolTableRecord
100
AcDbBlockTableRecord
  2
*D12
340
0
 70
     0
280
     1
281
     0
  0
BLOCK_RECORD
  5
117
330
1
100
AcDbSymbolTableRecord
100
AcDbBlockTableRecord
  2
*D13
340
0
 70
     0
280
     1
281
     0
  0
BLOCK_RECORD
  5
14D
330
1
100
AcDbSymbolTableRecord
100
AcDbBlockTableRecord
  2
*D14
340
0
 70
     0
280
     1
281
     0
  0
BLOCK_RECORD
  5
FD
330
1
100
AcDbSymbolTableRecord
100
AcDbBlockTableRecord
  2
*D15
340
0
 70
     0
280
     1
281
     0
  0
BLOCK_RECORD
  5
EF
330
1
100
AcDbSymbolTableRecord
100
AcDbBlockTableRecord
  2
*D16
340
0
 70
     0
280
     1
281
     0
  0
BLOCK_RECORD
  5
A0
330
1
100
AcDbSymbolTableRecord
100
AcDbBlockTableRecord
  2
*D17
340
0
 70
     0
280
     1
281
     0
  0
BLOCK_RECORD
  5
1BC
330
1
100
AcDbSymbolTableRecord
100
AcDbBlockTableRecord
  2
*D18
340
0
 70
     0
280
     1
281
     0
  0
BLOCK_RECORD
  5
1A9
330
1
100
AcDbSymbolTableRecord
100
AcDbBlockTableRecord
  2
*D19
340
0
 70
     0
280
     1
281
     0
  0
BLOCK_RECORD
  5
19B
330
1
100
AcDbSymbolTableRecord
100
AcDbBlockTableRecord
  2
*D20
340
0
 70
     0
280
     1
281
     0
  0
BLOCK_RECORD
  5
1CC
330
1
100
AcDbSymbolTableRecord
100
AcDbBlockTableRecord
  2
*D21
340
0
 70
     0
280
     1
281
     0
  0
BLOCK_RECORD
  5
1E5
330
1
100
AcDbSymbolTableRecord
100
AcDbBlockTableRecord
  2
*D22
340
0
 70
     0
280
     1
281
     0
  0
BLOCK_RECORD
  5
22F
330
1
100
AcDbSymbolTableRecord
100
AcDbBlockTableRecord
  2
*D23
340
0
 70
     0
280
     1
281
     0
  0
BLOCK_RECORD
  5
23D
330
1
100
AcDbSymbolTableRecord
100
AcDbBlockTableRecord
  2
*D24
340
0
 70
     0
280
     1
281
     0
  0
BLOCK_RECORD
  5
257
330
1
100
AcDbSymbolTableRecord
100
AcDbBlockTableRecord
  2
*D25
340
0
 70
     0
280
     1
281
     0
  0
BLOCK_RECORD
  5
34D
330
1
100
AcDbSymbolTableRecord
100
AcDbBlockTableRecord
  2
GENAXEH
340
0
 70
     0
280
     1
281
     0
  0
BLOCK_RECORD
  5
35E
330
1
100
AcDbSymbolTableRecord
100
AcDbBlockTableRecord
  2
_ACMFILLED30
340
0
 70
     0
280
     1
281
     0
  0
BLOCK_RECORD
  5
3AB
330
1
100
AcDbSymbolTableRecord
100
AcDbBlockTableRecord
  2
*D28
340
0
 70
     0
280
     1
281
     0
  0
ENDTAB
  0
ENDSEC
  0
SECTION
  2
BLOCKS
  0
BLOCK
  5
4
330
2
100
AcDbEntity
  8
0
100
AcDbBlockBegin
  2
*MODEL_SPACE
 70
     0
 10
0.0
 20
0.0
 30
0.0
  3
*MODEL_SPACE
  1

  0
ENDBLK
  5
A
330
2
100
AcDbEntity
  8
0
100
AcDbBlockEnd
  0
BLOCK
  5
E
330
D
100
AcDbEntity
 67
     1
  8
0
100
AcDbBlockBegin
  2
*PAPER_SPACE
 70
     0
 10
0.0
 20
0.0
 30
0.0
  3
*PAPER_SPACE
  1

  0
ENDBLK
  5
F
330
D
100
AcDbEntity
 67
     1
  8
0
100
AcDbBlockEnd
  0
BLOCK
  5
75
330
6B
100
AcDbEntity
  8
0
100
AcDbBlockBegin
  2
*D0
 70
     1
 10
0.0
 20
0.0
 30
0.0
  3
*D0
  1

  0
LINE
  5
6C
330
6B
100
AcDbEntity
  8
0
  6
ByBlock
 62
     2
440
 16777216
100
AcDbLine
 10
443.93858448245
 20
195.2582284456616
 30
0.0
 11
427.4885844824501
 21
195.2582284456616
 31
0.0
  0
LINE
  5
6D
330
6B
100
AcDbEntity
  8
0
  6
ByBlock
 62
     2
440
 16777216
100
AcDbLine
 10
443.93858448245
 20
443.2582284456616
 30
0.0
 11
427.4885844824501
 21
443.2582284456616
 31
0.0
  0
LINE
  5
6E
330
6B
100
AcDbEntity
  8
0
  6
ByBlock
 62
     2
440
 16777216
100
AcDbLine
 10
429.4385844824501
 20
200.5082284456616
 30
0.0
 11
429.4385844824501
 21
438.0082284456616
 31
0.0
  0
SOLID
  5
6F
330
6B
100
AcDbEntity
  8
0
  6
ByBlock
 62
     2
440
 16777216
100
AcDbTrace
 10
428.5635844824501
 20
200.5082284456616
 30
0.0
 11
430.3135844824501
 21
200.5082284456616
 31
0.0
 12
429.4385844824501
 22
195.2582284456616
 32
0.0
 13
429.4385844824501
 23
195.2582284456616
 33
0.0
  0
SOLID
  5
70
330
6B
100
AcDbEntity
  8
0
  6
ByBlock
 62
     2
440
 16777216
100
AcDbTrace
 10
428.5635844824501
 20
438.0082284456616
 30
0.0
 11
430.3135844824501
 21
438.0082284456616
 31
0.0
 12
429.4385844824501
 22
443.2582284456616
 32
0.0
 13
429.4385844824501
 23
443.2582284456616
 33
0.0
  0
MTEXT
  5
71
330
6B
100
AcDbEntity
  8
0
  6
ByBlock
 62
     3
440
 16777216
100
AcDbMText
 10
425.3135844824501
 20
319.2582284456616
 30
0.0
 40
5.25
 41
0.0
 46
0.0
 71
     5
 72
     1
  1
\A1;248
  7
NORM
 11
0.0000000000000001
 21
1.0
 31
0.0
 73
     1
 44
1.0
  0
POINT
  5
72
330
6B
100
AcDbEntity
  8
DEFPOINTS
  6
ByBlock
 62
     0
440
 16777216
100
AcDbPoint
 10
444.68858448245
 20
195.2582284456616
 30
0.0
  0
POINT
  5
73
330
6B
100
AcDbEntity
  8
DEFPOINTS
  6
ByBlock
 62
     0
440
 16777216
100
AcDbPoint
 10
444.68858448245
 20
443.2582284456616
 30
0.0
  0
POINT
  5
74
330
6B
100
AcDbEntity
  8
DEFPOINTS
  6
ByBlock
 62
     0
440
 16777216
100
AcDbPoint
 10
429.4385844824501
 20
443.2582284456616
 30
0.0
  0
ENDBLK
  5
76
330
6B
100
AcDbEntity
  8
0
100
AcDbBlockEnd
  0
BLOCK
  5
68
330
5E
100
AcDbEntity
  8
0
100
AcDbBlockBegin
  2
*D1
 70
     1
 10
0.0
 20
0.0
 30
0.0
  3
*D1
  1

  0
LINE
  5
5F
330
5E
100
AcDbEntity
  8
0
  6
ByBlock
 62
     2
440
 16777216
100
AcDbLine
 10
463.1885844824501
 20
453.2582284456616
 30
0.0
 11
475.3885844824503
 21
453.2582284456616
 31
0.0
  0
LINE
  5
60
330
5E
100
AcDbEntity
  8
0
  6
ByBlock
 62
     2
440
 16777216
100
AcDbLine
 10
463.1885844824501
 20
185.2582284456616
 30
0.0
 11
475.3885844824503
 21
185.2582284456616
 31
0.0
  0
LINE
  5
61
330
5E
100
AcDbEntity
  8
0
  6
ByBlock
 62
     2
440
 16777216
100
AcDbLine
 10
473.4385844824503
 20
448.0082284456615
 30
0.0
 11
473.4385844824503
 21
190.5082284456616
 31
0.0
  0
SOLID
  5
62
330
5E
100
AcDbEntity
  8
0
  6
ByBlock
 62
     2
440
 16777216
100
AcDbTrace
 10
472.5635844824503
 20
448.0082284456615
 30
0.0
 11
474.3135844824503
 21
448.0082284456615
 31
0.0
 12
473.4385844824503
 22
453.2582284456616
 32
0.0
 13
473.4385844824503
 23
453.2582284456616
 33
0.0
  0
SOLID
  5
63
330
5E
100
AcDbEntity
  8
0
  6
ByBlock
 62
     2
440
 16777216
100
AcDbTrace
 10
472.5635844824503
 20
190.5082284456616
 30
0.0
 11
474.3135844824503
 21
190.5082284456616
 31
0.0
 12
473.4385844824503
 22
185.2582284456616
 32
0.0
 13
473.4385844824503
 23
185.2582284456616
 33
0.0
  0
MTEXT
  5
64
330
5E
100
AcDbEntity
  8
0
  6
ByBlock
 62
     3
440
 16777216
100
AcDbMText
 10
469.3135844824503
 20
319.2582284456615
 30
0.0
 40
5.25
 41
0.0
 46
0.0
 71
     5
 72
     1
  1
\A1;268
  7
NORM
 11
0.0000000000000001
 21
1.0
 31
0.0
 73
     1
 44
1.0
  0
POINT
  5
65
330
5E
100
AcDbEntity
  8
DEFPOINTS
  6
ByBlock
 62
     0
440
 16777216
100
AcDbPoint
 10
462.4385844824501
 20
453.2582284456616
 30
0.0
  0
POINT
  5
66
330
5E
100
AcDbEntity
  8
DEFPOINTS
  6
ByBlock
 62
     0
440
 16777216
100
AcDbPoint
 10
462.4385844824501
 20
185.2582284456616
 30
0.0
  0
POINT
  5
67
330
5E
100
AcDbEntity
  8
DEFPOINTS
  6
ByBlock
 62
     0
440
 16777216
100
AcDbPoint
 10
473.4385844824503
 20
185.2582284456616
 30
0.0
  0
ENDBLK
  5
69
330
5E
100
AcDbEntity
  8
0
100
AcDbBlockEnd
  0
BLOCK
  5
55
330
4B
100
AcDbEntity
  8
0
100
AcDbBlockBegin
  2
*D2
 70
     1
 10
0.0
 20
0.0
 30
0.0
  3
*D2
  1

  0
LINE
  5
4C
330
4B
100
AcDbEntity
  8
0
  6
ByBlock
 62
     2
440
 16777216
100
AcDbLine
 10
292.795266080214
 20
295.2582284456616
 30
0.0
 11
272.595266080214
 21
295.2582284456616
 31
0.0
  0
LINE
  5
4D
330
4B
100
AcDbEntity
  8
0
  6
ByBlock
 62
     2
440
 16777216
100
AcDbLine
 10
292.795266080214
 20
327.2582284456616
 30
0.0
 11
272.595266080214
 21
327.2582284456616
 31
0.0
  0
LINE
  5
4E
330
4B
100
AcDbEntity
  8
0
  6
ByBlock
 62
     2
440
 16777216
100
AcDbLine
 10
274.5452660802141
 20
300.5082284456616
 30
0.0
 11
274.5452660802141
 21
322.0082284456617
 31
0.0
  0
SOLID
  5
4F
330
4B
100
AcDbEntity
  8
0
  6
ByBlock
 62
     2
440
 16777216
100
AcDbTrace
 10
273.6702660802141
 20
300.5082284456616
 30
0.0
 11
275.4202660802141
 21
300.5082284456616
 31
0.0
 12
274.5452660802141
 22
295.2582284456616
 32
0.0
 13
274.5452660802141
 23
295.2582284456616
 33
0.0
  0
SOLID
  5
50
330
4B
100
AcDbEntity
  8
0
  6
ByBlock
 62
     2
440
 16777216
100
AcDbTrace
 10
273.6702660802141
 20
322.0082284456617
 30
0.0
 11
275.4202660802141
 21
322.0082284456617
 31
0.0
 12
274.5452660802141
 22
327.2582284456616
 32
0.0
 13
274.5452660802141
 23
327.2582284456616
 33
0.0
  0
MTEXT
  5
51
330
4B
100
AcDbEntity
  8
0
  6
ByBlock
 62
     3
440
 16777216
100
AcDbMText
 10
270.4202660802141
 20
311.2582284456617
 30
0.0
 40
5.25
 41
0.0
 46
0.0
 71
     5
 72
     1
  1
\A1;32
  7
NORM
 11
0.0000000000000001
 21
1.0
 31
0.0
 73
     1
 44
1.0
  0
POINT
  5
52
330
4B
100
AcDbEntity
  8
DEFPOINTS
  6
ByBlock
 62
     0
440
 16777216
100
AcDbPoint
 10
293.5452660802141
 20
295.2582284456616
 30
0.0
  0
POINT
  5
53
330
4B
100
AcDbEntity
  8
DEFPOINTS
  6
ByBlock
 62
     0
440
 16777216
100
AcDbPoint
 10
293.5452660802141
 20
327.2582284456616
 30
0.0
  0
POINT
  5
54
330
4B
100
AcDbEntity
  8
DEFPOINTS
  6
ByBlock
 62
     0
440
 16777216
100
AcDbPoint
 10
274.5452660802141
 20
327.2582284456616
 30
0.0
  0
ENDBLK
  5
56
330
4B
100
AcDbEntity
  8
0
100
AcDbBlockEnd
  0
BLOCK
  5
44
330
3A
100
AcDbEntity
  8
0
100
AcDbBlockBegin
  2
*D3
 70
     1
 10
0.0
 20
0.0
 30
0.0
  3
*D3
  1

  0
LINE
  5
3B
330
3A
100
AcDbEntity
  8
0
  6
ByBlock
 62
     2
440
 16777216
100
AcDbLine
 10
356.7952660802142
 20
212.2582284456616
 30
0.0
 11
396.4720183332222
 21
212.2582284456616
 31
0.0
  0
LINE
  5
3C
330
3A
100
AcDbEntity
  8
0
  6
ByBlock
 62
     2
440
 16777216
100
AcDbLine
 10
356.7952660802142
 20
426.2582284456617
 30
0.0
 11
396.4720183332222
 21
426.2582284456617
 31
0.0
  0
LINE
  5
3D
330
3A
100
AcDbEntity
  8
0
  6
ByBlock
 62
     2
440
 16777216
100
AcDbLine
 10
394.5220183332224
 20
217.5082284456616
 30
0.0
 11
394.5220183332224
 21
421.0082284456617
 31
0.0
  0
SOLID
  5
3E
330
3A
100
AcDbEntity
  8
0
  6
ByBlock
 62
     2
440
 16777216
100
AcDbTrace
 10
393.6470183332223
 20
217.5082284456616
 30
0.0
 11
395.3970183332224
 21
217.5082284456616
 31
0.0
 12
394.5220183332224
 22
212.2582284456616
 32
0.0
 13
394.5220183332224
 23
212.2582284456616
 33
0.0
  0
SOLID
  5
3F
330
3A
100
AcDbEntity
  8
0
  6
ByBlock
 62
     2
440
 16777216
100
AcDbTrace
 10
393.6470183332223
 20
421.0082284456617
 30
0.0
 11
395.3970183332224
 21
421.0082284456617
 31
0.0
 12
394.5220183332224
 22
426.2582284456617
 32
0.0
 13
394.5220183332224
 23
426.2582284456617
 33
0.0
  0
MTEXT
  5
40
330
3A
100
AcDbEntity
  8
0
  6
ByBlock
 62
     3
440
 16777216
100
AcDbMText
 10
390.3970183332223
 20
319.2582284456617
 30
0.0
 40
5.25
 41
0.0
 46
0.0
 71
     5
 72
     1
  1
\A1;214
  7
NORM
 11
0.0000000000000001
 21
1.0
 31
0.0
 73
     1
 44
1.0
  0
POINT
  5
41
330
3A
100
AcDbEntity
  8
DEFPOINTS
  6
ByBlock
 62
     0
440
 16777216
100
AcDbPoint
 10
356.0452660802142
 20
212.2582284456616
 30
0.0
  0
POINT
  5
42
330
3A
100
AcDbEntity
  8
DEFPOINTS
  6
ByBlock
 62
     0
440
 16777216
100
AcDbPoint
 10
356.0452660802142
 20
426.2582284456617
 30
0.0
  0
POINT
  5
43
330
3A
100
AcDbEntity
  8
DEFPOINTS
  6
ByBlock
 62
     0
440
 16777216
100
AcDbPoint
 10
394.5220183332224
 20
426.2582284456617
 30
0.0
  0
ENDBLK
  5
45
330
3A
100
AcDbEntity
  8
0
100
AcDbBlockEnd
  0
BLOCK
  5
37
330
2C
100
AcDbEntity
  8
0
100
AcDbBlockBegin
  2
*D4
 70
     1
 10
0.0
 20
0.0
 30
0.0
  3
*D4
  1

  0
LINE
  5
2D
330
2C
100
AcDbEntity
  8
0
  6
ByBlock
 62
     2
440
 16777216
100
AcDbLine
 10
352.395266080214
 20
290.2582284456617
 30
0.0
 11
384.2392559532676
 21
290.2582284456617
 31
0.0
  0
LINE
  5
2E
330
2C
100
AcDbEntity
  8
0
  6
ByBlock
 62
     2
440
 16777216
100
AcDbLine
 10
352.2952660802141
 20
368.2582284456616
 30
0.0
 11
384.2392559532676
 21
368.2582284456616
 31
0.0
  0
LINE
  5
2F
330
2C
100
AcDbEntity
  8
0
  6
ByBlock
 62
     2
440
 16777216
100
AcDbLine
 10
382.2892559532677
 20
295.5082284456617
 30
0.0
 11
382.2892559532677
 21
363.0082284456616
 31
0.0
  0
SOLID
  5
30
330
2C
100
AcDbEntity
  8
0
  6
ByBlock
 62
     2
440
 16777216
100
AcDbTrace
 10
381.4142559532676
 20
295.5082284456617
 30
0.0
 11
383.1642559532676
 21
295.5082284456617
 31
0.0
 12
382.2892559532677
 22
290.2582284456617
 32
0.0
 13
382.2892559532677
 23
290.2582284456617
 33
0.0
  0
SOLID
  5
31
330
2C
100
AcDbEntity
  8
0
  6
ByBlock
 62
     2
440
 16777216
100
AcDbTrace
 10
381.4142559532676
 20
363.0082284456616
 30
0.0
 11
383.1642559532676
 21
363.0082284456616
 31
0.0
 12
382.2892559532677
 22
368.2582284456616
 32
0.0
 13
382.2892559532677
 23
368.2582284456616
 33
0.0
  0
MTEXT
  5
32
330
2C
100
AcDbEntity
  8
0
  6
ByBlock
 62
     3
440
 16777216
100
AcDbMText
 10
378.1642559532676
 20
329.2582284456616
 30
0.0
 40
5.25
 41
0.0
 46
0.0
 71
     5
 72
     1
  1
\A1;78
  7
NORM
 11
0.0000000000000001
 21
1.0
 31
0.0
 73
     1
 44
1.0
  0
POINT
  5
33
330
2C
100
AcDbEntity
  8
DEFPOINTS
  6
ByBlock
 62
     0
440
 16777216
100
AcDbPoint
 10
351.645266080214
 20
290.2582284456617
 30
0.0
  0
POINT
  5
35
330
2C
100
AcDbEntity
  8
DEFPOINTS
  6
ByBlock
 62
     0
440
 16777216
100
AcDbPoint
 10
351.5452660802142
 20
368.2582284456616
 30
0.0
  0
POINT
  5
36
330
2C
100
AcDbEntity
  8
DEFPOINTS
  6
ByBlock
 62
     0
440
 16777216
100
AcDbPoint
 10
382.2892559532677
 20
368.2582284456616
 30
0.0
  0
ENDBLK
  5
38
330
2C
100
AcDbEntity
  8
0
100
AcDbBlockEnd
  0
BLOCK
  5
94
330
88
100
AcDbEntity
  8
0
100
AcDbBlockBegin
  2
*D5
 70
     1
 10
0.0
 20
0.0
 30
0.0
  3
*D5
  1

  0
LINE
  5
89
330
88
100
AcDbEntity
  8
0
  6
ByBlock
 62
     2
440
 16777216
100
AcDbLine
 10
294.7366365936181
 20
130.3466759494075
 30
0.0
 11
287.6431467989434
 21
130.3466759494075
 31
0.0
  0
LINE
  5
8A
330
88
100
AcDbEntity
  8
0
  6
ByBlock
 62
     2
440
 16777216
100
AcDbLine
 10
294.7366365936181
 20
121.3466759494076
 30
0.0
 11
287.6431467989434
 21
121.3466759494076
 31
0.0
  0
LINE
  5
8B
330
88
100
AcDbEntity
  8
0
  6
ByBlock
 62
     2
440
 16777216
100
AcDbLine
 10
289.5931467989435
 20
135.5966759494075
 30
0.0
 11
289.5931467989435
 21
140.8466759494075
 31
0.0
  0
LINE
  5
8C
330
88
100
AcDbEntity
  8
0
  6
ByBlock
 62
     2
440
 16777216
100
AcDbLine
 10
289.5931467989435
 20
116.0966759494076
 30
0.0
 11
289.5931467989435
 21
110.8466759494076
 31
0.0
  0
LINE
  5
8D
330
88
100
AcDbEntity
  8
0
  6
ByBlock
 62
     2
440
 16777216
100
AcDbLine
 10
289.5931467989435
 20
130.3466759494075
 30
0.0
 11
289.5931467989435
 21
121.3466759494076
 31
0.0
  0
SOLID
  5
8E
330
88
100
AcDbEntity
  8
0
  6
ByBlock
 62
     2
440
 16777216
100
AcDbTrace
 10
288.7181467989435
 20
135.5966759494075
 30
0.0
 11
290.4681467989435
 21
135.5966759494075
 31
0.0
 12
289.5931467989435
 22
130.3466759494075
 32
0.0
 13
289.5931467989435
 23
130.3466759494075
 33
0.0
  0
SOLID
  5
8F
330
88
100
AcDbEntity
  8
0
  6
ByBlock
 62
     2
440
 16777216
100
AcDbTrace
 10
288.7181467989435
 20
116.0966759494076
 30
0.0
 11
290.4681467989435
 21
116.0966759494076
 31
0.0
 12
289.5931467989435
 22
121.3466759494076
 32
0.0
 13
289.5931467989435
 23
121.3466759494076
 33
0.0
  0
MTEXT
  5
90
330
88
100
AcDbEntity
  8
0
  6
ByBlock
 62
     3
440
 16777216
100
AcDbMText
 10
285.4681467989435
 20
125.8466759494075
 30
0.0
 40
5.25
 41
0.0
 46
0.0
 71
     5
 72
     1
  1
\A1;9
  7
NORM
 11
0.0000000000000001
 21
1.0
 31
0.0
 73
     1
 44
1.0
  0
POINT
  5
91
330
88
100
AcDbEntity
  8
DEFPOINTS
  6
ByBlock
 62
     0
440
 16777216
100
AcDbPoint
 10
295.4866365936181
 20
130.3466759494075
 30
0.0
  0
POINT
  5
92
330
88
100
AcDbEntity
  8
DEFPOINTS
  6
ByBlock
 62
     0
440
 16777216
100
AcDbPoint
 10
295.4866365936181
 20
121.3466759494076
 30
0.0
  0
POINT
  5
93
330
88
100
AcDbEntity
  8
DEFPOINTS
  6
ByBlock
 62
     0
440
 16777216
100
AcDbPoint
 10
289.5931467989435
 20
121.3466759494076
 30
0.0
  0
ENDBLK
  5
95
330
88
100
AcDbEntity
  8
0
100
AcDbBlockEnd
  0
BLOCK
  5
85
330
79
100
AcDbEntity
  8
0
100
AcDbBlockBegin
  2
*D6
 70
     1
 10
0.0
 20
0.0
 30
0.0
  3
*D6
  1

  0
LINE
  5
7A
330
79
100
AcDbEntity
  8
0
  6
ByBlock
 62
     2
440
 16777216
100
AcDbLine
 10
294.7366365936181
 20
132.3466759494075
 30
0.0
 11
269.8067879229609
 21
132.3466759494075
 31
0.0
  0
LINE
  5
7B
330
79
100
AcDbEntity
  8
0
  6
ByBlock
 62
     2
440
 16777216
100
AcDbLine
 10
304.7952660802141
 20
119.3466759494075
 30
0.0
 11
269.8067879229609
 21
119.3466759494075
 31
0.0
  0
LINE
  5
7C
330
79
100
AcDbEntity
  8
0
  6
ByBlock
 62
     2
440
 16777216
100
AcDbLine
 10
271.7567879229609
 20
137.5966759494075
 30
0.0
 11
271.7567879229609
 21
142.8466759494075
 31
0.0
  0
LINE
  5
7D
330
79
100
AcDbEntity
  8
0
  6
ByBlock
 62
     2
440
 16777216
100
AcDbLine
 10
271.7567879229609
 20
114.0966759494075
 30
0.0
 11
271.7567879229609
 21
108.8466759494075
 31
0.0
  0
LINE
  5
7E
330
79
100
AcDbEntity
  8
0
  6
ByBlock
 62
     2
440
 16777216
100
AcDbLine
 10
271.7567879229609
 20
132.3466759494075
 30
0.0
 11
271.7567879229609
 21
119.3466759494075
 31
0.0
  0
SOLID
  5
7F
330
79
100
AcDbEntity
  8
0
  6
ByBlock
 62
     2
440
 16777216
100
AcDbTrace
 10
270.8817879229609
 20
137.5966759494075
 30
0.0
 11
272.6317879229609
 21
137.5966759494075
 31
0.0
 12
271.7567879229609
 22
132.3466759494075
 32
0.0
 13
271.7567879229609
 23
132.3466759494075
 33
0.0
  0
SOLID
  5
80
330
79
100
AcDbEntity
  8
0
  6
ByBlock
 62
     2
440
 16777216
100
AcDbTrace
 10
270.8817879229609
 20
114.0966759494075
 30
0.0
 11
272.6317879229609
 21
114.0966759494075
 31
0.0
 12
271.7567879229609
 22
119.3466759494075
 32
0.0
 13
271.7567879229609
 23
119.3466759494075
 33
0.0
  0
MTEXT
  5
81
330
79
100
AcDbEntity
  8
0
  6
ByBlock
 62
     3
440
 16777216
100
AcDbMText
 10
267.6317879229609
 20
125.8466759494075
 30
0.0
 40
5.25
 41
0.0
 46
0.0
 71
     5
 72
     1
  1
\A1;13
  7
NORM
 11
0.0000000000000001
 21
1.0
 31
0.0
 73
     1
 44
1.0
  0
POINT
  5
82
330
79
100
AcDbEntity
  8
DEFPOINTS
  6
ByBlock
 62
     0
440
 16777216
100
AcDbPoint
 10
295.4866365936181
 20
132.3466759494075
 30
0.0
  0
POINT
  5
83
330
79
100
AcDbEntity
  8
DEFPOINTS
  6
ByBlock
 62
     0
440
 16777216
100
AcDbPoint
 10
305.5452660802141
 20
119.3466759494075
 30
0.0
  0
POINT
  5
84
330
79
100
AcDbEntity
  8
DEFPOINTS
  6
ByBlock
 62
     0
440
 16777216
100
AcDbPoint
 10
271.7567879229609
 20
119.3466759494075
 30
0.0
  0
ENDBLK
  5
86
330
79
100
AcDbEntity
  8
0
100
AcDbBlockEnd
  0
BLOCK
  5
D2
330
C8
100
AcDbEntity
  8
0
100
AcDbBlockBegin
  2
*D7
 70
     1
 10
0.0
 20
0.0
 30
0.0
  3
*D7
  1

  0
LINE
  5
C9
330
C8
100
AcDbEntity
  8
0
  6
ByBlock
 62
     2
440
 16777216
100
AcDbLine
 10
340.545266080214
 20
211.6010356038047
 30
0.0
 11
340.545266080214
 21
167.3770849259729
 31
0.0
  0
LINE
  5
CA
330
C8
100
AcDbEntity
  8
0
  6
ByBlock
 62
     2
440
 16777216
100
AcDbLine
 10
356.0452660802142
 20
211.5082284456616
 30
0.0
 11
356.0452660802142
 21
167.3770849259729
 31
0.0
  0
LINE
  5
CB
330
C8
100
AcDbEntity
  8
0
  6
ByBlock
 62
     2
440
 16777216
100
AcDbLine
 10
345.7952660802142
 20
169.3270849259729
 30
0.0
 11
350.795266080214
 21
169.3270849259729
 31
0.0
  0
MTEXT
  5
CC
330
C8
100
AcDbEntity
  8
0
  6
ByBlock
 62
     3
440
 16777216
100
AcDbMText
 10
348.1143191800179
 20
173.6652724323198
 30
0.0
 40
5.25
 41
0.0
 46
0.0
 71
     5
 72
     1
  1
\A1;15.5
  7
NORM
 73
     1
 44
1.0
  0
SOLID
  5
CD
330
C8
100
AcDbEntity
  8
0
  6
ByBlock
 62
     2
440
 16777216
100
AcDbTrace
 10
345.7952660802142
 20
170.2020849259729
 30
0.0
 11
345.7952660802142
 21
168.4520849259729
 31
0.0
 12
340.545266080214
 22
169.3270849259729
 32
0.0
 13
340.545266080214
 23
169.3270849259729
 33
0.0
  0
SOLID
  5
CE
330
C8
100
AcDbEntity
  8
0
  6
ByBlock
 62
     2
440
 16777216
100
AcDbTrace
 10
350.795266080214
 20
170.2020849259729
 30
0.0
 11
350.795266080214
 21
168.4520849259729
 31
0.0
 12
356.0452660802142
 22
169.3270849259729
 32
0.0
 13
356.0452660802142
 23
169.3270849259729
 33
0.0
  0
POINT
  5
CF
330
C8
100
AcDbEntity
  8
DEFPOINTS
  6
ByBlock
 62
     0
440
 16777216
100
AcDbPoint
 10
340.545266080214
 20
212.3510356038047
 30
0.0
  0
POINT
  5
D0
330
C8
100
AcDbEntity
  8
DEFPOINTS
  6
ByBlock
 62
     0
440
 16777216
100
AcDbPoint
 10
356.0452660802142
 20
212.2582284456616
 30
0.0
  0
POINT
  5
D1
330
C8
100
AcDbEntity
  8
DEFPOINTS
  6
ByBlock
 62
     0
440
 16777216
100
AcDbPoint
 10
356.0452660802142
 20
169.3270849259729
 30
0.0
  0
ENDBLK
  5
D3
330
C8
100
AcDbEntity
  8
0
100
AcDbBlockEnd
  0
BLOCK
  5
170
330
166
100
AcDbEntity
  8
0
100
AcDbBlockBegin
  2
*D8
 70
     1
 10
0.0
 20
0.0
 30
0.0
  3
*D8
  1

  0
LINE
  5
167
330
166
100
AcDbEntity
  8
0
  6
ByBlock
 62
     2
440
 16777216
100
AcDbLine
 10
351.895266080214
 20
242.2582284456616
 30
0.0
 11
384.2392559532676
 21
242.2582284456616
 31
0.0
  0
LINE
  5
168
330
166
100
AcDbEntity
  8
0
  6
ByBlock
 62
     2
440
 16777216
100
AcDbLine
 10
352.395266080214
 20
290.2582284456617
 30
0.0
 11
384.2392559532676
 21
290.2582284456617
 31
0.0
  0
LINE
  5
169
330
166
100
AcDbEntity
  8
0
  6
ByBlock
 62
     2
440
 16777216
100
AcDbLine
 10
382.2892559532677
 20
247.5082284456616
 30
0.0
 11
382.2892559532677
 21
285.0082284456616
 31
0.0
  0
SOLID
  5
16A
330
166
100
AcDbEntity
  8
0
  6
ByBlock
 62
     2
440
 16777216
100
AcDbTrace
 10
381.4142559532676
 20
247.5082284456616
 30
0.0
 11
383.1642559532676
 21
247.5082284456616
 31
0.0
 12
382.2892559532677
 22
242.2582284456616
 32
0.0
 13
382.2892559532677
 23
242.2582284456616
 33
0.0
  0
SOLID
  5
16B
330
166
100
AcDbEntity
  8
0
  6
ByBlock
 62
     2
440
 16777216
100
AcDbTrace
 10
381.4142559532676
 20
285.0082284456616
 30
0.0
 11
383.1642559532676
 21
285.0082284456616
 31
0.0
 12
382.2892559532677
 22
290.2582284456617
 32
0.0
 13
382.2892559532677
 23
290.2582284456617
 33
0.0
  0
MTEXT
  5
16C
330
166
100
AcDbEntity
  8
0
  6
ByBlock
 62
     3
440
 16777216
100
AcDbMText
 10
378.1642559532676
 20
266.2582284456616
 30
0.0
 40
5.25
 41
0.0
 46
0.0
 71
     5
 72
     1
  1
\A1;48
  7
NORM
 11
0.0000000000000001
 21
1.0
 31
0.0
 73
     1
 44
1.0
  0
POINT
  5
16D
330
166
100
AcDbEntity
  8
DEFPOINTS
  6
ByBlock
 62
     0
440
 16777216
100
AcDbPoint
 10
351.145266080214
 20
242.2582284456616
 30
0.0
  0
POINT
  5
16E
330
166
100
AcDbEntity
  8
DEFPOINTS
  6
ByBlock
 62
     0
440
 16777216
100
AcDbPoint
 10
351.645266080214
 20
290.2582284456617
 30
0.0
  0
POINT
  5
16F
330
166
100
AcDbEntity
  8
DEFPOINTS
  6
ByBlock
 62
     0
440
 16777216
100
AcDbPoint
 10
382.2892559532677
 20
290.2582284456617
 30
0.0
  0
ENDBLK
  5
171
330
166
100
AcDbEntity
  8
0
100
AcDbBlockEnd
  0
BLOCK
  5
17E
330
174
100
AcDbEntity
  8
0
100
AcDbBlockBegin
  2
*D9
 70
     1
 10
0.0
 20
0.0
 30
0.0
  3
*D9
  1

  0
LINE
  5
175
330
174
100
AcDbEntity
  8
0
  6
ByBlock
 62
     2
440
 16777216
100
AcDbLine
 10
356.7952660802142
 20
212.2582284456616
 30
0.0
 11
384.2392559532676
 21
212.2582284456616
 31
0.0
  0
LINE
  5
176
330
174
100
AcDbEntity
  8
0
  6
ByBlock
 62
     2
440
 16777216
100
AcDbLine
 10
351.895266080214
 20
242.2582284456616
 30
0.0
 11
384.2392559532676
 21
242.2582284456616
 31
0.0
  0
LINE
  5
177
330
174
100
AcDbEntity
  8
0
  6
ByBlock
 62
     2
440
 16777216
100
AcDbLine
 10
382.2892559532677
 20
217.5082284456616
 30
0.0
 11
382.2892559532677
 21
237.0082284456616
 31
0.0
  0
SOLID
  5
178
330
174
100
AcDbEntity
  8
0
  6
ByBlock
 62
     2
440
 16777216
100
AcDbTrace
 10
381.4142559532676
 20
217.5082284456616
 30
0.0
 11
383.1642559532676
 21
217.5082284456616
 31
0.0
 12
382.2892559532677
 22
212.2582284456616
 32
0.0
 13
382.2892559532677
 23
212.2582284456616
 33
0.0
  0
SOLID
  5
179
330
174
100
AcDbEntity
  8
0
  6
ByBlock
 62
     2
440
 16777216
100
AcDbTrace
 10
381.4142559532676
 20
237.0082284456616
 30
0.0
 11
383.1642559532676
 21
237.0082284456616
 31
0.0
 12
382.2892559532677
 22
242.2582284456616
 32
0.0
 13
382.2892559532677
 23
242.2582284456616
 33
0.0
  0
MTEXT
  5
17A
330
174
100
AcDbEntity
  8
0
  6
ByBlock
 62
     3
440
 16777216
100
AcDbMText
 10
378.1642559532676
 20
227.2582284456616
 30
0.0
 40
5.25
 41
0.0
 46
0.0
 71
     5
 72
     1
  1
\A1;30
  7
NORM
 11
0.0000000000000001
 21
1.0
 31
0.0
 73
     1
 44
1.0
  0
POINT
  5
17B
330
174
100
AcDbEntity
  8
DEFPOINTS
  6
ByBlock
 62
     0
440
 16777216
100
AcDbPoint
 10
356.0452660802142
 20
212.2582284456616
 30
0.0
  0
POINT
  5
17C
330
174
100
AcDbEntity
  8
DEFPOINTS
  6
ByBlock
 62
     0
440
 16777216
100
AcDbPoint
 10
351.145266080214
 20
242.2582284456616
 30
0.0
  0
POINT
  5
17D
330
174
100
AcDbEntity
  8
DEFPOINTS
  6
ByBlock
 62
     0
440
 16777216
100
AcDbPoint
 10
382.2892559532677
 20
242.2582284456616
 30
0.0
  0
ENDBLK
  5
17F
330
174
100
AcDbEntity
  8
0
100
AcDbBlockEnd
  0
BLOCK
  5
C5
330
BB
100
AcDbEntity
  8
0
100
AcDbBlockBegin
  2
*D10
 70
     1
 10
0.0
 20
0.0
 30
0.0
  3
*D10
  1

  0
LINE
  5
BC
330
BB
100
AcDbEntity
  8
0
  6
ByBlock
 62
     2
440
 16777216
100
AcDbLine
 10
305.5452660802141
 20
184.5082284456616
 30
0.0
 11
305.5452660802141
 21
167.3770849259729
 31
0.0
  0
LINE
  5
BD
330
BB
100
AcDbEntity
  8
0
  6
ByBlock
 62
     2
440
 16777216
100
AcDbLine
 10
340.545266080214
 20
211.6010356038047
 30
0.0
 11
340.545266080214
 21
167.3770849259729
 31
0.0
  0
LINE
  5
BE
330
BB
100
AcDbEntity
  8
0
  6
ByBlock
 62
     2
440
 16777216
100
AcDbLine
 10
310.7952660802141
 20
169.3270849259729
 30
0.0
 11
335.2952660802141
 21
169.3270849259729
 31
0.0
  0
SOLID
  5
BF
330
BB
100
AcDbEntity
  8
0
  6
ByBlock
 62
     2
440
 16777216
100
AcDbTrace
 10
310.7952660802141
 20
170.2020849259729
 30
0.0
 11
310.7952660802141
 21
168.4520849259729
 31
0.0
 12
305.5452660802141
 22
169.3270849259729
 32
0.0
 13
305.5452660802141
 23
169.3270849259729
 33
0.0
  0
SOLID
  5
C0
330
BB
100
AcDbEntity
  8
0
  6
ByBlock
 62
     2
440
 16777216
100
AcDbTrace
 10
335.2952660802141
 20
170.2020849259729
 30
0.0
 11
335.2952660802141
 21
168.4520849259729
 31
0.0
 12
340.545266080214
 22
169.3270849259729
 32
0.0
 13
340.545266080214
 23
169.3270849259729
 33
0.0
  0
MTEXT
  5
C1
330
BB
100
AcDbEntity
  8
0
  6
ByBlock
 62
     3
440
 16777216
100
AcDbMText
 10
323.0452660802141
 20
173.4520849259729
 30
0.0
 40
5.25
 41
0.0
 46
0.0
 71
     5
 72
     1
  1
\A1;DM
  7
NORM
 73
     1
 44
1.0
  0
POINT
  5
C2
330
BB
100
AcDbEntity
  8
DEFPOINTS
  6
ByBlock
 62
     0
440
 16777216
100
AcDbPoint
 10
305.5452660802141
 20
185.2582284456616
 30
0.0
  0
POINT
  5
C3
330
BB
100
AcDbEntity
  8
DEFPOINTS
  6
ByBlock
 62
     0
440
 16777216
100
AcDbPoint
 10
340.545266080214
 20
212.3510356038047
 30
0.0
  0
POINT
  5
C4
330
BB
100
AcDbEntity
  8
DEFPOINTS
  6
ByBlock
 62
     0
440
 16777216
100
AcDbPoint
 10
340.545266080214
 20
169.3270849259729
 30
0.0
  0
ENDBLK
  5
C6
330
BB
100
AcDbEntity
  8
0
100
AcDbBlockEnd
  0
BLOCK
  5
B7
330
AD
100
AcDbEntity
  8
0
100
AcDbBlockBegin
  2
*D11
 70
     1
 10
0.0
 20
0.0
 30
0.0
  3
*D11
  1

  0
LINE
  5
AE
330
AD
100
AcDbEntity
  8
0
  6
ByBlock
 62
     2
440
 16777216
100
AcDbLine
 10
304.7952660802141
 20
185.2582284456616
 30
0.0
 11
272.595266080214
 21
185.2582284456616
 31
0.0
  0
LINE
  5
AF
330
AD
100
AcDbEntity
  8
0
  6
ByBlock
 62
     2
440
 16777216
100
AcDbLine
 10
307.7952660802141
 20
212.2582284456616
 30
0.0
 11
272.595266080214
 21
212.2582284456616
 31
0.0
  0
LINE
  5
B0
330
AD
100
AcDbEntity
  8
0
  6
ByBlock
 62
     2
440
 16777216
100
AcDbLine
 10
274.5452660802141
 20
190.5082284456616
 30
0.0
 11
274.5452660802141
 21
207.0082284456616
 31
0.0
  0
SOLID
  5
B1
330
AD
100
AcDbEntity
  8
0
  6
ByBlock
 62
     2
440
 16777216
100
AcDbTrace
 10
273.6702660802141
 20
190.5082284456616
 30
0.0
 11
275.4202660802141
 21
190.5082284456616
 31
0.0
 12
274.5452660802141
 22
185.2582284456616
 32
0.0
 13
274.5452660802141
 23
185.2582284456616
 33
0.0
  0
SOLID
  5
B2
330
AD
100
AcDbEntity
  8
0
  6
ByBlock
 62
     2
440
 16777216
100
AcDbTrace
 10
273.6702660802141
 20
207.0082284456616
 30
0.0
 11
275.4202660802141
 21
207.0082284456616
 31
0.0
 12
274.5452660802141
 22
212.2582284456616
 32
0.0
 13
274.5452660802141
 23
212.2582284456616
 33
0.0
  0
MTEXT
  5
B3
330
AD
100
AcDbEntity
  8
0
  6
ByBlock
 62
     3
440
 16777216
100
AcDbMText
 10
270.4202660802141
 20
198.7582284456616
 30
0.0
 40
5.25
 41
0.0
 46
0.0
 71
     5
 72
     1
  1
\A1;27
  7
NORM
 11
0.0000000000000001
 21
1.0
 31
0.0
 73
     1
 44
1.0
  0
POINT
  5
B4
330
AD
100
AcDbEntity
  8
DEFPOINTS
  6
ByBlock
 62
     0
440
 16777216
100
AcDbPoint
 10
305.5452660802141
 20
185.2582284456616
 30
0.0
  0
POINT
  5
B5
330
AD
100
AcDbEntity
  8
DEFPOINTS
  6
ByBlock
 62
     0
440
 16777216
100
AcDbPoint
 10
308.5452660802141
 20
212.2582284456616
 30
0.0
  0
POINT
  5
B6
330
AD
100
AcDbEntity
  8
DEFPOINTS
  6
ByBlock
 62
     0
440
 16777216
100
AcDbPoint
 10
274.5452660802141
 20
212.2582284456616
 30
0.0
  0
ENDBLK
  5
B8
330
AD
100
AcDbEntity
  8
0
100
AcDbBlockEnd
  0
BLOCK
  5
E7
330
DB
100
AcDbEntity
  8
0
100
AcDbBlockBegin
  2
*D12
 70
     1
 10
0.0
 20
0.0
 30
0.0
  3
*D12
  1

  0
LINE
  5
DC
330
DB
100
AcDbEntity
  8
0
  6
ByBlock
 62
     2
440
 16777216
100
AcDbLine
 10
305.5452660802141
 20
137.5590076898445
 30
0.0
 11
305.5452660802141
 21
148.6774022732257
 31
0.0
  0
LINE
  5
DD
330
DB
100
AcDbEntity
  8
0
  6
ByBlock
 62
     2
440
 16777216
100
AcDbLine
 10
308.5452660802141
 20
137.5590076898445
 30
0.0
 11
308.5452660802141
 21
148.6774022732257
 31
0.0
  0
LINE
  5
DE
330
DB
100
AcDbEntity
  8
0
  6
ByBlock
 62
     2
440
 16777216
100
AcDbLine
 10
300.2952660802141
 20
146.7274022732257
 30
0.0
 11
295.0452660802141
 21
146.7274022732257
 31
0.0
  0
LINE
  5
DF
330
DB
100
AcDbEntity
  8
0
  6
ByBlock
 62
     2
440
 16777216
100
AcDbLine
 10
313.7952660802141
 20
146.7274022732257
 30
0.0
 11
319.0452660802141
 21
146.7274022732257
 31
0.0
  0
LINE
  5
E0
330
DB
100
AcDbEntity
  8
0
  6
ByBlock
 62
     2
440
 16777216
100
AcDbLine
 10
305.5452660802141
 20
146.7274022732257
 30
0.0
 11
308.5452660802141
 21
146.7274022732257
 31
0.0
  0
SOLID
  5
E1
330
DB
100
AcDbEntity
  8
0
  6
ByBlock
 62
     2
440
 16777216
100
AcDbTrace
 10
300.2952660802141
 20
147.6024022732257
 30
0.0
 11
300.2952660802141
 21
145.8524022732257
 31
0.0
 12
305.5452660802141
 22
146.7274022732257
 32
0.0
 13
305.5452660802141
 23
146.7274022732257
 33
0.0
  0
SOLID
  5
E2
330
DB
100
AcDbEntity
  8
0
  6
ByBlock
 62
     2
440
 16777216
100
AcDbTrace
 10
313.7952660802141
 20
147.6024022732257
 30
0.0
 11
313.7952660802141
 21
145.8524022732257
 31
0.0
 12
308.5452660802141
 22
146.7274022732257
 32
0.0
 13
308.5452660802141
 23
146.7274022732257
 33
0.0
  0
MTEXT
  5
E3
330
DB
100
AcDbEntity
  8
0
  6
ByBlock
 62
     3
440
 16777216
100
AcDbMText
 10
307.045266080214
 20
150.8524022732257
 30
0.0
 40
5.25
 41
0.0
 46
0.0
 71
     5
 72
     1
  1
\A1;3
  7
NORM
 73
     1
 44
1.0
  0
POINT
  5
E4
330
DB
100
AcDbEntity
  8
DEFPOINTS
  6
ByBlock
 62
     0
440
 16777216
100
AcDbPoint
 10
305.5452660802141
 20
136.8090076898446
 30
0.0
  0
POINT
  5
E5
330
DB
100
AcDbEntity
  8
DEFPOINTS
  6
ByBlock
 62
     0
440
 16777216
100
AcDbPoint
 10
308.5452660802141
 20
136.8090076898446
 30
0.0
  0
POINT
  5
E6
330
DB
100
AcDbEntity
  8
DEFPOINTS
  6
ByBlock
 62
     0
440
 16777216
100
AcDbPoint
 10
308.5452660802141
 20
146.7274022732257
 30
0.0
  0
ENDBLK
  5
E8
330
DB
100
AcDbEntity
  8
0
100
AcDbBlockEnd
  0
BLOCK
  5
121
330
117
100
AcDbEntity
  8
0
100
AcDbBlockBegin
  2
*D13
 70
     1
 10
0.0
 20
0.0
 30
0.0
  3
*D13
  1

  0
LINE
  5
118
330
117
100
AcDbEntity
  8
0
  6
ByBlock
 62
     2
440
 16777216
100
AcDbLine
 10
307.7952660802141
 20
212.2582284456616
 30
0.0
 11
272.595266080214
 21
212.2582284456616
 31
0.0
  0
LINE
  5
119
330
117
100
AcDbEntity
  8
0
  6
ByBlock
 62
     2
440
 16777216
100
AcDbLine
 10
292.795266080214
 20
295.2582284456616
 30
0.0
 11
272.595266080214
 21
295.2582284456616
 31
0.0
  0
LINE
  5
11A
330
117
100
AcDbEntity
  8
0
  6
ByBlock
 62
     2
440
 16777216
100
AcDbLine
 10
274.5452660802141
 20
217.5082284456616
 30
0.0
 11
274.5452660802141
 21
290.0082284456616
 31
0.0
  0
SOLID
  5
11B
330
117
100
AcDbEntity
  8
0
  6
ByBlock
 62
     2
440
 16777216
100
AcDbTrace
 10
273.6702660802141
 20
217.5082284456616
 30
0.0
 11
275.4202660802141
 21
217.5082284456616
 31
0.0
 12
274.5452660802141
 22
212.2582284456616
 32
0.0
 13
274.5452660802141
 23
212.2582284456616
 33
0.0
  0
SOLID
  5
11C
330
117
100
AcDbEntity
  8
0
  6
ByBlock
 62
     2
440
 16777216
100
AcDbTrace
 10
273.6702660802141
 20
290.0082284456616
 30
0.0
 11
275.4202660802141
 21
290.0082284456616
 31
0.0
 12
274.5452660802141
 22
295.2582284456616
 32
0.0
 13
274.5452660802141
 23
295.2582284456616
 33
0.0
  0
MTEXT
  5
11D
330
117
100
AcDbEntity
  8
0
  6
ByBlock
 62
     3
440
 16777216
100
AcDbMText
 10
270.4202660802141
 20
253.7582284456616
 30
0.0
 40
5.25
 41
0.0
 46
0.0
 71
     5
 72
     1
  1
\A1;83
  7
NORM
 11
0.0000000000000001
 21
1.0
 31
0.0
 73
     1
 44
1.0
  0
POINT
  5
11E
330
117
100
AcDbEntity
  8
DEFPOINTS
  6
ByBlock
 62
     0
440
 16777216
100
AcDbPoint
 10
308.5452660802141
 20
212.2582284456616
 30
0.0
  0
POINT
  5
11F
330
117
100
AcDbEntity
  8
DEFPOINTS
  6
ByBlock
 62
     0
440
 16777216
100
AcDbPoint
 10
293.5452660802141
 20
295.2582284456616
 30
0.0
  0
POINT
  5
120
330
117
100
AcDbEntity
  8
DEFPOINTS
  6
ByBlock
 62
     0
440
 16777216
100
AcDbPoint
 10
274.5452660802141
 20
295.2582284456616
 30
0.0
  0
ENDBLK
  5
122
330
117
100
AcDbEntity
  8
0
100
AcDbBlockEnd
  0
BLOCK
  5
159
330
14D
100
AcDbEntity
  8
0
100
AcDbBlockBegin
  2
*D14
 70
     1
 10
0.0
 20
0.0
 30
0.0
  3
*D14
  1

  0
LINE
  5
14E
330
14D
100
AcDbEntity
  8
0
  6
ByBlock
 62
     2
440
 16777216
100
AcDbLine
 10
293.5452660802141
 20
294.5082284456617
 30
0.0
 11
293.5452660802141
 21
281.3450959561325
 31
0.0
  0
LINE
  5
14F
330
14D
100
AcDbEntity
  8
0
  6
ByBlock
 62
     2
440
 16777216
100
AcDbLine
 10
305.5452660802141
 20
284.0450959561325
 30
0.0
 11
305.5452660802141
 21
285.2450959561325
 31
0.0
  0
LINE
  5
150
330
14D
100
AcDbEntity
  8
0
  6
ByBlock
 62
     2
440
 16777216
100
AcDbLine
 10
288.2952660802141
 20
283.2950959561325
 30
0.0
 11
283.0452660802141
 21
283.2950959561325
 31
0.0
  0
LINE
  5
151
330
14D
100
AcDbEntity
  8
0
  6
ByBlock
 62
     2
440
 16777216
100
AcDbLine
 10
310.7952660802141
 20
283.2950959561325
 30
0.0
 11
316.0452660802141
 21
283.2950959561325
 31
0.0
  0
LINE
  5
152
330
14D
100
AcDbEntity
  8
0
  6
ByBlock
 62
     2
440
 16777216
100
AcDbLine
 10
293.5452660802141
 20
283.2950959561325
 30
0.0
 11
305.5452660802141
 21
283.2950959561325
 31
0.0
  0
SOLID
  5
153
330
14D
100
AcDbEntity
  8
0
  6
ByBlock
 62
     2
440
 16777216
100
AcDbTrace
 10
288.2952660802141
 20
284.1700959561325
 30
0.0
 11
288.2952660802141
 21
282.4200959561325
 31
0.0
 12
293.5452660802141
 22
283.2950959561325
 32
0.0
 13
293.5452660802141
 23
283.2950959561325
 33
0.0
  0
SOLID
  5
154
330
14D
100
AcDbEntity
  8
0
  6
ByBlock
 62
     2
440
 16777216
100
AcDbTrace
 10
310.7952660802141
 20
284.1700959561325
 30
0.0
 11
310.7952660802141
 21
282.4200959561325
 31
0.0
 12
305.5452660802141
 22
283.2950959561325
 32
0.0
 13
305.5452660802141
 23
283.2950959561325
 33
0.0
  0
MTEXT
  5
155
330
14D
100
AcDbEntity
  8
0
  6
ByBlock
 62
     3
440
 16777216
100
AcDbMText
 10
299.5452660802141
 20
287.4200959561325
 30
0.0
 40
5.25
 41
0.0
 46
0.0
 71
     5
 72
     1
  1
\A1;12
  7
NORM
 73
     1
 44
1.0
  0
POINT
  5
156
330
14D
100
AcDbEntity
  8
DEFPOINTS
  6
ByBlock
 62
     0
440
 16777216
100
AcDbPoint
 10
293.5452660802141
 20
295.2582284456616
 30
0.0
  0
POINT
  5
157
330
14D
100
AcDbEntity
  8
DEFPOINTS
  6
ByBlock
 62
     0
440
 16777216
100
AcDbPoint
 10
305.5452660802141
 20
283.2950959561325
 30
0.0
  0
POINT
  5
158
330
14D
100
AcDbEntity
  8
DEFPOINTS
  6
ByBlock
 62
     0
440
 16777216
100
AcDbPoint
 10
305.5452660802141
 20
283.2950959561325
 30
0.0
  0
ENDBLK
  5
15A
330
14D
100
AcDbEntity
  8
0
100
AcDbBlockEnd
  0
BLOCK
  5
109
330
FD
100
AcDbEntity
  8
0
100
AcDbBlockBegin
  2
*D15
 70
     1
 10
0.0
 20
0.0
 30
0.0
  3
*D15
  1

  0
LINE
  5
FE
330
FD
100
AcDbEntity
  8
0
  6
ByBlock
 62
     2
440
 16777216
100
AcDbLine
 10
439.6885844824501
 20
185.2582284456616
 30
0.0
 11
427.4885844824501
 21
185.2582284456616
 31
0.0
  0
LINE
  5
FF
330
FD
100
AcDbEntity
  8
0
  6
ByBlock
 62
     2
440
 16777216
100
AcDbLine
 10
443.93858448245
 20
195.2582284456616
 30
0.0
 11
427.4885844824501
 21
195.2582284456616
 31
0.0
  0
LINE
  5
100
330
FD
100
AcDbEntity
  8
0
  6
ByBlock
 62
     2
440
 16777216
100
AcDbLine
 10
429.4385844824501
 20
180.0082284456616
 30
0.0
 11
429.4385844824501
 21
174.7582284456616
 31
0.0
  0
LINE
  5
101
330
FD
100
AcDbEntity
  8
0
  6
ByBlock
 62
     2
440
 16777216
100
AcDbLine
 10
429.4385844824501
 20
200.5082284456616
 30
0.0
 11
429.4385844824501
 21
205.7582284456616
 31
0.0
  0
LINE
  5
102
330
FD
100
AcDbEntity
  8
0
  6
ByBlock
 62
     2
440
 16777216
100
AcDbLine
 10
429.4385844824501
 20
185.2582284456616
 30
0.0
 11
429.4385844824501
 21
195.2582284456616
 31
0.0
  0
SOLID
  5
103
330
FD
100
AcDbEntity
  8
0
  6
ByBlock
 62
     2
440
 16777216
100
AcDbTrace
 10
428.5635844824501
 20
180.0082284456616
 30
0.0
 11
430.3135844824501
 21
180.0082284456616
 31
0.0
 12
429.4385844824501
 22
185.2582284456616
 32
0.0
 13
429.4385844824501
 23
185.2582284456616
 33
0.0
  0
SOLID
  5
104
330
FD
100
AcDbEntity
  8
0
  6
ByBlock
 62
     2
440
 16777216
100
AcDbTrace
 10
428.5635844824501
 20
200.5082284456616
 30
0.0
 11
430.3135844824501
 21
200.5082284456616
 31
0.0
 12
429.4385844824501
 22
195.2582284456616
 32
0.0
 13
429.4385844824501
 23
195.2582284456616
 33
0.0
  0
MTEXT
  5
105
330
FD
100
AcDbEntity
  8
0
  6
ByBlock
 62
     3
440
 16777216
100
AcDbMText
 10
425.3135844824501
 20
190.2582284456616
 30
0.0
 40
5.25
 41
0.0
 46
0.0
 71
     5
 72
     1
  1
\A1;10
  7
NORM
 11
0.0000000000000001
 21
1.0
 31
0.0
 73
     1
 44
1.0
  0
POINT
  5
106
330
FD
100
AcDbEntity
  8
DEFPOINTS
  6
ByBlock
 62
     0
440
 16777216
100
AcDbPoint
 10
440.4385844824501
 20
185.2582284456616
 30
0.0
  0
POINT
  5
107
330
FD
100
AcDbEntity
  8
DEFPOINTS
  6
ByBlock
 62
     0
440
 16777216
100
AcDbPoint
 10
444.68858448245
 20
195.2582284456616
 30
0.0
  0
POINT
  5
108
330
FD
100
AcDbEntity
  8
DEFPOINTS
  6
ByBlock
 62
     0
440
 16777216
100
AcDbPoint
 10
429.4385844824501
 20
195.2582284456616
 30
0.0
  0
ENDBLK
  5
10A
330
FD
100
AcDbEntity
  8
0
100
AcDbBlockEnd
  0
BLOCK
  5
F9
330
EF
100
AcDbEntity
  8
0
100
AcDbBlockBegin
  2
*D16
 70
     1
 10
0.0
 20
0.0
 30
0.0
  3
*D16
  1

  0
LINE
  5
F0
330
EF
100
AcDbEntity
  8
0
  6
ByBlock
 62
     2
440
 16777216
100
AcDbLine
 10
356.7952660802142
 20
132.8090076898446
 30
0.0
 11
380.6392559532675
 21
132.8090076898446
 31
0.0
  0
LINE
  5
F1
330
EF
100
AcDbEntity
  8
0
  6
ByBlock
 62
     2
440
 16777216
100
AcDbLine
 10
356.7952660802142
 20
118.8090076898446
 30
0.0
 11
380.6392559532675
 21
118.8090076898446
 31
0.0
  0
LINE
  5
F2
330
EF
100
AcDbEntity
  8
0
  6
ByBlock
 62
     2
440
 16777216
100
AcDbLine
 10
378.6892559532675
 20
127.5590076898446
 30
0.0
 11
378.6892559532675
 21
124.0590076898446
 31
0.0
  0
MTEXT
  5
F3
330
EF
100
AcDbEntity
  8
0
  6
ByBlock
 62
     3
440
 16777216
100
AcDbMText
 10
373.9444784988338
 20
125.8090076898446
 30
0.0
 40
5.25
 41
0.0
 46
0.0
 71
     5
 72
     1
  1
\A1;14
  7
NORM
 11
0.0000000000000001
 21
1.0
 31
0.0
 73
     1
 44
1.0
  0
SOLID
  5
F4
330
EF
100
AcDbEntity
  8
0
  6
ByBlock
 62
     2
440
 16777216
100
AcDbTrace
 10
377.8142559532675
 20
127.5590076898446
 30
0.0
 11
379.5642559532675
 21
127.5590076898446
 31
0.0
 12
378.6892559532675
 22
132.8090076898446
 32
0.0
 13
378.6892559532675
 23
132.8090076898446
 33
0.0
  0
SOLID
  5
F5
330
EF
100
AcDbEntity
  8
0
  6
ByBlock
 62
     2
440
 16777216
100
AcDbTrace
 10
377.8142559532675
 20
124.0590076898446
 30
0.0
 11
379.5642559532675
 21
124.0590076898446
 31
0.0
 12
378.6892559532675
 22
118.8090076898446
 32
0.0
 13
378.6892559532675
 23
118.8090076898446
 33
0.0
  0
POINT
  5
F6
330
EF
100
AcDbEntity
  8
DEFPOINTS
  6
ByBlock
 62
     0
440
 16777216
100
AcDbPoint
 10
356.0452660802142
 20
132.8090076898446
 30
0.0
  0
POINT
  5
F7
330
EF
100
AcDbEntity
  8
DEFPOINTS
  6
ByBlock
 62
     0
440
 16777216
100
AcDbPoint
 10
356.0452660802142
 20
118.8090076898446
 30
0.0
  0
POINT
  5
F8
330
EF
100
AcDbEntity
  8
DEFPOINTS
  6
ByBlock
 62
     0
440
 16777216
100
AcDbPoint
 10
378.6892559532675
 20
118.8090076898446
 30
0.0
  0
ENDBLK
  5
FA
330
EF
100
AcDbEntity
  8
0
100
AcDbBlockEnd
  0
BLOCK
  5
AA
330
A0
100
AcDbEntity
  8
0
100
AcDbBlockBegin
  2
*D17
 70
     1
 10
0.0
 20
0.0
 30
0.0
  3
*D17
  1

  0
LINE
  5
A1
330
A0
100
AcDbEntity
  8
0
  6
ByBlock
 62
     2
440
 16777216
100
AcDbLine
 10
440.4385844824501
 20
184.5082284456616
 30
0.0
 11
440.4385844824501
 21
166.4736555074635
 31
0.0
  0
LINE
  5
A2
330
A0
100
AcDbEntity
  8
0
  6
ByBlock
 62
     2
440
 16777216
100
AcDbLine
 10
462.4385844824501
 20
184.5082284456616
 30
0.0
 11
462.4385844824501
 21
166.4736555074635
 31
0.0
  0
LINE
  5
A3
330
A0
100
AcDbEntity
  8
0
  6
ByBlock
 62
     2
440
 16777216
100
AcDbLine
 10
445.68858448245
 20
168.4236555074634
 30
0.0
 11
457.18858448245
 21
168.4236555074634
 31
0.0
  0
SOLID
  5
A4
330
A0
100
AcDbEntity
  8
0
  6
ByBlock
 62
     2
440
 16777216
100
AcDbTrace
 10
445.68858448245
 20
169.2986555074635
 30
0.0
 11
445.68858448245
 21
167.5486555074634
 31
0.0
 12
440.4385844824501
 22
168.4236555074634
 32
0.0
 13
440.4385844824501
 23
168.4236555074634
 33
0.0
  0
SOLID
  5
A5
330
A0
100
AcDbEntity
  8
0
  6
ByBlock
 62
     2
440
 16777216
100
AcDbTrace
 10
457.18858448245
 20
169.2986555074635
 30
0.0
 11
457.18858448245
 21
167.5486555074634
 31
0.0
 12
462.4385844824501
 22
168.4236555074634
 32
0.0
 13
462.4385844824501
 23
168.4236555074634
 33
0.0
  0
MTEXT
  5
A6
330
A0
100
AcDbEntity
  8
0
  6
ByBlock
 62
     3
440
 16777216
100
AcDbMText
 10
451.43858448245
 20
172.5486555074635
 30
0.0
 40
5.25
 41
0.0
 46
0.0
 71
     5
 72
     1
  1
\A1;22
  7
NORM
 73
     1
 44
1.0
  0
POINT
  5
A7
330
A0
100
AcDbEntity
  8
DEFPOINTS
  6
ByBlock
 62
     0
440
 16777216
100
AcDbPoint
 10
440.4385844824501
 20
185.2582284456616
 30
0.0
  0
POINT
  5
A8
330
A0
100
AcDbEntity
  8
DEFPOINTS
  6
ByBlock
 62
     0
440
 16777216
100
AcDbPoint
 10
462.4385844824501
 20
185.2582284456616
 30
0.0
  0
POINT
  5
A9
330
A0
100
AcDbEntity
  8
DEFPOINTS
  6
ByBlock
 62
     0
440
 16777216
100
AcDbPoint
 10
462.4385844824501
 20
168.4236555074634
 30
0.0
  0
ENDBLK
  5
AB
330
A0
100
AcDbEntity
  8
0
100
AcDbBlockEnd
  0
BLOCK
  5
1C8
330
1BC
100
AcDbEntity
  8
0
100
AcDbBlockBegin
  2
*D18
 70
     1
 10
0.0
 20
0.0
 30
0.0
  3
*D18
  1

  0
LINE
  5
1BD
330
1BC
100
AcDbEntity
  8
0
  6
ByBlock
 62
     2
440
 16777216
100
AcDbLine
 10
336.5452660802141
 20
373.0082284456616
 30
0.0
 11
336.5452660802141
 21
383.468212079396
 31
0.0
  0
LINE
  5
1BE
330
1BC
100
AcDbEntity
  8
0
  6
ByBlock
 62
     2
440
 16777216
100
AcDbLine
 10
344.545266080214
 20
373.0082284456616
 30
0.0
 11
344.545266080214
 21
383.468212079396
 31
0.0
  0
LINE
  5
1BF
330
1BC
100
AcDbEntity
  8
0
  6
ByBlock
 62
     2
440
 16777216
100
AcDbLine
 10
331.2952660802141
 20
381.5182120793961
 30
0.0
 11
326.045266080214
 21
381.5182120793961
 31
0.0
  0
LINE
  5
1C0
330
1BC
100
AcDbEntity
  8
0
  6
ByBlock
 62
     2
440
 16777216
100
AcDbLine
 10
349.7952660802142
 20
381.5182120793961
 30
0.0
 11
355.045266080214
 21
381.5182120793961
 31
0.0
  0
LINE
  5
1C1
330
1BC
100
AcDbEntity
  8
0
  6
ByBlock
 62
     2
440
 16777216
100
AcDbLine
 10
336.5452660802141
 20
381.5182120793961
 30
0.0
 11
344.545266080214
 21
381.5182120793961
 31
0.0
  0
SOLID
  5
1C2
330
1BC
100
AcDbEntity
  8
0
  6
ByBlock
 62
     2
440
 16777216
100
AcDbTrace
 10
331.2952660802141
 20
382.3932120793961
 30
0.0
 11
331.2952660802141
 21
380.6432120793961
 31
0.0
 12
336.5452660802141
 22
381.5182120793961
 32
0.0
 13
336.5452660802141
 23
381.5182120793961
 33
0.0
  0
SOLID
  5
1C3
330
1BC
100
AcDbEntity
  8
0
  6
ByBlock
 62
     2
440
 16777216
100
AcDbTrace
 10
349.7952660802142
 20
382.3932120793961
 30
0.0
 11
349.7952660802142
 21
380.6432120793961
 31
0.0
 12
344.545266080214
 22
381.5182120793961
 32
0.0
 13
344.545266080214
 23
381.5182120793961
 33
0.0
  0
MTEXT
  5
1C4
330
1BC
100
AcDbEntity
  8
0
  6
ByBlock
 62
     3
440
 16777216
100
AcDbMText
 10
340.545266080214
 20
385.6432120793961
 30
0.0
 40
5.25
 41
0.0
 46
0.0
 71
     5
 72
     1
  1
\A1;8
  7
NORM
 73
     1
 44
1.0
  0
POINT
  5
1C5
330
1BC
100
AcDbEntity
  8
DEFPOINTS
  6
ByBlock
 62
     0
440
 16777216
100
AcDbPoint
 10
336.5452660802141
 20
372.2582284456616
 30
0.0
  0
POINT
  5
1C6
330
1BC
100
AcDbEntity
  8
DEFPOINTS
  6
ByBlock
 62
     0
440
 16777216
100
AcDbPoint
 10
344.545266080214
 20
372.2582284456616
 30
0.0
  0
POINT
  5
1C7
330
1BC
100
AcDbEntity
  8
DEFPOINTS
  6
ByBlock
 62
     0
440
 16777216
100
AcDbPoint
 10
344.545266080214
 20
381.5182120793961
 30
0.0
  0
ENDBLK
  5
1C9
330
1BC
100
AcDbEntity
  8
0
100
AcDbBlockEnd
  0
BLOCK
  5
1B3
330
1A9
100
AcDbEntity
  8
0
100
AcDbBlockBegin
  2
*D19
 70
     1
 10
0.0
 20
0.0
 30
0.0
  3
*D19
  1

  0
LINE
  5
1AA
330
1A9
100
AcDbEntity
  8
0
  6
ByBlock
 62
     2
440
 16777216
100
AcDbLine
 10
352.2952660802141
 20
368.2582284456616
 30
0.0
 11
384.2392559532676
 21
368.2582284456616
 31
0.0
  0
LINE
  5
1AB
330
1A9
100
AcDbEntity
  8
0
  6
ByBlock
 62
     2
440
 16777216
100
AcDbLine
 10
356.7952660802142
 20
426.2582284456617
 30
0.0
 11
384.2392559532676
 21
426.2582284456617
 31
0.0
  0
LINE
  5
1AC
330
1A9
100
AcDbEntity
  8
0
  6
ByBlock
 62
     2
440
 16777216
100
AcDbLine
 10
382.2892559532677
 20
373.5082284456617
 30
0.0
 11
382.2892559532677
 21
421.0082284456617
 31
0.0
  0
SOLID
  5
1AD
330
1A9
100
AcDbEntity
  8
0
  6
ByBlock
 62
     2
440
 16777216
100
AcDbTrace
 10
381.4142559532676
 20
373.5082284456617
 30
0.0
 11
383.1642559532676
 21
373.5082284456617
 31
0.0
 12
382.2892559532677
 22
368.2582284456616
 32
0.0
 13
382.2892559532677
 23
368.2582284456616
 33
0.0
  0
SOLID
  5
1AE
330
1A9
100
AcDbEntity
  8
0
  6
ByBlock
 62
     2
440
 16777216
100
AcDbTrace
 10
381.4142559532676
 20
421.0082284456617
 30
0.0
 11
383.1642559532676
 21
421.0082284456617
 31
0.0
 12
382.2892559532677
 22
426.2582284456617
 32
0.0
 13
382.2892559532677
 23
426.2582284456617
 33
0.0
  0
MTEXT
  5
1AF
330
1A9
100
AcDbEntity
  8
0
  6
ByBlock
 62
     3
440
 16777216
100
AcDbMText
 10
378.1642559532676
 20
397.2582284456617
 30
0.0
 40
5.25
 41
0.0
 46
0.0
 71
     5
 72
     1
  1
\A1;58
  7
NORM
 11
0.0000000000000001
 21
1.0
 31
0.0
 73
     1
 44
1.0
  0
POINT
  5
1B0
330
1A9
100
AcDbEntity
  8
DEFPOINTS
  6
ByBlock
 62
     0
440
 16777216
100
AcDbPoint
 10
351.5452660802142
 20
368.2582284456616
 30
0.0
  0
POINT
  5
1B1
330
1A9
100
AcDbEntity
  8
DEFPOINTS
  6
ByBlock
 62
     0
440
 16777216
100
AcDbPoint
 10
356.0452660802142
 20
426.2582284456617
 30
0.0
  0
POINT
  5
1B2
330
1A9
100
AcDbEntity
  8
DEFPOINTS
  6
ByBlock
 62
     0
440
 16777216
100
AcDbPoint
 10
382.2892559532677
 20
426.2582284456617
 30
0.0
  0
ENDBLK
  5
1B4
330
1A9
100
AcDbEntity
  8
0
100
AcDbBlockEnd
  0
BLOCK
  5
1A5
330
19B
100
AcDbEntity
  8
0
100
AcDbBlockBegin
  2
*D20
 70
     1
 10
0.0
 20
0.0
 30
0.0
  3
*D20
  1

  0
LINE
  5
19C
330
19B
100
AcDbEntity
  8
0
  6
ByBlock
 62
     2
440
 16777216
100
AcDbLine
 10
294.795266080214
 20
384.2582284456617
 30
0.0
 11
272.595266080214
 21
384.2582284456617
 31
0.0
  0
LINE
  5
19D
330
19B
100
AcDbEntity
  8
0
  6
ByBlock
 62
     2
440
 16777216
100
AcDbLine
 10
294.795266080214
 20
414.2582284456617
 30
0.0
 11
272.595266080214
 21
414.2582284456617
 31
0.0
  0
LINE
  5
19E
330
19B
100
AcDbEntity
  8
0
  6
ByBlock
 62
     2
440
 16777216
100
AcDbLine
 10
274.5452660802141
 20
389.5082284456617
 30
0.0
 11
274.5452660802141
 21
409.0082284456618
 31
0.0
  0
SOLID
  5
19F
330
19B
100
AcDbEntity
  8
0
  6
ByBlock
 62
     2
440
 16777216
100
AcDbTrace
 10
273.6702660802141
 20
389.5082284456617
 30
0.0
 11
275.4202660802141
 21
389.5082284456617
 31
0.0
 12
274.5452660802141
 22
384.2582284456617
 32
0.0
 13
274.5452660802141
 23
384.2582284456617
 33
0.0
  0
SOLID
  5
1A0
330
19B
100
AcDbEntity
  8
0
  6
ByBlock
 62
     2
440
 16777216
100
AcDbTrace
 10
273.6702660802141
 20
409.0082284456618
 30
0.0
 11
275.4202660802141
 21
409.0082284456618
 31
0.0
 12
274.5452660802141
 22
414.2582284456617
 32
0.0
 13
274.5452660802141
 23
414.2582284456617
 33
0.0
  0
MTEXT
  5
1A1
330
19B
100
AcDbEntity
  8
0
  6
ByBlock
 62
     3
440
 16777216
100
AcDbMText
 10
270.4202660802141
 20
399.2582284456617
 30
0.0
 40
5.25
 41
0.0
 46
0.0
 71
     5
 72
     1
  1
\A1;30
  7
NORM
 11
0.0000000000000001
 21
1.0
 31
0.0
 73
     1
 44
1.0
  0
POINT
  5
1A2
330
19B
100
AcDbEntity
  8
DEFPOINTS
  6
ByBlock
 62
     0
440
 16777216
100
AcDbPoint
 10
295.5452660802141
 20
384.2582284456617
 30
0.0
  0
POINT
  5
1A3
330
19B
100
AcDbEntity
  8
DEFPOINTS
  6
ByBlock
 62
     0
440
 16777216
100
AcDbPoint
 10
295.5452660802141
 20
414.2582284456617
 30
0.0
  0
POINT
  5
1A4
330
19B
100
AcDbEntity
  8
DEFPOINTS
  6
ByBlock
 62
     0
440
 16777216
100
AcDbPoint
 10
274.5452660802141
 20
414.2582284456617
 30
0.0
  0
ENDBLK
  5
1A6
330
19B
100
AcDbEntity
  8
0
100
AcDbBlockEnd
  0
BLOCK
  5
1D6
330
1CC
100
AcDbEntity
  8
0
100
AcDbBlockBegin
  2
*D21
 70
     1
 10
0.0
 20
0.0
 30
0.0
  3
*D21
  1

  0
LINE
  5
1CD
330
1CC
100
AcDbEntity
  8
0
  6
ByBlock
 62
     2
440
 16777216
100
AcDbLine
 10
292.795266080214
 20
327.2582284456616
 30
0.0
 11
272.595266080214
 21
327.2582284456616
 31
0.0
  0
LINE
  5
1CE
330
1CC
100
AcDbEntity
  8
0
  6
ByBlock
 62
     2
440
 16777216
100
AcDbLine
 10
294.795266080214
 20
384.2582284456617
 30
0.0
 11
272.595266080214
 21
384.2582284456617
 31
0.0
  0
LINE
  5
1CF
330
1CC
100
AcDbEntity
  8
0
  6
ByBlock
 62
     2
440
 16777216
100
AcDbLine
 10
274.5452660802141
 20
332.5082284456617
 30
0.0
 11
274.5452660802141
 21
379.0082284456617
 31
0.0
  0
SOLID
  5
1D0
330
1CC
100
AcDbEntity
  8
0
  6
ByBlock
 62
     2
440
 16777216
100
AcDbTrace
 10
273.6702660802141
 20
332.5082284456617
 30
0.0
 11
275.4202660802141
 21
332.5082284456617
 31
0.0
 12
274.5452660802141
 22
327.2582284456616
 32
0.0
 13
274.5452660802141
 23
327.2582284456616
 33
0.0
  0
SOLID
  5
1D1
330
1CC
100
AcDbEntity
  8
0
  6
ByBlock
 62
     2
440
 16777216
100
AcDbTrace
 10
273.6702660802141
 20
379.0082284456617
 30
0.0
 11
275.4202660802141
 21
379.0082284456617
 31
0.0
 12
274.5452660802141
 22
384.2582284456617
 32
0.0
 13
274.5452660802141
 23
384.2582284456617
 33
0.0
  0
MTEXT
  5
1D2
330
1CC
100
AcDbEntity
  8
0
  6
ByBlock
 62
     3
440
 16777216
100
AcDbMText
 10
270.4202660802141
 20
355.7582284456616
 30
0.0
 40
5.25
 41
0.0
 46
0.0
 71
     5
 72
     1
  1
\A1;57
  7
NORM
 11
0.0000000000000001
 21
1.0
 31
0.0
 73
     1
 44
1.0
  0
POINT
  5
1D3
330
1CC
100
AcDbEntity
  8
DEFPOINTS
  6
ByBlock
 62
     0
440
 16777216
100
AcDbPoint
 10
293.5452660802141
 20
327.2582284456616
 30
0.0
  0
POINT
  5
1D4
330
1CC
100
AcDbEntity
  8
DEFPOINTS
  6
ByBlock
 62
     0
440
 16777216
100
AcDbPoint
 10
295.5452660802141
 20
384.2582284456617
 30
0.0
  0
POINT
  5
1D5
330
1CC
100
AcDbEntity
  8
DEFPOINTS
  6
ByBlock
 62
     0
440
 16777216
100
AcDbPoint
 10
274.5452660802141
 20
384.2582284456617
 30
0.0
  0
ENDBLK
  5
1D7
330
1CC
100
AcDbEntity
  8
0
100
AcDbBlockEnd
  0
BLOCK
  5
1F1
330
1E5
100
AcDbEntity
  8
0
100
AcDbBlockBegin
  2
*D22
 70
     1
 10
0.0
 20
0.0
 30
0.0
  3
*D22
  1

  0
LINE
  5
1E6
330
1E5
100
AcDbEntity
  8
0
  6
ByBlock
 62
     2
440
 16777216
100
AcDbLine
 10
295.5452660802141
 20
383.5082284456617
 30
0.0
 11
295.5452660802141
 21
369.2109984878231
 31
0.0
  0
LINE
  5
1E7
330
1E5
100
AcDbEntity
  8
0
  6
ByBlock
 62
     2
440
 16777216
100
AcDbLine
 10
305.5452660802141
 20
371.9109984878231
 30
0.0
 11
305.5452660802141
 21
373.110998487823
 31
0.0
  0
LINE
  5
1E8
330
1E5
100
AcDbEntity
  8
0
  6
ByBlock
 62
     2
440
 16777216
100
AcDbLine
 10
290.295266080214
 20
371.1609984878231
 30
0.0
 11
285.0452660802141
 21
371.1609984878231
 31
0.0
  0
LINE
  5
1E9
330
1E5
100
AcDbEntity
  8
0
  6
ByBlock
 62
     2
440
 16777216
100
AcDbLine
 10
310.7952660802141
 20
371.1609984878231
 30
0.0
 11
316.0452660802141
 21
371.1609984878231
 31
0.0
  0
LINE
  5
1EA
330
1E5
100
AcDbEntity
  8
0
  6
ByBlock
 62
     2
440
 16777216
100
AcDbLine
 10
295.5452660802141
 20
371.1609984878231
 30
0.0
 11
305.5452660802141
 21
371.1609984878231
 31
0.0
  0
SOLID
  5
1EB
330
1E5
100
AcDbEntity
  8
0
  6
ByBlock
 62
     2
440
 16777216
100
AcDbTrace
 10
290.295266080214
 20
372.0359984878231
 30
0.0
 11
290.295266080214
 21
370.2859984878231
 31
0.0
 12
295.5452660802141
 22
371.1609984878231
 32
0.0
 13
295.5452660802141
 23
371.1609984878231
 33
0.0
  0
SOLID
  5
1EC
330
1E5
100
AcDbEntity
  8
0
  6
ByBlock
 62
     2
440
 16777216
100
AcDbTrace
 10
310.7952660802141
 20
372.0359984878231
 30
0.0
 11
310.7952660802141
 21
370.2859984878231
 31
0.0
 12
305.5452660802141
 22
371.1609984878231
 32
0.0
 13
305.5452660802141
 23
371.1609984878231
 33
0.0
  0
MTEXT
  5
1ED
330
1E5
100
AcDbEntity
  8
0
  6
ByBlock
 62
     3
440
 16777216
100
AcDbMText
 10
300.5452660802141
 20
375.2859984878231
 30
0.0
 40
5.25
 41
0.0
 46
0.0
 71
     5
 72
     1
  1
\A1;10
  7
NORM
 73
     1
 44
1.0
  0
POINT
  5
1EE
330
1E5
100
AcDbEntity
  8
DEFPOINTS
  6
ByBlock
 62
     0
440
 16777216
100
AcDbPoint
 10
295.5452660802141
 20
384.2582284456617
 30
0.0
  0
POINT
  5
1EF
330
1E5
100
AcDbEntity
  8
DEFPOINTS
  6
ByBlock
 62
     0
440
 16777216
100
AcDbPoint
 10
305.5452660802141
 20
371.1609984878231
 30
0.0
  0
POINT
  5
1F0
330
1E5
100
AcDbEntity
  8
DEFPOINTS
  6
ByBlock
 62
     0
440
 16777216
100
AcDbPoint
 10
305.5452660802141
 20
371.1609984878231
 30
0.0
  0
ENDBLK
  5
1F2
330
1E5
100
AcDbEntity
  8
0
100
AcDbBlockEnd
  0
BLOCK
  5
239
330
22F
100
AcDbEntity
  8
0
100
AcDbBlockBegin
  2
*D23
 70
     1
 10
0.0
 20
0.0
 30
0.0
  3
*D23
  1

  0
LINE
  5
230
330
22F
100
AcDbEntity
  8
0
  6
ByBlock
 62
     2
440
 16777216
100
AcDbLine
 10
307.7952660802141
 20
426.2582284456617
 30
0.0
 11
272.595266080214
 21
426.2582284456617
 31
0.0
  0
LINE
  5
231
330
22F
100
AcDbEntity
  8
0
  6
ByBlock
 62
     2
440
 16777216
100
AcDbLine
 10
304.7952660802141
 20
453.2582284456617
 30
0.0
 11
272.595266080214
 21
453.2582284456617
 31
0.0
  0
LINE
  5
232
330
22F
100
AcDbEntity
  8
0
  6
ByBlock
 62
     2
440
 16777216
100
AcDbLine
 10
274.5452660802141
 20
431.5082284456616
 30
0.0
 11
274.5452660802141
 21
448.0082284456616
 31
0.0
  0
SOLID
  5
233
330
22F
100
AcDbEntity
  8
0
  6
ByBlock
 62
     2
440
 16777216
100
AcDbTrace
 10
273.6702660802141
 20
431.5082284456616
 30
0.0
 11
275.4202660802141
 21
431.5082284456616
 31
0.0
 12
274.5452660802141
 22
426.2582284456617
 32
0.0
 13
274.5452660802141
 23
426.2582284456617
 33
0.0
  0
SOLID
  5
234
330
22F
100
AcDbEntity
  8
0
  6
ByBlock
 62
     2
440
 16777216
100
AcDbTrace
 10
273.6702660802141
 20
448.0082284456616
 30
0.0
 11
275.4202660802141
 21
448.0082284456616
 31
0.0
 12
274.5452660802141
 22
453.2582284456617
 32
0.0
 13
274.5452660802141
 23
453.2582284456617
 33
0.0
  0
MTEXT
  5
235
330
22F
100
AcDbEntity
  8
0
  6
ByBlock
 62
     3
440
 16777216
100
AcDbMText
 10
270.4202660802141
 20
439.7582284456617
 30
0.0
 40
5.25
 41
0.0
 46
0.0
 71
     5
 72
     1
  1
\A1;27
  7
NORM
 11
0.0000000000000001
 21
1.0
 31
0.0
 73
     1
 44
1.0
  0
POINT
  5
236
330
22F
100
AcDbEntity
  8
DEFPOINTS
  6
ByBlock
 62
     0
440
 16777216
100
AcDbPoint
 10
308.5452660802141
 20
426.2582284456617
 30
0.0
  0
POINT
  5
237
330
22F
100
AcDbEntity
  8
DEFPOINTS
  6
ByBlock
 62
     0
440
 16777216
100
AcDbPoint
 10
305.5452660802141
 20
453.2582284456617
 30
0.0
  0
POINT
  5
238
330
22F
100
AcDbEntity
  8
DEFPOINTS
  6
ByBlock
 62
     0
440
 16777216
100
AcDbPoint
 10
274.5452660802141
 20
453.2582284456617
 30
0.0
  0
ENDBLK
  5
23A
330
22F
100
AcDbEntity
  8
0
100
AcDbBlockEnd
  0
BLOCK
  5
249
330
23D
100
AcDbEntity
  8
0
100
AcDbBlockBegin
  2
*D24
 70
     1
 10
0.0
 20
0.0
 30
0.0
  3
*D24
  1

  0
LINE
  5
23E
330
23D
100
AcDbEntity
  8
0
  6
ByBlock
 62
     2
440
 16777216
100
AcDbLine
 10
294.795266080214
 20
414.2582284456617
 30
0.0
 11
272.595266080214
 21
414.2582284456617
 31
0.0
  0
LINE
  5
23F
330
23D
100
AcDbEntity
  8
0
  6
ByBlock
 62
     2
440
 16777216
100
AcDbLine
 10
307.7952660802141
 20
426.2582284456617
 30
0.0
 11
272.595266080214
 21
426.2582284456617
 31
0.0
  0
LINE
  5
240
330
23D
100
AcDbEntity
  8
0
  6
ByBlock
 62
     2
440
 16777216
100
AcDbLine
 10
274.5452660802141
 20
409.0082284456618
 30
0.0
 11
274.5452660802141
 21
403.7582284456616
 31
0.0
  0
LINE
  5
241
330
23D
100
AcDbEntity
  8
0
  6
ByBlock
 62
     2
440
 16777216
100
AcDbLine
 10
274.5452660802141
 20
431.5082284456616
 30
0.0
 11
274.5452660802141
 21
436.7582284456617
 31
0.0
  0
LINE
  5
242
330
23D
100
AcDbEntity
  8
0
  6
ByBlock
 62
     2
440
 16777216
100
AcDbLine
 10
274.5452660802141
 20
414.2582284456617
 30
0.0
 11
274.5452660802141
 21
426.2582284456617
 31
0.0
  0
SOLID
  5
243
330
23D
100
AcDbEntity
  8
0
  6
ByBlock
 62
     2
440
 16777216
100
AcDbTrace
 10
273.6702660802141
 20
409.0082284456618
 30
0.0
 11
275.4202660802141
 21
409.0082284456618
 31
0.0
 12
274.5452660802141
 22
414.2582284456617
 32
0.0
 13
274.5452660802141
 23
414.2582284456617
 33
0.0
  0
SOLID
  5
244
330
23D
100
AcDbEntity
  8
0
  6
ByBlock
 62
     2
440
 16777216
100
AcDbTrace
 10
273.6702660802141
 20
431.5082284456616
 30
0.0
 11
275.4202660802141
 21
431.5082284456616
 31
0.0
 12
274.5452660802141
 22
426.2582284456617
 32
0.0
 13
274.5452660802141
 23
426.2582284456617
 33
0.0
  0
MTEXT
  5
245
330
23D
100
AcDbEntity
  8
0
  6
ByBlock
 62
     3
440
 16777216
100
AcDbMText
 10
270.4202660802141
 20
420.2582284456616
 30
0.0
 40
5.25
 41
0.0
 46
0.0
 71
     5
 72
     1
  1
\A1;12
  7
NORM
 11
0.0000000000000001
 21
1.0
 31
0.0
 73
     1
 44
1.0
  0
POINT
  5
246
330
23D
100
AcDbEntity
  8
DEFPOINTS
  6
ByBlock
 62
     0
440
 16777216
100
AcDbPoint
 10
295.5452660802141
 20
414.2582284456617
 30
0.0
  0
POINT
  5
247
330
23D
100
AcDbEntity
  8
DEFPOINTS
  6
ByBlock
 62
     0
440
 16777216
100
AcDbPoint
 10
308.5452660802141
 20
426.2582284456617
 30
0.0
  0
POINT
  5
248
330
23D
100
AcDbEntity
  8
DEFPOINTS
  6
ByBlock
 62
     0
440
 16777216
100
AcDbPoint
 10
274.5452660802141
 20
426.2582284456617
 30
0.0
  0
ENDBLK
  5
24A
330
23D
100
AcDbEntity
  8
0
100
AcDbBlockEnd
  0
BLOCK
  5
263
330
257
100
AcDbEntity
  8
0
100
AcDbBlockBegin
  2
*D25
 70
     1
 10
0.0
 20
0.0
 30
0.0
  3
*D25
  1

  0
LINE
  5
258
330
257
100
AcDbEntity
  8
0
  6
ByBlock
 62
     2
440
 16777216
100
AcDbLine
 10
443.93858448245
 20
443.2582284456616
 30
0.0
 11
427.4885844824501
 21
443.2582284456616
 31
0.0
  0
LINE
  5
259
330
257
100
AcDbEntity
  8
0
  6
ByBlock
 62
     2
440
 16777216
100
AcDbLine
 10
439.6885844824501
 20
453.2582284456616
 30
0.0
 11
427.4885844824501
 21
453.2582284456616
 31
0.0
  0
LINE
  5
25A
330
257
100
AcDbEntity
  8
0
  6
ByBlock
 62
     2
440
 16777216
100
AcDbLine
 10
429.4385844824501
 20
438.0082284456616
 30
0.0
 11
429.4385844824501
 21
432.7582284456616
 31
0.0
  0
LINE
  5
25B
330
257
100
AcDbEntity
  8
0
  6
ByBlock
 62
     2
440
 16777216
100
AcDbLine
 10
429.4385844824501
 20
458.5082284456616
 30
0.0
 11
429.4385844824501
 21
463.7582284456616
 31
0.0
  0
LINE
  5
25C
330
257
100
AcDbEntity
  8
0
  6
ByBlock
 62
     2
440
 16777216
100
AcDbLine
 10
429.4385844824501
 20
443.2582284456616
 30
0.0
 11
429.4385844824501
 21
453.2582284456616
 31
0.0
  0
SOLID
  5
25D
330
257
100
AcDbEntity
  8
0
  6
ByBlock
 62
     2
440
 16777216
100
AcDbTrace
 10
428.5635844824501
 20
438.0082284456616
 30
0.0
 11
430.3135844824501
 21
438.0082284456616
 31
0.0
 12
429.4385844824501
 22
443.2582284456616
 32
0.0
 13
429.4385844824501
 23
443.2582284456616
 33
0.0
  0
SOLID
  5
25E
330
257
100
AcDbEntity
  8
0
  6
ByBlock
 62
     2
440
 16777216
100
AcDbTrace
 10
428.5635844824501
 20
458.5082284456616
 30
0.0
 11
430.3135844824501
 21
458.5082284456616
 31
0.0
 12
429.4385844824501
 22
453.2582284456616
 32
0.0
 13
429.4385844824501
 23
453.2582284456616
 33
0.0
  0
MTEXT
  5
25F
330
257
100
AcDbEntity
  8
0
  6
ByBlock
 62
     3
440
 16777216
100
AcDbMText
 10
425.3135844824501
 20
448.2582284456616
 30
0.0
 40
5.25
 41
0.0
 46
0.0
 71
     5
 72
     1
  1
\A1;10
  7
NORM
 11
0.0000000000000001
 21
1.0
 31
0.0
 73
     1
 44
1.0
  0
POINT
  5
260
330
257
100
AcDbEntity
  8
DEFPOINTS
  6
ByBlock
 62
     0
440
 16777216
100
AcDbPoint
 10
444.68858448245
 20
443.2582284456616
 30
0.0
  0
POINT
  5
261
330
257
100
AcDbEntity
  8
DEFPOINTS
  6
ByBlock
 62
     0
440
 16777216
100
AcDbPoint
 10
440.4385844824501
 20
453.2582284456616
 30
0.0
  0
POINT
  5
262
330
257
100
AcDbEntity
  8
DEFPOINTS
  6
ByBlock
 62
     0
440
 16777216
100
AcDbPoint
 10
429.4385844824501
 20
453.2582284456616
 30
0.0
  0
ENDBLK
  5
264
330
257
100
AcDbEntity
  8
0
100
AcDbBlockEnd
  0
BLOCK
  5
34F
330
34D
100
AcDbEntity
  8
0
100
AcDbBlockBegin
  2
GENAXEH
 70
     0
 10
0.0
 20
0.0
 30
0.0
  3
GENAXEH
  1

  0
LINE
  5
34E
330
34D
100
AcDbEntity
  8
0
100
AcDbLine
 10
-1.0
 20
0.0
 30
0.0
 11
1.0
 21
0.0
 31
0.0
  0
ENDBLK
  5
350
330
34D
100
AcDbEntity
  8
0
100
AcDbBlockEnd
  0
BLOCK
  5
35F
330
35E
100
AcDbEntity
  8
0
100
AcDbBlockBegin
  2
_ACMFILLED30
 70
     0
 10
0.0
 20
0.0
 30
0.0
  3
_ACMFILLED30
  1

  0
TRACE
  5
361
330
35E
100
AcDbEntity
  8
BEMASSUNG
 62
     0
100
AcDbTrace
 10
-1.0
 20
-0.26794919
 30
0.0
 11
-1.0
 21
0.26794919
 31
0.0
 12
0.0
 22
0.0
 32
0.0
 13
0.0
 23
0.0
 33
0.0
  0
ENDBLK
  5
360
330
35E
100
AcDbEntity
  8
0
100
AcDbBlockEnd
  0
BLOCK
  5
3AC
330
3AB
100
AcDbEntity
  8
0
100
AcDbBlockBegin
  2
*D28
 70
     1
 10
0.0
 20
0.0
 30
0.0
  3
*D28
  1

  0
LINE
  5
3CB
330
3AB
100
AcDbEntity
  8
AM_5
  6
ByBlock
440
 16777216
100
AcDbLine
 10
319.3164718044912
 20
235.41222784641
 30
0.0
 11
316.7020746666297
 21
237.7392275467843
 31
0.0
  0
LINE
  5
3CC
330
3AB
100
AcDbEntity
  8
AM_5
  6
ByBlock
440
 16777216
100
AcDbLine
 10
316.7020746666297
 20
237.7392275467843
 30
0.0
 11
309.3687413332963
 21
237.7392275467842
 31
0.0
  0
SOLID
  5
3CD
330
3AB
100
AcDbEntity
  8
AM_5
440
 16777216
100
AcDbTrace
 10
319.7043050878868
 20
235.8479607027202
 30
0.0
 11
318.9286385210955
 21
234.9764949900997
 31
0.0
 12
321.9308689423526
 22
233.0852281460358
 32
0.0
 13
321.9308689423526
 23
233.0852281460358
 33
0.0
  0
MTEXT
  5
3CE
330
3AB
100
AcDbEntity
  8
AM_5
 62
     2
440
 16777216
100
AcDbMText
 10
312.285407999963
 20
240.9892275467843
 30
0.0
 40
3.5
 41
0.0
 46
0.0
 71
     5
 72
     1
  1
∅7
 73
     1
 44
1.0
  0
POINT
  5
3CF
330
3AB
100
AcDbEntity
  8
DEFPOINTS
 62
     0
440
 16777216
100
AcDbPoint
 10
321.9308689423526
 20
233.0852281460358
 30
0.0
  0
POINT
  5
3D0
330
3AB
100
AcDbEntity
  8
DEFPOINTS
 62
     0
440
 16777216
100
AcDbPoint
 10
327.1596632180755
 20
228.4312287452874
 30
0.0
  0
ENDBLK
  5
3AD
330
3AB
100
AcDbEntity
  8
0
100
AcDbBlockEnd
  0
ENDSEC
  0
SECTION
  2
ENTITIES
  0
DIMENSION
  5
29
330
2
100
AcDbEntity
  8
BEMASSUNG
100
AcDbDimension
280
     0
  2
*D4
 10
382.2892559532677
 20
368.2582284456616
 30
0.0
 11
378.1642559532676
 21
329.2582284456616
 31
0.0
 71
     5
 42
-1.0
 73
     0
 74
     0
 75
     0
  3
PROSPEKT
100
AcDbAlignedDimension
 13
351.645266080214
 23
290.2582284456617
 33
0.0
 14
351.5452660802142
 24
368.2582284456616
 34
0.0
 50
90.0
100
AcDbRotatedDimension
  0
DIMENSION
  5
39
330
2
100
AcDbEntity
  8
BEMASSUNG
100
AcDbDimension
280
     0
  2
*D3
 10
394.5220183332224
 20
426.2582284456617
 30
0.0
 11
390.3970183332223
 21
319.2582284456617
 31
0.0
 71
     5
 42
-1.0
 73
     0
 74
     0
 75
     0
  3
PROSPEKT
100
AcDbAlignedDimension
 13
356.0452660802142
 23
212.2582284456616
 33
0.0
 14
356.0452660802142
 24
426.2582284456617
 34
0.0
 50
90.0
100
AcDbRotatedDimension
  0
LWPOLYLINE
  5
46
330
2
100
AcDbEntity
  8
LAYER3
  6
Continuous
 62
     4
100
AcDbPolyline
 90
        6
 70
     1
 43
0.0
 10
305.5452660802141
 20
405.30378501261
 10
305.5452660802141
 20
185.2582284456616
 10
308.5452660802141
 20
185.2582284456616
 10
308.5452660802141
 20
405.2582284456617
 10
308.5452660802141
 20
453.2582284456617
 10
305.5452660802141
 20
453.2582284456617
  0
LWPOLYLINE
  5
48
330
2
100
AcDbEntity
  8
LAYER3
  6
Continuous
 62
     4
100
AcDbPolyline
 90
        2
 70
     0
 43
0.0
 10
356.0452660802142
 20
212.2582284456616
 10
356.0452660802142
 20
426.2582284456617
  0
ARC
  5
49
330
2
100
AcDbEntity
  8
LAYER3
  6
Continuous
 62
     4
100
AcDbCircle
 10
340.545266080214
 20
290.2582284456617
 30
0.0
 40
11.1
100
AcDbArc
 50
297.3522329091287
 51
242.6477670908709
  0
DIMENSION
  5
4A
330
2
100
AcDbEntity
  8
BEMASSUNG
100
AcDbDimension
280
     0
  2
*D2
 10
274.5452660802141
 20
327.2582284456616
 30
0.0
 11
270.4202660802141
 21
311.2582284456617
 31
0.0
 71
     5
 42
-1.0
 73
     0
 74
     0
 75
     0
  3
PROSPEKT
100
AcDbAlignedDimension
 13
293.5452660802141
 23
295.2582284456616
 33
0.0
 14
293.5452660802141
 24
327.2582284456616
 34
0.0
 50
90.0
100
AcDbRotatedDimension
  0
LWPOLYLINE
  5
57
330
2
100
AcDbEntity
  8
LAYER3
  6
Continuous
 62
     4
100
AcDbPolyline
 90
        2
 70
     0
 43
0.0
 10
294.5452660802141
 20
327.2582284456616
 10
294.5452660802141
 20
295.2582284456616
  0
LWPOLYLINE
  5
58
330
2
100
AcDbEntity
  8
LAYER3
  6
Continuous
 62
     4
100
AcDbPolyline
 90
        5
 70
     0
 43
0.0
 10
305.5452660802141
 20
295.2582284456616
 10
293.5452660802141
 20
295.2582284456616
 10
293.5452660802141
 20
325.2582284456616
 10
293.5452660802141
 20
327.2582284456616
 10
305.5452660802141
 20
327.2582284456616
  0
LINE
  5
59
330
2
100
AcDbEntity
  8
ACHSEN
100
AcDbLine
 10
340.545266080214
 20
290.2582284456617
 30
0.0
 11
340.545266080214
 21
368.2582284456616
 31
0.0
  0
LWPOLYLINE
  5
5C
330
2
100
AcDbEntity
  8
LAYER3
  6
Continuous
 62
     4
100
AcDbPolyline
 90
        4
 70
     1
 43
0.0
 10
462.4385844824501
 20
453.2582284456616
 10
462.4385844824501
 20
185.2582284456616
 10
440.4385844824501
 20
185.2582284456616
 10
440.4385844824501
 20
453.2582284456616
  0
DIMENSION
  5
5D
330
2
100
AcDbEntity
  8
BEMASSUNG
100
AcDbDimension
280
     0
  2
*D1
 10
473.4385844824503
 20
185.2582284456616
 30
0.0
 11
469.3135844824503
 21
319.2582284456615
 31
0.0
 71
     5
 42
-1.0
 73
     0
 74
     0
 75
     0
  3
PROSPEKT
100
AcDbAlignedDimension
 13
462.4385844824501
 23
453.2582284456616
 33
0.0
 14
462.4385844824501
 24
185.2582284456616
 34
0.0
 50
90.0
100
AcDbRotatedDimension
  0
DIMENSION
  5
6A
330
2
100
AcDbEntity
  8
BEMASSUNG
100
AcDbDimension
280
     0
  2
*D0
 10
429.4385844824501
 20
443.2582284456616
 30
0.0
 11
425.3135844824501
 21
319.2582284456616
 31
0.0
 71
     5
 42
-1.0
 73
     0
 74
     0
 75
     0
  3
PROSPEKT
100
AcDbAlignedDimension
 13
444.68858448245
 23
195.2582284456616
 33
0.0
 14
444.68858448245
 24
443.2582284456616
 34
0.0
 50
90.0
100
AcDbRotatedDimension
  0
LWPOLYLINE
  5
77
330
2
100
AcDbEntity
  8
LAYER3
  6
Continuous
 62
     4
100
AcDbPolyline
 90
        4
 70
     1
 43
0.0
 10
446.93858448245
 20
326.9743824960016
 10
455.93858448245
 20
326.9743824960016
 10
455.93858448245
 20
295.1874781303867
 10
446.93858448245
 20
295.1874781303867
  0
DIMENSION
  5
78
330
2
100
AcDbEntity
  8
BEMASSUNG
100
AcDbDimension
280
     0
  2
*D6
 10
271.7567879229609
 20
119.3466759494075
 30
0.0
 11
267.6317879229609
 21
125.8466759494075
 31
0.0
 71
     5
 42
-1.0
 73
     0
 74
     0
 75
     0
  3
PROSPEKT
100
AcDbAlignedDimension
 13
295.4866365936181
 23
132.3466759494075
 33
0.0
 14
305.5452660802141
 24
119.3466759494075
 34
0.0
 50
90.0
100
AcDbRotatedDimension
  0
DIMENSION
  5
87
330
2
100
AcDbEntity
  8
BEMASSUNG
100
AcDbDimension
280
     0
  2
*D5
 10
289.5931467989435
 20
121.3466759494076
 30
0.0
 11
285.4681467989435
 21
125.8466759494075
 31
0.0
 71
     5
 42
-1.0
 73
     0
 74
     0
 75
     0
  3
PROSPEKT
100
AcDbAlignedDimension
 13
295.4866365936181
 23
130.3466759494075
 33
0.0
 14
295.4866365936181
 24
121.3466759494076
 34
0.0
 50
90.0
100
AcDbRotatedDimension
  0
CIRCLE
  5
96
330
2
100
AcDbEntity
  8
LAYER3
  6
Continuous
 62
     4
100
AcDbCircle
 10
451.43858448245
 20
271.0582284456616
 30
0.0
 40
2.6
  0
LINE
  5
97
330
2
100
AcDbEntity
  8
ACHSEN
100
AcDbLine
 10
451.43858448245
 20
271.0582284456616
 30
0.0
 11
444.68858448245
 21
271.0582284456616
 31
0.0
  0
CIRCLE
  5
98
330
2
100
AcDbEntity
  8
LAYER3
  6
Continuous
 62
     4
100
AcDbCircle
 10
451.43858448245
 20
271.0582284456616
 30
0.0
 40
4.75
  0
CIRCLE
  5
99
330
2
100
AcDbEntity
  8
LAYER3
  6
Continuous
 62
     4
100
AcDbCircle
 10
451.43858448245
 20
223.0582284456616
 30
0.0
 40
2.6
  0
LINE
  5
9A
330
2
100
AcDbEntity
  8
ACHSEN
100
AcDbLine
 10
451.43858448245
 20
223.0582284456616
 30
0.0
 11
444.68858448245
 21
223.0582284456616
 31
0.0
  0
CIRCLE
  5
9B
330
2
100
AcDbEntity
  8
LAYER3
  6
Continuous
 62
     4
100
AcDbCircle
 10
451.43858448245
 20
223.0582284456616
 30
0.0
 40
4.75
  0
LINE
  5
9C
330
2
100
AcDbEntity
  8
ACHSEN
100
AcDbLine
 10
451.43858448245
 20
195.2582284456616
 30
0.0
 11
444.68858448245
 21
195.2582284456616
 31
0.0
  0
CIRCLE
  5
9D
330
2
100
AcDbEntity
  8
LAYER3
  6
Continuous
 62
     4
100
AcDbCircle
 10
451.43858448245
 20
195.2582284456616
 30
0.0
 40
2.6
  0
CIRCLE
  5
9E
330
2
100
AcDbEntity
  8
LAYER3
  6
Continuous
 62
     4
100
AcDbCircle
 10
451.43858448245
 20
195.2582284456616
 30
0.0
 40
4.75
  0
DIMENSION
  5
9F
330
2
100
AcDbEntity
  8
BEMASSUNG
100
AcDbDimension
280
     0
  2
*D17
 10
462.4385844824501
 20
168.4236555074634
 30
0.0
 11
451.43858448245
 21
172.5486555074635
 31
0.0
 71
     5
 42
-1.0
 73
     0
 74
     0
 75
     0
  3
PROSPEKT
100
AcDbAlignedDimension
 13
440.4385844824501
 23
185.2582284456616
 33
0.0
 14
462.4385844824501
 24
185.2582284456616
 34
0.0
100
AcDbRotatedDimension
  0
DIMENSION
  5
AC
330
2
100
AcDbEntity
  8
BEMASSUNG
100
AcDbDimension
280
     0
  2
*D11
 10
274.5452660802141
 20
212.2582284456616
 30
0.0
 11
270.4202660802141
 21
198.7582284456616
 31
0.0
 71
     5
 42
-1.0
 73
     0
 74
     0
 75
     0
  3
PROSPEKT
100
AcDbAlignedDimension
 13
305.5452660802141
 23
185.2582284456616
 33
0.0
 14
308.5452660802141
 24
212.2582284456616
 34
0.0
 50
90.0
100
AcDbRotatedDimension
  0
DIMENSION
  5
B9
330
2
100
AcDbEntity
  8
BEMASSUNG-DEUTSCH
100
AcDbDimension
280
     0
  2
*D10
 10
340.545266080214
 20
169.3270849259729
 30
0.0
 11
323.0452660802141
 21
173.4520849259729
 31
0.0
  1
DM
 71
     5
 42
-1.0
 73
     0
 74
     0
 75
     0
  3
PROSPEKT
100
AcDbAlignedDimension
 13
305.5452660802141
 23
185.2582284456616
 33
0.0
 14
340.545266080214
 24
212.3510356038047
 34
0.0
100
AcDbRotatedDimension
  0
DIMENSION
  5
C7
330
2
100
AcDbEntity
  8
BEMASSUNG
100
AcDbDimension
280
     0
  2
*D7
 10
356.0452660802142
 20
169.3270849259729
 30
0.0
 11
348.1143191800179
 21
173.6652724323198
 31
0.0
 70
   128
  1
15.5
 71
     5
 42
-1.0
 73
     0
 74
     0
 75
     0
  3
PROSPEKT
100
AcDbAlignedDimension
 13
340.545266080214
 23
212.3510356038047
 33
0.0
 14
356.0452660802142
 24
212.2582284456616
 34
0.0
100
AcDbRotatedDimension
  0
LWPOLYLINE
  5
D4
330
2
100
AcDbEntity
  8
LAYER3
  6
Continuous
 62
     4
100
AcDbPolyline
 90
        2
 70
     0
 43
0.0
 10
308.5452660802141
 20
118.8090076898446
 10
356.0452660802142
 20
118.8090076898446
  0
LWPOLYLINE
  5
D5
330
2
100
AcDbEntity
  8
LAYER3
  6
Continuous
 62
     4
100
AcDbPolyline
 90
        2
 70
     0
 43
0.0
 10
308.5452660802141
 20
132.8090076898446
 10
356.0452660802142
 20
132.8090076898446
  0
LWPOLYLINE
  5
D6
330
2
100
AcDbEntity
  8
LAYER3
  6
Continuous
 62
     4
100
AcDbPolyline
 90
        2
 70
     0
 43
0.0
 10
295.4866365936181
 20
132.3466759494075
 10
305.5452660802141
 20
132.3466759494075
  0
LWPOLYLINE
  5
D7
330
2
100
AcDbEntity
  8
LAYER3
  6
Continuous
 62
     4
100
AcDbPolyline
 90
        2
 70
     0
 43
0.0
 10
295.4866365936181
 20
130.3466759494075
 10
305.5452660802141
 20
130.3466759494075
  0
LWPOLYLINE
  5
D8
330
2
100
AcDbEntity
  8
LAYER3
  6
Continuous
 62
     4
100
AcDbPolyline
 90
        2
 70
     0
 43
0.0
 10
295.4866365936181
 20
121.3466759494076
 10
303.7164243553784
 20
121.3466759494076
  0
LWPOLYLINE
  5
D9
330
2
100
AcDbEntity
  8
LAYER3
  6
Continuous
 62
     4
100
AcDbPolyline
 90
        2
 70
     0
 43
0.0
 10
295.4866365936181
 20
130.3466759494075
 10
305.5452660802141
 20
119.3466759494075
  0
DIMENSION
  5
DA
330
2
100
AcDbEntity
  8
BEMASSUNG
100
AcDbDimension
280
     0
  2
*D12
 10
308.5452660802141
 20
146.7274022732257
 30
0.0
 11
307.045266080214
 21
150.8524022732257
 31
0.0
 71
     5
 42
-1.0
 73
     0
 74
     0
 75
     0
  3
PROSPEKT
100
AcDbAlignedDimension
 13
305.5452660802141
 23
136.8090076898446
 33
0.0
 14
308.5452660802141
 24
136.8090076898446
 34
0.0
100
AcDbRotatedDimension
  0
ARC
  5
E9
330
2
100
AcDbEntity
  8
LAYER3
  6
Continuous
 62
     4
100
AcDbCircle
 10
299.7313390900999
 20
125.8466759494075
 30
0.0
 40
6.186073009885871
100
AcDbArc
 50
133.3277514773746
 51
226.6722485226251
  0
LWPOLYLINE
  5
EA
330
2
100
AcDbEntity
  8
LAYER3
  6
Continuous
 62
     4
100
AcDbPolyline
 90
        2
 70
     0
 43
0.0
 10
295.4866365936181
 20
132.3466759494075
 10
295.4866365936181
 20
130.3466759494075
  0
LWPOLYLINE
  5
EB
330
2
100
AcDbEntity
  8
LAYER3
  6
Continuous
 62
     4
100
AcDbPolyline
 90
        4
 70
     1
 43
0.0
 10
305.5452660802141
 20
136.8090076898446
 10
305.5452660802141
 20
114.8090076898446
 10
308.5452660802141
 20
114.8090076898446
 10
308.5452660802141
 20
136.8090076898446
  0
LWPOLYLINE
  5
EC
330
2
100
AcDbEntity
  8
LAYER3
  6
Continuous
 62
     4
100
AcDbPolyline
 90
        4
 70
     0
 43
0.0
 10
347.0452660802142
 20
118.8090076898446
 10
347.0452660802142
 20
120.9090076898446
 10
334.045266080214
 20
120.9090076898446
 10
334.045266080214
 20
118.8090076898446
  0
LWPOLYLINE
  5
ED
330
2
100
AcDbEntity
  8
LAYER3
  6
Continuous
 62
     4
100
AcDbPolyline
 90
        2
 70
     0
 43
0.0
 10
347.0452660802142
 20
120.9090076898446
 10
347.0452660802142
 20
118.8090076898446
  0
DIMENSION
  5
EE
330
2
100
AcDbEntity
  8
BEMASSUNG
100
AcDbDimension
280
     0
  2
*D16
 10
378.6892559532675
 20
118.8090076898446
 30
0.0
 11
373.9444784988338
 21
125.8090076898446
 31
0.0
 70
   128
 71
     5
 42
-1.0
 73
     0
 74
     0
 75
     0
  3
PROSPEKT
100
AcDbAlignedDimension
 13
356.0452660802142
 23
132.8090076898446
 33
0.0
 14
356.0452660802142
 24
118.8090076898446
 34
0.0
 50
90.0
100
AcDbRotatedDimension
  0
LWPOLYLINE
  5
FB
330
2
100
AcDbEntity
  8
LAYER3
  6
Continuous
 62
     4
100
AcDbPolyline
 90
        2
 70
     0
 43
0.0
 10
356.0452660802142
 20
132.8090076898446
 10
356.0452660802142
 20
118.8090076898446
  0
DIMENSION
  5
FC
330
2
100
AcDbEntity
  8
BEMASSUNG
100
AcDbDimension
280
     0
  2
*D15
 10
429.4385844824501
 20
195.2582284456616
 30
0.0
 11
425.3135844824501
 21
190.2582284456616
 31
0.0
 71
     5
 42
-1.0
 73
     0
 74
     0
 75
     0
  3
PROSPEKT
100
AcDbAlignedDimension
 13
440.4385844824501
 23
185.2582284456616
 33
0.0
 14
444.68858448245
 24
195.2582284456616
 34
0.0
 50
90.0
100
AcDbRotatedDimension
  0
LINE
  5
10B
330
2
100
AcDbEntity
  8
ACHSEN
100
AcDbLine
 10
340.545266080214
 20
290.2582284456617
 30
0.0
 11
353.645266080214
 21
290.2582284456617
 31
0.0
  0
LINE
  5
10C
330
2
100
AcDbEntity
  8
ACHSEN
100
AcDbLine
 10
350.5452660802142
 20
278.0490655926691
 30
0.0
 11
345.9452660802138
 21
278.0490655926691
 31
0.0
  0
LINE
  5
10D
330
2
100
AcDbEntity
  8
ACHSEN
100
AcDbLine
 10
340.545266080214
 20
271.0582284456616
 30
0.0
 11
347.645266080214
 21
271.0582284456616
 31
0.0
  0
LINE
  5
10E
330
2
100
AcDbEntity
  8
ACHSEN
100
AcDbLine
 10
340.545266080214
 20
242.2582284456616
 30
0.0
 11
351.145266080214
 21
242.2582284456616
 31
0.0
  0
LWPOLYLINE
  5
112
330
2
100
AcDbEntity
  8
LAYER3
  6
Continuous
100
AcDbPolyline
 90
        2
 70
     0
 43
0.0
 10
308.5452660802141
 20
212.2582284456616
 10
356.0452660802142
 20
212.2582284456616
  0
LWPOLYLINE
  5
113
330
2
100
AcDbEntity
  8
LAYER3
  6
Continuous
 62
     4
100
AcDbPolyline
 90
        2
 70
     0
 43
0.0
 10
347.0452660802142
 20
214.3582284456616
 10
356.0452660802142
 20
214.3582284456616
  0
LINE
  5
114
330
2
100
AcDbEntity
  8
ACHSEN
100
AcDbLine
 10
340.545266080214
 20
242.2582284456616
 30
0.0
 11
340.545266080214
 21
290.2582284456617
 31
0.0
  0
LWPOLYLINE
  5
115
330
2
100
AcDbEntity
  8
LAYER3
  6
Continuous
 62
     4
100
AcDbPolyline
 90
        5
 70
     0
 43
0.0
 10
313.2452660802141
 20
290.2582284456617
 10
317.545266080214
 20
290.2582284456617
 10
317.545266080214
 20
250.8582284456616
 10
313.2452660802141
 20
250.8582284456616
 10
313.2452660802141
 20
290.2582284456617
  0
DIMENSION
  5
116
330
2
100
AcDbEntity
  8
BEMASSUNG
100
AcDbDimension
280
     0
  2
*D13
 10
274.5452660802141
 20
295.2582284456616
 30
0.0
 11
270.4202660802141
 21
253.7582284456616
 31
0.0
 71
     5
 42
-1.0
 73
     0
 74
     0
 75
     0
  3
PROSPEKT
100
AcDbAlignedDimension
 13
308.5452660802141
 23
212.2582284456616
 33
0.0
 14
293.5452660802141
 24
295.2582284456616
 34
0.0
 50
90.0
100
AcDbRotatedDimension
  0
LINE
  5
123
330
2
100
AcDbEntity
  8
LAYER3
  6
Continuous
 62
     4
100
AcDbLine
 10
326.5431483650229
 20
230.9341928877536
 30
0.0
 11
326.5431483650229
 21
230.5341928877536
 31
0.0
  0
LINE
  5
124
330
2
100
AcDbEntity
  8
LAYER3
  6
Continuous
 62
     4
100
AcDbLine
 10
322.5431483650229
 20
230.9341928877536
 30
0.0
 11
322.5431483650229
 21
230.5341928877536
 31
0.0
  0
LINE
  5
125
330
2
100
AcDbEntity
  8
ACHSEN
100
AcDbLine
 10
340.545266080214
 20
222.2582284456616
 30
0.0
 11
340.545266080214
 21
242.2582284456616
 31
0.0
  0
LWPOLYLINE
  5
12A
330
2
100
AcDbEntity
  8
LAYER3
  6
Continuous
100
AcDbPolyline
 90
        2
 70
     0
 43
0.0
 10
334.045266080214
 20
212.2582284456616
 10
308.5452660802141
 20
212.2582284456616
  0
LWPOLYLINE
  5
12B
330
2
100
AcDbEntity
  8
LAYER3
  6
Continuous
 62
     4
100
AcDbPolyline
 90
        3
 70
     0
 43
0.0
 10
308.5452660802141
 20
212.2582284456616
 10
308.5452660802141
 20
214.3582284456616
 10
334.045266080214
 20
214.3582284456616
  0
LINE
  5
12D
330
2
100
AcDbEntity
  8
ACHSEN
100
AcDbLine
 10
340.545266080214
 20
222.2582284456616
 30
0.0
 11
340.545266080214
 21
215.1582284456616
 31
0.0
  0
LWPOLYLINE
  5
12E
330
2
100
AcDbEntity
  8
LAYER3
  6
Continuous
 62
     4
100
AcDbPolyline
 90
        2
 70
     0
 43
0.0
 10
334.045266080214
 20
214.3582284456616
 10
334.045266080214
 20
212.2582284456616
  0
LWPOLYLINE
  5
12F
330
2
100
AcDbEntity
  8
LAYER3
  6
Continuous
 62
     4
100
AcDbPolyline
 90
        2
 70
     0
 43
0.0
 10
347.0452660802142
 20
214.3582284456616
 10
347.0452660802142
 20
212.2582284456616
  0
ARC
  5
132
330
2
100
AcDbEntity
  8
LAYER3
  6
Continuous
 62
     4
100
AcDbCircle
 10
326.2431483650229
 20
230.5341928877536
 30
0.0
 40
0.3
100
AcDbArc
 50
270.0
 51
0.0
  0
ARC
  5
133
330
2
100
AcDbEntity
  8
LAYER3
  6
Continuous
 62
     4
100
AcDbCircle
 10
325.1431483650228
 20
230.1341928877536
 30
0.0
 40
0.1
100
AcDbArc
 50
90.0
 51
180.0
  0
LINE
  5
134
330
2
100
AcDbEntity
  8
LAYER3
  6
Continuous
 62
     4
100
AcDbLine
 10
325.1431483650228
 20
230.2341928877536
 30
0.0
 11
326.2431483650229
 21
230.2341928877536
 31
0.0
  0
ARC
  5
135
330
2
100
AcDbEntity
  8
LAYER3
  6
Continuous
 62
     4
100
AcDbCircle
 10
323.9431483650228
 20
230.1341928877536
 30
0.0
 40
0.1
100
AcDbArc
 50
0.0
 51
90.0
  0
ARC
  5
136
330
2
100
AcDbEntity
  8
LAYER3
  6
Continuous
 62
     4
100
AcDbCircle
 10
322.8431483650229
 20
230.5341928877536
 30
0.0
 40
0.3
100
AcDbArc
 50
180.0
 51
270.0
  0
LINE
  5
137
330
2
100
AcDbEntity
  8
LAYER3
  6
Continuous
 62
     4
100
AcDbLine
 10
322.8431483650229
 20
230.2341928877536
 30
0.0
 11
323.9431483650228
 21
230.2341928877536
 31
0.0
  0
ARC
  5
13A
330
2
100
AcDbEntity
  8
LAYER3
  6
Continuous
 62
     4
100
AcDbCircle
 10
324.7431483650229
 20
229.0341928877536
 30
0.0
 40
0.3
100
AcDbArc
 50
270.0
 51
0.0
  0
LINE
  5
13B
330
2
100
AcDbEntity
  8
LAYER3
  6
Continuous
 62
     4
100
AcDbLine
 10
324.3431483650228
 20
228.7341928877536
 30
0.0
 11
324.7431483650229
 21
228.7341928877536
 31
0.0
  0
ARC
  5
13C
330
2
100
AcDbEntity
  8
LAYER3
  6
Continuous
 62
     4
100
AcDbCircle
 10
324.3431483650228
 20
229.0341928877536
 30
0.0
 40
0.3
100
AcDbArc
 50
180.0
 51
270.0
  0
LINE
  5
13E
330
2
100
AcDbEntity
  8
LAYER3
  6
Continuous
 62
     4
100
AcDbLine
 10
325.0431483650229
 20
230.1341928877536
 30
0.0
 11
325.0431483650229
 21
229.0341928877536
 31
0.0
  0
LINE
  5
13F
330
2
100
AcDbEntity
  8
LAYER3
  6
Continuous
 62
     4
100
AcDbLine
 10
324.0431483650229
 20
230.1341928877536
 30
0.0
 11
324.0431483650229
 21
229.0341928877536
 31
0.0
  0
LINE
  5
140
330
2
100
AcDbEntity
  8
ACHSEN
100
AcDbLine
 10
340.545266080214
 20
242.2582284456616
 30
0.0
 11
329.9452660802139
 21
242.2582284456616
 31
0.0
  0
ARC
  5
141
330
2
100
AcDbEntity
  8
LAYER3
  6
Continuous
 62
     4
100
AcDbCircle
 10
324.7431483650229
 20
232.4341928877536
 30
0.0
 40
0.3
100
AcDbArc
 50
0.0
 51
90.0
  0
ARC
  5
142
330
2
100
AcDbEntity
  8
LAYER3
  6
Continuous
 62
     4
100
AcDbCircle
 10
326.2431483650229
 20
230.9341928877536
 30
0.0
 40
0.3
100
AcDbArc
 50
0.0
 51
90.0
  0
ARC
  5
143
330
2
100
AcDbEntity
  8
LAYER3
  6
Continuous
 62
     4
100
AcDbCircle
 10
325.1431483650228
 20
231.3341928877536
 30
0.0
 40
0.1
100
AcDbArc
 50
180.0
 51
270.0
  0
LINE
  5
144
330
2
100
AcDbEntity
  8
LAYER3
  6
Continuous
 62
     4
100
AcDbLine
 10
325.1431483650228
 20
231.2341928877536
 30
0.0
 11
326.2431483650229
 21
231.2341928877536
 31
0.0
  0
LINE
  5
145
330
2
100
AcDbEntity
  8
LAYER3
  6
Continuous
 62
     4
100
AcDbLine
 10
325.0431483650229
 20
232.4341928877536
 30
0.0
 11
325.0431483650229
 21
231.3341928877536
 31
0.0
  0
LINE
  5
146
330
2
100
AcDbEntity
  8
LAYER3
  6
Continuous
 62
     4
100
AcDbLine
 10
324.3431483650228
 20
232.7341928877536
 30
0.0
 11
324.7431483650229
 21
232.7341928877536
 31
0.0
  0
ARC
  5
147
330
2
100
AcDbEntity
  8
LAYER3
  6
Continuous
 62
     4
100
AcDbCircle
 10
323.9431483650228
 20
231.3341928877536
 30
0.0
 40
0.1
100
AcDbArc
 50
270.0
 51
0.0
  0
ARC
  5
148
330
2
100
AcDbEntity
  8
LAYER3
  6
Continuous
 62
     4
100
AcDbCircle
 10
322.8431483650229
 20
230.9341928877536
 30
0.0
 40
0.3
100
AcDbArc
 50
90.0
 51
180.0
  0
LINE
  5
149
330
2
100
AcDbEntity
  8
LAYER3
  6
Continuous
 62
     4
100
AcDbLine
 10
322.8431483650229
 20
231.2341928877536
 30
0.0
 11
323.9431483650228
 21
231.2341928877536
 31
0.0
  0
LINE
  5
14A
330
2
100
AcDbEntity
  8
LAYER3
  6
Continuous
 62
     4
100
AcDbLine
 10
324.0431483650229
 20
232.4341928877536
 30
0.0
 11
324.0431483650229
 21
231.3341928877536
 31
0.0
  0
ARC
  5
14B
330
2
100
AcDbEntity
  8
LAYER3
  6
Continuous
 62
     4
100
AcDbCircle
 10
324.3431483650228
 20
232.4341928877536
 30
0.0
 40
0.3
100
AcDbArc
 50
90.0
 51
180.0
  0
DIMENSION
  5
14C
330
2
100
AcDbEntity
  8
BEMASSUNG
100
AcDbDimension
280
     0
  2
*D14
 10
305.5452660802141
 20
283.2950959561325
 30
0.0
 11
299.5452660802141
 21
287.4200959561325
 31
0.0
 71
     5
 42
-1.0
 73
     0
 74
     0
 75
     0
  3
PROSPEKT
100
AcDbAlignedDimension
 13
293.5452660802141
 23
295.2582284456616
 33
0.0
 14
305.5452660802141
 24
283.2950959561325
 34
0.0
100
AcDbRotatedDimension
  0
CIRCLE
  5
15B
330
2
100
AcDbEntity
  8
LAYER3
  6
Continuous
 62
     4
100
AcDbCircle
 10
330.5452660802141
 20
278.0490655926691
 30
0.0
 40
2.6
  0
LINE
  5
15C
330
2
100
AcDbEntity
  8
ACHSEN
100
AcDbLine
 10
330.5452660802141
 20
278.0490655926691
 30
0.0
 11
330.5452660802141
 21
273.4490655926691
 31
0.0
  0
LWPOLYLINE
  5
15D
330
2
100
AcDbEntity
  8
LAYER3
  6
Continuous
 62
     4
100
AcDbPolyline
 90
        2
 70
     0
 43
0.0
 10
345.645266080214
 20
271.0582284456616
 10
345.645266080214
 20
280.3992224105686
  0
LWPOLYLINE
  5
15E
330
2
100
AcDbEntity
  8
LAYER3
  6
Continuous
 62
     4
100
AcDbPolyline
 90
        2
 70
     0
 43
0.0
 10
335.4452660802139
 20
271.0582284456616
 10
335.4452660802139
 20
280.3992224105686
  0
ARC
  5
15F
330
2
100
AcDbEntity
  8
LAYER3
  6
Continuous
 62
     4
100
AcDbCircle
 10
340.545266080214
 20
271.0582284456616
 30
0.0
 40
5.099999999999997
100
AcDbArc
 50
179.9999999999998
 51
0.0000000000001597
  0
LINE
  5
160
330
2
100
AcDbEntity
  8
ACHSEN
100
AcDbLine
 10
340.545266080214
 20
271.0582284456616
 30
0.0
 11
333.4452660802139
 21
271.0582284456616
 31
0.0
  0
LINE
  5
161
330
2
100
AcDbEntity
  8
ACHSEN
100
AcDbLine
 10
330.5452660802141
 20
278.0490655926691
 30
0.0
 11
335.145266080214
 21
278.0490655926691
 31
0.0
  0
LINE
  5
162
330
2
100
AcDbEntity
  8
ACHSEN
100
AcDbLine
 10
330.5452660802141
 20
278.0490655926691
 30
0.0
 11
325.9452660802139
 21
278.0490655926691
 31
0.0
  0
LINE
  5
163
330
2
100
AcDbEntity
  8
ACHSEN
100
AcDbLine
 10
330.5452660802141
 20
278.0490655926691
 30
0.0
 11
330.5452660802141
 21
282.6490655926692
 31
0.0
  0
LINE
  5
164
330
2
100
AcDbEntity
  8
ACHSEN
100
AcDbLine
 10
340.545266080214
 20
290.2582284456617
 30
0.0
 11
327.4452660802139
 21
290.2582284456617
 31
0.0
  0
DIMENSION
  5
165
330
2
100
AcDbEntity
  8
BEMASSUNG
100
AcDbDimension
280
     0
  2
*D8
 10
382.2892559532677
 20
290.2582284456617
 30
0.0
 11
378.1642559532676
 21
266.2582284456616
 31
0.0
 71
     5
 42
-1.0
 73
     0
 74
     0
 75
     0
  3
PROSPEKT
100
AcDbAlignedDimension
 13
351.145266080214
 23
242.2582284456616
 33
0.0
 14
351.645266080214
 24
290.2582284456617
 34
0.0
 50
90.0
100
AcDbRotatedDimension
  0
DIMENSION
  5
173
330
2
100
AcDbEntity
  8
BEMASSUNG
100
AcDbDimension
280
     0
  2
*D9
 10
382.2892559532677
 20
242.2582284456616
 30
0.0
 11
378.1642559532676
 21
227.2582284456616
 31
0.0
 71
     5
 42
-1.0
 73
     0
 74
     0
 75
     0
  3
PROSPEKT
100
AcDbAlignedDimension
 13
356.0452660802142
 23
212.2582284456616
 33
0.0
 14
351.145266080214
 24
242.2582284456616
 34
0.0
 50
90.0
100
AcDbRotatedDimension
  0
CIRCLE
  5
183
330
2
100
AcDbEntity
  8
LAYER3
  6
Continuous
 62
     4
100
AcDbCircle
 10
350.5452660802142
 20
278.0490655926691
 30
0.0
 40
2.6
  0
LINE
  5
184
330
2
100
AcDbEntity
  8
ACHSEN
100
AcDbLine
 10
350.5452660802142
 20
278.0490655926691
 30
0.0
 11
350.5452660802142
 21
273.4490655926691
 31
0.0
  0
LINE
  5
185
330
2
100
AcDbEntity
  8
ACHSEN
100
AcDbLine
 10
350.5452660802142
 20
278.0490655926691
 30
0.0
 11
350.5452660802142
 21
282.6490655926692
 31
0.0
  0
LINE
  5
186
330
2
100
AcDbEntity
  8
ACHSEN
100
AcDbLine
 10
350.5452660802142
 20
278.0490655926691
 30
0.0
 11
355.145266080214
 21
278.0490655926691
 31
0.0
  0
LINE
  5
187
330
2
100
AcDbEntity
  8
ACHSEN
100
AcDbLine
 10
451.43858448245
 20
195.2582284456616
 30
0.0
 11
451.43858448245
 21
202.0082284456616
 31
0.0
  0
LINE
  5
188
330
2
100
AcDbEntity
  8
ACHSEN
100
AcDbLine
 10
451.43858448245
 20
195.2582284456616
 30
0.0
 11
451.43858448245
 21
188.5082284456616
 31
0.0
  0
LINE
  5
189
330
2
100
AcDbEntity
  8
ACHSEN
100
AcDbLine
 10
451.43858448245
 20
195.2582284456616
 30
0.0
 11
458.18858448245
 21
195.2582284456616
 31
0.0
  0
LINE
  5
18A
330
2
100
AcDbEntity
  8
ACHSEN
100
AcDbLine
 10
451.43858448245
 20
223.0582284456616
 30
0.0
 11
451.43858448245
 21
216.3082284456616
 31
0.0
  0
LINE
  5
18B
330
2
100
AcDbEntity
  8
ACHSEN
100
AcDbLine
 10
451.43858448245
 20
223.0582284456616
 30
0.0
 11
458.18858448245
 21
223.0582284456616
 31
0.0
  0
LINE
  5
18C
330
2
100
AcDbEntity
  8
ACHSEN
100
AcDbLine
 10
451.43858448245
 20
223.0582284456616
 30
0.0
 11
451.43858448245
 21
229.8082284456615
 31
0.0
  0
LINE
  5
18D
330
2
100
AcDbEntity
  8
ACHSEN
100
AcDbLine
 10
451.43858448245
 20
271.0582284456616
 30
0.0
 11
451.43858448245
 21
277.8082284456615
 31
0.0
  0
LINE
  5
18E
330
2
100
AcDbEntity
  8
ACHSEN
100
AcDbLine
 10
451.43858448245
 20
271.0582284456616
 30
0.0
 11
451.43858448245
 21
264.3082284456616
 31
0.0
  0
LINE
  5
18F
330
2
100
AcDbEntity
  8
ACHSEN
100
AcDbLine
 10
451.43858448245
 20
271.0582284456616
 30
0.0
 11
458.18858448245
 21
271.0582284456616
 31
0.0
  0
CIRCLE
  5
190
330
2
100
AcDbEntity
  8
LAYER3
  6
Continuous
 62
     4
100
AcDbCircle
 10
451.43858448245
 20
443.2582284456616
 30
0.0
 40
2.6
  0
LINE
  5
191
330
2
100
AcDbEntity
  8
ACHSEN
100
AcDbLine
 10
451.43858448245
 20
443.2582284456616
 30
0.0
 11
444.68858448245
 21
443.2582284456616
 31
0.0
  0
LWPOLYLINE
  5
192
330
2
100
AcDbEntity
  8
LAYER3
  6
Continuous
 62
     4
100
AcDbPolyline
 90
        2
 70
     0
 43
0.0
 10
457.8900387945273
 20
411.9144813990276
 10
447.9782965503475
 20
411.9144813990276
  0
CIRCLE
  5
193
330
2
100
AcDbEntity
  8
LAYER3
  6
Continuous
 62
     4
100
AcDbCircle
 10
451.43858448245
 20
443.2582284456616
 30
0.0
 40
4.75
  0
LWPOLYLINE
  5
194
330
2
100
AcDbEntity
  8
LAYER3
  6
Continuous
 62
     4
100
AcDbPolyline
 90
        2
 70
     0
 43
0.0
 10
447.9782965503475
 20
385.8347235542249
 10
457.8900387945273
 20
385.8347235542249
  0
LWPOLYLINE
  5
195
330
2
100
AcDbEntity
  8
LAYER3
  6
Continuous
100
AcDbPolyline
 90
        2
 70
     0
 43
0.0
 10
356.0452660802142
 20
378.2582284456617
 10
356.0452660802142
 20
426.2582284456617
  0
LWPOLYLINE
  5
196
330
2
100
AcDbEntity
  8
LAYER3
  6
Continuous
 62
     4
100
AcDbPolyline
 90
        2
 70
     0
 43
0.0
 10
447.9782965503475
 20
383.8347235542249
 10
447.9782965503475
 20
413.834723554225
  0
LWPOLYLINE
  5
197
330
2
100
AcDbEntity
  8
LAYER3
  6
Continuous
 62
     4
100
AcDbPolyline
 90
        2
 70
     0
 43
0.0
 10
444.9139683475568
 20
413.834723554225
 10
444.9139683475568
 20
383.8347235542249
  0
LWPOLYLINE
  5
198
330
2
100
AcDbEntity
  8
LAYER3
  6
Continuous
100
AcDbPolyline
 90
        8
 70
     1
 43
0.0
 10
322.2823115454948
 20
394.1079108120186
 10
324.0823115454948
 20
394.1079108120186
 10
324.0823115454948
 20
396.2079108120187
 10
329.0823115454948
 20
396.2079108120187
 10
329.0823115454948
 20
402.2079108120188
 10
324.0823115454948
 20
402.2079108120188
 10
324.0823115454948
 20
404.3079108120188
 10
322.2823115454948
 20
404.3079108120188
  0
LWPOLYLINE
  5
199
330
2
100
AcDbEntity
  8
LAYER3
  6
Continuous
 62
     4
100
AcDbPolyline
 90
        4
 70
     1
 43
0.0
 10
308.4866365936182
 20
415.2635653657033
 10
308.4866365936182
 20
383.2635653657033
 10
317.4866365936181
 20
383.2635653657033
 10
317.4866365936181
 20
415.2635653657033
  0
DIMENSION
  5
19A
330
2
100
AcDbEntity
  8
BEMASSUNG
100
AcDbDimension
280
     0
  2
*D20
 10
274.5452660802141
 20
414.2582284456617
 30
0.0
 11
270.4202660802141
 21
399.2582284456617
 31
0.0
 71
     5
 42
-1.0
 73
     0
 74
     0
 75
     0
  3
PROSPEKT
100
AcDbAlignedDimension
 13
295.5452660802141
 23
384.2582284456617
 33
0.0
 14
295.5452660802141
 24
414.2582284456617
 34
0.0
 50
90.0
100
AcDbRotatedDimension
  0
LWPOLYLINE
  5
1A7
330
2
100
AcDbEntity
  8
LAYER3
  6
Continuous
 62
     4
100
AcDbPolyline
 90
        4
 70
     0
 43
0.0
 10
305.4866365936181
 20
414.2582284456617
 10
295.5452660802141
 20
414.2582284456617
 10
295.5452660802141
 20
384.2582284456617
 10
305.4866365936181
 20
384.2582284456617
  0
DIMENSION
  5
1A8
330
2
100
AcDbEntity
  8
BEMASSUNG
100
AcDbDimension
280
     0
  2
*D19
 10
382.2892559532677
 20
426.2582284456617
 30
0.0
 11
378.1642559532676
 21
397.2582284456617
 31
0.0
 71
     5
 42
-1.0
 73
     0
 74
     0
 75
     0
  3
PROSPEKT
100
AcDbAlignedDimension
 13
351.5452660802142
 23
368.2582284456616
 33
0.0
 14
356.0452660802142
 24
426.2582284456617
 34
0.0
 50
90.0
100
AcDbRotatedDimension
  0
LINE
  5
1B5
330
2
100
AcDbEntity
  8
ACHSEN
100
AcDbLine
 10
340.545266080214
 20
368.2582284456616
 30
0.0
 11
351.5452660802142
 21
368.2582284456616
 31
0.0
  0
CIRCLE
  5
1B6
330
2
100
AcDbEntity
  8
LAYER3
  6
Continuous
 62
     4
100
AcDbCircle
 10
340.545266080214
 20
368.2582284456616
 30
0.0
 40
9.0
  0
LINE
  5
1B8
330
2
100
AcDbEntity
  8
LAYER3
  6
Continuous
 62
     4
100
AcDbLine
 10
346.8431483650229
 20
330.7341928877538
 30
0.0
 11
347.9431483650228
 21
330.7341928877538
 31
0.0
  0
LINE
  5
1B9
330
2
100
AcDbEntity
  8
LAYER3
  6
Continuous
 62
     4
100
AcDbLine
 10
346.8431483650229
 20
331.7341928877538
 30
0.0
 11
347.9431483650228
 21
331.7341928877538
 31
0.0
  0
DIMENSION
  5
1BA
330
2
100
AcDbEntity
  8
LAYER1
  6
Continuous
 62
     3
100
AcDbDimension
280
     0
  2
*D18
 10
344.545266080214
 20
381.5182120793961
 30
0.0
 11
340.545266080214
 21
385.6432120793961
 31
0.0
 71
     5
 42
-1.0
 73
     0
 74
     0
 75
     0
  3
PROSPEKT
100
AcDbAlignedDimension
 13
336.5452660802141
 23
372.2582284456616
 33
0.0
 14
344.545266080214
 24
372.2582284456616
 34
0.0
100
AcDbRotatedDimension
  0
ARC
  5
1CA
330
2
100
AcDbEntity
  8
LAYER3
  6
Continuous
 62
     4
100
AcDbCircle
 10
340.5409984850507
 20
347.764532594607
 30
0.0
 40
2.649999999999999
100
AcDbArc
 50
0.0
 51
180.0
  0
DIMENSION
  5
1CB
330
2
100
AcDbEntity
  8
BEMASSUNG
100
AcDbDimension
280
     0
  2
*D21
 10
274.5452660802141
 20
384.2582284456617
 30
0.0
 11
270.4202660802141
 21
355.7582284456616
 31
0.0
 71
     5
 42
-1.0
 73
     0
 74
     0
 75
     0
  3
PROSPEKT
100
AcDbAlignedDimension
 13
293.5452660802141
 23
327.2582284456616
 33
0.0
 14
295.5452660802141
 24
384.2582284456617
 34
0.0
 50
90.0
100
AcDbRotatedDimension
  0
CIRCLE
  5
1D8
330
2
100
AcDbEntity
  8
LAYER3
  6
Continuous
 62
     4
100
AcDbCircle
 10
338.545266080214
 20
315.2582284456617
 30
0.0
 40
2.0
  0
ARC
  5
1D9
330
2
100
AcDbEntity
  8
LAYER3
  6
Continuous
 62
     4
100
AcDbCircle
 10
346.8431483650229
 20
331.0341928877538
 30
0.0
 40
0.3
100
AcDbArc
 50
180.0
 51
270.0
  0
LINE
  5
1DA
330
2
100
AcDbEntity
  8
LAYER3
  6
Continuous
 62
     4
100
AcDbLine
 10
346.5431483650229
 20
331.4341928877539
 30
0.0
 11
346.5431483650229
 21
331.0341928877538
 31
0.0
  0
ARC
  5
1DB
330
2
100
AcDbEntity
  8
LAYER3
  6
Continuous
 62
     4
100
AcDbCircle
 10
346.8431483650229
 20
331.4341928877539
 30
0.0
 40
0.3
100
AcDbArc
 50
90.0
 51
180.0
  0
LINE
  5
1DC
330
2
100
AcDbEntity
  8
ACHSEN
100
AcDbLine
 10
340.5409984850507
 20
347.764532594607
 30
0.0
 11
335.8909984850506
 21
347.764532594607
 31
0.0
  0
LINE
  5
1DD
330
2
100
AcDbEntity
  8
ACHSEN
100
AcDbLine
 10
340.5409984850507
 20
347.764532594607
 30
0.0
 11
345.1909984850507
 21
347.764532594607
 31
0.0
  0
ARC
  5
1DE
330
2
100
AcDbEntity
  8
LAYER3
  6
Continuous
 62
     4
100
AcDbCircle
 10
340.5409984850507
 20
343.7645325946069
 30
0.0
 40
2.649999999999999
100
AcDbArc
 50
180.0
 51
0.0
  0
LINE
  5
1DF
330
2
100
AcDbEntity
  8
ACHSEN
100
AcDbLine
 10
340.5409984850507
 20
343.7645325946069
 30
0.0
 11
335.8909984850506
 21
343.7645325946069
 31
0.0
  0
LINE
  5
1E0
330
2
100
AcDbEntity
  8
ACHSEN
100
AcDbLine
 10
340.5409984850507
 20
343.7645325946069
 30
0.0
 11
345.1909984850507
 21
343.7645325946069
 31
0.0
  0
LWPOLYLINE
  5
1E1
330
2
100
AcDbEntity
  8
LAYER3
  6
Continuous
 62
     4
100
AcDbPolyline
 90
        2
 70
     0
 43
0.0
 10
337.8909984850506
 20
347.764532594607
 10
337.8909984850506
 20
343.7645325946069
  0
LWPOLYLINE
  5
1E2
330
2
100
AcDbEntity
  8
LAYER3
  6
Continuous
 62
     4
100
AcDbPolyline
 90
        2
 70
     0
 43
0.0
 10
343.1909984850506
 20
347.764532594607
 10
343.1909984850506
 20
343.7645325946069
  0
LWPOLYLINE
  5
1E3
330
2
100
AcDbEntity
  8
LAYER3
  6
Continuous
 62
     4
100
AcDbPolyline
 90
        2
 70
     0
 43
0.0
 10
295.5452660802141
 20
386.2582284456617
 10
305.4866365936181
 20
386.2582284456617
  0
DIMENSION
  5
1E4
330
2
100
AcDbEntity
  8
BEMASSUNG
100
AcDbDimension
280
     0
  2
*D22
 10
305.5452660802141
 20
371.1609984878231
 30
0.0
 11
300.5452660802141
 21
375.2859984878231
 31
0.0
 71
     5
 42
-1.0
 73
     0
 74
     0
 75
     0
  3
PROSPEKT
100
AcDbAlignedDimension
 13
295.5452660802141
 23
384.2582284456617
 33
0.0
 14
305.5452660802141
 24
371.1609984878231
 34
0.0
100
AcDbRotatedDimension
  0
LINE
  5
1F3
330
2
100
AcDbEntity
  8
ACHSEN
100
AcDbLine
 10
340.545266080214
 20
368.2582284456616
 30
0.0
 11
340.545266080214
 21
379.2582284456616
 31
0.0
  0
LINE
  5
1F4
330
2
100
AcDbEntity
  8
LAYER3
  6
Continuous
 62
     4
100
AcDbLine
 10
344.545266080214
 20
372.2582284456616
 30
0.0
 11
344.545266080214
 21
364.2582284456616
 31
0.0
  0
LINE
  5
1F5
330
2
100
AcDbEntity
  8
LAYER3
  6
Continuous
 62
     4
100
AcDbLine
 10
336.5452660802141
 20
364.2582284456616
 30
0.0
 11
336.5452660802141
 21
372.2582284456616
 31
0.0
  0
LWPOLYLINE
  5
1F6
330
2
100
AcDbEntity
  8
LAYER3
  6
Continuous
 62
     4
100
AcDbPolyline
 90
        4
 70
     1
 43
0.0
 10
322.5183273250129
 20
360.0792123781799
 10
322.5183273250129
 20
370.27921237818
 10
324.7183273250129
 20
370.27921237818
 10
324.7183273250129
 20
360.0792123781799
  0
LINE
  5
1F7
330
2
100
AcDbEntity
  8
ACHSEN
100
AcDbLine
 10
340.545266080214
 20
368.2582284456616
 30
0.0
 11
329.5452660802141
 21
368.2582284456616
 31
0.0
  0
LINE
  5
1F8
330
2
100
AcDbEntity
  8
LAYER3
  6
Continuous
 62
     4
100
AcDbLine
 10
344.545266080214
 20
364.2582284456616
 30
0.0
 11
336.5452660802141
 21
364.2582284456616
 31
0.0
  0
LINE
  5
1F9
330
2
100
AcDbEntity
  8
LAYER3
  6
Continuous
 62
     4
100
AcDbLine
 10
327.0431483650229
 20
378.6341928877536
 30
0.0
 11
327.0431483650229
 21
377.5341928877537
 31
0.0
  0
LINE
  5
1FA
330
2
100
AcDbEntity
  8
LAYER3
  6
Continuous
 62
     4
100
AcDbLine
 10
326.0431483650229
 20
378.6341928877536
 30
0.0
 11
326.0431483650229
 21
377.5341928877537
 31
0.0
  0
ARC
  5
1FB
330
2
100
AcDbEntity
  8
LAYER3
  6
Continuous
 62
     4
100
AcDbCircle
 10
326.7431483650227
 20
377.5341928877537
 30
0.0
 40
0.3
100
AcDbArc
 50
270.0
 51
0.0
  0
ARC
  5
1FC
330
2
100
AcDbEntity
  8
LAYER3
  6
Continuous
 62
     4
100
AcDbCircle
 10
326.3431483650228
 20
377.5341928877537
 30
0.0
 40
0.3
100
AcDbArc
 50
180.0
 51
270.0
  0
LINE
  5
1FD
330
2
100
AcDbEntity
  8
LAYER3
  6
Continuous
 62
     4
100
AcDbLine
 10
326.3431483650228
 20
377.2341928877537
 30
0.0
 11
326.7431483650227
 21
377.2341928877537
 31
0.0
  0
LINE
  5
1FE
330
2
100
AcDbEntity
  8
LAYER3
  6
Continuous
 62
     4
100
AcDbLine
 10
327.1431483650228
 20
379.7341928877536
 30
0.0
 11
328.2431483650227
 21
379.7341928877536
 31
0.0
  0
LINE
  5
1FF
330
2
100
AcDbEntity
  8
LAYER3
  6
Continuous
 62
     4
100
AcDbLine
 10
327.1431483650228
 20
378.7341928877537
 30
0.0
 11
328.2431483650227
 21
378.7341928877537
 31
0.0
  0
ARC
  5
200
330
2
100
AcDbEntity
  8
LAYER3
  6
Continuous
 62
     4
100
AcDbCircle
 10
327.1431483650228
 20
379.8341928877537
 30
0.0
 40
0.1
100
AcDbArc
 50
180.0
 51
270.0
  0
ARC
  5
201
330
2
100
AcDbEntity
  8
LAYER3
  6
Continuous
 62
     4
100
AcDbCircle
 10
325.9431483650228
 20
379.8341928877537
 30
0.0
 40
0.1
100
AcDbArc
 50
270.0
 51
0.0
  0
ARC
  5
202
330
2
100
AcDbEntity
  8
LAYER3
  6
Continuous
 62
     4
100
AcDbCircle
 10
324.8431483650229
 20
379.4341928877537
 30
0.0
 40
0.3
100
AcDbArc
 50
90.0
 51
180.0
  0
ARC
  5
203
330
2
100
AcDbEntity
  8
LAYER3
  6
Continuous
 62
     4
100
AcDbCircle
 10
326.7431483650227
 20
380.9341928877537
 30
0.0
 40
0.3
100
AcDbArc
 50
0.0
 51
90.0
  0
ARC
  5
204
330
2
100
AcDbEntity
  8
LAYER3
  6
Continuous
 62
     4
100
AcDbCircle
 10
326.3431483650228
 20
380.9341928877537
 30
0.0
 40
0.3
100
AcDbArc
 50
90.0
 51
180.0
  0
LINE
  5
205
330
2
100
AcDbEntity
  8
LAYER3
  6
Continuous
 62
     4
100
AcDbLine
 10
327.0431483650229
 20
380.9341928877537
 30
0.0
 11
327.0431483650229
 21
379.8341928877537
 31
0.0
  0
LINE
  5
206
330
2
100
AcDbEntity
  8
LAYER3
  6
Continuous
 62
     4
100
AcDbLine
 10
326.0431483650229
 20
380.9341928877537
 30
0.0
 11
326.0431483650229
 21
379.8341928877537
 31
0.0
  0
LINE
  5
207
330
2
100
AcDbEntity
  8
LAYER3
  6
Continuous
 62
     4
100
AcDbLine
 10
324.8431483650229
 20
379.7341928877536
 30
0.0
 11
325.9431483650228
 21
379.7341928877536
 31
0.0
  0
LINE
  5
208
330
2
100
AcDbEntity
  8
LAYER3
  6
Continuous
 62
     4
100
AcDbLine
 10
326.3431483650228
 20
381.2341928877537
 30
0.0
 11
326.7431483650227
 21
381.2341928877537
 31
0.0
  0
LINE
  5
209
330
2
100
AcDbEntity
  8
LAYER3
  6
Continuous
 62
     4
100
AcDbLine
 10
324.5431483650229
 20
379.4341928877537
 30
0.0
 11
324.5431483650229
 21
379.0341928877537
 31
0.0
  0
ARC
  5
20A
330
2
100
AcDbEntity
  8
LAYER3
  6
Continuous
 62
     4
100
AcDbCircle
 10
325.9431483650228
 20
378.6341928877536
 30
0.0
 40
0.1
100
AcDbArc
 50
0.0
 51
90.0
  0
ARC
  5
20B
330
2
100
AcDbEntity
  8
LAYER3
  6
Continuous
 62
     4
100
AcDbCircle
 10
327.1431483650228
 20
378.6341928877536
 30
0.0
 40
0.1
100
AcDbArc
 50
90.0
 51
180.0
  0
LINE
  5
20C
330
2
100
AcDbEntity
  8
LAYER3
  6
Continuous
 62
     4
100
AcDbLine
 10
324.8431483650229
 20
378.7341928877537
 30
0.0
 11
325.9431483650228
 21
378.7341928877537
 31
0.0
  0
ARC
  5
20D
330
2
100
AcDbEntity
  8
LAYER3
  6
Continuous
 62
     4
100
AcDbCircle
 10
324.8431483650229
 20
379.0341928877537
 30
0.0
 40
0.3
100
AcDbArc
 50
180.0
 51
270.0
  0
ARC
  5
20E
330
2
100
AcDbEntity
  8
LAYER3
  6
Continuous
 62
     4
100
AcDbCircle
 10
328.2431483650227
 20
379.4341928877537
 30
0.0
 40
0.3
100
AcDbArc
 50
0.0
 51
90.0
  0
LINE
  5
20F
330
2
100
AcDbEntity
  8
LAYER3
  6
Continuous
 62
     4
100
AcDbLine
 10
328.5431483650229
 20
379.4341928877537
 30
0.0
 11
328.5431483650229
 21
379.0341928877537
 31
0.0
  0
ARC
  5
210
330
2
100
AcDbEntity
  8
LAYER3
  6
Continuous
 62
     4
100
AcDbCircle
 10
328.2431483650227
 20
379.0341928877537
 30
0.0
 40
0.3
100
AcDbArc
 50
270.0
 51
0.0
  0
LINE
  5
212
330
2
100
AcDbEntity
  8
LAYER3
  6
Continuous
 62
     4
100
AcDbLine
 10
336.5452660802141
 20
372.2582284456616
 30
0.0
 11
344.545266080214
 21
372.2582284456616
 31
0.0
  0
LWPOLYLINE
  5
213
330
2
100
AcDbEntity
  8
LAYER3
  6
Continuous
 62
     4
100
AcDbPolyline
 90
        4
 70
     0
 43
0.0
 10
356.0452660802142
 20
354.3582284456618
 10
353.845266080214
 20
354.3582284456618
 10
353.845266080214
 20
346.1582284456617
 10
356.0452660802142
 20
346.1582284456617
  0
LINE
  5
214
330
2
100
AcDbEntity
  8
LAYER3
  6
Continuous
 62
     4
100
AcDbLine
 10
348.0431483650229
 20
330.6341928877537
 30
0.0
 11
348.0431483650229
 21
329.5341928877538
 31
0.0
  0
LINE
  5
215
330
2
100
AcDbEntity
  8
LAYER3
  6
Continuous
 62
     4
100
AcDbLine
 10
349.0431483650229
 20
330.6341928877537
 30
0.0
 11
349.0431483650229
 21
329.5341928877538
 31
0.0
  0
ARC
  5
216
330
2
100
AcDbEntity
  8
LAYER3
  6
Continuous
 62
     4
100
AcDbCircle
 10
348.3431483650229
 20
329.5341928877538
 30
0.0
 40
0.3
100
AcDbArc
 50
180.0
 51
270.0
  0
LINE
  5
217
330
2
100
AcDbEntity
  8
LAYER3
  6
Continuous
 62
     4
100
AcDbLine
 10
348.3431483650229
 20
329.2341928877537
 30
0.0
 11
348.743148365023
 21
329.2341928877537
 31
0.0
  0
ARC
  5
218
330
2
100
AcDbEntity
  8
LAYER3
  6
Continuous
 62
     4
100
AcDbCircle
 10
348.743148365023
 20
329.5341928877538
 30
0.0
 40
0.3
100
AcDbArc
 50
270.0
 51
0.0
  0
ARC
  5
219
330
2
100
AcDbEntity
  8
LAYER3
  6
Continuous
 62
     4
100
AcDbCircle
 10
350.243148365023
 20
331.0341928877538
 30
0.0
 40
0.3
100
AcDbArc
 50
270.0
 51
0.0
  0
ARC
  5
21A
330
2
100
AcDbEntity
  8
LAYER3
  6
Continuous
 62
     4
100
AcDbCircle
 10
347.9431483650228
 20
330.6341928877537
 30
0.0
 40
0.1
100
AcDbArc
 50
0.0
 51
90.0
  0
LINE
  5
21B
330
2
100
AcDbEntity
  8
LAYER3
  6
Continuous
 62
     4
100
AcDbLine
 10
349.1431483650228
 20
330.7341928877538
 30
0.0
 11
350.243148365023
 21
330.7341928877538
 31
0.0
  0
ARC
  5
21C
330
2
100
AcDbEntity
  8
LAYER3
  6
Continuous
 62
     4
100
AcDbCircle
 10
349.1431483650228
 20
330.6341928877537
 30
0.0
 40
0.1
100
AcDbArc
 50
90.0
 51
180.0
  0
ARC
  5
21D
330
2
100
AcDbEntity
  8
LAYER3
  6
Continuous
 62
     4
100
AcDbCircle
 10
348.3431483650229
 20
332.9341928877539
 30
0.0
 40
0.3
100
AcDbArc
 50
90.0
 51
180.0
  0
ARC
  5
21E
330
2
100
AcDbEntity
  8
LAYER3
  6
Continuous
 62
     4
100
AcDbCircle
 10
347.9431483650228
 20
331.8341928877538
 30
0.0
 40
0.1
100
AcDbArc
 50
270.0
 51
0.0
  0
LINE
  5
21F
330
2
100
AcDbEntity
  8
LAYER3
  6
Continuous
 62
     4
100
AcDbLine
 10
348.0431483650229
 20
332.9341928877539
 30
0.0
 11
348.0431483650229
 21
331.8341928877538
 31
0.0
  0
LINE
  5
220
330
2
100
AcDbEntity
  8
LAYER3
  6
Continuous
 62
     4
100
AcDbLine
 10
349.1431483650228
 20
331.7341928877538
 30
0.0
 11
350.243148365023
 21
331.7341928877538
 31
0.0
  0
LINE
  5
221
330
2
100
AcDbEntity
  8
LAYER3
  6
Continuous
 62
     4
100
AcDbLine
 10
348.3431483650229
 20
333.2341928877537
 30
0.0
 11
348.743148365023
 21
333.2341928877537
 31
0.0
  0
LINE
  5
222
330
2
100
AcDbEntity
  8
LAYER3
  6
Continuous
 62
     4
100
AcDbLine
 10
349.0431483650229
 20
332.9341928877539
 30
0.0
 11
349.0431483650229
 21
331.8341928877538
 31
0.0
  0
ARC
  5
223
330
2
100
AcDbEntity
  8
LAYER3
  6
Continuous
 62
     4
100
AcDbCircle
 10
349.1431483650228
 20
331.8341928877538
 30
0.0
 40
0.1
100
AcDbArc
 50
180.0
 51
270.0
  0
ARC
  5
224
330
2
100
AcDbEntity
  8
LAYER3
  6
Continuous
 62
     4
100
AcDbCircle
 10
348.743148365023
 20
332.9341928877539
 30
0.0
 40
0.3
100
AcDbArc
 50
0.0
 51
90.0
  0
LINE
  5
225
330
2
100
AcDbEntity
  8
LAYER3
  6
Continuous
 62
     4
100
AcDbLine
 10
350.5431483650229
 20
331.4341928877539
 30
0.0
 11
350.5431483650229
 21
331.0341928877538
 31
0.0
  0
ARC
  5
226
330
2
100
AcDbEntity
  8
LAYER3
  6
Continuous
 62
     4
100
AcDbCircle
 10
350.243148365023
 20
331.4341928877539
 30
0.0
 40
0.3
100
AcDbArc
 50
0.0
 51
90.0
  0
LWPOLYLINE
  5
227
330
2
100
AcDbEntity
  8
LAYER3
  6
Continuous
 62
     4
100
AcDbPolyline
 90
        2
 70
     0
 43
0.0
 10
444.9139683475568
 20
383.8347235542249
 10
447.9782965503475
 20
383.8347235542249
  0
LINE
  5
228
330
2
100
AcDbEntity
  8
LAYER3
  6
Continuous
 62
     4
100
AcDbLine
 10
346.8431483650229
 20
417.7395298077954
 30
0.0
 11
347.9431483650228
 21
417.7395298077954
 31
0.0
  0
LINE
  5
229
330
2
100
AcDbEntity
  8
LAYER3
  6
Continuous
 62
     4
100
AcDbLine
 10
346.8431483650229
 20
418.7395298077953
 30
0.0
 11
347.9431483650228
 21
418.7395298077953
 31
0.0
  0
LWPOLYLINE
  5
22A
330
2
100
AcDbEntity
  8
LAYER3
  6
Continuous
100
AcDbPolyline
 90
        4
 70
     1
 43
0.0
 10
338.5823115454948
 20
396.1579108120188
 10
353.0823115454948
 20
396.1579108120188
 10
353.0823115454948
 20
402.2579108120186
 10
338.5823115454948
 20
402.2579108120186
  0
LWPOLYLINE
  5
22C
330
2
100
AcDbEntity
  8
LAYER3
  6
Continuous
100
AcDbPolyline
 90
        2
 70
     0
 43
0.0
 10
356.0452660802142
 20
426.2582284456617
 10
308.5452660802141
 20
426.2582284456617
  0
LWPOLYLINE
  5
22D
330
2
100
AcDbEntity
  8
LAYER3
  6
Continuous
 62
     4
100
AcDbPolyline
 90
        3
 70
     0
 43
0.0
 10
356.0452660802142
 20
426.2582284456617
 10
356.0452660802142
 20
424.1582284456616
 10
347.0452660802142
 20
424.1582284456616
  0
DIMENSION
  5
22E
330
2
100
AcDbEntity
  8
BEMASSUNG
100
AcDbDimension
280
     0
  2
*D23
 10
274.5452660802141
 20
453.2582284456617
 30
0.0
 11
270.4202660802141
 21
439.7582284456617
 31
0.0
 71
     5
 42
-1.0
 73
     0
 74
     0
 75
     0
  3
PROSPEKT
100
AcDbAlignedDimension
 13
308.5452660802141
 23
426.2582284456617
 33
0.0
 14
305.5452660802141
 24
453.2582284456617
 34
0.0
 50
90.0
100
AcDbRotatedDimension
  0
LWPOLYLINE
  5
23B
330
2
100
AcDbEntity
  8
LAYER3
  6
Continuous
 62
     4
100
AcDbPolyline
 90
        2
 70
     0
 43
0.0
 10
295.5452660802141
 20
412.2582284456616
 10
305.4866365936181
 20
412.2582284456616
  0
DIMENSION
  5
23C
330
2
100
AcDbEntity
  8
BEMASSUNG
100
AcDbDimension
280
     0
  2
*D24
 10
274.5452660802141
 20
426.2582284456617
 30
0.0
 11
270.4202660802141
 21
420.2582284456616
 31
0.0
 71
     5
 42
-1.0
 73
     0
 74
     0
 75
     0
  3
PROSPEKT
100
AcDbAlignedDimension
 13
295.5452660802141
 23
414.2582284456617
 33
0.0
 14
308.5452660802141
 24
426.2582284456617
 34
0.0
 50
90.0
100
AcDbRotatedDimension
  0
LWPOLYLINE
  5
24B
330
2
100
AcDbEntity
  8
LAYER3
  6
Continuous
 62
     4
100
AcDbPolyline
 90
        2
 70
     0
 43
0.0
 10
317.4866365936181
 20
402.2079108120188
 10
308.4866365936182
 20
402.2079108120188
  0
LWPOLYLINE
  5
24C
330
2
100
AcDbEntity
  8
LAYER3
  6
Continuous
 62
     4
100
AcDbPolyline
 90
        2
 70
     0
 43
0.0
 10
317.4866365936181
 20
396.2079108120187
 10
308.4866365936182
 20
396.2079108120187
  0
LWPOLYLINE
  5
24D
330
2
100
AcDbEntity
  8
LAYER3
  6
Continuous
100
AcDbPolyline
 90
        2
 70
     0
 43
0.0
 10
343.8238160041712
 20
402.2579108120186
 10
343.8238160041712
 20
396.1579108120188
  0
LWPOLYLINE
  5
24E
330
2
100
AcDbEntity
  8
LAYER3
  6
Continuous
100
AcDbPolyline
 90
        2
 70
     0
 43
0.0
 10
342.8238160041712
 20
402.2579108120186
 10
342.8238160041712
 20
396.1579108120188
  0
ARC
  5
24F
330
2
100
AcDbEntity
  8
LAYER3
  6
Continuous
 62
     4
100
AcDbCircle
 10
346.8431483650229
 20
418.4395298077953
 30
0.0
 40
0.3
100
AcDbArc
 50
90.0
 51
180.0
  0
LINE
  5
250
330
2
100
AcDbEntity
  8
LAYER3
  6
Continuous
 62
     4
100
AcDbLine
 10
346.5431483650229
 20
418.4395298077953
 30
0.0
 11
346.5431483650229
 21
418.0395298077955
 31
0.0
  0
ARC
  5
251
330
2
100
AcDbEntity
  8
LAYER3
  6
Continuous
 62
     4
100
AcDbCircle
 10
346.8431483650229
 20
418.0395298077955
 30
0.0
 40
0.3
100
AcDbArc
 50
180.0
 51
270.0
  0
LWPOLYLINE
  5
252
330
2
100
AcDbEntity
  8
LAYER3
  6
Continuous
 62
     4
100
AcDbPolyline
 90
        2
 70
     0
 43
0.0
 10
334.045266080214
 20
424.1582284456616
 10
308.5452660802141
 20
424.1582284456616
  0
LWPOLYLINE
  5
253
330
2
100
AcDbEntity
  8
LAYER3
  6
Continuous
 62
     4
100
AcDbPolyline
 90
        2
 70
     0
 43
0.0
 10
340.545266080214
 20
426.2582284456617
 10
326.5452660802141
 20
426.2582284456617
  0
LWPOLYLINE
  5
254
330
2
100
AcDbEntity
  8
LAYER3
  6
Continuous
 62
     4
100
AcDbPolyline
 90
        2
 70
     0
 43
0.0
 10
334.045266080214
 20
426.2582284456617
 10
334.045266080214
 20
424.1582284456616
  0
LWPOLYLINE
  5
255
330
2
100
AcDbEntity
  8
LAYER3
  6
Continuous
 62
     4
100
AcDbPolyline
 90
        2
 70
     0
 43
0.0
 10
347.0452660802142
 20
426.2582284456617
 10
347.0452660802142
 20
424.1582284456616
  0
DIMENSION
  5
256
330
2
100
AcDbEntity
  8
BEMASSUNG
100
AcDbDimension
280
     0
  2
*D25
 10
429.4385844824501
 20
453.2582284456616
 30
0.0
 11
425.3135844824501
 21
448.2582284456616
 31
0.0
 71
     5
 42
-1.0
 73
     0
 74
     0
 75
     0
  3
PROSPEKT
100
AcDbAlignedDimension
 13
444.68858448245
 23
443.2582284456616
 33
0.0
 14
440.4385844824501
 24
453.2582284456616
 34
0.0
 50
90.0
100
AcDbRotatedDimension
  0
LINE
  5
265
330
2
100
AcDbEntity
  8
LAYER3
  6
Continuous
 62
     4
100
AcDbLine
 10
348.0431483650229
 20
419.9395298077954
 30
0.0
 11
348.0431483650229
 21
418.8395298077954
 31
0.0
  0
LINE
  5
266
330
2
100
AcDbEntity
  8
LAYER3
  6
Continuous
 62
     4
100
AcDbLine
 10
349.0431483650229
 20
419.9395298077954
 30
0.0
 11
349.0431483650229
 21
418.8395298077954
 31
0.0
  0
ARC
  5
267
330
2
100
AcDbEntity
  8
LAYER3
  6
Continuous
 62
     4
100
AcDbCircle
 10
347.9431483650228
 20
417.6395298077953
 30
0.0
 40
0.1
100
AcDbArc
 50
0.0
 51
90.0
  0
ARC
  5
268
330
2
100
AcDbEntity
  8
LAYER3
  6
Continuous
 62
     4
100
AcDbCircle
 10
347.9431483650228
 20
418.8395298077954
 30
0.0
 40
0.1
100
AcDbArc
 50
270.0
 51
0.0
  0
ARC
  5
269
330
2
100
AcDbEntity
  8
LAYER3
  6
Continuous
 62
     4
100
AcDbCircle
 10
350.243148365023
 20
418.4395298077953
 30
0.0
 40
0.3
100
AcDbArc
 50
0.0
 51
90.0
  0
LINE
  5
26A
330
2
100
AcDbEntity
  8
LAYER3
  6
Continuous
 62
     4
100
AcDbLine
 10
350.5431483650229
 20
418.4395298077953
 30
0.0
 11
350.5431483650229
 21
418.0395298077955
 31
0.0
  0
LINE
  5
26B
330
2
100
AcDbEntity
  8
LAYER3
  6
Continuous
 62
     4
100
AcDbLine
 10
349.1431483650228
 20
417.7395298077954
 30
0.0
 11
350.243148365023
 21
417.7395298077954
 31
0.0
  0
ARC
  5
26C
330
2
100
AcDbEntity
  8
LAYER3
  6
Continuous
 62
     4
100
AcDbCircle
 10
350.243148365023
 20
418.0395298077955
 30
0.0
 40
0.3
100
AcDbArc
 50
270.0
 51
0.0
  0
ARC
  5
26D
330
2
100
AcDbEntity
  8
LAYER3
  6
Continuous
 62
     4
100
AcDbCircle
 10
349.1431483650228
 20
417.6395298077953
 30
0.0
 40
0.1
100
AcDbArc
 50
90.0
 51
180.0
  0
ARC
  5
26E
330
2
100
AcDbEntity
  8
LAYER3
  6
Continuous
 62
     4
100
AcDbCircle
 10
349.1431483650228
 20
418.8395298077954
 30
0.0
 40
0.1
100
AcDbArc
 50
180.0
 51
270.0
  0
LINE
  5
26F
330
2
100
AcDbEntity
  8
LAYER3
  6
Continuous
 62
     4
100
AcDbLine
 10
349.1431483650228
 20
418.7395298077953
 30
0.0
 11
350.243148365023
 21
418.7395298077953
 31
0.0
  0
ARC
  5
270
330
2
100
AcDbEntity
  8
LAYER3
  6
Continuous
 62
     4
100
AcDbCircle
 10
348.3431483650229
 20
416.5395298077954
 30
0.0
 40
0.3
100
AcDbArc
 50
180.0
 51
270.0
  0
ARC
  5
271
330
2
100
AcDbEntity
  8
LAYER3
  6
Continuous
 62
     4
100
AcDbCircle
 10
348.743148365023
 20
416.5395298077954
 30
0.0
 40
0.3
100
AcDbArc
 50
270.0
 51
0.0
  0
LINE
  5
272
330
2
100
AcDbEntity
  8
LAYER3
  6
Continuous
 62
     4
100
AcDbLine
 10
348.3431483650229
 20
416.2395298077954
 30
0.0
 11
348.743148365023
 21
416.2395298077954
 31
0.0
  0
LINE
  5
273
330
2
100
AcDbEntity
  8
LAYER3
  6
Continuous
 62
     4
100
AcDbLine
 10
348.0431483650229
 20
417.6395298077953
 30
0.0
 11
348.0431483650229
 21
416.5395298077954
 31
0.0
  0
LINE
  5
274
330
2
100
AcDbEntity
  8
LAYER3
  6
Continuous
 62
     4
100
AcDbLine
 10
349.0431483650229
 20
417.6395298077953
 30
0.0
 11
349.0431483650229
 21
416.5395298077954
 31
0.0
  0
ARC
  5
275
330
2
100
AcDbEntity
  8
LAYER3
  6
Continuous
 62
     4
100
AcDbCircle
 10
348.3431483650229
 20
419.9395298077954
 30
0.0
 40
0.3
100
AcDbArc
 50
90.0
 51
180.0
  0
ARC
  5
276
330
2
100
AcDbEntity
  8
LAYER3
  6
Continuous
 62
     4
100
AcDbCircle
 10
348.743148365023
 20
419.9395298077954
 30
0.0
 40
0.3
100
AcDbArc
 50
0.0
 51
90.0
  0
LINE
  5
277
330
2
100
AcDbEntity
  8
LAYER3
  6
Continuous
 62
     4
100
AcDbLine
 10
348.3431483650229
 20
420.2395298077954
 30
0.0
 11
348.743148365023
 21
420.2395298077954
 31
0.0
  0
LWPOLYLINE
  5
278
330
2
100
AcDbEntity
  8
LAYER3
  6
Continuous
 62
     4
100
AcDbPolyline
 90
        2
 70
     0
 43
0.0
 10
444.9139683475568
 20
413.834723554225
 10
447.9782965503475
 20
413.834723554225
  0
LWPOLYLINE
  5
279
330
2
100
AcDbEntity
  8
LAYER3
  6
Continuous
 62
     4
100
AcDbPolyline
 90
        2
 70
     0
 43
0.0
 10
457.8900387945273
 20
383.8347235542249
 10
457.8900387945273
 20
413.834723554225
  0
LWPOLYLINE
  5
27A
330
2
100
AcDbEntity
  8
LAYER3
  6
Continuous
 62
     4
100
AcDbPolyline
 90
        2
 70
     0
 43
0.0
 10
454.8900387945272
 20
385.8347235542249
 10
454.8900387945272
 20
383.8347235542249
  0
LWPOLYLINE
  5
27B
330
2
100
AcDbEntity
  8
LAYER3
  6
Continuous
 62
     4
100
AcDbPolyline
 90
        2
 70
     0
 43
0.0
 10
454.8900387945272
 20
383.8347235542249
 10
457.8900387945273
 20
383.8347235542249
  0
LINE
  5
27C
330
2
100
AcDbEntity
  8
ACHSEN
100
AcDbLine
 10
451.43858448245
 20
443.2582284456616
 30
0.0
 11
451.43858448245
 21
436.5082284456616
 31
0.0
  0
LWPOLYLINE
  5
27D
330
2
100
AcDbEntity
  8
LAYER3
  6
Continuous
 62
     4
100
AcDbPolyline
 90
        3
 70
     0
 43
0.0
 10
457.8900387945273
 20
413.834723554225
 10
454.8900387945272
 20
413.834723554225
 10
454.8900387945272
 20
411.9144813990276
  0
LINE
  5
27E
330
2
100
AcDbEntity
  8
ACHSEN
100
AcDbLine
 10
451.43858448245
 20
443.2582284456616
 30
0.0
 11
451.43858448245
 21
450.0082284456616
 31
0.0
  0
LINE
  5
27F
330
2
100
AcDbEntity
  8
ACHSEN
100
AcDbLine
 10
451.43858448245
 20
443.2582284456616
 30
0.0
 11
458.18858448245
 21
443.2582284456616
 31
0.0
  0
ARC
  5
38C
330
2
100
AcDbEntity
  8
LAYER3
  6
Continuous
 62
     4
100
AcDbCircle
 10
340.545266080214
 20
242.2582284456616
 30
0.0
 40
11.1
100
AcDbArc
 50
297.3522329091301
 51
242.6477670908699
  0
LINE
  5
38D
330
2
100
AcDbEntity
  8
ACHSEN
100
AcDbLine
 10
350.5452660802142
 20
230.049065592669
 30
0.0
 11
345.9452660802138
 21
230.049065592669
 31
0.0
  0
LINE
  5
38E
330
2
100
AcDbEntity
  8
ACHSEN
100
AcDbLine
 10
340.545266080214
 20
223.0582284456616
 30
0.0
 11
347.645266080214
 21
223.0582284456616
 31
0.0
  0
CIRCLE
  5
38F
330
2
100
AcDbEntity
  8
LAYER3
  6
Continuous
 62
     4
100
AcDbCircle
 10
330.5452660802141
 20
230.049065592669
 30
0.0
 40
2.6
  0
LINE
  5
390
330
2
100
AcDbEntity
  8
ACHSEN
100
AcDbLine
 10
330.5452660802141
 20
230.049065592669
 30
0.0
 11
330.5452660802141
 21
225.4490655926691
 31
0.0
  0
LWPOLYLINE
  5
391
330
2
100
AcDbEntity
  8
LAYER3
  6
Continuous
 62
     4
100
AcDbPolyline
 90
        2
 70
     0
 43
0.0
 10
345.645266080214
 20
223.0582284456616
 10
345.645266080214
 20
232.3992224105686
  0
LWPOLYLINE
  5
392
330
2
100
AcDbEntity
  8
LAYER3
  6
Continuous
 62
     4
100
AcDbPolyline
 90
        2
 70
     0
 43
0.0
 10
335.445266080214
 20
223.0582284456616
 10
335.445266080214
 20
232.3992224105686
  0
ARC
  5
393
330
2
100
AcDbEntity
  8
LAYER3
  6
Continuous
 62
     4
100
AcDbCircle
 10
340.545266080214
 20
223.0582284456616
 30
0.0
 40
5.099999999999997
100
AcDbArc
 50
180.0
 51
0.0
  0
LINE
  5
394
330
2
100
AcDbEntity
  8
ACHSEN
100
AcDbLine
 10
340.545266080214
 20
223.0582284456616
 30
0.0
 11
333.445266080214
 21
223.0582284456616
 31
0.0
  0
LINE
  5
395
330
2
100
AcDbEntity
  8
ACHSEN
100
AcDbLine
 10
330.5452660802141
 20
230.049065592669
 30
0.0
 11
335.145266080214
 21
230.049065592669
 31
0.0
  0
LINE
  5
396
330
2
100
AcDbEntity
  8
ACHSEN
100
AcDbLine
 10
330.5452660802141
 20
230.049065592669
 30
0.0
 11
325.945266080214
 21
230.049065592669
 31
0.0
  0
LINE
  5
397
330
2
100
AcDbEntity
  8
ACHSEN
100
AcDbLine
 10
330.5452660802141
 20
230.049065592669
 30
0.0
 11
330.5452660802141
 21
234.6490655926691
 31
0.0
  0
CIRCLE
  5
398
330
2
100
AcDbEntity
  8
LAYER3
  6
Continuous
 62
     4
100
AcDbCircle
 10
350.5452660802142
 20
230.049065592669
 30
0.0
 40
2.6
  0
LINE
  5
399
330
2
100
AcDbEntity
  8
ACHSEN
100
AcDbLine
 10
350.5452660802142
 20
230.049065592669
 30
0.0
 11
350.5452660802142
 21
225.4490655926691
 31
0.0
  0
LINE
  5
39A
330
2
100
AcDbEntity
  8
ACHSEN
100
AcDbLine
 10
350.5452660802142
 20
230.049065592669
 30
0.0
 11
350.5452660802142
 21
234.6490655926691
 31
0.0
  0
LINE
  5
39B
330
2
100
AcDbEntity
  8
ACHSEN
100
AcDbLine
 10
350.5452660802142
 20
230.049065592669
 30
0.0
 11
355.145266080214
 21
230.049065592669
 31
0.0
  0
CIRCLE
  5
3F7
330
2
100
AcDbEntity
  8
LAYER3
  6
Continuous
 62
     4
100
AcDbCircle
 10
324.5452660802141
 20
230.7582284456616
 30
0.0
 40
3.0
  0
CIRCLE
  5
3F8
330
2
100
AcDbEntity
  8
LAYER3
  6
Continuous
 62
     4
100
AcDbCircle
 10
348.5452660802142
 20
331.2582284456617
 30
0.0
 40
3.0
  0
CIRCLE
  5
3F9
330
2
100
AcDbEntity
  8
LAYER3
  6
Continuous
 62
     4
100
AcDbCircle
 10
326.5452660802141
 20
379.2582284456616
 30
0.0
 40
3.0
  0
CIRCLE
  5
3FA
330
2
100
AcDbEntity
  8
LAYER3
  6
Continuous
 62
     4
100
AcDbCircle
 10
348.5452660802142
 20
418.2635653657031
 30
0.0
 40
3.0
  0
ENDSEC
  0
SECTION
  2
OBJECTS
  0
DICTIONARY
  5
8
330
0
100
AcDbDictionary
281
     1
  3
ACAD_CIP_PREVIOUS_PRODUCT_INFO
350
303
  3
ACAD_COLOR
350
2E2
  3
ACAD_DETAILVIEWSTYLE
350
2FB
  3
ACAD_FIELDLIST
350
35B
  3
ACAD_GROUP
350
24
  3
ACAD_LAYOUT
350
C
  3
ACAD_MATERIAL
350
2B0
  3
ACAD_MLEADERSTYLE
350
2F7
  3
ACAD_MLINESTYLE
350
25
  3
ACAD_PLOTSETTINGS
350
26
  3
ACAD_PLOTSTYLENAME
350
7
  3
ACAD_SCALELIST
350
2E5
  3
ACAD_SECTIONVIEWSTYLE
350
2F9
  3
ACAD_TABLESTYLE
350
2E3
  3
ACAD_VISUALSTYLE
350
2C9
  3
ACDB_RECOMPOSE_DATA
350
49E
  3
AcDbVariableDictionary
350
2AB
  3
AcmDictionary
350
290
  3
AMG
350
281
  3
AMGSNAPSETTINGS
350
36F
  0
DICTIONARY
  5
42A
330
11
100
AcDbDictionary
280
     1
281
     1
  3
ACAD_LAYERSTATES
360
42B
  0
DICTIONARY
  5
419
330
5
100
AcDbDictionary
280
     1
281
     1
  3
ADSK_XREC_LAYER_RECONCILED
360
41A
  0
DICTIONARY
  5
41B
330
5A
100
AcDbDictionary
280
     1
281
     1
  3
ADSK_XREC_LAYER_RECONCILED
360
41C
  0
DICTIONARY
  5
41D
330
27
100
AcDbDictionary
280
     1
281
     1
  3
ADSK_XREC_LAYER_RECONCILED
360
41E
  0
DICTIONARY
  5
41F
330
1BB
100
AcDbDictionary
280
     1
281
     1
  3
ADSK_XREC_LAYER_RECONCILED
360
420
  0
DICTIONARY
  5
421
330
47
100
AcDbDictionary
280
     1
281
     1
  3
ADSK_XREC_LAYER_RECONCILED
360
422
  0
DICTIONARY
  5
423
330
BA
100
AcDbDictionary
280
     1
281
     1
  3
ADSK_XREC_LAYER_RECONCILED
360
424
  0
DICTIONARY
  5
425
330
3A5
100
AcDbDictionary
280
     1
281
     1
  3
ADSK_XREC_LAYER_RECONCILED
360
426
  0
DICTIONARY
  5
3
330
2
100
AcDbDictionary
280
     1
281
     1
  0
XRECORD
  5
303
102
{ACAD_REACTORS
330
8
102
}
330
8
100
AcDbXrecord
280
     1
300
AMECH_PP
300
2014
300
PDSU_F_S
  0
DICTIONARY
  5
2E2
102
{ACAD_REACTORS
330
8
102
}
330
8
100
AcDbDictionary
281
     1
  0
DICTIONARY
  5
2FB
102
{ACAD_REACTORS
330
8
102
}
330
8
100
AcDbDictionary
281
     1
  3
Metric50
350
2FC
  0
FIELDLIST
  5
35B
102
{ACAD_REACTORS
330
8
102
}
330
8
100
AcDbIdSet
 90
        6
330
48B
330
48C
330
48D
330
491
330
492
330
493
100
AcDbFieldList
  0
DICTIONARY
  5
24
102
{ACAD_REACTORS
330
8
102
}
330
8
100
AcDbDictionary
281
     1
  0
DICTIONARY
  5
C
102
{ACAD_REACTORS
330
8
102
}
330
8
100
AcDbDictionary
281
     1
  3
Layout1
350
10
  3
Model
350
B
  0
DICTIONARY
  5
2B0
102
{ACAD_REACTORS
330
8
102
}
330
8
100
AcDbDictionary
281
     1
  3
ByBlock
350
2B9
  3
ByLayer
350
2B1
  3
Global
350
2C1
  0
DICTIONARY
  5
2F7
102
{ACAD_REACTORS
330
8
102
}
330
8
100
AcDbDictionary
281
     1
  3
Standard
350
2F8
  0
DICTIONARY
  5
25
102
{ACAD_REACTORS
330
8
102
}
330
8
100
AcDbDictionary
281
     1
  3
STANDARD
350
28
  0
DICTIONARY
  5
26
102
{ACAD_REACTORS
330
8
102
}
330
8
100
AcDbDictionary
281
     1
  0
ACDBDICTIONARYWDFLT
  5
7
102
{ACAD_REACTORS
330
8
102
}
330
8
100
AcDbDictionary
281
     1
  3
Normal
350
6
100
AcDbDictionaryWithDefault
340
6
  0
DICTIONARY
  5
2E5
102
{ACAD_REACTORS
330
8
102
}
330
8
100
AcDbDictionary
281
     1
  3
A0
350
2E6
  3
A1
350
2E7
  3
A2
350
2E8
  3
A3
350
2E9
  3
A4
350
2EA
  3
A5
350
2EB
  3
A6
350
2EC
  3
A7
350
2ED
  3
A8
350
2EE
  3
A9
350
2EF
  3
B0
350
2F0
  3
B1
350
2F1
  3
B2
350
2F2
  3
B3
350
2F3
  3
B4
350
2F4
  3
B5
350
2F5
  3
B6
350
2F6
  0
DICTIONARY
  5
2F9
102
{ACAD_REACTORS
330
8
102
}
330
8
100
AcDbDictionary
281
     1
  3
Metric50
350
2FA
  0
DICTIONARY
  5
2E3
102
{ACAD_REACTORS
330
8
102
}
330
8
100
AcDbDictionary
281
     1
  3
Standard
350
2E4
  0
DICTIONARY
  5
2C9
102
{ACAD_REACTORS
330
8
102
}
330
8
100
AcDbDictionary
281
     1
  3
2dWireframe
350
2CF
  3
Basic
350
2CE
  3
Brighten
350
2D5
  3
ColorChange
350
2D9
  3
Conceptual
350
2D2
  3
Dim
350
2D4
  3
EdgeColorOff
350
2E1
  3
Facepattern
350
2D8
  3
Flat
350
2CA
  3
FlatWithEdges
350
2CB
  3
Gouraud
350
2CC
  3
GouraudWithEdges
350
2CD
  3
Hidden
350
2D1
  3
JitterOff
350
2DF
  3
Linepattern
350
2D7
  3
OverhangOff
350
2E0
  3
Realistic
350
2D3
  3
Shaded
350
2DE
  3
Shaded with edges
350
2DD
  3
Shades of Gray
350
2DA
  3
Sketchy
350
2DB
  3
Thicken
350
2D6
  3
Wireframe
350
2D0
  3
X-Ray
350
2DC
  0
XRECORD
  5
49E
102
{ACAD_REACTORS
330
8
102
}
330
8
100
AcDbXrecord
280
     1
 90
        1
330
2E4
330
2FA
330
2FC
  0
DICTIONARY
  5
2AB
102
{ACAD_REACTORS
330
8
102
}
330
8
100
AcDbDictionary
281
     1
  3
CANNOSCALE
350
435
  3
CMLEADERSTYLE
350
431
  3
CTABLESTYLE
350
430
  3
CVIEWDETAILSTYLE
350
432
  3
CVIEWSECTIONSTYLE
350
433
  3
DIMASSOC
350
2AD
  3
HIDETEXT
350
2AC
  3
LAYEREVAL
350
437
  3
LAYERNOTIFY
350
438
  3
LIGHTINGUNITS
350
436
  3
MSLTSCALE
350
434
  0
DICTIONARY
  5
290
102
{ACAD_REACTORS
330
8
102
}
330
8
100
AcDbDictionary
281
     1
  3
AcmStdDictionary
350
291
  0
DICTIONARY
  5
281
102
{ACAD_REACTORS
330
8
102
}
330
8
100
AcDbDictionary
281
     1
  0
DICTIONARY
  5
36F
102
{ACAD_REACTORS
330
8
102
}
330
8
100
AcDbDictionary
281
     1
  0
DICTIONARY
  5
42B
102
{ACAD_REACTORS
330
42A
102
}
330
42A
100
AcDbDictionary
281
     1
  0
XRECORD
  5
41A
102
{ACAD_REACTORS
330
419
102
}
330
419
100
AcDbXrecord
280
     1
290
     1
  0
XRECORD
  5
41C
102
{ACAD_REACTORS
330
41B
102
}
330
41B
100
AcDbXrecord
280
     1
290
     1
  0
XRECORD
  5
41E
102
{ACAD_REACTORS
330
41D
102
}
330
41D
100
AcDbXrecord
280
     1
290
     1
  0
XRECORD
  5
420
102
{ACAD_REACTORS
330
41F
102
}
330
41F
100
AcDbXrecord
280
     1
290
     1
  0
XRECORD
  5
422
102
{ACAD_REACTORS
330
421
102
}
330
421
100
AcDbXrecord
280
     1
290
     1
  0
XRECORD
  5
424
102
{ACAD_REACTORS
330
423
102
}
330
423
100
AcDbXrecord
280
     1
290
     1
  0
XRECORD
  5
426
102
{ACAD_REACTORS
330
425
102
}
330
425
100
AcDbXrecord
280
     1
290
     1
  0
ACDBDETAILVIEWSTYLE
  5
2FC
102
{ACAD_XDICTIONARY
360
43D
102
}
102
{ACAD_REACTORS
330
2FB
330
487
102
}
330
2FB
100
AcDbModelDocViewStyle
 70
     0
  3
Metric50
290
     0
100
AcDbDetailViewStyle
 70
     0
 71
     0
 90
        3
 71
     1
340
13
 62
   256
 40
5.0
340
0
 62
   256
 40
5.0
300

 40
0.0
280
     1
 71
     2
340
9
 90
       25
 62
   256
 71
     3
340
13
 62
   256
 40
5.0
 90
        0
 40
15.0
 90
        1
300
%<\AcVar ViewDetailId>% (%<\AcVar ViewScale \f "%sn">%)
 71
     4
340
9
 90
       25
 62
   256
340
9
 90
       25
 62
   256
280
     0
  0
LAYOUT
  5
10
102
{ACAD_REACTORS
330
C
102
}
330
C
100
AcDbPlotSettings
  1

  2
G:\VORLAGEN\AutoCAD2002\Plotten\A3hoch-MSL.pc3
  4

  6

 40
0.0
 41
0.0
 42
0.0
 43
0.0
 44
0.0
 45
0.0
 46
0.0
 47
0.0
 48
0.0
 49
0.0
140
0.0
141
0.0
142
1.0
143
1.0
 70
   688
 72
     0
 73
     0
 74
     5
  7
monochrome.ctb
 75
    16
147
1.0
 76
     0
 77
     2
 78
   300
148
0.0
149
0.0
100
AcDbLayout
  1
Layout1
 70
     1
 71
     1
 10
0.0
 20
0.0
 11
12.0
 21
9.0
 12
0.0
 22
0.0
 32
0.0
 14
1.000000000000000E+20
 24
1.000000000000000E+20
 34
1.000000000000000E+20
 15
-1.000000000000000E+20
 25
-1.000000000000000E+20
 35
-1.000000000000000E+20
146
0.0
 13
0.0
 23
0.0
 33
0.0
 16
1.0
 26
0.0
 36
0.0
 17
0.0
 27
1.0
 37
0.0
 76
     0
330
D
  0
LAYOUT
  5
B
102
{ACAD_REACTORS
330
C
102
}
330
C
100
AcDbPlotSettings
  1

  2
TIFF Version 6 (CCITT G4 2D-Komprimierung).pc3
  4
Sun_Hi-Res_(1600.00_x_1280.00_Pixels)
  6

 40
0.0
 41
0.0
 42
1.0
 43
1.0
 44
1600.0
 45
1280.0
 46
0.0
 47
0.0
 48
1087.311676758663
 49
13.90389197265108
140
1314.29808366766
141
389.213025448071
142
1.0
143
1.0
 70
 11952
 72
     2
 73
     0
 74
     4
  7
monochrome.ctb
 75
    16
147
1.0
 76
     0
 77
     2
 78
   300
148
-1087.311676758663
149
-13.90389197265108
100
AcDbLayout
  1
Model
 70
     1
 71
     0
 10
0.0
 20
0.0
 11
12.0
 21
9.0
 12
0.0
 22
0.0
 32
0.0
 14
0.0
 24
0.0
 34
0.0
 15
0.0
 25
0.0
 35
0.0
146
0.0
 13
0.0
 23
0.0
 33
0.0
 16
1.0
 26
0.0
 36
0.0
 17
0.0
 27
1.0
 37
0.0
 76
     0
330
2
331
1B
  0
MATERIAL
  5
2B9
102
{ACAD_XDICTIONARY
360
2BA
102
}
102
{ACAD_REACTORS
330
2B0
102
}
330
2B0
100
AcDbMaterial
  1
ByBlock
 72
     0
 43
0.0208333333333333
 43
0.0
 43
0.0
 43
0.0
 43
0.0
 43
0.0208333333333333
 43
0.0
 43
0.0
 43
0.0
 43
0.0
 43
1.0
 43
0.0
 43
0.0
 43
0.0
 43
0.0
 43
1.0
 77
     0
 47
0.0208333333333333
 47
0.0
 47
0.0
 47
0.0
 47
0.0
 47
0.0208333333333333
 47
0.0
 47
0.0
 47
0.0
 47
0.0
 47
1.0
 47
0.0
 47
0.0
 47
0.0
 47
0.0
 47
1.0
171
     0
 49
0.0208333333333333
 49
0.0
 49
0.0
 49
0.0
 49
0.0
 49
0.0208333333333333
 49
0.0
 49
0.0
 49
0.0
 49
0.0
 49
1.0
 49
0.0
 49
0.0
 49
0.0
 49
0.0
 49
1.0
175
     0
142
0.0208333333333333
142
0.0
142
0.0
142
0.0
142
0.0
142
0.0208333333333333
142
0.0
142
0.0
142
0.0
142
0.0
142
1.0
142
0.0
142
0.0
142
0.0
142
0.0
142
1.0
179
     0
144
0.0208333333333333
144
0.0
144
0.0
144
0.0
144
0.0
144
0.0208333333333333
144
0.0
144
0.0
144
0.0
144
0.0
144
1.0
144
0.0
144
0.0
144
0.0
144
0.0
144
1.0
147
0.0208333333333333
147
0.0
147
0.0
147
0.0
147
0.0
147
0.0208333333333333
147
0.0
147
0.0
147
0.0
147
0.0
147
1.0
147
0.0
147
0.0
147
0.0
147
0.0
147
1.0
  0
MATERIAL
  5
2B1
102
{ACAD_XDICTIONARY
360
2B2
102
}
102
{ACAD_REACTORS
330
2B0
102
}
330
2B0
100
AcDbMaterial
  1
ByLayer
 72
     0
 43
0.0208333333333333
 43
0.0
 43
0.0
 43
0.0
 43
0.0
 43
0.0208333333333333
 43
0.0
 43
0.0
 43
0.0
 43
0.0
 43
1.0
 43
0.0
 43
0.0
 43
0.0
 43
0.0
 43
1.0
 77
     0
 47
0.0208333333333333
 47
0.0
 47
0.0
 47
0.0
 47
0.0
 47
0.0208333333333333
 47
0.0
 47
0.0
 47
0.0
 47
0.0
 47
1.0
 47
0.0
 47
0.0
 47
0.0
 47
0.0
 47
1.0
171
     0
 49
0.0208333333333333
 49
0.0
 49
0.0
 49
0.0
 49
0.0
 49
0.0208333333333333
 49
0.0
 49
0.0
 49
0.0
 49
0.0
 49
1.0
 49
0.0
 49
0.0
 49
0.0
 49
0.0
 49
1.0
175
     0
142
0.0208333333333333
142
0.0
142
0.0
142
0.0
142
0.0
142
0.0208333333333333
142
0.0
142
0.0
142
0.0
142
0.0
142
1.0
142
0.0
142
0.0
142
0.0
142
0.0
142
1.0
179
     0
144
0.0208333333333333
144
0.0
144
0.0
144
0.0
144
0.0
144
0.0208333333333333
144
0.0
144
0.0
144
0.0
144
0.0
144
1.0
144
0.0
144
0.0
144
0.0
144
0.0
144
1.0
147
0.0208333333333333
147
0.0
147
0.0
147
0.0
147
0.0
147
0.0208333333333333
147
0.0
147
0.0
147
0.0
147
0.0
147
1.0
147
0.0
147
0.0
147
0.0
147
0.0
147
1.0
  0
MATERIAL
  5
2C1
102
{ACAD_XDICTIONARY
360
2C2
102
}
102
{ACAD_REACTORS
330
2B0
102
}
330
2B0
100
AcDbMaterial
  1
Global
 72
     0
 43
0.0208333333333333
 43
0.0
 43
0.0
 43
0.0
 43
0.0
 43
0.0208333333333333
 43
0.0
 43
0.0
 43
0.0
 43
0.0
 43
1.0
 43
0.0
 43
0.0
 43
0.0
 43
0.0
 43
1.0
 77
     0
 47
0.0208333333333333
 47
0.0
 47
0.0
 47
0.0
 47
0.0
 47
0.0208333333333333
 47
0.0
 47
0.0
 47
0.0
 47
0.0
 47
1.0
 47
0.0
 47
0.0
 47
0.0
 47
0.0
 47
1.0
171
     0
 49
0.0208333333333333
 49
0.0
 49
0.0
 49
0.0
 49
0.0
 49
0.0208333333333333
 49
0.0
 49
0.0
 49
0.0
 49
0.0
 49
1.0
 49
0.0
 49
0.0
 49
0.0
 49
0.0
 49
1.0
175
     0
142
0.0208333333333333
142
0.0
142
0.0
142
0.0
142
0.0
142
0.0208333333333333
142
0.0
142
0.0
142
0.0
142
0.0
142
1.0
142
0.0
142
0.0
142
0.0
142
0.0
142
1.0
179
     0
144
0.0208333333333333
144
0.0
144
0.0
144
0.0
144
0.0
144
0.0208333333333333
144
0.0
144
0.0
144
0.0
144
0.0
144
1.0
144
0.0
144
0.0
144
0.0
144
0.0
144
1.0
147
0.0208333333333333
147
0.0
147
0.0
147
0.0
147
0.0
147
0.0208333333333333
147
0.0
147
0.0
147
0.0
147
0.0
147
1.0
147
0.0
147
0.0
147
0.0
147
0.0
147
1.0
  0
MLEADERSTYLE
  5
2F8
102
{ACAD_REACTORS
330
2F7
102
}
330
2F7
100
AcDbMLeaderStyle
179
     2
170
     2
171
     1
172
     0
 90
        2
 40
0.0
 41
0.0
173
     1
 91
-1056964608
340
16
 92
       -2
290
     1
 42
2.0
291
     1
 43
0.36
  3
Standard
 44
4.0
300

342
13
174
     1
178
     6
175
     1
176
     0
 93
-1056964608
 45
4.0
292
     0
297
     0
 46
4.0
 94
-1056964608
 47
1.0
 49
1.0
140
1.0
293
     1
141
0.0
294
     1
177
     0
142
1.0
295
     0
296
     0
143
0.125
271
     0
272
     9
273
     9
298
     0
  0
MLINESTYLE
  5
28
102
{ACAD_REACTORS
330
25
102
}
330
25
100
AcDbMlineStyle
  2
STANDARD
 70
     0
  3

 62
     0
 51
90.0
 52
90.0
 71
     2
 49
0.5
 62
   256
  6
BYLAYER
 49
-0.5
 62
   256
  6
BYLAYER
  0
ACDBPLACEHOLDER
  5
6
102
{ACAD_REACTORS
330
7
102
}
330
7
  0
SCALE
  5
2E6
102
{ACAD_REACTORS
330
2E5
102
}
330
2E5
100
AcDbScale
 70
     0
300
1:1
140
1.0
141
1.0
290
     1
  0
SCALE
  5
2E7
102
{ACAD_REACTORS
330
2E5
102
}
330
2E5
100
AcDbScale
 70
     0
300
1:2
140
1.0
141
2.0
290
     0
  0
SCALE
  5
2E8
102
{ACAD_REACTORS
330
2E5
102
}
330
2E5
100
AcDbScale
 70
     0
300
1:4
140
1.0
141
4.0
290
     0
  0
SCALE
  5
2E9
102
{ACAD_REACTORS
330
2E5
102
}
330
2E5
100
AcDbScale
 70
     0
300
1:5
140
1.0
141
5.0
290
     0
  0
SCALE
  5
2EA
102
{ACAD_REACTORS
330
2E5
102
}
330
2E5
100
AcDbScale
 70
     0
300
1:8
140
1.0
141
8.0
290
     0
  0
SCALE
  5
2EB
102
{ACAD_REACTORS
330
2E5
102
}
330
2E5
100
AcDbScale
 70
     0
300
1:10
140
1.0
141
10.0
290
     0
  0
SCALE
  5
2EC
102
{ACAD_REACTORS
330
2E5
102
}
330
2E5
100
AcDbScale
 70
     0
300
1:16
140
1.0
141
16.0
290
     0
  0
SCALE
  5
2ED
102
{ACAD_REACTORS
330
2E5
102
}
330
2E5
100
AcDbScale
 70
     0
300
1:20
140
1.0
141
20.0
290
     0
  0
SCALE
  5
2EE
102
{ACAD_REACTORS
330
2E5
102
}
330
2E5
100
AcDbScale
 70
     0
300
1:30
140
1.0
141
30.0
290
     0
  0
SCALE
  5
2EF
102
{ACAD_REACTORS
330
2E5
102
}
330
2E5
100
AcDbScale
 70
     0
300
1:40
140
1.0
141
40.0
290
     0
  0
SCALE
  5
2F0
102
{ACAD_REACTORS
330
2E5
102
}
330
2E5
100
AcDbScale
 70
     0
300
1:50
140
1.0
141
50.0
290
     0
  0
SCALE
  5
2F1
102
{ACAD_REACTORS
330
2E5
102
}
330
2E5
100
AcDbScale
 70
     0
300
1:100
140
1.0
141
100.0
290
     0
  0
SCALE
  5
2F2
102
{ACAD_REACTORS
330
2E5
102
}
330
2E5
100
AcDbScale
 70
     0
300
2:1
140
2.0
141
1.0
290
     0
  0
SCALE
  5
2F3
102
{ACAD_REACTORS
330
2E5
102
}
330
2E5
100
AcDbScale
 70
     0
300
4:1
140
4.0
141
1.0
290
     0
  0
SCALE
  5
2F4
102
{ACAD_REACTORS
330
2E5
102
}
330
2E5
100
AcDbScale
 70
     0
300
8:1
140
8.0
141
1.0
290
     0
  0
SCALE
  5
2F5
102
{ACAD_REACTORS
330
2E5
102
}
330
2E5
100
AcDbScale
 70
     0
300
10:1
140
10.0
141
1.0
290
     0
  0
SCALE
  5
2F6
102
{ACAD_REACTORS
330
2E5
102
}
330
2E5
100
AcDbScale
 70
     0
300
100:1
140
100.0
141
1.0
290
     0
  0
ACDBSECTIONVIEWSTYLE
  5
2FA
102
{ACAD_XDICTIONARY
360
43B
102
}
102
{ACAD_REACTORS
330
2F9
330
486
102
}
330
2F9
100
AcDbModelDocViewStyle
 70
     0
  3
Metric50
290
     0
100
AcDbSectionViewStyle
 70
     0
 71
     0
 90
      102
 71
     1
340
13
 62
   256
 40
5.0
340
0
340
0
 62
   256
 40
5.0
300
I, O, Q, S, X, Z
 40
10.0
 90
        0
 40
2.5
 90
        0
 71
     2
340
9
 90
       25
 62
   256
340
9
 90
       50
 62
   256
 40
5.0
 40
2.5
 40
5.0
 71
     3
340
13
 62
   256
 40
5.0
 90
        0
 40
15.0
 90
        1
300
%<\AcVar ViewSectionStartId>%-%<\AcVar ViewSectionEndId>% (%<\AcVar ViewScale \f "%sn">%)
 71
     4
 62
   256
 62
   257
300
ANSI31
 40
1.0
 90
        0
290
     0
290
     0
 90
        6
 40
0.0
 40
1.570796326794896
 40
0.2617993877991494
 40
1.308996938995747
 40
-0.2617993877991494
 40
1.832595714594045
  0
TABLESTYLE
  5
2E4
102
{ACAD_XDICTIONARY
360
439
102
}
102
{ACAD_REACTORS
330
2E3
102
}
330
2E3
100
AcDbTableStyle
280
     0
  3
Standard
 70
     0
 71
     0
 40
1.5
 41
1.5
280
     0
281
     0
  7
STANDARD
140
4.5
170
     2
 62
     0
 63
     7
283
     0
 90
      512
 91
        0
  1

274
    -2
284
     1
 64
     0
275
    -2
285
     1
 65
     0
276
    -2
286
     1
 66
     0
277
    -2
287
     1
 67
     0
278
    -2
288
     1
 68
     0
279
    -2
289
     1
 69
     0
  7
STANDARD
140
6.0
170
     5
 62
     0
 63
     7
283
     0
 90
      512
 91
        0
  1

274
    -2
284
     1
 64
     0
275
    -2
285
     1
 65
     0
276
    -2
286
     1
 66
     0
277
    -2
287
     1
 67
     0
278
    -2
288
     1
 68
     0
279
    -2
289
     1
 69
     0
  7
STANDARD
140
4.5
170
     5
 62
     0
 63
     7
283
     0
 90
      512
 91
        0
  1

274
    -2
284
     1
 64
     0
275
    -2
285
     1
 65
     0
276
    -2
286
     1
 66
     0
277
    -2
287
     1
 67
     0
278
    -2
288
     1
 68
     0
279
    -2
289
     1
 69
     0
  0
VISUALSTYLE
  5
2CF
102
{ACAD_REACTORS
330
2C9
102
}
330
2C9
100
AcDbVisualStyle
  2
2dWireframe
 70
     4
177
     3
291
     0
 70
    58
 90
        0
176
     1
 90
        2
176
     1
 90
        0
176
     1
 90
        0
176
     1
 40
0.6
176
     1
 40
30.0
176
     1
 62
     7
420
 16777215
176
     1
 90
        1
176
     1
 90
        4
176
     1
 62
     7
176
     1
 62
   257
176
     1
 90
        1
176
     1
 90
        1
176
     1
 40
1.0
176
     1
 90
        0
176
     1
 62
   257
176
     1
 40
1.0
176
     1
 90
        1
176
     1
 90
        6
176
     1
 90
        2
176
     1
 62
     7
176
     1
 90
        5
176
     1
 90
        0
176
     1
 90
        0
176
     1
290
     0
176
     1
 90
        1
176
     1
 40
0.0
176
     1
 90
        0
176
     1
290
     1
176
     1
290
     1
176
     1
290
     0
176
     1
290
     0
176
     1
290
     0
176
     1
290
     0
176
     1
290
     0
176
     1
290
     0
176
     1
290
     0
176
     1
 90
       50
176
     1
 40
0.0
176
     1
 40
1.0
176
     1
 90
        0
176
     1
 62
    18
176
     1
 90
       50
176
     1
 90
        3
176
     1
 62
     5
420
      255
176
     1
290
     0
176
     1
 90
       50
176
     1
 90
       50
176
     1
 90
       50
176
     1
290
     0
176
     1
 90
       50
176
     1
 62
   256
176
     0
 40
1.0
176
     0
 90
        2
176
     1
  1
strokes_ogs.tif
176
     1
290
     0
176
     1
 40
1.0
176
     1
 40
1.0
176
     1
  0
VISUALSTYLE
  5
2CE
102
{ACAD_REACTORS
330
2C9
102
}
330
2C9
100
AcDbVisualStyle
  2
Basic
 70
     7
177
     3
291
     1
 70
    58
 90
        1
176
     1
 90
        0
176
     1
 90
        1
176
     1
 90
        0
176
     1
 40
0.6
176
     1
 40
30.0
176
     1
 62
     7
420
 16777215
176
     1
 90
        0
176
     1
 90
        4
176
     1
 62
     7
176
     1
 62
   257
176
     1
 90
        1
176
     1
 90
        1
176
     1
 40
1.0
176
     1
 90
        8
176
     1
 62
     7
176
     1
 40
1.0
176
     1
 90
        1
176
     1
 90
        6
176
     1
 90
        2
176
     1
 62
     7
176
     1
 90
        5
176
     1
 90
        0
176
     1
 90
        0
176
     1
290
     0
176
     1
 90
        1
176
     1
 40
0.0
176
     1
 90
        0
176
     1
290
     0
176
     1
290
     1
176
     1
290
     1
176
     1
290
     0
176
     1
290
     0
176
     1
290
     0
176
     1
290
     0
176
     1
290
     0
176
     1
290
     0
176
     1
 90
       50
176
     1
 40
0.0
176
     1
 40
1.0
176
     1
 90
        0
176
     1
 62
    18
176
     1
 90
       50
176
     1
 90
        3
176
     1
 62
     5
420
      255
176
     1
290
     0
176
     1
 90
       50
176
     1
 90
       50
176
     1
 90
       50
176
     1
290
     0
176
     1
 90
       50
176
     1
 62
   256
176
     0
 40
1.0
176
     0
 90
        2
176
     1
  1
strokes_ogs.tif
176
     1
290
     0
176
     1
 40
1.0
176
     1
 40
1.0
176
     1
  0
VISUALSTYLE
  5
2D5
102
{ACAD_REACTORS
330
2C9
102
}
330
2C9
100
AcDbVisualStyle
  2
Brighten
 70
    12
177
     3
291
     1
 70
    58
 90
        2
176
     1
 90
        2
176
     1
 90
        0
176
     1
 90
        0
176
     1
 40
0.6
176
     1
 40
30.0
176
     1
 62
     7
420
 16777215
176
     1
 90
        1
176
     1
 90
        4
176
     1
 62
     7
176
     1
 62
   257
176
     1
 90
        1
176
     1
 90
        1
176
     1
 40
1.0
176
     1
 90
        8
176
     1
 62
     7
176
     1
 40
1.0
176
     1
 90
        1
176
     1
 90
        6
176
     1
 90
        2
176
     1
 62
     7
176
     1
 90
        5
176
     1
 90
        0
176
     1
 90
        0
176
     1
290
     0
176
     1
 90
        1
176
     1
 40
50.0
176
     1
 90
        0
176
     1
290
     0
176
     1
290
     1
176
     1
290
     1
176
     1
290
     0
176
     1
290
     0
176
     1
290
     0
176
     1
290
     0
176
     1
290
     0
176
     1
290
     0
176
     1
 90
       50
176
     1
 40
0.0
176
     1
 40
1.0
176
     1
 90
        0
176
     1
 62
    18
176
     1
 90
       50
176
     1
 90
        3
176
     1
 62
     5
420
      255
176
     1
290
     0
176
     1
 90
       50
176
     1
 90
       50
176
     1
 90
       50
176
     1
290
     0
176
     1
 90
       50
176
     1
 62
   256
176
     0
 40
1.0
176
     0
 90
        2
176
     1
  1
strokes_ogs.tif
176
     1
290
     0
176
     1
 40
1.0
176
     1
 40
1.0
176
     1
  0
VISUALSTYLE
  5
2D9
102
{ACAD_REACTORS
330
2C9
102
}
330
2C9
100
AcDbVisualStyle
  2
ColorChange
 70
    16
177
     3
291
     1
 70
    58
 90
        2
176
     1
 90
        2
176
     1
 90
        3
176
     1
 90
        0
176
     1
 40
0.6
176
     1
 40
30.0
176
     1
 62
     8
420
  8421504
176
     1
 90
        1
176
     1
 90
        4
176
     1
 62
     7
176
     1
 62
   257
176
     1
 90
        1
176
     1
 90
        1
176
     1
 40
1.0
176
     1
 90
        8
176
     1
 62
     8
420
  8421504
176
     1
 40
1.0
176
     1
 90
        1
176
     1
 90
        6
176
     1
 90
        2
176
     1
 62
     7
176
     1
 90
        5
176
     1
 90
        0
176
     1
 90
        0
176
     1
290
     0
176
     1
 90
        1
176
     1
 40
0.0
176
     1
 90
        0
176
     1
290
     0
176
     1
290
     1
176
     1
290
     1
176
     1
290
     0
176
     1
290
     0
176
     1
290
     0
176
     1
290
     0
176
     1
290
     0
176
     1
290
     0
176
     1
 90
       50
176
     1
 40
0.0
176
     1
 40
1.0
176
     1
 90
        0
176
     1
 62
    18
176
     1
 90
       50
176
     1
 90
        3
176
     1
 62
     5
420
      255
176
     1
290
     0
176
     1
 90
       50
176
     1
 90
       50
176
     1
 90
       50
176
     1
290
     0
176
     1
 90
       50
176
     1
 62
   256
176
     0
 40
1.0
176
     0
 90
        2
176
     1
  1
strokes_ogs.tif
176
     1
290
     0
176
     1
 40
1.0
176
     1
 40
1.0
176
     1
  0
VISUALSTYLE
  5
2D2
102
{ACAD_REACTORS
330
2C9
102
}
330
2C9
100
AcDbVisualStyle
  2
Conceptual
 70
     9
177
     3
291
     0
 70
    58
 90
        3
176
     1
 90
        2
176
     1
 90
        0
176
     1
 90
        0
176
     1
 40
0.6
176
     1
 40
30.0
176
     1
 62
     7
420
 16777215
176
     1
 90
        2
176
     1
 90
        2
176
     1
 62
     7
176
     1
 62
   257
176
     1
 90
        1
176
     1
 90
        1
176
     1
 40
179.0
176
     1
 90
        8
176
     1
 62
     7
176
     1
 40
1.0
176
     1
 90
        1
176
     1
 90
        6
176
     1
 90
        2
176
     1
 62
     7
176
     1
 90
        3
176
     1
 90
        0
176
     1
 90
        0
176
     1
290
     0
176
     1
 90
        1
176
     1
 40
0.0
176
     1
 90
        0
176
     1
290
     0
176
     1
290
     1
176
     1
290
     1
176
     1
290
     0
176
     1
290
     0
176
     1
290
     0
176
     1
290
     0
176
     1
290
     0
176
     1
290
     0
176
     1
 90
       50
176
     1
 40
0.0
176
     1
 40
1.0
176
     1
 90
        0
176
     1
 62
    18
176
     1
 90
       50
176
     1
 90
        3
176
     1
 62
     5
420
      255
176
     1
290
     0
176
     1
 90
       50
176
     1
 90
       50
176
     1
 90
       50
176
     1
290
     0
176
     1
 90
       50
176
     1
 62
   256
176
     0
 40
1.0
176
     0
 90
        2
176
     1
  1
strokes_ogs.tif
176
     1
290
     0
176
     1
 40
1.0
176
     1
 40
1.0
176
     1
  0
VISUALSTYLE
  5
2D4
102
{ACAD_REACTORS
330
2C9
102
}
330
2C9
100
AcDbVisualStyle
  2
Dim
 70
    11
177
     3
291
     1
 70
    58
 90
        2
176
     1
 90
        2
176
     1
 90
        0
176
     1
 90
        0
176
     1
 40
0.6
176
     1
 40
30.0
176
     1
 62
     7
420
 16777215
176
     1
 90
        1
176
     1
 90
        4
176
     1
 62
     7
176
     1
 62
   257
176
     1
 90
        1
176
     1
 90
        1
176
     1
 40
1.0
176
     1
 90
        8
176
     1
 62
     7
176
     1
 40
1.0
176
     1
 90
        1
176
     1
 90
        6
176
     1
 90
        2
176
     1
 62
     7
176
     1
 90
        5
176
     1
 90
        0
176
     1
 90
        0
176
     1
290
     0
176
     1
 90
        1
176
     1
 40
-50.0
176
     1
 90
        0
176
     1
290
     0
176
     1
290
     1
176
     1
290
     1
176
     1
290
     0
176
     1
290
     0
176
     1
290
     0
176
     1
290
     0
176
     1
290
     0
176
     1
290
     0
176
     1
 90
       50
176
     1
 40
0.0
176
     1
 40
1.0
176
     1
 90
        0
176
     1
 62
    18
176
     1
 90
       50
176
     1
 90
        3
176
     1
 62
     5
420
      255
176
     1
290
     0
176
     1
 90
       50
176
     1
 90
       50
176
     1
 90
       50
176
     1
290
     0
176
     1
 90
       50
176
     1
 62
   256
176
     0
 40
1.0
176
     0
 90
        2
176
     1
  1
strokes_ogs.tif
176
     1
290
     0
176
     1
 40
1.0
176
     1
 40
1.0
176
     1
  0
VISUALSTYLE
  5
2E1
102
{ACAD_REACTORS
330
2C9
102
}
330
2C9
100
AcDbVisualStyle
  2
EdgeColorOff
 70
    22
177
     3
291
     1
 70
    58
 90
        2
176
     0
 90
        2
176
     0
 90
        0
176
     0
 90
        0
176
     0
 40
0.6
176
     0
 40
30.0
176
     0
 62
     7
420
 16777215
176
     0
 90
        1
176
     0
 90
        4
176
     0
 62
     7
176
     0
 62
   257
176
     0
 90
        1
176
     0
 90
        1
176
     0
 40
1.0
176
     0
 90
        8
176
     2
 62
     7
176
     0
 40
1.0
176
     0
 90
        1
176
     0
 90
        6
176
     0
 90
        2
176
     0
 62
     7
176
     0
 90
        5
176
     0
 90
        0
176
     0
 90
        0
176
     0
290
     0
176
     0
 90
        1
176
     0
 40
0.0
176
     0
 90
        0
176
     0
290
     0
176
     1
290
     1
176
     1
290
     1
176
     1
290
     0
176
     1
290
     0
176
     1
290
     0
176
     1
290
     0
176
     1
290
     0
176
     1
290
     0
176
     1
 90
       50
176
     0
 40
0.0
176
     0
 40
1.0
176
     0
 90
        0
176
     0
 62
    18
176
     0
 90
       50
176
     0
 90
        3
176
     0
 62
     5
420
      255
176
     0
290
     0
176
     1
 90
       50
176
     0
 90
       50
176
     0
 90
       50
176
     0
290
     0
176
     1
 90
       50
176
     0
 62
   256
176
     0
 40
1.0
176
     0
 90
        2
176
     0
  1
strokes_ogs.tif
176
     0
290
     0
176
     1
 40
1.0
176
     0
 40
1.0
176
     0
  0
VISUALSTYLE
  5
2D8
102
{ACAD_REACTORS
330
2C9
102
}
330
2C9
100
AcDbVisualStyle
  2
Facepattern
 70
    15
177
     3
291
     1
 70
    58
 90
        2
176
     1
 90
        2
176
     1
 90
        0
176
     1
 90
        0
176
     1
 40
0.6
176
     1
 40
30.0
176
     1
 62
     7
420
 16777215
176
     1
 90
        1
176
     1
 90
        4
176
     1
 62
     7
176
     1
 62
   257
176
     1
 90
        1
176
     1
 90
        1
176
     1
 40
1.0
176
     1
 90
        8
176
     1
 62
     7
176
     1
 40
1.0
176
     1
 90
        1
176
     1
 90
        6
176
     1
 90
        2
176
     1
 62
     7
176
     1
 90
        5
176
     1
 90
        0
176
     1
 90
        0
176
     1
290
     0
176
     1
 90
        1
176
     1
 40
0.0
176
     1
 90
        0
176
     1
290
     0
176
     1
290
     1
176
     1
290
     1
176
     1
290
     0
176
     1
290
     0
176
     1
290
     0
176
     1
290
     0
176
     1
290
     0
176
     1
290
     0
176
     1
 90
       50
176
     1
 40
0.0
176
     1
 40
1.0
176
     1
 90
        0
176
     1
 62
    18
176
     1
 90
       50
176
     1
 90
        3
176
     1
 62
     5
420
      255
176
     1
290
     0
176
     1
 90
       50
176
     1
 90
       50
176
     1
 90
       50
176
     1
290
     0
176
     1
 90
       50
176
     1
 62
   256
176
     0
 40
1.0
176
     0
 90
        2
176
     1
  1
strokes_ogs.tif
176
     1
290
     0
176
     1
 40
1.0
176
     1
 40
1.0
176
     1
  0
VISUALSTYLE
  5
2CA
102
{ACAD_REACTORS
330
2C9
102
}
330
2C9
100
AcDbVisualStyle
  2
Flat
 70
     0
177
     3
291
     1
 70
    58
 90
        2
176
     1
 90
        1
176
     1
 90
        1
176
     1
 90
        2
176
     1
 40
0.6
176
     1
 40
30.0
176
     1
 62
     7
420
 16777215
176
     1
 90
        0
176
     1
 90
        0
176
     1
 62
     7
176
     1
 62
   257
176
     1
 90
        1
176
     1
 90
        1
176
     1
 40
1.0
176
     1
 90
        8
176
     1
 62
     7
176
     1
 40
1.0
176
     1
 90
        1
176
     1
 90
        6
176
     1
 90
        2
176
     1
 62
     7
176
     1
 90
        5
176
     1
 90
        0
176
     1
 90
        0
176
     1
290
     0
176
     1
 90
       13
176
     1
 40
0.0
176
     1
 90
        0
176
     1
290
     0
176
     1
290
     1
176
     1
290
     1
176
     1
290
     0
176
     1
290
     0
176
     1
290
     0
176
     1
290
     0
176
     1
290
     0
176
     1
290
     0
176
     1
 90
       50
176
     1
 40
0.0
176
     1
 40
1.0
176
     1
 90
        0
176
     1
 62
    18
176
     1
 90
       50
176
     1
 90
        3
176
     1
 62
     5
420
      255
176
     1
290
     0
176
     1
 90
       50
176
     1
 90
       50
176
     1
 90
       50
176
     1
290
     0
176
     1
 90
       50
176
     1
 62
   256
176
     0
 40
1.0
176
     0
 90
        2
176
     1
  1
strokes_ogs.tif
176
     1
290
     0
176
     1
 40
1.0
176
     1
 40
1.0
176
     1
  0
VISUALSTYLE
  5
2CB
102
{ACAD_REACTORS
330
2C9
102
}
330
2C9
100
AcDbVisualStyle
  2
FlatWithEdges
 70
     1
177
     3
291
     1
 70
    58
 90
        2
176
     1
 90
        1
176
     1
 90
        1
176
     1
 90
        2
176
     1
 40
0.6
176
     1
 40
30.0
176
     1
 62
     7
420
 16777215
176
     1
 90
        1
176
     1
 90
        0
176
     1
 62
     7
176
     1
 62
   257
176
     1
 90
        1
176
     1
 90
        1
176
     1
 40
1.0
176
     1
 90
        0
176
     1
 62
   257
176
     1
 40
1.0
176
     1
 90
        1
176
     1
 90
        6
176
     1
 90
        2
176
     1
 62
     7
176
     1
 90
        5
176
     1
 90
        0
176
     1
 90
        0
176
     1
290
     0
176
     1
 90
       13
176
     1
 40
0.0
176
     1
 90
        0
176
     1
290
     0
176
     1
290
     1
176
     1
290
     1
176
     1
290
     0
176
     1
290
     0
176
     1
290
     0
176
     1
290
     0
176
     1
290
     0
176
     1
290
     0
176
     1
 90
       50
176
     1
 40
0.0
176
     1
 40
1.0
176
     1
 90
        0
176
     1
 62
    18
176
     1
 90
       50
176
     1
 90
        3
176
     1
 62
     5
420
      255
176
     1
290
     0
176
     1
 90
       50
176
     1
 90
       50
176
     1
 90
       50
176
     1
290
     0
176
     1
 90
       50
176
     1
 62
   256
176
     0
 40
1.0
176
     0
 90
        2
176
     1
  1
strokes_ogs.tif
176
     1
290
     0
176
     1
 40
1.0
176
     1
 40
1.0
176
     1
  0
VISUALSTYLE
  5
2CC
102
{ACAD_REACTORS
330
2C9
102
}
330
2C9
100
AcDbVisualStyle
  2
Gouraud
 70
     2
177
     3
291
     1
 70
    58
 90
        2
176
     1
 90
        2
176
     1
 90
        1
176
     1
 90
        2
176
     1
 40
0.6
176
     1
 40
30.0
176
     1
 62
     7
420
 16777215
176
     1
 90
        0
176
     1
 90
        0
176
     1
 62
     7
176
     1
 62
   257
176
     1
 90
        1
176
     1
 90
        1
176
     1
 40
1.0
176
     1
 90
        0
176
     1
 62
     7
176
     1
 40
1.0
176
     1
 90
        1
176
     1
 90
        6
176
     1
 90
        2
176
     1
 62
     7
176
     1
 90
        5
176
     1
 90
        0
176
     1
 90
        0
176
     1
290
     0
176
     1
 90
       13
176
     1
 40
0.0
176
     1
 90
        0
176
     1
290
     0
176
     1
290
     1
176
     1
290
     1
176
     1
290
     0
176
     1
290
     0
176
     1
290
     0
176
     1
290
     0
176
     1
290
     0
176
     1
290
     0
176
     1
 90
       50
176
     1
 40
0.0
176
     1
 40
1.0
176
     1
 90
        0
176
     1
 62
    18
176
     1
 90
       50
176
     1
 90
        3
176
     1
 62
     5
420
      255
176
     1
290
     0
176
     1
 90
       50
176
     1
 90
       50
176
     1
 90
       50
176
     1
290
     0
176
     1
 90
       50
176
     1
 62
   256
176
     0
 40
1.0
176
     0
 90
        2
176
     1
  1
strokes_ogs.tif
176
     1
290
     0
176
     1
 40
1.0
176
     1
 40
1.0
176
     1
  0
VISUALSTYLE
  5
2CD
102
{ACAD_REACTORS
330
2C9
102
}
330
2C9
100
AcDbVisualStyle
  2
GouraudWithEdges
 70
     3
177
     3
291
     1
 70
    58
 90
        2
176
     1
 90
        2
176
     1
 90
        1
176
     1
 90
        2
176
     1
 40
0.6
176
     1
 40
30.0
176
     1
 62
     7
420
 16777215
176
     1
 90
        1
176
     1
 90
        0
176
     1
 62
     7
176
     1
 62
   257
176
     1
 90
        1
176
     1
 90
        1
176
     1
 40
1.0
176
     1
 90
        0
176
     1
 62
   257
176
     1
 40
1.0
176
     1
 90
        1
176
     1
 90
        6
176
     1
 90
        2
176
     1
 62
     7
176
     1
 90
        5
176
     1
 90
        0
176
     1
 90
        0
176
     1
290
     0
176
     1
 90
       13
176
     1
 40
0.0
176
     1
 90
        0
176
     1
290
     0
176
     1
290
     1
176
     1
290
     1
176
     1
290
     0
176
     1
290
     0
176
     1
290
     0
176
     1
290
     0
176
     1
290
     0
176
     1
290
     0
176
     1
 90
       50
176
     1
 40
0.0
176
     1
 40
1.0
176
     1
 90
        0
176
     1
 62
    18
176
     1
 90
       50
176
     1
 90
        3
176
     1
 62
     5
420
      255
176
     1
290
     0
176
     1
 90
       50
176
     1
 90
       50
176
     1
 90
       50
176
     1
290
     0
176
     1
 90
       50
176
     1
 62
   256
176
     0
 40
1.0
176
     0
 90
        2
176
     1
  1
strokes_ogs.tif
176
     1
290
     0
176
     1
 40
1.0
176
     1
 40
1.0
176
     1
  0
VISUALSTYLE
  5
2D1
102
{ACAD_REACTORS
330
2C9
102
}
330
2C9
100
AcDbVisualStyle
  2
Hidden
 70
     6
177
     3
291
     0
 70
    58
 90
        1
176
     1
 90
        2
176
     1
 90
        2
176
     1
 90
        0
176
     1
 40
0.6
176
     1
 40
30.0
176
     1
 62
     7
420
 16777215
176
     1
 90
        2
176
     1
 90
        2
176
     1
 62
     7
176
     1
 62
   257
176
     1
 90
        2
176
     1
 90
        1
176
     1
 40
40.0
176
     1
 90
        0
176
     1
 62
   257
176
     1
 40
1.0
176
     1
 90
        1
176
     1
 90
        6
176
     1
 90
        2
176
     1
 62
     7
176
     1
 90
        3
176
     1
 90
        0
176
     1
 90
        0
176
     1
290
     0
176
     1
 90
        1
176
     1
 40
0.0
176
     1
 90
        0
176
     1
290
     0
176
     1
290
     1
176
     1
290
     1
176
     1
290
     0
176
     1
290
     0
176
     1
290
     0
176
     1
290
     0
176
     1
290
     0
176
     1
290
     0
176
     1
 90
       50
176
     1
 40
0.0
176
     1
 40
1.0
176
     1
 90
        0
176
     1
 62
    18
176
     1
 90
       50
176
     1
 90
        3
176
     1
 62
     5
420
      255
176
     1
290
     0
176
     1
 90
       50
176
     1
 90
       50
176
     1
 90
       50
176
     1
290
     0
176
     1
 90
       50
176
     1
 62
   256
176
     0
 40
1.0
176
     0
 90
        2
176
     1
  1
strokes_ogs.tif
176
     1
290
     0
176
     1
 40
1.0
176
     1
 40
1.0
176
     1
  0
VISUALSTYLE
  5
2DF
102
{ACAD_REACTORS
330
2C9
102
}
330
2C9
100
AcDbVisualStyle
  2
JitterOff
 70
    20
177
     3
291
     1
 70
    58
 90
        2
176
     0
 90
        2
176
     0
 90
        0
176
     0
 90
        0
176
     0
 40
0.6
176
     0
 40
30.0
176
     0
 62
     7
420
 16777215
176
     0
 90
        1
176
     0
 90
        4
176
     0
 62
     7
176
     0
 62
   257
176
     0
 90
        1
176
     0
 90
        1
176
     0
 40
1.0
176
     0
 90
       10
176
     2
 62
     7
176
     0
 40
1.0
176
     0
 90
        1
176
     0
 90
        6
176
     0
 90
        2
176
     0
 62
     7
176
     0
 90
        5
176
     0
 90
        0
176
     0
 90
        0
176
     0
290
     0
176
     0
 90
        1
176
     0
 40
0.0
176
     0
 90
        0
176
     0
290
     0
176
     1
290
     1
176
     1
290
     1
176
     1
290
     0
176
     1
290
     0
176
     1
290
     0
176
     1
290
     0
176
     1
290
     0
176
     1
290
     0
176
     1
 90
       50
176
     0
 40
0.0
176
     0
 40
1.0
176
     0
 90
        0
176
     0
 62
    18
176
     0
 90
       50
176
     0
 90
        3
176
     0
 62
     5
420
      255
176
     0
290
     0
176
     1
 90
       50
176
     0
 90
       50
176
     0
 90
       50
176
     0
290
     0
176
     1
 90
       50
176
     0
 62
   256
176
     0
 40
1.0
176
     0
 90
        2
176
     0
  1
strokes_ogs.tif
176
     0
290
     0
176
     1
 40
1.0
176
     0
 40
1.0
176
     0
  0
VISUALSTYLE
  5
2D7
102
{ACAD_REACTORS
330
2C9
102
}
330
2C9
100
AcDbVisualStyle
  2
Linepattern
 70
    14
177
     3
291
     1
 70
    58
 90
        2
176
     1
 90
        2
176
     1
 90
        0
176
     1
 90
        0
176
     1
 40
0.6
176
     1
 40
30.0
176
     1
 62
     7
420
 16777215
176
     1
 90
        1
176
     1
 90
        4
176
     1
 62
     7
176
     1
 62
   257
176
     1
 90
        7
176
     1
 90
        7
176
     1
 40
1.0
176
     1
 90
        8
176
     1
 62
     7
176
     1
 40
1.0
176
     1
 90
        1
176
     1
 90
        6
176
     1
 90
        2
176
     1
 62
     7
176
     1
 90
        5
176
     1
 90
        0
176
     1
 90
        0
176
     1
290
     0
176
     1
 90
        1
176
     1
 40
0.0
176
     1
 90
        0
176
     1
290
     0
176
     1
290
     1
176
     1
290
     1
176
     1
290
     0
176
     1
290
     0
176
     1
290
     0
176
     1
290
     0
176
     1
290
     0
176
     1
290
     0
176
     1
 90
       50
176
     1
 40
0.0
176
     1
 40
1.0
176
     1
 90
        0
176
     1
 62
    18
176
     1
 90
       50
176
     1
 90
        3
176
     1
 62
     5
420
      255
176
     1
290
     0
176
     1
 90
       50
176
     1
 90
       50
176
     1
 90
       50
176
     1
290
     0
176
     1
 90
       50
176
     1
 62
   256
176
     0
 40
1.0
176
     0
 90
        2
176
     1
  1
strokes_ogs.tif
176
     1
290
     0
176
     1
 40
1.0
176
     1
 40
1.0
176
     1
  0
VISUALSTYLE
  5
2E0
102
{ACAD_REACTORS
330
2C9
102
}
330
2C9
100
AcDbVisualStyle
  2
OverhangOff
 70
    21
177
     3
291
     1
 70
    58
 90
        2
176
     0
 90
        2
176
     0
 90
        0
176
     0
 90
        0
176
     0
 40
0.6
176
     0
 40
30.0
176
     0
 62
     7
420
 16777215
176
     0
 90
        1
176
     0
 90
        4
176
     0
 62
     7
176
     0
 62
   257
176
     0
 90
        1
176
     0
 90
        1
176
     0
 40
1.0
176
     0
 90
        9
176
     2
 62
     7
176
     0
 40
1.0
176
     0
 90
        1
176
     0
 90
        6
176
     0
 90
        2
176
     0
 62
     7
176
     0
 90
        5
176
     0
 90
        0
176
     0
 90
        0
176
     0
290
     0
176
     0
 90
        1
176
     0
 40
0.0
176
     0
 90
        0
176
     0
290
     0
176
     1
290
     1
176
     1
290
     1
176
     1
290
     0
176
     1
290
     0
176
     1
290
     0
176
     1
290
     0
176
     1
290
     0
176
     1
290
     0
176
     1
 90
       50
176
     0
 40
0.0
176
     0
 40
1.0
176
     0
 90
        0
176
     0
 62
    18
176
     0
 90
       50
176
     0
 90
        3
176
     0
 62
     5
420
      255
176
     0
290
     0
176
     1
 90
       50
176
     0
 90
       50
176
     0
 90
       50
176
     0
290
     0
176
     1
 90
       50
176
     0
 62
   256
176
     0
 40
1.0
176
     0
 90
        2
176
     0
  1
strokes_ogs.tif
176
     0
290
     0
176
     1
 40
1.0
176
     0
 40
1.0
176
     0
  0
VISUALSTYLE
  5
2D3
102
{ACAD_REACTORS
330
2C9
102
}
330
2C9
100
AcDbVisualStyle
  2
Realistic
 70
     8
177
     3
291
     0
 70
    58
 90
        2
176
     1
 90
        3
176
     1
 90
        0
176
     1
 90
        2
176
     1
 40
0.6
176
     1
 40
30.0
176
     1
 62
     7
420
 16777215
176
     1
 90
        0
176
     1
 90
        0
176
     1
 62
     7
176
     1
 62
   257
176
     1
 90
        1
176
     1
 90
        1
176
     1
 40
1.0
176
     1
 90
        8
176
     1
 62
   257
176
     1
 40
1.0
176
     1
 90
        1
176
     1
 90
        6
176
     1
 90
        2
176
     1
 62
     7
176
     1
 90
        3
176
     1
 90
        0
176
     1
 90
        0
176
     1
290
     0
176
     1
 90
       13
176
     1
 40
0.0
176
     1
 90
        0
176
     1
290
     0
176
     1
290
     1
176
     1
290
     1
176
     1
290
     0
176
     1
290
     0
176
     1
290
     0
176
     1
290
     0
176
     1
290
     0
176
     1
290
     0
176
     1
 90
       50
176
     1
 40
0.0
176
     1
 40
1.0
176
     1
 90
        0
176
     1
 62
    18
176
     1
 90
       50
176
     1
 90
        3
176
     1
 62
     5
420
      255
176
     1
290
     0
176
     1
 90
       50
176
     1
 90
       50
176
     1
 90
       50
176
     1
290
     0
176
     1
 90
       50
176
     1
 62
   256
176
     0
 40
1.0
176
     0
 90
        2
176
     1
  1
strokes_ogs.tif
176
     1
290
     0
176
     1
 40
1.0
176
     1
 40
1.0
176
     1
  0
VISUALSTYLE
  5
2DE
102
{ACAD_REACTORS
330
2C9
102
}
330
2C9
100
AcDbVisualStyle
  2
Shaded
 70
    27
177
     3
291
     0
 70
    58
 90
        2
176
     1
 90
        2
176
     1
 90
        1
176
     1
 90
        2
176
     1
 40
0.6
176
     1
 40
30.0
176
     1
 62
     7
420
 16777215
176
     1
 90
        0
176
     1
 90
        4
176
     1
 62
     7
176
     1
 62
   257
176
     1
 90
        1
176
     1
 90
        1
176
     1
 40
1.0
176
     1
 90
        8
176
     1
 62
   257
176
     1
 40
1.0
176
     1
 90
        1
176
     1
 90
        6
176
     1
 90
        2
176
     1
 62
     8
420
  7895160
176
     1
 90
        3
176
     1
 90
        0
176
     1
 90
        0
176
     1
290
     0
176
     1
 90
        5
176
     1
 40
0.0
176
     1
 90
        0
176
     1
290
     0
176
     1
290
     1
176
     1
290
     1
176
     1
290
     0
176
     1
290
     0
176
     1
290
     0
176
     1
290
     0
176
     1
290
     0
176
     1
290
     0
176
     1
 90
       50
176
     1
 40
0.0
176
     1
 40
1.0
176
     1
 90
        0
176
     1
 62
    18
176
     1
 90
       50
176
     1
 90
        3
176
     1
 62
     5
420
      255
176
     1
290
     0
176
     1
 90
       50
176
     1
 90
       50
176
     1
 90
       50
176
     1
290
     0
176
     1
 90
       50
176
     1
 62
   256
176
     0
 40
1.0
176
     0
 90
        2
176
     1
  1
strokes_ogs.tif
176
     1
290
     0
176
     1
 40
1.0
176
     1
 40
1.0
176
     1
  0
VISUALSTYLE
  5
2DD
102
{ACAD_REACTORS
330
2C9
102
}
330
2C9
100
AcDbVisualStyle
  2
Shaded with edges
 70
    26
177
     3
291
     0
 70
    58
 90
        2
176
     1
 90
        2
176
     1
 90
        1
176
     1
 90
        2
176
     1
 40
0.6
176
     1
 40
30.0
176
     1
 62
     7
420
 16777215
176
     1
 90
        1
176
     1
 90
       10
176
     1
 62
     7
176
     1
 62
   257
176
     1
 90
        2
176
     1
 90
        1
176
     1
 40
1.0
176
     1
 90
        8
176
     1
 62
   257
176
     1
 40
1.0
176
     1
 90
        1
176
     1
 90
        6
176
     1
 90
        2
176
     1
 62
     7
176
     1
 90
        3
176
     1
 90
        0
176
     1
 90
        0
176
     1
290
     0
176
     1
 90
        5
176
     1
 40
0.0
176
     1
 90
        0
176
     1
290
     0
176
     1
290
     1
176
     1
290
     1
176
     1
290
     0
176
     1
290
     0
176
     1
290
     0
176
     1
290
     0
176
     1
290
     0
176
     1
290
     0
176
     1
 90
       50
176
     1
 40
0.0
176
     1
 40
1.0
176
     1
 90
        0
176
     1
 62
    18
176
     1
 90
       50
176
     1
 90
        3
176
     1
 62
     5
420
      255
176
     1
290
     0
176
     1
 90
       50
176
     1
 90
       50
176
     1
 90
       50
176
     1
290
     0
176
     1
 90
       50
176
     1
 62
   256
176
     0
 40
1.0
176
     0
 90
        2
176
     1
  1
strokes_ogs.tif
176
     1
290
     0
176
     1
 40
1.0
176
     1
 40
1.0
176
     1
  0
VISUALSTYLE
  5
2DA
102
{ACAD_REACTORS
330
2C9
102
}
330
2C9
100
AcDbVisualStyle
  2
Shades of Gray
 70
    23
177
     3
291
     0
 70
    58
 90
        2
176
     1
 90
        2
176
     1
 90
        3
176
     1
 90
        0
176
     1
 40
0.6
176
     1
 40
30.0
176
     1
 62
     7
420
 16777215
176
     1
 90
        2
176
     1
 90
        2
176
     1
 62
     7
176
     1
 62
     7
176
     1
 90
        1
176
     1
 90
        1
176
     1
 40
40.0
176
     1
 90
        8
176
     1
 62
     7
176
     1
 40
1.0
176
     1
 90
        1
176
     1
 90
        6
176
     1
 90
        2
176
     1
 62
     7
176
     1
 90
        3
176
     1
 90
        0
176
     1
 90
        0
176
     1
290
     0
176
     1
 90
        1
176
     1
 40
0.0
176
     1
 90
        0
176
     1
290
     0
176
     1
290
     1
176
     1
290
     1
176
     1
290
     0
176
     1
290
     0
176
     1
290
     0
176
     1
290
     0
176
     1
290
     0
176
     1
290
     0
176
     1
 90
       50
176
     1
 40
0.0
176
     1
 40
1.0
176
     1
 90
        0
176
     1
 62
    18
176
     1
 90
       50
176
     1
 90
        3
176
     1
 62
     5
420
      255
176
     1
290
     0
176
     1
 90
       50
176
     1
 90
       50
176
     1
 90
       50
176
     1
290
     0
176
     1
 90
       50
176
     1
 62
   256
176
     0
 40
1.0
176
     0
 90
        2
176
     1
  1
strokes_ogs.tif
176
     1
290
     0
176
     1
 40
1.0
176
     1
 40
1.0
176
     1
  0
VISUALSTYLE
  5
2DB
102
{ACAD_REACTORS
330
2C9
102
}
330
2C9
100
AcDbVisualStyle
  2
Sketchy
 70
    24
177
     3
291
     0
 70
    58
 90
        1
176
     1
 90
        2
176
     1
 90
        2
176
     1
 90
        0
176
     1
 40
0.6
176
     1
 40
30.0
176
     1
 62
     7
420
 16777215
176
     1
 90
        2
176
     1
 90
        2
176
     1
 62
     7
176
     1
 62
     7
176
     1
 90
        1
176
     1
 90
        1
176
     1
 40
40.0
176
     1
 90
       11
176
     1
 62
     7
176
     1
 40
1.0
176
     1
 90
        1
176
     1
 90
        6
176
     1
 90
        2
176
     1
 62
     7
176
     1
 90
        6
176
     1
 90
        0
176
     1
 90
        0
176
     1
290
     0
176
     1
 90
        1
176
     1
 40
0.0
176
     1
 90
        0
176
     1
290
     0
176
     1
290
     1
176
     1
290
     1
176
     1
290
     0
176
     1
290
     0
176
     1
290
     0
176
     1
290
     0
176
     1
290
     0
176
     1
290
     0
176
     1
 90
       50
176
     1
 40
0.0
176
     1
 40
1.0
176
     1
 90
        0
176
     1
 62
    18
176
     1
 90
       50
176
     1
 90
        3
176
     1
 62
     5
420
      255
176
     1
290
     0
176
     1
 90
       50
176
     1
 90
       50
176
     1
 90
       50
176
     1
290
     0
176
     1
 90
       50
176
     1
 62
   256
176
     0
 40
1.0
176
     0
 90
        2
176
     1
  1
strokes_ogs.tif
176
     1
290
     0
176
     1
 40
1.0
176
     1
 40
1.0
176
     1
  0
VISUALSTYLE
  5
2D6
102
{ACAD_REACTORS
330
2C9
102
}
330
2C9
100
AcDbVisualStyle
  2
Thicken
 70
    13
177
     3
291
     1
 70
    58
 90
        2
176
     1
 90
        2
176
     1
 90
        0
176
     1
 90
        0
176
     1
 40
0.6
176
     1
 40
30.0
176
     1
 62
     7
420
 16777215
176
     1
 90
        1
176
     1
 90
        4
176
     1
 62
     7
176
     1
 62
   257
176
     1
 90
        1
176
     1
 90
        1
176
     1
 40
1.0
176
     1
 90
       12
176
     1
 62
     7
176
     1
 40
1.0
176
     1
 90
        1
176
     1
 90
        6
176
     1
 90
        2
176
     1
 62
     7
176
     1
 90
        5
176
     1
 90
        0
176
     1
 90
        0
176
     1
290
     0
176
     1
 90
        1
176
     1
 40
0.0
176
     1
 90
        0
176
     1
290
     0
176
     1
290
     1
176
     1
290
     1
176
     1
290
     0
176
     1
290
     0
176
     1
290
     0
176
     1
290
     0
176
     1
290
     0
176
     1
290
     0
176
     1
 90
       50
176
     1
 40
0.0
176
     1
 40
1.0
176
     1
 90
        0
176
     1
 62
    18
176
     1
 90
       50
176
     1
 90
        3
176
     1
 62
     5
420
      255
176
     1
290
     0
176
     1
 90
       50
176
     1
 90
       50
176
     1
 90
       50
176
     1
290
     0
176
     1
 90
       50
176
     1
 62
   256
176
     0
 40
1.0
176
     0
 90
        2
176
     1
  1
strokes_ogs.tif
176
     1
290
     0
176
     1
 40
1.0
176
     1
 40
1.0
176
     1
  0
VISUALSTYLE
  5
2D0
102
{ACAD_REACTORS
330
2C9
102
}
330
2C9
100
AcDbVisualStyle
  2
Wireframe
 70
     5
177
     3
291
     0
 70
    58
 90
        0
176
     1
 90
        2
176
     1
 90
        0
176
     1
 90
        0
176
     1
 40
0.6
176
     1
 40
30.0
176
     1
 62
     7
420
 16777215
176
     1
 90
        1
176
     1
 90
        4
176
     1
 62
     7
176
     1
 62
   257
176
     1
 90
        1
176
     1
 90
        1
176
     1
 40
1.0
176
     1
 90
        0
176
     1
 62
   257
176
     1
 40
1.0
176
     1
 90
        1
176
     1
 90
        6
176
     1
 90
        2
176
     1
 62
     7
176
     1
 90
        3
176
     1
 90
        0
176
     1
 90
        0
176
     1
290
     0
176
     1
 90
        1
176
     1
 40
0.0
176
     1
 90
        0
176
     1
290
     0
176
     1
290
     1
176
     1
290
     1
176
     1
290
     0
176
     1
290
     0
176
     1
290
     0
176
     1
290
     0
176
     1
290
     0
176
     1
290
     0
176
     1
 90
       50
176
     1
 40
0.0
176
     1
 40
1.0
176
     1
 90
        0
176
     1
 62
    18
176
     1
 90
       50
176
     1
 90
        3
176
     1
 62
     5
420
      255
176
     1
290
     0
176
     1
 90
       50
176
     1
 90
       50
176
     1
 90
       50
176
     1
290
     0
176
     1
 90
       50
176
     1
 62
   256
176
     0
 40
1.0
176
     0
 90
        2
176
     1
  1
strokes_ogs.tif
176
     1
290
     0
176
     1
 40
1.0
176
     1
 40
1.0
176
     1
  0
VISUALSTYLE
  5
2DC
102
{ACAD_REACTORS
330
2C9
102
}
330
2C9
100
AcDbVisualStyle
  2
X-Ray
 70
    25
177
     3
291
     0
 70
    58
 90
        2
176
     1
 90
        2
176
     1
 90
        1
176
     1
 90
        1
176
     1
 40
0.5
176
     1
 40
30.0
176
     1
 62
     7
420
 16777215
176
     1
 90
        1
176
     1
 90
        0
176
     1
 62
     7
176
     1
 62
   257
176
     1
 90
        1
176
     1
 90
        1
176
     1
 40
1.0
176
     1
 90
        8
176
     1
 62
     7
176
     1
 40
1.0
176
     1
 90
        1
176
     1
 90
        6
176
     1
 90
        2
176
     1
 62
     7
176
     1
 90
        3
176
     1
 90
        0
176
     1
 90
        0
176
     1
290
     0
176
     1
 90
       13
176
     1
 40
0.0
176
     1
 90
        0
176
     1
290
     0
176
     1
290
     1
176
     1
290
     1
176
     1
290
     0
176
     1
290
     0
176
     1
290
     0
176
     1
290
     0
176
     1
290
     0
176
     1
290
     0
176
     1
 90
       50
176
     1
 40
0.0
176
     1
 40
1.0
176
     1
 90
        0
176
     1
 62
    18
176
     1
 90
       50
176
     1
 90
        3
176
     1
 62
     5
420
      255
176
     1
290
     0
176
     1
 90
       50
176
     1
 90
       50
176
     1
 90
       50
176
     1
290
     0
176
     1
 90
       50
176
     1
 62
   256
176
     0
 40
1.0
176
     0
 90
        2
176
     1
  1
strokes_ogs.tif
176
     1
290
     0
176
     1
 40
1.0
176
     1
 40
1.0
176
     1
  0
DICTIONARYVAR
  5
435
102
{ACAD_REACTORS
330
2AB
102
}
330
2AB
100
DictionaryVariables
280
     0
  1
1:1
  0
DICTIONARYVAR
  5
431
102
{ACAD_REACTORS
330
2AB
102
}
330
2AB
100
DictionaryVariables
280
     0
  1
STANDARD
  0
DICTIONARYVAR
  5
430
102
{ACAD_REACTORS
330
2AB
102
}
330
2AB
100
DictionaryVariables
280
     0
  1
STANDARD
  0
DICTIONARYVAR
  5
432
102
{ACAD_REACTORS
330
2AB
102
}
330
2AB
100
DictionaryVariables
280
     0
  1
Metric50
  0
DICTIONARYVAR
  5
433
102
{ACAD_REACTORS
330
2AB
102
}
330
2AB
100
DictionaryVariables
280
     0
  1
Metric50
  0
DICTIONARYVAR
  5
2AD
102
{ACAD_REACTORS
330
2AB
102
}
330
2AB
100
DictionaryVariables
280
     0
  1
1
  0
DICTIONARYVAR
  5
2AC
102
{ACAD_REACTORS
330
2AB
102
}
330
2AB
100
DictionaryVariables
280
     0
  1
1
  0
DICTIONARYVAR
  5
437
102
{ACAD_REACTORS
330
2AB
102
}
330
2AB
100
DictionaryVariables
280
     0
  1
1
  0
DICTIONARYVAR
  5
438
102
{ACAD_REACTORS
330
2AB
102
}
330
2AB
100
DictionaryVariables
280
     0
  1
15
  0
DICTIONARYVAR
  5
436
102
{ACAD_REACTORS
330
2AB
102
}
330
2AB
100
DictionaryVariables
280
     0
  1
0
  0
DICTIONARYVAR
  5
434
102
{ACAD_REACTORS
330
2AB
102
}
330
2AB
100
DictionaryVariables
280
     0
  1
0
  0
DICTIONARY
  5
291
102
{ACAD_REACTORS
330
290
102
}
330
290
100
AcDbDictionary
281
     1
  0
DICTIONARY
  5
43D
330
2FC
100
AcDbDictionary
280
     1
281
     1
  3
ACAD_XREC_ROUNDTRIP
360
49D
  0
DICTIONARY
  5
2BA
330
2B9
100
AcDbDictionary
280
     1
281
     1
  3
BUMPTILE
360
2BC
  3
DIFFUSETILE
360
2BB
  3
OPACITYTILE
360
2BF
  3
REFLECTIONTILE
360
2BE
  3
REFRACTIONTILE
360
2C0
  3
SPECULARTILE
360
2BD
  0
DICTIONARY
  5
2B2
330
2B1
100
AcDbDictionary
280
     1
281
     1
  3
BUMPTILE
360
2B4
  3
DIFFUSETILE
360
2B3
  3
OPACITYTILE
360
2B7
  3
REFLECTIONTILE
360
2B6
  3
REFRACTIONTILE
360
2B8
  3
SPECULARTILE
360
2B5
  0
DICTIONARY
  5
2C2
330
2C1
100
AcDbDictionary
280
     1
281
     1
  3
BUMPTILE
360
2C4
  3
DIFFUSETILE
360
2C3
  3
OPACITYTILE
360
2C7
  3
REFLECTIONTILE
360
2C6
  3
REFRACTIONTILE
360
2C8
  3
SPECULARTILE
360
2C5
  0
DICTIONARY
  5
43B
330
2FA
100
AcDbDictionary
280
     1
281
     1
  3
ACAD_XREC_ROUNDTRIP
360
49C
  0
DICTIONARY
  5
439
330
2E4
100
AcDbDictionary
280
     1
281
     1
  3
ACAD_ROUNDTRIP_2008_TABLESTYLE_CELLSTYLEMAP
360
49B
  0
XRECORD
  5
49D
102
{ACAD_REACTORS
330
43D
102
}
330
43D
100
AcDbXrecord
280
     1
102
DISPLAYNAME
  1
Metric50
102
FLAGS
 90
        0
  0
XRECORD
  5
2BC
102
{ACAD_REACTORS
330
2BA
102
}
330
2BA
100
AcDbXrecord
280
     1
270
     1
271
     1
  0
XRECORD
  5
2BB
102
{ACAD_REACTORS
330
2BA
102
}
330
2BA
100
AcDbXrecord
280
     1
270
     1
271
     1
  0
XRECORD
  5
2BF
102
{ACAD_REACTORS
330
2BA
102
}
330
2BA
100
AcDbXrecord
280
     1
270
     1
271
     1
  0
XRECORD
  5
2BE
102
{ACAD_REACTORS
330
2BA
102
}
330
2BA
100
AcDbXrecord
280
     1
270
     1
271
     1
  0
XRECORD
  5
2C0
102
{ACAD_REACTORS
330
2BA
102
}
330
2BA
100
AcDbXrecord
280
     1
270
     1
271
     1
  0
XRECORD
  5
2BD
102
{ACAD_REACTORS
330
2BA
102
}
330
2BA
100
AcDbXrecord
280
     1
270
     1
271
     1
  0
XRECORD
  5
2B4
102
{ACAD_REACTORS
330
2B2
102
}
330
2B2
100
AcDbXrecord
280
     1
270
     1
271
     1
  0
XRECORD
  5
2B3
102
{ACAD_REACTORS
330
2B2
102
}
330
2B2
100
AcDbXrecord
280
     1
270
     1
271
     1
  0
XRECORD
  5
2B7
102
{ACAD_REACTORS
330
2B2
102
}
330
2B2
100
AcDbXrecord
280
     1
270
     1
271
     1
  0
XRECORD
  5
2B6
102
{ACAD_REACTORS
330
2B2
102
}
330
2B2
100
AcDbXrecord
280
     1
270
     1
271
     1
  0
XRECORD
  5
2B8
102
{ACAD_REACTORS
330
2B2
102
}
330
2B2
100
AcDbXrecord
280
     1
270
     1
271
     1
  0
XRECORD
  5
2B5
102
{ACAD_REACTORS
330
2B2
102
}
330
2B2
100
AcDbXrecord
280
     1
270
     1
271
     1
  0
XRECORD
  5
2C4
102
{ACAD_REACTORS
330
2C2
102
}
330
2C2
100
AcDbXrecord
280
     1
270
     1
271
     1
  0
XRECORD
  5
2C3
102
{ACAD_REACTORS
330
2C2
102
}
330
2C2
100
AcDbXrecord
280
     1
270
     1
271
     1
  0
XRECORD
  5
2C7
102
{ACAD_REACTORS
330
2C2
102
}
330
2C2
100
AcDbXrecord
280
     1
270
     1
271
     1
  0
XRECORD
  5
2C6
102
{ACAD_REACTORS
330
2C2
102
}
330
2C2
100
AcDbXrecord
280
     1
270
     1
271
     1
  0
XRECORD
  5
2C8
102
{ACAD_REACTORS
330
2C2
102
}
330
2C2
100
AcDbXrecord
280
     1
270
     1
271
     1
  0
XRECORD
  5
2C5
102
{ACAD_REACTORS
330
2C2
102
}
330
2C2
100
AcDbXrecord
280
     1
270
     1
271
     1
  0
XRECORD
  5
49C
102
{ACAD_REACTORS
330
43B
102
}
330
43B
100
AcDbXrecord
280
     1
102
DISPLAYNAME
  1
Metric50
102
FLAGS
 90
        0
  0
CELLSTYLEMAP
  5
49B
102
{ACAD_REACTORS
330
439
102
}
330
439
100
AcDbCellStyleMap
 90
        3
300
CELLSTYLE
  1
TABLEFORMAT_BEGIN
 90
        5
170
     1
 91
        0
 92
    32768
 62
   257
 93
        1
300
CONTENTFORMAT
  1
CONTENTFORMAT_BEGIN
 90
        0
 91
        0
 92
      512
 93
        0
300

 40
0.0
140
1.0
 94
        5
 62
     0
340
13
144
6.0
309
CONTENTFORMAT_END
171
     1
301
MARGIN
  1
CELLMARGIN_BEGIN
 40
1.5
 40
1.5
 40
1.5
 40
1.5
 40
0.18
 40
0.18
309
CELLMARGIN_END
 94
        6
 95
        1
302
GRIDFORMAT
  1
GRIDFORMAT_BEGIN
 90
        0
 91
        1
 62
     0
 92
       -2
340
0
 93
        0
 40
1.125
309
GRIDFORMAT_END
 95
        2
302
GRIDFORMAT
  1
GRIDFORMAT_BEGIN
 90
        0
 91
        1
 62
     0
 92
       -2
340
0
 93
        0
 40
1.125
309
GRIDFORMAT_END
 95
        4
302
GRIDFORMAT
  1
GRIDFORMAT_BEGIN
 90
        0
 91
        1
 62
     0
 92
       -2
340
0
 93
        0
 40
1.125
309
GRIDFORMAT_END
 95
        8
302
GRIDFORMAT
  1
GRIDFORMAT_BEGIN
 90
        0
 91
        1
 62
     0
 92
       -2
340
0
 93
        0
 40
1.125
309
GRIDFORMAT_END
 95
       16
302
GRIDFORMAT
  1
GRIDFORMAT_BEGIN
 90
        0
 91
        1
 62
     0
 92
       -2
340
0
 93
        0
 40
1.125
309
GRIDFORMAT_END
 95
       32
302
GRIDFORMAT
  1
GRIDFORMAT_BEGIN
 90
        0
 91
        1
 62
     0
 92
       -2
340
0
 93
        0
 40
1.125
309
GRIDFORMAT_END
309
TABLEFORMAT_END
  1
CELLSTYLE_BEGIN
 90
        1
 91
        1
300
_TITLE
309
CELLSTYLE_END
300
CELLSTYLE
  1
TABLEFORMAT_BEGIN
 90
        5
170
     1
 91
        0
 92
        0
 62
   257
 93
        1
300
CONTENTFORMAT
  1
CONTENTFORMAT_BEGIN
 90
        0
 91
        0
 92
      512
 93
        0
300

 40
0.0
140
1.0
 94
        5
 62
     0
340
13
144
4.5
309
CONTENTFORMAT_END
171
     1
301
MARGIN
  1
CELLMARGIN_BEGIN
 40
1.5
 40
1.5
 40
1.5
 40
1.5
 40
0.18
 40
0.18
309
CELLMARGIN_END
 94
        6
 95
        1
302
GRIDFORMAT
  1
GRIDFORMAT_BEGIN
 90
        0
 91
        1
 62
     0
 92
       -2
340
0
 93
        0
 40
1.125
309
GRIDFORMAT_END
 95
        2
302
GRIDFORMAT
  1
GRIDFORMAT_BEGIN
 90
        0
 91
        1
 62
     0
 92
       -2
340
0
 93
        0
 40
1.125
309
GRIDFORMAT_END
 95
        4
302
GRIDFORMAT
  1
GRIDFORMAT_BEGIN
 90
        0
 91
        1
 62
     0
 92
       -2
340
0
 93
        0
 40
1.125
309
GRIDFORMAT_END
 95
        8
302
GRIDFORMAT
  1
GRIDFORMAT_BEGIN
 90
        0
 91
        1
 62
     0
 92
       -2
340
0
 93
        0
 40
1.125
309
GRIDFORMAT_END
 95
       16
302
GRIDFORMAT
  1
GRIDFORMAT_BEGIN
 90
        0
 91
        1
 62
     0
 92
       -2
340
0
 93
        0
 40
1.125
309
GRIDFORMAT_END
 95
       32
302
GRIDFORMAT
  1
GRIDFORMAT_BEGIN
 90
        0
 91
        1
 62
     0
 92
       -2
340
0
 93
        0
 40
1.125
309
GRIDFORMAT_END
309
TABLEFORMAT_END
  1
CELLSTYLE_BEGIN
 90
        2
 91
        1
300
_HEADER
309
CELLSTYLE_END
300
CELLSTYLE
  1
TABLEFORMAT_BEGIN
 90
        5
170
     1
 91
        0
 92
        0
 62
   257
 93
        1
300
CONTENTFORMAT
  1
CONTENTFORMAT_BEGIN
 90
        0
 91
        0
 92
      512
 93
        0
300

 40
0.0
140
1.0
 94
        2
 62
     0
340
13
144
4.5
309
CONTENTFORMAT_END
171
     1
301
MARGIN
  1
CELLMARGIN_BEGIN
 40
1.5
 40
1.5
 40
1.5
 40
1.5
 40
0.18
 40
0.18
309
CELLMARGIN_END
 94
        6
 95
        1
302
GRIDFORMAT
  1
GRIDFORMAT_BEGIN
 90
        0
 91
        1
 62
     0
 92
       -2
340
0
 93
        0
 40
1.125
309
GRIDFORMAT_END
 95
        2
302
GRIDFORMAT
  1
GRIDFORMAT_BEGIN
 90
        0
 91
        1
 62
     0
 92
       -2
340
0
 93
        0
 40
1.125
309
GRIDFORMAT_END
 95
        4
302
GRIDFORMAT
  1
GRIDFORMAT_BEGIN
 90
        0
 91
        1
 62
     0
 92
       -2
340
0
 93
        0
 40
1.125
309
GRIDFORMAT_END
 95
        8
302
GRIDFORMAT
  1
GRIDFORMAT_BEGIN
 90
        0
 91
        1
 62
     0
 92
       -2
340
0
 93
        0
 40
1.125
309
GRIDFORMAT_END
 95
       16
302
GRIDFORMAT
  1
GRIDFORMAT_BEGIN
 90
        0
 91
        1
 62
     0
 92
       -2
340
0
 93
        0
 40
1.125
309
GRIDFORMAT_END
 95
       32
302
GRIDFORMAT
  1
GRIDFORMAT_BEGIN
 90
        0
 91
        1
 62
     0
 92
       -2
340
0
 93
        0
 40
1.125
309
GRIDFORMAT_END
309
TABLEFORMAT_END
  1
CELLSTYLE_BEGIN
 90
        3
 91
        2
300
_DATA
309
CELLSTYLE_END
  0
ENDSEC
  0
SECTION
  2
ACDSDATA
 70
     2
 71
     6
  0
ACDSSCHEMA
 90
        0
  1
AcDb_Thumbnail_Schema
  2
AcDbDs::ID
280
    10
 91
        8
  2
Thumbnail_Data
280
    15
 91
        0
101
ACDSRECORD
 95
        0
 90
        1
  2
AcDbDs::TreatedAsObjectData
280
     1
291
     1
101
ACDSRECORD
 95
        0
 90
        2
  2
AcDbDs::Legacy
280
     1
291
     1
101
ACDSRECORD
  1
AcDbDs::ID
 90
        3
  2
AcDs:Indexable
280
     1
291
     1
101
ACDSRECORD
  1
AcDbDs::ID
 90
        4
  2
AcDbDs::HandleAttribute
280
     7
282
     1
  0
ACDSSCHEMA
 90
        1
  1
AcDbDs::TreatedAsObjectDataSchema
  2
AcDbDs::TreatedAsObjectData
280
     1
 91
        0
  0
ACDSSCHEMA
 90
        2
  1
AcDbDs::LegacySchema
  2
AcDbDs::Legacy
280
     1
 91
        0
  0
ACDSSCHEMA
 90
        3
  1
AcDbDs::IndexedPropertySchema
  2
AcDs:Indexable
280
     1
 91
        0
  0
ACDSSCHEMA
 90
        4
  1
AcDbDs::HandleAttributeSchema
  2
AcDbDs::HandleAttribute
280
     7
 91
        1
284
     1
  0
ACDSRECORD
 90
        0
  2
AcDbDs::ID
280
    10
320
B
  2
Thumbnail_Data
280
    15
 94
     1778
310
89504E470D0A1A0A0000000D4948445200000100000000800803000000D36B473800000300504C5445000000000000C8C8C80000000000000000000000000000000000000000000000000000330000660000990000CC0000FF0033000033330033660033990033CC0033FF0066000066330066660066990066CC0066FF0099
310
000099330099660099990099CC0099FF00CC0000CC3300CC6600CC9900CCCC00CCFF00FF0000FF3300FF6600FF9900FFCC00FFFF3300003300333300663300993300CC3300FF3333003333333333663333993333CC3333FF3366003366333366663366993366CC3366FF3399003399333399663399993399CC3399FF33CC00
310
33CC3333CC6633CC9933CCCC33CCFF33FF0033FF3333FF6633FF9933FFCC33FFFF6600006600336600666600996600CC6600FF6633006633336633666633996633CC6633FF6666006666336666666666996666CC6666FF6699006699336699666699996699CC6699FF66CC0066CC3366CC6666CC9966CCCC66CCFF66FF0066
310
FF3366FF6666FF9966FFCC66FFFF9900009900339900669900999900CC9900FF9933009933339933669933999933CC9933FF9966009966339966669966999966CC9966FF9999009999339999669999999999CC9999FF99CC0099CC3399CC6699CC9999CCCC99CCFF99FF0099FF3399FF6699FF9999FFCC99FFFFCC0000CC00
310
33CC0066CC0099CC00CCCC00FFCC3300CC3333CC3366CC3399CC33CCCC33FFCC6600CC6633CC6666CC6699CC66CCCC66FFCC9900CC9933CC9966CC9999CC99CCCC99FFCCCC00CCCC33CCCC66CCCC99CCCCCCCCCCFFCCFF00CCFF33CCFF66CCFF99CCFFCCCCFFFFFF0000FF0033FF0066FF0099FF00CCFF00FFFF3300FF3333
310
FF3366FF3399FF33CCFF33FFFF6600FF6633FF6666FF6699FF66CCFF66FFFF9900FF9933FF9966FF9999FF99CCFF99FFFFCC00FFCC33FFCC66FFCC99FFCCCCFFCCFFFFFF00FFFF33FFFF66FFFF99FFFFCCFFFFFF0000000D0D0D1A1A1A2828283535354343435050505D5D5D6B6B6B787878868686939393A1A1A1AEAEAEBB
310
BBBBC9C9C9D6D6D6E4E4E4F1F1F1FFFFFF00000000000000000000000000000000000000000000000000000000000008F1915C000003AD4944415478DAED9D596EC4200C867D1C5E7C619FCD8769D80264859979A817A468D2AAA9C4373FC636860078F3E6CD9BB77FD9D80138000720BC0743C3B58743C84F9556FE893400
310
DD0FB8062040884FA787A8DE30D801101550FA8D84F9469800720F3E56C00E0037002851019B88BF00D02C08526C06018078057C35041A806603C429E04700F2E3E6660107A001800F81C115BE687C6C9A006CAECC9B02F0A01656A580173F00EBE4DE7ACBCA00845500CA14D0DB807DD05B03D03A9B3B8FEB36A03C2B1C40
310
1D021F01C81FA2FD0007D000A01D005D3488CD0E145B70B48941258070A980D6A11D4049FF3800E500EE87804E000BB3805A00E6FD805B006578E80730C4029F0210EC0A0F5D291052162484BCF437A900F1B100B7392F5160A0ED623BD160FCC2070048C8EA3342FD106800929C9302D00C803CE6BB11BF7B4126001C92BE
310
C519241B19A1C1E9A93600282FF7129E32E24600B404A15105945BF536E07A79BC0583607A6184A68321C90A7803800E40B7117C2891A9792183B340FEFE3727802C03C8754FAE0030AC80DD17320AC0841FF006C0527DC015803E187A5A177000A2010C15324F001E8680820A117C3382697B4818C2C76EBF00E485917008
310
2F3501285FAE3E00B00240A3026E01D4ECC808601CE3E201B470F80400AF01285340CB08CD2A401B807B052CB9C20A4A648C02589D051C804200378E10A6AD80681640BC5B088735D4088DC11042DD103E07407E30C40705AC0150900FE0CD270A7B95281195CBCCF2F80E00D09802AA2508F9400C93002ECE11A1320B9099
310
AC7035825877C3E7652132B7329400A402A194138C9F5300481580AC005A5080D40314EE00C4CEEFD7942344E28BA5470050CAE4E6364C90D84354EE01E45A399803A05101A7D5E1E795217536E02A1F10EC4C83CB0911B100CE55620EE0935D632A011829953D03E84AE6CDEE1730980F70002380921988DE2D5ADC315276
310
0B527307CD29C0FC10309812EB00605E165B4A882803C02515D6A7C45EEA040954ED1ABB50809570780F848E29312B09919DC0292506365262DD3DCD07439215705B2C7DBD6182D5D980110076A70A52394A616A1A147CBAFCCBA1AAACFA50D5C7FD020CEF1D7200A078CF9005008FA7CB2F01106A041FB7CFAF00107BBC7E
310
F80D009DAFD89800D0A64F7DAEF00400052F59F96E1A0CF25FB3F333004A5CE1B0680302CB7FD5D6BD41989E05F8FA7107E000840288CE512837B180780640FA53450072AF7902002803C0E530D550A78519A3CE159A0605F070CFC36FDE6752B0D91419416FDEFE65FB03A12B121FEA6A0D3F0000000049454E44AE426082
  0
ENDSEC
  0
EOF
