  0
SECTION
  2
HEADER
  9
$ACADVER
  1
AC1014
  9
$ACADMAINTVER
 70
     9
  9
$DWGCODEPAGE
  3
ANSI_1252
  9
$INSBASE
 10
0.0
 20
0.0
 30
0.0
  9
$EXTMIN
 10
189.4545310621999
 20
63.30537134709999
 30
0.0
  9
$EXTMAX
 10
340.433031393
 20
779.7063654556
 30
0.0
  9
$LIMMIN
 10
0.0
 20
0.0
  9
$LIMMAX
 10
1189.0
 20
841.0
  9
$ORTHOMODE
 70
     0
  9
$REGENMODE
 70
     1
  9
$FILLMODE
 70
     1
  9
$QTEXTMODE
 70
     0
  9
$MIRRTEXT
 70
     1
  9
$DRAGMODE
 70
     2
  9
$LTSCALE
 40
1.0
  9
$OSMODE
 70
    37
  9
$ATTMODE
 70
     1
  9
$TEXTSIZE
 40
2.5
  9
$TRACEWID
 40
1.0
  9
$TEXTSTYLE
  7
STANDARD
  9
$CLAYER
  8
0
  9
$CELTYPE
  6
BYLAYER
  9
$CECOLOR
 62
   256
  9
$CELTSCALE
 40
1.0
  9
$DELOBJ
 70
     1
  9
$DISPSILH
 70
     0
  9
$DIMSCALE
 40
1.0
  9
$DIMASZ
 40
2.5
  9
$DIMEXO
 40
0.0
  9
$DIMDLI
 40
3.75
  9
$DIMRND
 40
0.0
  9
$DIMDLE
 40
0.0
  9
$DIMEXE
 40
1.0
  9
$DIMTP
 40
0.0
  9
$DIMTM
 40
0.0
  9
$DIMTXT
 40
2.5
  9
$DIMCEN
 40
2.5
  9
$DIMTSZ
 40
0.0
  9
$DIMTOL
 70
     0
  9
$DIMLIM
 70
     0
  9
$DIMTIH
 70
     1
  9
$DIMTOH
 70
     1
  9
$DIMSE1
 70
     0
  9
$DIMSE2
 70
     0
  9
$DIMTAD
 70
     1
  9
$DIMZIN
 70
     0
  9
$DIMBLK
  1

  9
$DIMASO
 70
     1
  9
$DIMSHO
 70
     1
  9
$DIMPOST
  1

  9
$DIMAPOST
  1

  9
$DIMALT
 70
     0
  9
$DIMALTD
 70
     3
  9
$DIMALTF
 40
0.0393700787
  9
$DIMLFAC
 40
2.0
  9
$DIMTOFL
 70
     1
  9
$DIMTVP
 40
0.0
  9
$DIMTIX
 70
     0
  9
$DIMSOXD
 70
     0
  9
$DIMSAH
 70
     0
  9
$DIMBLK1
  1

  9
$DIMBLK2
  1

  9
$DIMSTYLE
  2
ISO-25
  9
$DIMCLRD
 70
     0
  9
$DIMCLRE
 70
     0
  9
$DIMCLRT
 70
     0
  9
$DIMTFAC
 40
1.0
  9
$DIMGAP
 40
2.0
  9
$DIMJUST
 70
     0
  9
$DIMSD1
 70
     0
  9
$DIMSD2
 70
     0
  9
$DIMTOLJ
 70
     0
  9
$DIMTZIN
 70
     0
  9
$DIMALTZ
 70
     0
  9
$DIMALTTZ
 70
     0
  9
$DIMFIT
 70
     3
  9
$DIMUPT
 70
     0
  9
$DIMUNIT
 70
     2
  9
$DIMDEC
 70
     2
  9
$DIMTDEC
 70
     3
  9
$DIMALTU
 70
     2
  9
$DIMALTTD
 70
     3
  9
$DIMTXSTY
  7
STANDARD
  9
$DIMAUNIT
 70
     0
  9
$LUNITS
 70
     2
  9
$LUPREC
 70
     2
  9
$SKETCHINC
 40
1.0
  9
$FILLETRAD
 40
10.0
  9
$AUNITS
 70
     0
  9
$AUPREC
 70
     1
  9
$MENU
  1
.
  9
$ELEVATION
 40
0.0
  9
$PELEVATION
 40
0.0
  9
$THICKNESS
 40
0.0
  9
$LIMCHECK
 70
     0
  9
$CHAMFERA
 40
0.0
  9
$CHAMFERB
 40
0.0
  9
$CHAMFERC
 40
0.0
  9
$CHAMFERD
 40
0.0
  9
$SKPOLY
 70
     0
  9
$TDCREATE
 40
2459899.33659066
  9
$TDUPDATE
 40
2460271.722068739
  9
$TDINDWG
 40
0.0004506944
  9
$TDUSRTIMER
 40
0.0004506829
  9
$USRTIMER
 70
     1
  9
$ANGBASE
 50
0.0
  9
$ANGDIR
 70
     0
  9
$PDMODE
 70
     0
  9
$PDSIZE
 40
-1.0
  9
$PLINEWID
 40
0.0
  9
$COORDS
 70
     1
  9
$SPLFRAME
 70
     0
  9
$SPLINETYPE
 70
     6
  9
$SPLINESEGS
 70
     8
  9
$ATTDIA
 70
     0
  9
$ATTREQ
 70
     1
  9
$HANDLING
 70
     1
  9
$HANDSEED
  5
537
  9
$SURFTAB1
 70
     6
  9
$SURFTAB2
 70
     6
  9
$SURFTYPE
 70
     6
  9
$SURFU
 70
     6
  9
$SURFV
 70
     6
  9
$UCSNAME
  2

  9
$UCSORG
 10
0.0
 20
0.0
 30
0.0
  9
$UCSXDIR
 10
1.0
 20
0.0
 30
0.0
  9
$UCSYDIR
 10
0.0
 20
1.0
 30
0.0
  9
$PUCSNAME
  2

  9
$PUCSORG
 10
0.0
 20
0.0
 30
0.0
  9
$PUCSXDIR
 10
1.0
 20
0.0
 30
0.0
  9
$PUCSYDIR
 10
0.0
 20
1.0
 30
0.0
  9
$USERI1
 70
     0
  9
$USERI2
 70
     0
  9
$USERI3
 70
     0
  9
$USERI4
 70
     0
  9
$USERI5
 70
     0
  9
$USERR1
 40
0.0
  9
$USERR2
 40
0.0
  9
$USERR3
 40
0.0
  9
$USERR4
 40
0.0
  9
$USERR5
 40
0.0
  9
$WORLDVIEW
 70
     1
  9
$SHADEDGE
 70
     3
  9
$SHADEDIF
 70
    70
  9
$TILEMODE
 70
     1
  9
$MAXACTVP
 70
    64
  9
$PINSBASE
 10
0.0
 20
0.0
 30
0.0
  9
$PLIMCHECK
 70
     0
  9
$PEXTMIN
 10
1.000000000000000E+20
 20
1.000000000000000E+20
 30
1.000000000000000E+20
  9
$PEXTMAX
 10
-1.000000000000000E+20
 20
-1.000000000000000E+20
 30
-1.000000000000000E+20
  9
$PLIMMIN
 10
0.0
 20
0.0
  9
$PLIMMAX
 10
0.0
 20
0.0
  9
$UNITMODE
 70
     0
  9
$VISRETAIN
 70
     1
  9
$PLINEGEN
 70
     0
  9
$PSLTSCALE
 70
     1
  9
$TREEDEPTH
 70
  3020
  9
$PICKSTYLE
 70
     1
  9
$CMLSTYLE
  2
STANDARD
  9
$CMLJUST
 70
     0
  9
$CMLSCALE
 40
20.0
  9
$PROXYGRAPHICS
 70
     1
  9
$MEASUREMENT
 70
     1
  0
ENDSEC
  0
SECTION
  2
CLASSES
  0
CLASS
  1
ACDBDICTIONARYWDFLT
  2
AcDbDictionaryWithDefault
  3
ObjectDBX Classes
 90
        0
280
     0
281
     0
  0
CLASS
  1
VISUALSTYLE
  2
AcDbVisualStyle
  3
ObjectDBX Classes
 90
     4095
280
     0
281
     0
  0
CLASS
  1
MATERIAL
  2
AcDbMaterial
  3
ObjectDBX Classes
 90
     1153
280
     0
281
     0
  0
CLASS
  1
SCALE
  2
AcDbScale
  3
ObjectDBX Classes
 90
     1153
280
     0
281
     0
  0
CLASS
  1
TABLESTYLE
  2
AcDbTableStyle
  3
ObjectDBX Classes
 90
     4095
280
     0
281
     0
  0
CLASS
  1
MLEADERSTYLE
  2
AcDbMLeaderStyle
  3
ACDB_MLEADERSTYLE_CLASS
 90
     4095
280
     0
281
     0
  0
CLASS
  1
SUN
  2
AcDbSun
  3
SCENEOE
 90
     1153
280
     0
281
     0
  0
CLASS
  1
ACDBPLACEHOLDER
  2
AcDbPlaceHolder
  3
ObjectDBX Classes
 90
        0
280
     0
281
     0
  0
CLASS
  1
LAYOUT
  2
AcDbLayout
  3
ObjectDBX Classes
 90
        0
280
     0
281
     0
  0
CLASS
  1
XRECORD
  2
AcDbXrecord
  3
ObjectDBX Classes
 90
        0
280
     0
281
     0
  0
CLASS
  1
LWPOLYLINE
  2
AcDbPolyline
  3
ObjectDBX Classes
 90
        0
280
     0
281
     1
  0
CLASS
  1
HATCH
  2
AcDbHatch
  3
ObjectDBX Classes
 90
        0
280
     0
281
     1
  0
ENDSEC
  0
SECTION
  2
TABLES
  0
TABLE
  2
VPORT
  5
8
330
0
100
AcDbSymbolTable
 70
     1
  0
VPORT
  5
29
330
8
100
AcDbSymbolTableRecord
100
AcDbViewportTableRecord
  2
*ACTIVE
 70
     0
 10
0.0
 20
0.0
 11
1.0
 21
1.0
 12
594.5
 22
420.5
 13
0.0
 23
0.0
 14
10.0
 24
10.0
 15
10.0
 25
10.0
 16
0.0
 26
0.0
 36
1.0
 17
0.0
 27
0.0
 37
0.0
 40
841.0
 41
1.4137931034
 42
50.0
 43
0.0
 44
0.0
 50
0.0
 51
0.0
 71
     0
 72
  2000
 73
     1
 74
     3
 75
     0
 76
     0
 77
     0
 78
     0
  0
ENDTAB
  0
TABLE
  2
LTYPE
  5
5
330
0
100
AcDbSymbolTable
 70
     6
  0
LTYPE
  5
14
330
5
100
AcDbSymbolTableRecord
100
AcDbLinetypeTableRecord
  2
BYBLOCK
 70
     0
  3

 72
    65
 73
     0
 40
0.0
  0
LTYPE
  5
15
330
5
100
AcDbSymbolTableRecord
100
AcDbLinetypeTableRecord
  2
BYLAYER
 70
     0
  3

 72
    65
 73
     0
 40
0.0
  0
LTYPE
  5
16
330
5
100
AcDbSymbolTableRecord
100
AcDbLinetypeTableRecord
  2
CONTINUOUS
 70
     0
  3
Solid line
 72
    65
 73
     0
 40
0.0
  0
LTYPE
  5
6E
330
5
100
AcDbSymbolTableRecord
100
AcDbLinetypeTableRecord
  2
HIDDEN
 70
     0
  3
Hidden __ __ __ __ __ __ __ __ __ __ __ __ __ __
 72
    65
 73
     2
 40
1.905
 49
1.27
 74
     0
 49
-0.635
 74
     0
  0
LTYPE
  5
6F
330
5
100
AcDbSymbolTableRecord
100
AcDbLinetypeTableRecord
  2
PHANTOM
 70
     0
  3
Phantom ______  __  __  ______  __  __  ______
 72
    65
 73
     6
 40
12.7
 49
6.35
 74
     0
 49
-1.27
 74
     0
 49
1.27
 74
     0
 49
-1.27
 74
     0
 49
1.27
 74
     0
 49
-1.27
 74
     0
  0
LTYPE
  5
70
330
5
100
AcDbSymbolTableRecord
100
AcDbLinetypeTableRecord
  2
CENTER
 70
     0
  3
Center ____ _ ____ _ ____ _ ____ _ ____ _ ____
 72
    65
 73
     4
 40
10.16
 49
6.35
 74
     0
 49
-1.27
 74
     0
 49
1.27
 74
     0
 49
-1.27
 74
     0
  0
LTYPE
  5
71
330
5
100
AcDbSymbolTableRecord
100
AcDbLinetypeTableRecord
  2
CENTERX2
 70
     0
  3
Center (2x) ________  __  ________  __  _____
 72
    65
 73
     4
 40
20.32
 49
12.7
 74
     0
 49
-2.54
 74
     0
 49
2.54
 74
     0
 49
-2.54
 74
     0
  0
LTYPE
  5
72
330
5
100
AcDbSymbolTableRecord
100
AcDbLinetypeTableRecord
  2
DOT2
 70
     0
  3
Dot (.5x) ........................................
 72
    65
 73
     2
 40
0.635
 49
0.0
 74
     0
 49
-0.635
 74
     0
  0
ENDTAB
  0
TABLE
  2
LAYER
  5
2
330
0
100
AcDbSymbolTable
 70
     2
  0
LAYER
  5
10
330
2
100
AcDbSymbolTableRecord
100
AcDbLayerTableRecord
  2
0
 70
     0
 62
     7
  6
CONTINUOUS
  0
LAYER
  5
73
330
2
100
AcDbSymbolTableRecord
100
AcDbLayerTableRecord
  2
REVISIONNOTES
 70
     0
 62
     1
  6
CONTINUOUS
  0
ENDTAB
  0
TABLE
  2
STYLE
  5
3
330
0
100
AcDbSymbolTable
 70
     2
  0
STYLE
  5
11
330
3
100
AcDbSymbolTableRecord
100
AcDbTextStyleTableRecord
  2
STANDARD
 70
     0
 40
0.0
 41
1.0
 50
0.0
 71
     0
 42
2.5
  3
txt
  4

  0
STYLE
  5
208
330
3
100
AcDbSymbolTableRecord
100
AcDbTextStyleTableRecord
  2
SLDTEXTSTYLE0
 70
     0
 40
0.0
 41
0.605
 50
0.0
 71
     0
 42
2.5
  3
TXT
  4

  0
ENDTAB
  0
TABLE
  2
VIEW
  5
6
330
0
100
AcDbSymbolTable
 70
     0
  0
ENDTAB
  0
TABLE
  2
UCS
  5
7
330
0
100
AcDbSymbolTable
 70
     0
  0
ENDTAB
  0
TABLE
  2
APPID
  5
9
330
0
100
AcDbSymbolTable
 70
     1
  0
APPID
  5
12
330
9
100
AcDbSymbolTableRecord
100
AcDbRegAppTableRecord
  2
ACAD
 70
     0
  0
ENDTAB
  0
TABLE
  2
DIMSTYLE
  5
A
330
0
100
AcDbSymbolTable
 70
     4
  0
DIMSTYLE
105
27
330
A
100
AcDbSymbolTableRecord
100
AcDbDimStyleTableRecord
  2
ISO-25
 70
     0
  3

  4

  5

  6

  7

 40
1.0
 41
2.5
 42
0.625
 43
3.75
 44
1.25
 45
0.0
 46
0.0
 47
0.0
 48
0.0
140
2.5
141
2.5
142
0.0
143
0.0393700787
144
1.0
145
0.0
146
1.0
147
0.625
 71
     0
 72
     0
 73
     0
 74
     0
 75
     0
 76
     0
 77
     1
 78
     8
170
     0
171
     3
172
     1
173
     0
174
     0
175
     0
176
     0
177
     0
178
     0
270
     2
271
     2
272
     2
273
     2
274
     3
340
11
275
     0
280
     0
281
     0
282
     0
283
     0
284
     8
285
     0
286
     0
287
     3
288
     0
  0
DIMSTYLE
105
209
102
{ACAD_REACTORS
330
207
330
215
330
2FE
330
30A
330
4FD
102
}
330
A
100
AcDbSymbolTableRecord
100
AcDbDimStyleTableRecord
  2
SLDDIMSTYLE0
 70
     0
  3

  4

  5

  6

  7

 40
1.0
 41
2.5
 42
0.0625
 43
0.38
 44
0.0
 45
0.000000001
 46
0.0
 47
0.0
 48
0.0
140
2.5
141
0.09
142
0.0
143
25.4
144
1.0
145
0.0
146
1.0
147
0.625
 71
     0
 72
     0
 73
     0
 74
     0
 75
     0
 76
     0
 77
     1
 78
    12
170
     0
171
     2
172
     1
173
     1
174
     0
175
     0
176
     0
177
     0
178
     0
270
     2
271
     2
272
     3
273
     2
274
     2
340
208
275
     0
280
     0
281
     0
282
     0
283
     1
284
    12
285
     0
286
     0
288
     0
  0
DIMSTYLE
105
222
102
{ACAD_REACTORS
330
221
330
22C
330
236
330
240
330
24A
330
254
330
25E
330
268
330
272
330
27C
330
286
330
290
330
29A
330
2A4
330
2AE
330
2B8
330
2C2
330
2CC
330
2D6
330
2E0
330
2EA
330
2F4
330
316
330
320
330
32A
330
335
330
33F
330
349
330
353
330
35D
102
}
330
A
100
AcDbSymbolTableRecord
100
AcDbDimStyleTableRecord
  2
SLDDIMSTYLE1
 70
     0
  3

  4

  5

  6

  7

 40
1.0
 41
2.5
 42
0.0625
 43
0.38
 44
0.0
 45
0.000000001
 46
0.0
 47
0.0
 48
0.0
140
2.5
141
0.09
142
0.0
143
25.4
144
1.0
145
0.0
146
1.0
147
0.625
 71
     0
 72
     0
 73
     0
 74
     0
 75
     0
 76
     0
 77
     1
 78
    12
170
     0
171
     2
172
     0
173
     1
174
     0
175
     0
176
     0
177
     0
178
     0
270
     2
271
     2
272
     3
273
     2
274
     2
340
208
275
     0
280
     0
281
     0
282
     0
283
     1
284
    12
285
     0
286
     0
287
     3
288
     0
  0
DIMSTYLE
105
50A
102
{ACAD_REACTORS
330
509
102
}
330
A
100
AcDbSymbolTableRecord
100
AcDbDimStyleTableRecord
  2
SLDDIMSTYLE2
 70
     0
  3

  4

  5

  6

  7

 40
1.0
 41
2.5
 42
0.0625
 43
0.38
 44
0.0
 45
0.000000001
 46
0.0
 47
0.0
 48
0.0
140
2.5
141
0.0
142
0.0
143
25.4
144
1.0
145
0.0
146
1.0
147
0.625
 71
     0
 72
     0
 73
     0
 74
     0
 75
     0
 76
     0
 77
     1
 78
    12
170
     0
171
     2
172
     0
173
     1
174
     0
175
     0
176
     0
177
     0
178
     0
270
     2
271
     2
272
     3
273
     2
274
     2
340
208
275
     0
280
     0
281
     0
282
     0
283
     1
284
    12
285
     0
286
     0
287
     3
288
     0
  0
ENDTAB
  0
TABLE
  2
BLOCK_RECORD
  5
1
330
0
100
AcDbSymbolTable
 70
    50
  0
BLOCK_RECORD
  5
1F
102
{ACAD_XDICTIONARY
360
534
102
}
330
1
100
AcDbSymbolTableRecord
100
AcDbBlockTableRecord
  2
*MODEL_SPACE
  0
BLOCK_RECORD
  5
1B
330
1
100
AcDbSymbolTableRecord
100
AcDbBlockTableRecord
  2
*PAPER_SPACE
  0
BLOCK_RECORD
  5
23
330
1
100
AcDbSymbolTableRecord
100
AcDbBlockTableRecord
  2
*PAPER_SPACE0
  0
BLOCK_RECORD
  5
20A
330
1
100
AcDbSymbolTableRecord
100
AcDbBlockTableRecord
  2
_D
  0
BLOCK_RECORD
  5
216
330
1
100
AcDbSymbolTableRecord
100
AcDbBlockTableRecord
  2
_D_1
  0
BLOCK_RECORD
  5
223
330
1
100
AcDbSymbolTableRecord
100
AcDbBlockTableRecord
  2
_D_2
  0
BLOCK_RECORD
  5
22D
330
1
100
AcDbSymbolTableRecord
100
AcDbBlockTableRecord
  2
_D_3
  0
BLOCK_RECORD
  5
237
330
1
100
AcDbSymbolTableRecord
100
AcDbBlockTableRecord
  2
_D_4
  0
BLOCK_RECORD
  5
241
330
1
100
AcDbSymbolTableRecord
100
AcDbBlockTableRecord
  2
_D_5
  0
BLOCK_RECORD
  5
24B
330
1
100
AcDbSymbolTableRecord
100
AcDbBlockTableRecord
  2
_D_6
  0
BLOCK_RECORD
  5
255
330
1
100
AcDbSymbolTableRecord
100
AcDbBlockTableRecord
  2
_D_7
  0
BLOCK_RECORD
  5
25F
330
1
100
AcDbSymbolTableRecord
100
AcDbBlockTableRecord
  2
_D_8
  0
BLOCK_RECORD
  5
269
330
1
100
AcDbSymbolTableRecord
100
AcDbBlockTableRecord
  2
_D_9
  0
BLOCK_RECORD
  5
273
330
1
100
AcDbSymbolTableRecord
100
AcDbBlockTableRecord
  2
_D_10
  0
BLOCK_RECORD
  5
27D
330
1
100
AcDbSymbolTableRecord
100
AcDbBlockTableRecord
  2
_D_11
  0
BLOCK_RECORD
  5
287
330
1
100
AcDbSymbolTableRecord
100
AcDbBlockTableRecord
  2
_D_12
  0
BLOCK_RECORD
  5
291
330
1
100
AcDbSymbolTableRecord
100
AcDbBlockTableRecord
  2
_D_13
  0
BLOCK_RECORD
  5
29B
330
1
100
AcDbSymbolTableRecord
100
AcDbBlockTableRecord
  2
_D_14
  0
BLOCK_RECORD
  5
2A5
330
1
100
AcDbSymbolTableRecord
100
AcDbBlockTableRecord
  2
_D_15
  0
BLOCK_RECORD
  5
2AF
330
1
100
AcDbSymbolTableRecord
100
AcDbBlockTableRecord
  2
_D_16
  0
BLOCK_RECORD
  5
2B9
330
1
100
AcDbSymbolTableRecord
100
AcDbBlockTableRecord
  2
_D_17
  0
BLOCK_RECORD
  5
2C3
330
1
100
AcDbSymbolTableRecord
100
AcDbBlockTableRecord
  2
_D_18
  0
BLOCK_RECORD
  5
2CD
330
1
100
AcDbSymbolTableRecord
100
AcDbBlockTableRecord
  2
_D_19
  0
BLOCK_RECORD
  5
2D7
330
1
100
AcDbSymbolTableRecord
100
AcDbBlockTableRecord
  2
_D_20
  0
BLOCK_RECORD
  5
2E1
330
1
100
AcDbSymbolTableRecord
100
AcDbBlockTableRecord
  2
_D_21
  0
BLOCK_RECORD
  5
2EB
330
1
100
AcDbSymbolTableRecord
100
AcDbBlockTableRecord
  2
_D_22
  0
BLOCK_RECORD
  5
2F5
330
1
100
AcDbSymbolTableRecord
100
AcDbBlockTableRecord
  2
_D_23
  0
BLOCK_RECORD
  5
2FF
330
1
100
AcDbSymbolTableRecord
100
AcDbBlockTableRecord
  2
_D_24
  0
BLOCK_RECORD
  5
30B
330
1
100
AcDbSymbolTableRecord
100
AcDbBlockTableRecord
  2
_D_25
  0
BLOCK_RECORD
  5
317
330
1
100
AcDbSymbolTableRecord
100
AcDbBlockTableRecord
  2
_D_26
  0
BLOCK_RECORD
  5
321
330
1
100
AcDbSymbolTableRecord
100
AcDbBlockTableRecord
  2
_D_27
  0
BLOCK_RECORD
  5
32B
330
1
100
AcDbSymbolTableRecord
100
AcDbBlockTableRecord
  2
_D_28
  0
BLOCK_RECORD
  5
336
330
1
100
AcDbSymbolTableRecord
100
AcDbBlockTableRecord
  2
_D_29
  0
BLOCK_RECORD
  5
340
330
1
100
AcDbSymbolTableRecord
100
AcDbBlockTableRecord
  2
_D_30
  0
BLOCK_RECORD
  5
34A
330
1
100
AcDbSymbolTableRecord
100
AcDbBlockTableRecord
  2
_D_31
  0
BLOCK_RECORD
  5
354
330
1
100
AcDbSymbolTableRecord
100
AcDbBlockTableRecord
  2
_D_32
  0
BLOCK_RECORD
  5
35E
330
1
100
AcDbSymbolTableRecord
100
AcDbBlockTableRecord
  2
_D_33
  0
BLOCK_RECORD
  5
367
330
1
100
AcDbSymbolTableRecord
100
AcDbBlockTableRecord
  2
SW_CENTERMARKSYMBOL_0
  0
BLOCK_RECORD
  5
373
330
1
100
AcDbSymbolTableRecord
100
AcDbBlockTableRecord
  2
SW_CENTERMARKSYMBOL_1
  0
BLOCK_RECORD
  5
37F
330
1
100
AcDbSymbolTableRecord
100
AcDbBlockTableRecord
  2
SW_CENTERMARKSYMBOL_2
  0
BLOCK_RECORD
  5
38B
330
1
100
AcDbSymbolTableRecord
100
AcDbBlockTableRecord
  2
SW_CENTERMARKSYMBOL_3
  0
BLOCK_RECORD
  5
397
330
1
100
AcDbSymbolTableRecord
100
AcDbBlockTableRecord
  2
SW_CENTERMARKSYMBOL_4
  0
BLOCK_RECORD
  5
3A3
330
1
100
AcDbSymbolTableRecord
100
AcDbBlockTableRecord
  2
SW_CENTERMARKSYMBOL_5
  0
BLOCK_RECORD
  5
3AF
330
1
100
AcDbSymbolTableRecord
100
AcDbBlockTableRecord
  2
SW_CENTERMARKSYMBOL_6
  0
BLOCK_RECORD
  5
3BB
330
1
100
AcDbSymbolTableRecord
100
AcDbBlockTableRecord
  2
SW_CENTERMARKSYMBOL_7
  0
BLOCK_RECORD
  5
3C7
330
1
100
AcDbSymbolTableRecord
100
AcDbBlockTableRecord
  2
SW_CENTERMARKSYMBOL_8
  0
BLOCK_RECORD
  5
3D3
330
1
100
AcDbSymbolTableRecord
100
AcDbBlockTableRecord
  2
SW_CENTERMARKSYMBOL_9
  0
BLOCK_RECORD
  5
3DF
330
1
100
AcDbSymbolTableRecord
100
AcDbBlockTableRecord
  2
SW_CENTERMARKSYMBOL_10
  0
BLOCK_RECORD
  5
3EB
330
1
100
AcDbSymbolTableRecord
100
AcDbBlockTableRecord
  2
SW_CENTERMARKSYMBOL_11
  0
BLOCK_RECORD
  5
3F7
330
1
100
AcDbSymbolTableRecord
100
AcDbBlockTableRecord
  2
SW_CENTERMARKSYMBOL_12
  0
BLOCK_RECORD
  5
4FE
330
1
100
AcDbSymbolTableRecord
100
AcDbBlockTableRecord
  2
_D_34
  0
BLOCK_RECORD
  5
50B
330
1
100
AcDbSymbolTableRecord
100
AcDbBlockTableRecord
  2
_D_35
  0
ENDTAB
  0
ENDSEC
  0
SECTION
  2
BLOCKS
  0
BLOCK
  5
20
330
1F
100
AcDbEntity
  8
0
100
AcDbBlockBegin
  2
*MODEL_SPACE
 70
     0
 10
0.0
 20
0.0
 30
0.0
  3
*MODEL_SPACE
  1

  0
ENDBLK
  5
21
330
1F
100
AcDbEntity
  8
0
100
AcDbBlockEnd
  0
BLOCK
  5
1C
330
1B
100
AcDbEntity
 67
     1
  8
0
100
AcDbBlockBegin
  2
*PAPER_SPACE
 70
     0
 10
0.0
 20
0.0
 30
0.0
  3
*PAPER_SPACE
  1

  0
ENDBLK
  5
1D
330
1B
100
AcDbEntity
 67
     1
  8
0
100
AcDbBlockEnd
  0
BLOCK
  5
24
330
23
100
AcDbEntity
  8
0
100
AcDbBlockBegin
  2
*PAPER_SPACE0
 70
     0
 10
0.0
 20
0.0
 30
0.0
  3
*PAPER_SPACE0
  1

  0
ENDBLK
  5
25
330
23
100
AcDbEntity
  8
0
100
AcDbBlockEnd
  0
BLOCK
  5
20B
330
20A
100
AcDbEntity
  8
0
100
AcDbBlockBegin
  2
_D
 70
     0
 10
0.0
 20
0.0
 30
0.0
  3
_D
  1

  0
SOLID
  5
20D
330
20A
100
AcDbEntity
  8
0
  6
CONTINUOUS
 62
     7
100
AcDbTrace
 10
240.0772002371
 20
356.217654972
 30
0.0
 11
242.5772002371
 21
355.8330395874
 31
0.0
 12
242.5772002371
 22
356.6022703566
 32
0.0
 13
242.5772002371
 23
356.6022703566
 33
0.0
  0
SOLID
  5
20E
330
20A
100
AcDbEntity
  8
0
  6
CONTINUOUS
 62
     7
100
AcDbTrace
 10
234.6772002371
 20
356.217654972
 30
0.0
 11
232.1772002371
 21
356.6022703566
 31
0.0
 12
232.1772002371
 22
355.8330395874
 32
0.0
 13
232.1772002371
 23
355.8330395874
 33
0.0
  0
LINE
  5
20F
330
20A
100
AcDbEntity
  8
0
  6
CONTINUOUS
 62
     7
100
AcDbLine
 10
240.0772002371
 20
384.2053713471
 30
0.0
 11
240.0772002371
 21
355.217654972
 31
0.0
  0
LINE
  5
210
330
20A
100
AcDbEntity
  8
0
  6
CONTINUOUS
 62
     7
100
AcDbLine
 10
234.6772002371
 20
604.271545784
 30
0.0
 11
234.6772002371
 21
355.217654972
 31
0.0
  0
LINE
  5
211
330
20A
100
AcDbEntity
  8
0
  6
CONTINUOUS
 62
     7
100
AcDbLine
 10
240.0772002371
 20
356.217654972
 30
0.0
 11
244.8848925447
 21
356.217654972
 31
0.0
  0
LINE
  5
212
330
20A
100
AcDbEntity
  8
0
  6
CONTINUOUS
 62
     7
100
AcDbLine
 10
240.0772002371
 20
356.217654972
 30
0.0
 11
234.6772002371
 21
356.217654972
 31
0.0
  0
LINE
  5
213
330
20A
100
AcDbEntity
  8
0
  6
CONTINUOUS
 62
     7
100
AcDbLine
 10
234.6772002371
 20
356.217654972
 30
0.0
 11
229.8695079294
 21
356.217654972
 31
0.0
  0
MTEXT
  5
214
330
20A
100
AcDbEntity
  8
0
  6
CONTINUOUS
 62
     7
100
AcDbMText
 10
234.9900474851
 20
359.4403241468
 30
0.0
 40
2.5
 41
0.0
 71
     1
 72
     1
  1
5.4
  7
SLDTEXTSTYLE0
  0
ENDBLK
  5
20C
330
20A
100
AcDbEntity
  8
0
100
AcDbBlockEnd
  0
BLOCK
  5
217
330
216
100
AcDbEntity
  8
0
100
AcDbBlockBegin
  2
_D_1
 70
     0
 10
0.0
 20
0.0
 30
0.0
  3
_D_1
  1

  0
SOLID
  5
219
330
216
100
AcDbEntity
  8
0
  6
CONTINUOUS
 62
     7
100
AcDbTrace
 10
240.0772002371
 20
430.6933240978
 30
0.0
 11
242.5772002371
 21
430.3087087131
 31
0.0
 12
242.5772002371
 22
431.0779394824
 32
0.0
 13
242.5772002371
 23
431.0779394824
 33
0.0
  0
SOLID
  5
21A
330
216
100
AcDbEntity
  8
0
  6
CONTINUOUS
 62
     7
100
AcDbTrace
 10
234.6772002371
 20
430.6933240978
 30
0.0
 11
232.1772002371
 21
431.0779394824
 31
0.0
 12
232.1772002371
 22
430.3087087131
 32
0.0
 13
232.1772002371
 23
430.3087087131
 33
0.0
  0
LINE
  5
21B
330
216
100
AcDbEntity
  8
0
  6
CONTINUOUS
 62
     7
100
AcDbLine
 10
240.0772002371
 20
459.4053713471
 30
0.0
 11
240.0772002371
 21
429.6933240978
 31
0.0
  0
LINE
  5
21C
330
216
100
AcDbEntity
  8
0
  6
CONTINUOUS
 62
     7
100
AcDbLine
 10
234.6772002371
 20
529.640082137
 30
0.0
 11
234.6772002371
 21
429.6933240978
 31
0.0
  0
LINE
  5
21D
330
216
100
AcDbEntity
  8
0
  6
CONTINUOUS
 62
     7
100
AcDbLine
 10
240.0772002371
 20
430.6933240978
 30
0.0
 11
244.8848925447
 21
430.6933240978
 31
0.0
  0
LINE
  5
21E
330
216
100
AcDbEntity
  8
0
  6
CONTINUOUS
 62
     7
100
AcDbLine
 10
240.0772002371
 20
430.6933240978
 30
0.0
 11
234.6772002371
 21
430.6933240978
 31
0.0
  0
LINE
  5
21F
330
216
100
AcDbEntity
  8
0
  6
CONTINUOUS
 62
     7
100
AcDbLine
 10
234.6772002371
 20
430.6933240978
 30
0.0
 11
229.8695079294
 21
430.6933240978
 31
0.0
  0
MTEXT
  5
220
330
216
100
AcDbEntity
  8
0
  6
CONTINUOUS
 62
     7
100
AcDbMText
 10
234.9900474851
 20
433.9159932726
 30
0.0
 40
2.5
 41
0.0
 71
     1
 72
     1
  1
5.4
  7
SLDTEXTSTYLE0
  0
ENDBLK
  5
218
330
216
100
AcDbEntity
  8
0
100
AcDbBlockEnd
  0
BLOCK
  5
224
330
223
100
AcDbEntity
  8
0
100
AcDbBlockBegin
  2
_D_2
 70
     0
 10
0.0
 20
0.0
 30
0.0
  3
_D_2
  1

  0
SOLID
  5
226
330
223
100
AcDbEntity
  8
0
  6
CONTINUOUS
 62
     7
100
AcDbTrace
 10
192.6772002371
 20
86.3053713471
 30
0.0
 11
193.0618156217
 21
88.8053713471
 31
0.0
 12
192.2925848524
 22
88.8053713471
 32
0.0
 13
192.2925848524
 23
88.8053713471
 33
0.0
  0
SOLID
  5
227
330
223
100
AcDbEntity
  8
0
  6
CONTINUOUS
 62
     7
100
AcDbTrace
 10
192.677200237
 20
303.3053713471
 30
0.0
 11
192.2925848524
 21
300.8053713471
 31
0.0
 12
193.0618156217
 22
300.8053713471
 32
0.0
 13
193.0618156217
 23
300.8053713471
 33
0.0
  0
LINE
  5
228
330
223
100
AcDbEntity
  8
0
  6
CONTINUOUS
 62
     7
100
AcDbLine
 10
225.6772002371
 20
86.3053713471
 30
0.0
 11
191.6772002371
 21
86.3053713471
 31
0.0
  0
LINE
  5
229
330
223
100
AcDbEntity
  8
0
  6
CONTINUOUS
 62
     7
100
AcDbLine
 10
225.6772002371
 20
303.3053713471
 30
0.0
 11
191.677200237
 21
303.3053713471
 31
0.0
  0
LINE
  5
22A
330
223
100
AcDbEntity
  8
0
  6
CONTINUOUS
 62
     7
100
AcDbLine
 10
192.6772002371
 20
86.3053713471
 30
0.0
 11
192.677200237
 21
303.3053713471
 31
0.0
  0
MTEXT
  5
22B
330
223
100
AcDbEntity
  8
0
  6
CONTINUOUS
 62
     7
100
AcDbMText
 10
189.4545310622
 20
191.9407879517
 30
0.0
 40
2.5
 41
0.0
 71
     1
 72
     1
  1
217
  7
SLDTEXTSTYLE0
 11
-7.044195017643634E-15
 21
1.0
 31
0.0
  0
ENDBLK
  5
225
330
223
100
AcDbEntity
  8
0
100
AcDbBlockEnd
  0
BLOCK
  5
22E
330
22D
100
AcDbEntity
  8
0
100
AcDbBlockBegin
  2
_D_3
 70
     0
 10
0.0
 20
0.0
 30
0.0
  3
_D_3
  1

  0
SOLID
  5
230
330
22D
100
AcDbEntity
  8
0
  6
CONTINUOUS
 62
     7
100
AcDbTrace
 10
192.677200237
 20
530.3053713471
 30
0.0
 11
192.2925848524
 21
527.8053713471
 31
0.0
 12
193.0618156217
 22
527.8053713471
 32
0.0
 13
193.0618156217
 23
527.8053713471
 33
0.0
  0
SOLID
  5
231
330
22D
100
AcDbEntity
  8
0
  6
CONTINUOUS
 62
     7
100
AcDbTrace
 10
192.6772002371
 20
313.3053713471
 30
0.0
 11
193.0618156217
 21
315.8053713471
 31
0.0
 12
192.2925848524
 22
315.8053713471
 32
0.0
 13
192.2925848524
 23
315.8053713471
 33
0.0
  0
LINE
  5
232
330
22D
100
AcDbEntity
  8
0
  6
CONTINUOUS
 62
     7
100
AcDbLine
 10
225.6772002371
 20
530.3053713471
 30
0.0
 11
191.677200237
 21
530.3053713471
 31
0.0
  0
LINE
  5
233
330
22D
100
AcDbEntity
  8
0
  6
CONTINUOUS
 62
     7
100
AcDbLine
 10
225.6772002371
 20
313.3053713471
 30
0.0
 11
191.6772002371
 21
313.3053713471
 31
0.0
  0
LINE
  5
234
330
22D
100
AcDbEntity
  8
0
  6
CONTINUOUS
 62
     7
100
AcDbLine
 10
192.677200237
 20
530.3053713471
 30
0.0
 11
192.6772002371
 21
313.3053713471
 31
0.0
  0
MTEXT
  5
235
330
22D
100
AcDbEntity
  8
0
  6
CONTINUOUS
 62
     7
100
AcDbMText
 10
189.4545310622
 20
418.9407879517
 30
0.0
 40
2.5
 41
0.0
 71
     1
 72
     1
  1
217
  7
SLDTEXTSTYLE0
 11
-1.414962237524464E-14
 21
1.0
 31
0.0
  0
ENDBLK
  5
22F
330
22D
100
AcDbEntity
  8
0
100
AcDbBlockEnd
  0
BLOCK
  5
238
330
237
100
AcDbEntity
  8
0
100
AcDbBlockBegin
  2
_D_4
 70
     0
 10
0.0
 20
0.0
 30
0.0
  3
_D_4
  1

  0
SOLID
  5
23A
330
237
100
AcDbEntity
  8
0
  6
CONTINUOUS
 62
     7
100
AcDbTrace
 10
192.6772002371
 20
540.3053713471
 30
0.0
 11
193.0618156217
 21
542.8053713471
 31
0.0
 12
192.2925848524
 22
542.8053713471
 32
0.0
 13
192.2925848524
 23
542.8053713471
 33
0.0
  0
SOLID
  5
23B
330
237
100
AcDbEntity
  8
0
  6
CONTINUOUS
 62
     7
100
AcDbTrace
 10
192.677200237
 20
757.3053713471
 30
0.0
 11
192.2925848524
 21
754.8053713471
 31
0.0
 12
193.0618156217
 22
754.8053713471
 32
0.0
 13
193.0618156217
 23
754.8053713471
 33
0.0
  0
LINE
  5
23C
330
237
100
AcDbEntity
  8
0
  6
CONTINUOUS
 62
     7
100
AcDbLine
 10
225.6772002371
 20
540.3053713471
 30
0.0
 11
191.6772002371
 21
540.3053713471
 31
0.0
  0
LINE
  5
23D
330
237
100
AcDbEntity
  8
0
  6
CONTINUOUS
 62
     7
100
AcDbLine
 10
225.6772002371
 20
757.3053713471
 30
0.0
 11
191.677200237
 21
757.3053713471
 31
0.0
  0
LINE
  5
23E
330
237
100
AcDbEntity
  8
0
  6
CONTINUOUS
 62
     7
100
AcDbLine
 10
192.6772002371
 20
540.3053713471
 30
0.0
 11
192.677200237
 21
757.3053713471
 31
0.0
  0
MTEXT
  5
23F
330
237
100
AcDbEntity
  8
0
  6
CONTINUOUS
 62
     7
100
AcDbMText
 10
189.4545310622
 20
645.9407879517
 30
0.0
 40
2.5
 41
0.0
 71
     1
 72
     1
  1
217
  7
SLDTEXTSTYLE0
 11
-7.044195017643634E-15
 21
1.0
 31
0.0
  0
ENDBLK
  5
239
330
237
100
AcDbEntity
  8
0
100
AcDbBlockEnd
  0
BLOCK
  5
242
330
241
100
AcDbEntity
  8
0
100
AcDbBlockBegin
  2
_D_5
 70
     0
 10
0.0
 20
0.0
 30
0.0
  3
_D_5
  1

  0
SOLID
  5
244
330
241
100
AcDbEntity
  8
0
  6
CONTINUOUS
 62
     7
100
AcDbTrace
 10
224.6772002371
 20
776.4836962808
 30
0.0
 11
227.1772002371
 21
776.0990808962
 31
0.0
 12
227.1772002371
 22
776.8683116654
 32
0.0
 13
227.1772002371
 23
776.8683116654
 33
0.0
  0
SOLID
  5
245
330
241
100
AcDbEntity
  8
0
  6
CONTINUOUS
 62
     7
100
AcDbTrace
 10
244.6772002371
 20
776.4836962808
 30
0.0
 11
242.1772002371
 21
776.8683116654
 31
0.0
 12
242.1772002371
 22
776.0990808962
 32
0.0
 13
242.1772002371
 23
776.0990808962
 33
0.0
  0
LINE
  5
246
330
241
100
AcDbEntity
  8
0
  6
CONTINUOUS
 62
     7
100
AcDbLine
 10
224.6772002371
 20
757.3053713471
 30
0.0
 11
224.6772002371
 21
777.4836962808
 31
0.0
  0
LINE
  5
247
330
241
100
AcDbEntity
  8
0
  6
CONTINUOUS
 62
     7
100
AcDbLine
 10
244.6772002371
 20
757.3053713471
 30
0.0
 11
244.6772002371
 21
777.4836962808
 31
0.0
  0
LINE
  5
248
330
241
100
AcDbEntity
  8
0
  6
CONTINUOUS
 62
     7
100
AcDbLine
 10
224.6772002371
 20
776.4836962808
 30
0.0
 11
244.6772002371
 21
776.4836962808
 31
0.0
  0
MTEXT
  5
249
330
241
100
AcDbEntity
  8
0
  6
CONTINUOUS
 62
     7
100
AcDbMText
 10
232.7674780122
 20
779.7063654556
 30
0.0
 40
2.5
 41
0.0
 71
     1
 72
     1
  1
20
  7
SLDTEXTSTYLE0
  0
ENDBLK
  5
243
330
241
100
AcDbEntity
  8
0
100
AcDbBlockEnd
  0
BLOCK
  5
24C
330
24B
100
AcDbEntity
  8
0
100
AcDbBlockBegin
  2
_D_6
 70
     0
 10
0.0
 20
0.0
 30
0.0
  3
_D_6
  1

  0
SOLID
  5
24E
330
24B
100
AcDbEntity
  8
0
  6
CONTINUOUS
 62
     7
100
AcDbTrace
 10
206.6124158831
 20
106.3053713471
 30
0.0
 11
206.9970312677
 21
108.8053713471
 31
0.0
 12
206.2278004984
 22
108.8053713471
 32
0.0
 13
206.2278004984
 23
108.8053713471
 33
0.0
  0
SOLID
  5
24F
330
24B
100
AcDbEntity
  8
0
  6
CONTINUOUS
 62
     7
100
AcDbTrace
 10
206.6124158831
 20
126.3053713471
 30
0.0
 11
206.2278004984
 21
123.8053713471
 31
0.0
 12
206.9970312677
 22
123.8053713471
 32
0.0
 13
206.9970312677
 23
123.8053713471
 33
0.0
  0
LINE
  5
250
330
24B
100
AcDbEntity
  8
0
  6
CONTINUOUS
 62
     7
100
AcDbLine
 10
231.6772002371
 20
106.3053713471
 30
0.0
 11
205.6124158831
 21
106.3053713471
 31
0.0
  0
LINE
  5
251
330
24B
100
AcDbEntity
  8
0
  6
CONTINUOUS
 62
     7
100
AcDbLine
 10
231.6772002371
 20
126.3053713471
 30
0.0
 11
205.6124158831
 21
126.3053713471
 31
0.0
  0
LINE
  5
252
330
24B
100
AcDbEntity
  8
0
  6
CONTINUOUS
 62
     7
100
AcDbLine
 10
206.6124158831
 20
106.3053713471
 30
0.0
 11
206.6124158831
 21
126.3053713471
 31
0.0
  0
MTEXT
  5
253
330
24B
100
AcDbEntity
  8
0
  6
CONTINUOUS
 62
     7
100
AcDbMText
 10
203.3897467082
 20
114.3956491223
 30
0.0
 40
2.5
 41
0.0
 71
     1
 72
     1
  1
20
  7
SLDTEXTSTYLE0
 11
-7.044195017643634E-15
 21
1.0
 31
0.0
  0
ENDBLK
  5
24D
330
24B
100
AcDbEntity
  8
0
100
AcDbBlockEnd
  0
BLOCK
  5
256
330
255
100
AcDbEntity
  8
0
100
AcDbBlockBegin
  2
_D_7
 70
     0
 10
0.0
 20
0.0
 30
0.0
  3
_D_7
  1

  0
SOLID
  5
258
330
255
100
AcDbEntity
  8
0
  6
CONTINUOUS
 62
     7
100
AcDbTrace
 10
206.6124158831
 20
86.3053713471
 30
0.0
 11
206.9970312677
 21
88.8053713471
 31
0.0
 12
206.2278004984
 22
88.8053713471
 32
0.0
 13
206.2278004984
 23
88.8053713471
 33
0.0
  0
SOLID
  5
259
330
255
100
AcDbEntity
  8
0
  6
CONTINUOUS
 62
     7
100
AcDbTrace
 10
206.6124158831
 20
106.3053713471
 30
0.0
 11
206.2278004984
 21
103.8053713471
 31
0.0
 12
206.9970312677
 22
103.8053713471
 32
0.0
 13
206.9970312677
 23
103.8053713471
 33
0.0
  0
LINE
  5
25A
330
255
100
AcDbEntity
  8
0
  6
CONTINUOUS
 62
     7
100
AcDbLine
 10
225.6772002371
 20
86.3053713471
 30
0.0
 11
205.6124158831
 21
86.3053713471
 31
0.0
  0
LINE
  5
25B
330
255
100
AcDbEntity
  8
0
  6
CONTINUOUS
 62
     7
100
AcDbLine
 10
231.6772002371
 20
106.3053713471
 30
0.0
 11
205.6124158831
 21
106.3053713471
 31
0.0
  0
LINE
  5
25C
330
255
100
AcDbEntity
  8
0
  6
CONTINUOUS
 62
     7
100
AcDbLine
 10
206.6124158831
 20
86.3053713471
 30
0.0
 11
206.6124158831
 21
106.3053713471
 31
0.0
  0
MTEXT
  5
25D
330
255
100
AcDbEntity
  8
0
  6
CONTINUOUS
 62
     7
100
AcDbMText
 10
203.3897467082
 20
94.3956491223
 30
0.0
 40
2.5
 41
0.0
 71
     1
 72
     1
  1
20
  7
SLDTEXTSTYLE0
 11
-7.044195017643634E-15
 21
1.0
 31
0.0
  0
ENDBLK
  5
257
330
255
100
AcDbEntity
  8
0
100
AcDbBlockEnd
  0
BLOCK
  5
260
330
25F
100
AcDbEntity
  8
0
100
AcDbBlockBegin
  2
_D_8
 70
     0
 10
0.0
 20
0.0
 30
0.0
  3
_D_8
  1

  0
SOLID
  5
262
330
25F
100
AcDbEntity
  8
0
  6
CONTINUOUS
 62
     7
100
AcDbTrace
 10
206.6124158831
 20
126.3053713471
 30
0.0
 11
206.9970312677
 21
128.8053713471
 31
0.0
 12
206.2278004984
 22
128.8053713471
 32
0.0
 13
206.2278004984
 23
128.8053713471
 33
0.0
  0
SOLID
  5
263
330
25F
100
AcDbEntity
  8
0
  6
CONTINUOUS
 62
     7
100
AcDbTrace
 10
206.612415883
 20
225.3053713471
 30
0.0
 11
206.2278004984
 21
222.8053713471
 31
0.0
 12
206.9970312677
 22
222.8053713471
 32
0.0
 13
206.9970312677
 23
222.8053713471
 33
0.0
  0
LINE
  5
264
330
25F
100
AcDbEntity
  8
0
  6
CONTINUOUS
 62
     7
100
AcDbLine
 10
231.6772002371
 20
126.3053713471
 30
0.0
 11
205.6124158831
 21
126.3053713471
 31
0.0
  0
LINE
  5
265
330
25F
100
AcDbEntity
  8
0
  6
CONTINUOUS
 62
     7
100
AcDbLine
 10
231.6772002371
 20
225.3053713471
 30
0.0
 11
205.612415883
 21
225.3053713471
 31
0.0
  0
LINE
  5
266
330
25F
100
AcDbEntity
  8
0
  6
CONTINUOUS
 62
     7
100
AcDbLine
 10
206.6124158831
 20
126.3053713471
 30
0.0
 11
206.612415883
 21
225.3053713471
 31
0.0
  0
MTEXT
  5
267
330
25F
100
AcDbEntity
  8
0
  6
CONTINUOUS
 62
     7
100
AcDbMText
 10
203.3897467082
 20
173.8956491223
 30
0.0
 40
2.5
 41
0.0
 71
     1
 72
     1
  1
99
  7
SLDTEXTSTYLE0
 11
-3.013683392984689E-14
 21
1.0
 31
0.0
  0
ENDBLK
  5
261
330
25F
100
AcDbEntity
  8
0
100
AcDbBlockEnd
  0
BLOCK
  5
26A
330
269
100
AcDbEntity
  8
0
100
AcDbBlockBegin
  2
_D_9
 70
     0
 10
0.0
 20
0.0
 30
0.0
  3
_D_9
  1

  0
SOLID
  5
26C
330
269
100
AcDbEntity
  8
0
  6
CONTINUOUS
 62
     7
100
AcDbTrace
 10
252.93626794
 20
225.3053713471
 30
0.0
 11
253.3208833246
 21
227.8053713471
 31
0.0
 12
252.5516525554
 22
227.8053713471
 32
0.0
 13
252.5516525554
 23
227.8053713471
 33
0.0
  0
SOLID
  5
26D
330
269
100
AcDbEntity
  8
0
  6
CONTINUOUS
 62
     7
100
AcDbTrace
 10
252.93626794
 20
247.3053713471
 30
0.0
 11
252.5516525554
 21
244.8053713471
 31
0.0
 12
253.3208833246
 22
244.8053713471
 32
0.0
 13
253.3208833246
 23
244.8053713471
 33
0.0
  0
LINE
  5
26E
330
269
100
AcDbEntity
  8
0
  6
CONTINUOUS
 62
     7
100
AcDbLine
 10
237.6772002371
 20
225.3053713471
 30
0.0
 11
253.93626794
 21
225.3053713471
 31
0.0
  0
LINE
  5
26F
330
269
100
AcDbEntity
  8
0
  6
CONTINUOUS
 62
     7
100
AcDbLine
 10
225.2138569519
 20
247.3053713471
 30
0.0
 11
253.93626794
 21
247.3053713471
 31
0.0
  0
LINE
  5
270
330
269
100
AcDbEntity
  8
0
  6
CONTINUOUS
 62
     7
100
AcDbLine
 10
252.93626794
 20
225.3053713471
 30
0.0
 11
252.93626794
 21
247.3053713471
 31
0.0
  0
MTEXT
  5
271
330
269
100
AcDbEntity
  8
0
  6
CONTINUOUS
 62
     7
100
AcDbMText
 10
249.7135987652
 20
234.3956491223
 30
0.0
 40
2.5
 41
0.0
 71
     1
 72
     1
  1
22
  7
SLDTEXTSTYLE0
 11
-3.013683392984689E-14
 21
1.0
 31
0.0
  0
ENDBLK
  5
26B
330
269
100
AcDbEntity
  8
0
100
AcDbBlockEnd
  0
BLOCK
  5
274
330
273
100
AcDbEntity
  8
0
100
AcDbBlockBegin
  2
_D_10
 70
     0
 10
0.0
 20
0.0
 30
0.0
  3
_D_10
  1

  0
SOLID
  5
276
330
273
100
AcDbEntity
  8
0
  6
CONTINUOUS
 62
     7
100
AcDbTrace
 10
206.6124158831
 20
225.3053713471
 30
0.0
 11
206.9970312677
 21
227.8053713471
 31
0.0
 12
206.2278004984
 22
227.8053713471
 32
0.0
 13
206.2278004984
 23
227.8053713471
 33
0.0
  0
SOLID
  5
277
330
273
100
AcDbEntity
  8
0
  6
CONTINUOUS
 62
     7
100
AcDbTrace
 10
206.6124158831
 20
265.3053713471
 30
0.0
 11
206.2278004984
 21
262.8053713471
 31
0.0
 12
206.9970312677
 22
262.8053713471
 32
0.0
 13
206.9970312677
 23
262.8053713471
 33
0.0
  0
LINE
  5
278
330
273
100
AcDbEntity
  8
0
  6
CONTINUOUS
 62
     7
100
AcDbLine
 10
231.6772002371
 20
225.3053713471
 30
0.0
 11
205.6124158831
 21
225.3053713471
 31
0.0
  0
LINE
  5
279
330
273
100
AcDbEntity
  8
0
  6
CONTINUOUS
 62
     7
100
AcDbLine
 10
225.6772002371
 20
265.3053713471
 30
0.0
 11
205.6124158831
 21
265.3053713471
 31
0.0
  0
LINE
  5
27A
330
273
100
AcDbEntity
  8
0
  6
CONTINUOUS
 62
     7
100
AcDbLine
 10
206.6124158831
 20
225.3053713471
 30
0.0
 11
206.6124158831
 21
265.3053713471
 31
0.0
  0
MTEXT
  5
27B
330
273
100
AcDbEntity
  8
0
  6
CONTINUOUS
 62
     7
100
AcDbMText
 10
203.3897467082
 20
243.3956491223
 30
0.0
 40
2.5
 41
0.0
 71
     1
 72
     1
  1
40
  7
SLDTEXTSTYLE0
 11
-3.013683392984689E-14
 21
1.0
 31
0.0
  0
ENDBLK
  5
275
330
273
100
AcDbEntity
  8
0
100
AcDbBlockEnd
  0
BLOCK
  5
27E
330
27D
100
AcDbEntity
  8
0
100
AcDbBlockBegin
  2
_D_11
 70
     0
 10
0.0
 20
0.0
 30
0.0
  3
_D_11
  1

  0
SOLID
  5
280
330
27D
100
AcDbEntity
  8
0
  6
CONTINUOUS
 62
     7
100
AcDbTrace
 10
261.9945964323
 20
247.3053713471
 30
0.0
 11
261.6099810477
 21
244.8053713471
 31
0.0
 12
262.3792118169
 22
244.8053713471
 32
0.0
 13
262.3792118169
 23
244.8053713471
 33
0.0
  0
SOLID
  5
281
330
27D
100
AcDbEntity
  8
0
  6
CONTINUOUS
 62
     7
100
AcDbTrace
 10
261.9945964323
 20
116.3053713471
 30
0.0
 11
262.3792118169
 21
118.8053713471
 31
0.0
 12
261.6099810477
 22
118.8053713471
 32
0.0
 13
261.6099810477
 23
118.8053713471
 33
0.0
  0
LINE
  5
282
330
27D
100
AcDbEntity
  8
0
  6
CONTINUOUS
 62
     7
100
AcDbLine
 10
244.3772002371
 20
247.3053713471
 30
0.0
 11
262.9945964323
 21
247.3053713471
 31
0.0
  0
LINE
  5
283
330
27D
100
AcDbEntity
  8
0
  6
CONTINUOUS
 62
     7
100
AcDbLine
 10
239.6772002371
 20
116.3053713471
 30
0.0
 11
262.9945964323
 21
116.3053713471
 31
0.0
  0
LINE
  5
284
330
27D
100
AcDbEntity
  8
0
  6
CONTINUOUS
 62
     7
100
AcDbLine
 10
261.9945964323
 20
247.3053713471
 30
0.0
 11
261.9945964323
 21
116.3053713471
 31
0.0
  0
MTEXT
  5
285
330
27D
100
AcDbEntity
  8
0
  6
CONTINUOUS
 62
     7
100
AcDbMText
 10
258.7719272575
 20
178.9407879517
 30
0.0
 40
2.5
 41
0.0
 71
     1
 72
     1
  1
131
  7
SLDTEXTSTYLE0
 11
-1.414962237524464E-14
 21
1.0
 31
0.0
  0
ENDBLK
  5
27F
330
27D
100
AcDbEntity
  8
0
100
AcDbBlockEnd
  0
BLOCK
  5
288
330
287
100
AcDbEntity
  8
0
100
AcDbBlockBegin
  2
_D_12
 70
     0
 10
0.0
 20
0.0
 30
0.0
  3
_D_12
  1

  0
SOLID
  5
28A
330
287
100
AcDbEntity
  8
0
  6
CONTINUOUS
 62
     7
100
AcDbTrace
 10
261.9945964323
 20
86.3053713471
 30
0.0
 11
262.3792118169
 21
88.8053713471
 31
0.0
 12
261.6099810477
 22
88.8053713471
 32
0.0
 13
261.6099810477
 23
88.8053713471
 33
0.0
  0
SOLID
  5
28B
330
287
100
AcDbEntity
  8
0
  6
CONTINUOUS
 62
     7
100
AcDbTrace
 10
261.9945964323
 20
116.3053713471
 30
0.0
 11
261.6099810477
 21
113.8053713471
 31
0.0
 12
262.3792118169
 22
113.8053713471
 32
0.0
 13
262.3792118169
 23
113.8053713471
 33
0.0
  0
LINE
  5
28C
330
287
100
AcDbEntity
  8
0
  6
CONTINUOUS
 62
     7
100
AcDbLine
 10
243.6772002371
 20
86.3053713471
 30
0.0
 11
262.9945964323
 21
86.3053713471
 31
0.0
  0
LINE
  5
28D
330
287
100
AcDbEntity
  8
0
  6
CONTINUOUS
 62
     7
100
AcDbLine
 10
239.6772002371
 20
116.3053713471
 30
0.0
 11
262.9945964323
 21
116.3053713471
 31
0.0
  0
LINE
  5
28E
330
287
100
AcDbEntity
  8
0
  6
CONTINUOUS
 62
     7
100
AcDbLine
 10
261.9945964323
 20
86.3053713471
 30
0.0
 11
261.9945964323
 21
116.3053713471
 31
0.0
  0
MTEXT
  5
28F
330
287
100
AcDbEntity
  8
0
  6
CONTINUOUS
 62
     7
100
AcDbMText
 10
258.7719272575
 20
99.3956491223
 30
0.0
 40
2.5
 41
0.0
 71
     1
 72
     1
  1
30
  7
SLDTEXTSTYLE0
 11
-7.044195017643634E-15
 21
1.0
 31
0.0
  0
ENDBLK
  5
289
330
287
100
AcDbEntity
  8
0
100
AcDbBlockEnd
  0
BLOCK
  5
292
330
291
100
AcDbEntity
  8
0
100
AcDbBlockBegin
  2
_D_13
 70
     0
 10
0.0
 20
0.0
 30
0.0
  3
_D_13
  1

  0
SOLID
  5
294
330
291
100
AcDbEntity
  8
0
  6
CONTINUOUS
 62
     7
100
AcDbTrace
 10
206.8702230373
 20
757.3053713471
 30
0.0
 11
206.4856076527
 21
754.8053713471
 31
0.0
 12
207.2548384219
 22
754.8053713471
 32
0.0
 13
207.2548384219
 23
754.8053713471
 33
0.0
  0
SOLID
  5
295
330
291
100
AcDbEntity
  8
0
  6
CONTINUOUS
 62
     7
100
AcDbTrace
 10
206.8702230373
 20
737.3053713471
 30
0.0
 11
207.2548384219
 21
739.8053713471
 31
0.0
 12
206.4856076527
 22
739.8053713471
 32
0.0
 13
206.4856076527
 23
739.8053713471
 33
0.0
  0
LINE
  5
296
330
291
100
AcDbEntity
  8
0
  6
CONTINUOUS
 62
     7
100
AcDbLine
 10
225.6772002371
 20
757.3053713471
 30
0.0
 11
205.8702230373
 21
757.3053713471
 31
0.0
  0
LINE
  5
297
330
291
100
AcDbEntity
  8
0
  6
CONTINUOUS
 62
     7
100
AcDbLine
 10
231.6772002371
 20
737.3053713471
 30
0.0
 11
205.8702230373
 21
737.3053713471
 31
0.0
  0
LINE
  5
298
330
291
100
AcDbEntity
  8
0
  6
CONTINUOUS
 62
     7
100
AcDbLine
 10
206.8702230373
 20
757.3053713471
 30
0.0
 11
206.8702230373
 21
737.3053713471
 31
0.0
  0
MTEXT
  5
299
330
291
100
AcDbEntity
  8
0
  6
CONTINUOUS
 62
     7
100
AcDbMText
 10
203.6475538625
 20
745.3956491223
 30
0.0
 40
2.5
 41
0.0
 71
     1
 72
     1
  1
20
  7
SLDTEXTSTYLE0
 11
-1.414962237524464E-14
 21
1.0
 31
0.0
  0
ENDBLK
  5
293
330
291
100
AcDbEntity
  8
0
100
AcDbBlockEnd
  0
BLOCK
  5
29C
330
29B
100
AcDbEntity
  8
0
100
AcDbBlockBegin
  2
_D_14
 70
     0
 10
0.0
 20
0.0
 30
0.0
  3
_D_14
  1

  0
SOLID
  5
29E
330
29B
100
AcDbEntity
  8
0
  6
CONTINUOUS
 62
     7
100
AcDbTrace
 10
206.8702230373
 20
737.3053713471
 30
0.0
 11
206.4856076527
 21
734.8053713471
 31
0.0
 12
207.2548384219
 22
734.8053713471
 32
0.0
 13
207.2548384219
 23
734.8053713471
 33
0.0
  0
SOLID
  5
29F
330
29B
100
AcDbEntity
  8
0
  6
CONTINUOUS
 62
     7
100
AcDbTrace
 10
206.8702230373
 20
717.3053713471
 30
0.0
 11
207.2548384219
 21
719.8053713471
 31
0.0
 12
206.4856076527
 22
719.8053713471
 32
0.0
 13
206.4856076527
 23
719.8053713471
 33
0.0
  0
LINE
  5
2A0
330
29B
100
AcDbEntity
  8
0
  6
CONTINUOUS
 62
     7
100
AcDbLine
 10
231.6772002371
 20
737.3053713471
 30
0.0
 11
205.8702230373
 21
737.3053713471
 31
0.0
  0
LINE
  5
2A1
330
29B
100
AcDbEntity
  8
0
  6
CONTINUOUS
 62
     7
100
AcDbLine
 10
231.6772002371
 20
717.3053713471
 30
0.0
 11
205.8702230373
 21
717.3053713471
 31
0.0
  0
LINE
  5
2A2
330
29B
100
AcDbEntity
  8
0
  6
CONTINUOUS
 62
     7
100
AcDbLine
 10
206.8702230373
 20
737.3053713471
 30
0.0
 11
206.8702230373
 21
717.3053713471
 31
0.0
  0
MTEXT
  5
2A3
330
29B
100
AcDbEntity
  8
0
  6
CONTINUOUS
 62
     7
100
AcDbMText
 10
203.6475538625
 20
725.3956491223
 30
0.0
 40
2.5
 41
0.0
 71
     1
 72
     1
  1
20
  7
SLDTEXTSTYLE0
 11
-1.414962237524464E-14
 21
1.0
 31
0.0
  0
ENDBLK
  5
29D
330
29B
100
AcDbEntity
  8
0
100
AcDbBlockEnd
  0
BLOCK
  5
2A6
330
2A5
100
AcDbEntity
  8
0
100
AcDbBlockBegin
  2
_D_15
 70
     0
 10
0.0
 20
0.0
 30
0.0
  3
_D_15
  1

  0
SOLID
  5
2A8
330
2A5
100
AcDbEntity
  8
0
  6
CONTINUOUS
 62
     7
100
AcDbTrace
 10
253.5311576361
 20
576.3053713471
 30
0.0
 11
253.9157730207
 21
578.8053713471
 31
0.0
 12
253.1465422515
 22
578.8053713471
 32
0.0
 13
253.1465422515
 23
578.8053713471
 33
0.0
  0
SOLID
  5
2A9
330
2A5
100
AcDbEntity
  8
0
  6
CONTINUOUS
 62
     7
100
AcDbTrace
 10
253.5311576361
 20
598.3053713471
 30
0.0
 11
253.1465422515
 21
595.8053713471
 31
0.0
 12
253.9157730207
 22
595.8053713471
 32
0.0
 13
253.9157730207
 23
595.8053713471
 33
0.0
  0
LINE
  5
2AA
330
2A5
100
AcDbEntity
  8
0
  6
CONTINUOUS
 62
     7
100
AcDbLine
 10
237.6772002371
 20
576.3053713471
 30
0.0
 11
254.5311576361
 21
576.3053713471
 31
0.0
  0
LINE
  5
2AB
330
2A5
100
AcDbEntity
  8
0
  6
CONTINUOUS
 62
     7
100
AcDbLine
 10
244.3772002371
 20
598.3053713471
 30
0.0
 11
254.5311576361
 21
598.3053713471
 31
0.0
  0
LINE
  5
2AC
330
2A5
100
AcDbEntity
  8
0
  6
CONTINUOUS
 62
     7
100
AcDbLine
 10
253.5311576361
 20
576.3053713471
 30
0.0
 11
253.5311576361
 21
598.3053713471
 31
0.0
  0
MTEXT
  5
2AD
330
2A5
100
AcDbEntity
  8
0
  6
CONTINUOUS
 62
     7
100
AcDbMText
 10
250.3084884613
 20
585.3956491223
 30
0.0
 40
2.5
 41
0.0
 71
     1
 72
     1
  1
22
  7
SLDTEXTSTYLE0
 11
-7.044195017643634E-15
 21
1.0
 31
0.0
  0
ENDBLK
  5
2A7
330
2A5
100
AcDbEntity
  8
0
100
AcDbBlockEnd
  0
BLOCK
  5
2B0
330
2AF
100
AcDbEntity
  8
0
100
AcDbBlockBegin
  2
_D_16
 70
     0
 10
0.0
 20
0.0
 30
0.0
  3
_D_16
  1

  0
SOLID
  5
2B2
330
2AF
100
AcDbEntity
  8
0
  6
CONTINUOUS
 62
     7
100
AcDbTrace
 10
206.8702230373
 20
540.3053713471
 30
0.0
 11
207.2548384219
 21
542.8053713471
 31
0.0
 12
206.4856076527
 22
542.8053713471
 32
0.0
 13
206.4856076527
 23
542.8053713471
 33
0.0
  0
SOLID
  5
2B3
330
2AF
100
AcDbEntity
  8
0
  6
CONTINUOUS
 62
     7
100
AcDbTrace
 10
206.8702230373
 20
576.3053713471
 30
0.0
 11
206.4856076527
 21
573.8053713471
 31
0.0
 12
207.2548384219
 22
573.8053713471
 32
0.0
 13
207.2548384219
 23
573.8053713471
 33
0.0
  0
LINE
  5
2B4
330
2AF
100
AcDbEntity
  8
0
  6
CONTINUOUS
 62
     7
100
AcDbLine
 10
225.6772002371
 20
540.3053713471
 30
0.0
 11
205.8702230373
 21
540.3053713471
 31
0.0
  0
LINE
  5
2B5
330
2AF
100
AcDbEntity
  8
0
  6
CONTINUOUS
 62
     7
100
AcDbLine
 10
231.6772002371
 20
576.3053713471
 30
0.0
 11
205.8702230373
 21
576.3053713471
 31
0.0
  0
LINE
  5
2B6
330
2AF
100
AcDbEntity
  8
0
  6
CONTINUOUS
 62
     7
100
AcDbLine
 10
206.8702230373
 20
540.3053713471
 30
0.0
 11
206.8702230373
 21
576.3053713471
 31
0.0
  0
MTEXT
  5
2B7
330
2AF
100
AcDbEntity
  8
0
  6
CONTINUOUS
 62
     7
100
AcDbMText
 10
203.6475538625
 20
556.3956491223
 30
0.0
 40
2.5
 41
0.0
 71
     1
 72
     1
  1
36
  7
SLDTEXTSTYLE0
 11
-7.044195017643634E-15
 21
1.0
 31
0.0
  0
ENDBLK
  5
2B1
330
2AF
100
AcDbEntity
  8
0
100
AcDbBlockEnd
  0
BLOCK
  5
2BA
330
2B9
100
AcDbEntity
  8
0
100
AcDbBlockBegin
  2
_D_17
 70
     0
 10
0.0
 20
0.0
 30
0.0
  3
_D_17
  1

  0
SOLID
  5
2BC
330
2B9
100
AcDbEntity
  8
0
  6
CONTINUOUS
 62
     7
100
AcDbTrace
 10
262.0837962828
 20
757.3053713471
 30
0.0
 11
261.6991808982
 21
754.8053713471
 31
0.0
 12
262.4684116674
 22
754.8053713471
 32
0.0
 13
262.4684116674
 23
754.8053713471
 33
0.0
  0
SOLID
  5
2BD
330
2B9
100
AcDbEntity
  8
0
  6
CONTINUOUS
 62
     7
100
AcDbTrace
 10
262.0837962828
 20
727.3053713471
 30
0.0
 11
262.4684116674
 21
729.8053713471
 31
0.0
 12
261.6991808982
 22
729.8053713471
 32
0.0
 13
261.6991808982
 23
729.8053713471
 33
0.0
  0
LINE
  5
2BE
330
2B9
100
AcDbEntity
  8
0
  6
CONTINUOUS
 62
     7
100
AcDbLine
 10
243.6772002371
 20
757.3053713471
 30
0.0
 11
263.0837962828
 21
757.3053713471
 31
0.0
  0
LINE
  5
2BF
330
2B9
100
AcDbEntity
  8
0
  6
CONTINUOUS
 62
     7
100
AcDbLine
 10
239.6772002371
 20
727.3053713471
 30
0.0
 11
263.0837962828
 21
727.3053713471
 31
0.0
  0
LINE
  5
2C0
330
2B9
100
AcDbEntity
  8
0
  6
CONTINUOUS
 62
     7
100
AcDbLine
 10
262.0837962828
 20
757.3053713471
 30
0.0
 11
262.0837962828
 21
727.3053713471
 31
0.0
  0
MTEXT
  5
2C1
330
2B9
100
AcDbEntity
  8
0
  6
CONTINUOUS
 62
     7
100
AcDbMText
 10
258.861127108
 20
740.3956491223
 30
0.0
 40
2.5
 41
0.0
 71
     1
 72
     1
  1
30
  7
SLDTEXTSTYLE0
 11
-1.414962237524464E-14
 21
1.0
 31
0.0
  0
ENDBLK
  5
2BB
330
2B9
100
AcDbEntity
  8
0
100
AcDbBlockEnd
  0
BLOCK
  5
2C4
330
2C3
100
AcDbEntity
  8
0
100
AcDbBlockBegin
  2
_D_18
 70
     0
 10
0.0
 20
0.0
 30
0.0
  3
_D_18
  1

  0
SOLID
  5
2C6
330
2C3
100
AcDbEntity
  8
0
  6
CONTINUOUS
 62
     7
100
AcDbTrace
 10
262.0837962828
 20
598.3053713471
 30
0.0
 11
262.4684116674
 21
600.8053713471
 31
0.0
 12
261.6991808982
 22
600.8053713471
 32
0.0
 13
261.6991808982
 23
600.8053713471
 33
0.0
  0
SOLID
  5
2C7
330
2C3
100
AcDbEntity
  8
0
  6
CONTINUOUS
 62
     7
100
AcDbTrace
 10
262.0837962828
 20
727.3053713471
 30
0.0
 11
261.6991808982
 21
724.8053713471
 31
0.0
 12
262.4684116674
 22
724.8053713471
 32
0.0
 13
262.4684116674
 23
724.8053713471
 33
0.0
  0
LINE
  5
2C8
330
2C3
100
AcDbEntity
  8
0
  6
CONTINUOUS
 62
     7
100
AcDbLine
 10
244.1405435222
 20
598.3053713471
 30
0.0
 11
263.0837962828
 21
598.3053713471
 31
0.0
  0
LINE
  5
2C9
330
2C3
100
AcDbEntity
  8
0
  6
CONTINUOUS
 62
     7
100
AcDbLine
 10
239.6772002371
 20
727.3053713471
 30
0.0
 11
263.0837962828
 21
727.3053713471
 31
0.0
  0
LINE
  5
2CA
330
2C3
100
AcDbEntity
  8
0
  6
CONTINUOUS
 62
     7
100
AcDbLine
 10
262.0837962828
 20
598.3053713471
 30
0.0
 11
262.0837962828
 21
727.3053713471
 31
0.0
  0
MTEXT
  5
2CB
330
2C3
100
AcDbEntity
  8
0
  6
CONTINUOUS
 62
     7
100
AcDbMText
 10
258.861127108
 20
659.9407879517
 30
0.0
 40
2.5
 41
0.0
 71
     1
 72
     1
  1
129
  7
SLDTEXTSTYLE0
 11
-7.044195017643634E-15
 21
1.0
 31
0.0
  0
ENDBLK
  5
2C5
330
2C3
100
AcDbEntity
  8
0
100
AcDbBlockEnd
  0
BLOCK
  5
2CE
330
2CD
100
AcDbEntity
  8
0
100
AcDbBlockBegin
  2
_D_19
 70
     0
 10
0.0
 20
0.0
 30
0.0
  3
_D_19
  1

  0
SOLID
  5
2D0
330
2CD
100
AcDbEntity
  8
0
  6
CONTINUOUS
 62
     7
100
AcDbTrace
 10
262.0424723277
 20
530.3053713471
 30
0.0
 11
261.6578569431
 21
527.8053713471
 31
0.0
 12
262.4270877123
 22
527.8053713471
 32
0.0
 13
262.4270877123
 23
527.8053713471
 33
0.0
  0
SOLID
  5
2D1
330
2CD
100
AcDbEntity
  8
0
  6
CONTINUOUS
 62
     7
100
AcDbTrace
 10
262.0424723277
 20
479.4053713471
 30
0.0
 11
262.4270877123
 21
481.9053713471
 31
0.0
 12
261.6578569431
 22
481.9053713471
 32
0.0
 13
261.6578569431
 23
481.9053713471
 33
0.0
  0
LINE
  5
2D2
330
2CD
100
AcDbEntity
  8
0
  6
CONTINUOUS
 62
     7
100
AcDbLine
 10
243.6772002371
 20
530.3053713471
 30
0.0
 11
263.0424723277
 21
530.3053713471
 31
0.0
  0
LINE
  5
2D3
330
2CD
100
AcDbEntity
  8
0
  6
CONTINUOUS
 62
     7
100
AcDbLine
 10
239.0772002371
 20
479.4053713471
 30
0.0
 11
263.0424723277
 21
479.4053713471
 31
0.0
  0
LINE
  5
2D4
330
2CD
100
AcDbEntity
  8
0
  6
CONTINUOUS
 62
     7
100
AcDbLine
 10
262.0424723277
 20
530.3053713471
 30
0.0
 11
262.0424723277
 21
479.4053713471
 31
0.0
  0
MTEXT
  5
2D5
330
2CD
100
AcDbEntity
  8
0
  6
CONTINUOUS
 62
     7
100
AcDbMText
 10
258.8198031529
 20
501.513357541
 30
0.0
 40
2.5
 41
0.0
 71
     1
 72
     1
  1
50.9
  7
SLDTEXTSTYLE0
 11
-1.414962237524464E-14
 21
1.0
 31
0.0
  0
ENDBLK
  5
2CF
330
2CD
100
AcDbEntity
  8
0
100
AcDbBlockEnd
  0
BLOCK
  5
2D8
330
2D7
100
AcDbEntity
  8
0
100
AcDbBlockBegin
  2
_D_20
 70
     0
 10
0.0
 20
0.0
 30
0.0
  3
_D_20
  1

  0
SOLID
  5
2DA
330
2D7
100
AcDbEntity
  8
0
  6
CONTINUOUS
 62
     7
100
AcDbTrace
 10
262.0424723277
 20
479.4053713471
 30
0.0
 11
261.6578569431
 21
476.9053713471
 31
0.0
 12
262.4270877123
 22
476.9053713471
 32
0.0
 13
262.4270877123
 23
476.9053713471
 33
0.0
  0
SOLID
  5
2DB
330
2D7
100
AcDbEntity
  8
0
  6
CONTINUOUS
 62
     7
100
AcDbTrace
 10
262.0424723277
 20
439.4053713471
 30
0.0
 11
262.4270877123
 21
441.9053713471
 31
0.0
 12
261.6578569431
 22
441.9053713471
 32
0.0
 13
261.6578569431
 23
441.9053713471
 33
0.0
  0
LINE
  5
2DC
330
2D7
100
AcDbEntity
  8
0
  6
CONTINUOUS
 62
     7
100
AcDbLine
 10
239.0772002371
 20
479.4053713471
 30
0.0
 11
263.0424723277
 21
479.4053713471
 31
0.0
  0
LINE
  5
2DD
330
2D7
100
AcDbEntity
  8
0
  6
CONTINUOUS
 62
     7
100
AcDbLine
 10
239.0772002371
 20
439.4053713471
 30
0.0
 11
263.0424723277
 21
439.4053713471
 31
0.0
  0
LINE
  5
2DE
330
2D7
100
AcDbEntity
  8
0
  6
CONTINUOUS
 62
     7
100
AcDbLine
 10
262.0424723277
 20
479.4053713471
 30
0.0
 11
262.0424723277
 21
439.4053713471
 31
0.0
  0
MTEXT
  5
2DF
330
2D7
100
AcDbEntity
  8
0
  6
CONTINUOUS
 62
     7
100
AcDbMText
 10
258.8198031529
 20
457.4956491223
 30
0.0
 40
2.5
 41
0.0
 71
     1
 72
     1
  1
40
  7
SLDTEXTSTYLE0
 11
-1.414962237524464E-14
 21
1.0
 31
0.0
  0
ENDBLK
  5
2D9
330
2D7
100
AcDbEntity
  8
0
100
AcDbBlockEnd
  0
BLOCK
  5
2E2
330
2E1
100
AcDbEntity
  8
0
100
AcDbBlockBegin
  2
_D_21
 70
     0
 10
0.0
 20
0.0
 30
0.0
  3
_D_21
  1

  0
SOLID
  5
2E4
330
2E1
100
AcDbEntity
  8
0
  6
CONTINUOUS
 62
     7
100
AcDbTrace
 10
262.0424723277
 20
439.4053713471
 30
0.0
 11
261.6578569431
 21
436.9053713471
 31
0.0
 12
262.4270877123
 22
436.9053713471
 32
0.0
 13
262.4270877123
 23
436.9053713471
 33
0.0
  0
SOLID
  5
2E5
330
2E1
100
AcDbEntity
  8
0
  6
CONTINUOUS
 62
     7
100
AcDbTrace
 10
262.0424723277
 20
404.2053713471
 30
0.0
 11
262.4270877123
 21
406.7053713471
 31
0.0
 12
261.6578569431
 22
406.7053713471
 32
0.0
 13
261.6578569431
 23
406.7053713471
 33
0.0
  0
LINE
  5
2E6
330
2E1
100
AcDbEntity
  8
0
  6
CONTINUOUS
 62
     7
100
AcDbLine
 10
239.0772002371
 20
439.4053713471
 30
0.0
 11
263.0424723277
 21
439.4053713471
 31
0.0
  0
LINE
  5
2E7
330
2E1
100
AcDbEntity
  8
0
  6
CONTINUOUS
 62
     7
100
AcDbLine
 10
239.0772002371
 20
404.2053713471
 30
0.0
 11
263.0424723277
 21
404.2053713471
 31
0.0
  0
LINE
  5
2E8
330
2E1
100
AcDbEntity
  8
0
  6
CONTINUOUS
 62
     7
100
AcDbLine
 10
262.0424723277
 20
439.4053713471
 30
0.0
 11
262.0424723277
 21
404.2053713471
 31
0.0
  0
MTEXT
  5
2E9
330
2E1
100
AcDbEntity
  8
0
  6
CONTINUOUS
 62
     7
100
AcDbMText
 10
258.8198031529
 20
418.463357541
 30
0.0
 40
2.5
 41
0.0
 71
     1
 72
     1
  1
35.2
  7
SLDTEXTSTYLE0
 11
-1.414962237524464E-14
 21
1.0
 31
0.0
  0
ENDBLK
  5
2E3
330
2E1
100
AcDbEntity
  8
0
100
AcDbBlockEnd
  0
BLOCK
  5
2EC
330
2EB
100
AcDbEntity
  8
0
100
AcDbBlockBegin
  2
_D_22
 70
     0
 10
0.0
 20
0.0
 30
0.0
  3
_D_22
  1

  0
SOLID
  5
2EE
330
2EB
100
AcDbEntity
  8
0
  6
CONTINUOUS
 62
     7
100
AcDbTrace
 10
262.0424723277
 20
404.2053713471
 30
0.0
 11
261.6578569431
 21
401.7053713471
 31
0.0
 12
262.4270877123
 22
401.7053713471
 32
0.0
 13
262.4270877123
 23
401.7053713471
 33
0.0
  0
SOLID
  5
2EF
330
2EB
100
AcDbEntity
  8
0
  6
CONTINUOUS
 62
     7
100
AcDbTrace
 10
262.0424723277
 20
364.2053713471
 30
0.0
 11
262.4270877123
 21
366.7053713471
 31
0.0
 12
261.6578569431
 22
366.7053713471
 32
0.0
 13
261.6578569431
 23
366.7053713471
 33
0.0
  0
LINE
  5
2F0
330
2EB
100
AcDbEntity
  8
0
  6
CONTINUOUS
 62
     7
100
AcDbLine
 10
239.0772002371
 20
404.2053713471
 30
0.0
 11
263.0424723277
 21
404.2053713471
 31
0.0
  0
LINE
  5
2F1
330
2EB
100
AcDbEntity
  8
0
  6
CONTINUOUS
 62
     7
100
AcDbLine
 10
239.0772002371
 20
364.2053713471
 30
0.0
 11
263.0424723277
 21
364.2053713471
 31
0.0
  0
LINE
  5
2F2
330
2EB
100
AcDbEntity
  8
0
  6
CONTINUOUS
 62
     7
100
AcDbLine
 10
262.0424723277
 20
404.2053713471
 30
0.0
 11
262.0424723277
 21
364.2053713471
 31
0.0
  0
MTEXT
  5
2F3
330
2EB
100
AcDbEntity
  8
0
  6
CONTINUOUS
 62
     7
100
AcDbMText
 10
258.8198031529
 20
382.2956491223
 30
0.0
 40
2.5
 41
0.0
 71
     1
 72
     1
  1
40
  7
SLDTEXTSTYLE0
 11
-1.414962237524464E-14
 21
1.0
 31
0.0
  0
ENDBLK
  5
2ED
330
2EB
100
AcDbEntity
  8
0
100
AcDbBlockEnd
  0
BLOCK
  5
2F6
330
2F5
100
AcDbEntity
  8
0
100
AcDbBlockBegin
  2
_D_23
 70
     0
 10
0.0
 20
0.0
 30
0.0
  3
_D_23
  1

  0
SOLID
  5
2F8
330
2F5
100
AcDbEntity
  8
0
  6
CONTINUOUS
 62
     7
100
AcDbTrace
 10
261.9945964323
 20
313.3053713471
 30
0.0
 11
262.3792118169
 21
315.8053713471
 31
0.0
 12
261.6099810477
 22
315.8053713471
 32
0.0
 13
261.6099810477
 23
315.8053713471
 33
0.0
  0
SOLID
  5
2F9
330
2F5
100
AcDbEntity
  8
0
  6
CONTINUOUS
 62
     7
100
AcDbTrace
 10
261.9945964323
 20
364.2053713471
 30
0.0
 11
261.6099810477
 21
361.7053713471
 31
0.0
 12
262.3792118169
 22
361.7053713471
 32
0.0
 13
262.3792118169
 23
361.7053713471
 33
0.0
  0
LINE
  5
2FA
330
2F5
100
AcDbEntity
  8
0
  6
CONTINUOUS
 62
     7
100
AcDbLine
 10
243.6772002371
 20
313.3053713471
 30
0.0
 11
262.9945964323
 21
313.3053713471
 31
0.0
  0
LINE
  5
2FB
330
2F5
100
AcDbEntity
  8
0
  6
CONTINUOUS
 62
     7
100
AcDbLine
 10
239.0772002371
 20
364.2053713471
 30
0.0
 11
262.9945964323
 21
364.2053713471
 31
0.0
  0
LINE
  5
2FC
330
2F5
100
AcDbEntity
  8
0
  6
CONTINUOUS
 62
     7
100
AcDbLine
 10
261.9945964323
 20
313.3053713471
 30
0.0
 11
261.9945964323
 21
364.2053713471
 31
0.0
  0
MTEXT
  5
2FD
330
2F5
100
AcDbEntity
  8
0
  6
CONTINUOUS
 62
     7
100
AcDbMText
 10
258.7719272575
 20
335.413357541
 30
0.0
 40
2.5
 41
0.0
 71
     1
 72
     1
  1
50.9
  7
SLDTEXTSTYLE0
 11
-7.044195017643634E-15
 21
1.0
 31
0.0
  0
ENDBLK
  5
2F7
330
2F5
100
AcDbEntity
  8
0
100
AcDbBlockEnd
  0
BLOCK
  5
300
330
2FF
100
AcDbEntity
  8
0
100
AcDbBlockBegin
  2
_D_24
 70
     0
 10
0.0
 20
0.0
 30
0.0
  3
_D_24
  1

  0
SOLID
  5
302
330
2FF
100
AcDbEntity
  8
0
  6
CONTINUOUS
 62
     7
100
AcDbTrace
 10
241.0772002371
 20
485.0579939848
 30
0.0
 11
243.5772002371
 21
484.6733786002
 31
0.0
 12
243.5772002371
 22
485.4426093694
 32
0.0
 13
243.5772002371
 23
485.4426093694
 33
0.0
  0
SOLID
  5
303
330
2FF
100
AcDbEntity
  8
0
  6
CONTINUOUS
 62
     7
100
AcDbTrace
 10
228.2772002371
 20
485.0579939848
 30
0.0
 11
225.7772002371
 21
485.4426093694
 31
0.0
 12
225.7772002371
 22
484.6733786002
 32
0.0
 13
225.7772002371
 23
484.6733786002
 33
0.0
  0
LINE
  5
304
330
2FF
100
AcDbEntity
  8
0
  6
CONTINUOUS
 62
     7
100
AcDbLine
 10
241.0772002371
 20
477.4053713471
 30
0.0
 11
241.0772002371
 21
486.0579939848
 31
0.0
  0
LINE
  5
305
330
2FF
100
AcDbEntity
  8
0
  6
CONTINUOUS
 62
     7
100
AcDbLine
 10
228.2772002371
 20
477.4053713471
 30
0.0
 11
228.2772002371
 21
486.0579939848
 31
0.0
  0
LINE
  5
306
330
2FF
100
AcDbEntity
  8
0
  6
CONTINUOUS
 62
     7
100
AcDbLine
 10
241.0772002371
 20
485.0579939848
 30
0.0
 11
245.8848925447
 21
485.0579939848
 31
0.0
  0
LINE
  5
307
330
2FF
100
AcDbEntity
  8
0
  6
CONTINUOUS
 62
     7
100
AcDbLine
 10
241.0772002371
 20
485.0579939848
 30
0.0
 11
228.2772002371
 21
485.0579939848
 31
0.0
  0
LINE
  5
308
330
2FF
100
AcDbEntity
  8
0
  6
CONTINUOUS
 62
     7
100
AcDbLine
 10
228.2772002371
 20
485.0579939848
 30
0.0
 11
223.4695079294
 21
485.0579939848
 31
0.0
  0
MTEXT
  5
309
330
2FF
100
AcDbEntity
  8
0
  6
CONTINUOUS
 62
     7
100
AcDbMText
 10
231.3351864309
 20
488.2806631596
 30
0.0
 40
2.5
 41
0.0
 71
     1
 72
     1
  1
12.8
  7
SLDTEXTSTYLE0
  0
ENDBLK
  5
301
330
2FF
100
AcDbEntity
  8
0
100
AcDbBlockEnd
  0
BLOCK
  5
30C
330
30B
100
AcDbEntity
  8
0
100
AcDbBlockBegin
  2
_D_25
 70
     0
 10
0.0
 20
0.0
 30
0.0
  3
_D_25
  1

  0
SOLID
  5
30E
330
30B
100
AcDbEntity
  8
0
  6
CONTINUOUS
 62
     7
100
AcDbTrace
 10
228.2772002371
 20
347.4441154
 30
0.0
 11
225.7772002371
 21
347.8287307846
 31
0.0
 12
225.7772002371
 22
347.0595000154
 32
0.0
 13
225.7772002371
 23
347.0595000154
 33
0.0
  0
SOLID
  5
30F
330
30B
100
AcDbEntity
  8
0
  6
CONTINUOUS
 62
     7
100
AcDbTrace
 10
241.0772002371
 20
347.4441154
 30
0.0
 11
243.5772002371
 21
347.0595000154
 31
0.0
 12
243.5772002371
 22
347.8287307846
 32
0.0
 13
243.5772002371
 23
347.8287307846
 33
0.0
  0
LINE
  5
310
330
30B
100
AcDbEntity
  8
0
  6
CONTINUOUS
 62
     7
100
AcDbLine
 10
228.2772002371
 20
366.2053713471
 30
0.0
 11
228.2772002371
 21
346.4441154
 31
0.0
  0
LINE
  5
311
330
30B
100
AcDbEntity
  8
0
  6
CONTINUOUS
 62
     7
100
AcDbLine
 10
241.0772002371
 20
396.81489156
 30
0.0
 11
241.0772002371
 21
346.4441154
 31
0.0
  0
LINE
  5
312
330
30B
100
AcDbEntity
  8
0
  6
CONTINUOUS
 62
     7
100
AcDbLine
 10
228.2772002371
 20
347.4441154
 30
0.0
 11
223.4695079294
 21
347.4441154
 31
0.0
  0
LINE
  5
313
330
30B
100
AcDbEntity
  8
0
  6
CONTINUOUS
 62
     7
100
AcDbLine
 10
228.2772002371
 20
347.4441154
 30
0.0
 11
241.0772002371
 21
347.4441154
 31
0.0
  0
LINE
  5
314
330
30B
100
AcDbEntity
  8
0
  6
CONTINUOUS
 62
     7
100
AcDbLine
 10
241.0772002371
 20
347.4441154
 30
0.0
 11
245.8848925447
 21
347.4441154
 31
0.0
  0
MTEXT
  5
315
330
30B
100
AcDbEntity
  8
0
  6
CONTINUOUS
 62
     7
100
AcDbMText
 10
231.3351864309
 20
350.6667845748
 30
0.0
 40
2.5
 41
0.0
 71
     1
 72
     1
  1
12.8
  7
SLDTEXTSTYLE0
  0
ENDBLK
  5
30D
330
30B
100
AcDbEntity
  8
0
100
AcDbBlockEnd
  0
BLOCK
  5
318
330
317
100
AcDbEntity
  8
0
100
AcDbBlockBegin
  2
_D_26
 70
     0
 10
0.0
 20
0.0
 30
0.0
  3
_D_26
  1

  0
SOLID
  5
31A
330
317
100
AcDbEntity
  8
0
  6
CONTINUOUS
 62
     7
100
AcDbTrace
 10
206.8702230373
 20
576.3053713471
 30
0.0
 11
207.2548384219
 21
578.8053713471
 31
0.0
 12
206.4856076527
 22
578.8053713471
 32
0.0
 13
206.4856076527
 23
578.8053713471
 33
0.0
  0
SOLID
  5
31B
330
317
100
AcDbEntity
  8
0
  6
CONTINUOUS
 62
     7
100
AcDbTrace
 10
206.8702230373
 20
616.3053713471
 30
0.0
 11
206.4856076527
 21
613.8053713471
 31
0.0
 12
207.2548384219
 22
613.8053713471
 32
0.0
 13
207.2548384219
 23
613.8053713471
 33
0.0
  0
LINE
  5
31C
330
317
100
AcDbEntity
  8
0
  6
CONTINUOUS
 62
     7
100
AcDbLine
 10
231.6772002371
 20
576.3053713471
 30
0.0
 11
205.8702230373
 21
576.3053713471
 31
0.0
  0
LINE
  5
31D
330
317
100
AcDbEntity
  8
0
  6
CONTINUOUS
 62
     7
100
AcDbLine
 10
224.9772002371
 20
616.3053713471
 30
0.0
 11
205.8702230373
 21
616.3053713471
 31
0.0
  0
LINE
  5
31E
330
317
100
AcDbEntity
  8
0
  6
CONTINUOUS
 62
     7
100
AcDbLine
 10
206.8702230373
 20
576.3053713471
 30
0.0
 11
206.8702230373
 21
616.3053713471
 31
0.0
  0
MTEXT
  5
31F
330
317
100
AcDbEntity
  8
0
  6
CONTINUOUS
 62
     7
100
AcDbMText
 10
203.6475538625
 20
594.3956491223
 30
0.0
 40
2.5
 41
0.0
 71
     1
 72
     1
  1
40
  7
SLDTEXTSTYLE0
 11
-7.044195017643634E-15
 21
1.0
 31
0.0
  0
ENDBLK
  5
319
330
317
100
AcDbEntity
  8
0
100
AcDbBlockEnd
  0
BLOCK
  5
322
330
321
100
AcDbEntity
  8
0
100
AcDbBlockBegin
  2
_D_27
 70
     0
 10
0.0
 20
0.0
 30
0.0
  3
_D_27
  1

  0
SOLID
  5
324
330
321
100
AcDbEntity
  8
0
  6
CONTINUOUS
 62
     7
100
AcDbTrace
 10
206.8702230373
 20
616.3053713471
 30
0.0
 11
207.2548384219
 21
618.8053713471
 31
0.0
 12
206.4856076527
 22
618.8053713471
 32
0.0
 13
206.4856076527
 23
618.8053713471
 33
0.0
  0
SOLID
  5
325
330
321
100
AcDbEntity
  8
0
  6
CONTINUOUS
 62
     7
100
AcDbTrace
 10
206.8702230373
 20
717.3053713471
 30
0.0
 11
206.4856076527
 21
714.8053713471
 31
0.0
 12
207.2548384219
 22
714.8053713471
 32
0.0
 13
207.2548384219
 23
714.8053713471
 33
0.0
  0
LINE
  5
326
330
321
100
AcDbEntity
  8
0
  6
CONTINUOUS
 62
     7
100
AcDbLine
 10
224.9772002371
 20
616.3053713471
 30
0.0
 11
205.8702230373
 21
616.3053713471
 31
0.0
  0
LINE
  5
327
330
321
100
AcDbEntity
  8
0
  6
CONTINUOUS
 62
     7
100
AcDbLine
 10
231.6772002371
 20
717.3053713471
 30
0.0
 11
205.8702230373
 21
717.3053713471
 31
0.0
  0
LINE
  5
328
330
321
100
AcDbEntity
  8
0
  6
CONTINUOUS
 62
     7
100
AcDbLine
 10
206.8702230373
 20
616.3053713471
 30
0.0
 11
206.8702230373
 21
717.3053713471
 31
0.0
  0
MTEXT
  5
329
330
321
100
AcDbEntity
  8
0
  6
CONTINUOUS
 62
     7
100
AcDbMText
 10
203.6475538625
 20
663.9407879517
 30
0.0
 40
2.5
 41
0.0
 71
     1
 72
     1
  1
101
  7
SLDTEXTSTYLE0
 11
-7.044195017643634E-15
 21
1.0
 31
0.0
  0
ENDBLK
  5
323
330
321
100
AcDbEntity
  8
0
100
AcDbBlockEnd
  0
BLOCK
  5
32C
330
32B
100
AcDbEntity
  8
0
100
AcDbBlockBegin
  2
_D_28
 70
     0
 10
0.0
 20
0.0
 30
0.0
  3
_D_28
  1

  0
SOLID
  5
32E
330
32B
100
AcDbEntity
  8
0
  6
CONTINUOUS
 62
     7
100
AcDbTrace
 10
240.6772002371
 20
720.2614284892
 30
0.0
 11
238.1772002371
 21
720.6460438738
 31
0.0
 12
238.1772002371
 22
719.8768131045
 32
0.0
 13
238.1772002371
 23
719.8768131045
 33
0.0
  0
SOLID
  5
32F
330
32B
100
AcDbEntity
  8
0
  6
CONTINUOUS
 62
     7
100
AcDbTrace
 10
228.6772002371
 20
720.2614284892
 30
0.0
 11
231.1772002371
 21
719.8768131045
 31
0.0
 12
231.1772002371
 22
720.6460438738
 32
0.0
 13
231.1772002371
 23
720.6460438738
 33
0.0
  0
LINE
  5
330
330
32B
100
AcDbEntity
  8
0
  6
CONTINUOUS
 62
     7
100
AcDbLine
 10
240.6772002371
 20
720.3053713471
 30
0.0
 11
240.6772002371
 21
719.2614284892
 31
0.0
  0
LINE
  5
331
330
32B
100
AcDbEntity
  8
0
  6
CONTINUOUS
 62
     7
100
AcDbLine
 10
228.6772002371
 20
720.3053713471
 30
0.0
 11
228.6772002371
 21
719.2614284892
 31
0.0
  0
LINE
  5
332
330
32B
100
AcDbEntity
  8
0
  6
CONTINUOUS
 62
     7
100
AcDbLine
 10
240.6772002371
 20
720.2614284892
 30
0.0
 11
228.6772002371
 21
720.2614284892
 31
0.0
  0
LINE
  5
333
330
32B
100
AcDbEntity
  8
0
  6
CONTINUOUS
 62
     7
100
AcDbLine
 10
228.6772002371
 20
720.2614284892
 30
0.0
 11
218.7964396822
 21
720.2614284892
 31
0.0
  0
MTEXT
  5
334
330
32B
100
AcDbEntity
  8
0
  6
CONTINUOUS
 62
     7
100
AcDbMText
 10
218.7964396822
 20
723.484097664
 30
0.0
 40
2.5
 41
0.0
 71
     1
 72
     1
  1
12
  7
SLDTEXTSTYLE0
  0
ENDBLK
  5
32D
330
32B
100
AcDbEntity
  8
0
100
AcDbBlockEnd
  0
BLOCK
  5
337
330
336
100
AcDbEntity
  8
0
100
AcDbBlockBegin
  2
_D_29
 70
     0
 10
0.0
 20
0.0
 30
0.0
  3
_D_29
  1

  0
SOLID
  5
339
330
336
100
AcDbEntity
  8
0
  6
CONTINUOUS
 62
     7
100
AcDbTrace
 10
240.6772002371
 20
110.2158107167
 30
0.0
 11
238.1772002371
 21
110.6004261013
 31
0.0
 12
238.1772002371
 22
109.8311953321
 32
0.0
 13
238.1772002371
 23
109.8311953321
 33
0.0
  0
SOLID
  5
33A
330
336
100
AcDbEntity
  8
0
  6
CONTINUOUS
 62
     7
100
AcDbTrace
 10
228.6772002371
 20
110.2158107167
 30
0.0
 11
231.1772002371
 21
109.8311953321
 31
0.0
 12
231.1772002371
 22
110.6004261013
 32
0.0
 13
231.1772002371
 23
110.6004261013
 33
0.0
  0
LINE
  5
33B
330
336
100
AcDbEntity
  8
0
  6
CONTINUOUS
 62
     7
100
AcDbLine
 10
240.6772002371
 20
109.3053713471
 30
0.0
 11
240.6772002371
 21
109.2158107167
 31
0.0
  0
LINE
  5
33C
330
336
100
AcDbEntity
  8
0
  6
CONTINUOUS
 62
     7
100
AcDbLine
 10
240.6772002371
 20
110.2158107167
 30
0.0
 11
228.6772002371
 21
110.2158107167
 31
0.0
  0
LINE
  5
33D
330
336
100
AcDbEntity
  8
0
  6
CONTINUOUS
 62
     7
100
AcDbLine
 10
228.6772002371
 20
110.2158107167
 30
0.0
 11
215.5573755449
 21
110.2158107167
 31
0.0
  0
MTEXT
  5
33E
330
336
100
AcDbEntity
  8
0
  6
CONTINUOUS
 62
     7
100
AcDbMText
 10
215.5573755449
 20
113.4384798915
 30
0.0
 40
2.5
 41
0.0
 71
     1
 72
     1
  1
12
  7
SLDTEXTSTYLE0
  0
ENDBLK
  5
338
330
336
100
AcDbEntity
  8
0
100
AcDbBlockEnd
  0
BLOCK
  5
341
330
340
100
AcDbEntity
  8
0
100
AcDbBlockBegin
  2
_D_30
 70
     0
 10
0.0
 20
0.0
 30
0.0
  3
_D_30
  1

  0
SOLID
  5
343
330
340
100
AcDbEntity
  8
0
  6
CONTINUOUS
 62
     7
100
AcDbTrace
 10
261.9945964323
 20
303.3053713471
 30
0.0
 11
261.6099810477
 21
300.8053713471
 31
0.0
 12
262.3792118169
 22
300.8053713471
 32
0.0
 13
262.3792118169
 23
300.8053713471
 33
0.0
  0
SOLID
  5
344
330
340
100
AcDbEntity
  8
0
  6
CONTINUOUS
 62
     7
100
AcDbTrace
 10
261.9945964323
 20
247.3053713471
 30
0.0
 11
262.3792118169
 21
249.8053713471
 31
0.0
 12
261.6099810477
 22
249.8053713471
 32
0.0
 13
261.6099810477
 23
249.8053713471
 33
0.0
  0
LINE
  5
345
330
340
100
AcDbEntity
  8
0
  6
CONTINUOUS
 62
     7
100
AcDbLine
 10
243.6772002371
 20
303.3053713471
 30
0.0
 11
262.9945964323
 21
303.3053713471
 31
0.0
  0
LINE
  5
346
330
340
100
AcDbEntity
  8
0
  6
CONTINUOUS
 62
     7
100
AcDbLine
 10
244.1405435223
 20
247.3053713471
 30
0.0
 11
262.9945964323
 21
247.3053713471
 31
0.0
  0
LINE
  5
347
330
340
100
AcDbEntity
  8
0
  6
CONTINUOUS
 62
     7
100
AcDbLine
 10
261.9945964323
 20
303.3053713471
 30
0.0
 11
261.9945964323
 21
247.3053713471
 31
0.0
  0
MTEXT
  5
348
330
340
100
AcDbEntity
  8
0
  6
CONTINUOUS
 62
     7
100
AcDbMText
 10
258.7719272575
 20
273.3956491223
 30
0.0
 40
2.5
 41
0.0
 71
     1
 72
     1
  1
56
  7
SLDTEXTSTYLE0
 11
-1.414962237524464E-14
 21
1.0
 31
0.0
  0
ENDBLK
  5
342
330
340
100
AcDbEntity
  8
0
100
AcDbBlockEnd
  0
BLOCK
  5
34B
330
34A
100
AcDbEntity
  8
0
100
AcDbBlockBegin
  2
_D_31
 70
     0
 10
0.0
 20
0.0
 30
0.0
  3
_D_31
  1

  0
SOLID
  5
34D
330
34A
100
AcDbEntity
  8
0
  6
CONTINUOUS
 62
     7
100
AcDbTrace
 10
206.612415883
 20
303.3053713471
 30
0.0
 11
206.2278004984
 21
300.8053713471
 31
0.0
 12
206.9970312677
 22
300.8053713471
 32
0.0
 13
206.9970312677
 23
300.8053713471
 33
0.0
  0
SOLID
  5
34E
330
34A
100
AcDbEntity
  8
0
  6
CONTINUOUS
 62
     7
100
AcDbTrace
 10
206.6124158831
 20
265.3053713471
 30
0.0
 11
206.9970312677
 21
267.8053713471
 31
0.0
 12
206.2278004984
 22
267.8053713471
 32
0.0
 13
206.2278004984
 23
267.8053713471
 33
0.0
  0
LINE
  5
34F
330
34A
100
AcDbEntity
  8
0
  6
CONTINUOUS
 62
     7
100
AcDbLine
 10
225.6772002371
 20
303.3053713471
 30
0.0
 11
205.612415883
 21
303.3053713471
 31
0.0
  0
LINE
  5
350
330
34A
100
AcDbEntity
  8
0
  6
CONTINUOUS
 62
     7
100
AcDbLine
 10
224.9772002371
 20
265.3053713471
 30
0.0
 11
205.6124158831
 21
265.3053713471
 31
0.0
  0
LINE
  5
351
330
34A
100
AcDbEntity
  8
0
  6
CONTINUOUS
 62
     7
100
AcDbLine
 10
206.612415883
 20
303.3053713471
 30
0.0
 11
206.6124158831
 21
265.3053713471
 31
0.0
  0
MTEXT
  5
352
330
34A
100
AcDbEntity
  8
0
  6
CONTINUOUS
 62
     7
100
AcDbMText
 10
203.3897467082
 20
282.3956491223
 30
0.0
 40
2.5
 41
0.0
 71
     1
 72
     1
  1
38
  7
SLDTEXTSTYLE0
 11
-3.990679654654827E-14
 21
1.0
 31
0.0
  0
ENDBLK
  5
34C
330
34A
100
AcDbEntity
  8
0
100
AcDbBlockEnd
  0
BLOCK
  5
355
330
354
100
AcDbEntity
  8
0
100
AcDbBlockBegin
  2
_D_32
 70
     0
 10
0.0
 20
0.0
 30
0.0
  3
_D_32
  1

  0
SOLID
  5
357
330
354
100
AcDbEntity
  8
0
  6
CONTINUOUS
 62
     7
100
AcDbTrace
 10
224.6772002371
 20
64.3053713471
 30
0.0
 11
227.1772002371
 21
63.9207559625
 31
0.0
 12
227.1772002371
 22
64.6899867317
 32
0.0
 13
227.1772002371
 23
64.6899867317
 33
0.0
  0
SOLID
  5
358
330
354
100
AcDbEntity
  8
0
  6
CONTINUOUS
 62
     7
100
AcDbTrace
 10
244.6772002371
 20
64.3053713471
 30
0.0
 11
242.1772002371
 21
64.6899867317
 31
0.0
 12
242.1772002371
 22
63.9207559625
 32
0.0
 13
242.1772002371
 23
63.9207559625
 33
0.0
  0
LINE
  5
359
330
354
100
AcDbEntity
  8
0
  6
CONTINUOUS
 62
     7
100
AcDbLine
 10
224.6772002371
 20
86.3053713471
 30
0.0
 11
224.6772002371
 21
63.3053713471
 31
0.0
  0
LINE
  5
35A
330
354
100
AcDbEntity
  8
0
  6
CONTINUOUS
 62
     7
100
AcDbLine
 10
244.6772002371
 20
86.3053713471
 30
0.0
 11
244.6772002371
 21
63.3053713471
 31
0.0
  0
LINE
  5
35B
330
354
100
AcDbEntity
  8
0
  6
CONTINUOUS
 62
     7
100
AcDbLine
 10
224.6772002371
 20
64.3053713471
 30
0.0
 11
244.6772002371
 21
64.3053713471
 31
0.0
  0
MTEXT
  5
35C
330
354
100
AcDbEntity
  8
0
  6
CONTINUOUS
 62
     7
100
AcDbMText
 10
232.7674780122
 20
67.5280405219
 30
0.0
 40
2.5
 41
0.0
 71
     1
 72
     1
  1
20
  7
SLDTEXTSTYLE0
  0
ENDBLK
  5
356
330
354
100
AcDbEntity
  8
0
100
AcDbBlockEnd
  0
BLOCK
  5
35F
330
35E
100
AcDbEntity
  8
0
100
AcDbBlockBegin
  2
_D_33
 70
     0
 10
0.0
 20
0.0
 30
0.0
  3
_D_33
  1

  0
SOLID
  5
361
330
35E
100
AcDbEntity
  8
0
  6
CONTINUOUS
 62
     7
100
AcDbTrace
 10
262.0424723277
 20
540.3053713471
 30
0.0
 11
262.4270877123
 21
542.8053713471
 31
0.0
 12
261.6578569431
 22
542.8053713471
 32
0.0
 13
261.6578569431
 23
542.8053713471
 33
0.0
  0
SOLID
  5
362
330
35E
100
AcDbEntity
  8
0
  6
CONTINUOUS
 62
     7
100
AcDbTrace
 10
262.0424723277
 20
598.3053713471
 30
0.0
 11
261.6578569431
 21
595.8053713471
 31
0.0
 12
262.4270877123
 22
595.8053713471
 32
0.0
 13
262.4270877123
 23
595.8053713471
 33
0.0
  0
LINE
  5
363
330
35E
100
AcDbEntity
  8
0
  6
CONTINUOUS
 62
     7
100
AcDbLine
 10
243.6772002371
 20
540.3053713471
 30
0.0
 11
263.0424723277
 21
540.3053713471
 31
0.0
  0
LINE
  5
364
330
35E
100
AcDbEntity
  8
0
  6
CONTINUOUS
 62
     7
100
AcDbLine
 10
244.1405435222
 20
598.3053713471
 30
0.0
 11
263.0424723277
 21
598.3053713471
 31
0.0
  0
LINE
  5
365
330
35E
100
AcDbEntity
  8
0
  6
CONTINUOUS
 62
     7
100
AcDbLine
 10
262.0424723277
 20
540.3053713471
 30
0.0
 11
262.0424723277
 21
598.3053713471
 31
0.0
  0
MTEXT
  5
366
330
35E
100
AcDbEntity
  8
0
  6
CONTINUOUS
 62
     7
100
AcDbMText
 10
258.8198031529
 20
567.3956491223
 30
0.0
 40
2.5
 41
0.0
 71
     1
 72
     1
  1
58
  7
SLDTEXTSTYLE0
 11
-7.044195017643634E-15
 21
1.0
 31
0.0
  0
ENDBLK
  5
360
330
35E
100
AcDbEntity
  8
0
100
AcDbBlockEnd
  0
BLOCK
  5
368
330
367
100
AcDbEntity
  8
0
100
AcDbBlockBegin
  2
SW_CENTERMARKSYMBOL_0
 70
     0
 10
0.0
 20
0.0
 30
0.0
  3
SW_CENTERMARKSYMBOL_0
  1

  0
LINE
  5
36A
330
367
100
AcDbEntity
  8
0
  6
CONTINUOUS
 62
     0
100
AcDbLine
 10
0.0
 20
0.0
 30
0.0
 11
0.0
 21
-2.5
 31
0.0
  0
LINE
  5
36B
330
367
100
AcDbEntity
  8
0
  6
CONTINUOUS
 62
     0
100
AcDbLine
 10
0.0
 20
0.0
 30
0.0
 11
2.5
 21
0.0
 31
0.0
  0
LINE
  5
36C
330
367
100
AcDbEntity
  8
0
  6
CONTINUOUS
 62
     0
100
AcDbLine
 10
0.0
 20
0.0
 30
0.0
 11
0.0
 21
2.5
 31
0.0
  0
LINE
  5
36D
330
367
100
AcDbEntity
  8
0
  6
CONTINUOUS
 62
     0
100
AcDbLine
 10
0.0
 20
0.0
 30
0.0
 11
-2.5
 21
0.0
 31
0.0
  0
LINE
  5
36E
330
367
100
AcDbEntity
  8
0
  6
CONTINUOUS
 62
     0
100
AcDbLine
 10
0.0
 20
-5.0
 30
0.0
 11
0.0
 21
-5.25
 31
0.0
  0
LINE
  5
36F
330
367
100
AcDbEntity
  8
0
  6
CONTINUOUS
 62
     0
100
AcDbLine
 10
5.0
 20
0.0
 30
0.0
 11
5.25
 21
0.0
 31
0.0
  0
LINE
  5
370
330
367
100
AcDbEntity
  8
0
  6
CONTINUOUS
 62
     0
100
AcDbLine
 10
0.0
 20
5.0
 30
0.0
 11
0.0
 21
5.25
 31
0.0
  0
LINE
  5
371
330
367
100
AcDbEntity
  8
0
  6
CONTINUOUS
 62
     0
100
AcDbLine
 10
-5.0
 20
0.0
 30
0.0
 11
-5.25
 21
0.0
 31
0.0
  0
ENDBLK
  5
369
330
367
100
AcDbEntity
  8
0
100
AcDbBlockEnd
  0
BLOCK
  5
374
330
373
100
AcDbEntity
  8
0
100
AcDbBlockBegin
  2
SW_CENTERMARKSYMBOL_1
 70
     0
 10
0.0
 20
0.0
 30
0.0
  3
SW_CENTERMARKSYMBOL_1
  1

  0
LINE
  5
376
330
373
100
AcDbEntity
  8
0
  6
CONTINUOUS
 62
     0
100
AcDbLine
 10
0.0
 20
0.0
 30
0.0
 11
0.0
 21
-2.5
 31
0.0
  0
LINE
  5
377
330
373
100
AcDbEntity
  8
0
  6
CONTINUOUS
 62
     0
100
AcDbLine
 10
0.0
 20
0.0
 30
0.0
 11
2.5
 21
0.0
 31
0.0
  0
LINE
  5
378
330
373
100
AcDbEntity
  8
0
  6
CONTINUOUS
 62
     0
100
AcDbLine
 10
0.0
 20
0.0
 30
0.0
 11
0.0
 21
2.5
 31
0.0
  0
LINE
  5
379
330
373
100
AcDbEntity
  8
0
  6
CONTINUOUS
 62
     0
100
AcDbLine
 10
0.0
 20
0.0
 30
0.0
 11
-2.5
 21
0.0
 31
0.0
  0
LINE
  5
37A
330
373
100
AcDbEntity
  8
0
  6
CONTINUOUS
 62
     0
100
AcDbLine
 10
0.0
 20
-5.0
 30
0.0
 11
0.0
 21
-6.5
 31
0.0
  0
LINE
  5
37B
330
373
100
AcDbEntity
  8
0
  6
CONTINUOUS
 62
     0
100
AcDbLine
 10
5.0
 20
0.0
 30
0.0
 11
6.5
 21
0.0
 31
0.0
  0
LINE
  5
37C
330
373
100
AcDbEntity
  8
0
  6
CONTINUOUS
 62
     0
100
AcDbLine
 10
0.0
 20
5.0
 30
0.0
 11
0.0
 21
6.5
 31
0.0
  0
LINE
  5
37D
330
373
100
AcDbEntity
  8
0
  6
CONTINUOUS
 62
     0
100
AcDbLine
 10
-5.0
 20
0.0
 30
0.0
 11
-6.5
 21
0.0
 31
0.0
  0
ENDBLK
  5
375
330
373
100
AcDbEntity
  8
0
100
AcDbBlockEnd
  0
BLOCK
  5
380
330
37F
100
AcDbEntity
  8
0
100
AcDbBlockBegin
  2
SW_CENTERMARKSYMBOL_2
 70
     0
 10
0.0
 20
0.0
 30
0.0
  3
SW_CENTERMARKSYMBOL_2
  1

  0
LINE
  5
382
330
37F
100
AcDbEntity
  8
0
  6
CONTINUOUS
 62
     0
100
AcDbLine
 10
0.0
 20
0.0
 30
0.0
 11
0.0
 21
-2.5
 31
0.0
  0
LINE
  5
383
330
37F
100
AcDbEntity
  8
0
  6
CONTINUOUS
 62
     0
100
AcDbLine
 10
0.0
 20
0.0
 30
0.0
 11
2.5
 21
0.0
 31
0.0
  0
LINE
  5
384
330
37F
100
AcDbEntity
  8
0
  6
CONTINUOUS
 62
     0
100
AcDbLine
 10
0.0
 20
0.0
 30
0.0
 11
0.0
 21
2.5
 31
0.0
  0
LINE
  5
385
330
37F
100
AcDbEntity
  8
0
  6
CONTINUOUS
 62
     0
100
AcDbLine
 10
0.0
 20
0.0
 30
0.0
 11
-2.5
 21
0.0
 31
0.0
  0
LINE
  5
386
330
37F
100
AcDbEntity
  8
0
  6
CONTINUOUS
 62
     0
100
AcDbLine
 10
0.0
 20
-5.0
 30
0.0
 11
0.0
 21
-5.1
 31
0.0
  0
LINE
  5
387
330
37F
100
AcDbEntity
  8
0
  6
CONTINUOUS
 62
     0
100
AcDbLine
 10
5.0
 20
0.0
 30
0.0
 11
5.1
 21
0.0
 31
0.0
  0
LINE
  5
388
330
37F
100
AcDbEntity
  8
0
  6
CONTINUOUS
 62
     0
100
AcDbLine
 10
0.0
 20
5.0
 30
0.0
 11
0.0
 21
5.1
 31
0.0
  0
LINE
  5
389
330
37F
100
AcDbEntity
  8
0
  6
CONTINUOUS
 62
     0
100
AcDbLine
 10
-5.0
 20
0.0
 30
0.0
 11
-5.1
 21
0.0
 31
0.0
  0
ENDBLK
  5
381
330
37F
100
AcDbEntity
  8
0
100
AcDbBlockEnd
  0
BLOCK
  5
38C
330
38B
100
AcDbEntity
  8
0
100
AcDbBlockBegin
  2
SW_CENTERMARKSYMBOL_3
 70
     0
 10
0.0
 20
0.0
 30
0.0
  3
SW_CENTERMARKSYMBOL_3
  1

  0
LINE
  5
38E
330
38B
100
AcDbEntity
  8
0
  6
CONTINUOUS
 62
     0
100
AcDbLine
 10
0.0
 20
0.0
 30
0.0
 11
0.0
 21
-2.5
 31
0.0
  0
LINE
  5
38F
330
38B
100
AcDbEntity
  8
0
  6
CONTINUOUS
 62
     0
100
AcDbLine
 10
0.0
 20
0.0
 30
0.0
 11
2.5
 21
0.0
 31
0.0
  0
LINE
  5
390
330
38B
100
AcDbEntity
  8
0
  6
CONTINUOUS
 62
     0
100
AcDbLine
 10
0.0
 20
0.0
 30
0.0
 11
0.0
 21
2.5
 31
0.0
  0
LINE
  5
391
330
38B
100
AcDbEntity
  8
0
  6
CONTINUOUS
 62
     0
100
AcDbLine
 10
0.0
 20
0.0
 30
0.0
 11
-2.5
 21
0.0
 31
0.0
  0
LINE
  5
392
330
38B
100
AcDbEntity
  8
0
  6
CONTINUOUS
 62
     0
100
AcDbLine
 10
0.0
 20
-5.0
 30
0.0
 11
0.0
 21
-5.1
 31
0.0
  0
LINE
  5
393
330
38B
100
AcDbEntity
  8
0
  6
CONTINUOUS
 62
     0
100
AcDbLine
 10
5.0
 20
0.0
 30
0.0
 11
5.1
 21
0.0
 31
0.0
  0
LINE
  5
394
330
38B
100
AcDbEntity
  8
0
  6
CONTINUOUS
 62
     0
100
AcDbLine
 10
0.0
 20
5.0
 30
0.0
 11
0.0
 21
5.1
 31
0.0
  0
LINE
  5
395
330
38B
100
AcDbEntity
  8
0
  6
CONTINUOUS
 62
     0
100
AcDbLine
 10
-5.0
 20
0.0
 30
0.0
 11
-5.1
 21
0.0
 31
0.0
  0
ENDBLK
  5
38D
330
38B
100
AcDbEntity
  8
0
100
AcDbBlockEnd
  0
BLOCK
  5
398
330
397
100
AcDbEntity
  8
0
100
AcDbBlockBegin
  2
SW_CENTERMARKSYMBOL_4
 70
     0
 10
0.0
 20
0.0
 30
0.0
  3
SW_CENTERMARKSYMBOL_4
  1

  0
LINE
  5
39A
330
397
100
AcDbEntity
  8
0
  6
CONTINUOUS
 62
     0
100
AcDbLine
 10
0.0
 20
0.0
 30
0.0
 11
0.0
 21
-2.5
 31
0.0
  0
LINE
  5
39B
330
397
100
AcDbEntity
  8
0
  6
CONTINUOUS
 62
     0
100
AcDbLine
 10
0.0
 20
0.0
 30
0.0
 11
2.5
 21
0.0
 31
0.0
  0
LINE
  5
39C
330
397
100
AcDbEntity
  8
0
  6
CONTINUOUS
 62
     0
100
AcDbLine
 10
0.0
 20
0.0
 30
0.0
 11
0.0
 21
2.5
 31
0.0
  0
LINE
  5
39D
330
397
100
AcDbEntity
  8
0
  6
CONTINUOUS
 62
     0
100
AcDbLine
 10
0.0
 20
0.0
 30
0.0
 11
-2.5
 21
0.0
 31
0.0
  0
LINE
  5
39E
330
397
100
AcDbEntity
  8
0
  6
CONTINUOUS
 62
     0
100
AcDbLine
 10
0.0
 20
-5.0
 30
0.0
 11
0.0
 21
-6.5
 31
0.0
  0
LINE
  5
39F
330
397
100
AcDbEntity
  8
0
  6
CONTINUOUS
 62
     0
100
AcDbLine
 10
5.0
 20
0.0
 30
0.0
 11
6.5
 21
0.0
 31
0.0
  0
LINE
  5
3A0
330
397
100
AcDbEntity
  8
0
  6
CONTINUOUS
 62
     0
100
AcDbLine
 10
0.0
 20
5.0
 30
0.0
 11
0.0
 21
6.5
 31
0.0
  0
LINE
  5
3A1
330
397
100
AcDbEntity
  8
0
  6
CONTINUOUS
 62
     0
100
AcDbLine
 10
-5.0
 20
0.0
 30
0.0
 11
-6.5
 21
0.0
 31
0.0
  0
ENDBLK
  5
399
330
397
100
AcDbEntity
  8
0
100
AcDbBlockEnd
  0
BLOCK
  5
3A4
330
3A3
100
AcDbEntity
  8
0
100
AcDbBlockBegin
  2
SW_CENTERMARKSYMBOL_5
 70
     0
 10
0.0
 20
0.0
 30
0.0
  3
SW_CENTERMARKSYMBOL_5
  1

  0
LINE
  5
3A6
330
3A3
100
AcDbEntity
  8
0
  6
CONTINUOUS
 62
     0
100
AcDbLine
 10
0.0
 20
0.0
 30
0.0
 11
0.0
 21
-2.5
 31
0.0
  0
LINE
  5
3A7
330
3A3
100
AcDbEntity
  8
0
  6
CONTINUOUS
 62
     0
100
AcDbLine
 10
0.0
 20
0.0
 30
0.0
 11
2.5
 21
0.0
 31
0.0
  0
LINE
  5
3A8
330
3A3
100
AcDbEntity
  8
0
  6
CONTINUOUS
 62
     0
100
AcDbLine
 10
0.0
 20
0.0
 30
0.0
 11
0.0
 21
2.5
 31
0.0
  0
LINE
  5
3A9
330
3A3
100
AcDbEntity
  8
0
  6
CONTINUOUS
 62
     0
100
AcDbLine
 10
0.0
 20
0.0
 30
0.0
 11
-2.5
 21
0.0
 31
0.0
  0
LINE
  5
3AA
330
3A3
100
AcDbEntity
  8
0
  6
CONTINUOUS
 62
     0
100
AcDbLine
 10
0.0
 20
-5.0
 30
0.0
 11
0.0
 21
-7.5
 31
0.0
  0
LINE
  5
3AB
330
3A3
100
AcDbEntity
  8
0
  6
CONTINUOUS
 62
     0
100
AcDbLine
 10
5.0
 20
0.0
 30
0.0
 11
7.5
 21
0.0
 31
0.0
  0
LINE
  5
3AC
330
3A3
100
AcDbEntity
  8
0
  6
CONTINUOUS
 62
     0
100
AcDbLine
 10
0.0
 20
5.0
 30
0.0
 11
0.0
 21
7.5
 31
0.0
  0
LINE
  5
3AD
330
3A3
100
AcDbEntity
  8
0
  6
CONTINUOUS
 62
     0
100
AcDbLine
 10
-5.0
 20
0.0
 30
0.0
 11
-7.5
 21
0.0
 31
0.0
  0
ENDBLK
  5
3A5
330
3A3
100
AcDbEntity
  8
0
100
AcDbBlockEnd
  0
BLOCK
  5
3B0
330
3AF
100
AcDbEntity
  8
0
100
AcDbBlockBegin
  2
SW_CENTERMARKSYMBOL_6
 70
     0
 10
0.0
 20
0.0
 30
0.0
  3
SW_CENTERMARKSYMBOL_6
  1

  0
LINE
  5
3B2
330
3AF
100
AcDbEntity
  8
0
  6
CONTINUOUS
 62
     0
100
AcDbLine
 10
0.0
 20
0.0
 30
0.0
 11
0.0
 21
-2.5
 31
0.0
  0
LINE
  5
3B3
330
3AF
100
AcDbEntity
  8
0
  6
CONTINUOUS
 62
     0
100
AcDbLine
 10
0.0
 20
0.0
 30
0.0
 11
2.5
 21
0.0
 31
0.0
  0
LINE
  5
3B4
330
3AF
100
AcDbEntity
  8
0
  6
CONTINUOUS
 62
     0
100
AcDbLine
 10
0.0
 20
0.0
 30
0.0
 11
0.0
 21
2.5
 31
0.0
  0
LINE
  5
3B5
330
3AF
100
AcDbEntity
  8
0
  6
CONTINUOUS
 62
     0
100
AcDbLine
 10
0.0
 20
0.0
 30
0.0
 11
-2.5
 21
0.0
 31
0.0
  0
LINE
  5
3B6
330
3AF
100
AcDbEntity
  8
0
  6
CONTINUOUS
 62
     0
100
AcDbLine
 10
0.0
 20
-5.0
 30
0.0
 11
0.0
 21
-5.25
 31
0.0
  0
LINE
  5
3B7
330
3AF
100
AcDbEntity
  8
0
  6
CONTINUOUS
 62
     0
100
AcDbLine
 10
5.0
 20
0.0
 30
0.0
 11
5.25
 21
0.0
 31
0.0
  0
LINE
  5
3B8
330
3AF
100
AcDbEntity
  8
0
  6
CONTINUOUS
 62
     0
100
AcDbLine
 10
0.0
 20
5.0
 30
0.0
 11
0.0
 21
5.25
 31
0.0
  0
LINE
  5
3B9
330
3AF
100
AcDbEntity
  8
0
  6
CONTINUOUS
 62
     0
100
AcDbLine
 10
-5.0
 20
0.0
 30
0.0
 11
-5.25
 21
0.0
 31
0.0
  0
ENDBLK
  5
3B1
330
3AF
100
AcDbEntity
  8
0
100
AcDbBlockEnd
  0
BLOCK
  5
3BC
330
3BB
100
AcDbEntity
  8
0
100
AcDbBlockBegin
  2
SW_CENTERMARKSYMBOL_7
 70
     0
 10
0.0
 20
0.0
 30
0.0
  3
SW_CENTERMARKSYMBOL_7
  1

  0
LINE
  5
3BE
330
3BB
100
AcDbEntity
  8
0
  6
CONTINUOUS
 62
     0
100
AcDbLine
 10
0.0
 20
0.0
 30
0.0
 11
0.0
 21
-2.5
 31
0.0
  0
LINE
  5
3BF
330
3BB
100
AcDbEntity
  8
0
  6
CONTINUOUS
 62
     0
100
AcDbLine
 10
0.0
 20
0.0
 30
0.0
 11
2.5
 21
0.0
 31
0.0
  0
LINE
  5
3C0
330
3BB
100
AcDbEntity
  8
0
  6
CONTINUOUS
 62
     0
100
AcDbLine
 10
0.0
 20
0.0
 30
0.0
 11
0.0
 21
2.5
 31
0.0
  0
LINE
  5
3C1
330
3BB
100
AcDbEntity
  8
0
  6
CONTINUOUS
 62
     0
100
AcDbLine
 10
0.0
 20
0.0
 30
0.0
 11
-2.5
 21
0.0
 31
0.0
  0
LINE
  5
3C2
330
3BB
100
AcDbEntity
  8
0
  6
CONTINUOUS
 62
     0
100
AcDbLine
 10
0.0
 20
-5.0
 30
0.0
 11
0.0
 21
-6.5
 31
0.0
  0
LINE
  5
3C3
330
3BB
100
AcDbEntity
  8
0
  6
CONTINUOUS
 62
     0
100
AcDbLine
 10
5.0
 20
0.0
 30
0.0
 11
6.5
 21
0.0
 31
0.0
  0
LINE
  5
3C4
330
3BB
100
AcDbEntity
  8
0
  6
CONTINUOUS
 62
     0
100
AcDbLine
 10
0.0
 20
5.0
 30
0.0
 11
0.0
 21
6.5
 31
0.0
  0
LINE
  5
3C5
330
3BB
100
AcDbEntity
  8
0
  6
CONTINUOUS
 62
     0
100
AcDbLine
 10
-5.0
 20
0.0
 30
0.0
 11
-6.5
 21
0.0
 31
0.0
  0
ENDBLK
  5
3BD
330
3BB
100
AcDbEntity
  8
0
100
AcDbBlockEnd
  0
BLOCK
  5
3C8
330
3C7
100
AcDbEntity
  8
0
100
AcDbBlockBegin
  2
SW_CENTERMARKSYMBOL_8
 70
     0
 10
0.0
 20
0.0
 30
0.0
  3
SW_CENTERMARKSYMBOL_8
  1

  0
LINE
  5
3CA
330
3C7
100
AcDbEntity
  8
0
  6
CONTINUOUS
 62
     0
100
AcDbLine
 10
0.0
 20
0.0
 30
0.0
 11
0.0
 21
-2.5
 31
0.0
  0
LINE
  5
3CB
330
3C7
100
AcDbEntity
  8
0
  6
CONTINUOUS
 62
     0
100
AcDbLine
 10
0.0
 20
0.0
 30
0.0
 11
2.5
 21
0.0
 31
0.0
  0
LINE
  5
3CC
330
3C7
100
AcDbEntity
  8
0
  6
CONTINUOUS
 62
     0
100
AcDbLine
 10
0.0
 20
0.0
 30
0.0
 11
0.0
 21
2.5
 31
0.0
  0
LINE
  5
3CD
330
3C7
100
AcDbEntity
  8
0
  6
CONTINUOUS
 62
     0
100
AcDbLine
 10
0.0
 20
0.0
 30
0.0
 11
-2.5
 21
0.0
 31
0.0
  0
LINE
  5
3CE
330
3C7
100
AcDbEntity
  8
0
  6
CONTINUOUS
 62
     0
100
AcDbLine
 10
0.0
 20
-5.0
 30
0.0
 11
0.0
 21
-5.25
 31
0.0
  0
LINE
  5
3CF
330
3C7
100
AcDbEntity
  8
0
  6
CONTINUOUS
 62
     0
100
AcDbLine
 10
5.0
 20
0.0
 30
0.0
 11
5.25
 21
0.0
 31
0.0
  0
LINE
  5
3D0
330
3C7
100
AcDbEntity
  8
0
  6
CONTINUOUS
 62
     0
100
AcDbLine
 10
0.0
 20
5.0
 30
0.0
 11
0.0
 21
5.25
 31
0.0
  0
LINE
  5
3D1
330
3C7
100
AcDbEntity
  8
0
  6
CONTINUOUS
 62
     0
100
AcDbLine
 10
-5.0
 20
0.0
 30
0.0
 11
-5.25
 21
0.0
 31
0.0
  0
ENDBLK
  5
3C9
330
3C7
100
AcDbEntity
  8
0
100
AcDbBlockEnd
  0
BLOCK
  5
3D4
330
3D3
100
AcDbEntity
  8
0
100
AcDbBlockBegin
  2
SW_CENTERMARKSYMBOL_9
 70
     0
 10
0.0
 20
0.0
 30
0.0
  3
SW_CENTERMARKSYMBOL_9
  1

  0
LINE
  5
3D6
330
3D3
100
AcDbEntity
  8
0
  6
CONTINUOUS
 62
     0
100
AcDbLine
 10
0.0
 20
0.0
 30
0.0
 11
0.0
 21
-2.5
 31
0.0
  0
LINE
  5
3D7
330
3D3
100
AcDbEntity
  8
0
  6
CONTINUOUS
 62
     0
100
AcDbLine
 10
0.0
 20
0.0
 30
0.0
 11
2.5
 21
0.0
 31
0.0
  0
LINE
  5
3D8
330
3D3
100
AcDbEntity
  8
0
  6
CONTINUOUS
 62
     0
100
AcDbLine
 10
0.0
 20
0.0
 30
0.0
 11
0.0
 21
2.5
 31
0.0
  0
LINE
  5
3D9
330
3D3
100
AcDbEntity
  8
0
  6
CONTINUOUS
 62
     0
100
AcDbLine
 10
0.0
 20
0.0
 30
0.0
 11
-2.5
 21
0.0
 31
0.0
  0
LINE
  5
3DA
330
3D3
100
AcDbEntity
  8
0
  6
CONTINUOUS
 62
     0
100
AcDbLine
 10
0.0
 20
-5.0
 30
0.0
 11
0.0
 21
-5.1
 31
0.0
  0
LINE
  5
3DB
330
3D3
100
AcDbEntity
  8
0
  6
CONTINUOUS
 62
     0
100
AcDbLine
 10
5.0
 20
0.0
 30
0.0
 11
5.1
 21
0.0
 31
0.0
  0
LINE
  5
3DC
330
3D3
100
AcDbEntity
  8
0
  6
CONTINUOUS
 62
     0
100
AcDbLine
 10
0.0
 20
5.0
 30
0.0
 11
0.0
 21
5.1
 31
0.0
  0
LINE
  5
3DD
330
3D3
100
AcDbEntity
  8
0
  6
CONTINUOUS
 62
     0
100
AcDbLine
 10
-5.0
 20
0.0
 30
0.0
 11
-5.1
 21
0.0
 31
0.0
  0
ENDBLK
  5
3D5
330
3D3
100
AcDbEntity
  8
0
100
AcDbBlockEnd
  0
BLOCK
  5
3E0
330
3DF
100
AcDbEntity
  8
0
100
AcDbBlockBegin
  2
SW_CENTERMARKSYMBOL_10
 70
     0
 10
0.0
 20
0.0
 30
0.0
  3
SW_CENTERMARKSYMBOL_10
  1

  0
LINE
  5
3E2
330
3DF
100
AcDbEntity
  8
0
  6
CONTINUOUS
 62
     0
100
AcDbLine
 10
0.0
 20
0.0
 30
0.0
 11
0.0
 21
-2.5
 31
0.0
  0
LINE
  5
3E3
330
3DF
100
AcDbEntity
  8
0
  6
CONTINUOUS
 62
     0
100
AcDbLine
 10
0.0
 20
0.0
 30
0.0
 11
2.5
 21
0.0
 31
0.0
  0
LINE
  5
3E4
330
3DF
100
AcDbEntity
  8
0
  6
CONTINUOUS
 62
     0
100
AcDbLine
 10
0.0
 20
0.0
 30
0.0
 11
0.0
 21
2.5
 31
0.0
  0
LINE
  5
3E5
330
3DF
100
AcDbEntity
  8
0
  6
CONTINUOUS
 62
     0
100
AcDbLine
 10
0.0
 20
0.0
 30
0.0
 11
-2.5
 21
0.0
 31
0.0
  0
LINE
  5
3E6
330
3DF
100
AcDbEntity
  8
0
  6
CONTINUOUS
 62
     0
100
AcDbLine
 10
0.0
 20
-5.0
 30
0.0
 11
0.0
 21
-5.1
 31
0.0
  0
LINE
  5
3E7
330
3DF
100
AcDbEntity
  8
0
  6
CONTINUOUS
 62
     0
100
AcDbLine
 10
5.0
 20
0.0
 30
0.0
 11
5.1
 21
0.0
 31
0.0
  0
LINE
  5
3E8
330
3DF
100
AcDbEntity
  8
0
  6
CONTINUOUS
 62
     0
100
AcDbLine
 10
0.0
 20
5.0
 30
0.0
 11
0.0
 21
5.1
 31
0.0
  0
LINE
  5
3E9
330
3DF
100
AcDbEntity
  8
0
  6
CONTINUOUS
 62
     0
100
AcDbLine
 10
-5.0
 20
0.0
 30
0.0
 11
-5.1
 21
0.0
 31
0.0
  0
ENDBLK
  5
3E1
330
3DF
100
AcDbEntity
  8
0
100
AcDbBlockEnd
  0
BLOCK
  5
3EC
330
3EB
100
AcDbEntity
  8
0
100
AcDbBlockBegin
  2
SW_CENTERMARKSYMBOL_11
 70
     0
 10
0.0
 20
0.0
 30
0.0
  3
SW_CENTERMARKSYMBOL_11
  1

  0
LINE
  5
3EE
330
3EB
100
AcDbEntity
  8
0
  6
CONTINUOUS
 62
     0
100
AcDbLine
 10
0.0
 20
0.0
 30
0.0
 11
0.0
 21
-2.5
 31
0.0
  0
LINE
  5
3EF
330
3EB
100
AcDbEntity
  8
0
  6
CONTINUOUS
 62
     0
100
AcDbLine
 10
0.0
 20
0.0
 30
0.0
 11
2.5
 21
0.0
 31
0.0
  0
LINE
  5
3F0
330
3EB
100
AcDbEntity
  8
0
  6
CONTINUOUS
 62
     0
100
AcDbLine
 10
0.0
 20
0.0
 30
0.0
 11
0.0
 21
2.5
 31
0.0
  0
LINE
  5
3F1
330
3EB
100
AcDbEntity
  8
0
  6
CONTINUOUS
 62
     0
100
AcDbLine
 10
0.0
 20
0.0
 30
0.0
 11
-2.5
 21
0.0
 31
0.0
  0
LINE
  5
3F2
330
3EB
100
AcDbEntity
  8
0
  6
CONTINUOUS
 62
     0
100
AcDbLine
 10
0.0
 20
-5.0
 30
0.0
 11
0.0
 21
-5.25
 31
0.0
  0
LINE
  5
3F3
330
3EB
100
AcDbEntity
  8
0
  6
CONTINUOUS
 62
     0
100
AcDbLine
 10
5.0
 20
0.0
 30
0.0
 11
5.25
 21
0.0
 31
0.0
  0
LINE
  5
3F4
330
3EB
100
AcDbEntity
  8
0
  6
CONTINUOUS
 62
     0
100
AcDbLine
 10
0.0
 20
5.0
 30
0.0
 11
0.0
 21
5.25
 31
0.0
  0
LINE
  5
3F5
330
3EB
100
AcDbEntity
  8
0
  6
CONTINUOUS
 62
     0
100
AcDbLine
 10
-5.0
 20
0.0
 30
0.0
 11
-5.25
 21
0.0
 31
0.0
  0
ENDBLK
  5
3ED
330
3EB
100
AcDbEntity
  8
0
100
AcDbBlockEnd
  0
BLOCK
  5
3F8
330
3F7
100
AcDbEntity
  8
0
100
AcDbBlockBegin
  2
SW_CENTERMARKSYMBOL_12
 70
     0
 10
0.0
 20
0.0
 30
0.0
  3
SW_CENTERMARKSYMBOL_12
  1

  0
LINE
  5
3FA
330
3F7
100
AcDbEntity
  8
0
  6
CONTINUOUS
 62
     0
100
AcDbLine
 10
0.0
 20
0.0
 30
0.0
 11
0.0
 21
-2.5
 31
0.0
  0
LINE
  5
3FB
330
3F7
100
AcDbEntity
  8
0
  6
CONTINUOUS
 62
     0
100
AcDbLine
 10
0.0
 20
0.0
 30
0.0
 11
2.5
 21
0.0
 31
0.0
  0
LINE
  5
3FC
330
3F7
100
AcDbEntity
  8
0
  6
CONTINUOUS
 62
     0
100
AcDbLine
 10
0.0
 20
0.0
 30
0.0
 11
0.0
 21
2.5
 31
0.0
  0
LINE
  5
3FD
330
3F7
100
AcDbEntity
  8
0
  6
CONTINUOUS
 62
     0
100
AcDbLine
 10
0.0
 20
0.0
 30
0.0
 11
-2.5
 21
0.0
 31
0.0
  0
LINE
  5
3FE
330
3F7
100
AcDbEntity
  8
0
  6
CONTINUOUS
 62
     0
100
AcDbLine
 10
0.0
 20
-5.0
 30
0.0
 11
0.0
 21
-6.5
 31
0.0
  0
LINE
  5
3FF
330
3F7
100
AcDbEntity
  8
0
  6
CONTINUOUS
 62
     0
100
AcDbLine
 10
5.0
 20
0.0
 30
0.0
 11
6.5
 21
0.0
 31
0.0
  0
LINE
  5
400
330
3F7
100
AcDbEntity
  8
0
  6
CONTINUOUS
 62
     0
100
AcDbLine
 10
0.0
 20
5.0
 30
0.0
 11
0.0
 21
6.5
 31
0.0
  0
LINE
  5
401
330
3F7
100
AcDbEntity
  8
0
  6
CONTINUOUS
 62
     0
100
AcDbLine
 10
-5.0
 20
0.0
 30
0.0
 11
-6.5
 21
0.0
 31
0.0
  0
ENDBLK
  5
3F9
330
3F7
100
AcDbEntity
  8
0
100
AcDbBlockEnd
  0
BLOCK
  5
4FF
330
4FE
100
AcDbEntity
  8
0
100
AcDbBlockBegin
  2
_D_34
 70
     0
 10
0.0
 20
0.0
 30
0.0
  3
_D_34
  1

  0
SOLID
  5
501
330
4FE
100
AcDbEntity
  8
0
  6
CONTINUOUS
 62
     7
100
AcDbTrace
 10
335.6253390853
 20
64.3053713471
 30
0.0
 11
338.1253390853
 21
63.9207559625
 31
0.0
 12
338.1253390853
 22
64.6899867317
 32
0.0
 13
338.1253390853
 23
64.6899867317
 33
0.0
  0
SOLID
  5
502
330
4FE
100
AcDbEntity
  8
0
  6
CONTINUOUS
 62
     7
100
AcDbTrace
 10
325.6253390853
 20
64.3053713471
 30
0.0
 11
323.1253390853
 21
64.6899867317
 31
0.0
 12
323.1253390853
 22
63.9207559625
 32
0.0
 13
323.1253390853
 23
63.9207559625
 33
0.0
  0
LINE
  5
503
330
4FE
100
AcDbEntity
  8
0
  6
CONTINUOUS
 62
     7
100
AcDbLine
 10
335.6253390853
 20
86.3053713471
 30
0.0
 11
335.6253390853
 21
63.3053713471
 31
0.0
  0
LINE
  5
504
330
4FE
100
AcDbEntity
  8
0
  6
CONTINUOUS
 62
     7
100
AcDbLine
 10
325.6253390853
 20
94.3053713471
 30
0.0
 11
325.6253390853
 21
63.3053713471
 31
0.0
  0
LINE
  5
505
330
4FE
100
AcDbEntity
  8
0
  6
CONTINUOUS
 62
     7
100
AcDbLine
 10
335.6253390853
 20
64.3053713471
 30
0.0
 11
340.433031393
 21
64.3053713471
 31
0.0
  0
LINE
  5
506
330
4FE
100
AcDbEntity
  8
0
  6
CONTINUOUS
 62
     7
100
AcDbLine
 10
335.6253390853
 20
64.3053713471
 30
0.0
 11
325.6253390853
 21
64.3053713471
 31
0.0
  0
LINE
  5
507
330
4FE
100
AcDbEntity
  8
0
  6
CONTINUOUS
 62
     7
100
AcDbLine
 10
325.6253390853
 20
64.3053713471
 30
0.0
 11
320.8176467776
 21
64.3053713471
 31
0.0
  0
MTEXT
  5
508
330
4FE
100
AcDbEntity
  8
0
  6
CONTINUOUS
 62
     7
100
AcDbMText
 10
328.7156168605
 20
67.5280405219
 30
0.0
 40
2.5
 41
0.0
 71
     1
 72
     1
  1
10
  7
SLDTEXTSTYLE0
  0
ENDBLK
  5
500
330
4FE
100
AcDbEntity
  8
0
100
AcDbBlockEnd
  0
BLOCK
  5
50C
330
50B
100
AcDbEntity
  8
0
100
AcDbBlockBegin
  2
_D_35
 70
     0
 10
0.0
 20
0.0
 30
0.0
  3
_D_35
  1

  0
SOLID
  5
50E
330
50B
100
AcDbEntity
  8
0
  6
CONTINUOUS
 62
     7
100
AcDbTrace
 10
327.6359149095
 20
89.0019009699
 30
0.0
 11
325.5092453171
 21
87.6325195624
 31
0.0
 12
326.0191943919
 22
87.0566133917
 32
0.0
 13
326.0191943919
 23
87.0566133917
 33
0.0
  0
LINE
  5
50F
330
50B
100
AcDbEntity
  8
0
  6
CONTINUOUS
 62
     7
100
AcDbLine
 10
327.6359149095
 20
89.0019009699
 30
0.0
 11
315.5735585432
 21
78.3210161654
 31
0.0
  0
MTEXT
  5
510
330
50B
100
AcDbEntity
  8
0
  6
CONTINUOUS
 62
     7
100
AcDbMText
 10
313.4419499114
 20
80.7283282394
 30
0.0
 40
2.5
 41
0.0
 71
     1
 72
     1
  1
R8
  7
SLDTEXTSTYLE0
 11
0.7486780219800016
 21
0.6629337971502979
 31
0.0
  0
ENDBLK
  5
50D
330
50B
100
AcDbEntity
  8
0
100
AcDbBlockEnd
  0
ENDSEC
  0
SECTION
  2
ENTITIES
  0
SPLINE
  5
74
330
1F
100
AcDbEntity
  8
0
  6
CONTINUOUS
 62
     7
100
AcDbSpline
210
0.0
220
0.0
230
1.0
 70
    24
 71
     3
 72
    11
 73
     7
 74
     0
 42
0.000000001
 43
0.00000001
 40
0.0
 40
0.0
 40
0.0
 40
0.0
 40
0.216453583106051
 40
0.4403074634257892
 40
0.7518975361093677
 40
1.0
 40
1.0
 40
1.0
 40
1.0
 10
236.0982027924987
 20
625.1303422122694
 30
0.0
 10
236.1785626005789
 20
625.2891356293349
 30
0.0
 10
236.3420296254692
 20
625.61215142641
 30
0.0
 10
236.6453819293217
 20
626.2115847756697
 30
0.0
 10
236.9707843218366
 20
626.8545897686273
 30
0.0
 10
237.1790231596455
 20
627.2660760253938
 30
0.0
 10
237.2713319995209
 20
627.4484810915499
 30
0.0
  0
SPLINE
  5
75
330
1F
100
AcDbEntity
  8
0
  6
CONTINUOUS
 62
     7
100
AcDbSpline
210
0.0
220
0.0
230
1.0
 70
    24
 71
     3
 72
    11
 73
     7
 74
     0
 42
0.000000001
 43
0.00000001
 40
0.0
 40
0.0
 40
0.0
 40
0.0
 40
0.1837187022601401
 40
0.5150010803463051
 40
0.8612273439506976
 40
1.0
 40
1.0
 40
1.0
 40
1.0
 10
237.2713319995209
 20
627.4484810915499
 30
0.0
 10
237.1891597802186
 20
627.5742563551988
 30
0.0
 10
236.9588142509147
 20
627.9268301316474
 30
0.0
 10
236.5304494084782
 20
628.5824982084365
 30
0.0
 10
236.1282689815071
 20
629.1980876335034
 30
0.0
 10
235.9121636303906
 20
629.528864966079
 30
0.0
 10
235.8503294440747
 20
629.6235102263927
 30
0.0
  0
SPLINE
  5
76
330
1F
100
AcDbEntity
  8
0
  6
CONTINUOUS
 62
     7
100
AcDbSpline
210
0.0
220
0.0
230
1.0
 70
    24
 71
     3
 72
    11
 73
     7
 74
     0
 42
0.000000001
 43
0.00000001
 40
0.0
 40
0.0
 40
0.0
 40
0.0
 40
0.2164535831060538
 40
0.4403074634257869
 40
0.7518975361093686
 40
1.0
 40
1.0
 40
1.0
 40
1.0
 10
235.8503294440747
 20
629.6235102263927
 30
0.0
 10
235.6726304069022
 20
629.6137071531007
 30
0.0
 10
235.3111570083663
 20
629.5937658507992
 30
0.0
 10
234.6403563481055
 20
629.556759977602
 30
0.0
 10
233.9207964931865
 20
629.5170642194935
 30
0.0
 10
233.4603195226142
 20
629.4916612147073
 30
0.0
 10
233.2561976816064
 20
629.4804004819551
 30
0.0
  0
SPLINE
  5
77
330
1F
100
AcDbEntity
  8
0
  6
CONTINUOUS
 62
     7
100
AcDbSpline
210
0.0
220
0.0
230
1.0
 70
    24
 71
     3
 72
    11
 73
     7
 74
     0
 42
0.000000001
 43
0.00000001
 40
0.0
 40
0.0
 40
0.0
 40
0.0
 40
0.2164535831060512
 40
0.4403074634257893
 40
0.7518975361093679
 40
0.9999999999999999
 40
0.9999999999999999
 40
0.9999999999999999
 40
0.9999999999999999
 10
233.2561976816064
 20
629.4804004819551
 30
0.0
 10
233.1758378735261
 20
629.3216070648897
 30
0.0
 10
233.0123708486358
 20
628.9985912678144
 30
0.0
 10
232.7090185447834
 20
628.3991579185548
 30
0.0
 10
232.3836161522685
 20
627.7561529255971
 30
0.0
 10
232.1753773144596
 20
627.3446666688308
 30
0.0
 10
232.0830684745842
 20
627.1622616026748
 30
0.0
  0
SPLINE
  5
78
330
1F
100
AcDbEntity
  8
0
  6
CONTINUOUS
 62
     7
100
AcDbSpline
210
0.0
220
0.0
230
1.0
 70
    24
 71
     3
 72
    11
 73
     7
 74
     0
 42
0.000000001
 43
0.00000001
 40
0.0
 40
0.0
 40
0.0
 40
0.0
 40
0.1387726560493103
 40
0.4849989196536945
 40
0.8162812977398595
 40
1.0
 40
1.0
 40
1.0
 40
1.0
 10
232.0830684745842
 20
627.1622616026748
 30
0.0
 10
232.1449026609002
 20
627.0676163423611
 30
0.0
 10
232.3610080120166
 20
626.7368390097855
 30
0.0
 10
232.7631884389878
 20
626.1212495847185
 30
0.0
 10
233.1915532814242
 20
625.4655815079294
 30
0.0
 10
233.4218988107281
 20
625.1130077314809
 30
0.0
 10
233.5040710300304
 20
624.9872324678319
 30
0.0
  0
SPLINE
  5
79
330
1F
100
AcDbEntity
  8
0
  6
CONTINUOUS
 62
     7
100
AcDbSpline
210
0.0
220
0.0
230
1.0
 70
    24
 71
     3
 72
    11
 73
     7
 74
     0
 42
0.000000001
 43
0.00000001
 40
0.0
 40
0.0
 40
0.0
 40
0.0
 40
0.2164535831060539
 40
0.4403074634257869
 40
0.7518975361093688
 40
1.0
 40
1.0
 40
1.0
 40
1.0
 10
233.5040710300304
 20
624.9872324678319
 30
0.0
 10
233.6817700672029
 20
624.9970355411239
 30
0.0
 10
234.0432434657388
 20
625.0169768434255
 30
0.0
 10
234.7140441259996
 20
625.0539827166225
 30
0.0
 10
235.4336039809185
 20
625.0936784747312
 30
0.0
 10
235.8940809514908
 20
625.1190814795174
 30
0.0
 10
236.0982027924987
 20
625.1303422122694
 30
0.0
  0
CIRCLE
  5
7A
330
1F
100
AcDbEntity
  8
0
  6
CONTINUOUS
 62
     7
100
AcDbCircle
 10
234.6772002371
 20
627.3053713471
 30
0.0
 40
2.600000000000026
  0
CIRCLE
  5
7B
330
1F
100
AcDbEntity
  8
0
  6
CONTINUOUS
 62
     7
100
AcDbCircle
 10
234.6772002371
 20
627.3053713471
 30
0.0
 40
4.649999999999973
  0
CIRCLE
  5
7C
330
1F
100
AcDbEntity
  8
0
  6
CONTINUOUS
 62
     7
100
AcDbCircle
 10
234.6772002371
 20
627.3053713471
 30
0.0
 40
2.200000000000006
  0
SPLINE
  5
7D
330
1F
100
AcDbEntity
  8
0
  6
CONTINUOUS
 62
     7
100
AcDbSpline
210
0.0
220
0.0
230
1.0
 70
    24
 71
     3
 72
    11
 73
     7
 74
     0
 42
0.000000001
 43
0.00000001
 40
0.0
 40
0.0
 40
0.0
 40
0.0
 40
0.216453583106051
 40
0.4403074634257891
 40
0.7518975361093677
 40
1.0
 40
1.0
 40
1.0
 40
1.0
 10
233.2561976816064
 20
218.4804004819553
 30
0.0
 10
233.1758378735261
 20
218.3216070648898
 30
0.0
 10
233.0123708486358
 20
217.9985912678146
 30
0.0
 10
232.7090185447834
 20
217.3991579185548
 30
0.0
 10
232.3836161522685
 20
216.7561529255973
 30
0.0
 10
232.1753773144596
 20
216.3446666688309
 30
0.0
 10
232.0830684745842
 20
216.1622616026748
 30
0.0
  0
SPLINE
  5
7E
330
1F
100
AcDbEntity
  8
0
  6
CONTINUOUS
 62
     7
100
AcDbSpline
210
0.0
220
0.0
230
1.0
 70
    24
 71
     3
 72
    11
 73
     7
 74
     0
 42
0.000000001
 43
0.00000001
 40
0.0
 40
0.0
 40
0.0
 40
0.0
 40
0.1837187022601404
 40
0.5150010803463052
 40
0.8612273439506976
 40
1.0
 40
1.0
 40
1.0
 40
1.0
 10
232.0830684745842
 20
216.1622616026748
 30
0.0
 10
232.1652406938865
 20
216.0364863390258
 30
0.0
 10
232.3955862231903
 20
215.6839125625772
 30
0.0
 10
232.8239510656268
 20
215.0282444857882
 30
0.0
 10
233.226131492598
 20
214.4126550607213
 30
0.0
 10
233.4422368437144
 20
214.0818777281455
 30
0.0
 10
233.5040710300304
 20
213.9872324678319
 30
0.0
  0
SPLINE
  5
7F
330
1F
100
AcDbEntity
  8
0
  6
CONTINUOUS
 62
     7
100
AcDbSpline
210
0.0
220
0.0
230
1.0
 70
    24
 71
     3
 72
    11
 73
     7
 74
     0
 42
0.000000001
 43
0.00000001
 40
0.0
 40
0.0
 40
0.0
 40
0.0
 40
0.2164535831060539
 40
0.440307463425787
 40
0.7518975361093686
 40
1.0
 40
1.0
 40
1.0
 40
1.0
 10
233.5040710300304
 20
213.9872324678319
 30
0.0
 10
233.6817700672029
 20
213.9970355411239
 30
0.0
 10
234.0432434657388
 20
214.0169768434255
 30
0.0
 10
234.7140441259996
 20
214.0539827166226
 30
0.0
 10
235.4336039809185
 20
214.0936784747312
 30
0.0
 10
235.8940809514908
 20
214.1190814795175
 30
0.0
 10
236.0982027924987
 20
214.1303422122695
 30
0.0
  0
SPLINE
  5
80
330
1F
100
AcDbEntity
  8
0
  6
CONTINUOUS
 62
     7
100
AcDbSpline
210
0.0
220
0.0
230
1.0
 70
    24
 71
     3
 72
    11
 73
     7
 74
     0
 42
0.000000001
 43
0.00000001
 40
0.0
 40
0.0
 40
0.0
 40
0.0
 40
0.2164535831060511
 40
0.4403074634257893
 40
0.7518975361093679
 40
0.9999999999999999
 40
0.9999999999999999
 40
0.9999999999999999
 40
0.9999999999999999
 10
236.0982027924987
 20
214.1303422122695
 30
0.0
 10
236.1785626005789
 20
214.2891356293349
 30
0.0
 10
236.3420296254692
 20
214.6121514264101
 30
0.0
 10
236.6453819293217
 20
215.2115847756698
 30
0.0
 10
236.9707843218366
 20
215.8545897686275
 30
0.0
 10
237.1790231596455
 20
216.2660760253938
 30
0.0
 10
237.2713319995209
 20
216.4484810915499
 30
0.0
  0
SPLINE
  5
81
330
1F
100
AcDbEntity
  8
0
  6
CONTINUOUS
 62
     7
100
AcDbSpline
210
0.0
220
0.0
230
1.0
 70
    24
 71
     3
 72
    11
 73
     7
 74
     0
 42
0.000000001
 43
0.00000001
 40
0.0
 40
0.0
 40
0.0
 40
0.0
 40
0.1387726560493102
 40
0.4849989196536943
 40
0.8162812977398594
 40
1.0
 40
1.0
 40
1.0
 40
1.0
 10
237.2713319995209
 20
216.4484810915499
 30
0.0
 10
237.2094978132049
 20
216.5431263518635
 30
0.0
 10
236.9933924620885
 20
216.8739036844391
 30
0.0
 10
236.5912120351173
 20
217.4894931095062
 30
0.0
 10
236.1628471926809
 20
218.1451611862951
 30
0.0
 10
235.932501663377
 20
218.4977349627437
 30
0.0
 10
235.8503294440747
 20
218.6235102263928
 30
0.0
  0
SPLINE
  5
82
330
1F
100
AcDbEntity
  8
0
  6
CONTINUOUS
 62
     7
100
AcDbSpline
210
0.0
220
0.0
230
1.0
 70
    24
 71
     3
 72
    11
 73
     7
 74
     0
 42
0.000000001
 43
0.00000001
 40
0.0
 40
0.0
 40
0.0
 40
0.0
 40
0.2164535831060539
 40
0.4403074634257869
 40
0.7518975361093687
 40
1.0
 40
1.0
 40
1.0
 40
1.0
 10
235.8503294440747
 20
218.6235102263928
 30
0.0
 10
235.6726304069022
 20
218.6137071531008
 30
0.0
 10
235.3111570083663
 20
218.5937658507993
 30
0.0
 10
234.6403563481055
 20
218.5567599776022
 30
0.0
 10
233.9207964931865
 20
218.5170642194935
 30
0.0
 10
233.4603195226142
 20
218.4916612147073
 30
0.0
 10
233.2561976816064
 20
218.4804004819553
 30
0.0
  0
CIRCLE
  5
83
330
1F
100
AcDbEntity
  8
0
  6
CONTINUOUS
 62
     7
100
AcDbCircle
 10
234.6772002371
 20
216.3053713471
 30
0.0
 40
2.600000000000034
  0
CIRCLE
  5
84
330
1F
100
AcDbEntity
  8
0
  6
CONTINUOUS
 62
     7
100
AcDbCircle
 10
234.6772002371
 20
216.3053713471
 30
0.0
 40
4.650000000000028
  0
CIRCLE
  5
85
330
1F
100
AcDbEntity
  8
0
  6
CONTINUOUS
 62
     7
100
AcDbCircle
 10
234.6772002371
 20
216.3053713471
 30
0.0
 40
2.199999999999984
  0
SPLINE
  5
86
330
1F
100
AcDbEntity
  8
0
  6
CONTINUOUS
 62
     7
100
AcDbSpline
210
0.0
220
0.0
230
1.0
 70
    24
 71
     3
 72
    11
 73
     7
 74
     0
 42
0.000000001
 43
0.00000001
 40
0.0
 40
0.0
 40
0.0
 40
0.0
 40
0.216453583106051
 40
0.4403074634257892
 40
0.7518975361093677
 40
1.0
 40
1.0
 40
1.0
 40
1.0
 10
236.0982027924987
 20
565.1303422122694
 30
0.0
 10
236.1785626005789
 20
565.2891356293349
 30
0.0
 10
236.3420296254692
 20
565.61215142641
 30
0.0
 10
236.6453819293217
 20
566.2115847756698
 30
0.0
 10
236.9707843218366
 20
566.8545897686273
 30
0.0
 10
237.1790231596455
 20
567.2660760253938
 30
0.0
 10
237.2713319995209
 20
567.4484810915499
 30
0.0
  0
SPLINE
  5
87
330
1F
100
AcDbEntity
  8
0
  6
CONTINUOUS
 62
     7
100
AcDbSpline
210
0.0
220
0.0
230
1.0
 70
    24
 71
     3
 72
    11
 73
     7
 74
     0
 42
0.000000001
 43
0.00000001
 40
0.0
 40
0.0
 40
0.0
 40
0.0
 40
0.1837187022601401
 40
0.5150010803463051
 40
0.8612273439506976
 40
1.0
 40
1.0
 40
1.0
 40
1.0
 10
237.2713319995209
 20
567.4484810915498
 30
0.0
 10
237.1891597802186
 20
567.5742563551987
 30
0.0
 10
236.9588142509147
 20
567.9268301316473
 30
0.0
 10
236.5304494084782
 20
568.5824982084365
 30
0.0
 10
236.1282689815071
 20
569.1980876335034
 30
0.0
 10
235.9121636303906
 20
569.5288649660791
 30
0.0
 10
235.8503294440747
 20
569.6235102263927
 30
0.0
  0
SPLINE
  5
88
330
1F
100
AcDbEntity
  8
0
  6
CONTINUOUS
 62
     7
100
AcDbSpline
210
0.0
220
0.0
230
1.0
 70
    24
 71
     3
 72
    11
 73
     7
 74
     0
 42
0.000000001
 43
0.00000001
 40
0.0
 40
0.0
 40
0.0
 40
0.0
 40
0.2164535831060538
 40
0.4403074634257869
 40
0.7518975361093686
 40
1.0
 40
1.0
 40
1.0
 40
1.0
 10
235.8503294440747
 20
569.6235102263927
 30
0.0
 10
235.6726304069022
 20
569.6137071531007
 30
0.0
 10
235.3111570083663
 20
569.5937658507993
 30
0.0
 10
234.6403563481055
 20
569.556759977602
 30
0.0
 10
233.9207964931865
 20
569.5170642194935
 30
0.0
 10
233.4603195226142
 20
569.4916612147072
 30
0.0
 10
233.2561976816064
 20
569.4804004819551
 30
0.0
  0
SPLINE
  5
89
330
1F
100
AcDbEntity
  8
0
  6
CONTINUOUS
 62
     7
100
AcDbSpline
210
0.0
220
0.0
230
1.0
 70
    24
 71
     3
 72
    11
 73
     7
 74
     0
 42
0.000000001
 43
0.00000001
 40
0.0
 40
0.0
 40
0.0
 40
0.0
 40
0.2164535831060512
 40
0.4403074634257893
 40
0.7518975361093679
 40
0.9999999999999999
 40
0.9999999999999999
 40
0.9999999999999999
 40
0.9999999999999999
 10
233.2561976816064
 20
569.4804004819551
 30
0.0
 10
233.1758378735261
 20
569.3216070648898
 30
0.0
 10
233.0123708486358
 20
568.9985912678145
 30
0.0
 10
232.7090185447834
 20
568.3991579185549
 30
0.0
 10
232.3836161522685
 20
567.7561529255972
 30
0.0
 10
232.1753773144596
 20
567.3446666688309
 30
0.0
 10
232.0830684745842
 20
567.1622616026748
 30
0.0
  0
SPLINE
  5
8A
330
1F
100
AcDbEntity
  8
0
  6
CONTINUOUS
 62
     7
100
AcDbSpline
210
0.0
220
0.0
230
1.0
 70
    24
 71
     3
 72
    11
 73
     7
 74
     0
 42
0.000000001
 43
0.00000001
 40
0.0
 40
0.0
 40
0.0
 40
0.0
 40
0.1387726560493103
 40
0.4849989196536945
 40
0.8162812977398595
 40
1.0
 40
1.0
 40
1.0
 40
1.0
 10
232.0830684745842
 20
567.1622616026748
 30
0.0
 10
232.1449026609002
 20
567.0676163423611
 30
0.0
 10
232.3610080120166
 20
566.7368390097855
 30
0.0
 10
232.7631884389878
 20
566.1212495847185
 30
0.0
 10
233.1915532814242
 20
565.4655815079295
 30
0.0
 10
233.4218988107281
 20
565.1130077314808
 30
0.0
 10
233.5040710300304
 20
564.9872324678319
 30
0.0
  0
SPLINE
  5
8B
330
1F
100
AcDbEntity
  8
0
  6
CONTINUOUS
 62
     7
100
AcDbSpline
210
0.0
220
0.0
230
1.0
 70
    24
 71
     3
 72
    11
 73
     7
 74
     0
 42
0.000000001
 43
0.00000001
 40
0.0
 40
0.0
 40
0.0
 40
0.0
 40
0.2164535831060539
 40
0.4403074634257869
 40
0.7518975361093688
 40
1.0
 40
1.0
 40
1.0
 40
1.0
 10
233.5040710300304
 20
564.9872324678319
 30
0.0
 10
233.6817700672029
 20
564.9970355411239
 30
0.0
 10
234.0432434657388
 20
565.0169768434255
 30
0.0
 10
234.7140441259996
 20
565.0539827166224
 30
0.0
 10
235.4336039809185
 20
565.0936784747312
 30
0.0
 10
235.8940809514908
 20
565.1190814795173
 30
0.0
 10
236.0982027924987
 20
565.1303422122693
 30
0.0
  0
CIRCLE
  5
8C
330
1F
100
AcDbEntity
  8
0
  6
CONTINUOUS
 62
     7
100
AcDbCircle
 10
234.6772002371
 20
567.3053713471
 30
0.0
 40
2.600000000000026
  0
CIRCLE
  5
8D
330
1F
100
AcDbEntity
  8
0
  6
CONTINUOUS
 62
     7
100
AcDbCircle
 10
234.6772002371
 20
567.3053713471
 30
0.0
 40
4.650000000000035
  0
CIRCLE
  5
8E
330
1F
100
AcDbEntity
  8
0
  6
CONTINUOUS
 62
     7
100
AcDbCircle
 10
234.6772002371
 20
567.3053713471
 30
0.0
 40
2.200000000000006
  0
SPLINE
  5
8F
330
1F
100
AcDbEntity
  8
0
  6
CONTINUOUS
 62
     7
100
AcDbSpline
210
0.0
220
0.0
230
1.0
 70
    24
 71
     3
 72
    11
 73
     7
 74
     0
 42
0.000000001
 43
0.00000001
 40
0.0
 40
0.0
 40
0.0
 40
0.0
 40
0.216453583106051
 40
0.4403074634257891
 40
0.7518975361093677
 40
1.0
 40
1.0
 40
1.0
 40
1.0
 10
233.2561976816064
 20
278.4804004819563
 30
0.0
 10
233.1758378735261
 20
278.3216070648909
 30
0.0
 10
233.0123708486358
 20
277.9985912678158
 30
0.0
 10
232.7090185447834
 20
277.3991579185559
 30
0.0
 10
232.3836161522685
 20
276.7561529255984
 30
0.0
 10
232.1753773144596
 20
276.344666668832
 30
0.0
 10
232.0830684745842
 20
276.1622616026759
 30
0.0
  0
SPLINE
  5
90
330
1F
100
AcDbEntity
  8
0
  6
CONTINUOUS
 62
     7
100
AcDbSpline
210
0.0
220
0.0
230
1.0
 70
    24
 71
     3
 72
    11
 73
     7
 74
     0
 42
0.000000001
 43
0.00000001
 40
0.0
 40
0.0
 40
0.0
 40
0.0
 40
0.1837187022601404
 40
0.5150010803463052
 40
0.8612273439506976
 40
1.0
 40
1.0
 40
1.0
 40
1.0
 10
232.0830684745842
 20
276.1622616026759
 30
0.0
 10
232.1652406938865
 20
276.0364863390269
 30
0.0
 10
232.3955862231903
 20
275.6839125625784
 30
0.0
 10
232.8239510656268
 20
275.0282444857893
 30
0.0
 10
233.226131492598
 20
274.4126550607223
 30
0.0
 10
233.4422368437144
 20
274.0818777281467
 30
0.0
 10
233.5040710300304
 20
273.987232467833
 30
0.0
  0
SPLINE
  5
91
330
1F
100
AcDbEntity
  8
0
  6
CONTINUOUS
 62
     7
100
AcDbSpline
210
0.0
220
0.0
230
1.0
 70
    24
 71
     3
 72
    11
 73
     7
 74
     0
 42
0.000000001
 43
0.00000001
 40
0.0
 40
0.0
 40
0.0
 40
0.0
 40
0.2164535831060539
 40
0.440307463425787
 40
0.7518975361093686
 40
1.0
 40
1.0
 40
1.0
 40
1.0
 10
233.5040710300304
 20
273.9872324678329
 30
0.0
 10
233.6817700672029
 20
273.997035541125
 30
0.0
 10
234.0432434657388
 20
274.0169768434265
 30
0.0
 10
234.7140441259996
 20
274.0539827166236
 30
0.0
 10
235.4336039809185
 20
274.0936784747323
 30
0.0
 10
235.8940809514908
 20
274.1190814795185
 30
0.0
 10
236.0982027924987
 20
274.1303422122705
 30
0.0
  0
SPLINE
  5
92
330
1F
100
AcDbEntity
  8
0
  6
CONTINUOUS
 62
     7
100
AcDbSpline
210
0.0
220
0.0
230
1.0
 70
    24
 71
     3
 72
    11
 73
     7
 74
     0
 42
0.000000001
 43
0.00000001
 40
0.0
 40
0.0
 40
0.0
 40
0.0
 40
0.2164535831060511
 40
0.4403074634257893
 40
0.7518975361093679
 40
0.9999999999999999
 40
0.9999999999999999
 40
0.9999999999999999
 40
0.9999999999999999
 10
236.0982027924987
 20
274.1303422122705
 30
0.0
 10
236.1785626005789
 20
274.2891356293359
 30
0.0
 10
236.3420296254692
 20
274.6121514264112
 30
0.0
 10
236.6453819293217
 20
275.2115847756709
 30
0.0
 10
236.9707843218366
 20
275.8545897686286
 30
0.0
 10
237.1790231596455
 20
276.2660760253949
 30
0.0
 10
237.2713319995209
 20
276.4484810915509
 30
0.0
  0
SPLINE
  5
93
330
1F
100
AcDbEntity
  8
0
  6
CONTINUOUS
 62
     7
100
AcDbSpline
210
0.0
220
0.0
230
1.0
 70
    24
 71
     3
 72
    11
 73
     7
 74
     0
 42
0.000000001
 43
0.00000001
 40
0.0
 40
0.0
 40
0.0
 40
0.0
 40
0.1387726560493102
 40
0.4849989196536943
 40
0.8162812977398594
 40
1.0
 40
1.0
 40
1.0
 40
1.0
 10
237.2713319995209
 20
276.4484810915509
 30
0.0
 10
237.2094978132049
 20
276.5431263518645
 30
0.0
 10
236.9933924620885
 20
276.8739036844402
 30
0.0
 10
236.5912120351173
 20
277.4894931095074
 30
0.0
 10
236.1628471926809
 20
278.1451611862962
 30
0.0
 10
235.932501663377
 20
278.4977349627449
 30
0.0
 10
235.8503294440747
 20
278.6235102263939
 30
0.0
  0
SPLINE
  5
94
330
1F
100
AcDbEntity
  8
0
  6
CONTINUOUS
 62
     7
100
AcDbSpline
210
0.0
220
0.0
230
1.0
 70
    24
 71
     3
 72
    11
 73
     7
 74
     0
 42
0.000000001
 43
0.00000001
 40
0.0
 40
0.0
 40
0.0
 40
0.0
 40
0.2164535831060539
 40
0.4403074634257869
 40
0.7518975361093687
 40
1.0
 40
1.0
 40
1.0
 40
1.0
 10
235.8503294440747
 20
278.6235102263939
 30
0.0
 10
235.6726304069022
 20
278.6137071531019
 30
0.0
 10
235.3111570083663
 20
278.5937658508003
 30
0.0
 10
234.6403563481055
 20
278.5567599776032
 30
0.0
 10
233.9207964931865
 20
278.5170642194946
 30
0.0
 10
233.4603195226142
 20
278.4916612147084
 30
0.0
 10
233.2561976816064
 20
278.4804004819563
 30
0.0
  0
CIRCLE
  5
95
330
1F
100
AcDbEntity
  8
0
  6
CONTINUOUS
 62
     7
100
AcDbCircle
 10
234.6772002371
 20
276.3053713471
 30
0.0
 40
2.600000000000019
  0
CIRCLE
  5
96
330
1F
100
AcDbEntity
  8
0
  6
CONTINUOUS
 62
     7
100
AcDbCircle
 10
234.6772002371
 20
276.3053713471
 30
0.0
 40
4.650000000000059
  0
CIRCLE
  5
97
330
1F
100
AcDbEntity
  8
0
  6
CONTINUOUS
 62
     7
100
AcDbCircle
 10
234.6772002371
 20
276.3053713471
 30
0.0
 40
2.20000000000003
  0
LINE
  5
98
330
1F
100
AcDbEntity
  8
0
  6
CONTINUOUS
 62
     7
100
AcDbLine
 10
244.3772002371
 20
265.3053713471
 30
0.0
 11
243.6772002371
 21
265.3053713471
 31
0.0
  0
ARC
  5
99
330
1F
100
AcDbEntity
  8
0
  6
CONTINUOUS
 62
     7
100
AcDbCircle
 10
244.3772002371
 20
265.6053713471
 30
0.0
 40
0.3000000000000114
100
AcDbArc
 50
270.0
 51
0.0
  0
LINE
  5
9A
330
1F
100
AcDbEntity
  8
0
  6
CONTINUOUS
 62
     7
100
AcDbLine
 10
244.6772002371
 20
247.0053713471
 30
0.0
 11
244.6772002371
 21
222.6053713471
 31
0.0
  0
LINE
  5
9B
330
1F
100
AcDbEntity
  8
0
  6
CONTINUOUS
 62
     7
100
AcDbLine
 10
225.6772002371
 20
270.3053713471
 30
0.0
 11
243.6772002371
 21
270.3053713471
 31
0.0
  0
LINE
  5
9C
330
1F
100
AcDbEntity
  8
0
  6
CONTINUOUS
 62
     7
100
AcDbLine
 10
244.6772002371
 20
270.0053713471
 30
0.0
 11
244.6772002371
 21
265.6053713471
 31
0.0
  0
ARC
  5
9D
330
1F
100
AcDbEntity
  8
0
  6
CONTINUOUS
 62
     7
100
AcDbCircle
 10
244.3772002371
 20
222.6053713471
 30
0.0
 40
0.3000000000000398
100
AcDbArc
 50
270.0
 51
0.0
  0
LINE
  5
9E
330
1F
100
AcDbEntity
  8
0
  6
CONTINUOUS
 62
     7
100
AcDbLine
 10
244.3772002371
 20
222.3053713471
 30
0.0
 11
243.6772002371
 21
222.3053713471
 31
0.0
  0
LINE
  5
9F
330
1F
100
AcDbEntity
  8
0
  6
CONTINUOUS
 62
     7
100
AcDbLine
 10
243.6772002371
 20
222.3053713471
 30
0.0
 11
225.6772002371
 21
222.3053713471
 31
0.0
  0
ARC
  5
A0
330
1F
100
AcDbEntity
  8
0
  6
CONTINUOUS
 62
     7
100
AcDbCircle
 10
244.1405435223
 20
246.3053713471
 30
0.0
 40
1.000000000000055
100
AcDbArc
 50
131.4463897514
 51
140.9012077774
  0
ARC
  5
A1
330
1F
100
AcDbEntity
  8
0
  6
CONTINUOUS
 62
     7
100
AcDbCircle
 10
237.6772002371
 20
228.3053713471
 30
0.0
 40
3.0
100
AcDbArc
 50
270.0
 51
0.0
  0
LINE
  5
A2
330
1F
100
AcDbEntity
  8
0
  6
CONTINUOUS
 62
     7
100
AcDbLine
 10
240.6772002371
 20
228.3053713471
 30
0.0
 11
240.6772002371
 21
239.3681174139
 31
0.0
  0
LINE
  5
A3
330
1F
100
AcDbEntity
  8
0
  6
CONTINUOUS
 62
     7
100
AcDbLine
 10
243.6772002371
 20
270.3053713471
 30
0.0
 11
244.3772002371
 21
270.3053713471
 31
0.0
  0
ARC
  5
A4
330
1F
100
AcDbEntity
  8
0
  6
CONTINUOUS
 62
     7
100
AcDbCircle
 10
244.3772002371
 20
270.0053713471
 30
0.0
 40
0.3000000000000114
100
AcDbArc
 50
0.0
 51
90.0
  0
LINE
  5
A5
330
1F
100
AcDbEntity
  8
0
  6
CONTINUOUS
 62
     7
100
AcDbLine
 10
243.6772002371
 20
265.3053713471
 30
0.0
 11
225.6772002371
 21
265.3053713471
 31
0.0
  0
SPLINE
  5
A6
330
1F
100
AcDbEntity
  8
0
  6
CONTINUOUS
 62
     7
100
AcDbSpline
210
0.0
220
0.0
230
1.0
 70
     8
 71
     3
 72
    10
 73
     6
 74
     0
 42
0.000000001
 43
0.00000001
 40
0.0
 40
0.0
 40
0.0
 40
0.0
 40
0.3482391767282336
 40
0.6890083969431897
 40
1.0
 40
1.0
 40
1.0
 40
1.0
 10
243.4786245433972
 20
247.0549467372096
 30
0.0
 10
243.548575963671
 20
247.1077150775733
 30
0.0
 10
243.686978300822
 20
247.2121198431284
 30
0.0
 10
243.9263003929049
 20
247.2926428610077
 30
0.0
 10
244.0713379690708
 20
247.3012597477151
 30
0.0
 10
244.1405435222504
 20
247.3053713471159
 30
0.0
  0
ARC
  5
A7
330
1F
100
AcDbEntity
  8
0
  6
CONTINUOUS
 62
     7
100
AcDbCircle
 10
252.6772002371
 20
239.3681174139
 30
0.0
 40
12.00000000000001
100
AcDbArc
 50
140.9012077774
 51
180.0
  0
ARC
  5
A8
330
1F
100
AcDbEntity
  8
0
  6
CONTINUOUS
 62
     7
100
AcDbCircle
 10
231.6772002371
 20
228.3053713471
 30
0.0
 40
3.0
100
AcDbArc
 50
180.0
 51
270.0
  0
LINE
  5
A9
330
1F
100
AcDbEntity
  8
0
  6
CONTINUOUS
 62
     7
100
AcDbLine
 10
231.6772002371
 20
225.3053713471
 30
0.0
 11
237.6772002371
 21
225.3053713471
 31
0.0
  0
LINE
  5
AA
330
1F
100
AcDbEntity
  8
0
  6
CONTINUOUS
 62
     7
100
AcDbLine
 10
224.6772002371
 20
222.6053713471
 30
0.0
 11
224.6772002371
 21
247.0053713471
 31
0.0
  0
LINE
  5
AB
330
1F
100
AcDbEntity
  8
0
  6
CONTINUOUS
 62
     7
100
AcDbLine
 10
224.6772002371
 20
265.6053713471
 30
0.0
 11
224.6772002371
 21
270.0053713471
 31
0.0
  0
LINE
  5
AC
330
1F
100
AcDbEntity
  8
0
  6
CONTINUOUS
 62
     7
100
AcDbLine
 10
225.6772002371
 20
265.3053713471
 30
0.0
 11
224.9772002371
 21
265.3053713471
 31
0.0
  0
ARC
  5
AD
330
1F
100
AcDbEntity
  8
0
  6
CONTINUOUS
 62
     7
100
AcDbCircle
 10
224.9772002371
 20
265.6053713471
 30
0.0
 40
0.3000000000000114
100
AcDbArc
 50
180.0
 51
270.0
  0
ARC
  5
AE
330
1F
100
AcDbEntity
  8
0
  6
CONTINUOUS
 62
     7
100
AcDbCircle
 10
216.6772002371
 20
239.3681174139
 30
0.0
 40
12.00000000000002
100
AcDbArc
 50
0.0
 51
39.0987922226
  0
LINE
  5
AF
330
1F
100
AcDbEntity
  8
0
  6
CONTINUOUS
 62
     7
100
AcDbLine
 10
225.6772002371
 20
222.3053713471
 30
0.0
 11
224.9772002371
 21
222.3053713471
 31
0.0
  0
ARC
  5
B0
330
1F
100
AcDbEntity
  8
0
  6
CONTINUOUS
 62
     7
100
AcDbCircle
 10
224.9772002371
 20
222.6053713471
 30
0.0
 40
0.2999999999999829
100
AcDbArc
 50
180.0
 51
270.0
  0
LINE
  5
B1
330
1F
100
AcDbEntity
  8
0
  6
CONTINUOUS
 62
     7
100
AcDbLine
 10
224.9772002371
 20
270.3053713471
 30
0.0
 11
225.6772002371
 21
270.3053713471
 31
0.0
  0
ARC
  5
B2
330
1F
100
AcDbEntity
  8
0
  6
CONTINUOUS
 62
     7
100
AcDbCircle
 10
224.9772002371
 20
270.0053713471
 30
0.0
 40
0.3000000000000114
100
AcDbArc
 50
90.0
 51
180.0
  0
ARC
  5
B3
330
1F
100
AcDbEntity
  8
0
  6
CONTINUOUS
 62
     7
100
AcDbCircle
 10
225.2138569519
 20
246.3053713471
 30
0.0
 40
1.000000000000011
100
AcDbArc
 50
39.0987922226
 51
48.55361024859999
  0
LINE
  5
B4
330
1F
100
AcDbEntity
  8
0
  6
CONTINUOUS
 62
     7
100
AcDbLine
 10
228.6772002371
 20
239.3681174139
 30
0.0
 11
228.6772002371
 21
228.3053713471
 31
0.0
  0
SPLINE
  5
B5
330
1F
100
AcDbEntity
  8
0
  6
CONTINUOUS
 62
     7
100
AcDbSpline
210
0.0
220
0.0
230
1.0
 70
     8
 71
     3
 72
    10
 73
     6
 74
     0
 42
0.000000001
 43
0.00000001
 40
0.0
 40
0.0
 40
0.0
 40
0.0
 40
0.32027005102003
 40
0.6614451226284488
 40
1.0
 40
1.0
 40
1.0
 40
1.0
 10
225.2138569518559
 20
247.3053713471156
 30
0.0
 10
225.2852288199035
 20
247.3010135647731
 30
0.0
 10
225.4326312194179
 20
247.2920135541049
 30
0.0
 10
225.6716415308908
 20
247.2095942917873
 30
0.0
 10
225.8079062198882
 20
247.1063632785551
 30
0.0
 10
225.8757759307091
 20
247.0549467372092
 30
0.0
  0
LINE
  5
B6
330
1F
100
AcDbEntity
  8
0
  6
CONTINUOUS
 62
     7
100
AcDbLine
 10
244.1405435223
 20
247.3053713471
 30
0.0
 11
244.3772002371
 21
247.3053713471
 31
0.0
  0
ARC
  5
B7
330
1F
100
AcDbEntity
  8
0
  6
CONTINUOUS
 62
     7
100
AcDbCircle
 10
244.3772002371
 20
247.0053713471
 30
0.0
 40
0.2999999999999829
100
AcDbArc
 50
0.0
 51
90.0
  0
ARC
  5
B8
330
1F
100
AcDbEntity
  8
0
  6
CONTINUOUS
 62
     7
100
AcDbCircle
 10
224.9772002371
 20
247.0053713471
 30
0.0
 40
0.3000000000000398
100
AcDbArc
 50
90.0
 51
180.0
  0
LINE
  5
B9
330
1F
100
AcDbEntity
  8
0
  6
CONTINUOUS
 62
     7
100
AcDbLine
 10
224.9772002371
 20
247.3053713471
 30
0.0
 11
225.2138569519
 21
247.3053713471
 31
0.0
  0
LINE
  5
BA
330
1F
100
AcDbEntity
  8
0
  6
CONTINUOUS
 62
     7
100
AcDbLine
 10
244.6772002371
 20
222.6053713471
 30
0.0
 11
244.6772002371
 21
222.1553713471
 31
0.0
  0
LINE
  5
BB
330
1F
100
AcDbEntity
  8
0
  6
CONTINUOUS
 62
     7
100
AcDbLine
 10
244.6772002371
 20
270.4553713471
 30
0.0
 11
244.6772002371
 21
270.0053713471
 31
0.0
  0
LINE
  5
BC
330
1F
100
AcDbEntity
  8
0
  6
CONTINUOUS
 62
     7
100
AcDbLine
 10
224.6772002371
 20
222.1553713471
 30
0.0
 11
224.6772002371
 21
222.6053713471
 31
0.0
  0
LINE
  5
BD
330
1F
100
AcDbEntity
  8
0
  6
CONTINUOUS
 62
     7
100
AcDbLine
 10
224.6772002371
 20
270.0053713471
 30
0.0
 11
224.6772002371
 21
270.4553713471
 31
0.0
  0
SPLINE
  5
BE
330
1F
100
AcDbEntity
  8
0
  6
CONTINUOUS
 62
     7
100
AcDbSpline
210
0.0
220
0.0
230
1.0
 70
    24
 71
     3
 72
    12
 73
     8
 74
     0
 42
0.000000001
 43
0.00000001
 40
0.0
 40
0.0
 40
0.0
 40
0.0
 40
0.1065172560386015
 40
0.2580914779234532
 40
0.4411558236357443
 40
0.6912373263298293
 40
1.0
 40
1.0
 40
1.0
 40
1.0
 10
224.6772002370532
 20
247.0053713471155
 30
0.0
 10
224.6772002370532
 20
247.0123155831205
 30
0.0
 10
224.6772002370532
 20
247.0291414778183
 30
0.0
 10
224.6772002370532
 20
247.1887393848714
 30
0.0
 10
224.6772002370531
 20
247.5190426884533
 30
0.0
 10
224.6772002370531
 20
248.0547884430142
 30
0.0
 10
224.6772002370531
 20
248.5019120999945
 30
0.0
 10
224.6772002370531
 20
248.7489489335686
 30
0.0
  0
SPLINE
  5
BF
330
1F
100
AcDbEntity
  8
0
  6
CONTINUOUS
 62
     7
100
AcDbSpline
210
0.0
220
0.0
230
1.0
 70
    24
 71
     3
 72
    12
 73
     8
 74
     0
 42
0.000000001
 43
0.00000001
 40
0.0
 40
0.0
 40
0.0
 40
0.0
 40
0.2488267748472455
 40
0.5170560908849487
 40
0.7156383914407788
 40
0.8575414220939138
 40
1.0
 40
1.0
 40
1.0
 40
1.0
 10
244.6772002370531
 20
248.748948933569
 30
0.0
 10
244.6772002370531
 20
248.5503038333774
 30
0.0
 10
244.6772002370531
 20
248.1375240630268
 30
0.0
 10
244.6772002370531
 20
247.6043964299358
 30
0.0
 10
244.6772002370531
 20
247.2404622400382
 30
0.0
 10
244.6772002370531
 20
247.0421881049952
 30
0.0
 10
244.6772002370531
 20
247.0176595732517
 30
0.0
 10
244.6772002370531
 20
247.005371347116
 30
0.0
  0
LINE
  5
C0
330
1F
100
AcDbEntity
  8
0
  6
CONTINUOUS
 62
     7
100
AcDbLine
 10
244.6772002371
 20
265.6053713471
 30
0.0
 11
244.6772002371
 21
264.3053713471
 31
0.0
  0
LINE
  5
C1
330
1F
100
AcDbEntity
  8
0
  6
CONTINUOUS
 62
     7
100
AcDbLine
 10
224.6772002371
 20
264.3053713471
 30
0.0
 11
224.6772002371
 21
265.6053713471
 31
0.0
  0
LINE
  5
C2
330
1F
100
AcDbEntity
  8
0
  6
CONTINUOUS
 62
     7
100
AcDbLine
 10
244.6772002371
 20
264.3053713471
 30
0.0
 11
244.6772002371
 21
248.7489489336
 31
0.0
  0
LINE
  5
C3
330
1F
100
AcDbEntity
  8
0
  6
CONTINUOUS
 62
     7
100
AcDbLine
 10
224.6772002371
 20
248.7489489336
 30
0.0
 11
224.6772002371
 21
264.3053713471
 31
0.0
  0
LINE
  5
C4
330
1F
100
AcDbEntity
  8
0
  6
CONTINUOUS
 62
     7
100
AcDbLine
 10
243.6772002371
 20
616.3053713471
 30
0.0
 11
225.6772002371
 21
616.3053713471
 31
0.0
  0
LINE
  5
C5
330
1F
100
AcDbEntity
  8
0
  6
CONTINUOUS
 62
     7
100
AcDbLine
 10
244.6772002371
 20
621.0053713471
 30
0.0
 11
244.6772002371
 21
616.6053713471
 31
0.0
  0
LINE
  5
C6
330
1F
100
AcDbEntity
  8
0
  6
CONTINUOUS
 62
     7
100
AcDbLine
 10
243.6772002371
 20
621.3053713471
 30
0.0
 11
244.3772002371
 21
621.3053713471
 31
0.0
  0
ARC
  5
C7
330
1F
100
AcDbEntity
  8
0
  6
CONTINUOUS
 62
     7
100
AcDbCircle
 10
244.3772002371
 20
621.0053713471
 30
0.0
 40
0.3000000000001819
100
AcDbArc
 50
0.0
 51
90.0
  0
LINE
  5
C8
330
1F
100
AcDbEntity
  8
0
  6
CONTINUOUS
 62
     7
100
AcDbLine
 10
244.3772002371
 20
616.3053713471
 30
0.0
 11
243.6772002371
 21
616.3053713471
 31
0.0
  0
ARC
  5
C9
330
1F
100
AcDbEntity
  8
0
  6
CONTINUOUS
 62
     7
100
AcDbCircle
 10
244.3772002371
 20
616.6053713471
 30
0.0
 40
0.3000000000000682
100
AcDbArc
 50
270.0
 51
0.0
  0
LINE
  5
CA
330
1F
100
AcDbEntity
  8
0
  6
CONTINUOUS
 62
     7
100
AcDbLine
 10
225.6772002371
 20
621.3053713471
 30
0.0
 11
243.6772002371
 21
621.3053713471
 31
0.0
  0
ARC
  5
CB
330
1F
100
AcDbEntity
  8
0
  6
CONTINUOUS
 62
     7
100
AcDbCircle
 10
252.6772002371
 20
590.3681174139
 30
0.0
 40
12.00000000000003
100
AcDbArc
 50
140.9012077774
 51
180.0
  0
SPLINE
  5
CC
330
1F
100
AcDbEntity
  8
0
  6
CONTINUOUS
 62
     7
100
AcDbSpline
210
0.0
220
0.0
230
1.0
 70
     8
 71
     3
 72
    10
 73
     6
 74
     0
 42
0.000000001
 43
0.00000001
 40
0.0
 40
0.0
 40
0.0
 40
0.0
 40
0.3482391767282354
 40
0.6890083969431915
 40
1.0
 40
1.0
 40
1.0
 40
1.0
 10
243.4786245433965
 20
598.0549467372059
 30
0.0
 10
243.5485759636703
 20
598.1077150775697
 30
0.0
 10
243.6869783008213
 20
598.2121198431247
 30
0.0
 10
243.9263003929042
 20
598.2926428610041
 30
0.0
 10
244.0713379690701
 20
598.3012597477116
 30
0.0
 10
244.1405435222497
 20
598.3053713471122
 30
0.0
  0
LINE
  5
CD
330
1F
100
AcDbEntity
  8
0
  6
CONTINUOUS
 62
     7
100
AcDbLine
 10
244.6772002371
 20
598.0053713471
 30
0.0
 11
244.6772002371
 21
573.6053713471
 31
0.0
  0
ARC
  5
CE
330
1F
100
AcDbEntity
  8
0
  6
CONTINUOUS
 62
     7
100
AcDbCircle
 10
244.1405435222
 20
597.3053713471
 30
0.0
 40
0.9999999999999725
100
AcDbArc
 50
131.4463897514
 51
140.9012077774
  0
ARC
  5
CF
330
1F
100
AcDbEntity
  8
0
  6
CONTINUOUS
 62
     7
100
AcDbCircle
 10
244.3772002371
 20
573.6053713471
 30
0.0
 40
0.2999999999999545
100
AcDbArc
 50
270.0
 51
0.0
  0
LINE
  5
D0
330
1F
100
AcDbEntity
  8
0
  6
CONTINUOUS
 62
     7
100
AcDbLine
 10
244.3772002371
 20
573.3053713471
 30
0.0
 11
243.6772002371
 21
573.3053713471
 31
0.0
  0
LINE
  5
D1
330
1F
100
AcDbEntity
  8
0
  6
CONTINUOUS
 62
     7
100
AcDbLine
 10
240.6772002371
 20
579.3053713471
 30
0.0
 11
240.6772002371
 21
590.3681174139
 31
0.0
  0
LINE
  5
D2
330
1F
100
AcDbEntity
  8
0
  6
CONTINUOUS
 62
     7
100
AcDbLine
 10
243.6772002371
 20
573.3053713471
 30
0.0
 11
225.6772002371
 21
573.3053713471
 31
0.0
  0
ARC
  5
D3
330
1F
100
AcDbEntity
  8
0
  6
CONTINUOUS
 62
     7
100
AcDbCircle
 10
237.6772002371
 20
579.3053713471
 30
0.0
 40
3.000000000000114
100
AcDbArc
 50
270.0
 51
0.0
  0
LINE
  5
D4
330
1F
100
AcDbEntity
  8
0
  6
CONTINUOUS
 62
     7
100
AcDbLine
 10
231.6772002371
 20
576.3053713471
 30
0.0
 11
237.6772002371
 21
576.3053713471
 31
0.0
  0
LINE
  5
D5
330
1F
100
AcDbEntity
  8
0
  6
CONTINUOUS
 62
     7
100
AcDbLine
 10
228.6772002371
 20
590.3681174139
 30
0.0
 11
228.6772002371
 21
579.3053713471
 31
0.0
  0
ARC
  5
D6
330
1F
100
AcDbEntity
  8
0
  6
CONTINUOUS
 62
     7
100
AcDbCircle
 10
216.6772002371
 20
590.3681174139
 30
0.0
 40
11.99999999999997
100
AcDbArc
 50
0.0
 51
39.0987922226
  0
LINE
  5
D7
330
1F
100
AcDbEntity
  8
0
  6
CONTINUOUS
 62
     7
100
AcDbLine
 10
224.9772002371
 20
621.3053713471
 30
0.0
 11
225.6772002371
 21
621.3053713471
 31
0.0
  0
ARC
  5
D8
330
1F
100
AcDbEntity
  8
0
  6
CONTINUOUS
 62
     7
100
AcDbCircle
 10
224.9772002371
 20
621.0053713471
 30
0.0
 40
0.3000000000000682
100
AcDbArc
 50
90.0
 51
180.0
  0
LINE
  5
D9
330
1F
100
AcDbEntity
  8
0
  6
CONTINUOUS
 62
     7
100
AcDbLine
 10
224.6772002371
 20
616.6053713471
 30
0.0
 11
224.6772002371
 21
621.0053713471
 31
0.0
  0
LINE
  5
DA
330
1F
100
AcDbEntity
  8
0
  6
CONTINUOUS
 62
     7
100
AcDbLine
 10
225.6772002371
 20
616.3053713471
 30
0.0
 11
224.9772002371
 21
616.3053713471
 31
0.0
  0
ARC
  5
DB
330
1F
100
AcDbEntity
  8
0
  6
CONTINUOUS
 62
     7
100
AcDbCircle
 10
224.9772002371
 20
616.6053713471
 30
0.0
 40
0.3000000000000682
100
AcDbArc
 50
180.0
 51
270.0
  0
ARC
  5
DC
330
1F
100
AcDbEntity
  8
0
  6
CONTINUOUS
 62
     7
100
AcDbCircle
 10
225.2138569519
 20
597.3053713471
 30
0.0
 40
0.9999999999999725
100
AcDbArc
 50
39.0987922226
 51
48.55361024859999
  0
ARC
  5
DD
330
1F
100
AcDbEntity
  8
0
  6
CONTINUOUS
 62
     7
100
AcDbCircle
 10
231.6772002371
 20
579.3053713471
 30
0.0
 40
3.000000000000114
100
AcDbArc
 50
180.0
 51
270.0
  0
LINE
  5
DE
330
1F
100
AcDbEntity
  8
0
  6
CONTINUOUS
 62
     7
100
AcDbLine
 10
224.6772002371
 20
573.6053713471
 30
0.0
 11
224.6772002371
 21
598.0053713471
 31
0.0
  0
SPLINE
  5
DF
330
1F
100
AcDbEntity
  8
0
  6
CONTINUOUS
 62
     7
100
AcDbSpline
210
0.0
220
0.0
230
1.0
 70
     8
 71
     3
 72
    10
 73
     6
 74
     0
 42
0.000000001
 43
0.00000001
 40
0.0
 40
0.0
 40
0.0
 40
0.0
 40
0.3202700510200386
 40
0.6614451226284481
 40
1.0
 40
1.0
 40
1.0
 40
1.0
 10
225.2138569518553
 20
598.3053713471122
 30
0.0
 10
225.2852288199028
 20
598.30101356477
 30
0.0
 10
225.4326312194173
 20
598.2920135541017
 30
0.0
 10
225.6716415308901
 20
598.2095942917841
 30
0.0
 10
225.8079062198875
 20
598.1063632785518
 30
0.0
 10
225.8757759307084
 20
598.0549467372059
 30
0.0
  0
LINE
  5
E0
330
1F
100
AcDbEntity
  8
0
  6
CONTINUOUS
 62
     7
100
AcDbLine
 10
225.6772002371
 20
573.3053713471
 30
0.0
 11
224.9772002371
 21
573.3053713471
 31
0.0
  0
ARC
  5
E1
330
1F
100
AcDbEntity
  8
0
  6
CONTINUOUS
 62
     7
100
AcDbCircle
 10
224.9772002371
 20
573.6053713471
 30
0.0
 40
0.2999999999999829
100
AcDbArc
 50
180.0
 51
270.0
  0
LINE
  5
E2
330
1F
100
AcDbEntity
  8
0
  6
CONTINUOUS
 62
     7
100
AcDbLine
 10
244.1405435222
 20
598.3053713471
 30
0.0
 11
244.3772002371
 21
598.3053713471
 31
0.0
  0
ARC
  5
E3
330
1F
100
AcDbEntity
  8
0
  6
CONTINUOUS
 62
     7
100
AcDbCircle
 10
244.3772002371
 20
598.0053713471
 30
0.0
 40
0.2999999999999829
100
AcDbArc
 50
0.0
 51
90.0
  0
ARC
  5
E4
330
1F
100
AcDbEntity
  8
0
  6
CONTINUOUS
 62
     7
100
AcDbCircle
 10
224.9772002371
 20
598.0053713471
 30
0.0
 40
0.2999999999999829
100
AcDbArc
 50
90.0
 51
180.0
  0
LINE
  5
E5
330
1F
100
AcDbEntity
  8
0
  6
CONTINUOUS
 62
     7
100
AcDbLine
 10
224.9772002371
 20
598.3053713471
 30
0.0
 11
225.2138569519
 21
598.3053713471
 31
0.0
  0
LINE
  5
E6
330
1F
100
AcDbEntity
  8
0
  6
CONTINUOUS
 62
     7
100
AcDbLine
 10
244.6772002371
 20
621.4553713471
 30
0.0
 11
244.6772002371
 21
621.0053713471
 31
0.0
  0
LINE
  5
E7
330
1F
100
AcDbEntity
  8
0
  6
CONTINUOUS
 62
     7
100
AcDbLine
 10
244.6772002371
 20
573.6053713471
 30
0.0
 11
244.6772002371
 21
573.1553713471
 31
0.0
  0
LINE
  5
E8
330
1F
100
AcDbEntity
  8
0
  6
CONTINUOUS
 62
     7
100
AcDbLine
 10
224.6772002371
 20
621.0053713471
 30
0.0
 11
224.6772002371
 21
621.4553713471
 31
0.0
  0
LINE
  5
E9
330
1F
100
AcDbEntity
  8
0
  6
CONTINUOUS
 62
     7
100
AcDbLine
 10
224.6772002371
 20
573.1553713471
 30
0.0
 11
224.6772002371
 21
573.6053713471
 31
0.0
  0
SPLINE
  5
EA
330
1F
100
AcDbEntity
  8
0
  6
CONTINUOUS
 62
     7
100
AcDbSpline
210
0.0
220
0.0
230
1.0
 70
    24
 71
     3
 72
    12
 73
     8
 74
     0
 42
0.000000001
 43
0.00000001
 40
0.0
 40
0.0
 40
0.0
 40
0.0
 40
0.1065172560386023
 40
0.2580914779234481
 40
0.4411558236357379
 40
0.6912373263298314
 40
1.0
 40
1.0
 40
1.0
 40
1.0
 10
224.6772002370525
 20
598.0053713471123
 30
0.0
 10
224.6772002370525
 20
598.0123155831174
 30
0.0
 10
224.6772002370525
 20
598.0291414778151
 30
0.0
 10
224.6772002370525
 20
598.1887393848682
 30
0.0
 10
224.6772002370525
 20
598.5190426884499
 30
0.0
 10
224.6772002370525
 20
599.054788443011
 30
0.0
 10
224.6772002370525
 20
599.5019120999913
 30
0.0
 10
224.6772002370525
 20
599.7489489335654
 30
0.0
  0
SPLINE
  5
EB
330
1F
100
AcDbEntity
  8
0
  6
CONTINUOUS
 62
     7
100
AcDbSpline
210
0.0
220
0.0
230
1.0
 70
    24
 71
     3
 72
    12
 73
     8
 74
     0
 42
0.000000001
 43
0.00000001
 40
0.0
 40
0.0
 40
0.0
 40
0.0
 40
0.2488267748472562
 40
0.5170560908849587
 40
0.7156383914407797
 40
0.8575414220939143
 40
1.0
 40
1.0
 40
1.0
 40
1.0
 10
244.6772002370525
 20
599.7489489335654
 30
0.0
 10
244.6772002370525
 20
599.5503038333738
 30
0.0
 10
244.6772002370525
 20
599.1375240630231
 30
0.0
 10
244.6772002370525
 20
598.6043964299321
 30
0.0
 10
244.6772002370525
 20
598.2404622400346
 30
0.0
 10
244.6772002370525
 20
598.0421881049915
 30
0.0
 10
244.6772002370525
 20
598.017659573248
 30
0.0
 10
244.6772002370525
 20
598.0053713471123
 30
0.0
  0
LINE
  5
EC
330
1F
100
AcDbEntity
  8
0
  6
CONTINUOUS
 62
     7
100
AcDbLine
 10
244.6772002371
 20
616.6053713471
 30
0.0
 11
244.6772002371
 21
615.3053713471
 31
0.0
  0
LINE
  5
ED
330
1F
100
AcDbEntity
  8
0
  6
CONTINUOUS
 62
     7
100
AcDbLine
 10
224.6772002371
 20
615.3053713471
 30
0.0
 11
224.6772002371
 21
616.6053713471
 31
0.0
  0
LINE
  5
EE
330
1F
100
AcDbEntity
  8
0
  6
CONTINUOUS
 62
     7
100
AcDbLine
 10
244.6772002371
 20
615.3053713471
 30
0.0
 11
244.6772002371
 21
599.7489489336
 31
0.0
  0
LINE
  5
EF
330
1F
100
AcDbEntity
  8
0
  6
CONTINUOUS
 62
     7
100
AcDbLine
 10
224.6772002371
 20
599.7489489336
 30
0.0
 11
224.6772002371
 21
615.3053713471
 31
0.0
  0
LINE
  5
F0
330
1F
100
AcDbEntity
  8
0
  6
CONTINUOUS
 62
     7
100
AcDbLine
 10
243.6772002371
 20
757.3053713471
 30
0.0
 11
244.6772002371
 21
757.3053713471
 31
0.0
  0
LINE
  5
F1
330
1F
100
AcDbEntity
  8
0
  6
CONTINUOUS
 62
     7
100
AcDbLine
 10
244.6772002371
 20
757.3053713471
 30
0.0
 11
244.6772002371
 21
621.4553713471
 31
0.0
  0
LINE
  5
F2
330
1F
100
AcDbEntity
  8
0
  6
CONTINUOUS
 62
     7
100
AcDbLine
 10
243.6772002371
 20
621.4553713471
 30
0.0
 11
244.6772002371
 21
621.4553713471
 31
0.0
  0
LINE
  5
F3
330
1F
100
AcDbEntity
  8
0
  6
CONTINUOUS
 62
     7
100
AcDbLine
 10
243.6772002371
 20
621.4553713471
 30
0.0
 11
225.6772002371
 21
621.4553713471
 31
0.0
  0
ARC
  5
F4
330
1F
100
AcDbEntity
  8
0
  6
CONTINUOUS
 62
     7
100
AcDbCircle
 10
231.6772002371
 20
720.3053713471
 30
0.0
 40
3.0
100
AcDbArc
 50
180.0
 51
270.0
  0
LINE
  5
F5
330
1F
100
AcDbEntity
  8
0
  6
CONTINUOUS
 62
     7
100
AcDbLine
 10
231.6772002371
 20
717.3053713471
 30
0.0
 11
237.6772002371
 21
717.3053713471
 31
0.0
  0
ARC
  5
F6
330
1F
100
AcDbEntity
  8
0
  6
CONTINUOUS
 62
     7
100
AcDbCircle
 10
237.6772002371
 20
720.3053713471
 30
0.0
 40
3.0
100
AcDbArc
 50
270.0
 51
0.0
  0
LINE
  5
F7
330
1F
100
AcDbEntity
  8
0
  6
CONTINUOUS
 62
     7
100
AcDbLine
 10
240.6772002371
 20
720.3053713471
 30
0.0
 11
240.6772002371
 21
734.3053713471
 31
0.0
  0
ARC
  5
F8
330
1F
100
AcDbEntity
  8
0
  6
CONTINUOUS
 62
     7
100
AcDbCircle
 10
237.6772002371
 20
734.3053713471
 30
0.0
 40
3.0
100
AcDbArc
 50
0.0
 51
90.0
  0
LINE
  5
F9
330
1F
100
AcDbEntity
  8
0
  6
CONTINUOUS
 62
     7
100
AcDbLine
 10
237.6772002371
 20
737.3053713471
 30
0.0
 11
231.6772002371
 21
737.3053713471
 31
0.0
  0
ARC
  5
FA
330
1F
100
AcDbEntity
  8
0
  6
CONTINUOUS
 62
     7
100
AcDbCircle
 10
231.6772002371
 20
734.3053713471
 30
0.0
 40
3.0
100
AcDbArc
 50
90.0
 51
180.0
  0
LINE
  5
FB
330
1F
100
AcDbEntity
  8
0
  6
CONTINUOUS
 62
     7
100
AcDbLine
 10
228.6772002371
 20
734.3053713471
 30
0.0
 11
228.6772002371
 21
720.3053713471
 31
0.0
  0
CIRCLE
  5
FC
330
1F
100
AcDbEntity
  8
0
  6
CONTINUOUS
 62
     7
100
AcDbCircle
 10
234.6772002371
 20
627.3053713471
 30
0.0
 40
4.750000000000028
  0
CIRCLE
  5
FD
330
1F
100
AcDbEntity
  8
0
  6
CONTINUOUS
 62
     7
100
AcDbCircle
 10
234.6772002371
 20
744.8053713471
 30
0.0
 40
5.0
  0
CIRCLE
  5
FE
330
1F
100
AcDbEntity
  8
0
  6
CONTINUOUS
 62
     7
100
AcDbCircle
 10
234.6772002371
 20
709.8053713471
 30
0.0
 40
5.0
  0
LINE
  5
FF
330
1F
100
AcDbEntity
  8
0
  6
CONTINUOUS
 62
     7
100
AcDbLine
 10
225.6772002371
 20
757.3053713471
 30
0.0
 11
243.6772002371
 21
757.3053713471
 31
0.0
  0
CIRCLE
  5
100
330
1F
100
AcDbEntity
  8
0
  6
CONTINUOUS
 62
     7
100
AcDbCircle
 10
234.6772002371
 20
744.8053713471
 30
0.0
 40
4.0
  0
LINE
  5
101
330
1F
100
AcDbEntity
  8
0
  6
CONTINUOUS
 62
     7
100
AcDbLine
 10
224.6772002371
 20
621.4553713471
 30
0.0
 11
225.6772002371
 21
621.4553713471
 31
0.0
  0
LINE
  5
102
330
1F
100
AcDbEntity
  8
0
  6
CONTINUOUS
 62
     7
100
AcDbLine
 10
224.6772002371
 20
757.3053713471
 30
0.0
 11
224.6772002371
 21
621.4553713471
 31
0.0
  0
LINE
  5
103
330
1F
100
AcDbEntity
  8
0
  6
CONTINUOUS
 62
     7
100
AcDbLine
 10
224.6772002371
 20
757.3053713471
 30
0.0
 11
225.6772002371
 21
757.3053713471
 31
0.0
  0
CIRCLE
  5
104
330
1F
100
AcDbEntity
  8
0
  6
CONTINUOUS
 62
     7
100
AcDbCircle
 10
234.6772002371
 20
709.8053713471
 30
0.0
 40
4.0
  0
LINE
  5
105
330
1F
100
AcDbEntity
  8
0
  6
CONTINUOUS
 62
     7
100
AcDbLine
 10
243.6772002371
 20
540.3053713471
 30
0.0
 11
244.6772002371
 21
540.3053713471
 31
0.0
  0
LINE
  5
106
330
1F
100
AcDbEntity
  8
0
  6
CONTINUOUS
 62
     7
100
AcDbLine
 10
244.6772002371
 20
573.1553713471
 30
0.0
 11
244.6772002371
 21
540.3053713471
 31
0.0
  0
LINE
  5
107
330
1F
100
AcDbEntity
  8
0
  6
CONTINUOUS
 62
     7
100
AcDbLine
 10
244.6772002371
 20
573.1553713471
 30
0.0
 11
243.6772002371
 21
573.1553713471
 31
0.0
  0
LINE
  5
108
330
1F
100
AcDbEntity
  8
0
  6
CONTINUOUS
 62
     7
100
AcDbLine
 10
225.6772002371
 20
540.3053713471
 30
0.0
 11
243.6772002371
 21
540.3053713471
 31
0.0
  0
CIRCLE
  5
109
330
1F
100
AcDbEntity
  8
0
  6
CONTINUOUS
 62
     7
100
AcDbCircle
 10
234.6772002371
 20
567.3053713471
 30
0.0
 40
4.750000000000028
  0
CIRCLE
  5
10A
330
1F
100
AcDbEntity
  8
0
  6
CONTINUOUS
 62
     7
100
AcDbCircle
 10
234.6772002371
 20
552.8053713471
 30
0.0
 40
5.0
  0
LINE
  5
10B
330
1F
100
AcDbEntity
  8
0
  6
CONTINUOUS
 62
     7
100
AcDbLine
 10
225.6772002371
 20
573.1553713471
 30
0.0
 11
243.6772002371
 21
573.1553713471
 31
0.0
  0
CIRCLE
  5
10C
330
1F
100
AcDbEntity
  8
0
  6
CONTINUOUS
 62
     7
100
AcDbCircle
 10
234.6772002371
 20
552.8053713471
 30
0.0
 40
4.0
  0
LINE
  5
10D
330
1F
100
AcDbEntity
  8
0
  6
CONTINUOUS
 62
     7
100
AcDbLine
 10
224.6772002371
 20
573.1553713471
 30
0.0
 11
224.6772002371
 21
540.3053713471
 31
0.0
  0
LINE
  5
10E
330
1F
100
AcDbEntity
  8
0
  6
CONTINUOUS
 62
     7
100
AcDbLine
 10
224.6772002371
 20
540.3053713471
 30
0.0
 11
225.6772002371
 21
540.3053713471
 31
0.0
  0
LINE
  5
10F
330
1F
100
AcDbEntity
  8
0
  6
CONTINUOUS
 62
     7
100
AcDbLine
 10
225.6772002371
 20
573.1553713471
 30
0.0
 11
224.6772002371
 21
573.1553713471
 31
0.0
  0
CIRCLE
  5
110
330
1F
100
AcDbEntity
  8
0
  6
CONTINUOUS
 62
     7
100
AcDbCircle
 10
234.6772002371
 20
744.8053713471
 30
0.0
 40
2.750000000000028
  0
CIRCLE
  5
111
330
1F
100
AcDbEntity
  8
0
  6
CONTINUOUS
 62
     7
100
AcDbCircle
 10
234.6772002371
 20
709.8053713471
 30
0.0
 40
2.750000000000028
  0
CIRCLE
  5
112
330
1F
100
AcDbEntity
  8
0
  6
CONTINUOUS
 62
     7
100
AcDbCircle
 10
234.6772002371
 20
552.8053713471
 30
0.0
 40
2.750000000000028
  0
LINE
  5
113
330
1F
100
AcDbEntity
  8
0
  6
CONTINUOUS
 62
     7
100
AcDbLine
 10
225.6772002371
 20
303.3053713471
 30
0.0
 11
224.6772002371
 21
303.3053713471
 31
0.0
  0
LINE
  5
114
330
1F
100
AcDbEntity
  8
0
  6
CONTINUOUS
 62
     7
100
AcDbLine
 10
224.6772002371
 20
270.4553713471
 30
0.0
 11
225.6772002371
 21
270.4553713471
 31
0.0
  0
LINE
  5
115
330
1F
100
AcDbEntity
  8
0
  6
CONTINUOUS
 62
     7
100
AcDbLine
 10
224.6772002371
 20
270.4553713471
 30
0.0
 11
224.6772002371
 21
303.3053713471
 31
0.0
  0
LINE
  5
116
330
1F
100
AcDbEntity
  8
0
  6
CONTINUOUS
 62
     7
100
AcDbLine
 10
243.6772002371
 20
303.3053713471
 30
0.0
 11
225.6772002371
 21
303.3053713471
 31
0.0
  0
LINE
  5
117
330
1F
100
AcDbEntity
  8
0
  6
CONTINUOUS
 62
     7
100
AcDbLine
 10
243.6772002371
 20
270.4553713471
 30
0.0
 11
225.6772002371
 21
270.4553713471
 31
0.0
  0
CIRCLE
  5
118
330
1F
100
AcDbEntity
  8
0
  6
CONTINUOUS
 62
     7
100
AcDbCircle
 10
234.6772002371
 20
276.3053713471
 30
0.0
 40
4.750000000000028
  0
CIRCLE
  5
119
330
1F
100
AcDbEntity
  8
0
  6
CONTINUOUS
 62
     7
100
AcDbCircle
 10
234.6772002371
 20
290.8053713471
 30
0.0
 40
5.0
  0
LINE
  5
11A
330
1F
100
AcDbEntity
  8
0
  6
CONTINUOUS
 62
     7
100
AcDbLine
 10
244.6772002371
 20
270.4553713471
 30
0.0
 11
244.6772002371
 21
303.3053713471
 31
0.0
  0
LINE
  5
11B
330
1F
100
AcDbEntity
  8
0
  6
CONTINUOUS
 62
     7
100
AcDbLine
 10
243.6772002371
 20
270.4553713471
 30
0.0
 11
244.6772002371
 21
270.4553713471
 31
0.0
  0
LINE
  5
11C
330
1F
100
AcDbEntity
  8
0
  6
CONTINUOUS
 62
     7
100
AcDbLine
 10
244.6772002371
 20
303.3053713471
 30
0.0
 11
243.6772002371
 21
303.3053713471
 31
0.0
  0
CIRCLE
  5
11D
330
1F
100
AcDbEntity
  8
0
  6
CONTINUOUS
 62
     7
100
AcDbCircle
 10
234.6772002371
 20
290.8053713471
 30
0.0
 40
4.0
  0
LINE
  5
11E
330
1F
100
AcDbEntity
  8
0
  6
CONTINUOUS
 62
     7
100
AcDbLine
 10
225.6772002371
 20
86.3053713471
 30
0.0
 11
224.6772002371
 21
86.3053713471
 31
0.0
  0
LINE
  5
11F
330
1F
100
AcDbEntity
  8
0
  6
CONTINUOUS
 62
     7
100
AcDbLine
 10
224.6772002371
 20
86.3053713471
 30
0.0
 11
224.6772002371
 21
222.1553713471
 31
0.0
  0
LINE
  5
120
330
1F
100
AcDbEntity
  8
0
  6
CONTINUOUS
 62
     7
100
AcDbLine
 10
225.6772002371
 20
222.1553713471
 30
0.0
 11
224.6772002371
 21
222.1553713471
 31
0.0
  0
LINE
  5
121
330
1F
100
AcDbEntity
  8
0
  6
CONTINUOUS
 62
     7
100
AcDbLine
 10
243.6772002371
 20
86.3053713471
 30
0.0
 11
225.6772002371
 21
86.3053713471
 31
0.0
  0
ARC
  5
122
330
1F
100
AcDbEntity
  8
0
  6
CONTINUOUS
 62
     7
100
AcDbCircle
 10
237.6772002371
 20
123.3053713471
 30
0.0
 40
3.000000000000014
100
AcDbArc
 50
0.0
 51
90.0
  0
LINE
  5
123
330
1F
100
AcDbEntity
  8
0
  6
CONTINUOUS
 62
     7
100
AcDbLine
 10
237.6772002371
 20
126.3053713471
 30
0.0
 11
231.6772002371
 21
126.3053713471
 31
0.0
  0
ARC
  5
124
330
1F
100
AcDbEntity
  8
0
  6
CONTINUOUS
 62
     7
100
AcDbCircle
 10
231.6772002371
 20
123.3053713471
 30
0.0
 40
3.000000000000014
100
AcDbArc
 50
90.0
 51
180.0
  0
LINE
  5
125
330
1F
100
AcDbEntity
  8
0
  6
CONTINUOUS
 62
     7
100
AcDbLine
 10
228.6772002371
 20
123.3053713471
 30
0.0
 11
228.6772002371
 21
109.3053713471
 31
0.0
  0
ARC
  5
126
330
1F
100
AcDbEntity
  8
0
  6
CONTINUOUS
 62
     7
100
AcDbCircle
 10
231.6772002371
 20
109.3053713471
 30
0.0
 40
3.000000000000014
100
AcDbArc
 50
180.0
 51
270.0
  0
LINE
  5
127
330
1F
100
AcDbEntity
  8
0
  6
CONTINUOUS
 62
     7
100
AcDbLine
 10
231.6772002371
 20
106.3053713471
 30
0.0
 11
237.6772002371
 21
106.3053713471
 31
0.0
  0
ARC
  5
128
330
1F
100
AcDbEntity
  8
0
  6
CONTINUOUS
 62
     7
100
AcDbCircle
 10
237.6772002371
 20
109.3053713471
 30
0.0
 40
3.000000000000014
100
AcDbArc
 50
270.0
 51
0.0
  0
LINE
  5
129
330
1F
100
AcDbEntity
  8
0
  6
CONTINUOUS
 62
     7
100
AcDbLine
 10
240.6772002371
 20
109.3053713471
 30
0.0
 11
240.6772002371
 21
123.3053713471
 31
0.0
  0
CIRCLE
  5
12A
330
1F
100
AcDbEntity
  8
0
  6
CONTINUOUS
 62
     7
100
AcDbCircle
 10
234.6772002371
 20
216.3053713471
 30
0.0
 40
4.750000000000028
  0
CIRCLE
  5
12B
330
1F
100
AcDbEntity
  8
0
  6
CONTINUOUS
 62
     7
100
AcDbCircle
 10
234.6772002371
 20
98.8053713471
 30
0.0
 40
5.0
  0
CIRCLE
  5
12C
330
1F
100
AcDbEntity
  8
0
  6
CONTINUOUS
 62
     7
100
AcDbCircle
 10
234.6772002371
 20
133.8053713471
 30
0.0
 40
5.0
  0
LINE
  5
12D
330
1F
100
AcDbEntity
  8
0
  6
CONTINUOUS
 62
     7
100
AcDbLine
 10
225.6772002371
 20
222.1553713471
 30
0.0
 11
243.6772002371
 21
222.1553713471
 31
0.0
  0
LINE
  5
12E
330
1F
100
AcDbEntity
  8
0
  6
CONTINUOUS
 62
     7
100
AcDbLine
 10
244.6772002371
 20
86.3053713471
 30
0.0
 11
243.6772002371
 21
86.3053713471
 31
0.0
  0
LINE
  5
12F
330
1F
100
AcDbEntity
  8
0
  6
CONTINUOUS
 62
     7
100
AcDbLine
 10
244.6772002371
 20
86.3053713471
 30
0.0
 11
244.6772002371
 21
222.1553713471
 31
0.0
  0
LINE
  5
130
330
1F
100
AcDbEntity
  8
0
  6
CONTINUOUS
 62
     7
100
AcDbLine
 10
244.6772002371
 20
222.1553713471
 30
0.0
 11
243.6772002371
 21
222.1553713471
 31
0.0
  0
CIRCLE
  5
131
330
1F
100
AcDbEntity
  8
0
  6
CONTINUOUS
 62
     7
100
AcDbCircle
 10
234.6772002371
 20
133.8053713471
 30
0.0
 40
4.0
  0
CIRCLE
  5
132
330
1F
100
AcDbEntity
  8
0
  6
CONTINUOUS
 62
     7
100
AcDbCircle
 10
234.6772002371
 20
98.8053713471
 30
0.0
 40
4.0
  0
CIRCLE
  5
133
330
1F
100
AcDbEntity
  8
0
  6
CONTINUOUS
 62
     7
100
AcDbCircle
 10
234.6772002371
 20
98.8053713471
 30
0.0
 40
2.750000000000028
  0
CIRCLE
  5
134
330
1F
100
AcDbEntity
  8
0
  6
CONTINUOUS
 62
     7
100
AcDbCircle
 10
234.6772002371
 20
133.8053713471
 30
0.0
 40
2.750000000000028
  0
CIRCLE
  5
135
330
1F
100
AcDbEntity
  8
0
  6
CONTINUOUS
 62
     7
100
AcDbCircle
 10
234.6772002371
 20
290.8053713471
 30
0.0
 40
2.750000000000028
  0
LINE
  5
136
330
1F
100
AcDbEntity
  8
0
  6
CONTINUOUS
 62
     7
100
AcDbLine
 10
241.0772002371
 20
477.4053713471
 30
0.0
 11
241.0772002371
 21
472.01489156
 31
0.0
  0
ARC
  5
137
330
1F
100
AcDbEntity
  8
0
  6
CONTINUOUS
 62
     7
100
AcDbCircle
 10
239.0772002371
 20
477.4053713471
 30
0.0
 40
2.0
100
AcDbArc
 50
0.0
 51
90.0
  0
LINE
  5
138
330
1F
100
AcDbEntity
  8
0
  6
CONTINUOUS
 62
     7
100
AcDbLine
 10
230.2772002371
 20
479.4053713471
 30
0.0
 11
239.0772002371
 21
479.4053713471
 31
0.0
  0
ARC
  5
139
330
1F
100
AcDbEntity
  8
0
  6
CONTINUOUS
 62
     7
100
AcDbCircle
 10
230.2772002371
 20
477.4053713471
 30
0.0
 40
2.0
100
AcDbArc
 50
90.0
 51
180.0
  0
LINE
  5
13A
330
1F
100
AcDbEntity
  8
0
  6
CONTINUOUS
 62
     7
100
AcDbLine
 10
228.2772002371
 20
477.4053713471
 30
0.0
 11
228.2772002371
 21
441.4053713471
 31
0.0
  0
ARC
  5
13B
330
1F
100
AcDbEntity
  8
0
  6
CONTINUOUS
 62
     7
100
AcDbCircle
 10
230.2772002371
 20
441.4053713471
 30
0.0
 40
2.0
100
AcDbArc
 50
180.0
 51
270.0
  0
LINE
  5
13C
330
1F
100
AcDbEntity
  8
0
  6
CONTINUOUS
 62
     7
100
AcDbLine
 10
230.2772002371
 20
439.4053713471
 30
0.0
 11
239.0772002371
 21
439.4053713471
 31
0.0
  0
ARC
  5
13D
330
1F
100
AcDbEntity
  8
0
  6
CONTINUOUS
 62
     7
100
AcDbCircle
 10
239.0772002371
 20
441.4053713471
 30
0.0
 40
2.0
100
AcDbArc
 50
270.0
 51
0.0
  0
LINE
  5
13E
330
1F
100
AcDbEntity
  8
0
  6
CONTINUOUS
 62
     7
100
AcDbLine
 10
241.0772002371
 20
446.7958511342
 30
0.0
 11
241.0772002371
 21
441.4053713471
 31
0.0
  0
ARC
  5
13F
330
1F
100
AcDbEntity
  8
0
  6
CONTINUOUS
 62
     7
100
AcDbCircle
 10
320.0772002371
 20
459.4053713471
 30
0.0
 40
80.0
100
AcDbArc
 50
170.931278454
 51
189.068721546
  0
LINE
  5
140
330
1F
100
AcDbEntity
  8
0
  6
CONTINUOUS
 62
     7
100
AcDbLine
 10
230.2772002371
 20
364.2053713471
 30
0.0
 11
239.0772002371
 21
364.2053713471
 31
0.0
  0
ARC
  5
141
330
1F
100
AcDbEntity
  8
0
  6
CONTINUOUS
 62
     7
100
AcDbCircle
 10
239.0772002371
 20
366.2053713471
 30
0.0
 40
2.0
100
AcDbArc
 50
270.0
 51
0.0
  0
LINE
  5
142
330
1F
100
AcDbEntity
  8
0
  6
CONTINUOUS
 62
     7
100
AcDbLine
 10
241.0772002371
 20
371.5958511342
 30
0.0
 11
241.0772002371
 21
366.2053713471
 31
0.0
  0
ARC
  5
143
330
1F
100
AcDbEntity
  8
0
  6
CONTINUOUS
 62
     7
100
AcDbCircle
 10
320.0772002371
 20
384.2053713471
 30
0.0
 40
80.0
100
AcDbArc
 50
170.931278454
 51
189.068721546
  0
LINE
  5
144
330
1F
100
AcDbEntity
  8
0
  6
CONTINUOUS
 62
     7
100
AcDbLine
 10
241.0772002371
 20
402.2053713471
 30
0.0
 11
241.0772002371
 21
396.81489156
 31
0.0
  0
ARC
  5
145
330
1F
100
AcDbEntity
  8
0
  6
CONTINUOUS
 62
     7
100
AcDbCircle
 10
239.0772002371
 20
402.2053713471
 30
0.0
 40
2.0
100
AcDbArc
 50
0.0
 51
90.0
  0
LINE
  5
146
330
1F
100
AcDbEntity
  8
0
  6
CONTINUOUS
 62
     7
100
AcDbLine
 10
230.2772002371
 20
404.2053713471
 30
0.0
 11
239.0772002371
 21
404.2053713471
 31
0.0
  0
ARC
  5
147
330
1F
100
AcDbEntity
  8
0
  6
CONTINUOUS
 62
     7
100
AcDbCircle
 10
230.2772002371
 20
402.2053713471
 30
0.0
 40
2.0
100
AcDbArc
 50
90.0
 51
180.0
  0
LINE
  5
148
330
1F
100
AcDbEntity
  8
0
  6
CONTINUOUS
 62
     7
100
AcDbLine
 10
228.2772002371
 20
402.2053713471
 30
0.0
 11
228.2772002371
 21
366.2053713471
 31
0.0
  0
ARC
  5
149
330
1F
100
AcDbEntity
  8
0
  6
CONTINUOUS
 62
     7
100
AcDbCircle
 10
230.2772002371
 20
366.2053713471
 30
0.0
 40
2.0
100
AcDbArc
 50
180.0
 51
270.0
  0
CIRCLE
  5
14A
330
1F
100
AcDbEntity
  8
0
  6
CONTINUOUS
 62
     7
100
AcDbCircle
 10
234.6772002371
 20
325.3053713471
 30
0.0
 40
5.0
  0
CIRCLE
  5
14B
330
1F
100
AcDbEntity
  8
0
  6
CONTINUOUS
 62
     7
100
AcDbCircle
 10
234.6772002371
 20
410.8053713471
 30
0.0
 40
5.0
  0
CIRCLE
  5
14C
330
1F
100
AcDbEntity
  8
0
  6
CONTINUOUS
 62
     7
100
AcDbCircle
 10
234.6772002371
 20
518.3053713471
 30
0.0
 40
5.0
  0
LINE
  5
14D
330
1F
100
AcDbEntity
  8
0
  6
CONTINUOUS
 62
     7
100
AcDbLine
 10
243.6772002371
 20
313.3053713471
 30
0.0
 11
225.6772002371
 21
313.3053713471
 31
0.0
  0
LINE
  5
14E
330
1F
100
AcDbEntity
  8
0
  6
CONTINUOUS
 62
     7
100
AcDbLine
 10
243.6772002371
 20
530.3053713471
 30
0.0
 11
225.6772002371
 21
530.3053713471
 31
0.0
  0
LINE
  5
14F
330
1F
100
AcDbEntity
  8
0
  6
CONTINUOUS
 62
     7
100
AcDbLine
 10
244.6772002371
 20
529.3053713471
 30
0.0
 11
244.6772002371
 21
314.3053713471
 31
0.0
  0
ARC
  5
150
330
1F
100
AcDbEntity
  8
0
  6
CONTINUOUS
 62
     7
100
AcDbCircle
 10
243.6772002371
 20
314.3053713471
 30
0.0
 40
1.0
100
AcDbArc
 50
270.0
 51
0.0
  0
ARC
  5
151
330
1F
100
AcDbEntity
  8
0
  6
CONTINUOUS
 62
     7
100
AcDbCircle
 10
243.6772002371
 20
529.3053713471
 30
0.0
 40
1.0
100
AcDbArc
 50
0.0
 51
90.0
  0
CIRCLE
  5
152
330
1F
100
AcDbEntity
  8
0
  6
CONTINUOUS
 62
     7
100
AcDbCircle
 10
234.6772002371
 20
518.3053713471
 30
0.0
 40
4.0
  0
ARC
  5
153
330
1F
100
AcDbEntity
  8
0
  6
CONTINUOUS
 62
     7
100
AcDbCircle
 10
225.6772002371
 20
314.3053713471
 30
0.0
 40
1.0
100
AcDbArc
 50
180.0
 51
270.0
  0
LINE
  5
154
330
1F
100
AcDbEntity
  8
0
  6
CONTINUOUS
 62
     7
100
AcDbLine
 10
224.6772002371
 20
314.3053713471
 30
0.0
 11
224.6772002371
 21
529.3053713471
 31
0.0
  0
ARC
  5
155
330
1F
100
AcDbEntity
  8
0
  6
CONTINUOUS
 62
     7
100
AcDbCircle
 10
225.6772002371
 20
529.3053713471
 30
0.0
 40
1.0
100
AcDbArc
 50
90.0
 51
180.0
  0
CIRCLE
  5
156
330
1F
100
AcDbEntity
  8
0
  6
CONTINUOUS
 62
     7
100
AcDbCircle
 10
234.6772002371
 20
410.8053713471
 30
0.0
 40
4.0
  0
CIRCLE
  5
157
330
1F
100
AcDbEntity
  8
0
  6
CONTINUOUS
 62
     7
100
AcDbCircle
 10
234.6772002371
 20
325.3053713471
 30
0.0
 40
4.0
  0
CIRCLE
  5
158
330
1F
100
AcDbEntity
  8
0
  6
CONTINUOUS
 62
     7
100
AcDbCircle
 10
234.6772002371
 20
325.3053713471
 30
0.0
 40
2.749999999999943
  0
CIRCLE
  5
159
330
1F
100
AcDbEntity
  8
0
  6
CONTINUOUS
 62
     7
100
AcDbCircle
 10
234.6772002371
 20
410.8053713471
 30
0.0
 40
2.750000000000057
  0
CIRCLE
  5
15A
330
1F
100
AcDbEntity
  8
0
  6
CONTINUOUS
 62
     7
100
AcDbCircle
 10
234.6772002371
 20
518.3053713471
 30
0.0
 40
2.750000000000114
  0
LINE
  5
15B
330
1F
100
AcDbEntity
  8
0
  6
CONTINUOUS
 62
     8
100
AcDbLine
 10
243.6772002371
 20
265.6053713471
 30
0.0
 11
243.6772002371
 21
265.3053713471
 31
0.0
  0
LINE
  5
15C
330
1F
100
AcDbEntity
  8
0
  6
CONTINUOUS
 62
     8
100
AcDbLine
 10
243.6772002371
 20
265.6053713471
 30
0.0
 11
244.6772002371
 21
265.6053713471
 31
0.0
  0
LINE
  5
15D
330
1F
100
AcDbEntity
  8
0
  6
CONTINUOUS
 62
     8
100
AcDbLine
 10
243.6772002371
 20
222.6053713471
 30
0.0
 11
244.6772002371
 21
222.6053713471
 31
0.0
  0
LINE
  5
15E
330
1F
100
AcDbEntity
  8
0
  6
CONTINUOUS
 62
     8
100
AcDbLine
 10
243.6772002371
 20
222.6053713471
 30
0.0
 11
243.6772002371
 21
246.8300741202
 31
0.0
  0
SPLINE
  5
15F
330
1F
100
AcDbEntity
  8
0
  6
CONTINUOUS
 62
     8
100
AcDbSpline
210
0.0
220
0.0
230
1.0
 70
     8
 71
     3
 72
    10
 73
     6
 74
     0
 42
0.000000001
 43
0.00000001
 40
0.0
 40
0.0
 40
0.0
 40
0.0
 40
0.3385548773715444
 40
0.6797299489799606
 40
1.0
 40
1.0
 40
1.0
 40
1.0
 10
244.3391192159063
 20
247.005371347116
 30
0.0
 10
244.2712495050854
 20
247.0026885933515
 30
0.0
 10
244.134984816088
 20
246.9973023230559
 30
0.0
 10
243.8959745046151
 20
246.9444439155287
 30
0.0
 10
243.7485721051007
 20
246.8673855738233
 30
0.0
 10
243.6772002370532
 20
246.8300741201814
 30
0.0
  0
LINE
  5
160
330
1F
100
AcDbEntity
  8
0
  6
CONTINUOUS
 62
     8
100
AcDbLine
 10
244.6772002371
 20
247.0053713471
 30
0.0
 11
244.3391192159
 21
247.0053713471
 31
0.0
  0
LINE
  5
161
330
1F
100
AcDbEntity
  8
0
  6
CONTINUOUS
 62
     8
100
AcDbLine
 10
243.6772002371
 20
270.3053713471
 30
0.0
 11
243.6772002371
 21
270.0053713471
 31
0.0
  0
LINE
  5
162
330
1F
100
AcDbEntity
  8
0
  6
CONTINUOUS
 62
     8
100
AcDbLine
 10
243.6772002371
 20
270.0053713471
 30
0.0
 11
225.6772002371
 21
270.0053713471
 31
0.0
  0
LINE
  5
163
330
1F
100
AcDbEntity
  8
0
  6
CONTINUOUS
 62
     8
100
AcDbLine
 10
225.6772002371
 20
270.3053713471
 30
0.0
 11
225.6772002371
 21
270.0053713471
 31
0.0
  0
LINE
  5
164
330
1F
100
AcDbEntity
  8
0
  6
CONTINUOUS
 62
     8
100
AcDbLine
 10
244.6772002371
 20
270.0053713471
 30
0.0
 11
243.6772002371
 21
270.0053713471
 31
0.0
  0
LINE
  5
165
330
1F
100
AcDbEntity
  8
0
  6
CONTINUOUS
 62
     8
100
AcDbLine
 10
243.6772002371
 20
265.6053713471
 30
0.0
 11
243.6772002371
 21
270.0053713471
 31
0.0
  0
LINE
  5
166
330
1F
100
AcDbEntity
  8
0
  6
CONTINUOUS
 62
     8
100
AcDbLine
 10
243.6772002371
 20
222.6053713471
 30
0.0
 11
243.6772002371
 21
222.3053713471
 31
0.0
  0
LINE
  5
167
330
1F
100
AcDbEntity
  8
0
  6
CONTINUOUS
 62
     8
100
AcDbLine
 10
225.6772002371
 20
222.6053713471
 30
0.0
 11
243.6772002371
 21
222.6053713471
 31
0.0
  0
LINE
  5
168
330
1F
100
AcDbEntity
  8
0
  6
CONTINUOUS
 62
     8
100
AcDbLine
 10
225.6772002371
 20
222.6053713471
 30
0.0
 11
225.6772002371
 21
222.3053713471
 31
0.0
  0
LINE
  5
169
330
1F
100
AcDbEntity
  8
0
  6
CONTINUOUS
 62
     8
100
AcDbLine
 10
243.4786245434
 20
247.0549467372
 30
0.0
 11
243.6772002371
 21
246.8300741202
 31
0.0
  0
ARC
  5
16A
330
1F
100
AcDbEntity
  8
0
  6
CONTINUOUS
 62
     8
100
AcDbCircle
 10
244.1405435223
 20
246.3053713471
 30
0.0
 40
0.7000000000000383
100
AcDbArc
 50
131.4463897514
 51
140.9012077774
  0
LINE
  5
16B
330
1F
100
AcDbEntity
  8
0
  6
CONTINUOUS
 62
     8
100
AcDbLine
 10
243.3644838209
 20
246.9360307956
 30
0.0
 11
243.5973017313
 21
246.746832961
 31
0.0
  0
LINE
  5
16C
330
1F
100
AcDbEntity
  8
0
  6
CONTINUOUS
 62
     8
100
AcDbLine
 10
240.6772002371
 20
228.3053713471
 30
0.0
 11
240.9772002371
 21
228.3053713471
 31
0.0
  0
ARC
  5
16D
330
1F
100
AcDbEntity
  8
0
  6
CONTINUOUS
 62
     8
100
AcDbCircle
 10
237.6772002371
 20
228.3053713471
 30
0.0
 40
3.300000000000011
100
AcDbArc
 50
270.0
 51
0.0
  0
LINE
  5
16E
330
1F
100
AcDbEntity
  8
0
  6
CONTINUOUS
 62
     8
100
AcDbLine
 10
237.6772002371
 20
225.3053713471
 30
0.0
 11
237.6772002371
 21
225.0053713471
 31
0.0
  0
LINE
  5
16F
330
1F
100
AcDbEntity
  8
0
  6
CONTINUOUS
 62
     8
100
AcDbLine
 10
240.6772002371
 20
239.3681174139
 30
0.0
 11
240.9772002371
 21
239.3681174139
 31
0.0
  0
LINE
  5
170
330
1F
100
AcDbEntity
  8
0
  6
CONTINUOUS
 62
     8
100
AcDbLine
 10
240.9772002371
 20
239.3681174139
 30
0.0
 11
240.9772002371
 21
228.3053713471
 31
0.0
  0
LINE
  5
171
330
1F
100
AcDbEntity
  8
0
  6
CONTINUOUS
 62
     8
100
AcDbLine
 10
228.3772002371
 20
228.3053713471
 30
0.0
 11
228.3772002371
 21
239.3681174139
 31
0.0
  0
ARC
  5
172
330
1F
100
AcDbEntity
  8
0
  6
CONTINUOUS
 62
     8
100
AcDbCircle
 10
231.6772002371
 20
228.3053713471
 30
0.0
 40
3.299999999999983
100
AcDbArc
 50
180.0
 51
270.0
  0
LINE
  5
173
330
1F
100
AcDbEntity
  8
0
  6
CONTINUOUS
 62
     8
100
AcDbLine
 10
237.6772002371
 20
225.0053713471
 30
0.0
 11
231.6772002371
 21
225.0053713471
 31
0.0
  0
ARC
  5
174
330
1F
100
AcDbEntity
  8
0
  6
CONTINUOUS
 62
     8
100
AcDbCircle
 10
252.6772002371
 20
239.3681174139
 30
0.0
 40
11.69999999999999
100
AcDbArc
 50
140.9012077774
 51
180.0
  0
LINE
  5
175
330
1F
100
AcDbEntity
  8
0
  6
CONTINUOUS
 62
     8
100
AcDbLine
 10
225.6772002371
 20
246.8300741202
 30
0.0
 11
225.6772002371
 21
222.6053713471
 31
0.0
  0
ARC
  5
176
330
1F
100
AcDbEntity
  8
0
  6
CONTINUOUS
 62
     8
100
AcDbCircle
 10
225.2138569519
 20
246.3053713471
 30
0.0
 40
0.6999999999999982
100
AcDbArc
 50
39.0987922226
 51
48.55361024859999
  0
ARC
  5
177
330
1F
100
AcDbEntity
  8
0
  6
CONTINUOUS
 62
     8
100
AcDbCircle
 10
216.6772002371
 20
239.3681174139
 30
0.0
 40
11.70000000000002
100
AcDbArc
 50
0.0
 51
39.0987922226
  0
LINE
  5
178
330
1F
100
AcDbEntity
  8
0
  6
CONTINUOUS
 62
     8
100
AcDbLine
 10
225.6772002371
 20
265.6053713471
 30
0.0
 11
243.6772002371
 21
265.6053713471
 31
0.0
  0
LINE
  5
179
330
1F
100
AcDbEntity
  8
0
  6
CONTINUOUS
 62
     8
100
AcDbLine
 10
225.6772002371
 20
270.0053713471
 30
0.0
 11
225.6772002371
 21
265.6053713471
 31
0.0
  0
LINE
  5
17A
330
1F
100
AcDbEntity
  8
0
  6
CONTINUOUS
 62
     8
100
AcDbLine
 10
225.6772002371
 20
265.6053713471
 30
0.0
 11
225.6772002371
 21
265.3053713471
 31
0.0
  0
LWPOLYLINE
  5
17B
330
1F
100
AcDbEntity
  8
0
  6
CONTINUOUS
 62
     8
100
AcDbPolyline
 90
        9
 70
   128
 43
0.0
 10
244.1405435223
 20
247.3053713471
 10
244.1792837183
 20
247.2996069312
 10
244.2165351503
 20
247.2825352069
 10
244.2508662666
 20
247.2548122308
 10
244.2809577418
 20
247.2175033815
 10
244.3056531773
 20
247.172042417
 10
244.3240035413
 20
247.1201763768
 10
244.3353036396
 20
247.0638984437
 10
244.3391192159
 20
247.0053713471
  0
LINE
  5
17C
330
1F
100
AcDbEntity
  8
0
  6
CONTINUOUS
 62
     8
100
AcDbLine
 10
231.6772002371
 20
225.3053713471
 30
0.0
 11
231.6772002371
 21
225.0053713471
 31
0.0
  0
LINE
  5
17D
330
1F
100
AcDbEntity
  8
0
  6
CONTINUOUS
 62
     8
100
AcDbLine
 10
228.3772002371
 20
228.3053713471
 30
0.0
 11
228.6772002371
 21
228.3053713471
 31
0.0
  0
LINE
  5
17E
330
1F
100
AcDbEntity
  8
0
  6
CONTINUOUS
 62
     8
100
AcDbLine
 10
224.6772002371
 20
222.6053713471
 30
0.0
 11
225.6772002371
 21
222.6053713471
 31
0.0
  0
LINE
  5
17F
330
1F
100
AcDbEntity
  8
0
  6
CONTINUOUS
 62
     8
100
AcDbLine
 10
225.0152812582
 20
247.0053713471
 30
0.0
 11
224.6772002371
 21
247.0053713471
 31
0.0
  0
SPLINE
  5
180
330
1F
100
AcDbEntity
  8
0
  6
CONTINUOUS
 62
     8
100
AcDbSpline
210
0.0
220
0.0
230
1.0
 70
     8
 71
     3
 72
    10
 73
     6
 74
     0
 42
0.000000001
 43
0.00000001
 40
0.0
 40
0.0
 40
0.0
 40
0.0
 40
0.3109916030568154
 40
0.6517608232717685
 40
1.0
 40
1.0
 40
1.0
 40
1.0
 10
225.6772002370532
 20
246.8300741201811
 30
0.0
 10
225.6079946838736
 20
246.8664281169139
 30
0.0
 10
225.4629571077077
 20
246.9426170255754
 30
0.0
 10
225.2236350156248
 20
246.9969423270363
 30
0.0
 10
225.0852326784737
 20
247.0025414393023
 30
0.0
 10
225.0152812582
 20
247.0053713471155
 30
0.0
  0
LINE
  5
181
330
1F
100
AcDbEntity
  8
0
  6
CONTINUOUS
 62
     8
100
AcDbLine
 10
225.6772002371
 20
270.0053713471
 30
0.0
 11
224.6772002371
 21
270.0053713471
 31
0.0
  0
LINE
  5
182
330
1F
100
AcDbEntity
  8
0
  6
CONTINUOUS
 62
     8
100
AcDbLine
 10
224.6772002371
 20
265.6053713471
 30
0.0
 11
225.6772002371
 21
265.6053713471
 31
0.0
  0
LINE
  5
183
330
1F
100
AcDbEntity
  8
0
  6
CONTINUOUS
 62
     8
100
AcDbLine
 10
225.7570987428
 20
246.746832961
 30
0.0
 11
225.9899166532
 21
246.9360307956
 31
0.0
  0
LINE
  5
184
330
1F
100
AcDbEntity
  8
0
  6
CONTINUOUS
 62
     8
100
AcDbLine
 10
228.3772002371
 20
239.3681174139
 30
0.0
 11
228.6772002371
 21
239.3681174139
 31
0.0
  0
LINE
  5
185
330
1F
100
AcDbEntity
  8
0
  6
CONTINUOUS
 62
     8
100
AcDbLine
 10
225.6772002371
 20
246.8300741202
 30
0.0
 11
225.8757759307
 21
247.0549467372
 31
0.0
  0
LWPOLYLINE
  5
186
330
1F
100
AcDbEntity
  8
0
  6
CONTINUOUS
 62
     8
100
AcDbPolyline
 90
        9
 70
   128
 43
0.0
 10
225.0152812582
 20
247.0053713471
 10
225.0190968345
 20
247.0638984437
 10
225.0303969328
 20
247.1201763768
 10
225.0487472968
 20
247.172042417
 10
225.0734427323
 20
247.2175033815
 10
225.1035342075
 20
247.2548122308
 10
225.1378653238
 20
247.2825352069
 10
225.1751167558
 20
247.2996069312
 10
225.2138569519
 20
247.3053713471
  0
LINE
  5
187
330
1F
100
AcDbEntity
  8
0
  6
CONTINUOUS
 62
     8
100
AcDbLine
 10
224.9772002371
 20
270.4553713471
 30
0.0
 11
224.9772002371
 21
270.3053713471
 31
0.0
  0
LINE
  5
188
330
1F
100
AcDbEntity
  8
0
  6
CONTINUOUS
 62
     8
100
AcDbLine
 10
244.3772002371
 20
270.3053713471
 30
0.0
 11
244.3772002371
 21
270.4553713471
 31
0.0
  0
LINE
  5
189
330
1F
100
AcDbEntity
  8
0
  6
CONTINUOUS
 62
     8
100
AcDbLine
 10
224.9772002371
 20
222.3053713471
 30
0.0
 11
224.9772002371
 21
222.1553713471
 31
0.0
  0
LINE
  5
18A
330
1F
100
AcDbEntity
  8
0
  6
CONTINUOUS
 62
     8
100
AcDbLine
 10
244.3772002371
 20
222.1553713471
 30
0.0
 11
244.3772002371
 21
222.3053713471
 31
0.0
  0
LINE
  5
18B
330
1F
100
AcDbEntity
  8
0
  6
CONTINUOUS
 62
     8
100
AcDbLine
 10
224.6772002371
 20
248.7489489336
 30
0.0
 11
224.9772002371
 21
248.7489489336
 31
0.0
  0
SPLINE
  5
18C
330
1F
100
AcDbEntity
  8
0
  6
CONTINUOUS
 62
     8
100
AcDbSpline
210
0.0
220
0.0
230
1.0
 70
    24
 71
     3
 72
    13
 73
     9
 74
     0
 42
0.000000001
 43
0.00000001
 40
0.0
 40
0.0
 40
0.0
 40
0.0
 40
0.0000312379613299
 40
0.3321626326234264
 40
0.5932392217637793
 40
0.7713807809009126
 40
0.9084487681138659
 40
1.0
 40
1.0
 40
1.0
 40
1.0
 10
224.9772002370531
 20
248.7489489335687
 30
0.0
 10
224.9772002370531
 20
248.7489289335734
 30
0.0
 10
224.9772002370279
 20
248.536262971645
 30
0.0
 10
224.9772002370624
 20
248.1536081274638
 30
0.0
 10
224.9772002370517
 20
247.7054755476461
 30
0.0
 10
224.9772002370534
 20
247.4421691165444
 30
0.0
 10
224.9772002370531
 20
247.3225332832603
 30
0.0
 10
224.9772002370532
 20
247.3102787218928
 30
0.0
 10
224.9772002370532
 20
247.3053713471156
 30
0.0
  0
SPLINE
  5
18D
330
1F
100
AcDbEntity
  8
0
  6
CONTINUOUS
 62
     8
100
AcDbSpline
210
0.0
220
0.0
230
1.0
 70
    24
 71
     3
 72
    13
 73
     9
 74
     0
 42
0.000000001
 43
0.00000001
 40
0.0
 40
0.0
 40
0.0
 40
0.0
 40
0.0000312301637654
 40
0.123320099385342
 40
0.2531075911011505
 40
0.4492919724462188
 40
0.7319937976181938
 40
1.0
 40
1.0
 40
1.0
 40
1.0
 10
244.3772002370531
 20
247.3053713471159
 30
0.0
 10
244.3772002370531
 20
247.3053713477366
 30
0.0
 10
244.3772002370521
 20
247.3053737984478
 30
0.0
 10
244.3772002370537
 20
247.3364709644095
 30
0.0
 10
244.3772002370529
 20
247.4800277439923
 30
0.0
 10
244.3772002370532
 20
247.7767543636668
 30
0.0
 10
244.3772002370531
 20
248.2234680402164
 30
0.0
 10
244.3772002370531
 20
248.5769326994519
 30
0.0
 10
244.3772002370531
 20
248.748948933569
 30
0.0
  0
LINE
  5
18E
330
1F
100
AcDbEntity
  8
0
  6
CONTINUOUS
 62
     8
100
AcDbLine
 10
244.3772002371
 20
248.7489489336
 30
0.0
 11
244.6772002371
 21
248.7489489336
 31
0.0
  0
SPLINE
  5
18F
330
1F
100
AcDbEntity
  8
0
  6
CONTINUOUS
 62
     8
100
AcDbSpline
210
0.0
220
0.0
230
1.0
 70
     8
 71
     3
 72
    13
 73
     9
 74
     0
 42
0.000000001
 43
0.00000001
 40
0.0
 40
0.0
 40
0.0
 40
0.0
 40
0.0000403587742113
 40
0.0295380065686077
 40
0.347470232663381
 40
0.5385841811161057
 40
0.9904598367768247
 40
1.0
 40
1.0
 40
1.0
 40
1.0
 10
225.301377556845
 20
247.4653213979613
 30
0.0
 10
225.3013829219787
 20
247.465332968135
 30
0.0
 10
225.305309586247
 20
247.4738010119403
 30
0.0
 10
225.3522713670101
 20
247.5761515225647
 30
0.0
 10
225.4286721156337
 20
247.783887958358
 30
0.0
 10
225.5479469033127
 20
248.2035851000425
 30
0.0
 10
225.6284824831167
 20
248.5207255293331
 30
0.0
 10
225.6762133606918
 20
248.7443258082438
 30
0.0
 10
225.6772002370498
 20
248.7489489335687
 30
0.0
  0
SPLINE
  5
190
330
1F
100
AcDbEntity
  8
0
  6
CONTINUOUS
 62
     8
100
AcDbSpline
210
0.0
220
0.0
230
1.0
 70
     8
 71
     3
 72
    12
 73
     8
 74
     0
 42
0.000000001
 43
0.00000001
 40
0.0
 40
0.0
 40
0.0
 40
0.0
 40
0.0001217128268379
 40
0.3091473694749797
 40
0.502902048505358
 40
0.9998782946513145
 40
1.0
 40
1.0
 40
1.0
 40
1.0
 10
225.2138569518559
 20
247.3053713471156
 30
0.0
 10
225.2138569522378
 20
247.3053713477373
 30
0.0
 10
225.2138579220601
 20
247.3053729267245
 30
0.0
 10
225.220280025818
 20
247.3155384770602
 30
0.0
 10
225.2485085738876
 20
247.3630578507156
 30
0.0
 10
225.2785886773664
 20
247.4182065394978
 30
0.0
 10
225.30137197877
 20
247.4653098655728
 30
0.0
 10
225.301377556845
 20
247.4653213979613
 30
0.0
  0
LINE
  5
191
330
1F
100
AcDbEntity
  8
0
  6
CONTINUOUS
 62
     8
100
AcDbLine
 10
224.9772002371
 20
248.7489489336
 30
0.0
 11
225.6772002371
 21
248.7489489336
 31
0.0
  0
SPLINE
  5
192
330
1F
100
AcDbEntity
  8
0
  6
CONTINUOUS
 62
     8
100
AcDbSpline
210
0.0
220
0.0
230
1.0
 70
     8
 71
     3
 72
    12
 73
     8
 74
     0
 42
0.000000001
 43
0.00000001
 40
0.0
 40
0.0
 40
0.0
 40
0.0
 40
0.0001217053486868
 40
0.4970979514946441
 40
0.6908526305250214
 40
0.9998782871731622
 40
1.0
 40
1.0
 40
1.0
 40
1.0
 10
244.0530229172613
 20
247.4653213979617
 30
0.0
 10
244.0530284953363
 20
247.4653098655731
 30
0.0
 10
244.0758117967429
 20
247.4182065395972
 30
0.0
 10
244.1058919002176
 20
247.3630578507056
 30
0.0
 10
244.1341204482893
 20
247.3155384770552
 30
0.0
 10
244.1405425520431
 20
247.3053729267619
 30
0.0
 10
244.1405435218685
 20
247.3053713477377
 30
0.0
 10
244.1405435222504
 20
247.3053713471159
 30
0.0
  0
SPLINE
  5
193
330
1F
100
AcDbEntity
  8
0
  6
CONTINUOUS
 62
     8
100
AcDbSpline
210
0.0
220
0.0
230
1.0
 70
     8
 71
     3
 72
    14
 73
    10
 74
     0
 42
0.000000001
 43
0.00000001
 40
0.0
 40
0.0
 40
0.0
 40
0.0
 40
0.0919493013682598
 40
0.1369255702226278
 40
0.2930190343938767
 40
0.5362437073537073
 40
0.6751974044129728
 40
0.9942697539520216
 40
1.0
 40
1.0
 40
1.0
 40
1.0
 10
243.3644838209046
 20
246.9360307955881
 30
0.0
 10
243.3656165035952
 20
246.9441299615407
 30
0.0
 10
243.3673032290078
 20
246.9561907700501
 30
0.0
 10
243.3808396918993
 20
247.0572598424963
 30
0.0
 10
243.4130829419082
 20
247.293129542448
 30
0.0
 10
243.4735015868689
 20
247.6588859660558
 30
0.0
 10
243.5643964046655
 20
248.1574425518776
 30
0.0
 10
243.6278055724314
 20
248.5041927448908
 30
0.0
 10
243.6763439119168
 20
248.7447057449802
 30
0.0
 10
243.6772002370564
 20
248.7489489335723
 30
0.0
  0
SPLINE
  5
194
330
1F
100
AcDbEntity
  8
0
  6
CONTINUOUS
 62
     8
100
AcDbSpline
210
0.0
220
0.0
230
1.0
 70
     8
 71
     3
 72
    13
 73
     9
 74
     0
 42
0.000000001
 43
0.00000001
 40
0.0
 40
0.0
 40
0.0
 40
0.0
 40
0.0095401632231372
 40
0.4614158188838234
 40
0.652529767336616
 40
0.9704619934313926
 40
0.9999596412257891
 40
1.0
 40
1.0
 40
1.0
 40
1.0
 10
243.6772002370533
 20
248.7489489335684
 30
0.0
 10
243.6781871134123
 20
248.7443258082437
 30
0.0
 10
243.7259179910383
 20
248.5207255293437
 30
0.0
 10
243.8064535707847
 20
248.2035851000303
 30
0.0
 10
243.9257283584753
 20
247.7838879583781
 30
0.0
 10
244.0021291070964
 20
247.5761515224869
 30
0.0
 10
244.0490908878592
 20
247.4738010119553
 30
0.0
 10
244.0530175521276
 20
247.4653329681354
 30
0.0
 10
244.0530229172613
 20
247.4653213979616
 30
0.0
  0
LINE
  5
195
330
1F
100
AcDbEntity
  8
0
  6
CONTINUOUS
 62
     8
100
AcDbLine
 10
240.6772002371
 20
239.3681174139
 30
0.0
 11
239.6772002371
 21
239.3681174139
 31
0.0
  0
ARC
  5
196
330
1F
100
AcDbEntity
  8
0
  6
CONTINUOUS
 62
     8
100
AcDbCircle
 10
252.6772002371
 20
239.3681174139
 30
0.0
 40
13.0
100
AcDbArc
 50
133.8130614604
 51
180.0
  0
LINE
  5
197
330
1F
100
AcDbEntity
  8
0
  6
CONTINUOUS
 62
     8
100
AcDbLine
 10
228.6772002371
 20
239.3681174139
 30
0.0
 11
229.6772002371
 21
239.3681174139
 31
0.0
  0
SPLINE
  5
198
330
1F
100
AcDbEntity
  8
0
  6
CONTINUOUS
 62
     8
100
AcDbSpline
210
0.0
220
0.0
230
1.0
 70
     8
 71
     3
 72
    14
 73
    10
 74
     0
 42
0.000000001
 43
0.00000001
 40
0.0
 40
0.0
 40
0.0
 40
0.0
 40
0.0057302460479655
 40
0.3248025955870922
 40
0.4637562926462938
 40
0.7069809656061242
 40
0.8630744297773733
 40
0.9080506986317409
 40
1.0
 40
1.0
 40
1.0
 40
1.0
 10
225.6772002370498
 20
248.7489489335719
 30
0.0
 10
225.6780565621894
 20
248.7447057449799
 30
0.0
 10
225.7265949016747
 20
248.5041927448897
 30
0.0
 10
225.7900040694408
 20
248.1574425518772
 30
0.0
 10
225.8808988872374
 20
247.6588859660554
 30
0.0
 10
225.9413175321982
 20
247.2931295424477
 30
0.0
 10
225.973560782207
 20
247.0572598424958
 30
0.0
 10
225.9870972450985
 20
246.9561907700499
 30
0.0
 10
225.9887839705111
 20
246.9441299615404
 30
0.0
 10
225.9899166532016
 20
246.9360307955877
 30
0.0
  0
ARC
  5
199
330
1F
100
AcDbEntity
  8
0
  6
CONTINUOUS
 62
     8
100
AcDbCircle
 10
216.6772002371
 20
239.3681174139
 30
0.0
 40
13.00000000000002
100
AcDbArc
 50
0.0
 51
46.1869385396
  0
LINE
  5
19A
330
1F
100
AcDbEntity
  8
0
  6
CONTINUOUS
 62
     8
100
AcDbLine
 10
244.3772002371
 20
248.7489489336
 30
0.0
 11
243.6772002371
 21
248.7489489336
 31
0.0
  0
LINE
  5
19B
330
1F
100
AcDbEntity
  8
0
  6
CONTINUOUS
 62
     8
100
AcDbLine
 10
244.3772002371
 20
264.3053713471
 30
0.0
 11
244.3772002371
 21
265.3053713471
 31
0.0
  0
LINE
  5
19C
330
1F
100
AcDbEntity
  8
0
  6
CONTINUOUS
 62
     8
100
AcDbLine
 10
244.3772002371
 20
264.3053713471
 30
0.0
 11
244.6772002371
 21
264.3053713471
 31
0.0
  0
LINE
  5
19D
330
1F
100
AcDbEntity
  8
0
  6
CONTINUOUS
 62
     8
100
AcDbLine
 10
244.3772002371
 20
264.3053713471
 30
0.0
 11
224.9772002371
 21
264.3053713471
 31
0.0
  0
LINE
  5
19E
330
1F
100
AcDbEntity
  8
0
  6
CONTINUOUS
 62
     8
100
AcDbLine
 10
224.9772002371
 20
265.3053713471
 30
0.0
 11
224.9772002371
 21
264.3053713471
 31
0.0
  0
LINE
  5
19F
330
1F
100
AcDbEntity
  8
0
  6
CONTINUOUS
 62
     8
100
AcDbLine
 10
240.6772002371
 20
228.3053713471
 30
0.0
 11
239.6772002371
 21
228.3053713471
 31
0.0
  0
LINE
  5
1A0
330
1F
100
AcDbEntity
  8
0
  6
CONTINUOUS
 62
     8
100
AcDbLine
 10
239.6772002371
 20
228.3053713471
 30
0.0
 11
239.6772002371
 21
239.3681174139
 31
0.0
  0
LINE
  5
1A1
330
1F
100
AcDbEntity
  8
0
  6
CONTINUOUS
 62
     8
100
AcDbLine
 10
237.6772002371
 20
225.3053713471
 30
0.0
 11
237.6772002371
 21
226.3053713471
 31
0.0
  0
ARC
  5
1A2
330
1F
100
AcDbEntity
  8
0
  6
CONTINUOUS
 62
     8
100
AcDbCircle
 10
237.6772002371
 20
228.3053713471
 30
0.0
 40
2.0
100
AcDbArc
 50
270.0
 51
0.0
  0
LINE
  5
1A3
330
1F
100
AcDbEntity
  8
0
  6
CONTINUOUS
 62
     8
100
AcDbLine
 10
231.6772002371
 20
225.3053713471
 30
0.0
 11
231.6772002371
 21
226.3053713471
 31
0.0
  0
LINE
  5
1A4
330
1F
100
AcDbEntity
  8
0
  6
CONTINUOUS
 62
     8
100
AcDbLine
 10
231.6772002371
 20
226.3053713471
 30
0.0
 11
237.6772002371
 21
226.3053713471
 31
0.0
  0
LINE
  5
1A5
330
1F
100
AcDbEntity
  8
0
  6
CONTINUOUS
 62
     8
100
AcDbLine
 10
228.6772002371
 20
228.3053713471
 30
0.0
 11
229.6772002371
 21
228.3053713471
 31
0.0
  0
ARC
  5
1A6
330
1F
100
AcDbEntity
  8
0
  6
CONTINUOUS
 62
     8
100
AcDbCircle
 10
231.6772002371
 20
228.3053713471
 30
0.0
 40
2.0
100
AcDbArc
 50
180.0
 51
270.0
  0
LINE
  5
1A7
330
1F
100
AcDbEntity
  8
0
  6
CONTINUOUS
 62
     8
100
AcDbLine
 10
229.6772002371
 20
239.3681174139
 30
0.0
 11
229.6772002371
 21
228.3053713471
 31
0.0
  0
LINE
  5
1A8
330
1F
100
AcDbEntity
  8
0
  6
CONTINUOUS
 62
     8
100
AcDbLine
 10
224.6772002371
 20
264.3053713471
 30
0.0
 11
224.9772002371
 21
264.3053713471
 31
0.0
  0
LINE
  5
1A9
330
1F
100
AcDbEntity
  8
0
  6
CONTINUOUS
 62
     8
100
AcDbLine
 10
244.3772002371
 20
248.7489489336
 30
0.0
 11
244.3772002371
 21
264.3053713471
 31
0.0
  0
LINE
  5
1AA
330
1F
100
AcDbEntity
  8
0
  6
CONTINUOUS
 62
     8
100
AcDbLine
 10
224.9772002371
 20
264.3053713471
 30
0.0
 11
224.9772002371
 21
248.7489489336
 31
0.0
  0
LINE
  5
1AB
330
1F
100
AcDbEntity
  8
0
  6
CONTINUOUS
 62
     8
100
AcDbLine
 10
225.6772002371
 20
616.6053713471
 30
0.0
 11
243.6772002371
 21
616.6053713471
 31
0.0
  0
LINE
  5
1AC
330
1F
100
AcDbEntity
  8
0
  6
CONTINUOUS
 62
     8
100
AcDbLine
 10
243.6772002371
 20
616.6053713471
 30
0.0
 11
243.6772002371
 21
616.3053713471
 31
0.0
  0
LINE
  5
1AD
330
1F
100
AcDbEntity
  8
0
  6
CONTINUOUS
 62
     8
100
AcDbLine
 10
225.6772002371
 20
616.6053713471
 30
0.0
 11
225.6772002371
 21
616.3053713471
 31
0.0
  0
LINE
  5
1AE
330
1F
100
AcDbEntity
  8
0
  6
CONTINUOUS
 62
     8
100
AcDbLine
 10
244.6772002371
 20
621.0053713471
 30
0.0
 11
243.6772002371
 21
621.0053713471
 31
0.0
  0
LINE
  5
1AF
330
1F
100
AcDbEntity
  8
0
  6
CONTINUOUS
 62
     8
100
AcDbLine
 10
243.6772002371
 20
616.6053713471
 30
0.0
 11
244.6772002371
 21
616.6053713471
 31
0.0
  0
LINE
  5
1B0
330
1F
100
AcDbEntity
  8
0
  6
CONTINUOUS
 62
     8
100
AcDbLine
 10
243.6772002371
 20
616.6053713471
 30
0.0
 11
243.6772002371
 21
621.0053713471
 31
0.0
  0
LINE
  5
1B1
330
1F
100
AcDbEntity
  8
0
  6
CONTINUOUS
 62
     8
100
AcDbLine
 10
243.6772002371
 20
621.0053713471
 30
0.0
 11
225.6772002371
 21
621.0053713471
 31
0.0
  0
LINE
  5
1B2
330
1F
100
AcDbEntity
  8
0
  6
CONTINUOUS
 62
     8
100
AcDbLine
 10
225.6772002371
 20
621.0053713471
 30
0.0
 11
225.6772002371
 21
616.6053713471
 31
0.0
  0
LINE
  5
1B3
330
1F
100
AcDbEntity
  8
0
  6
CONTINUOUS
 62
     8
100
AcDbLine
 10
243.6772002371
 20
621.3053713471
 30
0.0
 11
243.6772002371
 21
621.0053713471
 31
0.0
  0
LINE
  5
1B4
330
1F
100
AcDbEntity
  8
0
  6
CONTINUOUS
 62
     8
100
AcDbLine
 10
225.6772002371
 20
621.3053713471
 30
0.0
 11
225.6772002371
 21
621.0053713471
 31
0.0
  0
LINE
  5
1B5
330
1F
100
AcDbEntity
  8
0
  6
CONTINUOUS
 62
     8
100
AcDbLine
 10
243.3644838209
 20
597.9360307956
 30
0.0
 11
243.5973017313
 21
597.746832961
 31
0.0
  0
ARC
  5
1B6
330
1F
100
AcDbEntity
  8
0
  6
CONTINUOUS
 62
     8
100
AcDbCircle
 10
252.6772002371
 20
590.3681174139
 30
0.0
 40
11.69999999999999
100
AcDbArc
 50
140.9012077774
 51
180.0
  0
LINE
  5
1B7
330
1F
100
AcDbEntity
  8
0
  6
CONTINUOUS
 62
     8
100
AcDbLine
 10
240.6772002371
 20
590.3681174139
 30
0.0
 11
240.9772002371
 21
590.3681174139
 31
0.0
  0
LWPOLYLINE
  5
1B8
330
1F
100
AcDbEntity
  8
0
  6
CONTINUOUS
 62
     8
100
AcDbPolyline
 90
        9
 70
   128
 43
0.0
 10
244.1405435222
 20
598.3053713471
 10
244.1792837183
 20
598.2996069312
 10
244.2165351503
 20
598.2825352069
 10
244.2508662666
 20
598.2548122308
 10
244.2809577418
 20
598.2175033815
 10
244.3056531773
 20
598.172042417
 10
244.3240035413
 20
598.1201763768
 10
244.3353036396
 20
598.0638984437
 10
244.3391192159
 20
598.0053713471
  0
SPLINE
  5
1B9
330
1F
100
AcDbEntity
  8
0
  6
CONTINUOUS
 62
     8
100
AcDbSpline
210
0.0
220
0.0
230
1.0
 70
     8
 71
     3
 72
    10
 73
     6
 74
     0
 42
0.000000001
 43
0.00000001
 40
0.0
 40
0.0
 40
0.0
 40
0.0
 40
0.3385548773715454
 40
0.6797299489799601
 40
1.0
 40
1.0
 40
1.0
 40
1.0
 10
244.3391192159056
 20
598.0053713471123
 30
0.0
 10
244.2712495050847
 20
598.0026885933478
 30
0.0
 10
244.1349848160873
 20
597.9973023230523
 30
0.0
 10
243.8959745046145
 20
597.9444439155251
 30
0.0
 10
243.7485721051001
 20
597.8673855738195
 30
0.0
 10
243.6772002370525
 20
597.8300741201779
 30
0.0
  0
LINE
  5
1BA
330
1F
100
AcDbEntity
  8
0
  6
CONTINUOUS
 62
     8
100
AcDbLine
 10
243.4786245434
 20
598.0549467372
 30
0.0
 11
243.6772002371
 21
597.8300741202
 31
0.0
  0
LINE
  5
1BB
330
1F
100
AcDbEntity
  8
0
  6
CONTINUOUS
 62
     8
100
AcDbLine
 10
243.6772002371
 20
573.6053713471
 30
0.0
 11
244.6772002371
 21
573.6053713471
 31
0.0
  0
LINE
  5
1BC
330
1F
100
AcDbEntity
  8
0
  6
CONTINUOUS
 62
     8
100
AcDbLine
 10
243.6772002371
 20
573.6053713471
 30
0.0
 11
243.6772002371
 21
597.8300741202
 31
0.0
  0
LINE
  5
1BD
330
1F
100
AcDbEntity
  8
0
  6
CONTINUOUS
 62
     8
100
AcDbLine
 10
244.6772002371
 20
598.0053713471
 30
0.0
 11
244.3391192159
 21
598.0053713471
 31
0.0
  0
LINE
  5
1BE
330
1F
100
AcDbEntity
  8
0
  6
CONTINUOUS
 62
     8
100
AcDbLine
 10
228.3772002371
 20
579.3053713471
 30
0.0
 11
228.3772002371
 21
590.3681174139
 31
0.0
  0
ARC
  5
1BF
330
1F
100
AcDbEntity
  8
0
  6
CONTINUOUS
 62
     8
100
AcDbCircle
 10
231.6772002371
 20
579.3053713471
 30
0.0
 40
3.300000000000068
100
AcDbArc
 50
180.0
 51
270.0
  0
LINE
  5
1C0
330
1F
100
AcDbEntity
  8
0
  6
CONTINUOUS
 62
     8
100
AcDbLine
 10
237.6772002371
 20
576.0053713471
 30
0.0
 11
231.6772002371
 21
576.0053713471
 31
0.0
  0
ARC
  5
1C1
330
1F
100
AcDbEntity
  8
0
  6
CONTINUOUS
 62
     8
100
AcDbCircle
 10
237.6772002371
 20
579.3053713471
 30
0.0
 40
3.300000000000068
100
AcDbArc
 50
270.0
 51
0.0
  0
LINE
  5
1C2
330
1F
100
AcDbEntity
  8
0
  6
CONTINUOUS
 62
     8
100
AcDbLine
 10
240.9772002371
 20
590.3681174139
 30
0.0
 11
240.9772002371
 21
579.3053713471
 31
0.0
  0
ARC
  5
1C3
330
1F
100
AcDbEntity
  8
0
  6
CONTINUOUS
 62
     8
100
AcDbCircle
 10
244.1405435222
 20
597.3053713471
 30
0.0
 40
0.7000000000000195
100
AcDbArc
 50
131.4463897514
 51
140.9012077774
  0
LINE
  5
1C4
330
1F
100
AcDbEntity
  8
0
  6
CONTINUOUS
 62
     8
100
AcDbLine
 10
225.6772002371
 20
573.6053713471
 30
0.0
 11
243.6772002371
 21
573.6053713471
 31
0.0
  0
LINE
  5
1C5
330
1F
100
AcDbEntity
  8
0
  6
CONTINUOUS
 62
     8
100
AcDbLine
 10
225.6772002371
 20
597.8300741202
 30
0.0
 11
225.6772002371
 21
573.6053713471
 31
0.0
  0
ARC
  5
1C6
330
1F
100
AcDbEntity
  8
0
  6
CONTINUOUS
 62
     8
100
AcDbCircle
 10
225.2138569519
 20
597.3053713471
 30
0.0
 40
0.7000000000000195
100
AcDbArc
 50
39.0987922226
 51
48.55361024859999
  0
ARC
  5
1C7
330
1F
100
AcDbEntity
  8
0
  6
CONTINUOUS
 62
     8
100
AcDbCircle
 10
216.6772002371
 20
590.3681174139
 30
0.0
 40
11.70000000000002
100
AcDbArc
 50
0.0
 51
39.0987922226
  0
LINE
  5
1C8
330
1F
100
AcDbEntity
  8
0
  6
CONTINUOUS
 62
     8
100
AcDbLine
 10
243.6772002371
 20
573.6053713471
 30
0.0
 11
243.6772002371
 21
573.3053713471
 31
0.0
  0
LINE
  5
1C9
330
1F
100
AcDbEntity
  8
0
  6
CONTINUOUS
 62
     8
100
AcDbLine
 10
240.6772002371
 20
579.3053713471
 30
0.0
 11
240.9772002371
 21
579.3053713471
 31
0.0
  0
LINE
  5
1CA
330
1F
100
AcDbEntity
  8
0
  6
CONTINUOUS
 62
     8
100
AcDbLine
 10
225.6772002371
 20
573.6053713471
 30
0.0
 11
225.6772002371
 21
573.3053713471
 31
0.0
  0
LINE
  5
1CB
330
1F
100
AcDbEntity
  8
0
  6
CONTINUOUS
 62
     8
100
AcDbLine
 10
237.6772002371
 20
576.3053713471
 30
0.0
 11
237.6772002371
 21
576.0053713471
 31
0.0
  0
LINE
  5
1CC
330
1F
100
AcDbEntity
  8
0
  6
CONTINUOUS
 62
     8
100
AcDbLine
 10
231.6772002371
 20
576.3053713471
 30
0.0
 11
231.6772002371
 21
576.0053713471
 31
0.0
  0
LINE
  5
1CD
330
1F
100
AcDbEntity
  8
0
  6
CONTINUOUS
 62
     8
100
AcDbLine
 10
228.3772002371
 20
590.3681174139
 30
0.0
 11
228.6772002371
 21
590.3681174139
 31
0.0
  0
LINE
  5
1CE
330
1F
100
AcDbEntity
  8
0
  6
CONTINUOUS
 62
     8
100
AcDbLine
 10
228.3772002371
 20
579.3053713471
 30
0.0
 11
228.6772002371
 21
579.3053713471
 31
0.0
  0
LINE
  5
1CF
330
1F
100
AcDbEntity
  8
0
  6
CONTINUOUS
 62
     8
100
AcDbLine
 10
225.7570987428
 20
597.746832961
 30
0.0
 11
225.9899166532
 21
597.9360307956
 31
0.0
  0
LINE
  5
1D0
330
1F
100
AcDbEntity
  8
0
  6
CONTINUOUS
 62
     8
100
AcDbLine
 10
225.6772002371
 20
621.0053713471
 30
0.0
 11
224.6772002371
 21
621.0053713471
 31
0.0
  0
LINE
  5
1D1
330
1F
100
AcDbEntity
  8
0
  6
CONTINUOUS
 62
     8
100
AcDbLine
 10
224.6772002371
 20
616.6053713471
 30
0.0
 11
225.6772002371
 21
616.6053713471
 31
0.0
  0
LINE
  5
1D2
330
1F
100
AcDbEntity
  8
0
  6
CONTINUOUS
 62
     8
100
AcDbLine
 10
225.6772002371
 20
597.8300741202
 30
0.0
 11
225.8757759307
 21
598.0549467372
 31
0.0
  0
LINE
  5
1D3
330
1F
100
AcDbEntity
  8
0
  6
CONTINUOUS
 62
     8
100
AcDbLine
 10
224.6772002371
 20
573.6053713471
 30
0.0
 11
225.6772002371
 21
573.6053713471
 31
0.0
  0
LINE
  5
1D4
330
1F
100
AcDbEntity
  8
0
  6
CONTINUOUS
 62
     8
100
AcDbLine
 10
225.0152812582
 20
598.0053713471
 30
0.0
 11
224.6772002371
 21
598.0053713471
 31
0.0
  0
SPLINE
  5
1D5
330
1F
100
AcDbEntity
  8
0
  6
CONTINUOUS
 62
     8
100
AcDbSpline
210
0.0
220
0.0
230
1.0
 70
     8
 71
     3
 72
    10
 73
     6
 74
     0
 42
0.000000001
 43
0.00000001
 40
0.0
 40
0.0
 40
0.0
 40
0.0
 40
0.3109916030568144
 40
0.651760823271769
 40
1.0
 40
1.0
 40
1.0
 40
1.0
 10
225.6772002370525
 20
597.8300741201779
 30
0.0
 10
225.6079946838729
 20
597.8664281169106
 30
0.0
 10
225.462957107707
 20
597.9426170255722
 30
0.0
 10
225.2236350156241
 20
597.996942327033
 30
0.0
 10
225.0852326784731
 20
598.0025414392991
 30
0.0
 10
225.0152812581993
 20
598.0053713471123
 30
0.0
  0
LWPOLYLINE
  5
1D6
330
1F
100
AcDbEntity
  8
0
  6
CONTINUOUS
 62
     8
100
AcDbPolyline
 90
        9
 70
   128
 43
0.0
 10
225.0152812582
 20
598.0053713471
 10
225.0190968345
 20
598.0638984437
 10
225.0303969328
 20
598.1201763768
 10
225.0487472968
 20
598.172042417
 10
225.0734427323
 20
598.2175033815
 10
225.1035342075
 20
598.2548122308
 10
225.1378653238
 20
598.2825352069
 10
225.1751167558
 20
598.2996069312
 10
225.2138569519
 20
598.3053713471
  0
LINE
  5
1D7
330
1F
100
AcDbEntity
  8
0
  6
CONTINUOUS
 62
     8
100
AcDbLine
 10
224.9772002371
 20
621.4553713471
 30
0.0
 11
224.9772002371
 21
621.3053713471
 31
0.0
  0
LINE
  5
1D8
330
1F
100
AcDbEntity
  8
0
  6
CONTINUOUS
 62
     8
100
AcDbLine
 10
244.3772002371
 20
621.3053713471
 30
0.0
 11
244.3772002371
 21
621.4553713471
 31
0.0
  0
LINE
  5
1D9
330
1F
100
AcDbEntity
  8
0
  6
CONTINUOUS
 62
     8
100
AcDbLine
 10
224.9772002371
 20
573.3053713471
 30
0.0
 11
224.9772002371
 21
573.1553713471
 31
0.0
  0
LINE
  5
1DA
330
1F
100
AcDbEntity
  8
0
  6
CONTINUOUS
 62
     8
100
AcDbLine
 10
244.3772002371
 20
573.1553713471
 30
0.0
 11
244.3772002371
 21
573.3053713471
 31
0.0
  0
LINE
  5
1DB
330
1F
100
AcDbEntity
  8
0
  6
CONTINUOUS
 62
     8
100
AcDbLine
 10
224.6772002371
 20
599.7489489336
 30
0.0
 11
224.9772002371
 21
599.7489489336
 31
0.0
  0
SPLINE
  5
1DC
330
1F
100
AcDbEntity
  8
0
  6
CONTINUOUS
 62
     8
100
AcDbSpline
210
0.0
220
0.0
230
1.0
 70
    24
 71
     3
 72
    13
 73
     9
 74
     0
 42
0.000000001
 43
0.00000001
 40
0.0
 40
0.0
 40
0.0
 40
0.0
 40
0.0000312379613155
 40
0.332162632623427
 40
0.5932392217637804
 40
0.7713807809009141
 40
0.9084487681138678
 40
1.0
 40
1.0
 40
1.0
 40
1.0
 10
224.9772002370525
 20
599.7489489335654
 30
0.0
 10
224.9772002370525
 20
599.7489289335701
 30
0.0
 10
224.9772002370242
 20
599.5362629714831
 30
0.0
 10
224.9772002370628
 20
599.1536081275189
 30
0.0
 10
224.9772002370509
 20
598.7054755476336
 30
0.0
 10
224.9772002370528
 20
598.4421691165427
 30
0.0
 10
224.9772002370524
 20
598.3225332832567
 30
0.0
 10
224.9772002370525
 20
598.3102787218896
 30
0.0
 10
224.9772002370525
 20
598.3053713471122
 30
0.0
  0
SPLINE
  5
1DD
330
1F
100
AcDbEntity
  8
0
  6
CONTINUOUS
 62
     8
100
AcDbSpline
210
0.0
220
0.0
230
1.0
 70
    24
 71
     3
 72
    13
 73
     9
 74
     0
 42
0.000000001
 43
0.00000001
 40
0.0
 40
0.0
 40
0.0
 40
0.0
 40
0.0000312301637654
 40
0.1233200993853421
 40
0.2531075911011506
 40
0.4492919724462189
 40
0.7319937976181938
 40
1.0
 40
1.0
 40
1.0
 40
1.0
 10
244.3772002370525
 20
598.3053713471122
 30
0.0
 10
244.3772002370525
 20
598.305371347733
 30
0.0
 10
244.3772002370521
 20
598.3053737984085
 30
0.0
 10
244.3772002370526
 20
598.336470964423
 30
0.0
 10
244.3772002370524
 20
598.4800277439813
 30
0.0
 10
244.3772002370525
 20
598.7767543636667
 30
0.0
 10
244.3772002370524
 20
599.2234680402119
 30
0.0
 10
244.3772002370525
 20
599.576932699448
 30
0.0
 10
244.3772002370525
 20
599.7489489335654
 30
0.0
  0
LINE
  5
1DE
330
1F
100
AcDbEntity
  8
0
  6
CONTINUOUS
 62
     8
100
AcDbLine
 10
244.3772002371
 20
599.7489489336
 30
0.0
 11
244.6772002371
 21
599.7489489336
 31
0.0
  0
SPLINE
  5
1DF
330
1F
100
AcDbEntity
  8
0
  6
CONTINUOUS
 62
     8
100
AcDbSpline
210
0.0
220
0.0
230
1.0
 70
     8
 71
     3
 72
    13
 73
     9
 74
     0
 42
0.000000001
 43
0.00000001
 40
0.0
 40
0.0
 40
0.0
 40
0.0
 40
0.0000403587742113
 40
0.0295380065686075
 40
0.3474702326633802
 40
0.5385841811160884
 40
0.9904598367768248
 40
1.0
 40
1.0
 40
1.0
 40
1.0
 10
225.3013775568443
 20
598.4653213979581
 30
0.0
 10
225.3013829219781
 20
598.4653329681317
 30
0.0
 10
225.3053095862466
 20
598.4738010119435
 30
0.0
 10
225.3522713670081
 20
598.576151522527
 30
0.0
 10
225.4286721156333
 20
598.783887958363
 30
0.0
 10
225.5479469033119
 20
599.2035851000347
 30
0.0
 10
225.628482483116
 20
599.5207255293291
 30
0.0
 10
225.6762133606912
 20
599.7443258082405
 30
0.0
 10
225.6772002370492
 20
599.7489489335654
 30
0.0
  0
SPLINE
  5
1E0
330
1F
100
AcDbEntity
  8
0
  6
CONTINUOUS
 62
     8
100
AcDbSpline
210
0.0
220
0.0
230
1.0
 70
     8
 71
     3
 72
    12
 73
     8
 74
     0
 42
0.000000001
 43
0.00000001
 40
0.0
 40
0.0
 40
0.0
 40
0.0
 40
0.0001217128268379
 40
0.3091473694749789
 40
0.5029020485053568
 40
0.9998782946513145
 40
1.0
 40
1.0
 40
1.0
 40
1.0
 10
225.2138569518553
 20
598.3053713471122
 30
0.0
 10
225.2138569522371
 20
598.305371347734
 30
0.0
 10
225.2138579220616
 20
598.3053729267998
 30
0.0
 10
225.2202800258166
 20
598.3155384770422
 30
0.0
 10
225.2485085738878
 20
598.3630578507024
 30
0.0
 10
225.2785886773628
 20
598.4182065396333
 30
0.0
 10
225.3013719787693
 20
598.4653098655695
 30
0.0
 10
225.3013775568443
 20
598.4653213979581
 30
0.0
  0
LINE
  5
1E1
330
1F
100
AcDbEntity
  8
0
  6
CONTINUOUS
 62
     8
100
AcDbLine
 10
224.9772002371
 20
599.7489489336
 30
0.0
 11
225.6772002371
 21
599.7489489336
 31
0.0
  0
SPLINE
  5
1E2
330
1F
100
AcDbEntity
  8
0
  6
CONTINUOUS
 62
     8
100
AcDbSpline
210
0.0
220
0.0
230
1.0
 70
     8
 71
     3
 72
    12
 73
     8
 74
     0
 42
0.000000001
 43
0.00000001
 40
0.0
 40
0.0
 40
0.0
 40
0.0
 40
0.0001217053486868
 40
0.4970979514946218
 40
0.6908526305250174
 40
0.9998782871731622
 40
1.0
 40
1.0
 40
1.0
 40
1.0
 10
244.0530229172607
 20
598.4653213979581
 30
0.0
 10
244.0530284953356
 20
598.4653098655695
 30
0.0
 10
244.07581179674
 20
598.4182065395999
 30
0.0
 10
244.1058919002175
 20
598.3630578506986
 30
0.0
 10
244.1341204482883
 20
598.3155384770555
 30
0.0
 10
244.1405425520433
 20
598.3053729267451
 30
0.0
 10
244.1405435218679
 20
598.305371347734
 30
0.0
 10
244.1405435222497
 20
598.3053713471122
 30
0.0
  0
SPLINE
  5
1E3
330
1F
100
AcDbEntity
  8
0
  6
CONTINUOUS
 62
     8
100
AcDbSpline
210
0.0
220
0.0
230
1.0
 70
     8
 71
     3
 72
    14
 73
    10
 74
     0
 42
0.000000001
 43
0.00000001
 40
0.0
 40
0.0
 40
0.0
 40
0.0
 40
0.0919493013682575
 40
0.136925570222631
 40
0.2930190343938724
 40
0.5362437073537043
 40
0.6751974044129707
 40
0.9942697539520214
 40
1.0
 40
1.0
 40
1.0
 40
1.0
 10
243.364483820904
 20
597.9360307955844
 30
0.0
 10
243.3656165035946
 20
597.944129961537
 30
0.0
 10
243.3673032290071
 20
597.9561907700465
 30
0.0
 10
243.3808396918986
 20
598.0572598424926
 30
0.0
 10
243.4130829419075
 20
598.2931295424444
 30
0.0
 10
243.4735015868683
 20
598.658885966052
 30
0.0
 10
243.5643964046648
 20
599.1574425518742
 30
0.0
 10
243.6278055724308
 20
599.5041927448855
 30
0.0
 10
243.6763439119162
 20
599.7447057449765
 30
0.0
 10
243.6772002370558
 20
599.7489489335686
 30
0.0
  0
SPLINE
  5
1E4
330
1F
100
AcDbEntity
  8
0
  6
CONTINUOUS
 62
     8
100
AcDbSpline
210
0.0
220
0.0
230
1.0
 70
     8
 71
     3
 72
    13
 73
     9
 74
     0
 42
0.000000001
 43
0.00000001
 40
0.0
 40
0.0
 40
0.0
 40
0.0
 40
0.0095401632231553
 40
0.461415818883816
 40
0.6525297673366217
 40
0.970461993431393
 40
0.9999596412257891
 40
1.0
 40
1.0
 40
1.0
 40
1.0
 10
243.6772002370526
 20
599.7489489335647
 30
0.0
 10
243.6781871134117
 20
599.7443258082401
 30
0.0
 10
243.7259179910376
 20
599.5207255293402
 30
0.0
 10
243.8064535707842
 20
599.2035851000381
 30
0.0
 10
243.9257283584745
 20
598.7838879583543
 30
0.0
 10
244.0021291070963
 20
598.5761515225655
 30
0.0
 10
244.0490908878584
 20
598.4738010119363
 30
0.0
 10
244.0530175521269
 20
598.4653329681317
 30
0.0
 10
244.0530229172607
 20
598.4653213979581
 30
0.0
  0
LINE
  5
1E5
330
1F
100
AcDbEntity
  8
0
  6
CONTINUOUS
 62
     8
100
AcDbLine
 10
240.6772002371
 20
590.3681174139
 30
0.0
 11
239.6772002371
 21
590.3681174139
 31
0.0
  0
ARC
  5
1E6
330
1F
100
AcDbEntity
  8
0
  6
CONTINUOUS
 62
     8
100
AcDbCircle
 10
252.6772002371
 20
590.3681174139
 30
0.0
 40
13.00000000000003
100
AcDbArc
 50
133.8130614604
 51
180.0
  0
LINE
  5
1E7
330
1F
100
AcDbEntity
  8
0
  6
CONTINUOUS
 62
     8
100
AcDbLine
 10
228.6772002371
 20
590.3681174139
 30
0.0
 11
229.6772002371
 21
590.3681174139
 31
0.0
  0
SPLINE
  5
1E8
330
1F
100
AcDbEntity
  8
0
  6
CONTINUOUS
 62
     8
100
AcDbSpline
210
0.0
220
0.0
230
1.0
 70
     8
 71
     3
 72
    14
 73
    10
 74
     0
 42
0.000000001
 43
0.00000001
 40
0.0
 40
0.0
 40
0.0
 40
0.0
 40
0.0057302460479536
 40
0.3248025955870933
 40
0.4637562926462956
 40
0.7069809656061272
 40
0.8630744297773691
 40
0.9080506986317425
 40
1.0
 40
1.0
 40
1.0
 40
1.0
 10
225.6772002370492
 20
599.7489489335686
 30
0.0
 10
225.6780565621887
 20
599.7447057449765
 30
0.0
 10
225.7265949016741
 20
599.5041927448862
 30
0.0
 10
225.7900040694401
 20
599.1574425518739
 30
0.0
 10
225.8808988872367
 20
598.658885966052
 30
0.0
 10
225.9413175321975
 20
598.2931295424444
 30
0.0
 10
225.9735607822063
 20
598.0572598424926
 30
0.0
 10
225.9870972450978
 20
597.9561907700465
 30
0.0
 10
225.9887839705104
 20
597.9441299615371
 30
0.0
 10
225.989916653201
 20
597.9360307955845
 30
0.0
  0
ARC
  5
1E9
330
1F
100
AcDbEntity
  8
0
  6
CONTINUOUS
 62
     8
100
AcDbCircle
 10
216.6772002371
 20
590.3681174139
 30
0.0
 40
13.00000000000003
100
AcDbArc
 50
0.0
 51
46.1869385396
  0
LINE
  5
1EA
330
1F
100
AcDbEntity
  8
0
  6
CONTINUOUS
 62
     8
100
AcDbLine
 10
244.3772002371
 20
599.7489489336
 30
0.0
 11
243.6772002371
 21
599.7489489336
 31
0.0
  0
LINE
  5
1EB
330
1F
100
AcDbEntity
  8
0
  6
CONTINUOUS
 62
     8
100
AcDbLine
 10
244.3772002371
 20
615.3053713471
 30
0.0
 11
244.3772002371
 21
616.3053713471
 31
0.0
  0
LINE
  5
1EC
330
1F
100
AcDbEntity
  8
0
  6
CONTINUOUS
 62
     8
100
AcDbLine
 10
244.3772002371
 20
615.3053713471
 30
0.0
 11
244.6772002371
 21
615.3053713471
 31
0.0
  0
LINE
  5
1ED
330
1F
100
AcDbEntity
  8
0
  6
CONTINUOUS
 62
     8
100
AcDbLine
 10
244.3772002371
 20
615.3053713471
 30
0.0
 11
224.9772002371
 21
615.3053713471
 31
0.0
  0
LINE
  5
1EE
330
1F
100
AcDbEntity
  8
0
  6
CONTINUOUS
 62
     8
100
AcDbLine
 10
224.9772002371
 20
616.3053713471
 30
0.0
 11
224.9772002371
 21
615.3053713471
 31
0.0
  0
LINE
  5
1EF
330
1F
100
AcDbEntity
  8
0
  6
CONTINUOUS
 62
     8
100
AcDbLine
 10
240.6772002371
 20
579.3053713471
 30
0.0
 11
239.6772002371
 21
579.3053713471
 31
0.0
  0
LINE
  5
1F0
330
1F
100
AcDbEntity
  8
0
  6
CONTINUOUS
 62
     8
100
AcDbLine
 10
239.6772002371
 20
579.3053713471
 30
0.0
 11
239.6772002371
 21
590.3681174139
 31
0.0
  0
LINE
  5
1F1
330
1F
100
AcDbEntity
  8
0
  6
CONTINUOUS
 62
     8
100
AcDbLine
 10
237.6772002371
 20
576.3053713471
 30
0.0
 11
237.6772002371
 21
577.3053713471
 31
0.0
  0
ARC
  5
1F2
330
1F
100
AcDbEntity
  8
0
  6
CONTINUOUS
 62
     8
100
AcDbCircle
 10
237.6772002371
 20
579.3053713471
 30
0.0
 40
2.0
100
AcDbArc
 50
270.0
 51
0.0
  0
LINE
  5
1F3
330
1F
100
AcDbEntity
  8
0
  6
CONTINUOUS
 62
     8
100
AcDbLine
 10
231.6772002371
 20
576.3053713471
 30
0.0
 11
231.6772002371
 21
577.3053713471
 31
0.0
  0
LINE
  5
1F4
330
1F
100
AcDbEntity
  8
0
  6
CONTINUOUS
 62
     8
100
AcDbLine
 10
231.6772002371
 20
577.3053713471
 30
0.0
 11
237.6772002371
 21
577.3053713471
 31
0.0
  0
LINE
  5
1F5
330
1F
100
AcDbEntity
  8
0
  6
CONTINUOUS
 62
     8
100
AcDbLine
 10
229.6772002371
 20
590.3681174139
 30
0.0
 11
229.6772002371
 21
579.3053713471
 31
0.0
  0
LINE
  5
1F6
330
1F
100
AcDbEntity
  8
0
  6
CONTINUOUS
 62
     8
100
AcDbLine
 10
228.6772002371
 20
579.3053713471
 30
0.0
 11
229.6772002371
 21
579.3053713471
 31
0.0
  0
ARC
  5
1F7
330
1F
100
AcDbEntity
  8
0
  6
CONTINUOUS
 62
     8
100
AcDbCircle
 10
231.6772002371
 20
579.3053713471
 30
0.0
 40
2.0
100
AcDbArc
 50
180.0
 51
270.0
  0
LINE
  5
1F8
330
1F
100
AcDbEntity
  8
0
  6
CONTINUOUS
 62
     8
100
AcDbLine
 10
224.6772002371
 20
615.3053713471
 30
0.0
 11
224.9772002371
 21
615.3053713471
 31
0.0
  0
LINE
  5
1F9
330
1F
100
AcDbEntity
  8
0
  6
CONTINUOUS
 62
     8
100
AcDbLine
 10
244.3772002371
 20
599.7489489336
 30
0.0
 11
244.3772002371
 21
615.3053713471
 31
0.0
  0
LINE
  5
1FA
330
1F
100
AcDbEntity
  8
0
  6
CONTINUOUS
 62
     8
100
AcDbLine
 10
224.9772002371
 20
615.3053713471
 30
0.0
 11
224.9772002371
 21
599.7489489336
 31
0.0
  0
LINE
  5
1FB
330
1F
100
AcDbEntity
  8
0
  6
CONTINUOUS
 62
     8
100
AcDbLine
 10
243.6772002371
 20
757.3053713471
 30
0.0
 11
243.6772002371
 21
621.4553713471
 31
0.0
  0
LINE
  5
1FC
330
1F
100
AcDbEntity
  8
0
  6
CONTINUOUS
 62
     8
100
AcDbLine
 10
225.6772002371
 20
757.3053713471
 30
0.0
 11
225.6772002371
 21
621.4553713471
 31
0.0
  0
LINE
  5
1FD
330
1F
100
AcDbEntity
  8
0
  6
CONTINUOUS
 62
     8
100
AcDbLine
 10
243.6772002371
 20
573.1553713471
 30
0.0
 11
243.6772002371
 21
540.3053713471
 31
0.0
  0
LINE
  5
1FE
330
1F
100
AcDbEntity
  8
0
  6
CONTINUOUS
 62
     8
100
AcDbLine
 10
225.6772002371
 20
573.1553713471
 30
0.0
 11
225.6772002371
 21
540.3053713471
 31
0.0
  0
LINE
  5
1FF
330
1F
100
AcDbEntity
  8
0
  6
CONTINUOUS
 62
     8
100
AcDbLine
 10
225.6772002371
 20
270.4553713471
 30
0.0
 11
225.6772002371
 21
303.3053713471
 31
0.0
  0
LINE
  5
200
330
1F
100
AcDbEntity
  8
0
  6
CONTINUOUS
 62
     8
100
AcDbLine
 10
243.6772002371
 20
270.4553713471
 30
0.0
 11
243.6772002371
 21
303.3053713471
 31
0.0
  0
LINE
  5
201
330
1F
100
AcDbEntity
  8
0
  6
CONTINUOUS
 62
     8
100
AcDbLine
 10
225.6772002371
 20
86.3053713471
 30
0.0
 11
225.6772002371
 21
222.1553713471
 31
0.0
  0
LINE
  5
202
330
1F
100
AcDbEntity
  8
0
  6
CONTINUOUS
 62
     8
100
AcDbLine
 10
243.6772002371
 20
86.3053713471
 30
0.0
 11
243.6772002371
 21
222.1553713471
 31
0.0
  0
LINE
  5
203
330
1F
100
AcDbEntity
  8
0
  6
CONTINUOUS
 62
     8
100
AcDbLine
 10
225.6772002371
 20
530.3053713471
 30
0.0
 11
225.6772002371
 21
313.3053713471
 31
0.0
  0
LINE
  5
204
330
1F
100
AcDbEntity
  8
0
  6
CONTINUOUS
 62
     8
100
AcDbLine
 10
243.6772002371
 20
313.3053713471
 30
0.0
 11
243.6772002371
 21
530.3053713471
 31
0.0
  0
POINT
  5
205
330
1F
100
AcDbEntity
  8
0
  6
CONTINUOUS
 62
     7
100
AcDbPoint
 10
240.0772002371
 20
384.2053713471
 30
0.0
  0
POINT
  5
206
330
1F
100
AcDbEntity
  8
0
  6
CONTINUOUS
 62
     7
100
AcDbPoint
 10
240.0772002371
 20
459.4053713471
 30
0.0
  0
DIMENSION
  5
207
330
1F
100
AcDbEntity
  8
0
  6
CONTINUOUS
 62
     7
100
AcDbDimension
  2
_D
 10
234.6772002371
 20
356.217654972
 30
0.0
 11
237.3772002371
 21
356.217654972
 31
0.0
 70
   160
  1
<>
  3
SLDDIMSTYLE0
100
AcDbAlignedDimension
 13
240.0772002371
 23
384.2053713471
 33
0.0
 14
234.6772002371
 24
604.271545784
 34
0.0
100
AcDbRotatedDimension
  0
DIMENSION
  5
215
330
1F
100
AcDbEntity
  8
0
  6
CONTINUOUS
 62
     7
100
AcDbDimension
  2
_D_1
 10
234.6772002371
 20
430.6933240978
 30
0.0
 11
237.3772002371
 21
430.6933240978
 31
0.0
 70
   160
  1
<>
  3
SLDDIMSTYLE0
100
AcDbAlignedDimension
 13
240.0772002371
 23
459.4053713471
 33
0.0
 14
234.6772002371
 24
529.640082137
 34
0.0
100
AcDbRotatedDimension
  0
DIMENSION
  5
221
330
1F
100
AcDbEntity
  8
0
  6
CONTINUOUS
 62
     7
100
AcDbDimension
  2
_D_2
 10
192.677200237
 20
303.3053713471
 30
0.0
 11
192.677200237
 21
194.8053713471
 31
0.0
 70
   160
  1
<>
  3
SLDDIMSTYLE1
100
AcDbAlignedDimension
 13
225.6772002371
 23
86.3053713471
 33
0.0
 14
225.6772002371
 24
303.3053713471
 34
0.0
 50
90.0
100
AcDbRotatedDimension
  0
DIMENSION
  5
22C
330
1F
100
AcDbEntity
  8
0
  6
CONTINUOUS
 62
     7
100
AcDbDimension
  2
_D_3
 10
192.6772002371
 20
313.3053713471
 30
0.0
 11
192.677200237
 21
421.8053713471
 31
0.0
 70
   160
  1
<>
  3
SLDDIMSTYLE1
100
AcDbAlignedDimension
 13
225.6772002371
 23
530.3053713471
 33
0.0
 14
225.6772002371
 24
313.3053713471
 34
0.0
 50
90.0
100
AcDbRotatedDimension
  0
DIMENSION
  5
236
330
1F
100
AcDbEntity
  8
0
  6
CONTINUOUS
 62
     7
100
AcDbDimension
  2
_D_4
 10
192.677200237
 20
757.3053713471
 30
0.0
 11
192.677200237
 21
648.8053713471
 31
0.0
 70
   160
  1
<>
  3
SLDDIMSTYLE1
100
AcDbAlignedDimension
 13
225.6772002371
 23
540.3053713471
 33
0.0
 14
225.6772002371
 24
757.3053713471
 34
0.0
 50
90.0
100
AcDbRotatedDimension
  0
DIMENSION
  5
240
330
1F
100
AcDbEntity
  8
0
  6
CONTINUOUS
 62
     7
100
AcDbDimension
  2
_D_5
 10
244.6772002371
 20
776.4836962808
 30
0.0
 11
234.6772002371
 21
776.4836962808
 31
0.0
 70
   160
  1
<>
  3
SLDDIMSTYLE1
100
AcDbAlignedDimension
 13
224.6772002371
 23
757.3053713471
 33
0.0
 14
244.6772002371
 24
757.3053713471
 34
0.0
100
AcDbRotatedDimension
  0
DIMENSION
  5
24A
330
1F
100
AcDbEntity
  8
0
  6
CONTINUOUS
 62
     7
100
AcDbDimension
  2
_D_6
 10
206.6124158831
 20
126.3053713471
 30
0.0
 11
206.6124158831
 21
116.3053713471
 31
0.0
 70
   160
  1
<>
  3
SLDDIMSTYLE1
100
AcDbAlignedDimension
 13
231.6772002371
 23
106.3053713471
 33
0.0
 14
231.6772002371
 24
126.3053713471
 34
0.0
 50
90.0
100
AcDbRotatedDimension
  0
DIMENSION
  5
254
330
1F
100
AcDbEntity
  8
0
  6
CONTINUOUS
 62
     7
100
AcDbDimension
  2
_D_7
 10
206.6124158831
 20
106.3053713471
 30
0.0
 11
206.6124158831
 21
96.3053713471
 31
0.0
 70
   160
  1
<>
  3
SLDDIMSTYLE1
100
AcDbAlignedDimension
 13
225.6772002371
 23
86.3053713471
 33
0.0
 14
231.6772002371
 24
106.3053713471
 34
0.0
 50
90.0
100
AcDbRotatedDimension
  0
DIMENSION
  5
25E
330
1F
100
AcDbEntity
  8
0
  6
CONTINUOUS
 62
     7
100
AcDbDimension
  2
_D_8
 10
206.612415883
 20
225.3053713471
 30
0.0
 11
206.6124158831
 21
175.8053713471
 31
0.0
 70
   160
  1
<>
  3
SLDDIMSTYLE1
100
AcDbAlignedDimension
 13
231.6772002371
 23
126.3053713471
 33
0.0
 14
231.6772002371
 24
225.3053713471
 34
0.0
 50
90.0
100
AcDbRotatedDimension
  0
DIMENSION
  5
268
330
1F
100
AcDbEntity
  8
0
  6
CONTINUOUS
 62
     7
100
AcDbDimension
  2
_D_9
 10
252.93626794
 20
247.3053713471
 30
0.0
 11
252.93626794
 21
236.3053713471
 31
0.0
 70
   160
  1
<>
  3
SLDDIMSTYLE1
100
AcDbAlignedDimension
 13
237.6772002371
 23
225.3053713471
 33
0.0
 14
225.2138569519
 24
247.3053713471
 34
0.0
 50
90.0
100
AcDbRotatedDimension
  0
DIMENSION
  5
272
330
1F
100
AcDbEntity
  8
0
  6
CONTINUOUS
 62
     7
100
AcDbDimension
  2
_D_10
 10
206.6124158831
 20
265.3053713471
 30
0.0
 11
206.6124158831
 21
245.3053713471
 31
0.0
 70
   160
  1
<>
  3
SLDDIMSTYLE1
100
AcDbAlignedDimension
 13
231.6772002371
 23
225.3053713471
 33
0.0
 14
225.6772002371
 24
265.3053713471
 34
0.0
 50
90.0
100
AcDbRotatedDimension
  0
DIMENSION
  5
27C
330
1F
100
AcDbEntity
  8
0
  6
CONTINUOUS
 62
     7
100
AcDbDimension
  2
_D_11
 10
261.9945964323
 20
116.3053713471
 30
0.0
 11
261.9945964323
 21
181.8053713471
 31
0.0
 70
   160
  1
<>
  3
SLDDIMSTYLE1
100
AcDbAlignedDimension
 13
244.3772002371
 23
247.3053713471
 33
0.0
 14
239.6772002371
 24
116.3053713471
 34
0.0
 50
90.0
100
AcDbRotatedDimension
  0
DIMENSION
  5
286
330
1F
100
AcDbEntity
  8
0
  6
CONTINUOUS
 62
     7
100
AcDbDimension
  2
_D_12
 10
261.9945964323
 20
116.3053713471
 30
0.0
 11
261.9945964323
 21
101.3053713471
 31
0.0
 70
   160
  1
<>
  3
SLDDIMSTYLE1
100
AcDbAlignedDimension
 13
243.6772002371
 23
86.3053713471
 33
0.0
 14
239.6772002371
 24
116.3053713471
 34
0.0
 50
90.0
100
AcDbRotatedDimension
  0
DIMENSION
  5
290
330
1F
100
AcDbEntity
  8
0
  6
CONTINUOUS
 62
     7
100
AcDbDimension
  2
_D_13
 10
206.8702230373
 20
737.3053713471
 30
0.0
 11
206.8702230373
 21
747.3053713471
 31
0.0
 70
   160
  1
<>
  3
SLDDIMSTYLE1
100
AcDbAlignedDimension
 13
225.6772002371
 23
757.3053713471
 33
0.0
 14
231.6772002371
 24
737.3053713471
 34
0.0
 50
90.0
100
AcDbRotatedDimension
  0
DIMENSION
  5
29A
330
1F
100
AcDbEntity
  8
0
  6
CONTINUOUS
 62
     7
100
AcDbDimension
  2
_D_14
 10
206.8702230373
 20
717.3053713471
 30
0.0
 11
206.8702230373
 21
727.3053713471
 31
0.0
 70
   160
  1
<>
  3
SLDDIMSTYLE1
100
AcDbAlignedDimension
 13
231.6772002371
 23
737.3053713471
 33
0.0
 14
231.6772002371
 24
717.3053713471
 34
0.0
 50
90.0
100
AcDbRotatedDimension
  0
DIMENSION
  5
2A4
330
1F
100
AcDbEntity
  8
0
  6
CONTINUOUS
 62
     7
100
AcDbDimension
  2
_D_15
 10
253.5311576361
 20
598.3053713471
 30
0.0
 11
253.5311576361
 21
587.3053713471
 31
0.0
 70
   160
  1
<>
  3
SLDDIMSTYLE1
100
AcDbAlignedDimension
 13
237.6772002371
 23
576.3053713471
 33
0.0
 14
244.3772002371
 24
598.3053713471
 34
0.0
 50
90.0
100
AcDbRotatedDimension
  0
DIMENSION
  5
2AE
330
1F
100
AcDbEntity
  8
0
  6
CONTINUOUS
 62
     7
100
AcDbDimension
  2
_D_16
 10
206.8702230373
 20
576.3053713471
 30
0.0
 11
206.8702230373
 21
558.3053713471
 31
0.0
 70
   160
  1
<>
  3
SLDDIMSTYLE1
100
AcDbAlignedDimension
 13
225.6772002371
 23
540.3053713471
 33
0.0
 14
231.6772002371
 24
576.3053713471
 34
0.0
 50
90.0
100
AcDbRotatedDimension
  0
DIMENSION
  5
2B8
330
1F
100
AcDbEntity
  8
0
  6
CONTINUOUS
 62
     7
100
AcDbDimension
  2
_D_17
 10
262.0837962828
 20
727.3053713471
 30
0.0
 11
262.0837962828
 21
742.3053713471
 31
0.0
 70
   160
  1
<>
  3
SLDDIMSTYLE1
100
AcDbAlignedDimension
 13
243.6772002371
 23
757.3053713471
 33
0.0
 14
239.6772002371
 24
727.3053713471
 34
0.0
 50
90.0
100
AcDbRotatedDimension
  0
DIMENSION
  5
2C2
330
1F
100
AcDbEntity
  8
0
  6
CONTINUOUS
 62
     7
100
AcDbDimension
  2
_D_18
 10
262.0837962828
 20
727.3053713471
 30
0.0
 11
262.0837962828
 21
662.8053713471
 31
0.0
 70
   160
  1
<>
  3
SLDDIMSTYLE1
100
AcDbAlignedDimension
 13
244.1405435222
 23
598.3053713471
 33
0.0
 14
239.6772002371
 24
727.3053713471
 34
0.0
 50
90.0
100
AcDbRotatedDimension
  0
DIMENSION
  5
2CC
330
1F
100
AcDbEntity
  8
0
  6
CONTINUOUS
 62
     7
100
AcDbDimension
  2
_D_19
 10
262.0424723277
 20
479.4053713471
 30
0.0
 11
262.0424723277
 21
504.8553713471
 31
0.0
 70
   160
  1
<>
  3
SLDDIMSTYLE1
100
AcDbAlignedDimension
 13
243.6772002371
 23
530.3053713471
 33
0.0
 14
239.0772002371
 24
479.4053713471
 34
0.0
 50
90.0
100
AcDbRotatedDimension
  0
DIMENSION
  5
2D6
330
1F
100
AcDbEntity
  8
0
  6
CONTINUOUS
 62
     7
100
AcDbDimension
  2
_D_20
 10
262.0424723277
 20
439.4053713471
 30
0.0
 11
262.0424723277
 21
459.4053713471
 31
0.0
 70
   160
  1
<>
  3
SLDDIMSTYLE1
100
AcDbAlignedDimension
 13
239.0772002371
 23
479.4053713471
 33
0.0
 14
239.0772002371
 24
439.4053713471
 34
0.0
 50
90.0
100
AcDbRotatedDimension
  0
DIMENSION
  5
2E0
330
1F
100
AcDbEntity
  8
0
  6
CONTINUOUS
 62
     7
100
AcDbDimension
  2
_D_21
 10
262.0424723277
 20
404.2053713471
 30
0.0
 11
262.0424723277
 21
421.8053713471
 31
0.0
 70
   160
  1
<>
  3
SLDDIMSTYLE1
100
AcDbAlignedDimension
 13
239.0772002371
 23
439.4053713471
 33
0.0
 14
239.0772002371
 24
404.2053713471
 34
0.0
 50
90.0
100
AcDbRotatedDimension
  0
DIMENSION
  5
2EA
330
1F
100
AcDbEntity
  8
0
  6
CONTINUOUS
 62
     7
100
AcDbDimension
  2
_D_22
 10
262.0424723277
 20
364.2053713471
 30
0.0
 11
262.0424723277
 21
384.2053713471
 31
0.0
 70
   160
  1
<>
  3
SLDDIMSTYLE1
100
AcDbAlignedDimension
 13
239.0772002371
 23
404.2053713471
 33
0.0
 14
239.0772002371
 24
364.2053713471
 34
0.0
 50
90.0
100
AcDbRotatedDimension
  0
DIMENSION
  5
2F4
330
1F
100
AcDbEntity
  8
0
  6
CONTINUOUS
 62
     7
100
AcDbDimension
  2
_D_23
 10
261.9945964323
 20
364.2053713471
 30
0.0
 11
261.9945964323
 21
338.7553713471
 31
0.0
 70
   160
  1
<>
  3
SLDDIMSTYLE1
100
AcDbAlignedDimension
 13
243.6772002371
 23
313.3053713471
 33
0.0
 14
239.0772002371
 24
364.2053713471
 34
0.0
 50
90.0
100
AcDbRotatedDimension
  0
DIMENSION
  5
2FE
330
1F
100
AcDbEntity
  8
0
  6
CONTINUOUS
 62
     7
100
AcDbDimension
  2
_D_24
 10
228.2772002371
 20
485.0579939848
 30
0.0
 11
234.6772002371
 21
485.0579939848
 31
0.0
 70
   160
  1
<>
  3
SLDDIMSTYLE0
100
AcDbAlignedDimension
 13
241.0772002371
 23
477.4053713471
 33
0.0
 14
228.2772002371
 24
477.4053713471
 34
0.0
100
AcDbRotatedDimension
  0
DIMENSION
  5
30A
330
1F
100
AcDbEntity
  8
0
  6
CONTINUOUS
 62
     7
100
AcDbDimension
  2
_D_25
 10
241.0772002371
 20
347.4441154
 30
0.0
 11
234.6772002371
 21
347.4441154
 31
0.0
 70
   160
  1
<>
  3
SLDDIMSTYLE0
100
AcDbAlignedDimension
 13
228.2772002371
 23
366.2053713471
 33
0.0
 14
241.0772002371
 24
396.81489156
 34
0.0
100
AcDbRotatedDimension
  0
DIMENSION
  5
316
330
1F
100
AcDbEntity
  8
0
  6
CONTINUOUS
 62
     7
100
AcDbDimension
  2
_D_26
 10
206.8702230373
 20
616.3053713471
 30
0.0
 11
206.8702230373
 21
596.3053713471
 31
0.0
 70
   160
  1
<>
  3
SLDDIMSTYLE1
100
AcDbAlignedDimension
 13
231.6772002371
 23
576.3053713471
 33
0.0
 14
224.9772002371
 24
616.3053713471
 34
0.0
 50
90.0
100
AcDbRotatedDimension
  0
DIMENSION
  5
320
330
1F
100
AcDbEntity
  8
0
  6
CONTINUOUS
 62
     7
100
AcDbDimension
  2
_D_27
 10
206.8702230373
 20
717.3053713471
 30
0.0
 11
206.8702230373
 21
666.8053713471
 31
0.0
 70
   160
  1
<>
  3
SLDDIMSTYLE1
100
AcDbAlignedDimension
 13
224.9772002371
 23
616.3053713471
 33
0.0
 14
231.6772002371
 24
717.3053713471
 34
0.0
 50
90.0
100
AcDbRotatedDimension
  0
DIMENSION
  5
32A
330
1F
100
AcDbEntity
  8
0
  6
CONTINUOUS
 62
     7
100
AcDbDimension
  2
_D_28
 10
228.6772002371
 20
720.2614284892
 30
0.0
 11
220.706161907
 21
720.2614284892
 31
0.0
 70
   160
  1
<>
  3
SLDDIMSTYLE1
100
AcDbAlignedDimension
 13
240.6772002371
 23
720.3053713471
 33
0.0
 14
228.6772002371
 24
720.3053713471
 34
0.0
100
AcDbRotatedDimension
  0
DIMENSION
  5
335
330
1F
100
AcDbEntity
  8
0
  6
CONTINUOUS
 62
     7
100
AcDbDimension
  2
_D_29
 10
228.6772002371
 20
110.2158107167
 30
0.0
 11
217.4670977697
 21
110.2158107167
 31
0.0
 70
   160
  1
<>
  3
SLDDIMSTYLE1
100
AcDbAlignedDimension
 13
240.6772002371
 23
109.3053713471
 33
0.0
 14
228.6772002371
 24
109.3053713471
 34
0.0
100
AcDbRotatedDimension
  0
DIMENSION
  5
33F
330
1F
100
AcDbEntity
  8
0
  6
CONTINUOUS
 62
     7
100
AcDbDimension
  2
_D_30
 10
261.9945964323
 20
247.3053713471
 30
0.0
 11
261.9945964323
 21
275.3053713471
 31
0.0
 70
   160
  1
<>
  3
SLDDIMSTYLE1
100
AcDbAlignedDimension
 13
243.6772002371
 23
303.3053713471
 33
0.0
 14
244.1405435223
 24
247.3053713471
 34
0.0
 50
90.0
100
AcDbRotatedDimension
  0
DIMENSION
  5
349
330
1F
100
AcDbEntity
  8
0
  6
CONTINUOUS
 62
     7
100
AcDbDimension
  2
_D_31
 10
206.6124158831
 20
265.3053713471
 30
0.0
 11
206.6124158831
 21
284.3053713471
 31
0.0
 70
   160
  1
<>
  3
SLDDIMSTYLE1
100
AcDbAlignedDimension
 13
225.6772002371
 23
303.3053713471
 33
0.0
 14
224.9772002371
 24
265.3053713471
 34
0.0
 50
90.0
100
AcDbRotatedDimension
  0
DIMENSION
  5
353
330
1F
100
AcDbEntity
  8
0
  6
CONTINUOUS
 62
     7
100
AcDbDimension
  2
_D_32
 10
244.6772002371
 20
64.3053713471
 30
0.0
 11
234.6772002371
 21
64.3053713471
 31
0.0
 70
   160
  1
<>
  3
SLDDIMSTYLE1
100
AcDbAlignedDimension
 13
224.6772002371
 23
86.3053713471
 33
0.0
 14
244.6772002371
 24
86.3053713471
 34
0.0
100
AcDbRotatedDimension
  0
DIMENSION
  5
35D
330
1F
100
AcDbEntity
  8
0
  6
CONTINUOUS
 62
     7
100
AcDbDimension
  2
_D_33
 10
262.0424723277
 20
598.3053713471
 30
0.0
 11
262.0424723277
 21
569.3053713471
 31
0.0
 70
   160
  1
<>
  3
SLDDIMSTYLE1
100
AcDbAlignedDimension
 13
243.6772002371
 23
540.3053713471
 33
0.0
 14
244.1405435222
 24
598.3053713471
 34
0.0
 50
90.0
100
AcDbRotatedDimension
  0
INSERT
  5
372
330
1F
100
AcDbEntity
  8
0
  6
CONTINUOUS
 62
     7
100
AcDbBlockReference
  2
SW_CENTERMARKSYMBOL_0
 10
234.6772002371
 20
98.8053713471
 30
0.0
  0
INSERT
  5
37E
330
1F
100
AcDbEntity
  8
0
  6
CONTINUOUS
 62
     7
100
AcDbBlockReference
  2
SW_CENTERMARKSYMBOL_1
 10
234.6772002371
 20
133.8053713471
 30
0.0
  0
INSERT
  5
38A
330
1F
100
AcDbEntity
  8
0
  6
CONTINUOUS
 62
     7
100
AcDbBlockReference
  2
SW_CENTERMARKSYMBOL_2
 10
234.6772002371
 20
216.3053713471
 30
0.0
  0
INSERT
  5
396
330
1F
100
AcDbEntity
  8
0
  6
CONTINUOUS
 62
     7
100
AcDbBlockReference
  2
SW_CENTERMARKSYMBOL_3
 10
234.6772002371
 20
276.3053713471
 30
0.0
  0
INSERT
  5
3A2
330
1F
100
AcDbEntity
  8
0
  6
CONTINUOUS
 62
     7
100
AcDbBlockReference
  2
SW_CENTERMARKSYMBOL_4
 10
234.6772002371
 20
290.8053713471
 30
0.0
  0
INSERT
  5
3AE
330
1F
100
AcDbEntity
  8
0
  6
CONTINUOUS
 62
     7
100
AcDbBlockReference
  2
SW_CENTERMARKSYMBOL_5
 10
234.6772002371
 20
518.3053713471
 30
0.0
  0
INSERT
  5
3BA
330
1F
100
AcDbEntity
  8
0
  6
CONTINUOUS
 62
     7
100
AcDbBlockReference
  2
SW_CENTERMARKSYMBOL_6
 10
234.6772002371
 20
410.8053713471
 30
0.0
  0
INSERT
  5
3C6
330
1F
100
AcDbEntity
  8
0
  6
CONTINUOUS
 62
     7
100
AcDbBlockReference
  2
SW_CENTERMARKSYMBOL_7
 10
234.6772002371
 20
325.3053713471
 30
0.0
  0
INSERT
  5
3D2
330
1F
100
AcDbEntity
  8
0
  6
CONTINUOUS
 62
     7
100
AcDbBlockReference
  2
SW_CENTERMARKSYMBOL_8
 10
234.6772002371
 20
552.8053713471
 30
0.0
  0
INSERT
  5
3DE
330
1F
100
AcDbEntity
  8
0
  6
CONTINUOUS
 62
     7
100
AcDbBlockReference
  2
SW_CENTERMARKSYMBOL_9
 10
234.6772002371
 20
567.3053713471
 30
0.0
  0
INSERT
  5
3EA
330
1F
100
AcDbEntity
  8
0
  6
CONTINUOUS
 62
     7
100
AcDbBlockReference
  2
SW_CENTERMARKSYMBOL_10
 10
234.6772002371
 20
627.3053713471
 30
0.0
  0
INSERT
  5
3F6
330
1F
100
AcDbEntity
  8
0
  6
CONTINUOUS
 62
     7
100
AcDbBlockReference
  2
SW_CENTERMARKSYMBOL_11
 10
234.6772002371
 20
709.8053713471
 30
0.0
  0
INSERT
  5
402
330
1F
100
AcDbEntity
  8
0
  6
CONTINUOUS
 62
     7
100
AcDbBlockReference
  2
SW_CENTERMARKSYMBOL_12
 10
234.6772002371
 20
744.8053713471
 30
0.0
  0
LINE
  5
403
330
1F
100
AcDbEntity
  8
0
  6
CENTERX2
 62
     7
100
AcDbLine
 10
239.6772002371
 20
116.3053713471
 30
0.0
 11
229.6772002371
 21
116.3053713471
 31
0.0
  0
LINE
  5
404
330
1F
100
AcDbEntity
  8
0
  6
CENTERX2
 62
     7
100
AcDbLine
 10
234.6772002371
 20
125.3053713471
 30
0.0
 11
234.6772002371
 21
107.3053713471
 31
0.0
  0
LINE
  5
405
330
1F
100
AcDbEntity
  8
0
  6
CENTERX2
 62
     7
100
AcDbLine
 10
228.2772002371
 20
459.4053713471
 30
0.0
 11
241.0772002371
 21
459.4053713471
 31
0.0
  0
LINE
  5
406
330
1F
100
AcDbEntity
  8
0
  6
CENTERX2
 62
     7
100
AcDbLine
 10
234.6772002371
 20
529.640082137
 30
0.0
 11
234.6772002371
 21
572.6041272148
 31
0.0
  0
LINE
  5
407
330
1F
100
AcDbEntity
  8
0
  6
CENTERX2
 62
     7
100
AcDbLine
 10
234.6772002371
 20
604.271545784
 30
0.0
 11
234.6772002371
 21
645.5792201781
 31
0.0
  0
LINE
  5
408
330
1F
100
AcDbEntity
  8
0
  6
CENTERX2
 62
     7
100
AcDbLine
 10
228.2772002371
 20
384.2053713471
 30
0.0
 11
241.0772002371
 21
384.2053713471
 31
0.0
  0
LINE
  5
409
330
1F
100
AcDbEntity
  8
0
  6
CENTERX2
 62
     7
100
AcDbLine
 10
239.6772002371
 20
727.3053713471
 30
0.0
 11
229.6772002371
 21
727.3053713471
 31
0.0
  0
LINE
  5
40A
330
1F
100
AcDbEntity
  8
0
  6
CENTERX2
 62
     7
100
AcDbLine
 10
234.6772002371
 20
736.3053713471
 30
0.0
 11
234.6772002371
 21
718.3053713471
 31
0.0
  0
LINE
  5
40B
330
1F
100
AcDbEntity
  8
0
  6
CONTINUOUS
 62
     7
100
AcDbLine
 10
334.1253390853
 20
630.8488995308
 30
0.0
 11
333.9253390853
 21
630.6276051676
 31
0.0
  0
LINE
  5
40C
330
1F
100
AcDbEntity
  8
0
  6
CONTINUOUS
 62
     7
100
AcDbLine
 10
333.9253390853
 20
623.9831375267
 30
0.0
 11
334.1253390853
 21
623.7618431634
 31
0.0
  0
LINE
  5
40D
330
1F
100
AcDbEntity
  8
0
  6
CONTINUOUS
 62
     7
100
AcDbLine
 10
334.1253390853
 20
219.8488995308
 30
0.0
 11
333.9253390853
 21
219.6276051676
 31
0.0
  0
LINE
  5
40E
330
1F
100
AcDbEntity
  8
0
  6
CONTINUOUS
 62
     7
100
AcDbLine
 10
333.9253390853
 20
212.9831375267
 30
0.0
 11
334.1253390853
 21
212.7618431634
 31
0.0
  0
LINE
  5
40F
330
1F
100
AcDbEntity
  8
0
  6
CONTINUOUS
 62
     7
100
AcDbLine
 10
334.1253390853
 20
570.8488995308
 30
0.0
 11
333.9253390853
 21
570.6276051676
 31
0.0
  0
LINE
  5
410
330
1F
100
AcDbEntity
  8
0
  6
CONTINUOUS
 62
     7
100
AcDbLine
 10
333.9253390853
 20
563.9831375267
 30
0.0
 11
334.1253390853
 21
563.7618431634
 31
0.0
  0
LINE
  5
411
330
1F
100
AcDbEntity
  8
0
  6
CONTINUOUS
 62
     7
100
AcDbLine
 10
334.1253390853
 20
279.8488995308
 30
0.0
 11
333.9253390853
 21
279.6276051676
 31
0.0
  0
LINE
  5
412
330
1F
100
AcDbEntity
  8
0
  6
CONTINUOUS
 62
     7
100
AcDbLine
 10
333.9253390853
 20
272.9831375267
 30
0.0
 11
334.1253390853
 21
272.7618431634
 31
0.0
  0
SPLINE
  5
413
330
1F
100
AcDbEntity
  8
0
  6
CONTINUOUS
 62
     7
100
AcDbSpline
210
0.0
220
0.0
230
1.0
 70
     8
 71
     3
 72
     9
 73
     5
 74
     0
 42
0.000000001
 43
0.00000001
 40
0.0
 40
0.0
 40
0.0
 40
0.0
 40
0.0742624571398898
 40
1.0
 40
1.0
 40
1.0
 40
1.0
 10
334.9410317577001
 20
247.3048391176179
 30
0.0
 10
334.939359187829
 20
247.3049865278021
 30
0.0
 10
334.9168367729308
 20
247.3069715171213
 30
0.0
 10
334.8945322423988
 20
247.3045984006728
 30
0.0
 10
334.8738841011096
 20
247.3024015176828
 30
0.0
  0
SPLINE
  5
414
330
1F
100
AcDbEntity
  8
0
  6
CONTINUOUS
 62
     7
100
AcDbSpline
210
0.0
220
0.0
230
1.0
 70
     8
 71
     3
 72
    12
 73
     8
 74
     0
 42
0.000000001
 43
0.00000001
 40
0.0
 40
0.0
 40
0.0
 40
0.0
 40
0.1543315812660305
 40
0.3843584062844754
 40
0.603975110307243
 40
0.8066308304798876
 40
0.9999999999999999
 40
0.9999999999999999
 40
0.9999999999999999
 40
0.9999999999999999
 10
335.4171495786735
 20
246.8584346469229
 30
0.0
 10
335.4174790843577
 20
246.8945464987897
 30
0.0
 10
335.4182997088766
 20
246.9844820370484
 30
0.0
 10
335.3533137064406
 20
247.1304101886143
 30
0.0
 10
335.2277131273941
 20
247.2469507853154
 30
0.0
 10
335.07876277394
 20
247.3011296038622
 30
0.0
 10
334.9862187286428
 20
247.3036220955203
 30
0.0
 10
334.9410317577001
 20
247.3048391176179
 30
0.0
  0
SPLINE
  5
415
330
1F
100
AcDbEntity
  8
0
  6
CONTINUOUS
 62
     7
100
AcDbSpline
210
0.0
220
0.0
230
1.0
 70
     8
 71
     3
 72
     9
 73
     5
 74
     0
 42
0.000000001
 43
0.00000001
 40
0.0
 40
0.0
 40
0.0
 40
0.0
 40
0.0742624571404675
 40
1.0
 40
1.0
 40
1.0
 40
1.0
 10
334.9410317577
 20
598.3048391176145
 30
0.0
 10
334.939359187829
 20
598.3049865277989
 30
0.0
 10
334.9168367729307
 20
598.3069715171177
 30
0.0
 10
334.8945322423988
 20
598.3045984006694
 30
0.0
 10
334.8738841011096
 20
598.3024015176795
 30
0.0
  0
SPLINE
  5
416
330
1F
100
AcDbEntity
  8
0
  6
CONTINUOUS
 62
     7
100
AcDbSpline
210
0.0
220
0.0
230
1.0
 70
     8
 71
     3
 72
    12
 73
     8
 74
     0
 42
0.000000001
 43
0.00000001
 40
0.0
 40
0.0
 40
0.0
 40
0.0
 40
0.154331581266018
 40
0.3843584062844939
 40
0.6039751103072647
 40
0.8066308304799277
 40
1.0
 40
1.0
 40
1.0
 40
1.0
 10
335.4171495786735
 20
597.8584346469197
 30
0.0
 10
335.4174790843577
 20
597.8945464987863
 30
0.0
 10
335.4182997088766
 20
597.9844820370452
 30
0.0
 10
335.3533137064405
 20
598.130410188611
 30
0.0
 10
335.2277131273941
 20
598.2469507853122
 30
0.0
 10
335.0787627739399
 20
598.301129603859
 30
0.0
 10
334.9862187286428
 20
598.3036220955169
 30
0.0
 10
334.9410317577
 20
598.3048391176145
 30
0.0
  0
LINE
  5
417
330
1F
100
AcDbEntity
  8
0
  6
CONTINUOUS
 62
     7
100
AcDbLine
 10
327.4253390853
 20
281.3053713471
 30
0.0
 11
333.6253390853
 21
281.3053713471
 31
0.0
  0
ARC
  5
418
330
1F
100
AcDbEntity
  8
0
  6
CONTINUOUS
 62
     7
100
AcDbCircle
 10
327.4253390853
 20
281.0053713471
 30
0.0
 40
0.3000000000000114
100
AcDbArc
 50
90.0
 51
180.0
  0
ARC
  5
419
330
1F
100
AcDbEntity
  8
0
  6
CONTINUOUS
 62
     7
100
AcDbCircle
 10
333.6253390853
 20
281.0053713471
 30
0.0
 40
0.3000000000000114
100
AcDbArc
 50
0.0
 51
90.0
  0
LINE
  5
41A
330
1F
100
AcDbEntity
  8
0
  6
CONTINUOUS
 62
     7
100
AcDbLine
 10
333.9253390853
 20
281.0053713471
 30
0.0
 11
333.9253390853
 21
270.3053713471
 31
0.0
  0
LINE
  5
41B
330
1F
100
AcDbEntity
  8
0
  6
CONTINUOUS
 62
     7
100
AcDbLine
 10
333.9253390853
 20
270.3053713471
 30
0.0
 11
333.6253390853
 21
270.0053713471
 31
0.0
  0
LINE
  5
41C
330
1F
100
AcDbEntity
  8
0
  6
CONTINUOUS
 62
     7
100
AcDbLine
 10
333.9253390853
 20
270.3053713471
 30
0.0
 11
334.4253390853
 21
270.3053713471
 31
0.0
  0
LINE
  5
41D
330
1F
100
AcDbEntity
  8
0
  6
CONTINUOUS
 62
     7
100
AcDbLine
 10
334.4253390853
 20
270.3053713471
 30
0.0
 11
335.1253390853
 21
270.3053713471
 31
0.0
  0
ARC
  5
41E
330
1F
100
AcDbEntity
  8
0
  6
CONTINUOUS
 62
     7
100
AcDbCircle
 10
335.1253390853
 20
270.0053713471
 30
0.0
 40
0.3000000000000114
100
AcDbArc
 50
0.0
 51
90.0
  0
LINE
  5
41F
330
1F
100
AcDbEntity
  8
0
  6
CONTINUOUS
 62
     7
100
AcDbLine
 10
335.4253390853
 20
270.0053713471
 30
0.0
 11
335.4253390853
 21
265.6053713471
 31
0.0
  0
ARC
  5
420
330
1F
100
AcDbEntity
  8
0
  6
CONTINUOUS
 62
     7
100
AcDbCircle
 10
329.4253390853
 20
264.3053713471
 30
0.0
 40
1.0
100
AcDbArc
 50
90.0
 51
180.0
  0
LINE
  5
421
330
1F
100
AcDbEntity
  8
0
  6
CONTINUOUS
 62
     7
100
AcDbLine
 10
334.4253390853
 20
265.3053713471
 30
0.0
 11
329.4253390853
 21
265.3053713471
 31
0.0
  0
ARC
  5
422
330
1F
100
AcDbEntity
  8
0
  6
CONTINUOUS
 62
     7
100
AcDbCircle
 10
335.1253390853
 20
265.6053713471
 30
0.0
 40
0.3000000000000114
100
AcDbArc
 50
270.0
 51
0.0
  0
LINE
  5
423
330
1F
100
AcDbEntity
  8
0
  6
CONTINUOUS
 62
     7
100
AcDbLine
 10
335.1253390853
 20
265.3053713471
 30
0.0
 11
334.4253390853
 21
265.3053713471
 31
0.0
  0
LINE
  5
424
330
1F
100
AcDbEntity
  8
0
  6
CONTINUOUS
 62
     7
100
AcDbLine
 10
328.4253390853
 20
264.3053713471
 30
0.0
 11
328.4253390853
 21
248.7489489336
 31
0.0
  0
SPLINE
  5
425
330
1F
100
AcDbEntity
  8
0
  6
CONTINUOUS
 62
     7
100
AcDbSpline
210
0.0
220
0.0
230
1.0
 70
     8
 71
     3
 72
    13
 73
     9
 74
     0
 42
0.000000001
 43
0.00000001
 40
0.0
 40
0.0
 40
0.0
 40
0.0
 40
0.0000312379613155
 40
0.3321626326234269
 40
0.5932392217637795
 40
0.771380780900913
 40
0.9084487681138664
 40
1.0
 40
1.0
 40
1.0
 40
1.0
 10
328.4253390852925
 20
248.7489489335687
 30
0.0
 10
328.4253390854923
 20
248.7489289335734
 30
0.0
 10
328.4253412106481
 20
248.5362629714931
 30
0.0
 10
328.4879057360064
 20
248.1536081275195
 30
0.0
 10
328.7150750825274
 20
247.7054755476372
 30
0.0
 10
328.9804698501383
 20
247.4421691165458
 30
0.0
 10
329.2199390227037
 20
247.3225332832602
 30
0.0
 10
329.3666059051954
 20
247.3102787218928
 30
0.0
 10
329.4253390852925
 20
247.3053713471156
 30
0.0
  0
LINE
  5
426
330
1F
100
AcDbEntity
  8
0
  6
CONTINUOUS
 62
     7
100
AcDbLine
 10
329.4253390853
 20
247.3053713471
 30
0.0
 11
334.4253390853
 21
247.3053713471
 31
0.0
  0
LINE
  5
427
330
1F
100
AcDbEntity
  8
0
  6
CONTINUOUS
 62
     7
100
AcDbLine
 10
334.4253390853
 20
247.3053713471
 30
0.0
 11
334.9500418584
 21
247.3053713471
 31
0.0
  0
LINE
  5
428
330
1F
100
AcDbEntity
  8
0
  6
CONTINUOUS
 62
     7
100
AcDbLine
 10
335.4253390853
 20
246.8300741202
 30
0.0
 11
335.4253390853
 21
222.6053713471
 31
0.0
  0
LINE
  5
429
330
1F
100
AcDbEntity
  8
0
  6
CONTINUOUS
 62
     7
100
AcDbLine
 10
334.4253390853
 20
222.3053713471
 30
0.0
 11
333.9253390853
 21
222.3053713471
 31
0.0
  0
LINE
  5
42A
330
1F
100
AcDbEntity
  8
0
  6
CONTINUOUS
 62
     7
100
AcDbLine
 10
333.9253390853
 20
222.3053713471
 30
0.0
 11
333.6253390853
 21
222.6053713471
 31
0.0
  0
LINE
  5
42B
330
1F
100
AcDbEntity
  8
0
  6
CONTINUOUS
 62
     7
100
AcDbLine
 10
333.9253390853
 20
222.3053713471
 30
0.0
 11
333.9253390853
 21
211.6053713471
 31
0.0
  0
LINE
  5
42C
330
1F
100
AcDbEntity
  8
0
  6
CONTINUOUS
 62
     7
100
AcDbLine
 10
335.1253390853
 20
222.3053713471
 30
0.0
 11
334.4253390853
 21
222.3053713471
 31
0.0
  0
ARC
  5
42D
330
1F
100
AcDbEntity
  8
0
  6
CONTINUOUS
 62
     7
100
AcDbCircle
 10
335.1253390853
 20
222.6053713471
 30
0.0
 40
0.3000000000000114
100
AcDbArc
 50
270.0
 51
0.0
  0
LINE
  5
42E
330
1F
100
AcDbEntity
  8
0
  6
CONTINUOUS
 62
     7
100
AcDbLine
 10
333.6253390853
 20
211.3053713471
 30
0.0
 11
327.4253390853
 21
211.3053713471
 31
0.0
  0
ARC
  5
42F
330
1F
100
AcDbEntity
  8
0
  6
CONTINUOUS
 62
     7
100
AcDbCircle
 10
327.4253390853
 20
211.6053713471
 30
0.0
 40
0.3000000000000114
100
AcDbArc
 50
180.0
 51
270.0
  0
ARC
  5
430
330
1F
100
AcDbEntity
  8
0
  6
CONTINUOUS
 62
     7
100
AcDbCircle
 10
333.6253390853
 20
211.6053713471
 30
0.0
 40
0.3000000000000114
100
AcDbArc
 50
270.0
 51
0.0
  0
LINE
  5
431
330
1F
100
AcDbEntity
  8
0
  6
CONTINUOUS
 62
     7
100
AcDbLine
 10
327.4253390853
 20
632.3053713471
 30
0.0
 11
333.6253390853
 21
632.3053713471
 31
0.0
  0
ARC
  5
432
330
1F
100
AcDbEntity
  8
0
  6
CONTINUOUS
 62
     7
100
AcDbCircle
 10
327.4253390853
 20
632.0053713471
 30
0.0
 40
0.3000000000000682
100
AcDbArc
 50
90.0
 51
180.0
  0
ARC
  5
433
330
1F
100
AcDbEntity
  8
0
  6
CONTINUOUS
 62
     7
100
AcDbCircle
 10
333.6253390853
 20
632.0053713471
 30
0.0
 40
0.3000000000000682
100
AcDbArc
 50
0.0
 51
90.0
  0
LINE
  5
434
330
1F
100
AcDbEntity
  8
0
  6
CONTINUOUS
 62
     7
100
AcDbLine
 10
333.9253390853
 20
632.0053713471
 30
0.0
 11
333.9253390853
 21
621.3053713471
 31
0.0
  0
LINE
  5
435
330
1F
100
AcDbEntity
  8
0
  6
CONTINUOUS
 62
     7
100
AcDbLine
 10
333.9253390853
 20
621.3053713471
 30
0.0
 11
333.6253390853
 21
621.0053713471
 31
0.0
  0
LINE
  5
436
330
1F
100
AcDbEntity
  8
0
  6
CONTINUOUS
 62
     7
100
AcDbLine
 10
333.9253390853
 20
621.3053713471
 30
0.0
 11
334.4253390853
 21
621.3053713471
 31
0.0
  0
LINE
  5
437
330
1F
100
AcDbEntity
  8
0
  6
CONTINUOUS
 62
     7
100
AcDbLine
 10
334.4253390853
 20
621.3053713471
 30
0.0
 11
335.1253390853
 21
621.3053713471
 31
0.0
  0
ARC
  5
438
330
1F
100
AcDbEntity
  8
0
  6
CONTINUOUS
 62
     7
100
AcDbCircle
 10
335.1253390853
 20
621.0053713471
 30
0.0
 40
0.3000000000001819
100
AcDbArc
 50
0.0
 51
90.0
  0
LINE
  5
439
330
1F
100
AcDbEntity
  8
0
  6
CONTINUOUS
 62
     7
100
AcDbLine
 10
335.4253390853
 20
621.0053713471
 30
0.0
 11
335.4253390853
 21
616.6053713471
 31
0.0
  0
ARC
  5
43A
330
1F
100
AcDbEntity
  8
0
  6
CONTINUOUS
 62
     7
100
AcDbCircle
 10
329.4253390853
 20
615.3053713471
 30
0.0
 40
1.0
100
AcDbArc
 50
90.0
 51
180.0
  0
LINE
  5
43B
330
1F
100
AcDbEntity
  8
0
  6
CONTINUOUS
 62
     7
100
AcDbLine
 10
334.4253390853
 20
616.3053713471
 30
0.0
 11
329.4253390853
 21
616.3053713471
 31
0.0
  0
LINE
  5
43C
330
1F
100
AcDbEntity
  8
0
  6
CONTINUOUS
 62
     7
100
AcDbLine
 10
328.4253390853
 20
615.3053713471
 30
0.0
 11
328.4253390853
 21
599.7489489336
 31
0.0
  0
ARC
  5
43D
330
1F
100
AcDbEntity
  8
0
  6
CONTINUOUS
 62
     7
100
AcDbCircle
 10
335.1253390853
 20
616.6053713471
 30
0.0
 40
0.3000000000000682
100
AcDbArc
 50
270.0
 51
0.0
  0
LINE
  5
43E
330
1F
100
AcDbEntity
  8
0
  6
CONTINUOUS
 62
     7
100
AcDbLine
 10
335.1253390853
 20
616.3053713471
 30
0.0
 11
334.4253390853
 21
616.3053713471
 31
0.0
  0
SPLINE
  5
43F
330
1F
100
AcDbEntity
  8
0
  6
CONTINUOUS
 62
     7
100
AcDbSpline
210
0.0
220
0.0
230
1.0
 70
     8
 71
     3
 72
    13
 73
     9
 74
     0
 42
0.000000001
 43
0.00000001
 40
0.0
 40
0.0
 40
0.0
 40
0.0
 40
0.0000312379613155
 40
0.3321626326234269
 40
0.5932392217637795
 40
0.771380780900913
 40
0.9084487681138664
 40
1.0
 40
1.0
 40
1.0
 40
1.0
 10
328.4253390852925
 20
599.7489489335654
 30
0.0
 10
328.4253390854923
 20
599.74892893357
 30
0.0
 10
328.4253412106496
 20
599.5362629715816
 30
0.0
 10
328.4879057360058
 20
599.1536081274827
 30
0.0
 10
328.7150750825276
 20
598.7054755476393
 30
0.0
 10
328.9804698501382
 20
598.4421691165418
 30
0.0
 10
329.2199390227037
 20
598.3225332832569
 30
0.0
 10
329.3666059051953
 20
598.3102787218896
 30
0.0
 10
329.4253390852925
 20
598.3053713471122
 30
0.0
  0
LINE
  5
440
330
1F
100
AcDbEntity
  8
0
  6
CONTINUOUS
 62
     7
100
AcDbLine
 10
329.4253390853
 20
598.3053713471
 30
0.0
 11
334.4253390853
 21
598.3053713471
 31
0.0
  0
LINE
  5
441
330
1F
100
AcDbEntity
  8
0
  6
CONTINUOUS
 62
     7
100
AcDbLine
 10
334.4253390853
 20
598.3053713471
 30
0.0
 11
334.9500418584
 21
598.3053713471
 31
0.0
  0
LINE
  5
442
330
1F
100
AcDbEntity
  8
0
  6
CONTINUOUS
 62
     7
100
AcDbLine
 10
335.4253390853
 20
597.8300741202
 30
0.0
 11
335.4253390853
 21
573.6053713471
 31
0.0
  0
LINE
  5
443
330
1F
100
AcDbEntity
  8
0
  6
CONTINUOUS
 62
     7
100
AcDbLine
 10
334.4253390853
 20
573.3053713471
 30
0.0
 11
333.9253390853
 21
573.3053713471
 31
0.0
  0
LINE
  5
444
330
1F
100
AcDbEntity
  8
0
  6
CONTINUOUS
 62
     7
100
AcDbLine
 10
333.9253390853
 20
573.3053713471
 30
0.0
 11
333.6253390853
 21
573.6053713471
 31
0.0
  0
LINE
  5
445
330
1F
100
AcDbEntity
  8
0
  6
CONTINUOUS
 62
     7
100
AcDbLine
 10
333.9253390853
 20
573.3053713471
 30
0.0
 11
333.9253390853
 21
562.6053713471
 31
0.0
  0
LINE
  5
446
330
1F
100
AcDbEntity
  8
0
  6
CONTINUOUS
 62
     7
100
AcDbLine
 10
335.1253390853
 20
573.3053713471
 30
0.0
 11
334.4253390853
 21
573.3053713471
 31
0.0
  0
ARC
  5
447
330
1F
100
AcDbEntity
  8
0
  6
CONTINUOUS
 62
     7
100
AcDbCircle
 10
335.1253390853
 20
573.6053713471
 30
0.0
 40
0.3000000000000114
100
AcDbArc
 50
270.0
 51
0.0
  0
LINE
  5
448
330
1F
100
AcDbEntity
  8
0
  6
CONTINUOUS
 62
     7
100
AcDbLine
 10
333.6253390853
 20
562.3053713471
 30
0.0
 11
327.4253390853
 21
562.3053713471
 31
0.0
  0
ARC
  5
449
330
1F
100
AcDbEntity
  8
0
  6
CONTINUOUS
 62
     7
100
AcDbCircle
 10
327.4253390853
 20
562.6053713471
 30
0.0
 40
0.3000000000000682
100
AcDbArc
 50
180.0
 51
270.0
  0
ARC
  5
44A
330
1F
100
AcDbEntity
  8
0
  6
CONTINUOUS
 62
     7
100
AcDbCircle
 10
333.6253390853
 20
562.6053713471
 30
0.0
 40
0.3000000000000682
100
AcDbArc
 50
270.0
 51
0.0
  0
ELLIPSE
  5
44B
330
1F
100
AcDbEntity
  8
0
  6
CONTINUOUS
 62
     7
100
AcDbEllipse
 10
325.6253390853
 20
709.8053713471
 30
0.0
 11
3.535533905932709
 21
0.0
 31
0.0
210
0.0
220
0.0
230
1.0
 40
0.7071067812
 41
4.999145532596224
 42
7.567225081762945
  0
ELLIPSE
  5
44C
330
1F
100
AcDbEntity
  8
0
  6
CONTINUOUS
 62
     7
100
AcDbEllipse
 10
325.6253390853
 20
744.8053713471
 30
0.0
 11
3.535533905932709
 21
0.0
 31
0.0
210
0.0
220
0.0
230
1.0
 40
0.7071067812
 41
4.999145532596277
 42
7.567225081762919
  0
ARC
  5
44D
330
1F
100
AcDbEntity
  8
0
  6
CONTINUOUS
 62
     7
100
AcDbCircle
 10
333.6253390853
 20
749.3053713471
 30
0.0
 40
8.0
100
AcDbArc
 50
90.0
 51
151.0449756281
  0
LINE
  5
44E
330
1F
100
AcDbEntity
  8
0
  6
CONTINUOUS
 62
     7
100
AcDbLine
 10
333.6253390853
 20
757.3053713471
 30
0.0
 11
334.6253390853
 21
757.3053713471
 31
0.0
  0
LINE
  5
44F
330
1F
100
AcDbEntity
  8
0
  6
CONTINUOUS
 62
     7
100
AcDbLine
 10
334.1253390853
 20
621.4553713471
 30
0.0
 11
334.6253390853
 21
621.4553713471
 31
0.0
  0
LINE
  5
450
330
1F
100
AcDbEntity
  8
0
  6
CONTINUOUS
 62
     7
100
AcDbLine
 10
334.1253390853
 20
632.5553713471
 30
0.0
 11
334.1253390853
 21
621.4553713471
 31
0.0
  0
LINE
  5
451
330
1F
100
AcDbEntity
  8
0
  6
CONTINUOUS
 62
     7
100
AcDbLine
 10
327.1253390853
 20
632.5553713471
 30
0.0
 11
334.1253390853
 21
632.5553713471
 31
0.0
  0
LINE
  5
452
330
1F
100
AcDbEntity
  8
0
  6
CONTINUOUS
 62
     7
100
AcDbLine
 10
327.1253390853
 20
632.5553713471
 30
0.0
 11
327.1253390853
 21
562.0553713471
 31
0.0
  0
LINE
  5
453
330
1F
100
AcDbEntity
  8
0
  6
CONTINUOUS
 62
     7
100
AcDbLine
 10
334.1253390853
 20
562.0553713471
 30
0.0
 11
327.1253390853
 21
562.0553713471
 31
0.0
  0
LINE
  5
454
330
1F
100
AcDbEntity
  8
0
  6
CONTINUOUS
 62
     7
100
AcDbLine
 10
334.1253390853
 20
573.1553713471
 30
0.0
 11
334.1253390853
 21
562.0553713471
 31
0.0
  0
LINE
  5
455
330
1F
100
AcDbEntity
  8
0
  6
CONTINUOUS
 62
     7
100
AcDbLine
 10
334.1253390853
 20
573.1553713471
 30
0.0
 11
334.6253390853
 21
573.1553713471
 31
0.0
  0
LINE
  5
456
330
1F
100
AcDbEntity
  8
0
  6
CONTINUOUS
 62
     7
100
AcDbLine
 10
333.6253390853
 20
540.3053713471
 30
0.0
 11
334.6253390853
 21
540.3053713471
 31
0.0
  0
ARC
  5
457
330
1F
100
AcDbEntity
  8
0
  6
CONTINUOUS
 62
     7
100
AcDbCircle
 10
333.6253390853
 20
548.3053713471
 30
0.0
 40
8.0
100
AcDbArc
 50
208.9550243719
 51
270.0
  0
ELLIPSE
  5
458
330
1F
100
AcDbEntity
  8
0
  6
CONTINUOUS
 62
     7
100
AcDbEllipse
 10
325.6253390853
 20
552.8053713471
 30
0.0
 11
3.535533905932709
 21
0.0
 31
0.0
210
0.0
220
0.0
230
1.0
 40
0.7071067812
 41
4.999145532596226
 42
7.567225081762931
  0
LINE
  5
459
330
1F
100
AcDbEntity
  8
0
  6
CONTINUOUS
 62
     7
100
AcDbLine
 10
335.6253390853
 20
757.3053713471
 30
0.0
 11
335.6253390853
 21
621.4553713471
 31
0.0
  0
LINE
  5
45A
330
1F
100
AcDbEntity
  8
0
  6
CONTINUOUS
 62
     7
100
AcDbLine
 10
334.6253390853
 20
621.4553713471
 30
0.0
 11
335.6253390853
 21
621.4553713471
 31
0.0
  0
LINE
  5
45B
330
1F
100
AcDbEntity
  8
0
  6
CONTINUOUS
 62
     7
100
AcDbLine
 10
334.6253390853
 20
757.3053713471
 30
0.0
 11
335.6253390853
 21
757.3053713471
 31
0.0
  0
LINE
  5
45C
330
1F
100
AcDbEntity
  8
0
  6
CONTINUOUS
 62
     7
100
AcDbLine
 10
325.6253390853
 20
749.3053713471
 30
0.0
 11
325.6253390853
 21
747.2032871088
 31
0.0
  0
SPLINE
  5
45D
330
1F
100
AcDbEntity
  8
0
  6
CONTINUOUS
 62
     7
100
AcDbSpline
210
0.0
220
0.0
230
1.0
 70
     8
 71
     3
 72
    12
 73
     8
 74
     0
 42
0.000000001
 43
0.00000001
 40
0.0
 40
0.0
 40
0.0
 40
0.0
 40
0.2140543945177583
 40
0.4285258215856385
 40
0.6325714092925574
 40
0.8305603745274203
 40
1.0
 40
1.0
 40
1.0
 40
1.0
 10
326.6253390852926
 20
747.2032871087687
 30
0.0
 10
326.5144317964207
 20
747.2261910492075
 30
0.0
 10
326.292401142994
 20
747.272043552802
 30
0.0
 10
325.9952285928438
 20
747.3099951305283
 30
0.0
 10
325.7741509126466
 20
747.3032419103815
 30
0.0
 10
325.6466259401409
 20
747.260757849856
 30
0.0
 10
325.632057375935
 20
747.221425304609
 30
0.0
 10
325.6253390852925
 20
747.2032871087687
 30
0.0
  0
SPLINE
  5
45E
330
1F
100
AcDbEntity
  8
0
  6
CONTINUOUS
 62
     7
100
AcDbSpline
210
0.0
220
0.0
230
1.0
 70
     8
 71
     3
 72
    12
 73
     8
 74
     0
 42
0.000000001
 43
0.00000001
 40
0.0
 40
0.0
 40
0.0
 40
0.0
 40
0.186666827569301
 40
0.3781303882219199
 40
0.6829775580044982
 40
0.9957199609343262
 40
1.0
 40
1.0
 40
1.0
 40
1.0
 10
326.6253390852926
 20
753.1783546933199
 30
0.0
 10
326.5058704610257
 20
752.9470877550291
 30
0.0
 10
326.263863255661
 20
752.4786110669239
 30
0.0
 10
325.9407273544725
 20
751.6006545248066
 30
0.0
 10
325.6898160252866
 20
750.5455669901376
 30
0.0
 10
325.625636053647
 20
749.727398874932
 30
0.0
 10
325.6253430411791
 20
749.3109931347184
 30
0.0
 10
325.6253390852926
 20
749.3053713471123
 30
0.0
  0
SPLINE
  5
45F
330
1F
100
AcDbEntity
  8
0
  6
CONTINUOUS
 62
     7
100
AcDbSpline
210
0.0
220
0.0
230
1.0
 70
     8
 71
     3
 72
    12
 73
     8
 74
     0
 42
0.000000001
 43
0.00000001
 40
0.0
 40
0.0
 40
0.0
 40
0.0
 40
0.2140543945177624
 40
0.4285258215856515
 40
0.6325714092925796
 40
0.8305603745274338
 40
1.0
 40
1.0
 40
1.0
 40
1.0
 10
325.6253390852925
 20
742.4074555854561
 30
0.0
 10
325.6360036149179
 20
742.3845516450174
 30
0.0
 10
325.6573534513919
 20
742.3386991414227
 30
0.0
 10
325.8259674507145
 20
742.3007475636966
 30
0.0
 10
326.0699633087399
 20
742.3075007838431
 30
0.0
 10
326.3477961558344
 20
742.3499848443689
 30
0.0
 10
326.5377444603871
 20
742.3893173896158
 30
0.0
 10
326.6253390852926
 20
742.4074555854561
 30
0.0
  0
LINE
  5
460
330
1F
100
AcDbEntity
  8
0
  6
CONTINUOUS
 62
     7
100
AcDbLine
 10
325.6253390853
 20
747.2032871088
 30
0.0
 11
325.6253390853
 21
742.4074555855
 31
0.0
  0
LINE
  5
461
330
1F
100
AcDbEntity
  8
0
  6
CONTINUOUS
 62
     7
100
AcDbLine
 10
327.1253390853
 20
747.0692176316
 30
0.0
 11
327.1253390853
 21
742.5415250626
 31
0.0
  0
SPLINE
  5
462
330
1F
100
AcDbEntity
  8
0
  6
CONTINUOUS
 62
     7
100
AcDbSpline
210
0.0
220
0.0
230
1.0
 70
     8
 71
     3
 72
    12
 73
     8
 74
     0
 42
0.000000001
 43
0.00000001
 40
0.0
 40
0.0
 40
0.0
 40
0.0
 40
0.2140543945177531
 40
0.4285258215856347
 40
0.632571409292555
 40
0.830560374527426
 40
1.0
 40
1.0
 40
1.0
 40
1.0
 10
326.6253390852925
 20
712.2032871087687
 30
0.0
 10
326.5144317964207
 20
712.2261910492075
 30
0.0
 10
326.292401142994
 20
712.2720435528021
 30
0.0
 10
325.9952285928438
 20
712.309995130528
 30
0.0
 10
325.7741509126466
 20
712.3032419103816
 30
0.0
 10
325.6466259401409
 20
712.2607578498558
 30
0.0
 10
325.632057375935
 20
712.2214253046088
 30
0.0
 10
325.6253390852925
 20
712.2032871087687
 30
0.0
  0
LINE
  5
463
330
1F
100
AcDbEntity
  8
0
  6
CONTINUOUS
 62
     7
100
AcDbLine
 10
325.6253390853
 20
742.4074555855
 30
0.0
 11
325.6253390853
 21
712.2032871088
 31
0.0
  0
SPLINE
  5
464
330
1F
100
AcDbEntity
  8
0
  6
CONTINUOUS
 62
     7
100
AcDbSpline
210
0.0
220
0.0
230
1.0
 70
     8
 71
     3
 72
    12
 73
     8
 74
     0
 42
0.000000001
 43
0.00000001
 40
0.0
 40
0.0
 40
0.0
 40
0.0
 40
0.2140543945177596
 40
0.4285258215856562
 40
0.6325714092925823
 40
0.8305603745274293
 40
1.0
 40
1.0
 40
1.0
 40
1.0
 10
325.6253390852925
 20
707.4074555854561
 30
0.0
 10
325.6360036149179
 20
707.3845516450173
 30
0.0
 10
325.6573534513919
 20
707.3386991414227
 30
0.0
 10
325.8259674507145
 20
707.3007475636966
 30
0.0
 10
326.0699633087399
 20
707.3075007838432
 30
0.0
 10
326.3477961558344
 20
707.3499848443687
 30
0.0
 10
326.5377444603871
 20
707.3893173896158
 30
0.0
 10
326.6253390852925
 20
707.4074555854561
 30
0.0
  0
LINE
  5
465
330
1F
100
AcDbEntity
  8
0
  6
CONTINUOUS
 62
     7
100
AcDbLine
 10
325.6253390853
 20
712.2032871088
 30
0.0
 11
325.6253390853
 21
707.4074555855
 31
0.0
  0
LINE
  5
466
330
1F
100
AcDbEntity
  8
0
  6
CONTINUOUS
 62
     7
100
AcDbLine
 10
327.1253390853
 20
712.0692176316
 30
0.0
 11
327.1253390853
 21
707.5415250626
 31
0.0
  0
LINE
  5
467
330
1F
100
AcDbEntity
  8
0
  6
CONTINUOUS
 62
     7
100
AcDbLine
 10
325.6253390853
 20
707.4074555855
 30
0.0
 11
325.6253390853
 21
555.2032871088
 31
0.0
  0
SPLINE
  5
468
330
1F
100
AcDbEntity
  8
0
  6
CONTINUOUS
 62
     7
100
AcDbSpline
210
0.0
220
0.0
230
1.0
 70
     8
 71
     3
 72
    12
 73
     8
 74
     0
 42
0.000000001
 43
0.00000001
 40
0.0
 40
0.0
 40
0.0
 40
0.0
 40
0.2140543945177583
 40
0.4285258215856385
 40
0.6325714092925574
 40
0.8305603745274203
 40
1.0
 40
1.0
 40
1.0
 40
1.0
 10
326.6253390852925
 20
555.2032871087687
 30
0.0
 10
326.5144317964206
 20
555.2261910492075
 30
0.0
 10
326.2924011429939
 20
555.2720435528021
 30
0.0
 10
325.9952285928437
 20
555.3099951305281
 30
0.0
 10
325.7741509126465
 20
555.3032419103816
 30
0.0
 10
325.6466259401408
 20
555.260757849856
 30
0.0
 10
325.6320573759349
 20
555.2214253046089
 30
0.0
 10
325.6253390852925
 20
555.2032871087687
 30
0.0
  0
LINE
  5
469
330
1F
100
AcDbEntity
  8
0
  6
CONTINUOUS
 62
     7
100
AcDbLine
 10
334.6253390853
 20
540.3053713471
 30
0.0
 11
335.6253390853
 21
540.3053713471
 31
0.0
  0
LINE
  5
46A
330
1F
100
AcDbEntity
  8
0
  6
CONTINUOUS
 62
     7
100
AcDbLine
 10
335.6253390853
 20
573.1553713471
 30
0.0
 11
335.6253390853
 21
540.3053713471
 31
0.0
  0
LINE
  5
46B
330
1F
100
AcDbEntity
  8
0
  6
CONTINUOUS
 62
     7
100
AcDbLine
 10
335.6253390853
 20
573.1553713471
 30
0.0
 11
334.6253390853
 21
573.1553713471
 31
0.0
  0
SPLINE
  5
46C
330
1F
100
AcDbEntity
  8
0
  6
CONTINUOUS
 62
     7
100
AcDbSpline
210
0.0
220
0.0
230
1.0
 70
     8
 71
     3
 72
    12
 73
     8
 74
     0
 42
0.000000001
 43
0.00000001
 40
0.0
 40
0.0
 40
0.0
 40
0.0
 40
0.2140543945177644
 40
0.4285258215856498
 40
0.6325714092925786
 40
0.8305603745274334
 40
0.9999999999999999
 40
0.9999999999999999
 40
0.9999999999999999
 40
0.9999999999999999
 10
325.6253390852925
 20
550.407455585456
 30
0.0
 10
325.6360036149178
 20
550.3845516450172
 30
0.0
 10
325.6573534513919
 20
550.3386991414227
 30
0.0
 10
325.8259674507144
 20
550.3007475636965
 30
0.0
 10
326.0699633087398
 20
550.3075007838431
 30
0.0
 10
326.3477961558343
 20
550.3499848443687
 30
0.0
 10
326.537744460387
 20
550.3893173896158
 30
0.0
 10
326.6253390852925
 20
550.407455585456
 30
0.0
  0
LINE
  5
46D
330
1F
100
AcDbEntity
  8
0
  6
CONTINUOUS
 62
     7
100
AcDbLine
 10
325.6253390853
 20
555.2032871088
 30
0.0
 11
325.6253390853
 21
550.4074555855
 31
0.0
  0
LINE
  5
46E
330
1F
100
AcDbEntity
  8
0
  6
CONTINUOUS
 62
     7
100
AcDbLine
 10
327.1253390853
 20
555.0692176316
 30
0.0
 11
327.1253390853
 21
550.5415250626
 31
0.0
  0
SPLINE
  5
46F
330
1F
100
AcDbEntity
  8
0
  6
CONTINUOUS
 62
     7
100
AcDbSpline
210
0.0
220
0.0
230
1.0
 70
     8
 71
     3
 72
    12
 73
     8
 74
     0
 42
0.000000001
 43
0.00000001
 40
0.0
 40
0.0
 40
0.0
 40
0.0
 40
0.1866668275692896
 40
0.3781303882219237
 40
0.6829775580044961
 40
0.9957199609343262
 40
1.0
 40
1.0
 40
1.0
 40
1.0
 10
326.6253390852925
 20
544.432388000905
 30
0.0
 10
326.5058704610257
 20
544.6636549391957
 30
0.0
 10
326.2638632556609
 20
545.1321316273007
 30
0.0
 10
325.9407273544725
 20
546.0100881694185
 30
0.0
 10
325.6898160252865
 20
547.0651757040855
 30
0.0
 10
325.6256360536469
 20
547.883343819296
 30
0.0
 10
325.625343041179
 20
548.2997495595064
 30
0.0
 10
325.6253390852925
 20
548.3053713471124
 30
0.0
  0
LINE
  5
470
330
1F
100
AcDbEntity
  8
0
  6
CONTINUOUS
 62
     7
100
AcDbLine
 10
325.6253390853
 20
550.4074555855
 30
0.0
 11
325.6253390853
 21
548.3053713471
 31
0.0
  0
LINE
  5
471
330
1F
100
AcDbEntity
  8
0
  6
CONTINUOUS
 62
     7
100
AcDbLine
 10
327.1253390853
 20
211.0553713471
 30
0.0
 11
334.1253390853
 21
211.0553713471
 31
0.0
  0
LINE
  5
472
330
1F
100
AcDbEntity
  8
0
  6
CONTINUOUS
 62
     7
100
AcDbLine
 10
334.1253390853
 20
211.0553713471
 30
0.0
 11
334.1253390853
 21
222.1553713471
 31
0.0
  0
LINE
  5
473
330
1F
100
AcDbEntity
  8
0
  6
CONTINUOUS
 62
     7
100
AcDbLine
 10
334.1253390853
 20
222.1553713471
 30
0.0
 11
334.6253390853
 21
222.1553713471
 31
0.0
  0
LINE
  5
474
330
1F
100
AcDbEntity
  8
0
  6
CONTINUOUS
 62
     7
100
AcDbLine
 10
334.6253390853
 20
86.3053713471
 30
0.0
 11
333.6253390853
 21
86.3053713471
 31
0.0
  0
ARC
  5
475
330
1F
100
AcDbEntity
  8
0
  6
CONTINUOUS
 62
     7
100
AcDbCircle
 10
333.6253390853
 20
94.3053713471
 30
0.0
 40
8.000000000000014
100
AcDbArc
 50
208.9550243719
 51
270.0
  0
LINE
  5
476
330
1F
100
AcDbEntity
  8
0
  6
CONTINUOUS
 62
     7
100
AcDbLine
 10
334.6253390853
 20
303.3053713471
 30
0.0
 11
333.6253390853
 21
303.3053713471
 31
0.0
  0
LINE
  5
477
330
1F
100
AcDbEntity
  8
0
  6
CONTINUOUS
 62
     7
100
AcDbLine
 10
334.1253390853
 20
270.4553713471
 30
0.0
 11
334.6253390853
 21
270.4553713471
 31
0.0
  0
LINE
  5
478
330
1F
100
AcDbEntity
  8
0
  6
CONTINUOUS
 62
     7
100
AcDbLine
 10
334.1253390853
 20
270.4553713471
 30
0.0
 11
334.1253390853
 21
281.5553713471
 31
0.0
  0
LINE
  5
479
330
1F
100
AcDbEntity
  8
0
  6
CONTINUOUS
 62
     7
100
AcDbLine
 10
334.1253390853
 20
281.5553713471
 30
0.0
 11
327.1253390853
 21
281.5553713471
 31
0.0
  0
LINE
  5
47A
330
1F
100
AcDbEntity
  8
0
  6
CONTINUOUS
 62
     7
100
AcDbLine
 10
327.1253390853
 20
281.5553713471
 30
0.0
 11
327.1253390853
 21
211.0553713471
 31
0.0
  0
ARC
  5
47B
330
1F
100
AcDbEntity
  8
0
  6
CONTINUOUS
 62
     7
100
AcDbCircle
 10
333.6253390853
 20
295.3053713471
 30
0.0
 40
8.0
100
AcDbArc
 50
90.0
 51
151.0449756281
  0
SPLINE
  5
47C
330
1F
100
AcDbEntity
  8
0
  6
CONTINUOUS
 62
     7
100
AcDbSpline
210
0.0
220
0.0
230
1.0
 70
     8
 71
     3
 72
    12
 73
     8
 74
     0
 42
0.000000001
 43
0.00000001
 40
0.0
 40
0.0
 40
0.0
 40
0.0
 40
0.0042800776241693
 40
0.3095031222248369
 40
0.621870915224351
 40
0.8089702018841242
 40
1.0
 40
1.0
 40
1.0
 40
1.0
 10
325.6253390852925
 20
94.30537134711243
 30
0.0
 10
325.6253430413526
 20
94.29974955636533
 30
0.0
 10
325.6256291139516
 20
93.89322380110976
 30
0.0
 10
325.6882940251782
 20
93.07519188726826
 30
0.0
 10
325.9358461069938
 20
92.02540492074985
 30
0.0
 10
326.2614746081449
 20
91.13777345103868
 30
0.0
 10
326.5032133314821
 20
90.6691402403646
 30
0.0
 10
326.6253390852925
 20
90.43238800090498
 30
0.0
  0
LINE
  5
47D
330
1F
100
AcDbEntity
  8
0
  6
CONTINUOUS
 62
     7
100
AcDbLine
 10
325.6253390853
 20
94.3053713471
 30
0.0
 11
325.6253390853
 21
295.3053713471
 31
0.0
  0
SPLINE
  5
47E
330
1F
100
AcDbEntity
  8
0
  6
CONTINUOUS
 62
     7
100
AcDbSpline
210
0.0
220
0.0
230
1.0
 70
     8
 71
     3
 72
    12
 73
     8
 74
     0
 42
0.000000001
 43
0.00000001
 40
0.0
 40
0.0
 40
0.0
 40
0.0
 40
0.004280077624156
 40
0.3095031222247827
 40
0.6218709152243465
 40
0.8089702018841327
 40
1.0
 40
1.0
 40
1.0
 40
1.0
 10
325.6253390852925
 20
295.3053713471123
 30
0.0
 10
325.6253430413525
 20
295.3109931378594
 30
0.0
 10
325.6256291139516
 20
295.7175188931151
 30
0.0
 10
325.6882940251781
 20
296.5355508069562
 30
0.0
 10
325.9358461069938
 20
297.585337773475
 30
0.0
 10
326.2614746081449
 20
298.472969243186
 30
0.0
 10
326.503213331482
 20
298.9416024538601
 30
0.0
 10
326.6253390852925
 20
299.1783546933198
 30
0.0
  0
LINE
  5
47F
330
1F
100
AcDbEntity
  8
0
  6
CONTINUOUS
 62
     7
100
AcDbLine
 10
335.6253390853
 20
270.4553713471
 30
0.0
 11
335.6253390853
 21
303.3053713471
 31
0.0
  0
LINE
  5
480
330
1F
100
AcDbEntity
  8
0
  6
CONTINUOUS
 62
     7
100
AcDbLine
 10
334.6253390853
 20
270.4553713471
 30
0.0
 11
335.6253390853
 21
270.4553713471
 31
0.0
  0
LINE
  5
481
330
1F
100
AcDbEntity
  8
0
  6
CONTINUOUS
 62
     7
100
AcDbLine
 10
335.6253390853
 20
303.3053713471
 30
0.0
 11
334.6253390853
 21
303.3053713471
 31
0.0
  0
LINE
  5
482
330
1F
100
AcDbEntity
  8
0
  6
CONTINUOUS
 62
     7
100
AcDbLine
 10
335.6253390853
 20
86.3053713471
 30
0.0
 11
334.6253390853
 21
86.3053713471
 31
0.0
  0
LINE
  5
483
330
1F
100
AcDbEntity
  8
0
  6
CONTINUOUS
 62
     7
100
AcDbLine
 10
335.6253390853
 20
86.3053713471
 30
0.0
 11
335.6253390853
 21
222.1553713471
 31
0.0
  0
LINE
  5
484
330
1F
100
AcDbEntity
  8
0
  6
CONTINUOUS
 62
     7
100
AcDbLine
 10
335.6253390853
 20
222.1553713471
 30
0.0
 11
334.6253390853
 21
222.1553713471
 31
0.0
  0
ARC
  5
485
330
1F
100
AcDbEntity
  8
0
  6
CONTINUOUS
 62
     7
100
AcDbCircle
 10
333.6253390853
 20
522.3053713471
 30
0.0
 40
8.0
100
AcDbArc
 50
90.0
 51
180.0
  0
ELLIPSE
  5
486
330
1F
100
AcDbEntity
  8
0
  6
CONTINUOUS
 62
     7
100
AcDbEllipse
 10
325.6253390853
 20
518.3053713471
 30
0.0
 11
-3.535533905932709
 21
0.0
 31
0.0
210
0.0
220
0.0
230
1.0
 40
0.7071067812
 41
1.857552879006423
 42
4.42563242817316
  0
ELLIPSE
  5
487
330
1F
100
AcDbEntity
  8
0
  6
CONTINUOUS
 62
     7
100
AcDbEllipse
 10
325.6253390853
 20
325.3053713471
 30
0.0
 11
-3.535533905932766
 21
0.0
 31
0.0
210
0.0
220
0.0
230
1.0
 40
0.7071067812
 41
1.85755287900645
 42
4.425632428173159
  0
ELLIPSE
  5
488
330
1F
100
AcDbEntity
  8
0
  6
CONTINUOUS
 62
     7
100
AcDbEllipse
 10
325.6253390853
 20
410.8053713471
 30
0.0
 11
-3.535533905932766
 21
0.0
 31
0.0
210
0.0
220
0.0
230
1.0
 40
0.7071067812
 41
1.857552879006438
 42
4.425632428173152
  0
LINE
  5
489
330
1F
100
AcDbEntity
  8
0
  6
CONTINUOUS
 62
     7
100
AcDbLine
 10
333.6253390853
 20
530.3053713471
 30
0.0
 11
335.6253390853
 21
530.3053713471
 31
0.0
  0
LINE
  5
48A
330
1F
100
AcDbEntity
  8
0
  6
CONTINUOUS
 62
     7
100
AcDbLine
 10
335.6253390853
 20
530.3053713471
 30
0.0
 11
334.6253390853
 21
529.3053713471
 31
0.0
  0
LINE
  5
48B
330
1F
100
AcDbEntity
  8
0
  6
CONTINUOUS
 62
     7
100
AcDbLine
 10
335.6253390853
 20
530.3053713471
 30
0.0
 11
335.6253390853
 21
313.3053713471
 31
0.0
  0
LINE
  5
48C
330
1F
100
AcDbEntity
  8
0
  6
CONTINUOUS
 62
     7
100
AcDbLine
 10
335.6253390853
 20
313.3053713471
 30
0.0
 11
334.6253390853
 21
314.3053713471
 31
0.0
  0
LINE
  5
48D
330
1F
100
AcDbEntity
  8
0
  6
CONTINUOUS
 62
     7
100
AcDbLine
 10
325.6253390853
 20
520.7032871088
 30
0.0
 11
325.6253390853
 21
522.3053713471
 31
0.0
  0
SPLINE
  5
48E
330
1F
100
AcDbEntity
  8
0
  6
CONTINUOUS
 62
     7
100
AcDbSpline
210
0.0
220
0.0
230
1.0
 70
     8
 71
     3
 72
    12
 73
     8
 74
     0
 42
0.000000001
 43
0.00000001
 40
0.0
 40
0.0
 40
0.0
 40
0.0
 40
0.2140543945177579
 40
0.428525821585647
 40
0.6325714092925776
 40
0.8305603745274348
 40
1.0
 40
1.0
 40
1.0
 40
1.0
 10
326.6253390852925
 20
520.7032871087688
 30
0.0
 10
326.5144317964206
 20
520.7261910492075
 30
0.0
 10
326.2924011429939
 20
520.7720435528021
 30
0.0
 10
325.9952285928437
 20
520.8099951305281
 30
0.0
 10
325.7741509126466
 20
520.8032419103816
 30
0.0
 10
325.6466259401408
 20
520.760757849856
 30
0.0
 10
325.6320573759349
 20
520.7214253046089
 30
0.0
 10
325.6253390852925
 20
520.7032871087688
 30
0.0
  0
SPLINE
  5
48F
330
1F
100
AcDbEntity
  8
0
  6
CONTINUOUS
 62
     7
100
AcDbSpline
210
0.0
220
0.0
230
1.0
 70
     8
 71
     3
 72
    12
 73
     8
 74
     0
 42
0.000000001
 43
0.00000001
 40
0.0
 40
0.0
 40
0.0
 40
0.0
 40
0.2140543945177552
 40
0.4285258215856429
 40
0.6325714092925733
 40
0.8305603745274307
 40
1.0
 40
1.0
 40
1.0
 40
1.0
 10
325.6253390852925
 20
515.907455585456
 30
0.0
 10
325.6360036149178
 20
515.8845516450174
 30
0.0
 10
325.6573534513919
 20
515.8386991414228
 30
0.0
 10
325.8259674507145
 20
515.8007475636965
 30
0.0
 10
326.0699633087398
 20
515.8075007838432
 30
0.0
 10
326.3477961558343
 20
515.8499848443687
 30
0.0
 10
326.537744460387
 20
515.8893173896158
 30
0.0
 10
326.6253390852925
 20
515.907455585456
 30
0.0
  0
LINE
  5
490
330
1F
100
AcDbEntity
  8
0
  6
CONTINUOUS
 62
     7
100
AcDbLine
 10
325.6253390853
 20
515.9074555855
 30
0.0
 11
325.6253390853
 21
520.7032871088
 31
0.0
  0
LINE
  5
491
330
1F
100
AcDbEntity
  8
0
  6
CONTINUOUS
 62
     7
100
AcDbLine
 10
327.1253390853
 20
516.0415250626
 30
0.0
 11
327.1253390853
 21
520.5692176316
 31
0.0
  0
LINE
  5
492
330
1F
100
AcDbEntity
  8
0
  6
CONTINUOUS
 62
     7
100
AcDbLine
 10
325.6253390853
 20
413.2032871088
 30
0.0
 11
325.6253390853
 21
515.9074555855
 31
0.0
  0
SPLINE
  5
493
330
1F
100
AcDbEntity
  8
0
  6
CONTINUOUS
 62
     7
100
AcDbSpline
210
0.0
220
0.0
230
1.0
 70
     8
 71
     3
 72
    12
 73
     8
 74
     0
 42
0.000000001
 43
0.00000001
 40
0.0
 40
0.0
 40
0.0
 40
0.0
 40
0.2140543945177573
 40
0.4285258215856462
 40
0.632571409292578
 40
0.8305603745274359
 40
1.0
 40
1.0
 40
1.0
 40
1.0
 10
326.6253390852925
 20
413.2032871087687
 30
0.0
 10
326.5144317964206
 20
413.2261910492074
 30
0.0
 10
326.2924011429939
 20
413.272043552802
 30
0.0
 10
325.9952285928437
 20
413.3099951305281
 30
0.0
 10
325.7741509126466
 20
413.3032419103816
 30
0.0
 10
325.6466259401408
 20
413.260757849856
 30
0.0
 10
325.6320573759349
 20
413.2214253046089
 30
0.0
 10
325.6253390852925
 20
413.2032871087687
 30
0.0
  0
SPLINE
  5
494
330
1F
100
AcDbEntity
  8
0
  6
CONTINUOUS
 62
     7
100
AcDbSpline
210
0.0
220
0.0
230
1.0
 70
     8
 71
     3
 72
    12
 73
     8
 74
     0
 42
0.000000001
 43
0.00000001
 40
0.0
 40
0.0
 40
0.0
 40
0.0
 40
0.2140543945177574
 40
0.4285258215856458
 40
0.6325714092925778
 40
0.8305603745274358
 40
1.0
 40
1.0
 40
1.0
 40
1.0
 10
325.6253390852925
 20
408.407455585456
 30
0.0
 10
325.6360036149178
 20
408.3845516450173
 30
0.0
 10
325.6573534513919
 20
408.3386991414228
 30
0.0
 10
325.8259674507145
 20
408.3007475636966
 30
0.0
 10
326.0699633087398
 20
408.3075007838431
 30
0.0
 10
326.3477961558343
 20
408.3499848443687
 30
0.0
 10
326.537744460387
 20
408.3893173896158
 30
0.0
 10
326.6253390852925
 20
408.407455585456
 30
0.0
  0
LINE
  5
495
330
1F
100
AcDbEntity
  8
0
  6
CONTINUOUS
 62
     7
100
AcDbLine
 10
325.6253390853
 20
408.4074555855
 30
0.0
 11
325.6253390853
 21
413.2032871088
 31
0.0
  0
LINE
  5
496
330
1F
100
AcDbEntity
  8
0
  6
CONTINUOUS
 62
     7
100
AcDbLine
 10
327.1253390853
 20
408.5415250626
 30
0.0
 11
327.1253390853
 21
413.0692176316
 31
0.0
  0
LINE
  5
497
330
1F
100
AcDbEntity
  8
0
  6
CONTINUOUS
 62
     7
100
AcDbLine
 10
325.6253390853
 20
327.7032871088
 30
0.0
 11
325.6253390853
 21
408.4074555855
 31
0.0
  0
SPLINE
  5
498
330
1F
100
AcDbEntity
  8
0
  6
CONTINUOUS
 62
     7
100
AcDbSpline
210
0.0
220
0.0
230
1.0
 70
     8
 71
     3
 72
    12
 73
     8
 74
     0
 42
0.000000001
 43
0.00000001
 40
0.0
 40
0.0
 40
0.0
 40
0.0
 40
0.2140543945177579
 40
0.428525821585647
 40
0.6325714092925776
 40
0.8305603745274348
 40
1.0
 40
1.0
 40
1.0
 40
1.0
 10
326.6253390852925
 20
327.7032871087687
 30
0.0
 10
326.5144317964206
 20
327.7261910492074
 30
0.0
 10
326.2924011429939
 20
327.772043552802
 30
0.0
 10
325.9952285928437
 20
327.8099951305281
 30
0.0
 10
325.7741509126466
 20
327.8032419103816
 30
0.0
 10
325.6466259401408
 20
327.760757849856
 30
0.0
 10
325.6320573759349
 20
327.7214253046089
 30
0.0
 10
325.6253390852925
 20
327.7032871087687
 30
0.0
  0
SPLINE
  5
499
330
1F
100
AcDbEntity
  8
0
  6
CONTINUOUS
 62
     7
100
AcDbSpline
210
0.0
220
0.0
230
1.0
 70
     8
 71
     3
 72
    12
 73
     8
 74
     0
 42
0.000000001
 43
0.00000001
 40
0.0
 40
0.0
 40
0.0
 40
0.0
 40
0.2140543945177559
 40
0.4285258215856443
 40
0.6325714092925754
 40
0.8305603745274334
 40
1.0
 40
1.0
 40
1.0
 40
1.0
 10
325.6253390852925
 20
322.907455585456
 30
0.0
 10
325.6360036149178
 20
322.8845516450173
 30
0.0
 10
325.6573534513919
 20
322.8386991414227
 30
0.0
 10
325.8259674507145
 20
322.8007475636966
 30
0.0
 10
326.0699633087398
 20
322.8075007838431
 30
0.0
 10
326.3477961558343
 20
322.8499848443687
 30
0.0
 10
326.537744460387
 20
322.8893173896158
 30
0.0
 10
326.6253390852925
 20
322.907455585456
 30
0.0
  0
LINE
  5
49A
330
1F
100
AcDbEntity
  8
0
  6
CONTINUOUS
 62
     7
100
AcDbLine
 10
325.6253390853
 20
322.9074555855
 30
0.0
 11
325.6253390853
 21
327.7032871088
 31
0.0
  0
LINE
  5
49B
330
1F
100
AcDbEntity
  8
0
  6
CONTINUOUS
 62
     7
100
AcDbLine
 10
327.1253390853
 20
323.0415250626
 30
0.0
 11
327.1253390853
 21
327.5692176316
 31
0.0
  0
LINE
  5
49C
330
1F
100
AcDbEntity
  8
0
  6
CONTINUOUS
 62
     7
100
AcDbLine
 10
325.6253390853
 20
321.3053713471
 30
0.0
 11
325.6253390853
 21
322.9074555855
 31
0.0
  0
ARC
  5
49D
330
1F
100
AcDbEntity
  8
0
  6
CONTINUOUS
 62
     7
100
AcDbCircle
 10
333.6253390853
 20
321.3053713471
 30
0.0
 40
8.0
100
AcDbArc
 50
180.0
 51
270.0
  0
LINE
  5
49E
330
1F
100
AcDbEntity
  8
0
  6
CONTINUOUS
 62
     7
100
AcDbLine
 10
335.6253390853
 20
313.3053713471
 30
0.0
 11
333.6253390853
 21
313.3053713471
 31
0.0
  0
LINE
  5
49F
330
1F
100
AcDbEntity
  8
0
  6
CONTINUOUS
 62
     8
100
AcDbLine
 10
333.6253390853
 20
281.3053713471
 30
0.0
 11
333.6253390853
 21
281.0053713471
 31
0.0
  0
LINE
  5
4A0
330
1F
100
AcDbEntity
  8
0
  6
CONTINUOUS
 62
     8
100
AcDbLine
 10
333.6253390853
 20
281.0053713471
 30
0.0
 11
327.4253390853
 21
281.0053713471
 31
0.0
  0
LINE
  5
4A1
330
1F
100
AcDbEntity
  8
0
  6
CONTINUOUS
 62
     8
100
AcDbLine
 10
327.4253390853
 20
281.3053713471
 30
0.0
 11
327.4253390853
 21
281.0053713471
 31
0.0
  0
LINE
  5
4A2
330
1F
100
AcDbEntity
  8
0
  6
CONTINUOUS
 62
     8
100
AcDbLine
 10
328.1253390853
 20
248.7489489336
 30
0.0
 11
328.1253390853
 21
264.3053713471
 31
0.0
  0
SPLINE
  5
4A3
330
1F
100
AcDbEntity
  8
0
  6
CONTINUOUS
 62
     8
100
AcDbSpline
210
0.0
220
0.0
230
1.0
 70
     8
 71
     3
 72
    12
 73
     8
 74
     0
 42
0.000000001
 43
0.00000001
 40
0.0
 40
0.0
 40
0.0
 40
0.0
 40
0.1065172560386023
 40
0.258091477923448
 40
0.4411558236357378
 40
0.6912373263298313
 40
1.0
 40
1.0
 40
1.0
 40
1.0
 10
329.4253390852925
 20
247.0053713471155
 30
0.0
 10
329.3403087330018
 20
247.0123155831206
 30
0.0
 10
329.134280056455
 20
247.0291414778183
 30
0.0
 10
328.8099981670788
 20
247.1887393848714
 30
0.0
 10
328.4744964873819
 20
247.5190426884533
 30
0.0
 10
328.1901969955646
 20
248.0547884430143
 30
0.0
 10
328.148420624798
 20
248.5019120999945
 30
0.0
 10
328.1253390852925
 20
248.7489489335687
 30
0.0
  0
LINE
  5
4A4
330
1F
100
AcDbEntity
  8
0
  6
CONTINUOUS
 62
     8
100
AcDbLine
 10
334.4253390853
 20
247.0053713471
 30
0.0
 11
329.4253390853
 21
247.0053713471
 31
0.0
  0
LINE
  5
4A5
330
1F
100
AcDbEntity
  8
0
  6
CONTINUOUS
 62
     8
100
AcDbLine
 10
334.4253390853
 20
222.6053713471
 30
0.0
 11
334.4253390853
 21
247.0053713471
 31
0.0
  0
LINE
  5
4A6
330
1F
100
AcDbEntity
  8
0
  6
CONTINUOUS
 62
     8
100
AcDbLine
 10
333.6253390853
 20
222.6053713471
 30
0.0
 11
334.4253390853
 21
222.6053713471
 31
0.0
  0
LINE
  5
4A7
330
1F
100
AcDbEntity
  8
0
  6
CONTINUOUS
 62
     8
100
AcDbLine
 10
333.6253390853
 20
211.6053713471
 30
0.0
 11
333.6253390853
 21
222.6053713471
 31
0.0
  0
LINE
  5
4A8
330
1F
100
AcDbEntity
  8
0
  6
CONTINUOUS
 62
     8
100
AcDbLine
 10
327.4253390853
 20
211.6053713471
 30
0.0
 11
333.6253390853
 21
211.6053713471
 31
0.0
  0
LINE
  5
4A9
330
1F
100
AcDbEntity
  8
0
  6
CONTINUOUS
 62
     8
100
AcDbLine
 10
327.4253390853
 20
281.0053713471
 30
0.0
 11
327.4253390853
 21
211.6053713471
 31
0.0
  0
LINE
  5
4AA
330
1F
100
AcDbEntity
  8
0
  6
CONTINUOUS
 62
     8
100
AcDbLine
 10
333.6253390853
 20
270.0053713471
 30
0.0
 11
333.6253390853
 21
281.0053713471
 31
0.0
  0
LINE
  5
4AB
330
1F
100
AcDbEntity
  8
0
  6
CONTINUOUS
 62
     8
100
AcDbLine
 10
334.4253390853
 20
270.0053713471
 30
0.0
 11
333.6253390853
 21
270.0053713471
 31
0.0
  0
LINE
  5
4AC
330
1F
100
AcDbEntity
  8
0
  6
CONTINUOUS
 62
     8
100
AcDbLine
 10
334.4253390853
 20
265.6053713471
 30
0.0
 11
334.4253390853
 21
270.0053713471
 31
0.0
  0
LINE
  5
4AD
330
1F
100
AcDbEntity
  8
0
  6
CONTINUOUS
 62
     8
100
AcDbLine
 10
329.4253390853
 20
265.6053713471
 30
0.0
 11
334.4253390853
 21
265.6053713471
 31
0.0
  0
ARC
  5
4AE
330
1F
100
AcDbEntity
  8
0
  6
CONTINUOUS
 62
     8
100
AcDbCircle
 10
329.4253390853
 20
264.3053713471
 30
0.0
 40
1.300000000000011
100
AcDbArc
 50
90.0
 51
180.0
  0
LINE
  5
4AF
330
1F
100
AcDbEntity
  8
0
  6
CONTINUOUS
 62
     8
100
AcDbLine
 10
327.1253390853
 20
281.0053713471
 30
0.0
 11
327.4253390853
 21
281.0053713471
 31
0.0
  0
LINE
  5
4B0
330
1F
100
AcDbEntity
  8
0
  6
CONTINUOUS
 62
     8
100
AcDbLine
 10
333.6253390853
 20
281.0053713471
 30
0.0
 11
333.9253390853
 21
281.0053713471
 31
0.0
  0
LINE
  5
4B1
330
1F
100
AcDbEntity
  8
0
  6
CONTINUOUS
 62
     8
100
AcDbLine
 10
327.1253390853
 20
211.6053713471
 30
0.0
 11
327.4253390853
 21
211.6053713471
 31
0.0
  0
LINE
  5
4B2
330
1F
100
AcDbEntity
  8
0
  6
CONTINUOUS
 62
     8
100
AcDbLine
 10
334.4253390853
 20
270.3053713471
 30
0.0
 11
334.4253390853
 21
270.0053713471
 31
0.0
  0
LINE
  5
4B3
330
1F
100
AcDbEntity
  8
0
  6
CONTINUOUS
 62
     8
100
AcDbLine
 10
335.4253390853
 20
270.0053713471
 30
0.0
 11
334.4253390853
 21
270.0053713471
 31
0.0
  0
LINE
  5
4B4
330
1F
100
AcDbEntity
  8
0
  6
CONTINUOUS
 62
     8
100
AcDbLine
 10
334.4253390853
 20
265.6053713471
 30
0.0
 11
335.4253390853
 21
265.6053713471
 31
0.0
  0
LINE
  5
4B5
330
1F
100
AcDbEntity
  8
0
  6
CONTINUOUS
 62
     8
100
AcDbLine
 10
329.4253390853
 20
265.6053713471
 30
0.0
 11
329.4253390853
 21
265.3053713471
 31
0.0
  0
LINE
  5
4B6
330
1F
100
AcDbEntity
  8
0
  6
CONTINUOUS
 62
     8
100
AcDbLine
 10
328.1253390853
 20
264.3053713471
 30
0.0
 11
328.4253390853
 21
264.3053713471
 31
0.0
  0
LINE
  5
4B7
330
1F
100
AcDbEntity
  8
0
  6
CONTINUOUS
 62
     8
100
AcDbLine
 10
334.4253390853
 20
265.6053713471
 30
0.0
 11
334.4253390853
 21
265.3053713471
 31
0.0
  0
LINE
  5
4B8
330
1F
100
AcDbEntity
  8
0
  6
CONTINUOUS
 62
     8
100
AcDbLine
 10
328.1253390853
 20
248.7489489336
 30
0.0
 11
328.4253390853
 21
248.7489489336
 31
0.0
  0
LINE
  5
4B9
330
1F
100
AcDbEntity
  8
0
  6
CONTINUOUS
 62
     8
100
AcDbLine
 10
329.4253390853
 20
247.0053713471
 30
0.0
 11
329.4253390853
 21
247.3053713471
 31
0.0
  0
LINE
  5
4BA
330
1F
100
AcDbEntity
  8
0
  6
CONTINUOUS
 62
     8
100
AcDbLine
 10
334.4253390853
 20
247.0053713471
 30
0.0
 11
334.4253390853
 21
247.3053713471
 31
0.0
  0
LINE
  5
4BB
330
1F
100
AcDbEntity
  8
0
  6
CONTINUOUS
 62
     8
100
AcDbLine
 10
335.1749144754
 20
247.0053713471
 30
0.0
 11
334.4253390853
 21
247.0053713471
 31
0.0
  0
ARC
  5
4BC
330
1F
100
AcDbEntity
  8
0
  6
CONTINUOUS
 62
     8
100
AcDbCircle
 10
334.9062033659
 20
247.0382316022
 30
0.0
 40
0.2707128676867021
100
AcDbArc
 50
353.0280066641
 51
80.6806419851
  0
LINE
  5
4BD
330
1F
100
AcDbEntity
  8
0
  6
CONTINUOUS
 62
     8
100
AcDbLine
 10
334.4253390853
 20
222.6053713471
 30
0.0
 11
335.4253390853
 21
222.6053713471
 31
0.0
  0
SPLINE
  5
4BE
330
1F
100
AcDbEntity
  8
0
  6
CONTINUOUS
 62
     8
100
AcDbSpline
210
0.0
220
0.0
230
1.0
 70
     8
 71
     3
 72
    10
 73
     6
 74
     0
 42
0.000000001
 43
0.00000001
 40
0.0
 40
0.0
 40
0.0
 40
0.0
 40
0.3109916030568156
 40
0.6517608232717562
 40
1.0
 40
1.0
 40
1.0
 40
1.0
 10
335.4253390852925
 20
246.8300741201811
 30
0.0
 10
335.4212274858916
 20
246.8664281169139
 30
0.0
 10
335.4126105991842
 20
246.9426170255753
 30
0.0
 10
335.3320875813048
 20
246.9969423270364
 30
0.0
 10
335.2276828157498
 20
247.0025414393023
 30
0.0
 10
335.1749144753861
 20
247.0053713471155
 30
0.0
  0
LINE
  5
4BF
330
1F
100
AcDbEntity
  8
0
  6
CONTINUOUS
 62
     8
100
AcDbLine
 10
334.4253390853
 20
222.3053713471
 30
0.0
 11
334.4253390853
 21
222.6053713471
 31
0.0
  0
LINE
  5
4C0
330
1F
100
AcDbEntity
  8
0
  6
CONTINUOUS
 62
     8
100
AcDbLine
 10
333.9253390853
 20
211.6053713471
 30
0.0
 11
333.6253390853
 21
211.6053713471
 31
0.0
  0
LINE
  5
4C1
330
1F
100
AcDbEntity
  8
0
  6
CONTINUOUS
 62
     8
100
AcDbLine
 10
327.4253390853
 20
211.3053713471
 30
0.0
 11
327.4253390853
 21
211.6053713471
 31
0.0
  0
LINE
  5
4C2
330
1F
100
AcDbEntity
  8
0
  6
CONTINUOUS
 62
     8
100
AcDbLine
 10
333.6253390853
 20
211.3053713471
 30
0.0
 11
333.6253390853
 21
211.6053713471
 31
0.0
  0
LINE
  5
4C3
330
1F
100
AcDbEntity
  8
0
  6
CONTINUOUS
 62
     8
100
AcDbLine
 10
333.6253390853
 20
632.3053713471
 30
0.0
 11
333.6253390853
 21
632.0053713471
 31
0.0
  0
LINE
  5
4C4
330
1F
100
AcDbEntity
  8
0
  6
CONTINUOUS
 62
     8
100
AcDbLine
 10
333.6253390853
 20
632.0053713471
 30
0.0
 11
327.4253390853
 21
632.0053713471
 31
0.0
  0
LINE
  5
4C5
330
1F
100
AcDbEntity
  8
0
  6
CONTINUOUS
 62
     8
100
AcDbLine
 10
327.4253390853
 20
632.3053713471
 30
0.0
 11
327.4253390853
 21
632.0053713471
 31
0.0
  0
LINE
  5
4C6
330
1F
100
AcDbEntity
  8
0
  6
CONTINUOUS
 62
     8
100
AcDbLine
 10
328.1253390853
 20
599.7489489336
 30
0.0
 11
328.1253390853
 21
615.3053713471
 31
0.0
  0
SPLINE
  5
4C7
330
1F
100
AcDbEntity
  8
0
  6
CONTINUOUS
 62
     8
100
AcDbSpline
210
0.0
220
0.0
230
1.0
 70
     8
 71
     3
 72
    12
 73
     8
 74
     0
 42
0.000000001
 43
0.00000001
 40
0.0
 40
0.0
 40
0.0
 40
0.0
 40
0.1065172560386023
 40
0.258091477923448
 40
0.4411558236357378
 40
0.6912373263298313
 40
1.0
 40
1.0
 40
1.0
 40
1.0
 10
329.4253390852925
 20
598.0053713471123
 30
0.0
 10
329.3403087330018
 20
598.0123155831172
 30
0.0
 10
329.134280056455
 20
598.029141477815
 30
0.0
 10
328.8099981670788
 20
598.1887393848682
 30
0.0
 10
328.4744964873819
 20
598.51904268845
 30
0.0
 10
328.1901969955646
 20
599.054788443011
 30
0.0
 10
328.148420624798
 20
599.5019120999913
 30
0.0
 10
328.1253390852925
 20
599.7489489335654
 30
0.0
  0
LINE
  5
4C8
330
1F
100
AcDbEntity
  8
0
  6
CONTINUOUS
 62
     8
100
AcDbLine
 10
334.4253390853
 20
598.0053713471
 30
0.0
 11
329.4253390853
 21
598.0053713471
 31
0.0
  0
LINE
  5
4C9
330
1F
100
AcDbEntity
  8
0
  6
CONTINUOUS
 62
     8
100
AcDbLine
 10
334.4253390853
 20
573.6053713471
 30
0.0
 11
334.4253390853
 21
598.0053713471
 31
0.0
  0
LINE
  5
4CA
330
1F
100
AcDbEntity
  8
0
  6
CONTINUOUS
 62
     8
100
AcDbLine
 10
333.6253390853
 20
573.6053713471
 30
0.0
 11
334.4253390853
 21
573.6053713471
 31
0.0
  0
LINE
  5
4CB
330
1F
100
AcDbEntity
  8
0
  6
CONTINUOUS
 62
     8
100
AcDbLine
 10
333.6253390853
 20
562.6053713471
 30
0.0
 11
333.6253390853
 21
573.6053713471
 31
0.0
  0
LINE
  5
4CC
330
1F
100
AcDbEntity
  8
0
  6
CONTINUOUS
 62
     8
100
AcDbLine
 10
327.4253390853
 20
562.6053713471
 30
0.0
 11
333.6253390853
 21
562.6053713471
 31
0.0
  0
LINE
  5
4CD
330
1F
100
AcDbEntity
  8
0
  6
CONTINUOUS
 62
     8
100
AcDbLine
 10
327.4253390853
 20
632.0053713471
 30
0.0
 11
327.4253390853
 21
562.6053713471
 31
0.0
  0
LINE
  5
4CE
330
1F
100
AcDbEntity
  8
0
  6
CONTINUOUS
 62
     8
100
AcDbLine
 10
333.6253390853
 20
621.0053713471
 30
0.0
 11
333.6253390853
 21
632.0053713471
 31
0.0
  0
LINE
  5
4CF
330
1F
100
AcDbEntity
  8
0
  6
CONTINUOUS
 62
     8
100
AcDbLine
 10
334.4253390853
 20
621.0053713471
 30
0.0
 11
333.6253390853
 21
621.0053713471
 31
0.0
  0
LINE
  5
4D0
330
1F
100
AcDbEntity
  8
0
  6
CONTINUOUS
 62
     8
100
AcDbLine
 10
334.4253390853
 20
616.6053713471
 30
0.0
 11
334.4253390853
 21
621.0053713471
 31
0.0
  0
LINE
  5
4D1
330
1F
100
AcDbEntity
  8
0
  6
CONTINUOUS
 62
     8
100
AcDbLine
 10
329.4253390853
 20
616.6053713471
 30
0.0
 11
334.4253390853
 21
616.6053713471
 31
0.0
  0
ARC
  5
4D2
330
1F
100
AcDbEntity
  8
0
  6
CONTINUOUS
 62
     8
100
AcDbCircle
 10
329.4253390853
 20
615.3053713471
 30
0.0
 40
1.300000000000068
100
AcDbArc
 50
90.0
 51
180.0
  0
LINE
  5
4D3
330
1F
100
AcDbEntity
  8
0
  6
CONTINUOUS
 62
     8
100
AcDbLine
 10
327.1253390853
 20
632.0053713471
 30
0.0
 11
327.4253390853
 21
632.0053713471
 31
0.0
  0
LINE
  5
4D4
330
1F
100
AcDbEntity
  8
0
  6
CONTINUOUS
 62
     8
100
AcDbLine
 10
333.6253390853
 20
632.0053713471
 30
0.0
 11
333.9253390853
 21
632.0053713471
 31
0.0
  0
LINE
  5
4D5
330
1F
100
AcDbEntity
  8
0
  6
CONTINUOUS
 62
     8
100
AcDbLine
 10
327.1253390853
 20
562.6053713471
 30
0.0
 11
327.4253390853
 21
562.6053713471
 31
0.0
  0
LINE
  5
4D6
330
1F
100
AcDbEntity
  8
0
  6
CONTINUOUS
 62
     8
100
AcDbLine
 10
334.4253390853
 20
621.3053713471
 30
0.0
 11
334.4253390853
 21
621.0053713471
 31
0.0
  0
LINE
  5
4D7
330
1F
100
AcDbEntity
  8
0
  6
CONTINUOUS
 62
     8
100
AcDbLine
 10
335.4253390853
 20
621.0053713471
 30
0.0
 11
334.4253390853
 21
621.0053713471
 31
0.0
  0
LINE
  5
4D8
330
1F
100
AcDbEntity
  8
0
  6
CONTINUOUS
 62
     8
100
AcDbLine
 10
334.4253390853
 20
616.6053713471
 30
0.0
 11
335.4253390853
 21
616.6053713471
 31
0.0
  0
LINE
  5
4D9
330
1F
100
AcDbEntity
  8
0
  6
CONTINUOUS
 62
     8
100
AcDbLine
 10
329.4253390853
 20
616.6053713471
 30
0.0
 11
329.4253390853
 21
616.3053713471
 31
0.0
  0
LINE
  5
4DA
330
1F
100
AcDbEntity
  8
0
  6
CONTINUOUS
 62
     8
100
AcDbLine
 10
328.1253390853
 20
615.3053713471
 30
0.0
 11
328.4253390853
 21
615.3053713471
 31
0.0
  0
LINE
  5
4DB
330
1F
100
AcDbEntity
  8
0
  6
CONTINUOUS
 62
     8
100
AcDbLine
 10
334.4253390853
 20
616.6053713471
 30
0.0
 11
334.4253390853
 21
616.3053713471
 31
0.0
  0
LINE
  5
4DC
330
1F
100
AcDbEntity
  8
0
  6
CONTINUOUS
 62
     8
100
AcDbLine
 10
328.1253390853
 20
599.7489489336
 30
0.0
 11
328.4253390853
 21
599.7489489336
 31
0.0
  0
LINE
  5
4DD
330
1F
100
AcDbEntity
  8
0
  6
CONTINUOUS
 62
     8
100
AcDbLine
 10
329.4253390853
 20
598.0053713471
 30
0.0
 11
329.4253390853
 21
598.3053713471
 31
0.0
  0
LINE
  5
4DE
330
1F
100
AcDbEntity
  8
0
  6
CONTINUOUS
 62
     8
100
AcDbLine
 10
334.4253390853
 20
598.0053713471
 30
0.0
 11
334.4253390853
 21
598.3053713471
 31
0.0
  0
LINE
  5
4DF
330
1F
100
AcDbEntity
  8
0
  6
CONTINUOUS
 62
     8
100
AcDbLine
 10
335.1749144754
 20
598.0053713471
 30
0.0
 11
334.4253390853
 21
598.0053713471
 31
0.0
  0
ARC
  5
4E0
330
1F
100
AcDbEntity
  8
0
  6
CONTINUOUS
 62
     8
100
AcDbCircle
 10
334.9062033659
 20
598.0382316022
 30
0.0
 40
0.2707128676864659
100
AcDbArc
 50
353.0280066641
 51
80.6806419852
  0
LINE
  5
4E1
330
1F
100
AcDbEntity
  8
0
  6
CONTINUOUS
 62
     8
100
AcDbLine
 10
334.4253390853
 20
573.6053713471
 30
0.0
 11
335.4253390853
 21
573.6053713471
 31
0.0
  0
SPLINE
  5
4E2
330
1F
100
AcDbEntity
  8
0
  6
CONTINUOUS
 62
     8
100
AcDbSpline
210
0.0
220
0.0
230
1.0
 70
     8
 71
     3
 72
    10
 73
     6
 74
     0
 42
0.000000001
 43
0.00000001
 40
0.0
 40
0.0
 40
0.0
 40
0.0
 40
0.3109916030568149
 40
0.651760823271757
 40
1.0
 40
1.0
 40
1.0
 40
1.0
 10
335.4253390852925
 20
597.8300741201779
 30
0.0
 10
335.4212274858916
 20
597.8664281169107
 30
0.0
 10
335.4126105991842
 20
597.9426170255722
 30
0.0
 10
335.3320875813048
 20
597.996942327033
 30
0.0
 10
335.2276828157497
 20
598.002541439299
 30
0.0
 10
335.1749144753861
 20
598.0053713471123
 30
0.0
  0
LINE
  5
4E3
330
1F
100
AcDbEntity
  8
0
  6
CONTINUOUS
 62
     8
100
AcDbLine
 10
334.4253390853
 20
573.3053713471
 30
0.0
 11
334.4253390853
 21
573.6053713471
 31
0.0
  0
LINE
  5
4E4
330
1F
100
AcDbEntity
  8
0
  6
CONTINUOUS
 62
     8
100
AcDbLine
 10
333.9253390853
 20
562.6053713471
 30
0.0
 11
333.6253390853
 21
562.6053713471
 31
0.0
  0
LINE
  5
4E5
330
1F
100
AcDbEntity
  8
0
  6
CONTINUOUS
 62
     8
100
AcDbLine
 10
327.4253390853
 20
562.3053713471
 30
0.0
 11
327.4253390853
 21
562.6053713471
 31
0.0
  0
LINE
  5
4E6
330
1F
100
AcDbEntity
  8
0
  6
CONTINUOUS
 62
     8
100
AcDbLine
 10
333.6253390853
 20
562.3053713471
 30
0.0
 11
333.6253390853
 21
562.6053713471
 31
0.0
  0
LINE
  5
4E7
330
1F
100
AcDbEntity
  8
0
  6
CONTINUOUS
 62
     8
100
AcDbLine
 10
326.6253390853
 20
707.4074555855
 30
0.0
 11
326.6253390853
 21
555.2032871088
 31
0.0
  0
LINE
  5
4E8
330
1F
100
AcDbEntity
  8
0
  6
CONTINUOUS
 62
     8
100
AcDbLine
 10
326.6253390853
 20
742.4074555855
 30
0.0
 11
326.6253390853
 21
712.2032871088
 31
0.0
  0
LINE
  5
4E9
330
1F
100
AcDbEntity
  8
0
  6
CONTINUOUS
 62
     8
100
AcDbLine
 10
326.6253390853
 20
753.1783546933
 30
0.0
 11
326.6253390853
 21
747.2032871088
 31
0.0
  0
LINE
  5
4EA
330
1F
100
AcDbEntity
  8
0
  6
CONTINUOUS
 62
     8
100
AcDbLine
 10
334.6253390853
 20
757.3053713471
 30
0.0
 11
334.6253390853
 21
621.4553713471
 31
0.0
  0
LINE
  5
4EB
330
1F
100
AcDbEntity
  8
0
  6
CONTINUOUS
 62
     8
100
AcDbLine
 10
334.6253390853
 20
573.1553713471
 30
0.0
 11
334.6253390853
 21
540.3053713471
 31
0.0
  0
LINE
  5
4EC
330
1F
100
AcDbEntity
  8
0
  6
CONTINUOUS
 62
     8
100
AcDbLine
 10
326.6253390853
 20
550.4074555855
 30
0.0
 11
326.6253390853
 21
544.4323880009
 31
0.0
  0
LINE
  5
4ED
330
1F
100
AcDbEntity
  8
0
  6
CONTINUOUS
 62
     8
100
AcDbLine
 10
334.6253390853
 20
86.3053713471
 30
0.0
 11
334.6253390853
 21
222.1553713471
 31
0.0
  0
LINE
  5
4EE
330
1F
100
AcDbEntity
  8
0
  6
CONTINUOUS
 62
     8
100
AcDbLine
 10
326.6253390853
 20
90.4323880009
 30
0.0
 11
326.6253390853
 21
299.1783546933
 31
0.0
  0
LINE
  5
4EF
330
1F
100
AcDbEntity
  8
0
  6
CONTINUOUS
 62
     8
100
AcDbLine
 10
334.6253390853
 20
270.4553713471
 30
0.0
 11
334.6253390853
 21
303.3053713471
 31
0.0
  0
LINE
  5
4F0
330
1F
100
AcDbEntity
  8
0
  6
CONTINUOUS
 62
     8
100
AcDbLine
 10
333.6253390853
 20
530.3053713471
 30
0.0
 11
333.6253390853
 21
529.3053713471
 31
0.0
  0
ARC
  5
4F1
330
1F
100
AcDbEntity
  8
0
  6
CONTINUOUS
 62
     8
100
AcDbCircle
 10
333.6253390853
 20
522.3053713471
 30
0.0
 40
7.0
100
AcDbArc
 50
90.0
 51
180.0
  0
LINE
  5
4F2
330
1F
100
AcDbEntity
  8
0
  6
CONTINUOUS
 62
     8
100
AcDbLine
 10
325.6253390853
 20
522.3053713471
 30
0.0
 11
326.6253390853
 21
522.3053713471
 31
0.0
  0
LINE
  5
4F3
330
1F
100
AcDbEntity
  8
0
  6
CONTINUOUS
 62
     8
100
AcDbLine
 10
326.6253390853
 20
515.9074555855
 30
0.0
 11
326.6253390853
 21
413.2032871088
 31
0.0
  0
LINE
  5
4F4
330
1F
100
AcDbEntity
  8
0
  6
CONTINUOUS
 62
     8
100
AcDbLine
 10
326.6253390853
 20
522.3053713471
 30
0.0
 11
326.6253390853
 21
520.7032871088
 31
0.0
  0
LINE
  5
4F5
330
1F
100
AcDbEntity
  8
0
  6
CONTINUOUS
 62
     8
100
AcDbLine
 10
334.6253390853
 20
529.3053713471
 30
0.0
 11
333.6253390853
 21
529.3053713471
 31
0.0
  0
LINE
  5
4F6
330
1F
100
AcDbEntity
  8
0
  6
CONTINUOUS
 62
     8
100
AcDbLine
 10
334.6253390853
 20
314.3053713471
 30
0.0
 11
334.6253390853
 21
529.3053713471
 31
0.0
  0
LINE
  5
4F7
330
1F
100
AcDbEntity
  8
0
  6
CONTINUOUS
 62
     8
100
AcDbLine
 10
333.6253390853
 20
314.3053713471
 30
0.0
 11
334.6253390853
 21
314.3053713471
 31
0.0
  0
ARC
  5
4F8
330
1F
100
AcDbEntity
  8
0
  6
CONTINUOUS
 62
     8
100
AcDbCircle
 10
333.6253390853
 20
321.3053713471
 30
0.0
 40
7.0
100
AcDbArc
 50
180.0
 51
270.0
  0
LINE
  5
4F9
330
1F
100
AcDbEntity
  8
0
  6
CONTINUOUS
 62
     8
100
AcDbLine
 10
326.6253390853
 20
322.9074555855
 30
0.0
 11
326.6253390853
 21
321.3053713471
 31
0.0
  0
LINE
  5
4FA
330
1F
100
AcDbEntity
  8
0
  6
CONTINUOUS
 62
     8
100
AcDbLine
 10
326.6253390853
 20
408.4074555855
 30
0.0
 11
326.6253390853
 21
327.7032871088
 31
0.0
  0
LINE
  5
4FB
330
1F
100
AcDbEntity
  8
0
  6
CONTINUOUS
 62
     8
100
AcDbLine
 10
325.6253390853
 20
321.3053713471
 30
0.0
 11
326.6253390853
 21
321.3053713471
 31
0.0
  0
LINE
  5
4FC
330
1F
100
AcDbEntity
  8
0
  6
CONTINUOUS
 62
     8
100
AcDbLine
 10
333.6253390853
 20
313.3053713471
 30
0.0
 11
333.6253390853
 21
314.3053713471
 31
0.0
  0
DIMENSION
  5
4FD
330
1F
100
AcDbEntity
  8
0
  6
CONTINUOUS
 62
     7
100
AcDbDimension
  2
_D_34
 10
325.6253390853
 20
64.3053713471
 30
0.0
 11
330.6253390853
 21
64.3053713471
 31
0.0
 70
   160
  1
<>
  3
SLDDIMSTYLE0
100
AcDbAlignedDimension
 13
335.6253390853
 23
86.3053713471
 33
0.0
 14
325.6253390853
 24
94.3053713471
 34
0.0
100
AcDbRotatedDimension
  0
DIMENSION
  5
509
330
1F
100
AcDbEntity
  8
0
  6
CONTINUOUS
 62
     7
100
AcDbDimension
  2
_D_35
 10
333.6253390853
 20
94.3053713471
 30
0.0
 11
317.1542351754
 21
79.7206629942
 31
0.0
 70
   164
  1
<>
  3
SLDDIMSTYLE2
100
AcDbRadialDimension
 15
327.6359149095
 25
89.0019009699
 35
0.0
 40
0.0
  0
ENDSEC
  0
SECTION
  2
OBJECTS
  0
DICTIONARY
  5
C
330
0
100
AcDbDictionary
  3
ACAD_GROUP
350
D
  3
ACAD_MLINESTYLE
350
17
  3
ACAD_SCALELIST
350
47
  3
APPDATA
350
533
  3
DWGPROPS
350
536
  0
DICTIONARY
  5
534
330
1F
100
AcDbDictionary
280
     1
  3
DIM_BOUNDING_BOXES_V1
360
535
  0
DICTIONARY
  5
D
102
{ACAD_REACTORS
330
C
102
}
330
C
100
AcDbDictionary
  0
DICTIONARY
  5
17
102
{ACAD_REACTORS
330
C
102
}
330
C
100
AcDbDictionary
  3
STANDARD
350
18
  0
DICTIONARY
  5
47
102
{ACAD_REACTORS
330
C
102
}
330
C
100
AcDbDictionary
  0
DICTIONARY
  5
533
102
{ACAD_REACTORS
330
C
102
}
330
C
100
AcDbDictionary
  0
XRECORD
  5
536
102
{ACAD_REACTORS
330
C
102
}
330
C
100
AcDbXrecord
  1
DWGPROPS COOKIE
  2

  3

  4

  6

  7

  8
chrwyd
  9

300
=
301
=
302
=
303
=
304
=
305
=
306
=
307
=
308
=
309
=
 40
0.0
 41
2459899.294923993
 42
2460271.680402072
  1

 90
        0
  0
DICTIONARY
  5
535
102
{ACAD_REACTORS
330
534
102
}
330
534
100
AcDbDictionary
  0
MLINESTYLE
  5
18
102
{ACAD_REACTORS
330
17
102
}
330
17
100
AcDbMlineStyle
  2
Standard
 70
     0
  3

 62
   256
 51
90.0
 52
90.0
 71
     2
 49
0.5
 62
   256
  6
BYLAYER
 49
-0.5
 62
   256
  6
BYLAYER
  0
ENDSEC
  0
EOF
