  0
SECTION
  2
HEADER
  9
$ACADVER
  1
AC1024
  9
$ACADMAINTVER
 70
   157
  9
$DWGCODEPAGE
  3
ANSI_1252
  9
$INSBASE
 10
0.0
 20
0.0
 30
0.0
  9
$EXTMIN
 10
-213.9671862790431
 20
3.683266408715758
 30
0.0
  9
$EXTMAX
 10
379.222772601253
 20
536.9071875531227
 30
0.0
  9
$LIMMIN
 10
0.0
 20
0.0
  9
$LIMMAX
 10
600.0
 20
700.0
  9
$ORTHOMODE
 70
     1
  9
$REGENMODE
 70
     1
  9
$FILLMODE
 70
     1
  9
$QTEXTMODE
 70
     0
  9
$MIRRTEXT
 70
     1
  9
$LTSCALE
 40
1.0
  9
$ATTMODE
 70
     1
  9
$TEXTSIZE
 40
10.0
  9
$TRACEWID
 40
0.05
  9
$TEXTSTYLE
  7
ARIAL-STANDARD
  9
$CLAYER
  8
ACHSEN
  9
$CELTYPE
  6
BYLAYER
  9
$CECOLOR
 62
   256
  9
$CELTSCALE
 40
1.0
  9
$DISPSILH
 70
     0
  9
$DIMSCALE
 40
1.0
  9
$DIMASZ
 40
4.0
  9
$DIMEXO
 40
0.0
  9
$DIMDLI
 40
8.0
  9
$DIMRND
 40
0.0
  9
$DIMDLE
 40
0.0
  9
$DIMEXE
 40
1.0
  9
$DIMTP
 40
0.0
  9
$DIMTM
 40
0.0
  9
$DIMTXT
 40
4.349999999999999
  9
$DIMCEN
 40
1.5
  9
$DIMTSZ
 40
0.0
  9
$DIMTOL
 70
     0
  9
$DIMLIM
 70
     0
  9
$DIMTIH
 70
     0
  9
$DIMTOH
 70
     0
  9
$DIMSE1
 70
     0
  9
$DIMSE2
 70
     0
  9
$DIMTAD
 70
     1
  9
$DIMZIN
 70
     8
  9
$DIMBLK
  1

  9
$DIMASO
 70
     1
  9
$DIMSHO
 70
     1
  9
$DIMPOST
  1

  9
$DIMAPOST
  1

  9
$DIMALT
 70
     0
  9
$DIMALTD
 70
     2
  9
$DIMALTF
 40
25.39999999999999
  9
$DIMLFAC
 40
1.0
  9
$DIMTOFL
 70
     1
  9
$DIMTVP
 40
0.0
  9
$DIMTIX
 70
     1
  9
$DIMSOXD
 70
     0
  9
$DIMSAH
 70
     0
  9
$DIMBLK1
  1

  9
$DIMBLK2
  1

  9
$DIMSTYLE
  2
Katalog 09
  9
$DIMCLRD
 70
     2
  9
$DIMCLRE
 70
     2
  9
$DIMCLRT
 70
     3
  9
$DIMTFAC
 40
0.4285714285714286
  9
$DIMGAP
 40
1.0
  9
$DIMJUST
 70
     0
  9
$DIMSD1
 70
     0
  9
$DIMSD2
 70
     0
  9
$DIMTOLJ
 70
     1
  9
$DIMTZIN
 70
     8
  9
$DIMALTZ
 70
     8
  9
$DIMALTTZ
 70
     8
  9
$DIMUPT
 70
     0
  9
$DIMDEC
 70
     2
  9
$DIMTDEC
 70
     2
  9
$DIMALTU
 70
     2
  9
$DIMALTTD
 70
     2
  9
$DIMTXSTY
  7
ARIAL-STANDARD
  9
$DIMAUNIT
 70
     0
  9
$DIMADEC
 70
     0
  9
$DIMALTRND
 40
0.0
  9
$DIMAZIN
 70
     0
  9
$DIMDSEP
 70
    46
  9
$DIMATFIT
 70
     3
  9
$DIMFRAC
 70
     0
  9
$DIMLDRBLK
  1

  9
$DIMLUNIT
 70
     2
  9
$DIMLWD
 70
    -2
  9
$DIMLWE
 70
    -2
  9
$DIMTMOVE
 70
     2
  9
$DIMFXL
 40
1.0
  9
$DIMFXLON
 70
     0
  9
$DIMJOGANG
 40
0.7853981633974483
  9
$DIMTFILL
 70
     0
  9
$DIMTFILLCLR
 70
     0
  9
$DIMARCSYM
 70
     0
  9
$DIMLTYPE
  6

  9
$DIMLTEX1
  6

  9
$DIMLTEX2
  6

  9
$DIMTXTDIRECTION
 70
     0
  9
$LUNITS
 70
     2
  9
$LUPREC
 70
     4
  9
$SKETCHINC
 40
0.1
  9
$FILLETRAD
 40
0.0
  9
$AUNITS
 70
     0
  9
$AUPREC
 70
     0
  9
$MENU
  1
.
  9
$ELEVATION
 40
0.0
  9
$PELEVATION
 40
0.0
  9
$THICKNESS
 40
0.0
  9
$LIMCHECK
 70
     0
  9
$CHAMFERA
 40
0.5
  9
$CHAMFERB
 40
0.5
  9
$CHAMFERC
 40
1.0
  9
$CHAMFERD
 40
0.0
  9
$SKPOLY
 70
     0
  9
$TDCREATE
 40
2451247.394468669
  9
$TDUCREATE
 40
2451247.311135336
  9
$TDUPDATE
 40
2454900.393358982
  9
$TDUUPDATE
 40
2454900.310025648
  9
$TDINDWG
 40
0.3517016782
  9
$TDUSRTIMER
 40
0.3517016782
  9
$USRTIMER
 70
     1
  9
$ANGBASE
 50
0.0
  9
$ANGDIR
 70
     0
  9
$PDMODE
 70
     0
  9
$PDSIZE
 40
0.0
  9
$PLINEWID
 40
0.0
  9
$SPLFRAME
 70
     0
  9
$SPLINETYPE
 70
     6
  9
$SPLINESEGS
 70
     8
  9
$HANDSEED
  5
7DC
  9
$SURFTAB1
 70
     6
  9
$SURFTAB2
 70
     6
  9
$SURFTYPE
 70
     6
  9
$SURFU
 70
     6
  9
$SURFV
 70
     6
  9
$UCSBASE
  2

  9
$UCSNAME
  2

  9
$UCSORG
 10
0.0
 20
0.0
 30
0.0
  9
$UCSXDIR
 10
1.0
 20
0.0
 30
0.0
  9
$UCSYDIR
 10
0.0
 20
1.0
 30
0.0
  9
$UCSORTHOREF
  2

  9
$UCSORTHOVIEW
 70
     0
  9
$UCSORGTOP
 10
0.0
 20
0.0
 30
0.0
  9
$UCSORGBOTTOM
 10
0.0
 20
0.0
 30
0.0
  9
$UCSORGLEFT
 10
0.0
 20
0.0
 30
0.0
  9
$UCSORGRIGHT
 10
0.0
 20
0.0
 30
0.0
  9
$UCSORGFRONT
 10
0.0
 20
0.0
 30
0.0
  9
$UCSORGBACK
 10
0.0
 20
0.0
 30
0.0
  9
$PUCSBASE
  2

  9
$PUCSNAME
  2

  9
$PUCSORG
 10
0.0
 20
0.0
 30
0.0
  9
$PUCSXDIR
 10
1.0
 20
0.0
 30
0.0
  9
$PUCSYDIR
 10
0.0
 20
1.0
 30
0.0
  9
$PUCSORTHOREF
  2

  9
$PUCSORTHOVIEW
 70
     0
  9
$PUCSORGTOP
 10
0.0
 20
0.0
 30
0.0
  9
$PUCSORGBOTTOM
 10
0.0
 20
0.0
 30
0.0
  9
$PUCSORGLEFT
 10
0.0
 20
0.0
 30
0.0
  9
$PUCSORGRIGHT
 10
0.0
 20
0.0
 30
0.0
  9
$PUCSORGFRONT
 10
0.0
 20
0.0
 30
0.0
  9
$PUCSORGBACK
 10
0.0
 20
0.0
 30
0.0
  9
$USERI1
 70
     0
  9
$USERI2
 70
     0
  9
$USERI3
 70
     0
  9
$USERI4
 70
     0
  9
$USERI5
 70
     0
  9
$USERR1
 40
0.0
  9
$USERR2
 40
0.0
  9
$USERR3
 40
0.0
  9
$USERR4
 40
0.0
  9
$USERR5
 40
0.0
  9
$WORLDVIEW
 70
     1
  9
$SHADEDGE
 70
     3
  9
$SHADEDIF
 70
    70
  9
$TILEMODE
 70
     1
  9
$MAXACTVP
 70
    48
  9
$PINSBASE
 10
0.0
 20
0.0
 30
0.0
  9
$PLIMCHECK
 70
     0
  9
$PEXTMIN
 10
1.000000000000000E+20
 20
1.000000000000000E+20
 30
1.000000000000000E+20
  9
$PEXTMAX
 10
-1.000000000000000E+20
 20
-1.000000000000000E+20
 30
-1.000000000000000E+20
  9
$PLIMMIN
 10
0.0
 20
0.0
  9
$PLIMMAX
 10
12.0
 20
9.0
  9
$UNITMODE
 70
     0
  9
$VISRETAIN
 70
     1
  9
$PLINEGEN
 70
     0
  9
$PSLTSCALE
 70
     1
  9
$TREEDEPTH
 70
  3020
  9
$CMLSTYLE
  2
STANDARD
  9
$CMLJUST
 70
     0
  9
$CMLSCALE
 40
1.0
  9
$PROXYGRAPHICS
 70
     1
  9
$MEASUREMENT
 70
     1
  9
$CELWEIGHT
370
    -1
  9
$ENDCAPS
280
     0
  9
$JOINSTYLE
280
     0
  9
$LWDISPLAY
290
     0
  9
$INSUNITS
 70
     0
  9
$HYPERLINKBASE
  1

  9
$STYLESHEET
  1

  9
$XEDIT
290
     1
  9
$CEPSNTYPE
380
     0
  9
$PSTYLEMODE
290
     1
  9
$FINGERPRINTGUID
  2
{DFF45ED9-ABB5-43F9-ADC2-632C344B3779}
  9
$VERSIONGUID
  2
{6F8C7A71-B17D-4A16-93FE-F91D46FAE162}
  9
$EXTNAMES
290
     1
  9
$PSVPSCALE
 40
0.0
  9
$OLESTARTUP
290
     0
  9
$SORTENTS
280
   127
  9
$INDEXCTL
280
     0
  9
$HIDETEXT
280
     1
  9
$XCLIPFRAME
280
     0
  9
$HALOGAP
280
     0
  9
$OBSCOLOR
 70
   257
  9
$OBSLTYPE
280
     0
  9
$INTERSECTIONDISPLAY
280
     0
  9
$INTERSECTIONCOLOR
 70
   257
  9
$DIMASSOC
280
     1
  9
$PROJECTNAME
  1

  9
$CAMERADISPLAY
290
     0
  9
$LENSLENGTH
 40
50.0
  9
$CAMERAHEIGHT
 40
0.0
  9
$STEPSPERSEC
 40
2.0
  9
$STEPSIZE
 40
6.0
  9
$3DDWFPREC
 40
2.0
  9
$PSOLWIDTH
 40
0.25
  9
$PSOLHEIGHT
 40
4.0
  9
$LOFTANG1
 40
1.570796326794896
  9
$LOFTANG2
 40
1.570796326794896
  9
$LOFTMAG1
 40
0.0
  9
$LOFTMAG2
 40
0.0
  9
$LOFTPARAM
 70
     7
  9
$LOFTNORMALS
280
     1
  9
$LATITUDE
 40
37.795
  9
$LONGITUDE
 40
-122.394
  9
$NORTHDIRECTION
 40
0.0
  9
$TIMEZONE
 70
 -8000
  9
$LIGHTGLYPHDISPLAY
280
     1
  9
$TILEMODELIGHTSYNCH
280
     1
  9
$CMATERIAL
347
41
  9
$SOLIDHIST
280
     1
  9
$SHOWHIST
280
     1
  9
$DWFFRAME
280
     2
  9
$DGNFRAME
280
     0
  9
$REALWORLDSCALE
290
     1
  9
$INTERFERECOLOR
 62
     1
  9
$INTERFEREOBJVS
345
5C
  9
$INTERFEREVPVS
346
5D
  9
$CSHADOW
280
     0
  9
$SHADOWPLANELOCATION
 40
0.0
  0
ENDSEC
  0
SECTION
  2
CLASSES
  0
CLASS
  1
ACDBDICTIONARYWDFLT
  2
AcDbDictionaryWithDefault
  3
ObjectDBX Classes
 90
        0
 91
        1
280
     0
281
     0
  0
CLASS
  1
TABLESTYLE
  2
AcDbTableStyle
  3
ObjectDBX Classes
 90
     4095
 91
        1
280
     0
281
     0
  0
CLASS
  1
ACME_DOCUMENT
  2
AcMeDbDoc
  3
AcMeServices
 90
     1024
 91
        0
280
     0
281
     0
  0
CLASS
  1
AMGSETTINGSOBJ
  2
AmgSettingsObj
  3
"AcadM|Product Description: AutoCAD Mechanical|Company: Autodesk, Inc."
 90
     1024
 91
        2
280
     0
281
     0
  0
CLASS
  1
ACMESCOPE
  2
AcMeScope
  3
AcMeServices
 90
     1024
 91
        1
280
     0
281
     0
  0
CLASS
  1
ACMECOMMANDHISTORY
  2
AcMeCommandHistory
  3
AcMeServices
 90
     1024
 91
        0
280
     0
281
     0
  0
CLASS
  1
ACIMSYSVARMAN
  2
AcImSysVarManager
  3
AcMeServices
 90
     1024
 91
        2
280
     0
281
     0
  0
CLASS
  1
ACIMINTSYSVAR
  2
AcImIntSysVar
  3
AcMeServices
 90
     1024
 91
       25
280
     0
281
     0
  0
CLASS
  1
ACMEDRAWINGMAN
  2
AcMeDrawingMan
  3
AcMeServices
 90
     1024
 91
        0
280
     0
281
     0
  0
CLASS
  1
ACMEVIEW
  2
AcMeView
  3
AcMeServices
 90
     1024
 91
        0
280
     0
281
     0
  0
CLASS
  1
ACDBENTITYCACHE
  2
AcMeEntityCache
  3
AcMeServices
 90
     1024
 91
        0
280
     0
281
     0
  0
CLASS
  1
GSMANAGER
  2
AcMeGSManager
  3
AcMeServices
 90
     1024
 91
        0
280
     1
281
     0
  0
CLASS
  1
AMDTINTERNALREACTOR
  2
AmdtInternalReactor
  3
AcMeServices
 90
     1024
 91
        1
280
     0
281
     0
  0
CLASS
  1
ACMESTATEMGR
  2
AcMeStateMgr
  3
AcMeServices
 90
     1024
 91
        1
280
     0
281
     0
  0
CLASS
  1
ACGREFMASTER
  2
AcGrefMaster
  3
AcAttribServices
 90
     1024
 91
        1
280
     0
281
     0
  0
CLASS
  1
AM_DRAWING_MGR
  2
AcDmDwgMgr
  3
AcMechDwgViewMgmt
 90
     1024
 91
        1
280
     0
281
     0
  0
CLASS
  1
AM_DWG_DOCUMENT
  2
AcDmDwgDocument
  3
AcMechDwgViewMgmt
 90
     1024
 91
        1
280
     0
281
     0
  0
CLASS
  1
AM_DWG_SHEET
  2
AcDmSheet
  3
AcMechDwgViewMgmt
 90
     1024
 91
        1
280
     0
281
     0
  0
CLASS
  1
AM_VIEWDIMPARMAP
  2
AcDmViewDimParMap
  3
AcMechDwgViewMgmt
 90
     1024
 91
        1
280
     0
281
     0
  0
CLASS
  1
ACIMREALSYSVAR
  2
AcImRealSysVar
  3
AcMeServices
 90
     1024
 91
        1
280
     0
281
     0
  0
CLASS
  1
AM_DWGMGR_NAME
  2
AcDmDwgMgrName
  3
AcMechDwgViewMgmt
 90
     1024
 91
        1
280
     0
281
     0
  0
CLASS
  1
ACME_DATABASE
  2
AcMeDbDatabase
  3
AcMeServices
 90
     1024
 91
        0
280
     0
281
     0
  0
CLASS
  1
ACRFINSADJUSTERMGR
  2
AcRfInsAdjusterMgr
  3
AcMeServices
 90
     1024
 91
        0
280
     0
281
     0
  0
CLASS
  1
ACGREFACADMASTER
  2
AcGrefacadMaster
  3
AcGrefServices
 90
     1024
 91
        0
280
     0
281
     0
  0
CLASS
  1
AMDTMENUSTATEMGR
  2
AmdtMenuStateMgr
  3
McadcomServices
 90
     1024
 91
        0
280
     0
281
     0
  0
CLASS
  1
AMDTMCOMMENUSTATE
  2
AmdtMcomMenuState
  3
McadcomServices
 90
     1024
 91
        0
280
     0
281
     0
  0
CLASS
  1
AMIMASTER
  2
AmiMaster
  3
AmiServices
 90
     1024
 91
        0
280
     0
281
     0
  0
CLASS
  1
MAPIAMMOUDLE
  2
MApiAmModule
  3
MApiAmServices
 90
     1024
 91
        0
280
     0
281
     0
  0
CLASS
  1
ACIMSTRSYSVAR
  2
AcImStrSysVar
  3
AcMeServices
 90
     1024
 91
        1
280
     0
281
     0
  0
CLASS
  1
AMDTADMENUSTATE
  2
AmdtAdMenuState
  3
DesignerServices
 90
     1024
 91
        0
280
     1
281
     0
  0
CLASS
  1
ADAPPL
  2
AcAdAppl
  3
DesignerAssemblies
 90
     1024
 91
        0
280
     0
281
     0
  0
CLASS
  1
DEPMGR
  2
AcAdDepMgr
  3
DesignerAssemblies
 90
     1024
 91
        0
280
     0
281
     0
  0
CLASS
  1
PARAMMGR
  2
AcAdParamMgr
  3
DesignerAssemblies
 90
     1024
 91
        0
280
     0
281
     0
  0
CLASS
  1
PARAMSCOPE
  2
AcAdParamScope
  3
DesignerAssemblies
 90
     1024
 91
        0
280
     0
281
     0
  0
CLASS
  1
NAMEDAPPL
  2
AcAdNamedAppl
  3
DesignerAssemblies
 90
     1024
 91
        0
280
     0
281
     0
  0
CLASS
  1
AMDTDMMENUSTATE
  2
AmdtDmMenuState
  3
AcMechDwgViewMgmt
 90
     1024
 91
        0
280
     1
281
     0
  0
CLASS
  1
AMDTAMMENUSTATE
  2
AmdtAmMenuState
  3
DesignerAssemblies
 90
     1024
 91
        0
280
     0
281
     0
  0
CLASS
  1
ACAMPROJECT
  2
AcAmProject
  3
DesignerAssemblies
 90
     1024
 91
        0
280
     0
281
     0
  0
CLASS
  1
ACAMGRCOMPDEF
  2
AcAmGrCompDef
  3
DesignerAssemblies
 90
     1024
 91
        0
280
     0
281
     0
  0
CLASS
  1
ACCMCONTEXT
  2
AcCmContext
  3
DesignerAssemblies
 90
     1024
 91
        0
280
     0
281
     0
  0
CLASS
  1
ACAMCOMPDEF
  2
AcAmCompDef
  3
DesignerAssemblies
 90
     1024
 91
        0
280
     0
281
     0
  0
CLASS
  1
ACAMCOMPDEFMGR
  2
AcAmCompDefMgr
  3
DesignerAssemblies
 90
     1024
 91
        0
280
     0
281
     0
  0
CLASS
  1
AMCONTEXTMGR
  2
AcAmContextMgr
  3
DesignerAssemblies
 90
     1024
 91
        0
280
     0
281
     0
  0
CLASS
  1
ACAMCONTEXTMODELER
  2
AcAmContextModeler
  3
DesignerAssemblies
 90
     1024
 91
        0
280
     0
281
     0
  0
CLASS
  1
ACMDATADICTIONARY
  2
AcmDataDictionary
  3
"AcmSymBB|Product Description: AutoCAD Mechanical|Company: Autodesk, Inc."
 90
     1024
 91
        0
280
     0
281
     0
  0
CLASS
  1
CATALOGSTATE
  2
AcAmCatalogState
  3
DesignerAssemblies
 90
     1024
 91
        0
280
     0
281
     0
  0
CLASS
  1
ACAMGRCOMPDEFSET
  2
AcAmGrCompDefSet
  3
DesignerAssemblies
 90
     1024
 91
        0
280
     0
281
     0
  0
CLASS
  1
AMDTBROWSERDBTAB
  2
AmdtBrowserDbTab
  3
McadcomServices
 90
     1024
 91
        0
280
     0
281
     0
  0
CLASS
  1
CBROWSERAPPOBJECT
  2
CBrowserAppObject
  3
McadcomServices
 90
     1024
 91
        0
280
     0
281
     0
  0
CLASS
  1
DM_PLACEHOLDER
  2
AcDmSelsetPlaceholder
  3
McadcomServices
 90
     1024
 91
        0
280
     0
281
     0
  0
CLASS
  1
ACMSTANDARDDIN
  2
AcmStandardDIN
  3
"Amdt_StdImp|Product Description: AutoCAD Mechanical|Company: Autodesk, Inc."
 90
     1024
 91
        1
280
     0
281
     0
  0
CLASS
  1
AMGOBJPROPCFG
  2
AmgObjPropCfg
  3
"AmgLay|Product Description: AutoCAD Mechanical|Company: Autodesk, Inc."
 90
     1024
 91
        1
280
     0
281
     0
  0
CLASS
  1
AMDTEDGESTANDARDDIN13715
  2
AmdtEdgeStdDIN13715
  3
"Amdt_StdImp|Product Description: AutoCAD Mechanical|Company: Autodesk, Inc."
 90
     1024
 91
        1
280
     0
281
     0
  0
CLASS
  1
ACMSURFSTANDARDDIN
  2
AcmSurfTextStdDIN
  3
"Amdt_StdImp|Product Description: AutoCAD Mechanical|Company: Autodesk, Inc."
 90
     1024
 91
        1
280
     0
281
     0
  0
CLASS
  1
ACMFCFSTANDARDDIN
  2
AcmFCFStdDIN
  3
"Amdt_StdImp|Product Description: AutoCAD Mechanical|Company: Autodesk, Inc."
 90
     1024
 91
        1
280
     0
281
     0
  0
CLASS
  1
ACMWELDSTANDARDDIN
  2
AcmWeldingStdDIN
  3
"Amdt_StdImp|Product Description: AutoCAD Mechanical|Company: Autodesk, Inc."
 90
     1024
 91
        1
280
     0
281
     0
  0
CLASS
  1
ACMIDSTANDARDDIN
  2
AcmIdStdDIN
  3
"Amdt_StdImp|Product Description: AutoCAD Mechanical|Company: Autodesk, Inc."
 90
     1024
 91
        1
280
     0
281
     0
  0
CLASS
  1
ACMDATUMSTANDARDDIN
  2
AcmDatumStdDIN
  3
"Amdt_StdImp|Product Description: AutoCAD Mechanical|Company: Autodesk, Inc."
 90
     1024
 91
        1
280
     0
281
     0
  0
CLASS
  1
ACMBOMSTANDARDDIN
  2
AcmBOMStdDIN
  3
"Amdt_StdImp|Product Description: AutoCAD Mechanical|Company: Autodesk, Inc."
 90
     1024
 91
        1
280
     0
281
     0
  0
CLASS
  1
ACMDETAILSTANDARDDIN
  2
AmdtDetailSymStdDIN
  3
"Amdt_StdImp|Product Description: AutoCAD Mechanical|Company: Autodesk, Inc."
 90
     1024
 91
        1
280
     0
281
     0
  0
CLASS
  1
ACMSECTIONSTANDARDDIN
  2
AmdtSectionSymStdDIN
  3
"Amdt_StdImp|Product Description: AutoCAD Mechanical|Company: Autodesk, Inc."
 90
     1024
 91
        1
280
     0
281
     0
  0
CLASS
  1
ACMCENTERLINESTANDARDDIN
  2
AmdtCenterLineStdDIN
  3
"Amdt_StdImp|Product Description: AutoCAD Mechanical|Company: Autodesk, Inc."
 90
     1024
 91
        1
280
     0
281
     0
  0
CLASS
  1
ACMTHREADLINESTANDARDDIN
  2
AmdtThreadLineStdDIN
  3
"Amdt_StdImp|Product Description: AutoCAD Mechanical|Company: Autodesk, Inc."
 90
     1024
 91
        1
280
     0
281
     0
  0
CLASS
  1
ACMNOTESTANDARDDIN
  2
AmdtNoteStdDIN
  3
"Amdt_StdImp|Product Description: AutoCAD Mechanical|Company: Autodesk, Inc."
 90
     1024
 91
        1
280
     0
281
     0
  0
CLASS
  1
AMDTNOTETEMPLATEDB
  2
AmdtNoteTemplateDB
  3
AcmSymBB|Product Description: AutoCAD Mechanical|Company: Autodesk, Inc.
 90
     1024
 91
        6
280
     0
281
     0
  0
CLASS
  1
ACAMGLAYSTD
  2
AcAmgLayStd
  3
"AmgLay|Product Description: AutoCAD Mechanical|Company: Autodesk, Inc."
 90
     1024
 91
        1
280
     0
281
     0
  0
CLASS
  1
ACAMGDIMSTD
  2
AcAmgDimStd
  3
"AmgDim|Product Description: AutoCAD Mechanical|Company: Autodesk, Inc."
 90
     1024
 91
        1
280
     0
281
     0
  0
CLASS
  1
ACAMGHOLECHARTSTDDIN
  2
AcAmgHoleChartStdDIN
  3
AmgDim|Product Description: AutoCAD Mechanical|Company: Autodesk, Inc.
 90
     1024
 91
        1
280
     0
281
     0
  0
CLASS
  1
ACAMGTITLESTD
  2
AcAmgTitleStd
  3
"AmgTitle|Product Description: AutoCAD Mechanical|Company: Autodesk, Inc."
 90
     1024
 91
        1
280
     0
281
     0
  0
CLASS
  1
DICTIONARYVAR
  2
AcDbDictionaryVar
  3
ObjectDBX Classes
 90
        0
 91
        9
280
     0
281
     0
  0
CLASS
  1
ACAMGFILTERDAT
  2
AcAmgFilterDat
  3
"AcadM|Product Description: AutoCAD Mechanical|Company: Autodesk, Inc."
 90
     1024
 91
        0
280
     0
281
     0
  0
CLASS
  1
ACMDATAENTRYBLOCK
  2
AcmDataEntryBlock
  3
AcmSymBB|Product Description: AutoCAD Mechanical|Company: Autodesk, Inc.
 90
     1024
 91
        0
280
     0
281
     0
  0
CLASS
  1
PLOTSETTINGS
  2
AcDbPlotSettings
  3
ObjectDBX Classes
 90
        0
 91
        0
280
     0
281
     0
  0
CLASS
  1
SORTENTSTABLE
  2
AcDbSortentsTable
  3
ObjectDBX Classes
 90
        0
 91
        2
280
     0
281
     0
  0
CLASS
  1
MATERIAL
  2
AcDbMaterial
  3
ObjectDBX Classes
 90
     1153
 91
        3
280
     0
281
     0
  0
CLASS
  1
VISUALSTYLE
  2
AcDbVisualStyle
  3
ObjectDBX Classes
 90
     4095
 91
        3
280
     0
281
     0
  0
CLASS
  1
SCALE
  2
AcDbScale
  3
ObjectDBX Classes
 90
     1153
 91
       17
280
     0
281
     0
  0
CLASS
  1
MLEADERSTYLE
  2
AcDbMLeaderStyle
  3
ACDB_MLEADERSTYLE_CLASS
 90
     4095
 91
        0
280
     0
281
     0
  0
CLASS
  1
ACMTAPERSTANDARDDIN
  2
AcmTaperStdDIN
  3
"Amdt_StdImp|Product Description: AutoCAD Mechanical|Company: Autodesk, Inc."
 90
     1024
 91
        1
280
     0
281
     0
  0
CLASS
  1
ACMANOOTATIONVIEWSTANDARDDIN
  2
AmdtAnViewStdDIN
  3
"Amdt_StdImp|Product Description: AutoCAD Mechanical|Company: Autodesk, Inc."
 90
     1024
 91
        1
280
     0
281
     0
  0
CLASS
  1
CAMSSTRUCTBTNSTATE
  2
StructBtnState
  3
DesignerAssemblies
 90
     1024
 91
        0
280
     0
281
     0
  0
CLASS
  1
CELLSTYLEMAP
  2
AcDbCellStyleMap
  3
ObjectDBX Classes
 90
     1152
 91
        1
280
     0
281
     0
  0
CLASS
  1
ACDBSECTIONVIEWSTYLE
  2
AcDbSectionViewStyle
  3
ObjectDBX Classes
 90
     1025
 91
        2
280
     0
281
     0
  0
CLASS
  1
ACDBDETAILVIEWSTYLE
  2
AcDbDetailViewStyle
  3
ObjectDBX Classes
 90
     1025
 91
        2
280
     0
281
     0
  0
CLASS
  1
ACMSECTIONSTANDARDCUSTOM
  2
AmdtSectionSymStdCustom
  3
"Amdt_StdImp|Product Description: AutoCAD Mechanical|Company: Autodesk, Inc."
 90
     1024
 91
        1
280
     0
281
     0
  0
CLASS
  1
ACMDETAILTANDARDCUSTOM
  2
AmdtDetailSymStdCustom
  3
"Amdt_StdImp|Product Description: AutoCAD Mechanical|Company: Autodesk, Inc."
 90
     1024
 91
        1
280
     0
281
     0
  0
CLASS
  1
FIELD
  2
AcDbField
  3
ObjectDBX Classes
 90
     1152
 91
        6
280
     0
281
     0
  0
CLASS
  1
FIELDLIST
  2
AcDbFieldList
  3
ObjectDBX Classes
 90
     1152
 91
        1
280
     0
281
     0
  0
ENDSEC
  0
SECTION
  2
TABLES
  0
TABLE
  2
VPORT
  5
2C
330
0
100
AcDbSymbolTable
 70
     1
  0
VPORT
  5
2D
330
2C
100
AcDbSymbolTableRecord
100
AcDbViewportTableRecord
  2
*Active
 70
     0
 10
0.0
 20
0.0
 11
1.0
 21
1.0
 12
146.0768406095493
 22
287.9948294396868
 13
0.0
 23
0.0
 14
10.0
 24
10.0
 15
10.0
 25
10.0
 16
0.0
 26
0.0
 36
1.0
 17
0.0
 27
0.0
 37
0.0
 40
774.1770897192776
 41
2.056924384027187
 42
50.0
 43
0.0
 44
0.0
 50
0.0
 51
0.0
 71
     0
 72
  5000
 73
     1
 74
     0
 75
     0
 76
     0
 77
     0
 78
     0
281
     0
 65
     1
110
0.0
120
0.0
130
0.0
111
1.0
121
0.0
131
0.0
112
0.0
122
1.0
132
0.0
 79
     0
146
0.0
348
2E
 60
     3
 61
     5
292
     1
282
     1
141
0.0
142
0.0
 63
   250
421
  3355443
1001
ACAD_NAV_VCDISPLAY
1070
     3
  0
ENDTAB
  0
TABLE
  2
LTYPE
  5
27
330
0
100
AcDbSymbolTable
 70
    13
  0
LTYPE
  5
28
330
27
100
AcDbSymbolTableRecord
100
AcDbLinetypeTableRecord
  2
BYBLOCK
 70
     0
  3

 72
    65
 73
     0
 40
0.0
  0
LTYPE
  5
29
330
27
100
AcDbSymbolTableRecord
100
AcDbLinetypeTableRecord
  2
BYLAYER
 70
     0
  3

 72
    65
 73
     0
 40
0.0
  0
LTYPE
  5
15
330
27
100
AcDbSymbolTableRecord
100
AcDbLinetypeTableRecord
  2
CONTINUOUS
 70
     0
  3
Solid line
 72
    65
 73
     0
 40
0.0
  0
LTYPE
  5
58
330
27
100
AcDbSymbolTableRecord
100
AcDbLinetypeTableRecord
  2
STRICHPUNKT2
 70
     0
  3
Strichpunkt (.5x) _._._._._._._._._._._._._._._
 72
    65
 73
     4
 40
12.7
 49
6.349999999999999
 74
     0
 49
-3.174999999999999
 74
     0
 49
0.0
 74
     0
 49
-3.174999999999999
 74
     0
  0
LTYPE
  5
758
330
27
100
AcDbSymbolTableRecord
100
AcDbLinetypeTableRecord
  2
AM_ISO02W050
 70
     0
  3
__ __ __ __ __ __ __ __ __ __ __ __ __ __ __
 72
    65
 73
     2
 40
7.5
 49
6.0
 74
     0
 49
-1.5
 74
     0
  0
LTYPE
  5
78A
330
27
100
AcDbSymbolTableRecord
100
AcDbLinetypeTableRecord
  2
AM_DIN_G_W050
 70
     0
  3
____ . ____ . ____ . ____ . ____ . ____ . ____
 72
    65
 73
     4
 40
13.75
 49
9.75
 74
     0
 49
-1.5
 74
     0
 49
1.0
 74
     0
 49
-1.5
 74
     0
  0
LTYPE
  5
76A
330
27
100
AcDbSymbolTableRecord
100
AcDbLinetypeTableRecord
  2
ACDINWELD
 70
     0
  3
_ _ _ _ _
 72
    65
 73
     2
 40
2.0
 49
2.0
 74
     0
 49
-1.0
 74
     0
  0
LTYPE
  5
76D
330
27
100
AcDbSymbolTableRecord
100
AcDbLinetypeTableRecord
  2
ACDINTGB
 70
     0
  3
__ . . __ . .
 72
    65
 73
     6
 40
9.0
 49
4.0
 74
     0
 49
-1.0
 74
     0
 49
1.0
 74
     0
 49
-1.0
 74
     0
 49
1.0
 74
     0
 49
-1.0
 74
     0
  0
LTYPE
  5
76E
330
27
100
AcDbSymbolTableRecord
100
AcDbLinetypeTableRecord
  2
ACDINTGL
 70
     0
  3
_ _ _ _ _
 72
    65
 73
     2
 40
3.0
 49
2.0
 74
     0
 49
-1.0
 74
     0
  0
LTYPE
  5
753
330
27
100
AcDbSymbolTableRecord
100
AcDbLinetypeTableRecord
  2
gen3
 70
     0
  3
-- -- -- -- -- -- -- -- -- -- -- -- -- -- --
 72
    65
 73
     2
 40
6.25
 49
4.75
 74
     0
 49
-1.5
 74
     0
  0
LTYPE
  5
754
330
27
100
AcDbSymbolTableRecord
100
AcDbLinetypeTableRecord
  2
gen7
 70
     0
  3
____ . ____ . ____ . ____ . ____ . ____ . ____
 72
    65
 73
     4
 40
13.75
 49
9.75
 74
     0
 49
-1.5
 74
     0
 49
1.0
 74
     0
 49
-1.5
 74
     0
  0
LTYPE
  5
755
330
27
100
AcDbSymbolTableRecord
100
AcDbLinetypeTableRecord
  2
gen3a
 70
     0
  3
 - - - - -
 72
    65
 73
     2
 40
3.125
 49
2.25
 74
     0
 49
-0.875
 74
     0
  0
LTYPE
  5
756
330
27
100
AcDbSymbolTableRecord
100
AcDbLinetypeTableRecord
  2
gen7a
 70
     0
  3
__ . __ . __
 72
    65
 73
     4
 40
6.875
 49
4.75
 74
     0
 49
-0.875
 74
     0
 49
0.375
 74
     0
 49
-0.875
 74
     0
  0
LTYPE
  5
757
330
27
100
AcDbSymbolTableRecord
100
AcDbLinetypeTableRecord
  2
gen4a
 70
     0
  3
_____ . . _____ . . _____ . . ____ .. ____
 72
    65
 73
     6
 40
16.25
 49
9.75
 74
     0
 49
-1.5
 74
     0
 49
1.0
 74
     0
 49
-1.5
 74
     0
 49
1.0
 74
     0
 49
-1.5
 74
     0
  0
LTYPE
  5
759
330
27
100
AcDbSymbolTableRecord
100
AcDbLinetypeTableRecord
  2
genzigzag
 70
     0
  3
/\/-/\/-/\/-/\/-/\/-/\/
 72
    65
 73
     2
 40
12.0001
 49
0.0001
 74
     4
 75
   135
340
75A
 46
2.0
 50
0.0
 44
0.0
 45
0.0
 49
-12.0
 74
     0
  0
ENDTAB
  0
TABLE
  2
LAYER
  5
1E
102
{ACAD_XDICTIONARY
360
1F
102
}
330
0
100
AcDbSymbolTable
 70
     8
  0
LAYER
  5
6
102
{ACAD_XDICTIONARY
360
7
102
}
330
1E
100
AcDbSymbolTableRecord
100
AcDbLayerTableRecord
  2
0
 70
     0
 62
     7
  6
CONTINUOUS
370
    -3
390
9
347
C
  0
LAYER
  5
9F
102
{ACAD_XDICTIONARY
360
A0
102
}
330
1E
100
AcDbSymbolTableRecord
100
AcDbLayerTableRecord
  2
UMRISS03
 70
     0
 62
     3
  6
CONTINUOUS
370
    -3
390
9
347
C
  0
LAYER
  5
8B
102
{ACAD_XDICTIONARY
360
8C
102
}
330
1E
100
AcDbSymbolTableRecord
100
AcDbLayerTableRecord
  2
UMRISS05
 70
     0
 62
     4
  6
CONTINUOUS
370
    -3
390
9
347
C
  0
LAYER
  5
70
102
{ACAD_XDICTIONARY
360
71
102
}
330
1E
100
AcDbSymbolTableRecord
100
AcDbLayerTableRecord
  2
TEXT03
 70
     0
 62
     3
  6
CONTINUOUS
370
    -3
390
9
347
C
  0
LAYER
  5
8F
102
{ACAD_XDICTIONARY
360
90
102
}
330
1E
100
AcDbSymbolTableRecord
100
AcDbLayerTableRecord
  2
BEMASSUNG
 70
     0
 62
     2
  6
CONTINUOUS
370
    -3
390
9
347
C
  0
LAYER
  5
55
102
{ACAD_XDICTIONARY
360
56
102
}
330
1E
100
AcDbSymbolTableRecord
100
AcDbLayerTableRecord
  2
ACHSEN
 70
     0
 62
     1
  6
STRICHPUNKT2
370
    -3
390
9
347
C
  0
LAYER
  5
84
102
{ACAD_XDICTIONARY
360
85
102
}
330
1E
100
AcDbSymbolTableRecord
100
AcDbLayerTableRecord
  2
LAYER3
 70
     0
 62
     4
  6
CONTINUOUS
370
    -3
390
9
347
C
  0
LAYER
  5
7F
330
1E
100
AcDbSymbolTableRecord
100
AcDbLayerTableRecord
  2
DEFPOINTS
 70
     0
 62
     7
  6
CONTINUOUS
290
     0
370
    -3
390
9
347
C
  0
ENDTAB
  0
TABLE
  2
STYLE
  5
24
330
0
100
AcDbSymbolTable
 70
     6
  0
STYLE
  5
25
330
24
100
AcDbSymbolTableRecord
100
AcDbTextStyleTableRecord
  2
STANDARD
 70
     0
 40
0.0
 41
1.0
 50
0.0
 71
     0
 42
10.0
  3
txt
  4

  0
STYLE
  5
34
330
24
100
AcDbSymbolTableRecord
100
AcDbTextStyleTableRecord
  2
ARIAL-STANDARD
 70
     0
 40
0.0
 41
1.0
 50
0.0
 71
     0
 42
10.0
  3
arial.ttf
  4

1001
ACAD
1000
Arial
1071
       34
  0
STYLE
  5
39
330
24
100
AcDbSymbolTableRecord
100
AcDbTextStyleTableRecord
  2
WMF
 70
     0
 40
6.5
 41
1.0
 50
0.0
 71
     0
 42
6.5
  3
arial.ttf
  4

1001
ACAD
1000
Arial
1071
       34
  0
STYLE
  5
75A
330
24
100
AcDbSymbolTableRecord
100
AcDbTextStyleTableRecord
  2

 70
     1
 40
0.0
 41
1.0
 50
0.0
 71
     0
 42
3.5
  3
genltshp.shx
  4

  0
STYLE
  5
764
330
24
100
AcDbSymbolTableRecord
100
AcDbTextStyleTableRecord
  2
ACDINTS
 70
     0
 40
1.0
 41
1.0
 50
0.0
 71
     0
 42
3.5
  3
isocp.shx
  4

  0
STYLE
  5
768
330
24
100
AcDbSymbolTableRecord
100
AcDbTextStyleTableRecord
  2
ACDINGDT
 70
     0
 40
0.0
 41
1.0
 50
0.0
 71
     0
 42
3.5
  3
AMGDT
  4

  0
ENDTAB
  0
TABLE
  2
VIEW
  5
2A
330
0
100
AcDbSymbolTable
 70
     0
  0
ENDTAB
  0
TABLE
  2
UCS
  5
2B
330
0
100
AcDbSymbolTable
 70
     0
  0
ENDTAB
  0
TABLE
  2
APPID
  5
31
330
0
100
AcDbSymbolTable
 70
    15
  0
APPID
  5
23
330
31
100
AcDbSymbolTableRecord
100
AcDbRegAppTableRecord
  2
ACAD
 70
     0
  0
APPID
  5
88
330
31
100
AcDbSymbolTableRecord
100
AcDbRegAppTableRecord
  2
GENIUS_GENODEF_13
 70
     0
  0
APPID
  5
3A
330
31
100
AcDbSymbolTableRecord
100
AcDbRegAppTableRecord
  2
ACAD_DSTYLE_DIMJOGGED_JOGANGLE_SYMBOL
 70
     0
  0
APPID
  5
19
330
31
100
AcDbSymbolTableRecord
100
AcDbRegAppTableRecord
  2
ACAD_PSEXT
 70
     0
  0
APPID
  5
15E
330
31
100
AcDbSymbolTableRecord
100
AcDbRegAppTableRecord
  2
ACAD_DSTYLE_DIMINSPECT
 70
     0
  0
APPID
  5
36
330
31
100
AcDbSymbolTableRecord
100
AcDbRegAppTableRecord
  2
ACAD_DSTYLE_DIMJAG
 70
     0
  0
APPID
  5
35
330
31
100
AcDbSymbolTableRecord
100
AcDbRegAppTableRecord
  2
ACAD_DSTYLE_DIMBREAK
 70
     0
  0
APPID
  5
37
330
31
100
AcDbSymbolTableRecord
100
AcDbRegAppTableRecord
  2
ACAD_DSTYLE_DIMTALN
 70
     0
  0
APPID
  5
87
330
31
100
AcDbSymbolTableRecord
100
AcDbRegAppTableRecord
  2
GENIUS_GENOBJ-N-FIL_13
 70
     0
  0
APPID
  5
30
330
31
100
AcDbSymbolTableRecord
100
AcDbRegAppTableRecord
  2
ACAD_NAV_VCDISPLAY
 70
     0
  0
APPID
  5
79D
330
31
100
AcDbSymbolTableRecord
100
AcDbRegAppTableRecord
  2
AD_DRAW
 70
     0
  0
APPID
  5
79E
330
31
100
AcDbSymbolTableRecord
100
AcDbRegAppTableRecord
  2
MCAD_NO_VIS
 70
     0
  0
APPID
  5
79F
330
31
100
AcDbSymbolTableRecord
100
AcDbRegAppTableRecord
  2
ACADM_DIM_EDIT
 70
     0
  0
APPID
  5
7A0
330
31
100
AcDbSymbolTableRecord
100
AcDbRegAppTableRecord
  2
AMDT_DM_ADJ
 70
     0
  0
APPID
  5
7C2
330
31
100
AcDbSymbolTableRecord
100
AcDbRegAppTableRecord
  2
ACATTRIBSERVICES
 70
     0
  0
ENDTAB
  0
TABLE
  2
DIMSTYLE
  5
32
330
0
100
AcDbSymbolTable
 70
     4
100
AcDbDimStyleTable
 71
     4
340
33
340
38
340
3B
340
3C
  0
DIMSTYLE
105
3C
330
32
100
AcDbSymbolTableRecord
100
AcDbDimStyleTableRecord
  2
NORMAL
 70
     0
 41
3.5
 42
1.0
 43
0.0
 44
1.0
 73
     0
 74
     0
 77
     1
 78
     8
140
3.5
141
1.5
147
1.0
172
     1
174
     1
176
   256
177
   256
178
     3
271
     2
272
     2
279
     2
284
     8
340
34
  0
DIMSTYLE
105
3B
330
32
100
AcDbSymbolTableRecord
100
AcDbDimStyleTableRecord
  2
STANDARD
 70
     0
340
25
  0
DIMSTYLE
105
38
330
32
100
AcDbSymbolTableRecord
100
AcDbDimStyleTableRecord
  2
WMF
 70
     0
 40
1.9
 41
2.799999999999999
 42
1.0
 43
0.0
 44
1.0
 50
90.0
 73
     0
 74
     0
 77
     1
 78
     8
140
3.5
141
1.5
146
0.5
147
1.0
172
     1
176
     7
177
     7
178
     7
271
     2
272
     2
284
     8
285
     8
286
     8
340
39
1001
ACAD_DSTYLE_DIMJOGGED_JOGANGLE_SYMBOL
1070
   384
1040
1.570796326794896
  0
DIMSTYLE
105
33
102
{ACAD_REACTORS
330
1AE
330
1A1
330
194
330
187
330
179
330
16C
330
15F
330
151
330
144
330
136
330
129
330
11C
330
10E
330
F8
330
EB
330
DE
330
D1
330
C4
330
B5
330
A8
330
8E
330
73
102
}
330
32
100
AcDbSymbolTableRecord
100
AcDbDimStyleTableRecord
  2
Katalog 09
 70
     0
 41
4.0
 42
0.0
 43
8.0
 44
1.0
 73
     0
 74
     0
 77
     1
 78
     8
140
4.349999999999999
141
1.5
143
25.39999999999999
146
0.4285714285714286
147
1.0
172
     1
174
     1
176
     2
177
     2
178
     3
271
     2
272
     2
279
     2
284
     8
285
     8
286
     8
340
34
1001
ACAD_DSTYLE_DIMBREAK
1070
   391
1040
3.75
1001
ACAD_DSTYLE_DIMJAG
1070
   388
1040
1.5
1001
ACAD_DSTYLE_DIMTALN
1070
   392
1070
     0
  0
ENDTAB
  0
TABLE
  2
BLOCK_RECORD
  5
1
330
0
100
AcDbSymbolTable
 70
    24
  0
BLOCK_RECORD
  5
2
102
{ACAD_XDICTIONARY
360
3
102
}
330
1
100
AcDbSymbolTableRecord
100
AcDbBlockTableRecord
  2
*MODEL_SPACE
340
17
 70
     0
280
     1
281
     0
  0
BLOCK_RECORD
  5
1A
330
1
100
AcDbSymbolTableRecord
100
AcDbBlockTableRecord
  2
*PAPER_SPACE
340
1D
 70
     0
280
     1
281
     0
  0
BLOCK_RECORD
  5
1AF
330
1
100
AcDbSymbolTableRecord
100
AcDbBlockTableRecord
  2
*D0
340
0
 70
     0
280
     1
281
     0
  0
BLOCK_RECORD
  5
1A2
330
1
100
AcDbSymbolTableRecord
100
AcDbBlockTableRecord
  2
*D1
340
0
 70
     0
280
     1
281
     0
  0
BLOCK_RECORD
  5
195
330
1
100
AcDbSymbolTableRecord
100
AcDbBlockTableRecord
  2
*D2
340
0
 70
     0
280
     1
281
     0
  0
BLOCK_RECORD
  5
188
330
1
100
AcDbSymbolTableRecord
100
AcDbBlockTableRecord
  2
*D3
340
0
 70
     0
280
     1
281
     0
  0
BLOCK_RECORD
  5
17A
330
1
100
AcDbSymbolTableRecord
100
AcDbBlockTableRecord
  2
*D4
340
0
 70
     0
280
     1
281
     0
  0
BLOCK_RECORD
  5
16D
330
1
100
AcDbSymbolTableRecord
100
AcDbBlockTableRecord
  2
*D5
340
0
 70
     0
280
     1
281
     0
  0
BLOCK_RECORD
  5
160
330
1
100
AcDbSymbolTableRecord
100
AcDbBlockTableRecord
  2
*D6
340
0
 70
     0
280
     1
281
     0
  0
BLOCK_RECORD
  5
152
330
1
100
AcDbSymbolTableRecord
100
AcDbBlockTableRecord
  2
*D7
340
0
 70
     0
280
     1
281
     0
  0
BLOCK_RECORD
  5
145
330
1
100
AcDbSymbolTableRecord
100
AcDbBlockTableRecord
  2
*D8
340
0
 70
     0
280
     1
281
     0
  0
BLOCK_RECORD
  5
137
330
1
100
AcDbSymbolTableRecord
100
AcDbBlockTableRecord
  2
*D9
340
0
 70
     0
280
     1
281
     0
  0
BLOCK_RECORD
  5
12A
330
1
100
AcDbSymbolTableRecord
100
AcDbBlockTableRecord
  2
*D10
340
0
 70
     0
280
     1
281
     0
  0
BLOCK_RECORD
  5
11D
330
1
100
AcDbSymbolTableRecord
100
AcDbBlockTableRecord
  2
*D11
340
0
 70
     0
280
     1
281
     0
  0
BLOCK_RECORD
  5
10F
330
1
100
AcDbSymbolTableRecord
100
AcDbBlockTableRecord
  2
*D12
340
0
 70
     0
280
     1
281
     0
  0
BLOCK_RECORD
  5
F9
330
1
100
AcDbSymbolTableRecord
100
AcDbBlockTableRecord
  2
*D13
340
0
 70
     0
280
     1
281
     0
  0
BLOCK_RECORD
  5
EC
330
1
100
AcDbSymbolTableRecord
100
AcDbBlockTableRecord
  2
*D14
340
0
 70
     0
280
     1
281
     0
  0
BLOCK_RECORD
  5
DF
330
1
100
AcDbSymbolTableRecord
100
AcDbBlockTableRecord
  2
*D15
340
0
 70
     0
280
     1
281
     0
  0
BLOCK_RECORD
  5
D2
330
1
100
AcDbSymbolTableRecord
100
AcDbBlockTableRecord
  2
*D16
340
0
 70
     0
280
     1
281
     0
  0
BLOCK_RECORD
  5
C5
330
1
100
AcDbSymbolTableRecord
100
AcDbBlockTableRecord
  2
*D17
340
0
 70
     0
280
     1
281
     0
  0
BLOCK_RECORD
  5
B6
330
1
100
AcDbSymbolTableRecord
100
AcDbBlockTableRecord
  2
*D18
340
0
 70
     0
280
     1
281
     0
  0
BLOCK_RECORD
  5
A9
330
1
100
AcDbSymbolTableRecord
100
AcDbBlockTableRecord
  2
*D19
340
0
 70
     0
280
     1
281
     0
  0
BLOCK_RECORD
  5
92
330
1
100
AcDbSymbolTableRecord
100
AcDbBlockTableRecord
  2
*D20
340
0
 70
     0
280
     1
281
     0
  0
BLOCK_RECORD
  5
74
330
1
100
AcDbSymbolTableRecord
100
AcDbBlockTableRecord
  2
*D21
340
0
 70
     0
280
     1
281
     0
  0
BLOCK_RECORD
  5
778
330
1
100
AcDbSymbolTableRecord
100
AcDbBlockTableRecord
  2
_ACMFILLED15
340
0
 70
     0
280
     1
281
     0
  0
BLOCK_RECORD
  5
786
330
1
100
AcDbSymbolTableRecord
100
AcDbBlockTableRecord
  2
_ACMFILLED30
340
0
 70
     0
280
     1
281
     0
  0
ENDTAB
  0
ENDSEC
  0
SECTION
  2
BLOCKS
  0
BLOCK
  5
5
330
2
100
AcDbEntity
  8
0
100
AcDbBlockBegin
  2
*MODEL_SPACE
 70
     0
 10
0.0
 20
0.0
 30
0.0
  3
*MODEL_SPACE
  1

  0
ENDBLK
  5
16
330
2
100
AcDbEntity
  8
0
100
AcDbBlockEnd
  0
BLOCK
  5
1B
330
1A
100
AcDbEntity
 67
     1
  8
0
100
AcDbBlockBegin
  2
*PAPER_SPACE
 70
     0
 10
0.0
 20
0.0
 30
0.0
  3
*PAPER_SPACE
  1

  0
ENDBLK
  5
1C
330
1A
100
AcDbEntity
 67
     1
  8
0
100
AcDbBlockEnd
  0
BLOCK
  5
1B0
330
1AF
100
AcDbEntity
  8
0
100
AcDbBlockBegin
  2
*D0
 70
     1
 10
0.0
 20
0.0
 30
0.0
  3
*D0
  1

  0
LINE
  5
1B1
330
1AF
100
AcDbEntity
  8
BEMASSUNG
  6
Continuous
 62
     2
440
 16777216
370
    -2
100
AcDbLine
 10
-161.1682292189576
 20
207.6176662535118
 30
0.0
 11
-208.379839757897
 21
207.6176662535118
 31
0.0
  0
LINE
  5
1B2
330
1AF
100
AcDbEntity
  8
BEMASSUNG
  6
Continuous
 62
     2
440
 16777216
370
    -2
100
AcDbLine
 10
-180.1682292189575
 20
288.6176662535117
 30
0.0
 11
-208.379839757897
 21
288.6176662535117
 31
0.0
  0
LINE
  5
1B3
330
1AF
100
AcDbEntity
  8
BEMASSUNG
  6
Continuous
 62
     2
440
 16777216
370
    -2
100
AcDbLine
 10
-207.3798397578971
 20
211.6176662535118
 30
0.0
 11
-207.3798397578971
 21
284.6176662535117
 31
0.0
  0
SOLID
  5
1B4
330
1AF
100
AcDbEntity
  8
BEMASSUNG
  6
Continuous
 62
     2
440
 16777216
100
AcDbTrace
 10
-208.0465064245637
 20
211.6176662535118
 30
0.0
 11
-206.7131730912304
 21
211.6176662535118
 31
0.0
 12
-207.3798397578971
 22
207.6176662535118
 32
0.0
 13
-207.3798397578971
 23
207.6176662535118
 33
0.0
  0
SOLID
  5
1B5
330
1AF
100
AcDbEntity
  8
BEMASSUNG
  6
Continuous
 62
     2
440
 16777216
100
AcDbTrace
 10
-208.0465064245637
 20
284.6176662535117
 30
0.0
 11
-206.7131730912304
 21
284.6176662535117
 31
0.0
 12
-207.3798397578971
 22
288.6176662535117
 32
0.0
 13
-207.3798397578971
 23
288.6176662535117
 33
0.0
  0
MTEXT
  5
1B6
330
1AF
100
AcDbEntity
  8
BEMASSUNG
  6
Continuous
 62
     3
440
 16777216
100
AcDbMText
 10
-210.6008322544865
 20
248.1176662535117
 30
0.0
 40
4.349999999999999
 41
0.0
 46
0.0
 71
     5
 72
     1
  1
\A1;81
  7
ARIAL-STANDARD
 11
0.0000000000000001
 21
1.0
 31
0.0
 73
     1
 44
1.0
  0
POINT
  5
1B7
330
1AF
100
AcDbEntity
  8
DEFPOINTS
  6
Continuous
 62
     0
440
 16777216
100
AcDbPoint
 10
-161.1682292189576
 20
207.6176662535118
 30
0.0
  0
POINT
  5
1B8
330
1AF
100
AcDbEntity
  8
DEFPOINTS
  6
Continuous
 62
     0
440
 16777216
100
AcDbPoint
 10
-180.1682292189575
 20
288.6176662535117
 30
0.0
  0
POINT
  5
1B9
330
1AF
100
AcDbEntity
  8
DEFPOINTS
  6
Continuous
 62
     0
440
 16777216
100
AcDbPoint
 10
-207.3798397578971
 20
288.6176662535117
 30
0.0
  0
ENDBLK
  5
1BA
330
1AF
100
AcDbEntity
  8
0
100
AcDbBlockEnd
  0
BLOCK
  5
1A3
330
1A2
100
AcDbEntity
  8
0
100
AcDbBlockBegin
  2
*D1
 70
     1
 10
0.0
 20
0.0
 30
0.0
  3
*D1
  1

  0
LINE
  5
1A4
330
1A2
100
AcDbEntity
  8
BEMASSUNG
  6
Continuous
 62
     2
440
 16777216
370
    -2
100
AcDbLine
 10
-161.1682292189576
 20
207.6176662535118
 30
0.0
 11
-193.2882292189575
 21
207.6176662535118
 31
0.0
  0
LINE
  5
1A5
330
1A2
100
AcDbEntity
  8
BEMASSUNG
  6
Continuous
 62
     2
440
 16777216
370
    -2
100
AcDbLine
 10
-158.1682292189571
 20
242.6176662535118
 30
0.0
 11
-193.2882292189575
 21
242.6176662535119
 31
0.0
  0
LINE
  5
1A6
330
1A2
100
AcDbEntity
  8
BEMASSUNG
  6
Continuous
 62
     2
440
 16777216
370
    -2
100
AcDbLine
 10
-192.2882292189575
 20
211.6176662535118
 30
0.0
 11
-192.2882292189575
 21
238.6176662535119
 31
0.0
  0
SOLID
  5
1A7
330
1A2
100
AcDbEntity
  8
BEMASSUNG
  6
Continuous
 62
     2
440
 16777216
100
AcDbTrace
 10
-192.9548958856241
 20
211.6176662535118
 30
0.0
 11
-191.6215625522908
 21
211.6176662535118
 31
0.0
 12
-192.2882292189575
 22
207.6176662535118
 32
0.0
 13
-192.2882292189575
 23
207.6176662535118
 33
0.0
  0
SOLID
  5
1A8
330
1A2
100
AcDbEntity
  8
BEMASSUNG
  6
Continuous
 62
     2
440
 16777216
100
AcDbTrace
 10
-192.9548958856241
 20
238.6176662535119
 30
0.0
 11
-191.6215625522908
 21
238.6176662535118
 31
0.0
 12
-192.2882292189575
 22
242.6176662535119
 32
0.0
 13
-192.2882292189575
 23
242.6176662535119
 33
0.0
  0
MTEXT
  5
1A9
330
1A2
100
AcDbEntity
  8
BEMASSUNG
  6
Continuous
 62
     3
440
 16777216
100
AcDbMText
 10
-195.5107053444691
 20
225.1176662535118
 30
0.0
 40
4.349999999999999
 41
0.0
 46
0.0
 71
     5
 72
     1
  1
\A1;35
  7
ARIAL-STANDARD
 11
0.0000000000000001
 21
1.0
 31
0.0
 73
     1
 44
1.0
  0
POINT
  5
1AA
330
1A2
100
AcDbEntity
  8
DEFPOINTS
  6
Continuous
 62
     0
440
 16777216
100
AcDbPoint
 10
-161.1682292189576
 20
207.6176662535118
 30
0.0
  0
POINT
  5
1AB
330
1A2
100
AcDbEntity
  8
DEFPOINTS
  6
Continuous
 62
     0
440
 16777216
100
AcDbPoint
 10
-158.1682292189571
 20
242.6176662535118
 30
0.0
  0
POINT
  5
1AC
330
1A2
100
AcDbEntity
  8
DEFPOINTS
  6
Continuous
 62
     0
440
 16777216
100
AcDbPoint
 10
-192.2882292189575
 20
242.6176662535119
 30
0.0
  0
ENDBLK
  5
1AD
330
1A2
100
AcDbEntity
  8
0
100
AcDbBlockEnd
  0
BLOCK
  5
196
330
195
100
AcDbEntity
  8
0
100
AcDbBlockBegin
  2
*D2
 70
     1
 10
0.0
 20
0.0
 30
0.0
  3
*D2
  1

  0
LINE
  5
197
330
195
100
AcDbEntity
  8
BEMASSUNG
  6
Continuous
 62
     2
440
 16777216
370
    -2
100
AcDbLine
 10
-131.1682292189576
 20
233.1176662535119
 30
0.0
 11
-131.1682292189576
 21
194.5743014081927
 31
0.0
  0
LINE
  5
198
330
195
100
AcDbEntity
  8
BEMASSUNG
  6
Continuous
 62
     2
440
 16777216
370
    -2
100
AcDbLine
 10
-115.6682292189576
 20
242.6176662535118
 30
0.0
 11
-115.6682292189576
 21
194.5743014081927
 31
0.0
  0
LINE
  5
199
330
195
100
AcDbEntity
  8
BEMASSUNG
  6
Continuous
 62
     2
440
 16777216
370
    -2
100
AcDbLine
 10
-127.1682292189576
 20
195.5743014081927
 30
0.0
 11
-119.6682292189576
 21
195.5743014081927
 31
0.0
  0
SOLID
  5
19A
330
195
100
AcDbEntity
  8
BEMASSUNG
  6
Continuous
 62
     2
440
 16777216
100
AcDbTrace
 10
-127.1682292189576
 20
196.2409680748594
 30
0.0
 11
-127.1682292189576
 21
194.9076347415261
 31
0.0
 12
-131.1682292189576
 22
195.5743014081927
 32
0.0
 13
-131.1682292189576
 23
195.5743014081927
 33
0.0
  0
SOLID
  5
19B
330
195
100
AcDbEntity
  8
BEMASSUNG
  6
Continuous
 62
     2
440
 16777216
100
AcDbTrace
 10
-119.6682292189576
 20
196.2409680748594
 30
0.0
 11
-119.6682292189576
 21
194.9076347415261
 31
0.0
 12
-115.6682292189576
 22
195.5743014081927
 32
0.0
 13
-115.6682292189576
 23
195.5743014081927
 33
0.0
  0
MTEXT
  5
19C
330
195
100
AcDbEntity
  8
BEMASSUNG
  6
Continuous
 62
     3
440
 16777216
100
AcDbMText
 10
-123.4182292189576
 20
198.7952939047821
 30
0.0
 40
4.349999999999999
 41
0.0
 46
0.0
 71
     5
 72
     1
  1
\A1;15.5
  7
ARIAL-STANDARD
 73
     1
 44
1.0
  0
POINT
  5
19D
330
195
100
AcDbEntity
  8
DEFPOINTS
  6
Continuous
 62
     0
440
 16777216
100
AcDbPoint
 10
-131.1682292189576
 20
233.1176662535119
 30
0.0
  0
POINT
  5
19E
330
195
100
AcDbEntity
  8
DEFPOINTS
  6
Continuous
 62
     0
440
 16777216
100
AcDbPoint
 10
-115.6682292189576
 20
242.6176662535118
 30
0.0
  0
POINT
  5
19F
330
195
100
AcDbEntity
  8
DEFPOINTS
  6
Continuous
 62
     0
440
 16777216
100
AcDbPoint
 10
-115.6682292189576
 20
195.5743014081927
 30
0.0
  0
ENDBLK
  5
1A0
330
195
100
AcDbEntity
  8
0
100
AcDbBlockEnd
  0
BLOCK
  5
189
330
188
100
AcDbEntity
  8
0
100
AcDbBlockBegin
  2
*D3
 70
     1
 10
0.0
 20
0.0
 30
0.0
  3
*D3
  1

  0
LINE
  5
18A
330
188
100
AcDbEntity
  8
BEMASSUNG
  6
Continuous
 62
     2
440
 16777216
370
    -2
100
AcDbLine
 10
-161.1682292189576
 20
207.6176662535118
 30
0.0
 11
-161.1682292189576
 21
194.5743014081927
 31
0.0
  0
LINE
  5
18B
330
188
100
AcDbEntity
  8
BEMASSUNG
  6
Continuous
 62
     2
440
 16777216
370
    -2
100
AcDbLine
 10
-131.1682292189576
 20
240.8036100165502
 30
0.0
 11
-131.1682292189576
 21
194.5743014081927
 31
0.0
  0
LINE
  5
18C
330
188
100
AcDbEntity
  8
BEMASSUNG
  6
Continuous
 62
     2
440
 16777216
370
    -2
100
AcDbLine
 10
-157.1682292189576
 20
195.5743014081927
 30
0.0
 11
-135.1682292189576
 21
195.5743014081927
 31
0.0
  0
SOLID
  5
18D
330
188
100
AcDbEntity
  8
BEMASSUNG
  6
Continuous
 62
     2
440
 16777216
100
AcDbTrace
 10
-157.1682292189576
 20
196.2409680748594
 30
0.0
 11
-157.1682292189576
 21
194.9076347415261
 31
0.0
 12
-161.1682292189576
 22
195.5743014081927
 32
0.0
 13
-161.1682292189576
 23
195.5743014081927
 33
0.0
  0
SOLID
  5
18E
330
188
100
AcDbEntity
  8
BEMASSUNG
  6
Continuous
 62
     2
440
 16777216
100
AcDbTrace
 10
-135.1682292189576
 20
196.2409680748594
 30
0.0
 11
-135.1682292189576
 21
194.9076347415261
 31
0.0
 12
-131.1682292189576
 22
195.5743014081927
 32
0.0
 13
-131.1682292189576
 23
195.5743014081927
 33
0.0
  0
MTEXT
  5
18F
330
188
100
AcDbEntity
  8
BEMASSUNG
  6
Continuous
 62
     3
440
 16777216
100
AcDbMText
 10
-146.1682292189576
 20
198.7493014081927
 30
0.0
 40
4.349999999999999
 41
0.0
 46
0.0
 71
     5
 72
     1
  1
\A1;DM
  7
ARIAL-STANDARD
 73
     1
 44
1.0
  0
POINT
  5
190
330
188
100
AcDbEntity
  8
DEFPOINTS
  6
Continuous
 62
     0
440
 16777216
100
AcDbPoint
 10
-161.1682292189576
 20
207.6176662535118
 30
0.0
  0
POINT
  5
191
330
188
100
AcDbEntity
  8
DEFPOINTS
  6
Continuous
 62
     0
440
 16777216
100
AcDbPoint
 10
-131.1682292189576
 20
240.8036100165502
 30
0.0
  0
POINT
  5
192
330
188
100
AcDbEntity
  8
DEFPOINTS
  6
Continuous
 62
     0
440
 16777216
100
AcDbPoint
 10
-131.1682292189576
 20
195.5743014081927
 30
0.0
  0
ENDBLK
  5
193
330
188
100
AcDbEntity
  8
0
100
AcDbBlockEnd
  0
BLOCK
  5
17B
330
17A
100
AcDbEntity
  8
0
100
AcDbBlockBegin
  2
*D4
 70
     1
 10
0.0
 20
0.0
 30
0.0
  3
*D4
  1

  0
LINE
  5
17C
330
17A
100
AcDbEntity
  8
BEMASSUNG
  6
Continuous
 62
     2
440
 16777216
370
    -2
100
AcDbLine
 10
-115.6682292189576
 20
242.6176662535118
 30
0.0
 11
-89.02906689007414
 21
242.6176662535118
 31
0.0
  0
LINE
  5
17D
330
17A
100
AcDbEntity
  8
BEMASSUNG
  6
Continuous
 62
     2
440
 16777216
370
    -2
100
AcDbLine
 10
-117.1682292189576
 20
270.1176662535118
 30
0.0
 11
-89.02906689007414
 21
270.1176662535118
 31
0.0
  0
LINE
  5
17E
330
17A
100
AcDbEntity
  8
BEMASSUNG
  6
Continuous
 62
     2
440
 16777216
370
    -2
100
AcDbLine
 10
-90.02906689007415
 20
246.6176662535118
 30
0.0
 11
-90.02906689007415
 21
266.1176662535118
 31
0.0
  0
SOLID
  5
17F
330
17A
100
AcDbEntity
  8
BEMASSUNG
  6
Continuous
 62
     2
440
 16777216
100
AcDbTrace
 10
-90.69573355674082
 20
246.6176662535118
 30
0.0
 11
-89.36240022340747
 21
246.6176662535118
 31
0.0
 12
-90.02906689007415
 22
242.6176662535118
 32
0.0
 13
-90.02906689007415
 23
242.6176662535118
 33
0.0
  0
SOLID
  5
180
330
17A
100
AcDbEntity
  8
BEMASSUNG
  6
Continuous
 62
     2
440
 16777216
100
AcDbTrace
 10
-90.69573355674082
 20
266.1176662535118
 30
0.0
 11
-89.36240022340747
 21
266.1176662535118
 31
0.0
 12
-90.02906689007415
 22
270.1176662535118
 32
0.0
 13
-90.02906689007415
 23
270.1176662535118
 33
0.0
  0
MTEXT
  5
181
330
17A
100
AcDbEntity
  8
BEMASSUNG
  6
Continuous
 62
     3
440
 16777216
100
AcDbMText
 10
-93.25005938666356
 20
256.3676662535118
 30
0.0
 40
4.349999999999999
 41
0.0
 46
0.0
 71
     5
 72
     1
  1
\A1;PZ 27.5 
  7
ARIAL-STANDARD
 11
0.0000000000000001
 21
1.0
 31
0.0
 73
     1
 44
1.0
  0
POINT
  5
182
330
17A
100
AcDbEntity
  8
DEFPOINTS
  6
Continuous
 62
     0
440
 16777216
100
AcDbPoint
 10
-115.6682292189576
 20
242.6176662535118
 30
0.0
  0
POINT
  5
183
330
17A
100
AcDbEntity
  8
DEFPOINTS
  6
Continuous
 62
     0
440
 16777216
100
AcDbPoint
 10
-117.1682292189576
 20
270.1176662535118
 30
0.0
  0
POINT
  5
184
330
17A
100
AcDbEntity
  8
DEFPOINTS
  6
Continuous
 62
     0
440
 16777216
100
AcDbPoint
 10
-90.02906689007415
 20
270.1176662535118
 30
0.0
  0
ENDBLK
  5
185
330
17A
100
AcDbEntity
  8
0
100
AcDbBlockEnd
  0
BLOCK
  5
16E
330
16D
100
AcDbEntity
  8
0
100
AcDbBlockBegin
  2
*D5
 70
     1
 10
0.0
 20
0.0
 30
0.0
  3
*D5
  1

  0
LINE
  5
16F
330
16D
100
AcDbEntity
  8
BEMASSUNG
  6
Continuous
 62
     2
440
 16777216
370
    -2
100
AcDbLine
 10
-115.6682292189576
 20
242.6176662535118
 30
0.0
 11
-101.8189450655434
 21
242.6176662535118
 31
0.0
  0
LINE
  5
170
330
16D
100
AcDbEntity
  8
BEMASSUNG
  6
Continuous
 62
     2
440
 16777216
370
    -2
100
AcDbLine
 10
-117.1682292189576
 20
268.1176662535118
 30
0.0
 11
-101.8189450655434
 21
268.1176662535118
 31
0.0
  0
LINE
  5
171
330
16D
100
AcDbEntity
  8
BEMASSUNG
  6
Continuous
 62
     2
440
 16777216
370
    -2
100
AcDbLine
 10
-102.8189450655434
 20
246.6176662535118
 30
0.0
 11
-102.8189450655434
 21
264.1176662535118
 31
0.0
  0
SOLID
  5
172
330
16D
100
AcDbEntity
  8
BEMASSUNG
  6
Continuous
 62
     2
440
 16777216
100
AcDbTrace
 10
-103.4856117322101
 20
246.6176662535118
 30
0.0
 11
-102.1522783988768
 21
246.6176662535118
 31
0.0
 12
-102.8189450655434
 22
242.6176662535118
 32
0.0
 13
-102.8189450655434
 23
242.6176662535118
 33
0.0
  0
SOLID
  5
173
330
16D
100
AcDbEntity
  8
BEMASSUNG
  6
Continuous
 62
     2
440
 16777216
100
AcDbTrace
 10
-103.4856117322101
 20
264.1176662535118
 30
0.0
 11
-102.1522783988768
 21
264.1176662535118
 31
0.0
 12
-102.8189450655434
 22
268.1176662535118
 32
0.0
 13
-102.8189450655434
 23
268.1176662535118
 33
0.0
  0
MTEXT
  5
174
330
16D
100
AcDbEntity
  8
BEMASSUNG
  6
Continuous
 62
     3
440
 16777216
100
AcDbMText
 10
-106.0399375621328
 20
255.3676662535118
 30
0.0
 40
4.349999999999999
 41
0.0
 46
0.0
 71
     5
 72
     1
  1
\A1;RZ 25.5 
  7
ARIAL-STANDARD
 11
0.0000000000000001
 21
1.0
 31
0.0
 73
     1
 44
1.0
  0
POINT
  5
175
330
16D
100
AcDbEntity
  8
DEFPOINTS
  6
Continuous
 62
     0
440
 16777216
100
AcDbPoint
 10
-115.6682292189576
 20
242.6176662535118
 30
0.0
  0
POINT
  5
176
330
16D
100
AcDbEntity
  8
DEFPOINTS
  6
Continuous
 62
     0
440
 16777216
100
AcDbPoint
 10
-117.1682292189576
 20
268.1176662535118
 30
0.0
  0
POINT
  5
177
330
16D
100
AcDbEntity
  8
DEFPOINTS
  6
Continuous
 62
     0
440
 16777216
100
AcDbPoint
 10
-102.8189450655434
 20
268.1176662535118
 30
0.0
  0
ENDBLK
  5
178
330
16D
100
AcDbEntity
  8
0
100
AcDbBlockEnd
  0
BLOCK
  5
161
330
160
100
AcDbEntity
  8
0
100
AcDbBlockBegin
  2
*D6
 70
     1
 10
0.0
 20
0.0
 30
0.0
  3
*D6
  1

  0
LINE
  5
162
330
160
100
AcDbEntity
  8
BEMASSUNG
  6
Continuous
 62
     2
440
 16777216
370
    -2
100
AcDbLine
 10
-115.6682292189576
 20
242.6176662535118
 30
0.0
 11
-78.94141985403585
 21
242.6176662535118
 31
0.0
  0
LINE
  5
163
330
160
100
AcDbEntity
  8
BEMASSUNG
  6
Continuous
 62
     2
440
 16777216
370
    -2
100
AcDbLine
 10
-137.6682292189576
 20
442.6176662535118
 30
0.0
 11
-78.94141985403582
 21
442.6176662535117
 31
0.0
  0
LINE
  5
164
330
160
100
AcDbEntity
  8
BEMASSUNG
  6
Continuous
 62
     2
440
 16777216
370
    -2
100
AcDbLine
 10
-79.94141985403586
 20
246.6176662535118
 30
0.0
 11
-79.94141985403581
 21
438.6176662535117
 31
0.0
  0
SOLID
  5
165
330
160
100
AcDbEntity
  8
BEMASSUNG
  6
Continuous
 62
     2
440
 16777216
100
AcDbTrace
 10
-80.60808652070253
 20
246.6176662535118
 30
0.0
 11
-79.27475318736918
 21
246.6176662535118
 31
0.0
 12
-79.94141985403586
 22
242.6176662535118
 32
0.0
 13
-79.94141985403586
 23
242.6176662535118
 33
0.0
  0
SOLID
  5
166
330
160
100
AcDbEntity
  8
BEMASSUNG
  6
Continuous
 62
     2
440
 16777216
100
AcDbTrace
 10
-80.60808652070248
 20
438.6176662535117
 30
0.0
 11
-79.27475318736914
 21
438.6176662535117
 31
0.0
 12
-79.94141985403581
 22
442.6176662535117
 32
0.0
 13
-79.94141985403581
 23
442.6176662535117
 33
0.0
  0
MTEXT
  5
167
330
160
100
AcDbEntity
  8
BEMASSUNG
  6
Continuous
 62
     3
440
 16777216
100
AcDbMText
 10
-83.16241235062525
 20
342.6176662535117
 30
0.0
 40
4.349999999999999
 41
0.0
 46
0.0
 71
     5
 72
     1
  1
\A1;200
  7
ARIAL-STANDARD
 11
0.0000000000000001
 21
1.0
 31
0.0
 73
     1
 44
1.0
  0
POINT
  5
168
330
160
100
AcDbEntity
  8
DEFPOINTS
  6
Continuous
 62
     0
440
 16777216
100
AcDbPoint
 10
-115.6682292189576
 20
242.6176662535118
 30
0.0
  0
POINT
  5
169
330
160
100
AcDbEntity
  8
DEFPOINTS
  6
Continuous
 62
     0
440
 16777216
100
AcDbPoint
 10
-137.6682292189576
 20
442.6176662535118
 30
0.0
  0
POINT
  5
16A
330
160
100
AcDbEntity
  8
DEFPOINTS
  6
Continuous
 62
     0
440
 16777216
100
AcDbPoint
 10
-79.94141985403581
 20
442.6176662535117
 30
0.0
  0
ENDBLK
  5
16B
330
160
100
AcDbEntity
  8
0
100
AcDbBlockEnd
  0
BLOCK
  5
153
330
152
100
AcDbEntity
  8
0
100
AcDbBlockBegin
  2
*D7
 70
     1
 10
0.0
 20
0.0
 30
0.0
  3
*D7
  1

  0
LINE
  5
154
330
152
100
AcDbEntity
  8
BEMASSUNG
  6
Continuous
 62
     2
440
 16777216
370
    -2
100
AcDbLine
 10
-174.6525285537396
 20
406.1176662535117
 30
0.0
 11
-174.6525285537396
 21
427.1127295349888
 31
0.0
  0
LINE
  5
155
330
152
100
AcDbEntity
  8
BEMASSUNG
  6
Continuous
 62
     2
440
 16777216
370
    -2
100
AcDbLine
 10
-161.1682292189576
 20
427.0724691921605
 30
0.0
 11
-161.1682292189576
 21
425.1127295349887
 31
0.0
  0
LINE
  5
156
330
152
100
AcDbEntity
  8
BEMASSUNG
  6
Continuous
 62
     2
440
 16777216
370
    -2
100
AcDbLine
 10
-170.6525285537396
 20
426.1127295349888
 30
0.0
 11
-165.1682292189576
 21
426.1127295349888
 31
0.0
  0
MTEXT
  5
157
330
152
100
AcDbEntity
  8
BEMASSUNG
  6
Continuous
 62
     3
440
 16777216
100
AcDbMText
 10
-167.9103788863486
 20
429.9806575158008
 30
0.0
 40
4.349999999999999
 41
0.0
 46
0.0
 71
     5
 72
     1
  1
\A1;13.5
  7
ARIAL-STANDARD
 73
     1
 44
1.0
  0
SOLID
  5
158
330
152
100
AcDbEntity
  8
BEMASSUNG
  6
Continuous
 62
     2
440
 16777216
100
AcDbTrace
 10
-170.6525285537396
 20
426.7793962016555
 30
0.0
 11
-170.6525285537396
 21
425.4460628683221
 31
0.0
 12
-174.6525285537396
 22
426.1127295349888
 32
0.0
 13
-174.6525285537396
 23
426.1127295349888
 33
0.0
  0
SOLID
  5
159
330
152
100
AcDbEntity
  8
BEMASSUNG
  6
Continuous
 62
     2
440
 16777216
100
AcDbTrace
 10
-165.1682292189576
 20
426.7793962016555
 30
0.0
 11
-165.1682292189576
 21
425.4460628683221
 31
0.0
 12
-161.1682292189576
 22
426.1127295349888
 32
0.0
 13
-161.1682292189576
 23
426.1127295349888
 33
0.0
  0
POINT
  5
15A
330
152
100
AcDbEntity
  8
DEFPOINTS
  6
Continuous
 62
     0
440
 16777216
100
AcDbPoint
 10
-174.6525285537396
 20
406.1176662535117
 30
0.0
  0
POINT
  5
15B
330
152
100
AcDbEntity
  8
DEFPOINTS
  6
Continuous
 62
     0
440
 16777216
100
AcDbPoint
 10
-161.1682292189576
 20
427.0724691921605
 30
0.0
  0
POINT
  5
15C
330
152
100
AcDbEntity
  8
DEFPOINTS
  6
Continuous
 62
     0
440
 16777216
100
AcDbPoint
 10
-161.1682292189576
 20
426.1127295349888
 30
0.0
  0
ENDBLK
  5
15D
330
152
100
AcDbEntity
  8
0
100
AcDbBlockEnd
  0
BLOCK
  5
146
330
145
100
AcDbEntity
  8
0
100
AcDbBlockBegin
  2
*D8
 70
     1
 10
0.0
 20
0.0
 30
0.0
  3
*D8
  1

  0
LINE
  5
147
330
145
100
AcDbEntity
  8
BEMASSUNG
  6
Continuous
 62
     2
440
 16777216
370
    -2
100
AcDbLine
 10
-172.5025285537395
 20
391.1176662535119
 30
0.0
 11
-208.379839757897
 21
391.1176662535119
 31
0.0
  0
LINE
  5
148
330
145
100
AcDbEntity
  8
BEMASSUNG
  6
Continuous
 62
     2
440
 16777216
370
    -2
100
AcDbLine
 10
-171.9682292189575
 20
421.1176662535118
 30
0.0
 11
-208.379839757897
 21
421.1176662535118
 31
0.0
  0
LINE
  5
149
330
145
100
AcDbEntity
  8
BEMASSUNG
  6
Continuous
 62
     2
440
 16777216
370
    -2
100
AcDbLine
 10
-207.3798397578971
 20
395.1176662535118
 30
0.0
 11
-207.3798397578971
 21
417.1176662535118
 31
0.0
  0
SOLID
  5
14A
330
145
100
AcDbEntity
  8
BEMASSUNG
  6
Continuous
 62
     2
440
 16777216
100
AcDbTrace
 10
-208.0465064245637
 20
395.1176662535118
 30
0.0
 11
-206.7131730912304
 21
395.1176662535118
 31
0.0
 12
-207.3798397578971
 22
391.1176662535119
 32
0.0
 13
-207.3798397578971
 23
391.1176662535119
 33
0.0
  0
SOLID
  5
14B
330
145
100
AcDbEntity
  8
BEMASSUNG
  6
Continuous
 62
     2
440
 16777216
100
AcDbTrace
 10
-208.0465064245637
 20
417.1176662535118
 30
0.0
 11
-206.7131730912304
 21
417.1176662535118
 31
0.0
 12
-207.3798397578971
 22
421.1176662535118
 32
0.0
 13
-207.3798397578971
 23
421.1176662535118
 33
0.0
  0
MTEXT
  5
14C
330
145
100
AcDbEntity
  8
BEMASSUNG
  6
Continuous
 62
     3
440
 16777216
100
AcDbMText
 10
-210.6023158834087
 20
406.1176662535117
 30
0.0
 40
4.349999999999999
 41
0.0
 46
0.0
 71
     5
 72
     1
  1
\A1;30
  7
ARIAL-STANDARD
 11
0.0000000000000001
 21
1.0
 31
0.0
 73
     1
 44
1.0
  0
POINT
  5
14D
330
145
100
AcDbEntity
  8
DEFPOINTS
  6
Continuous
 62
     0
440
 16777216
100
AcDbPoint
 10
-172.5025285537395
 20
391.1176662535119
 30
0.0
  0
POINT
  5
14E
330
145
100
AcDbEntity
  8
DEFPOINTS
  6
Continuous
 62
     0
440
 16777216
100
AcDbPoint
 10
-171.9682292189575
 20
421.1176662535118
 30
0.0
  0
POINT
  5
14F
330
145
100
AcDbEntity
  8
DEFPOINTS
  6
Continuous
 62
     0
440
 16777216
100
AcDbPoint
 10
-207.3798397578971
 20
421.1176662535118
 30
0.0
  0
ENDBLK
  5
150
330
145
100
AcDbEntity
  8
0
100
AcDbBlockEnd
  0
BLOCK
  5
138
330
137
100
AcDbEntity
  8
0
100
AcDbBlockBegin
  2
*D9
 70
     1
 10
0.0
 20
0.0
 30
0.0
  3
*D9
  1

  0
LINE
  5
139
330
137
100
AcDbEntity
  8
BEMASSUNG
  6
Continuous
 62
     2
440
 16777216
370
    -2
100
AcDbLine
 10
-180.1682292189575
 20
323.6176662535118
 30
0.0
 11
-208.379839757897
 21
323.6176662535118
 31
0.0
  0
LINE
  5
13A
330
137
100
AcDbEntity
  8
BEMASSUNG
  6
Continuous
 62
     2
440
 16777216
370
    -2
100
AcDbLine
 10
-172.5025285537395
 20
391.1176662535119
 30
0.0
 11
-208.379839757897
 21
391.1176662535119
 31
0.0
  0
LINE
  5
13B
330
137
100
AcDbEntity
  8
BEMASSUNG
  6
Continuous
 62
     2
440
 16777216
370
    -2
100
AcDbLine
 10
-207.3798397578971
 20
327.6176662535118
 30
0.0
 11
-207.3798397578971
 21
387.1176662535118
 31
0.0
  0
SOLID
  5
13C
330
137
100
AcDbEntity
  8
BEMASSUNG
  6
Continuous
 62
     2
440
 16777216
100
AcDbTrace
 10
-208.0465064245637
 20
327.6176662535118
 30
0.0
 11
-206.7131730912304
 21
327.6176662535118
 31
0.0
 12
-207.3798397578971
 22
323.6176662535118
 32
0.0
 13
-207.3798397578971
 23
323.6176662535118
 33
0.0
  0
SOLID
  5
13D
330
137
100
AcDbEntity
  8
BEMASSUNG
  6
Continuous
 62
     2
440
 16777216
100
AcDbTrace
 10
-208.0465064245637
 20
387.1176662535118
 30
0.0
 11
-206.7131730912304
 21
387.1176662535118
 31
0.0
 12
-207.3798397578971
 22
391.1176662535119
 32
0.0
 13
-207.3798397578971
 23
391.1176662535119
 33
0.0
  0
MTEXT
  5
13E
330
137
100
AcDbEntity
  8
BEMASSUNG
  6
Continuous
 62
     3
440
 16777216
100
AcDbMText
 10
-210.6008322544865
 20
357.3676662535117
 30
0.0
 40
4.349999999999999
 41
0.0
 46
0.0
 71
     5
 72
     1
  1
\A1;67.5
  7
ARIAL-STANDARD
 11
0.0000000000000001
 21
1.0
 31
0.0
 73
     1
 44
1.0
  0
POINT
  5
13F
330
137
100
AcDbEntity
  8
DEFPOINTS
  6
Continuous
 62
     0
440
 16777216
100
AcDbPoint
 10
-180.1682292189575
 20
323.6176662535118
 30
0.0
  0
POINT
  5
140
330
137
100
AcDbEntity
  8
DEFPOINTS
  6
Continuous
 62
     0
440
 16777216
100
AcDbPoint
 10
-172.5025285537395
 20
391.1176662535119
 30
0.0
  0
POINT
  5
141
330
137
100
AcDbEntity
  8
DEFPOINTS
  6
Continuous
 62
     0
440
 16777216
100
AcDbPoint
 10
-207.3798397578971
 20
391.1176662535119
 30
0.0
  0
ENDBLK
  5
142
330
137
100
AcDbEntity
  8
0
100
AcDbBlockEnd
  0
BLOCK
  5
12B
330
12A
100
AcDbEntity
  8
0
100
AcDbBlockBegin
  2
*D10
 70
     1
 10
0.0
 20
0.0
 30
0.0
  3
*D10
  1

  0
LINE
  5
12C
330
12A
100
AcDbEntity
  8
BEMASSUNG
  6
Continuous
 62
     2
440
 16777216
370
    -2
100
AcDbLine
 10
-180.1682292189575
 20
288.6176662535117
 30
0.0
 11
-208.3798397578971
 21
288.6176662535117
 31
0.0
  0
LINE
  5
12D
330
12A
100
AcDbEntity
  8
BEMASSUNG
  6
Continuous
 62
     2
440
 16777216
370
    -2
100
AcDbLine
 10
-180.1682292189575
 20
323.6176662535118
 30
0.0
 11
-208.379839757897
 21
323.6176662535118
 31
0.0
  0
LINE
  5
12E
330
12A
100
AcDbEntity
  8
BEMASSUNG
  6
Continuous
 62
     2
440
 16777216
370
    -2
100
AcDbLine
 10
-207.3798397578971
 20
292.6176662535117
 30
0.0
 11
-207.3798397578971
 21
319.6176662535118
 31
0.0
  0
SOLID
  5
12F
330
12A
100
AcDbEntity
  8
BEMASSUNG
  6
Continuous
 62
     2
440
 16777216
100
AcDbTrace
 10
-208.0465064245637
 20
292.6176662535117
 30
0.0
 11
-206.7131730912304
 21
292.6176662535117
 31
0.0
 12
-207.3798397578971
 22
288.6176662535117
 32
0.0
 13
-207.3798397578971
 23
288.6176662535117
 33
0.0
  0
SOLID
  5
130
330
12A
100
AcDbEntity
  8
BEMASSUNG
  6
Continuous
 62
     2
440
 16777216
100
AcDbTrace
 10
-208.0465064245637
 20
319.6176662535118
 30
0.0
 11
-206.7131730912304
 21
319.6176662535118
 31
0.0
 12
-207.3798397578971
 22
323.6176662535118
 32
0.0
 13
-207.3798397578971
 23
323.6176662535118
 33
0.0
  0
MTEXT
  5
131
330
12A
100
AcDbEntity
  8
BEMASSUNG
  6
Continuous
 62
     3
440
 16777216
100
AcDbMText
 10
-210.6023158834087
 20
306.1176662535117
 30
0.0
 40
4.349999999999999
 41
0.0
 46
0.0
 71
     5
 72
     1
  1
\A1;35
  7
ARIAL-STANDARD
 11
0.0000000000000001
 21
1.0
 31
0.0
 73
     1
 44
1.0
  0
POINT
  5
132
330
12A
100
AcDbEntity
  8
DEFPOINTS
  6
Continuous
 62
     0
440
 16777216
100
AcDbPoint
 10
-180.1682292189575
 20
288.6176662535117
 30
0.0
  0
POINT
  5
133
330
12A
100
AcDbEntity
  8
DEFPOINTS
  6
Continuous
 62
     0
440
 16777216
100
AcDbPoint
 10
-180.1682292189575
 20
323.6176662535118
 30
0.0
  0
POINT
  5
134
330
12A
100
AcDbEntity
  8
DEFPOINTS
  6
Continuous
 62
     0
440
 16777216
100
AcDbPoint
 10
-207.3798397578971
 20
323.6176662535118
 30
0.0
  0
ENDBLK
  5
135
330
12A
100
AcDbEntity
  8
0
100
AcDbBlockEnd
  0
BLOCK
  5
11E
330
11D
100
AcDbEntity
  8
0
100
AcDbBlockBegin
  2
*D11
 70
     1
 10
0.0
 20
0.0
 30
0.0
  3
*D11
  1

  0
LINE
  5
11F
330
11D
100
AcDbEntity
  8
BEMASSUNG
  6
Continuous
 62
     2
440
 16777216
370
    -2
100
AcDbLine
 10
-158.1682292189576
 20
242.6176662535118
 30
0.0
 11
-193.2882292189575
 21
242.6176662535118
 31
0.0
  0
LINE
  5
120
330
11D
100
AcDbEntity
  8
BEMASSUNG
  6
Continuous
 62
     2
440
 16777216
370
    -2
100
AcDbLine
 10
-180.1682292189575
 20
288.6176662535117
 30
0.0
 11
-193.2882292189575
 21
288.6176662535117
 31
0.0
  0
LINE
  5
121
330
11D
100
AcDbEntity
  8
BEMASSUNG
  6
Continuous
 62
     2
440
 16777216
370
    -2
100
AcDbLine
 10
-192.2882292189575
 20
246.6176662535118
 30
0.0
 11
-192.2882292189575
 21
284.6176662535117
 31
0.0
  0
SOLID
  5
122
330
11D
100
AcDbEntity
  8
BEMASSUNG
  6
Continuous
 62
     2
440
 16777216
100
AcDbTrace
 10
-192.9548958856241
 20
246.6176662535118
 30
0.0
 11
-191.6215625522908
 21
246.6176662535118
 31
0.0
 12
-192.2882292189575
 22
242.6176662535118
 32
0.0
 13
-192.2882292189575
 23
242.6176662535118
 33
0.0
  0
SOLID
  5
123
330
11D
100
AcDbEntity
  8
BEMASSUNG
  6
Continuous
 62
     2
440
 16777216
100
AcDbTrace
 10
-192.9548958856241
 20
284.6176662535117
 30
0.0
 11
-191.6215625522908
 21
284.6176662535117
 31
0.0
 12
-192.2882292189575
 22
288.6176662535117
 32
0.0
 13
-192.2882292189575
 23
288.6176662535117
 33
0.0
  0
MTEXT
  5
124
330
11D
100
AcDbEntity
  8
BEMASSUNG
  6
Continuous
 62
     3
440
 16777216
100
AcDbMText
 10
-195.5092217155469
 20
265.6176662535117
 30
0.0
 40
4.349999999999999
 41
0.0
 46
0.0
 71
     5
 72
     1
  1
\A1;46
  7
ARIAL-STANDARD
 11
0.0000000000000001
 21
1.0
 31
0.0
 73
     1
 44
1.0
  0
POINT
  5
125
330
11D
100
AcDbEntity
  8
DEFPOINTS
  6
Continuous
 62
     0
440
 16777216
100
AcDbPoint
 10
-158.1682292189576
 20
242.6176662535118
 30
0.0
  0
POINT
  5
126
330
11D
100
AcDbEntity
  8
DEFPOINTS
  6
Continuous
 62
     0
440
 16777216
100
AcDbPoint
 10
-180.1682292189575
 20
288.6176662535117
 30
0.0
  0
POINT
  5
127
330
11D
100
AcDbEntity
  8
DEFPOINTS
  6
Continuous
 62
     0
440
 16777216
100
AcDbPoint
 10
-192.2882292189575
 20
288.6176662535117
 30
0.0
  0
ENDBLK
  5
128
330
11D
100
AcDbEntity
  8
0
100
AcDbBlockEnd
  0
BLOCK
  5
110
330
10F
100
AcDbEntity
  8
0
100
AcDbBlockBegin
  2
*D12
 70
     1
 10
0.0
 20
0.0
 30
0.0
  3
*D12
  1

  0
LINE
  5
111
330
10F
100
AcDbEntity
  8
BEMASSUNG
  6
Continuous
 62
     2
440
 16777216
370
    -2
100
AcDbLine
 10
-181.1682292189575
 20
289.117666253512
 30
0.0
 11
-181.1682292189575
 21
271.2795535476003
 31
0.0
  0
LINE
  5
112
330
10F
100
AcDbEntity
  8
BEMASSUNG
  6
Continuous
 62
     2
440
 16777216
370
    -2
100
AcDbLine
 10
-161.1682292189576
 20
272.6987076227272
 30
0.0
 11
-161.1682292189576
 21
271.2795535476003
 31
0.0
  0
LINE
  5
113
330
10F
100
AcDbEntity
  8
BEMASSUNG
  6
Continuous
 62
     2
440
 16777216
370
    -2
100
AcDbLine
 10
-177.1682292189575
 20
272.2795535476003
 30
0.0
 11
-165.1682292189576
 21
272.2795535476003
 31
0.0
  0
SOLID
  5
114
330
10F
100
AcDbEntity
  8
BEMASSUNG
  6
Continuous
 62
     2
440
 16777216
100
AcDbTrace
 10
-177.1682292189575
 20
272.946220214267
 30
0.0
 11
-177.1682292189575
 21
271.6128868809336
 31
0.0
 12
-181.1682292189575
 22
272.2795535476003
 32
0.0
 13
-181.1682292189575
 23
272.2795535476003
 33
0.0
  0
SOLID
  5
115
330
10F
100
AcDbEntity
  8
BEMASSUNG
  6
Continuous
 62
     2
440
 16777216
100
AcDbTrace
 10
-165.1682292189576
 20
272.946220214267
 30
0.0
 11
-165.1682292189576
 21
271.6128868809336
 31
0.0
 12
-161.1682292189576
 22
272.2795535476003
 32
0.0
 13
-161.1682292189576
 23
272.2795535476003
 33
0.0
  0
MTEXT
  5
116
330
10F
100
AcDbEntity
  8
BEMASSUNG
  6
Continuous
 62
     3
440
 16777216
100
AcDbMText
 10
-171.1682292189575
 20
275.5005460441897
 30
0.0
 40
4.349999999999999
 41
0.0
 46
0.0
 71
     5
 72
     1
  1
\A1;20
  7
ARIAL-STANDARD
 73
     1
 44
1.0
  0
POINT
  5
117
330
10F
100
AcDbEntity
  8
DEFPOINTS
  6
Continuous
 62
     0
440
 16777216
100
AcDbPoint
 10
-181.1682292189575
 20
289.117666253512
 30
0.0
  0
POINT
  5
118
330
10F
100
AcDbEntity
  8
DEFPOINTS
  6
Continuous
 62
     0
440
 16777216
100
AcDbPoint
 10
-161.1682292189576
 20
272.6987076227272
 30
0.0
  0
POINT
  5
119
330
10F
100
AcDbEntity
  8
DEFPOINTS
  6
Continuous
 62
     0
440
 16777216
100
AcDbPoint
 10
-161.1682292189576
 20
272.2795535476003
 30
0.0
  0
ENDBLK
  5
11A
330
10F
100
AcDbEntity
  8
0
100
AcDbBlockEnd
  0
BLOCK
  5
FA
330
F9
100
AcDbEntity
  8
0
100
AcDbBlockBegin
  2
*D13
 70
     1
 10
0.0
 20
0.0
 30
0.0
  3
*D13
  1

  0
LINE
  5
FB
330
F9
100
AcDbEntity
  8
BEMASSUNG
  6
Continuous
 62
     2
440
 16777216
370
    -2
100
AcDbLine
 10
-46.13620497419828
 20
207.6176662535118
 30
0.0
 11
-56.7249065537821
 21
207.6176662535118
 31
0.0
  0
LINE
  5
FC
330
F9
100
AcDbEntity
  8
BEMASSUNG
  6
Continuous
 62
     2
440
 16777216
370
    -2
100
AcDbLine
 10
-40.88620497419833
 20
220.6176662535118
 30
0.0
 11
-56.72490655378209
 21
220.6176662535118
 31
0.0
  0
LINE
  5
FD
330
F9
100
AcDbEntity
  8
BEMASSUNG
  6
Continuous
 62
     2
440
 16777216
370
    -2
100
AcDbLine
 10
-55.72490655378209
 20
211.6176662535118
 30
0.0
 11
-55.72490655378209
 21
216.6176662535118
 31
0.0
  0
SOLID
  5
FE
330
F9
100
AcDbEntity
  8
BEMASSUNG
  6
Continuous
 62
     2
440
 16777216
100
AcDbTrace
 10
-56.39157322044876
 20
211.6176662535118
 30
0.0
 11
-55.05823988711543
 21
211.6176662535118
 31
0.0
 12
-55.7249065537821
 22
207.6176662535118
 32
0.0
 13
-55.7249065537821
 23
207.6176662535118
 33
0.0
  0
SOLID
  5
FF
330
F9
100
AcDbEntity
  8
BEMASSUNG
  6
Continuous
 62
     2
440
 16777216
100
AcDbTrace
 10
-56.39157322044876
 20
216.6176662535118
 30
0.0
 11
-55.05823988711543
 21
216.6176662535118
 31
0.0
 12
-55.72490655378209
 22
220.6176662535118
 32
0.0
 13
-55.72490655378209
 23
220.6176662535118
 33
0.0
  0
MTEXT
  5
100
330
F9
100
AcDbEntity
  8
BEMASSUNG
  6
Continuous
 62
     3
440
 16777216
100
AcDbMText
 10
-58.94738267929373
 20
214.1176662535118
 30
0.0
 40
4.349999999999999
 41
0.0
 46
0.0
 71
     5
 72
     1
  1
\A1;13
  7
ARIAL-STANDARD
 11
0.0000000000000001
 21
1.0
 31
0.0
 73
     1
 44
1.0
  0
POINT
  5
101
330
F9
100
AcDbEntity
  8
DEFPOINTS
  6
Continuous
 62
     0
440
 16777216
100
AcDbPoint
 10
-46.13620497419828
 20
207.6176662535118
 30
0.0
  0
POINT
  5
102
330
F9
100
AcDbEntity
  8
DEFPOINTS
  6
Continuous
 62
     0
440
 16777216
100
AcDbPoint
 10
-40.88620497419833
 20
220.6176662535118
 30
0.0
  0
POINT
  5
103
330
F9
100
AcDbEntity
  8
DEFPOINTS
  6
Continuous
 62
     0
440
 16777216
100
AcDbPoint
 10
-55.72490655378209
 20
220.6176662535118
 30
0.0
  0
ENDBLK
  5
104
330
F9
100
AcDbEntity
  8
0
100
AcDbBlockEnd
  0
BLOCK
  5
ED
330
EC
100
AcDbEntity
  8
0
100
AcDbBlockBegin
  2
*D14
 70
     1
 10
0.0
 20
0.0
 30
0.0
  3
*D14
  1

  0
LINE
  5
EE
330
EC
100
AcDbEntity
  8
BEMASSUNG
  6
Continuous
 62
     2
440
 16777216
370
    -2
100
AcDbLine
 10
-22.13620497419828
 20
207.6176662535118
 30
0.0
 11
-3.677173148033947
 21
207.6176662535118
 31
0.0
  0
LINE
  5
EF
330
EC
100
AcDbEntity
  8
BEMASSUNG
  6
Continuous
 62
     2
440
 16777216
370
    -2
100
AcDbLine
 10
-22.13620497419788
 20
477.6176662535117
 30
0.0
 11
-3.677173148033887
 21
477.6176662535117
 31
0.0
  0
LINE
  5
F0
330
EC
100
AcDbEntity
  8
BEMASSUNG
  6
Continuous
 62
     2
440
 16777216
370
    -2
100
AcDbLine
 10
-4.677173148033945
 20
211.6176662535118
 30
0.0
 11
-4.677173148033888
 21
473.6176662535117
 31
0.0
  0
SOLID
  5
F1
330
EC
100
AcDbEntity
  8
BEMASSUNG
  6
Continuous
 62
     2
440
 16777216
100
AcDbTrace
 10
-5.343839814700612
 20
211.6176662535118
 30
0.0
 11
-4.010506481367278
 21
211.6176662535118
 31
0.0
 12
-4.677173148033946
 22
207.6176662535118
 32
0.0
 13
-4.677173148033946
 23
207.6176662535118
 33
0.0
  0
SOLID
  5
F2
330
EC
100
AcDbEntity
  8
BEMASSUNG
  6
Continuous
 62
     2
440
 16777216
100
AcDbTrace
 10
-5.343839814700555
 20
473.6176662535117
 30
0.0
 11
-4.010506481367221
 21
473.6176662535117
 31
0.0
 12
-4.677173148033887
 22
477.6176662535117
 32
0.0
 13
-4.677173148033887
 23
477.6176662535117
 33
0.0
  0
MTEXT
  5
F3
330
EC
100
AcDbEntity
  8
BEMASSUNG
  6
Continuous
 62
     3
440
 16777216
100
AcDbMText
 10
-7.898165644623329
 20
342.6176662535118
 30
0.0
 40
4.349999999999999
 41
0.0
 46
0.0
 71
     5
 72
     1
  1
\A1;270
  7
ARIAL-STANDARD
 11
0.0000000000000001
 21
1.0
 31
0.0
 73
     1
 44
1.0
  0
POINT
  5
F4
330
EC
100
AcDbEntity
  8
DEFPOINTS
  6
Continuous
 62
     0
440
 16777216
100
AcDbPoint
 10
-22.13620497419828
 20
207.6176662535118
 30
0.0
  0
POINT
  5
F5
330
EC
100
AcDbEntity
  8
DEFPOINTS
  6
Continuous
 62
     0
440
 16777216
100
AcDbPoint
 10
-22.13620497419788
 20
477.6176662535117
 30
0.0
  0
POINT
  5
F6
330
EC
100
AcDbEntity
  8
DEFPOINTS
  6
Continuous
 62
     0
440
 16777216
100
AcDbPoint
 10
-4.677173148033887
 20
477.6176662535117
 30
0.0
  0
ENDBLK
  5
F7
330
EC
100
AcDbEntity
  8
0
100
AcDbBlockEnd
  0
BLOCK
  5
E0
330
DF
100
AcDbEntity
  8
0
100
AcDbBlockBegin
  2
*D15
 70
     1
 10
0.0
 20
0.0
 30
0.0
  3
*D15
  1

  0
LINE
  5
E1
330
DF
100
AcDbEntity
  8
BEMASSUNG
  6
Continuous
 62
     2
440
 16777216
370
    -2
100
AcDbLine
 10
-115.6682292189576
 20
150.0259418207177
 30
0.0
 11
-102.0148460934802
 21
150.0259418207177
 31
0.0
  0
LINE
  5
E2
330
DF
100
AcDbEntity
  8
BEMASSUNG
  6
Continuous
 62
     2
440
 16777216
370
    -2
100
AcDbLine
 10
-115.6682292189576
 20
167.8259418207171
 30
0.0
 11
-102.0148460934801
 21
167.8259418207171
 31
0.0
  0
LINE
  5
E3
330
DF
100
AcDbEntity
  8
BEMASSUNG
  6
Continuous
 62
     2
440
 16777216
370
    -2
100
AcDbLine
 10
-103.0148460934802
 20
154.0259418207177
 30
0.0
 11
-103.0148460934801
 21
163.8259418207171
 31
0.0
  0
SOLID
  5
E4
330
DF
100
AcDbEntity
  8
BEMASSUNG
  6
Continuous
 62
     2
440
 16777216
100
AcDbTrace
 10
-103.6815127601468
 20
154.0259418207177
 30
0.0
 11
-102.3481794268135
 21
154.0259418207177
 31
0.0
 12
-103.0148460934802
 22
150.0259418207177
 32
0.0
 13
-103.0148460934802
 23
150.0259418207177
 33
0.0
  0
SOLID
  5
E5
330
DF
100
AcDbEntity
  8
BEMASSUNG
  6
Continuous
 62
     2
440
 16777216
100
AcDbTrace
 10
-103.6815127601468
 20
163.8259418207171
 30
0.0
 11
-102.3481794268135
 21
163.8259418207171
 31
0.0
 12
-103.0148460934801
 22
167.8259418207171
 32
0.0
 13
-103.0148460934801
 23
167.8259418207171
 33
0.0
  0
MTEXT
  5
E6
330
DF
100
AcDbEntity
  8
BEMASSUNG
  6
Continuous
 62
     3
440
 16777216
100
AcDbMText
 10
-106.2358385900695
 20
158.9259418207174
 30
0.0
 40
4.349999999999999
 41
0.0
 46
0.0
 71
     5
 72
     1
  1
\A1;17.8
  7
ARIAL-STANDARD
 11
0.0000000000000001
 21
1.0
 31
0.0
 73
     1
 44
1.0
  0
POINT
  5
E7
330
DF
100
AcDbEntity
  8
DEFPOINTS
  6
Continuous
 62
     0
440
 16777216
100
AcDbPoint
 10
-115.6682292189576
 20
150.0259418207177
 30
0.0
  0
POINT
  5
E8
330
DF
100
AcDbEntity
  8
DEFPOINTS
  6
Continuous
 62
     0
440
 16777216
100
AcDbPoint
 10
-115.6682292189576
 20
167.8259418207171
 30
0.0
  0
POINT
  5
E9
330
DF
100
AcDbEntity
  8
DEFPOINTS
  6
Continuous
 62
     0
440
 16777216
100
AcDbPoint
 10
-103.0148460934801
 20
167.8259418207171
 30
0.0
  0
ENDBLK
  5
EA
330
DF
100
AcDbEntity
  8
0
100
AcDbBlockEnd
  0
BLOCK
  5
D3
330
D2
100
AcDbEntity
  8
0
100
AcDbBlockBegin
  2
*D16
 70
     1
 10
0.0
 20
0.0
 30
0.0
  3
*D16
  1

  0
LINE
  5
D4
330
D2
100
AcDbEntity
  8
BEMASSUNG
  6
Continuous
 62
     2
440
 16777216
370
    -2
100
AcDbLine
 10
-46.13620497419828
 20
207.6176662535118
 30
0.0
 11
-46.13620497419828
 21
183.0634060868663
 31
0.0
  0
LINE
  5
D5
330
D2
100
AcDbEntity
  8
BEMASSUNG
  6
Continuous
 62
     2
440
 16777216
370
    -2
100
AcDbLine
 10
-22.13620497419828
 20
207.6176662535118
 30
0.0
 11
-22.13620497419828
 21
183.0634060868663
 31
0.0
  0
LINE
  5
D6
330
D2
100
AcDbEntity
  8
BEMASSUNG
  6
Continuous
 62
     2
440
 16777216
370
    -2
100
AcDbLine
 10
-42.13620497419827
 20
184.0634060868663
 30
0.0
 11
-26.13620497419828
 21
184.0634060868663
 31
0.0
  0
SOLID
  5
D7
330
D2
100
AcDbEntity
  8
BEMASSUNG
  6
Continuous
 62
     2
440
 16777216
100
AcDbTrace
 10
-42.13620497419827
 20
184.730072753533
 30
0.0
 11
-42.13620497419827
 21
183.3967394201996
 31
0.0
 12
-46.13620497419828
 22
184.0634060868663
 32
0.0
 13
-46.13620497419828
 23
184.0634060868663
 33
0.0
  0
SOLID
  5
D8
330
D2
100
AcDbEntity
  8
BEMASSUNG
  6
Continuous
 62
     2
440
 16777216
100
AcDbTrace
 10
-26.13620497419828
 20
184.730072753533
 30
0.0
 11
-26.13620497419828
 21
183.3967394201996
 31
0.0
 12
-22.13620497419828
 22
184.0634060868663
 32
0.0
 13
-22.13620497419828
 23
184.0634060868663
 33
0.0
  0
MTEXT
  5
D9
330
D2
100
AcDbEntity
  8
BEMASSUNG
  6
Continuous
 62
     3
440
 16777216
100
AcDbMText
 10
-34.13620497419828
 20
187.2473078603997
 30
0.0
 40
4.349999999999999
 41
0.0
 46
0.0
 71
     5
 72
     1
  1
\A1;24
  7
ARIAL-STANDARD
 73
     1
 44
1.0
  0
POINT
  5
DA
330
D2
100
AcDbEntity
  8
DEFPOINTS
  6
Continuous
 62
     0
440
 16777216
100
AcDbPoint
 10
-46.13620497419828
 20
207.6176662535118
 30
0.0
  0
POINT
  5
DB
330
D2
100
AcDbEntity
  8
DEFPOINTS
  6
Continuous
 62
     0
440
 16777216
100
AcDbPoint
 10
-22.13620497419828
 20
207.6176662535118
 30
0.0
  0
POINT
  5
DC
330
D2
100
AcDbEntity
  8
DEFPOINTS
  6
Continuous
 62
     0
440
 16777216
100
AcDbPoint
 10
-22.13620497419828
 20
184.0634060868663
 30
0.0
  0
ENDBLK
  5
DD
330
D2
100
AcDbEntity
  8
0
100
AcDbBlockEnd
  0
BLOCK
  5
C6
330
C5
100
AcDbEntity
  8
0
100
AcDbBlockBegin
  2
*D17
 70
     1
 10
0.0
 20
0.0
 30
0.0
  3
*D17
  1

  0
LINE
  5
C7
330
C5
100
AcDbEntity
  8
BEMASSUNG
  6
Continuous
 62
     2
440
 16777216
370
    -2
100
AcDbLine
 10
-41.03620497419791
 20
403.9676662535115
 30
0.0
 11
-41.03620497419791
 21
439.0687860006964
 31
0.0
  0
LINE
  5
C8
330
C5
100
AcDbEntity
  8
BEMASSUNG
  6
Continuous
 62
     2
440
 16777216
370
    -2
100
AcDbLine
 10
-27.23620497419819
 20
403.9676662535115
 30
0.0
 11
-27.23620497419819
 21
439.0687860006964
 31
0.0
  0
LINE
  5
C9
330
C5
100
AcDbEntity
  8
BEMASSUNG
  6
Continuous
 62
     2
440
 16777216
370
    -2
100
AcDbLine
 10
-37.03620497419791
 20
438.0687860006965
 30
0.0
 11
-31.23620497419818
 21
438.0687860006965
 31
0.0
  0
SOLID
  5
CA
330
C5
100
AcDbEntity
  8
BEMASSUNG
  6
Continuous
 62
     2
440
 16777216
100
AcDbTrace
 10
-37.03620497419791
 20
438.7354526673632
 30
0.0
 11
-37.03620497419791
 21
437.4021193340298
 31
0.0
 12
-41.03620497419791
 22
438.0687860006965
 32
0.0
 13
-41.03620497419791
 23
438.0687860006965
 33
0.0
  0
SOLID
  5
CB
330
C5
100
AcDbEntity
  8
BEMASSUNG
  6
Continuous
 62
     2
440
 16777216
100
AcDbTrace
 10
-31.23620497419818
 20
438.7354526673632
 30
0.0
 11
-31.23620497419818
 21
437.4021193340298
 31
0.0
 12
-27.23620497419819
 22
438.0687860006965
 32
0.0
 13
-27.23620497419819
 23
438.0687860006965
 33
0.0
  0
MTEXT
  5
CC
330
C5
100
AcDbEntity
  8
BEMASSUNG
  6
Continuous
 62
     3
440
 16777216
100
AcDbMText
 10
-34.13620497419805
 20
441.2912621262081
 30
0.0
 40
4.349999999999999
 41
0.0
 46
0.0
 71
     5
 72
     1
  1
\A1;13.8
  7
ARIAL-STANDARD
 73
     1
 44
1.0
  0
POINT
  5
CD
330
C5
100
AcDbEntity
  8
DEFPOINTS
  6
Continuous
 62
     0
440
 16777216
100
AcDbPoint
 10
-41.03620497419791
 20
403.9676662535115
 30
0.0
  0
POINT
  5
CE
330
C5
100
AcDbEntity
  8
DEFPOINTS
  6
Continuous
 62
     0
440
 16777216
100
AcDbPoint
 10
-27.23620497419819
 20
403.9676662535115
 30
0.0
  0
POINT
  5
CF
330
C5
100
AcDbEntity
  8
DEFPOINTS
  6
Continuous
 62
     0
440
 16777216
100
AcDbPoint
 10
-27.23620497419819
 20
438.0687860006965
 30
0.0
  0
ENDBLK
  5
D0
330
C5
100
AcDbEntity
  8
0
100
AcDbBlockEnd
  0
BLOCK
  5
B7
330
B6
100
AcDbEntity
  8
0
100
AcDbBlockBegin
  2
*D18
 70
     1
 10
0.0
 20
0.0
 30
0.0
  3
*D18
  1

  0
LINE
  5
B8
330
B6
100
AcDbEntity
  8
BEMASSUNG
  6
Continuous
 62
     2
440
 16777216
370
    -2
100
AcDbLine
 10
-38.13620497420411
 20
322.6176662535118
 30
0.0
 11
-38.13620497420411
 21
340.3631276169412
 31
0.0
  0
LINE
  5
B9
330
B6
100
AcDbEntity
  8
BEMASSUNG
  6
Continuous
 62
     2
440
 16777216
370
    -2
100
AcDbLine
 10
-30.13620497419732
 20
322.6176662535114
 30
0.0
 11
-30.13620497419732
 21
340.3631276169412
 31
0.0
  0
LINE
  5
BA
330
B6
100
AcDbEntity
  8
BEMASSUNG
  6
Continuous
 62
     2
440
 16777216
370
    -2
100
AcDbLine
 10
-42.1362049742041
 20
339.3631276169412
 30
0.0
 11
-46.1362049742041
 21
339.3631276169412
 31
0.0
  0
LINE
  5
BB
330
B6
100
AcDbEntity
  8
BEMASSUNG
  6
Continuous
 62
     2
440
 16777216
370
    -2
100
AcDbLine
 10
-26.13620497419731
 20
339.3631276169412
 30
0.0
 11
-22.13620497419731
 21
339.3631276169412
 31
0.0
  0
LINE
  5
BC
330
B6
100
AcDbEntity
  8
BEMASSUNG
  6
Continuous
 62
     2
440
 16777216
370
    -2
100
AcDbLine
 10
-38.13620497420411
 20
339.3631276169412
 30
0.0
 11
-30.13620497419732
 21
339.3631276169412
 31
0.0
  0
SOLID
  5
BD
330
B6
100
AcDbEntity
  8
BEMASSUNG
  6
Continuous
 62
     2
440
 16777216
100
AcDbTrace
 10
-42.1362049742041
 20
340.0297942836079
 30
0.0
 11
-42.1362049742041
 21
338.6964609502745
 31
0.0
 12
-38.13620497420411
 22
339.3631276169412
 32
0.0
 13
-38.13620497420411
 23
339.3631276169412
 33
0.0
  0
SOLID
  5
BE
330
B6
100
AcDbEntity
  8
BEMASSUNG
  6
Continuous
 62
     2
440
 16777216
100
AcDbTrace
 10
-26.13620497419731
 20
340.0297942836079
 30
0.0
 11
-26.13620497419731
 21
338.6964609502745
 31
0.0
 12
-30.13620497419732
 22
339.3631276169412
 32
0.0
 13
-30.13620497419732
 23
339.3631276169412
 33
0.0
  0
MTEXT
  5
BF
330
B6
100
AcDbEntity
  8
BEMASSUNG
  6
Continuous
 62
     3
440
 16777216
100
AcDbMText
 10
-34.13620497420071
 20
342.5841201135306
 30
0.0
 40
4.349999999999999
 41
0.0
 46
0.0
 71
     5
 72
     1
  1
\A1;8
  7
ARIAL-STANDARD
 73
     1
 44
1.0
  0
POINT
  5
C0
330
B6
100
AcDbEntity
  8
DEFPOINTS
  6
Continuous
 62
     0
440
 16777216
100
AcDbPoint
 10
-38.13620497420411
 20
322.6176662535118
 30
0.0
  0
POINT
  5
C1
330
B6
100
AcDbEntity
  8
DEFPOINTS
  6
Continuous
 62
     0
440
 16777216
100
AcDbPoint
 10
-30.13620497419732
 20
322.6176662535114
 30
0.0
  0
POINT
  5
C2
330
B6
100
AcDbEntity
  8
DEFPOINTS
  6
Continuous
 62
     0
440
 16777216
100
AcDbPoint
 10
-30.13620497419732
 20
339.3631276169412
 30
0.0
  0
ENDBLK
  5
C3
330
B6
100
AcDbEntity
  8
0
100
AcDbBlockEnd
  0
BLOCK
  5
AA
330
A9
100
AcDbEntity
  8
0
100
AcDbBlockBegin
  2
*D19
 70
     1
 10
0.0
 20
0.0
 30
0.0
  3
*D19
  1

  0
LINE
  5
AB
330
A9
100
AcDbEntity
  8
BEMASSUNG
  6
Continuous
 62
     2
440
 16777216
370
    -2
100
AcDbLine
 10
-40.88620497419753
 20
464.6176662535118
 30
0.0
 11
-56.72490655378209
 21
464.6176662535118
 31
0.0
  0
LINE
  5
AC
330
A9
100
AcDbEntity
  8
BEMASSUNG
  6
Continuous
 62
     2
440
 16777216
370
    -2
100
AcDbLine
 10
-46.13620497419828
 20
477.6176662535117
 30
0.0
 11
-56.72490655378209
 21
477.6176662535117
 31
0.0
  0
LINE
  5
AD
330
A9
100
AcDbEntity
  8
BEMASSUNG
  6
Continuous
 62
     2
440
 16777216
370
    -2
100
AcDbLine
 10
-55.72490655378209
 20
468.6176662535118
 30
0.0
 11
-55.72490655378209
 21
473.6176662535117
 31
0.0
  0
SOLID
  5
AE
330
A9
100
AcDbEntity
  8
BEMASSUNG
  6
Continuous
 62
     2
440
 16777216
100
AcDbTrace
 10
-56.39157322044876
 20
468.6176662535118
 30
0.0
 11
-55.05823988711543
 21
468.6176662535118
 31
0.0
 12
-55.72490655378209
 22
464.6176662535118
 32
0.0
 13
-55.72490655378209
 23
464.6176662535118
 33
0.0
  0
SOLID
  5
AF
330
A9
100
AcDbEntity
  8
BEMASSUNG
  6
Continuous
 62
     2
440
 16777216
100
AcDbTrace
 10
-56.39157322044876
 20
473.6176662535117
 30
0.0
 11
-55.05823988711543
 21
473.6176662535117
 31
0.0
 12
-55.72490655378209
 22
477.6176662535117
 32
0.0
 13
-55.72490655378209
 23
477.6176662535117
 33
0.0
  0
MTEXT
  5
B0
330
A9
100
AcDbEntity
  8
BEMASSUNG
  6
Continuous
 62
     3
440
 16777216
100
AcDbMText
 10
-58.94738267929376
 20
471.1176662535118
 30
0.0
 40
4.349999999999999
 41
0.0
 46
0.0
 71
     5
 72
     1
  1
\A1;13
  7
ARIAL-STANDARD
 11
0.0000000000000001
 21
1.0
 31
0.0
 73
     1
 44
1.0
  0
POINT
  5
B1
330
A9
100
AcDbEntity
  8
DEFPOINTS
  6
Continuous
 62
     0
440
 16777216
100
AcDbPoint
 10
-40.88620497419753
 20
464.6176662535118
 30
0.0
  0
POINT
  5
B2
330
A9
100
AcDbEntity
  8
DEFPOINTS
  6
Continuous
 62
     0
440
 16777216
100
AcDbPoint
 10
-46.13620497419828
 20
477.6176662535117
 30
0.0
  0
POINT
  5
B3
330
A9
100
AcDbEntity
  8
DEFPOINTS
  6
Continuous
 62
     0
440
 16777216
100
AcDbPoint
 10
-55.72490655378209
 20
477.6176662535117
 30
0.0
  0
ENDBLK
  5
B4
330
A9
100
AcDbEntity
  8
0
100
AcDbBlockEnd
  0
BLOCK
  5
93
330
92
100
AcDbEntity
  8
0
100
AcDbBlockBegin
  2
*D20
 70
     1
 10
0.0
 20
0.0
 30
0.0
  3
*D20
  1

  0
LINE
  5
94
330
92
100
AcDbEntity
  8
BEMASSUNG
  6
Continuous
 62
     2
440
 16777216
370
    -2
100
AcDbLine
 10
-172.5025285537395
 20
421.1176662535118
 30
0.0
 11
-208.3089952123788
 21
421.1176662535118
 31
0.0
  0
LINE
  5
95
330
92
100
AcDbEntity
  8
BEMASSUNG
  6
Continuous
 62
     2
440
 16777216
370
    -2
100
AcDbLine
 10
-161.1682292189576
 20
477.6176662535117
 30
0.0
 11
-208.3089952123787
 21
477.6176662535117
 31
0.0
  0
LINE
  5
96
330
92
100
AcDbEntity
  8
BEMASSUNG
  6
Continuous
 62
     2
440
 16777216
370
    -2
100
AcDbLine
 10
-207.3089952123787
 20
425.1176662535118
 30
0.0
 11
-207.3089952123787
 21
473.6176662535117
 31
0.0
  0
SOLID
  5
97
330
92
100
AcDbEntity
  8
BEMASSUNG
  6
Continuous
 62
     2
440
 16777216
100
AcDbTrace
 10
-207.9756618790454
 20
425.1176662535118
 30
0.0
 11
-206.6423285457121
 21
425.1176662535118
 31
0.0
 12
-207.3089952123787
 22
421.1176662535118
 32
0.0
 13
-207.3089952123787
 23
421.1176662535118
 33
0.0
  0
SOLID
  5
98
330
92
100
AcDbEntity
  8
BEMASSUNG
  6
Continuous
 62
     2
440
 16777216
100
AcDbTrace
 10
-207.9756618790454
 20
473.6176662535117
 30
0.0
 11
-206.642328545712
 21
473.6176662535117
 31
0.0
 12
-207.3089952123787
 22
477.6176662535117
 32
0.0
 13
-207.3089952123787
 23
477.6176662535117
 33
0.0
  0
MTEXT
  5
99
330
92
100
AcDbEntity
  8
BEMASSUNG
  6
Continuous
 62
     3
440
 16777216
100
AcDbMText
 10
-210.5299877089681
 20
449.3676662535117
 30
0.0
 40
4.349999999999999
 41
0.0
 46
0.0
 71
     5
 72
     1
  1
\A1;56.5
  7
ARIAL-STANDARD
 11
0.0000000000000001
 21
1.0
 31
0.0
 73
     1
 44
1.0
  0
POINT
  5
9A
330
92
100
AcDbEntity
  8
DEFPOINTS
  6
Continuous
 62
     0
440
 16777216
100
AcDbPoint
 10
-172.5025285537395
 20
421.1176662535118
 30
0.0
  0
POINT
  5
9B
330
92
100
AcDbEntity
  8
DEFPOINTS
  6
Continuous
 62
     0
440
 16777216
100
AcDbPoint
 10
-161.1682292189576
 20
477.6176662535117
 30
0.0
  0
POINT
  5
9C
330
92
100
AcDbEntity
  8
DEFPOINTS
  6
Continuous
 62
     0
440
 16777216
100
AcDbPoint
 10
-207.3089952123787
 20
477.6176662535117
 30
0.0
  0
ENDBLK
  5
9D
330
92
100
AcDbEntity
  8
0
100
AcDbBlockEnd
  0
BLOCK
  5
75
330
74
100
AcDbEntity
  8
0
100
AcDbBlockBegin
  2
*D21
 70
     1
 10
0.0
 20
0.0
 30
0.0
  3
*D21
  1

  0
LINE
  5
76
330
74
100
AcDbEntity
  8
ACHSEN
 62
     2
440
 16777216
370
    -2
100
AcDbLine
 10
-161.1682292189576
 20
169.9759418207308
 30
0.0
 11
-161.1682292189576
 21
179.1721492039224
 31
0.0
  0
LINE
  5
77
330
74
100
AcDbEntity
  8
ACHSEN
 62
     2
440
 16777216
370
    -2
100
AcDbLine
 10
-158.1682292186725
 20
169.9759418207308
 30
0.0
 11
-158.1682292186725
 21
179.1721492039224
 31
0.0
  0
LINE
  5
78
330
74
100
AcDbEntity
  8
ACHSEN
 62
     2
440
 16777216
370
    -2
100
AcDbLine
 10
-165.1682292189576
 20
178.1721492039224
 30
0.0
 11
-169.1682292189576
 21
178.1721492039224
 31
0.0
  0
LINE
  5
79
330
74
100
AcDbEntity
  8
ACHSEN
 62
     2
440
 16777216
370
    -2
100
AcDbLine
 10
-154.1682292186725
 20
178.1721492039224
 30
0.0
 11
-150.1682292186725
 21
178.1721492039224
 31
0.0
  0
LINE
  5
7A
330
74
100
AcDbEntity
  8
ACHSEN
 62
     2
440
 16777216
370
    -2
100
AcDbLine
 10
-161.1682292189576
 20
178.1721492039224
 30
0.0
 11
-158.1682292186725
 21
178.1721492039224
 31
0.0
  0
SOLID
  5
7B
330
74
100
AcDbEntity
  8
ACHSEN
 62
     2
440
 16777216
100
AcDbTrace
 10
-165.1682292189576
 20
178.8388158705891
 30
0.0
 11
-165.1682292189576
 21
177.5054825372558
 31
0.0
 12
-161.1682292189576
 22
178.1721492039224
 32
0.0
 13
-161.1682292189576
 23
178.1721492039224
 33
0.0
  0
SOLID
  5
7C
330
74
100
AcDbEntity
  8
ACHSEN
 62
     2
440
 16777216
100
AcDbTrace
 10
-154.1682292186725
 20
178.8388158705891
 30
0.0
 11
-154.1682292186725
 21
177.5054825372558
 31
0.0
 12
-158.1682292186725
 22
178.1721492039224
 32
0.0
 13
-158.1682292186725
 23
178.1721492039224
 33
0.0
  0
MTEXT
  5
7D
330
74
100
AcDbEntity
  8
ACHSEN
 62
     3
440
 16777216
100
AcDbMText
 10
-159.6682292188151
 20
181.394625329434
 30
0.0
 40
4.349999999999999
 41
0.0
 46
0.0
 71
     5
 72
     1
  1
\A1;3
  7
ARIAL-STANDARD
 73
     1
 44
1.0
  0
POINT
  5
7E
330
74
100
AcDbEntity
  8
DEFPOINTS
 62
     0
440
 16777216
100
AcDbPoint
 10
-161.1682292189576
 20
169.9759418207308
 30
0.0
  0
POINT
  5
80
330
74
100
AcDbEntity
  8
DEFPOINTS
 62
     0
440
 16777216
100
AcDbPoint
 10
-158.1682292186725
 20
169.9759418207308
 30
0.0
  0
POINT
  5
81
330
74
100
AcDbEntity
  8
DEFPOINTS
 62
     0
440
 16777216
100
AcDbPoint
 10
-158.1682292186725
 20
178.1721492039224
 30
0.0
  0
ENDBLK
  5
82
330
74
100
AcDbEntity
  8
0
100
AcDbBlockEnd
  0
BLOCK
  5
779
330
778
100
AcDbEntity
  8
0
100
AcDbBlockBegin
  2
_ACMFILLED15
 70
     0
 10
0.0
 20
0.0
 30
0.0
  3
_ACMFILLED15
  1

  0
TRACE
  5
77A
330
778
100
AcDbEntity
  8
ACHSEN
 62
     0
100
AcDbTrace
 10
-1.0
 20
-0.131652497
 30
0.0
 11
-1.0
 21
0.131652497
 31
0.0
 12
0.0
 22
0.0
 32
0.0
 13
0.0
 23
0.0
 33
0.0
  0
ENDBLK
  5
77B
330
778
100
AcDbEntity
  8
0
100
AcDbBlockEnd
  0
BLOCK
  5
787
330
786
100
AcDbEntity
  8
0
100
AcDbBlockBegin
  2
_ACMFILLED30
 70
     0
 10
0.0
 20
0.0
 30
0.0
  3
_ACMFILLED30
  1

  0
TRACE
  5
788
330
786
100
AcDbEntity
  8
ACHSEN
 62
     0
100
AcDbTrace
 10
-1.0
 20
-0.26794919
 30
0.0
 11
-1.0
 21
0.26794919
 31
0.0
 12
0.0
 22
0.0
 32
0.0
 13
0.0
 23
0.0
 33
0.0
  0
ENDBLK
  5
789
330
786
100
AcDbEntity
  8
0
100
AcDbBlockEnd
  0
ENDSEC
  0
SECTION
  2
ENTITIES
  0
MTEXT
  5
6F
330
2
100
AcDbEntity
  8
TEXT03
100
AcDbMText
 10
-198.7458158648055
 20
532.9985927372973
 30
0.0
 40
12.0
 41
322.7866368530026
 46
0.0
 71
     1
 72
     5
  1
DELTA 19424 Flachstulp
  7
ARIAL-STANDARD
 73
     1
 44
1.0
1001
ACAD
1000
ACAD_MTEXT_COLUMN_INFO_BEGIN
1070
    75
1070
     2
1070
    79
1070
     0
1070
    76
1070
     1
1070
    78
1070
     0
1070
    48
1040
322.7866368530026
1070
    49
1040
50.0
1070
    50
1070
     1
1040
0.0
1000
ACAD_MTEXT_COLUMN_INFO_END
  0
DIMENSION
  5
73
330
2
100
AcDbEntity
  8
ACHSEN
100
AcDbDimension
280
     0
  2
*D21
 10
-158.1682292186725
 20
178.1721492039224
 30
0.0
 11
-159.6682292188151
 21
181.394625329434
 31
0.0
 71
     5
 42
3.000000000285126
 73
     0
 74
     0
 75
     0
  3
Katalog 09
100
AcDbAlignedDimension
 13
-161.1682292189576
 23
169.9759418207308
 33
0.0
 14
-158.1682292186725
 24
169.9759418207308
 34
0.0
100
AcDbRotatedDimension
  0
ARC
  5
83
330
2
100
AcDbEntity
  8
LAYER3
100
AcDbCircle
 10
-159.6682292188151
 20
148.9759418209303
 30
0.0
 40
1.500000000142563
100
AcDbArc
 50
180.0
 51
0.0
1001
GENIUS_GENOBJ-N-FIL_13
1002
{
1000
OWNER
1000
GEN
1002
}
1001
GENIUS_GENODEF_13
1002
{
1000
HIER
1070
     0
1002
}
1002
{
1000
MANEDIT
1070
     0
1002
}
1002
{
1000
NOSEL
1070
     0
1002
}
1002
{
1000
BEHIND
1070
     0
1002
}
1002
{
1000
OTHER
1070
     0
1002
}
1002
{
1000
REACTOR
1002
}
  0
LINE
  5
89
330
2
100
AcDbEntity
  8
LAYER3
100
AcDbLine
 10
-161.1682292189576
 20
169.9759418207308
 30
0.0
 11
-161.1682292189576
 21
148.9759418209303
 31
0.0
  0
LINE
  5
8A
330
2
100
AcDbEntity
  8
UMRISS05
100
AcDbLine
 10
-158.1682292189571
 20
477.6176662535117
 30
0.0
 11
-158.1682292189571
 21
207.6176662535118
 31
0.0
  0
DIMENSION
  5
8E
330
2
100
AcDbEntity
  8
BEMASSUNG
  6
Continuous
100
AcDbDimension
280
     0
  2
*D20
 10
-207.3089952123787
 20
477.6176662535117
 30
0.0
 11
-210.5299877089681
 21
449.3676662535117
 31
0.0
 71
     5
 42
56.5
 73
     0
 74
     0
 75
     0
  3
Katalog 09
100
AcDbAlignedDimension
 13
-172.5025285537395
 23
421.1176662535118
 33
0.0
 14
-161.1682292189576
 24
477.6176662535117
 34
0.0
 50
90.0
100
AcDbRotatedDimension
  0
LWPOLYLINE
  5
9E
330
2
100
AcDbEntity
  8
UMRISS03
100
AcDbPolyline
 90
        6
 70
     1
 43
0.0
 10
-35.05223037798035
 20
382.6176662535118
 10
-35.91825578176488
 20
381.1176662535117
 10
-35.05223037798035
 20
379.6176662535117
 10
-33.32017957041174
 20
379.6176662535117
 10
-32.45415416662721
 20
381.1176662535117
 10
-33.32017957041174
 20
382.6176662535118
  0
LINE
  5
A2
330
2
100
AcDbEntity
  8
ACHSEN
100
AcDbLine
 10
-34.13620497419754
 20
471.3676662535118
 30
0.0
 11
-34.13620497419754
 21
457.8676662535118
 31
0.0
  0
LINE
  5
A3
330
2
100
AcDbEntity
  8
ACHSEN
100
AcDbLine
 10
-40.88620497419753
 20
464.6176662535118
 30
0.0
 11
-27.38620497419754
 21
464.6176662535118
 31
0.0
  0
LINE
  5
A4
330
2
100
AcDbEntity
  8
ACHSEN
100
AcDbLine
 10
-34.13620497419834
 20
257.3676662535118
 30
0.0
 11
-34.13620497419834
 21
243.8676662535118
 31
0.0
  0
LINE
  5
A5
330
2
100
AcDbEntity
  8
ACHSEN
100
AcDbLine
 10
-40.88620497419833
 20
250.6176662535118
 30
0.0
 11
-27.38620497419834
 21
250.6176662535118
 31
0.0
  0
LINE
  5
A6
330
2
100
AcDbEntity
  8
ACHSEN
100
AcDbLine
 10
-34.13620497419834
 20
227.3676662535118
 30
0.0
 11
-34.13620497419834
 21
213.8676662535118
 31
0.0
  0
LINE
  5
A7
330
2
100
AcDbEntity
  8
ACHSEN
100
AcDbLine
 10
-40.88620497419833
 20
220.6176662535118
 30
0.0
 11
-27.38620497419834
 21
220.6176662535118
 31
0.0
  0
DIMENSION
  5
A8
330
2
100
AcDbEntity
  8
BEMASSUNG
  6
Continuous
100
AcDbDimension
280
     0
  2
*D19
 10
-55.72490655378209
 20
477.6176662535117
 30
0.0
 11
-58.94738267929376
 21
471.1176662535118
 31
0.0
 71
     5
 42
12.99999999999994
 73
     0
 74
     0
 75
     0
  3
Katalog 09
100
AcDbAlignedDimension
 13
-40.88620497419753
 23
464.6176662535118
 33
0.0
 14
-46.13620497419828
 24
477.6176662535117
 34
0.0
 50
90.0
100
AcDbRotatedDimension
  0
DIMENSION
  5
B5
330
2
100
AcDbEntity
  8
BEMASSUNG
  6
Continuous
100
AcDbDimension
280
     0
  2
*D18
 10
-30.13620497419732
 20
339.3631276169412
 30
0.0
 11
-34.13620497420071
 21
342.5841201135306
 31
0.0
 71
     5
 42
8.000000000006792
 73
     0
 74
     0
 75
     0
  3
Katalog 09
100
AcDbAlignedDimension
 13
-38.13620497420411
 23
322.6176662535118
 33
0.0
 14
-30.13620497419732
 24
322.6176662535114
 34
0.0
100
AcDbRotatedDimension
  0
DIMENSION
  5
C4
330
2
100
AcDbEntity
  8
BEMASSUNG
  6
Continuous
100
AcDbDimension
280
     0
  2
*D17
 10
-27.23620497419819
 20
438.0687860006965
 30
0.0
 11
-34.13620497419805
 21
441.2912621262081
 31
0.0
 71
     5
 42
13.79999999999973
 73
     0
 74
     0
 75
     0
  3
Katalog 09
100
AcDbAlignedDimension
 13
-41.03620497419791
 23
403.9676662535115
 33
0.0
 14
-27.23620497419819
 24
403.9676662535115
 34
0.0
100
AcDbRotatedDimension
  0
DIMENSION
  5
D1
330
2
100
AcDbEntity
  8
BEMASSUNG
  6
Continuous
100
AcDbDimension
280
     0
  2
*D16
 10
-22.13620497419828
 20
184.0634060868663
 30
0.0
 11
-34.13620497419828
 21
187.2473078603997
 31
0.0
 71
     5
 42
24.0
 73
     0
 74
     0
 75
     0
  3
Katalog 09
100
AcDbAlignedDimension
 13
-46.13620497419828
 23
207.6176662535118
 33
0.0
 14
-22.13620497419828
 24
207.6176662535118
 34
0.0
100
AcDbRotatedDimension
  0
DIMENSION
  5
DE
330
2
100
AcDbEntity
  8
BEMASSUNG
  6
Continuous
100
AcDbDimension
280
     0
  2
*D15
 10
-103.0148460934801
 20
167.8259418207171
 30
0.0
 11
-106.2358385900695
 21
158.9259418207174
 31
0.0
 71
     5
 42
17.79999999999947
 73
     0
 74
     0
 75
     0
  3
Katalog 09
100
AcDbAlignedDimension
 13
-115.6682292189576
 23
150.0259418207177
 33
0.0
 14
-115.6682292189576
 24
167.8259418207171
 34
0.0
 50
90.0
100
AcDbRotatedDimension
  0
DIMENSION
  5
EB
330
2
100
AcDbEntity
  8
BEMASSUNG
  6
Continuous
100
AcDbDimension
280
     0
  2
*D14
 10
-4.677173148033887
 20
477.6176662535117
 30
0.0
 11
-7.898165644623329
 21
342.6176662535118
 31
0.0
 71
     5
 42
270.0
 73
     0
 74
     0
 75
     0
  3
Katalog 09
100
AcDbAlignedDimension
 13
-22.13620497419828
 23
207.6176662535118
 33
0.0
 14
-22.13620497419788
 24
477.6176662535117
 34
0.0
 50
90.0
100
AcDbRotatedDimension
  0
DIMENSION
  5
F8
330
2
100
AcDbEntity
  8
BEMASSUNG
  6
Continuous
100
AcDbDimension
280
     0
  2
*D13
 10
-55.72490655378209
 20
220.6176662535118
 30
0.0
 11
-58.94738267929373
 21
214.1176662535118
 31
0.0
 71
     5
 42
13.0
 73
     0
 74
     0
 75
     0
  3
Katalog 09
100
AcDbAlignedDimension
 13
-46.13620497419828
 23
207.6176662535118
 33
0.0
 14
-40.88620497419833
 24
220.6176662535118
 34
0.0
 50
90.0
100
AcDbRotatedDimension
  0
LINE
  5
105
330
2
100
AcDbEntity
  8
ACHSEN
100
AcDbLine
 10
-124.1682292189576
 20
340.6176662535119
 30
0.0
 11
-138.1682292189576
 21
340.6176662535119
 31
0.0
  0
LINE
  5
106
330
2
100
AcDbEntity
  8
ACHSEN
100
AcDbLine
 10
-155.1682292189576
 20
464.6176662535117
 30
0.0
 11
-164.1682292189576
 21
464.6176662535117
 31
0.0
  0
LINE
  5
107
330
2
100
AcDbEntity
  8
ACHSEN
100
AcDbLine
 10
-117.1682292189576
 20
268.1176662535118
 30
0.0
 11
-144.951206539605
 21
268.1176662535118
 31
0.0
  0
LINE
  5
108
330
2
100
AcDbEntity
  8
ACHSEN
100
AcDbLine
 10
-117.1682292189576
 20
270.1176662535118
 30
0.0
 11
-144.951206539605
 21
270.1176662535118
 31
0.0
  0
LINE
  5
109
330
2
100
AcDbEntity
  8
ACHSEN
100
AcDbLine
 10
-126.0682292189576
 20
250.1176662535118
 30
0.0
 11
-126.0682292189576
 21
263.1930724026066
 31
0.0
  0
LINE
  5
10A
330
2
100
AcDbEntity
  8
ACHSEN
100
AcDbLine
 10
-136.2682292189575
 20
250.1176662535118
 30
0.0
 11
-136.2682292189575
 21
263.1930724026066
 31
0.0
  0
LINE
  5
10B
330
2
100
AcDbEntity
  8
ACHSEN
100
AcDbLine
 10
-124.1682292189576
 20
248.917666253512
 30
0.0
 11
-138.1682292189576
 21
248.917666253512
 31
0.0
  0
ARC
  5
10C
330
2
100
AcDbEntity
  8
ACHSEN
100
AcDbCircle
 10
-131.1682292189576
 20
250.1176662535118
 30
0.0
 40
5.099999999999999
100
AcDbArc
 50
180.0
 51
0.0
  0
ARC
  5
10D
330
2
100
AcDbEntity
  8
ACHSEN
100
AcDbCircle
 10
-131.1682292189576
 20
270.1176662535118
 30
0.0
 40
8.599999999999999
100
AcDbArc
 50
306.3718424099368
 51
233.6281575900632
  0
DIMENSION
  5
10E
330
2
100
AcDbEntity
  8
BEMASSUNG
  6
Continuous
100
AcDbDimension
280
     0
  2
*D12
 10
-161.1682292189576
 20
272.2795535476003
 30
0.0
 11
-171.1682292189575
 21
275.5005460441897
 31
0.0
 71
     5
 42
19.99999999999991
 73
     0
 74
     0
 75
     0
  3
Katalog 09
100
AcDbAlignedDimension
 13
-181.1682292189575
 23
289.117666253512
 33
0.0
 14
-161.1682292189576
 24
272.6987076227272
 34
0.0
100
AcDbRotatedDimension
  0
LINE
  5
11B
330
2
100
AcDbEntity
  8
ACHSEN
100
AcDbLine
 10
-155.1682292189576
 20
250.617666253512
 30
0.0
 11
-164.1682292189576
 21
250.617666253512
 31
0.0
  0
DIMENSION
  5
11C
330
2
100
AcDbEntity
  8
BEMASSUNG
  6
Continuous
100
AcDbDimension
280
     0
  2
*D11
 10
-192.2882292189575
 20
288.6176662535117
 30
0.0
 11
-195.5092217155469
 21
265.6176662535117
 31
0.0
 71
     5
 42
45.99999999999986
 73
     0
 74
     0
 75
     0
  3
Katalog 09
100
AcDbAlignedDimension
 13
-158.1682292189576
 23
242.6176662535118
 33
0.0
 14
-180.1682292189575
 24
288.6176662535117
 34
0.0
 50
90.0
100
AcDbRotatedDimension
  0
DIMENSION
  5
129
330
2
100
AcDbEntity
  8
BEMASSUNG
  6
Continuous
100
AcDbDimension
280
     0
  2
*D10
 10
-207.3798397578971
 20
323.6176662535118
 30
0.0
 11
-210.6023158834087
 21
306.1176662535117
 31
0.0
  1
35
 71
     5
 42
35.00000000000011
 73
     0
 74
     0
 75
     0
  3
Katalog 09
100
AcDbAlignedDimension
 13
-180.1682292189575
 23
288.6176662535117
 33
0.0
 14
-180.1682292189575
 24
323.6176662535118
 34
0.0
 50
90.0
100
AcDbRotatedDimension
  0
DIMENSION
  5
136
330
2
100
AcDbEntity
  8
BEMASSUNG
  6
Continuous
100
AcDbDimension
280
     0
  2
*D9
 10
-207.3798397578971
 20
391.1176662535119
 30
0.0
 11
-210.6008322544865
 21
357.3676662535117
 31
0.0
 71
     5
 42
67.50000000000006
 73
     0
 74
     0
 75
     0
  3
Katalog 09
100
AcDbAlignedDimension
 13
-180.1682292189575
 23
323.6176662535118
 33
0.0
 14
-172.5025285537395
 24
391.1176662535119
 34
0.0
 50
90.0
100
AcDbRotatedDimension
  0
LINE
  5
143
330
2
100
AcDbEntity
  8
ACHSEN
100
AcDbLine
 10
-131.1682292189576
 20
240.8036100165502
 30
0.0
 11
-131.1682292189576
 21
439.1176662535118
 31
0.0
  0
DIMENSION
  5
144
330
2
100
AcDbEntity
  8
BEMASSUNG
  6
Continuous
100
AcDbDimension
280
     0
  2
*D8
 10
-207.3798397578971
 20
421.1176662535118
 30
0.0
 11
-210.6023158834087
 21
406.1176662535117
 31
0.0
  1
30
 71
     5
 42
29.99999999999995
 73
     0
 74
     0
 75
     0
  3
Katalog 09
100
AcDbAlignedDimension
 13
-172.5025285537395
 23
391.1176662535119
 33
0.0
 14
-171.9682292189575
 24
421.1176662535118
 34
0.0
 50
90.0
100
AcDbRotatedDimension
  0
DIMENSION
  5
151
330
2
100
AcDbEntity
  8
BEMASSUNG
  6
Continuous
100
AcDbDimension
280
     0
  2
*D7
 10
-161.1682292189576
 20
426.1127295349888
 30
0.0
 11
-167.9103788863486
 21
429.9806575158008
 31
0.0
 70
   128
 71
     5
 42
13.48429933478198
 73
     0
 74
     0
 75
     0
  3
Katalog 09
100
AcDbAlignedDimension
 13
-174.6525285537396
 23
406.1176662535117
 33
0.0
 14
-161.1682292189576
 24
427.0724691921605
 34
0.0
100
AcDbRotatedDimension
1001
ACAD_DSTYLE_DIMINSPECT
1070
   396
1000
100%
1070
   395
1000

1070
   394
1070
    33
1070
   393
1070
     0
1001
ACAD
1000
DSTYLE
1002
{
1070
   271
1070
     1
1002
}
  0
DIMENSION
  5
15F
330
2
100
AcDbEntity
  8
BEMASSUNG
  6
Continuous
100
AcDbDimension
280
     0
  2
*D6
 10
-79.94141985403581
 20
442.6176662535117
 30
0.0
 11
-83.16241235062525
 21
342.6176662535117
 31
0.0
 71
     5
 42
200.0
 73
     0
 74
     0
 75
     0
  3
Katalog 09
100
AcDbAlignedDimension
 13
-115.6682292189576
 23
242.6176662535118
 33
0.0
 14
-137.6682292189576
 24
442.6176662535118
 34
0.0
 50
90.0
100
AcDbRotatedDimension
  0
DIMENSION
  5
16C
330
2
100
AcDbEntity
  8
BEMASSUNG
  6
Continuous
100
AcDbDimension
280
     0
  2
*D5
 10
-102.8189450655434
 20
268.1176662535118
 30
0.0
 11
-106.0399375621328
 21
255.3676662535118
 31
0.0
  1
RZ <> 
 71
     5
 42
25.50000000000003
 73
     0
 74
     0
 75
     0
  3
Katalog 09
100
AcDbAlignedDimension
 13
-115.6682292189576
 23
242.6176662535118
 33
0.0
 14
-117.1682292189576
 24
268.1176662535118
 34
0.0
 50
90.0
100
AcDbRotatedDimension
1001
ACAD_DSTYLE_DIMINSPECT
1070
   396
1000
100%
1070
   395
1000

1070
   394
1070
    33
1070
   393
1070
     0
  0
DIMENSION
  5
179
330
2
100
AcDbEntity
  8
BEMASSUNG
  6
Continuous
100
AcDbDimension
280
     0
  2
*D4
 10
-90.02906689007415
 20
270.1176662535118
 30
0.0
 11
-93.25005938666356
 21
256.3676662535118
 31
0.0
  1
PZ <> 
 71
     5
 42
27.50000000000003
 73
     0
 74
     0
 75
     0
  3
Katalog 09
100
AcDbAlignedDimension
 13
-115.6682292189576
 23
242.6176662535118
 33
0.0
 14
-117.1682292189576
 24
270.1176662535118
 34
0.0
 50
90.0
100
AcDbRotatedDimension
1001
ACAD_DSTYLE_DIMINSPECT
1070
   396
1000
100%
1070
   395
1000

1070
   394
1070
    33
1070
   393
1070
     0
  0
LINE
  5
186
330
2
100
AcDbEntity
  8
ACHSEN
100
AcDbLine
 10
-155.1682292189576
 20
220.6176662535038
 30
0.0
 11
-164.1682292189576
 21
220.6176662535038
 31
0.0
  0
DIMENSION
  5
187
330
2
100
AcDbEntity
  8
BEMASSUNG
  6
Continuous
100
AcDbDimension
280
     0
  2
*D3
 10
-131.1682292189576
 20
195.5743014081927
 30
0.0
 11
-146.1682292189576
 21
198.7493014081927
 31
0.0
  1
DM
 71
     5
 42
30.0
 73
     0
 74
     0
 75
     0
  3
Katalog 09
100
AcDbAlignedDimension
 13
-161.1682292189576
 23
207.6176662535118
 33
0.0
 14
-131.1682292189576
 24
240.8036100165502
 34
0.0
100
AcDbRotatedDimension
  0
DIMENSION
  5
194
330
2
100
AcDbEntity
  8
BEMASSUNG
  6
Continuous
100
AcDbDimension
280
     0
  2
*D2
 10
-115.6682292189576
 20
195.5743014081927
 30
0.0
 11
-123.4182292189576
 21
198.7952939047821
 31
0.0
 71
     5
 42
15.5
 73
     0
 74
     0
 75
     0
  3
Katalog 09
100
AcDbAlignedDimension
 13
-131.1682292189576
 23
233.1176662535119
 33
0.0
 14
-115.6682292189576
 24
242.6176662535118
 34
0.0
100
AcDbRotatedDimension
  0
DIMENSION
  5
1A1
330
2
100
AcDbEntity
  8
BEMASSUNG
  6
Continuous
100
AcDbDimension
280
     0
  2
*D1
 10
-192.2882292189575
 20
242.6176662535119
 30
0.0
 11
-195.5107053444691
 21
225.1176662535118
 31
0.0
 71
     5
 42
35.00000000000003
 73
     0
 74
     0
 75
     0
  3
Katalog 09
100
AcDbAlignedDimension
 13
-161.1682292189576
 23
207.6176662535118
 33
0.0
 14
-158.1682292189571
 24
242.6176662535118
 34
0.0
 50
90.0
100
AcDbRotatedDimension
  0
DIMENSION
  5
1AE
330
2
100
AcDbEntity
  8
BEMASSUNG
  6
Continuous
100
AcDbDimension
280
     0
  2
*D0
 10
-207.3798397578971
 20
288.6176662535117
 30
0.0
 11
-210.6008322544865
 21
248.1176662535117
 31
0.0
 71
     5
 42
80.99999999999985
 73
     0
 74
     0
 75
     0
  3
Katalog 09
100
AcDbAlignedDimension
 13
-161.1682292189576
 23
207.6176662535118
 33
0.0
 14
-180.1682292189575
 24
288.6176662535117
 34
0.0
 50
90.0
100
AcDbRotatedDimension
  0
LINE
  5
1BB
330
2
100
AcDbEntity
  8
LAYER3
100
AcDbLine
 10
-181.1682292189575
 20
161.9259418206849
 30
0.0
 11
-181.1682292189575
 21
155.9259418206849
 31
0.0
  0
ARC
  5
1BC
330
2
100
AcDbEntity
  8
LAYER3
100
AcDbCircle
 10
-180.1682292189575
 20
155.9259418206849
 30
0.0
 40
0.9999999999999964
100
AcDbArc
 50
180.0
 51
270.0
  0
ARC
  5
1BD
330
2
100
AcDbEntity
  8
LAYER3
100
AcDbCircle
 10
-180.1682292189575
 20
161.9259418206849
 30
0.0
 40
0.9999999999999989
100
AcDbArc
 50
90.0
 51
180.0
  0
LINE
  5
1BE
330
2
100
AcDbEntity
  8
LAYER3
100
AcDbLine
 10
-180.1682292189575
 20
154.9259418206849
 30
0.0
 11
-173.3748056724878
 21
154.9259418206849
 31
0.0
  0
LINE
  5
1BF
330
2
100
AcDbEntity
  8
LAYER3
100
AcDbLine
 10
-173.3748056724878
 20
162.9259418206849
 30
0.0
 11
-180.1682292189575
 21
162.9259418206849
 31
0.0
  0
CIRCLE
  5
1C0
330
2
100
AcDbEntity
  8
LAYER3
100
AcDbCircle
 10
-167.7525285537396
 20
158.9259418207141
 30
0.0
 40
2.0
  0
LINE
  5
1C1
330
2
100
AcDbEntity
  8
LAYER3
100
AcDbLine
 10
-167.7525285537396
 20
154.1759418207141
 30
0.0
 11
-161.1682292189576
 21
154.1759418207141
 31
0.0
  0
ARC
  5
1C2
330
2
100
AcDbEntity
  8
LAYER3
100
AcDbCircle
 10
-167.7525285537395
 20
158.9259418207141
 30
0.0
 40
4.75
100
AcDbArc
 50
90.0
 51
270.0
  0
LINE
  5
1C3
330
2
100
AcDbEntity
  8
LAYER3
100
AcDbLine
 10
-161.1682292189576
 20
163.6759418207141
 30
0.0
 11
-167.7525285537395
 21
163.6759418207141
 31
0.0
  0
LINE
  5
1C4
330
2
100
AcDbEntity
  8
LAYER3
100
AcDbLine
 10
-139.2542678462717
 20
152.0259418207141
 30
0.0
 11
-139.6682292189576
 21
152.0259418207141
 31
0.0
  0
LINE
  5
1C5
330
2
100
AcDbEntity
  8
LAYER3
100
AcDbLine
 10
-139.6682292189576
 20
163.8259418207134
 30
0.0
 11
-139.2542678462717
 21
163.8259418207134
 31
0.0
  0
ARC
  5
1C6
330
2
100
AcDbEntity
  8
LAYER3
100
AcDbCircle
 10
-167.7525285537396
 20
158.9259418207097
 30
0.0
 40
6.899999999999989
100
AcDbArc
 50
43.50404600567255
 51
316.4959539943274
  0
LINE
  5
1C7
330
2
100
AcDbEntity
  8
LAYER3
100
AcDbLine
 10
-122.7682292189576
 20
150.0259418207177
 30
0.0
 11
-122.7682292189576
 21
151.7759418207177
 31
0.0
  0
LINE
  5
1C8
330
2
100
AcDbEntity
  8
LAYER3
100
AcDbLine
 10
-115.6682292189576
 20
151.7759418207177
 30
0.0
 11
-115.6682292189576
 21
150.0259418207177
 31
0.0
  0
LINE
  5
1C9
330
2
100
AcDbEntity
  8
LAYER3
100
AcDbLine
 10
-118.5682292189576
 20
150.0259418207177
 30
0.0
 11
-118.5682292189576
 21
151.7759418207177
 31
0.0
  0
LINE
  5
1CA
330
2
100
AcDbEntity
  8
LAYER3
100
AcDbLine
 10
-118.5682292189576
 20
151.7759418207177
 30
0.0
 11
-115.6682292189576
 21
151.7759418207177
 31
0.0
  0
LINE
  5
1CB
330
2
100
AcDbEntity
  8
LAYER3
100
AcDbLine
 10
-130.8297267575447
 20
151.7759418207177
 30
0.0
 11
-122.7682292189576
 21
151.7759418207177
 31
0.0
  0
LINE
  5
1CC
330
2
100
AcDbEntity
  8
LAYER3
100
AcDbLine
 10
-130.8297267575447
 20
150.0259418207177
 30
0.0
 11
-122.7682292189576
 21
150.0259418207177
 31
0.0
  0
LINE
  5
1CD
330
2
100
AcDbEntity
  8
LAYER3
100
AcDbLine
 10
-118.5682292189576
 20
150.0259418207171
 30
0.0
 11
-119.6682292189576
 21
150.0259418207171
 31
0.0
  0
LINE
  5
1CE
330
2
100
AcDbEntity
  8
LAYER3
100
AcDbLine
 10
-115.6682292189576
 20
150.0259418207177
 30
0.0
 11
-118.5682292189576
 21
150.0259418207177
 31
0.0
  0
LINE
  5
1CF
330
2
100
AcDbEntity
  8
LAYER3
100
AcDbLine
 10
-157.9682292189576
 20
151.7759418207205
 30
0.0
 11
-158.1682292189576
 21
151.7759418207205
 31
0.0
  0
LINE
  5
1D0
330
2
100
AcDbEntity
  8
LAYER3
100
AcDbLine
 10
-158.1682292189576
 20
150.0259418207205
 30
0.0
 11
-139.599140577142
 21
150.0259418207205
 31
0.0
  0
ELLIPSE
  5
1D1
330
2
100
AcDbEntity
  8
LAYER3
100
AcDbEllipse
 10
-139.599140577142
 20
151.7759418207205
 30
0.0
 11
-1.930911358184373
 21
0.0000000000000014
 31
0.0
210
0.0
220
0.0
230
1.0
 40
0.9063077870366434
 41
1.570796326794897
 42
3.141592653589794
  0
ELLIPSE
  5
1D2
330
2
100
AcDbEntity
  8
LAYER3
100
AcDbEllipse
 10
-135.2393943597351
 20
151.7759418207177
 30
0.0
 11
0.0000000000000934
 21
1.749999999999999
 31
0.0
210
0.0
220
0.0
230
1.0
 40
0.9063077870366507
 41
3.141592653589851
 42
4.712388980384705
  0
LINE
  5
1D3
330
2
100
AcDbEntity
  8
LAYER3
100
AcDbLine
 10
-139.599140577142
 20
150.0259418207205
 30
0.0
 11
-135.2393943597351
 21
150.0259418207177
 31
0.0
  0
LINE
  5
1D4
330
2
100
AcDbEntity
  8
LAYER3
100
AcDbLine
 10
-134.3941578362537
 20
150.0259418207171
 30
0.0
 11
-135.2393943597351
 21
150.0259418207171
 31
0.0
  0
LINE
  5
1D5
330
2
100
AcDbEntity
  8
LAYER3
100
AcDbLine
 10
-130.8297267575447
 20
151.7759418207177
 30
0.0
 11
-130.8297267575447
 21
150.0259418207177
 31
0.0
  0
LINE
  5
1D6
330
2
100
AcDbEntity
  8
LAYER3
100
AcDbLine
 10
-130.8297267575447
 20
150.0259418207177
 30
0.0
 11
-134.3941578362537
 21
150.0259418207171
 31
0.0
  0
LINE
  5
1D7
330
2
100
AcDbEntity
  8
LAYER3
100
AcDbLine
 10
-139.2542678462718
 20
151.7759418207202
 30
0.0
 11
-139.2542678462718
 21
165.8259418207203
 31
0.0
  0
LINE
  5
1D8
330
2
100
AcDbEntity
  8
LAYER3
100
AcDbLine
 10
-133.653355732421
 20
151.7759418207179
 30
0.0
 11
-133.653355732421
 21
165.8259418207179
 31
0.0
  0
LINE
  5
1D9
330
2
100
AcDbEntity
  8
LAYER3
100
AcDbLine
 10
-137.6682292189576
 20
151.7759418207205
 30
0.0
 11
-137.6682292189576
 21
165.8259418207205
 31
0.0
  0
LINE
  5
1DA
330
2
100
AcDbEntity
  8
LAYER3
100
AcDbLine
 10
-134.4985922559024
 20
167.8259418207185
 30
0.0
 11
-136.8229926954762
 21
167.8259418207199
 31
0.0
  0
ELLIPSE
  5
1DB
330
2
100
AcDbEntity
  8
LAYER3
100
AcDbEllipse
 10
-138.4090313227904
 20
165.8259418207197
 30
0.0
 11
-0.0000000000000231
 21
1.999999999999999
 31
0.0
210
0.0
220
0.0
230
1.0
 40
0.422618261740695
 41
0.0000000000029987
 42
1.570796326796128
  0
LINE
  5
1DC
330
2
100
AcDbEntity
  8
LAYER3
100
AcDbLine
 10
-136.8229926954762
 20
167.8259418207199
 30
0.0
 11
-138.4090313227904
 21
167.8259418207197
 31
0.0
  0
ELLIPSE
  5
1DD
330
2
100
AcDbEntity
  8
LAYER3
100
AcDbEllipse
 10
-136.8229926954762
 20
165.8259418207199
 30
0.0
 11
-0.0000000000000375
 21
1.999999999999999
 31
0.0
210
0.0
220
0.0
230
1.0
 40
0.4226182617406949
 41
-0.0000000000000442
 42
1.570796326794348
  0
ELLIPSE
  5
1DE
330
2
100
AcDbEntity
  8
LAYER3
100
AcDbEllipse
 10
-134.4985922559024
 20
165.8259418207185
 30
0.0
 11
-0.0000000000000173
 21
2.0
 31
0.0
210
0.0
220
0.0
230
1.0
 40
0.4226182617406949
 41
-1.570796326793663
 42
0.0000000000030056
  0
LINE
  5
1DF
330
2
100
AcDbEntity
  8
LAYER3
100
AcDbLine
 10
-156.3682292189576
 20
166.0259418207205
 30
0.0
 11
-156.3682292189577
 21
167.8259418207199
 31
0.0
  0
LINE
  5
1E0
330
2
100
AcDbEntity
  8
LAYER3
100
AcDbLine
 10
-139.6682292189576
 20
151.7759418207205
 30
0.0
 11
-158.1682292189576
 21
151.7759418207205
 31
0.0
  0
LINE
  5
1E1
330
2
100
AcDbEntity
  8
LAYER3
100
AcDbLine
 10
-158.1682292189576
 20
166.0259418207205
 30
0.0
 11
-156.3682292189576
 21
166.0259418207205
 31
0.0
  0
ARC
  5
1E2
330
2
100
AcDbEntity
  8
LAYER3
100
AcDbCircle
 10
-156.3682292189576
 20
166.0259418207198
 30
0.0
 40
0.0499999999999965
100
AcDbArc
 50
90.00000000004071
 51
180.0
  0
ARC
  5
1E3
330
2
100
AcDbEntity
  8
LAYER3
100
AcDbCircle
 10
-156.3682292189576
 20
166.0259418207198
 30
0.0
 40
1.800000000000011
100
AcDbArc
 50
90.00000000000161
 51
180.0
  0
LINE
  5
1E4
330
2
100
AcDbEntity
  8
LAYER3
100
AcDbLine
 10
-115.6682292189576
 20
166.0259418207177
 30
0.0
 11
-115.6682292189576
 21
151.7759418207177
 31
0.0
  0
LINE
  5
1E5
330
2
100
AcDbEntity
  8
LAYER3
100
AcDbLine
 10
-115.6682292189576
 20
151.7759418207177
 30
0.0
 11
-118.5682292189576
 21
151.7759418207177
 31
0.0
  0
LINE
  5
1E6
330
2
100
AcDbEntity
  8
LAYER3
100
AcDbLine
 10
-124.1682292189576
 20
151.7759418207177
 30
0.0
 11
-133.653355732421
 21
151.7759418207177
 31
0.0
  0
LINE
  5
1E7
330
2
100
AcDbEntity
  8
LAYER3
100
AcDbLine
 10
-124.1682292189576
 20
150.0259418207177
 30
0.0
 11
-119.6682292189576
 21
150.0259418207177
 31
0.0
  0
LINE
  5
1E8
330
2
100
AcDbEntity
  8
LAYER3
100
AcDbLine
 10
-115.6682292189576
 20
166.0259418207177
 30
0.0
 11
-115.6682292189576
 21
167.8259418207171
 31
0.0
  0
LINE
  5
1E9
330
2
100
AcDbEntity
  8
LAYER3
100
AcDbLine
 10
-134.4985922559024
 20
167.8259418207171
 30
0.0
 11
-115.6682292189576
 21
167.8259418207171
 31
0.0
  0
LINE
  5
1EA
330
2
100
AcDbEntity
  8
LAYER3
100
AcDbLine
 10
-156.3682292189576
 20
167.8259418207199
 30
0.0
 11
-139.6682292189576
 21
167.8259418207199
 31
0.0
  0
ARC
  5
1EB
330
2
100
AcDbEntity
  8
LAYER3
100
AcDbCircle
 10
-159.6682292188151
 20
169.9759418207308
 30
0.0
 40
1.500000000142563
100
AcDbArc
 50
0.0
 51
180.0
1001
GENIUS_GENODEF_13
1002
{
1000
HIER
1070
     0
1002
}
1002
{
1000
MANEDIT
1070
     0
1002
}
1002
{
1000
NOSEL
1070
     0
1002
}
1002
{
1000
BEHIND
1070
     0
1002
}
1002
{
1000
OTHER
1070
     0
1002
}
1002
{
1000
REACTOR
1002
}
1001
GENIUS_GENOBJ-N-FIL_13
1002
{
1000
OWNER
1000
GEN
1002
}
  0
LINE
  5
1EC
330
2
100
AcDbEntity
  8
LAYER3
100
AcDbLine
 10
-158.1682292186725
 20
169.9759418207308
 30
0.0
 11
-158.1682292186725
 21
148.9759418209303
 31
0.0
  0
LINE
  5
1ED
330
2
100
AcDbEntity
  8
LAYER3
100
AcDbLine
 10
-156.3682292189576
 20
167.8259418207142
 30
0.0
 11
-158.1682292186725
 21
167.8259418207178
 31
0.0
  0
LINE
  5
1EE
330
2
100
AcDbEntity
  8
LAYER3
100
AcDbLine
 10
-139.6682292189576
 20
151.7759418207205
 30
0.0
 11
-139.6682292189576
 21
166.0259418207205
 31
0.0
  0
LINE
  5
1EF
330
2
100
AcDbEntity
  8
LAYER3
100
AcDbLine
 10
-139.6682292189576
 20
167.82594182072
 30
0.0
 11
-139.6682292189576
 21
166.0259418207205
 31
0.0
  0
LINE
  5
1F0
330
2
100
AcDbEntity
  8
LAYER3
100
AcDbLine
 10
-139.6682292189576
 20
167.8259418207199
 30
0.0
 11
-138.4090313227904
 21
167.8259418207191
 31
0.0
  0
LINE
  5
1F1
330
2
100
AcDbEntity
  8
LAYER3
100
AcDbLine
 10
-139.2476384378506
 20
166.0759418207196
 30
0.0
 11
-139.6682292189576
 21
166.0759418207199
 31
0.0
  0
LINE
  5
1F2
330
2
100
AcDbEntity
  8
LAYER3
100
AcDbLine
 10
-37.13620497420411
 20
288.6176662535117
 30
0.0
 11
-31.13620497420408
 21
288.6176662535117
 31
0.0
  0
ARC
  5
1F3
330
2
100
AcDbEntity
  8
LAYER3
100
AcDbCircle
 10
-31.13620497420408
 20
289.6176662535117
 30
0.0
 40
0.9999999999999964
100
AcDbArc
 50
270.0
 51
0.0
  0
ARC
  5
1F4
330
2
100
AcDbEntity
  8
LAYER3
100
AcDbCircle
 10
-37.13620497420411
 20
289.6176662535117
 30
0.0
 40
1.0
100
AcDbArc
 50
180.0
 51
269.9999999999968
  0
ARC
  5
1F5
330
2
100
AcDbEntity
  8
LAYER3
100
AcDbCircle
 10
-37.13620497420411
 20
322.6176662535118
 30
0.0
 40
0.9999999999999975
100
AcDbArc
 50
90.0
 51
180.0
  0
ARC
  5
1F6
330
2
100
AcDbEntity
  8
LAYER3
100
AcDbCircle
 10
-31.13620497420408
 20
322.6176662535118
 30
0.0
 40
0.9999999999999953
100
AcDbArc
 50
0.0
 51
90.00000000000161
  0
LINE
  5
1F7
330
2
100
AcDbEntity
  8
LAYER3
100
AcDbLine
 10
-30.13620497420408
 20
289.6176662535117
 30
0.0
 11
-30.13620497420408
 21
322.6176662535118
 31
0.0
  0
LINE
  5
1F8
330
2
100
AcDbEntity
  8
LAYER3
100
AcDbLine
 10
-31.13620497420408
 20
323.6176662535117
 30
0.0
 11
-37.13620497420411
 21
323.6176662535117
 31
0.0
  0
LINE
  5
1F9
330
2
100
AcDbEntity
  8
LAYER3
100
AcDbLine
 10
-38.13620497420408
 20
322.6176662535118
 30
0.0
 11
-38.13620497420408
 21
289.6176662535117
 31
0.0
  0
CIRCLE
  5
1FA
330
2
100
AcDbEntity
  8
LAYER3
100
AcDbCircle
 10
-34.18620497419627
 20
381.1176662535117
 30
0.0
 40
2.049999999999999
  0
ARC
  5
1FB
330
2
100
AcDbEntity
  8
LAYER3
100
AcDbCircle
 10
-36.48620497419756
 20
418.5676662535118
 30
0.0
 40
0.0499999999999989
100
AcDbArc
 50
90.0
 51
180.0
  0
LINE
  5
1FC
330
2
100
AcDbEntity
  8
LAYER3
100
AcDbLine
 10
-29.38620497420027
 20
421.1176662535118
 30
0.0
 11
-29.38620497420027
 21
418.6176662535117
 31
0.0
  0
LINE
  5
1FD
330
2
100
AcDbEntity
  8
LAYER3
100
AcDbLine
 10
-29.38620497420032
 20
418.6176662535117
 30
0.0
 11
-38.88620497420027
 21
418.6176662535117
 31
0.0
  0
LINE
  5
1FE
330
2
100
AcDbEntity
  8
LAYER3
100
AcDbLine
 10
-38.88620497420027
 20
421.1176662535118
 30
0.0
 11
-38.88620497420027
 21
418.6176662535117
 31
0.0
  0
LINE
  5
1FF
330
2
100
AcDbEntity
  8
LAYER3
100
AcDbLine
 10
-29.38620497420032
 20
421.1176662535118
 30
0.0
 11
-38.88620497420027
 21
421.1176662535118
 31
0.0
  0
LINE
  5
200
330
2
100
AcDbEntity
  8
LAYER3
100
AcDbLine
 10
-29.38620497420027
 20
393.6176662535118
 30
0.0
 11
-29.38620497420027
 21
391.1176662535119
 31
0.0
  0
LINE
  5
201
330
2
100
AcDbEntity
  8
LAYER3
100
AcDbLine
 10
-38.88620497420027
 20
393.6176662535118
 30
0.0
 11
-38.88620497420027
 21
391.1176662535119
 31
0.0
  0
LINE
  5
202
330
2
100
AcDbEntity
  8
LAYER3
100
AcDbLine
 10
-29.38620497420032
 20
391.1176662535119
 30
0.0
 11
-38.88620497420027
 21
391.1176662535119
 31
0.0
  0
LINE
  5
203
330
2
100
AcDbEntity
  8
LAYER3
100
AcDbLine
 10
-29.38620497420032
 20
393.6176662535118
 30
0.0
 11
-38.88620497420027
 21
393.6176662535118
 31
0.0
  0
ARC
  5
204
330
2
100
AcDbEntity
  8
LAYER3
100
AcDbCircle
 10
-36.48620497419751
 20
393.6676662535118
 30
0.0
 40
0.0500000000000028
100
AcDbArc
 50
180.0
 51
269.9999999999593
  0
LINE
  5
205
330
2
100
AcDbEntity
  8
LAYER3
100
AcDbLine
 10
-36.53620497419755
 20
418.4676662535117
 30
0.0
 11
-36.53620497419755
 21
418.5676662535118
 31
0.0
  0
LINE
  5
206
330
2
100
AcDbEntity
  8
LAYER3
100
AcDbLine
 10
-36.53620497419755
 20
393.6676662535118
 30
0.0
 11
-36.53620497419755
 21
393.7676662535118
 31
0.0
  0
ARC
  5
207
330
2
100
AcDbEntity
  8
LAYER3
100
AcDbCircle
 10
-63.73620497420017
 20
406.1176662535117
 30
0.0
 40
36.49999999999997
100
AcDbArc
 50
340.2232456690278
 51
19.77675433097222
  0
ARC
  5
208
330
2
100
AcDbEntity
  8
LAYER3
100
AcDbCircle
 10
-4.536204974200359
 20
406.1176662535117
 30
0.0
 40
36.49999999999997
100
AcDbArc
 50
160.2232456690277
 51
199.7767543309722
  0
LINE
  5
209
330
2
100
AcDbEntity
  8
LAYER3
100
AcDbLine
 10
-29.38904351943086
 20
393.7676662535118
 30
0.0
 11
-38.88336642896974
 21
393.7676662535118
 31
0.0
  0
LINE
  5
20A
330
2
100
AcDbEntity
  8
LAYER3
100
AcDbLine
 10
-29.38904351943086
 20
418.4676662535117
 30
0.0
 11
-38.88336642896974
 21
418.4676662535117
 31
0.0
  0
CIRCLE
  5
20B
330
2
100
AcDbEntity
  8
LAYER3
100
AcDbCircle
 10
-34.13620497419828
 20
281.1176662535118
 30
0.0
 40
4.199999999999989
  0
LINE
  5
20C
330
2
100
AcDbEntity
  8
LAYER3
100
AcDbLine
 10
-36.13977058290081
 20
279.9409654199843
 30
0.0
 11
-34.5999786695194
 21
281.1697619301865
 31
0.0
  0
LINE
  5
20D
330
2
100
AcDbEntity
  8
LAYER3
100
AcDbLine
 10
-34.08410929752359
 20
281.581439948833
 30
0.0
 11
-32.54431738414218
 21
282.8102364590352
 31
0.0
  0
LINE
  5
20E
330
2
100
AcDbEntity
  8
LAYER3
100
AcDbLine
 10
-32.54431738414218
 20
282.8102364590352
 30
0.0
 11
-32.13263936549572
 21
282.2943670870394
 31
0.0
  0
LINE
  5
20F
330
2
100
AcDbEntity
  8
LAYER3
100
AcDbLine
 10
-35.72809256425439
 20
279.4250960479885
 30
0.0
 11
-36.13977058290081
 21
279.9409654199843
 31
0.0
  0
LINE
  5
210
330
2
100
AcDbEntity
  8
LAYER3
100
AcDbLine
 10
-34.18830065087298
 20
280.6538925581907
 30
0.0
 11
-35.72809256425439
 21
279.4250960479885
 31
0.0
  0
LINE
  5
211
330
2
100
AcDbEntity
  8
LAYER3
100
AcDbLine
 10
-32.13263936549572
 20
282.2943670870394
 30
0.0
 11
-33.67243127887713
 21
281.0655705768372
 31
0.0
  0
LINE
  5
212
330
2
100
AcDbEntity
  8
LAYER3
100
AcDbLine
 10
-33.67243127887713
 20
281.0655705768372
 30
0.0
 11
-32.44363476867488
 21
279.5257786634557
 31
0.0
  0
LINE
  5
213
330
2
100
AcDbEntity
  8
LAYER3
100
AcDbLine
 10
-35.31290580772583
 20
283.1212318622144
 30
0.0
 11
-34.08410929752359
 21
281.581439948833
 31
0.0
  0
LINE
  5
214
330
2
100
AcDbEntity
  8
LAYER3
100
AcDbLine
 10
-35.82877517972162
 20
282.7095538435679
 30
0.0
 11
-35.31290580772583
 21
283.1212318622144
 31
0.0
  0
LINE
  5
215
330
2
100
AcDbEntity
  8
LAYER3
100
AcDbLine
 10
-32.44363476867488
 20
279.5257786634557
 30
0.0
 11
-32.95950414067073
 21
279.1141006448093
 31
0.0
  0
LINE
  5
216
330
2
100
AcDbEntity
  8
LAYER3
100
AcDbLine
 10
-32.9595041406707
 20
279.1141006448093
 30
0.0
 11
-34.18830065087298
 21
280.6538925581907
 31
0.0
  0
LINE
  5
217
330
2
100
AcDbEntity
  8
LAYER3
100
AcDbLine
 10
-34.5999786695194
 20
281.1697619301865
 30
0.0
 11
-35.82877517972168
 21
282.7095538435679
 31
0.0
  0
CIRCLE
  5
218
330
2
100
AcDbEntity
  8
LAYER3
100
AcDbCircle
 10
-34.13620497419828
 20
331.1176662535118
 30
0.0
 40
4.19999999999998
  0
LINE
  5
219
330
2
100
AcDbEntity
  8
LAYER3
100
AcDbLine
 10
-35.94686001286269
 20
332.5738353133944
 30
0.0
 11
-34.25193447506462
 21
331.5697798262225
 31
0.0
  0
LINE
  5
21A
330
2
100
AcDbEntity
  8
LAYER3
100
AcDbLine
 10
-33.68409140148759
 20
331.2333957543781
 30
0.0
 11
-31.98916586368949
 21
330.2293402672063
 31
0.0
  0
LINE
  5
21B
330
2
100
AcDbEntity
  8
LAYER3
100
AcDbLine
 10
-31.98916586368949
 20
330.2293402672063
 30
0.0
 11
-32.3255499355339
 21
329.6614971936293
 31
0.0
  0
LINE
  5
21C
330
2
100
AcDbEntity
  8
LAYER3
100
AcDbLine
 10
-36.28324408470707
 20
332.0059922398174
 30
0.0
 11
-35.94686001286269
 21
332.5738353133944
 31
0.0
  0
LINE
  5
21D
330
2
100
AcDbEntity
  8
LAYER3
100
AcDbLine
 10
-34.58831854690897
 20
331.0019367526455
 30
0.0
 11
-36.28324408470707
 21
332.0059922398174
 31
0.0
  0
LINE
  5
21E
330
2
100
AcDbEntity
  8
LAYER3
100
AcDbLine
 10
-32.3255499355339
 20
329.6614971936293
 30
0.0
 11
-34.02047547333194
 21
330.6655526808011
 31
0.0
  0
LINE
  5
21F
330
2
100
AcDbEntity
  8
LAYER3
100
AcDbLine
 10
-34.02047547333192
 20
330.6655526808011
 30
0.0
 11
-35.0245309605038
 21
328.9706271430031
 31
0.0
  0
LINE
  5
220
330
2
100
AcDbEntity
  8
LAYER3
100
AcDbLine
 10
-32.68003591431571
 20
332.9283212921762
 30
0.0
 11
-33.68409140148759
 21
331.2333957543781
 31
0.0
  0
LINE
  5
221
330
2
100
AcDbEntity
  8
LAYER3
100
AcDbLine
 10
-33.24787898789273
 20
333.2647053640206
 30
0.0
 11
-32.68003591431571
 21
332.9283212921762
 31
0.0
  0
LINE
  5
222
330
2
100
AcDbEntity
  8
LAYER3
100
AcDbLine
 10
-35.0245309605038
 20
328.9706271430031
 30
0.0
 11
-35.59237403408085
 21
329.3070112148474
 31
0.0
  0
LINE
  5
223
330
2
100
AcDbEntity
  8
LAYER3
100
AcDbLine
 10
-35.59237403408085
 20
329.3070112148474
 30
0.0
 11
-34.58831854690897
 21
331.0019367526455
 31
0.0
  0
LINE
  5
224
330
2
100
AcDbEntity
  8
LAYER3
100
AcDbLine
 10
-34.25193447506462
 20
331.5697798262225
 30
0.0
 11
-33.24787898789273
 21
333.2647053640206
 31
0.0
  0
CIRCLE
  5
225
330
2
100
AcDbEntity
  8
LAYER3
100
AcDbCircle
 10
-34.13620497419831
 20
373.1176662535118
 30
0.0
 40
4.199999999999989
  0
LINE
  5
226
330
2
100
AcDbEntity
  8
LAYER3
100
AcDbLine
 10
-35.74147640429746
 20
371.437784223217
 30
0.0
 11
-34.59654066889124
 21
373.0409130894626
 31
0.0
  0
LINE
  5
227
330
2
100
AcDbEntity
  8
LAYER3
100
AcDbLine
 10
-34.21295813824753
 20
373.5780019482048
 30
0.0
 11
-33.06802240284134
 21
375.1811308144504
 31
0.0
  0
LINE
  5
228
330
2
100
AcDbEntity
  8
LAYER3
100
AcDbLine
 10
-33.06802240284134
 20
375.1811308144504
 30
0.0
 11
-32.53093354409916
 21
374.7975482838066
 31
0.0
  0
LINE
  5
229
330
2
100
AcDbEntity
  8
LAYER3
100
AcDbLine
 10
-35.20438754555528
 20
371.0542016925733
 30
0.0
 11
-35.74147640429746
 21
371.437784223217
 31
0.0
  0
LINE
  5
22A
330
2
100
AcDbEntity
  8
LAYER3
100
AcDbLine
 10
-34.05945181014906
 20
372.6573305588189
 30
0.0
 11
-35.20438754555528
 21
371.0542016925733
 31
0.0
  0
LINE
  5
22B
330
2
100
AcDbEntity
  8
LAYER3
100
AcDbLine
 10
-32.53093354409916
 20
374.7975482838066
 30
0.0
 11
-33.67586927950535
 21
373.1944194175611
 31
0.0
  0
LINE
  5
22C
330
2
100
AcDbEntity
  8
LAYER3
100
AcDbLine
 10
-33.67586927950535
 20
373.1944194175611
 30
0.0
 11
-32.07274041325979
 21
372.0494836821548
 31
0.0
  0
LINE
  5
22D
330
2
100
AcDbEntity
  8
LAYER3
100
AcDbLine
 10
-35.81608700449312
 20
374.722937683611
 30
0.0
 11
-34.21295813824753
 21
373.5780019482048
 31
0.0
  0
LINE
  5
22E
330
2
100
AcDbEntity
  8
LAYER3
100
AcDbLine
 10
-36.19966953513685
 20
374.1858488248687
 30
0.0
 11
-35.81608700449312
 21
374.722937683611
 31
0.0
  0
LINE
  5
22F
330
2
100
AcDbEntity
  8
LAYER3
100
AcDbLine
 10
-32.07274041325979
 20
372.0494836821548
 30
0.0
 11
-32.4563229439035
 21
371.5123948234126
 31
0.0
  0
LINE
  5
230
330
2
100
AcDbEntity
  8
LAYER3
100
AcDbLine
 10
-32.4563229439035
 20
371.5123948234126
 30
0.0
 11
-34.05945181014906
 21
372.6573305588189
 31
0.0
  0
LINE
  5
231
330
2
100
AcDbEntity
  8
LAYER3
100
AcDbLine
 10
-34.59654066889124
 20
373.0409130894626
 30
0.0
 11
-36.19966953513685
 21
374.1858488248687
 31
0.0
  0
CIRCLE
  5
232
330
2
100
AcDbEntity
  8
LAYER3
100
AcDbCircle
 10
-34.13620497419831
 20
430.6176662535118
 30
0.0
 40
4.199999999999984
  0
LINE
  5
233
330
2
100
AcDbEntity
  8
LAYER3
100
AcDbLine
 10
-35.80893417941803
 20
429.0049427787632
 30
0.0
 11
-34.59929805022199
 21
430.5598319821934
 31
0.0
  0
LINE
  5
234
330
2
100
AcDbEntity
  8
LAYER3
100
AcDbLine
 10
-34.19403924551668
 20
431.0807593295354
 30
0.0
 11
-32.98440311632061
 21
432.6356485329656
 31
0.0
  0
LINE
  5
235
330
2
100
AcDbEntity
  8
LAYER3
100
AcDbLine
 10
-32.98440311632061
 20
432.6356485329656
 30
0.0
 11
-32.46347576897856
 21
432.2303897282603
 31
0.0
  0
LINE
  5
236
330
2
100
AcDbEntity
  8
LAYER3
100
AcDbLine
 10
-35.28800683207598
 20
428.599683974058
 30
0.0
 11
-35.80893417941803
 21
429.0049427787632
 31
0.0
  0
LINE
  5
237
330
2
100
AcDbEntity
  8
LAYER3
100
AcDbLine
 10
-34.07837070287991
 20
430.1545731774881
 30
0.0
 11
-35.28800683207598
 21
428.599683974058
 31
0.0
  0
LINE
  5
238
330
2
100
AcDbEntity
  8
LAYER3
100
AcDbLine
 10
-32.46347576897856
 20
432.2303897282603
 30
0.0
 11
-33.67311189817463
 21
430.6755005248302
 31
0.0
  0
LINE
  5
239
330
2
100
AcDbEntity
  8
LAYER3
100
AcDbLine
 10
-33.67311189817463
 20
430.6755005248302
 30
0.0
 11
-32.11822269474448
 21
429.4658643956341
 31
0.0
  0
LINE
  5
23A
330
2
100
AcDbEntity
  8
LAYER3
100
AcDbLine
 10
-35.74892844894683
 20
432.2903954587316
 30
0.0
 11
-34.19403924551668
 21
431.0807593295354
 31
0.0
  0
LINE
  5
23B
330
2
100
AcDbEntity
  8
LAYER3
100
AcDbLine
 10
-36.15418725365211
 20
431.7694681113894
 30
0.0
 11
-35.74892844894683
 21
432.2903954587316
 31
0.0
  0
LINE
  5
23C
330
2
100
AcDbEntity
  8
LAYER3
100
AcDbLine
 10
-32.11822269474448
 20
429.4658643956341
 30
0.0
 11
-32.52348149944982
 21
428.944937048292
 31
0.0
  0
LINE
  5
23D
330
2
100
AcDbEntity
  8
LAYER3
100
AcDbLine
 10
-32.52348149944982
 20
428.944937048292
 30
0.0
 11
-34.07837070287991
 21
430.1545731774881
 31
0.0
  0
LINE
  5
23E
330
2
100
AcDbEntity
  8
LAYER3
100
AcDbLine
 10
-34.59929805022199
 20
430.5598319821934
 30
0.0
 11
-36.15418725365211
 21
431.7694681113894
 31
0.0
  0
LINE
  5
23F
330
2
100
AcDbEntity
  8
LAYER3
100
AcDbLine
 10
-34.78620497419362
 20
393.6176662535108
 30
0.0
 11
-34.7862049741936
 21
393.7676662535108
 31
0.0
  0
POLYLINE
  5
240
330
2
100
AcDbEntity
  8
LAYER3
100
AcDb2dPolyline
 66
     1
 10
0.0
 20
0.0
 30
0.0
 70
   128
  0
VERTEX
  5
241
330
240
100
AcDbEntity
  8
LAYER3
100
AcDbVertex
100
AcDb2dVertex
 10
-37.04850263043051
 20
222.9553291744942
 30
0.0
  0
VERTEX
  5
242
330
240
100
AcDbEntity
  8
LAYER3
100
AcDbVertex
100
AcDb2dVertex
 10
-37.01876497908239
 20
222.952353710627
 30
0.0
  0
VERTEX
  5
243
330
240
100
AcDbEntity
  8
LAYER3
100
AcDbVertex
100
AcDb2dVertex
 10
-36.98885507031088
 20
222.9502556271309
 30
0.0
  0
VERTEX
  5
244
330
240
100
AcDbEntity
  8
LAYER3
100
AcDbVertex
100
AcDb2dVertex
 10
-36.95880509062411
 20
222.9490539974923
 30
0.0
  0
VERTEX
  5
245
330
240
100
AcDbEntity
  8
LAYER3
100
AcDbVertex
100
AcDb2dVertex
 10
-36.9286481206
 20
222.948748821711
 30
0.0
  0
VERTEX
  5
246
330
240
100
AcDbEntity
  8
LAYER3
100
AcDbVertex
100
AcDb2dVertex
 10
-36.89841664476992
 20
222.9493591732735
 30
0.0
  0
VERTEX
  5
247
330
240
100
AcDbEntity
  8
LAYER3
100
AcDbVertex
100
AcDb2dVertex
 10
-36.86814284964206
 20
222.9508850521797
 30
0.0
  0
VERTEX
  5
248
330
240
100
AcDbEntity
  8
LAYER3
100
AcDbVertex
100
AcDb2dVertex
 10
-36.83786011381747
 20
222.9533455319161
 30
0.0
  0
VERTEX
  5
249
330
240
100
AcDbEntity
  8
LAYER3
100
AcDbVertex
100
AcDb2dVertex
 10
-36.80720186873077
 20
222.9567978329415
 30
0.0
  0
VERTEX
  5
24A
330
240
100
AcDbEntity
  8
LAYER3
100
AcDbVertex
100
AcDb2dVertex
 10
-36.77574253721832
 20
222.9613754696602
 30
0.0
  0
VERTEX
  5
24B
330
240
100
AcDbEntity
  8
LAYER3
100
AcDbVertex
100
AcDb2dVertex
 10
-36.74360281868576
 20
222.9670975155586
 30
0.0
  0
VERTEX
  5
24C
330
240
100
AcDbEntity
  8
LAYER3
100
AcDbVertex
100
AcDb2dVertex
 10
-36.7109052006781
 20
222.9740211910958
 30
0.0
  0
VERTEX
  5
24D
330
240
100
AcDbEntity
  8
LAYER3
100
AcDbVertex
100
AcDb2dVertex
 10
-36.67777306481003
 20
222.9821846432442
 30
0.0
  0
VERTEX
  5
24E
330
240
100
AcDbEntity
  8
LAYER3
100
AcDbVertex
100
AcDb2dVertex
 10
-36.64432860060333
 20
222.991645092463
 30
0.0
  0
VERTEX
  5
24F
330
240
100
AcDbEntity
  8
LAYER3
100
AcDbVertex
100
AcDb2dVertex
 10
-36.61069518967264
 20
223.0024216122384
 30
0.0
  0
VERTEX
  5
250
330
240
100
AcDbEntity
  8
LAYER3
100
AcDbVertex
100
AcDb2dVertex
 10
-36.57699531956308
 20
223.014552349543
 30
0.0
  0
VERTEX
  5
251
330
240
100
AcDbEntity
  8
LAYER3
100
AcDbVertex
100
AcDb2dVertex
 10
-36.54335088177317
 20
223.0281135983223
 30
0.0
  0
VERTEX
  5
252
330
240
100
AcDbEntity
  8
LAYER3
100
AcDbVertex
100
AcDb2dVertex
 10
-36.50987840338343
 20
223.0431053585762
 30
0.0
  0
VERTEX
  5
253
330
240
100
AcDbEntity
  8
LAYER3
100
AcDbVertex
100
AcDb2dVertex
 10
-36.4766994778692
 20
223.0594704098458
 30
0.0
  0
VERTEX
  5
254
330
240
100
AcDbEntity
  8
LAYER3
100
AcDbVertex
100
AcDb2dVertex
 10
-36.44393718882196
 20
223.0771515316719
 30
0.0
  0
VERTEX
  5
255
330
240
100
AcDbEntity
  8
LAYER3
100
AcDbVertex
100
AcDb2dVertex
 10
-36.41171402378672
 20
223.0960724301095
 30
0.0
  0
VERTEX
  5
256
330
240
100
AcDbEntity
  8
LAYER3
100
AcDbVertex
100
AcDb2dVertex
 10
-36.3801527683317
 20
223.1161758846993
 30
0.0
  0
VERTEX
  5
257
330
240
100
AcDbEntity
  8
LAYER3
100
AcDbVertex
100
AcDb2dVertex
 10
-36.34937620802515
 20
223.1374046749825
 30
0.0
  0
VERTEX
  5
258
330
240
100
AcDbEntity
  8
LAYER3
100
AcDbVertex
100
AcDb2dVertex
 10
-36.31950712843531
 20
223.1597015805001
 30
0.0
  0
VERTEX
  5
259
330
240
100
AcDbEntity
  8
LAYER3
100
AcDbVertex
100
AcDb2dVertex
 10
-36.2906683151304
 20
223.1829712338204
 30
0.0
  0
SEQEND
  5
25A
330
240
100
AcDbEntity
  8
LAYER3
  0
ARC
  5
25B
330
2
100
AcDbEntity
  8
LAYER3
100
AcDbCircle
 10
-34.13620497419197
 20
220.6176662535038
 30
0.0
 40
3.350000000009969
100
AcDbArc
 50
121.9748830508356
 51
130.0251169491638
  0
POLYLINE
  5
25C
330
2
100
AcDbEntity
  8
LAYER3
100
AcDb2dPolyline
 66
     1
 10
0.0
 20
0.0
 30
0.0
 70
   128
  0
VERTEX
  5
25D
330
25C
100
AcDbEntity
  8
LAYER3
100
AcDbVertex
100
AcDb2dVertex
 10
-35.91018891974085
 20
223.4594032711739
 30
0.0
  0
VERTEX
  5
25E
330
25C
100
AcDbEntity
  8
LAYER3
100
AcDbVertex
100
AcDb2dVertex
 10
-35.87913817806833
 20
223.4796402401681
 30
0.0
  0
VERTEX
  5
25F
330
25C
100
AcDbEntity
  8
LAYER3
100
AcDbVertex
100
AcDb2dVertex
 10
-35.84871298714273
 20
223.5011551327461
 30
0.0
  0
VERTEX
  5
260
330
25C
100
AcDbEntity
  8
LAYER3
100
AcDbVertex
100
AcDb2dVertex
 10
-35.81901199265116
 20
223.523871654963
 30
0.0
  0
VERTEX
  5
261
330
25C
100
AcDbEntity
  8
LAYER3
100
AcDbVertex
100
AcDb2dVertex
 10
-35.79013413830393
 20
223.5476753659005
 30
0.0
  0
VERTEX
  5
262
330
25C
100
AcDbEntity
  8
LAYER3
100
AcDbVertex
100
AcDb2dVertex
 10
-35.76217836781137
 20
223.572470898127
 30
0.0
  0
VERTEX
  5
263
330
25C
100
AcDbEntity
  8
LAYER3
100
AcDbVertex
100
AcDb2dVertex
 10
-35.73524302883738
 20
223.598162884211
 30
0.0
  0
VERTEX
  5
264
330
25C
100
AcDbEntity
  8
LAYER3
100
AcDbVertex
100
AcDb2dVertex
 10
-35.70942676706903
 20
223.6246559567208
 30
0.0
  0
VERTEX
  5
265
330
25C
100
AcDbEntity
  8
LAYER3
100
AcDbVertex
100
AcDb2dVertex
 10
-35.6848288242399
 20
223.651873821711
 30
0.0
  0
VERTEX
  5
266
330
25C
100
AcDbEntity
  8
LAYER3
100
AcDbVertex
100
AcDb2dVertex
 10
-35.66153979941004
 20
223.6796829647774
 30
0.0
  0
VERTEX
  5
267
330
25C
100
AcDbEntity
  8
LAYER3
100
AcDbVertex
100
AcDb2dVertex
 10
-35.63957578583353
 20
223.707968945002
 30
0.0
  0
VERTEX
  5
268
330
25C
100
AcDbEntity
  8
LAYER3
100
AcDbVertex
100
AcDb2dVertex
 10
-35.61893290920853
 20
223.7366363949532
 30
0.0
  0
VERTEX
  5
269
330
25C
100
AcDbEntity
  8
LAYER3
100
AcDbVertex
100
AcDb2dVertex
 10
-35.59960967941879
 20
223.765513653254
 30
0.0
  0
VERTEX
  5
26A
330
25C
100
AcDbEntity
  8
LAYER3
100
AcDbVertex
100
AcDb2dVertex
 10
-35.58160311623215
 20
223.7945053524727
 30
0.0
  0
VERTEX
  5
26B
330
25C
100
AcDbEntity
  8
LAYER3
100
AcDbVertex
100
AcDb2dVertex
 10
-35.56491202755569
 20
223.8234589047188
 30
0.0
  0
VERTEX
  5
26C
330
25C
100
AcDbEntity
  8
LAYER3
100
AcDbVertex
100
AcDb2dVertex
 10
-35.54953402920364
 20
223.8522598690743
 30
0.0
  0
VERTEX
  5
26D
330
25C
100
AcDbEntity
  8
LAYER3
100
AcDbVertex
100
AcDb2dVertex
 10
-35.5354679290831
 20
223.8807747311348
 30
0.0
  0
VERTEX
  5
26E
330
25C
100
AcDbEntity
  8
LAYER3
100
AcDbVertex
100
AcDb2dVertex
 10
-35.52271074696185
 20
223.9088509030098
 30
0.0
  0
VERTEX
  5
26F
330
25C
100
AcDbEntity
  8
LAYER3
100
AcDbVertex
100
AcDb2dVertex
 10
-35.51102048798205
 20
223.9369080013985
 30
0.0
  0
VERTEX
  5
270
330
25C
100
AcDbEntity
  8
LAYER3
100
AcDbVertex
100
AcDb2dVertex
 10
-35.50021297379138
 20
223.9652130551094
 30
0.0
  0
VERTEX
  5
271
330
25C
100
AcDbEntity
  8
LAYER3
100
AcDbVertex
100
AcDb2dVertex
 10
-35.49029058857562
 20
223.993785137629
 30
0.0
  0
VERTEX
  5
272
330
25C
100
AcDbEntity
  8
LAYER3
100
AcDbVertex
100
AcDb2dVertex
 10
-35.48125631256701
 20
224.0225479550118
 30
0.0
  0
VERTEX
  5
273
330
25C
100
AcDbEntity
  8
LAYER3
100
AcDbVertex
100
AcDb2dVertex
 10
-35.47311312599783
 20
224.0515015072579
 30
0.0
  0
VERTEX
  5
274
330
25C
100
AcDbEntity
  8
LAYER3
100
AcDbVertex
100
AcDb2dVertex
 10
-35.4658634130538
 20
224.0806076473946
 30
0.0
  0
VERTEX
  5
275
330
25C
100
AcDbEntity
  8
LAYER3
100
AcDbVertex
100
AcDb2dVertex
 10
-35.45951015396719
 20
224.109809154963
 30
0.0
  0
SEQEND
  5
276
330
25C
100
AcDbEntity
  8
LAYER3
  0
POLYLINE
  5
277
330
2
100
AcDbEntity
  8
LAYER3
100
AcDb2dPolyline
 66
     1
 10
0.0
 20
0.0
 30
0.0
 70
   128
  0
VERTEX
  5
278
330
277
100
AcDbEntity
  8
LAYER3
100
AcDbVertex
100
AcDb2dVertex
 10
-35.45951015396719
 20
224.109809154963
 30
0.0
  0
VERTEX
  5
279
330
277
100
AcDbEntity
  8
LAYER3
100
AcDbVertex
100
AcDb2dVertex
 10
-35.42660540981899
 20
224.2391846127266
 30
0.0
  0
VERTEX
  5
27A
330
277
100
AcDbEntity
  8
LAYER3
100
AcDbVertex
100
AcDb2dVertex
 10
-35.38052565498961
 20
224.3660614437813
 30
0.0
  0
VERTEX
  5
27B
330
277
100
AcDbEntity
  8
LAYER3
100
AcDbVertex
100
AcDb2dVertex
 10
-35.32142168923036
 20
224.4889519161934
 30
0.0
  0
VERTEX
  5
27C
330
277
100
AcDbEntity
  8
LAYER3
100
AcDbVertex
100
AcDb2dVertex
 10
-35.24906939907686
 20
224.6068260617013
 30
0.0
  0
VERTEX
  5
27D
330
277
100
AcDbEntity
  8
LAYER3
100
AcDbVertex
100
AcDb2dVertex
 10
-35.15853232784886
 20
224.7241280026192
 30
0.0
  0
VERTEX
  5
27E
330
277
100
AcDbEntity
  8
LAYER3
100
AcDbVertex
100
AcDb2dVertex
 10
-35.0495428506913
 20
224.8367950863594
 30
0.0
  0
VERTEX
  5
27F
330
277
100
AcDbEntity
  8
LAYER3
100
AcDbVertex
100
AcDb2dVertex
 10
-34.92460197849891
 20
224.9383041805977
 30
0.0
  0
VERTEX
  5
280
330
277
100
AcDbEntity
  8
LAYER3
100
AcDbVertex
100
AcDb2dVertex
 10
-34.78933817787794
 20
225.0241348690743
 30
0.0
  0
VERTEX
  5
281
330
277
100
AcDbEntity
  8
LAYER3
100
AcDbVertex
100
AcDb2dVertex
 10
-34.64311963959364
 20
225.0937340206856
 30
0.0
  0
VERTEX
  5
282
330
277
100
AcDbEntity
  8
LAYER3
100
AcDbVertex
100
AcDb2dVertex
 10
-34.47931475086838
 20
225.1483223385567
 30
0.0
  0
VERTEX
  5
283
330
277
100
AcDbEntity
  8
LAYER3
100
AcDbVertex
100
AcDb2dVertex
 10
-34.30663771076829
 20
225.1817009396309
 30
0.0
  0
VERTEX
  5
284
330
277
100
AcDbEntity
  8
LAYER3
100
AcDbVertex
100
AcDb2dVertex
 10
-34.13620478554398
 20
225.1926681942696
 30
0.0
  0
VERTEX
  5
285
330
277
100
AcDbEntity
  8
LAYER3
100
AcDbVertex
100
AcDb2dVertex
 10
-33.96577245636613
 20
225.1817009396309
 30
0.0
  0
VERTEX
  5
286
330
277
100
AcDbEntity
  8
LAYER3
100
AcDbVertex
100
AcDb2dVertex
 10
-33.79309541626603
 20
225.1483223385567
 30
0.0
  0
VERTEX
  5
287
330
277
100
AcDbEntity
  8
LAYER3
100
AcDbVertex
100
AcDb2dVertex
 10
-33.62929052754072
 20
225.0937340206856
 30
0.0
  0
VERTEX
  5
288
330
277
100
AcDbEntity
  8
LAYER3
100
AcDbVertex
100
AcDb2dVertex
 10
-33.48307198925642
 20
225.0241348690743
 30
0.0
  0
VERTEX
  5
289
330
277
100
AcDbEntity
  8
LAYER3
100
AcDbVertex
100
AcDb2dVertex
 10
-33.34780818863533
 20
224.9383041805977
 30
0.0
  0
VERTEX
  5
28A
330
277
100
AcDbEntity
  8
LAYER3
100
AcDbVertex
100
AcDb2dVertex
 10
-33.22286731644294
 20
224.8367950863594
 30
0.0
  0
VERTEX
  5
28B
330
277
100
AcDbEntity
  8
LAYER3
100
AcDbVertex
100
AcDb2dVertex
 10
-33.11387783928533
 20
224.7241280026192
 30
0.0
  0
VERTEX
  5
28C
330
277
100
AcDbEntity
  8
LAYER3
100
AcDbVertex
100
AcDb2dVertex
 10
-33.02334076805727
 20
224.6068260617013
 30
0.0
  0
VERTEX
  5
28D
330
277
100
AcDbEntity
  8
LAYER3
100
AcDbVertex
100
AcDb2dVertex
 10
-32.95098847790376
 20
224.4889519161934
 30
0.0
  0
VERTEX
  5
28E
330
277
100
AcDbEntity
  8
LAYER3
100
AcDbVertex
100
AcDb2dVertex
 10
-32.89188391609801
 20
224.3660614437813
 30
0.0
  0
VERTEX
  5
28F
330
277
100
AcDbEntity
  8
LAYER3
100
AcDbVertex
100
AcDb2dVertex
 10
-32.84580416126857
 20
224.2391846127266
 30
0.0
  0
VERTEX
  5
290
330
277
100
AcDbEntity
  8
LAYER3
100
AcDbVertex
100
AcDb2dVertex
 10
-32.81289941712027
 20
224.109809154963
 30
0.0
  0
SEQEND
  5
291
330
277
100
AcDbEntity
  8
LAYER3
  0
POLYLINE
  5
292
330
2
100
AcDbEntity
  8
LAYER3
100
AcDb2dPolyline
 66
     1
 10
0.0
 20
0.0
 30
0.0
 70
   128
  0
VERTEX
  5
293
330
292
100
AcDbEntity
  8
LAYER3
100
AcDbVertex
100
AcDb2dVertex
 10
-32.81289941712027
 20
224.109809154963
 30
0.0
  0
VERTEX
  5
294
330
292
100
AcDbEntity
  8
LAYER3
100
AcDbVertex
100
AcDb2dVertex
 10
-32.80654615803366
 20
224.0806076473946
 30
0.0
  0
VERTEX
  5
295
330
292
100
AcDbEntity
  8
LAYER3
100
AcDbVertex
100
AcDb2dVertex
 10
-32.79929704113607
 20
224.0515015072579
 30
0.0
  0
VERTEX
  5
296
330
292
100
AcDbEntity
  8
LAYER3
100
AcDbVertex
100
AcDb2dVertex
 10
-32.79115325852038
 20
224.0225479550118
 30
0.0
  0
VERTEX
  5
297
330
292
100
AcDbEntity
  8
LAYER3
100
AcDbVertex
100
AcDb2dVertex
 10
-32.78211957855822
 20
223.993785137629
 30
0.0
  0
VERTEX
  5
298
330
292
100
AcDbEntity
  8
LAYER3
100
AcDbVertex
100
AcDb2dVertex
 10
-32.77219719334246
 20
223.9652130551094
 30
0.0
  0
VERTEX
  5
299
330
292
100
AcDbEntity
  8
LAYER3
100
AcDbVertex
100
AcDb2dVertex
 10
-32.76138967915179
 20
223.9369080013985
 30
0.0
  0
VERTEX
  5
29A
330
292
100
AcDbEntity
  8
LAYER3
100
AcDbVertex
100
AcDb2dVertex
 10
-32.74969942017199
 20
223.9088509030098
 30
0.0
  0
VERTEX
  5
29B
330
292
100
AcDbEntity
  8
LAYER3
100
AcDbVertex
100
AcDb2dVertex
 10
-32.73694164200424
 20
223.8807747311348
 30
0.0
  0
VERTEX
  5
29C
330
292
100
AcDbEntity
  8
LAYER3
100
AcDbVertex
100
AcDb2dVertex
 10
-32.7228755418837
 20
223.8522598690743
 30
0.0
  0
VERTEX
  5
29D
330
292
100
AcDbEntity
  8
LAYER3
100
AcDbVertex
100
AcDb2dVertex
 10
-32.70749813957809
 20
223.8234589047188
 30
0.0
  0
VERTEX
  5
29E
330
292
100
AcDbEntity
  8
LAYER3
100
AcDbVertex
100
AcDb2dVertex
 10
-32.69080705090164
 20
223.7945053524727
 30
0.0
  0
VERTEX
  5
29F
330
292
100
AcDbEntity
  8
LAYER3
100
AcDbVertex
100
AcDb2dVertex
 10
-32.672800487715
 20
223.765513653254
 30
0.0
  0
VERTEX
  5
2A0
330
292
100
AcDbEntity
  8
LAYER3
100
AcDbVertex
100
AcDb2dVertex
 10
-32.65347666187881
 20
223.7366363949532
 30
0.0
  0
VERTEX
  5
2A1
330
292
100
AcDbEntity
  8
LAYER3
100
AcDbVertex
100
AcDb2dVertex
 10
-32.63283438130014
 20
223.707968945002
 30
0.0
  0
VERTEX
  5
2A2
330
292
100
AcDbEntity
  8
LAYER3
100
AcDbVertex
100
AcDb2dVertex
 10
-32.61087006970041
 20
223.6796829647774
 30
0.0
  0
VERTEX
  5
2A3
330
292
100
AcDbEntity
  8
LAYER3
100
AcDbVertex
100
AcDb2dVertex
 10
-32.58758134289377
 20
223.651873821711
 30
0.0
  0
VERTEX
  5
2A4
330
292
100
AcDbEntity
  8
LAYER3
100
AcDbVertex
100
AcDb2dVertex
 10
-32.56298310204142
 20
223.6246559567208
 30
0.0
  0
VERTEX
  5
2A5
330
292
100
AcDbEntity
  8
LAYER3
100
AcDbVertex
100
AcDb2dVertex
 10
-32.5371671382963
 20
223.598162884211
 30
0.0
  0
VERTEX
  5
2A6
330
292
100
AcDbEntity
  8
LAYER3
100
AcDbVertex
100
AcDb2dVertex
 10
-32.5102317993223
 20
223.572470898127
 30
0.0
  0
VERTEX
  5
2A7
330
292
100
AcDbEntity
  8
LAYER3
100
AcDbVertex
100
AcDb2dVertex
 10
-32.4822754327833
 20
223.5476753659005
 30
0.0
  0
VERTEX
  5
2A8
330
292
100
AcDbEntity
  8
LAYER3
100
AcDbVertex
100
AcDb2dVertex
 10
-32.45339757843607
 20
223.523871654963
 30
0.0
  0
VERTEX
  5
2A9
330
292
100
AcDbEntity
  8
LAYER3
100
AcDbVertex
100
AcDb2dVertex
 10
-32.42369717999094
 20
223.5011551327461
 30
0.0
  0
VERTEX
  5
2AA
330
292
100
AcDbEntity
  8
LAYER3
100
AcDbVertex
100
AcDb2dVertex
 10
-32.39327198906534
 20
223.4796402401681
 30
0.0
  0
VERTEX
  5
2AB
330
292
100
AcDbEntity
  8
LAYER3
100
AcDbVertex
100
AcDb2dVertex
 10
-32.3622209493696
 20
223.4594032711739
 30
0.0
  0
SEQEND
  5
2AC
330
292
100
AcDbEntity
  8
LAYER3
  0
ARC
  5
2AD
330
2
100
AcDbEntity
  8
LAYER3
100
AcDbCircle
 10
-34.13620497419874
 20
220.6176662535105
 30
0.0
 40
3.3500000000015
100
AcDbArc
 50
49.97488305082807
 51
58.02511694917191
  0
POLYLINE
  5
2AE
330
2
100
AcDbEntity
  8
LAYER3
100
AcDb2dPolyline
 66
     1
 10
0.0
 20
0.0
 30
0.0
 70
   128
  0
VERTEX
  5
2AF
330
2AE
100
AcDbEntity
  8
LAYER3
100
AcDbVertex
100
AcDb2dVertex
 10
-31.98174185200327
 20
223.1829712338204
 30
0.0
  0
VERTEX
  5
2B0
330
2AE
100
AcDbEntity
  8
LAYER3
100
AcDbVertex
100
AcDb2dVertex
 10
-31.95290274067514
 20
223.1597015805001
 30
0.0
  0
VERTEX
  5
2B1
330
2AE
100
AcDbEntity
  8
LAYER3
100
AcDbVertex
100
AcDb2dVertex
 10
-31.9230336610853
 20
223.1374046749825
 30
0.0
  0
VERTEX
  5
2B2
330
2AE
100
AcDbEntity
  8
LAYER3
100
AcDbVertex
100
AcDb2dVertex
 10
-31.89225739880197
 20
223.1161758846993
 30
0.0
  0
VERTEX
  5
2B3
330
2AE
100
AcDbEntity
  8
LAYER3
100
AcDbVertex
100
AcDb2dVertex
 10
-31.86069614334696
 20
223.0960724301095
 30
0.0
  0
VERTEX
  5
2B4
330
2AE
100
AcDbEntity
  8
LAYER3
100
AcDbVertex
100
AcDb2dVertex
 10
-31.82847268028849
 20
223.0771515316719
 30
0.0
  0
VERTEX
  5
2B5
330
2AE
100
AcDbEntity
  8
LAYER3
100
AcDbVertex
100
AcDb2dVertex
 10
-31.79571039124124
 20
223.0594704098458
 30
0.0
  0
VERTEX
  5
2B6
330
2AE
100
AcDbEntity
  8
LAYER3
100
AcDbVertex
100
AcDb2dVertex
 10
-31.76253146572702
 20
223.0431053585762
 30
0.0
  0
VERTEX
  5
2B7
330
2AE
100
AcDbEntity
  8
LAYER3
100
AcDbVertex
100
AcDb2dVertex
 10
-31.72905928536051
 20
223.0281135983223
 30
0.0
  0
VERTEX
  5
2B8
330
2AE
100
AcDbEntity
  8
LAYER3
100
AcDbVertex
100
AcDb2dVertex
 10
-31.69541484757059
 20
223.014552349543
 30
0.0
  0
VERTEX
  5
2B9
330
2AE
100
AcDbEntity
  8
LAYER3
100
AcDbVertex
100
AcDb2dVertex
 10
-31.66171497746103
 20
223.0024216122384
 30
0.0
  0
VERTEX
  5
2BA
330
2AE
100
AcDbEntity
  8
LAYER3
100
AcDbVertex
100
AcDb2dVertex
 10
-31.62808126850723
 20
222.991645092463
 30
0.0
  0
VERTEX
  5
2BB
330
2AE
100
AcDbEntity
  8
LAYER3
100
AcDbVertex
100
AcDb2dVertex
 10
-31.59463710232376
 20
222.9821846432442
 30
0.0
  0
VERTEX
  5
2BC
330
2AE
100
AcDbEntity
  8
LAYER3
100
AcDbVertex
100
AcDb2dVertex
 10
-31.56150466843246
 20
222.9740211910958
 30
0.0
  0
VERTEX
  5
2BD
330
2AE
100
AcDbEntity
  8
LAYER3
100
AcDbVertex
100
AcDb2dVertex
 10
-31.52880734844803
 20
222.9670975155586
 30
0.0
  0
VERTEX
  5
2BE
330
2AE
100
AcDbEntity
  8
LAYER3
100
AcDbVertex
100
AcDb2dVertex
 10
-31.49666733189224
 20
222.9613754696602
 30
0.0
  0
VERTEX
  5
2BF
330
2AE
100
AcDbEntity
  8
LAYER3
100
AcDbVertex
100
AcDb2dVertex
 10
-31.46520800037979
 20
222.9567978329415
 30
0.0
  0
VERTEX
  5
2C0
330
2AE
100
AcDbEntity
  8
LAYER3
100
AcDbVertex
100
AcDb2dVertex
 10
-31.43454975529312
 20
222.9533455319161
 30
0.0
  0
VERTEX
  5
2C1
330
2AE
100
AcDbEntity
  8
LAYER3
100
AcDbVertex
100
AcDb2dVertex
 10
-31.40426701946854
 20
222.9508850521797
 30
0.0
  0
VERTEX
  5
2C2
330
2AE
100
AcDbEntity
  8
LAYER3
100
AcDbVertex
100
AcDb2dVertex
 10
-31.37399322434067
 20
222.9493591732735
 30
0.0
  0
VERTEX
  5
2C3
330
2AE
100
AcDbEntity
  8
LAYER3
100
AcDbVertex
100
AcDb2dVertex
 10
-31.34376174851059
 20
222.948748821711
 30
0.0
  0
VERTEX
  5
2C4
330
2AE
100
AcDbEntity
  8
LAYER3
100
AcDbVertex
100
AcDb2dVertex
 10
-31.31360477848648
 20
222.9490539974923
 30
0.0
  0
VERTEX
  5
2C5
330
2AE
100
AcDbEntity
  8
LAYER3
100
AcDbVertex
100
AcDb2dVertex
 10
-31.28355509682303
 20
222.9502556271309
 30
0.0
  0
VERTEX
  5
2C6
330
2AE
100
AcDbEntity
  8
LAYER3
100
AcDbVertex
100
AcDb2dVertex
 10
-31.25364489002829
 20
222.952353710627
 30
0.0
  0
VERTEX
  5
2C7
330
2AE
100
AcDbEntity
  8
LAYER3
100
AcDbVertex
100
AcDb2dVertex
 10
-31.2239075367034
 20
222.9553291744942
 30
0.0
  0
SEQEND
  5
2C8
330
2AE
100
AcDbEntity
  8
LAYER3
  0
POLYLINE
  5
2C9
330
2
100
AcDbEntity
  8
LAYER3
100
AcDb2dPolyline
 66
     1
 10
0.0
 20
0.0
 30
0.0
 70
   128
  0
VERTEX
  5
2CA
330
2C9
100
AcDbEntity
  8
LAYER3
100
AcDbVertex
100
AcDb2dVertex
 10
-31.2239075367034
 20
222.9553291744942
 30
0.0
  0
VERTEX
  5
2CB
330
2C9
100
AcDbEntity
  8
LAYER3
100
AcDbVertex
100
AcDb2dVertex
 10
-31.09069592400203
 20
222.9640266842598
 30
0.0
  0
VERTEX
  5
2CC
330
2C9
100
AcDbEntity
  8
LAYER3
100
AcDbVertex
100
AcDb2dVertex
 10
-30.95578200264583
 20
222.9594109005684
 30
0.0
  0
VERTEX
  5
2CD
330
2C9
100
AcDbEntity
  8
LAYER3
100
AcDbVertex
100
AcDb2dVertex
 10
-30.82064754410402
 20
222.9411575741524
 30
0.0
  0
VERTEX
  5
2CE
330
2C9
100
AcDbEntity
  8
LAYER3
100
AcDbVertex
100
AcDb2dVertex
 10
-30.68617708130495
 20
222.9087898678536
 30
0.0
  0
VERTEX
  5
2CF
330
2C9
100
AcDbEntity
  8
LAYER3
100
AcDbVertex
100
AcDb2dVertex
 10
-30.546634859282
 20
222.8589317745919
 30
0.0
  0
VERTEX
  5
2D0
330
2C9
100
AcDbEntity
  8
LAYER3
100
AcDbVertex
100
AcDb2dVertex
 10
-30.40580338879249
 20
222.7900955624336
 30
0.0
  0
VERTEX
  5
2D1
330
2C9
100
AcDbEntity
  8
LAYER3
100
AcDbVertex
100
AcDb2dVertex
 10
-30.27065939350746
 20
222.7026245541329
 30
0.0
  0
VERTEX
  5
2D2
330
2C9
100
AcDbEntity
  8
LAYER3
100
AcDbVertex
100
AcDb2dVertex
 10
-30.14723486347822
 20
222.6005051083321
 30
0.0
  0
VERTEX
  5
2D3
330
2C9
100
AcDbEntity
  8
LAYER3
100
AcDbVertex
100
AcDb2dVertex
 10
-30.03585762425093
 20
222.4829552120919
 30
0.0
  0
VERTEX
  5
2D4
330
2C9
100
AcDbEntity
  8
LAYER3
100
AcDbVertex
100
AcDb2dVertex
 10
-29.9333137933794
 20
222.3440430111641
 30
0.0
  0
VERTEX
  5
2D5
330
2C9
100
AcDbEntity
  8
LAYER3
100
AcDbVertex
100
AcDb2dVertex
 10
-29.84821743412647
 20
222.1901199764962
 30
0.0
  0
VERTEX
  5
2D6
330
2C9
100
AcDbEntity
  8
LAYER3
100
AcDbVertex
100
AcDb2dVertex
 10
-29.78512114926014
 20
222.0314094967598
 30
0.0
  0
VERTEX
  5
2D7
330
2C9
100
AcDbEntity
  8
LAYER3
100
AcDbVertex
100
AcDb2dVertex
 10
-29.7428841058794
 20
221.8659470028633
 30
0.0
  0
VERTEX
  5
2D8
330
2C9
100
AcDbEntity
  8
LAYER3
100
AcDbVertex
100
AcDb2dVertex
 10
-29.72125954075489
 20
221.6914055294747
 30
0.0
  0
VERTEX
  5
2D9
330
2C9
100
AcDbEntity
  8
LAYER3
100
AcDbVertex
100
AcDb2dVertex
 10
-29.7225672666612
 20
221.5187332577462
 30
0.0
  0
VERTEX
  5
2DA
330
2C9
100
AcDbEntity
  8
LAYER3
100
AcDbVertex
100
AcDb2dVertex
 10
-29.74357551975874
 20
221.358172649836
 30
0.0
  0
VERTEX
  5
2DB
330
2C9
100
AcDbEntity
  8
LAYER3
100
AcDbVertex
100
AcDb2dVertex
 10
-29.7834033433976
 20
221.2030098385567
 30
0.0
  0
VERTEX
  5
2DC
330
2C9
100
AcDbEntity
  8
LAYER3
100
AcDbVertex
100
AcDb2dVertex
 10
-29.84132952137611
 20
221.0528061337227
 30
0.0
  0
VERTEX
  5
2DD
330
2C9
100
AcDbEntity
  8
LAYER3
100
AcDbVertex
100
AcDb2dVertex
 10
-29.91480297489784
 20
220.9143516964669
 30
0.0
  0
VERTEX
  5
2DE
330
2C9
100
AcDbEntity
  8
LAYER3
100
AcDbVertex
100
AcDb2dVertex
 10
-29.9983889524521
 20
220.791995281672
 30
0.0
  0
VERTEX
  5
2DF
330
2C9
100
AcDbEntity
  8
LAYER3
100
AcDbVertex
100
AcDb2dVertex
 10
-30.08814281864778
 20
220.6867477841134
 30
0.0
  0
VERTEX
  5
2E0
330
2C9
100
AcDbEntity
  8
LAYER3
100
AcDbVertex
100
AcDb2dVertex
 10
-30.18674916668544
 20
220.5925629086251
 30
0.0
  0
VERTEX
  5
2E1
330
2C9
100
AcDbEntity
  8
LAYER3
100
AcDbVertex
100
AcDb2dVertex
 10
-30.29318398876796
 20
220.5095360226387
 30
0.0
  0
VERTEX
  5
2E2
330
2C9
100
AcDbEntity
  8
LAYER3
100
AcDbVertex
100
AcDb2dVertex
 10
-30.40605968876486
 20
220.4382584042305
 30
0.0
  0
SEQEND
  5
2E3
330
2C9
100
AcDbEntity
  8
LAYER3
  0
POLYLINE
  5
2E4
330
2
100
AcDbEntity
  8
LAYER3
100
AcDb2dPolyline
 66
     1
 10
0.0
 20
0.0
 30
0.0
 70
   128
  0
VERTEX
  5
2E5
330
2E4
100
AcDbEntity
  8
LAYER3
100
AcDbVertex
100
AcDb2dVertex
 10
-30.40605968876486
 20
220.4382584042305
 30
0.0
  0
VERTEX
  5
2E6
330
2E4
100
AcDbEntity
  8
LAYER3
100
AcDbVertex
100
AcDb2dVertex
 10
-30.43187088413839
 20
220.4231903500313
 30
0.0
  0
VERTEX
  5
2E7
330
2E4
100
AcDbEntity
  8
LAYER3
100
AcDbVertex
100
AcDb2dVertex
 10
-30.45730060978537
 20
220.40730213592
 30
0.0
  0
VERTEX
  5
2E8
330
2E4
100
AcDbEntity
  8
LAYER3
100
AcDbVertex
100
AcDb2dVertex
 10
-30.48231787129044
 20
220.3906128353829
 30
0.0
  0
VERTEX
  5
2E9
330
2E4
100
AcDbEntity
  8
LAYER3
100
AcDbVertex
100
AcDb2dVertex
 10
-30.50689048214554
 20
220.3731415219063
 30
0.0
  0
VERTEX
  5
2EA
330
2E4
100
AcDbEntity
  8
LAYER3
100
AcDbVertex
100
AcDb2dVertex
 10
-30.53098983212112
 20
220.354869122004
 30
0.0
  0
VERTEX
  5
2EB
330
2E4
100
AcDbEntity
  8
LAYER3
100
AcDbVertex
100
AcDb2dVertex
 10
-30.55458492680191
 20
220.3358337826485
 30
0.0
  0
VERTEX
  5
2EC
330
2E4
100
AcDbEntity
  8
LAYER3
100
AcDbVertex
100
AcDb2dVertex
 10
-30.57764238758682
 20
220.3160545773263
 30
0.0
  0
VERTEX
  5
2ED
330
2E4
100
AcDbEntity
  8
LAYER3
100
AcDbVertex
100
AcDb2dVertex
 10
-30.6004161302626
 20
220.2952454037423
 30
0.0
  0
VERTEX
  5
2EE
330
2E4
100
AcDbEntity
  8
LAYER3
100
AcDbVertex
100
AcDb2dVertex
 10
-30.62318152828812
 20
220.2730629391426
 30
0.0
  0
VERTEX
  5
2EF
330
2E4
100
AcDbEntity
  8
LAYER3
100
AcDbVertex
100
AcDb2dVertex
 10
-30.64581758423447
 20
220.2495262570137
 30
0.0
  0
VERTEX
  5
2F0
330
2E4
100
AcDbEntity
  8
LAYER3
100
AcDbVertex
100
AcDb2dVertex
 10
-30.66819972439407
 20
220.2247116513008
 30
0.0
  0
VERTEX
  5
2F1
330
2E4
100
AcDbEntity
  8
LAYER3
100
AcDbVertex
100
AcDb2dVertex
 10
-30.69020337505936
 20
220.198619122004
 30
0.0
  0
VERTEX
  5
2F2
330
2E4
100
AcDbEntity
  8
LAYER3
100
AcDbVertex
100
AcDb2dVertex
 10
-30.71170515461563
 20
220.1713249630684
 30
0.0
  0
VERTEX
  5
2F3
330
2E4
100
AcDbEntity
  8
LAYER3
100
AcDbVertex
100
AcDb2dVertex
 10
-30.73258048935526
 20
220.1428291744942
 30
0.0
  0
VERTEX
  5
2F4
330
2E4
100
AcDbEntity
  8
LAYER3
100
AcDbVertex
100
AcDb2dVertex
 10
-30.75270599766367
 20
220.1132080502266
 30
0.0
  0
VERTEX
  5
2F5
330
2E4
100
AcDbEntity
  8
LAYER3
100
AcDbVertex
100
AcDb2dVertex
 10
-30.77195710583322
 20
220.0824615902657
 30
0.0
  0
VERTEX
  5
2F6
330
2E4
100
AcDbEntity
  8
LAYER3
100
AcDbVertex
100
AcDb2dVertex
 10
-30.79022712154978
 20
220.0506660885567
 30
0.0
  0
VERTEX
  5
2F7
330
2E4
100
AcDbEntity
  8
LAYER3
100
AcDbVertex
100
AcDb2dVertex
 10
-30.80745047970407
 20
220.0179169125313
 30
0.0
  0
VERTEX
  5
2F8
330
2E4
100
AcDbEntity
  8
LAYER3
100
AcDbVertex
100
AcDb2dVertex
 10
-30.823565787512
 20
219.9843666500802
 30
0.0
  0
VERTEX
  5
2F9
330
2E4
100
AcDbEntity
  8
LAYER3
100
AcDbVertex
100
AcDb2dVertex
 10
-30.83851105614298
 20
219.9501106686348
 30
0.0
  0
VERTEX
  5
2FA
330
2E4
100
AcDbEntity
  8
LAYER3
100
AcDbVertex
100
AcDb2dVertex
 10
-30.8522248928129
 20
219.9152824825997
 30
0.0
  0
VERTEX
  5
2FB
330
2E4
100
AcDbEntity
  8
LAYER3
100
AcDbVertex
100
AcDb2dVertex
 10
-30.8646453086912
 20
219.880015606379
 30
0.0
  0
VERTEX
  5
2FC
330
2E4
100
AcDbEntity
  8
LAYER3
100
AcDbVertex
100
AcDb2dVertex
 10
-30.87571091099375
 20
219.844443554377
 30
0.0
  0
VERTEX
  5
2FD
330
2E4
100
AcDbEntity
  8
LAYER3
100
AcDbVertex
100
AcDb2dVertex
 10
-30.88535911484354
 20
219.8086616940255
 30
0.0
  0
SEQEND
  5
2FE
330
2E4
100
AcDbEntity
  8
LAYER3
  0
POLYLINE
  5
2FF
330
2
100
AcDbEntity
  8
LAYER3
100
AcDb2dPolyline
 66
     1
 10
0.0
 20
0.0
 30
0.0
 70
   128
  0
VERTEX
  5
300
330
2FF
100
AcDbEntity
  8
LAYER3
100
AcDbVertex
100
AcDb2dVertex
 10
-37.86635018034582
 20
220.4382584042305
 30
0.0
  0
VERTEX
  5
301
330
2FF
100
AcDbEntity
  8
LAYER3
100
AcDbVertex
100
AcDb2dVertex
 10
-37.9792255823196
 20
220.5095360226387
 30
0.0
  0
VERTEX
  5
302
330
2FF
100
AcDbEntity
  8
LAYER3
100
AcDbVertex
100
AcDb2dVertex
 10
-38.08566070242537
 20
220.5925629086251
 30
0.0
  0
VERTEX
  5
303
330
2FF
100
AcDbEntity
  8
LAYER3
100
AcDbVertex
100
AcDb2dVertex
 10
-38.18426660342828
 20
220.6867477841134
 30
0.0
  0
VERTEX
  5
304
330
2FF
100
AcDbEntity
  8
LAYER3
100
AcDbVertex
100
AcDb2dVertex
 10
-38.2740209166588
 20
220.791995281672
 30
0.0
  0
VERTEX
  5
305
330
2FF
100
AcDbEntity
  8
LAYER3
100
AcDbVertex
100
AcDb2dVertex
 10
-38.3576074902596
 20
220.9143516964669
 30
0.0
  0
VERTEX
  5
306
330
2FF
100
AcDbEntity
  8
LAYER3
100
AcDbVertex
100
AcDb2dVertex
 10
-38.43107990070007
 20
221.0528061337227
 30
0.0
  0
VERTEX
  5
307
330
2FF
100
AcDbEntity
  8
LAYER3
100
AcDbVertex
100
AcDb2dVertex
 10
-38.48900712175987
 20
221.2030098385567
 30
0.0
  0
VERTEX
  5
308
330
2FF
100
AcDbEntity
  8
LAYER3
100
AcDbVertex
100
AcDb2dVertex
 10
-38.52883405132917
 20
221.358172649836
 30
0.0
  0
VERTEX
  5
309
330
2FF
100
AcDbEntity
  8
LAYER3
100
AcDbVertex
100
AcDb2dVertex
 10
-38.54984245343832
 20
221.5187332577462
 30
0.0
  0
VERTEX
  5
30A
330
2FF
100
AcDbEntity
  8
LAYER3
100
AcDbVertex
100
AcDb2dVertex
 10
-38.55115003033311
 20
221.6914055294747
 30
0.0
  0
VERTEX
  5
30B
330
2FF
100
AcDbEntity
  8
LAYER3
100
AcDbVertex
100
AcDb2dVertex
 10
-38.52952546520859
 20
221.8659470028633
 30
0.0
  0
VERTEX
  5
30C
330
2FF
100
AcDbEntity
  8
LAYER3
100
AcDbVertex
100
AcDb2dVertex
 10
-38.48728857083947
 20
222.0314094967598
 30
0.0
  0
VERTEX
  5
30D
330
2FF
100
AcDbEntity
  8
LAYER3
100
AcDbVertex
100
AcDb2dVertex
 10
-38.42419243498475
 20
222.1901199764962
 30
0.0
  0
VERTEX
  5
30E
330
2FF
100
AcDbEntity
  8
LAYER3
100
AcDbVertex
100
AcDb2dVertex
 10
-38.33909652276665
 20
222.3440430111641
 30
0.0
  0
VERTEX
  5
30F
330
2FF
100
AcDbEntity
  8
LAYER3
100
AcDbVertex
100
AcDb2dVertex
 10
-38.2365520958486
 20
222.4829552120919
 30
0.0
  0
VERTEX
  5
310
330
2FF
100
AcDbEntity
  8
LAYER3
100
AcDbVertex
100
AcDb2dVertex
 10
-38.12517560167936
 20
222.6005051083321
 30
0.0
  0
VERTEX
  5
311
330
2FF
100
AcDbEntity
  8
LAYER3
100
AcDbVertex
100
AcDb2dVertex
 10
-38.00175107165001
 20
222.7026245541329
 30
0.0
  0
VERTEX
  5
312
330
2FF
100
AcDbEntity
  8
LAYER3
100
AcDbVertex
100
AcDb2dVertex
 10
-37.8666061822953
 20
222.7900955624336
 30
0.0
  0
VERTEX
  5
313
330
2FF
100
AcDbEntity
  8
LAYER3
100
AcDbVertex
100
AcDb2dVertex
 10
-37.72577471180577
 20
222.8589317745919
 30
0.0
  0
VERTEX
  5
314
330
2FF
100
AcDbEntity
  8
LAYER3
100
AcDbVertex
100
AcDb2dVertex
 10
-37.58623278780595
 20
222.9087898678536
 30
0.0
  0
VERTEX
  5
315
330
2FF
100
AcDbEntity
  8
LAYER3
100
AcDbVertex
100
AcDb2dVertex
 10
-37.45176232500688
 20
222.9411575741524
 30
0.0
  0
VERTEX
  5
316
330
2FF
100
AcDbEntity
  8
LAYER3
100
AcDbVertex
100
AcDb2dVertex
 10
-37.31662816448821
 20
222.9594109005684
 30
0.0
  0
VERTEX
  5
317
330
2FF
100
AcDbEntity
  8
LAYER3
100
AcDbVertex
100
AcDb2dVertex
 10
-37.18171424313198
 20
222.9640266842598
 30
0.0
  0
VERTEX
  5
318
330
2FF
100
AcDbEntity
  8
LAYER3
100
AcDbVertex
100
AcDb2dVertex
 10
-37.04850263043051
 20
222.9553291744942
 30
0.0
  0
SEQEND
  5
319
330
2FF
100
AcDbEntity
  8
LAYER3
  0
POLYLINE
  5
31A
330
2
100
AcDbEntity
  8
LAYER3
100
AcDb2dPolyline
 66
     1
 10
0.0
 20
0.0
 30
0.0
 70
   128
  0
VERTEX
  5
31B
330
31A
100
AcDbEntity
  8
LAYER3
100
AcDbVertex
100
AcDb2dVertex
 10
-37.38705075426691
 20
219.8086616940255
 30
0.0
  0
VERTEX
  5
31C
330
31A
100
AcDbEntity
  8
LAYER3
100
AcDbVertex
100
AcDb2dVertex
 10
-37.3966989581167
 20
219.844443554377
 30
0.0
  0
VERTEX
  5
31D
330
31A
100
AcDbEntity
  8
LAYER3
100
AcDbVertex
100
AcDb2dVertex
 10
-37.40776456041925
 20
219.880015606379
 30
0.0
  0
VERTEX
  5
31E
330
31A
100
AcDbEntity
  8
LAYER3
100
AcDbVertex
100
AcDb2dVertex
 10
-37.42018467827433
 20
219.9152824825997
 30
0.0
  0
VERTEX
  5
31F
330
31A
100
AcDbEntity
  8
LAYER3
100
AcDbVertex
100
AcDb2dVertex
 10
-37.43389851494425
 20
219.9501106686348
 30
0.0
  0
VERTEX
  5
320
330
31A
100
AcDbEntity
  8
LAYER3
100
AcDbVertex
100
AcDb2dVertex
 10
-37.44884408159845
 20
219.9843666500802
 30
0.0
  0
VERTEX
  5
321
330
31A
100
AcDbEntity
  8
LAYER3
100
AcDbVertex
100
AcDb2dVertex
 10
-37.46495938940638
 20
220.0179169125313
 30
0.0
  0
VERTEX
  5
322
330
31A
100
AcDbEntity
  8
LAYER3
100
AcDbVertex
100
AcDb2dVertex
 10
-37.4821830455839
 20
220.0506660885567
 30
0.0
  0
VERTEX
  5
323
330
31A
100
AcDbEntity
  8
LAYER3
100
AcDbVertex
100
AcDb2dVertex
 10
-37.50045306130045
 20
220.0824615902657
 30
0.0
  0
VERTEX
  5
324
330
31A
100
AcDbEntity
  8
LAYER3
100
AcDbVertex
100
AcDb2dVertex
 10
-37.51970387144678
 20
220.1132080502266
 30
0.0
  0
VERTEX
  5
325
330
31A
100
AcDbEntity
  8
LAYER3
100
AcDbVertex
100
AcDb2dVertex
 10
-37.53982937975519
 20
220.1428291744942
 30
0.0
  0
VERTEX
  5
326
330
31A
100
AcDbEntity
  8
LAYER3
100
AcDbVertex
100
AcDb2dVertex
 10
-37.56070501251816
 20
220.1713249630684
 30
0.0
  0
VERTEX
  5
327
330
31A
100
AcDbEntity
  8
LAYER3
100
AcDbVertex
100
AcDb2dVertex
 10
-37.58220679207443
 20
220.198619122004
 30
0.0
  0
VERTEX
  5
328
330
31A
100
AcDbEntity
  8
LAYER3
100
AcDbVertex
100
AcDb2dVertex
 10
-37.60421044273972
 20
220.2247116513008
 30
0.0
  0
VERTEX
  5
329
330
31A
100
AcDbEntity
  8
LAYER3
100
AcDbVertex
100
AcDb2dVertex
 10
-37.62659198685287
 20
220.2495262570137
 30
0.0
  0
VERTEX
  5
32A
330
31A
100
AcDbEntity
  8
LAYER3
100
AcDbVertex
100
AcDb2dVertex
 10
-37.64922804279922
 20
220.2730629391426
 30
0.0
  0
VERTEX
  5
32B
330
31A
100
AcDbEntity
  8
LAYER3
100
AcDbVertex
100
AcDb2dVertex
 10
-37.67199403687119
 20
220.2952454037423
 30
0.0
  0
VERTEX
  5
32C
330
31A
100
AcDbEntity
  8
LAYER3
100
AcDbVertex
100
AcDb2dVertex
 10
-37.69476777954699
 20
220.3160545773263
 30
0.0
  0
VERTEX
  5
32D
330
31A
100
AcDbEntity
  8
LAYER3
100
AcDbVertex
100
AcDb2dVertex
 10
-37.71782553835513
 20
220.3358337826485
 30
0.0
  0
VERTEX
  5
32E
330
31A
100
AcDbEntity
  8
LAYER3
100
AcDbVertex
100
AcDb2dVertex
 10
-37.74141973896624
 20
220.354869122004
 30
0.0
  0
VERTEX
  5
32F
330
31A
100
AcDbEntity
  8
LAYER3
100
AcDbVertex
100
AcDb2dVertex
 10
-37.76551908894183
 20
220.3731415219063
 30
0.0
  0
VERTEX
  5
330
330
31A
100
AcDbEntity
  8
LAYER3
100
AcDbVertex
100
AcDb2dVertex
 10
-37.7900925938666
 20
220.3906128353829
 30
0.0
  0
VERTEX
  5
331
330
31A
100
AcDbEntity
  8
LAYER3
100
AcDbVertex
100
AcDb2dVertex
 10
-37.81510955734854
 20
220.40730213592
 30
0.0
  0
VERTEX
  5
332
330
31A
100
AcDbEntity
  8
LAYER3
100
AcDbVertex
100
AcDb2dVertex
 10
-37.84053928299551
 20
220.4231903500313
 30
0.0
  0
VERTEX
  5
333
330
31A
100
AcDbEntity
  8
LAYER3
100
AcDbVertex
100
AcDb2dVertex
 10
-37.86635018034582
 20
220.4382584042305
 30
0.0
  0
SEQEND
  5
334
330
31A
100
AcDbEntity
  8
LAYER3
  0
ARC
  5
335
330
2
100
AcDbEntity
  8
LAYER3
100
AcDbCircle
 10
-34.13620497419868
 20
220.6176662535115
 30
0.0
 40
3.349999999999185
100
AcDbArc
 50
193.9748830508236
 51
202.025116949177
  0
POLYLINE
  5
336
330
2
100
AcDbEntity
  8
LAYER3
100
AcDb2dPolyline
 66
     1
 10
0.0
 20
0.0
 30
0.0
 70
   128
  0
VERTEX
  5
337
330
336
100
AcDbEntity
  8
LAYER3
100
AcDbVertex
100
AcDb2dVertex
 10
-37.25940919561987
 20
218.5702774471993
 30
0.0
  0
VERTEX
  5
338
330
336
100
AcDbEntity
  8
LAYER3
100
AcDbVertex
100
AcDb2dVertex
 10
-37.24738366051321
 20
218.5976479000801
 30
0.0
  0
VERTEX
  5
339
330
336
100
AcDbEntity
  8
LAYER3
100
AcDbVertex
100
AcDb2dVertex
 10
-37.23614788694983
 20
218.6254379696602
 30
0.0
  0
VERTEX
  5
33A
330
336
100
AcDbEntity
  8
LAYER3
100
AcDbVertex
100
AcDb2dVertex
 10
-37.22571916027667
 20
218.6536476559395
 30
0.0
  0
VERTEX
  5
33B
330
336
100
AcDbEntity
  8
LAYER3
100
AcDbVertex
100
AcDb2dVertex
 10
-37.21611536188723
 20
218.6822388119454
 30
0.0
  0
VERTEX
  5
33C
330
336
100
AcDbEntity
  8
LAYER3
100
AcDbVertex
100
AcDb2dVertex
 10
-37.20735318108203
 20
218.7111732907052
 30
0.0
  0
VERTEX
  5
33D
330
336
100
AcDbEntity
  8
LAYER3
100
AcDbVertex
100
AcDb2dVertex
 10
-37.19945079727771
 20
218.7404510922188
 30
0.0
  0
VERTEX
  5
33E
330
336
100
AcDbEntity
  8
LAYER3
100
AcDbVertex
100
AcDb2dVertex
 10
-37.19242519779803
 20
218.7699959225411
 30
0.0
  0
VERTEX
  5
33F
330
336
100
AcDbEntity
  8
LAYER3
100
AcDbVertex
100
AcDb2dVertex
 10
-37.18623495741486
 20
218.8002273983712
 30
0.0
  0
VERTEX
  5
340
330
336
100
AcDbEntity
  8
LAYER3
100
AcDbVertex
100
AcDb2dVertex
 10
-37.18085802240967
 20
218.8315651364083
 30
0.0
  0
VERTEX
  5
341
330
336
100
AcDbEntity
  8
LAYER3
100
AcDbVertex
100
AcDb2dVertex
 10
-37.17637217684387
 20
218.8638946957345
 30
0.0
  0
VERTEX
  5
342
330
336
100
AcDbEntity
  8
LAYER3
100
AcDbVertex
100
AcDb2dVertex
 10
-37.1728552047789
 20
218.8971397824044
 30
0.0
  0
VERTEX
  5
343
330
336
100
AcDbEntity
  8
LAYER3
100
AcDbVertex
100
AcDb2dVertex
 10
-37.17038489027618
 20
218.9311668820137
 30
0.0
  0
VERTEX
  5
344
330
336
100
AcDbEntity
  8
LAYER3
100
AcDbVertex
100
AcDb2dVertex
 10
-37.16903871937393
 20
218.9658997006173
 30
0.0
  0
VERTEX
  5
345
330
336
100
AcDbEntity
  8
LAYER3
100
AcDbVertex
100
AcDb2dVertex
 10
-37.16889477415674
 20
219.0012047238106
 30
0.0
  0
VERTEX
  5
346
330
336
100
AcDbEntity
  8
LAYER3
100
AcDbVertex
100
AcDb2dVertex
 10
-37.17003083868616
 20
219.0370247311348
 30
0.0
  0
VERTEX
  5
347
330
336
100
AcDbEntity
  8
LAYER3
100
AcDbVertex
100
AcDb2dVertex
 10
-37.17252678318613
 20
219.0732071346993
 30
0.0
  0
VERTEX
  5
348
330
336
100
AcDbEntity
  8
LAYER3
100
AcDbVertex
100
AcDb2dVertex
 10
-37.17643774195307
 20
219.1096756405586
 30
0.0
  0
VERTEX
  5
349
330
336
100
AcDbEntity
  8
LAYER3
100
AcDbVertex
100
AcDb2dVertex
 10
-37.18174821777933
 20
219.1462776608223
 30
0.0
  0
VERTEX
  5
34A
330
336
100
AcDbEntity
  8
LAYER3
100
AcDbVertex
100
AcDb2dVertex
 10
-37.18843526287668
 20
219.1828987545723
 30
0.0
  0
VERTEX
  5
34B
330
336
100
AcDbEntity
  8
LAYER3
100
AcDbVertex
100
AcDb2dVertex
 10
-37.19647622748011
 20
219.2194054074044
 30
0.0
  0
VERTEX
  5
34C
330
336
100
AcDbEntity
  8
LAYER3
100
AcDbVertex
100
AcDb2dVertex
 10
-37.20584816380136
 20
219.2556259579415
 30
0.0
  0
VERTEX
  5
34D
330
336
100
AcDbEntity
  8
LAYER3
100
AcDbVertex
100
AcDb2dVertex
 10
-37.21652812405222
 20
219.291465038752
 30
0.0
  0
VERTEX
  5
34E
330
336
100
AcDbEntity
  8
LAYER3
100
AcDbVertex
100
AcDb2dVertex
 10
-37.22849316044443
 20
219.3267509884591
 30
0.0
  0
VERTEX
  5
34F
330
336
100
AcDbEntity
  8
LAYER3
100
AcDbVertex
100
AcDb2dVertex
 10
-37.24172032518976
 20
219.3613693661446
 30
0.0
  0
SEQEND
  5
350
330
336
100
AcDbEntity
  8
LAYER3
  0
POLYLINE
  5
351
330
2
100
AcDbEntity
  8
LAYER3
100
AcDb2dPolyline
 66
     1
 10
0.0
 20
0.0
 30
0.0
 70
   128
  0
VERTEX
  5
352
330
351
100
AcDbEntity
  8
LAYER3
100
AcDbVertex
100
AcDb2dVertex
 10
-35.11825627728109
 20
217.0146439022774
 30
0.0
  0
VERTEX
  5
353
330
351
100
AcDbEntity
  8
LAYER3
100
AcDbVertex
100
AcDb2dVertex
 10
-35.22092170162807
 20
216.9293281979317
 30
0.0
  0
VERTEX
  5
354
330
351
100
AcDbEntity
  8
LAYER3
100
AcDbVertex
100
AcDb2dVertex
 10
-35.33278173847808
 20
216.8537590450997
 30
0.0
  0
VERTEX
  5
355
330
351
100
AcDbEntity
  8
LAYER3
100
AcDbVertex
100
AcDb2dVertex
 10
-35.45282787724153
 20
216.789080852961
 30
0.0
  0
VERTEX
  5
356
330
351
100
AcDbEntity
  8
LAYER3
100
AcDbVertex
100
AcDb2dVertex
 10
-35.5806518261017
 20
216.7362472958321
 30
0.0
  0
VERTEX
  5
357
330
351
100
AcDbEntity
  8
LAYER3
100
AcDbVertex
100
AcDb2dVertex
 10
-35.72284824295659
 20
216.6945526547188
 30
0.0
  0
VERTEX
  5
358
330
351
100
AcDbEntity
  8
LAYER3
100
AcDbVertex
100
AcDb2dVertex
 10
-35.877245730597
 20
216.6674683041329
 30
0.0
  0
VERTEX
  5
359
330
351
100
AcDbEntity
  8
LAYER3
100
AcDbVertex
100
AcDb2dVertex
 10
-36.0379878346505
 20
216.6587898678536
 30
0.0
  0
VERTEX
  5
35A
330
351
100
AcDbEntity
  8
LAYER3
100
AcDbVertex
100
AcDb2dVertex
 10
-36.19786596937803
 20
216.6688606686348
 30
0.0
  0
VERTEX
  5
35B
330
351
100
AcDbEntity
  8
LAYER3
100
AcDbVertex
100
AcDb2dVertex
 10
-36.35706848545698
 20
216.6985008663887
 30
0.0
  0
VERTEX
  5
35C
330
351
100
AcDbEntity
  8
LAYER3
100
AcDbVertex
100
AcDb2dVertex
 10
-36.52168131514222
 20
216.7506096310372
 30
0.0
  0
VERTEX
  5
35D
330
351
100
AcDbEntity
  8
LAYER3
100
AcDbVertex
100
AcDb2dVertex
 10
-36.68099380179078
 20
216.8251106686348
 30
0.0
  0
VERTEX
  5
35E
330
351
100
AcDbEntity
  8
LAYER3
100
AcDbVertex
100
AcDb2dVertex
 10
-36.82532257481248
 20
216.9164154476876
 30
0.0
  0
VERTEX
  5
35F
330
351
100
AcDbEntity
  8
LAYER3
100
AcDbVertex
100
AcDb2dVertex
 10
-36.9567594592157
 20
217.0254585690255
 30
0.0
  0
VERTEX
  5
360
330
351
100
AcDbEntity
  8
LAYER3
100
AcDbVertex
100
AcDb2dVertex
 10
-37.07684463902146
 20
217.1539566464181
 30
0.0
  0
VERTEX
  5
361
330
351
100
AcDbEntity
  8
LAYER3
100
AcDbVertex
100
AcDb2dVertex
 10
-37.17727339907316
 20
217.2944137997383
 30
0.0
  0
VERTEX
  5
362
330
351
100
AcDbEntity
  8
LAYER3
100
AcDbVertex
100
AcDb2dVertex
 10
-37.2546575133386
 20
217.4366638607735
 30
0.0
  0
VERTEX
  5
363
330
351
100
AcDbEntity
  8
LAYER3
100
AcDbVertex
100
AcDb2dVertex
 10
-37.31364077969215
 20
217.5856087155098
 30
0.0
  0
VERTEX
  5
364
330
351
100
AcDbEntity
  8
LAYER3
100
AcDbVertex
100
AcDb2dVertex
 10
-37.35505766316078
 20
217.7411529965157
 30
0.0
  0
VERTEX
  5
365
330
351
100
AcDbEntity
  8
LAYER3
100
AcDbVertex
100
AcDb2dVertex
 10
-37.37700826569219
 20
217.896373028254
 30
0.0
  0
VERTEX
  5
366
330
351
100
AcDbEntity
  8
LAYER3
100
AcDbVertex
100
AcDb2dVertex
 10
-37.38130367441789
 20
218.0444977230782
 30
0.0
  0
VERTEX
  5
367
330
351
100
AcDbEntity
  8
LAYER3
100
AcDbVertex
100
AcDb2dVertex
 10
-37.37054891033785
 20
218.1823799557442
 30
0.0
  0
VERTEX
  5
368
330
351
100
AcDbEntity
  8
LAYER3
100
AcDbVertex
100
AcDb2dVertex
 10
-37.34613544388427
 20
218.3165428585763
 30
0.0
  0
VERTEX
  5
369
330
351
100
AcDbEntity
  8
LAYER3
100
AcDbVertex
100
AcDb2dVertex
 10
-37.3088336650909
 20
218.4462807125802
 30
0.0
  0
VERTEX
  5
36A
330
351
100
AcDbEntity
  8
LAYER3
100
AcDbVertex
100
AcDb2dVertex
 10
-37.25940919561987
 20
218.5702774471993
 30
0.0
  0
SEQEND
  5
36B
330
351
100
AcDbEntity
  8
LAYER3
  0
POLYLINE
  5
36C
330
2
100
AcDbEntity
  8
LAYER3
100
AcDb2dPolyline
 66
     1
 10
0.0
 20
0.0
 30
0.0
 70
   128
  0
VERTEX
  5
36D
330
36C
100
AcDbEntity
  8
LAYER3
100
AcDbVertex
100
AcDb2dVertex
 10
-34.37135404987925
 20
217.2759315914864
 30
0.0
  0
VERTEX
  5
36E
330
36C
100
AcDbEntity
  8
LAYER3
100
AcDbVertex
100
AcDb2dVertex
 10
-34.40836793823832
 20
217.2778198666329
 30
0.0
  0
VERTEX
  5
36F
330
36C
100
AcDbEntity
  8
LAYER3
100
AcDbVertex
100
AcDb2dVertex
 10
-34.44563216610544
 20
217.2782776303048
 30
0.0
  0
VERTEX
  5
370
330
36C
100
AcDbEntity
  8
LAYER3
100
AcDbVertex
100
AcDb2dVertex
 10
-34.48300904675119
 20
217.277362102961
 30
0.0
  0
VERTEX
  5
371
330
36C
100
AcDbEntity
  8
LAYER3
100
AcDbVertex
100
AcDb2dVertex
 10
-34.52036268158548
 20
217.2750923580879
 30
0.0
  0
VERTEX
  5
372
330
36C
100
AcDbEntity
  8
LAYER3
100
AcDbVertex
100
AcDb2dVertex
 10
-34.55755538387888
 20
217.2714493221993
 30
0.0
  0
VERTEX
  5
373
330
36C
100
AcDbEntity
  8
LAYER3
100
AcDbVertex
100
AcDb2dVertex
 10
-34.59445065899485
 20
217.266490215754
 30
0.0
  0
VERTEX
  5
374
330
36C
100
AcDbEntity
  8
LAYER3
100
AcDbVertex
100
AcDb2dVertex
 10
-34.6309114162504
 20
217.2602341122384
 30
0.0
  0
VERTEX
  5
375
330
36C
100
AcDbEntity
  8
LAYER3
100
AcDbVertex
100
AcDb2dVertex
 10
-34.66680056496256
 20
217.2526810116524
 30
0.0
  0
VERTEX
  5
376
330
36C
100
AcDbEntity
  8
LAYER3
100
AcDbVertex
100
AcDb2dVertex
 10
-34.70198757095926
 20
217.2438881344552
 30
0.0
  0
VERTEX
  5
377
330
36C
100
AcDbEntity
  8
LAYER3
100
AcDbVertex
100
AcDb2dVertex
 10
-34.73638958378427
 20
217.2338936276192
 30
0.0
  0
VERTEX
  5
378
330
36C
100
AcDbEntity
  8
LAYER3
100
AcDbVertex
100
AcDb2dVertex
 10
-34.76993448181747
 20
217.2228500790352
 30
0.0
  0
VERTEX
  5
379
330
36C
100
AcDbEntity
  8
LAYER3
100
AcDbVertex
100
AcDb2dVertex
 10
-34.80254656715988
 20
217.2108337826485
 30
0.0
  0
VERTEX
  5
37A
330
36C
100
AcDbEntity
  8
LAYER3
100
AcDbVertex
100
AcDb2dVertex
 10
-34.83415193005203
 20
217.197959179377
 30
0.0
  0
VERTEX
  5
37B
330
36C
100
AcDbEntity
  8
LAYER3
100
AcDbVertex
100
AcDb2dVertex
 10
-34.86467606468796
 20
217.1843597836251
 30
0.0
  0
VERTEX
  5
37C
330
36C
100
AcDbEntity
  8
LAYER3
100
AcDbVertex
100
AcDb2dVertex
 10
-34.89404327316879
 20
217.1700928158516
 30
0.0
  0
VERTEX
  5
37D
330
36C
100
AcDbEntity
  8
LAYER3
100
AcDbVertex
100
AcDb2dVertex
 10
-34.92217964573502
 20
217.155291790461
 30
0.0
  0
VERTEX
  5
37E
330
36C
100
AcDbEntity
  8
LAYER3
100
AcDbVertex
100
AcDb2dVertex
 10
-34.94901186867358
 20
217.1400711483712
 30
0.0
  0
VERTEX
  5
37F
330
36C
100
AcDbEntity
  8
LAYER3
100
AcDbVertex
100
AcDb2dVertex
 10
-34.97495300217273
 20
217.1242592282052
 30
0.0
  0
VERTEX
  5
380
330
36C
100
AcDbEntity
  8
LAYER3
100
AcDbVertex
100
AcDb2dVertex
 10
-35.00034219666125
 20
217.1077034420723
 30
0.0
  0
VERTEX
  5
381
330
36C
100
AcDbEntity
  8
LAYER3
100
AcDbVertex
100
AcDb2dVertex
 10
-35.02515859051348
 20
217.090422863459
 30
0.0
  0
VERTEX
  5
382
330
36C
100
AcDbEntity
  8
LAYER3
100
AcDbVertex
100
AcDb2dVertex
 10
-35.04938013001086
 20
217.072455639338
 30
0.0
  0
VERTEX
  5
383
330
36C
100
AcDbEntity
  8
LAYER3
100
AcDbVertex
100
AcDb2dVertex
 10
-35.07298476143484
 20
217.0538208431954
 30
0.0
  0
VERTEX
  5
384
330
36C
100
AcDbEntity
  8
LAYER3
100
AcDbVertex
100
AcDb2dVertex
 10
-35.09595102711325
 20
217.0345375485176
 30
0.0
  0
VERTEX
  5
385
330
36C
100
AcDbEntity
  8
LAYER3
100
AcDbVertex
100
AcDb2dVertex
 10
-35.11825627728109
 20
217.0146439022774
 30
0.0
  0
SEQEND
  5
386
330
36C
100
AcDbEntity
  8
LAYER3
  0
ARC
  5
387
330
2
100
AcDbEntity
  8
LAYER3
100
AcDbCircle
 10
-34.13620497419805
 20
220.6176662535205
 30
0.0
 40
3.350000000008677
100
AcDbArc
 50
265.9748830508365
 51
274.02511694917
  0
POLYLINE
  5
388
330
2
100
AcDbEntity
  8
LAYER3
100
AcDb2dPolyline
 66
     1
 10
0.0
 20
0.0
 30
0.0
 70
   128
  0
VERTEX
  5
389
330
388
100
AcDbEntity
  8
LAYER3
100
AcDbVertex
100
AcDb2dVertex
 10
-33.15415388985281
 20
217.0146439022774
 30
0.0
  0
VERTEX
  5
38A
330
388
100
AcDbEntity
  8
LAYER3
100
AcDbVertex
100
AcDb2dVertex
 10
-33.17645914002066
 20
217.0345375485176
 30
0.0
  0
VERTEX
  5
38B
330
388
100
AcDbEntity
  8
LAYER3
100
AcDbVertex
100
AcDb2dVertex
 10
-33.19942480965262
 20
217.0538208431954
 30
0.0
  0
VERTEX
  5
38C
330
388
100
AcDbEntity
  8
LAYER3
100
AcDbVertex
100
AcDb2dVertex
 10
-33.22302944107653
 20
217.072455639338
 30
0.0
  0
VERTEX
  5
38D
330
388
100
AcDbEntity
  8
LAYER3
100
AcDbVertex
100
AcDb2dVertex
 10
-33.24725098057391
 20
217.090422863459
 30
0.0
  0
VERTEX
  5
38E
330
388
100
AcDbEntity
  8
LAYER3
100
AcDbVertex
100
AcDb2dVertex
 10
-33.27206737442614
 20
217.1077034420723
 30
0.0
  0
VERTEX
  5
38F
330
388
100
AcDbEntity
  8
LAYER3
100
AcDbVertex
100
AcDb2dVertex
 10
-33.29745716496112
 20
217.1242592282052
 30
0.0
  0
VERTEX
  5
390
330
388
100
AcDbEntity
  8
LAYER3
100
AcDbVertex
100
AcDb2dVertex
 10
-33.32339829846026
 20
217.1400711483712
 30
0.0
  0
VERTEX
  5
391
330
388
100
AcDbEntity
  8
LAYER3
100
AcDbVertex
100
AcDb2dVertex
 10
-33.35023052139877
 20
217.155291790461
 30
0.0
  0
VERTEX
  5
392
330
388
100
AcDbEntity
  8
LAYER3
100
AcDbVertex
100
AcDb2dVertex
 10
-33.37836629791855
 20
217.1700928158516
 30
0.0
  0
VERTEX
  5
393
330
388
100
AcDbEntity
  8
LAYER3
100
AcDbVertex
100
AcDb2dVertex
 10
-33.40773410244583
 20
217.1843597836251
 30
0.0
  0
VERTEX
  5
394
330
388
100
AcDbEntity
  8
LAYER3
100
AcDbVertex
100
AcDb2dVertex
 10
-33.43825764103531
 20
217.197959179377
 30
0.0
  0
VERTEX
  5
395
330
388
100
AcDbEntity
  8
LAYER3
100
AcDbVertex
100
AcDb2dVertex
 10
-33.46986300392746
 20
217.2108337826485
 30
0.0
  0
VERTEX
  5
396
330
388
100
AcDbEntity
  8
LAYER3
100
AcDbVertex
100
AcDb2dVertex
 10
-33.50247568531631
 20
217.2228500790352
 30
0.0
  0
VERTEX
  5
397
330
388
100
AcDbEntity
  8
LAYER3
100
AcDbVertex
100
AcDb2dVertex
 10
-33.53601998730295
 20
217.2338936276192
 30
0.0
  0
VERTEX
  5
398
330
388
100
AcDbEntity
  8
LAYER3
100
AcDbVertex
100
AcDb2dVertex
 10
-33.57042259617441
 20
217.2438881344552
 30
0.0
  0
VERTEX
  5
399
330
388
100
AcDbEntity
  8
LAYER3
100
AcDbVertex
100
AcDb2dVertex
 10
-33.60560900612467
 20
217.2526810116524
 30
0.0
  0
VERTEX
  5
39A
330
388
100
AcDbEntity
  8
LAYER3
100
AcDbVertex
100
AcDb2dVertex
 10
-33.64149875088327
 20
217.2602341122384
 30
0.0
  0
VERTEX
  5
39B
330
388
100
AcDbEntity
  8
LAYER3
100
AcDbVertex
100
AcDb2dVertex
 10
-33.67795950813883
 20
217.266490215754
 30
0.0
  0
VERTEX
  5
39C
330
388
100
AcDbEntity
  8
LAYER3
100
AcDbVertex
100
AcDb2dVertex
 10
-33.71485478325479
 20
217.2714493221993
 30
0.0
  0
VERTEX
  5
39D
330
388
100
AcDbEntity
  8
LAYER3
100
AcDbVertex
100
AcDb2dVertex
 10
-33.75204748554819
 20
217.2750923580879
 30
0.0
  0
VERTEX
  5
39E
330
388
100
AcDbEntity
  8
LAYER3
100
AcDbVertex
100
AcDb2dVertex
 10
-33.78940112038248
 20
217.277362102961
 30
0.0
  0
VERTEX
  5
39F
330
388
100
AcDbEntity
  8
LAYER3
100
AcDbVertex
100
AcDb2dVertex
 10
-33.82677800102823
 20
217.2782776303048
 30
0.0
  0
VERTEX
  5
3A0
330
388
100
AcDbEntity
  8
LAYER3
100
AcDbVertex
100
AcDb2dVertex
 10
-33.86404222889536
 20
217.2778198666329
 30
0.0
  0
VERTEX
  5
3A1
330
388
100
AcDbEntity
  8
LAYER3
100
AcDbVertex
100
AcDb2dVertex
 10
-33.90105611725443
 20
217.2759315914864
 30
0.0
  0
SEQEND
  5
3A2
330
388
100
AcDbEntity
  8
LAYER3
  0
POLYLINE
  5
3A3
330
2
100
AcDbEntity
  8
LAYER3
100
AcDb2dPolyline
 66
     1
 10
0.0
 20
0.0
 30
0.0
 70
   128
  0
VERTEX
  5
3A4
330
3A3
100
AcDbEntity
  8
LAYER3
100
AcDbVertex
100
AcDb2dVertex
 10
-31.01300067349081
 20
218.5702774471993
 30
0.0
  0
VERTEX
  5
3A5
330
3A3
100
AcDbEntity
  8
LAYER3
100
AcDbVertex
100
AcDb2dVertex
 10
-30.96357590599666
 20
218.4462807125802
 30
0.0
  0
VERTEX
  5
3A6
330
3A3
100
AcDbEntity
  8
LAYER3
100
AcDbVertex
100
AcDb2dVertex
 10
-30.92627412720333
 20
218.3165428585763
 30
0.0
  0
VERTEX
  5
3A7
330
3A3
100
AcDbEntity
  8
LAYER3
100
AcDbVertex
100
AcDb2dVertex
 10
-30.90186125679628
 20
218.1823799557442
 30
0.0
  0
VERTEX
  5
3A8
330
3A3
100
AcDbEntity
  8
LAYER3
100
AcDbVertex
100
AcDb2dVertex
 10
-30.89110619469301
 20
218.0444977230782
 30
0.0
  0
VERTEX
  5
3A9
330
3A3
100
AcDbEntity
  8
LAYER3
100
AcDbVertex
100
AcDb2dVertex
 10
-30.89540190144203
 20
217.896373028254
 30
0.0
  0
VERTEX
  5
3AA
330
3A3
100
AcDbEntity
  8
LAYER3
100
AcDbVertex
100
AcDb2dVertex
 10
-30.91735250397346
 20
217.7411529965157
 30
0.0
  0
VERTEX
  5
3AB
330
3A3
100
AcDbEntity
  8
LAYER3
100
AcDbVertex
100
AcDb2dVertex
 10
-30.95876938744209
 20
217.5856087155098
 30
0.0
  0
VERTEX
  5
3AC
330
3A3
100
AcDbEntity
  8
LAYER3
100
AcDbVertex
100
AcDb2dVertex
 10
-31.01775235577253
 20
217.4366638607735
 30
0.0
  0
VERTEX
  5
3AD
330
3A3
100
AcDbEntity
  8
LAYER3
100
AcDbVertex
100
AcDb2dVertex
 10
-31.09513647003797
 20
217.2944137997383
 30
0.0
  0
VERTEX
  5
3AE
330
3A3
100
AcDbEntity
  8
LAYER3
100
AcDbVertex
100
AcDb2dVertex
 10
-31.19556552811298
 20
217.1539566464181
 30
0.0
  0
VERTEX
  5
3AF
330
3A3
100
AcDbEntity
  8
LAYER3
100
AcDbVertex
100
AcDb2dVertex
 10
-31.31565040989551
 20
217.0254585690255
 30
0.0
  0
VERTEX
  5
3B0
330
3A3
100
AcDbEntity
  8
LAYER3
100
AcDbVertex
100
AcDb2dVertex
 10
-31.44708759232197
 20
216.9164154476876
 30
0.0
  0
VERTEX
  5
3B1
330
3A3
100
AcDbEntity
  8
LAYER3
100
AcDbVertex
100
AcDb2dVertex
 10
-31.59141606732044
 20
216.8251106686348
 30
0.0
  0
VERTEX
  5
3B2
330
3A3
100
AcDbEntity
  8
LAYER3
100
AcDbVertex
100
AcDb2dVertex
 10
-31.750728553969
 20
216.7506096310372
 30
0.0
  0
VERTEX
  5
3B3
330
3A3
100
AcDbEntity
  8
LAYER3
100
AcDbVertex
100
AcDb2dVertex
 10
-31.91534168167738
 20
216.6985008663887
 30
0.0
  0
VERTEX
  5
3B4
330
3A3
100
AcDbEntity
  8
LAYER3
100
AcDbVertex
100
AcDb2dVertex
 10
-32.0745438997331
 20
216.6688606686348
 30
0.0
  0
VERTEX
  5
3B5
330
3A3
100
AcDbEntity
  8
LAYER3
100
AcDbVertex
100
AcDb2dVertex
 10
-32.23442203446052
 20
216.6587898678536
 30
0.0
  0
VERTEX
  5
3B6
330
3A3
100
AcDbEntity
  8
LAYER3
100
AcDbVertex
100
AcDb2dVertex
 10
-32.39516443653724
 20
216.6674683041329
 30
0.0
  0
VERTEX
  5
3B7
330
3A3
100
AcDbEntity
  8
LAYER3
100
AcDbVertex
100
AcDb2dVertex
 10
-32.5495619241776
 20
216.6945526547188
 30
0.0
  0
VERTEX
  5
3B8
330
3A3
100
AcDbEntity
  8
LAYER3
100
AcDbVertex
100
AcDb2dVertex
 10
-32.69175834103243
 20
216.7362472958321
 30
0.0
  0
VERTEX
  5
3B9
330
3A3
100
AcDbEntity
  8
LAYER3
100
AcDbVertex
100
AcDb2dVertex
 10
-32.81958169384615
 20
216.789080852961
 30
0.0
  0
VERTEX
  5
3BA
330
3A3
100
AcDbEntity
  8
LAYER3
100
AcDbVertex
100
AcDb2dVertex
 10
-32.93962783260955
 20
216.8537590450997
 30
0.0
  0
VERTEX
  5
3BB
330
3A3
100
AcDbEntity
  8
LAYER3
100
AcDbVertex
100
AcDb2dVertex
 10
-33.05148786945949
 20
216.9293281979317
 30
0.0
  0
VERTEX
  5
3BC
330
3A3
100
AcDbEntity
  8
LAYER3
100
AcDbVertex
100
AcDb2dVertex
 10
-33.15415388985281
 20
217.0146439022774
 30
0.0
  0
SEQEND
  5
3BD
330
3A3
100
AcDbEntity
  8
LAYER3
  0
POLYLINE
  5
3BE
330
2
100
AcDbEntity
  8
LAYER3
100
AcDb2dPolyline
 66
     1
 10
0.0
 20
0.0
 30
0.0
 70
   128
  0
VERTEX
  5
3BF
330
3BE
100
AcDbEntity
  8
LAYER3
100
AcDbVertex
100
AcDb2dVertex
 10
-31.03068954392069
 20
219.3613693661446
 30
0.0
  0
VERTEX
  5
3C0
330
3BE
100
AcDbEntity
  8
LAYER3
100
AcDbVertex
100
AcDb2dVertex
 10
-31.04391700668924
 20
219.3267509884591
 30
0.0
  0
VERTEX
  5
3C1
330
3BE
100
AcDbEntity
  8
LAYER3
100
AcDbVertex
100
AcDb2dVertex
 10
-31.05588204308145
 20
219.291465038752
 30
0.0
  0
VERTEX
  5
3C2
330
3BE
100
AcDbEntity
  8
LAYER3
100
AcDbVertex
100
AcDb2dVertex
 10
-31.06656200333231
 20
219.2556259579415
 30
0.0
  0
VERTEX
  5
3C3
330
3BE
100
AcDbEntity
  8
LAYER3
100
AcDbVertex
100
AcDb2dVertex
 10
-31.07593364163034
 20
219.2194054074044
 30
0.0
  0
VERTEX
  5
3C4
330
3BE
100
AcDbEntity
  8
LAYER3
100
AcDbVertex
100
AcDb2dVertex
 10
-31.08397490425699
 20
219.1828987545723
 30
0.0
  0
VERTEX
  5
3C5
330
3BE
100
AcDbEntity
  8
LAYER3
100
AcDbVertex
100
AcDb2dVertex
 10
-31.09066194935434
 20
219.1462776608223
 30
0.0
  0
VERTEX
  5
3C6
330
3BE
100
AcDbEntity
  8
LAYER3
100
AcDbVertex
100
AcDb2dVertex
 10
-31.09597212715738
 20
219.1096756405586
 30
0.0
  0
VERTEX
  5
3C7
330
3BE
100
AcDbEntity
  8
LAYER3
100
AcDbVertex
100
AcDb2dVertex
 10
-31.09988338394754
 20
219.0732071346993
 30
0.0
  0
VERTEX
  5
3C8
330
3BE
100
AcDbEntity
  8
LAYER3
100
AcDbVertex
100
AcDb2dVertex
 10
-31.10237903042429
 20
219.0370247311348
 30
0.0
  0
VERTEX
  5
3C9
330
3BE
100
AcDbEntity
  8
LAYER3
100
AcDbVertex
100
AcDb2dVertex
 10
-31.10351509495371
 20
219.0012047238106
 30
0.0
  0
VERTEX
  5
3CA
330
3BE
100
AcDbEntity
  8
LAYER3
100
AcDbVertex
100
AcDb2dVertex
 10
-31.10337144775986
 20
218.9658997006173
 30
0.0
  0
VERTEX
  5
3CB
330
3BE
100
AcDbEntity
  8
LAYER3
100
AcDbVertex
100
AcDb2dVertex
 10
-31.10202497883438
 20
218.9311668820137
 30
0.0
  0
VERTEX
  5
3CC
330
3BE
100
AcDbEntity
  8
LAYER3
100
AcDbVertex
100
AcDb2dVertex
 10
-31.09955496235489
 20
218.8971397824044
 30
0.0
  0
VERTEX
  5
3CD
330
3BE
100
AcDbEntity
  8
LAYER3
100
AcDbVertex
100
AcDb2dVertex
 10
-31.09603769226669
 20
218.8638946957345
 30
0.0
  0
VERTEX
  5
3CE
330
3BE
100
AcDbEntity
  8
LAYER3
100
AcDbVertex
100
AcDb2dVertex
 10
-31.0915518467009
 20
218.8315651364083
 30
0.0
  0
VERTEX
  5
3CF
330
3BE
100
AcDbEntity
  8
LAYER3
100
AcDbVertex
100
AcDb2dVertex
 10
-31.08617491169571
 20
218.8002273983712
 30
0.0
  0
VERTEX
  5
3D0
330
3BE
100
AcDbEntity
  8
LAYER3
100
AcDbVertex
100
AcDb2dVertex
 10
-31.07998437328934
 20
218.7699959225411
 30
0.0
  0
VERTEX
  5
3D1
330
3BE
100
AcDbEntity
  8
LAYER3
100
AcDbVertex
100
AcDb2dVertex
 10
-31.07295936985611
 20
218.7404510922188
 30
0.0
  0
VERTEX
  5
3D2
330
3BE
100
AcDbEntity
  8
LAYER3
100
AcDbVertex
100
AcDb2dVertex
 10
-31.06505639000534
 20
218.7111732907052
 30
0.0
  0
VERTEX
  5
3D3
330
3BE
100
AcDbEntity
  8
LAYER3
100
AcDbVertex
100
AcDb2dVertex
 10
-31.05629450722336
 20
218.6822388119454
 30
0.0
  0
VERTEX
  5
3D4
330
3BE
100
AcDbEntity
  8
LAYER3
100
AcDbVertex
100
AcDb2dVertex
 10
-31.0466904108107
 20
218.6536476559395
 30
0.0
  0
VERTEX
  5
3D5
330
3BE
100
AcDbEntity
  8
LAYER3
100
AcDbVertex
100
AcDb2dVertex
 10
-31.03626198216085
 20
218.6254379696602
 30
0.0
  0
VERTEX
  5
3D6
330
3BE
100
AcDbEntity
  8
LAYER3
100
AcDbVertex
100
AcDb2dVertex
 10
-31.02502650662069
 20
218.5976479000801
 30
0.0
  0
VERTEX
  5
3D7
330
3BE
100
AcDbEntity
  8
LAYER3
100
AcDbVertex
100
AcDb2dVertex
 10
-31.01300067349081
 20
218.5702774471993
 30
0.0
  0
SEQEND
  5
3D8
330
3BE
100
AcDbEntity
  8
LAYER3
  0
ARC
  5
3D9
330
2
100
AcDbEntity
  8
LAYER3
100
AcDbCircle
 10
-34.13620497420189
 20
220.6176662535131
 30
0.0
 40
3.35000000000417
100
AcDbArc
 50
337.9748830508282
 51
346.0251169491696
  0
POLYLINE
  5
3DA
330
2
100
AcDbEntity
  8
LAYER3
100
AcDb2dPolyline
 66
     1
 10
0.0
 20
0.0
 30
0.0
 70
   128
  0
VERTEX
  5
3DB
330
3DA
100
AcDbEntity
  8
LAYER3
100
AcDbVertex
100
AcDb2dVertex
 10
-35.11825627728109
 20
254.2206833309883
 30
0.0
  0
VERTEX
  5
3DC
330
3DA
100
AcDbEntity
  8
LAYER3
100
AcDbVertex
100
AcDb2dVertex
 10
-35.09595102711325
 20
254.2007896847481
 30
0.0
  0
VERTEX
  5
3DD
330
3DA
100
AcDbEntity
  8
LAYER3
100
AcDbVertex
100
AcDb2dVertex
 10
-35.07298476143481
 20
254.1815254635567
 30
0.0
  0
VERTEX
  5
3DE
330
3DA
100
AcDbEntity
  8
LAYER3
100
AcDbVertex
100
AcDb2dVertex
 10
-35.04938013001086
 20
254.1628906674141
 30
0.0
  0
VERTEX
  5
3DF
330
3DA
100
AcDbEntity
  8
LAYER3
100
AcDbVertex
100
AcDb2dVertex
 10
-35.02515859051348
 20
254.144923443293
 30
0.0
  0
VERTEX
  5
3E0
330
3DA
100
AcDbEntity
  8
LAYER3
100
AcDbVertex
100
AcDb2dVertex
 10
-35.00034219666125
 20
254.1276428646797
 30
0.0
  0
VERTEX
  5
3E1
330
3DA
100
AcDbEntity
  8
LAYER3
100
AcDbVertex
100
AcDb2dVertex
 10
-34.97495300217273
 20
254.111087078547
 30
0.0
  0
VERTEX
  5
3E2
330
3DA
100
AcDbEntity
  8
LAYER3
100
AcDbVertex
100
AcDb2dVertex
 10
-34.94901186867358
 20
254.0952560848946
 30
0.0
  0
VERTEX
  5
3E3
330
3DA
100
AcDbEntity
  8
LAYER3
100
AcDbVertex
100
AcDb2dVertex
 10
-34.92217964573502
 20
254.0800354428048
 30
0.0
  0
VERTEX
  5
3E4
330
3DA
100
AcDbEntity
  8
LAYER3
100
AcDbVertex
100
AcDb2dVertex
 10
-34.89404327316879
 20
254.0652344174141
 30
0.0
  0
VERTEX
  5
3E5
330
3DA
100
AcDbEntity
  8
LAYER3
100
AcDbVertex
100
AcDb2dVertex
 10
-34.86467606468796
 20
254.050986523127
 30
0.0
  0
VERTEX
  5
3E6
330
3DA
100
AcDbEntity
  8
LAYER3
100
AcDbVertex
100
AcDb2dVertex
 10
-34.83415193005203
 20
254.0373680538888
 30
0.0
  0
VERTEX
  5
3E7
330
3DA
100
AcDbEntity
  8
LAYER3
100
AcDbVertex
100
AcDb2dVertex
 10
-34.80254656715988
 20
254.0244934506173
 30
0.0
  0
VERTEX
  5
3E8
330
3DA
100
AcDbEntity
  8
LAYER3
100
AcDbVertex
100
AcDb2dVertex
 10
-34.76993448181747
 20
254.0124962277169
 30
0.0
  0
VERTEX
  5
3E9
330
3DA
100
AcDbEntity
  8
LAYER3
100
AcDbVertex
100
AcDb2dVertex
 10
-34.73638958378427
 20
254.0014336056465
 30
0.0
  0
VERTEX
  5
3EA
330
3DA
100
AcDbEntity
  8
LAYER3
100
AcDbVertex
100
AcDb2dVertex
 10
-34.70198757095926
 20
253.9914581722969
 30
0.0
  0
VERTEX
  5
3EB
330
3DA
100
AcDbEntity
  8
LAYER3
100
AcDbVertex
100
AcDb2dVertex
 10
-34.66680056496256
 20
253.9826462216133
 30
0.0
  0
VERTEX
  5
3EC
330
3DA
100
AcDbEntity
  8
LAYER3
100
AcDbVertex
100
AcDb2dVertex
 10
-34.6309114162504
 20
253.9750931210274
 30
0.0
  0
VERTEX
  5
3ED
330
3DA
100
AcDbEntity
  8
LAYER3
100
AcDbVertex
100
AcDb2dVertex
 10
-34.59445065899485
 20
253.9688370175118
 30
0.0
  0
VERTEX
  5
3EE
330
3DA
100
AcDbEntity
  8
LAYER3
100
AcDbVertex
100
AcDb2dVertex
 10
-34.55755538387888
 20
253.9638779110665
 30
0.0
  0
VERTEX
  5
3EF
330
3DA
100
AcDbEntity
  8
LAYER3
100
AcDbVertex
100
AcDb2dVertex
 10
-34.52036268158548
 20
253.9602539486641
 30
0.0
  0
VERTEX
  5
3F0
330
3DA
100
AcDbEntity
  8
LAYER3
100
AcDbVertex
100
AcDb2dVertex
 10
-34.48300904675119
 20
253.9579651303048
 30
0.0
  0
VERTEX
  5
3F1
330
3DA
100
AcDbEntity
  8
LAYER3
100
AcDbVertex
100
AcDb2dVertex
 10
-34.44563216610544
 20
253.957049602961
 30
0.0
  0
VERTEX
  5
3F2
330
3DA
100
AcDbEntity
  8
LAYER3
100
AcDbVertex
100
AcDb2dVertex
 10
-34.40836793823832
 20
253.9575264401192
 30
0.0
  0
VERTEX
  5
3F3
330
3DA
100
AcDbEntity
  8
LAYER3
100
AcDbVertex
100
AcDb2dVertex
 10
-34.37135404987925
 20
253.9593956417794
 30
0.0
  0
SEQEND
  5
3F4
330
3DA
100
AcDbEntity
  8
LAYER3
  0
ARC
  5
3F5
330
2
100
AcDbEntity
  8
LAYER3
100
AcDbCircle
 10
-34.13620497419791
 20
250.6176662535136
 30
0.0
 40
3.349999999998267
100
AcDbArc
 50
85.97488305082189
 51
94.0251169491781
  0
POLYLINE
  5
3F6
330
2
100
AcDbEntity
  8
LAYER3
100
AcDb2dPolyline
 66
     1
 10
0.0
 20
0.0
 30
0.0
 70
   128
  0
VERTEX
  5
3F7
330
3F6
100
AcDbEntity
  8
LAYER3
100
AcDbVertex
100
AcDb2dVertex
 10
-33.90105611725443
 20
253.9593956417794
 30
0.0
  0
VERTEX
  5
3F8
330
3F6
100
AcDbEntity
  8
LAYER3
100
AcDbVertex
100
AcDb2dVertex
 10
-33.86404222889536
 20
253.9575264401192
 30
0.0
  0
VERTEX
  5
3F9
330
3F6
100
AcDbEntity
  8
LAYER3
100
AcDbVertex
100
AcDb2dVertex
 10
-33.82677800102823
 20
253.957049602961
 30
0.0
  0
VERTEX
  5
3FA
330
3F6
100
AcDbEntity
  8
LAYER3
100
AcDbVertex
100
AcDb2dVertex
 10
-33.78940112038248
 20
253.9579651303048
 30
0.0
  0
VERTEX
  5
3FB
330
3F6
100
AcDbEntity
  8
LAYER3
100
AcDbVertex
100
AcDb2dVertex
 10
-33.75204748554819
 20
253.9602539486641
 30
0.0
  0
VERTEX
  5
3FC
330
3F6
100
AcDbEntity
  8
LAYER3
100
AcDbVertex
100
AcDb2dVertex
 10
-33.71485478325479
 20
253.9638779110665
 30
0.0
  0
VERTEX
  5
3FD
330
3F6
100
AcDbEntity
  8
LAYER3
100
AcDbVertex
100
AcDb2dVertex
 10
-33.67795950813883
 20
253.9688370175118
 30
0.0
  0
VERTEX
  5
3FE
330
3F6
100
AcDbEntity
  8
LAYER3
100
AcDbVertex
100
AcDb2dVertex
 10
-33.64149875088327
 20
253.9750931210274
 30
0.0
  0
VERTEX
  5
3FF
330
3F6
100
AcDbEntity
  8
LAYER3
100
AcDbVertex
100
AcDb2dVertex
 10
-33.60560900612467
 20
253.9826462216133
 30
0.0
  0
VERTEX
  5
400
330
3F6
100
AcDbEntity
  8
LAYER3
100
AcDbVertex
100
AcDb2dVertex
 10
-33.57042259617441
 20
253.9914581722969
 30
0.0
  0
VERTEX
  5
401
330
3F6
100
AcDbEntity
  8
LAYER3
100
AcDbVertex
100
AcDb2dVertex
 10
-33.53601998730295
 20
254.0014336056465
 30
0.0
  0
VERTEX
  5
402
330
3F6
100
AcDbEntity
  8
LAYER3
100
AcDbVertex
100
AcDb2dVertex
 10
-33.50247568531631
 20
254.0124962277169
 30
0.0
  0
VERTEX
  5
403
330
3F6
100
AcDbEntity
  8
LAYER3
100
AcDbVertex
100
AcDb2dVertex
 10
-33.46986300392746
 20
254.0244934506173
 30
0.0
  0
VERTEX
  5
404
330
3F6
100
AcDbEntity
  8
LAYER3
100
AcDbVertex
100
AcDb2dVertex
 10
-33.43825764103531
 20
254.0373680538888
 30
0.0
  0
VERTEX
  5
405
330
3F6
100
AcDbEntity
  8
LAYER3
100
AcDbVertex
100
AcDb2dVertex
 10
-33.40773410244583
 20
254.050986523127
 30
0.0
  0
VERTEX
  5
406
330
3F6
100
AcDbEntity
  8
LAYER3
100
AcDbVertex
100
AcDb2dVertex
 10
-33.37836629791855
 20
254.0652344174141
 30
0.0
  0
VERTEX
  5
407
330
3F6
100
AcDbEntity
  8
LAYER3
100
AcDbVertex
100
AcDb2dVertex
 10
-33.35023052139877
 20
254.0800354428048
 30
0.0
  0
VERTEX
  5
408
330
3F6
100
AcDbEntity
  8
LAYER3
100
AcDbVertex
100
AcDb2dVertex
 10
-33.32339829846026
 20
254.0952560848946
 30
0.0
  0
VERTEX
  5
409
330
3F6
100
AcDbEntity
  8
LAYER3
100
AcDbVertex
100
AcDb2dVertex
 10
-33.29745716496112
 20
254.111087078547
 30
0.0
  0
VERTEX
  5
40A
330
3F6
100
AcDbEntity
  8
LAYER3
100
AcDbVertex
100
AcDb2dVertex
 10
-33.27206737442614
 20
254.1276428646797
 30
0.0
  0
VERTEX
  5
40B
330
3F6
100
AcDbEntity
  8
LAYER3
100
AcDbVertex
100
AcDb2dVertex
 10
-33.24725098057391
 20
254.144923443293
 30
0.0
  0
VERTEX
  5
40C
330
3F6
100
AcDbEntity
  8
LAYER3
100
AcDbVertex
100
AcDb2dVertex
 10
-33.22302944107653
 20
254.1628906674141
 30
0.0
  0
VERTEX
  5
40D
330
3F6
100
AcDbEntity
  8
LAYER3
100
AcDbVertex
100
AcDb2dVertex
 10
-33.19942480965258
 20
254.1815254635567
 30
0.0
  0
VERTEX
  5
40E
330
3F6
100
AcDbEntity
  8
LAYER3
100
AcDbVertex
100
AcDb2dVertex
 10
-33.17645914002066
 20
254.2007896847481
 30
0.0
  0
VERTEX
  5
40F
330
3F6
100
AcDbEntity
  8
LAYER3
100
AcDbVertex
100
AcDb2dVertex
 10
-33.15415388985281
 20
254.2206833309883
 30
0.0
  0
SEQEND
  5
410
330
3F6
100
AcDbEntity
  8
LAYER3
  0
POLYLINE
  5
411
330
2
100
AcDbEntity
  8
LAYER3
100
AcDb2dPolyline
 66
     1
 10
0.0
 20
0.0
 30
0.0
 70
   128
  0
VERTEX
  5
412
330
411
100
AcDbEntity
  8
LAYER3
100
AcDbVertex
100
AcDb2dVertex
 10
-33.15415388985281
 20
254.2206833309883
 30
0.0
  0
VERTEX
  5
413
330
411
100
AcDbEntity
  8
LAYER3
100
AcDbVertex
100
AcDb2dVertex
 10
-33.05148786945949
 20
254.3060181088204
 30
0.0
  0
VERTEX
  5
414
330
411
100
AcDbEntity
  8
LAYER3
100
AcDbVertex
100
AcDb2dVertex
 10
-32.93962783260955
 20
254.3815872616524
 30
0.0
  0
VERTEX
  5
415
330
411
100
AcDbEntity
  8
LAYER3
100
AcDbVertex
100
AcDb2dVertex
 10
-32.81958169384615
 20
254.4462463803048
 30
0.0
  0
VERTEX
  5
416
330
411
100
AcDbEntity
  8
LAYER3
100
AcDbVertex
100
AcDb2dVertex
 10
-32.69175834103243
 20
254.49909901092
 30
0.0
  0
VERTEX
  5
417
330
411
100
AcDbEntity
  8
LAYER3
100
AcDbVertex
100
AcDb2dVertex
 10
-32.5495619241776
 20
254.5407745785469
 30
0.0
  0
VERTEX
  5
418
330
411
100
AcDbEntity
  8
LAYER3
100
AcDbVertex
100
AcDb2dVertex
 10
-32.39516443653724
 20
254.5678589291329
 30
0.0
  0
VERTEX
  5
419
330
411
100
AcDbEntity
  8
LAYER3
100
AcDbVertex
100
AcDb2dVertex
 10
-32.23442203446052
 20
254.5765373654122
 30
0.0
  0
VERTEX
  5
41A
330
411
100
AcDbEntity
  8
LAYER3
100
AcDbVertex
100
AcDb2dVertex
 10
-32.0745438997331
 20
254.5664665646309
 30
0.0
  0
VERTEX
  5
41B
330
411
100
AcDbEntity
  8
LAYER3
100
AcDbVertex
100
AcDb2dVertex
 10
-31.91534168167738
 20
254.5368454403634
 30
0.0
  0
VERTEX
  5
41C
330
411
100
AcDbEntity
  8
LAYER3
100
AcDbVertex
100
AcDb2dVertex
 10
-31.750728553969
 20
254.4847176022286
 30
0.0
  0
VERTEX
  5
41D
330
411
100
AcDbEntity
  8
LAYER3
100
AcDbVertex
100
AcDb2dVertex
 10
-31.59141606732044
 20
254.4102165646309
 30
0.0
  0
VERTEX
  5
41E
330
411
100
AcDbEntity
  8
LAYER3
100
AcDbVertex
100
AcDb2dVertex
 10
-31.44708759232197
 20
254.3189117855782
 30
0.0
  0
VERTEX
  5
41F
330
411
100
AcDbEntity
  8
LAYER3
100
AcDbVertex
100
AcDb2dVertex
 10
-31.31565040989551
 20
254.2098686642403
 30
0.0
  0
VERTEX
  5
420
330
411
100
AcDbEntity
  8
LAYER3
100
AcDbVertex
100
AcDb2dVertex
 10
-31.19556552811298
 20
254.0813705868477
 30
0.0
  0
VERTEX
  5
421
330
411
100
AcDbEntity
  8
LAYER3
100
AcDbVertex
100
AcDb2dVertex
 10
-31.09513647003797
 20
253.9409325070137
 30
0.0
  0
VERTEX
  5
422
330
411
100
AcDbEntity
  8
LAYER3
100
AcDbVertex
100
AcDb2dVertex
 10
-31.01775235577253
 20
253.7986633724923
 30
0.0
  0
VERTEX
  5
423
330
411
100
AcDbEntity
  8
LAYER3
100
AcDbVertex
100
AcDb2dVertex
 10
-30.95876938744209
 20
253.6497375912423
 30
0.0
  0
VERTEX
  5
424
330
411
100
AcDbEntity
  8
LAYER3
100
AcDbVertex
100
AcDb2dVertex
 10
-30.91735250397346
 20
253.4941742367501
 30
0.0
  0
VERTEX
  5
425
330
411
100
AcDbEntity
  8
LAYER3
100
AcDbVertex
100
AcDb2dVertex
 10
-30.89540190144203
 20
253.3389542050118
 30
0.0
  0
VERTEX
  5
426
330
411
100
AcDbEntity
  8
LAYER3
100
AcDbVertex
100
AcDb2dVertex
 10
-30.89110619469301
 20
253.1908485836739
 30
0.0
  0
VERTEX
  5
427
330
411
100
AcDbEntity
  8
LAYER3
100
AcDbVertex
100
AcDb2dVertex
 10
-30.90186125679628
 20
253.0529472775215
 30
0.0
  0
VERTEX
  5
428
330
411
100
AcDbEntity
  8
LAYER3
100
AcDbVertex
100
AcDb2dVertex
 10
-30.92627412720333
 20
252.9187843746895
 30
0.0
  0
VERTEX
  5
429
330
411
100
AcDbEntity
  8
LAYER3
100
AcDbVertex
100
AcDb2dVertex
 10
-30.96357590599666
 20
252.7890465206856
 30
0.0
  0
VERTEX
  5
42A
330
411
100
AcDbEntity
  8
LAYER3
100
AcDbVertex
100
AcDb2dVertex
 10
-31.01300067349081
 20
252.6650497860665
 30
0.0
  0
SEQEND
  5
42B
330
411
100
AcDbEntity
  8
LAYER3
  0
POLYLINE
  5
42C
330
2
100
AcDbEntity
  8
LAYER3
100
AcDb2dPolyline
 66
     1
 10
0.0
 20
0.0
 30
0.0
 70
   128
  0
VERTEX
  5
42D
330
42C
100
AcDbEntity
  8
LAYER3
100
AcDbVertex
100
AcDb2dVertex
 10
-31.01300067349081
 20
252.6650497860665
 30
0.0
  0
VERTEX
  5
42E
330
42C
100
AcDbEntity
  8
LAYER3
100
AcDbVertex
100
AcDb2dVertex
 10
-31.02502650662069
 20
252.6376793331856
 30
0.0
  0
VERTEX
  5
42F
330
42C
100
AcDbEntity
  8
LAYER3
100
AcDbVertex
100
AcDb2dVertex
 10
-31.0362619821608
 20
252.6098892636055
 30
0.0
  0
VERTEX
  5
430
330
42C
100
AcDbEntity
  8
LAYER3
100
AcDbVertex
100
AcDb2dVertex
 10
-31.0466904108107
 20
252.5816795773263
 30
0.0
  0
VERTEX
  5
431
330
42C
100
AcDbEntity
  8
LAYER3
100
AcDbVertex
100
AcDb2dVertex
 10
-31.05629450722336
 20
252.5530884213204
 30
0.0
  0
VERTEX
  5
432
330
42C
100
AcDbEntity
  8
LAYER3
100
AcDbVertex
100
AcDb2dVertex
 10
-31.06505639000534
 20
252.5241539425606
 30
0.0
  0
VERTEX
  5
433
330
42C
100
AcDbEntity
  8
LAYER3
100
AcDbVertex
100
AcDb2dVertex
 10
-31.07295936985611
 20
252.4948952145333
 30
0.0
  0
VERTEX
  5
434
330
42C
100
AcDbEntity
  8
LAYER3
100
AcDbVertex
100
AcDb2dVertex
 10
-31.07998437328934
 20
252.4653313107247
 30
0.0
  0
VERTEX
  5
435
330
42C
100
AcDbEntity
  8
LAYER3
100
AcDbVertex
100
AcDb2dVertex
 10
-31.08617491169571
 20
252.4350998348946
 30
0.0
  0
VERTEX
  5
436
330
42C
100
AcDbEntity
  8
LAYER3
100
AcDbVertex
100
AcDb2dVertex
 10
-31.0915518467009
 20
252.4037811703438
 30
0.0
  0
VERTEX
  5
437
330
42C
100
AcDbEntity
  8
LAYER3
100
AcDbVertex
100
AcDb2dVertex
 10
-31.09603769226669
 20
252.3714325375313
 30
0.0
  0
VERTEX
  5
438
330
42C
100
AcDbEntity
  8
LAYER3
100
AcDbVertex
100
AcDb2dVertex
 10
-31.09955496235489
 20
252.3382065243477
 30
0.0
  0
VERTEX
  5
439
330
42C
100
AcDbEntity
  8
LAYER3
100
AcDbVertex
100
AcDb2dVertex
 10
-31.10202497883438
 20
252.304160351252
 30
0.0
  0
VERTEX
  5
43A
330
42C
100
AcDbEntity
  8
LAYER3
100
AcDbVertex
100
AcDb2dVertex
 10
-31.10337144775986
 20
252.2694275326485
 30
0.0
  0
VERTEX
  5
43B
330
42C
100
AcDbEntity
  8
LAYER3
100
AcDbVertex
100
AcDb2dVertex
 10
-31.10351509495371
 20
252.2341225094551
 30
0.0
  0
VERTEX
  5
43C
330
42C
100
AcDbEntity
  8
LAYER3
100
AcDbVertex
100
AcDb2dVertex
 10
-31.10237903042429
 20
252.1983215756173
 30
0.0
  0
VERTEX
  5
43D
330
42C
100
AcDbEntity
  8
LAYER3
100
AcDbVertex
100
AcDb2dVertex
 10
-31.09988338394754
 20
252.1621200985665
 30
0.0
  0
VERTEX
  5
43E
330
42C
100
AcDbEntity
  8
LAYER3
100
AcDbVertex
100
AcDb2dVertex
 10
-31.09597212715738
 20
252.1256706661934
 30
0.0
  0
VERTEX
  5
43F
330
42C
100
AcDbEntity
  8
LAYER3
100
AcDbVertex
100
AcDb2dVertex
 10
-31.09066194935434
 20
252.0890495724434
 30
0.0
  0
VERTEX
  5
440
330
42C
100
AcDbEntity
  8
LAYER3
100
AcDbVertex
100
AcDb2dVertex
 10
-31.08397490425699
 20
252.0524284786934
 30
0.0
  0
VERTEX
  5
441
330
42C
100
AcDbEntity
  8
LAYER3
100
AcDbVertex
100
AcDb2dVertex
 10
-31.07593364163034
 20
252.0159408993477
 30
0.0
  0
VERTEX
  5
442
330
42C
100
AcDbEntity
  8
LAYER3
100
AcDbVertex
100
AcDb2dVertex
 10
-31.06656200333231
 20
251.9797012753243
 30
0.0
  0
VERTEX
  5
443
330
42C
100
AcDbEntity
  8
LAYER3
100
AcDbVertex
100
AcDb2dVertex
 10
-31.05588204308145
 20
251.9438812680001
 30
0.0
  0
VERTEX
  5
444
330
42C
100
AcDbEntity
  8
LAYER3
100
AcDbVertex
100
AcDb2dVertex
 10
-31.04391700668924
 20
251.9085762448067
 30
0.0
  0
VERTEX
  5
445
330
42C
100
AcDbEntity
  8
LAYER3
100
AcDbVertex
100
AcDb2dVertex
 10
-31.03068954392069
 20
251.8739578671212
 30
0.0
  0
SEQEND
  5
446
330
42C
100
AcDbEntity
  8
LAYER3
  0
ARC
  5
447
330
2
100
AcDbEntity
  8
LAYER3
100
AcDbCircle
 10
-34.13620497419726
 20
250.617666253512
 30
0.0
 40
3.349999999999319
100
AcDbArc
 50
13.97488305082527
 51
22.02511694917583
  0
POLYLINE
  5
448
330
2
100
AcDbEntity
  8
LAYER3
100
AcDb2dPolyline
 66
     1
 10
0.0
 20
0.0
 30
0.0
 70
   128
  0
VERTEX
  5
449
330
448
100
AcDbEntity
  8
LAYER3
100
AcDbVertex
100
AcDb2dVertex
 10
-30.88535911484354
 20
251.4266846127267
 30
0.0
  0
VERTEX
  5
44A
330
448
100
AcDbEntity
  8
LAYER3
100
AcDbVertex
100
AcDb2dVertex
 10
-30.87571091099375
 20
251.3909027523751
 30
0.0
  0
VERTEX
  5
44B
330
448
100
AcDbEntity
  8
LAYER3
100
AcDbVertex
100
AcDb2dVertex
 10
-30.8646453086912
 20
251.3553116268868
 30
0.0
  0
VERTEX
  5
44C
330
448
100
AcDbEntity
  8
LAYER3
100
AcDbVertex
100
AcDb2dVertex
 10
-30.8522248928129
 20
251.3200447506661
 30
0.0
  0
VERTEX
  5
44D
330
448
100
AcDbEntity
  8
LAYER3
100
AcDbVertex
100
AcDb2dVertex
 10
-30.83851105614298
 20
251.2852165646309
 30
0.0
  0
VERTEX
  5
44E
330
448
100
AcDbEntity
  8
LAYER3
100
AcDbVertex
100
AcDb2dVertex
 10
-30.823565787512
 20
251.2509796566719
 30
0.0
  0
VERTEX
  5
44F
330
448
100
AcDbEntity
  8
LAYER3
100
AcDbVertex
100
AcDb2dVertex
 10
-30.80745047970407
 20
251.2174103207344
 30
0.0
  0
VERTEX
  5
450
330
448
100
AcDbEntity
  8
LAYER3
100
AcDbVertex
100
AcDb2dVertex
 10
-30.79022712154978
 20
251.1846802181954
 30
0.0
  0
VERTEX
  5
451
330
448
100
AcDbEntity
  8
LAYER3
100
AcDbVertex
100
AcDb2dVertex
 10
-30.77195710583322
 20
251.1528847164864
 30
0.0
  0
VERTEX
  5
452
330
448
100
AcDbEntity
  8
LAYER3
100
AcDbVertex
100
AcDb2dVertex
 10
-30.75270599766367
 20
251.1221382565254
 30
0.0
  0
VERTEX
  5
453
330
448
100
AcDbEntity
  8
LAYER3
100
AcDbVertex
100
AcDb2dVertex
 10
-30.73258048935526
 20
251.0924980587716
 30
0.0
  0
VERTEX
  5
454
330
448
100
AcDbEntity
  8
LAYER3
100
AcDbVertex
100
AcDb2dVertex
 10
-30.71170515461563
 20
251.0640022701974
 30
0.0
  0
VERTEX
  5
455
330
448
100
AcDbEntity
  8
LAYER3
100
AcDbVertex
100
AcDb2dVertex
 10
-30.69020337505936
 20
251.0367081112618
 30
0.0
  0
VERTEX
  5
456
330
448
100
AcDbEntity
  8
LAYER3
100
AcDbVertex
100
AcDb2dVertex
 10
-30.66819972439407
 20
251.0106155819649
 30
0.0
  0
VERTEX
  5
457
330
448
100
AcDbEntity
  8
LAYER3
100
AcDbVertex
100
AcDb2dVertex
 10
-30.64581758423447
 20
250.985800976252
 30
0.0
  0
VERTEX
  5
458
330
448
100
AcDbEntity
  8
LAYER3
100
AcDbVertex
100
AcDb2dVertex
 10
-30.62318152828812
 20
250.9622833676095
 30
0.0
  0
VERTEX
  5
459
330
448
100
AcDbEntity
  8
LAYER3
100
AcDbVertex
100
AcDb2dVertex
 10
-30.6004161302626
 20
250.9400818295235
 30
0.0
  0
VERTEX
  5
45A
330
448
100
AcDbEntity
  8
LAYER3
100
AcDbVertex
100
AcDb2dVertex
 10
-30.57764238758682
 20
250.9192726559395
 30
0.0
  0
VERTEX
  5
45B
330
448
100
AcDbEntity
  8
LAYER3
100
AcDbVertex
100
AcDb2dVertex
 10
-30.55458492680191
 20
250.8994934506173
 30
0.0
  0
VERTEX
  5
45C
330
448
100
AcDbEntity
  8
LAYER3
100
AcDbVertex
100
AcDb2dVertex
 10
-30.53098983212112
 20
250.8804581112618
 30
0.0
  0
VERTEX
  5
45D
330
448
100
AcDbEntity
  8
LAYER3
100
AcDbVertex
100
AcDb2dVertex
 10
-30.50689048214554
 20
250.8622047848458
 30
0.0
  0
VERTEX
  5
45E
330
448
100
AcDbEntity
  8
LAYER3
100
AcDbVertex
100
AcDb2dVertex
 10
-30.48231787129044
 20
250.8447143978829
 30
0.0
  0
VERTEX
  5
45F
330
448
100
AcDbEntity
  8
LAYER3
100
AcDbVertex
100
AcDb2dVertex
 10
-30.45730060978531
 20
250.8280250973458
 30
0.0
  0
VERTEX
  5
460
330
448
100
AcDbEntity
  8
LAYER3
100
AcDbVertex
100
AcDb2dVertex
 10
-30.43187088413839
 20
250.8121368832345
 30
0.0
  0
VERTEX
  5
461
330
448
100
AcDbEntity
  8
LAYER3
100
AcDbVertex
100
AcDb2dVertex
 10
-30.40605968876486
 20
250.7970688290352
 30
0.0
  0
SEQEND
  5
462
330
448
100
AcDbEntity
  8
LAYER3
  0
POLYLINE
  5
463
330
2
100
AcDbEntity
  8
LAYER3
100
AcDb2dPolyline
 66
     1
 10
0.0
 20
0.0
 30
0.0
 70
   128
  0
VERTEX
  5
464
330
463
100
AcDbEntity
  8
LAYER3
100
AcDbVertex
100
AcDb2dVertex
 10
-30.40605968876486
 20
250.7970688290352
 30
0.0
  0
VERTEX
  5
465
330
463
100
AcDbEntity
  8
LAYER3
100
AcDbVertex
100
AcDb2dVertex
 10
-30.29318398876796
 20
250.725791210627
 30
0.0
  0
VERTEX
  5
466
330
463
100
AcDbEntity
  8
LAYER3
100
AcDbVertex
100
AcDb2dVertex
 10
-30.18674916668544
 20
250.6427643246407
 30
0.0
  0
VERTEX
  5
467
330
463
100
AcDbEntity
  8
LAYER3
100
AcDbVertex
100
AcDb2dVertex
 10
-30.08814281864778
 20
250.5485794491524
 30
0.0
  0
VERTEX
  5
468
330
463
100
AcDbEntity
  8
LAYER3
100
AcDbVertex
100
AcDb2dVertex
 10
-29.9983889524521
 20
250.4433510250802
 30
0.0
  0
VERTEX
  5
469
330
463
100
AcDbEntity
  8
LAYER3
100
AcDbVertex
100
AcDb2dVertex
 10
-29.91480297489784
 20
250.3209946102852
 30
0.0
  0
VERTEX
  5
46A
330
463
100
AcDbEntity
  8
LAYER3
100
AcDbVertex
100
AcDb2dVertex
 10
-29.84132952137611
 20
250.1825210995431
 30
0.0
  0
VERTEX
  5
46B
330
463
100
AcDbEntity
  8
LAYER3
100
AcDbVertex
100
AcDb2dVertex
 10
-29.7834033433976
 20
250.0323173947091
 30
0.0
  0
VERTEX
  5
46C
330
463
100
AcDbEntity
  8
LAYER3
100
AcDbVertex
100
AcDb2dVertex
 10
-29.74357551975874
 20
249.8771545834298
 30
0.0
  0
VERTEX
  5
46D
330
463
100
AcDbEntity
  8
LAYER3
100
AcDbVertex
100
AcDb2dVertex
 10
-29.7225672666612
 20
249.7165939755196
 30
0.0
  0
VERTEX
  5
46E
330
463
100
AcDbEntity
  8
LAYER3
100
AcDbVertex
100
AcDb2dVertex
 10
-29.72125954075489
 20
249.5439217037911
 30
0.0
  0
VERTEX
  5
46F
330
463
100
AcDbEntity
  8
LAYER3
100
AcDbVertex
100
AcDb2dVertex
 10
-29.7428841058794
 20
249.3693993038887
 30
0.0
  0
VERTEX
  5
470
330
463
100
AcDbEntity
  8
LAYER3
100
AcDbVertex
100
AcDb2dVertex
 10
-29.78512114926014
 20
249.2039177365059
 30
0.0
  0
VERTEX
  5
471
330
463
100
AcDbEntity
  8
LAYER3
100
AcDbVertex
100
AcDb2dVertex
 10
-29.84821743412647
 20
249.0452072567696
 30
0.0
  0
VERTEX
  5
472
330
463
100
AcDbEntity
  8
LAYER3
100
AcDbVertex
100
AcDb2dVertex
 10
-29.9333137933794
 20
248.8913032955879
 30
0.0
  0
VERTEX
  5
473
330
463
100
AcDbEntity
  8
LAYER3
100
AcDbVertex
100
AcDb2dVertex
 10
-30.03585762425093
 20
248.7523720211739
 30
0.0
  0
VERTEX
  5
474
330
463
100
AcDbEntity
  8
LAYER3
100
AcDbVertex
100
AcDb2dVertex
 10
-30.14723486347822
 20
248.6348221249337
 30
0.0
  0
VERTEX
  5
475
330
463
100
AcDbEntity
  8
LAYER3
100
AcDbVertex
100
AcDb2dVertex
 10
-30.27065939350746
 20
248.5327026791329
 30
0.0
  0
VERTEX
  5
476
330
463
100
AcDbEntity
  8
LAYER3
100
AcDbVertex
100
AcDb2dVertex
 10
-30.40580338879249
 20
248.4452507443184
 30
0.0
  0
VERTEX
  5
477
330
463
100
AcDbEntity
  8
LAYER3
100
AcDbVertex
100
AcDb2dVertex
 10
-30.546634859282
 20
248.3764145321602
 30
0.0
  0
VERTEX
  5
478
330
463
100
AcDbEntity
  8
LAYER3
100
AcDbVertex
100
AcDb2dVertex
 10
-30.68617708130495
 20
248.3265564388985
 30
0.0
  0
VERTEX
  5
479
330
463
100
AcDbEntity
  8
LAYER3
100
AcDbVertex
100
AcDb2dVertex
 10
-30.82064754410402
 20
248.2941696591133
 30
0.0
  0
VERTEX
  5
47A
330
463
100
AcDbEntity
  8
LAYER3
100
AcDbVertex
100
AcDb2dVertex
 10
-30.95578200264583
 20
248.2759354061837
 30
0.0
  0
VERTEX
  5
47B
330
463
100
AcDbEntity
  8
LAYER3
100
AcDbVertex
100
AcDb2dVertex
 10
-31.09069592400203
 20
248.2713196224922
 30
0.0
  0
VERTEX
  5
47C
330
463
100
AcDbEntity
  8
LAYER3
100
AcDbVertex
100
AcDb2dVertex
 10
-31.2239075367034
 20
248.2799980587715
 30
0.0
  0
SEQEND
  5
47D
330
463
100
AcDbEntity
  8
LAYER3
  0
POLYLINE
  5
47E
330
2
100
AcDbEntity
  8
LAYER3
100
AcDb2dPolyline
 66
     1
 10
0.0
 20
0.0
 30
0.0
 70
   128
  0
VERTEX
  5
47F
330
47E
100
AcDbEntity
  8
LAYER3
100
AcDbVertex
100
AcDb2dVertex
 10
-31.2239075367034
 20
248.2799980587715
 30
0.0
  0
VERTEX
  5
480
330
47E
100
AcDbEntity
  8
LAYER3
100
AcDbVertex
100
AcDb2dVertex
 10
-31.25364489002829
 20
248.2829735226387
 30
0.0
  0
VERTEX
  5
481
330
47E
100
AcDbEntity
  8
LAYER3
100
AcDbVertex
100
AcDb2dVertex
 10
-31.28355509682297
 20
248.2850716061348
 30
0.0
  0
VERTEX
  5
482
330
47E
100
AcDbEntity
  8
LAYER3
100
AcDbVertex
100
AcDb2dVertex
 10
-31.31360477848648
 20
248.2862732357735
 30
0.0
  0
VERTEX
  5
483
330
47E
100
AcDbEntity
  8
LAYER3
100
AcDbVertex
100
AcDb2dVertex
 10
-31.34376174851059
 20
248.2865784115547
 30
0.0
  0
VERTEX
  5
484
330
47E
100
AcDbEntity
  8
LAYER3
100
AcDbVertex
100
AcDb2dVertex
 10
-31.37399322434067
 20
248.2859680599923
 30
0.0
  0
VERTEX
  5
485
330
47E
100
AcDbEntity
  8
LAYER3
100
AcDbVertex
100
AcDb2dVertex
 10
-31.40426701946854
 20
248.284442181086
 30
0.0
  0
VERTEX
  5
486
330
47E
100
AcDbEntity
  8
LAYER3
100
AcDbVertex
100
AcDb2dVertex
 10
-31.43454975529312
 20
248.2819817013497
 30
0.0
  0
VERTEX
  5
487
330
47E
100
AcDbEntity
  8
LAYER3
100
AcDbVertex
100
AcDb2dVertex
 10
-31.46520800037979
 20
248.2785294003243
 30
0.0
  0
VERTEX
  5
488
330
47E
100
AcDbEntity
  8
LAYER3
100
AcDbVertex
100
AcDb2dVertex
 10
-31.49666733189224
 20
248.2739708370919
 30
0.0
  0
VERTEX
  5
489
330
47E
100
AcDbEntity
  8
LAYER3
100
AcDbVertex
100
AcDb2dVertex
 10
-31.52880734844803
 20
248.2682487911934
 30
0.0
  0
VERTEX
  5
48A
330
47E
100
AcDbEntity
  8
LAYER3
100
AcDbVertex
100
AcDb2dVertex
 10
-31.56150466843246
 20
248.26130604217
 30
0.0
  0
VERTEX
  5
48B
330
47E
100
AcDbEntity
  8
LAYER3
100
AcDbVertex
100
AcDb2dVertex
 10
-31.59463710232376
 20
248.2531425900216
 30
0.0
  0
VERTEX
  5
48C
330
47E
100
AcDbEntity
  8
LAYER3
100
AcDbVertex
100
AcDb2dVertex
 10
-31.62808126850723
 20
248.2437012142892
 30
0.0
  0
VERTEX
  5
48D
330
47E
100
AcDbEntity
  8
LAYER3
100
AcDbVertex
100
AcDb2dVertex
 10
-31.66171497746103
 20
248.2329246945138
 30
0.0
  0
VERTEX
  5
48E
330
47E
100
AcDbEntity
  8
LAYER3
100
AcDbVertex
100
AcDb2dVertex
 10
-31.69541484757059
 20
248.2207748837227
 30
0.0
  0
VERTEX
  5
48F
330
47E
100
AcDbEntity
  8
LAYER3
100
AcDbVertex
100
AcDb2dVertex
 10
-31.72905928536051
 20
248.2072136349434
 30
0.0
  0
VERTEX
  5
490
330
47E
100
AcDbEntity
  8
LAYER3
100
AcDbVertex
100
AcDb2dVertex
 10
-31.76253146572702
 20
248.1922218746895
 30
0.0
  0
VERTEX
  5
491
330
47E
100
AcDbEntity
  8
LAYER3
100
AcDbVertex
100
AcDb2dVertex
 10
-31.79571039124124
 20
248.17585682342
 30
0.0
  0
VERTEX
  5
492
330
47E
100
AcDbEntity
  8
LAYER3
100
AcDbVertex
100
AcDb2dVertex
 10
-31.82847268028849
 20
248.1581947750802
 30
0.0
  0
VERTEX
  5
493
330
47E
100
AcDbEntity
  8
LAYER3
100
AcDbVertex
100
AcDb2dVertex
 10
-31.86069614334696
 20
248.1392548031563
 30
0.0
  0
VERTEX
  5
494
330
47E
100
AcDbEntity
  8
LAYER3
100
AcDbVertex
100
AcDb2dVertex
 10
-31.89225739880197
 20
248.1191513485665
 30
0.0
  0
VERTEX
  5
495
330
47E
100
AcDbEntity
  8
LAYER3
100
AcDbVertex
100
AcDb2dVertex
 10
-31.9230336610853
 20
248.0979225582833
 30
0.0
  0
VERTEX
  5
496
330
47E
100
AcDbEntity
  8
LAYER3
100
AcDbVertex
100
AcDb2dVertex
 10
-31.95290274067514
 20
248.075644726252
 30
0.0
  0
VERTEX
  5
497
330
47E
100
AcDbEntity
  8
LAYER3
100
AcDbVertex
100
AcDb2dVertex
 10
-31.98174185200327
 20
248.0523559994454
 30
0.0
  0
SEQEND
  5
498
330
47E
100
AcDbEntity
  8
LAYER3
  0
POLYLINE
  5
499
330
2
100
AcDbEntity
  8
LAYER3
100
AcDb2dPolyline
 66
     1
 10
0.0
 20
0.0
 30
0.0
 70
   128
  0
VERTEX
  5
49A
330
499
100
AcDbEntity
  8
LAYER3
100
AcDbVertex
100
AcDb2dVertex
 10
-37.25940919561987
 20
252.6650497860665
 30
0.0
  0
VERTEX
  5
49B
330
499
100
AcDbEntity
  8
LAYER3
100
AcDbVertex
100
AcDb2dVertex
 10
-37.3088336650909
 20
252.7890465206856
 30
0.0
  0
VERTEX
  5
49C
330
499
100
AcDbEntity
  8
LAYER3
100
AcDbVertex
100
AcDb2dVertex
 10
-37.34613544388427
 20
252.9187843746895
 30
0.0
  0
VERTEX
  5
49D
330
499
100
AcDbEntity
  8
LAYER3
100
AcDbVertex
100
AcDb2dVertex
 10
-37.37054891033785
 20
253.0529472775215
 30
0.0
  0
VERTEX
  5
49E
330
499
100
AcDbEntity
  8
LAYER3
100
AcDbVertex
100
AcDb2dVertex
 10
-37.38130367441789
 20
253.1908485836739
 30
0.0
  0
VERTEX
  5
49F
330
499
100
AcDbEntity
  8
LAYER3
100
AcDbVertex
100
AcDb2dVertex
 10
-37.37700826569219
 20
253.3389542050118
 30
0.0
  0
VERTEX
  5
4A0
330
499
100
AcDbEntity
  8
LAYER3
100
AcDbVertex
100
AcDb2dVertex
 10
-37.35505766316078
 20
253.4941742367501
 30
0.0
  0
VERTEX
  5
4A1
330
499
100
AcDbEntity
  8
LAYER3
100
AcDbVertex
100
AcDb2dVertex
 10
-37.31364077969215
 20
253.6497375912423
 30
0.0
  0
VERTEX
  5
4A2
330
499
100
AcDbEntity
  8
LAYER3
100
AcDbVertex
100
AcDb2dVertex
 10
-37.2546575133386
 20
253.7986633724923
 30
0.0
  0
VERTEX
  5
4A3
330
499
100
AcDbEntity
  8
LAYER3
100
AcDbVertex
100
AcDb2dVertex
 10
-37.17727339907316
 20
253.9409325070137
 30
0.0
  0
VERTEX
  5
4A4
330
499
100
AcDbEntity
  8
LAYER3
100
AcDbVertex
100
AcDb2dVertex
 10
-37.07684463902146
 20
254.0813705868477
 30
0.0
  0
VERTEX
  5
4A5
330
499
100
AcDbEntity
  8
LAYER3
100
AcDbVertex
100
AcDb2dVertex
 10
-36.9567594592157
 20
254.2098686642403
 30
0.0
  0
VERTEX
  5
4A6
330
499
100
AcDbEntity
  8
LAYER3
100
AcDbVertex
100
AcDb2dVertex
 10
-36.82532257481248
 20
254.3189117855782
 30
0.0
  0
VERTEX
  5
4A7
330
499
100
AcDbEntity
  8
LAYER3
100
AcDbVertex
100
AcDb2dVertex
 10
-36.68099380179078
 20
254.4102165646309
 30
0.0
  0
VERTEX
  5
4A8
330
499
100
AcDbEntity
  8
LAYER3
100
AcDbVertex
100
AcDb2dVertex
 10
-36.52168131514222
 20
254.4847176022286
 30
0.0
  0
VERTEX
  5
4A9
330
499
100
AcDbEntity
  8
LAYER3
100
AcDbVertex
100
AcDb2dVertex
 10
-36.35706848545698
 20
254.5368454403634
 30
0.0
  0
VERTEX
  5
4AA
330
499
100
AcDbEntity
  8
LAYER3
100
AcDbVertex
100
AcDb2dVertex
 10
-36.19786596937803
 20
254.5664665646309
 30
0.0
  0
VERTEX
  5
4AB
330
499
100
AcDbEntity
  8
LAYER3
100
AcDbVertex
100
AcDb2dVertex
 10
-36.0379878346505
 20
254.5765373654122
 30
0.0
  0
VERTEX
  5
4AC
330
499
100
AcDbEntity
  8
LAYER3
100
AcDbVertex
100
AcDb2dVertex
 10
-35.877245730597
 20
254.5678589291329
 30
0.0
  0
VERTEX
  5
4AD
330
499
100
AcDbEntity
  8
LAYER3
100
AcDbVertex
100
AcDb2dVertex
 10
-35.72284824295659
 20
254.5407745785469
 30
0.0
  0
VERTEX
  5
4AE
330
499
100
AcDbEntity
  8
LAYER3
100
AcDbVertex
100
AcDb2dVertex
 10
-35.5806518261017
 20
254.49909901092
 30
0.0
  0
VERTEX
  5
4AF
330
499
100
AcDbEntity
  8
LAYER3
100
AcDbVertex
100
AcDb2dVertex
 10
-35.45282787724153
 20
254.4462463803048
 30
0.0
  0
VERTEX
  5
4B0
330
499
100
AcDbEntity
  8
LAYER3
100
AcDbVertex
100
AcDb2dVertex
 10
-35.33278173847808
 20
254.3815872616524
 30
0.0
  0
VERTEX
  5
4B1
330
499
100
AcDbEntity
  8
LAYER3
100
AcDbVertex
100
AcDb2dVertex
 10
-35.22092170162807
 20
254.3060181088204
 30
0.0
  0
VERTEX
  5
4B2
330
499
100
AcDbEntity
  8
LAYER3
100
AcDbVertex
100
AcDb2dVertex
 10
-35.11825627728109
 20
254.2206833309883
 30
0.0
  0
SEQEND
  5
4B3
330
499
100
AcDbEntity
  8
LAYER3
  0
POLYLINE
  5
4B4
330
2
100
AcDbEntity
  8
LAYER3
100
AcDb2dPolyline
 66
     1
 10
0.0
 20
0.0
 30
0.0
 70
   128
  0
VERTEX
  5
4B5
330
4B4
100
AcDbEntity
  8
LAYER3
100
AcDbVertex
100
AcDb2dVertex
 10
-37.24172032518976
 20
251.8739578671212
 30
0.0
  0
VERTEX
  5
4B6
330
4B4
100
AcDbEntity
  8
LAYER3
100
AcDbVertex
100
AcDb2dVertex
 10
-37.22849316044443
 20
251.9085762448067
 30
0.0
  0
VERTEX
  5
4B7
330
4B4
100
AcDbEntity
  8
LAYER3
100
AcDbVertex
100
AcDb2dVertex
 10
-37.21652812405222
 20
251.9438812680001
 30
0.0
  0
VERTEX
  5
4B8
330
4B4
100
AcDbEntity
  8
LAYER3
100
AcDbVertex
100
AcDb2dVertex
 10
-37.20584816380136
 20
251.9797012753243
 30
0.0
  0
VERTEX
  5
4B9
330
4B4
100
AcDbEntity
  8
LAYER3
100
AcDbVertex
100
AcDb2dVertex
 10
-37.19647622748011
 20
252.0159408993477
 30
0.0
  0
VERTEX
  5
4BA
330
4B4
100
AcDbEntity
  8
LAYER3
100
AcDbVertex
100
AcDb2dVertex
 10
-37.18843526287668
 20
252.0524284786934
 30
0.0
  0
VERTEX
  5
4BB
330
4B4
100
AcDbEntity
  8
LAYER3
100
AcDbVertex
100
AcDb2dVertex
 10
-37.18174821777933
 20
252.0890495724434
 30
0.0
  0
VERTEX
  5
4BC
330
4B4
100
AcDbEntity
  8
LAYER3
100
AcDbVertex
100
AcDb2dVertex
 10
-37.17643774195307
 20
252.1256706661934
 30
0.0
  0
VERTEX
  5
4BD
330
4B4
100
AcDbEntity
  8
LAYER3
100
AcDbVertex
100
AcDb2dVertex
 10
-37.17252678318613
 20
252.1621200985665
 30
0.0
  0
VERTEX
  5
4BE
330
4B4
100
AcDbEntity
  8
LAYER3
100
AcDbVertex
100
AcDb2dVertex
 10
-37.17003083868616
 20
252.1983215756173
 30
0.0
  0
VERTEX
  5
4BF
330
4B4
100
AcDbEntity
  8
LAYER3
100
AcDbVertex
100
AcDb2dVertex
 10
-37.16889477415674
 20
252.2341225094551
 30
0.0
  0
VERTEX
  5
4C0
330
4B4
100
AcDbEntity
  8
LAYER3
100
AcDbVertex
100
AcDb2dVertex
 10
-37.16903871937393
 20
252.2694275326485
 30
0.0
  0
VERTEX
  5
4C1
330
4B4
100
AcDbEntity
  8
LAYER3
100
AcDbVertex
100
AcDb2dVertex
 10
-37.17038489027618
 20
252.304160351252
 30
0.0
  0
VERTEX
  5
4C2
330
4B4
100
AcDbEntity
  8
LAYER3
100
AcDbVertex
100
AcDb2dVertex
 10
-37.1728552047789
 20
252.3382065243477
 30
0.0
  0
VERTEX
  5
4C3
330
4B4
100
AcDbEntity
  8
LAYER3
100
AcDbVertex
100
AcDb2dVertex
 10
-37.17637217684387
 20
252.3714325375313
 30
0.0
  0
VERTEX
  5
4C4
330
4B4
100
AcDbEntity
  8
LAYER3
100
AcDbVertex
100
AcDb2dVertex
 10
-37.18085802240967
 20
252.4037811703438
 30
0.0
  0
VERTEX
  5
4C5
330
4B4
100
AcDbEntity
  8
LAYER3
100
AcDbVertex
100
AcDb2dVertex
 10
-37.18623495741486
 20
252.4350998348946
 30
0.0
  0
VERTEX
  5
4C6
330
4B4
100
AcDbEntity
  8
LAYER3
100
AcDbVertex
100
AcDb2dVertex
 10
-37.19242519779803
 20
252.4653313107247
 30
0.0
  0
VERTEX
  5
4C7
330
4B4
100
AcDbEntity
  8
LAYER3
100
AcDbVertex
100
AcDb2dVertex
 10
-37.19945079727771
 20
252.4948952145333
 30
0.0
  0
VERTEX
  5
4C8
330
4B4
100
AcDbEntity
  8
LAYER3
100
AcDbVertex
100
AcDb2dVertex
 10
-37.20735318108203
 20
252.5241539425606
 30
0.0
  0
VERTEX
  5
4C9
330
4B4
100
AcDbEntity
  8
LAYER3
100
AcDbVertex
100
AcDb2dVertex
 10
-37.21611536188723
 20
252.5530884213204
 30
0.0
  0
VERTEX
  5
4CA
330
4B4
100
AcDbEntity
  8
LAYER3
100
AcDbVertex
100
AcDb2dVertex
 10
-37.22571916027667
 20
252.5816795773263
 30
0.0
  0
VERTEX
  5
4CB
330
4B4
100
AcDbEntity
  8
LAYER3
100
AcDbVertex
100
AcDb2dVertex
 10
-37.23614788694979
 20
252.6098892636055
 30
0.0
  0
VERTEX
  5
4CC
330
4B4
100
AcDbEntity
  8
LAYER3
100
AcDbVertex
100
AcDb2dVertex
 10
-37.24738366051321
 20
252.6376793331856
 30
0.0
  0
VERTEX
  5
4CD
330
4B4
100
AcDbEntity
  8
LAYER3
100
AcDbVertex
100
AcDb2dVertex
 10
-37.25940919561987
 20
252.6650497860665
 30
0.0
  0
SEQEND
  5
4CE
330
4B4
100
AcDbEntity
  8
LAYER3
  0
ARC
  5
4CF
330
2
100
AcDbEntity
  8
LAYER3
100
AcDbCircle
 10
-34.13620497419848
 20
250.617666253512
 30
0.0
 40
3.349999999999479
100
AcDbArc
 50
157.9748830508229
 51
166.0251169491764
  0
POLYLINE
  5
4D0
330
2
100
AcDbEntity
  8
LAYER3
100
AcDb2dPolyline
 66
     1
 10
0.0
 20
0.0
 30
0.0
 70
   128
  0
VERTEX
  5
4D1
330
4D0
100
AcDbEntity
  8
LAYER3
100
AcDbVertex
100
AcDb2dVertex
 10
-37.86635018034582
 20
250.7970688290352
 30
0.0
  0
VERTEX
  5
4D2
330
4D0
100
AcDbEntity
  8
LAYER3
100
AcDbVertex
100
AcDb2dVertex
 10
-37.84053928299551
 20
250.8121368832345
 30
0.0
  0
VERTEX
  5
4D3
330
4D0
100
AcDbEntity
  8
LAYER3
100
AcDbVertex
100
AcDb2dVertex
 10
-37.81510955734851
 20
250.8280250973458
 30
0.0
  0
VERTEX
  5
4D4
330
4D0
100
AcDbEntity
  8
LAYER3
100
AcDbVertex
100
AcDb2dVertex
 10
-37.7900925938666
 20
250.8447143978829
 30
0.0
  0
VERTEX
  5
4D5
330
4D0
100
AcDbEntity
  8
LAYER3
100
AcDbVertex
100
AcDb2dVertex
 10
-37.76551908894183
 20
250.8622047848458
 30
0.0
  0
VERTEX
  5
4D6
330
4D0
100
AcDbEntity
  8
LAYER3
100
AcDbVertex
100
AcDb2dVertex
 10
-37.74141973896624
 20
250.8804581112618
 30
0.0
  0
VERTEX
  5
4D7
330
4D0
100
AcDbEntity
  8
LAYER3
100
AcDbVertex
100
AcDb2dVertex
 10
-37.71782553835513
 20
250.8994934506173
 30
0.0
  0
VERTEX
  5
4D8
330
4D0
100
AcDbEntity
  8
LAYER3
100
AcDbVertex
100
AcDb2dVertex
 10
-37.69476777954699
 20
250.9192726559395
 30
0.0
  0
VERTEX
  5
4D9
330
4D0
100
AcDbEntity
  8
LAYER3
100
AcDbVertex
100
AcDb2dVertex
 10
-37.67199403687119
 20
250.9400818295235
 30
0.0
  0
VERTEX
  5
4DA
330
4D0
100
AcDbEntity
  8
LAYER3
100
AcDbVertex
100
AcDb2dVertex
 10
-37.64922804279922
 20
250.9622833676095
 30
0.0
  0
VERTEX
  5
4DB
330
4D0
100
AcDbEntity
  8
LAYER3
100
AcDbVertex
100
AcDb2dVertex
 10
-37.62659198685287
 20
250.985800976252
 30
0.0
  0
VERTEX
  5
4DC
330
4D0
100
AcDbEntity
  8
LAYER3
100
AcDbVertex
100
AcDb2dVertex
 10
-37.60421044273972
 20
251.0106155819649
 30
0.0
  0
VERTEX
  5
4DD
330
4D0
100
AcDbEntity
  8
LAYER3
100
AcDbVertex
100
AcDb2dVertex
 10
-37.58220679207443
 20
251.0367081112618
 30
0.0
  0
VERTEX
  5
4DE
330
4D0
100
AcDbEntity
  8
LAYER3
100
AcDbVertex
100
AcDb2dVertex
 10
-37.56070501251816
 20
251.0640022701974
 30
0.0
  0
VERTEX
  5
4DF
330
4D0
100
AcDbEntity
  8
LAYER3
100
AcDbVertex
100
AcDb2dVertex
 10
-37.53982937975519
 20
251.0924980587716
 30
0.0
  0
VERTEX
  5
4E0
330
4D0
100
AcDbEntity
  8
LAYER3
100
AcDbVertex
100
AcDb2dVertex
 10
-37.51970387144678
 20
251.1221382565254
 30
0.0
  0
VERTEX
  5
4E1
330
4D0
100
AcDbEntity
  8
LAYER3
100
AcDbVertex
100
AcDb2dVertex
 10
-37.50045306130045
 20
251.1528847164864
 30
0.0
  0
VERTEX
  5
4E2
330
4D0
100
AcDbEntity
  8
LAYER3
100
AcDbVertex
100
AcDb2dVertex
 10
-37.4821830455839
 20
251.1846802181954
 30
0.0
  0
VERTEX
  5
4E3
330
4D0
100
AcDbEntity
  8
LAYER3
100
AcDbVertex
100
AcDb2dVertex
 10
-37.46495938940638
 20
251.2174103207344
 30
0.0
  0
VERTEX
  5
4E4
330
4D0
100
AcDbEntity
  8
LAYER3
100
AcDbVertex
100
AcDb2dVertex
 10
-37.44884408159845
 20
251.2509796566719
 30
0.0
  0
VERTEX
  5
4E5
330
4D0
100
AcDbEntity
  8
LAYER3
100
AcDbVertex
100
AcDb2dVertex
 10
-37.43389851494425
 20
251.2852165646309
 30
0.0
  0
VERTEX
  5
4E6
330
4D0
100
AcDbEntity
  8
LAYER3
100
AcDbVertex
100
AcDb2dVertex
 10
-37.42018467827433
 20
251.3200447506661
 30
0.0
  0
VERTEX
  5
4E7
330
4D0
100
AcDbEntity
  8
LAYER3
100
AcDbVertex
100
AcDb2dVertex
 10
-37.40776456041925
 20
251.3553116268868
 30
0.0
  0
VERTEX
  5
4E8
330
4D0
100
AcDbEntity
  8
LAYER3
100
AcDbVertex
100
AcDb2dVertex
 10
-37.3966989581167
 20
251.3909027523751
 30
0.0
  0
VERTEX
  5
4E9
330
4D0
100
AcDbEntity
  8
LAYER3
100
AcDbVertex
100
AcDb2dVertex
 10
-37.38705075426691
 20
251.4266846127267
 30
0.0
  0
SEQEND
  5
4EA
330
4D0
100
AcDbEntity
  8
LAYER3
  0
POLYLINE
  5
4EB
330
2
100
AcDbEntity
  8
LAYER3
100
AcDb2dPolyline
 66
     1
 10
0.0
 20
0.0
 30
0.0
 70
   128
  0
VERTEX
  5
4EC
330
4EB
100
AcDbEntity
  8
LAYER3
100
AcDbVertex
100
AcDb2dVertex
 10
-37.04850263043051
 20
248.2799980587715
 30
0.0
  0
VERTEX
  5
4ED
330
4EB
100
AcDbEntity
  8
LAYER3
100
AcDbVertex
100
AcDb2dVertex
 10
-37.18171424313198
 20
248.2713196224922
 30
0.0
  0
VERTEX
  5
4EE
330
4EB
100
AcDbEntity
  8
LAYER3
100
AcDbVertex
100
AcDb2dVertex
 10
-37.31662816448821
 20
248.2759354061837
 30
0.0
  0
VERTEX
  5
4EF
330
4EB
100
AcDbEntity
  8
LAYER3
100
AcDbVertex
100
AcDb2dVertex
 10
-37.45176232500688
 20
248.2941696591133
 30
0.0
  0
VERTEX
  5
4F0
330
4EB
100
AcDbEntity
  8
LAYER3
100
AcDbVertex
100
AcDb2dVertex
 10
-37.58623278780595
 20
248.3265564388985
 30
0.0
  0
VERTEX
  5
4F1
330
4EB
100
AcDbEntity
  8
LAYER3
100
AcDbVertex
100
AcDb2dVertex
 10
-37.72577471180577
 20
248.3764145321602
 30
0.0
  0
VERTEX
  5
4F2
330
4EB
100
AcDbEntity
  8
LAYER3
100
AcDbVertex
100
AcDb2dVertex
 10
-37.8666061822953
 20
248.4452507443184
 30
0.0
  0
VERTEX
  5
4F3
330
4EB
100
AcDbEntity
  8
LAYER3
100
AcDbVertex
100
AcDb2dVertex
 10
-38.00175107165001
 20
248.5327026791329
 30
0.0
  0
VERTEX
  5
4F4
330
4EB
100
AcDbEntity
  8
LAYER3
100
AcDbVertex
100
AcDb2dVertex
 10
-38.12517560167936
 20
248.6348221249337
 30
0.0
  0
VERTEX
  5
4F5
330
4EB
100
AcDbEntity
  8
LAYER3
100
AcDbVertex
100
AcDb2dVertex
 10
-38.2365520958486
 20
248.7523720211739
 30
0.0
  0
VERTEX
  5
4F6
330
4EB
100
AcDbEntity
  8
LAYER3
100
AcDbVertex
100
AcDb2dVertex
 10
-38.33909652276665
 20
248.8913032955879
 30
0.0
  0
VERTEX
  5
4F7
330
4EB
100
AcDbEntity
  8
LAYER3
100
AcDbVertex
100
AcDb2dVertex
 10
-38.42419243498475
 20
249.0452072567696
 30
0.0
  0
VERTEX
  5
4F8
330
4EB
100
AcDbEntity
  8
LAYER3
100
AcDbVertex
100
AcDb2dVertex
 10
-38.48728857083947
 20
249.2039177365059
 30
0.0
  0
VERTEX
  5
4F9
330
4EB
100
AcDbEntity
  8
LAYER3
100
AcDbVertex
100
AcDb2dVertex
 10
-38.52952546520859
 20
249.3693993038887
 30
0.0
  0
VERTEX
  5
4FA
330
4EB
100
AcDbEntity
  8
LAYER3
100
AcDbVertex
100
AcDb2dVertex
 10
-38.55115003033311
 20
249.5439217037911
 30
0.0
  0
VERTEX
  5
4FB
330
4EB
100
AcDbEntity
  8
LAYER3
100
AcDbVertex
100
AcDb2dVertex
 10
-38.54984245343832
 20
249.7165939755196
 30
0.0
  0
VERTEX
  5
4FC
330
4EB
100
AcDbEntity
  8
LAYER3
100
AcDbVertex
100
AcDb2dVertex
 10
-38.52883405132917
 20
249.8771545834298
 30
0.0
  0
VERTEX
  5
4FD
330
4EB
100
AcDbEntity
  8
LAYER3
100
AcDbVertex
100
AcDb2dVertex
 10
-38.48900712175987
 20
250.0323173947091
 30
0.0
  0
VERTEX
  5
4FE
330
4EB
100
AcDbEntity
  8
LAYER3
100
AcDbVertex
100
AcDb2dVertex
 10
-38.43107990070007
 20
250.1825210995431
 30
0.0
  0
VERTEX
  5
4FF
330
4EB
100
AcDbEntity
  8
LAYER3
100
AcDbVertex
100
AcDb2dVertex
 10
-38.3576074902596
 20
250.3209946102852
 30
0.0
  0
VERTEX
  5
500
330
4EB
100
AcDbEntity
  8
LAYER3
100
AcDbVertex
100
AcDb2dVertex
 10
-38.2740209166588
 20
250.4433510250802
 30
0.0
  0
VERTEX
  5
501
330
4EB
100
AcDbEntity
  8
LAYER3
100
AcDbVertex
100
AcDb2dVertex
 10
-38.18426660342828
 20
250.5485794491524
 30
0.0
  0
VERTEX
  5
502
330
4EB
100
AcDbEntity
  8
LAYER3
100
AcDbVertex
100
AcDb2dVertex
 10
-38.08566070242537
 20
250.6427643246407
 30
0.0
  0
VERTEX
  5
503
330
4EB
100
AcDbEntity
  8
LAYER3
100
AcDbVertex
100
AcDb2dVertex
 10
-37.9792255823196
 20
250.725791210627
 30
0.0
  0
VERTEX
  5
504
330
4EB
100
AcDbEntity
  8
LAYER3
100
AcDbVertex
100
AcDb2dVertex
 10
-37.86635018034582
 20
250.7970688290352
 30
0.0
  0
SEQEND
  5
505
330
4EB
100
AcDbEntity
  8
LAYER3
  0
POLYLINE
  5
506
330
2
100
AcDbEntity
  8
LAYER3
100
AcDb2dPolyline
 66
     1
 10
0.0
 20
0.0
 30
0.0
 70
   128
  0
VERTEX
  5
507
330
506
100
AcDbEntity
  8
LAYER3
100
AcDbVertex
100
AcDb2dVertex
 10
-36.2906683151304
 20
248.0523559994454
 30
0.0
  0
VERTEX
  5
508
330
506
100
AcDbEntity
  8
LAYER3
100
AcDbVertex
100
AcDb2dVertex
 10
-36.31950712843531
 20
248.075644726252
 30
0.0
  0
VERTEX
  5
509
330
506
100
AcDbEntity
  8
LAYER3
100
AcDbVertex
100
AcDb2dVertex
 10
-36.34937620802515
 20
248.0979225582833
 30
0.0
  0
VERTEX
  5
50A
330
506
100
AcDbEntity
  8
LAYER3
100
AcDbVertex
100
AcDb2dVertex
 10
-36.3801527683317
 20
248.1191513485665
 30
0.0
  0
VERTEX
  5
50B
330
506
100
AcDbEntity
  8
LAYER3
100
AcDbVertex
100
AcDb2dVertex
 10
-36.41171402378672
 20
248.1392548031563
 30
0.0
  0
VERTEX
  5
50C
330
506
100
AcDbEntity
  8
LAYER3
100
AcDbVertex
100
AcDb2dVertex
 10
-36.44393718882196
 20
248.1581947750802
 30
0.0
  0
VERTEX
  5
50D
330
506
100
AcDbEntity
  8
LAYER3
100
AcDbVertex
100
AcDb2dVertex
 10
-36.4766994778692
 20
248.17585682342
 30
0.0
  0
VERTEX
  5
50E
330
506
100
AcDbEntity
  8
LAYER3
100
AcDbVertex
100
AcDb2dVertex
 10
-36.50987840338343
 20
248.1922218746895
 30
0.0
  0
VERTEX
  5
50F
330
506
100
AcDbEntity
  8
LAYER3
100
AcDbVertex
100
AcDb2dVertex
 10
-36.54335088177317
 20
248.2072136349434
 30
0.0
  0
VERTEX
  5
510
330
506
100
AcDbEntity
  8
LAYER3
100
AcDbVertex
100
AcDb2dVertex
 10
-36.57699531956308
 20
248.2207748837227
 30
0.0
  0
VERTEX
  5
511
330
506
100
AcDbEntity
  8
LAYER3
100
AcDbVertex
100
AcDb2dVertex
 10
-36.61069518967264
 20
248.2329246945138
 30
0.0
  0
VERTEX
  5
512
330
506
100
AcDbEntity
  8
LAYER3
100
AcDbVertex
100
AcDb2dVertex
 10
-36.64432860060333
 20
248.2437012142892
 30
0.0
  0
VERTEX
  5
513
330
506
100
AcDbEntity
  8
LAYER3
100
AcDbVertex
100
AcDb2dVertex
 10
-36.67777306481003
 20
248.2531425900216
 30
0.0
  0
VERTEX
  5
514
330
506
100
AcDbEntity
  8
LAYER3
100
AcDbVertex
100
AcDb2dVertex
 10
-36.7109052006781
 20
248.26130604217
 30
0.0
  0
VERTEX
  5
515
330
506
100
AcDbEntity
  8
LAYER3
100
AcDbVertex
100
AcDb2dVertex
 10
-36.74360281868576
 20
248.2682487911934
 30
0.0
  0
VERTEX
  5
516
330
506
100
AcDbEntity
  8
LAYER3
100
AcDbVertex
100
AcDb2dVertex
 10
-36.77574253721832
 20
248.2739708370919
 30
0.0
  0
VERTEX
  5
517
330
506
100
AcDbEntity
  8
LAYER3
100
AcDbVertex
100
AcDb2dVertex
 10
-36.80720186873077
 20
248.2785294003243
 30
0.0
  0
VERTEX
  5
518
330
506
100
AcDbEntity
  8
LAYER3
100
AcDbVertex
100
AcDb2dVertex
 10
-36.83786011381747
 20
248.2819817013497
 30
0.0
  0
VERTEX
  5
519
330
506
100
AcDbEntity
  8
LAYER3
100
AcDbVertex
100
AcDb2dVertex
 10
-36.86814284964206
 20
248.284442181086
 30
0.0
  0
VERTEX
  5
51A
330
506
100
AcDbEntity
  8
LAYER3
100
AcDbVertex
100
AcDb2dVertex
 10
-36.89841664476992
 20
248.2859680599923
 30
0.0
  0
VERTEX
  5
51B
330
506
100
AcDbEntity
  8
LAYER3
100
AcDbVertex
100
AcDb2dVertex
 10
-36.9286481206
 20
248.2865784115547
 30
0.0
  0
VERTEX
  5
51C
330
506
100
AcDbEntity
  8
LAYER3
100
AcDbVertex
100
AcDb2dVertex
 10
-36.95880509062411
 20
248.2862732357735
 30
0.0
  0
VERTEX
  5
51D
330
506
100
AcDbEntity
  8
LAYER3
100
AcDbVertex
100
AcDb2dVertex
 10
-36.98885507031085
 20
248.2850716061348
 30
0.0
  0
VERTEX
  5
51E
330
506
100
AcDbEntity
  8
LAYER3
100
AcDbVertex
100
AcDb2dVertex
 10
-37.01876497908239
 20
248.2829735226387
 30
0.0
  0
VERTEX
  5
51F
330
506
100
AcDbEntity
  8
LAYER3
100
AcDbVertex
100
AcDb2dVertex
 10
-37.04850263043051
 20
248.2799980587715
 30
0.0
  0
SEQEND
  5
520
330
506
100
AcDbEntity
  8
LAYER3
  0
ARC
  5
521
330
2
100
AcDbEntity
  8
LAYER3
100
AcDbCircle
 10
-34.13620497419527
 20
250.6176662535155
 30
0.0
 40
3.350000000004513
100
AcDbArc
 50
229.9748830508317
 51
238.0251169491719
  0
POLYLINE
  5
522
330
2
100
AcDbEntity
  8
LAYER3
100
AcDb2dPolyline
 66
     1
 10
0.0
 20
0.0
 30
0.0
 70
   128
  0
VERTEX
  5
523
330
522
100
AcDbEntity
  8
LAYER3
100
AcDbVertex
100
AcDb2dVertex
 10
-35.45951015396719
 20
247.1255180783028
 30
0.0
  0
VERTEX
  5
524
330
522
100
AcDbEntity
  8
LAYER3
100
AcDbVertex
100
AcDb2dVertex
 10
-35.4658634130538
 20
247.1547386593575
 30
0.0
  0
VERTEX
  5
525
330
522
100
AcDbEntity
  8
LAYER3
100
AcDbVertex
100
AcDb2dVertex
 10
-35.4731131259978
 20
247.1838257260079
 30
0.0
  0
VERTEX
  5
526
330
522
100
AcDbEntity
  8
LAYER3
100
AcDbVertex
100
AcDb2dVertex
 10
-35.48125631256701
 20
247.212779278254
 30
0.0
  0
VERTEX
  5
527
330
522
100
AcDbEntity
  8
LAYER3
100
AcDbVertex
100
AcDb2dVertex
 10
-35.49029058857562
 20
247.2415420956368
 30
0.0
  0
VERTEX
  5
528
330
522
100
AcDbEntity
  8
LAYER3
100
AcDbVertex
100
AcDb2dVertex
 10
-35.50021297379138
 20
247.2701141781563
 30
0.0
  0
VERTEX
  5
529
330
522
100
AcDbEntity
  8
LAYER3
100
AcDbVertex
100
AcDb2dVertex
 10
-35.51102048798205
 20
247.2984383053536
 30
0.0
  0
VERTEX
  5
52A
330
522
100
AcDbEntity
  8
LAYER3
100
AcDbVertex
100
AcDb2dVertex
 10
-35.52271074696185
 20
247.3264763302559
 30
0.0
  0
VERTEX
  5
52B
330
522
100
AcDbEntity
  8
LAYER3
100
AcDbVertex
100
AcDb2dVertex
 10
-35.5354679290831
 20
247.3545715756173
 30
0.0
  0
VERTEX
  5
52C
330
522
100
AcDbEntity
  8
LAYER3
100
AcDbVertex
100
AcDb2dVertex
 10
-35.54953402920364
 20
247.3830673641915
 30
0.0
  0
VERTEX
  5
52D
330
522
100
AcDbEntity
  8
LAYER3
100
AcDbVertex
100
AcDb2dVertex
 10
-35.56491202755569
 20
247.4118683285469
 30
0.0
  0
VERTEX
  5
52E
330
522
100
AcDbEntity
  8
LAYER3
100
AcDbVertex
100
AcDb2dVertex
 10
-35.58160311623215
 20
247.440821880793
 30
0.0
  0
VERTEX
  5
52F
330
522
100
AcDbEntity
  8
LAYER3
100
AcDbVertex
100
AcDb2dVertex
 10
-35.59960967941879
 20
247.4698135800118
 30
0.0
  0
VERTEX
  5
530
330
522
100
AcDbEntity
  8
LAYER3
100
AcDbVertex
100
AcDb2dVertex
 10
-35.61893290920853
 20
247.4987099117989
 30
0.0
  0
VERTEX
  5
531
330
522
100
AcDbEntity
  8
LAYER3
100
AcDbVertex
100
AcDb2dVertex
 10
-35.63957578583353
 20
247.5273582882637
 30
0.0
  0
VERTEX
  5
532
330
522
100
AcDbEntity
  8
LAYER3
100
AcDbVertex
100
AcDb2dVertex
 10
-35.66153979941004
 20
247.5556633419747
 30
0.0
  0
VERTEX
  5
533
330
522
100
AcDbEntity
  8
LAYER3
100
AcDbVertex
100
AcDb2dVertex
 10
-35.6848288242399
 20
247.5834724850411
 30
0.0
  0
VERTEX
  5
534
330
522
100
AcDbEntity
  8
LAYER3
100
AcDbVertex
100
AcDb2dVertex
 10
-35.70942676706903
 20
247.610671276545
 30
0.0
  0
VERTEX
  5
535
330
522
100
AcDbEntity
  8
LAYER3
100
AcDbVertex
100
AcDb2dVertex
 10
-35.73524302883738
 20
247.6371643490548
 30
0.0
  0
VERTEX
  5
536
330
522
100
AcDbEntity
  8
LAYER3
100
AcDbVertex
100
AcDb2dVertex
 10
-35.76217836781137
 20
247.6628563351388
 30
0.0
  0
VERTEX
  5
537
330
522
100
AcDbEntity
  8
LAYER3
100
AcDbVertex
100
AcDb2dVertex
 10
-35.79013413830393
 20
247.6876518673653
 30
0.0
  0
VERTEX
  5
538
330
522
100
AcDbEntity
  8
LAYER3
100
AcDbVertex
100
AcDb2dVertex
 10
-35.81901199265116
 20
247.7114555783028
 30
0.0
  0
VERTEX
  5
539
330
522
100
AcDbEntity
  8
LAYER3
100
AcDbVertex
100
AcDb2dVertex
 10
-35.84871298714273
 20
247.7341721005196
 30
0.0
  0
VERTEX
  5
53A
330
522
100
AcDbEntity
  8
LAYER3
100
AcDbVertex
100
AcDb2dVertex
 10
-35.87913817806833
 20
247.7556869930977
 30
0.0
  0
VERTEX
  5
53B
330
522
100
AcDbEntity
  8
LAYER3
100
AcDbVertex
100
AcDb2dVertex
 10
-35.91018891974085
 20
247.7759239620919
 30
0.0
  0
SEQEND
  5
53C
330
522
100
AcDbEntity
  8
LAYER3
  0
POLYLINE
  5
53D
330
2
100
AcDbEntity
  8
LAYER3
100
AcDb2dPolyline
 66
     1
 10
0.0
 20
0.0
 30
0.0
 70
   128
  0
VERTEX
  5
53E
330
53D
100
AcDbEntity
  8
LAYER3
100
AcDbVertex
100
AcDb2dVertex
 10
-32.81289941712027
 20
247.1255180783028
 30
0.0
  0
VERTEX
  5
53F
330
53D
100
AcDbEntity
  8
LAYER3
100
AcDbVertex
100
AcDb2dVertex
 10
-32.84580416126857
 20
246.9961426205391
 30
0.0
  0
VERTEX
  5
540
330
53D
100
AcDbEntity
  8
LAYER3
100
AcDbVertex
100
AcDb2dVertex
 10
-32.89188391609801
 20
246.8692657894845
 30
0.0
  0
VERTEX
  5
541
330
53D
100
AcDbEntity
  8
LAYER3
100
AcDbVertex
100
AcDb2dVertex
 10
-32.95098847790376
 20
246.7463753170723
 30
0.0
  0
VERTEX
  5
542
330
53D
100
AcDbEntity
  8
LAYER3
100
AcDbVertex
100
AcDb2dVertex
 10
-33.02334076805727
 20
246.6285011715645
 30
0.0
  0
VERTEX
  5
543
330
53D
100
AcDbEntity
  8
LAYER3
100
AcDbVertex
100
AcDb2dVertex
 10
-33.11387783928533
 20
246.5111992306466
 30
0.0
  0
VERTEX
  5
544
330
53D
100
AcDbEntity
  8
LAYER3
100
AcDbVertex
100
AcDb2dVertex
 10
-33.22286731644294
 20
246.3985321469063
 30
0.0
  0
VERTEX
  5
545
330
53D
100
AcDbEntity
  8
LAYER3
100
AcDbVertex
100
AcDb2dVertex
 10
-33.34780818863533
 20
246.297023052668
 30
0.0
  0
VERTEX
  5
546
330
53D
100
AcDbEntity
  8
LAYER3
100
AcDbVertex
100
AcDb2dVertex
 10
-33.48307198925642
 20
246.2111923641915
 30
0.0
  0
VERTEX
  5
547
330
53D
100
AcDbEntity
  8
LAYER3
100
AcDbVertex
100
AcDb2dVertex
 10
-33.62929052754072
 20
246.1415932125802
 30
0.0
  0
VERTEX
  5
548
330
53D
100
AcDbEntity
  8
LAYER3
100
AcDbVertex
100
AcDb2dVertex
 10
-33.79309541626603
 20
246.0870048947091
 30
0.0
  0
VERTEX
  5
549
330
53D
100
AcDbEntity
  8
LAYER3
100
AcDbVertex
100
AcDb2dVertex
 10
-33.96577245636613
 20
246.0536262936348
 30
0.0
  0
VERTEX
  5
54A
330
53D
100
AcDbEntity
  8
LAYER3
100
AcDbVertex
100
AcDb2dVertex
 10
-34.13620478554398
 20
246.0426590389962
 30
0.0
  0
VERTEX
  5
54B
330
53D
100
AcDbEntity
  8
LAYER3
100
AcDbVertex
100
AcDb2dVertex
 10
-34.30663771076829
 20
246.0536262936348
 30
0.0
  0
VERTEX
  5
54C
330
53D
100
AcDbEntity
  8
LAYER3
100
AcDbVertex
100
AcDb2dVertex
 10
-34.47931475086838
 20
246.0870048947091
 30
0.0
  0
VERTEX
  5
54D
330
53D
100
AcDbEntity
  8
LAYER3
100
AcDbVertex
100
AcDb2dVertex
 10
-34.64311963959364
 20
246.1415932125802
 30
0.0
  0
VERTEX
  5
54E
330
53D
100
AcDbEntity
  8
LAYER3
100
AcDbVertex
100
AcDb2dVertex
 10
-34.78933817787794
 20
246.2111923641915
 30
0.0
  0
VERTEX
  5
54F
330
53D
100
AcDbEntity
  8
LAYER3
100
AcDbVertex
100
AcDb2dVertex
 10
-34.92460197849891
 20
246.297023052668
 30
0.0
  0
VERTEX
  5
550
330
53D
100
AcDbEntity
  8
LAYER3
100
AcDbVertex
100
AcDb2dVertex
 10
-35.0495428506913
 20
246.3985321469063
 30
0.0
  0
VERTEX
  5
551
330
53D
100
AcDbEntity
  8
LAYER3
100
AcDbVertex
100
AcDb2dVertex
 10
-35.15853232784886
 20
246.5111992306466
 30
0.0
  0
VERTEX
  5
552
330
53D
100
AcDbEntity
  8
LAYER3
100
AcDbVertex
100
AcDb2dVertex
 10
-35.24906939907686
 20
246.6285011715645
 30
0.0
  0
VERTEX
  5
553
330
53D
100
AcDbEntity
  8
LAYER3
100
AcDbVertex
100
AcDb2dVertex
 10
-35.32142168923036
 20
246.7463753170723
 30
0.0
  0
VERTEX
  5
554
330
53D
100
AcDbEntity
  8
LAYER3
100
AcDbVertex
100
AcDb2dVertex
 10
-35.38052565498961
 20
246.8692657894845
 30
0.0
  0
VERTEX
  5
555
330
53D
100
AcDbEntity
  8
LAYER3
100
AcDbVertex
100
AcDb2dVertex
 10
-35.42660540981899
 20
246.9961426205391
 30
0.0
  0
VERTEX
  5
556
330
53D
100
AcDbEntity
  8
LAYER3
100
AcDbVertex
100
AcDb2dVertex
 10
-35.45951015396719
 20
247.1255180783028
 30
0.0
  0
SEQEND
  5
557
330
53D
100
AcDbEntity
  8
LAYER3
  0
POLYLINE
  5
558
330
2
100
AcDbEntity
  8
LAYER3
100
AcDb2dPolyline
 66
     1
 10
0.0
 20
0.0
 30
0.0
 70
   128
  0
VERTEX
  5
559
330
558
100
AcDbEntity
  8
LAYER3
100
AcDbVertex
100
AcDb2dVertex
 10
-32.3622209493696
 20
247.7759239620919
 30
0.0
  0
VERTEX
  5
55A
330
558
100
AcDbEntity
  8
LAYER3
100
AcDbVertex
100
AcDb2dVertex
 10
-32.39327198906534
 20
247.7556869930977
 30
0.0
  0
VERTEX
  5
55B
330
558
100
AcDbEntity
  8
LAYER3
100
AcDbVertex
100
AcDb2dVertex
 10
-32.42369717999094
 20
247.7341721005196
 30
0.0
  0
VERTEX
  5
55C
330
558
100
AcDbEntity
  8
LAYER3
100
AcDbVertex
100
AcDb2dVertex
 10
-32.45339757843607
 20
247.7114555783028
 30
0.0
  0
VERTEX
  5
55D
330
558
100
AcDbEntity
  8
LAYER3
100
AcDbVertex
100
AcDb2dVertex
 10
-32.4822754327833
 20
247.6876518673653
 30
0.0
  0
VERTEX
  5
55E
330
558
100
AcDbEntity
  8
LAYER3
100
AcDbVertex
100
AcDb2dVertex
 10
-32.5102317993223
 20
247.6628563351388
 30
0.0
  0
VERTEX
  5
55F
330
558
100
AcDbEntity
  8
LAYER3
100
AcDbVertex
100
AcDb2dVertex
 10
-32.5371671382963
 20
247.6371643490548
 30
0.0
  0
VERTEX
  5
560
330
558
100
AcDbEntity
  8
LAYER3
100
AcDbVertex
100
AcDb2dVertex
 10
-32.56298310204142
 20
247.610671276545
 30
0.0
  0
VERTEX
  5
561
330
558
100
AcDbEntity
  8
LAYER3
100
AcDbVertex
100
AcDb2dVertex
 10
-32.58758134289377
 20
247.5834724850411
 30
0.0
  0
VERTEX
  5
562
330
558
100
AcDbEntity
  8
LAYER3
100
AcDbVertex
100
AcDb2dVertex
 10
-32.61087006970041
 20
247.5556633419747
 30
0.0
  0
VERTEX
  5
563
330
558
100
AcDbEntity
  8
LAYER3
100
AcDbVertex
100
AcDb2dVertex
 10
-32.63283438130014
 20
247.5273582882637
 30
0.0
  0
VERTEX
  5
564
330
558
100
AcDbEntity
  8
LAYER3
100
AcDbVertex
100
AcDb2dVertex
 10
-32.65347666187881
 20
247.4987099117989
 30
0.0
  0
VERTEX
  5
565
330
558
100
AcDbEntity
  8
LAYER3
100
AcDbVertex
100
AcDb2dVertex
 10
-32.672800487715
 20
247.4698135800118
 30
0.0
  0
VERTEX
  5
566
330
558
100
AcDbEntity
  8
LAYER3
100
AcDbVertex
100
AcDb2dVertex
 10
-32.69080705090164
 20
247.440821880793
 30
0.0
  0
VERTEX
  5
567
330
558
100
AcDbEntity
  8
LAYER3
100
AcDbVertex
100
AcDb2dVertex
 10
-32.70749813957809
 20
247.4118683285469
 30
0.0
  0
VERTEX
  5
568
330
558
100
AcDbEntity
  8
LAYER3
100
AcDbVertex
100
AcDb2dVertex
 10
-32.7228755418837
 20
247.3830673641915
 30
0.0
  0
VERTEX
  5
569
330
558
100
AcDbEntity
  8
LAYER3
100
AcDbVertex
100
AcDb2dVertex
 10
-32.73694164200424
 20
247.3545715756173
 30
0.0
  0
VERTEX
  5
56A
330
558
100
AcDbEntity
  8
LAYER3
100
AcDbVertex
100
AcDb2dVertex
 10
-32.74969942017199
 20
247.3264763302559
 30
0.0
  0
VERTEX
  5
56B
330
558
100
AcDbEntity
  8
LAYER3
100
AcDbVertex
100
AcDb2dVertex
 10
-32.76138967915179
 20
247.2984383053536
 30
0.0
  0
VERTEX
  5
56C
330
558
100
AcDbEntity
  8
LAYER3
100
AcDbVertex
100
AcDb2dVertex
 10
-32.77219719334246
 20
247.2701141781563
 30
0.0
  0
VERTEX
  5
56D
330
558
100
AcDbEntity
  8
LAYER3
100
AcDbVertex
100
AcDb2dVertex
 10
-32.78211957855822
 20
247.2415420956368
 30
0.0
  0
VERTEX
  5
56E
330
558
100
AcDbEntity
  8
LAYER3
100
AcDbVertex
100
AcDb2dVertex
 10
-32.79115325852038
 20
247.212779278254
 30
0.0
  0
VERTEX
  5
56F
330
558
100
AcDbEntity
  8
LAYER3
100
AcDbVertex
100
AcDb2dVertex
 10
-32.79929704113604
 20
247.1838257260079
 30
0.0
  0
VERTEX
  5
570
330
558
100
AcDbEntity
  8
LAYER3
100
AcDbVertex
100
AcDb2dVertex
 10
-32.80654615803366
 20
247.1547386593575
 30
0.0
  0
VERTEX
  5
571
330
558
100
AcDbEntity
  8
LAYER3
100
AcDbVertex
100
AcDb2dVertex
 10
-32.81289941712027
 20
247.1255180783028
 30
0.0
  0
SEQEND
  5
572
330
558
100
AcDbEntity
  8
LAYER3
  0
ARC
  5
573
330
2
100
AcDbEntity
  8
LAYER3
100
AcDbCircle
 10
-34.13620497419953
 20
250.6176662535144
 30
0.0
 40
3.350000000003067
100
AcDbArc
 50
301.9748830508261
 51
310.0251169491685
  0
POLYLINE
  5
574
330
2
100
AcDbEntity
  8
LAYER3
100
AcDb2dPolyline
 66
     1
 10
0.0
 20
0.0
 30
0.0
 70
   128
  0
VERTEX
  5
575
330
574
100
AcDbEntity
  8
LAYER3
100
AcDbVertex
100
AcDb2dVertex
 10
-35.11825627728109
 20
468.2206842846626
 30
0.0
  0
VERTEX
  5
576
330
574
100
AcDbEntity
  8
LAYER3
100
AcDbVertex
100
AcDb2dVertex
 10
-35.09595102711322
 20
468.2007930226082
 30
0.0
  0
VERTEX
  5
577
330
574
100
AcDbEntity
  8
LAYER3
100
AcDbVertex
100
AcDb2dVertex
 10
-35.07298476143481
 20
468.1815168804878
 30
0.0
  0
VERTEX
  5
578
330
574
100
AcDbEntity
  8
LAYER3
100
AcDbVertex
100
AcDb2dVertex
 10
-35.04938013001086
 20
468.1628820843452
 30
0.0
  0
VERTEX
  5
579
330
574
100
AcDbEntity
  8
LAYER3
100
AcDbVertex
100
AcDb2dVertex
 10
-35.02515859051348
 20
468.1449148602241
 30
0.0
  0
VERTEX
  5
57A
330
574
100
AcDbEntity
  8
LAYER3
100
AcDbVertex
100
AcDb2dVertex
 10
-35.00034219666125
 20
468.1276390499824
 30
0.0
  0
VERTEX
  5
57B
330
574
100
AcDbEntity
  8
LAYER3
100
AcDbVertex
100
AcDb2dVertex
 10
-34.9749530021727
 20
468.111078495478
 30
0.0
  0
VERTEX
  5
57C
330
574
100
AcDbEntity
  8
LAYER3
100
AcDbVertex
100
AcDb2dVertex
 10
-34.94901186867355
 20
468.0952641911262
 30
0.0
  0
VERTEX
  5
57D
330
574
100
AcDbEntity
  8
LAYER3
100
AcDbVertex
100
AcDb2dVertex
 10
-34.92217964573502
 20
468.080036396479
 30
0.0
  0
VERTEX
  5
57E
330
574
100
AcDbEntity
  8
LAYER3
100
AcDbVertex
100
AcDb2dVertex
 10
-34.89404327316879
 20
468.06524013946
 30
0.0
  0
VERTEX
  5
57F
330
574
100
AcDbEntity
  8
LAYER3
100
AcDbVertex
100
AcDb2dVertex
 10
-34.86467606468796
 20
468.0509827084297
 30
0.0
  0
VERTEX
  5
580
330
574
100
AcDbEntity
  8
LAYER3
100
AcDbVertex
100
AcDb2dVertex
 10
-34.83415193005197
 20
468.0373666233772
 30
0.0
  0
VERTEX
  5
581
330
574
100
AcDbEntity
  8
LAYER3
100
AcDbVertex
100
AcDb2dVertex
 10
-34.80254656715982
 20
468.0244991726631
 30
0.0
  0
VERTEX
  5
582
330
574
100
AcDbEntity
  8
LAYER3
100
AcDbVertex
100
AcDb2dVertex
 10
-34.76993448181742
 20
468.012487644648
 30
0.0
  0
VERTEX
  5
583
330
574
100
AcDbEntity
  8
LAYER3
100
AcDbVertex
100
AcDb2dVertex
 10
-34.73638958378427
 20
468.0014369435066
 30
0.0
  0
VERTEX
  5
584
330
574
100
AcDbEntity
  8
LAYER3
100
AcDbVertex
100
AcDb2dVertex
 10
-34.70198757095926
 20
467.9914543575996
 30
0.0
  0
VERTEX
  5
585
330
574
100
AcDbEntity
  8
LAYER3
100
AcDbVertex
100
AcDb2dVertex
 10
-34.66680056496256
 20
467.9826447911018
 30
0.0
  0
VERTEX
  5
586
330
574
100
AcDbEntity
  8
LAYER3
100
AcDbVertex
100
AcDb2dVertex
 10
-34.6309114162504
 20
467.9750964588874
 30
0.0
  0
VERTEX
  5
587
330
574
100
AcDbEntity
  8
LAYER3
100
AcDbVertex
100
AcDb2dVertex
 10
-34.59445065899485
 20
467.9688332028145
 30
0.0
  0
VERTEX
  5
588
330
574
100
AcDbEntity
  8
LAYER3
100
AcDbVertex
100
AcDb2dVertex
 10
-34.55755538387888
 20
467.963876480555
 30
0.0
  0
VERTEX
  5
589
330
574
100
AcDbEntity
  8
LAYER3
100
AcDbVertex
100
AcDb2dVertex
 10
-34.52036268158546
 20
467.9602453655952
 30
0.0
  0
VERTEX
  5
58A
330
574
100
AcDbEntity
  8
LAYER3
100
AcDbVertex
100
AcDb2dVertex
 10
-34.48300904675117
 20
467.9579636997933
 30
0.0
  0
VERTEX
  5
58B
330
574
100
AcDbEntity
  8
LAYER3
100
AcDbVertex
100
AcDb2dVertex
 10
-34.44563216610541
 20
467.9570481724494
 30
0.0
  0
VERTEX
  5
58C
330
574
100
AcDbEntity
  8
LAYER3
100
AcDbVertex
100
AcDb2dVertex
 10
-34.40836793823829
 20
467.9575226254219
 30
0.0
  0
VERTEX
  5
58D
330
574
100
AcDbEntity
  8
LAYER3
100
AcDbVertex
100
AcDb2dVertex
 10
-34.37135404987922
 20
467.959403748011
 30
0.0
  0
SEQEND
  5
58E
330
574
100
AcDbEntity
  8
LAYER3
  0
ARC
  5
58F
330
2
100
AcDbEntity
  8
LAYER3
100
AcDbCircle
 10
-34.13620497419791
 20
464.6176662535117
 30
0.0
 40
3.350000000000092
100
AcDbArc
 50
85.97488305082515
 51
94.02511694917485
  0
POLYLINE
  5
590
330
2
100
AcDbEntity
  8
LAYER3
100
AcDb2dPolyline
 66
     1
 10
0.0
 20
0.0
 30
0.0
 70
   128
  0
VERTEX
  5
591
330
590
100
AcDbEntity
  8
LAYER3
100
AcDbVertex
100
AcDb2dVertex
 10
-33.9010561172544
 20
467.959403748011
 30
0.0
  0
VERTEX
  5
592
330
590
100
AcDbEntity
  8
LAYER3
100
AcDbVertex
100
AcDb2dVertex
 10
-33.86404222889533
 20
467.9575226254219
 30
0.0
  0
VERTEX
  5
593
330
590
100
AcDbEntity
  8
LAYER3
100
AcDbVertex
100
AcDb2dVertex
 10
-33.82677800102821
 20
467.9570481724494
 30
0.0
  0
VERTEX
  5
594
330
590
100
AcDbEntity
  8
LAYER3
100
AcDbVertex
100
AcDb2dVertex
 10
-33.78940112038245
 20
467.9579636997933
 30
0.0
  0
VERTEX
  5
595
330
590
100
AcDbEntity
  8
LAYER3
100
AcDbVertex
100
AcDb2dVertex
 10
-33.75204748554816
 20
467.9602453655952
 30
0.0
  0
VERTEX
  5
596
330
590
100
AcDbEntity
  8
LAYER3
100
AcDbVertex
100
AcDb2dVertex
 10
-33.71485478325479
 20
467.963876480555
 30
0.0
  0
VERTEX
  5
597
330
590
100
AcDbEntity
  8
LAYER3
100
AcDbVertex
100
AcDb2dVertex
 10
-33.67795950813883
 20
467.9688332028145
 30
0.0
  0
VERTEX
  5
598
330
590
100
AcDbEntity
  8
LAYER3
100
AcDbVertex
100
AcDb2dVertex
 10
-33.64149875088327
 20
467.9750964588874
 30
0.0
  0
VERTEX
  5
599
330
590
100
AcDbEntity
  8
LAYER3
100
AcDbVertex
100
AcDb2dVertex
 10
-33.60560900612467
 20
467.9826447911018
 30
0.0
  0
VERTEX
  5
59A
330
590
100
AcDbEntity
  8
LAYER3
100
AcDbVertex
100
AcDb2dVertex
 10
-33.57042259617441
 20
467.9914543575996
 30
0.0
  0
VERTEX
  5
59B
330
590
100
AcDbEntity
  8
LAYER3
100
AcDbVertex
100
AcDb2dVertex
 10
-33.53601998730295
 20
468.0014369435066
 30
0.0
  0
VERTEX
  5
59C
330
590
100
AcDbEntity
  8
LAYER3
100
AcDbVertex
100
AcDb2dVertex
 10
-33.50247568531626
 20
468.012487644648
 30
0.0
  0
VERTEX
  5
59D
330
590
100
AcDbEntity
  8
LAYER3
100
AcDbVertex
100
AcDb2dVertex
 10
-33.4698630039274
 20
468.0244991726631
 30
0.0
  0
VERTEX
  5
59E
330
590
100
AcDbEntity
  8
LAYER3
100
AcDbVertex
100
AcDb2dVertex
 10
-33.43825764103525
 20
468.0373666233772
 30
0.0
  0
VERTEX
  5
59F
330
590
100
AcDbEntity
  8
LAYER3
100
AcDbVertex
100
AcDb2dVertex
 10
-33.40773410244583
 20
468.0509827084297
 30
0.0
  0
VERTEX
  5
5A0
330
590
100
AcDbEntity
  8
LAYER3
100
AcDbVertex
100
AcDb2dVertex
 10
-33.37836629791855
 20
468.06524013946
 30
0.0
  0
VERTEX
  5
5A1
330
590
100
AcDbEntity
  8
LAYER3
100
AcDbVertex
100
AcDb2dVertex
 10
-33.35023052139877
 20
468.080036396479
 30
0.0
  0
VERTEX
  5
5A2
330
590
100
AcDbEntity
  8
LAYER3
100
AcDbVertex
100
AcDb2dVertex
 10
-33.32339829846024
 20
468.0952641911262
 30
0.0
  0
VERTEX
  5
5A3
330
590
100
AcDbEntity
  8
LAYER3
100
AcDbVertex
100
AcDb2dVertex
 10
-33.29745716496109
 20
468.111078495478
 30
0.0
  0
VERTEX
  5
5A4
330
590
100
AcDbEntity
  8
LAYER3
100
AcDbVertex
100
AcDb2dVertex
 10
-33.27206737442614
 20
468.1276390499824
 30
0.0
  0
VERTEX
  5
5A5
330
590
100
AcDbEntity
  8
LAYER3
100
AcDbVertex
100
AcDb2dVertex
 10
-33.24725098057391
 20
468.1449148602241
 30
0.0
  0
VERTEX
  5
5A6
330
590
100
AcDbEntity
  8
LAYER3
100
AcDbVertex
100
AcDb2dVertex
 10
-33.22302944107653
 20
468.1628820843452
 30
0.0
  0
VERTEX
  5
5A7
330
590
100
AcDbEntity
  8
LAYER3
100
AcDbVertex
100
AcDb2dVertex
 10
-33.19942480965258
 20
468.1815168804878
 30
0.0
  0
VERTEX
  5
5A8
330
590
100
AcDbEntity
  8
LAYER3
100
AcDbVertex
100
AcDb2dVertex
 10
-33.17645914002063
 20
468.2007930226082
 30
0.0
  0
VERTEX
  5
5A9
330
590
100
AcDbEntity
  8
LAYER3
100
AcDbVertex
100
AcDb2dVertex
 10
-33.15415388985281
 20
468.2206842846626
 30
0.0
  0
SEQEND
  5
5AA
330
590
100
AcDbEntity
  8
LAYER3
  0
POLYLINE
  5
5AB
330
2
100
AcDbEntity
  8
LAYER3
100
AcDb2dPolyline
 66
     1
 10
0.0
 20
0.0
 30
0.0
 70
   128
  0
VERTEX
  5
5AC
330
5AB
100
AcDbEntity
  8
LAYER3
100
AcDbVertex
100
AcDb2dVertex
 10
-33.15415388985281
 20
468.2206842846626
 30
0.0
  0
VERTEX
  5
5AD
330
5AB
100
AcDbEntity
  8
LAYER3
100
AcDbVertex
100
AcDb2dVertex
 10
-33.05148786945944
 20
468.3060119099373
 30
0.0
  0
VERTEX
  5
5AE
330
5AB
100
AcDbEntity
  8
LAYER3
100
AcDbVertex
100
AcDb2dVertex
 10
-32.93962783260952
 20
468.3815786785835
 30
0.0
  0
VERTEX
  5
5AF
330
5AB
100
AcDbEntity
  8
LAYER3
100
AcDbVertex
100
AcDb2dVertex
 10
-32.81958169384612
 20
468.4462544865364
 30
0.0
  0
VERTEX
  5
5B0
330
5AB
100
AcDbEntity
  8
LAYER3
100
AcDbVertex
100
AcDb2dVertex
 10
-32.69175834103243
 20
468.4990951962227
 30
0.0
  0
VERTEX
  5
5B1
330
5AB
100
AcDbEntity
  8
LAYER3
100
AcDbVertex
100
AcDb2dVertex
 10
-32.5495619241776
 20
468.5407803005928
 30
0.0
  0
VERTEX
  5
5B2
330
5AB
100
AcDbEntity
  8
LAYER3
100
AcDbVertex
100
AcDb2dVertex
 10
-32.39516443653722
 20
468.5678670353645
 30
0.0
  0
VERTEX
  5
5B3
330
5AB
100
AcDbEntity
  8
LAYER3
100
AcDbVertex
100
AcDb2dVertex
 10
-32.23442203446052
 20
468.5765454716438
 30
0.0
  0
VERTEX
  5
5B4
330
5AB
100
AcDbEntity
  8
LAYER3
100
AcDbVertex
100
AcDb2dVertex
 10
-32.0745438997331
 20
468.5664746708625
 30
0.0
  0
VERTEX
  5
5B5
330
5AB
100
AcDbEntity
  8
LAYER3
100
AcDbVertex
100
AcDb2dVertex
 10
-31.91534168167738
 20
468.5368368572945
 30
0.0
  0
VERTEX
  5
5B6
330
5AB
100
AcDbEntity
  8
LAYER3
100
AcDbVertex
100
AcDb2dVertex
 10
-31.75072855396894
 20
468.4847257084602
 30
0.0
  0
VERTEX
  5
5B7
330
5AB
100
AcDbEntity
  8
LAYER3
100
AcDbVertex
100
AcDb2dVertex
 10
-31.59141606732038
 20
468.4102246708626
 30
0.0
  0
VERTEX
  5
5B8
330
5AB
100
AcDbEntity
  8
LAYER3
100
AcDbVertex
100
AcDb2dVertex
 10
-31.44708759232197
 20
468.3189198918098
 30
0.0
  0
VERTEX
  5
5B9
330
5AB
100
AcDbEntity
  8
LAYER3
100
AcDbVertex
100
AcDb2dVertex
 10
-31.31565040989546
 20
468.2098696179146
 30
0.0
  0
VERTEX
  5
5BA
330
5AB
100
AcDbEntity
  8
LAYER3
100
AcDbVertex
100
AcDb2dVertex
 10
-31.19556552811292
 20
468.0813763088935
 30
0.0
  0
VERTEX
  5
5BB
330
5AB
100
AcDbEntity
  8
LAYER3
100
AcDbVertex
100
AcDb2dVertex
 10
-31.09513647003797
 20
467.9409239239448
 30
0.0
  0
VERTEX
  5
5BC
330
5AB
100
AcDbEntity
  8
LAYER3
100
AcDbVertex
100
AcDb2dVertex
 10
-31.01775235577253
 20
467.7986714787238
 30
0.0
  0
VERTEX
  5
5BD
330
5AB
100
AcDbEntity
  8
LAYER3
100
AcDbVertex
100
AcDb2dVertex
 10
-30.95876938744209
 20
467.6497313923591
 30
0.0
  0
VERTEX
  5
5BE
330
5AB
100
AcDbEntity
  8
LAYER3
100
AcDbVertex
100
AcDb2dVertex
 10
-30.91735250397346
 20
467.4941728062385
 30
0.0
  0
VERTEX
  5
5BF
330
5AB
100
AcDbEntity
  8
LAYER3
100
AcDbVertex
100
AcDb2dVertex
 10
-30.89540190144203
 20
467.3389623112434
 30
0.0
  0
VERTEX
  5
5C0
330
5AB
100
AcDbEntity
  8
LAYER3
100
AcDbVertex
100
AcDb2dVertex
 10
-30.89110619469301
 20
467.1908447689766
 30
0.0
  0
VERTEX
  5
5C1
330
5AB
100
AcDbEntity
  8
LAYER3
100
AcDbVertex
100
AcDb2dVertex
 10
-30.90186125679622
 20
467.0529482311958
 30
0.0
  0
VERTEX
  5
5C2
330
5AB
100
AcDbEntity
  8
LAYER3
100
AcDbVertex
100
AcDb2dVertex
 10
-30.92627412720333
 20
466.9187924809212
 30
0.0
  0
VERTEX
  5
5C3
330
5AB
100
AcDbEntity
  8
LAYER3
100
AcDbVertex
100
AcDb2dVertex
 10
-30.96357590599661
 20
466.7890546269172
 30
0.0
  0
VERTEX
  5
5C4
330
5AB
100
AcDbEntity
  8
LAYER3
100
AcDbVertex
100
AcDb2dVertex
 10
-31.01300067349081
 20
466.6650459713691
 30
0.0
  0
SEQEND
  5
5C5
330
5AB
100
AcDbEntity
  8
LAYER3
  0
POLYLINE
  5
5C6
330
2
100
AcDbEntity
  8
LAYER3
100
AcDb2dPolyline
 66
     1
 10
0.0
 20
0.0
 30
0.0
 70
   128
  0
VERTEX
  5
5C7
330
5C6
100
AcDbEntity
  8
LAYER3
100
AcDbVertex
100
AcDb2dVertex
 10
-31.01300067349081
 20
466.6650459713691
 30
0.0
  0
VERTEX
  5
5C8
330
5C6
100
AcDbEntity
  8
LAYER3
100
AcDbVertex
100
AcDb2dVertex
 10
-31.02502650662064
 20
466.6376850552315
 30
0.0
  0
VERTEX
  5
5C9
330
5C6
100
AcDbEntity
  8
LAYER3
100
AcDbVertex
100
AcDb2dVertex
 10
-31.0362619821608
 20
466.609887833094
 30
0.0
  0
VERTEX
  5
5CA
330
5C6
100
AcDbEntity
  8
LAYER3
100
AcDbVertex
100
AcDb2dVertex
 10
-31.0466904108107
 20
466.5816805310005
 30
0.0
  0
VERTEX
  5
5CB
330
5C6
100
AcDbEntity
  8
LAYER3
100
AcDbVertex
100
AcDb2dVertex
 10
-31.05629450722336
 20
466.5530917591804
 30
0.0
  0
VERTEX
  5
5CC
330
5C6
100
AcDbEntity
  8
LAYER3
100
AcDbVertex
100
AcDb2dVertex
 10
-31.06505639000534
 20
466.5241501278633
 30
0.0
  0
VERTEX
  5
5CD
330
5C6
100
AcDbEntity
  8
LAYER3
100
AcDbVertex
100
AcDb2dVertex
 10
-31.07295936985611
 20
466.4948866314643
 30
0.0
  0
VERTEX
  5
5CE
330
5C6
100
AcDbEntity
  8
LAYER3
100
AcDbVertex
100
AcDb2dVertex
 10
-31.07998437328934
 20
466.4653274960273
 30
0.0
  0
VERTEX
  5
5CF
330
5C6
100
AcDbEntity
  8
LAYER3
100
AcDbVertex
100
AcDb2dVertex
 10
-31.08617491169571
 20
466.4351031727546
 30
0.0
  0
VERTEX
  5
5D0
330
5C6
100
AcDbEntity
  8
LAYER3
100
AcDbVertex
100
AcDb2dVertex
 10
-31.0915518467009
 20
466.4037725872749
 30
0.0
  0
VERTEX
  5
5D1
330
5C6
100
AcDbEntity
  8
LAYER3
100
AcDbVertex
100
AcDb2dVertex
 10
-31.09603769226669
 20
466.3714358753914
 30
0.0
  0
VERTEX
  5
5D2
330
5C6
100
AcDbEntity
  8
LAYER3
100
AcDbVertex
100
AcDb2dVertex
 10
-31.09955496235483
 20
466.3381979412788
 30
0.0
  0
VERTEX
  5
5D3
330
5C6
100
AcDbEntity
  8
LAYER3
100
AcDbVertex
100
AcDb2dVertex
 10
-31.10202497883432
 20
466.304163689112
 30
0.0
  0
VERTEX
  5
5D4
330
5C6
100
AcDbEntity
  8
LAYER3
100
AcDbVertex
100
AcDb2dVertex
 10
-31.1033714477598
 20
466.2694356388802
 30
0.0
  0
VERTEX
  5
5D5
330
5C6
100
AcDbEntity
  8
LAYER3
100
AcDbVertex
100
AcDb2dVertex
 10
-31.10351509495371
 20
466.2341186947578
 30
0.0
  0
VERTEX
  5
5D6
330
5C6
100
AcDbEntity
  8
LAYER3
100
AcDbVertex
100
AcDb2dVertex
 10
-31.10237903042429
 20
466.1983153767342
 30
0.0
  0
VERTEX
  5
5D7
330
5C6
100
AcDbEntity
  8
LAYER3
100
AcDbVertex
100
AcDb2dVertex
 10
-31.09988338394754
 20
466.1621282047981
 30
0.0
  0
VERTEX
  5
5D8
330
5C6
100
AcDbEntity
  8
LAYER3
100
AcDbVertex
100
AcDb2dVertex
 10
-31.09597212715738
 20
466.1256620831245
 30
0.0
  0
VERTEX
  5
5D9
330
5C6
100
AcDbEntity
  8
LAYER3
100
AcDbVertex
100
AcDb2dVertex
 10
-31.09066194935434
 20
466.0890505261177
 30
0.0
  0
VERTEX
  5
5DA
330
5C6
100
AcDbEntity
  8
LAYER3
100
AcDbVertex
100
AcDb2dVertex
 10
-31.08397490425699
 20
466.0524294323677
 30
0.0
  0
VERTEX
  5
5DB
330
5C6
100
AcDbEntity
  8
LAYER3
100
AcDbVertex
100
AcDb2dVertex
 10
-31.07593364163029
 20
466.0159347004646
 30
0.0
  0
VERTEX
  5
5DC
330
5C6
100
AcDbEntity
  8
LAYER3
100
AcDbVertex
100
AcDb2dVertex
 10
-31.06656200333225
 20
465.9797046131843
 30
0.0
  0
VERTEX
  5
5DD
330
5C6
100
AcDbEntity
  8
LAYER3
100
AcDbVertex
100
AcDb2dVertex
 10
-31.0558820430814
 20
465.943875069117
 30
0.0
  0
VERTEX
  5
5DE
330
5C6
100
AcDbEntity
  8
LAYER3
100
AcDbVertex
100
AcDb2dVertex
 10
-31.04391700668919
 20
465.9085795826667
 30
0.0
  0
VERTEX
  5
5DF
330
5C6
100
AcDbEntity
  8
LAYER3
100
AcDbVertex
100
AcDb2dVertex
 10
-31.03068954392063
 20
465.8739588207954
 30
0.0
  0
SEQEND
  5
5E0
330
5C6
100
AcDbEntity
  8
LAYER3
  0
ARC
  5
5E1
330
2
100
AcDbEntity
  8
LAYER3
100
AcDbCircle
 10
-34.13620497419754
 20
464.6176662535118
 30
0.0
 40
3.349999999999622
100
AcDbArc
 50
13.97488305082527
 51
22.02511694917583
  0
POLYLINE
  5
5E2
330
2
100
AcDbEntity
  8
LAYER3
100
AcDb2dPolyline
 66
     1
 10
0.0
 20
0.0
 30
0.0
 70
   128
  0
VERTEX
  5
5E3
330
5E2
100
AcDbEntity
  8
LAYER3
100
AcDbVertex
100
AcDb2dVertex
 10
-30.88535911484348
 20
465.4266784138435
 30
0.0
  0
VERTEX
  5
5E4
330
5E2
100
AcDbEntity
  8
LAYER3
100
AcDbVertex
100
AcDb2dVertex
 10
-30.87571091099369
 20
465.3908965534919
 30
0.0
  0
VERTEX
  5
5E5
330
5E2
100
AcDbEntity
  8
LAYER3
100
AcDbVertex
100
AcDb2dVertex
 10
-30.86464530869114
 20
465.3553101963752
 30
0.0
  0
VERTEX
  5
5E6
330
5E2
100
AcDbEntity
  8
LAYER3
100
AcDbVertex
100
AcDb2dVertex
 10
-30.85222489281284
 20
465.3200457043404
 30
0.0
  0
VERTEX
  5
5E7
330
5E2
100
AcDbEntity
  8
LAYER3
100
AcDbVertex
100
AcDb2dVertex
 10
-30.83851105614292
 20
465.2852246708626
 30
0.0
  0
VERTEX
  5
5E8
330
5E2
100
AcDbEntity
  8
LAYER3
100
AcDbVertex
100
AcDb2dVertex
 10
-30.823565787512
 20
465.2509734577888
 30
0.0
  0
VERTEX
  5
5E9
330
5E2
100
AcDbEntity
  8
LAYER3
100
AcDbVertex
100
AcDb2dVertex
 10
-30.80745047970407
 20
465.2174160427803
 30
0.0
  0
VERTEX
  5
5EA
330
5E2
100
AcDbEntity
  8
LAYER3
100
AcDbVertex
100
AcDb2dVertex
 10
-30.79022712154978
 20
465.184676403498
 30
0.0
  0
VERTEX
  5
5EB
330
5E2
100
AcDbEntity
  8
LAYER3
100
AcDbVertex
100
AcDb2dVertex
 10
-30.77195710583322
 20
465.1528761334175
 30
0.0
  0
VERTEX
  5
5EC
330
5E2
100
AcDbEntity
  8
LAYER3
100
AcDbVertex
100
AcDb2dVertex
 10
-30.75270599766367
 20
465.1221320576423
 30
0.0
  0
VERTEX
  5
5ED
330
5E2
100
AcDbEntity
  8
LAYER3
100
AcDbVertex
100
AcDb2dVertex
 10
-30.73258048935526
 20
465.0924990124458
 30
0.0
  0
VERTEX
  5
5EE
330
5E2
100
AcDbEntity
  8
LAYER3
100
AcDbVertex
100
AcDb2dVertex
 10
-30.71170515461557
 20
465.0640103764289
 30
0.0
  0
VERTEX
  5
5EF
330
5E2
100
AcDbEntity
  8
LAYER3
100
AcDbVertex
100
AcDb2dVertex
 10
-30.6902033750593
 20
465.0367066807502
 30
0.0
  0
VERTEX
  5
5F0
330
5E2
100
AcDbEntity
  8
LAYER3
100
AcDbVertex
100
AcDb2dVertex
 10
-30.66819972439402
 20
465.0106236881965
 30
0.0
  0
VERTEX
  5
5F1
330
5E2
100
AcDbEntity
  8
LAYER3
100
AcDbVertex
100
AcDb2dVertex
 10
-30.64581758423447
 20
464.9858019299263
 30
0.0
  0
VERTEX
  5
5F2
330
5E2
100
AcDbEntity
  8
LAYER3
100
AcDbVertex
100
AcDb2dVertex
 10
-30.62318152828812
 20
464.9622771687263
 30
0.0
  0
VERTEX
  5
5F3
330
5E2
100
AcDbEntity
  8
LAYER3
100
AcDbVertex
100
AcDb2dVertex
 10
-30.6004161302626
 20
464.9400899357551
 30
0.0
  0
VERTEX
  5
5F4
330
5E2
100
AcDbEntity
  8
LAYER3
100
AcDbVertex
100
AcDb2dVertex
 10
-30.57764238758682
 20
464.9192783779853
 30
0.0
  0
VERTEX
  5
5F5
330
5E2
100
AcDbEntity
  8
LAYER3
100
AcDbVertex
100
AcDb2dVertex
 10
-30.55458492680191
 20
464.8994944042915
 30
0.0
  0
VERTEX
  5
5F6
330
5E2
100
AcDbEntity
  8
LAYER3
100
AcDbVertex
100
AcDb2dVertex
 10
-30.53098983212112
 20
464.8804638333076
 30
0.0
  0
VERTEX
  5
5F7
330
5E2
100
AcDbEntity
  8
LAYER3
100
AcDbVertex
100
AcDb2dVertex
 10
-30.50689048214554
 20
464.8622009701484
 30
0.0
  0
VERTEX
  5
5F8
330
5E2
100
AcDbEntity
  8
LAYER3
100
AcDbVertex
100
AcDb2dVertex
 10
-30.48231787129044
 20
464.844717735743
 30
0.0
  0
VERTEX
  5
5F9
330
5E2
100
AcDbEntity
  8
LAYER3
100
AcDbVertex
100
AcDb2dVertex
 10
-30.45730060978531
 20
464.82802605102
 30
0.0
  0
VERTEX
  5
5FA
330
5E2
100
AcDbEntity
  8
LAYER3
100
AcDbVertex
100
AcDb2dVertex
 10
-30.43187088413834
 20
464.8121402210945
 30
0.0
  0
VERTEX
  5
5FB
330
5E2
100
AcDbEntity
  8
LAYER3
100
AcDbVertex
100
AcDb2dVertex
 10
-30.4060596887648
 20
464.7970745510811
 30
0.0
  0
SEQEND
  5
5FC
330
5E2
100
AcDbEntity
  8
LAYER3
  0
POLYLINE
  5
5FD
330
2
100
AcDbEntity
  8
LAYER3
100
AcDb2dPolyline
 66
     1
 10
0.0
 20
0.0
 30
0.0
 70
   128
  0
VERTEX
  5
5FE
330
5FD
100
AcDbEntity
  8
LAYER3
100
AcDbVertex
100
AcDb2dVertex
 10
-30.4060596887648
 20
464.7970745510811
 30
0.0
  0
VERTEX
  5
5FF
330
5FD
100
AcDbEntity
  8
LAYER3
100
AcDbVertex
100
AcDb2dVertex
 10
-30.29318398876791
 20
464.7258017010444
 30
0.0
  0
VERTEX
  5
600
330
5FD
100
AcDbEntity
  8
LAYER3
100
AcDbVertex
100
AcDb2dVertex
 10
-30.18674916668544
 20
464.6427676625007
 30
0.0
  0
VERTEX
  5
601
330
5FD
100
AcDbEntity
  8
LAYER3
100
AcDbVertex
100
AcDb2dVertex
 10
-30.08814281864772
 20
464.5485827870125
 30
0.0
  0
VERTEX
  5
602
330
5FD
100
AcDbEntity
  8
LAYER3
100
AcDbVertex
100
AcDb2dVertex
 10
-29.9983889524521
 20
464.4433424420112
 30
0.0
  0
VERTEX
  5
603
330
5FD
100
AcDbEntity
  8
LAYER3
100
AcDbVertex
100
AcDb2dVertex
 10
-29.91480297489784
 20
464.3209884114021
 30
0.0
  0
VERTEX
  5
604
330
5FD
100
AcDbEntity
  8
LAYER3
100
AcDbVertex
100
AcDb2dVertex
 10
-29.84132952137611
 20
464.1825172848457
 30
0.0
  0
VERTEX
  5
605
330
5FD
100
AcDbEntity
  8
LAYER3
100
AcDbVertex
100
AcDb2dVertex
 10
-29.7834033433976
 20
464.0323255009406
 30
0.0
  0
VERTEX
  5
606
330
5FD
100
AcDbEntity
  8
LAYER3
100
AcDbVertex
100
AcDb2dVertex
 10
-29.74357551975874
 20
463.8771603054756
 30
0.0
  0
VERTEX
  5
607
330
5FD
100
AcDbEntity
  8
LAYER3
100
AcDbVertex
100
AcDb2dVertex
 10
-29.7225672666612
 20
463.7165901608223
 30
0.0
  0
VERTEX
  5
608
330
5FD
100
AcDbEntity
  8
LAYER3
100
AcDbVertex
100
AcDb2dVertex
 10
-29.72125954075483
 20
463.5439298100227
 30
0.0
  0
VERTEX
  5
609
330
5FD
100
AcDbEntity
  8
LAYER3
100
AcDbVertex
100
AcDb2dVertex
 10
-29.7428841058794
 20
463.3693931050056
 30
0.0
  0
VERTEX
  5
60A
330
5FD
100
AcDbEntity
  8
LAYER3
100
AcDbVertex
100
AcDb2dVertex
 10
-29.78512114926014
 20
463.2039139218086
 30
0.0
  0
VERTEX
  5
60B
330
5FD
100
AcDbEntity
  8
LAYER3
100
AcDbVertex
100
AcDb2dVertex
 10
-29.84821743412647
 20
463.0452105946297
 30
0.0
  0
VERTEX
  5
60C
330
5FD
100
AcDbEntity
  8
LAYER3
100
AcDbVertex
100
AcDb2dVertex
 10
-29.93331379337934
 20
462.8912970967048
 30
0.0
  0
VERTEX
  5
60D
330
5FD
100
AcDbEntity
  8
LAYER3
100
AcDbVertex
100
AcDb2dVertex
 10
-30.03585762425093
 20
462.7523801274056
 30
0.0
  0
VERTEX
  5
60E
330
5FD
100
AcDbEntity
  8
LAYER3
100
AcDbVertex
100
AcDb2dVertex
 10
-30.14723486347822
 20
462.6348254627937
 30
0.0
  0
VERTEX
  5
60F
330
5FD
100
AcDbEntity
  8
LAYER3
100
AcDbVertex
100
AcDb2dVertex
 10
-30.27065939350746
 20
462.5327036328071
 30
0.0
  0
VERTEX
  5
610
330
5FD
100
AcDbEntity
  8
LAYER3
100
AcDbVertex
100
AcDb2dVertex
 10
-30.40580338879249
 20
462.4452445454353
 30
0.0
  0
VERTEX
  5
611
330
5FD
100
AcDbEntity
  8
LAYER3
100
AcDbVertex
100
AcDb2dVertex
 10
-30.546634859282
 20
462.3764059490913
 30
0.0
  0
VERTEX
  5
612
330
5FD
100
AcDbEntity
  8
LAYER3
100
AcDbVertex
100
AcDb2dVertex
 10
-30.68617708130495
 20
462.3265502400154
 30
0.0
  0
VERTEX
  5
613
330
5FD
100
AcDbEntity
  8
LAYER3
100
AcDbVertex
100
AcDb2dVertex
 10
-30.82064754410396
 20
462.294165844416
 30
0.0
  0
VERTEX
  5
614
330
5FD
100
AcDbEntity
  8
LAYER3
100
AcDbVertex
100
AcDb2dVertex
 10
-30.95578200264583
 20
462.2759268231147
 30
0.0
  0
VERTEX
  5
615
330
5FD
100
AcDbEntity
  8
LAYER3
100
AcDbVertex
100
AcDb2dVertex
 10
-31.09069592400198
 20
462.2713134236091
 30
0.0
  0
VERTEX
  5
616
330
5FD
100
AcDbEntity
  8
LAYER3
100
AcDbVertex
100
AcDb2dVertex
 10
-31.2239075367034
 20
462.2799990124458
 30
0.0
  0
SEQEND
  5
617
330
5FD
100
AcDbEntity
  8
LAYER3
  0
POLYLINE
  5
618
330
2
100
AcDbEntity
  8
LAYER3
100
AcDb2dPolyline
 66
     1
 10
0.0
 20
0.0
 30
0.0
 70
   128
  0
VERTEX
  5
619
330
618
100
AcDbEntity
  8
LAYER3
100
AcDbVertex
100
AcDb2dVertex
 10
-31.2239075367034
 20
462.2799990124458
 30
0.0
  0
VERTEX
  5
61A
330
618
100
AcDbEntity
  8
LAYER3
100
AcDbVertex
100
AcDb2dVertex
 10
-31.25364489002823
 20
462.2829792446846
 30
0.0
  0
VERTEX
  5
61B
330
618
100
AcDbEntity
  8
LAYER3
100
AcDbVertex
100
AcDb2dVertex
 10
-31.28355509682297
 20
462.2850749439948
 30
0.0
  0
VERTEX
  5
61C
330
618
100
AcDbEntity
  8
LAYER3
100
AcDbVertex
100
AcDb2dVertex
 10
-31.31360477848648
 20
462.2862765736336
 30
0.0
  0
VERTEX
  5
61D
330
618
100
AcDbEntity
  8
LAYER3
100
AcDbVertex
100
AcDb2dVertex
 10
-31.34376174851059
 20
462.2865769810432
 30
0.0
  0
VERTEX
  5
61E
330
618
100
AcDbEntity
  8
LAYER3
100
AcDbVertex
100
AcDb2dVertex
 10
-31.37399322434067
 20
462.2859666294807
 30
0.0
  0
VERTEX
  5
61F
330
618
100
AcDbEntity
  8
LAYER3
100
AcDbVertex
100
AcDb2dVertex
 10
-31.40426701946854
 20
462.2844383663887
 30
0.0
  0
VERTEX
  5
620
330
618
100
AcDbEntity
  8
LAYER3
100
AcDbVertex
100
AcDb2dVertex
 10
-31.43454975529312
 20
462.2819874233955
 30
0.0
  0
VERTEX
  5
621
330
618
100
AcDbEntity
  8
LAYER3
100
AcDbVertex
100
AcDb2dVertex
 10
-31.46520800037979
 20
462.2785351223702
 30
0.0
  0
VERTEX
  5
622
330
618
100
AcDbEntity
  8
LAYER3
100
AcDbVertex
100
AcDb2dVertex
 10
-31.49666733189224
 20
462.2739670223945
 30
0.0
  0
VERTEX
  5
623
330
618
100
AcDbEntity
  8
LAYER3
100
AcDbVertex
100
AcDb2dVertex
 10
-31.52880734844803
 20
462.2682402081245
 30
0.0
  0
VERTEX
  5
624
330
618
100
AcDbEntity
  8
LAYER3
100
AcDbVertex
100
AcDb2dVertex
 10
-31.56150466843241
 20
462.2613141484016
 30
0.0
  0
VERTEX
  5
625
330
618
100
AcDbEntity
  8
LAYER3
100
AcDbVertex
100
AcDb2dVertex
 10
-31.5946371023237
 20
462.2531459278816
 30
0.0
  0
VERTEX
  5
626
330
618
100
AcDbEntity
  8
LAYER3
100
AcDbVertex
100
AcDb2dVertex
 10
-31.62808126850717
 20
462.243695015406
 30
0.0
  0
VERTEX
  5
627
330
618
100
AcDbEntity
  8
LAYER3
100
AcDbVertex
100
AcDb2dVertex
 10
-31.66171497746103
 20
462.2329184956306
 30
0.0
  0
VERTEX
  5
628
330
618
100
AcDbEntity
  8
LAYER3
100
AcDbVertex
100
AcDb2dVertex
 10
-31.69541484757059
 20
462.2207734532111
 30
0.0
  0
VERTEX
  5
629
330
618
100
AcDbEntity
  8
LAYER3
100
AcDbVertex
100
AcDb2dVertex
 10
-31.72905928536051
 20
462.2072169728035
 30
0.0
  0
VERTEX
  5
62A
330
618
100
AcDbEntity
  8
LAYER3
100
AcDbVertex
100
AcDb2dVertex
 10
-31.76253146572702
 20
462.1922299809211
 30
0.0
  0
VERTEX
  5
62B
330
618
100
AcDbEntity
  8
LAYER3
100
AcDbVertex
100
AcDb2dVertex
 10
-31.79571039124124
 20
462.1758649296516
 30
0.0
  0
VERTEX
  5
62C
330
618
100
AcDbEntity
  8
LAYER3
100
AcDbVertex
100
AcDb2dVertex
 10
-31.82847268028849
 20
462.158188576197
 30
0.0
  0
VERTEX
  5
62D
330
618
100
AcDbEntity
  8
LAYER3
100
AcDbVertex
100
AcDb2dVertex
 10
-31.8606961433469
 20
462.1392652935737
 30
0.0
  0
VERTEX
  5
62E
330
618
100
AcDbEntity
  8
LAYER3
100
AcDbVertex
100
AcDb2dVertex
 10
-31.89225739880192
 20
462.1191546864265
 30
0.0
  0
VERTEX
  5
62F
330
618
100
AcDbEntity
  8
LAYER3
100
AcDbVertex
100
AcDb2dVertex
 10
-31.92303366108524
 20
462.0979258961433
 30
0.0
  0
VERTEX
  5
630
330
618
100
AcDbEntity
  8
LAYER3
100
AcDbVertex
100
AcDb2dVertex
 10
-31.95290274067509
 20
462.0756409115547
 30
0.0
  0
VERTEX
  5
631
330
618
100
AcDbEntity
  8
LAYER3
100
AcDbVertex
100
AcDb2dVertex
 10
-31.98174185200321
 20
462.0523617214912
 30
0.0
  0
SEQEND
  5
632
330
618
100
AcDbEntity
  8
LAYER3
  0
POLYLINE
  5
633
330
2
100
AcDbEntity
  8
LAYER3
100
AcDb2dPolyline
 66
     1
 10
0.0
 20
0.0
 30
0.0
 70
   128
  0
VERTEX
  5
634
330
633
100
AcDbEntity
  8
LAYER3
100
AcDbVertex
100
AcDb2dVertex
 10
-37.25940919561987
 20
466.6650459713691
 30
0.0
  0
VERTEX
  5
635
330
633
100
AcDbEntity
  8
LAYER3
100
AcDbVertex
100
AcDb2dVertex
 10
-37.30883366509085
 20
466.7890546269172
 30
0.0
  0
VERTEX
  5
636
330
633
100
AcDbEntity
  8
LAYER3
100
AcDbVertex
100
AcDb2dVertex
 10
-37.34613544388424
 20
466.9187924809212
 30
0.0
  0
VERTEX
  5
637
330
633
100
AcDbEntity
  8
LAYER3
100
AcDbVertex
100
AcDb2dVertex
 10
-37.37054891033782
 20
467.0529482311958
 30
0.0
  0
VERTEX
  5
638
330
633
100
AcDbEntity
  8
LAYER3
100
AcDbVertex
100
AcDb2dVertex
 10
-37.38130367441789
 20
467.1908447689766
 30
0.0
  0
VERTEX
  5
639
330
633
100
AcDbEntity
  8
LAYER3
100
AcDbVertex
100
AcDb2dVertex
 10
-37.37700826569219
 20
467.3389623112434
 30
0.0
  0
VERTEX
  5
63A
330
633
100
AcDbEntity
  8
LAYER3
100
AcDbVertex
100
AcDb2dVertex
 10
-37.35505766316075
 20
467.4941728062385
 30
0.0
  0
VERTEX
  5
63B
330
633
100
AcDbEntity
  8
LAYER3
100
AcDbVertex
100
AcDb2dVertex
 10
-37.31364077969215
 20
467.6497313923591
 30
0.0
  0
VERTEX
  5
63C
330
633
100
AcDbEntity
  8
LAYER3
100
AcDbVertex
100
AcDb2dVertex
 10
-37.2546575133386
 20
467.7986714787238
 30
0.0
  0
VERTEX
  5
63D
330
633
100
AcDbEntity
  8
LAYER3
100
AcDbVertex
100
AcDb2dVertex
 10
-37.17727339907316
 20
467.9409239239448
 30
0.0
  0
VERTEX
  5
63E
330
633
100
AcDbEntity
  8
LAYER3
100
AcDbVertex
100
AcDb2dVertex
 10
-37.07684463902143
 20
468.0813763088935
 30
0.0
  0
VERTEX
  5
63F
330
633
100
AcDbEntity
  8
LAYER3
100
AcDbVertex
100
AcDb2dVertex
 10
-36.95675945921568
 20
468.2098696179146
 30
0.0
  0
VERTEX
  5
640
330
633
100
AcDbEntity
  8
LAYER3
100
AcDbVertex
100
AcDb2dVertex
 10
-36.82532257481248
 20
468.3189198918098
 30
0.0
  0
VERTEX
  5
641
330
633
100
AcDbEntity
  8
LAYER3
100
AcDbVertex
100
AcDb2dVertex
 10
-36.68099380179075
 20
468.4102246708626
 30
0.0
  0
VERTEX
  5
642
330
633
100
AcDbEntity
  8
LAYER3
100
AcDbVertex
100
AcDb2dVertex
 10
-36.52168131514219
 20
468.4847257084602
 30
0.0
  0
VERTEX
  5
643
330
633
100
AcDbEntity
  8
LAYER3
100
AcDbVertex
100
AcDb2dVertex
 10
-36.35706848545698
 20
468.5368368572945
 30
0.0
  0
VERTEX
  5
644
330
633
100
AcDbEntity
  8
LAYER3
100
AcDbVertex
100
AcDb2dVertex
 10
-36.19786596937803
 20
468.5664746708625
 30
0.0
  0
VERTEX
  5
645
330
633
100
AcDbEntity
  8
LAYER3
100
AcDbVertex
100
AcDb2dVertex
 10
-36.0379878346505
 20
468.5765454716438
 30
0.0
  0
VERTEX
  5
646
330
633
100
AcDbEntity
  8
LAYER3
100
AcDbVertex
100
AcDb2dVertex
 10
-35.87724573059697
 20
468.5678670353645
 30
0.0
  0
VERTEX
  5
647
330
633
100
AcDbEntity
  8
LAYER3
100
AcDbVertex
100
AcDb2dVertex
 10
-35.72284824295659
 20
468.5407803005928
 30
0.0
  0
VERTEX
  5
648
330
633
100
AcDbEntity
  8
LAYER3
100
AcDbVertex
100
AcDb2dVertex
 10
-35.5806518261017
 20
468.4990951962227
 30
0.0
  0
VERTEX
  5
649
330
633
100
AcDbEntity
  8
LAYER3
100
AcDbVertex
100
AcDb2dVertex
 10
-35.45282787724151
 20
468.4462544865364
 30
0.0
  0
VERTEX
  5
64A
330
633
100
AcDbEntity
  8
LAYER3
100
AcDbVertex
100
AcDb2dVertex
 10
-35.33278173847805
 20
468.3815786785835
 30
0.0
  0
VERTEX
  5
64B
330
633
100
AcDbEntity
  8
LAYER3
100
AcDbVertex
100
AcDb2dVertex
 10
-35.22092170162802
 20
468.3060119099373
 30
0.0
  0
VERTEX
  5
64C
330
633
100
AcDbEntity
  8
LAYER3
100
AcDbVertex
100
AcDb2dVertex
 10
-35.11825627728109
 20
468.2206842846626
 30
0.0
  0
SEQEND
  5
64D
330
633
100
AcDbEntity
  8
LAYER3
  0
POLYLINE
  5
64E
330
2
100
AcDbEntity
  8
LAYER3
100
AcDb2dPolyline
 66
     1
 10
0.0
 20
0.0
 30
0.0
 70
   128
  0
VERTEX
  5
64F
330
64E
100
AcDbEntity
  8
LAYER3
100
AcDbVertex
100
AcDb2dVertex
 10
-37.24172032518973
 20
465.8739588207954
 30
0.0
  0
VERTEX
  5
650
330
64E
100
AcDbEntity
  8
LAYER3
100
AcDbVertex
100
AcDb2dVertex
 10
-37.2284931604444
 20
465.9085795826667
 30
0.0
  0
VERTEX
  5
651
330
64E
100
AcDbEntity
  8
LAYER3
100
AcDbVertex
100
AcDb2dVertex
 10
-37.21652812405219
 20
465.943875069117
 30
0.0
  0
VERTEX
  5
652
330
64E
100
AcDbEntity
  8
LAYER3
100
AcDbVertex
100
AcDb2dVertex
 10
-37.20584816380134
 20
465.9797046131843
 30
0.0
  0
VERTEX
  5
653
330
64E
100
AcDbEntity
  8
LAYER3
100
AcDbVertex
100
AcDb2dVertex
 10
-37.19647622748008
 20
466.0159347004646
 30
0.0
  0
VERTEX
  5
654
330
64E
100
AcDbEntity
  8
LAYER3
100
AcDbVertex
100
AcDb2dVertex
 10
-37.18843526287668
 20
466.0524294323677
 30
0.0
  0
VERTEX
  5
655
330
64E
100
AcDbEntity
  8
LAYER3
100
AcDbVertex
100
AcDb2dVertex
 10
-37.18174821777933
 20
466.0890505261177
 30
0.0
  0
VERTEX
  5
656
330
64E
100
AcDbEntity
  8
LAYER3
100
AcDbVertex
100
AcDb2dVertex
 10
-37.17643774195307
 20
466.1256620831245
 30
0.0
  0
VERTEX
  5
657
330
64E
100
AcDbEntity
  8
LAYER3
100
AcDbVertex
100
AcDb2dVertex
 10
-37.17252678318613
 20
466.1621282047981
 30
0.0
  0
VERTEX
  5
658
330
64E
100
AcDbEntity
  8
LAYER3
100
AcDbVertex
100
AcDb2dVertex
 10
-37.17003083868616
 20
466.1983153767342
 30
0.0
  0
VERTEX
  5
659
330
64E
100
AcDbEntity
  8
LAYER3
100
AcDbVertex
100
AcDb2dVertex
 10
-37.16889477415674
 20
466.2341186947578
 30
0.0
  0
VERTEX
  5
65A
330
64E
100
AcDbEntity
  8
LAYER3
100
AcDbVertex
100
AcDb2dVertex
 10
-37.16903871937387
 20
466.2694356388802
 30
0.0
  0
VERTEX
  5
65B
330
64E
100
AcDbEntity
  8
LAYER3
100
AcDbVertex
100
AcDb2dVertex
 10
-37.17038489027613
 20
466.304163689112
 30
0.0
  0
VERTEX
  5
65C
330
64E
100
AcDbEntity
  8
LAYER3
100
AcDbVertex
100
AcDb2dVertex
 10
-37.17285520477884
 20
466.3381979412788
 30
0.0
  0
VERTEX
  5
65D
330
64E
100
AcDbEntity
  8
LAYER3
100
AcDbVertex
100
AcDb2dVertex
 10
-37.17637217684387
 20
466.3714358753914
 30
0.0
  0
VERTEX
  5
65E
330
64E
100
AcDbEntity
  8
LAYER3
100
AcDbVertex
100
AcDb2dVertex
 10
-37.18085802240967
 20
466.4037725872749
 30
0.0
  0
VERTEX
  5
65F
330
64E
100
AcDbEntity
  8
LAYER3
100
AcDbVertex
100
AcDb2dVertex
 10
-37.18623495741486
 20
466.4351031727546
 30
0.0
  0
VERTEX
  5
660
330
64E
100
AcDbEntity
  8
LAYER3
100
AcDbVertex
100
AcDb2dVertex
 10
-37.192425197798
 20
466.4653274960273
 30
0.0
  0
VERTEX
  5
661
330
64E
100
AcDbEntity
  8
LAYER3
100
AcDbVertex
100
AcDb2dVertex
 10
-37.19945079727768
 20
466.4948866314643
 30
0.0
  0
VERTEX
  5
662
330
64E
100
AcDbEntity
  8
LAYER3
100
AcDbVertex
100
AcDb2dVertex
 10
-37.20735318108203
 20
466.5241501278633
 30
0.0
  0
VERTEX
  5
663
330
64E
100
AcDbEntity
  8
LAYER3
100
AcDbVertex
100
AcDb2dVertex
 10
-37.21611536188723
 20
466.5530917591804
 30
0.0
  0
VERTEX
  5
664
330
64E
100
AcDbEntity
  8
LAYER3
100
AcDbVertex
100
AcDb2dVertex
 10
-37.22571916027667
 20
466.5816805310005
 30
0.0
  0
VERTEX
  5
665
330
64E
100
AcDbEntity
  8
LAYER3
100
AcDbVertex
100
AcDb2dVertex
 10
-37.23614788694979
 20
466.609887833094
 30
0.0
  0
VERTEX
  5
666
330
64E
100
AcDbEntity
  8
LAYER3
100
AcDbVertex
100
AcDb2dVertex
 10
-37.24738366051318
 20
466.6376850552315
 30
0.0
  0
VERTEX
  5
667
330
64E
100
AcDbEntity
  8
LAYER3
100
AcDbVertex
100
AcDb2dVertex
 10
-37.25940919561987
 20
466.6650459713691
 30
0.0
  0
SEQEND
  5
668
330
64E
100
AcDbEntity
  8
LAYER3
  0
ARC
  5
669
330
2
100
AcDbEntity
  8
LAYER3
100
AcDbCircle
 10
-34.13620497419794
 20
464.6176662535117
 30
0.0
 40
3.349999999999992
100
AcDbArc
 50
157.9748830508244
 51
166.0251169491764
  0
POLYLINE
  5
66A
330
2
100
AcDbEntity
  8
LAYER3
100
AcDb2dPolyline
 66
     1
 10
0.0
 20
0.0
 30
0.0
 70
   128
  0
VERTEX
  5
66B
330
66A
100
AcDbEntity
  8
LAYER3
100
AcDbVertex
100
AcDb2dVertex
 10
-37.86635018034582
 20
464.7970745510811
 30
0.0
  0
VERTEX
  5
66C
330
66A
100
AcDbEntity
  8
LAYER3
100
AcDbVertex
100
AcDb2dVertex
 10
-37.84053928299548
 20
464.8121402210945
 30
0.0
  0
VERTEX
  5
66D
330
66A
100
AcDbEntity
  8
LAYER3
100
AcDbVertex
100
AcDb2dVertex
 10
-37.81510955734851
 20
464.82802605102
 30
0.0
  0
VERTEX
  5
66E
330
66A
100
AcDbEntity
  8
LAYER3
100
AcDbVertex
100
AcDb2dVertex
 10
-37.7900925938666
 20
464.844717735743
 30
0.0
  0
VERTEX
  5
66F
330
66A
100
AcDbEntity
  8
LAYER3
100
AcDbVertex
100
AcDb2dVertex
 10
-37.76551908894183
 20
464.8622009701484
 30
0.0
  0
VERTEX
  5
670
330
66A
100
AcDbEntity
  8
LAYER3
100
AcDbVertex
100
AcDb2dVertex
 10
-37.74141973896624
 20
464.8804638333076
 30
0.0
  0
VERTEX
  5
671
330
66A
100
AcDbEntity
  8
LAYER3
100
AcDbVertex
100
AcDb2dVertex
 10
-37.7178255383551
 20
464.8994944042915
 30
0.0
  0
VERTEX
  5
672
330
66A
100
AcDbEntity
  8
LAYER3
100
AcDbVertex
100
AcDb2dVertex
 10
-37.69476777954697
 20
464.9192783779853
 30
0.0
  0
VERTEX
  5
673
330
66A
100
AcDbEntity
  8
LAYER3
100
AcDbVertex
100
AcDb2dVertex
 10
-37.67199403687119
 20
464.9400899357551
 30
0.0
  0
VERTEX
  5
674
330
66A
100
AcDbEntity
  8
LAYER3
100
AcDbVertex
100
AcDb2dVertex
 10
-37.64922804279922
 20
464.9622771687263
 30
0.0
  0
VERTEX
  5
675
330
66A
100
AcDbEntity
  8
LAYER3
100
AcDbVertex
100
AcDb2dVertex
 10
-37.62659198685287
 20
464.9858019299263
 30
0.0
  0
VERTEX
  5
676
330
66A
100
AcDbEntity
  8
LAYER3
100
AcDbVertex
100
AcDb2dVertex
 10
-37.60421044273966
 20
465.0106236881965
 30
0.0
  0
VERTEX
  5
677
330
66A
100
AcDbEntity
  8
LAYER3
100
AcDbVertex
100
AcDb2dVertex
 10
-37.58220679207437
 20
465.0367066807502
 30
0.0
  0
VERTEX
  5
678
330
66A
100
AcDbEntity
  8
LAYER3
100
AcDbVertex
100
AcDb2dVertex
 10
-37.5607050125181
 20
465.0640103764289
 30
0.0
  0
VERTEX
  5
679
330
66A
100
AcDbEntity
  8
LAYER3
100
AcDbVertex
100
AcDb2dVertex
 10
-37.53982937975519
 20
465.0924990124458
 30
0.0
  0
VERTEX
  5
67A
330
66A
100
AcDbEntity
  8
LAYER3
100
AcDbVertex
100
AcDb2dVertex
 10
-37.51970387144678
 20
465.1221320576423
 30
0.0
  0
VERTEX
  5
67B
330
66A
100
AcDbEntity
  8
LAYER3
100
AcDbVertex
100
AcDb2dVertex
 10
-37.50045306130045
 20
465.1528761334175
 30
0.0
  0
VERTEX
  5
67C
330
66A
100
AcDbEntity
  8
LAYER3
100
AcDbVertex
100
AcDb2dVertex
 10
-37.4821830455839
 20
465.184676403498
 30
0.0
  0
VERTEX
  5
67D
330
66A
100
AcDbEntity
  8
LAYER3
100
AcDbVertex
100
AcDb2dVertex
 10
-37.46495938940638
 20
465.2174160427803
 30
0.0
  0
VERTEX
  5
67E
330
66A
100
AcDbEntity
  8
LAYER3
100
AcDbVertex
100
AcDb2dVertex
 10
-37.44884408159845
 20
465.2509734577888
 30
0.0
  0
VERTEX
  5
67F
330
66A
100
AcDbEntity
  8
LAYER3
100
AcDbVertex
100
AcDb2dVertex
 10
-37.43389851494422
 20
465.2852246708626
 30
0.0
  0
VERTEX
  5
680
330
66A
100
AcDbEntity
  8
LAYER3
100
AcDbVertex
100
AcDb2dVertex
 10
-37.4201846782743
 20
465.3200457043404
 30
0.0
  0
VERTEX
  5
681
330
66A
100
AcDbEntity
  8
LAYER3
100
AcDbVertex
100
AcDb2dVertex
 10
-37.40776456041923
 20
465.3553101963752
 30
0.0
  0
VERTEX
  5
682
330
66A
100
AcDbEntity
  8
LAYER3
100
AcDbVertex
100
AcDb2dVertex
 10
-37.39669895811668
 20
465.3908965534919
 30
0.0
  0
VERTEX
  5
683
330
66A
100
AcDbEntity
  8
LAYER3
100
AcDbVertex
100
AcDb2dVertex
 10
-37.38705075426688
 20
465.4266784138435
 30
0.0
  0
SEQEND
  5
684
330
66A
100
AcDbEntity
  8
LAYER3
  0
POLYLINE
  5
685
330
2
100
AcDbEntity
  8
LAYER3
100
AcDb2dPolyline
 66
     1
 10
0.0
 20
0.0
 30
0.0
 70
   128
  0
VERTEX
  5
686
330
685
100
AcDbEntity
  8
LAYER3
100
AcDbVertex
100
AcDb2dVertex
 10
-37.04850263043051
 20
462.2799990124458
 30
0.0
  0
VERTEX
  5
687
330
685
100
AcDbEntity
  8
LAYER3
100
AcDbVertex
100
AcDb2dVertex
 10
-37.18171424313192
 20
462.2713134236091
 30
0.0
  0
VERTEX
  5
688
330
685
100
AcDbEntity
  8
LAYER3
100
AcDbVertex
100
AcDb2dVertex
 10
-37.31662816448818
 20
462.2759268231147
 30
0.0
  0
VERTEX
  5
689
330
685
100
AcDbEntity
  8
LAYER3
100
AcDbVertex
100
AcDb2dVertex
 10
-37.45176232500686
 20
462.294165844416
 30
0.0
  0
VERTEX
  5
68A
330
685
100
AcDbEntity
  8
LAYER3
100
AcDbVertex
100
AcDb2dVertex
 10
-37.58623278780595
 20
462.3265502400154
 30
0.0
  0
VERTEX
  5
68B
330
685
100
AcDbEntity
  8
LAYER3
100
AcDbVertex
100
AcDb2dVertex
 10
-37.72577471180577
 20
462.3764059490913
 30
0.0
  0
VERTEX
  5
68C
330
685
100
AcDbEntity
  8
LAYER3
100
AcDbVertex
100
AcDb2dVertex
 10
-37.86660618229527
 20
462.4452445454353
 30
0.0
  0
VERTEX
  5
68D
330
685
100
AcDbEntity
  8
LAYER3
100
AcDbVertex
100
AcDb2dVertex
 10
-38.00175107165001
 20
462.5327036328071
 30
0.0
  0
VERTEX
  5
68E
330
685
100
AcDbEntity
  8
LAYER3
100
AcDbVertex
100
AcDb2dVertex
 10
-38.12517560167936
 20
462.6348254627937
 30
0.0
  0
VERTEX
  5
68F
330
685
100
AcDbEntity
  8
LAYER3
100
AcDbVertex
100
AcDb2dVertex
 10
-38.2365520958486
 20
462.7523801274056
 30
0.0
  0
VERTEX
  5
690
330
685
100
AcDbEntity
  8
LAYER3
100
AcDbVertex
100
AcDb2dVertex
 10
-38.33909652276663
 20
462.8912970967048
 30
0.0
  0
VERTEX
  5
691
330
685
100
AcDbEntity
  8
LAYER3
100
AcDbVertex
100
AcDb2dVertex
 10
-38.42419243498472
 20
463.0452105946297
 30
0.0
  0
VERTEX
  5
692
330
685
100
AcDbEntity
  8
LAYER3
100
AcDbVertex
100
AcDb2dVertex
 10
-38.48728857083947
 20
463.2039139218086
 30
0.0
  0
VERTEX
  5
693
330
685
100
AcDbEntity
  8
LAYER3
100
AcDbVertex
100
AcDb2dVertex
 10
-38.52952546520857
 20
463.3693931050056
 30
0.0
  0
VERTEX
  5
694
330
685
100
AcDbEntity
  8
LAYER3
100
AcDbVertex
100
AcDb2dVertex
 10
-38.55115003033308
 20
463.5439298100227
 30
0.0
  0
VERTEX
  5
695
330
685
100
AcDbEntity
  8
LAYER3
100
AcDbVertex
100
AcDb2dVertex
 10
-38.54984245343832
 20
463.7165901608223
 30
0.0
  0
VERTEX
  5
696
330
685
100
AcDbEntity
  8
LAYER3
100
AcDbVertex
100
AcDb2dVertex
 10
-38.52883405132917
 20
463.8771603054756
 30
0.0
  0
VERTEX
  5
697
330
685
100
AcDbEntity
  8
LAYER3
100
AcDbVertex
100
AcDb2dVertex
 10
-38.48900712175987
 20
464.0323255009406
 30
0.0
  0
VERTEX
  5
698
330
685
100
AcDbEntity
  8
LAYER3
100
AcDbVertex
100
AcDb2dVertex
 10
-38.43107990070004
 20
464.1825172848457
 30
0.0
  0
VERTEX
  5
699
330
685
100
AcDbEntity
  8
LAYER3
100
AcDbVertex
100
AcDb2dVertex
 10
-38.3576074902596
 20
464.3209884114021
 30
0.0
  0
VERTEX
  5
69A
330
685
100
AcDbEntity
  8
LAYER3
100
AcDbVertex
100
AcDb2dVertex
 10
-38.2740209166588
 20
464.4433424420112
 30
0.0
  0
VERTEX
  5
69B
330
685
100
AcDbEntity
  8
LAYER3
100
AcDbVertex
100
AcDb2dVertex
 10
-38.18426660342826
 20
464.5485827870125
 30
0.0
  0
VERTEX
  5
69C
330
685
100
AcDbEntity
  8
LAYER3
100
AcDbVertex
100
AcDb2dVertex
 10
-38.08566070242534
 20
464.6427676625007
 30
0.0
  0
VERTEX
  5
69D
330
685
100
AcDbEntity
  8
LAYER3
100
AcDbVertex
100
AcDb2dVertex
 10
-37.97922558231955
 20
464.7258017010444
 30
0.0
  0
VERTEX
  5
69E
330
685
100
AcDbEntity
  8
LAYER3
100
AcDbVertex
100
AcDb2dVertex
 10
-37.86635018034582
 20
464.7970745510811
 30
0.0
  0
SEQEND
  5
69F
330
685
100
AcDbEntity
  8
LAYER3
  0
POLYLINE
  5
6A0
330
2
100
AcDbEntity
  8
LAYER3
100
AcDb2dPolyline
 66
     1
 10
0.0
 20
0.0
 30
0.0
 70
   128
  0
VERTEX
  5
6A1
330
6A0
100
AcDbEntity
  8
LAYER3
100
AcDbVertex
100
AcDb2dVertex
 10
-36.29066831513038
 20
462.0523617214912
 30
0.0
  0
VERTEX
  5
6A2
330
6A0
100
AcDbEntity
  8
LAYER3
100
AcDbVertex
100
AcDb2dVertex
 10
-36.31950712843528
 20
462.0756409115547
 30
0.0
  0
VERTEX
  5
6A3
330
6A0
100
AcDbEntity
  8
LAYER3
100
AcDbVertex
100
AcDb2dVertex
 10
-36.34937620802512
 20
462.0979258961433
 30
0.0
  0
VERTEX
  5
6A4
330
6A0
100
AcDbEntity
  8
LAYER3
100
AcDbVertex
100
AcDb2dVertex
 10
-36.38015276833167
 20
462.1191546864265
 30
0.0
  0
VERTEX
  5
6A5
330
6A0
100
AcDbEntity
  8
LAYER3
100
AcDbVertex
100
AcDb2dVertex
 10
-36.41171402378669
 20
462.1392652935737
 30
0.0
  0
VERTEX
  5
6A6
330
6A0
100
AcDbEntity
  8
LAYER3
100
AcDbVertex
100
AcDb2dVertex
 10
-36.44393718882196
 20
462.158188576197
 30
0.0
  0
VERTEX
  5
6A7
330
6A0
100
AcDbEntity
  8
LAYER3
100
AcDbVertex
100
AcDb2dVertex
 10
-36.4766994778692
 20
462.1758649296516
 30
0.0
  0
VERTEX
  5
6A8
330
6A0
100
AcDbEntity
  8
LAYER3
100
AcDbVertex
100
AcDb2dVertex
 10
-36.50987840338343
 20
462.1922299809211
 30
0.0
  0
VERTEX
  5
6A9
330
6A0
100
AcDbEntity
  8
LAYER3
100
AcDbVertex
100
AcDb2dVertex
 10
-36.54335088177317
 20
462.2072169728035
 30
0.0
  0
VERTEX
  5
6AA
330
6A0
100
AcDbEntity
  8
LAYER3
100
AcDbVertex
100
AcDb2dVertex
 10
-36.57699531956308
 20
462.2207734532111
 30
0.0
  0
VERTEX
  5
6AB
330
6A0
100
AcDbEntity
  8
LAYER3
100
AcDbVertex
100
AcDb2dVertex
 10
-36.61069518967264
 20
462.2329184956306
 30
0.0
  0
VERTEX
  5
6AC
330
6A0
100
AcDbEntity
  8
LAYER3
100
AcDbVertex
100
AcDb2dVertex
 10
-36.64432860060327
 20
462.243695015406
 30
0.0
  0
VERTEX
  5
6AD
330
6A0
100
AcDbEntity
  8
LAYER3
100
AcDbVertex
100
AcDb2dVertex
 10
-36.67777306480997
 20
462.2531459278816
 30
0.0
  0
VERTEX
  5
6AE
330
6A0
100
AcDbEntity
  8
LAYER3
100
AcDbVertex
100
AcDb2dVertex
 10
-36.71090520067804
 20
462.2613141484016
 30
0.0
  0
VERTEX
  5
6AF
330
6A0
100
AcDbEntity
  8
LAYER3
100
AcDbVertex
100
AcDb2dVertex
 10
-36.74360281868576
 20
462.2682402081245
 30
0.0
  0
VERTEX
  5
6B0
330
6A0
100
AcDbEntity
  8
LAYER3
100
AcDbVertex
100
AcDb2dVertex
 10
-36.77574253721832
 20
462.2739670223945
 30
0.0
  0
VERTEX
  5
6B1
330
6A0
100
AcDbEntity
  8
LAYER3
100
AcDbVertex
100
AcDb2dVertex
 10
-36.80720186873077
 20
462.2785351223702
 30
0.0
  0
VERTEX
  5
6B2
330
6A0
100
AcDbEntity
  8
LAYER3
100
AcDbVertex
100
AcDb2dVertex
 10
-36.83786011381744
 20
462.2819874233955
 30
0.0
  0
VERTEX
  5
6B3
330
6A0
100
AcDbEntity
  8
LAYER3
100
AcDbVertex
100
AcDb2dVertex
 10
-36.86814284964203
 20
462.2844383663887
 30
0.0
  0
VERTEX
  5
6B4
330
6A0
100
AcDbEntity
  8
LAYER3
100
AcDbVertex
100
AcDb2dVertex
 10
-36.89841664476992
 20
462.2859666294807
 30
0.0
  0
VERTEX
  5
6B5
330
6A0
100
AcDbEntity
  8
LAYER3
100
AcDbVertex
100
AcDb2dVertex
 10
-36.9286481206
 20
462.2865769810432
 30
0.0
  0
VERTEX
  5
6B6
330
6A0
100
AcDbEntity
  8
LAYER3
100
AcDbVertex
100
AcDb2dVertex
 10
-36.95880509062411
 20
462.2862765736336
 30
0.0
  0
VERTEX
  5
6B7
330
6A0
100
AcDbEntity
  8
LAYER3
100
AcDbVertex
100
AcDb2dVertex
 10
-36.98885507031085
 20
462.2850749439948
 30
0.0
  0
VERTEX
  5
6B8
330
6A0
100
AcDbEntity
  8
LAYER3
100
AcDbVertex
100
AcDb2dVertex
 10
-37.01876497908236
 20
462.2829792446846
 30
0.0
  0
VERTEX
  5
6B9
330
6A0
100
AcDbEntity
  8
LAYER3
100
AcDbVertex
100
AcDb2dVertex
 10
-37.04850263043051
 20
462.2799990124458
 30
0.0
  0
SEQEND
  5
6BA
330
6A0
100
AcDbEntity
  8
LAYER3
  0
ARC
  5
6BB
330
2
100
AcDbEntity
  8
LAYER3
100
AcDbCircle
 10
-34.13620497419845
 20
464.617666253511
 30
0.0
 40
3.349999999999126
100
AcDbArc
 50
229.9748830508232
 51
238.0251169491739
  0
POLYLINE
  5
6BC
330
2
100
AcDbEntity
  8
LAYER3
100
AcDb2dPolyline
 66
     1
 10
0.0
 20
0.0
 30
0.0
 70
   128
  0
VERTEX
  5
6BD
330
6BC
100
AcDbEntity
  8
LAYER3
100
AcDbVertex
100
AcDb2dVertex
 10
-35.45951015396719
 20
461.1255285687202
 30
0.0
  0
VERTEX
  5
6BE
330
6BC
100
AcDbEntity
  8
LAYER3
100
AcDbVertex
100
AcDb2dVertex
 10
-35.46586341305377
 20
461.1547300762886
 30
0.0
  0
VERTEX
  5
6BF
330
6BC
100
AcDbEntity
  8
LAYER3
100
AcDbVertex
100
AcDb2dVertex
 10
-35.4731131259978
 20
461.1838242954964
 30
0.0
  0
VERTEX
  5
6C0
330
6BC
100
AcDbEntity
  8
LAYER3
100
AcDbVertex
100
AcDb2dVertex
 10
-35.48125631256701
 20
461.2127754635566
 30
0.0
  0
VERTEX
  5
6C1
330
6BC
100
AcDbEntity
  8
LAYER3
100
AcDbVertex
100
AcDb2dVertex
 10
-35.49029058857562
 20
461.2415478176826
 30
0.0
  0
VERTEX
  5
6C2
330
6BC
100
AcDbEntity
  8
LAYER3
100
AcDbVertex
100
AcDb2dVertex
 10
-35.50021297379138
 20
461.2701127476448
 30
0.0
  0
VERTEX
  5
6C3
330
6BC
100
AcDbEntity
  8
LAYER3
100
AcDbVertex
100
AcDb2dVertex
 10
-35.51102048798203
 20
461.2984321064705
 30
0.0
  0
VERTEX
  5
6C4
330
6BC
100
AcDbEntity
  8
LAYER3
100
AcDbVertex
100
AcDb2dVertex
 10
-35.52271074696182
 20
461.3264748997444
 30
0.0
  0
VERTEX
  5
6C5
330
6BC
100
AcDbEntity
  8
LAYER3
100
AcDbVertex
100
AcDb2dVertex
 10
-35.5354679290831
 20
461.3545653767341
 30
0.0
  0
VERTEX
  5
6C6
330
6BC
100
AcDbEntity
  8
LAYER3
100
AcDbVertex
100
AcDb2dVertex
 10
-35.54953402920364
 20
461.3830730862373
 30
0.0
  0
VERTEX
  5
6C7
330
6BC
100
AcDbEntity
  8
LAYER3
100
AcDbVertex
100
AcDb2dVertex
 10
-35.56491202755569
 20
461.411871666407
 30
0.0
  0
VERTEX
  5
6C8
330
6BC
100
AcDbEntity
  8
LAYER3
100
AcDbVertex
100
AcDb2dVertex
 10
-35.58160311623209
 20
461.4408276028389
 30
0.0
  0
VERTEX
  5
6C9
330
6BC
100
AcDbEntity
  8
LAYER3
100
AcDbVertex
100
AcDb2dVertex
 10
-35.59960967941873
 20
461.469814533686
 30
0.0
  0
VERTEX
  5
6CA
330
6BC
100
AcDbEntity
  8
LAYER3
100
AcDbVertex
100
AcDb2dVertex
 10
-35.61893290920847
 20
461.49870132873
 30
0.0
  0
VERTEX
  5
6CB
330
6BC
100
AcDbEntity
  8
LAYER3
100
AcDbVertex
100
AcDb2dVertex
 10
-35.63957578583353
 20
461.527359241938
 30
0.0
  0
VERTEX
  5
6CC
330
6BC
100
AcDbEntity
  8
LAYER3
100
AcDbVertex
100
AcDb2dVertex
 10
-35.66153979941004
 20
461.5556571430915
 30
0.0
  0
VERTEX
  5
6CD
330
6BC
100
AcDbEntity
  8
LAYER3
100
AcDbVertex
100
AcDb2dVertex
 10
-35.6848288242399
 20
461.5834639019722
 30
0.0
  0
VERTEX
  5
6CE
330
6BC
100
AcDbEntity
  8
LAYER3
100
AcDbVertex
100
AcDb2dVertex
 10
-35.70942676706903
 20
461.6106674618476
 30
0.0
  0
VERTEX
  5
6CF
330
6BC
100
AcDbEntity
  8
LAYER3
100
AcDbVertex
100
AcDb2dVertex
 10
-35.73524302883738
 20
461.637165302729
 30
0.0
  0
VERTEX
  5
6D0
330
6BC
100
AcDbEntity
  8
LAYER3
100
AcDbVertex
100
AcDb2dVertex
 10
-35.76217836781137
 20
461.6628620571845
 30
0.0
  0
VERTEX
  5
6D1
330
6BC
100
AcDbEntity
  8
LAYER3
100
AcDbVertex
100
AcDb2dVertex
 10
-35.7901341383039
 20
461.6876599735969
 30
0.0
  0
VERTEX
  5
6D2
330
6BC
100
AcDbEntity
  8
LAYER3
100
AcDbVertex
100
AcDb2dVertex
 10
-35.81901199265113
 20
461.7114636845344
 30
0.0
  0
VERTEX
  5
6D3
330
6BC
100
AcDbEntity
  8
LAYER3
100
AcDbVertex
100
AcDb2dVertex
 10
-35.84871298714271
 20
461.7341730541938
 30
0.0
  0
VERTEX
  5
6D4
330
6BC
100
AcDbEntity
  8
LAYER3
100
AcDbVertex
100
AcDb2dVertex
 10
-35.87913817806831
 20
461.7556927151436
 30
0.0
  0
VERTEX
  5
6D5
330
6BC
100
AcDbEntity
  8
LAYER3
100
AcDbVertex
100
AcDb2dVertex
 10
-35.91018891974082
 20
461.7759272999519
 30
0.0
  0
SEQEND
  5
6D6
330
6BC
100
AcDbEntity
  8
LAYER3
  0
POLYLINE
  5
6D7
330
2
100
AcDbEntity
  8
LAYER3
100
AcDb2dPolyline
 66
     1
 10
0.0
 20
0.0
 30
0.0
 70
   128
  0
VERTEX
  5
6D8
330
6D7
100
AcDbEntity
  8
LAYER3
100
AcDbVertex
100
AcDb2dVertex
 10
-32.81289941712027
 20
461.1255285687202
 30
0.0
  0
VERTEX
  5
6D9
330
6D7
100
AcDbEntity
  8
LAYER3
100
AcDbVertex
100
AcDb2dVertex
 10
-32.84580416126852
 20
460.9961507267708
 30
0.0
  0
VERTEX
  5
6DA
330
6D7
100
AcDbEntity
  8
LAYER3
100
AcDbVertex
100
AcDb2dVertex
 10
-32.89188391609798
 20
460.8692667431587
 30
0.0
  0
VERTEX
  5
6DB
330
6D7
100
AcDbEntity
  8
LAYER3
100
AcDbVertex
100
AcDb2dVertex
 10
-32.95098847790374
 20
460.746383423304
 30
0.0
  0
VERTEX
  5
6DC
330
6D7
100
AcDbEntity
  8
LAYER3
100
AcDbVertex
100
AcDb2dVertex
 10
-33.02334076805727
 20
460.628499741053
 30
0.0
  0
VERTEX
  5
6DD
330
6D7
100
AcDbEntity
  8
LAYER3
100
AcDbVertex
100
AcDb2dVertex
 10
-33.11387783928533
 20
460.5111954159492
 30
0.0
  0
VERTEX
  5
6DE
330
6D7
100
AcDbEntity
  8
LAYER3
100
AcDbVertex
100
AcDb2dVertex
 10
-33.22286731644292
 20
460.398528332209
 30
0.0
  0
VERTEX
  5
6DF
330
6D7
100
AcDbEntity
  8
LAYER3
100
AcDbVertex
100
AcDb2dVertex
 10
-33.34780818863533
 20
460.2970240063423
 30
0.0
  0
VERTEX
  5
6E0
330
6D7
100
AcDbEntity
  8
LAYER3
100
AcDbVertex
100
AcDb2dVertex
 10
-33.48307198925642
 20
460.2111980862373
 30
0.0
  0
VERTEX
  5
6E1
330
6D7
100
AcDbEntity
  8
LAYER3
100
AcDbVertex
100
AcDb2dVertex
 10
-33.62929052754072
 20
460.141598934626
 30
0.0
  0
VERTEX
  5
6E2
330
6D7
100
AcDbEntity
  8
LAYER3
100
AcDbVertex
100
AcDb2dVertex
 10
-33.793095416266
 20
460.0870010800117
 30
0.0
  0
VERTEX
  5
6E3
330
6D7
100
AcDbEntity
  8
LAYER3
100
AcDbVertex
100
AcDb2dVertex
 10
-33.96577245636613
 20
460.0536320156806
 30
0.0
  0
VERTEX
  5
6E4
330
6D7
100
AcDbEntity
  8
LAYER3
100
AcDbVertex
100
AcDb2dVertex
 10
-34.13620478554398
 20
460.0426671452278
 30
0.0
  0
VERTEX
  5
6E5
330
6D7
100
AcDbEntity
  8
LAYER3
100
AcDbVertex
100
AcDb2dVertex
 10
-34.30663771076829
 20
460.0536320156806
 30
0.0
  0
VERTEX
  5
6E6
330
6D7
100
AcDbEntity
  8
LAYER3
100
AcDbVertex
100
AcDb2dVertex
 10
-34.47931475086836
 20
460.0870010800117
 30
0.0
  0
VERTEX
  5
6E7
330
6D7
100
AcDbEntity
  8
LAYER3
100
AcDbVertex
100
AcDb2dVertex
 10
-34.64311963959364
 20
460.141598934626
 30
0.0
  0
VERTEX
  5
6E8
330
6D7
100
AcDbEntity
  8
LAYER3
100
AcDbVertex
100
AcDb2dVertex
 10
-34.78933817787794
 20
460.2111980862373
 30
0.0
  0
VERTEX
  5
6E9
330
6D7
100
AcDbEntity
  8
LAYER3
100
AcDbVertex
100
AcDb2dVertex
 10
-34.92460197849891
 20
460.2970240063423
 30
0.0
  0
VERTEX
  5
6EA
330
6D7
100
AcDbEntity
  8
LAYER3
100
AcDbVertex
100
AcDb2dVertex
 10
-35.04954285069127
 20
460.398528332209
 30
0.0
  0
VERTEX
  5
6EB
330
6D7
100
AcDbEntity
  8
LAYER3
100
AcDbVertex
100
AcDb2dVertex
 10
-35.15853232784886
 20
460.5111954159492
 30
0.0
  0
VERTEX
  5
6EC
330
6D7
100
AcDbEntity
  8
LAYER3
100
AcDbVertex
100
AcDb2dVertex
 10
-35.24906939907686
 20
460.628499741053
 30
0.0
  0
VERTEX
  5
6ED
330
6D7
100
AcDbEntity
  8
LAYER3
100
AcDbVertex
100
AcDb2dVertex
 10
-35.32142168923034
 20
460.746383423304
 30
0.0
  0
VERTEX
  5
6EE
330
6D7
100
AcDbEntity
  8
LAYER3
100
AcDbVertex
100
AcDb2dVertex
 10
-35.38052565498958
 20
460.8692667431587
 30
0.0
  0
VERTEX
  5
6EF
330
6D7
100
AcDbEntity
  8
LAYER3
100
AcDbVertex
100
AcDb2dVertex
 10
-35.42660540981894
 20
460.9961507267708
 30
0.0
  0
VERTEX
  5
6F0
330
6D7
100
AcDbEntity
  8
LAYER3
100
AcDbVertex
100
AcDb2dVertex
 10
-35.45951015396719
 20
461.1255285687202
 30
0.0
  0
SEQEND
  5
6F1
330
6D7
100
AcDbEntity
  8
LAYER3
  0
POLYLINE
  5
6F2
330
2
100
AcDbEntity
  8
LAYER3
100
AcDb2dPolyline
 66
     1
 10
0.0
 20
0.0
 30
0.0
 70
   128
  0
VERTEX
  5
6F3
330
6F2
100
AcDbEntity
  8
LAYER3
100
AcDbVertex
100
AcDb2dVertex
 10
-32.36222094936954
 20
461.7759272999519
 30
0.0
  0
VERTEX
  5
6F4
330
6F2
100
AcDbEntity
  8
LAYER3
100
AcDbVertex
100
AcDb2dVertex
 10
-32.39327198906531
 20
461.7556927151436
 30
0.0
  0
VERTEX
  5
6F5
330
6F2
100
AcDbEntity
  8
LAYER3
100
AcDbVertex
100
AcDb2dVertex
 10
-32.42369717999091
 20
461.7341730541938
 30
0.0
  0
VERTEX
  5
6F6
330
6F2
100
AcDbEntity
  8
LAYER3
100
AcDbVertex
100
AcDb2dVertex
 10
-32.45339757843604
 20
461.7114636845344
 30
0.0
  0
VERTEX
  5
6F7
330
6F2
100
AcDbEntity
  8
LAYER3
100
AcDbVertex
100
AcDb2dVertex
 10
-32.48227543278327
 20
461.6876599735969
 30
0.0
  0
VERTEX
  5
6F8
330
6F2
100
AcDbEntity
  8
LAYER3
100
AcDbVertex
100
AcDb2dVertex
 10
-32.5102317993223
 20
461.6628620571845
 30
0.0
  0
VERTEX
  5
6F9
330
6F2
100
AcDbEntity
  8
LAYER3
100
AcDbVertex
100
AcDb2dVertex
 10
-32.5371671382963
 20
461.637165302729
 30
0.0
  0
VERTEX
  5
6FA
330
6F2
100
AcDbEntity
  8
LAYER3
100
AcDbVertex
100
AcDb2dVertex
 10
-32.56298310204142
 20
461.6106674618476
 30
0.0
  0
VERTEX
  5
6FB
330
6F2
100
AcDbEntity
  8
LAYER3
100
AcDbVertex
100
AcDb2dVertex
 10
-32.58758134289377
 20
461.5834639019722
 30
0.0
  0
VERTEX
  5
6FC
330
6F2
100
AcDbEntity
  8
LAYER3
100
AcDbVertex
100
AcDb2dVertex
 10
-32.61087006970041
 20
461.5556571430915
 30
0.0
  0
VERTEX
  5
6FD
330
6F2
100
AcDbEntity
  8
LAYER3
100
AcDbVertex
100
AcDb2dVertex
 10
-32.63283438130014
 20
461.527359241938
 30
0.0
  0
VERTEX
  5
6FE
330
6F2
100
AcDbEntity
  8
LAYER3
100
AcDbVertex
100
AcDb2dVertex
 10
-32.65347666187876
 20
461.49870132873
 30
0.0
  0
VERTEX
  5
6FF
330
6F2
100
AcDbEntity
  8
LAYER3
100
AcDbVertex
100
AcDb2dVertex
 10
-32.67280048771494
 20
461.469814533686
 30
0.0
  0
VERTEX
  5
700
330
6F2
100
AcDbEntity
  8
LAYER3
100
AcDbVertex
100
AcDb2dVertex
 10
-32.69080705090158
 20
461.4408276028389
 30
0.0
  0
VERTEX
  5
701
330
6F2
100
AcDbEntity
  8
LAYER3
100
AcDbVertex
100
AcDb2dVertex
 10
-32.70749813957809
 20
461.411871666407
 30
0.0
  0
VERTEX
  5
702
330
6F2
100
AcDbEntity
  8
LAYER3
100
AcDbVertex
100
AcDb2dVertex
 10
-32.7228755418837
 20
461.3830730862373
 30
0.0
  0
VERTEX
  5
703
330
6F2
100
AcDbEntity
  8
LAYER3
100
AcDbVertex
100
AcDb2dVertex
 10
-32.73694164200424
 20
461.3545653767341
 30
0.0
  0
VERTEX
  5
704
330
6F2
100
AcDbEntity
  8
LAYER3
100
AcDbVertex
100
AcDb2dVertex
 10
-32.74969942017197
 20
461.3264748997444
 30
0.0
  0
VERTEX
  5
705
330
6F2
100
AcDbEntity
  8
LAYER3
100
AcDbVertex
100
AcDb2dVertex
 10
-32.76138967915176
 20
461.2984321064705
 30
0.0
  0
VERTEX
  5
706
330
6F2
100
AcDbEntity
  8
LAYER3
100
AcDbVertex
100
AcDb2dVertex
 10
-32.77219719334246
 20
461.2701127476448
 30
0.0
  0
VERTEX
  5
707
330
6F2
100
AcDbEntity
  8
LAYER3
100
AcDbVertex
100
AcDb2dVertex
 10
-32.78211957855822
 20
461.2415478176826
 30
0.0
  0
VERTEX
  5
708
330
6F2
100
AcDbEntity
  8
LAYER3
100
AcDbVertex
100
AcDb2dVertex
 10
-32.79115325852038
 20
461.2127754635566
 30
0.0
  0
VERTEX
  5
709
330
6F2
100
AcDbEntity
  8
LAYER3
100
AcDbVertex
100
AcDb2dVertex
 10
-32.79929704113604
 20
461.1838242954964
 30
0.0
  0
VERTEX
  5
70A
330
6F2
100
AcDbEntity
  8
LAYER3
100
AcDbVertex
100
AcDb2dVertex
 10
-32.80654615803363
 20
461.1547300762886
 30
0.0
  0
VERTEX
  5
70B
330
6F2
100
AcDbEntity
  8
LAYER3
100
AcDbVertex
100
AcDb2dVertex
 10
-32.81289941712027
 20
461.1255285687202
 30
0.0
  0
SEQEND
  5
70C
330
6F2
100
AcDbEntity
  8
LAYER3
  0
ARC
  5
70D
330
2
100
AcDbEntity
  8
LAYER3
100
AcDbCircle
 10
-34.13620497419783
 20
464.6176662535117
 30
0.0
 40
3.349999999999836
100
AcDbArc
 50
301.9748830508224
 51
310.0251169491764
  0
CIRCLE
  5
70E
330
2
100
AcDbEntity
  8
LAYER3
100
AcDbCircle
 10
-34.13620497419834
 20
381.1176662535118
 30
0.0
 40
2.6
  0
CIRCLE
  5
70F
330
2
100
AcDbEntity
  8
LAYER3
100
AcDbCircle
 10
-34.13620497419828
 20
281.1176662535118
 30
0.0
 40
4.0
  0
CIRCLE
  5
710
330
2
100
AcDbEntity
  8
LAYER3
100
AcDbCircle
 10
-34.13620497419831
 20
373.1176662535118
 30
0.0
 40
4.0
  0
CIRCLE
  5
711
330
2
100
AcDbEntity
  8
LAYER3
100
AcDbCircle
 10
-34.13620497419834
 20
430.6176662535118
 30
0.0
 40
4.0
  0
CIRCLE
  5
712
330
2
100
AcDbEntity
  8
LAYER3
100
AcDbCircle
 10
-34.13620497419831
 20
331.1176662535118
 30
0.0
 40
4.0
  0
CIRCLE
  5
713
330
2
100
AcDbEntity
  8
LAYER3
100
AcDbCircle
 10
-34.13620497419834
 20
220.6176662535118
 30
0.0
 40
4.75
  0
CIRCLE
  5
714
330
2
100
AcDbEntity
  8
LAYER3
100
AcDbCircle
 10
-34.13620497419834
 20
464.6176662535117
 30
0.0
 40
4.75
  0
CIRCLE
  5
715
330
2
100
AcDbEntity
  8
LAYER3
100
AcDbCircle
 10
-34.13620497419834
 20
250.6176662535118
 30
0.0
 40
4.75
  0
LINE
  5
716
330
2
100
AcDbEntity
  8
LAYER3
100
AcDbLine
 10
-44.63620497419833
 20
477.6176662535117
 30
0.0
 11
-22.13620497419788
 21
477.6176662535117
 31
0.0
  0
LINE
  5
717
330
2
100
AcDbEntity
  8
LAYER3
100
AcDbLine
 10
-23.63620497419828
 20
207.6176662535118
 30
0.0
 11
-44.63620497419831
 21
207.6176662535118
 31
0.0
  0
LINE
  5
718
330
2
100
AcDbEntity
  8
LAYER3
100
AcDbLine
 10
-46.13620497419788
 20
207.6176662535118
 30
0.0
 11
-46.1362049741979
 21
477.6176662535117
 31
0.0
  0
LINE
  5
719
330
2
100
AcDbEntity
  8
LAYER3
100
AcDbLine
 10
-22.13620497419788
 20
477.6176662535117
 30
0.0
 11
-22.13620497419788
 21
207.6176662535118
 31
0.0
  0
LINE
  5
71A
330
2
100
AcDbEntity
  8
LAYER3
100
AcDbLine
 10
-46.13620497419788
 20
477.6176662535117
 30
0.0
 11
-44.63620497419833
 21
477.6176662535117
 31
0.0
  0
LINE
  5
71B
330
2
100
AcDbEntity
  8
LAYER3
100
AcDbLine
 10
-28.63620497419834
 20
477.6176662535117
 30
0.0
 11
-27.13620497419788
 21
477.6176662535117
 31
0.0
  0
LINE
  5
71C
330
2
100
AcDbEntity
  8
LAYER3
100
AcDbLine
 10
-22.13620497419782
 20
207.6176662535118
 30
0.0
 11
-23.63620497419822
 21
207.6176662535118
 31
0.0
  0
LINE
  5
71D
330
2
100
AcDbEntity
  8
LAYER3
100
AcDbLine
 10
-44.63620497419833
 20
207.6176662535118
 30
0.0
 11
-46.13620497419788
 21
207.6176662535118
 31
0.0
  0
LINE
  5
71E
330
2
100
AcDbEntity
  8
LAYER3
100
AcDbLine
 10
-180.1682292189575
 20
288.6176662535117
 30
0.0
 11
-161.1682292189576
 21
288.6176662535117
 31
0.0
  0
LINE
  5
71F
330
2
100
AcDbEntity
  8
LAYER3
100
AcDbLine
 10
-181.1682292189575
 20
322.6176662535118
 30
0.0
 11
-181.1682292189575
 21
289.6176662535117
 31
0.0
  0
ARC
  5
720
330
2
100
AcDbEntity
  8
LAYER3
100
AcDbCircle
 10
-180.1682292189575
 20
289.6176662535117
 30
0.0
 40
0.9999999999999964
100
AcDbArc
 50
180.0
 51
270.0
  0
ARC
  5
721
330
2
100
AcDbEntity
  8
LAYER3
100
AcDbCircle
 10
-180.1682292189575
 20
322.6176662535118
 30
0.0
 40
1.000000000000007
100
AcDbArc
 50
90.0
 51
180.0
  0
LINE
  5
722
330
2
100
AcDbEntity
  8
LAYER3
100
AcDbLine
 10
-161.1682292189576
 20
323.6176662535117
 30
0.0
 11
-180.1682292189575
 21
323.6176662535117
 31
0.0
  0
LINE
  5
723
330
2
100
AcDbEntity
  8
LAYER3
100
AcDbLine
 10
-172.5025285537395
 20
421.1176662535118
 30
0.0
 11
-172.5025285537395
 21
418.6176662535117
 31
0.0
  0
LINE
  5
724
330
2
100
AcDbEntity
  8
LAYER3
100
AcDbLine
 10
-167.7525285537396
 20
418.6176662535117
 30
0.0
 11
-161.1682292189576
 21
418.6176662535117
 31
0.0
  0
LINE
  5
725
330
2
100
AcDbEntity
  8
LAYER3
100
AcDbLine
 10
-167.7525285537396
 20
418.6176662535117
 30
0.0
 11
-172.5025285537395
 21
418.6176662535117
 31
0.0
  0
LINE
  5
726
330
2
100
AcDbEntity
  8
LAYER3
100
AcDbLine
 10
-167.7525285537396
 20
421.1176662535118
 30
0.0
 11
-161.1682292189576
 21
421.1176662535118
 31
0.0
  0
LINE
  5
727
330
2
100
AcDbEntity
  8
LAYER3
100
AcDbLine
 10
-167.7525285537396
 20
421.1176662535118
 30
0.0
 11
-172.5025285537395
 21
421.1176662535118
 31
0.0
  0
LINE
  5
728
330
2
100
AcDbEntity
  8
LAYER3
100
AcDbLine
 10
-172.5025285537395
 20
393.6176662535118
 30
0.0
 11
-172.5025285537395
 21
391.1176662535119
 31
0.0
  0
LINE
  5
729
330
2
100
AcDbEntity
  8
LAYER3
100
AcDbLine
 10
-167.7525285537396
 20
391.1176662535119
 30
0.0
 11
-172.5025285537395
 21
391.1176662535119
 31
0.0
  0
LINE
  5
72A
330
2
100
AcDbEntity
  8
LAYER3
100
AcDbLine
 10
-167.7525285537396
 20
391.1176662535119
 30
0.0
 11
-161.1682292189576
 21
391.1176662535119
 31
0.0
  0
LINE
  5
72B
330
2
100
AcDbEntity
  8
LAYER3
100
AcDbLine
 10
-167.7525285537396
 20
393.6176662535118
 30
0.0
 11
-161.1682292189576
 21
393.6176662535118
 31
0.0
  0
LINE
  5
72C
330
2
100
AcDbEntity
  8
LAYER3
100
AcDbLine
 10
-167.7525285537396
 20
393.6176662535118
 30
0.0
 11
-172.5025285537395
 21
393.6176662535118
 31
0.0
  0
ARC
  5
72D
330
2
100
AcDbEntity
  8
LAYER3
100
AcDbCircle
 10
-197.3525285537396
 20
406.1176662535117
 30
0.0
 40
36.49999999999998
100
AcDbArc
 50
340.2232456690278
 51
352.4587650104202
  0
ARC
  5
72E
330
2
100
AcDbEntity
  8
LAYER3
100
AcDbCircle
 10
-197.3525285537396
 20
406.1176662535117
 30
0.0
 40
36.49999999999999
100
AcDbArc
 50
7.541234989579725
 51
19.77675433097221
  0
ARC
  5
72F
330
2
100
AcDbEntity
  8
LAYER3
100
AcDbCircle
 10
-138.1525285537396
 20
406.1176662535117
 30
0.0
 40
36.49999999999998
100
AcDbArc
 50
160.2232456690277
 51
199.7767543309722
  0
LINE
  5
730
330
2
100
AcDbEntity
  8
LAYER3
100
AcDbLine
 10
-163.0053670989702
 20
393.7676662535118
 30
0.0
 11
-172.499690008509
 21
393.7676662535118
 31
0.0
  0
LINE
  5
731
330
2
100
AcDbEntity
  8
LAYER3
100
AcDbLine
 10
-163.0053670989702
 20
418.4676662535117
 30
0.0
 11
-172.499690008509
 21
418.4676662535117
 31
0.0
  0
LINE
  5
732
330
2
100
AcDbEntity
  8
LAYER3
100
AcDbLine
 10
-115.6682292189576
 20
433.1176662535118
 30
0.0
 11
-134.6709217827952
 21
433.1176662535118
 31
0.0
  0
LINE
  5
733
330
2
100
AcDbEntity
  8
LAYER3
100
AcDbLine
 10
-115.6682292189576
 20
433.1176662535118
 30
0.0
 11
-115.6682292189576
 21
242.6176662535118
 31
0.0
  0
LINE
  5
734
330
2
100
AcDbEntity
  8
LAYER3
100
AcDbLine
 10
-115.6682292189576
 20
242.6176662535118
 30
0.0
 11
-158.1682292189571
 21
242.6176662535118
 31
0.0
  0
LINE
  5
735
330
2
100
AcDbEntity
  8
LAYER3
100
AcDbLine
 10
-158.1682292189571
 20
442.6176662535119
 30
0.0
 11
-139.599140577142
 21
442.6176662535118
 31
0.0
  0
CIRCLE
  5
736
330
2
100
AcDbEntity
  8
LAYER3
100
AcDbCircle
 10
-141.1682292189576
 20
255.1176662535117
 30
0.0
 40
2.6
  0
CIRCLE
  5
737
330
2
100
AcDbEntity
  8
LAYER3
100
AcDbCircle
 10
-121.1682292189576
 20
255.1176662535117
 30
0.0
 40
2.6
  0
LINE
  5
738
330
2
100
AcDbEntity
  8
LAYER3
100
AcDbLine
 10
-126.0682292189576
 20
258.2586602184187
 30
0.0
 11
-126.0682292189576
 21
248.9176662535118
 31
0.0
  0
ARC
  5
739
330
2
100
AcDbEntity
  8
LAYER3
100
AcDbCircle
 10
-131.1682292189576
 20
268.1176662535118
 30
0.0
 40
11.10000000000001
100
AcDbArc
 50
297.3522329091281
 51
242.6477670908719
  0
LINE
  5
73A
330
2
100
AcDbEntity
  8
LAYER3
100
AcDbLine
 10
-136.2682292189576
 20
248.9176662535118
 30
0.0
 11
-136.2682292189576
 21
258.2586602184187
 31
0.0
  0
ARC
  5
73B
330
2
100
AcDbEntity
  8
LAYER3
100
AcDbCircle
 10
-131.1682292189576
 20
248.9176662535118
 30
0.0
 40
5.099999999999997
100
AcDbArc
 50
180.0
 51
0.0
  0
ARC
  5
73C
330
2
100
AcDbEntity
  8
LAYER3
100
AcDbCircle
 10
-134.8167760979944
 20
432.3618525315807
 30
0.0
 40
1.000000000000001
100
AcDbArc
 50
115.0000000000013
 51
295.0000000000013
  0
LINE
  5
73D
330
2
100
AcDbEntity
  8
LAYER3
100
AcDbLine
 10
-130.8297267575447
 20
433.1176662535118
 30
0.0
 11
-134.3941578362537
 21
431.4555447445441
 31
0.0
  0
LINE
  5
73E
330
2
100
AcDbEntity
  8
LAYER3
100
AcDbLine
 10
-139.599140577142
 20
442.6176662535118
 30
0.0
 11
-137.6682292189576
 21
442.6176662535118
 31
0.0
  0
LINE
  5
73F
330
2
100
AcDbEntity
  8
LAYER3
100
AcDbLine
 10
-133.653355732421
 20
434.0077422766636
 30
0.0
 11
-135.2393943597351
 21
433.2681603186173
 31
0.0
  0
LINE
  5
740
330
2
100
AcDbEntity
  8
LAYER3
100
AcDbLine
 10
-133.653355732421
 20
434.0077422766636
 30
0.0
 11
-137.6682292189576
 21
442.6176662535118
 31
0.0
  0
LINE
  5
741
330
2
100
AcDbEntity
  8
LAYER3
100
AcDbLine
 10
-127.7333670316799
 20
278.6370029812182
 30
0.0
 11
-127.8685399226127
 21
278.715876033828
 31
0.0
  0
LINE
  5
742
330
2
100
AcDbEntity
  8
LAYER3
100
AcDbLine
 10
-127.7333670316799
 20
278.6370029812182
 30
0.0
 11
-127.7158004310296
 21
278.6671086778434
 31
0.0
  0
ARC
  5
743
330
2
100
AcDbEntity
  8
LAYER3
100
AcDbCircle
 10
-120.5938495834599
 20
273.1482445798612
 30
0.0
 40
2.000000000000579
100
AcDbArc
 50
137.9278257205173
 51
140.8865097776451
  0
ARC
  5
744
330
2
100
AcDbEntity
  8
LAYER3
100
AcDbCircle
 10
-125.6281016683062
 20
279.6209801643117
 30
0.0
 40
1.999999999999596
100
AcDbArc
 50
269.9845122790364
 51
275.2134808376979
  0
ARC
  5
745
330
2
100
AcDbEntity
  8
LAYER3
100
AcDbCircle
 10
-131.1682292189576
 20
270.1179813364409
 30
0.0
 40
9.000000000001366
100
AcDbArc
 50
88.87569012320991
 51
91.12430987694484
  0
CIRCLE
  5
746
330
2
100
AcDbEntity
  8
LAYER3
100
AcDbCircle
 10
-131.1682292189576
 20
340.6176662535117
 30
0.0
 40
4.75
  0
CIRCLE
  5
747
330
2
100
AcDbEntity
  8
LAYER3
100
AcDbCircle
 10
-131.1682292189576
 20
340.6176662535117
 30
0.0
 40
5.099999999999999
  0
LINE
  5
748
330
2
100
AcDbEntity
  8
LAYER3
100
AcDbLine
 10
-161.1682292189576
 20
477.6176662535117
 30
0.0
 11
-161.1682292189576
 21
207.6176662535118
 31
0.0
  0
LINE
  5
749
330
2
100
AcDbEntity
  8
LAYER3
100
AcDbLine
 10
-161.1682292189576
 20
477.6176662535117
 30
0.0
 11
-158.1682292189571
 21
477.6176662535117
 31
0.0
  0
LINE
  5
74A
330
2
100
AcDbEntity
  8
LAYER3
100
AcDbLine
 10
-158.1682292189571
 20
207.6176662535118
 30
0.0
 11
-161.1682292189576
 21
207.6176662535118
 31
0.0
  0
LINE
  5
74B
330
2
100
AcDbEntity
  8
LAYER3
100
AcDbLine
 10
-118.5682292189576
 20
431.3676662535118
 30
0.0
 11
-123.0682292189577
 21
431.3676662535118
 31
0.0
  0
LINE
  5
74C
330
2
100
AcDbEntity
  8
LAYER3
100
AcDbLine
 10
-118.5682292189576
 20
433.1176662535118
 30
0.0
 11
-118.5682292189576
 21
431.3676662535118
 31
0.0
  0
LINE
  5
74D
330
2
100
AcDbEntity
  8
LAYER3
100
AcDbLine
 10
-123.0682292189577
 20
431.3676662535118
 30
0.0
 11
-123.0682292189577
 21
433.1176662535118
 31
0.0
  0
LINE
  5
74E
330
2
100
AcDbEntity
  8
LAYER3
100
AcDbLine
 10
-118.5682292189576
 20
433.1176662535118
 30
0.0
 11
-118.5682292189576
 21
433.1176662535118
 31
0.0
  0
LINE
  5
74F
330
2
100
AcDbEntity
  8
LAYER3
100
AcDbLine
 10
-134.6709217827952
 20
433.1176662535118
 30
0.0
 11
-134.6709217827952
 21
431.3725464521807
 31
0.0
  0
ENDSEC
  0
SECTION
  2
OBJECTS
  0
DICTIONARY
  5
B
330
0
100
AcDbDictionary
281
     1
  3
ACAD_COLOR
350
51
  3
ACAD_DETAILVIEWSTYLE
350
772
  3
ACAD_FIELDLIST
350
79C
  3
ACAD_GROUP
350
3E
  3
ACAD_LAYOUT
350
18
  3
ACAD_MATERIAL
350
D
  3
ACAD_MLEADERSTYLE
350
54
  3
ACAD_MLINESTYLE
350
3F
  3
ACAD_PLOTSETTINGS
350
40
  3
ACAD_PLOTSTYLENAME
350
A
  3
ACAD_SCALELIST
350
52
  3
ACAD_SECTIONVIEWSTYLE
350
780
  3
ACAD_TABLESTYLE
350
53
  3
ACAD_VISUALSTYLE
350
2F
  3
ACDB_RECOMPOSE_DATA
350
7D1
  3
AcDbVariableDictionary
350
7C5
  3
AcmDictionary
350
761
  3
AMG
350
752
  0
DICTIONARY
  5
1F
330
1E
100
AcDbDictionary
280
     1
281
     1
  3
ACAD_LAYERFILTERS
360
20
  3
ACAD_LAYERSTATES
360
21
  3
ACLYDICTIONARY
360
22
  0
DICTIONARY
  5
7
330
6
100
AcDbDictionary
280
     1
281
     1
  3
ADSK_XREC_LAYER_RECONCILED
360
8
  0
DICTIONARY
  5
A0
330
9F
100
AcDbDictionary
280
     1
281
     1
  3
ADSK_XREC_LAYER_RECONCILED
360
A1
  0
DICTIONARY
  5
8C
330
8B
100
AcDbDictionary
280
     1
281
     1
  3
ADSK_XREC_LAYER_RECONCILED
360
8D
  0
DICTIONARY
  5
71
330
70
100
AcDbDictionary
280
     1
281
     1
  3
ADSK_XREC_LAYER_RECONCILED
360
72
  0
DICTIONARY
  5
90
330
8F
100
AcDbDictionary
280
     1
281
     1
  3
ADSK_XREC_LAYER_RECONCILED
360
91
  0
DICTIONARY
  5
56
330
55
100
AcDbDictionary
280
     1
281
     1
  3
ADSK_XREC_LAYER_RECONCILED
360
57
  0
DICTIONARY
  5
85
330
84
100
AcDbDictionary
280
     1
281
     1
  3
ADSK_XREC_LAYER_RECONCILED
360
86
  0
DICTIONARY
  5
3
330
2
100
AcDbDictionary
280
     1
281
     1
  3
ACAD_SORTENTS
360
750
  0
DICTIONARY
  5
51
102
{ACAD_REACTORS
330
B
102
}
330
B
100
AcDbDictionary
281
     1
  0
DICTIONARY
  5
772
102
{ACAD_REACTORS
330
B
102
}
330
B
100
AcDbDictionary
281
     1
  3
Metric50
350
77D
  0
FIELDLIST
  5
79C
102
{ACAD_REACTORS
330
B
102
}
330
B
100
AcDbIdSet
 90
        6
330
775
330
776
330
777
330
783
330
784
330
785
100
AcDbFieldList
  0
DICTIONARY
  5
3E
102
{ACAD_REACTORS
330
B
102
}
330
B
100
AcDbDictionary
281
     1
  0
DICTIONARY
  5
18
102
{ACAD_REACTORS
330
B
102
}
330
B
100
AcDbDictionary
281
     1
  3
Layout1
350
1D
  3
Model
350
17
  0
DICTIONARY
  5
D
102
{ACAD_REACTORS
330
B
102
}
330
B
100
AcDbDictionary
281
     1
  3
ByBlock
350
49
  3
ByLayer
350
41
  3
Global
350
C
  0
DICTIONARY
  5
54
102
{ACAD_REACTORS
330
B
102
}
330
B
100
AcDbDictionary
281
     1
  0
DICTIONARY
  5
3F
102
{ACAD_REACTORS
330
B
102
}
330
B
100
AcDbDictionary
281
     1
  3
STANDARD
350
59
  0
DICTIONARY
  5
40
102
{ACAD_REACTORS
330
B
102
}
330
B
100
AcDbDictionary
281
     1
  0
ACDBDICTIONARYWDFLT
  5
A
102
{ACAD_REACTORS
330
B
102
}
330
B
100
AcDbDictionary
281
     1
  3
Normal
350
9
100
AcDbDictionaryWithDefault
340
9
  0
DICTIONARY
  5
52
102
{ACAD_REACTORS
330
B
102
}
330
B
100
AcDbDictionary
281
     1
  3
A0
350
5E
  3
A1
350
5F
  3
A2
350
60
  3
A3
350
61
  3
A4
350
62
  3
A5
350
63
  3
A6
350
64
  3
A7
350
65
  3
A8
350
66
  3
A9
350
67
  3
B0
350
68
  3
B1
350
69
  3
B2
350
6A
  3
B3
350
6B
  3
B4
350
6C
  3
B5
350
6D
  3
B6
350
6E
  0
DICTIONARY
  5
780
102
{ACAD_REACTORS
330
B
102
}
330
B
100
AcDbDictionary
281
     1
  3
Metric50
350
78C
  0
DICTIONARY
  5
53
102
{ACAD_REACTORS
330
B
102
}
330
B
100
AcDbDictionary
281
     1
  3
Standard
350
5A
  0
DICTIONARY
  5
2F
102
{ACAD_REACTORS
330
B
102
}
330
B
100
AcDbDictionary
281
     1
  3
2dWireframe
350
2E
  3
3dWireframe
350
5D
  3
Realistic
350
5C
  0
XRECORD
  5
7D1
102
{ACAD_REACTORS
330
B
102
}
330
B
100
AcDbXrecord
280
     1
 90
        1
330
5A
330
6F
  0
DICTIONARY
  5
7C5
102
{ACAD_REACTORS
330
B
102
}
330
B
100
AcDbDictionary
281
     1
  3
CANNOSCALE
350
7CB
  3
CMLEADERSTYLE
350
7C7
  3
CTABLESTYLE
350
7C6
  3
CVIEWDETAILSTYLE
350
7C8
  3
CVIEWSECTIONSTYLE
350
7C9
  3
LAYEREVAL
350
7CD
  3
LAYERNOTIFY
350
7CE
  3
LIGHTINGUNITS
350
7CC
  3
MSLTSCALE
350
7CA
  0
DICTIONARY
  5
761
102
{ACAD_REACTORS
330
B
102
}
330
B
100
AcDbDictionary
281
     1
  3
AcmStdDictionary
350
762
  0
DICTIONARY
  5
752
102
{ACAD_REACTORS
330
B
102
}
330
B
100
AcDbDictionary
281
     1
  3
AcMgSettings
350
75C
  0
DICTIONARY
  5
20
102
{ACAD_REACTORS
330
1F
102
}
330
1F
100
AcDbDictionary
281
     1
  0
DICTIONARY
  5
21
102
{ACAD_REACTORS
330
1F
102
}
330
1F
100
AcDbDictionary
281
     1
  0
DICTIONARY
  5
22
102
{ACAD_REACTORS
330
1F
102
}
330
1F
100
AcDbDictionary
281
     1
1001
ACAD
1000
<All
  0
XRECORD
  5
8
102
{ACAD_REACTORS
330
7
102
}
330
7
100
AcDbXrecord
280
     1
290
     1
  0
XRECORD
  5
A1
102
{ACAD_REACTORS
330
A0
102
}
330
A0
100
AcDbXrecord
280
     1
290
     1
  0
XRECORD
  5
8D
102
{ACAD_REACTORS
330
8C
102
}
330
8C
100
AcDbXrecord
280
     1
290
     1
  0
XRECORD
  5
72
102
{ACAD_REACTORS
330
71
102
}
330
71
100
AcDbXrecord
280
     1
290
     1
  0
XRECORD
  5
91
102
{ACAD_REACTORS
330
90
102
}
330
90
100
AcDbXrecord
280
     1
290
     1
  0
XRECORD
  5
57
102
{ACAD_REACTORS
330
56
102
}
330
56
100
AcDbXrecord
280
     1
290
     1
  0
XRECORD
  5
86
102
{ACAD_REACTORS
330
85
102
}
330
85
100
AcDbXrecord
280
     1
290
     1
  0
SORTENTSTABLE
  5
750
102
{ACAD_REACTORS
330
3
102
}
330
3
100
AcDbSortentsTable
330
2
331
746
  5
A4
331
742
  5
A8
331
4EB
  5
1EA
331
73E
  5
DE
331
522
  5
1E7
331
73A
  5
106
331
21D
  5
22E
331
1DE
  5
5E1
331
219
  5
232
331
1DA
  5
633
331
215
  5
236
331
B5
  5
741
331
211
  5
23A
331
387
  5
1FC
331
3BE
  5
1F9
331
3F5
  5
1F6
331
558
  5
1E5
331
736
  5
10A
331
732
  5
10E
331
72E
  5
136
331
72A
  5
15F
331
335
  5
200
331
1D6
  5
685
331
1D2
  5
6D7
331
20D
  5
23E
331
1CE
  5
70F
331
209
  5
25C
331
1CA
  5
713
331
205
  5
2AE
331
A5
  5
745
331
201
  5
31A
331
240
  5
20B
331
11B
  5
731
331
42C
  5
1F3
331
58F
  5
1E2
331
5C6
  5
1DF
331
4CF
  5
1EC
331
726
  5
187
331
722
  5
1BB
331
506
  5
1E9
331
71E
  5
1BF
331
71A
  5
1C3
331
633
  5
1DA
331
66A
  5
1D7
331
187
  5
726
331
1C6
  5
717
331
23C
  5
20F
331
1C2
  5
71B
331
1FD
  5
36C
331
1BE
  5
71F
331
1F9
  5
3BE
331
238
  5
213
331
1F5
  5
3F6
331
234
  5
217
331
1F1
  5
448
331
230
  5
21B
331
10B
  5
735
331
107
  5
739
331
89
  5
74C
331
3D9
  5
1F8
331
5FD
  5
1DC
331
716
  5
1C7
331
712
  5
1CB
331
70E
  5
1CF
331
74D
  5
83
331
749
  5
9E
331
25C
  5
209
331
22C
  5
21F
331
1ED
  5
4B4
331
1E9
  5
506
331
228
  5
223
331
1AE
  5
723
331
1E5
  5
558
331
224
  5
227
331
1E1
  5
590
331
C4
  5
740
331
220
  5
22B
331
136
  5
72E
331
573
  5
1E4
331
5E1
  5
1DE
331
745
  5
A5
331
741
  5
B5
331
73D
  5
EB
331
521
  5
1E8
331
739
  5
107
331
64E
  5
1D9
331
21C
  5
22F
331
1DD
  5
5E2
331
218
  5
233
331
1D9
  5
64E
331
214
  5
237
331
210
  5
23B
331
EB
  5
73D
331
A8
  5
742
331
735
  5
10B
331
731
  5
11B
331
72D
  5
143
331
685
  5
1D6
331
729
  5
16C
331
6BC
  5
1D3
331
1D5
  5
6A0
331
20C
  5
23F
331
1D1
  5
6F2
331
1CD
  5
710
331
208
  5
277
331
1C9
  5
714
331
204
  5
2C9
331
A4
  5
746
331
200
  5
335
331
151
  5
72B
331
725
  5
194
331
721
  5
1BC
331
71D
  5
1C0
331
277
  5
208
331
719
  5
1C4
331
448
  5
1F1
331
2AE
  5
205
331
669
  5
1D8
331
23F
  5
20C
331
186
  5
727
331
1C5
  5
718
331
6A0
  5
1D5
331
23B
  5
210
331
1C1
  5
71C
331
1FC
  5
387
331
1BD
  5
720
331
1F8
  5
3D9
331
237
  5
214
331
1F4
  5
411
331
233
  5
218
331
1F0
  5
463
331
10E
  5
732
331
10A
  5
736
331
106
  5
73A
331
715
  5
1C8
331
711
  5
1CC
331
70D
  5
1D0
331
74C
  5
89
331
748
  5
A2
331
6D7
  5
1D2
331
25B
  5
20A
331
22F
  5
21C
331
22B
  5
220
331
1EC
  5
4CF
331
1E8
  5
521
331
227
  5
224
331
1E4
  5
573
331
223
  5
228
331
1E0
  5
5AB
331
744
  5
A6
331
740
  5
C4
331
73C
  5
F8
331
292
  5
207
331
738
  5
108
331
73
  5
74E
331
2C9
  5
204
331
21F
  5
22C
331
21B
  5
230
331
1A1
  5
724
331
1DC
  5
5FD
331
217
  5
234
331
1D8
  5
669
331
213
  5
238
331
129
  5
72F
331
463
  5
1F0
331
734
  5
10C
331
730
  5
11C
331
6F
  5
74F
331
72C
  5
144
331
728
  5
179
331
6BB
  5
1D4
331
6F2
  5
1D1
331
1D4
  5
6BB
331
20F
  5
23C
331
20B
  5
240
331
1D0
  5
70D
331
1CC
  5
711
331
207
  5
292
331
1C8
  5
715
331
A7
  5
743
331
203
  5
2E4
331
A3
  5
747
331
DE
  5
73E
331
724
  5
1A1
331
720
  5
1BD
331
71C
  5
1C1
331
718
  5
1C5
331
2AD
  5
206
331
2E4
  5
203
331
23E
  5
20D
331
1C4
  5
719
331
1FF
  5
336
331
1FB
  5
388
331
23A
  5
211
331
1C0
  5
71D
331
1BC
  5
721
331
1F7
  5
3DA
331
236
  5
215
331
179
  5
728
331
1F3
  5
42C
331
232
  5
219
331
10D
  5
733
331
109
  5
737
331
105
  5
73B
331
144
  5
72C
331
447
  5
1F2
331
714
  5
1C9
331
710
  5
1CD
331
74F
  5
6F
331
47E
  5
1EF
331
74B
  5
8A
331
22E
  5
21D
331
1EF
  5
47E
331
22A
  5
221
331
1EB
  5
4D0
331
1E7
  5
522
331
226
  5
225
331
1E3
  5
574
331
222
  5
229
331
83
  5
74D
331
351
  5
1FE
331
388
  5
1FB
331
747
  5
A3
331
743
  5
A7
331
73F
  5
D1
331
73B
  5
105
331
21E
  5
22D
331
1DF
  5
5C6
331
21A
  5
231
331
1DB
  5
618
331
216
  5
235
331
212
  5
239
331
3F6
  5
1F5
331
737
  5
109
331
733
  5
10D
331
72F
  5
129
331
72B
  5
151
331
2FF
  5
202
331
499
  5
1EE
331
4D0
  5
1EB
331
336
  5
1FF
331
1D7
  5
66A
331
194
  5
725
331
1D3
  5
6BC
331
20E
  5
23D
331
1CF
  5
70E
331
20A
  5
25B
331
1CB
  5
712
331
206
  5
2AD
331
15F
  5
72A
331
A6
  5
744
331
202
  5
2FF
331
11C
  5
730
331
A2
  5
748
331
9E
  5
749
331
36C
  5
1FD
331
590
  5
1E1
331
727
  5
186
331
723
  5
1AE
331
71F
  5
1BE
331
71B
  5
1C2
331
1C7
  5
716
331
23D
  5
20E
331
1C3
  5
71A
331
1FE
  5
351
331
1FA
  5
3A3
331
239
  5
212
331
1BF
  5
71E
331
1BB
  5
722
331
1F6
  5
3F5
331
235
  5
216
331
1F2
  5
447
331
231
  5
21A
331
10C
  5
734
331
D1
  5
73F
331
3A3
  5
1FA
331
108
  5
738
331
8E
  5
74A
331
8A
  5
74B
331
3DA
  5
1F7
331
143
  5
72D
331
411
  5
1F4
331
53D
  5
1E6
331
717
  5
1C6
331
713
  5
1CA
331
70F
  5
1CE
331
74E
  5
73
331
74A
  5
8E
331
4B4
  5
1ED
331
31A
  5
201
331
22D
  5
21E
331
1EE
  5
499
331
618
  5
1DB
331
1EA
  5
4EB
331
229
  5
222
331
1E6
  5
53D
331
225
  5
226
331
16C
  5
729
331
1E2
  5
58F
331
221
  5
22A
331
F8
  5
73C
331
574
  5
1E3
331
5AB
  5
1E0
331
5E2
  5
1DD
  0
ACDBDETAILVIEWSTYLE
  5
77D
102
{ACAD_XDICTIONARY
360
7D8
102
}
102
{ACAD_REACTORS
330
772
330
77C
102
}
330
772
100
AcDbModelDocViewStyle
 70
     0
  3
Metric50
290
     0
100
AcDbDetailViewStyle
 70
     0
 71
     0
 90
        3
 71
     1
340
25
 62
   256
 40
5.0
340
0
 62
   256
 40
5.0
300

 40
0.0
280
     1
 71
     2
340
15
 90
       25
 62
   256
 71
     3
340
25
 62
   256
 40
5.0
 90
        0
 40
15.0
 90
        1
300
%<\AcVar ViewDetailId>% (%<\AcVar ViewScale \f "%sn">%)
 71
     4
340
15
 90
       25
 62
   256
340
15
 90
       25
 62
   256
280
     0
  0
LAYOUT
  5
1D
102
{ACAD_REACTORS
330
18
102
}
330
18
100
AcDbPlotSettings
  1

  2
\\mslklsv1\MSLKLP05
  4

  6

 40
0.0
 41
0.0
 42
0.0
 43
0.0
 44
0.0
 45
0.0
 46
0.0
 47
0.0
 48
0.0
 49
0.0
140
0.0
141
0.0
142
1.0
143
1.0
 70
   688
 72
     0
 73
     0
 74
     5
  7
Katalog 09.ctb
 75
    16
147
1.0
 76
     0
 77
     2
 78
   300
148
0.0
149
0.0
100
AcDbLayout
  1
Layout1
 70
     1
 71
     1
 10
0.0
 20
0.0
 11
12.0
 21
9.0
 12
0.0
 22
0.0
 32
0.0
 14
1.000000000000000E+20
 24
1.000000000000000E+20
 34
1.000000000000000E+20
 15
-1.000000000000000E+20
 25
-1.000000000000000E+20
 35
-1.000000000000000E+20
146
0.0
 13
0.0
 23
0.0
 33
0.0
 16
1.0
 26
0.0
 36
0.0
 17
0.0
 27
1.0
 37
0.0
 76
     0
330
1A
  0
LAYOUT
  5
17
102
{ACAD_REACTORS
330
18
102
}
330
18
100
AcDbPlotSettings
  1

  2
\\mslklsv1\MSLKLP05
  4
A4
  6

 40
6.805083274841308
 41
5.027085304260253
 42
6.805084228515625
 43
5.027069091796875
 44
209.9733276367187
 45
296.9683227539062
 46
0.0
 47
0.0
 48
0.0
 49
0.0
140
0.0
141
0.0
142
1.0
143
5.211535630019419
 70
 11952
 72
     1
 73
     1
 74
     0
  7
Katalog 09.ctb
 75
     0
147
0.1918820230720122
 76
     0
 77
     2
 78
   300
148
1217.818285113836
149
22.1189732997434
100
AcDbLayout
  1
Model
 70
     1
 71
     0
 10
0.0
 20
0.0
 11
12.0
 21
9.0
 12
0.0
 22
0.0
 32
0.0
 14
0.0
 24
0.0
 34
0.0
 15
0.0
 25
0.0
 35
0.0
146
0.0
 13
0.0
 23
0.0
 33
0.0
 16
1.0
 26
0.0
 36
0.0
 17
0.0
 27
1.0
 37
0.0
 76
     0
330
2
331
2D
1001
ACAD_PSEXT
1000
\\mslklsv1\MSLKLP05
1000
HP LaserJet 5000 Series PCL
1000
CAD
1000
HP LaserJet 5000N
1070
     0
  0
MATERIAL
  5
49
102
{ACAD_XDICTIONARY
360
4A
102
}
102
{ACAD_REACTORS
330
D
102
}
330
D
100
AcDbMaterial
  1
ByBlock
 72
     0
 43
0.0208333333333333
 43
0.0
 43
0.0
 43
0.0
 43
0.0
 43
0.0208333333333333
 43
0.0
 43
0.0
 43
0.0
 43
0.0
 43
1.0
 43
0.0
 43
0.0
 43
0.0
 43
0.0
 43
1.0
 77
     0
 47
0.0208333333333333
 47
0.0
 47
0.0
 47
0.0
 47
0.0
 47
0.0208333333333333
 47
0.0
 47
0.0
 47
0.0
 47
0.0
 47
1.0
 47
0.0
 47
0.0
 47
0.0
 47
0.0
 47
1.0
171
     0
 49
0.0208333333333333
 49
0.0
 49
0.0
 49
0.0
 49
0.0
 49
0.0208333333333333
 49
0.0
 49
0.0
 49
0.0
 49
0.0
 49
1.0
 49
0.0
 49
0.0
 49
0.0
 49
0.0
 49
1.0
175
     0
142
0.0208333333333333
142
0.0
142
0.0
142
0.0
142
0.0
142
0.0208333333333333
142
0.0
142
0.0
142
0.0
142
0.0
142
1.0
142
0.0
142
0.0
142
0.0
142
0.0
142
1.0
179
     0
144
0.0208333333333333
144
0.0
144
0.0
144
0.0
144
0.0
144
0.0208333333333333
144
0.0
144
0.0
144
0.0
144
0.0
144
1.0
144
0.0
144
0.0
144
0.0
144
0.0
144
1.0
147
0.0208333333333333
147
0.0
147
0.0
147
0.0
147
0.0
147
0.0208333333333333
147
0.0
147
0.0
147
0.0
147
0.0
147
1.0
147
0.0
147
0.0
147
0.0
147
0.0
147
1.0
  0
MATERIAL
  5
41
102
{ACAD_XDICTIONARY
360
42
102
}
102
{ACAD_REACTORS
330
D
102
}
330
D
100
AcDbMaterial
  1
ByLayer
 72
     0
 43
0.0208333333333333
 43
0.0
 43
0.0
 43
0.0
 43
0.0
 43
0.0208333333333333
 43
0.0
 43
0.0
 43
0.0
 43
0.0
 43
1.0
 43
0.0
 43
0.0
 43
0.0
 43
0.0
 43
1.0
 77
     0
 47
0.0208333333333333
 47
0.0
 47
0.0
 47
0.0
 47
0.0
 47
0.0208333333333333
 47
0.0
 47
0.0
 47
0.0
 47
0.0
 47
1.0
 47
0.0
 47
0.0
 47
0.0
 47
0.0
 47
1.0
171
     0
 49
0.0208333333333333
 49
0.0
 49
0.0
 49
0.0
 49
0.0
 49
0.0208333333333333
 49
0.0
 49
0.0
 49
0.0
 49
0.0
 49
1.0
 49
0.0
 49
0.0
 49
0.0
 49
0.0
 49
1.0
175
     0
142
0.0208333333333333
142
0.0
142
0.0
142
0.0
142
0.0
142
0.0208333333333333
142
0.0
142
0.0
142
0.0
142
0.0
142
1.0
142
0.0
142
0.0
142
0.0
142
0.0
142
1.0
179
     0
144
0.0208333333333333
144
0.0
144
0.0
144
0.0
144
0.0
144
0.0208333333333333
144
0.0
144
0.0
144
0.0
144
0.0
144
1.0
144
0.0
144
0.0
144
0.0
144
0.0
144
1.0
147
0.0208333333333333
147
0.0
147
0.0
147
0.0
147
0.0
147
0.0208333333333333
147
0.0
147
0.0
147
0.0
147
0.0
147
1.0
147
0.0
147
0.0
147
0.0
147
0.0
147
1.0
  0
MATERIAL
  5
C
102
{ACAD_XDICTIONARY
360
E
102
}
102
{ACAD_REACTORS
330
D
102
}
330
D
100
AcDbMaterial
  1
Global
 72
     0
 43
0.0208333333333333
 43
0.0
 43
0.0
 43
0.0
 43
0.0
 43
0.0208333333333333
 43
0.0
 43
0.0
 43
0.0
 43
0.0
 43
1.0
 43
0.0
 43
0.0
 43
0.0
 43
0.0
 43
1.0
 77
     0
 47
0.0208333333333333
 47
0.0
 47
0.0
 47
0.0
 47
0.0
 47
0.0208333333333333
 47
0.0
 47
0.0
 47
0.0
 47
0.0
 47
1.0
 47
0.0
 47
0.0
 47
0.0
 47
0.0
 47
1.0
171
     0
 49
0.0208333333333333
 49
0.0
 49
0.0
 49
0.0
 49
0.0
 49
0.0208333333333333
 49
0.0
 49
0.0
 49
0.0
 49
0.0
 49
1.0
 49
0.0
 49
0.0
 49
0.0
 49
0.0
 49
1.0
175
     0
142
0.0208333333333333
142
0.0
142
0.0
142
0.0
142
0.0
142
0.0208333333333333
142
0.0
142
0.0
142
0.0
142
0.0
142
1.0
142
0.0
142
0.0
142
0.0
142
0.0
142
1.0
179
     0
144
0.0208333333333333
144
0.0
144
0.0
144
0.0
144
0.0
144
0.0208333333333333
144
0.0
144
0.0
144
0.0
144
0.0
144
1.0
144
0.0
144
0.0
144
0.0
144
0.0
144
1.0
147
0.0208333333333333
147
0.0
147
0.0
147
0.0
147
0.0
147
0.0208333333333333
147
0.0
147
0.0
147
0.0
147
0.0
147
1.0
147
0.0
147
0.0
147
0.0
147
0.0
147
1.0
  0
MLINESTYLE
  5
59
102
{ACAD_REACTORS
330
3F
102
}
330
3F
100
AcDbMlineStyle
  2
STANDARD
 70
     0
  3

 62
     0
 51
90.0
 52
90.0
 71
     2
 49
0.5
 62
   256
  6
BYLAYER
 49
-0.5
 62
   256
  6
BYLAYER
  0
ACDBPLACEHOLDER
  5
9
102
{ACAD_REACTORS
330
A
102
}
330
A
  0
SCALE
  5
5E
102
{ACAD_REACTORS
330
52
102
}
330
52
100
AcDbScale
 70
     0
300
1:1
140
1.0
141
1.0
290
     1
  0
SCALE
  5
5F
102
{ACAD_REACTORS
330
52
102
}
330
52
100
AcDbScale
 70
     0
300
1:2
140
1.0
141
2.0
290
     0
  0
SCALE
  5
60
102
{ACAD_REACTORS
330
52
102
}
330
52
100
AcDbScale
 70
     0
300
1:4
140
1.0
141
4.0
290
     0
  0
SCALE
  5
61
102
{ACAD_REACTORS
330
52
102
}
330
52
100
AcDbScale
 70
     0
300
1:5
140
1.0
141
5.0
290
     0
  0
SCALE
  5
62
102
{ACAD_REACTORS
330
52
102
}
330
52
100
AcDbScale
 70
     0
300
1:8
140
1.0
141
8.0
290
     0
  0
SCALE
  5
63
102
{ACAD_REACTORS
330
52
102
}
330
52
100
AcDbScale
 70
     0
300
1:10
140
1.0
141
10.0
290
     0
  0
SCALE
  5
64
102
{ACAD_REACTORS
330
52
102
}
330
52
100
AcDbScale
 70
     0
300
1:16
140
1.0
141
16.0
290
     0
  0
SCALE
  5
65
102
{ACAD_REACTORS
330
52
102
}
330
52
100
AcDbScale
 70
     0
300
1:20
140
1.0
141
20.0
290
     0
  0
SCALE
  5
66
102
{ACAD_REACTORS
330
52
102
}
330
52
100
AcDbScale
 70
     0
300
1:30
140
1.0
141
30.0
290
     0
  0
SCALE
  5
67
102
{ACAD_REACTORS
330
52
102
}
330
52
100
AcDbScale
 70
     0
300
1:40
140
1.0
141
40.0
290
     0
  0
SCALE
  5
68
102
{ACAD_REACTORS
330
52
102
}
330
52
100
AcDbScale
 70
     0
300
1:50
140
1.0
141
50.0
290
     0
  0
SCALE
  5
69
102
{ACAD_REACTORS
330
52
102
}
330
52
100
AcDbScale
 70
     0
300
1:100
140
1.0
141
100.0
290
     0
  0
SCALE
  5
6A
102
{ACAD_REACTORS
330
52
102
}
330
52
100
AcDbScale
 70
     0
300
2:1
140
2.0
141
1.0
290
     0
  0
SCALE
  5
6B
102
{ACAD_REACTORS
330
52
102
}
330
52
100
AcDbScale
 70
     0
300
4:1
140
4.0
141
1.0
290
     0
  0
SCALE
  5
6C
102
{ACAD_REACTORS
330
52
102
}
330
52
100
AcDbScale
 70
     0
300
8:1
140
8.0
141
1.0
290
     0
  0
SCALE
  5
6D
102
{ACAD_REACTORS
330
52
102
}
330
52
100
AcDbScale
 70
     0
300
10:1
140
10.0
141
1.0
290
     0
  0
SCALE
  5
6E
102
{ACAD_REACTORS
330
52
102
}
330
52
100
AcDbScale
 70
     0
300
100:1
140
100.0
141
1.0
290
     0
  0
ACDBSECTIONVIEWSTYLE
  5
78C
102
{ACAD_XDICTIONARY
360
7DA
102
}
102
{ACAD_REACTORS
330
780
330
78B
102
}
330
780
100
AcDbModelDocViewStyle
 70
     0
  3
Metric50
290
     0
100
AcDbSectionViewStyle
 70
     0
 71
     0
 90
      102
 71
     1
340
25
 62
   256
 40
5.0
340
0
340
0
 62
   256
 40
5.0
300
I, O, Q, S, X, Z
 40
10.0
 90
        0
 40
2.5
 90
        0
 71
     2
340
15
 90
       25
 62
   256
340
15
 90
       50
 62
   256
 40
5.0
 40
2.5
 40
5.0
 71
     3
340
25
 62
   256
 40
5.0
 90
        0
 40
15.0
 90
        1
300
%<\AcVar ViewSectionStartId>%-%<\AcVar ViewSectionEndId>% (%<\AcVar ViewScale \f "%sn">%)
 71
     4
 62
   256
 62
   257
300
ANSI31
 40
1.0
 90
        0
290
     0
290
     0
 90
        6
 40
0.0
 40
1.570796326794896
 40
0.2617993877991494
 40
1.308996938995747
 40
-0.2617993877991494
 40
1.832595714594046
  0
TABLESTYLE
  5
5A
102
{ACAD_XDICTIONARY
360
5B
102
}
102
{ACAD_REACTORS
330
53
102
}
330
53
100
AcDbTableStyle
280
     0
  3
Standard
 70
     0
 71
     0
 40
1.5
 41
1.5
280
     0
281
     0
  7
STANDARD
140
4.5
170
     2
 62
     0
 63
     7
283
     0
 90
        4
 91
        0
  1

274
    -2
284
     1
 64
     0
275
    -2
285
     1
 65
     0
276
    -2
286
     1
 66
     0
277
    -2
287
     1
 67
     0
278
    -2
288
     1
 68
     0
279
    -2
289
     1
 69
     0
  7
STANDARD
140
6.0
170
     5
 62
     0
 63
     7
283
     0
 90
        4
 91
        0
  1

274
    -2
284
     1
 64
     0
275
    -2
285
     1
 65
     0
276
    -2
286
     1
 66
     0
277
    -2
287
     1
 67
     0
278
    -2
288
     1
 68
     0
279
    -2
289
     1
 69
     0
  7
STANDARD
140
4.5
170
     5
 62
     0
 63
     7
283
     0
 90
        4
 91
        0
  1

274
    -2
284
     1
 64
     0
275
    -2
285
     1
 65
     0
276
    -2
286
     1
 66
     0
277
    -2
287
     1
 67
     0
278
    -2
288
     1
 68
     0
279
    -2
289
     1
 69
     0
  0
VISUALSTYLE
  5
2E
102
{ACAD_XDICTIONARY
360
7D2
102
}
102
{ACAD_REACTORS
330
2F
102
}
330
2F
100
AcDbVisualStyle
  2
2dWireframe
 70
     4
177
     2
291
     0
 71
     0
176
     1
 72
     2
176
     1
 73
     0
176
     1
 90
        0
176
     1
 40
0.6
176
     1
 41
30.0
176
     1
 63
     7
421
 16777215
176
     1
 74
     1
176
     1
 91
        4
176
     1
 64
     7
176
     1
 65
   257
176
     1
 75
     1
176
     1
175
     1
176
     1
 42
1.0
176
     1
 92
        0
176
     1
 66
   257
176
     1
 43
1.0
176
     1
 76
     1
176
     1
 77
     6
176
     1
 78
     2
176
     1
 67
     7
176
     1
 79
     5
176
     1
170
     0
176
     1
171
     0
176
     1
290
     0
176
     1
 93
        1
176
     1
 44
0.0
176
     1
173
     0
176
     1
1001
ACAD
1000
AcDbSavedByObjectVersion
1070
     0
  0
VISUALSTYLE
  5
5D
102
{ACAD_XDICTIONARY
360
7D6
102
}
102
{ACAD_REACTORS
330
2F
102
}
330
2F
100
AcDbVisualStyle
  2
3dWireframe
 70
     5
177
     2
291
     0
 71
     0
176
     1
 72
     2
176
     1
 73
     0
176
     1
 90
        0
176
     1
 40
0.6
176
     1
 41
30.0
176
     1
 63
     7
421
 16777215
176
     1
 74
     1
176
     1
 91
        4
176
     1
 64
     7
176
     1
 65
   257
176
     1
 75
     1
176
     1
175
     1
176
     1
 42
1.0
176
     1
 92
        0
176
     1
 66
   257
176
     1
 43
1.0
176
     1
 76
     1
176
     1
 77
     6
176
     1
 78
     2
176
     1
 67
     7
176
     1
 79
     5
176
     1
170
     0
176
     1
171
     0
176
     1
290
     0
176
     1
 93
        1
176
     1
 44
0.0
176
     1
173
     0
176
     1
1001
ACAD
1000
AcDbSavedByObjectVersion
1070
     0
  0
VISUALSTYLE
  5
5C
102
{ACAD_XDICTIONARY
360
7D4
102
}
102
{ACAD_REACTORS
330
2F
102
}
330
2F
100
AcDbVisualStyle
  2
Realistic
 70
     8
177
     2
291
     0
 71
     2
176
     1
 72
     2
176
     1
 73
     0
176
     1
 90
        0
176
     1
 40
0.6
176
     1
 41
30.0
176
     1
 63
     7
421
 16777215
176
     1
 74
     1
176
     1
 91
        0
176
     1
 64
     7
176
     1
 65
   257
176
     1
 75
     1
176
     1
175
     1
176
     1
 42
1.0
176
     1
 92
        8
176
     1
 66
     8
424
  7895160
176
     1
 43
1.0
176
     1
 76
     1
176
     1
 77
     6
176
     1
 78
     2
176
     1
 67
     7
176
     1
 79
     5
176
     1
170
     0
176
     1
171
     0
176
     1
290
     0
176
     1
 93
       13
176
     1
 44
0.0
176
     1
173
     0
176
     1
1001
ACAD
1000
AcDbSavedByObjectVersion
1070
     0
  0
DICTIONARYVAR
  5
7CB
102
{ACAD_REACTORS
330
7C5
102
}
330
7C5
100
DictionaryVariables
280
     0
  1
1:1
  0
DICTIONARYVAR
  5
7C7
102
{ACAD_REACTORS
330
7C5
102
}
330
7C5
100
DictionaryVariables
280
     0
  1
STANDARD
  0
DICTIONARYVAR
  5
7C6
102
{ACAD_REACTORS
330
7C5
102
}
330
7C5
100
DictionaryVariables
280
     0
  1
STANDARD
  0
DICTIONARYVAR
  5
7C8
102
{ACAD_REACTORS
330
7C5
102
}
330
7C5
100
DictionaryVariables
280
     0
  1

  0
DICTIONARYVAR
  5
7C9
102
{ACAD_REACTORS
330
7C5
102
}
330
7C5
100
DictionaryVariables
280
     0
  1

  0
DICTIONARYVAR
  5
7CD
102
{ACAD_REACTORS
330
7C5
102
}
330
7C5
100
DictionaryVariables
280
     0
  1
1
  0
DICTIONARYVAR
  5
7CE
102
{ACAD_REACTORS
330
7C5
102
}
330
7C5
100
DictionaryVariables
280
     0
  1
15
  0
DICTIONARYVAR
  5
7CC
102
{ACAD_REACTORS
330
7C5
102
}
330
7C5
100
DictionaryVariables
280
     0
  1
0
  0
DICTIONARYVAR
  5
7CA
102
{ACAD_REACTORS
330
7C5
102
}
330
7C5
100
DictionaryVariables
280
     0
  1
0
  0
DICTIONARY
  5
762
102
{ACAD_REACTORS
330
761
102
}
330
761
100
AcDbDictionary
281
     1
  0
DICTIONARY
  5
75C
102
{ACAD_REACTORS
330
752
102
}
330
752
100
AcDbDictionary
281
     1
  3
DWGSETTINGS
350
75B
  3
TRANSSETTINGS
350
75D
  0
DICTIONARY
  5
7D8
330
77D
100
AcDbDictionary
280
     1
281
     1
  3
ACAD_XREC_ROUNDTRIP
360
7D9
  0
DICTIONARY
  5
4A
330
49
100
AcDbDictionary
280
     1
281
     1
  3
BUMPTILE
360
4B
  3
DIFFUSETILE
360
4C
  3
OPACITYTILE
360
4D
  3
REFLECTIONTILE
360
4E
  3
REFRACTIONTILE
360
4F
  3
SPECULARTILE
360
50
  0
DICTIONARY
  5
42
330
41
100
AcDbDictionary
280
     1
281
     1
  3
BUMPTILE
360
43
  3
DIFFUSETILE
360
44
  3
OPACITYTILE
360
45
  3
REFLECTIONTILE
360
46
  3
REFRACTIONTILE
360
47
  3
SPECULARTILE
360
48
  0
DICTIONARY
  5
E
330
C
100
AcDbDictionary
280
     1
281
     1
  3
BUMPTILE
360
F
  3
DIFFUSETILE
360
10
  3
OPACITYTILE
360
11
  3
REFLECTIONTILE
360
12
  3
REFRACTIONTILE
360
13
  3
SPECULARTILE
360
14
  0
DICTIONARY
  5
7DA
330
78C
100
AcDbDictionary
280
     1
281
     1
  3
ACAD_XREC_ROUNDTRIP
360
7DB
  0
DICTIONARY
  5
5B
330
5A
100
AcDbDictionary
280
     1
281
     1
  3
ACAD_ROUNDTRIP_2008_TABLESTYLE_CELLSTYLEMAP
360
7CF
  0
DICTIONARY
  5
7D2
330
2E
100
AcDbDictionary
280
     1
281
     1
  3
ACAD_XREC_ROUNDTRIP
360
7D3
  0
DICTIONARY
  5
7D6
330
5D
100
AcDbDictionary
280
     1
281
     1
  3
ACAD_XREC_ROUNDTRIP
360
7D7
  0
DICTIONARY
  5
7D4
330
5C
100
AcDbDictionary
280
     1
281
     1
  3
ACAD_XREC_ROUNDTRIP
360
7D5
  0
XRECORD
  5
7D9
102
{ACAD_REACTORS
330
7D8
102
}
330
7D8
100
AcDbXrecord
280
     1
102
DISPLAYNAME
  1
Metric50
102
FLAGS
 90
        0
  0
XRECORD
  5
4B
102
{ACAD_REACTORS
330
4A
102
}
330
4A
100
AcDbXrecord
280
     1
270
     1
271
     1
  0
XRECORD
  5
4C
102
{ACAD_REACTORS
330
4A
102
}
330
4A
100
AcDbXrecord
280
     1
270
     1
271
     1
  0
XRECORD
  5
4D
102
{ACAD_REACTORS
330
4A
102
}
330
4A
100
AcDbXrecord
280
     1
270
     1
271
     1
  0
XRECORD
  5
4E
102
{ACAD_REACTORS
330
4A
102
}
330
4A
100
AcDbXrecord
280
     1
270
     1
271
     1
  0
XRECORD
  5
4F
102
{ACAD_REACTORS
330
4A
102
}
330
4A
100
AcDbXrecord
280
     1
270
     1
271
     1
  0
XRECORD
  5
50
102
{ACAD_REACTORS
330
4A
102
}
330
4A
100
AcDbXrecord
280
     1
270
     1
271
     1
  0
XRECORD
  5
43
102
{ACAD_REACTORS
330
42
102
}
330
42
100
AcDbXrecord
280
     1
270
     1
271
     1
  0
XRECORD
  5
44
102
{ACAD_REACTORS
330
42
102
}
330
42
100
AcDbXrecord
280
     1
270
     1
271
     1
  0
XRECORD
  5
45
102
{ACAD_REACTORS
330
42
102
}
330
42
100
AcDbXrecord
280
     1
270
     1
271
     1
  0
XRECORD
  5
46
102
{ACAD_REACTORS
330
42
102
}
330
42
100
AcDbXrecord
280
     1
270
     1
271
     1
  0
XRECORD
  5
47
102
{ACAD_REACTORS
330
42
102
}
330
42
100
AcDbXrecord
280
     1
270
     1
271
     1
  0
XRECORD
  5
48
102
{ACAD_REACTORS
330
42
102
}
330
42
100
AcDbXrecord
280
     1
270
     1
271
     1
  0
XRECORD
  5
F
102
{ACAD_REACTORS
330
E
102
}
330
E
100
AcDbXrecord
280
     1
270
     1
271
     1
  0
XRECORD
  5
10
102
{ACAD_REACTORS
330
E
102
}
330
E
100
AcDbXrecord
280
     1
270
     1
271
     1
  0
XRECORD
  5
11
102
{ACAD_REACTORS
330
E
102
}
330
E
100
AcDbXrecord
280
     1
270
     1
271
     1
  0
XRECORD
  5
12
102
{ACAD_REACTORS
330
E
102
}
330
E
100
AcDbXrecord
280
     1
270
     1
271
     1
  0
XRECORD
  5
13
102
{ACAD_REACTORS
330
E
102
}
330
E
100
AcDbXrecord
280
     1
270
     1
271
     1
  0
XRECORD
  5
14
102
{ACAD_REACTORS
330
E
102
}
330
E
100
AcDbXrecord
280
     1
270
     1
271
     1
  0
XRECORD
  5
7DB
102
{ACAD_REACTORS
330
7DA
102
}
330
7DA
100
AcDbXrecord
280
     1
102
DISPLAYNAME
  1
Metric50
102
FLAGS
 90
        0
  0
CELLSTYLEMAP
  5
7CF
102
{ACAD_REACTORS
330
5B
102
}
330
5B
100
AcDbCellStyleMap
 90
        3
300
CELLSTYLE
  1
TABLEFORMAT_BEGIN
 90
        5
170
     1
 91
        0
 92
    32768
 62
   257
 93
        1
300
CONTENTFORMAT
  1
CONTENTFORMAT_BEGIN
 90
        0
 91
        0
 92
        4
 93
        0
300

 40
0.0
140
1.0
 94
        5
 62
     0
340
25
144
6.0
309
CONTENTFORMAT_END
171
     1
301
MARGIN
  1
CELLMARGIN_BEGIN
 40
1.5
 40
1.5
 40
1.5
 40
1.5
 40
0.18
 40
0.18
309
CELLMARGIN_END
 94
        6
 95
        1
302
GRIDFORMAT
  1
GRIDFORMAT_BEGIN
 90
        0
 91
        1
 62
     0
 92
       -2
340
0
 93
        0
 40
0.045
309
GRIDFORMAT_END
 95
        2
302
GRIDFORMAT
  1
GRIDFORMAT_BEGIN
 90
        0
 91
        1
 62
     0
 92
       -2
340
0
 93
        0
 40
0.045
309
GRIDFORMAT_END
 95
        4
302
GRIDFORMAT
  1
GRIDFORMAT_BEGIN
 90
        0
 91
        1
 62
     0
 92
       -2
340
0
 93
        0
 40
0.045
309
GRIDFORMAT_END
 95
        8
302
GRIDFORMAT
  1
GRIDFORMAT_BEGIN
 90
        0
 91
        1
 62
     0
 92
       -2
340
0
 93
        0
 40
0.045
309
GRIDFORMAT_END
 95
       16
302
GRIDFORMAT
  1
GRIDFORMAT_BEGIN
 90
        0
 91
        1
 62
     0
 92
       -2
340
0
 93
        0
 40
0.045
309
GRIDFORMAT_END
 95
       32
302
GRIDFORMAT
  1
GRIDFORMAT_BEGIN
 90
        0
 91
        1
 62
     0
 92
       -2
340
0
 93
        0
 40
0.045
309
GRIDFORMAT_END
309
TABLEFORMAT_END
  1
CELLSTYLE_BEGIN
 90
        1
 91
        1
300
_TITLE
309
CELLSTYLE_END
300
CELLSTYLE
  1
TABLEFORMAT_BEGIN
 90
        5
170
     1
 91
        0
 92
        0
 62
   257
 93
        1
300
CONTENTFORMAT
  1
CONTENTFORMAT_BEGIN
 90
        0
 91
        0
 92
        4
 93
        0
300

 40
0.0
140
1.0
 94
        5
 62
     0
340
25
144
4.5
309
CONTENTFORMAT_END
171
     1
301
MARGIN
  1
CELLMARGIN_BEGIN
 40
1.5
 40
1.5
 40
1.5
 40
1.5
 40
0.18
 40
0.18
309
CELLMARGIN_END
 94
        6
 95
        1
302
GRIDFORMAT
  1
GRIDFORMAT_BEGIN
 90
        0
 91
        1
 62
     0
 92
       -2
340
0
 93
        0
 40
0.045
309
GRIDFORMAT_END
 95
        2
302
GRIDFORMAT
  1
GRIDFORMAT_BEGIN
 90
        0
 91
        1
 62
     0
 92
       -2
340
0
 93
        0
 40
0.045
309
GRIDFORMAT_END
 95
        4
302
GRIDFORMAT
  1
GRIDFORMAT_BEGIN
 90
        0
 91
        1
 62
     0
 92
       -2
340
0
 93
        0
 40
0.045
309
GRIDFORMAT_END
 95
        8
302
GRIDFORMAT
  1
GRIDFORMAT_BEGIN
 90
        0
 91
        1
 62
     0
 92
       -2
340
0
 93
        0
 40
0.045
309
GRIDFORMAT_END
 95
       16
302
GRIDFORMAT
  1
GRIDFORMAT_BEGIN
 90
        0
 91
        1
 62
     0
 92
       -2
340
0
 93
        0
 40
0.045
309
GRIDFORMAT_END
 95
       32
302
GRIDFORMAT
  1
GRIDFORMAT_BEGIN
 90
        0
 91
        1
 62
     0
 92
       -2
340
0
 93
        0
 40
0.045
309
GRIDFORMAT_END
309
TABLEFORMAT_END
  1
CELLSTYLE_BEGIN
 90
        2
 91
        1
300
_HEADER
309
CELLSTYLE_END
300
CELLSTYLE
  1
TABLEFORMAT_BEGIN
 90
        5
170
     1
 91
        0
 92
        0
 62
   257
 93
        1
300
CONTENTFORMAT
  1
CONTENTFORMAT_BEGIN
 90
        0
 91
        0
 92
        4
 93
        0
300

 40
0.0
140
1.0
 94
        2
 62
     0
340
25
144
4.5
309
CONTENTFORMAT_END
171
     1
301
MARGIN
  1
CELLMARGIN_BEGIN
 40
1.5
 40
1.5
 40
1.5
 40
1.5
 40
0.18
 40
0.18
309
CELLMARGIN_END
 94
        6
 95
        1
302
GRIDFORMAT
  1
GRIDFORMAT_BEGIN
 90
        0
 91
        1
 62
     0
 92
       -2
340
0
 93
        0
 40
0.045
309
GRIDFORMAT_END
 95
        2
302
GRIDFORMAT
  1
GRIDFORMAT_BEGIN
 90
        0
 91
        1
 62
     0
 92
       -2
340
0
 93
        0
 40
0.045
309
GRIDFORMAT_END
 95
        4
302
GRIDFORMAT
  1
GRIDFORMAT_BEGIN
 90
        0
 91
        1
 62
     0
 92
       -2
340
0
 93
        0
 40
0.045
309
GRIDFORMAT_END
 95
        8
302
GRIDFORMAT
  1
GRIDFORMAT_BEGIN
 90
        0
 91
        1
 62
     0
 92
       -2
340
0
 93
        0
 40
0.045
309
GRIDFORMAT_END
 95
       16
302
GRIDFORMAT
  1
GRIDFORMAT_BEGIN
 90
        0
 91
        1
 62
     0
 92
       -2
340
0
 93
        0
 40
0.045
309
GRIDFORMAT_END
 95
       32
302
GRIDFORMAT
  1
GRIDFORMAT_BEGIN
 90
        0
 91
        1
 62
     0
 92
       -2
340
0
 93
        0
 40
0.045
309
GRIDFORMAT_END
309
TABLEFORMAT_END
  1
CELLSTYLE_BEGIN
 90
        3
 91
        2
300
_DATA
309
CELLSTYLE_END
  0
XRECORD
  5
7D3
102
{ACAD_REACTORS
330
7D2
102
}
330
7D2
100
AcDbXrecord
280
     1
102
RTVSPost2010Prop28
280
     1
102
RTVSPost2010PropOp28
 70
     1
102
RTVSPost2010Prop29
280
     1
102
RTVSPost2010PropOp29
 70
     1
102
RTVSPost2010Prop30
280
     0
102
RTVSPost2010PropOp30
 70
     1
102
RTVSPost2010Prop31
280
     0
102
RTVSPost2010PropOp31
 70
     1
102
RTVSPost2010Prop32
280
     0
102
RTVSPost2010PropOp32
 70
     1
102
RTVSPost2010Prop33
280
     0
102
RTVSPost2010PropOp33
 70
     1
102
RTVSPost2010Prop34
280
     0
102
RTVSPost2010PropOp34
 70
     1
102
RTVSPost2010Prop35
280
     0
102
RTVSPost2010PropOp35
 70
     1
102
RTVSPost2010Prop36
280
     0
102
RTVSPost2010PropOp36
 70
     1
102
RTVSPost2010Prop37
 90
       50
102
RTVSPost2010PropOp37
 70
     1
102
RTVSPost2010Prop38
140
0.0
102
RTVSPost2010PropOp38
 70
     1
102
RTVSPost2010Prop39
140
1.0
102
RTVSPost2010PropOp39
 70
     1
102
RTVSPost2010Prop40
 90
        0
102
RTVSPost2010PropOp40
 70
     1
102
RTVSPost2010Prop41ColorIndex
 90
       18
102
RTVSPost2010Prop41ColorRGB
 90
        0
102
RTVSPost2010PropOp41
 70
     1
102
RTVSPost2010Prop42
 90
       50
102
RTVSPost2010PropOp42
 70
     1
102
RTVSPost2010Prop43
 90
        3
102
RTVSPost2010PropOp43
 70
     1
102
RTVSPost2010Prop44ColorIndex
 90
        5
102
RTVSPost2010Prop44ColorRGB
 90
      255
102
RTVSPost2010PropOp44
 70
     1
102
RTVSPost2010Prop45
280
     0
102
RTVSPost2010PropOp45
 70
     1
102
RTVSPost2010Prop46
 90
       50
102
RTVSPost2010PropOp46
 70
     1
102
RTVSPost2010Prop47
 90
       50
102
RTVSPost2010PropOp47
 70
     1
102
RTVSPost2010Prop48
 90
       50
102
RTVSPost2010PropOp48
 70
     1
102
RTVSPost2010Prop49
280
     0
102
RTVSPost2010PropOp49
 70
     1
102
RTVSPost2010Prop50
 90
       50
102
RTVSPost2010PropOp50
 70
     1
102
RTVSPost2010Prop51ColorIndex
 90
      256
102
RTVSPost2010Prop51ColorRGB
 90
-16777216
102
RTVSPost2010PropOp51
 70
     0
102
RTVSPost2010Prop52
140
1.0
102
RTVSPost2010PropOp52
 70
     0
102
RTVSPost2010Prop53
 90
        2
102
RTVSPost2010PropOp53
 70
     1
102
RTVSPost2010Prop54
  1
strokes_ogs.tif
102
RTVSPost2010PropOp54
 70
     1
102
RTVSPost2010Prop55
280
     0
102
RTVSPost2010PropOp55
 70
     1
102
RTVSPost2010Prop56
140
1.0
102
RTVSPost2010PropOp56
 70
     1
102
RTVSPost2010Prop57
140
1.0
102
RTVSPost2010PropOp57
 70
     1
  0
XRECORD
  5
7D7
102
{ACAD_REACTORS
330
7D6
102
}
330
7D6
100
AcDbXrecord
280
     1
102
RTVSPost2010Prop28
280
     0
102
RTVSPost2010PropOp28
 70
     1
102
RTVSPost2010Prop29
280
     1
102
RTVSPost2010PropOp29
 70
     1
102
RTVSPost2010Prop30
280
     1
102
RTVSPost2010PropOp30
 70
     1
102
RTVSPost2010Prop31
280
     0
102
RTVSPost2010PropOp31
 70
     1
102
RTVSPost2010Prop32
280
     0
102
RTVSPost2010PropOp32
 70
     1
102
RTVSPost2010Prop33
280
     0
102
RTVSPost2010PropOp33
 70
     1
102
RTVSPost2010Prop34
280
     0
102
RTVSPost2010PropOp34
 70
     1
102
RTVSPost2010Prop35
280
     0
102
RTVSPost2010PropOp35
 70
     1
102
RTVSPost2010Prop36
280
     0
102
RTVSPost2010PropOp36
 70
     1
102
RTVSPost2010Prop37
 90
       50
102
RTVSPost2010PropOp37
 70
     1
102
RTVSPost2010Prop38
140
0.0
102
RTVSPost2010PropOp38
 70
     1
102
RTVSPost2010Prop39
140
1.0
102
RTVSPost2010PropOp39
 70
     1
102
RTVSPost2010Prop40
 90
        0
102
RTVSPost2010PropOp40
 70
     1
102
RTVSPost2010Prop41ColorIndex
 90
       18
102
RTVSPost2010Prop41ColorRGB
 90
        0
102
RTVSPost2010PropOp41
 70
     1
102
RTVSPost2010Prop42
 90
       50
102
RTVSPost2010PropOp42
 70
     1
102
RTVSPost2010Prop43
 90
        3
102
RTVSPost2010PropOp43
 70
     1
102
RTVSPost2010Prop44ColorIndex
 90
        5
102
RTVSPost2010Prop44ColorRGB
 90
      255
102
RTVSPost2010PropOp44
 70
     1
102
RTVSPost2010Prop45
280
     0
102
RTVSPost2010PropOp45
 70
     1
102
RTVSPost2010Prop46
 90
       50
102
RTVSPost2010PropOp46
 70
     1
102
RTVSPost2010Prop47
 90
       50
102
RTVSPost2010PropOp47
 70
     1
102
RTVSPost2010Prop48
 90
       50
102
RTVSPost2010PropOp48
 70
     1
102
RTVSPost2010Prop49
280
     0
102
RTVSPost2010PropOp49
 70
     1
102
RTVSPost2010Prop50
 90
       50
102
RTVSPost2010PropOp50
 70
     1
102
RTVSPost2010Prop51ColorIndex
 90
      256
102
RTVSPost2010Prop51ColorRGB
 90
-16777216
102
RTVSPost2010PropOp51
 70
     0
102
RTVSPost2010Prop52
140
1.0
102
RTVSPost2010PropOp52
 70
     0
102
RTVSPost2010Prop53
 90
        2
102
RTVSPost2010PropOp53
 70
     1
102
RTVSPost2010Prop54
  1
strokes_ogs.tif
102
RTVSPost2010PropOp54
 70
     1
102
RTVSPost2010Prop55
280
     0
102
RTVSPost2010PropOp55
 70
     1
102
RTVSPost2010Prop56
140
1.0
102
RTVSPost2010PropOp56
 70
     1
102
RTVSPost2010Prop57
140
1.0
102
RTVSPost2010PropOp57
 70
     1
  0
XRECORD
  5
7D5
102
{ACAD_REACTORS
330
7D4
102
}
330
7D4
100
AcDbXrecord
280
     1
102
RTVSPost2010Prop28
280
     0
102
RTVSPost2010PropOp28
 70
     1
102
RTVSPost2010Prop29
280
     1
102
RTVSPost2010PropOp29
 70
     1
102
RTVSPost2010Prop30
280
     1
102
RTVSPost2010PropOp30
 70
     1
102
RTVSPost2010Prop31
280
     0
102
RTVSPost2010PropOp31
 70
     1
102
RTVSPost2010Prop32
280
     0
102
RTVSPost2010PropOp32
 70
     1
102
RTVSPost2010Prop33
280
     0
102
RTVSPost2010PropOp33
 70
     1
102
RTVSPost2010Prop34
280
     0
102
RTVSPost2010PropOp34
 70
     1
102
RTVSPost2010Prop35
280
     0
102
RTVSPost2010PropOp35
 70
     1
102
RTVSPost2010Prop36
280
     0
102
RTVSPost2010PropOp36
 70
     1
102
RTVSPost2010Prop37
 90
       50
102
RTVSPost2010PropOp37
 70
     1
102
RTVSPost2010Prop38
140
0.0
102
RTVSPost2010PropOp38
 70
     1
102
RTVSPost2010Prop39
140
1.0
102
RTVSPost2010PropOp39
 70
     1
102
RTVSPost2010Prop40
 90
        0
102
RTVSPost2010PropOp40
 70
     1
102
RTVSPost2010Prop41ColorIndex
 90
       18
102
RTVSPost2010Prop41ColorRGB
 90
        0
102
RTVSPost2010PropOp41
 70
     1
102
RTVSPost2010Prop42
 90
       50
102
RTVSPost2010PropOp42
 70
     1
102
RTVSPost2010Prop43
 90
        3
102
RTVSPost2010PropOp43
 70
     1
102
RTVSPost2010Prop44ColorIndex
 90
        5
102
RTVSPost2010Prop44ColorRGB
 90
      255
102
RTVSPost2010PropOp44
 70
     1
102
RTVSPost2010Prop45
280
     0
102
RTVSPost2010PropOp45
 70
     1
102
RTVSPost2010Prop46
 90
       50
102
RTVSPost2010PropOp46
 70
     1
102
RTVSPost2010Prop47
 90
       50
102
RTVSPost2010PropOp47
 70
     1
102
RTVSPost2010Prop48
 90
       50
102
RTVSPost2010PropOp48
 70
     1
102
RTVSPost2010Prop49
280
     0
102
RTVSPost2010PropOp49
 70
     1
102
RTVSPost2010Prop50
 90
       50
102
RTVSPost2010PropOp50
 70
     1
102
RTVSPost2010Prop51ColorIndex
 90
      256
102
RTVSPost2010Prop51ColorRGB
 90
-16777216
102
RTVSPost2010PropOp51
 70
     0
102
RTVSPost2010Prop52
140
1.0
102
RTVSPost2010PropOp52
 70
     0
102
RTVSPost2010Prop53
 90
        2
102
RTVSPost2010PropOp53
 70
     1
102
RTVSPost2010Prop54
  1
strokes_ogs.tif
102
RTVSPost2010PropOp54
 70
     1
102
RTVSPost2010Prop55
280
     0
102
RTVSPost2010PropOp55
 70
     1
102
RTVSPost2010Prop56
140
1.0
102
RTVSPost2010PropOp56
 70
     1
102
RTVSPost2010Prop57
140
1.0
102
RTVSPost2010PropOp57
 70
     1
  0
ENDSEC
  0
EOF
