  0
SECTION
  2
HEADER
  9
$ACADVER
  1
AC1027
  9
$ACADMAINTVER
 70
    57
  9
$DWGCODEPAGE
  3
ANSI_1252
  9
$LASTSAVEDBY
  1
davsta
  9
$REQUIREDVERSIONS
160
                 0
  9
$INSBASE
 10
0.0
 20
0.0
 30
0.0
  9
$EXTMIN
 10
4.154771859404322
 20
94.91296570500315
 30
0.0
  9
$EXTMAX
 10
204.1980193193317
 20
520.9592679324814
 30
0.0
  9
$LIMMIN
 10
0.0
 20
0.0
  9
$LIMMAX
 10
600.0
 20
700.0
  9
$ORTHOMODE
 70
     1
  9
$REGENMODE
 70
     1
  9
$FILLMODE
 70
     1
  9
$QTEXTMODE
 70
     0
  9
$MIRRTEXT
 70
     1
  9
$LTSCALE
 40
1.0
  9
$ATTMODE
 70
     1
  9
$TEXTSIZE
 40
10.0
  9
$TRACEWID
 40
0.05
  9
$TEXTSTYLE
  7
ARIAL-STANDARD
  9
$CLAYER
  8
0
  9
$CELTYPE
  6
BYLAYER
  9
$CECOLOR
 62
   256
  9
$CELTSCALE
 40
1.0
  9
$DISPSILH
 70
     0
  9
$DIMSCALE
 40
1.0
  9
$DIMASZ
 40
4.0
  9
$DIMEXO
 40
0.0
  9
$DIMDLI
 40
8.0
  9
$DIMRND
 40
0.0
  9
$DIMDLE
 40
0.0
  9
$DIMEXE
 40
1.0
  9
$DIMTP
 40
0.0
  9
$DIMTM
 40
0.0
  9
$DIMTXT
 40
4.349999999999998
  9
$DIMCEN
 40
1.5
  9
$DIMTSZ
 40
0.0
  9
$DIMTOL
 70
     0
  9
$DIMLIM
 70
     0
  9
$DIMTIH
 70
     0
  9
$DIMTOH
 70
     0
  9
$DIMSE1
 70
     0
  9
$DIMSE2
 70
     0
  9
$DIMTAD
 70
     1
  9
$DIMZIN
 70
     8
  9
$DIMBLK
  1

  9
$DIMASO
 70
     1
  9
$DIMSHO
 70
     1
  9
$DIMPOST
  1

  9
$DIMAPOST
  1

  9
$DIMALT
 70
     0
  9
$DIMALTD
 70
     2
  9
$DIMALTF
 40
25.39999999999999
  9
$DIMLFAC
 40
1.0
  9
$DIMTOFL
 70
     1
  9
$DIMTVP
 40
0.0
  9
$DIMTIX
 70
     1
  9
$DIMSOXD
 70
     0
  9
$DIMSAH
 70
     0
  9
$DIMBLK1
  1

  9
$DIMBLK2
  1

  9
$DIMSTYLE
  2
Katalog 09
  9
$DIMCLRD
 70
     2
  9
$DIMCLRE
 70
     2
  9
$DIMCLRT
 70
     3
  9
$DIMTFAC
 40
0.4285714285714287
  9
$DIMGAP
 40
1.0
  9
$DIMJUST
 70
     0
  9
$DIMSD1
 70
     0
  9
$DIMSD2
 70
     0
  9
$DIMTOLJ
 70
     1
  9
$DIMTZIN
 70
     8
  9
$DIMALTZ
 70
     8
  9
$DIMALTTZ
 70
     8
  9
$DIMUPT
 70
     0
  9
$DIMDEC
 70
     2
  9
$DIMTDEC
 70
     2
  9
$DIMALTU
 70
     2
  9
$DIMALTTD
 70
     2
  9
$DIMTXSTY
  7
ARIAL-STANDARD
  9
$DIMAUNIT
 70
     0
  9
$DIMADEC
 70
     0
  9
$DIMALTRND
 40
0.0
  9
$DIMAZIN
 70
     0
  9
$DIMDSEP
 70
    46
  9
$DIMATFIT
 70
     3
  9
$DIMFRAC
 70
     0
  9
$DIMLDRBLK
  1

  9
$DIMLUNIT
 70
     2
  9
$DIMLWD
 70
    -2
  9
$DIMLWE
 70
    -2
  9
$DIMTMOVE
 70
     0
  9
$DIMFXL
 40
1.0
  9
$DIMFXLON
 70
     0
  9
$DIMJOGANG
 40
0.7853981633974483
  9
$DIMTFILL
 70
     0
  9
$DIMTFILLCLR
 70
     0
  9
$DIMARCSYM
 70
     0
  9
$DIMLTYPE
  6

  9
$DIMLTEX1
  6

  9
$DIMLTEX2
  6

  9
$DIMTXTDIRECTION
 70
     0
  9
$LUNITS
 70
     2
  9
$LUPREC
 70
     2
  9
$SKETCHINC
 40
0.1
  9
$FILLETRAD
 40
0.0
  9
$AUNITS
 70
     0
  9
$AUPREC
 70
     0
  9
$MENU
  1
.
  9
$ELEVATION
 40
0.0
  9
$PELEVATION
 40
0.0
  9
$THICKNESS
 40
0.0
  9
$LIMCHECK
 70
     0
  9
$CHAMFERA
 40
0.5
  9
$CHAMFERB
 40
0.5
  9
$CHAMFERC
 40
1.0
  9
$CHAMFERD
 40
0.0
  9
$SKPOLY
 70
     0
  9
$TDCREATE
 40
2451247.394468669
  9
$TDUCREATE
 40
2451247.311135336
  9
$TDUPDATE
 40
2458340.404573241
  9
$TDUUPDATE
 40
2458340.321239907
  9
$TDINDWG
 40
0.2417419560
  9
$TDUSRTIMER
 40
0.2417419097
  9
$USRTIMER
 70
     1
  9
$ANGBASE
 50
0.0
  9
$ANGDIR
 70
     0
  9
$PDMODE
 70
     0
  9
$PDSIZE
 40
0.0
  9
$PLINEWID
 40
0.0
  9
$SPLFRAME
 70
     0
  9
$SPLINETYPE
 70
     6
  9
$SPLINESEGS
 70
     8
  9
$HANDSEED
  5
45F
  9
$SURFTAB1
 70
     6
  9
$SURFTAB2
 70
     6
  9
$SURFTYPE
 70
     6
  9
$SURFU
 70
     6
  9
$SURFV
 70
     6
  9
$UCSBASE
  2

  9
$UCSNAME
  2

  9
$UCSORG
 10
0.0
 20
0.0
 30
0.0
  9
$UCSXDIR
 10
1.0
 20
0.0
 30
0.0
  9
$UCSYDIR
 10
0.0
 20
1.0
 30
0.0
  9
$UCSORTHOREF
  2

  9
$UCSORTHOVIEW
 70
     0
  9
$UCSORGTOP
 10
0.0
 20
0.0
 30
0.0
  9
$UCSORGBOTTOM
 10
0.0
 20
0.0
 30
0.0
  9
$UCSORGLEFT
 10
0.0
 20
0.0
 30
0.0
  9
$UCSORGRIGHT
 10
0.0
 20
0.0
 30
0.0
  9
$UCSORGFRONT
 10
0.0
 20
0.0
 30
0.0
  9
$UCSORGBACK
 10
0.0
 20
0.0
 30
0.0
  9
$PUCSBASE
  2

  9
$PUCSNAME
  2

  9
$PUCSORG
 10
0.0
 20
0.0
 30
0.0
  9
$PUCSXDIR
 10
1.0
 20
0.0
 30
0.0
  9
$PUCSYDIR
 10
0.0
 20
1.0
 30
0.0
  9
$PUCSORTHOREF
  2

  9
$PUCSORTHOVIEW
 70
     0
  9
$PUCSORGTOP
 10
0.0
 20
0.0
 30
0.0
  9
$PUCSORGBOTTOM
 10
0.0
 20
0.0
 30
0.0
  9
$PUCSORGLEFT
 10
0.0
 20
0.0
 30
0.0
  9
$PUCSORGRIGHT
 10
0.0
 20
0.0
 30
0.0
  9
$PUCSORGFRONT
 10
0.0
 20
0.0
 30
0.0
  9
$PUCSORGBACK
 10
0.0
 20
0.0
 30
0.0
  9
$USERI1
 70
     0
  9
$USERI2
 70
     0
  9
$USERI3
 70
     0
  9
$USERI4
 70
     0
  9
$USERI5
 70
     0
  9
$USERR1
 40
0.0
  9
$USERR2
 40
0.0
  9
$USERR3
 40
0.0
  9
$USERR4
 40
0.0
  9
$USERR5
 40
0.0
  9
$WORLDVIEW
 70
     1
  9
$SHADEDGE
 70
     3
  9
$SHADEDIF
 70
    70
  9
$TILEMODE
 70
     1
  9
$MAXACTVP
 70
    48
  9
$PINSBASE
 10
0.0
 20
0.0
 30
0.0
  9
$PLIMCHECK
 70
     0
  9
$PEXTMIN
 10
1.000000000000000E+20
 20
1.000000000000000E+20
 30
1.000000000000000E+20
  9
$PEXTMAX
 10
-1.000000000000000E+20
 20
-1.000000000000000E+20
 30
-1.000000000000000E+20
  9
$PLIMMIN
 10
0.0
 20
0.0
  9
$PLIMMAX
 10
12.0
 20
9.0
  9
$UNITMODE
 70
     0
  9
$VISRETAIN
 70
     1
  9
$PLINEGEN
 70
     0
  9
$PSLTSCALE
 70
     1
  9
$TREEDEPTH
 70
  3020
  9
$CMLSTYLE
  2
STANDARD
  9
$CMLJUST
 70
     0
  9
$CMLSCALE
 40
1.0
  9
$PROXYGRAPHICS
 70
     1
  9
$MEASUREMENT
 70
     1
  9
$CELWEIGHT
370
    -1
  9
$ENDCAPS
280
     0
  9
$JOINSTYLE
280
     0
  9
$LWDISPLAY
290
     0
  9
$INSUNITS
 70
     0
  9
$HYPERLINKBASE
  1

  9
$STYLESHEET
  1

  9
$XEDIT
290
     1
  9
$CEPSNTYPE
380
     0
  9
$PSTYLEMODE
290
     1
  9
$FINGERPRINTGUID
  2
{5F451330-8F26-485D-9F4A-6E64980AD8B1}
  9
$VERSIONGUID
  2
{BC860947-5ECD-4B71-8D8A-0FBA4CD7E231}
  9
$EXTNAMES
290
     1
  9
$PSVPSCALE
 40
0.0
  9
$OLESTARTUP
290
     0
  9
$SORTENTS
280
   127
  9
$INDEXCTL
280
     0
  9
$HIDETEXT
280
     1
  9
$XCLIPFRAME
280
     2
  9
$HALOGAP
280
     0
  9
$OBSCOLOR
 70
   257
  9
$OBSLTYPE
280
     0
  9
$INTERSECTIONDISPLAY
280
     0
  9
$INTERSECTIONCOLOR
 70
   257
  9
$DIMASSOC
280
     1
  9
$PROJECTNAME
  1

  9
$CAMERADISPLAY
290
     0
  9
$LENSLENGTH
 40
50.0
  9
$CAMERAHEIGHT
 40
0.0
  9
$STEPSPERSEC
 40
2.0
  9
$STEPSIZE
 40
6.0
  9
$3DDWFPREC
 40
2.0
  9
$PSOLWIDTH
 40
0.25
  9
$PSOLHEIGHT
 40
4.0
  9
$LOFTANG1
 40
1.570796326794896
  9
$LOFTANG2
 40
1.570796326794896
  9
$LOFTMAG1
 40
0.0
  9
$LOFTMAG2
 40
0.0
  9
$LOFTPARAM
 70
     7
  9
$LOFTNORMALS
280
     1
  9
$LATITUDE
 40
37.795
  9
$LONGITUDE
 40
-122.394
  9
$NORTHDIRECTION
 40
0.0
  9
$TIMEZONE
 70
 -8000
  9
$LIGHTGLYPHDISPLAY
280
     1
  9
$TILEMODELIGHTSYNCH
280
     1
  9
$CMATERIAL
347
3D
  9
$SOLIDHIST
280
     0
  9
$SHOWHIST
280
     1
  9
$DWFFRAME
280
     2
  9
$DGNFRAME
280
     0
  9
$REALWORLDSCALE
290
     1
  9
$INTERFERECOLOR
 62
     1
  9
$INTERFEREOBJVS
345
54
  9
$INTERFEREVPVS
346
55
  9
$CSHADOW
280
     0
  9
$SHADOWPLANELOCATION
 40
0.0
  0
ENDSEC
  0
SECTION
  2
CLASSES
  0
CLASS
  1
ACDBDICTIONARYWDFLT
  2
AcDbDictionaryWithDefault
  3
ObjectDBX Classes
 90
        0
 91
        1
280
     0
281
     0
  0
CLASS
  1
TABLESTYLE
  2
AcDbTableStyle
  3
ObjectDBX Classes
 90
     4095
 91
        1
280
     0
281
     0
  0
CLASS
  1
ACME_DOCUMENT
  2
AcMeDbDoc
  3
AcMeServices
 90
     1024
 91
        1
280
     0
281
     0
  0
CLASS
  1
AMGSETTINGSOBJ
  2
AmgSettingsObj
  3
"AcadM|Product Description: AutoCAD Mechanical|Company: Autodesk, Inc."
 90
     1024
 91
        2
280
     0
281
     0
  0
CLASS
  1
ACMESCOPE
  2
AcMeScope
  3
AcMeServices
 90
     1024
 91
        1
280
     0
281
     0
  0
CLASS
  1
ACMECOMMANDHISTORY
  2
AcMeCommandHistory
  3
AcMeServices
 90
     1024
 91
        1
280
     0
281
     0
  0
CLASS
  1
ACIMSYSVARMAN
  2
AcImSysVarManager
  3
AcMeServices
 90
     1024
 91
        3
280
     0
281
     0
  0
CLASS
  1
ACIMINTSYSVAR
  2
AcImIntSysVar
  3
AcMeServices
 90
     1024
 91
        3
280
     0
281
     0
  0
CLASS
  1
ACMEDRAWINGMAN
  2
AcMeDrawingMan
  3
AcMeServices
 90
     1024
 91
        0
280
     0
281
     0
  0
CLASS
  1
ACMEVIEW
  2
AcMeView
  3
AcMeServices
 90
     1024
 91
        0
280
     0
281
     0
  0
CLASS
  1
ACDBENTITYCACHE
  2
AcMeEntityCache
  3
AcMeServices
 90
     1024
 91
        1
280
     0
281
     0
  0
CLASS
  1
GSMANAGER
  2
AcMeGSManager
  3
AcMeServices
 90
     1024
 91
        0
280
     1
281
     0
  0
CLASS
  1
AMDTINTERNALREACTOR
  2
AmdtInternalReactor
  3
AcMeServices
 90
     1024
 91
        0
280
     0
281
     0
  0
CLASS
  1
ACMESTATEMGR
  2
AcMeStateMgr
  3
AcMeServices
 90
     1024
 91
        1
280
     0
281
     0
  0
CLASS
  1
ACGREFMASTER
  2
AcGrefMaster
  3
AcAttribServices
 90
     1024
 91
        1
280
     0
281
     0
  0
CLASS
  1
AM_DRAWING_MGR
  2
AcDmDwgMgr
  3
AcMechDwgViewMgmt
 90
     1024
 91
        0
280
     0
281
     0
  0
CLASS
  1
AM_DWG_DOCUMENT
  2
AcDmDwgDocument
  3
AcMechDwgViewMgmt
 90
     1024
 91
        0
280
     0
281
     0
  0
CLASS
  1
AM_DWG_SHEET
  2
AcDmSheet
  3
AcMechDwgViewMgmt
 90
     1024
 91
        0
280
     0
281
     0
  0
CLASS
  1
AM_VIEWDIMPARMAP
  2
AcDmViewDimParMap
  3
AcMechDwgViewMgmt
 90
     1024
 91
        0
280
     0
281
     0
  0
CLASS
  1
ACIMREALSYSVAR
  2
AcImRealSysVar
  3
AcMeServices
 90
     1024
 91
        0
280
     0
281
     0
  0
CLASS
  1
AM_DWGMGR_NAME
  2
AcDmDwgMgrName
  3
AcMechDwgViewMgmt
 90
     1024
 91
        0
280
     0
281
     0
  0
CLASS
  1
ACME_DATABASE
  2
AcMeDbDatabase
  3
AcMeServices
 90
     1024
 91
        1
280
     0
281
     0
  0
CLASS
  1
ACRFINSADJUSTERMGR
  2
AcRfInsAdjusterMgr
  3
AcMeServices
 90
     1024
 91
        1
280
     0
281
     0
  0
CLASS
  1
ACGREFACADMASTER
  2
AcGrefacadMaster
  3
AcGrefServices
 90
     1024
 91
        1
280
     0
281
     0
  0
CLASS
  1
AMDTMENUSTATEMGR
  2
AmdtMenuStateMgr
  3
McadcomServices
 90
     1024
 91
        1
280
     0
281
     0
  0
CLASS
  1
AMDTMCOMMENUSTATE
  2
AmdtMcomMenuState
  3
McadcomServices
 90
     1024
 91
        1
280
     0
281
     0
  0
CLASS
  1
AMIMASTER
  2
AmiMaster
  3
AmiServices
 90
     1024
 91
        1
280
     0
281
     0
  0
CLASS
  1
MAPIAMMOUDLE
  2
MApiAmModule
  3
MApiAmServices
 90
     1024
 91
        1
280
     0
281
     0
  0
CLASS
  1
ACIMSTRSYSVAR
  2
AcImStrSysVar
  3
AcMeServices
 90
     1024
 91
        5
280
     0
281
     0
  0
CLASS
  1
AMDTADMENUSTATE
  2
AmdtAdMenuState
  3
DesignerServices
 90
     1024
 91
        0
280
     1
281
     0
  0
CLASS
  1
ADAPPL
  2
AcAdAppl
  3
DesignerAssemblies
 90
     1024
 91
        0
280
     0
281
     0
  0
CLASS
  1
DEPMGR
  2
AcAdDepMgr
  3
DesignerAssemblies
 90
     1024
 91
        0
280
     0
281
     0
  0
CLASS
  1
PARAMMGR
  2
AcAdParamMgr
  3
DesignerAssemblies
 90
     1024
 91
        0
280
     0
281
     0
  0
CLASS
  1
PARAMSCOPE
  2
AcAdParamScope
  3
DesignerAssemblies
 90
     1024
 91
        0
280
     0
281
     0
  0
CLASS
  1
NAMEDAPPL
  2
AcAdNamedAppl
  3
DesignerAssemblies
 90
     1024
 91
        0
280
     0
281
     0
  0
CLASS
  1
AMDTDMMENUSTATE
  2
AmdtDmMenuState
  3
AcMechDwgViewMgmt
 90
     1024
 91
        0
280
     0
281
     0
  0
CLASS
  1
AMDTAMMENUSTATE
  2
AmdtAmMenuState
  3
DesignerAssemblies
 90
     1024
 91
        1
280
     0
281
     0
  0
CLASS
  1
ACAMPROJECT
  2
AcAmProject
  3
DesignerAssemblies
 90
     1024
 91
        1
280
     0
281
     0
  0
CLASS
  1
ACAMGRCOMPDEF
  2
AcAmGrCompDef
  3
DesignerAssemblies
 90
     1024
 91
        1
280
     0
281
     0
  0
CLASS
  1
ACCMCONTEXT
  2
AcCmContext
  3
DesignerAssemblies
 90
     1024
 91
        0
280
     0
281
     0
  0
CLASS
  1
ACAMCOMPDEF
  2
AcAmCompDef
  3
DesignerAssemblies
 90
     1024
 91
        1
280
     0
281
     0
  0
CLASS
  1
ACAMCOMPDEFMGR
  2
AcAmCompDefMgr
  3
DesignerAssemblies
 90
     1024
 91
        1
280
     0
281
     0
  0
CLASS
  1
AMCONTEXTMGR
  2
AcAmContextMgr
  3
DesignerAssemblies
 90
     1024
 91
        1
280
     0
281
     0
  0
CLASS
  1
ACAMCONTEXTMODELER
  2
AcAmContextModeler
  3
DesignerAssemblies
 90
     1024
 91
        1
280
     0
281
     0
  0
CLASS
  1
ACMDATADICTIONARY
  2
AcmDataDictionary
  3
"AcmSymBB|Product Description: AutoCAD Mechanical|Company: Autodesk, Inc."
 90
     1024
 91
        1
280
     0
281
     0
  0
CLASS
  1
CATALOGSTATE
  2
AcAmCatalogState
  3
DesignerAssemblies
 90
     1024
 91
        0
280
     0
281
     0
  0
CLASS
  1
ACAMGRCOMPDEFSET
  2
AcAmGrCompDefSet
  3
DesignerAssemblies
 90
     1024
 91
        1
280
     0
281
     0
  0
CLASS
  1
AMDTBROWSERDBTAB
  2
AmdtBrowserDbTab
  3
McadcomServices
 90
     1024
 91
        1
280
     0
281
     0
  0
CLASS
  1
CBROWSERAPPOBJECT
  2
CBrowserAppObject
  3
McadcomServices
 90
     1024
 91
        2
280
     0
281
     0
  0
CLASS
  1
DM_PLACEHOLDER
  2
AcDmSelsetPlaceholder
  3
McadcomServices
 90
     1024
 91
        1
280
     0
281
     0
  0
CLASS
  1
ACMSTANDARDDIN
  2
AcmStandardDIN
  3
"Amdt_StdImp|Product Description: AutoCAD Mechanical|Company: Autodesk, Inc."
 90
     1024
 91
        1
280
     0
281
     0
  0
CLASS
  1
AMGOBJPROPCFG
  2
AmgObjPropCfg
  3
"AmgLay|Product Description: AutoCAD Mechanical|Company: Autodesk, Inc."
 90
     1024
 91
        1
280
     0
281
     0
  0
CLASS
  1
AMDTEDGESTANDARDDIN13715
  2
AmdtEdgeStdDIN13715
  3
"Amdt_StdImp|Product Description: AutoCAD Mechanical|Company: Autodesk, Inc."
 90
     1024
 91
        1
280
     0
281
     0
  0
CLASS
  1
ACMSURFSTANDARDDIN
  2
AcmSurfTextStdDIN
  3
"Amdt_StdImp|Product Description: AutoCAD Mechanical|Company: Autodesk, Inc."
 90
     1024
 91
        0
280
     0
281
     0
  0
CLASS
  1
ACMFCFSTANDARDDIN
  2
AcmFCFStdDIN
  3
"Amdt_StdImp|Product Description: AutoCAD Mechanical|Company: Autodesk, Inc."
 90
     1024
 91
        0
280
     0
281
     0
  0
CLASS
  1
ACMWELDSTANDARDDIN
  2
AcmWeldingStdDIN
  3
"Amdt_StdImp|Product Description: AutoCAD Mechanical|Company: Autodesk, Inc."
 90
     1024
 91
        1
280
     0
281
     0
  0
CLASS
  1
ACMIDSTANDARDDIN
  2
AcmIdStdDIN
  3
"Amdt_StdImp|Product Description: AutoCAD Mechanical|Company: Autodesk, Inc."
 90
     1024
 91
        0
280
     0
281
     0
  0
CLASS
  1
ACMDATUMSTANDARDDIN
  2
AcmDatumStdDIN
  3
"Amdt_StdImp|Product Description: AutoCAD Mechanical|Company: Autodesk, Inc."
 90
     1024
 91
        1
280
     0
281
     0
  0
CLASS
  1
ACMBOMSTANDARDDIN
  2
AcmBOMStdDIN
  3
"Amdt_StdImp|Product Description: AutoCAD Mechanical|Company: Autodesk, Inc."
 90
     1024
 91
        1
280
     0
281
     0
  0
CLASS
  1
ACMDETAILSTANDARDDIN
  2
AmdtDetailSymStdDIN
  3
"Amdt_StdImp|Product Description: AutoCAD Mechanical|Company: Autodesk, Inc."
 90
     1024
 91
        1
280
     0
281
     0
  0
CLASS
  1
ACMSECTIONSTANDARDDIN
  2
AmdtSectionSymStdDIN
  3
"Amdt_StdImp|Product Description: AutoCAD Mechanical|Company: Autodesk, Inc."
 90
     1024
 91
        1
280
     0
281
     0
  0
CLASS
  1
ACMCENTERLINESTANDARDDIN
  2
AmdtCenterLineStdDIN
  3
"Amdt_StdImp|Product Description: AutoCAD Mechanical|Company: Autodesk, Inc."
 90
     1024
 91
        1
280
     0
281
     0
  0
CLASS
  1
ACMTHREADLINESTANDARDDIN
  2
AmdtThreadLineStdDIN
  3
"Amdt_StdImp|Product Description: AutoCAD Mechanical|Company: Autodesk, Inc."
 90
     1024
 91
        1
280
     0
281
     0
  0
CLASS
  1
ACMNOTESTANDARDDIN
  2
AmdtNoteStdDIN
  3
"Amdt_StdImp|Product Description: AutoCAD Mechanical|Company: Autodesk, Inc."
 90
     1024
 91
        1
280
     0
281
     0
  0
CLASS
  1
AMDTNOTETEMPLATEDB
  2
AmdtNoteTemplateDB
  3
AcmSymBB|Product Description: AutoCAD Mechanical|Company: Autodesk, Inc.
 90
     1024
 91
        7
280
     0
281
     0
  0
CLASS
  1
ACAMGLAYSTD
  2
AcAmgLayStd
  3
"AmgLay|Product Description: AutoCAD Mechanical|Company: Autodesk, Inc."
 90
     1024
 91
        1
280
     0
281
     0
  0
CLASS
  1
ACAMGDIMSTD
  2
AcAmgDimStd
  3
"AmgDim|Product Description: AutoCAD Mechanical|Company: Autodesk, Inc."
 90
     1024
 91
        1
280
     0
281
     0
  0
CLASS
  1
ACAMGHOLECHARTSTDDIN
  2
AcAmgHoleChartStdDIN
  3
AmgDim|Product Description: AutoCAD Mechanical|Company: Autodesk, Inc.
 90
     1024
 91
        1
280
     0
281
     0
  0
CLASS
  1
ACAMGTITLESTD
  2
AcAmgTitleStd
  3
"AmgTitle|Product Description: AutoCAD Mechanical|Company: Autodesk, Inc."
 90
     1024
 91
        1
280
     0
281
     0
  0
CLASS
  1
DICTIONARYVAR
  2
AcDbDictionaryVar
  3
ObjectDBX Classes
 90
        0
 91
       14
280
     0
281
     0
  0
CLASS
  1
ACAMGFILTERDAT
  2
AcAmgFilterDat
  3
"AcadM|Product Description: AutoCAD Mechanical|Company: Autodesk, Inc."
 90
     1024
 91
        6
280
     0
281
     0
  0
CLASS
  1
ACMDATAENTRYBLOCK
  2
AcmDataEntryBlock
  3
AcmSymBB|Product Description: AutoCAD Mechanical|Company: Autodesk, Inc.
 90
     1024
 91
        0
280
     0
281
     0
  0
CLASS
  1
PLOTSETTINGS
  2
AcDbPlotSettings
  3
ObjectDBX Classes
 90
        0
 91
        0
280
     0
281
     0
  0
CLASS
  1
SORTENTSTABLE
  2
AcDbSortentsTable
  3
ObjectDBX Classes
 90
        0
 91
        1
280
     0
281
     0
  0
CLASS
  1
MATERIAL
  2
AcDbMaterial
  3
ObjectDBX Classes
 90
     1153
 91
        3
280
     0
281
     0
  0
CLASS
  1
VISUALSTYLE
  2
AcDbVisualStyle
  3
ObjectDBX Classes
 90
     4095
 91
       24
280
     0
281
     0
  0
CLASS
  1
SCALE
  2
AcDbScale
  3
ObjectDBX Classes
 90
     1153
 91
       17
280
     0
281
     0
  0
CLASS
  1
MLEADERSTYLE
  2
AcDbMLeaderStyle
  3
ACDB_MLEADERSTYLE_CLASS
 90
     4095
 91
        1
280
     0
281
     0
  0
CLASS
  1
ACMTAPERSTANDARDDIN
  2
AcmTaperStdDIN
  3
"Amdt_StdImp|Product Description: AutoCAD Mechanical|Company: Autodesk, Inc."
 90
     1024
 91
        1
280
     0
281
     0
  0
CLASS
  1
ACMANOOTATIONVIEWSTANDARDDIN
  2
AmdtAnViewStdDIN
  3
"Amdt_StdImp|Product Description: AutoCAD Mechanical|Company: Autodesk, Inc."
 90
     1024
 91
        1
280
     0
281
     0
  0
CLASS
  1
CAMSSTRUCTBTNSTATE
  2
StructBtnState
  3
DesignerAssemblies
 90
     1024
 91
        0
280
     0
281
     0
  0
CLASS
  1
CELLSTYLEMAP
  2
AcDbCellStyleMap
  3
ObjectDBX Classes
 90
     1152
 91
        2
280
     0
281
     0
  0
CLASS
  1
MULTILEADER
  2
AcDbMLeader
  3
ACDB_MLEADER_CLASS
 90
     1025
 91
        2
280
     0
281
     1
  0
CLASS
  1
ACRFATTGENMGR
  2
AcRfAttGeneralMgr
  3
AcAttribServices
 90
     1024
 91
        0
280
     0
281
     0
  0
CLASS
  1
ACRFMCADAPIATTHOLDER
  2
AcRfMCADAPIAttHolder
  3
AcAttribServices
 90
     1024
 91
        0
280
     0
281
     0
  0
CLASS
  1
AMDTSYSATTR
  2
AmdtSystemAttribute
  3
AcAttribServices
 90
     1024
 91
        0
280
     0
281
     0
  0
CLASS
  1
ACDBSECTIONVIEWSTYLE
  2
AcDbSectionViewStyle
  3
ObjectDBX Classes
 90
     1025
 91
        2
280
     0
281
     0
  0
CLASS
  1
ACDBDETAILVIEWSTYLE
  2
AcDbDetailViewStyle
  3
ObjectDBX Classes
 90
     1025
 91
        2
280
     0
281
     0
  0
CLASS
  1
ACMSURFSTANDARDDIN2002
  2
AcmSurfTextStdDIN2002
  3
"Amdt_StdImp|Product Description: AutoCAD Mechanical|Company: Autodesk, Inc."
 90
     1024
 91
        1
280
     0
281
     0
  0
CLASS
  1
ACMFCFSTANDARDDIN2008
  2
AcmFCFStdDIN2008
  3
"Amdt_StdImp|Product Description: AutoCAD Mechanical|Company: Autodesk, Inc."
 90
     1024
 91
        1
280
     0
281
     0
  0
CLASS
  1
ACMIDSTANDARDDIN2008
  2
AcmIdStdDIN2008
  3
"Amdt_StdImp|Product Description: AutoCAD Mechanical|Company: Autodesk, Inc."
 90
     1024
 91
        1
280
     0
281
     0
  0
CLASS
  1
ACMSECTIONSTANDARDCUSTOM
  2
AmdtSectionSymStdCustom
  3
"Amdt_StdImp|Product Description: AutoCAD Mechanical|Company: Autodesk, Inc."
 90
     1024
 91
        1
280
     0
281
     0
  0
CLASS
  1
ACMDETAILTANDARDCUSTOM
  2
AmdtDetailSymStdCustom
  3
"Amdt_StdImp|Product Description: AutoCAD Mechanical|Company: Autodesk, Inc."
 90
     1024
 91
        1
280
     0
281
     0
  0
CLASS
  1
FIELD
  2
AcDbField
  3
ObjectDBX Classes
 90
     1152
 91
        6
280
     0
281
     0
  0
CLASS
  1
FIELDLIST
  2
AcDbFieldList
  3
ObjectDBX Classes
 90
     1152
 91
        1
280
     0
281
     0
  0
ENDSEC
  0
SECTION
  2
TABLES
  0
TABLE
  2
VPORT
  5
2C
330
0
100
AcDbSymbolTable
 70
     1
  0
VPORT
  5
2D
330
2C
100
AcDbSymbolTableRecord
100
AcDbViewportTableRecord
  2
*Active
 70
     0
 10
0.0
 20
0.0
 11
1.0
 21
1.0
 12
91.3074130127593
 22
315.984509063636
 13
0.0
 23
0.0
 14
10.0
 24
10.0
 15
10.0
 25
10.0
 16
0.0
 26
0.0
 36
1.0
 17
0.0
 27
0.0
 37
0.0
 40
529.1505533348665
 41
1.989317995069843
 42
50.0
 43
0.0
 44
0.0
 50
0.0
 51
0.0
 71
     0
 72
  5000
 73
     1
 74
     0
 75
     0
 76
     0
 77
     0
 78
     0
281
     0
 65
     0
110
0.0
120
0.0
130
0.0
111
1.0
121
0.0
131
0.0
112
0.0
122
1.0
132
0.0
 79
     0
146
0.0
348
2E
 60
     3
 61
     5
292
     1
282
     1
141
0.0
142
0.0
 63
   250
421
  3355443
1001
ACAD_NAV_VCDISPLAY
1070
     3
  0
ENDTAB
  0
TABLE
  2
LTYPE
  5
27
330
0
100
AcDbSymbolTable
 70
    16
  0
LTYPE
  5
28
330
27
100
AcDbSymbolTableRecord
100
AcDbLinetypeTableRecord
  2
BYBLOCK
 70
     0
  3

 72
    65
 73
     0
 40
0.0
  0
LTYPE
  5
29
330
27
100
AcDbSymbolTableRecord
100
AcDbLinetypeTableRecord
  2
BYLAYER
 70
     0
  3

 72
    65
 73
     0
 40
0.0
  0
LTYPE
  5
15
330
27
100
AcDbSymbolTableRecord
100
AcDbLinetypeTableRecord
  2
CONTINUOUS
 70
     0
  3
Solid line
 72
    65
 73
     0
 40
0.0
  0
LTYPE
  5
BC
330
27
100
AcDbSymbolTableRecord
100
AcDbLinetypeTableRecord
  2
STRICHPUNKT2
 70
     0
  3
Strichpunkt (.5x) _._._._._._._._._._._._._._._
 72
    65
 73
     4
 40
12.7
 49
6.349999999999998
 74
     0
 49
-3.174999999999998
 74
     0
 49
0.0
 74
     0
 49
-3.174999999999998
 74
     0
  0
LTYPE
  5
31A
330
27
100
AcDbSymbolTableRecord
100
AcDbLinetypeTableRecord
  2
AM_ISO02W050
 70
     0
  3
__ __ __ __ __ __ __ __ __ __ __ __ __ __ __
 72
    65
 73
     2
 40
7.5
 49
6.0
 74
     0
 49
-1.5
 74
     0
  0
LTYPE
  5
334
330
27
100
AcDbSymbolTableRecord
100
AcDbLinetypeTableRecord
  2
AM_DIN_G_W050
 70
     0
  3
____ . ____ . ____ . ____ . ____ . ____ . ____
 72
    65
 73
     4
 40
13.75
 49
9.75
 74
     0
 49
-1.5
 74
     0
 49
1.0
 74
     0
 49
-1.5
 74
     0
  0
LTYPE
  5
32B
330
27
100
AcDbSymbolTableRecord
100
AcDbLinetypeTableRecord
  2
ACDINWELD
 70
     0
  3
_ _ _ _ _
 72
    65
 73
     2
 40
2.0
 49
2.0
 74
     0
 49
-1.0
 74
     0
  0
LTYPE
  5
32E
330
27
100
AcDbSymbolTableRecord
100
AcDbLinetypeTableRecord
  2
ACDINTGB
 70
     0
  3
__ . . __ . .
 72
    65
 73
     6
 40
9.0
 49
4.0
 74
     0
 49
-1.0
 74
     0
 49
1.0
 74
     0
 49
-1.0
 74
     0
 49
1.0
 74
     0
 49
-1.0
 74
     0
  0
LTYPE
  5
32F
330
27
100
AcDbSymbolTableRecord
100
AcDbLinetypeTableRecord
  2
ACDINTGL
 70
     0
  3
_ _ _ _ _
 72
    65
 73
     2
 40
3.0
 49
2.0
 74
     0
 49
-1.0
 74
     0
  0
LTYPE
  5
315
330
27
100
AcDbSymbolTableRecord
100
AcDbLinetypeTableRecord
  2
gen3
 70
     0
  3
-- -- -- -- -- -- -- -- -- -- -- -- -- -- --
 72
    65
 73
     2
 40
6.25
 49
4.75
 74
     0
 49
-1.5
 74
     0
  0
LTYPE
  5
316
330
27
100
AcDbSymbolTableRecord
100
AcDbLinetypeTableRecord
  2
gen7
 70
     0
  3
____ . ____ . ____ . ____ . ____ . ____ . ____
 72
    65
 73
     4
 40
13.75
 49
9.75
 74
     0
 49
-1.5
 74
     0
 49
1.0
 74
     0
 49
-1.5
 74
     0
  0
LTYPE
  5
317
330
27
100
AcDbSymbolTableRecord
100
AcDbLinetypeTableRecord
  2
gen3a
 70
     0
  3
 - - - - -
 72
    65
 73
     2
 40
3.125
 49
2.25
 74
     0
 49
-0.875
 74
     0
  0
LTYPE
  5
318
330
27
100
AcDbSymbolTableRecord
100
AcDbLinetypeTableRecord
  2
gen7a
 70
     0
  3
__ . __ . __
 72
    65
 73
     4
 40
6.875
 49
4.75
 74
     0
 49
-0.875
 74
     0
 49
0.375
 74
     0
 49
-0.875
 74
     0
  0
LTYPE
  5
319
330
27
100
AcDbSymbolTableRecord
100
AcDbLinetypeTableRecord
  2
gen4a
 70
     0
  3
_____ . . _____ . . _____ . . ____ .. ____
 72
    65
 73
     6
 40
16.25
 49
9.75
 74
     0
 49
-1.5
 74
     0
 49
1.0
 74
     0
 49
-1.5
 74
     0
 49
1.0
 74
     0
 49
-1.5
 74
     0
  0
LTYPE
  5
31B
330
27
100
AcDbSymbolTableRecord
100
AcDbLinetypeTableRecord
  2
genzigzag
 70
     0
  3
/\/-/\/-/\/-/\/-/\/-/\/
 72
    65
 73
     2
 40
12.0001
 49
0.0001
 74
     4
 75
   135
340
31C
 46
2.0
 50
0.0
 44
0.0
 45
0.0
 49
-12.0
 74
     0
  0
LTYPE
  5
364
330
27
100
AcDbSymbolTableRecord
100
AcDbLinetypeTableRecord
  2
HIDDEN
 70
     0
  3
Verdeckt
 72
    65
 73
     2
 40
9.525
 49
6.349999999999998
 74
     0
 49
-3.174999999999998
 74
     0
  0
LTYPE
  5
365
330
27
100
AcDbSymbolTableRecord
100
AcDbLinetypeTableRecord
  2
PHANTOM2
 70
     0
  3
Phantom (.5x) ___ _ _ ___ _ _ ___ _ _ ___ _ _
 72
    65
 73
     6
 40
31.75
 49
15.875
 74
     0
 49
-3.174999999999998
 74
     0
 49
3.174999999999998
 74
     0
 49
-3.174999999999998
 74
     0
 49
3.174999999999998
 74
     0
 49
-3.174999999999998
 74
     0
  0
LTYPE
  5
366
330
27
100
AcDbSymbolTableRecord
100
AcDbLinetypeTableRecord
  2
CENTER
 70
     0
  3
Mitte ____ _ ____ _ ____ _ ____ _ ____ _ ____
 72
    65
 73
     4
 40
50.8
 49
31.75
 74
     0
 49
-6.349999999999998
 74
     0
 49
6.349999999999998
 74
     0
 49
-6.349999999999998
 74
     0
  0
ENDTAB
  0
TABLE
  2
LAYER
  5
1E
102
{ACAD_XDICTIONARY
360
1F
102
}
330
0
100
AcDbSymbolTable
 70
     7
  0
LAYER
  5
6
102
{ACAD_XDICTIONARY
360
7
102
}
330
1E
100
AcDbSymbolTableRecord
100
AcDbLayerTableRecord
  2
0
 70
     0
 62
     7
  6
CONTINUOUS
370
    -3
390
9
347
C
348
0
  0
LAYER
  5
68
102
{ACAD_XDICTIONARY
360
69
102
}
330
1E
100
AcDbSymbolTableRecord
100
AcDbLayerTableRecord
  2
BEMASSUNG
 70
     0
 62
     2
  6
CONTINUOUS
370
    -3
390
9
347
C
348
0
  0
LAYER
  5
B9
102
{ACAD_XDICTIONARY
360
BA
102
}
330
1E
100
AcDbSymbolTableRecord
100
AcDbLayerTableRecord
  2
ACHSEN
 70
     0
 62
     1
  6
STRICHPUNKT2
370
    -3
390
9
347
C
348
0
  0
LAYER
  5
7B
102
{ACAD_XDICTIONARY
360
7C
102
}
330
1E
100
AcDbSymbolTableRecord
100
AcDbLayerTableRecord
  2
LAYER3
 70
     0
 62
     4
  6
CONTINUOUS
370
    -3
390
9
347
C
348
0
  0
LAYER
  5
76
330
1E
100
AcDbSymbolTableRecord
100
AcDbLayerTableRecord
  2
DEFPOINTS
 70
     0
 62
     7
  6
CONTINUOUS
290
     0
370
    -3
390
9
347
C
348
0
  0
LAYER
  5
2EB
102
{ACAD_XDICTIONARY
360
2EC
102
}
330
1E
100
AcDbSymbolTableRecord
100
AcDbLayerTableRecord
  2
Sichtbare Kanten(MSL)
 70
     0
 62
     7
  6
CONTINUOUS
370
    50
390
9
347
C
348
0
  0
LAYER
  5
416
330
1E
100
AcDbSymbolTableRecord
100
AcDbLayerTableRecord
  2
AM_5
 70
     0
 62
     3
  6
CONTINUOUS
370
    25
390
9
347
C
348
0
1001
AcAecLayerStandard
1000

1000

  0
ENDTAB
  0
TABLE
  2
STYLE
  5
24
330
0
100
AcDbSymbolTable
 70
     5
  0
STYLE
  5
25
330
24
100
AcDbSymbolTableRecord
100
AcDbTextStyleTableRecord
  2
STANDARD
 70
     0
 40
0.0
 41
1.0
 50
0.0
 71
     0
 42
10.0
  3
txt
  4

  0
STYLE
  5
33
330
24
100
AcDbSymbolTableRecord
100
AcDbTextStyleTableRecord
  2
ARIAL-STANDARD
 70
     0
 40
0.0
 41
1.0
 50
0.0
 71
     0
 42
10.0
  3
arial.ttf
  4

1001
ACAD
1000
Arial
1071
       34
  0
STYLE
  5
31C
330
24
100
AcDbSymbolTableRecord
100
AcDbTextStyleTableRecord
  2

 70
     1
 40
0.0
 41
1.0
 50
0.0
 71
     0
 42
3.5
  3
genltshp.shx
  4

  0
STYLE
  5
332
330
24
100
AcDbSymbolTableRecord
100
AcDbTextStyleTableRecord
  2
ACDINTS
 70
     0
 40
1.0
 41
1.0
 50
0.0
 71
     0
 42
3.5
  3
isocp.shx
  4

  0
STYLE
  5
329
330
24
100
AcDbSymbolTableRecord
100
AcDbTextStyleTableRecord
  2
ACDINGDT
 70
     0
 40
0.0
 41
1.0
 50
0.0
 71
     0
 42
3.5
  3
amgdt.shx
  4

  0
ENDTAB
  0
TABLE
  2
VIEW
  5
2A
330
0
100
AcDbSymbolTable
 70
     0
  0
ENDTAB
  0
TABLE
  2
UCS
  5
2B
330
0
100
AcDbSymbolTable
 70
     0
  0
ENDTAB
  0
TABLE
  2
APPID
  5
30
330
0
100
AcDbSymbolTable
 70
    14
  0
APPID
  5
23
330
30
100
AcDbSymbolTableRecord
100
AcDbRegAppTableRecord
  2
ACAD
 70
     0
  0
APPID
  5
19
330
30
100
AcDbSymbolTableRecord
100
AcDbRegAppTableRecord
  2
ACAD_PSEXT
 70
     0
  0
APPID
  5
E2
330
30
100
AcDbSymbolTableRecord
100
AcDbRegAppTableRecord
  2
ACAD_DSTYLE_DIMINSPECT
 70
     0
  0
APPID
  5
35
330
30
100
AcDbSymbolTableRecord
100
AcDbRegAppTableRecord
  2
ACAD_DSTYLE_DIMJAG
 70
     0
  0
APPID
  5
34
330
30
100
AcDbSymbolTableRecord
100
AcDbRegAppTableRecord
  2
ACAD_DSTYLE_DIMBREAK
 70
     0
  0
APPID
  5
36
330
30
100
AcDbSymbolTableRecord
100
AcDbRegAppTableRecord
  2
ACAD_DSTYLE_DIMTALN
 70
     0
  0
APPID
  5
368
330
30
100
AcDbSymbolTableRecord
100
AcDbRegAppTableRecord
  2
ACATTRIBSERVICES
 70
     0
  0
APPID
  5
385
330
30
100
AcDbSymbolTableRecord
100
AcDbRegAppTableRecord
  2
ACAD_MLEADERVER
 70
     0
  0
APPID
  5
3AC
330
30
100
AcDbSymbolTableRecord
100
AcDbRegAppTableRecord
  2
MCAD_NO_VIS
 70
     0
  0
APPID
  5
3AD
330
30
100
AcDbSymbolTableRecord
100
AcDbRegAppTableRecord
  2
ACAD_TEMP_GRAPHIC
 70
     0
  0
APPID
  5
3CE
330
30
100
AcDbSymbolTableRecord
100
AcDbRegAppTableRecord
  2
DESIGNERASSEMBLIES
 70
     0
  0
APPID
  5
40E
330
30
100
AcDbSymbolTableRecord
100
AcDbRegAppTableRecord
  2
ACAD_NAV_VCDISPLAY
 70
     0
  0
APPID
  5
417
330
30
100
AcDbSymbolTableRecord
100
AcDbRegAppTableRecord
  2
AcAecLayerStandard
 70
     0
  0
APPID
  5
432
330
30
100
AcDbSymbolTableRecord
100
AcDbRegAppTableRecord
  2
GENIUS_GENDTOL_13
 70
     0
  0
ENDTAB
  0
TABLE
  2
DIMSTYLE
  5
31
330
0
100
AcDbSymbolTable
 70
    11
100
AcDbDimStyleTable
 71
     3
340
32
340
37
340
38
  0
DIMSTYLE
105
37
330
31
100
AcDbSymbolTableRecord
100
AcDbDimStyleTableRecord
  2
NORMAL
 70
     0
 41
3.5
 42
1.0
 43
0.0
 44
1.0
 73
     0
 74
     0
 77
     1
 78
     8
140
3.5
141
1.5
147
1.0
172
     1
174
     1
176
   256
177
   256
178
     3
271
     2
272
     2
279
     2
284
     8
340
33
  0
DIMSTYLE
105
38
330
31
100
AcDbSymbolTableRecord
100
AcDbDimStyleTableRecord
  2
STANDARD
 70
     0
340
25
  0
DIMSTYLE
105
32
102
{ACAD_REACTORS
330
167
330
174
330
181
330
E3
330
F0
330
C8
330
131
330
14D
330
18E
330
FD
330
10A
330
117
330
124
330
D5
330
13E
330
15A
330
67
102
}
330
31
100
AcDbSymbolTableRecord
100
AcDbDimStyleTableRecord
  2
Katalog 09
 70
     0
 41
4.0
 42
0.0
 43
8.0
 44
1.0
 73
     0
 74
     0
 77
     1
 78
     8
140
4.349999999999998
141
1.5
143
25.39999999999999
146
0.4285714285714287
147
1.0
172
     1
174
     1
176
     2
177
     2
178
     3
271
     2
272
     2
284
     8
285
     8
286
     8
340
33
1001
ACAD_DSTYLE_DIMBREAK
1070
   391
1040
3.75
1001
ACAD_DSTYLE_DIMJAG
1070
   388
1040
1.5
1001
ACAD_DSTYLE_DIMTALN
1070
   392
1070
     0
  0
DIMSTYLE
105
3E6
102
{ACAD_REACTORS
330
3D5
102
}
330
31
100
AcDbSymbolTableRecord
100
AcDbDimStyleTableRecord
  2
AM_DIN
 70
     0
  4
"
 41
3.5
 42
1.0
 43
10.0
 44
1.0
 47
0.1
 48
0.1
 50
90.0
 73
     0
 74
     0
 77
     1
 78
     8
 79
     2
140
3.5
141
0.0
143
0.0393701
146
0.71
147
1.5
172
     1
176
   256
177
   256
178
     2
271
     2
272
     3
274
     4
283
     0
284
     8
340
25
345
28
346
28
347
28
371
    -1
372
    -1
1001
ACAD_DSTYLE_DIMJAG
1070
   388
1040
1.5
1001
ACAD_DSTYLE_DIMBREAK
1070
   391
1040
3.75
  0
DIMSTYLE
105
3E8
330
31
100
AcDbSymbolTableRecord
100
AcDbDimStyleTableRecord
  2
AM_DIN$3
 70
     0
  4
"
 41
3.5
 42
1.0
 43
10.0
 44
1.0
 47
0.1
 48
0.1
 50
90.0
 73
     0
 77
     1
 78
     8
 79
     2
140
3.5
141
0.0
143
0.0393701
146
0.71
147
1.5
176
   256
177
   256
178
     2
271
     2
272
     3
274
     4
283
     0
284
     8
288
     1
289
     0
340
25
345
28
346
28
347
28
371
    -1
372
    -1
1001
ACAD_DSTYLE_DIMBREAK
1070
   391
1040
3.75
1001
ACAD_DSTYLE_DIMJAG
1070
   388
1040
1.5
  0
DIMSTYLE
105
3E9
330
31
100
AcDbSymbolTableRecord
100
AcDbDimStyleTableRecord
  2
AM_DIN$4
 70
     0
  4
"
 41
3.5
 42
1.0
 43
10.0
 44
1.0
 47
0.1
 48
0.1
 50
90.0
 73
     0
 77
     1
 78
     8
 79
     2
140
3.5
141
0.0
143
0.0393701
146
0.71
147
1.5
176
   256
177
   256
178
     2
271
     2
272
     3
274
     4
283
     0
284
     8
288
     1
289
     0
340
25
345
28
346
28
347
28
371
    -1
372
    -1
1001
ACAD_DSTYLE_DIMBREAK
1070
   391
1040
3.75
1001
ACAD_DSTYLE_DIMJAG
1070
   388
1040
1.5
  0
DIMSTYLE
105
3EA
330
31
100
AcDbSymbolTableRecord
100
AcDbDimStyleTableRecord
  2
AM_DIN$6
 70
     0
  4
"
 41
3.5
 42
1.0
 43
10.0
 44
1.0
 47
0.1
 48
0.1
 50
90.0
 73
     0
 74
     0
 78
     8
 79
     2
140
3.5
141
0.0
143
0.0393701
146
0.71
147
1.5
172
     1
176
   256
177
   256
178
     2
271
     2
272
     3
274
     4
283
     0
284
     8
340
25
345
28
346
28
347
28
371
    -1
372
    -1
1001
ACAD_DSTYLE_DIMBREAK
1070
   391
1040
3.75
1001
ACAD_DSTYLE_DIMJAG
1070
   388
1040
1.5
  0
DIMSTYLE
105
3EB
330
31
100
AcDbSymbolTableRecord
100
AcDbDimStyleTableRecord
  2
AM_DIN$7
 70
     0
  4
"
 41
3.5
 42
1.0
 43
10.0
 44
1.0
 47
0.1
 48
0.1
 50
90.0
 73
     0
 74
     0
 77
     1
 78
     8
 79
     2
140
3.5
141
0.0
143
0.0393701
146
0.71
147
1.5
172
     1
176
   256
177
   256
178
     2
271
     2
272
     3
274
     4
283
     0
284
     8
340
25
345
28
346
28
347
28
371
    -1
372
    -1
1001
ACAD_DSTYLE_DIMBREAK
1070
   391
1040
3.75
1001
ACAD_DSTYLE_DIMJAG
1070
   388
1040
1.5
  0
DIMSTYLE
105
3EC
330
31
100
AcDbSymbolTableRecord
100
AcDbDimStyleTableRecord
  2
AM_DIN$SF
 70
     0
  4
"
 41
3.5
 42
1.0
 43
10.0
 44
1.0
 47
0.1
 48
0.1
 50
90.0
 73
     0
 74
     0
 75
     1
 76
     1
 77
     1
 78
     8
 79
     2
140
3.5
141
0.0
143
0.0393701
146
0.71
147
1.5
172
     1
176
   256
177
   256
178
     2
271
     2
272
     3
274
     4
283
     0
284
     8
340
25
345
28
346
28
347
28
371
    -1
372
    -1
1001
ACAD_DSTYLE_DIMBREAK
1070
   391
1040
3.75
1001
ACAD_DSTYLE_DIMJAG
1070
   388
1040
1.5
  0
DIMSTYLE
105
3F1
330
31
100
AcDbSymbolTableRecord
100
AcDbDimStyleTableRecord
  2
AM_DIN$SH
 70
     0
  4
"
 41
3.5
 42
1.0
 43
10.0
 44
1.0
 47
0.1
 48
0.1
 50
90.0
 73
     0
 74
     0
 75
     1
 76
     1
 77
     1
 78
     8
 79
     2
140
3.5
141
0.0
143
0.0393701
144
2.0
146
0.71
147
1.5
172
     1
173
     1
176
   256
177
   256
178
     2
271
     2
272
     3
274
     4
283
     0
284
     8
340
25
343
3ED
345
28
346
28
347
28
371
    -1
372
    -1
1001
ACAD_DSTYLE_DIMBREAK
1070
   391
1040
3.75
1001
ACAD_DSTYLE_DIMJAG
1070
   388
1040
1.5
  0
DIMSTYLE
105
41A
102
{ACAD_REACTORS
330
41C
102
}
330
31
100
AcDbSymbolTableRecord
100
AcDbDimStyleTableRecord
  2
Katalog 09$0
 70
     0
 41
4.0
 42
0.0
 43
8.0
 44
1.0
 73
     0
 74
     0
 77
     1
 78
     8
140
4.349999999999998
141
1.5
143
25.39999999999999
146
0.4285714285714287
147
1.0
172
     1
174
     1
176
     2
177
     2
178
     3
271
     2
272
     2
284
     8
285
     8
286
     8
340
33
1001
ACAD_DSTYLE_DIMBREAK
1070
   391
1040
3.75
1001
ACAD_DSTYLE_DIMJAG
1070
   388
1040
1.5
  0
ENDTAB
  0
TABLE
  2
BLOCK_RECORD
  5
1
330
0
100
AcDbSymbolTable
 70
    22
  0
BLOCK_RECORD
  5
2
102
{ACAD_XDICTIONARY
360
3
102
}
330
1
100
AcDbSymbolTableRecord
100
AcDbBlockTableRecord
  2
*MODEL_SPACE
340
17
 70
     0
280
     1
281
     0
  0
BLOCK_RECORD
  5
1A
330
1
100
AcDbSymbolTableRecord
100
AcDbBlockTableRecord
  2
*PAPER_SPACE
340
1D
 70
     0
280
     1
281
     0
  0
BLOCK_RECORD
  5
18F
330
1
100
AcDbSymbolTableRecord
100
AcDbBlockTableRecord
  2
*D0
340
0
 70
     0
280
     1
281
     0
  0
BLOCK_RECORD
  5
182
330
1
100
AcDbSymbolTableRecord
100
AcDbBlockTableRecord
  2
*D1
340
0
 70
     0
280
     1
281
     0
  0
BLOCK_RECORD
  5
175
330
1
100
AcDbSymbolTableRecord
100
AcDbBlockTableRecord
  2
*D2
340
0
 70
     0
280
     1
281
     0
  0
BLOCK_RECORD
  5
168
330
1
100
AcDbSymbolTableRecord
100
AcDbBlockTableRecord
  2
*D3
340
0
 70
     0
280
     1
281
     0
  0
BLOCK_RECORD
  5
15B
330
1
100
AcDbSymbolTableRecord
100
AcDbBlockTableRecord
  2
*D4
340
0
 70
     0
280
     1
281
     0
  0
BLOCK_RECORD
  5
14E
330
1
100
AcDbSymbolTableRecord
100
AcDbBlockTableRecord
  2
*D5
340
0
 70
     0
280
     1
281
     0
  0
BLOCK_RECORD
  5
13F
330
1
100
AcDbSymbolTableRecord
100
AcDbBlockTableRecord
  2
*D6
340
0
 70
     0
280
     1
281
     0
  0
BLOCK_RECORD
  5
132
330
1
100
AcDbSymbolTableRecord
100
AcDbBlockTableRecord
  2
*D7
340
0
 70
     0
280
     1
281
     0
  0
BLOCK_RECORD
  5
125
330
1
100
AcDbSymbolTableRecord
100
AcDbBlockTableRecord
  2
*D8
340
0
 70
     0
280
     1
281
     0
  0
BLOCK_RECORD
  5
118
330
1
100
AcDbSymbolTableRecord
100
AcDbBlockTableRecord
  2
*D9
340
0
 70
     0
280
     1
281
     0
  0
BLOCK_RECORD
  5
10B
330
1
100
AcDbSymbolTableRecord
100
AcDbBlockTableRecord
  2
*D10
340
0
 70
     0
280
     1
281
     0
  0
BLOCK_RECORD
  5
FE
330
1
100
AcDbSymbolTableRecord
100
AcDbBlockTableRecord
  2
*D11
340
0
 70
     0
280
     1
281
     0
  0
BLOCK_RECORD
  5
F1
330
1
100
AcDbSymbolTableRecord
100
AcDbBlockTableRecord
  2
*D12
340
0
 70
     0
280
     1
281
     0
  0
BLOCK_RECORD
  5
E4
330
1
100
AcDbSymbolTableRecord
100
AcDbBlockTableRecord
  2
*D13
340
0
 70
     0
280
     1
281
     0
  0
BLOCK_RECORD
  5
D6
330
1
100
AcDbSymbolTableRecord
100
AcDbBlockTableRecord
  2
*D14
340
0
 70
     0
280
     1
281
     0
  0
BLOCK_RECORD
  5
C9
330
1
100
AcDbSymbolTableRecord
100
AcDbBlockTableRecord
  2
*D15
340
0
 70
     0
280
     1
281
     0
  0
BLOCK_RECORD
  5
6B
330
1
100
AcDbSymbolTableRecord
100
AcDbBlockTableRecord
  2
*D16
340
0
 70
     0
280
     1
281
     0
  0
BLOCK_RECORD
  5
3ED
330
1
100
AcDbSymbolTableRecord
100
AcDbBlockTableRecord
  2
GENAXEH
340
0
 70
     0
280
     1
281
     0
  0
BLOCK_RECORD
  5
3FE
330
1
100
AcDbSymbolTableRecord
100
AcDbBlockTableRecord
  2
_ACMFILLED30
340
0
 70
     0
280
     1
281
     0
  0
BLOCK_RECORD
  5
41D
330
1
100
AcDbSymbolTableRecord
100
AcDbBlockTableRecord
  2
*D20
340
0
 70
     0
280
     1
281
     0
  0
BLOCK_RECORD
  5
445
330
1
100
AcDbSymbolTableRecord
100
AcDbBlockTableRecord
  2
*D21
340
0
 70
     0
280
     1
281
     0
  0
ENDTAB
  0
ENDSEC
  0
SECTION
  2
BLOCKS
  0
BLOCK
  5
5
330
2
100
AcDbEntity
  8
0
100
AcDbBlockBegin
  2
*MODEL_SPACE
 70
     0
 10
0.0
 20
0.0
 30
0.0
  3
*MODEL_SPACE
  1

  0
ENDBLK
  5
16
330
2
100
AcDbEntity
  8
0
100
AcDbBlockEnd
  0
BLOCK
  5
1B
330
1A
100
AcDbEntity
 67
     1
  8
0
100
AcDbBlockBegin
  2
*PAPER_SPACE
 70
     0
 10
0.0
 20
0.0
 30
0.0
  3
*PAPER_SPACE
  1

  0
ENDBLK
  5
1C
330
1A
100
AcDbEntity
 67
     1
  8
0
100
AcDbBlockEnd
  0
BLOCK
  5
190
330
18F
100
AcDbEntity
  8
0
100
AcDbBlockBegin
  2
*D0
 70
     1
 10
0.0
 20
0.0
 30
0.0
  3
*D0
  1

  0
LINE
  5
191
330
18F
100
AcDbEntity
  8
BEMASSUNG
 62
     2
440
 16777216
370
    -2
100
AcDbLine
 10
32.31810048797422
 20
213.4479153431339
 30
0.0
 11
9.742118380550332
 21
213.4479153431339
 31
0.0
  0
LINE
  5
192
330
18F
100
AcDbEntity
  8
BEMASSUNG
 62
     2
440
 16777216
370
    -2
100
AcDbLine
 10
32.31810048797422
 20
178.4479153431339
 30
0.0
 11
9.742118380550323
 21
178.4479153431339
 31
0.0
  0
LINE
  5
193
330
18F
100
AcDbEntity
  8
BEMASSUNG
 62
     2
440
 16777216
370
    -2
100
AcDbLine
 10
10.74211838055033
 20
209.4479153431339
 30
0.0
 11
10.74211838055032
 21
182.4479153431339
 31
0.0
  0
SOLID
  5
194
330
18F
100
AcDbEntity
  8
BEMASSUNG
 62
     2
440
 16777216
100
AcDbTrace
 10
10.07545171388366
 20
209.4479153431339
 30
0.0
 11
11.40878504721699
 21
209.4479153431339
 31
0.0
 12
10.74211838055033
 22
213.4479153431339
 32
0.0
 13
10.74211838055033
 23
213.4479153431339
 33
0.0
  0
SOLID
  5
195
330
18F
100
AcDbEntity
  8
BEMASSUNG
 62
     2
440
 16777216
100
AcDbTrace
 10
10.07545171388366
 20
182.4479153431339
 30
0.0
 11
11.40878504721699
 21
182.4479153431339
 31
0.0
 12
10.74211838055032
 22
178.4479153431339
 32
0.0
 13
10.74211838055032
 23
178.4479153431339
 33
0.0
  0
MTEXT
  5
196
330
18F
100
AcDbEntity
  8
BEMASSUNG
 62
     3
440
 16777216
100
AcDbMText
 10
7.5196422550387
 20
195.9479153431339
 30
0.0
 40
4.349999999999998
 41
0.0
 46
0.0
 71
     5
 72
     1
  1
\A1;35
  7
ARIAL-STANDARD
 11
0.0000000000000001
 21
1.0
 31
0.0
 73
     1
 44
1.0
1001
ACAD
1000
MTEXTBEGIN
1070
    73
1070
     1
1070
    44
1040
1.0
1070
    74
1070
     0
1000
MTEXTEND
  0
POINT
  5
197
330
18F
100
AcDbEntity
  8
DEFPOINTS
 62
     0
440
 16777216
100
AcDbPoint
 10
32.31810048797422
 20
213.4479153431339
 30
0.0
  0
POINT
  5
198
330
18F
100
AcDbEntity
  8
DEFPOINTS
 62
     0
440
 16777216
100
AcDbPoint
 10
32.31810048797422
 20
178.4479153431339
 30
0.0
  0
POINT
  5
199
330
18F
100
AcDbEntity
  8
DEFPOINTS
 62
     0
440
 16777216
100
AcDbPoint
 10
10.74211838055032
 20
178.4479153431339
 30
0.0
  0
ENDBLK
  5
19A
330
18F
100
AcDbEntity
  8
0
100
AcDbBlockEnd
  0
BLOCK
  5
183
330
182
100
AcDbEntity
  8
0
100
AcDbBlockBegin
  2
*D1
 70
     1
 10
0.0
 20
0.0
 30
0.0
  3
*D1
  1

  0
LINE
  5
184
330
182
100
AcDbEntity
  8
BEMASSUNG
 62
     2
440
 16777216
370
    -2
100
AcDbLine
 10
180.1980193193318
 20
498.4479153431333
 30
0.0
 11
158.8031498515289
 21
498.4479153431333
 31
0.0
  0
LINE
  5
185
330
182
100
AcDbEntity
  8
BEMASSUNG
 62
     2
440
 16777216
370
    -2
100
AcDbLine
 10
180.1980193193318
 20
178.4479153431336
 30
0.0
 11
158.8031498515288
 21
178.4479153431336
 31
0.0
  0
LINE
  5
186
330
182
100
AcDbEntity
  8
BEMASSUNG
 62
     2
440
 16777216
370
    -2
100
AcDbLine
 10
159.8031498515289
 20
494.4479153431333
 30
0.0
 11
159.8031498515288
 21
182.4479153431336
 31
0.0
  0
SOLID
  5
187
330
182
100
AcDbEntity
  8
BEMASSUNG
 62
     2
440
 16777216
100
AcDbTrace
 10
159.1364831848622
 20
494.4479153431333
 30
0.0
 11
160.4698165181955
 21
494.4479153431333
 31
0.0
 12
159.8031498515289
 22
498.4479153431333
 32
0.0
 13
159.8031498515289
 23
498.4479153431333
 33
0.0
  0
SOLID
  5
188
330
182
100
AcDbEntity
  8
BEMASSUNG
 62
     2
440
 16777216
100
AcDbTrace
 10
159.1364831848621
 20
182.4479153431336
 30
0.0
 11
160.4698165181955
 21
182.4479153431336
 31
0.0
 12
159.8031498515288
 22
178.4479153431336
 32
0.0
 13
159.8031498515288
 23
178.4479153431336
 33
0.0
  0
MTEXT
  5
189
330
182
100
AcDbEntity
  8
BEMASSUNG
 62
     3
440
 16777216
100
AcDbMText
 10
156.5806737260172
 20
338.4479153431335
 30
0.0
 40
4.349999999999998
 41
0.0
 46
0.0
 71
     5
 72
     1
  1
\A1;320
  7
ARIAL-STANDARD
 11
0.0000000000000001
 21
1.0
 31
0.0
 73
     1
 44
1.0
1001
ACAD
1000
MTEXTBEGIN
1070
    73
1070
     1
1070
    44
1040
1.0
1070
    74
1070
     0
1000
MTEXTEND
  0
POINT
  5
18A
330
182
100
AcDbEntity
  8
DEFPOINTS
 62
     0
440
 16777216
100
AcDbPoint
 10
180.1980193193318
 20
498.4479153431333
 30
0.0
  0
POINT
  5
18B
330
182
100
AcDbEntity
  8
DEFPOINTS
 62
     0
440
 16777216
100
AcDbPoint
 10
180.1980193193318
 20
178.4479153431336
 30
0.0
  0
POINT
  5
18C
330
182
100
AcDbEntity
  8
DEFPOINTS
 62
     0
440
 16777216
100
AcDbPoint
 10
159.8031498515288
 20
178.4479153431336
 30
0.0
  0
ENDBLK
  5
18D
330
182
100
AcDbEntity
  8
0
100
AcDbBlockEnd
  0
BLOCK
  5
176
330
175
100
AcDbEntity
  8
0
100
AcDbBlockBegin
  2
*D2
 70
     1
 10
0.0
 20
0.0
 30
0.0
  3
*D2
  1

  0
LINE
  5
177
330
175
100
AcDbEntity
  8
BEMASSUNG
 62
     2
440
 16777216
370
    -2
100
AcDbLine
 10
186.381837646446
 20
191.4479153431338
 30
0.0
 11
168.838303829083
 21
191.4479153431338
 31
0.0
  0
LINE
  5
178
330
175
100
AcDbEntity
  8
BEMASSUNG
 62
     2
440
 16777216
370
    -2
100
AcDbLine
 10
180.198019319331
 20
178.447915343134
 30
0.0
 11
168.838303829083
 21
178.447915343134
 31
0.0
  0
LINE
  5
179
330
175
100
AcDbEntity
  8
BEMASSUNG
 62
     2
440
 16777216
370
    -2
100
AcDbLine
 10
169.8383038290829
 20
187.4479153431338
 30
0.0
 11
169.8383038290829
 21
182.447915343134
 31
0.0
  0
SOLID
  5
17A
330
175
100
AcDbEntity
  8
BEMASSUNG
 62
     2
440
 16777216
100
AcDbTrace
 10
169.1716371624163
 20
187.4479153431338
 30
0.0
 11
170.5049704957495
 21
187.4479153431338
 31
0.0
 12
169.8383038290829
 22
191.4479153431338
 32
0.0
 13
169.8383038290829
 23
191.4479153431338
 33
0.0
  0
SOLID
  5
17B
330
175
100
AcDbEntity
  8
BEMASSUNG
 62
     2
440
 16777216
100
AcDbTrace
 10
169.1716371624163
 20
182.447915343134
 30
0.0
 11
170.5049704957495
 21
182.447915343134
 31
0.0
 12
169.8383038290829
 22
178.447915343134
 32
0.0
 13
169.8383038290829
 23
178.447915343134
 33
0.0
  0
MTEXT
  5
17C
330
175
100
AcDbEntity
  8
BEMASSUNG
 62
     3
440
 16777216
100
AcDbMText
 10
166.6158277035713
 20
184.9479153431339
 30
0.0
 40
4.349999999999998
 41
0.0
 46
0.0
 71
     5
 72
     1
  1
\A1;13
  7
ARIAL-STANDARD
 11
0.0000000000000001
 21
1.0
 31
0.0
 73
     1
 44
1.0
1001
ACAD
1000
MTEXTBEGIN
1070
    73
1070
     1
1070
    44
1040
1.0
1070
    74
1070
     0
1000
MTEXTEND
  0
POINT
  5
17D
330
175
100
AcDbEntity
  8
DEFPOINTS
 62
     0
440
 16777216
100
AcDbPoint
 10
186.381837646446
 20
191.4479153431338
 30
0.0
  0
POINT
  5
17E
330
175
100
AcDbEntity
  8
DEFPOINTS
 62
     0
440
 16777216
100
AcDbPoint
 10
180.198019319331
 20
178.447915343134
 30
0.0
  0
POINT
  5
17F
330
175
100
AcDbEntity
  8
DEFPOINTS
 62
     0
440
 16777216
100
AcDbPoint
 10
169.8383038290829
 20
178.447915343134
 30
0.0
  0
ENDBLK
  5
180
330
175
100
AcDbEntity
  8
0
100
AcDbBlockEnd
  0
BLOCK
  5
169
330
168
100
AcDbEntity
  8
0
100
AcDbBlockBegin
  2
*D3
 70
     1
 10
0.0
 20
0.0
 30
0.0
  3
*D3
  1

  0
LINE
  5
16A
330
168
100
AcDbEntity
  8
BEMASSUNG
 62
     2
440
 16777216
370
    -2
100
AcDbLine
 10
186.381837646446
 20
485.4479153431333
 30
0.0
 11
168.8238527905
 21
485.4479153431333
 31
0.0
  0
LINE
  5
16B
330
168
100
AcDbEntity
  8
BEMASSUNG
 62
     2
440
 16777216
370
    -2
100
AcDbLine
 10
180.198019319331
 20
498.4479153431336
 30
0.0
 11
168.8238527905
 21
498.4479153431336
 31
0.0
  0
LINE
  5
16C
330
168
100
AcDbEntity
  8
BEMASSUNG
 62
     2
440
 16777216
370
    -2
100
AcDbLine
 10
169.8238527905
 20
489.4479153431332
 30
0.0
 11
169.8238527905
 21
494.4479153431337
 31
0.0
  0
SOLID
  5
16D
330
168
100
AcDbEntity
  8
BEMASSUNG
 62
     2
440
 16777216
100
AcDbTrace
 10
169.1571861238334
 20
489.4479153431332
 30
0.0
 11
170.4905194571667
 21
489.4479153431332
 31
0.0
 12
169.8238527905
 22
485.4479153431333
 32
0.0
 13
169.8238527905
 23
485.4479153431333
 33
0.0
  0
SOLID
  5
16E
330
168
100
AcDbEntity
  8
BEMASSUNG
 62
     2
440
 16777216
100
AcDbTrace
 10
169.1571861238334
 20
494.4479153431337
 30
0.0
 11
170.4905194571667
 21
494.4479153431337
 31
0.0
 12
169.8238527905
 22
498.4479153431336
 32
0.0
 13
169.8238527905
 23
498.4479153431336
 33
0.0
  0
MTEXT
  5
16F
330
168
100
AcDbEntity
  8
BEMASSUNG
 62
     3
440
 16777216
100
AcDbMText
 10
166.6013766649883
 20
491.9479153431336
 30
0.0
 40
4.349999999999998
 41
0.0
 46
0.0
 71
     5
 72
     1
  1
\A1;13
  7
ARIAL-STANDARD
 11
0.0000000000000001
 21
1.0
 31
0.0
 73
     1
 44
1.0
1001
ACAD
1000
MTEXTBEGIN
1070
    73
1070
     1
1070
    44
1040
1.0
1070
    74
1070
     0
1000
MTEXTEND
  0
POINT
  5
170
330
168
100
AcDbEntity
  8
DEFPOINTS
 62
     0
440
 16777216
100
AcDbPoint
 10
186.381837646446
 20
485.4479153431333
 30
0.0
  0
POINT
  5
171
330
168
100
AcDbEntity
  8
DEFPOINTS
 62
     0
440
 16777216
100
AcDbPoint
 10
180.198019319331
 20
498.4479153431336
 30
0.0
  0
POINT
  5
172
330
168
100
AcDbEntity
  8
DEFPOINTS
 62
     0
440
 16777216
100
AcDbPoint
 10
169.8238527905
 20
498.4479153431336
 30
0.0
  0
ENDBLK
  5
173
330
168
100
AcDbEntity
  8
0
100
AcDbBlockEnd
  0
BLOCK
  5
15C
330
15B
100
AcDbEntity
  8
0
100
AcDbBlockBegin
  2
*D4
 70
     1
 10
0.0
 20
0.0
 30
0.0
  3
*D4
  1

  0
LINE
  5
15D
330
15B
100
AcDbEntity
  8
BEMASSUNG
 62
     2
440
 16777216
370
    -2
100
AcDbLine
 10
32.31810048797422
 20
413.4479153431345
 30
0.0
 11
10.03832478916807
 21
413.4479153431345
 31
0.0
  0
LINE
  5
15E
330
15B
100
AcDbEntity
  8
BEMASSUNG
 62
     2
440
 16777216
370
    -2
100
AcDbLine
 10
30.81810048797422
 20
498.4479153431336
 30
0.0
 11
10.03832478916808
 21
498.4479153431336
 31
0.0
  0
LINE
  5
15F
330
15B
100
AcDbEntity
  8
BEMASSUNG
 62
     2
440
 16777216
370
    -2
100
AcDbLine
 10
11.03832478916807
 20
417.4479153431345
 30
0.0
 11
11.03832478916809
 21
494.4479153431337
 31
0.0
  0
SOLID
  5
160
330
15B
100
AcDbEntity
  8
BEMASSUNG
 62
     2
440
 16777216
100
AcDbTrace
 10
10.3716581225014
 20
417.4479153431345
 30
0.0
 11
11.70499145583473
 21
417.4479153431345
 31
0.0
 12
11.03832478916807
 22
413.4479153431345
 32
0.0
 13
11.03832478916807
 23
413.4479153431345
 33
0.0
  0
SOLID
  5
161
330
15B
100
AcDbEntity
  8
BEMASSUNG
 62
     2
440
 16777216
100
AcDbTrace
 10
10.37165812250142
 20
494.4479153431337
 30
0.0
 11
11.70499145583475
 21
494.4479153431337
 31
0.0
 12
11.03832478916809
 22
498.4479153431336
 32
0.0
 13
11.03832478916809
 23
498.4479153431336
 33
0.0
  0
MTEXT
  5
162
330
15B
100
AcDbEntity
  8
BEMASSUNG
 62
     3
440
 16777216
100
AcDbMText
 10
7.817332292578644
 20
455.9479153431341
 30
0.0
 40
4.349999999999998
 41
0.0
 46
0.0
 71
     5
 72
     1
  1
\A1;85
  7
ARIAL-STANDARD
 11
0.0000000000000001
 21
1.0
 31
0.0
 73
     1
 44
1.0
1001
ACAD
1000
MTEXTBEGIN
1070
    73
1070
     1
1070
    44
1040
1.0
1070
    74
1070
     0
1000
MTEXTEND
  0
POINT
  5
163
330
15B
100
AcDbEntity
  8
DEFPOINTS
 62
     0
440
 16777216
100
AcDbPoint
 10
32.31810048797422
 20
413.4479153431345
 30
0.0
  0
POINT
  5
164
330
15B
100
AcDbEntity
  8
DEFPOINTS
 62
     0
440
 16777216
100
AcDbPoint
 10
30.81810048797422
 20
498.4479153431336
 30
0.0
  0
POINT
  5
165
330
15B
100
AcDbEntity
  8
DEFPOINTS
 62
     0
440
 16777216
100
AcDbPoint
 10
11.03832478916809
 20
498.4479153431336
 30
0.0
  0
ENDBLK
  5
166
330
15B
100
AcDbEntity
  8
0
100
AcDbBlockEnd
  0
BLOCK
  5
14F
330
14E
100
AcDbEntity
  8
0
100
AcDbBlockBegin
  2
*D5
 70
     1
 10
0.0
 20
0.0
 30
0.0
  3
*D5
  1

  0
LINE
  5
150
330
14E
100
AcDbEntity
  8
BEMASSUNG
 62
     2
440
 16777216
370
    -2
100
AcDbLine
 10
32.31810048797422
 20
413.4479153431345
 30
0.0
 11
9.776289418734831
 21
413.4479153431345
 31
0.0
  0
LINE
  5
151
330
14E
100
AcDbEntity
  8
BEMASSUNG
 62
     2
440
 16777216
370
    -2
100
AcDbLine
 10
32.51810048797449
 20
213.447915343135
 30
0.0
 11
9.776289418734787
 21
213.447915343135
 31
0.0
  0
LINE
  5
152
330
14E
100
AcDbEntity
  8
BEMASSUNG
 62
     2
440
 16777216
370
    -2
100
AcDbLine
 10
10.77628941873483
 20
409.4479153431345
 30
0.0
 11
10.77628941873479
 21
217.4479153431351
 31
0.0
  0
SOLID
  5
153
330
14E
100
AcDbEntity
  8
BEMASSUNG
 62
     2
440
 16777216
100
AcDbTrace
 10
10.10962275206817
 20
409.4479153431345
 30
0.0
 11
11.4429560854015
 21
409.4479153431345
 31
0.0
 12
10.77628941873483
 22
413.4479153431345
 32
0.0
 13
10.77628941873483
 23
413.4479153431345
 33
0.0
  0
SOLID
  5
154
330
14E
100
AcDbEntity
  8
BEMASSUNG
 62
     2
440
 16777216
100
AcDbTrace
 10
10.10962275206812
 20
217.4479153431351
 30
0.0
 11
11.44295608540145
 21
217.4479153431351
 31
0.0
 12
10.77628941873479
 22
213.447915343135
 32
0.0
 13
10.77628941873479
 23
213.447915343135
 33
0.0
  0
MTEXT
  5
155
330
14E
100
AcDbEntity
  8
BEMASSUNG
 62
     3
440
 16777216
100
AcDbMText
 10
7.555296922145402
 20
313.4479153431348
 30
0.0
 40
4.349999999999998
 41
0.0
 46
0.0
 71
     5
 72
     1
  1
\A1;200
  7
ARIAL-STANDARD
 11
0.0000000000000001
 21
1.0
 31
0.0
 73
     1
 44
1.0
1001
ACAD
1000
MTEXTBEGIN
1070
    73
1070
     1
1070
    44
1040
1.0
1070
    74
1070
     0
1000
MTEXTEND
  0
POINT
  5
156
330
14E
100
AcDbEntity
  8
DEFPOINTS
 62
     0
440
 16777216
100
AcDbPoint
 10
32.31810048797422
 20
413.4479153431345
 30
0.0
  0
POINT
  5
157
330
14E
100
AcDbEntity
  8
DEFPOINTS
 62
     0
440
 16777216
100
AcDbPoint
 10
32.51810048797449
 20
213.447915343135
 30
0.0
  0
POINT
  5
158
330
14E
100
AcDbEntity
  8
DEFPOINTS
 62
     0
440
 16777216
100
AcDbPoint
 10
10.77628941873479
 20
213.447915343135
 30
0.0
  0
ENDBLK
  5
159
330
14E
100
AcDbEntity
  8
0
100
AcDbBlockEnd
  0
BLOCK
  5
140
330
13F
100
AcDbEntity
  8
0
100
AcDbBlockBegin
  2
*D6
 70
     1
 10
0.0
 20
0.0
 30
0.0
  3
*D6
  1

  0
LINE
  5
141
330
13F
100
AcDbEntity
  8
BEMASSUNG
 62
     2
440
 16777216
370
    -2
100
AcDbLine
 10
32.31810048797422
 20
498.4479153431338
 30
0.0
 11
32.31810048797422
 21
503.7423260221085
 31
0.0
  0
LINE
  5
142
330
13F
100
AcDbEntity
  8
BEMASSUNG
 62
     2
440
 16777216
370
    -2
100
AcDbLine
 10
29.31810048797422
 20
498.1979153431336
 30
0.0
 11
29.31810048797422
 21
503.7423260221085
 31
0.0
  0
LINE
  5
143
330
13F
100
AcDbEntity
  8
BEMASSUNG
 62
     2
440
 16777216
370
    -2
100
AcDbLine
 10
36.31810048797422
 20
502.7423260221085
 30
0.0
 11
40.31810048797422
 21
502.7423260221085
 31
0.0
  0
LINE
  5
144
330
13F
100
AcDbEntity
  8
BEMASSUNG
 62
     2
440
 16777216
370
    -2
100
AcDbLine
 10
25.31810048797422
 20
502.7423260221085
 30
0.0
 11
16.46953295727845
 21
502.7423260221085
 31
0.0
  0
LINE
  5
145
330
13F
100
AcDbEntity
  8
BEMASSUNG
 62
     2
440
 16777216
370
    -2
100
AcDbLine
 10
32.31810048797422
 20
502.7423260221085
 30
0.0
 11
29.31810048797422
 21
502.7423260221085
 31
0.0
  0
SOLID
  5
146
330
13F
100
AcDbEntity
  8
BEMASSUNG
 62
     2
440
 16777216
100
AcDbTrace
 10
36.31810048797422
 20
503.4089926887752
 30
0.0
 11
36.31810048797422
 21
502.0756593554418
 31
0.0
 12
32.31810048797422
 22
502.7423260221085
 32
0.0
 13
32.31810048797422
 23
502.7423260221085
 33
0.0
  0
SOLID
  5
147
330
13F
100
AcDbEntity
  8
BEMASSUNG
 62
     2
440
 16777216
100
AcDbTrace
 10
25.31810048797422
 20
503.4089926887752
 30
0.0
 11
25.31810048797422
 21
502.0756593554418
 31
0.0
 12
29.31810048797422
 22
502.7423260221085
 32
0.0
 13
29.31810048797422
 23
502.7423260221085
 33
0.0
  0
MTEXT
  5
148
330
13F
100
AcDbEntity
  8
BEMASSUNG
 62
     3
440
 16777216
100
AcDbMText
 10
18.89381672262633
 20
505.9648021476201
 30
0.0
 40
4.349999999999998
 41
0.0
 46
0.0
 71
     5
 72
     1
  1
\A1;3
  7
ARIAL-STANDARD
 73
     1
 44
1.0
1001
ACAD
1000
MTEXTBEGIN
1070
    73
1070
     1
1070
    44
1040
1.0
1070
    74
1070
     0
1000
MTEXTEND
  0
POINT
  5
149
330
13F
100
AcDbEntity
  8
DEFPOINTS
 62
     0
440
 16777216
100
AcDbPoint
 10
32.31810048797422
 20
498.4479153431338
 30
0.0
  0
POINT
  5
14A
330
13F
100
AcDbEntity
  8
DEFPOINTS
 62
     0
440
 16777216
100
AcDbPoint
 10
29.31810048797422
 20
498.1979153431336
 30
0.0
  0
POINT
  5
14B
330
13F
100
AcDbEntity
  8
DEFPOINTS
 62
     0
440
 16777216
100
AcDbPoint
 10
29.31810048797422
 20
502.7423260221085
 30
0.0
  0
ENDBLK
  5
14C
330
13F
100
AcDbEntity
  8
0
100
AcDbBlockEnd
  0
BLOCK
  5
133
330
132
100
AcDbEntity
  8
0
100
AcDbBlockBegin
  2
*D7
 70
     1
 10
0.0
 20
0.0
 30
0.0
  3
*D7
  1

  0
LINE
  5
134
330
132
100
AcDbEntity
  8
BEMASSUNG
 62
     2
440
 16777216
370
    -2
100
AcDbLine
 10
29.31810048797422
 20
178.4479153431339
 30
0.0
 11
29.31810048797422
 21
129.3148159891277
 31
0.0
  0
LINE
  5
135
330
132
100
AcDbEntity
  8
BEMASSUNG
 62
     2
440
 16777216
370
    -2
100
AcDbLine
 10
64.31810048797172
 20
139.1110909964446
 30
0.0
 11
64.31810048797172
 21
129.3148159891277
 31
0.0
  0
LINE
  5
136
330
132
100
AcDbEntity
  8
BEMASSUNG
 62
     2
440
 16777216
370
    -2
100
AcDbLine
 10
33.31810048797422
 20
130.3148159891277
 30
0.0
 11
60.31810048797172
 21
130.3148159891277
 31
0.0
  0
SOLID
  5
137
330
132
100
AcDbEntity
  8
BEMASSUNG
 62
     2
440
 16777216
100
AcDbTrace
 10
33.31810048797422
 20
130.9814826557944
 30
0.0
 11
33.31810048797422
 21
129.6481493224611
 31
0.0
 12
29.31810048797422
 22
130.3148159891277
 32
0.0
 13
29.31810048797422
 23
130.3148159891277
 33
0.0
  0
SOLID
  5
138
330
132
100
AcDbEntity
  8
BEMASSUNG
 62
     2
440
 16777216
100
AcDbTrace
 10
60.31810048797172
 20
130.9814826557944
 30
0.0
 11
60.31810048797172
 21
129.6481493224611
 31
0.0
 12
64.31810048797172
 22
130.3148159891277
 32
0.0
 13
64.31810048797172
 23
130.3148159891277
 33
0.0
  0
MTEXT
  5
139
330
132
100
AcDbEntity
  8
BEMASSUNG
 62
     3
440
 16777216
100
AcDbMText
 10
46.81810048797296
 20
133.4898159891277
 30
0.0
 40
4.349999999999998
 41
0.0
 46
0.0
 71
     5
 72
     1
  1
\A1;DM
  7
ARIAL-STANDARD
 73
     1
 44
1.0
1001
ACAD
1000
MTEXTBEGIN
1070
    73
1070
     1
1070
    44
1040
1.0
1070
    74
1070
     0
1000
MTEXTEND
  0
POINT
  5
13A
330
132
100
AcDbEntity
  8
DEFPOINTS
 62
     0
440
 16777216
100
AcDbPoint
 10
29.31810048797422
 20
178.4479153431339
 30
0.0
  0
POINT
  5
13B
330
132
100
AcDbEntity
  8
DEFPOINTS
 62
     0
440
 16777216
100
AcDbPoint
 10
64.31810048797172
 20
139.1110909964446
 30
0.0
  0
POINT
  5
13C
330
132
100
AcDbEntity
  8
DEFPOINTS
 62
     0
440
 16777216
100
AcDbPoint
 10
64.31810048797172
 20
130.3148159891277
 30
0.0
  0
ENDBLK
  5
13D
330
132
100
AcDbEntity
  8
0
100
AcDbBlockEnd
  0
BLOCK
  5
126
330
125
100
AcDbEntity
  8
0
100
AcDbBlockBegin
  2
*D8
 70
     1
 10
0.0
 20
0.0
 30
0.0
  3
*D8
  1

  0
LINE
  5
127
330
125
100
AcDbEntity
  8
BEMASSUNG
 62
     2
440
 16777216
370
    -2
100
AcDbLine
 10
64.31810048797422
 20
332.9479153431337
 30
0.0
 11
91.31336356156486
 21
332.9479153431337
 31
0.0
  0
LINE
  5
128
330
125
100
AcDbEntity
  8
BEMASSUNG
 62
     2
440
 16777216
370
    -2
100
AcDbLine
 10
70.59381800986864
 20
311.4479153431337
 30
0.0
 11
91.31336356156486
 21
311.4479153431337
 31
0.0
  0
LINE
  5
129
330
125
100
AcDbEntity
  8
BEMASSUNG
 62
     2
440
 16777216
370
    -2
100
AcDbLine
 10
90.31336356156486
 20
328.9479153431337
 30
0.0
 11
90.31336356156486
 21
315.4479153431337
 31
0.0
  0
SOLID
  5
12A
330
125
100
AcDbEntity
  8
BEMASSUNG
 62
     2
440
 16777216
100
AcDbTrace
 10
89.6466968948982
 20
328.9479153431337
 30
0.0
 11
90.98003022823156
 21
328.9479153431337
 31
0.0
 12
90.31336356156486
 22
332.9479153431337
 32
0.0
 13
90.31336356156486
 23
332.9479153431337
 33
0.0
  0
SOLID
  5
12B
330
125
100
AcDbEntity
  8
BEMASSUNG
 62
     2
440
 16777216
100
AcDbTrace
 10
89.6466968948982
 20
315.4479153431337
 30
0.0
 11
90.98003022823156
 21
315.4479153431337
 31
0.0
 12
90.31336356156486
 22
311.4479153431337
 32
0.0
 13
90.31336356156486
 23
311.4479153431337
 33
0.0
  0
MTEXT
  5
12C
330
125
100
AcDbEntity
  8
BEMASSUNG
 62
     3
440
 16777216
100
AcDbMText
 10
87.09237106497544
 20
322.1979153431338
 30
0.0
 40
4.349999999999998
 41
0.0
 46
0.0
 71
     5
 72
     1
  1
\A1;21.5
  7
ARIAL-STANDARD
 11
0.0000000000000001
 21
1.0
 31
0.0
 73
     1
 44
1.0
1001
ACAD
1000
MTEXTBEGIN
1070
    73
1070
     1
1070
    44
1040
1.0
1070
    74
1070
     0
1000
MTEXTEND
  0
POINT
  5
12D
330
125
100
AcDbEntity
  8
DEFPOINTS
 62
     0
440
 16777216
100
AcDbPoint
 10
64.31810048797422
 20
332.9479153431337
 30
0.0
  0
POINT
  5
12E
330
125
100
AcDbEntity
  8
DEFPOINTS
 62
     0
440
 16777216
100
AcDbPoint
 10
70.59381800986864
 20
311.4479153431337
 30
0.0
  0
POINT
  5
12F
330
125
100
AcDbEntity
  8
DEFPOINTS
 62
     0
440
 16777216
100
AcDbPoint
 10
90.31336356156486
 20
311.4479153431337
 30
0.0
  0
ENDBLK
  5
130
330
125
100
AcDbEntity
  8
0
100
AcDbBlockEnd
  0
BLOCK
  5
119
330
118
100
AcDbEntity
  8
0
100
AcDbBlockBegin
  2
*D9
 70
     1
 10
0.0
 20
0.0
 30
0.0
  3
*D9
  1

  0
LINE
  5
11A
330
118
100
AcDbEntity
  8
BEMASSUNG
 62
     2
440
 16777216
370
    -2
100
AcDbLine
 10
55.72079305181193
 20
413.4479153431336
 30
0.0
 11
102.909767484039
 21
413.4479153431336
 31
0.0
  0
LINE
  5
11B
330
118
100
AcDbEntity
  8
BEMASSUNG
 62
     2
440
 16777216
370
    -2
100
AcDbLine
 10
64.31810048797422
 20
332.9479153431337
 30
0.0
 11
102.9097674840389
 21
332.9479153431337
 31
0.0
  0
LINE
  5
11C
330
118
100
AcDbEntity
  8
BEMASSUNG
 62
     2
440
 16777216
370
    -2
100
AcDbLine
 10
101.909767484039
 20
409.4479153431336
 30
0.0
 11
101.9097674840389
 21
336.9479153431337
 31
0.0
  0
SOLID
  5
11D
330
118
100
AcDbEntity
  8
BEMASSUNG
 62
     2
440
 16777216
100
AcDbTrace
 10
101.2431008173723
 20
409.4479153431336
 30
0.0
 11
102.5764341507056
 21
409.4479153431336
 31
0.0
 12
101.909767484039
 22
413.4479153431336
 32
0.0
 13
101.909767484039
 23
413.4479153431336
 33
0.0
  0
SOLID
  5
11E
330
118
100
AcDbEntity
  8
BEMASSUNG
 62
     2
440
 16777216
100
AcDbTrace
 10
101.2431008173723
 20
336.9479153431337
 30
0.0
 11
102.5764341507056
 21
336.9479153431337
 31
0.0
 12
101.9097674840389
 22
332.9479153431337
 32
0.0
 13
101.9097674840389
 23
332.9479153431337
 33
0.0
  0
MTEXT
  5
11F
330
118
100
AcDbEntity
  8
BEMASSUNG
 62
     3
440
 16777216
100
AcDbMText
 10
98.68877498744957
 20
373.1979153431337
 30
0.0
 40
4.349999999999998
 41
0.0
 46
0.0
 71
     5
 72
     1
  1
\A1;80.5
  7
ARIAL-STANDARD
 11
0.0000000000000001
 21
1.0
 31
0.0
 73
     1
 44
1.0
1001
ACAD
1000
MTEXTBEGIN
1070
    73
1070
     1
1070
    44
1040
1.0
1070
    74
1070
     0
1000
MTEXTEND
  0
POINT
  5
120
330
118
100
AcDbEntity
  8
DEFPOINTS
 62
     0
440
 16777216
100
AcDbPoint
 10
55.72079305181193
 20
413.4479153431336
 30
0.0
  0
POINT
  5
121
330
118
100
AcDbEntity
  8
DEFPOINTS
 62
     0
440
 16777216
100
AcDbPoint
 10
64.31810048797422
 20
332.9479153431337
 30
0.0
  0
POINT
  5
122
330
118
100
AcDbEntity
  8
DEFPOINTS
 62
     0
440
 16777216
100
AcDbPoint
 10
101.9097674840389
 20
332.9479153431337
 30
0.0
  0
ENDBLK
  5
123
330
118
100
AcDbEntity
  8
0
100
AcDbBlockEnd
  0
BLOCK
  5
10C
330
10B
100
AcDbEntity
  8
0
100
AcDbBlockBegin
  2
*D10
 70
     1
 10
0.0
 20
0.0
 30
0.0
  3
*D10
  1

  0
LINE
  5
10D
330
10B
100
AcDbEntity
  8
BEMASSUNG
 62
     2
440
 16777216
370
    -2
100
AcDbLine
 10
64.31810048797422
 20
332.9479153431337
 30
0.0
 11
102.8885086255281
 21
332.9479153431337
 31
0.0
  0
LINE
  5
10E
330
10B
100
AcDbEntity
  8
BEMASSUNG
 62
     2
440
 16777216
370
    -2
100
AcDbLine
 10
79.31810048797443
 20
213.4479153431338
 30
0.0
 11
102.888508625528
 21
213.4479153431338
 31
0.0
  0
LINE
  5
10F
330
10B
100
AcDbEntity
  8
BEMASSUNG
 62
     2
440
 16777216
370
    -2
100
AcDbLine
 10
101.8885086255281
 20
328.9479153431337
 30
0.0
 11
101.888508625528
 21
217.4479153431338
 31
0.0
  0
SOLID
  5
110
330
10B
100
AcDbEntity
  8
BEMASSUNG
 62
     2
440
 16777216
100
AcDbTrace
 10
101.2218419588614
 20
328.9479153431337
 30
0.0
 11
102.5551752921947
 21
328.9479153431337
 31
0.0
 12
101.8885086255281
 22
332.9479153431337
 32
0.0
 13
101.8885086255281
 23
332.9479153431337
 33
0.0
  0
SOLID
  5
111
330
10B
100
AcDbEntity
  8
BEMASSUNG
 62
     2
440
 16777216
100
AcDbTrace
 10
101.2218419588614
 20
217.4479153431338
 30
0.0
 11
102.5551752921947
 21
217.4479153431338
 31
0.0
 12
101.888508625528
 22
213.4479153431338
 32
0.0
 13
101.888508625528
 23
213.4479153431338
 33
0.0
  0
MTEXT
  5
112
330
10B
100
AcDbEntity
  8
BEMASSUNG
 62
     3
440
 16777216
100
AcDbMText
 10
98.66751612893871
 20
273.1979153431338
 30
0.0
 40
4.349999999999998
 41
0.0
 46
0.0
 71
     5
 72
     1
  1
\A1;119.5
  7
ARIAL-STANDARD
 11
0.0000000000000001
 21
1.0
 31
0.0
 73
     1
 44
1.0
1001
ACAD
1000
MTEXTBEGIN
1070
    73
1070
     1
1070
    44
1040
1.0
1070
    74
1070
     0
1000
MTEXTEND
  0
POINT
  5
113
330
10B
100
AcDbEntity
  8
DEFPOINTS
 62
     0
440
 16777216
100
AcDbPoint
 10
64.31810048797422
 20
332.9479153431337
 30
0.0
  0
POINT
  5
114
330
10B
100
AcDbEntity
  8
DEFPOINTS
 62
     0
440
 16777216
100
AcDbPoint
 10
79.31810048797443
 20
213.4479153431338
 30
0.0
  0
POINT
  5
115
330
10B
100
AcDbEntity
  8
DEFPOINTS
 62
     0
440
 16777216
100
AcDbPoint
 10
101.888508625528
 20
213.4479153431338
 30
0.0
  0
ENDBLK
  5
116
330
10B
100
AcDbEntity
  8
0
100
AcDbBlockEnd
  0
BLOCK
  5
FF
330
FE
100
AcDbEntity
  8
0
100
AcDbBlockBegin
  2
*D11
 70
     1
 10
0.0
 20
0.0
 30
0.0
  3
*D11
  1

  0
LINE
  5
100
330
FE
100
AcDbEntity
  8
BEMASSUNG
 62
     2
440
 16777216
370
    -2
100
AcDbLine
 10
69.17167414102244
 20
466.9514059358633
 30
0.0
 11
113.9854864762869
 21
466.9514059358633
 31
0.0
  0
LINE
  5
101
330
FE
100
AcDbEntity
  8
BEMASSUNG
 62
     2
440
 16777216
370
    -2
100
AcDbLine
 10
64.31810048797422
 20
332.9479153431338
 30
0.0
 11
113.9854864762868
 21
332.9479153431338
 31
0.0
  0
LINE
  5
102
330
FE
100
AcDbEntity
  8
BEMASSUNG
 62
     2
440
 16777216
370
    -2
100
AcDbLine
 10
112.9854864762869
 20
462.9514059358633
 30
0.0
 11
112.9854864762868
 21
336.9479153431338
 31
0.0
  0
SOLID
  5
103
330
FE
100
AcDbEntity
  8
BEMASSUNG
 62
     2
440
 16777216
100
AcDbTrace
 10
112.3188198096202
 20
462.9514059358633
 30
0.0
 11
113.6521531429535
 21
462.9514059358633
 31
0.0
 12
112.9854864762869
 22
466.9514059358633
 32
0.0
 13
112.9854864762869
 23
466.9514059358633
 33
0.0
  0
SOLID
  5
104
330
FE
100
AcDbEntity
  8
BEMASSUNG
 62
     2
440
 16777216
100
AcDbTrace
 10
112.3188198096201
 20
336.9479153431338
 30
0.0
 11
113.6521531429535
 21
336.9479153431338
 31
0.0
 12
112.9854864762868
 22
332.9479153431338
 32
0.0
 13
112.9854864762868
 23
332.9479153431338
 33
0.0
  0
MTEXT
  5
105
330
FE
100
AcDbEntity
  8
BEMASSUNG
 62
     3
440
 16777216
100
AcDbMText
 10
109.7630103507752
 20
399.9496606394986
 30
0.0
 40
4.349999999999998
 41
0.0
 46
0.0
 71
     5
 72
     1
  1
\A1;134
  7
ARIAL-STANDARD
 11
0.0000000000000001
 21
1.0
 31
0.0
 73
     1
 44
1.0
1001
ACAD
1000
MTEXTBEGIN
1070
    73
1070
     1
1070
    44
1040
1.0
1070
    74
1070
     0
1000
MTEXTEND
  0
POINT
  5
106
330
FE
100
AcDbEntity
  8
DEFPOINTS
 62
     0
440
 16777216
100
AcDbPoint
 10
69.17167414102244
 20
466.9514059358633
 30
0.0
  0
POINT
  5
107
330
FE
100
AcDbEntity
  8
DEFPOINTS
 62
     0
440
 16777216
100
AcDbPoint
 10
64.31810048797422
 20
332.9479153431338
 30
0.0
  0
POINT
  5
108
330
FE
100
AcDbEntity
  8
DEFPOINTS
 62
     0
440
 16777216
100
AcDbPoint
 10
112.9854864762868
 20
332.9479153431338
 30
0.0
  0
ENDBLK
  5
109
330
FE
100
AcDbEntity
  8
0
100
AcDbBlockEnd
  0
BLOCK
  5
F2
330
F1
100
AcDbEntity
  8
0
100
AcDbBlockBegin
  2
*D12
 70
     1
 10
0.0
 20
0.0
 30
0.0
  3
*D12
  1

  0
LINE
  5
F3
330
F1
100
AcDbEntity
  8
BEMASSUNG
 62
     2
440
 16777216
370
    -2
100
AcDbLine
 10
64.31810048797422
 20
332.9479153431337
 30
0.0
 11
113.9818077898211
 21
332.9479153431337
 31
0.0
  0
LINE
  5
F4
330
F1
100
AcDbEntity
  8
BEMASSUNG
 62
     2
440
 16777216
370
    -2
100
AcDbLine
 10
64.48138232823601
 20
144.507463661138
 30
0.0
 11
113.9818077898211
 21
144.507463661138
 31
0.0
  0
LINE
  5
F5
330
F1
100
AcDbEntity
  8
BEMASSUNG
 62
     2
440
 16777216
370
    -2
100
AcDbLine
 10
112.9818077898211
 20
328.9479153431337
 30
0.0
 11
112.9818077898211
 21
148.507463661138
 31
0.0
  0
SOLID
  5
F6
330
F1
100
AcDbEntity
  8
BEMASSUNG
 62
     2
440
 16777216
100
AcDbTrace
 10
112.3151411231545
 20
328.9479153431337
 30
0.0
 11
113.6484744564878
 21
328.9479153431337
 31
0.0
 12
112.9818077898211
 22
332.9479153431337
 32
0.0
 13
112.9818077898211
 23
332.9479153431337
 33
0.0
  0
SOLID
  5
F7
330
F1
100
AcDbEntity
  8
BEMASSUNG
 62
     2
440
 16777216
100
AcDbTrace
 10
112.3151411231544
 20
148.507463661138
 30
0.0
 11
113.6484744564878
 21
148.507463661138
 31
0.0
 12
112.9818077898211
 22
144.507463661138
 32
0.0
 13
112.9818077898211
 23
144.507463661138
 33
0.0
  0
MTEXT
  5
F8
330
F1
100
AcDbEntity
  8
BEMASSUNG
 62
     3
440
 16777216
100
AcDbMText
 10
109.7608152932317
 20
238.7276895021359
 30
0.0
 40
4.349999999999998
 41
0.0
 46
0.0
 71
     5
 72
     1
  1
\A1;188
  7
ARIAL-STANDARD
 11
0.0000000000000001
 21
1.0
 31
0.0
 73
     1
 44
1.0
1001
ACAD
1000
MTEXTBEGIN
1070
    73
1070
     1
1070
    44
1040
1.0
1070
    74
1070
     0
1000
MTEXTEND
  0
POINT
  5
F9
330
F1
100
AcDbEntity
  8
DEFPOINTS
 62
     0
440
 16777216
100
AcDbPoint
 10
64.31810048797422
 20
332.9479153431337
 30
0.0
  0
POINT
  5
FA
330
F1
100
AcDbEntity
  8
DEFPOINTS
 62
     0
440
 16777216
100
AcDbPoint
 10
64.48138232823601
 20
144.507463661138
 30
0.0
  0
POINT
  5
FB
330
F1
100
AcDbEntity
  8
DEFPOINTS
 62
     0
440
 16777216
100
AcDbPoint
 10
112.9818077898211
 20
144.507463661138
 30
0.0
  0
ENDBLK
  5
FC
330
F1
100
AcDbEntity
  8
0
100
AcDbBlockEnd
  0
BLOCK
  5
E5
330
E4
100
AcDbEntity
  8
0
100
AcDbBlockBegin
  2
*D13
 70
     1
 10
0.0
 20
0.0
 30
0.0
  3
*D13
  1

  0
LINE
  5
E6
330
E4
100
AcDbEntity
  8
BEMASSUNG
 62
     2
440
 16777216
370
    -2
100
AcDbLine
 10
107.9050328055182
 20
164.5067989725719
 30
0.0
 11
99.66783168466877
 21
164.5067989725719
 31
0.0
  0
LINE
  5
E7
330
E4
100
AcDbEntity
  8
BEMASSUNG
 62
     2
440
 16777216
370
    -2
100
AcDbLine
 10
64.31810048797172
 20
144.5060604009321
 30
0.0
 11
101.6678316846687
 21
144.5060604009321
 31
0.0
  0
LINE
  5
E8
330
E4
100
AcDbEntity
  8
BEMASSUNG
 62
     2
440
 16777216
370
    -2
100
AcDbLine
 10
100.6678316846687
 20
160.506798972572
 30
0.0
 11
100.6678316846687
 21
148.5060604009321
 31
0.0
  0
SOLID
  5
E9
330
E4
100
AcDbEntity
  8
BEMASSUNG
 62
     2
440
 16777216
100
AcDbTrace
 10
100.0011650180021
 20
160.506798972572
 30
0.0
 11
101.3344983513354
 21
160.506798972572
 31
0.0
 12
100.6678316846687
 22
164.5067989725719
 32
0.0
 13
100.6678316846687
 23
164.5067989725719
 33
0.0
  0
SOLID
  5
EA
330
E4
100
AcDbEntity
  8
BEMASSUNG
 62
     2
440
 16777216
100
AcDbTrace
 10
100.001165018002
 20
148.5060604009321
 30
0.0
 11
101.3344983513354
 21
148.5060604009321
 31
0.0
 12
100.6678316846687
 22
144.5060604009321
 32
0.0
 13
100.6678316846687
 23
144.5060604009321
 33
0.0
  0
MTEXT
  5
EB
330
E4
100
AcDbEntity
  8
BEMASSUNG
 62
     3
440
 16777216
100
AcDbMText
 10
97.44683918807936
 20
158.8361906022426
 30
0.0
 40
4.349999999999998
 41
0.0
 46
0.0
 71
     5
 72
     1
  1
\A1;Hub = 20
  7
ARIAL-STANDARD
 11
0.0000000000000001
 21
1.0
 31
0.0
 73
     1
 44
1.0
1001
ACAD
1000
MTEXTBEGIN
1070
    73
1070
     1
1070
    44
1040
1.0
1070
    74
1070
     0
1000
MTEXTEND
  0
POINT
  5
EC
330
E4
100
AcDbEntity
  8
DEFPOINTS
 62
     0
440
 16777216
100
AcDbPoint
 10
107.9050328055182
 20
164.5067989725719
 30
0.0
  0
POINT
  5
ED
330
E4
100
AcDbEntity
  8
DEFPOINTS
 62
     0
440
 16777216
100
AcDbPoint
 10
64.31810048797172
 20
144.5060604009321
 30
0.0
  0
POINT
  5
EE
330
E4
100
AcDbEntity
  8
DEFPOINTS
 62
     0
440
 16777216
100
AcDbPoint
 10
100.6678316846687
 20
144.5060604009321
 30
0.0
  0
ENDBLK
  5
EF
330
E4
100
AcDbEntity
  8
0
100
AcDbBlockEnd
  0
BLOCK
  5
D7
330
D6
100
AcDbEntity
  8
0
100
AcDbBlockBegin
  2
*D14
 70
     1
 10
0.0
 20
0.0
 30
0.0
  3
*D14
  1

  0
LINE
  5
D8
330
D6
100
AcDbEntity
  8
BEMASSUNG
 62
     2
440
 16777216
370
    -2
100
AcDbLine
 10
69.17249949731854
 20
466.9514122903467
 30
0.0
 11
99.57448718604387
 21
466.9514122903467
 31
0.0
  0
LINE
  5
D9
330
D6
100
AcDbEntity
  8
BEMASSUNG
 62
     2
440
 16777216
370
    -2
100
AcDbLine
 10
105.2402447286022
 20
446.9492068312915
 30
0.0
 11
97.57448718604392
 21
446.9492068312915
 31
0.0
  0
LINE
  5
DA
330
D6
100
AcDbEntity
  8
BEMASSUNG
 62
     2
440
 16777216
370
    -2
100
AcDbLine
 10
98.57448718604388
 20
462.9514122903467
 30
0.0
 11
98.57448718604388
 21
450.9492068312915
 31
0.0
  0
SOLID
  5
DB
330
D6
100
AcDbEntity
  8
BEMASSUNG
 62
     2
440
 16777216
100
AcDbTrace
 10
97.90782051937723
 20
462.9514122903467
 30
0.0
 11
99.24115385271058
 21
462.9514122903467
 31
0.0
 12
98.57448718604388
 22
466.9514122903467
 32
0.0
 13
98.57448718604388
 23
466.9514122903467
 33
0.0
  0
SOLID
  5
DC
330
D6
100
AcDbEntity
  8
BEMASSUNG
 62
     2
440
 16777216
100
AcDbTrace
 10
97.90782051937723
 20
450.9492068312915
 30
0.0
 11
99.24115385271058
 21
450.9492068312915
 31
0.0
 12
98.57448718604388
 22
446.9492068312915
 32
0.0
 13
98.57448718604388
 23
446.9492068312915
 33
0.0
  0
MTEXT
  5
DD
330
D6
100
AcDbEntity
  8
BEMASSUNG
 62
     3
440
 16777216
100
AcDbMText
 10
95.35349468945446
 20
452.1944534485554
 30
0.0
 40
4.349999999999998
 41
0.0
 46
0.0
 71
     5
 72
     1
  1
\A1;Hub = 20
  7
ARIAL-STANDARD
 11
0.0000000000000001
 21
1.0
 31
0.0
 73
     1
 44
1.0
1001
ACAD
1000
MTEXTBEGIN
1070
    73
1070
     1
1070
    44
1040
1.0
1070
    74
1070
     0
1000
MTEXTEND
  0
POINT
  5
DE
330
D6
100
AcDbEntity
  8
DEFPOINTS
 62
     0
440
 16777216
100
AcDbPoint
 10
69.17249949731854
 20
466.9514122903467
 30
0.0
  0
POINT
  5
DF
330
D6
100
AcDbEntity
  8
DEFPOINTS
 62
     0
440
 16777216
100
AcDbPoint
 10
105.2402447286022
 20
446.9492068312915
 30
0.0
  0
POINT
  5
E0
330
D6
100
AcDbEntity
  8
DEFPOINTS
 62
     0
440
 16777216
100
AcDbPoint
 10
98.57448718604388
 20
446.9492068312915
 30
0.0
  0
ENDBLK
  5
E1
330
D6
100
AcDbEntity
  8
0
100
AcDbBlockEnd
  0
BLOCK
  5
CA
330
C9
100
AcDbEntity
  8
0
100
AcDbBlockBegin
  2
*D15
 70
     1
 10
0.0
 20
0.0
 30
0.0
  3
*D15
  1

  0
LINE
  5
CB
330
C9
100
AcDbEntity
  8
BEMASSUNG
 62
     2
440
 16777216
370
    -2
100
AcDbLine
 10
80.44572974592972
 20
115.8129657049748
 30
0.0
 11
89.44840323722166
 21
115.8129657049748
 31
0.0
  0
LINE
  5
CC
330
C9
100
AcDbEntity
  8
BEMASSUNG
 62
     2
440
 16777216
370
    -2
100
AcDbLine
 10
80.44572974592972
 20
98.01296570497541
 30
0.0
 11
89.44840323722166
 21
98.01296570497541
 31
0.0
  0
LINE
  5
CD
330
C9
100
AcDbEntity
  8
BEMASSUNG
 62
     2
440
 16777216
370
    -2
100
AcDbLine
 10
88.44840323722165
 20
111.8129657049748
 30
0.0
 11
88.44840323722165
 21
102.0129657049754
 31
0.0
  0
SOLID
  5
CE
330
C9
100
AcDbEntity
  8
BEMASSUNG
 62
     2
440
 16777216
100
AcDbTrace
 10
87.781736570555
 20
111.8129657049748
 30
0.0
 11
89.11506990388835
 21
111.8129657049748
 31
0.0
 12
88.44840323722165
 22
115.8129657049748
 32
0.0
 13
88.44840323722165
 23
115.8129657049748
 33
0.0
  0
SOLID
  5
CF
330
C9
100
AcDbEntity
  8
BEMASSUNG
 62
     2
440
 16777216
100
AcDbTrace
 10
87.781736570555
 20
102.0129657049754
 30
0.0
 11
89.11506990388835
 21
102.0129657049754
 31
0.0
 12
88.44840323722165
 22
98.01296570497541
 32
0.0
 13
88.44840323722165
 23
98.01296570497541
 33
0.0
  0
MTEXT
  5
D0
330
C9
100
AcDbEntity
  8
BEMASSUNG
 62
     3
440
 16777216
100
AcDbMText
 10
85.22741074063228
 20
106.9129657049751
 30
0.0
 40
4.349999999999998
 41
0.0
 46
0.0
 71
     5
 72
     1
  1
\A1;17.8
  7
ARIAL-STANDARD
 11
0.0000000000000001
 21
1.0
 31
0.0
 73
     1
 44
1.0
1001
ACAD
1000
MTEXTBEGIN
1070
    73
1070
     1
1070
    44
1040
1.0
1070
    74
1070
     0
1000
MTEXTEND
  0
POINT
  5
D1
330
C9
100
AcDbEntity
  8
DEFPOINTS
 62
     0
440
 16777216
100
AcDbPoint
 10
80.44572974592972
 20
115.8129657049748
 30
0.0
  0
POINT
  5
D2
330
C9
100
AcDbEntity
  8
DEFPOINTS
 62
     0
440
 16777216
100
AcDbPoint
 10
80.44572974592972
 20
98.01296570497541
 30
0.0
  0
POINT
  5
D3
330
C9
100
AcDbEntity
  8
DEFPOINTS
 62
     0
440
 16777216
100
AcDbPoint
 10
88.44840323722165
 20
98.01296570497541
 30
0.0
  0
ENDBLK
  5
D4
330
C9
100
AcDbEntity
  8
0
100
AcDbBlockEnd
  0
BLOCK
  5
6C
330
6B
100
AcDbEntity
  8
0
100
AcDbBlockBegin
  2
*D16
 70
     1
 10
0.0
 20
0.0
 30
0.0
  3
*D16
  1

  0
LINE
  5
6D
330
6B
100
AcDbEntity
  8
BEMASSUNG
 62
     2
440
 16777216
370
    -2
100
AcDbLine
 10
59.74921234911017
 20
337.3779561075677
 30
0.0
 11
59.49476514459861
 21
353.8691019606433
 31
0.0
  0
LINE
  5
6E
330
6B
100
AcDbEntity
  8
BEMASSUNG
 62
     2
440
 16777216
370
    -2
100
AcDbLine
 10
68.74814125240829
 20
337.5168034819978
 30
0.0
 11
68.49369404789674
 21
354.0079493350734
 31
0.0
  0
LINE
  5
6F
330
6B
100
AcDbEntity
  8
BEMASSUNG
 62
     2
440
 16777216
370
    -2
100
AcDbLine
 10
55.51066867362501
 20
352.8075110271968
 30
0.0
 11
51.51114471660363
 21
352.7458010830057
 31
0.0
  0
LINE
  5
70
330
6B
100
AcDbEntity
  8
BEMASSUNG
 62
     2
440
 16777216
370
    -2
100
AcDbLine
 10
72.50864549096589
 20
353.0697782900091
 30
0.0
 11
76.50816944798727
 21
353.1314882342003
 31
0.0
  0
LINE
  5
71
330
6B
100
AcDbEntity
  8
BEMASSUNG
 62
     2
440
 16777216
370
    -2
100
AcDbLine
 10
59.51019263064639
 20
352.8692209713879
 30
0.0
 11
68.50912153394452
 21
353.008068345818
 31
0.0
  0
SOLID
  5
72
330
6B
100
AcDbEntity
  8
BEMASSUNG
 62
     2
440
 16777216
100
AcDbTrace
 10
55.50038368292649
 20
353.4740983533672
 30
0.0
 11
55.52095366432354
 21
352.1409237010266
 31
0.0
 12
59.51019263064639
 22
352.8692209713879
 32
0.0
 13
59.51019263064639
 23
352.8692209713879
 33
0.0
  0
SOLID
  5
73
330
6B
100
AcDbEntity
  8
BEMASSUNG
 62
     2
440
 16777216
100
AcDbTrace
 10
72.49836050026736
 20
353.7363656161793
 30
0.0
 11
72.51893048166441
 21
352.4031909638389
 31
0.0
 12
68.50912153394452
 22
353.008068345818
 32
0.0
 13
68.50912153394452
 23
353.008068345818
 33
0.0
  0
MTEXT
  5
74
330
6B
100
AcDbEntity
  8
BEMASSUNG
 62
     3
440
 16777216
100
AcDbMText
 10
63.95996526549431
 20
356.1592538224768
 30
0.0
 40
4.349999999999998
 41
0.0
 46
0.0
 71
     5
 72
     1
  1
\A1;9
  7
ARIAL-STANDARD
 11
0.999880989255344
 21
0.0154274860477825
 31
0.0
 73
     1
 44
1.0
1001
ACAD
1000
MTEXTBEGIN
1070
    73
1070
     1
1070
    44
1040
1.0
1070
    74
1070
     0
1000
MTEXTEND
  0
POINT
  5
75
330
6B
100
AcDbEntity
  8
DEFPOINTS
 62
     0
440
 16777216
100
AcDbPoint
 10
59.74921234911017
 20
337.3779561075677
 30
0.0
  0
POINT
  5
77
330
6B
100
AcDbEntity
  8
DEFPOINTS
 62
     0
440
 16777216
100
AcDbPoint
 10
68.74814125240829
 20
337.5168034819978
 30
0.0
  0
POINT
  5
78
330
6B
100
AcDbEntity
  8
DEFPOINTS
 62
     0
440
 16777216
100
AcDbPoint
 10
68.50912153394452
 20
353.008068345818
 30
0.0
  0
ENDBLK
  5
79
330
6B
100
AcDbEntity
  8
0
100
AcDbBlockEnd
  0
BLOCK
  5
3EF
330
3ED
100
AcDbEntity
  8
0
100
AcDbBlockBegin
  2
GENAXEH
 70
     0
 10
0.0
 20
0.0
 30
0.0
  3
GENAXEH
  1

  0
LINE
  5
3EE
330
3ED
100
AcDbEntity
  8
0
100
AcDbLine
 10
-1.0
 20
0.0
 30
0.0
 11
1.0
 21
0.0
 31
0.0
  0
ENDBLK
  5
3F0
330
3ED
100
AcDbEntity
  8
0
100
AcDbBlockEnd
  0
BLOCK
  5
3FF
330
3FE
100
AcDbEntity
  8
0
100
AcDbBlockBegin
  2
_ACMFILLED30
 70
     0
 10
0.0
 20
0.0
 30
0.0
  3
_ACMFILLED30
  1

  0
TRACE
  5
401
330
3FE
100
AcDbEntity
  8
0
 62
     0
100
AcDbTrace
 10
-1.0
 20
-0.26794919
 30
0.0
 11
-1.0
 21
0.26794919
 31
0.0
 12
0.0
 22
0.0
 32
0.0
 13
0.0
 23
0.0
 33
0.0
  0
ENDBLK
  5
400
330
3FE
100
AcDbEntity
  8
0
100
AcDbBlockEnd
  0
BLOCK
  5
41E
330
41D
100
AcDbEntity
  8
0
100
AcDbBlockBegin
  2
*D20
 70
     1
 10
0.0
 20
0.0
 30
0.0
  3
*D20
  1

  0
LINE
  5
43C
330
41D
100
AcDbEntity
  8
AM_5
 62
     2
440
 16777216
370
    -2
100
AcDbLine
 10
180.1980193193318
 20
492.4557923551961
 30
0.0
 11
180.1980193193318
 21
515.4013958415032
 31
0.0
  0
LINE
  5
43D
330
41D
100
AcDbEntity
  8
AM_5
 62
     2
440
 16777216
370
    -2
100
AcDbLine
 10
204.1980193193317
 20
492.4557923551961
 30
0.0
 11
204.1980193193317
 21
515.4013958415032
 31
0.0
  0
LINE
  5
43E
330
41D
100
AcDbEntity
  8
AM_5
 62
     2
440
 16777216
370
    -2
100
AcDbLine
 10
184.1980193193318
 20
514.4013958415032
 30
0.0
 11
200.1980193193317
 21
514.4013958415032
 31
0.0
  0
SOLID
  5
43F
330
41D
100
AcDbEntity
  8
AM_5
 62
     2
440
 16777216
100
AcDbTrace
 10
184.1980193193318
 20
515.0680625081698
 30
0.0
 11
184.1980193193318
 21
513.7347291748366
 31
0.0
 12
180.1980193193318
 22
514.4013958415032
 32
0.0
 13
180.1980193193318
 23
514.4013958415032
 33
0.0
  0
SOLID
  5
440
330
41D
100
AcDbEntity
  8
AM_5
 62
     2
440
 16777216
100
AcDbTrace
 10
200.1980193193317
 20
515.0680625081698
 30
0.0
 11
200.1980193193317
 21
513.7347291748366
 31
0.0
 12
204.1980193193317
 22
514.4013958415032
 32
0.0
 13
204.1980193193317
 23
514.4013958415032
 33
0.0
  0
MTEXT
  5
441
330
41D
100
AcDbEntity
  8
AM_5
 62
     3
440
 16777216
100
AcDbMText
 10
192.1980193193317
 20
517.5852976150366
 30
0.0
 40
4.349999999999998
 41
0.0
 46
0.0
 71
     5
 72
     1
  1
\A1;24
  7
ARIAL-STANDARD
 73
     1
 44
1.0
  0
POINT
  5
442
330
41D
100
AcDbEntity
  8
DEFPOINTS
 62
     0
440
 16777216
100
AcDbPoint
 10
180.1980193193318
 20
492.4557923551961
 30
0.0
  0
POINT
  5
443
330
41D
100
AcDbEntity
  8
DEFPOINTS
 62
     0
440
 16777216
100
AcDbPoint
 10
204.1980193193317
 20
492.4557923551961
 30
0.0
  0
POINT
  5
444
330
41D
100
AcDbEntity
  8
DEFPOINTS
 62
     0
440
 16777216
100
AcDbPoint
 10
204.1980193193317
 20
514.4013958415032
 30
0.0
  0
ENDBLK
  5
41F
330
41D
100
AcDbEntity
  8
0
100
AcDbBlockEnd
  0
BLOCK
  5
446
330
445
100
AcDbEntity
  8
0
100
AcDbBlockBegin
  2
*D21
 70
     1
 10
0.0
 20
0.0
 30
0.0
  3
*D21
  1

  0
LINE
  5
448
330
445
100
AcDbEntity
  8
BEMASSUNG
 62
     2
440
 16777216
370
    -2
100
AcDbLine
 10
32.31810048797422
 20
498.4479153431338
 30
0.0
 11
32.31810048797422
 21
515.3719214113355
 31
0.0
  0
LINE
  5
449
330
445
100
AcDbEntity
  8
BEMASSUNG
 62
     2
440
 16777216
370
    -2
100
AcDbLine
 10
29.31810048797422
 20
498.1979153431336
 30
0.0
 11
29.31810048797422
 21
515.3719214113355
 31
0.0
  0
LINE
  5
44A
330
445
100
AcDbEntity
  8
BEMASSUNG
 62
     2
440
 16777216
370
    -2
100
AcDbLine
 10
36.31810048797422
 20
514.3719214113355
 30
0.0
 11
40.31810048797422
 21
514.3719214113355
 31
0.0
  0
LINE
  5
44B
330
445
100
AcDbEntity
  8
BEMASSUNG
 62
     2
440
 16777216
370
    -2
100
AcDbLine
 10
25.31810048797422
 20
514.3719214113355
 30
0.0
 11
16.46953295727844
 21
514.3719214113355
 31
0.0
  0
LINE
  5
44C
330
445
100
AcDbEntity
  8
BEMASSUNG
 62
     2
440
 16777216
370
    -2
100
AcDbLine
 10
32.31810048797422
 20
514.3719214113355
 30
0.0
 11
29.31810048797422
 21
514.3719214113355
 31
0.0
  0
SOLID
  5
44D
330
445
100
AcDbEntity
  8
BEMASSUNG
 62
     2
440
 16777216
100
AcDbTrace
 10
36.31810048797422
 20
515.0385880780021
 30
0.0
 11
36.31810048797422
 21
513.7052547446688
 31
0.0
 12
32.31810048797422
 22
514.3719214113355
 32
0.0
 13
32.31810048797422
 23
514.3719214113355
 33
0.0
  0
SOLID
  5
44E
330
445
100
AcDbEntity
  8
BEMASSUNG
 62
     2
440
 16777216
100
AcDbTrace
 10
25.31810048797422
 20
515.0385880780021
 30
0.0
 11
25.31810048797422
 21
513.7052547446688
 31
0.0
 12
29.31810048797422
 22
514.3719214113355
 32
0.0
 13
29.31810048797422
 23
514.3719214113355
 33
0.0
  0
MTEXT
  5
44F
330
445
100
AcDbEntity
  8
BEMASSUNG
 62
     3
440
 16777216
100
AcDbMText
 10
18.89381672262633
 20
517.594397536847
 30
0.0
 40
4.349999999999998
 41
0.0
 46
0.0
 71
     5
 72
     1
  1
\A1;3
  7
ARIAL-STANDARD
 73
     1
 44
1.0
  0
POINT
  5
450
330
445
100
AcDbEntity
  8
DEFPOINTS
 62
     0
440
 16777216
100
AcDbPoint
 10
32.31810048797422
 20
498.4479153431338
 30
0.0
  0
POINT
  5
451
330
445
100
AcDbEntity
  8
DEFPOINTS
 62
     0
440
 16777216
100
AcDbPoint
 10
29.31810048797422
 20
498.1979153431336
 30
0.0
  0
POINT
  5
452
330
445
100
AcDbEntity
  8
DEFPOINTS
 62
     0
440
 16777216
100
AcDbPoint
 10
29.31810048797422
 20
514.3719214113355
 30
0.0
  0
ENDBLK
  5
447
330
445
100
AcDbEntity
  8
0
100
AcDbBlockEnd
  0
ENDSEC
  0
SECTION
  2
ENTITIES
  0
DIMENSION
  5
67
330
2
100
AcDbEntity
  8
BEMASSUNG
100
AcDbDimension
280
     0
  2
*D16
 10
68.50912153394452
 20
353.008068345818
 30
0.0
 11
63.95996526549431
 21
356.1592538224768
 31
0.0
 70
     1
 71
     5
 42
9.000000000000026
 73
     0
 74
     0
 75
     0
  3
Katalog 09
100
AcDbAlignedDimension
 13
59.74921234911017
 23
337.3779561075677
 33
0.0
 14
68.74814125240829
 24
337.5168034819978
 34
0.0
  0
CIRCLE
  5
7A
330
2
100
AcDbEntity
  8
LAYER3
100
AcDbCircle
 10
192.1980193193317
 20
404.9479153431334
 30
0.0
 40
4.199999999999988
  0
LINE
  5
7E
330
2
100
AcDbEntity
  8
LAYER3
100
AcDbLine
 10
190.1944537106292
 20
403.771214509606
 30
0.0
 11
191.7342456240105
 21
405.0000110198082
 31
0.0
  0
LINE
  5
7F
330
2
100
AcDbEntity
  8
LAYER3
100
AcDbLine
 10
192.2501149960064
 20
405.4116890384547
 30
0.0
 11
193.7899069093878
 21
406.6404855486568
 31
0.0
  0
LINE
  5
80
330
2
100
AcDbEntity
  8
LAYER3
100
AcDbLine
 10
193.7899069093878
 20
406.6404855486568
 30
0.0
 11
194.2015849280343
 21
406.1246161766611
 31
0.0
  0
LINE
  5
81
330
2
100
AcDbEntity
  8
LAYER3
100
AcDbLine
 10
190.6061317292756
 20
403.25534513761
 30
0.0
 11
190.1944537106292
 21
403.771214509606
 31
0.0
  0
LINE
  5
82
330
2
100
AcDbEntity
  8
LAYER3
100
AcDbLine
 10
192.145923642657
 20
404.4841416478123
 30
0.0
 11
190.6061317292756
 21
403.25534513761
 31
0.0
  0
LINE
  5
83
330
2
100
AcDbEntity
  8
LAYER3
100
AcDbLine
 10
194.2015849280343
 20
406.1246161766611
 30
0.0
 11
192.6617930146528
 21
404.8958196664588
 31
0.0
  0
LINE
  5
84
330
2
100
AcDbEntity
  8
LAYER3
100
AcDbLine
 10
192.6617930146528
 20
404.8958196664588
 30
0.0
 11
193.890589524855
 21
403.3560277530773
 31
0.0
  0
LINE
  5
85
330
2
100
AcDbEntity
  8
LAYER3
100
AcDbLine
 10
191.0213184858042
 20
406.9514809518359
 30
0.0
 11
192.2501149960064
 21
405.4116890384547
 31
0.0
  0
LINE
  5
86
330
2
100
AcDbEntity
  8
LAYER3
100
AcDbLine
 10
190.5054491138083
 20
406.5398029331896
 30
0.0
 11
191.0213184858042
 21
406.9514809518359
 31
0.0
  0
LINE
  5
87
330
2
100
AcDbEntity
  8
LAYER3
100
AcDbLine
 10
193.890589524855
 20
403.3560277530773
 30
0.0
 11
193.3747201528592
 21
402.944349734431
 31
0.0
  0
LINE
  5
88
330
2
100
AcDbEntity
  8
LAYER3
100
AcDbLine
 10
193.3747201528593
 20
402.944349734431
 30
0.0
 11
192.145923642657
 21
404.4841416478123
 31
0.0
  0
LINE
  5
89
330
2
100
AcDbEntity
  8
LAYER3
100
AcDbLine
 10
191.7342456240105
 20
405.0000110198082
 30
0.0
 11
190.5054491138083
 21
406.5398029331896
 31
0.0
  0
CIRCLE
  5
8A
330
2
100
AcDbEntity
  8
LAYER3
100
AcDbCircle
 10
192.1980193193317
 20
404.9479153431334
 30
0.0
 40
4.0
  0
CIRCLE
  5
8B
330
2
100
AcDbEntity
  8
LAYER3
100
AcDbCircle
 10
192.1980193193317
 20
343.9479153431337
 30
0.0
 40
4.199999999999988
  0
LINE
  5
8C
330
2
100
AcDbEntity
  8
LAYER3
100
AcDbLine
 10
190.1944537106292
 20
342.7712145096061
 30
0.0
 11
191.7342456240105
 21
344.0000110198084
 31
0.0
  0
LINE
  5
8D
330
2
100
AcDbEntity
  8
LAYER3
100
AcDbLine
 10
192.2501149960064
 20
344.4116890384548
 30
0.0
 11
193.7899069093878
 21
345.640485548657
 31
0.0
  0
LINE
  5
8E
330
2
100
AcDbEntity
  8
LAYER3
100
AcDbLine
 10
193.7899069093878
 20
345.640485548657
 30
0.0
 11
194.2015849280343
 21
345.1246161766612
 31
0.0
  0
LINE
  5
8F
330
2
100
AcDbEntity
  8
LAYER3
100
AcDbLine
 10
190.6061317292756
 20
342.2553451376103
 30
0.0
 11
190.1944537106292
 21
342.7712145096061
 31
0.0
  0
LINE
  5
90
330
2
100
AcDbEntity
  8
LAYER3
100
AcDbLine
 10
192.145923642657
 20
343.4841416478125
 30
0.0
 11
190.6061317292756
 21
342.2553451376103
 31
0.0
  0
LINE
  5
91
330
2
100
AcDbEntity
  8
LAYER3
100
AcDbLine
 10
194.2015849280343
 20
345.1246161766612
 30
0.0
 11
192.6617930146528
 21
343.895819666459
 31
0.0
  0
LINE
  5
92
330
2
100
AcDbEntity
  8
LAYER3
100
AcDbLine
 10
192.6617930146528
 20
343.895819666459
 30
0.0
 11
193.890589524855
 21
342.3560277530776
 31
0.0
  0
LINE
  5
93
330
2
100
AcDbEntity
  8
LAYER3
100
AcDbLine
 10
191.0213184858042
 20
345.9514809518362
 30
0.0
 11
192.2501149960064
 21
344.4116890384548
 31
0.0
  0
LINE
  5
94
330
2
100
AcDbEntity
  8
LAYER3
100
AcDbLine
 10
190.5054491138083
 20
345.5398029331898
 30
0.0
 11
191.0213184858042
 21
345.9514809518362
 31
0.0
  0
LINE
  5
95
330
2
100
AcDbEntity
  8
LAYER3
100
AcDbLine
 10
193.890589524855
 20
342.3560277530776
 30
0.0
 11
193.3747201528592
 21
341.9443497344311
 31
0.0
  0
LINE
  5
96
330
2
100
AcDbEntity
  8
LAYER3
100
AcDbLine
 10
193.3747201528593
 20
341.9443497344311
 30
0.0
 11
192.145923642657
 21
343.4841416478125
 31
0.0
  0
LINE
  5
97
330
2
100
AcDbEntity
  8
LAYER3
100
AcDbLine
 10
191.7342456240105
 20
344.0000110198084
 30
0.0
 11
190.5054491138083
 21
345.5398029331898
 31
0.0
  0
CIRCLE
  5
98
330
2
100
AcDbEntity
  8
LAYER3
100
AcDbCircle
 10
192.1980193193317
 20
343.9479153431336
 30
0.0
 40
4.0
  0
CIRCLE
  5
99
330
2
100
AcDbEntity
  8
LAYER3
100
AcDbCircle
 10
192.1980193193317
 20
308.9479153431337
 30
0.0
 40
4.199999999999988
  0
LINE
  5
9A
330
2
100
AcDbEntity
  8
LAYER3
100
AcDbLine
 10
190.1944537106292
 20
307.7712145096061
 30
0.0
 11
191.7342456240105
 21
309.0000110198083
 31
0.0
  0
LINE
  5
9B
330
2
100
AcDbEntity
  8
LAYER3
100
AcDbLine
 10
192.2501149960064
 20
309.4116890384548
 30
0.0
 11
193.7899069093878
 21
310.640485548657
 31
0.0
  0
LINE
  5
9C
330
2
100
AcDbEntity
  8
LAYER3
100
AcDbLine
 10
193.7899069093878
 20
310.640485548657
 30
0.0
 11
194.2015849280343
 21
310.1246161766612
 31
0.0
  0
LINE
  5
9D
330
2
100
AcDbEntity
  8
LAYER3
100
AcDbLine
 10
190.6061317292756
 20
307.2553451376103
 30
0.0
 11
190.1944537106292
 21
307.7712145096061
 31
0.0
  0
LINE
  5
9E
330
2
100
AcDbEntity
  8
LAYER3
100
AcDbLine
 10
192.145923642657
 20
308.4841416478125
 30
0.0
 11
190.6061317292756
 21
307.2553451376103
 31
0.0
  0
LINE
  5
9F
330
2
100
AcDbEntity
  8
LAYER3
100
AcDbLine
 10
194.2015849280343
 20
310.1246161766612
 30
0.0
 11
192.6617930146528
 21
308.895819666459
 31
0.0
  0
LINE
  5
A0
330
2
100
AcDbEntity
  8
LAYER3
100
AcDbLine
 10
192.6617930146528
 20
308.895819666459
 30
0.0
 11
193.890589524855
 21
307.3560277530776
 31
0.0
  0
LINE
  5
A1
330
2
100
AcDbEntity
  8
LAYER3
100
AcDbLine
 10
191.0213184858042
 20
310.9514809518362
 30
0.0
 11
192.2501149960064
 21
309.4116890384548
 31
0.0
  0
LINE
  5
A2
330
2
100
AcDbEntity
  8
LAYER3
100
AcDbLine
 10
190.5054491138083
 20
310.5398029331898
 30
0.0
 11
191.0213184858042
 21
310.9514809518362
 31
0.0
  0
LINE
  5
A3
330
2
100
AcDbEntity
  8
LAYER3
100
AcDbLine
 10
193.890589524855
 20
307.3560277530776
 30
0.0
 11
193.3747201528592
 21
306.9443497344311
 31
0.0
  0
LINE
  5
A4
330
2
100
AcDbEntity
  8
LAYER3
100
AcDbLine
 10
193.3747201528593
 20
306.9443497344311
 30
0.0
 11
192.145923642657
 21
308.4841416478125
 31
0.0
  0
LINE
  5
A5
330
2
100
AcDbEntity
  8
LAYER3
100
AcDbLine
 10
191.7342456240105
 20
309.0000110198083
 30
0.0
 11
190.5054491138083
 21
310.5398029331898
 31
0.0
  0
CIRCLE
  5
A6
330
2
100
AcDbEntity
  8
LAYER3
100
AcDbCircle
 10
192.1980193193317
 20
308.9479153431336
 30
0.0
 40
4.0
  0
CIRCLE
  5
A7
330
2
100
AcDbEntity
  8
LAYER3
100
AcDbCircle
 10
192.1980193193317
 20
244.9479153431338
 30
0.0
 40
4.199999999999988
  0
LINE
  5
A8
330
2
100
AcDbEntity
  8
LAYER3
100
AcDbLine
 10
190.1944537106292
 20
243.7712145096063
 30
0.0
 11
191.7342456240105
 21
245.0000110198084
 31
0.0
  0
LINE
  5
A9
330
2
100
AcDbEntity
  8
LAYER3
100
AcDbLine
 10
192.2501149960064
 20
245.4116890384549
 30
0.0
 11
193.7899069093878
 21
246.6404855486571
 31
0.0
  0
LINE
  5
AA
330
2
100
AcDbEntity
  8
LAYER3
100
AcDbLine
 10
193.7899069093878
 20
246.6404855486571
 30
0.0
 11
194.2015849280343
 21
246.1246161766613
 31
0.0
  0
LINE
  5
AB
330
2
100
AcDbEntity
  8
LAYER3
100
AcDbLine
 10
190.6061317292756
 20
243.2553451376104
 30
0.0
 11
190.1944537106292
 21
243.7712145096063
 31
0.0
  0
LINE
  5
AC
330
2
100
AcDbEntity
  8
LAYER3
100
AcDbLine
 10
192.145923642657
 20
244.4841416478126
 30
0.0
 11
190.6061317292756
 21
243.2553451376104
 31
0.0
  0
LINE
  5
AD
330
2
100
AcDbEntity
  8
LAYER3
100
AcDbLine
 10
194.2015849280343
 20
246.1246161766613
 30
0.0
 11
192.6617930146528
 21
244.8958196664591
 31
0.0
  0
LINE
  5
AE
330
2
100
AcDbEntity
  8
LAYER3
100
AcDbLine
 10
192.6617930146528
 20
244.8958196664591
 30
0.0
 11
193.890589524855
 21
243.3560277530777
 31
0.0
  0
LINE
  5
AF
330
2
100
AcDbEntity
  8
LAYER3
100
AcDbLine
 10
191.0213184858042
 20
246.9514809518363
 30
0.0
 11
192.2501149960064
 21
245.4116890384549
 31
0.0
  0
LINE
  5
B0
330
2
100
AcDbEntity
  8
LAYER3
100
AcDbLine
 10
190.5054491138083
 20
246.5398029331899
 30
0.0
 11
191.0213184858042
 21
246.9514809518363
 31
0.0
  0
LINE
  5
B1
330
2
100
AcDbEntity
  8
LAYER3
100
AcDbLine
 10
193.890589524855
 20
243.3560277530777
 30
0.0
 11
193.3747201528592
 21
242.9443497344312
 31
0.0
  0
LINE
  5
B2
330
2
100
AcDbEntity
  8
LAYER3
100
AcDbLine
 10
193.3747201528593
 20
242.9443497344312
 30
0.0
 11
192.145923642657
 21
244.4841416478126
 31
0.0
  0
LINE
  5
B3
330
2
100
AcDbEntity
  8
LAYER3
100
AcDbLine
 10
191.7342456240105
 20
245.0000110198084
 30
0.0
 11
190.5054491138083
 21
246.5398029331899
 31
0.0
  0
CIRCLE
  5
B4
330
2
100
AcDbEntity
  8
LAYER3
100
AcDbCircle
 10
192.1980193193317
 20
244.9479153431337
 30
0.0
 40
4.0
  0
MULTILEADER
  5
B5
330
2
100
AcDbEntity
  8
BEMASSUNG
160
               660
310
94020000170000000C00000016000000000000C00C00000033000000000000000C00000013000000993A0000DC0000002600000040019B41DEBA554075C9C5A5E6356040000000000000000000000000000000000000000000000000000000000000F03F000000000000F03F0000000000000000000000000000000041006E
310
007300630068006C0075007300730067006500770069006E006400650020004D003600000013000000010000000000000000001040000000000000F03F0000000000000000000000000000F03F000000000000000000000000000000000000000000000000000000000100000000000000000000007400780074002E007300
310
680078000000000064000C00000033000000000000000C00000010000000010000000C00000016000000000000C00C00000012000000FF7F00000C00000013000000010000000C00000014000000010000005400000007000000030000000861506EBBC95040F23DE94DFDAE614000000000000000004C29D3F7CE1E50408C
310
EF1686A31062400000000000000000BCFA2847D5FF50400BD4BA33FCCF614000000000000000000C00000013000000891300003C0000000600000002000000E2ADBC5AC8E45040FE08D2C07CBF614000000000000000009FEBA6ACDF3C54401F7470509160604000000000000000000C00000013000000112700003C000000
310
06000000020000009FEBA6ACDF3C54401F7470509160604000000000000000003F019B41DE3A55401F7470509160604000000000000000000C00000016000000000000C00C00000012000000FF7F00000C00000017000000000000000C000000130000009A3A00000C00000016000000000000C00C00000012000000FF7F00
310
000C00000017000000FFFFFFFF0C0000003300000000000000
100
AcDbMLeader
270
     2
300
CONTEXT_DATA{
 40
1.0
 10
84.91981544625469
 20
131.0177385517463
 30
0.0
 41
4.0
140
4.0
145
2.0
174
     1
175
     6
176
     0
177
     0
290
     1
304
Anschlussgewinde M6
 11
0.0
 21
0.0
 31
1.0
340
25
 12
86.91981544625468
 22
133.684405218413
 32
0.0
 13
1.0
 23
0.0
 33
0.0
 42
0.0
 43
0.0
 44
0.0
 45
1.0
170
     1
 90
-1073741824
171
     1
172
     5
 91
-1073741824
141
0.0
 92
        0
291
     0
292
     0
173
     0
293
     0
142
0.0
143
0.0
294
     0
295
     0
296
     0
110
-63.99136690592093
120
86.74720725513131
130
0.0
111
1.0
121
0.0
131
0.0
112
0.0
122
1.0
132
0.0
297
     0
302
LEADER{
290
     1
291
     1
 10
80.95115200329608
 20
131.0177385517463
 30
0.0
 11
1.0
 21
0.0
 31
0.0
 90
        0
 40
3.968663442958586
304
LEADER_LINE{
 10
64.48138232823584
 20
144.5199613998378
 30
0.0
 91
        0
305
}
271
     0
303
}
272
     9
273
     9
301
}
340
B6
 90
   279680
170
     1
 91
-1056964608
341
28
171
    -2
290
     1
291
     1
 41
0.36
 42
4.0
172
     2
343
25
173
     1
 95
        6
174
     1
175
     0
 92
-1056964608
292
     0
 93
-1056964608
 10
1.0
 20
1.0
 30
1.0
 43
0.0
176
     0
293
     0
294
     0
178
     0
179
     1
 45
1.0
271
     0
272
     9
273
     9
295
     0
1001
ACAD_MLEADERVER
1070
     2
  0
MULTILEADER
  5
B7
330
2
100
AcDbEntity
  8
BEMASSUNG
160
               660
310
94020000170000000C00000016000000000000C00C00000033000000000000000C00000013000000993A0000DC000000260000002A43BB05DB025340BE40BDA885177E40000000000000000000000000000000000000000000000000000000000000F03F000000000000F03F0000000000000000000000000000000041006E
310
007300630068006C0075007300730067006500770069006E006400650020004D003600000013000000010000000000000000001040000000000000F03F0000000000000000000000000000F03F000000000000000000000000000000000000000000000000000000000100000000000000000000007400780074002E007300
310
680078000000000064000C00000033000000000000000C00000010000000010000000C00000016000000000000C00C00000012000000FF7F00000C00000013000000010000000C00000014000000010000005400000007000000030000005C923F901DBB5040328E857557607D400000000000000000882B26C25B1450400E
310
9E31E69F2E7D4000000000000000005A4ED1939A715040EE1383D12C6B7D4000000000000000000C00000013000000891300003C00000006000000020000005B7008125C96504010518423C2657D400000000000000000539F4AC8D06B5240139612FEDA2C7E4000000000000000000C00000013000000112700003C000000
310
0600000002000000539F4AC8D06B5240139612FEDA2C7E4000000000000000002A43BB05DB825240139612FEDA2C7E4000000000000000000C00000016000000000000C00C00000012000000FF7F00000C00000017000000000000000C000000130000009A3A00000C00000016000000000000C00C00000012000000FF7F00
310
000C00000017000000FFFFFFFF0C0000003300000000000000
100
AcDbMLeader
270
     2
300
CONTEXT_DATA{
 40
1.0
 10
74.04461806571331
 20
482.8034649587654
 30
0.0
 41
4.0
140
4.0
145
2.0
174
     1
175
     6
176
     0
177
     0
290
     1
304
Anschlussgewinde M6
 11
0.0
 21
0.0
 31
1.0
340
25
 12
76.04461806571331
 22
485.4701316254321
 32
0.0
 13
1.0
 23
0.0
 33
0.0
 42
0.0
 43
0.0
 44
0.0
 45
1.0
170
     1
 90
-1073741824
171
     1
172
     5
 91
-1073741824
141
0.0
 92
        0
291
     0
292
     0
173
     0
293
     0
142
0.0
143
0.0
294
     0
295
     0
296
     0
110
64.31810048797172
120
466.5440378893069
130
0.0
111
1.0
121
0.0
131
0.0
112
0.0
122
1.0
132
0.0
297
     0
302
LEADER{
290
     1
291
     1
 10
73.68461806571331
 20
482.8034649587654
 30
0.0
 11
1.0
 21
0.0
 31
0.0
 90
        0
 40
0.36
304
LEADER_LINE{
 10
64.31810048797172
 20
466.914037889307
 30
0.0
 91
        0
305
}
271
     0
303
}
272
     9
273
     9
301
}
340
B6
 90
   279552
170
     1
 91
-1056964608
341
28
171
    -2
290
     1
291
     1
 41
0.36
 42
4.0
172
     2
343
25
173
     1
 95
        6
174
     1
175
     0
 92
-1056964608
292
     0
 93
-1056964608
 10
1.0
 20
1.0
 30
1.0
 43
0.0
176
     0
293
     0
294
     0
178
     0
179
     1
 45
1.0
271
     0
272
     9
273
     9
295
     0
1001
ACAD_MLEADERVER
1070
     2
  0
LINE
  5
B8
330
2
100
AcDbEntity
  8
ACHSEN
100
AcDbLine
 10
198.7078026416257
 20
191.4479153431338
 30
0.0
 11
186.381837646446
 21
191.4479153431338
 31
0.0
  0
LINE
  5
BD
330
2
100
AcDbEntity
  8
ACHSEN
100
AcDbLine
 10
198.7078026416258
 20
244.9479153431337
 30
0.0
 11
186.3818376464461
 21
244.9479153431337
 31
0.0
  0
LINE
  5
BE
330
2
100
AcDbEntity
  8
ACHSEN
100
AcDbLine
 10
198.7078026416254
 20
308.9479153431336
 30
0.0
 11
186.3818376464458
 21
308.9479153431336
 31
0.0
  0
LINE
  5
BF
330
2
100
AcDbEntity
  8
ACHSEN
100
AcDbLine
 10
198.7078026416254
 20
343.9479153431336
 30
0.0
 11
186.3818376464458
 21
343.9479153431336
 31
0.0
  0
LINE
  5
C0
330
2
100
AcDbEntity
  8
ACHSEN
100
AcDbLine
 10
198.7078026416257
 20
404.9479153431334
 30
0.0
 11
186.381837646446
 21
404.9479153431334
 31
0.0
  0
LINE
  5
C1
330
2
100
AcDbEntity
  8
ACHSEN
100
AcDbLine
 10
192.1980193193317
 20
137.4570192619996
 30
0.0
 11
192.1980193193317
 21
502.4013948415032
 31
0.0
  0
LINE
  5
C2
330
2
100
AcDbEntity
  8
ACHSEN
100
AcDbLine
 10
198.7078026416257
 20
485.4479153431333
 30
0.0
 11
186.381837646446
 21
485.4479153431333
 31
0.0
  0
LINE
  5
C3
330
2
100
AcDbEntity
  8
ACHSEN
100
AcDbLine
 10
68.35574201552117
 20
163.5192597826895
 30
0.0
 11
59.99880882129037
 21
163.5192597826895
 31
0.0
  0
LINE
  5
C4
330
2
100
AcDbEntity
  8
ACHSEN
100
AcDbLine
 10
45.31810048797421
 20
328.3798390691444
 30
0.0
 11
45.31810048797421
 21
338.6570557825598
 31
0.0
  0
LINE
  5
C5
330
2
100
AcDbEntity
  8
ACHSEN
100
AcDbLine
 10
70.59381800986864
 20
332.9479153431336
 30
0.0
 11
40.99880882129037
 21
332.9479153431336
 31
0.0
  0
LINE
  5
C6
330
2
100
AcDbEntity
  8
ACHSEN
100
AcDbLine
 10
70.59381800986864
 20
311.4479153431336
 30
0.0
 11
56.74324905668107
 21
311.4479153431336
 31
0.0
  0
LINE
  5
C7
330
2
100
AcDbEntity
  8
ACHSEN
100
AcDbLine
 10
64.31810048797172
 20
484.2929237743534
 30
0.0
 11
64.31810048797172
 21
139.1110909964446
 31
0.0
  0
DIMENSION
  5
C8
330
2
100
AcDbEntity
  8
BEMASSUNG
100
AcDbDimension
280
     0
  2
*D15
 10
88.44840323722165
 20
98.01296570497541
 30
0.0
 11
85.22741074063228
 21
106.9129657049751
 31
0.0
 71
     5
 42
17.79999999999944
 73
     0
 74
     0
 75
     0
  3
Katalog 09
100
AcDbAlignedDimension
 13
80.44572974592972
 23
115.8129657049748
 33
0.0
 14
80.44572974592972
 24
98.01296570497541
 34
0.0
 50
90.0
100
AcDbRotatedDimension
  0
DIMENSION
  5
D5
330
2
100
AcDbEntity
  8
BEMASSUNG
100
AcDbDimension
280
     0
  2
*D14
 10
98.57448718604388
 20
446.9492068312915
 30
0.0
 11
98.57448718604381
 21
452.1944534485554
 31
0.0
 70
   128
  1
Hub = <>
 71
     5
 42
20.00220545905524
 73
     0
 74
     0
 75
     0
  3
Katalog 09
100
AcDbAlignedDimension
 13
69.17249949731854
 23
466.9514122903467
 33
0.0
 14
105.2402447286022
 24
446.9492068312915
 34
0.0
 50
90.0
100
AcDbRotatedDimension
1001
ACAD_DSTYLE_DIMINSPECT
1070
   396
1000
100%
1070
   395
1000

1070
   394
1070
    33
1070
   393
1070
     0
  0
DIMENSION
  5
E3
330
2
100
AcDbEntity
  8
BEMASSUNG
100
AcDbDimension
280
     0
  2
*D13
 10
100.6678316846687
 20
144.5060604009321
 30
0.0
 11
100.6678316846687
 21
158.8361906022426
 31
0.0
 70
   128
  1
Hub = <>
 71
     5
 42
20.00073857163977
 73
     0
 74
     0
 75
     0
  3
Katalog 09
100
AcDbAlignedDimension
 13
107.9050328055182
 23
164.5067989725719
 33
0.0
 14
64.31810048797172
 24
144.5060604009321
 34
0.0
 50
90.0
100
AcDbRotatedDimension
1001
ACAD_DSTYLE_DIMINSPECT
1070
   396
1000
100%
1070
   395
1000

1070
   394
1070
    33
1070
   393
1070
     0
  0
DIMENSION
  5
F0
330
2
100
AcDbEntity
  8
BEMASSUNG
100
AcDbDimension
280
     0
  2
*D12
 10
112.9818077898211
 20
144.507463661138
 30
0.0
 11
109.7608152932317
 21
238.7276895021359
 31
0.0
 71
     5
 42
188.4404516819955
 73
     0
 74
     0
 75
     0
  3
Katalog 09
100
AcDbAlignedDimension
 13
64.31810048797422
 23
332.9479153431337
 33
0.0
 14
64.48138232823601
 24
144.507463661138
 34
0.0
 50
90.0
100
AcDbRotatedDimension
1001
ACAD_DSTYLE_DIMINSPECT
1070
   396
1000
100%
1070
   395
1000

1070
   394
1070
    33
1070
   393
1070
     0
1001
ACAD
1000
DSTYLE
1002
{
1070
   271
1070
     0
1002
}
  0
DIMENSION
  5
FD
330
2
100
AcDbEntity
  8
BEMASSUNG
100
AcDbDimension
280
     0
  2
*D11
 10
112.9854864762868
 20
332.9479153431338
 30
0.0
 11
109.7630103507752
 21
399.9496606394986
 31
0.0
 71
     5
 42
134.0034905927296
 73
     0
 74
     0
 75
     0
  3
Katalog 09
100
AcDbAlignedDimension
 13
69.17167414102244
 23
466.9514059358633
 33
0.0
 14
64.31810048797422
 24
332.9479153431338
 34
0.0
 50
90.0
100
AcDbRotatedDimension
1001
ACAD_DSTYLE_DIMINSPECT
1070
   396
1000
100%
1070
   395
1000

1070
   394
1070
    33
1070
   393
1070
     0
  0
DIMENSION
  5
10A
330
2
100
AcDbEntity
  8
BEMASSUNG
100
AcDbDimension
280
     0
  2
*D10
 10
101.888508625528
 20
213.4479153431338
 30
0.0
 11
98.66751612893871
 21
273.1979153431338
 31
0.0
 71
     5
 42
119.4999999999999
 73
     0
 74
     0
 75
     0
  3
Katalog 09
100
AcDbAlignedDimension
 13
64.31810048797422
 23
332.9479153431337
 33
0.0
 14
79.31810048797443
 24
213.4479153431338
 34
0.0
 50
90.0
100
AcDbRotatedDimension
  0
DIMENSION
  5
117
330
2
100
AcDbEntity
  8
BEMASSUNG
100
AcDbDimension
280
     0
  2
*D9
 10
101.9097674840389
 20
332.9479153431337
 30
0.0
 11
98.68877498744957
 21
373.1979153431337
 31
0.0
 71
     5
 42
80.5
 73
     0
 74
     0
 75
     0
  3
Katalog 09
100
AcDbAlignedDimension
 13
55.72079305181193
 23
413.4479153431336
 33
0.0
 14
64.31810048797422
 24
332.9479153431337
 34
0.0
 50
90.0
100
AcDbRotatedDimension
  0
DIMENSION
  5
124
330
2
100
AcDbEntity
  8
BEMASSUNG
100
AcDbDimension
280
     0
  2
*D8
 10
90.31336356156486
 20
311.4479153431337
 30
0.0
 11
87.09237106497544
 21
322.1979153431338
 31
0.0
 71
     5
 42
21.5
 73
     0
 74
     0
 75
     0
  3
Katalog 09
100
AcDbAlignedDimension
 13
64.31810048797422
 23
332.9479153431337
 33
0.0
 14
70.59381800986864
 24
311.4479153431337
 34
0.0
 50
90.0
100
AcDbRotatedDimension
  0
DIMENSION
  5
131
330
2
100
AcDbEntity
  8
BEMASSUNG
100
AcDbDimension
280
     0
  2
*D7
 10
64.31810048797172
 20
130.3148159891277
 30
0.0
 11
46.81810048797296
 21
133.4898159891277
 31
0.0
  1
DM
 71
     5
 42
34.9999999999975
 73
     0
 74
     0
 75
     0
  3
Katalog 09
100
AcDbAlignedDimension
 13
29.31810048797422
 23
178.4479153431339
 33
0.0
 14
64.31810048797172
 24
139.1110909964446
 34
0.0
 50
180.0
100
AcDbRotatedDimension
  0
DIMENSION
  5
13E
330
2
100
AcDbEntity
  8
BEMASSUNG
100
AcDbDimension
280
     0
  2
*D21
 10
29.31810048797422
 20
514.3719214113355
 30
0.0
 11
18.89381672262633
 21
514.3719214113355
 31
0.0
 70
   160
 71
     5
 42
3.0
 73
     0
 74
     0
 75
     0
  3
Katalog 09
100
AcDbAlignedDimension
 13
32.31810048797422
 23
498.4479153431338
 33
0.0
 14
29.31810048797422
 24
498.1979153431336
 34
0.0
 50
180.0
100
AcDbRotatedDimension
  0
DIMENSION
  5
14D
330
2
100
AcDbEntity
  8
BEMASSUNG
100
AcDbDimension
280
     0
  2
*D5
 10
10.77628941873479
 20
213.447915343135
 30
0.0
 11
7.555296922145402
 21
313.4479153431348
 31
0.0
 71
     5
 42
199.9999999999995
 73
     0
 74
     0
 75
     0
  3
Katalog 09
100
AcDbAlignedDimension
 13
32.31810048797422
 23
413.4479153431345
 33
0.0
 14
32.51810048797449
 24
213.447915343135
 34
0.0
 50
90.0
100
AcDbRotatedDimension
  0
DIMENSION
  5
15A
330
2
100
AcDbEntity
  8
BEMASSUNG
100
AcDbDimension
280
     0
  2
*D4
 10
11.03832478916809
 20
498.4479153431336
 30
0.0
 11
7.817332292578644
 21
455.9479153431341
 31
0.0
 71
     5
 42
84.99999999999914
 73
     0
 74
     0
 75
     0
  3
Katalog 09
100
AcDbAlignedDimension
 13
32.31810048797422
 23
413.4479153431345
 33
0.0
 14
30.81810048797422
 24
498.4479153431336
 34
0.0
 50
90.0
100
AcDbRotatedDimension
  0
DIMENSION
  5
167
330
2
100
AcDbEntity
  8
BEMASSUNG
100
AcDbDimension
280
     0
  2
*D3
 10
169.8238527905
 20
498.4479153431336
 30
0.0
 11
166.6013766649883
 21
491.9479153431336
 31
0.0
 71
     5
 42
13.00000000000034
 73
     0
 74
     0
 75
     0
  3
Katalog 09
100
AcDbAlignedDimension
 13
186.381837646446
 23
485.4479153431333
 33
0.0
 14
180.198019319331
 24
498.4479153431336
 34
0.0
 50
90.0
100
AcDbRotatedDimension
  0
DIMENSION
  5
174
330
2
100
AcDbEntity
  8
BEMASSUNG
100
AcDbDimension
280
     0
  2
*D2
 10
169.8383038290829
 20
178.447915343134
 30
0.0
 11
166.6158277035713
 21
184.9479153431339
 31
0.0
 71
     5
 42
12.99999999999983
 73
     0
 74
     0
 75
     0
  3
Katalog 09
100
AcDbAlignedDimension
 13
186.381837646446
 23
191.4479153431338
 33
0.0
 14
180.198019319331
 24
178.447915343134
 34
0.0
 50
90.0
100
AcDbRotatedDimension
  0
DIMENSION
  5
181
330
2
100
AcDbEntity
  8
BEMASSUNG
100
AcDbDimension
280
     0
  2
*D1
 10
159.8031498515288
 20
178.4479153431336
 30
0.0
 11
156.5806737260172
 21
338.4479153431335
 31
0.0
 71
     5
 42
319.9999999999998
 73
     0
 74
     0
 75
     0
  3
Katalog 09
100
AcDbAlignedDimension
 13
180.1980193193318
 23
498.4479153431333
 33
0.0
 14
180.1980193193318
 24
178.4479153431336
 34
0.0
 50
90.0
100
AcDbRotatedDimension
  0
DIMENSION
  5
18E
330
2
100
AcDbEntity
  8
BEMASSUNG
100
AcDbDimension
280
     0
  2
*D0
 10
10.74211838055032
 20
178.4479153431339
 30
0.0
 11
7.5196422550387
 21
195.9479153431339
 31
0.0
 71
     5
 42
35.0
 73
     0
 74
     0
 75
     0
  3
Katalog 09
100
AcDbAlignedDimension
 13
32.31810048797422
 23
213.4479153431339
 33
0.0
 14
32.31810048797422
 24
178.4479153431339
 34
0.0
 50
90.0
100
AcDbRotatedDimension
  0
LINE
  5
19B
330
2
100
AcDbEntity
  8
ACHSEN
100
AcDbLine
 10
37.26390501387403
 20
191.4479153431316
 30
0.0
 11
23.41333606068645
 21
191.4479153431316
 31
0.0
  0
LINE
  5
19C
330
2
100
AcDbEntity
  8
ACHSEN
100
AcDbLine
 10
37.17091241267269
 20
485.4479153431342
 30
0.0
 11
23.32034345948512
 21
485.4479153431342
 31
0.0
  0
LINE
  5
19D
330
2
100
AcDbEntity
  8
LAYER3
100
AcDbLine
 10
198.7980193193399
 20
396.9123814372009
 30
0.0
 11
198.7980193193399
 21
397.0903438716963
 31
0.0
  0
LINE
  5
19E
330
2
100
AcDbEntity
  8
LAYER3
100
AcDbLine
 10
198.7980193193399
 20
396.9123814372009
 30
0.0
 11
198.79801931934
 21
396.0837161159889
 31
0.0
  0
LINE
  5
19F
330
2
100
AcDbEntity
  8
LAYER3
100
AcDbLine
 10
187.5480193193443
 20
277.9479153431335
 30
0.0
 11
188.0480193193442
 21
277.9479153431335
 31
0.0
  0
LINE
  5
1A0
330
2
100
AcDbEntity
  8
LAYER3
100
AcDbLine
 10
199.0480193193443
 20
267.9479153431336
 30
0.0
 11
199.1980193193443
 21
267.9479153431336
 31
0.0
  0
LINE
  5
1A1
330
2
100
AcDbEntity
  8
LAYER3
100
AcDbLine
 10
196.0480193193443
 20
267.9479153431336
 30
0.0
 11
196.5480193193443
 21
267.9479153431336
 31
0.0
  0
LINE
  5
1A2
330
2
100
AcDbEntity
  8
LAYER3
100
AcDbLine
 10
199.0480193193443
 20
277.9479153431335
 30
0.0
 11
199.1980193193443
 21
277.9479153431335
 31
0.0
  0
LINE
  5
1A3
330
2
100
AcDbEntity
  8
LAYER3
100
AcDbLine
 10
193.6980193193443
 20
277.9479153431335
 30
0.0
 11
196.5480193193443
 21
277.9479153431335
 31
0.0
  0
LINE
  5
1A4
330
2
100
AcDbEntity
  8
LAYER3
100
AcDbLine
 10
185.0480193193418
 20
390.9479153431336
 30
0.0
 11
190.6980193193418
 21
390.9479153431336
 31
0.0
  0
LINE
  5
1A5
330
2
100
AcDbEntity
  8
LAYER3
100
AcDbLine
 10
187.1980193193474
 20
169.4760693140477
 30
0.0
 11
187.1980193193474
 21
144.4769924945056
 31
0.0
  0
LINE
  5
1A6
330
2
100
AcDbEntity
  8
LAYER3
100
AcDbLine
 10
197.1980193193474
 20
144.4769924945056
 30
0.0
 11
197.1980193193474
 21
169.4760693140477
 31
0.0
  0
LINE
  5
1A7
330
2
100
AcDbEntity
  8
LAYER3
100
AcDbLine
 10
187.1980193193474
 20
144.4769924945056
 30
0.0
 11
197.1980193193474
 21
144.4769924945056
 31
0.0
  0
LINE
  5
1A8
330
2
100
AcDbEntity
  8
LAYER3
100
AcDbLine
 10
190.4480193193474
 20
169.4760693140477
 30
0.0
 11
187.1980193193474
 21
169.4760693140477
 31
0.0
  0
LINE
  5
1A9
330
2
100
AcDbEntity
  8
LAYER3
100
AcDbLine
 10
187.1980193193474
 20
169.4760693140477
 30
0.0
 11
187.1980193193502
 21
169.5620071247118
 31
0.0
  0
LINE
  5
1AA
330
2
100
AcDbEntity
  8
LAYER3
100
AcDbLine
 10
190.4480193193502
 20
169.5620071247118
 30
0.0
 11
187.1980193193502
 21
169.5620071247118
 31
0.0
  0
LINE
  5
1AB
330
2
100
AcDbEntity
  8
LAYER3
100
AcDbLine
 10
197.1980193193502
 20
169.5620071247118
 30
0.0
 11
193.9480193193503
 21
169.5620071247118
 31
0.0
  0
LINE
  5
1AC
330
2
100
AcDbEntity
  8
LAYER3
100
AcDbLine
 10
197.1980193193474
 20
169.4760693140477
 30
0.0
 11
197.1980193193502
 21
169.5620071247118
 31
0.0
  0
LINE
  5
1AD
330
2
100
AcDbEntity
  8
LAYER3
100
AcDbLine
 10
197.1980193193474
 20
169.4760693140477
 30
0.0
 11
193.9480193193474
 21
169.4760693140477
 31
0.0
  0
LINE
  5
1AE
330
2
100
AcDbEntity
  8
LAYER3
100
AcDbLine
 10
190.4480193193474
 20
157.2765198261113
 30
0.0
 11
190.4480193193474
 21
169.4760693140477
 31
0.0
  0
LINE
  5
1AF
330
2
100
AcDbEntity
  8
LAYER3
100
AcDbLine
 10
190.4480193193474
 20
169.4760693140477
 30
0.0
 11
190.4480193193502
 21
169.5620071247118
 31
0.0
  0
LINE
  5
1B0
330
2
100
AcDbEntity
  8
LAYER3
100
AcDbLine
 10
193.9480193193503
 20
169.5620071247118
 30
0.0
 11
193.9480193193474
 21
169.4760693140477
 31
0.0
  0
LINE
  5
1B1
330
2
100
AcDbEntity
  8
LAYER3
100
AcDbLine
 10
193.9480193193474
 20
169.4760693140477
 30
0.0
 11
193.9480193193474
 21
157.2765198261112
 31
0.0
  0
LINE
  5
1B2
330
2
100
AcDbEntity
  8
LAYER3
100
AcDbLine
 10
193.9480193193474
 20
157.2765198261113
 30
0.0
 11
190.4480193193474
 21
157.2765198261113
 31
0.0
  0
ELLIPSE
  5
1B3
330
2
100
AcDbEntity
  8
LAYER3
100
AcDbEllipse
 10
192.1980193193489
 20
157.3194887314432
 30
0.0
 11
2.458499999999999
 21
0.0000000000000087
 31
0.0
210
0.0
220
0.0
230
1.0
 40
0.008593781066405
 41
3.920308388002649
 42
5.504469569936166
  0
LINE
  5
1B4
330
2
100
AcDbEntity
  8
LAYER3
100
AcDbLine
 10
190.4480193193503
 20
157.3624576367753
 30
0.0
 11
193.9480193193503
 21
157.3624576367753
 31
0.0
  0
ELLIPSE
  5
1B5
330
2
100
AcDbEntity
  8
LAYER3
100
AcDbEllipse
 10
192.1980193193489
 20
157.3194887314432
 30
0.0
 11
-2.458499999999999
 21
-0.0000000000000087
 31
0.0
210
0.0
220
0.0
230
1.0
 40
0.008593781066405
 41
3.920308387998561
 42
5.504469569931663
  0
LINE
  5
1B6
330
2
100
AcDbEntity
  8
LAYER3
100
AcDbLine
 10
190.698019319342
 20
381.6979153431339
 30
0.0
 11
185.0851431141535
 21
381.6979153431339
 31
0.0
  0
LINE
  5
1B7
330
2
100
AcDbEntity
  8
LAYER3
100
AcDbLine
 10
196.548019319342
 20
381.6979153431339
 30
0.0
 11
196.2980193193421
 21
381.6979153431339
 31
0.0
  0
LINE
  5
1B8
330
2
100
AcDbEntity
  8
LAYER3
100
AcDbLine
 10
199.3108955245304
 20
381.6979153431339
 30
0.0
 11
199.0480193193421
 21
381.6979153431339
 31
0.0
  0
LINE
  5
1B9
330
2
100
AcDbEntity
  8
LAYER3
100
AcDbLine
 10
190.698019319342
 20
384.1979153431339
 30
0.0
 11
185.0480193193421
 21
384.1979153431339
 31
0.0
  0
LINE
  5
1BA
330
2
100
AcDbEntity
  8
LAYER3
100
AcDbLine
 10
196.548019319342
 20
384.1979153431339
 30
0.0
 11
196.2980193193421
 21
384.1979153431339
 31
0.0
  0
LINE
  5
1BB
330
2
100
AcDbEntity
  8
LAYER3
100
AcDbLine
 10
199.348019319342
 20
384.1979153431339
 30
0.0
 11
199.0480193193421
 21
384.1979153431339
 31
0.0
  0
LINE
  5
1BC
330
2
100
AcDbEntity
  8
LAYER3
100
AcDbLine
 10
190.5480193193399
 20
272.4613970079794
 30
0.0
 11
190.5480193193394
 21
281.3420353527586
 31
0.0
  0
LINE
  5
1BD
330
2
100
AcDbEntity
  8
LAYER3
100
AcDbLine
 10
190.548019319341
 20
257.006248214187
 30
0.0
 11
190.548019319341
 21
257.2617584367993
 31
0.0
  0
LINE
  5
1BE
330
2
100
AcDbEntity
  8
LAYER3
100
AcDbLine
 10
190.5480193193408
 20
252.9479153431333
 30
0.0
 11
190.548019319341
 21
257.006248214187
 31
0.0
  0
LINE
  5
1BF
330
2
100
AcDbEntity
  8
LAYER3
100
AcDbLine
 10
188.0480193193399
 20
272.4613970079794
 30
0.0
 11
188.0480193193393
 21
281.3420353527586
 31
0.0
  0
LINE
  5
1C0
330
2
100
AcDbEntity
  8
LAYER3
100
AcDbLine
 10
188.048019319341
 20
257.006248214187
 30
0.0
 11
188.048019319341
 21
257.2617584367993
 31
0.0
  0
LINE
  5
1C1
330
2
100
AcDbEntity
  8
LAYER3
100
AcDbLine
 10
188.0480193193407
 20
252.9516676898175
 30
0.0
 11
188.048019319341
 21
257.006248214187
 31
0.0
  0
ELLIPSE
  5
1C2
330
2
100
AcDbEntity
  8
LAYER3
100
AcDbEllipse
 10
190.5480193193399
 20
296.2023396571749
 30
0.0
 11
-2.499999999999995
 21
0.000000000000008
 31
0.0
210
0.0
220
0.0
230
1.0
 40
0.136159318123125
 41
4.712388980385286
 42
6.283185307164112
  0
LINE
  5
1C3
330
2
100
AcDbEntity
  8
LAYER3
100
AcDbLine
 10
188.0480193193399
 20
296.2023396571749
 30
0.0
 11
188.0480193193393
 21
281.3420353527586
 31
0.0
  0
ELLIPSE
  5
1C4
330
2
100
AcDbEntity
  8
LAYER3
100
AcDbEllipse
 10
190.5480193193394
 20
281.3420353527586
 30
0.0
 11
-2.499999999999996
 21
0.0000000000000181
 31
0.0
210
0.0
220
0.0
230
1.0
 40
0.1361593181231243
 41
4.712388980369072
 42
6.283185307147747
  0
LINE
  5
1C5
330
2
100
AcDbEntity
  8
LAYER3
100
AcDbLine
 10
190.5480193193391
 20
296.5427379524827
 30
0.0
 11
196.0480193193392
 21
296.5427379524827
 31
0.0
  0
LINE
  5
1C6
330
2
100
AcDbEntity
  8
LAYER3
100
AcDbLine
 10
196.0480193193392
 20
296.5427379524827
 30
0.0
 11
196.0480193193386
 21
281.6824336480666
 31
0.0
  0
LINE
  5
1C7
330
2
100
AcDbEntity
  8
LAYER3
100
AcDbLine
 10
188.0480193193393
 20
281.3420353527586
 30
0.0
 11
190.5480193193394
 21
281.3420353527586
 31
0.0
  0
LINE
  5
1C8
330
2
100
AcDbEntity
  8
LAYER3
100
AcDbLine
 10
196.0480193193386
 20
281.6824336480666
 30
0.0
 11
190.5480193193386
 21
281.6824336480666
 31
0.0
  0
LINE
  5
1C9
330
2
100
AcDbEntity
  8
LAYER3
100
AcDbLine
 10
196.0480193193389
 20
281.5462743299434
 30
0.0
 11
196.0480193193386
 21
281.6824336480666
 31
0.0
  0
LINE
  5
1CA
330
2
100
AcDbEntity
  8
LAYER3
100
AcDbLine
 10
190.5480193193394
 20
281.3420353527586
 30
0.0
 11
194.5480193193393
 21
281.3420353527586
 31
0.0
  0
LINE
  5
1CB
330
2
100
AcDbEntity
  8
LAYER3
100
AcDbLine
 10
196.0480193193389
 20
281.5462743299434
 30
0.0
 11
194.5480193193393
 21
281.3420353527586
 31
0.0
  0
ELLIPSE
  5
1CC
330
2
100
AcDbEntity
  8
LAYER3
100
AcDbEllipse
 10
193.7480193193385
 20
366.6219230011198
 30
0.0
 11
0.0500000000000115
 21
0.0000000000000174
 31
0.0
210
0.0
220
0.0
230
1.0
 40
0.9995129291151179
 41
4.712388980384339
 42
6.283185307179226
  0
ELLIPSE
  5
1CD
330
2
100
AcDbEntity
  8
LAYER3
100
AcDbEllipse
 10
193.7480193193362
 20
366.3878671746413
 30
0.0
 11
0.0500000000000092
 21
0.0000000000000183
 31
0.0
210
0.0
220
0.0
230
1.0
 40
0.9995129291151155
 41
4.712388980384321
 42
6.283185307179211
  0
ELLIPSE
  5
1CE
330
2
100
AcDbEntity
  8
LAYER3
100
AcDbEllipse
 10
186.0480193193401
 20
366.759192015847
 30
0.0
 11
-0.9999999999999987
 21
-0.0000000000000002
 31
0.0
210
0.0
220
0.0
230
1.0
 40
0.0312074435304868
 41
3.665191429719387
 42
6.283185307785783
  0
LINE
  5
1CF
330
2
100
AcDbEntity
  8
LAYER3
100
AcDbLine
 10
186.9140447231248
 20
366.7747957376124
 30
0.0
 11
190.6668214728554
 21
366.5719473546641
 31
0.0
  0
LINE
  5
1D0
330
2
100
AcDbEntity
  8
LAYER3
100
AcDbLine
 10
190.6668214728554
 20
366.5719473546641
 30
0.0
 11
193.7480193193385
 21
366.5719473546641
 31
0.0
  0
LINE
  5
1D1
330
2
100
AcDbEntity
  8
LAYER3
100
AcDbLine
 10
193.7480193193362
 20
366.3378915281855
 30
0.0
 11
193.0480193193363
 21
366.3378915281855
 31
0.0
  0
LINE
  5
1D2
330
2
100
AcDbEntity
  8
LAYER3
100
AcDbLine
 10
198.0480193193348
 20
363.6830719877452
 30
0.0
 11
186.0480193193348
 21
363.6830719877452
 31
0.0
  0
LINE
  5
1D3
330
2
100
AcDbEntity
  8
LAYER3
100
AcDbLine
 10
186.0480193193348
 20
363.6830719877452
 30
0.0
 11
186.0480193193348
 21
366.1818543105332
 31
0.0
  0
LINE
  5
1D4
330
2
100
AcDbEntity
  8
LAYER3
100
AcDbLine
 10
198.0480193193348
 20
363.6830719877452
 30
0.0
 11
198.0480193193348
 21
366.1818543105332
 31
0.0
  0
LINE
  5
1D5
330
2
100
AcDbEntity
  8
LAYER3
100
AcDbLine
 10
193.0480193193363
 20
366.3378915281855
 30
0.0
 11
193.048019319336
 21
366.3166658220224
 31
0.0
  0
LINE
  5
1D6
330
2
100
AcDbEntity
  8
LAYER3
100
AcDbLine
 10
193.048019319336
 20
366.3166658220224
 30
0.0
 11
198.0480193193355
 21
366.2598729193592
 31
0.0
  0
LINE
  5
1D7
330
2
100
AcDbEntity
  8
LAYER3
100
AcDbLine
 10
198.0480193193355
 20
366.2598729193592
 30
0.0
 11
198.0480193193348
 21
366.1818543105332
 31
0.0
  0
LINE
  5
1D8
330
2
100
AcDbEntity
  8
LAYER3
100
AcDbLine
 10
198.0480193193348
 20
366.1818543105332
 30
0.0
 11
186.0480193193348
 21
366.1818543105332
 31
0.0
  0
LINE
  5
1D9
330
2
100
AcDbEntity
  8
LAYER3
100
AcDbLine
 10
186.0480193193368
 20
366.4003064152465
 30
0.0
 11
186.0480193193348
 21
366.1818543105332
 31
0.0
  0
LINE
  5
1DA
330
2
100
AcDbEntity
  8
LAYER3
100
AcDbLine
 10
186.0480193193368
 20
363.9015240924588
 30
0.0
 11
185.0480193193372
 21
363.9327315359893
 31
0.0
  0
LINE
  5
1DB
330
2
100
AcDbEntity
  8
LAYER3
100
AcDbLine
 10
185.0480193193372
 20
366.4315138587769
 30
0.0
 11
186.0480193193368
 21
366.4003064152465
 31
0.0
  0
LINE
  5
1DC
330
2
100
AcDbEntity
  8
LAYER3
100
AcDbLine
 10
196.2980193193366
 20
390.6900874668319
 30
0.0
 11
196.298019319336
 21
386.4706282970317
 31
0.0
  0
LINE
  5
1DD
330
2
100
AcDbEntity
  8
LAYER3
100
AcDbLine
 10
196.2980193193366
 20
390.6900874668319
 30
0.0
 11
196.2980193193397
 21
397.9479153431339
 31
0.0
  0
LINE
  5
1DE
330
2
100
AcDbEntity
  8
LAYER3
100
AcDbLine
 10
196.298019319336
 20
366.2797504352913
 30
0.0
 11
196.298019319336
 21
386.4706282970317
 31
0.0
  0
LINE
  5
1DF
330
2
100
AcDbEntity
  8
LAYER3
100
AcDbLine
 10
193.7980193193397
 20
397.9479153431339
 30
0.0
 11
193.7980193193366
 21
390.6900874668319
 31
0.0
  0
LINE
  5
1E0
330
2
100
AcDbEntity
  8
LAYER3
100
AcDbLine
 10
193.798019319336
 20
386.4706282970317
 30
0.0
 11
193.7980193193366
 21
390.6900874668319
 31
0.0
  0
LINE
  5
1E1
330
2
100
AcDbEntity
  8
LAYER3
100
AcDbLine
 10
193.798019319336
 20
386.4706282970317
 30
0.0
 11
193.7980193193363
 21
366.3878671746413
 31
0.0
  0
LINE
  5
1E2
330
2
100
AcDbEntity
  8
LAYER3
100
AcDbLine
 10
190.6980193193406
 20
367.5227254029961
 30
0.0
 11
190.6980193193414
 21
366.5719473546638
 31
0.0
  0
LINE
  5
1E3
330
2
100
AcDbEntity
  8
LAYER3
100
AcDbLine
 10
190.6980193193406
 20
367.5227254029961
 30
0.0
 11
190.6980193193403
 21
368.4604943191447
 31
0.0
  0
LINE
  5
1E4
330
2
100
AcDbEntity
  8
LAYER3
100
AcDbLine
 10
190.6980193193404
 20
379.9242463481194
 30
0.0
 11
190.6980193193404
 21
368.4604943191447
 31
0.0
  0
LINE
  5
1E5
330
2
100
AcDbEntity
  8
LAYER3
100
AcDbLine
 10
190.6980193193398
 20
384.0328940789854
 30
0.0
 11
190.6980193193404
 21
379.9242463481194
 31
0.0
  0
LINE
  5
1E6
330
2
100
AcDbEntity
  8
LAYER3
100
AcDbLine
 10
190.6980193193392
 20
385.2110126879474
 30
0.0
 11
190.6980193193398
 21
384.0328940789854
 31
0.0
  0
LINE
  5
1E7
330
2
100
AcDbEntity
  8
LAYER3
100
AcDbLine
 10
190.6980193193392
 20
385.2110126879474
 30
0.0
 11
190.6980193193386
 21
389.3196604188134
 31
0.0
  0
LINE
  5
1E8
330
2
100
AcDbEntity
  8
LAYER3
100
AcDbLine
 10
190.6980193193386
 20
397.9479153431336
 30
0.0
 11
190.6980193193386
 21
389.3196604188134
 31
0.0
  0
LINE
  5
1E9
330
2
100
AcDbEntity
  8
LAYER3
100
AcDbLine
 10
196.5480193193375
 20
390.2837161159888
 30
0.0
 11
196.2980193193375
 21
390.2837161159888
 31
0.0
  0
LINE
  5
1EA
330
2
100
AcDbEntity
  8
LAYER3
100
AcDbLine
 10
196.5480193193375
 20
384.2837161159889
 30
0.0
 11
196.2980193193375
 21
384.2837161159889
 31
0.0
  0
LINE
  5
1EB
330
2
100
AcDbEntity
  8
LAYER3
100
AcDbLine
 10
196.5480193193366
 20
356.5420724342737
 30
0.0
 11
196.2980193193365
 21
356.5420724342737
 31
0.0
  0
LINE
  5
1EC
330
2
100
AcDbEntity
  8
LAYER3
100
AcDbLine
 10
190.5480193193413
 20
274.012938317369
 30
0.0
 11
191.3480193193412
 21
274.012938317369
 31
0.0
  0
LINE
  5
1ED
330
2
100
AcDbEntity
  8
LAYER3
100
AcDbLine
 10
187.5480193193413
 20
275.012938317369
 30
0.0
 11
188.048019319341
 21
275.012938317369
 31
0.0
  0
LINE
  5
1EE
330
2
100
AcDbEntity
  8
LAYER3
100
AcDbLine
 10
191.3480193193406
 20
272.4613970079797
 30
0.0
 11
191.3480193193412
 21
274.0129383173689
 31
0.0
  0
LINE
  5
1EF
330
2
100
AcDbEntity
  8
LAYER3
100
AcDbLine
 10
190.548019319343
 20
255.1079233347544
 30
0.0
 11
190.698019319343
 21
255.1079233347544
 31
0.0
  0
LINE
  5
1F0
330
2
100
AcDbEntity
  8
LAYER3
100
AcDbLine
 10
185.8285405983788
 20
254.1079233347544
 30
0.0
 11
188.0480193193429
 21
254.1079233347544
 31
0.0
  0
LINE
  5
1F1
330
2
100
AcDbEntity
  8
LAYER3
100
AcDbLine
 10
185.2480193193421
 20
257.4652041694386
 30
0.0
 11
185.2480193193422
 21
255.4024797374008
 31
0.0
  0
LINE
  5
1F2
330
2
100
AcDbEntity
  8
LAYER3
100
AcDbLine
 10
196.2980193193438
 20
369.5934747773987
 30
0.0
 11
196.5480193193437
 21
369.5934747773987
 31
0.0
  0
LINE
  5
1F3
330
2
100
AcDbEntity
  8
LAYER3
100
AcDbLine
 10
196.2980193193438
 20
373.5934747773987
 30
0.0
 11
196.5480193193437
 21
373.5934747773987
 31
0.0
  0
LINE
  5
1F4
330
2
100
AcDbEntity
  8
LAYER3
100
AcDbLine
 10
193.7980193193374
 20
361.0425491545147
 30
0.0
 11
193.7980193193379
 21
363.6830719877445
 31
0.0
  0
LINE
  5
1F5
330
2
100
AcDbEntity
  8
LAYER3
100
AcDbLine
 10
193.7980193193374
 20
361.0425491545147
 30
0.0
 11
193.7980193193373
 21
359.9983082655009
 31
0.0
  0
LINE
  5
1F6
330
2
100
AcDbEntity
  8
LAYER3
100
AcDbLine
 10
193.7980193193373
 20
359.9983082655009
 30
0.0
 11
193.7980193193359
 21
356.7362279013365
 31
0.0
  0
LINE
  5
1F7
330
2
100
AcDbEntity
  8
LAYER3
100
AcDbLine
 10
193.7980193193357
 20
355.9479153431334
 30
0.0
 11
193.7980193193359
 21
356.7362279013365
 31
0.0
  0
LINE
  5
1F8
330
2
100
AcDbEntity
  8
LAYER3
100
AcDbLine
 10
196.2980193193359
 20
356.7362279013365
 30
0.0
 11
196.2980193193357
 21
355.9479153431332
 31
0.0
  0
LINE
  5
1F9
330
2
100
AcDbEntity
  8
LAYER3
100
AcDbLine
 10
196.2980193193358
 20
356.7362279013364
 30
0.0
 11
196.2980193193372
 21
359.9983082655009
 31
0.0
  0
LINE
  5
1FA
330
2
100
AcDbEntity
  8
LAYER3
100
AcDbLine
 10
196.2980193193372
 20
359.9983082655011
 30
0.0
 11
196.2980193193374
 21
361.0425491545147
 31
0.0
  0
LINE
  5
1FB
330
2
100
AcDbEntity
  8
LAYER3
100
AcDbLine
 10
196.2980193193382
 20
363.6830719877445
 30
0.0
 11
196.2980193193374
 21
361.0425491545147
 31
0.0
  0
LINE
  5
1FC
330
2
100
AcDbEntity
  8
LAYER3
100
AcDbLine
 10
193.6980193193386
 20
162.5192597826909
 30
0.0
 11
193.6980193193401
 21
157.5192597826895
 31
0.0
  0
LINE
  5
1FD
330
2
100
AcDbEntity
  8
LAYER3
100
AcDbLine
 10
193.6980193193401
 20
157.5192597826896
 30
0.0
 11
190.6980193193401
 21
157.5192597826896
 31
0.0
  0
LINE
  5
1FE
330
2
100
AcDbEntity
  8
LAYER3
100
AcDbLine
 10
190.6980193193401
 20
157.5192597826895
 30
0.0
 11
190.6980193193386
 21
162.5192597826909
 31
0.0
  0
LINE
  5
1FF
330
2
100
AcDbEntity
  8
LAYER3
100
AcDbLine
 10
193.6980193193386
 20
162.519259782691
 30
0.0
 11
193.6980193193386
 21
178.4479153431334
 31
0.0
  0
LINE
  5
200
330
2
100
AcDbEntity
  8
LAYER3
100
AcDbLine
 10
190.6980193193386
 20
178.4479153431335
 30
0.0
 11
190.6980193193386
 21
162.519259782691
 31
0.0
  0
LINE
  5
201
330
2
100
AcDbEntity
  8
LAYER3
100
AcDbLine
 10
193.6980193193397
 20
252.9479153431335
 30
0.0
 11
193.6980193193398
 21
253.8645409777481
 31
0.0
  0
LINE
  5
202
330
2
100
AcDbEntity
  8
LAYER3
100
AcDbLine
 10
190.6980193193398
 20
253.8645409777481
 30
0.0
 11
190.6980193193396
 21
252.9479153431335
 31
0.0
  0
LINE
  5
203
330
2
100
AcDbEntity
  8
LAYER3
100
AcDbLine
 10
193.6980193193398
 20
253.8645409777481
 30
0.0
 11
193.6980193193402
 21
257.2617584367995
 31
0.0
  0
LINE
  5
204
330
2
100
AcDbEntity
  8
LAYER3
100
AcDbLine
 10
190.6980193193401
 20
257.2617584367995
 30
0.0
 11
190.6980193193398
 21
253.8645409777481
 31
0.0
  0
LINE
  5
205
330
2
100
AcDbEntity
  8
LAYER3
100
AcDbLine
 10
193.6980193193413
 20
272.4613970079799
 30
0.0
 11
193.6980193193413
 21
275.3721633022479
 31
0.0
  0
LINE
  5
206
330
2
100
AcDbEntity
  8
LAYER3
100
AcDbLine
 10
190.6980193193414
 20
275.3721633022479
 30
0.0
 11
190.6980193193414
 21
274.012938317369
 31
0.0
  0
LINE
  5
207
330
2
100
AcDbEntity
  8
LAYER3
100
AcDbLine
 10
193.6980193193415
 20
276.9169843610214
 30
0.0
 11
193.6980193193413
 21
275.3721633022479
 31
0.0
  0
LINE
  5
208
330
2
100
AcDbEntity
  8
LAYER3
100
AcDbLine
 10
190.6980193193412
 20
275.3721633022479
 30
0.0
 11
190.6980193193415
 21
276.9169843610214
 31
0.0
  0
LINE
  5
209
330
2
100
AcDbEntity
  8
LAYER3
100
AcDbLine
 10
193.6980193193415
 20
276.9169843610214
 30
0.0
 11
193.6980193193427
 21
280.5640808414631
 31
0.0
  0
LINE
  5
20A
330
2
100
AcDbEntity
  8
LAYER3
100
AcDbLine
 10
190.6980193193428
 20
280.5640808414631
 30
0.0
 11
190.6980193193415
 21
276.9169843610214
 31
0.0
  0
LINE
  5
20B
330
2
100
AcDbEntity
  8
LAYER3
100
AcDbLine
 10
193.6980193193433
 20
281.0192597826895
 30
0.0
 11
193.6980193193427
 21
280.5640808414631
 31
0.0
  0
LINE
  5
20C
330
2
100
AcDbEntity
  8
LAYER3
100
AcDbLine
 10
190.6980193193428
 20
280.5640808414631
 30
0.0
 11
190.6980193193433
 21
281.0192597826895
 31
0.0
  0
LINE
  5
20D
330
2
100
AcDbEntity
  8
LAYER3
100
AcDbLine
 10
193.6980193193433
 20
281.0192597826895
 30
0.0
 11
190.6980193193433
 21
281.0192597826895
 31
0.0
  0
LINE
  5
20E
330
2
100
AcDbEntity
  8
LAYER3
100
AcDbLine
 10
196.5480193193366
 20
396.0837161159889
 30
0.0
 11
199.0480193193366
 21
396.0837161159889
 31
0.0
  0
LINE
  5
20F
330
2
100
AcDbEntity
  8
LAYER3
100
AcDbLine
 10
199.0480193193366
 20
396.0837161159889
 30
0.0
 11
199.048019319335
 21
391.0837161159889
 31
0.0
  0
LINE
  5
210
330
2
100
AcDbEntity
  8
LAYER3
100
AcDbLine
 10
199.0480193193351
 20
378.3642309166684
 30
0.0
 11
199.0480193193351
 21
391.0837161159889
 31
0.0
  0
LINE
  5
211
330
2
100
AcDbEntity
  8
LAYER3
100
AcDbLine
 10
199.048019319335
 20
378.3642309166684
 30
0.0
 11
199.0480193193355
 21
376.6231794645932
 31
0.0
  0
LINE
  5
212
330
2
100
AcDbEntity
  8
LAYER3
100
AcDbLine
 10
199.048019319336
 20
375.4869195176979
 30
0.0
 11
199.0480193193355
 21
376.6231794645932
 31
0.0
  0
LINE
  5
213
330
2
100
AcDbEntity
  8
LAYER3
100
AcDbLine
 10
199.0480193193363
 20
374.6163937916603
 30
0.0
 11
199.048019319336
 21
375.4869195176979
 31
0.0
  0
LINE
  5
214
330
2
100
AcDbEntity
  8
LAYER3
100
AcDbLine
 10
199.0480193193363
 20
363.2033452547712
 30
0.0
 11
199.0480193193363
 21
374.6163937916603
 31
0.0
  0
LINE
  5
215
330
2
100
AcDbEntity
  8
LAYER3
100
AcDbLine
 10
199.0480193193361
 20
362.5697379170186
 30
0.0
 11
199.0480193193363
 21
363.2033452547712
 31
0.0
  0
LINE
  5
216
330
2
100
AcDbEntity
  8
LAYER3
100
AcDbLine
 10
199.0480193193348
 20
357.0831097232364
 30
0.0
 11
199.0480193193361
 21
362.5697379170186
 31
0.0
  0
LINE
  5
217
330
2
100
AcDbEntity
  8
LAYER3
100
AcDbLine
 10
199.0480193193373
 20
255.0111656433742
 30
0.0
 11
199.0480193193373
 21
298.884665042893
 31
0.0
  0
LINE
  5
218
330
2
100
AcDbEntity
  8
LAYER3
100
AcDbLine
 10
196.5480193193351
 20
391.0837161159889
 30
0.0
 11
196.5480193193366
 21
396.0837161159889
 31
0.0
  0
LINE
  5
219
330
2
100
AcDbEntity
  8
LAYER3
100
AcDbLine
 10
196.5480193193351
 20
391.0837161159889
 30
0.0
 11
196.5480193193351
 21
378.3642309166684
 31
0.0
  0
LINE
  5
21A
330
2
100
AcDbEntity
  8
LAYER3
100
AcDbLine
 10
196.5480193193354
 20
376.6231794645932
 30
0.0
 11
196.5480193193351
 21
378.3642309166684
 31
0.0
  0
LINE
  5
21B
330
2
100
AcDbEntity
  8
LAYER3
100
AcDbLine
 10
196.5480193193354
 20
376.6231794645932
 30
0.0
 11
196.548019319336
 21
375.4869195176979
 31
0.0
  0
LINE
  5
21C
330
2
100
AcDbEntity
  8
LAYER3
100
AcDbLine
 10
196.548019319336
 20
375.4869195176979
 30
0.0
 11
196.5480193193362
 21
374.6163937916603
 31
0.0
  0
LINE
  5
21D
330
2
100
AcDbEntity
  8
LAYER3
100
AcDbLine
 10
196.5480193193362
 20
363.6830719877449
 30
0.0
 11
196.5480193193362
 21
363.2033452547712
 31
0.0
  0
LINE
  5
21E
330
2
100
AcDbEntity
  8
LAYER3
100
AcDbLine
 10
196.5480193193362
 20
374.6163937916603
 30
0.0
 11
196.5480193193362
 21
366.2769107901578
 31
0.0
  0
LINE
  5
21F
330
2
100
AcDbEntity
  8
LAYER3
100
AcDbLine
 10
196.5480193193362
 20
363.2033452547712
 30
0.0
 11
196.5480193193361
 21
362.5697379170186
 31
0.0
  0
LINE
  5
220
330
2
100
AcDbEntity
  8
LAYER3
100
AcDbLine
 10
196.5480193193361
 20
362.5697379170186
 30
0.0
 11
196.5480193193348
 21
357.010828623458
 31
0.0
  0
LINE
  5
221
330
2
100
AcDbEntity
  8
LAYER3
100
AcDbLine
 10
196.5480193193347
 20
355.9479153431334
 30
0.0
 11
196.5480193193348
 21
357.010828623458
 31
0.0
  0
LINE
  5
222
330
2
100
AcDbEntity
  8
LAYER3
100
AcDbLine
 10
196.5480193193373
 20
300.9274287262214
 30
0.0
 11
196.5480193193373
 21
299.6274566394887
 31
0.0
  0
LINE
  5
223
330
2
100
AcDbEntity
  8
LAYER3
100
AcDbLine
 10
196.5480193193373
 20
299.6274566394887
 30
0.0
 11
196.5480193193373
 21
252.9684019600456
 31
0.0
  0
LINE
  5
224
330
2
100
AcDbEntity
  8
LAYER3
100
AcDbLine
 10
180.198019319331
 20
178.447915343134
 30
0.0
 11
180.1980193193318
 21
498.4479153431333
 31
0.0
  0
LINE
  5
225
330
2
100
AcDbEntity
  8
LAYER3
100
AcDbLine
 10
204.1980193193313
 20
178.4479153431339
 30
0.0
 11
180.198019319331
 21
178.447915343134
 31
0.0
  0
LINE
  5
226
330
2
100
AcDbEntity
  8
LAYER3
100
AcDbLine
 10
204.1980193193317
 20
498.4479153431333
 30
0.0
 11
204.1980193193313
 21
178.4479153431339
 31
0.0
  0
LINE
  5
227
330
2
100
AcDbEntity
  8
LAYER3
100
AcDbLine
 10
180.1980193193318
 20
498.4479153431333
 30
0.0
 11
204.1980193193317
 21
498.4479153431333
 31
0.0
  0
CIRCLE
  5
228
330
2
100
AcDbEntity
  8
LAYER3
100
AcDbCircle
 10
192.1980193193317
 20
191.4479153431339
 30
0.0
 40
2.749999999999995
  0
CIRCLE
  5
229
330
2
100
AcDbEntity
  8
LAYER3
100
AcDbCircle
 10
192.1980193193311
 20
191.4479153431339
 30
0.0
 40
4.749999999999992
  0
CIRCLE
  5
22A
330
2
100
AcDbEntity
  8
LAYER3
100
AcDbCircle
 10
192.1980193193324
 20
485.4479153431333
 30
0.0
 40
2.749999999999995
  0
CIRCLE
  5
22B
330
2
100
AcDbEntity
  8
LAYER3
100
AcDbCircle
 10
192.1980193193317
 20
485.4479153431333
 30
0.0
 40
4.749999999999992
  0
ARC
  5
22C
330
2
100
AcDbEntity
  8
LAYER3
100
AcDbCircle
 10
196.6980193193315
 20
394.9479153431336
 30
0.0
 40
2.999999999999981
100
AcDbArc
 50
0.0
 51
90.0
  0
ARC
  5
22D
330
2
100
AcDbEntity
  8
LAYER3
100
AcDbCircle
 10
187.6980193193315
 20
394.9479153431336
 30
0.0
 40
2.999999999999993
100
AcDbArc
 50
90.0
 51
180.0
  0
ARC
  5
22E
330
2
100
AcDbEntity
  8
LAYER3
100
AcDbCircle
 10
187.6980193193315
 20
358.9479153431339
 30
0.0
 40
3.000000000000013
100
AcDbArc
 50
180.0
 51
269.9999999999968
  0
ARC
  5
22F
330
2
100
AcDbEntity
  8
LAYER3
100
AcDbCircle
 10
196.6980193193315
 20
358.9479153431337
 30
0.0
 40
3.000000000000017
100
AcDbArc
 50
270.0
 51
0.0
  0
LINE
  5
230
330
2
100
AcDbEntity
  8
LAYER3
100
AcDbLine
 10
199.6980193193315
 20
394.9479153431336
 30
0.0
 11
199.6980193193315
 21
386.9354075208525
 31
0.0
  0
ARC
  5
231
330
2
100
AcDbEntity
  8
LAYER3
100
AcDbCircle
 10
299.1980193193326
 20
376.9479153431334
 30
0.0
 40
100.000000000001
100
AcDbArc
 50
174.2680320348017
 51
185.7319679651982
  0
LINE
  5
232
330
2
100
AcDbEntity
  8
LAYER3
100
AcDbLine
 10
184.6980193193314
 20
358.9479153431339
 30
0.0
 11
184.6980193193314
 21
366.960423165415
 31
0.0
  0
ARC
  5
233
330
2
100
AcDbEntity
  8
LAYER3
100
AcDbCircle
 10
85.19801931933256
 20
376.9479153431338
 30
0.0
 40
99.99999999999891
100
AcDbArc
 50
354.2680320348017
 51
5.73196796519662
  0
LINE
  5
234
330
2
100
AcDbEntity
  8
LAYER3
100
AcDbLine
 10
187.6980193193317
 20
397.9479153431336
 30
0.0
 11
196.6980193193315
 21
397.9479153431336
 31
0.0
  0
LINE
  5
235
330
2
100
AcDbEntity
  8
LAYER3
100
AcDbLine
 10
184.6980193193314
 20
386.935407520852
 30
0.0
 11
184.6980193193314
 21
394.9479153431336
 31
0.0
  0
LINE
  5
236
330
2
100
AcDbEntity
  8
LAYER3
100
AcDbLine
 10
196.6980193193315
 20
355.9479153431337
 30
0.0
 11
187.6980193193315
 21
355.9479153431337
 31
0.0
  0
LINE
  5
237
330
2
100
AcDbEntity
  8
LAYER3
100
AcDbLine
 10
199.6980193193315
 20
366.9604231654143
 30
0.0
 11
199.6980193193315
 21
358.9479153431337
 31
0.0
  0
LINE
  5
238
330
2
100
AcDbEntity
  8
LAYER3
100
AcDbLine
 10
185.1980193193313
 20
255.9479153431338
 30
0.0
 11
185.1980193193315
 21
297.9479153431337
 31
0.0
  0
LINE
  5
239
330
2
100
AcDbEntity
  8
LAYER3
100
AcDbLine
 10
196.1980193193313
 20
252.9479153431339
 30
0.0
 11
188.1980193193314
 21
252.9479153431339
 31
0.0
  0
LINE
  5
23A
330
2
100
AcDbEntity
  8
LAYER3
100
AcDbLine
 10
199.1980193193315
 20
297.9479153431337
 30
0.0
 11
199.1980193193313
 21
255.9479153431337
 31
0.0
  0
LINE
  5
23B
330
2
100
AcDbEntity
  8
LAYER3
100
AcDbLine
 10
188.1980193193315
 20
300.9479153431338
 30
0.0
 11
196.1980193193315
 21
300.9479153431337
 31
0.0
  0
ARC
  5
23C
330
2
100
AcDbEntity
  8
LAYER3
100
AcDbCircle
 10
188.1980193193314
 20
297.9479153431338
 30
0.0
 40
2.999999999999964
100
AcDbArc
 50
89.99999999999673
 51
180.0
  0
ARC
  5
23D
330
2
100
AcDbEntity
  8
LAYER3
100
AcDbCircle
 10
188.1980193193312
 20
255.9479153431338
 30
0.0
 40
2.999999999999944
100
AcDbArc
 50
180.0
 51
270.0
  0
ARC
  5
23E
330
2
100
AcDbEntity
  8
LAYER3
100
AcDbCircle
 10
196.1980193193311
 20
255.9479153431338
 30
0.0
 40
3.000000000000036
100
AcDbArc
 50
270.0
 51
0.0
  0
ARC
  5
23F
330
2
100
AcDbEntity
  8
LAYER3
100
AcDbCircle
 10
196.1980193193315
 20
297.9479153431337
 30
0.0
 40
2.999999999999977
100
AcDbArc
 50
0.0
 51
90.0
  0
LINE
  5
240
330
2
100
AcDbEntity
  8
LAYER3
100
AcDbLine
 10
199.3480193193347
 20
382.4230865733317
 30
0.0
 11
199.3480193193347
 21
396.3541514541761
 31
0.0
  0
LINE
  5
241
330
2
100
AcDbEntity
  8
LAYER3
100
AcDbLine
 10
199.3480193193347
 20
357.5416792320909
 30
0.0
 11
199.3480193193347
 21
371.4727441129349
 31
0.0
  0
LINE
  5
242
330
2
100
AcDbEntity
  8
LAYER3
100
AcDbLine
 10
187.5480193193393
 20
296.2622755774127
 30
0.0
 11
187.5480193193379
 21
300.8766522722551
 31
0.0
  0
LINE
  5
243
330
2
100
AcDbEntity
  8
LAYER3
100
AcDbLine
 10
187.5480193193398
 20
292.2407401248515
 30
0.0
 11
187.5480193193393
 21
296.2622755774127
 31
0.0
  0
LINE
  5
244
330
2
100
AcDbEntity
  8
LAYER3
100
AcDbLine
 10
187.5480193193391
 20
272.4613970079799
 30
0.0
 11
187.5480193193398
 21
292.2407401248515
 31
0.0
  0
ELLIPSE
  5
245
330
2
100
AcDbEntity
  8
LAYER3
100
AcDbEllipse
 10
187.5480193193398
 20
257.5963282032095
 30
0.0
 11
-2.5
 21
-0.000000000000123
 31
0.0
210
0.0
220
0.0
230
1.0
 40
0.1338279065639311
 41
0.3481660212724513
 42
1.570796326794591
  0
ELLIPSE
  5
246
330
2
100
AcDbEntity
  8
LAYER3
100
AcDbEllipse
 10
187.5480193193391
 20
272.4613970079799
 30
0.0
 11
-2.499999999999999
 21
0.0000000000000023
 31
0.0
210
0.0
220
0.0
230
1.0
 40
0.1338279065639142
 41
0.3481660212868851
 42
1.570796326794299
  0
LINE
  5
247
330
2
100
AcDbEntity
  8
LAYER3
100
AcDbLine
 10
196.048019319339
 20
257.2617584367995
 30
0.0
 11
187.5480193193391
 21
257.2617584367995
 31
0.0
  0
LINE
  5
248
330
2
100
AcDbEntity
  8
LAYER3
100
AcDbLine
 10
187.5480193193385
 20
272.1268272415702
 30
0.0
 11
196.0480193193385
 21
272.1268272415702
 31
0.0
  0
LINE
  5
249
330
2
100
AcDbEntity
  8
LAYER3
100
AcDbLine
 10
185.198019319339
 20
272.4613970079799
 30
0.0
 11
187.5480193193391
 21
272.4613970079799
 31
0.0
  0
LINE
  5
24A
330
2
100
AcDbEntity
  8
LAYER3
100
AcDbLine
 10
194.5480193193392
 20
272.4613970079799
 30
0.0
 11
187.5480193193391
 21
272.4613970079799
 31
0.0
  0
LINE
  5
24B
330
2
100
AcDbEntity
  8
LAYER3
100
AcDbLine
 10
196.0480193193385
 20
272.1268272415702
 30
0.0
 11
196.048019319339
 21
257.2617584367995
 31
0.0
  0
LINE
  5
24C
330
2
100
AcDbEntity
  8
LAYER3
100
AcDbLine
 10
196.0480193193389
 20
272.260655148134
 30
0.0
 11
196.0480193193385
 21
272.1268272415702
 31
0.0
  0
LINE
  5
24D
330
2
100
AcDbEntity
  8
LAYER3
100
AcDbLine
 10
194.5480193193392
 20
272.4613970079799
 30
0.0
 11
196.0480193193389
 21
272.260655148134
 31
0.0
  0
LINE
  5
24E
330
2
100
AcDbEntity
  8
LAYER3
100
AcDbLine
 10
199.3480193193418
 20
392.4479153431338
 30
0.0
 11
199.0480193193419
 21
392.4479153431338
 31
0.0
  0
LINE
  5
24F
330
2
100
AcDbEntity
  8
LAYER3
100
AcDbLine
 10
196.5480193193389
 20
362.4479153431337
 30
0.0
 11
196.2980193193389
 21
362.4479153431337
 31
0.0
  0
LINE
  5
250
330
2
100
AcDbEntity
  8
LAYER3
100
AcDbLine
 10
199.3480193193389
 20
362.4479153431337
 30
0.0
 11
199.0480193193389
 21
362.4479153431337
 31
0.0
  0
LINE
  5
251
330
2
100
AcDbEntity
  8
LAYER3
100
AcDbLine
 10
185.0480193193348
 20
371.4727441129343
 30
0.0
 11
185.0480193193348
 21
357.541679232091
 31
0.0
  0
LINE
  5
252
330
2
100
AcDbEntity
  8
LAYER3
100
AcDbLine
 10
185.0480193193348
 20
396.3541514541759
 30
0.0
 11
185.0480193193348
 21
382.423086573333
 31
0.0
  0
LINE
  5
253
330
2
100
AcDbEntity
  8
LAYER3
100
AcDbLine
 10
73.0957297459297
 20
102.8129657049748
 30
0.0
 11
72.94572974592973
 21
102.8129657049749
 31
0.0
  0
LINE
  5
254
330
2
100
AcDbEntity
  8
LAYER3
100
AcDbLine
 10
72.94572974592973
 20
100.3129657049748
 30
0.0
 11
73.09572974592959
 21
100.3129657049748
 31
0.0
  0
LINE
  5
255
330
2
100
AcDbEntity
  8
LAYER3
100
AcDbLine
 10
72.44572974592961
 20
102.8129657049753
 30
0.0
 11
72.94572974592961
 21
102.8129657049752
 31
0.0
  0
LINE
  5
256
330
2
100
AcDbEntity
  8
LAYER3
100
AcDbLine
 10
72.94572974592973
 20
102.8129657049752
 30
0.0
 11
72.94572974592973
 21
100.3129657049752
 31
0.0
  0
LINE
  5
257
330
2
100
AcDbEntity
  8
LAYER3
100
AcDbLine
 10
72.94572974592961
 20
100.3129657049752
 30
0.0
 11
72.44572974592961
 21
100.3129657049753
 31
0.0
  0
LINE
  5
258
330
2
100
AcDbEntity
  8
LAYER3
100
AcDbLine
 10
72.44572974592961
 20
102.8129657049753
 30
0.0
 11
69.99177466739803
 21
102.8129657049753
 31
0.0
  0
LINE
  5
259
330
2
100
AcDbEntity
  8
LAYER3
100
AcDbLine
 10
62.46060323246632
 20
100.3129657049753
 30
0.0
 11
72.44572974592961
 21
100.3129657049753
 31
0.0
  0
LINE
  5
25A
330
2
100
AcDbEntity
  8
LAYER3
100
AcDbLine
 10
59.94572974592961
 20
114.062965704973
 30
0.0
 11
59.94572974592961
 21
111.9129657049729
 31
0.0
  0
LINE
  5
25B
330
2
100
AcDbEntity
  8
LAYER3
100
AcDbLine
 10
69.94572974592973
 20
105.412965704973
 30
0.0
 11
69.94572974592973
 21
105.312965704973
 31
0.0
  0
LINE
  5
25C
330
2
100
AcDbEntity
  8
LAYER3
100
AcDbLine
 10
69.94572974592973
 20
108.5629657049729
 30
0.0
 11
69.94572974592973
 21
108.412965704973
 31
0.0
  0
ELLIPSE
  5
25D
330
2
100
AcDbEntity
  8
LAYER3
100
AcDbEllipse
 10
64.90723549224572
 20
106.9129657049898
 30
0.0
 11
0.000000000094527
 21
2.458499999999993
 31
0.0
210
0.0
220
0.0
230
1.0
 40
0.9999703634095023
 41
0.0185089097210621
 42
0.7787157358667372
  0
ELLIPSE
  5
25E
330
2
100
AcDbEntity
  8
LAYER3
100
AcDbEllipse
 10
64.90723549224572
 20
106.9129657049898
 30
0.0
 11
-0.0000000001007696
 21
-2.458500000000002
 31
0.0
210
0.0
220
0.0
230
1.0
 40
0.9999703634095022
 41
5.504469571392281
 42
6.264676397538083
  0
ELLIPSE
  5
25F
330
2
100
AcDbEntity
  8
LAYER3
100
AcDbEllipse
 10
64.79945158193038
 20
106.9129657049939
 30
0.0
 11
-0.0000000000000005
 21
4.638499999999996
 31
0.0
210
0.0
220
0.0
230
1.0
 40
0.9999703634095023
 41
0.0
 42
6.283185307179584
  0
ELLIPSE
  5
260
330
2
100
AcDbEntity
  8
LAYER3
100
AcDbEllipse
 10
64.81623507653671
 20
106.9129657049932
 30
0.0
 11
0.0000000000000003
 21
-2.458499999999999
 31
0.0
210
0.0
220
0.0
230
1.0
 40
0.9999703634095022
 41
0.0
 42
6.283185307179584
  0
LINE
  5
261
330
2
100
AcDbEntity
  8
LAYER3
100
AcDbLine
 10
69.99177466739803
 20
111.9129657049865
 30
0.0
 11
69.79930339897794
 21
111.9129657049939
 31
0.0
  0
LINE
  5
262
330
2
100
AcDbEntity
  8
LAYER3
100
AcDbLine
 10
69.79930339897794
 20
101.9129657049939
 30
0.0
 11
69.99177466739803
 21
101.9129657049865
 31
0.0
  0
LINE
  5
263
330
2
100
AcDbEntity
  8
LAYER3
100
AcDbLine
 10
69.79930339897794
 20
111.9129657049939
 30
0.0
 11
59.79959976488293
 21
111.9129657049939
 31
0.0
  0
LINE
  5
264
330
2
100
AcDbEntity
  8
LAYER3
100
AcDbLine
 10
69.79930339897794
 20
111.9129657049939
 30
0.0
 11
69.79930339897794
 21
101.9129657049939
 31
0.0
  0
LINE
  5
265
330
2
100
AcDbEntity
  8
LAYER3
100
AcDbLine
 10
69.79930339897794
 20
101.9129657049939
 30
0.0
 11
59.79959976488293
 21
101.9129657049939
 31
0.0
  0
LINE
  5
266
330
2
100
AcDbEntity
  8
LAYER3
100
AcDbLine
 10
59.79959976488293
 20
111.9129657049939
 30
0.0
 11
59.79959976488293
 21
101.9129657049939
 31
0.0
  0
LINE
  5
267
330
2
100
AcDbEntity
  8
LAYER3
100
AcDbLine
 10
69.99177466739803
 20
108.6629657049865
 30
0.0
 11
69.99177466739803
 21
111.9129657049865
 31
0.0
  0
LINE
  5
268
330
2
100
AcDbEntity
  8
LAYER3
100
AcDbLine
 10
69.99177466739803
 20
101.9129657049865
 30
0.0
 11
69.99177466739803
 21
105.1629657049865
 31
0.0
  0
LINE
  5
269
330
2
100
AcDbEntity
  8
LAYER3
100
AcDbLine
 10
69.89784868840899
 20
108.6629657049901
 30
0.0
 11
69.99177466739803
 21
108.6629657049865
 31
0.0
  0
LINE
  5
26A
330
2
100
AcDbEntity
  8
LAYER3
100
AcDbLine
 10
63.17128163240159
 20
108.6629657049901
 30
0.0
 11
63.18052025328579
 21
108.6629657049897
 31
0.0
  0
LINE
  5
26B
330
2
100
AcDbEntity
  8
LAYER3
100
AcDbLine
 10
63.18052043949228
 20
108.6629656751874
 30
0.0
 11
66.5429502610807
 21
108.6629656751874
 31
0.0
  0
LINE
  5
26C
330
2
100
AcDbEntity
  8
LAYER3
100
AcDbLine
 10
66.5429502610807
 20
105.1629657347921
 30
0.0
 11
63.18052043949228
 21
105.1629657347921
 31
0.0
  0
LINE
  5
26D
330
2
100
AcDbEntity
  8
LAYER3
100
AcDbLine
 10
63.18052025328579
 20
105.1629657049897
 30
0.0
 11
63.17128163240159
 21
105.1629657049901
 31
0.0
  0
LINE
  5
26E
330
2
100
AcDbEntity
  8
LAYER3
100
AcDbLine
 10
69.99177466739803
 20
105.1629657049865
 30
0.0
 11
69.89784868840899
 21
105.1629657049901
 31
0.0
  0
LINE
  5
26F
330
2
100
AcDbEntity
  8
LAYER3
100
AcDbLine
 10
69.89784868840899
 20
105.1629657049901
 30
0.0
 11
69.89784868840899
 21
108.6629657049901
 31
0.0
  0
ELLIPSE
  5
270
330
2
100
AcDbEntity
  8
LAYER3
100
AcDbEllipse
 10
64.89799687136155
 20
106.9129657049901
 30
0.0
 11
0.0000000001009938
 21
2.458499999999999
 31
0.0
210
0.0
220
0.0
230
1.0
 40
0.9999703634095022
 41
0.7787157358693655
 42
2.362876917802578
  0
LINE
  5
271
330
2
100
AcDbEntity
  8
LAYER3
100
AcDbLine
 10
70.94572974592971
 20
105.3129657049695
 30
0.0
 11
76.09572974592959
 21
105.3129657049695
 31
0.0
  0
ARC
  5
272
330
2
100
AcDbEntity
  8
LAYER3
100
AcDbCircle
 10
70.04572974592965
 20
105.6129657049691
 30
0.0
 40
0.2999999999996734
100
AcDbArc
 50
250.5287793654932
 51
270.000000000013
  0
ARC
  5
273
330
2
100
AcDbEntity
  8
LAYER3
100
AcDbCircle
 10
70.04572974592974
 20
108.2129657049693
 30
0.0
 40
0.300000000000149
100
AcDbArc
 50
90.00000000000325
 51
109.4712206344861
  0
LINE
  5
274
330
2
100
AcDbEntity
  8
LAYER3
100
AcDbLine
 10
76.0957297459297
 20
108.5129657049695
 30
0.0
 11
70.04572974592974
 21
108.5129657049695
 31
0.0
  0
LINE
  5
275
330
2
100
AcDbEntity
  8
LAYER3
100
AcDbLine
 10
53.42003097116229
 20
102.5629657049704
 30
0.0
 11
53.42003097116229
 21
102.8129657049704
 31
0.0
  0
LINE
  5
276
330
2
100
AcDbEntity
  8
LAYER3
100
AcDbLine
 10
59.93168664244945
 20
112.1969403011791
 30
0.0
 11
56.34842230976722
 21
110.1271335315125
 31
0.0
  0
ELLIPSE
  5
277
330
2
100
AcDbEntity
  8
LAYER3
100
AcDbEllipse
 10
59.43193017788843
 20
113.0629657049695
 30
0.0
 11
-0.0000000000683068
 21
-1.000000000006812
 31
0.0
210
0.0
220
0.0
230
1.0
 40
0.9995129291150874
 41
0.5235987756666241
 42
0.5398996836461773
  0
ELLIPSE
  5
278
330
2
100
AcDbEntity
  8
LAYER3
100
AcDbEllipse
 10
59.4319301778919
 20
113.0629657049635
 30
0.0
 11
0.000000000000007
 21
1.000000000000007
 31
0.0
210
0.0
220
0.0
230
1.0
 40
0.9995129291151163
 41
5.74328562360163
 42
6.28318530717958
  0
ELLIPSE
  5
279
330
2
100
AcDbEntity
  8
LAYER3
100
AcDbEllipse
 10
59.3539115690657
 20
113.0629657049642
 30
0.0
 11
-0.0000000000170942
 21
-0.9999999999998468
 31
0.0
210
0.0
220
0.0
230
1.0
 40
0.9995129291151103
 41
0.5235987756153975
 42
0.6336704095894508
  0
ELLIPSE
  5
27A
330
2
100
AcDbEntity
  8
LAYER3
100
AcDbEllipse
 10
59.35391156906565
 20
113.0629657049643
 30
0.0
 11
0.0000000000000004
 21
1.0
 31
0.0
210
0.0
220
0.0
230
1.0
 40
0.9995129291151151
 41
5.649514897607237
 42
6.283185307179577
  0
LINE
  5
27B
330
2
100
AcDbEntity
  8
LAYER3
100
AcDbLine
 10
59.85366803362318
 20
112.1969403011799
 30
0.0
 11
56.34842230976722
 21
110.1721995466648
 31
0.0
  0
LINE
  5
27C
330
2
100
AcDbEntity
  8
LAYER3
100
AcDbLine
 10
70.94572974592961
 20
105.312965704973
 30
0.0
 11
70.94572974592961
 21
102.812965704973
 31
0.0
  0
LINE
  5
27D
330
2
100
AcDbEntity
  8
LAYER3
100
AcDbLine
 10
53.32072974592961
 20
102.8129657049727
 30
0.0
 11
56.8596911186155
 21
102.8129657049734
 31
0.0
  0
LINE
  5
27E
330
2
100
AcDbEntity
  8
LAYER3
100
AcDbLine
 10
63.0314450418843
 20
105.3129657049746
 30
0.0
 11
66.68278690601363
 21
105.3129657049747
 31
0.0
  0
LINE
  5
27F
330
2
100
AcDbEntity
  8
LAYER3
100
AcDbLine
 10
69.89784868840889
 20
105.3129657049739
 30
0.0
 11
70.94572974592961
 21
105.312965704973
 31
0.0
  0
LINE
  5
280
330
2
100
AcDbEntity
  8
LAYER3
100
AcDbLine
 10
59.79959976488284
 20
105.3129657049741
 30
0.0
 11
53.79572974592974
 21
105.3129657049728
 31
0.0
  0
LINE
  5
281
330
2
100
AcDbEntity
  8
LAYER3
100
AcDbLine
 10
53.94572974592971
 20
105.4129657049885
 30
0.0
 11
53.94572974592971
 21
108.4129657049886
 31
0.0
  0
LINE
  5
282
330
2
100
AcDbEntity
  8
LAYER3
100
AcDbLine
 10
53.94572974592971
 20
108.4129657049886
 30
0.0
 11
58.94572974592971
 21
108.4129657049901
 31
0.0
  0
LINE
  5
283
330
2
100
AcDbEntity
  8
LAYER3
100
AcDbLine
 10
59.79959976488293
 20
108.4129657049901
 30
0.0
 11
58.94572974592971
 21
108.4129657049901
 31
0.0
  0
LINE
  5
284
330
2
100
AcDbEntity
  8
LAYER3
100
AcDbLine
 10
66.76405369173432
 20
108.4129657049901
 30
0.0
 11
62.9501782561639
 21
108.4129657049901
 31
0.0
  0
LINE
  5
285
330
2
100
AcDbEntity
  8
LAYER3
100
AcDbLine
 10
70.94572974592971
 20
108.4129657049901
 30
0.0
 11
69.89784868840899
 21
108.4129657049901
 31
0.0
  0
LINE
  5
286
330
2
100
AcDbEntity
  8
LAYER3
100
AcDbLine
 10
70.94572974592971
 20
108.4129657049901
 30
0.0
 11
75.94572974592971
 21
108.4129657049886
 31
0.0
  0
LINE
  5
287
330
2
100
AcDbEntity
  8
LAYER3
100
AcDbLine
 10
75.94572974592971
 20
105.4129657049885
 30
0.0
 11
75.94572974592971
 21
108.4129657049886
 31
0.0
  0
LINE
  5
288
330
2
100
AcDbEntity
  8
LAYER3
100
AcDbLine
 10
76.09572974592959
 20
108.4129657049682
 30
0.0
 11
75.94572974592971
 21
108.4129657049683
 31
0.0
  0
LINE
  5
289
330
2
100
AcDbEntity
  8
LAYER3
100
AcDbLine
 10
58.94572974592971
 20
105.4129657049901
 30
0.0
 11
53.94572974592971
 21
105.4129657049885
 31
0.0
  0
LINE
  5
28A
330
2
100
AcDbEntity
  8
LAYER3
100
AcDbLine
 10
69.89784868840899
 20
105.4129657049901
 30
0.0
 11
70.94572974592971
 21
105.4129657049901
 31
0.0
  0
LINE
  5
28B
330
2
100
AcDbEntity
  8
LAYER3
100
AcDbLine
 10
62.9501782561639
 20
105.4129657049901
 30
0.0
 11
66.76405369173432
 21
105.4129657049901
 31
0.0
  0
LINE
  5
28C
330
2
100
AcDbEntity
  8
LAYER3
100
AcDbLine
 10
58.94572974592971
 20
105.4129657049901
 30
0.0
 11
59.79959976488293
 21
105.4129657049901
 31
0.0
  0
LINE
  5
28D
330
2
100
AcDbEntity
  8
LAYER3
100
AcDbLine
 10
75.94572974592971
 20
105.4129657049885
 30
0.0
 11
70.94572974592971
 21
105.4129657049901
 31
0.0
  0
LINE
  5
28E
330
2
100
AcDbEntity
  8
LAYER3
100
AcDbLine
 10
75.94572974592971
 20
105.4129657049683
 30
0.0
 11
76.09572974592959
 21
105.4129657049681
 31
0.0
  0
LINE
  5
28F
330
2
100
AcDbEntity
  8
LAYER3
100
AcDbLine
 10
56.54098420416743
 20
100.0629657049727
 30
0.0
 11
55.02037640659807
 21
100.062965704973
 31
0.0
  0
LINE
  5
290
330
2
100
AcDbEntity
  8
LAYER3
100
AcDbLine
 10
51.94572974592972
 20
100.062965704973
 30
0.0
 11
55.02037640659807
 21
100.062965704973
 31
0.0
  0
LINE
  5
291
330
2
100
AcDbEntity
  8
LAYER3
100
AcDbLine
 10
56.54098420416847
 20
100.0629657049727
 30
0.0
 11
56.8596911186155
 21
100.0629657049724
 31
0.0
  0
LINE
  5
292
330
2
100
AcDbEntity
  8
LAYER3
100
AcDbLine
 10
55.02037640659807
 20
102.562965704973
 30
0.0
 11
53.19572974592972
 21
102.562965704973
 31
0.0
  0
LINE
  5
293
330
2
100
AcDbEntity
  8
LAYER3
100
AcDbLine
 10
56.8596911186155
 20
102.5629657049724
 30
0.0
 11
56.54098420416847
 21
102.5629657049727
 31
0.0
  0
LINE
  5
294
330
2
100
AcDbEntity
  8
LAYER3
100
AcDbLine
 10
55.02037640659807
 20
102.562965704973
 30
0.0
 11
56.54098420416743
 21
102.5629657049727
 31
0.0
  0
LINE
  5
295
330
2
100
AcDbEntity
  8
LAYER3
100
AcDbLine
 10
32.94572974592973
 20
118.9129657050031
 30
0.0
 11
29.94572974592973
 21
118.9129657050031
 31
0.0
  0
LINE
  5
296
330
2
100
AcDbEntity
  8
LAYER3
100
AcDbLine
 10
32.94572974592973
 20
94.91296570500315
 30
0.0
 11
32.94572974592973
 21
118.9129657050031
 31
0.0
  0
LINE
  5
297
330
2
100
AcDbEntity
  8
LAYER3
100
AcDbLine
 10
32.94572974592973
 20
94.91296570500315
 30
0.0
 11
29.94572974592973
 21
94.91296570500315
 31
0.0
  0
LINE
  5
298
330
2
100
AcDbEntity
  8
LAYER3
100
AcDbLine
 10
29.94572974592973
 20
118.9129657050031
 30
0.0
 11
29.94572974592973
 21
94.91296570500315
 31
0.0
  0
ELLIPSE
  5
299
330
2
100
AcDbEntity
  8
LAYER3
100
AcDbEllipse
 10
56.51481838774532
 20
99.76296570497815
 30
0.0
 11
1.93091135818436
 21
0.0000000000000003
 31
0.0
210
0.0
220
0.0
230
1.0
 40
0.90630778703665
 41
4.712388980384688
 42
6.283185307179584
  0
ELLIPSE
  5
29A
330
2
100
AcDbEntity
  8
LAYER3
100
AcDbEllipse
 10
60.87456460515221
 20
99.76296570497542
 30
0.0
 11
-0.0000000000000044
 21
-1.75
 31
0.0
210
0.0
220
0.0
230
1.0
 40
0.9063077870366484
 41
0.0
 42
1.570796326794874
  0
LINE
  5
29B
330
2
100
AcDbEntity
  8
LAYER3
100
AcDbLine
 10
56.51481838774532
 20
98.01296570497818
 30
0.0
 11
60.87456460515221
 21
98.01296570497541
 31
0.0
  0
ELLIPSE
  5
29C
330
2
100
AcDbEntity
  8
LAYER3
100
AcDbEllipse
 10
57.70492764209699
 20
103.2629657049774
 30
0.0
 11
0.0
 21
2.000000000000002
 31
0.0
210
0.0
220
0.0
230
1.0
 40
0.4226182617407003
 41
0.0000000000030087
 42
1.570796326796133
  0
LINE
  5
29D
330
2
100
AcDbEntity
  8
LAYER3
100
AcDbLine
 10
59.2909662694111
 20
105.2629657049776
 30
0.0
 11
57.70492764209699
 21
105.2629657049774
 31
0.0
  0
ELLIPSE
  5
29E
330
2
100
AcDbEntity
  8
LAYER3
100
AcDbEllipse
 10
59.2909662694111
 20
103.2629657049776
 30
0.0
 11
-0.0000000000000021
 21
1.999999999999995
 31
0.0
210
0.0
220
0.0
230
1.0
 40
0.4226182617407
 41
0.0
 42
1.570796326794364
  0
LINE
  5
29F
330
2
100
AcDbEntity
  8
LAYER3
100
AcDbLine
 10
56.8596911186155
 20
99.76296570497796
 30
0.0
 11
56.8596911186155
 21
103.2629657049779
 31
0.0
  0
LINE
  5
2A0
330
2
100
AcDbEntity
  8
LAYER3
100
AcDbLine
 10
62.46060323246632
 20
99.76296570497559
 30
0.0
 11
62.46060323246632
 21
101.9129657049756
 31
0.0
  0
LINE
  5
2A1
330
2
100
AcDbEntity
  8
LAYER3
100
AcDbLine
 10
58.44572974592971
 20
99.76296570497815
 30
0.0
 11
58.44572974592971
 21
103.2629657049782
 31
0.0
  0
LINE
  5
2A2
330
2
100
AcDbEntity
  8
LAYER3
100
AcDbLine
 10
59.79959976488293
 20
105.2629657049773
 30
0.0
 11
59.2909662694111
 21
105.2629657049776
 31
0.0
  0
LINE
  5
2A3
330
2
100
AcDbEntity
  8
LAYER3
100
AcDbLine
 10
80.44572974592972
 20
99.76296570497536
 30
0.0
 11
80.44572974592972
 21
98.01296570497536
 31
0.0
  0
LINE
  5
2A4
330
2
100
AcDbEntity
  8
LAYER3
100
AcDbLine
 10
67.98162138335364
 20
98.01296570497536
 30
0.0
 11
80.44572974592972
 21
98.01296570497536
 31
0.0
  0
LINE
  5
2A5
330
2
100
AcDbEntity
  8
LAYER3
100
AcDbLine
 10
67.98162138335364
 20
99.76296570497536
 30
0.0
 11
80.44572974592972
 21
99.76296570497536
 31
0.0
  0
LINE
  5
2A6
330
2
100
AcDbEntity
  8
LAYER3
100
AcDbLine
 10
67.98162138335364
 20
99.76296570497536
 30
0.0
 11
67.98162138335364
 21
98.01296570497536
 31
0.0
  0
LINE
  5
2A7
330
2
100
AcDbEntity
  8
LAYER3
100
AcDbLine
 10
61.55600191199539
 20
98.01296570497484
 30
0.0
 11
60.87456460515221
 21
98.01296570497488
 31
0.0
  0
LINE
  5
2A8
330
2
100
AcDbEntity
  8
LAYER3
100
AcDbLine
 10
67.98162138335364
 20
98.01296570497536
 30
0.0
 11
61.55600191199539
 21
98.01296570497484
 31
0.0
  0
LINE
  5
2A9
330
2
100
AcDbEntity
  8
LAYER3
100
AcDbLine
 10
62.46060323246632
 20
99.76296570497494
 30
0.0
 11
67.98162138335364
 21
99.76296570497536
 31
0.0
  0
LINE
  5
2AA
330
2
100
AcDbEntity
  8
LAYER3
100
AcDbLine
 10
32.94572974592973
 20
98.01296570497818
 30
0.0
 11
56.51481838774532
 21
98.01296570497818
 31
0.0
  0
LINE
  5
2AB
330
2
100
AcDbEntity
  8
LAYER3
100
AcDbLine
 10
58.44572974592971
 20
99.76296570497815
 30
0.0
 11
32.94572974592973
 21
99.76296570497815
 31
0.0
  0
LINE
  5
2AC
330
2
100
AcDbEntity
  8
LAYER3
100
AcDbLine
 10
68.44572974592961
 20
99.762965704973
 30
0.0
 11
68.44572974592961
 21
100.3129657049729
 31
0.0
  0
LINE
  5
2AD
330
2
100
AcDbEntity
  8
LAYER3
100
AcDbLine
 10
72.44572974592961
 20
105.4129657049479
 30
0.0
 11
72.44572974592961
 21
105.3129657049479
 31
0.0
  0
LINE
  5
2AE
330
2
100
AcDbEntity
  8
LAYER3
100
AcDbLine
 10
72.44572974592961
 20
108.5129657049479
 30
0.0
 11
72.44572974592961
 21
108.4129657049479
 31
0.0
  0
ARC
  5
2AF
330
2
100
AcDbEntity
  8
LAYER3
100
AcDbCircle
 10
76.44572974592847
 20
110.4629657049458
 30
0.0
 40
2.299999999997568
100
AcDbArc
 50
237.976004025378
 51
243.0376110025228
  0
ARC
  5
2B0
330
2
100
AcDbEntity
  8
LAYER3
100
AcDbCircle
 10
76.44572974593065
 20
103.2629657049457
 30
0.0
 40
2.300000000002373
100
AcDbArc
 50
110.8069477761302
 51
116.9623889974741
  0
LINE
  5
2B1
330
2
100
AcDbEntity
  8
LAYER3
100
AcDbLine
 10
74.44572974592971
 20
98.01296570494672
 30
0.0
 11
74.44572974592971
 21
97.66296570494674
 31
0.0
  0
LINE
  5
2B2
330
2
100
AcDbEntity
  8
LAYER3
100
AcDbLine
 10
78.44572974592971
 20
98.01296570494672
 30
0.0
 11
78.44572974592971
 21
97.66296570494674
 31
0.0
  0
LINE
  5
2B3
330
2
100
AcDbEntity
  8
LAYER3
100
AcDbLine
 10
78.44572974592961
 20
97.66296570494674
 30
0.0
 11
74.44572974592971
 21
97.66296570494674
 31
0.0
  0
LINE
  5
2B4
330
2
100
AcDbEntity
  8
LAYER3
100
AcDbLine
 10
34.74572974592968
 20
114.0129657049781
 30
0.0
 11
34.74572974592968
 21
115.8129657049776
 31
0.0
  0
LINE
  5
2B5
330
2
100
AcDbEntity
  8
LAYER3
100
AcDbLine
 10
34.74572974592968
 20
115.8129657049776
 30
0.0
 11
56.34842230976722
 21
115.8129657049776
 31
0.0
  0
LINE
  5
2B6
330
2
100
AcDbEntity
  8
LAYER3
100
AcDbLine
 10
80.44572974592972
 20
114.0129657049753
 30
0.0
 11
80.44572974592972
 21
115.8129657049748
 31
0.0
  0
LINE
  5
2B7
330
2
100
AcDbEntity
  8
LAYER3
100
AcDbLine
 10
61.3457297459297
 20
115.8129657049748
 30
0.0
 11
80.44572974592972
 21
115.8129657049748
 31
0.0
  0
LINE
  5
2B8
330
2
100
AcDbEntity
  8
LAYER3
100
AcDbLine
 10
61.3457297459297
 20
114.0129657049753
 30
0.0
 11
61.3457297459297
 21
115.8129657049748
 31
0.0
  0
LINE
  5
2B9
330
2
100
AcDbEntity
  8
LAYER3
100
AcDbLine
 10
80.44572974592972
 20
114.0129657049754
 30
0.0
 11
80.44572974592972
 21
99.76296570497536
 31
0.0
  0
LINE
  5
2BA
330
2
100
AcDbEntity
  8
LAYER3
100
AcDbLine
 10
80.44572974592972
 20
99.76296570497536
 30
0.0
 11
73.0957297459297
 21
99.76296570497536
 31
0.0
  0
LINE
  5
2BB
330
2
100
AcDbEntity
  8
LAYER3
100
AcDbLine
 10
61.3457297459297
 20
111.9129657049753
 30
0.0
 11
61.3457297459297
 21
114.0129657049754
 31
0.0
  0
LINE
  5
2BC
330
2
100
AcDbEntity
  8
LAYER3
100
AcDbLine
 10
59.89076209165421
 20
114.0629657049747
 30
0.0
 11
56.34842230976722
 21
114.0629657049775
 31
0.0
  0
LINE
  5
2BD
330
2
100
AcDbEntity
  8
LAYER3
100
AcDbLine
 10
59.89076209165421
 20
114.0629657049747
 30
0.0
 11
61.3457297459297
 21
114.0629657049748
 31
0.0
  0
LINE
  5
2BE
330
2
100
AcDbEntity
  8
LAYER3
100
AcDbLine
 10
73.0957297459297
 20
105.2629657049754
 30
0.0
 11
73.0957297459297
 21
99.76296570497536
 31
0.0
  0
LINE
  5
2BF
330
2
100
AcDbEntity
  8
LAYER3
100
AcDbLine
 10
76.09572974592959
 20
105.2629657049754
 30
0.0
 11
73.0957297459297
 21
105.2629657049754
 31
0.0
  0
LINE
  5
2C0
330
2
100
AcDbEntity
  8
LAYER3
100
AcDbLine
 10
51.79572974592975
 20
99.76296570497815
 30
0.0
 11
32.94572974592973
 21
99.76296570497815
 31
0.0
  0
ARC
  5
2C1
330
2
100
AcDbEntity
  8
LAYER3
100
AcDbCircle
 10
34.74572974592968
 20
114.0129657049775
 30
0.0
 40
0.0500000000000038
100
AcDbArc
 50
90.00000000005536
 51
180.0
  0
ARC
  5
2C2
330
2
100
AcDbEntity
  8
LAYER3
100
AcDbCircle
 10
34.74572974592968
 20
114.0129657049775
 30
0.0
 40
1.800000000000006
100
AcDbArc
 50
90.0
 51
180.0
  0
LINE
  5
2C3
330
2
100
AcDbEntity
  8
LAYER3
100
AcDbLine
 10
32.94572974592973
 20
114.0129657049781
 30
0.0
 11
34.74572974592968
 21
114.0129657049781
 31
0.0
  0
LINE
  5
2C4
330
2
100
AcDbEntity
  8
LAYER3
100
AcDbLine
 10
56.34842230976722
 20
115.8129657049776
 30
0.0
 11
56.34842230976722
 21
114.0129657049781
 31
0.0
  0
LINE
  5
2C5
330
2
100
AcDbEntity
  8
LAYER3
100
AcDbLine
 10
56.34842230976722
 20
108.5629657049782
 30
0.0
 11
56.34842230976722
 21
114.0129657049781
 31
0.0
  0
LINE
  5
2C6
330
2
100
AcDbEntity
  8
LAYER3
100
AcDbLine
 10
76.09572974592959
 20
108.5629657049753
 30
0.0
 11
76.09572974592959
 21
105.2629657049754
 31
0.0
  0
LINE
  5
2C7
330
2
100
AcDbEntity
  8
LAYER3
100
AcDbLine
 10
69.89784868840899
 20
108.5629657049753
 30
0.0
 11
76.09572974592959
 21
108.5629657049753
 31
0.0
  0
LINE
  5
2C8
330
2
100
AcDbEntity
  8
LAYER3
100
AcDbLine
 10
63.07549162750802
 20
108.5629657049753
 30
0.0
 11
66.63874032039007
 21
108.5629657049753
 31
0.0
  0
LINE
  5
2C9
330
2
100
AcDbEntity
  8
LAYER3
100
AcDbLine
 10
53.79572974592974
 20
108.5629657049782
 30
0.0
 11
56.34842230976722
 21
108.5629657049782
 31
0.0
  0
LINE
  5
2CA
330
2
100
AcDbEntity
  8
LAYER3
100
AcDbLine
 10
53.79572974592974
 20
103.7629657049782
 30
0.0
 11
53.79572974592974
 21
108.5629657049782
 31
0.0
  0
LINE
  5
2CB
330
2
100
AcDbEntity
  8
LAYER3
100
AcDbLine
 10
53.79572974592974
 20
103.7629657049782
 30
0.0
 11
51.79572974592975
 21
99.76296570497815
 31
0.0
  0
LINE
  5
2CC
330
2
100
AcDbEntity
  8
LAYER3
100
AcDbLine
 10
60.0147669125692
 20
403.9479153431336
 30
0.0
 11
67.35399212539812
 21
403.9479153431338
 31
0.0
  0
CIRCLE
  5
2CD
330
2
100
AcDbEntity
  8
LAYER3
100
AcDbCircle
 10
64.31810048797422
 20
163.5192597826897
 30
0.0
 40
2.549999999999998
  0
LINE
  5
2CE
330
2
100
AcDbEntity
  8
LAYER3
100
AcDbLine
 10
59.48156696432739
 20
144.4769924945056
 30
0.0
 11
59.26672243766734
 21
169.4760693140477
 31
0.0
  0
LINE
  5
2CF
330
2
100
AcDbEntity
  8
LAYER3
100
AcDbLine
 10
69.48119769214429
 20
144.5629303051698
 30
0.0
 11
69.26635316548413
 21
169.5620071247118
 31
0.0
  0
LINE
  5
2D0
330
2
100
AcDbEntity
  8
LAYER3
100
AcDbLine
 10
59.48156696432739
 20
144.4769924945056
 30
0.0
 11
69.48119769214429
 21
144.5629303051698
 31
0.0
  0
LINE
  5
2D1
330
2
100
AcDbEntity
  8
LAYER3
100
AcDbLine
 10
59.26672243766734
 20
169.4760693140477
 30
0.0
 11
69.26635316548419
 21
169.5620071247118
 31
0.0
  0
LINE
  5
2D2
330
2
100
AcDbEntity
  8
LAYER3
100
AcDbLine
 10
69.17167414102244
 20
466.9514059358633
 30
0.0
 11
69.36414540944253
 21
441.8421468506259
 31
0.0
  0
LINE
  5
2D3
330
2
100
AcDbEntity
  8
LAYER3
100
AcDbLine
 10
59.17197050692743
 20
466.8744174284953
 30
0.0
 11
59.36444177534752
 21
441.7651583432578
 31
0.0
  0
LINE
  5
2D4
330
2
100
AcDbEntity
  8
LAYER3
100
AcDbLine
 10
69.17167414102244
 20
466.9514059358633
 30
0.0
 11
59.17197050692743
 21
466.8744174284953
 31
0.0
  0
LINE
  5
2D5
330
2
100
AcDbEntity
  8
LAYER3
100
AcDbLine
 10
69.36414540944253
 20
441.8421468506259
 30
0.0
 11
59.36444177534752
 21
441.7651583432578
 31
0.0
  0
CIRCLE
  5
2D6
330
2
100
AcDbEntity
  8
LAYER3
100
AcDbCircle
 10
64.31810048797422
 20
311.4479153431336
 30
0.0
 40
4.75
  0
CIRCLE
  5
2D7
330
2
100
AcDbEntity
  8
LAYER3
100
AcDbCircle
 10
64.31810048797422
 20
311.4479153431336
 30
0.0
 40
5.099999999999998
  0
LINE
  5
2D8
330
2
100
AcDbEntity
  8
LAYER3
100
AcDbLine
 10
53.31810048797422
 20
413.4479153431338
 30
0.0
 11
53.31810048797422
 21
448.8034747773988
 31
0.0
  0
ARC
  5
2D9
330
2
100
AcDbEntity
  8
LAYER3
100
AcDbCircle
 10
58.31810048797422
 20
448.8034747773988
 30
0.0
 40
5.000000000000008
100
AcDbArc
 50
90.0
 51
180.0
  0
LINE
  5
2DA
330
2
100
AcDbEntity
  8
LAYER3
100
AcDbLine
 10
69.27205420185089
 20
453.8034747773989
 30
0.0
 11
70.31810048797422
 21
453.8034747773989
 31
0.0
  0
LINE
  5
2DB
330
2
100
AcDbEntity
  8
LAYER3
100
AcDbLine
 10
58.31810048797422
 20
453.8034747773989
 30
0.0
 11
59.27175782716243
 21
453.8034747773989
 31
0.0
  0
ARC
  5
2DC
330
2
100
AcDbEntity
  8
LAYER3
100
AcDbCircle
 10
70.31810048797422
 20
448.8034747773988
 30
0.0
 40
4.999999999999981
100
AcDbArc
 50
0.0
 51
90.0
  0
LINE
  5
2DD
330
2
100
AcDbEntity
  8
LAYER3
100
AcDbLine
 10
75.31810048797422
 20
448.8034747773988
 30
0.0
 11
75.31810048797422
 21
403.9479153431338
 31
0.0
  0
ARC
  5
2DE
330
2
100
AcDbEntity
  8
LAYER3
100
AcDbCircle
 10
64.31810048797422
 20
433.6434747773988
 30
0.0
 40
5.0
100
AcDbArc
 50
0.0
 51
180.0
  0
LINE
  5
2DF
330
2
100
AcDbEntity
  8
LAYER3
100
AcDbLine
 10
59.31810048797421
 20
410.2311549623693
 30
0.0
 11
59.31810048797421
 21
433.6434747773988
 31
0.0
  0
LINE
  5
2E0
330
2
100
AcDbEntity
  8
LAYER3
100
AcDbLine
 10
69.31810048797422
 20
433.6434747773988
 30
0.0
 11
69.31810048797422
 21
403.9479153431338
 31
0.0
  0
CIRCLE
  5
2E1
330
2
100
AcDbEntity
  8
LAYER3
100
AcDbCircle
 10
64.31810048797422
 20
332.9479153431337
 30
0.0
 40
7.999999999999986
  0
LINE
  5
2E2
330
2
100
AcDbEntity
  8
LAYER3
100
AcDbLine
 10
59.74921234911017
 20
337.3779561075677
 30
0.0
 11
59.88805972354021
 21
328.3790272042697
 31
0.0
  0
LINE
  5
2E3
330
2
100
AcDbEntity
  8
LAYER3
100
AcDbLine
 10
59.88805972354021
 20
328.3790272042697
 30
0.0
 11
68.88698862683821
 21
328.5178745786996
 31
0.0
  0
CIRCLE
  5
2E4
330
2
100
AcDbEntity
  8
LAYER3
100
AcDbCircle
 10
64.31810048797422
 20
332.9479153431337
 30
0.0
 40
7.099999999999987
  0
LINE
  5
2E5
330
2
100
AcDbEntity
  8
LAYER3
100
AcDbLine
 10
68.88698862683821
 20
328.5178745786996
 30
0.0
 11
68.74814125240829
 21
337.5168034819978
 31
0.0
  0
LINE
  5
2E6
330
2
100
AcDbEntity
  8
LAYER3
100
AcDbLine
 10
68.74814125240829
 20
337.5168034819978
 30
0.0
 11
59.74921234911017
 21
337.3779561075677
 31
0.0
  0
LINE
  5
2E7
330
2
100
AcDbEntity
  8
LAYER3
100
AcDbLine
 10
75.31810048797409
 20
213.4479153431336
 30
0.0
 11
75.31810048797409
 21
162.519259782691
 31
0.0
  0
ARC
  5
2E8
330
2
100
AcDbEntity
  8
LAYER3
100
AcDbCircle
 10
70.31810048797286
 20
162.5192597826909
 30
0.0
 40
5.000000000001351
100
AcDbArc
 50
270.0
 51
0.0
  0
LINE
  5
2E9
330
2
100
AcDbEntity
  8
LAYER3
100
AcDbLine
 10
59.36948043559947
 20
157.5192597826896
 30
0.0
 11
58.31810048797553
 21
157.5192597826896
 31
0.0
  0
LINE
  5
2EA
330
2
100
AcDbEntity
  8
Sichtbare Kanten(MSL)
100
AcDbLine
 10
70.31810048797286
 20
157.5192597826896
 30
0.0
 11
69.36984972141941
 21
157.5192597826896
 31
0.0
  0
ARC
  5
2EE
330
2
100
AcDbEntity
  8
LAYER3
100
AcDbCircle
 10
58.31810048797553
 20
162.5192597826909
 30
0.0
 40
5.000000000001349
100
AcDbArc
 50
180.0
 51
270.0
  0
LINE
  5
2EF
330
2
100
AcDbEntity
  8
LAYER3
100
AcDbLine
 10
53.31810048797411
 20
162.519259782691
 30
0.0
 11
53.31810048797411
 21
213.4479153431336
 31
0.0
  0
ARC
  5
2F0
330
2
100
AcDbEntity
  8
LAYER3
100
AcDbCircle
 10
64.31810048797411
 20
199.5192597826896
 30
0.0
 40
5.0
100
AcDbArc
 50
0.0
 51
180.0
  0
LINE
  5
2F1
330
2
100
AcDbEntity
  8
LAYER3
100
AcDbLine
 10
69.31810048797411
 20
199.5192597826896
 30
0.0
 11
69.31810048797411
 21
177.5192597826896
 31
0.0
  0
ARC
  5
2F2
330
2
100
AcDbEntity
  8
LAYER3
100
AcDbCircle
 10
64.31810048797411
 20
177.5192597826896
 30
0.0
 40
4.999999999999999
100
AcDbArc
 50
180.0
 51
0.0
  0
LINE
  5
2F3
330
2
100
AcDbEntity
  8
LAYER3
100
AcDbLine
 10
59.31810048797411
 20
177.5192597826896
 30
0.0
 11
59.31810048797411
 21
199.5192597826896
 31
0.0
  0
LINE
  5
2F4
330
2
100
AcDbEntity
  8
LAYER3
100
AcDbLine
 10
40.24982651387995
 20
357.010828623458
 30
0.0
 11
40.27685391562551
 21
357.0438299441595
 31
0.0
  0
ARC
  5
2F5
330
2
100
AcDbEntity
  8
LAYER3
100
AcDbCircle
 10
44.11810048797377
 20
353.8427919346958
 30
0.0
 40
4.999999999999523
100
AcDbArc
 50
140.6832303228959
 51
156.0737293316126
  0
ARC
  5
2F6
330
2
100
AcDbEntity
  8
LAYER3
100
AcDbCircle
 10
47.01810048797425
 20
299.6274566394887
 30
0.0
 40
1.999999999999995
100
AcDbArc
 50
0.0
 51
54.08634777955217
  0
LINE
  5
2F7
330
2
100
AcDbEntity
  8
LAYER3
100
AcDbLine
 10
49.01810048797422
 20
253.3943499678485
 30
0.0
 11
49.01810048797425
 21
299.6274566394887
 31
0.0
  0
LINE
  5
2F8
330
2
100
AcDbEntity
  8
LAYER3
100
AcDbLine
 10
32.31810048797411
 20
178.4479153431339
 30
0.0
 11
32.31810048797422
 21
498.4479153431333
 31
0.0
  0
LINE
  5
2F9
330
2
100
AcDbEntity
  8
LAYER3
100
AcDbLine
 10
32.31810048797411
 20
178.4479153431339
 30
0.0
 11
29.31810048797422
 21
178.4479153431339
 31
0.0
  0
LINE
  5
2FA
330
2
100
AcDbEntity
  8
LAYER3
100
AcDbLine
 10
29.31810048797422
 20
498.4479153431333
 30
0.0
 11
29.31810048797422
 21
178.4479153431339
 31
0.0
  0
LINE
  5
2FB
330
2
100
AcDbEntity
  8
LAYER3
100
AcDbLine
 10
32.31810048797422
 20
498.4479153431333
 30
0.0
 11
29.31810048797422
 21
498.4479153431333
 31
0.0
  0
ARC
  5
2FC
330
2
100
AcDbEntity
  8
LAYER3
100
AcDbCircle
 10
60.66955360893746
 20
403.1921016212026
 30
0.0
 40
1.0
100
AcDbArc
 50
114.9999999999996
 51
284.9999999999978
  0
LINE
  5
2FD
330
2
100
AcDbEntity
  8
LAYER3
100
AcDbLine
 10
67.35399212539812
 20
403.9479153431338
 30
0.0
 11
60.92837265403989
 21
402.2261757949137
 31
0.0
  0
LINE
  5
2FE
330
2
100
AcDbEntity
  8
LAYER3
100
AcDbLine
 10
67.35399212539812
 20
403.9479153431338
 30
0.0
 11
79.81810048797422
 21
403.9479153431338
 31
0.0
  0
CIRCLE
  5
2FF
330
2
100
AcDbEntity
  8
LAYER3
100
AcDbCircle
 10
45.31810048797421
 20
332.9479153431337
 30
0.0
 40
3.25
  0
CIRCLE
  5
300
330
2
100
AcDbEntity
  8
LAYER3
100
AcDbCircle
 10
64.31810048797422
 20
311.4479153431337
 30
0.0
 40
5.15
  0
LINE
  5
301
330
2
100
AcDbEntity
  8
LAYER3
100
AcDbLine
 10
32.31810048797422
 20
413.4479153431338
 30
0.0
 11
55.88718912978982
 21
413.4479153431338
 31
0.0
  0
LINE
  5
302
330
2
100
AcDbEntity
  8
LAYER3
100
AcDbLine
 10
79.81810048797422
 20
403.9479153431338
 30
0.0
 11
79.81810048797422
 21
384.2479153431337
 31
0.0
  0
LINE
  5
303
330
2
100
AcDbEntity
  8
LAYER3
100
AcDbLine
 10
79.81810048797422
 20
381.6479153431338
 30
0.0
 11
79.81810048797422
 21
213.4479153431336
 31
0.0
  0
LINE
  5
304
330
2
100
AcDbEntity
  8
LAYER3
100
AcDbLine
 10
79.81810048797422
 20
213.4479153431336
 30
0.0
 11
32.31810048797422
 21
213.4479153431337
 31
0.0
  0
LINE
  5
305
330
2
100
AcDbEntity
  8
LAYER3
100
AcDbLine
 10
55.88718912978982
 20
413.4479153431338
 30
0.0
 11
57.81810048797421
 21
413.4479153431338
 31
0.0
  0
LINE
  5
306
330
2
100
AcDbEntity
  8
LAYER3
100
AcDbLine
 10
61.83297397451082
 20
404.8379913662856
 30
0.0
 11
60.24693534719671
 21
404.0984094082392
 31
0.0
  0
LINE
  5
307
330
2
100
AcDbEntity
  8
LAYER3
100
AcDbLine
 10
61.83297397451082
 20
404.8379913662856
 30
0.0
 11
57.81810048797421
 21
413.4479153431338
 31
0.0
  0
ARC
  5
308
330
2
100
AcDbEntity
  8
LAYER3
100
AcDbCircle
 10
47.31810048797421
 20
299.4479153431337
 30
0.0
 40
1.999999999999992
100
AcDbArc
 50
0.0
 51
90.0
  0
LINE
  5
309
330
2
100
AcDbEntity
  8
LAYER3
100
AcDbLine
 10
49.31810048797421
 20
299.4479153431337
 30
0.0
 11
49.31810048797421
 21
254.4479153431336
 31
0.0
  0
ARC
  5
30A
330
2
100
AcDbEntity
  8
LAYER3
100
AcDbCircle
 10
47.31810048797421
 20
254.4479153431336
 30
0.0
 40
1.999999999999986
100
AcDbArc
 50
270.0
 51
0.0
  0
LINE
  5
30B
330
2
100
AcDbEntity
  8
LAYER3
100
AcDbLine
 10
47.31810048797421
 20
252.4479153431337
 30
0.0
 11
32.31810048797422
 21
252.4479153431337
 31
0.0
  0
LINE
  5
30C
330
2
100
AcDbEntity
  8
LAYER3
100
AcDbLine
 10
32.31810048797422
 20
301.4479153431337
 30
0.0
 11
47.31810048797421
 21
301.4479153431337
 31
0.0
  0
LINE
  5
30D
330
2
100
AcDbEntity
  8
LAYER3
100
AcDbLine
 10
32.31810048797422
 20
398.4479153431339
 30
0.0
 11
38.31810048797422
 21
398.4479153431339
 31
0.0
  0
ARC
  5
30E
330
2
100
AcDbEntity
  8
LAYER3
100
AcDbCircle
 10
38.31810048797422
 20
396.4479153431339
 30
0.0
 40
1.999999999999999
100
AcDbArc
 50
0.0
 51
90.0
  0
LINE
  5
30F
330
2
100
AcDbEntity
  8
LAYER3
100
AcDbLine
 10
40.31810048797422
 20
396.4479153431339
 30
0.0
 11
40.31810048797422
 21
357.4479153431338
 31
0.0
  0
ARC
  5
310
330
2
100
AcDbEntity
  8
LAYER3
100
AcDbCircle
 10
38.31810048797422
 20
357.4479153431338
 30
0.0
 40
2.000000000000003
100
AcDbArc
 50
270.0
 51
0.0
  0
LINE
  5
311
330
2
100
AcDbEntity
  8
LAYER3
100
AcDbLine
 10
38.31810048797422
 20
355.4479153431338
 30
0.0
 11
32.31810048797422
 21
355.4479153431338
 31
0.0
  0
DIMENSION
  5
41C
330
2
100
AcDbEntity
  8
AM_5
100
AcDbDimension
280
     0
  2
*D20
 10
204.1980193193317
 20
514.4013958415032
 30
0.0
 11
192.1980193193317
 21
517.5852976150366
 31
0.0
 70
    32
 71
     5
 42
23.99999999999991
 73
     0
 74
     0
 75
     0
  3
Katalog 09$0
100
AcDbAlignedDimension
 13
180.1980193193318
 23
492.4557923551961
 33
0.0
 14
204.1980193193317
 24
492.4557923551961
 34
0.0
100
AcDbRotatedDimension
1001
ACAD_DSTYLE_DIMINSPECT
1070
   396
1000
100%
1070
   395
1000

1070
   394
1070
    33
1070
   393
1070
     0
  0
ENDSEC
  0
SECTION
  2
OBJECTS
  0
DICTIONARY
  5
B
330
0
100
AcDbDictionary
281
     1
  3
ACAD_CIP_PREVIOUS_PRODUCT_INFO
350
3A7
  3
ACAD_COLOR
350
4D
  3
ACAD_DETAILVIEWSTYLE
350
39F
  3
ACAD_FIELDLIST
350
3FB
  3
ACAD_GROUP
350
3A
  3
ACAD_LAYOUT
350
18
  3
ACAD_MATERIAL
350
D
  3
ACAD_MLEADERSTYLE
350
50
  3
ACAD_MLINESTYLE
350
3B
  3
ACAD_PLOTSETTINGS
350
3C
  3
ACAD_PLOTSTYLENAME
350
A
  3
ACAD_SCALELIST
350
4E
  3
ACAD_SECTIONVIEWSTYLE
350
39D
  3
ACAD_TABLESTYLE
350
4F
  3
ACAD_VISUALSTYLE
350
2F
  3
ACDB_RECOMPOSE_DATA
350
45E
  3
AcDbVariableDictionary
350
36B
  3
AcmDictionary
350
323
  3
AMG
350
314
  3
AMGSNAPSETTINGS
350
40F
  0
DICTIONARY
  5
1F
330
1E
100
AcDbDictionary
280
     1
281
     1
  3
ACAD_LAYERFILTERS
360
20
  3
ACAD_LAYERSTATES
360
21
  3
ACLYDICTIONARY
360
22
  0
DICTIONARY
  5
7
330
6
100
AcDbDictionary
280
     1
281
     1
  3
ADSK_XREC_LAYER_RECONCILED
360
8
  0
DICTIONARY
  5
69
330
68
100
AcDbDictionary
280
     1
281
     1
  3
ADSK_XREC_LAYER_RECONCILED
360
6A
  0
DICTIONARY
  5
BA
330
B9
100
AcDbDictionary
280
     1
281
     1
  3
ADSK_XREC_LAYER_RECONCILED
360
BB
  0
DICTIONARY
  5
7C
330
7B
100
AcDbDictionary
280
     1
281
     1
  3
ADSK_XREC_LAYER_RECONCILED
360
7D
  0
DICTIONARY
  5
2EC
330
2EB
100
AcDbDictionary
280
     1
281
     1
  3
ADSK_XREC_LAYER_RECONCILED
360
2ED
  0
DICTIONARY
  5
3
330
2
100
AcDbDictionary
280
     1
281
     1
  3
ACAD_SORTENTS
360
312
  0
XRECORD
  5
3A7
102
{ACAD_REACTORS
330
B
102
}
330
B
100
AcDbXrecord
280
     1
300
AMECH_PP
300
2014
300
PDSU_F_S
  0
DICTIONARY
  5
4D
102
{ACAD_REACTORS
330
B
102
}
330
B
100
AcDbDictionary
281
     1
  0
DICTIONARY
  5
39F
102
{ACAD_REACTORS
330
B
102
}
330
B
100
AcDbDictionary
281
     1
  3
Metric50
350
3A0
  0
FIELDLIST
  5
3FB
102
{ACAD_REACTORS
330
B
102
}
330
B
100
AcDbIdSet
 90
        6
330
3F9
330
3FA
330
3FC
330
404
330
405
330
406
100
AcDbFieldList
  0
DICTIONARY
  5
3A
102
{ACAD_REACTORS
330
B
102
}
330
B
100
AcDbDictionary
281
     1
  0
DICTIONARY
  5
18
102
{ACAD_REACTORS
330
B
102
}
330
B
100
AcDbDictionary
281
     1
  3
Layout1
350
1D
  3
Model
350
17
  0
DICTIONARY
  5
D
102
{ACAD_REACTORS
330
B
102
}
330
B
100
AcDbDictionary
281
     1
  3
ByBlock
350
45
  3
ByLayer
350
3D
  3
Global
350
C
  0
DICTIONARY
  5
50
102
{ACAD_REACTORS
330
B
102
}
330
B
100
AcDbDictionary
281
     1
  3
Standard
350
B6
  0
DICTIONARY
  5
3B
102
{ACAD_REACTORS
330
B
102
}
330
B
100
AcDbDictionary
281
     1
  3
STANDARD
350
51
  0
DICTIONARY
  5
3C
102
{ACAD_REACTORS
330
B
102
}
330
B
100
AcDbDictionary
281
     1
  0
ACDBDICTIONARYWDFLT
  5
A
102
{ACAD_REACTORS
330
B
102
}
330
B
100
AcDbDictionary
281
     1
  3
Normal
350
9
100
AcDbDictionaryWithDefault
340
9
  0
DICTIONARY
  5
4E
102
{ACAD_REACTORS
330
B
102
}
330
B
100
AcDbDictionary
281
     1
  3
A0
350
56
  3
A1
350
57
  3
A2
350
58
  3
A3
350
59
  3
A4
350
5A
  3
A5
350
5B
  3
A6
350
5C
  3
A7
350
5D
  3
A8
350
5E
  3
A9
350
5F
  3
B0
350
60
  3
B1
350
61
  3
B2
350
62
  3
B3
350
63
  3
B4
350
64
  3
B5
350
65
  3
B6
350
66
  0
DICTIONARY
  5
39D
102
{ACAD_REACTORS
330
B
102
}
330
B
100
AcDbDictionary
281
     1
  3
Metric50
350
39E
  0
DICTIONARY
  5
4F
102
{ACAD_REACTORS
330
B
102
}
330
B
100
AcDbDictionary
281
     1
  3
Standard
350
52
  0
DICTIONARY
  5
2F
102
{ACAD_REACTORS
330
B
102
}
330
B
100
AcDbDictionary
281
     1
  3
2dWireframe
350
2E
  3
Basic
350
38C
  3
Brighten
350
390
  3
ColorChange
350
394
  3
Conceptual
350
38E
  3
Dim
350
38F
  3
EdgeColorOff
350
39C
  3
Facepattern
350
393
  3
Flat
350
388
  3
FlatWithEdges
350
389
  3
Gouraud
350
38A
  3
GouraudWithEdges
350
38B
  3
Hidden
350
38D
  3
JitterOff
350
39A
  3
Linepattern
350
392
  3
OverhangOff
350
39B
  3
Realistic
350
54
  3
Shaded
350
399
  3
Shaded with edges
350
398
  3
Shades of Gray
350
395
  3
Sketchy
350
396
  3
Thicken
350
391
  3
Wireframe
350
55
  3
X-Ray
350
397
  0
XRECORD
  5
45E
102
{ACAD_REACTORS
330
B
102
}
330
B
100
AcDbXrecord
280
     1
 90
        1
330
52
330
39E
330
3A0
  0
DICTIONARY
  5
36B
102
{ACAD_REACTORS
330
B
102
}
330
B
100
AcDbDictionary
281
     1
  3
CANNOSCALE
350
36E
  3
CMLEADERSTYLE
350
36D
  3
CTABLESTYLE
350
36C
  3
CVIEWDETAILSTYLE
350
453
  3
CVIEWSECTIONSTYLE
350
454
  3
DIMASSOC
350
373
  3
HIDETEXT
350
371
  3
INDEXCTL
350
370
  3
LAYEREVAL
350
457
  3
LAYERNOTIFY
350
458
  3
LIGHTINGUNITS
350
456
  3
MSLTSCALE
350
455
  3
SORTENTS
350
36F
  0
DICTIONARY
  5
323
102
{ACAD_REACTORS
330
B
102
}
330
B
100
AcDbDictionary
281
     1
  3
AcmStdDictionary
350
324
  0
DICTIONARY
  5
314
102
{ACAD_REACTORS
330
B
102
}
330
B
100
AcDbDictionary
281
     1
  0
DICTIONARY
  5
40F
102
{ACAD_REACTORS
330
B
102
}
330
B
100
AcDbDictionary
281
     1
  0
DICTIONARY
  5
20
102
{ACAD_REACTORS
330
1F
102
}
330
1F
100
AcDbDictionary
281
     1
  0
DICTIONARY
  5
21
102
{ACAD_REACTORS
330
1F
102
}
330
1F
100
AcDbDictionary
281
     1
  0
DICTIONARY
  5
22
102
{ACAD_REACTORS
330
1F
102
}
330
1F
100
AcDbDictionary
281
     1
1001
ACAD
1000
<All
  0
XRECORD
  5
8
102
{ACAD_REACTORS
330
7
102
}
330
7
100
AcDbXrecord
280
     1
290
     1
  0
XRECORD
  5
6A
102
{ACAD_REACTORS
330
69
102
}
330
69
100
AcDbXrecord
280
     1
290
     1
  0
XRECORD
  5
BB
102
{ACAD_REACTORS
330
BA
102
}
330
BA
100
AcDbXrecord
280
     1
290
     1
  0
XRECORD
  5
7D
102
{ACAD_REACTORS
330
7C
102
}
330
7C
100
AcDbXrecord
280
     1
290
     1
  0
XRECORD
  5
2ED
102
{ACAD_REACTORS
330
2EC
102
}
330
2EC
100
AcDbXrecord
280
     1
290
     1
  0
SORTENTSTABLE
  5
312
102
{ACAD_REACTORS
330
3
102
}
330
3
100
AcDbSortentsTable
330
2
331
205
  5
24D
331
27F
  5
1D3
331
201
  5
251
331
27B
  5
1D7
331
2B6
  5
19C
331
1FD
  5
255
331
23C
  5
216
331
277
  5
1DB
331
238
  5
21A
331
273
  5
1DF
331
2B2
  5
1A0
331
1F9
  5
259
331
2FC
  5
91
331
2F8
  5
95
331
2F4
  5
99
331
AF
  5
2DB
331
2F0
  5
9D
331
AB
  5
2DF
331
A7
  5
2E3
331
1C6
  5
28C
331
A3
  5
2E7
331
1C2
  5
290
331
1F5
  5
25D
331
234
  5
21E
331
26F
  5
1E3
331
2AE
  5
1A4
331
2E9
  5
A1
331
1F1
  5
261
331
230
  5
222
331
26B
  5
1E7
331
2AA
  5
1A8
331
310
  5
7A
331
2A6
  5
1AC
331
1ED
  5
265
331
22C
  5
226
331
267
  5
1EB
331
228
  5
22A
331
263
  5
1EF
331
2A2
  5
1B0
331
1E9
  5
269
331
2E4
  5
A6
331
2E0
  5
AA
331
2DC
  5
AE
331
2D8
  5
B2
331
9F
  5
2EE
331
1BE
  5
294
331
1BA
  5
298
331
9B
  5
2F2
331
1B6
  5
29C
331
97
  5
2F6
331
93
  5
2FA
331
1B2
  5
2A0
331
10A
  5
2C2
331
BD
  5
2D2
331
224
  5
22E
331
167
  5
2BB
331
25F
  5
1F3
331
29E
  5
1B4
331
1E5
  5
26D
331
1E1
  5
271
331
220
  5
232
331
25B
  5
1F7
331
29A
  5
1B8
331
296
  5
1BC
331
1DD
  5
275
331
21C
  5
236
331
257
  5
1FB
331
253
  5
1FF
331
292
  5
1C0
331
1D9
  5
279
331
218
  5
23A
331
2D4
  5
B7
331
2D0
  5
BF
331
2CC
  5
C3
331
2C8
  5
C7
331
8F
  5
2FE
331
1AE
  5
2A4
331
8B
  5
302
331
1AA
  5
2A8
331
1A6
  5
2AC
331
87
  5
306
331
83
  5
30A
331
1A2
  5
2B0
331
18E
  5
2B8
331
214
  5
23E
331
24F
  5
203
331
28E
  5
1C4
331
1D5
  5
27D
331
1D1
  5
281
331
210
  5
242
331
24B
  5
207
331
28A
  5
1C8
331
286
  5
1CC
331
1CD
  5
285
331
20C
  5
246
331
247
  5
20B
331
243
  5
20F
331
282
  5
1D0
331
1C9
  5
289
331
30F
  5
7E
331
208
  5
24A
331
30B
  5
82
331
2C4
  5
F0
331
2C0
  5
124
331
307
  5
86
331
2BC
  5
15A
331
303
  5
8A
331
2B8
  5
18E
331
C6
  5
2C9
331
C2
  5
2CD
331
B2
  5
2D8
331
19C
  5
2B6
331
204
  5
24E
331
27E
  5
1D4
331
D5
  5
2C6
331
200
  5
252
331
23F
  5
213
331
27A
  5
1D8
331
276
  5
1DC
331
2B5
  5
19D
331
1FC
  5
256
331
23B
  5
217
331
272
  5
1E0
331
2B1
  5
1A1
331
2FF
  5
8E
331
1F8
  5
25A
331
2FB
  5
92
331
2F7
  5
96
331
2F3
  5
9A
331
AE
  5
2DC
331
AA
  5
2E0
331
A6
  5
2E4
331
1C5
  5
28D
331
A2
  5
2E8
331
1C1
  5
291
331
237
  5
21B
331
1F4
  5
25E
331
233
  5
21F
331
26E
  5
1E4
331
2AD
  5
1A5
331
2E8
  5
A2
331
2A9
  5
1A9
331
1F0
  5
262
331
22F
  5
223
331
26A
  5
1E8
331
2A5
  5
1AD
331
1EC
  5
266
331
22B
  5
227
331
266
  5
1EC
331
262
  5
1F0
331
2A1
  5
1B1
331
2E7
  5
A3
331
1E8
  5
26A
331
2E3
  5
A7
331
2DF
  5
AB
331
2DB
  5
AF
331
9E
  5
2EF
331
1BD
  5
295
331
1B9
  5
299
331
9A
  5
2F3
331
96
  5
2F7
331
1B5
  5
29D
331
92
  5
2FB
331
1B1
  5
2A1
331
227
  5
22B
331
FD
  5
2C3
331
1E4
  5
26E
331
223
  5
22F
331
25E
  5
1F4
331
29D
  5
1B5
331
B8
  5
2D3
331
1E0
  5
272
331
21F
  5
233
331
25A
  5
1F8
331
299
  5
1B9
331
295
  5
1BD
331
1DC
  5
276
331
21B
  5
237
331
256
  5
1FC
331
252
  5
200
331
291
  5
1C1
331
2D7
  5
B3
331
1D8
  5
27A
331
2D3
  5
B8
331
2CF
  5
C0
331
2CB
  5
C4
331
8E
  5
2FF
331
1AD
  5
2A5
331
1A9
  5
2A9
331
8A
  5
303
331
1A5
  5
2AD
331
86
  5
307
331
82
  5
30B
331
1A1
  5
2B1
331
217
  5
23B
331
213
  5
23F
331
14D
  5
2BD
331
24E
  5
204
331
28D
  5
1C5
331
1D4
  5
27E
331
1D0
  5
282
331
20F
  5
243
331
24A
  5
208
331
289
  5
1C9
331
285
  5
1CD
331
1CC
  5
286
331
20B
  5
247
331
246
  5
20C
331
242
  5
210
331
281
  5
1D1
331
1C8
  5
28A
331
2C7
  5
C8
331
30E
  5
7F
331
30A
  5
83
331
2C3
  5
FD
331
2BF
  5
131
331
306
  5
87
331
2BB
  5
167
331
302
  5
8B
331
C5
  5
2CA
331
C1
  5
2CE
331
B5
  5
2D5
331
19F
  5
2B3
331
B1
  5
2D9
331
19B
  5
2B7
331
131
  5
2BF
331
E3
  5
2C5
331
207
  5
24B
331
203
  5
24F
331
27D
  5
1D5
331
1FF
  5
253
331
23E
  5
214
331
279
  5
1D9
331
275
  5
1DD
331
2B4
  5
19E
331
1FB
  5
257
331
23A
  5
218
331
271
  5
1E1
331
2B0
  5
1A2
331
2FE
  5
8F
331
2FA
  5
93
331
2F6
  5
97
331
2F2
  5
9B
331
AD
  5
2DD
331
A9
  5
2E1
331
A5
  5
2E5
331
1C4
  5
28E
331
A1
  5
2E9
331
1C0
  5
292
331
124
  5
2C0
331
2EF
  5
9E
331
236
  5
21C
331
1F7
  5
25B
331
1F3
  5
25F
331
232
  5
220
331
26D
  5
1E5
331
2AC
  5
1A6
331
7F
  5
30E
331
2A8
  5
1AA
331
1EF
  5
263
331
22E
  5
224
331
269
  5
1E9
331
181
  5
2B9
331
265
  5
1ED
331
2A4
  5
1AE
331
1EB
  5
267
331
22A
  5
228
331
261
  5
1F1
331
2A0
  5
1B2
331
2E6
  5
A4
331
2E2
  5
A8
331
2DE
  5
AC
331
2DA
  5
B0
331
9D
  5
2F0
331
1BC
  5
296
331
1B8
  5
29A
331
99
  5
2F4
331
95
  5
2F8
331
1B4
  5
29E
331
67
  5
311
331
91
  5
2FC
331
1B0
  5
2A2
331
BF
  5
2D0
331
226
  5
22C
331
1E7
  5
26B
331
1E3
  5
26F
331
222
  5
230
331
25D
  5
1F5
331
29C
  5
1B6
331
298
  5
1BA
331
1DF
  5
273
331
21E
  5
234
331
259
  5
1F9
331
294
  5
1BE
331
1DB
  5
277
331
21A
  5
238
331
255
  5
1FD
331
251
  5
201
331
290
  5
1C2
331
2D6
  5
B4
331
2D2
  5
BD
331
2CE
  5
C1
331
2CA
  5
C5
331
8D
  5
300
331
1AC
  5
2A6
331
1A8
  5
2AA
331
89
  5
304
331
85
  5
308
331
1A4
  5
2AE
331
81
  5
30C
331
1A0
  5
2B2
331
216
  5
23C
331
1D7
  5
27B
331
1D3
  5
27F
331
212
  5
240
331
24D
  5
205
331
28C
  5
1C6
331
1CF
  5
283
331
20E
  5
244
331
249
  5
209
331
288
  5
1CA
331
284
  5
1CE
331
1CB
  5
287
331
20A
  5
248
331
245
  5
20D
331
30D
  5
80
331
241
  5
211
331
280
  5
1D2
331
2C6
  5
D5
331
309
  5
84
331
2C2
  5
10A
331
2BE
  5
13E
331
305
  5
88
331
2BA
  5
174
331
301
  5
8C
331
C4
  5
2CB
331
C0
  5
2CF
331
B4
  5
2D6
331
19E
  5
2B4
331
B0
  5
2DA
331
206
  5
24C
331
202
  5
250
331
27C
  5
1D6
331
2B7
  5
19B
331
1FE
  5
254
331
23D
  5
215
331
278
  5
1DA
331
C8
  5
2C7
331
239
  5
219
331
274
  5
1DE
331
2B3
  5
19F
331
1FA
  5
258
331
270
  5
1E2
331
2FD
  5
90
331
2F9
  5
94
331
2F5
  5
98
331
2F1
  5
9C
331
AC
  5
2DE
331
1C7
  5
28B
331
A8
  5
2E2
331
A4
  5
2E6
331
1C3
  5
28F
331
A0
  5
2EA
331
2EE
  5
9F
331
F0
  5
2C4
331
117
  5
2C1
331
235
  5
21D
331
2EA
  5
A0
331
2AF
  5
1A3
331
1F6
  5
25C
331
7E
  5
30F
331
1F2
  5
260
331
231
  5
221
331
26C
  5
1E6
331
2AB
  5
1A7
331
7A
  5
310
331
311
  5
67
331
2A7
  5
1AB
331
1EE
  5
264
331
22D
  5
225
331
268
  5
1EA
331
264
  5
1EE
331
2A3
  5
1AF
331
1EA
  5
268
331
260
  5
1F2
331
2E5
  5
A5
331
2E1
  5
A9
331
2DD
  5
AD
331
2D9
  5
B1
331
1BF
  5
293
331
9C
  5
2F1
331
1BB
  5
297
331
1B7
  5
29B
331
98
  5
2F5
331
94
  5
2F9
331
1B3
  5
29F
331
90
  5
2FD
331
174
  5
2BA
331
BE
  5
2D1
331
225
  5
22D
331
29F
  5
1B3
331
1E6
  5
26C
331
1E2
  5
270
331
221
  5
231
331
25C
  5
1F6
331
29B
  5
1B7
331
297
  5
1BB
331
1DE
  5
274
331
21D
  5
235
331
258
  5
1FA
331
254
  5
1FE
331
293
  5
1BF
331
1DA
  5
278
331
219
  5
239
331
250
  5
202
331
2D5
  5
B5
331
2D1
  5
BE
331
2CD
  5
C2
331
2C9
  5
C6
331
1AF
  5
2A3
331
8C
  5
301
331
1AB
  5
2A7
331
1A7
  5
2AB
331
15A
  5
2BC
331
88
  5
305
331
84
  5
309
331
1A3
  5
2AF
331
13E
  5
2BE
331
80
  5
30D
331
215
  5
23D
331
28F
  5
1C3
331
1D6
  5
27C
331
1D2
  5
280
331
211
  5
241
331
24C
  5
206
331
28B
  5
1C7
331
287
  5
1CB
331
1CE
  5
284
331
20D
  5
245
331
248
  5
20A
331
283
  5
1CF
331
1CA
  5
288
331
209
  5
249
331
244
  5
20E
331
30C
  5
81
331
240
  5
212
331
2C5
  5
E3
331
2C1
  5
117
331
308
  5
85
331
2BD
  5
14D
331
304
  5
89
331
2B9
  5
181
331
C7
  5
2C8
331
300
  5
8D
331
C3
  5
2CC
331
B7
  5
2D4
331
B3
  5
2D7
331
19D
  5
2B5
  0
ACDBDETAILVIEWSTYLE
  5
3A0
102
{ACAD_XDICTIONARY
360
45C
102
}
102
{ACAD_REACTORS
330
39F
330
3F5
102
}
330
39F
100
AcDbModelDocViewStyle
 70
     0
  3
Metric50
290
     0
100
AcDbDetailViewStyle
 70
     0
 71
     0
 90
        3
 71
     1
340
25
 62
   256
 40
5.0
340
0
 62
   256
 40
5.0
300

 40
0.0
280
     1
 71
     2
340
15
 90
       25
 62
   256
 71
     3
340
25
 62
   256
 40
5.0
 90
        0
 40
15.0
 90
        1
300
%<\AcVar ViewDetailId>% (%<\AcVar ViewScale \f "%sn">%)
 71
     4
340
15
 90
       25
 62
   256
340
15
 90
       25
 62
   256
280
     0
  0
LAYOUT
  5
1D
102
{ACAD_REACTORS
330
18
102
}
330
18
100
AcDbPlotSettings
  1

  2
\\mslklsv1\MSLKLP05
  4

  6

 40
0.0
 41
0.0
 42
0.0
 43
0.0
 44
0.0
 45
0.0
 46
0.0
 47
0.0
 48
0.0
 49
0.0
140
0.0
141
0.0
142
1.0
143
1.0
 70
   688
 72
     0
 73
     0
 74
     5
  7
Katalog 09.ctb
 75
    16
147
1.0
 76
     0
 77
     2
 78
   300
148
0.0
149
0.0
100
AcDbLayout
  1
Layout1
 70
     1
 71
     1
 10
0.0
 20
0.0
 11
12.0
 21
9.0
 12
0.0
 22
0.0
 32
0.0
 14
1.000000000000000E+20
 24
1.000000000000000E+20
 34
1.000000000000000E+20
 15
-1.000000000000000E+20
 25
-1.000000000000000E+20
 35
-1.000000000000000E+20
146
0.0
 13
0.0
 23
0.0
 33
0.0
 16
1.0
 26
0.0
 36
0.0
 17
0.0
 27
1.0
 37
0.0
 76
     0
330
1A
  0
LAYOUT
  5
17
102
{ACAD_REACTORS
330
18
102
}
330
18
100
AcDbPlotSettings
  1

  2
\\mslklsv1\MSLKLP05
  4
A4
  6

 40
6.805083274841307
 41
5.027085304260253
 42
6.805084228515625
 43
5.027069091796875
 44
209.9733276367186
 45
296.9683227539062
 46
0.0
 47
0.0
 48
0.0
 49
0.0
140
0.0
141
0.0
142
1.0
143
5.211535630019419
 70
 11952
 72
     1
 73
     1
 74
     0
  7
Katalog 09.ctb
 75
     0
147
0.1918820230720122
 76
     0
 77
     2
 78
   300
148
1217.818285113836
149
22.1189732997434
100
AcDbLayout
  1
Model
 70
     1
 71
     0
 10
0.0
 20
0.0
 11
12.0
 21
9.0
 12
0.0
 22
0.0
 32
0.0
 14
0.0
 24
0.0
 34
0.0
 15
0.0
 25
0.0
 35
0.0
146
0.0
 13
0.0
 23
0.0
 33
0.0
 16
1.0
 26
0.0
 36
0.0
 17
0.0
 27
1.0
 37
0.0
 76
     0
330
2
331
2D
1001
ACAD_PSEXT
1000
\\mslklsv1\MSLKLP05
1000
HP LaserJet 5000 Series PCL
1000
CAD
1000
HP LaserJet 5000N
1070
     0
  0
MATERIAL
  5
45
102
{ACAD_XDICTIONARY
360
46
102
}
102
{ACAD_REACTORS
330
D
102
}
330
D
100
AcDbMaterial
  1
ByBlock
 72
     0
 43
0.0208333333333333
 43
0.0
 43
0.0
 43
0.0
 43
0.0
 43
0.0208333333333333
 43
0.0
 43
0.0
 43
0.0
 43
0.0
 43
1.0
 43
0.0
 43
0.0
 43
0.0
 43
0.0
 43
1.0
 77
     0
 47
0.0208333333333333
 47
0.0
 47
0.0
 47
0.0
 47
0.0
 47
0.0208333333333333
 47
0.0
 47
0.0
 47
0.0
 47
0.0
 47
1.0
 47
0.0
 47
0.0
 47
0.0
 47
0.0
 47
1.0
171
     0
 49
0.0208333333333333
 49
0.0
 49
0.0
 49
0.0
 49
0.0
 49
0.0208333333333333
 49
0.0
 49
0.0
 49
0.0
 49
0.0
 49
1.0
 49
0.0
 49
0.0
 49
0.0
 49
0.0
 49
1.0
175
     0
142
0.0208333333333333
142
0.0
142
0.0
142
0.0
142
0.0
142
0.0208333333333333
142
0.0
142
0.0
142
0.0
142
0.0
142
1.0
142
0.0
142
0.0
142
0.0
142
0.0
142
1.0
179
     0
144
0.0208333333333333
144
0.0
144
0.0
144
0.0
144
0.0
144
0.0208333333333333
144
0.0
144
0.0
144
0.0
144
0.0
144
1.0
144
0.0
144
0.0
144
0.0
144
0.0
144
1.0
147
0.0208333333333333
147
0.0
147
0.0
147
0.0
147
0.0
147
0.0208333333333333
147
0.0
147
0.0
147
0.0
147
0.0
147
1.0
147
0.0
147
0.0
147
0.0
147
0.0
147
1.0
  0
MATERIAL
  5
3D
102
{ACAD_XDICTIONARY
360
3E
102
}
102
{ACAD_REACTORS
330
D
102
}
330
D
100
AcDbMaterial
  1
ByLayer
 72
     0
 43
0.0208333333333333
 43
0.0
 43
0.0
 43
0.0
 43
0.0
 43
0.0208333333333333
 43
0.0
 43
0.0
 43
0.0
 43
0.0
 43
1.0
 43
0.0
 43
0.0
 43
0.0
 43
0.0
 43
1.0
 77
     0
 47
0.0208333333333333
 47
0.0
 47
0.0
 47
0.0
 47
0.0
 47
0.0208333333333333
 47
0.0
 47
0.0
 47
0.0
 47
0.0
 47
1.0
 47
0.0
 47
0.0
 47
0.0
 47
0.0
 47
1.0
171
     0
 49
0.0208333333333333
 49
0.0
 49
0.0
 49
0.0
 49
0.0
 49
0.0208333333333333
 49
0.0
 49
0.0
 49
0.0
 49
0.0
 49
1.0
 49
0.0
 49
0.0
 49
0.0
 49
0.0
 49
1.0
175
     0
142
0.0208333333333333
142
0.0
142
0.0
142
0.0
142
0.0
142
0.0208333333333333
142
0.0
142
0.0
142
0.0
142
0.0
142
1.0
142
0.0
142
0.0
142
0.0
142
0.0
142
1.0
179
     0
144
0.0208333333333333
144
0.0
144
0.0
144
0.0
144
0.0
144
0.0208333333333333
144
0.0
144
0.0
144
0.0
144
0.0
144
1.0
144
0.0
144
0.0
144
0.0
144
0.0
144
1.0
147
0.0208333333333333
147
0.0
147
0.0
147
0.0
147
0.0
147
0.0208333333333333
147
0.0
147
0.0
147
0.0
147
0.0
147
1.0
147
0.0
147
0.0
147
0.0
147
0.0
147
1.0
  0
MATERIAL
  5
C
102
{ACAD_XDICTIONARY
360
E
102
}
102
{ACAD_REACTORS
330
D
102
}
330
D
100
AcDbMaterial
  1
Global
 72
     0
 43
0.0208333333333333
 43
0.0
 43
0.0
 43
0.0
 43
0.0
 43
0.0208333333333333
 43
0.0
 43
0.0
 43
0.0
 43
0.0
 43
1.0
 43
0.0
 43
0.0
 43
0.0
 43
0.0
 43
1.0
 77
     0
 47
0.0208333333333333
 47
0.0
 47
0.0
 47
0.0
 47
0.0
 47
0.0208333333333333
 47
0.0
 47
0.0
 47
0.0
 47
0.0
 47
1.0
 47
0.0
 47
0.0
 47
0.0
 47
0.0
 47
1.0
171
     0
 49
0.0208333333333333
 49
0.0
 49
0.0
 49
0.0
 49
0.0
 49
0.0208333333333333
 49
0.0
 49
0.0
 49
0.0
 49
0.0
 49
1.0
 49
0.0
 49
0.0
 49
0.0
 49
0.0
 49
1.0
175
     0
142
0.0208333333333333
142
0.0
142
0.0
142
0.0
142
0.0
142
0.0208333333333333
142
0.0
142
0.0
142
0.0
142
0.0
142
1.0
142
0.0
142
0.0
142
0.0
142
0.0
142
1.0
179
     0
144
0.0208333333333333
144
0.0
144
0.0
144
0.0
144
0.0
144
0.0208333333333333
144
0.0
144
0.0
144
0.0
144
0.0
144
1.0
144
0.0
144
0.0
144
0.0
144
0.0
144
1.0
147
0.0208333333333333
147
0.0
147
0.0
147
0.0
147
0.0
147
0.0208333333333333
147
0.0
147
0.0
147
0.0
147
0.0
147
1.0
147
0.0
147
0.0
147
0.0
147
0.0
147
1.0
  0
MLEADERSTYLE
  5
B6
102
{ACAD_REACTORS
330
50
330
B7
330
B5
102
}
330
50
100
AcDbMLeaderStyle
179
     2
170
     2
171
     1
172
     0
 90
        2
 40
0.0
 41
0.0
173
     1
 91
-1056964608
340
28
 92
       -2
290
     1
 42
2.0
291
     1
 43
0.36
  3
Standard
 44
4.0
300

342
25
174
     1
178
     6
175
     1
176
     0
 93
-1056964608
 45
4.0
292
     0
297
     0
 46
4.0
 94
-1056964608
 47
1.0
 49
1.0
140
1.0
293
     1
141
0.0
294
     1
177
     0
142
1.0
295
     0
296
     0
143
0.125
271
     0
272
     9
273
     9
298
     0
1001
ACAD_MLEADERVER
1070
     2
  0
MLINESTYLE
  5
51
102
{ACAD_REACTORS
330
3B
102
}
330
3B
100
AcDbMlineStyle
  2
STANDARD
 70
     0
  3

 62
     0
 51
90.0
 52
90.0
 71
     2
 49
0.5
 62
   256
  6
BYLAYER
 49
-0.5
 62
   256
  6
BYLAYER
  0
ACDBPLACEHOLDER
  5
9
102
{ACAD_REACTORS
330
A
102
}
330
A
  0
SCALE
  5
56
102
{ACAD_REACTORS
330
4E
102
}
330
4E
100
AcDbScale
 70
     0
300
1:1
140
1.0
141
1.0
290
     1
  0
SCALE
  5
57
102
{ACAD_REACTORS
330
4E
102
}
330
4E
100
AcDbScale
 70
     0
300
1:2
140
1.0
141
2.0
290
     0
  0
SCALE
  5
58
102
{ACAD_REACTORS
330
4E
102
}
330
4E
100
AcDbScale
 70
     0
300
1:4
140
1.0
141
4.0
290
     0
  0
SCALE
  5
59
102
{ACAD_REACTORS
330
4E
102
}
330
4E
100
AcDbScale
 70
     0
300
1:5
140
1.0
141
5.0
290
     0
  0
SCALE
  5
5A
102
{ACAD_REACTORS
330
4E
102
}
330
4E
100
AcDbScale
 70
     0
300
1:8
140
1.0
141
8.0
290
     0
  0
SCALE
  5
5B
102
{ACAD_REACTORS
330
4E
102
}
330
4E
100
AcDbScale
 70
     0
300
1:10
140
1.0
141
10.0
290
     0
  0
SCALE
  5
5C
102
{ACAD_REACTORS
330
4E
102
}
330
4E
100
AcDbScale
 70
     0
300
1:16
140
1.0
141
16.0
290
     0
  0
SCALE
  5
5D
102
{ACAD_REACTORS
330
4E
102
}
330
4E
100
AcDbScale
 70
     0
300
1:20
140
1.0
141
20.0
290
     0
  0
SCALE
  5
5E
102
{ACAD_REACTORS
330
4E
102
}
330
4E
100
AcDbScale
 70
     0
300
1:30
140
1.0
141
30.0
290
     0
  0
SCALE
  5
5F
102
{ACAD_REACTORS
330
4E
102
}
330
4E
100
AcDbScale
 70
     0
300
1:40
140
1.0
141
40.0
290
     0
  0
SCALE
  5
60
102
{ACAD_REACTORS
330
4E
102
}
330
4E
100
AcDbScale
 70
     0
300
1:50
140
1.0
141
50.0
290
     0
  0
SCALE
  5
61
102
{ACAD_REACTORS
330
4E
102
}
330
4E
100
AcDbScale
 70
     0
300
1:100
140
1.0
141
100.0
290
     0
  0
SCALE
  5
62
102
{ACAD_REACTORS
330
4E
102
}
330
4E
100
AcDbScale
 70
     0
300
2:1
140
2.0
141
1.0
290
     0
  0
SCALE
  5
63
102
{ACAD_REACTORS
330
4E
102
}
330
4E
100
AcDbScale
 70
     0
300
4:1
140
4.0
141
1.0
290
     0
  0
SCALE
  5
64
102
{ACAD_REACTORS
330
4E
102
}
330
4E
100
AcDbScale
 70
     0
300
8:1
140
8.0
141
1.0
290
     0
  0
SCALE
  5
65
102
{ACAD_REACTORS
330
4E
102
}
330
4E
100
AcDbScale
 70
     0
300
10:1
140
10.0
141
1.0
290
     0
  0
SCALE
  5
66
102
{ACAD_REACTORS
330
4E
102
}
330
4E
100
AcDbScale
 70
     0
300
100:1
140
100.0
141
1.0
290
     0
  0
ACDBSECTIONVIEWSTYLE
  5
39E
102
{ACAD_XDICTIONARY
360
45A
102
}
102
{ACAD_REACTORS
330
39D
330
3F4
102
}
330
39D
100
AcDbModelDocViewStyle
 70
     0
  3
Metric50
290
     0
100
AcDbSectionViewStyle
 70
     0
 71
     0
 90
      102
 71
     1
340
25
 62
   256
 40
5.0
340
0
340
0
 62
   256
 40
5.0
300
I, O, Q, S, X, Z
 40
10.0
 90
        0
 40
2.5
 90
        0
 71
     2
340
15
 90
       25
 62
   256
340
15
 90
       50
 62
   256
 40
5.0
 40
2.5
 40
5.0
 71
     3
340
25
 62
   256
 40
5.0
 90
        0
 40
15.0
 90
        1
300
%<\AcVar ViewSectionStartId>%-%<\AcVar ViewSectionEndId>% (%<\AcVar ViewScale \f "%sn">%)
 71
     4
 62
   256
 62
   257
300
ANSI31
 40
1.0
 90
        0
290
     0
290
     0
 90
        6
 40
0.0
 40
1.570796326794896
 40
0.2617993877991494
 40
1.308996938995747
 40
-0.2617993877991494
 40
1.832595714594046
  0
TABLESTYLE
  5
52
102
{ACAD_XDICTIONARY
360
53
102
}
102
{ACAD_REACTORS
330
4F
102
}
330
4F
100
AcDbTableStyle
280
     0
  3
Standard
 70
     0
 71
     0
 40
1.5
 41
1.5
280
     0
281
     0
  7
STANDARD
140
4.5
170
     2
 62
     0
 63
     7
283
     0
 90
        4
 91
        0
  1

274
    -2
284
     1
 64
     0
275
    -2
285
     1
 65
     0
276
    -2
286
     1
 66
     0
277
    -2
287
     1
 67
     0
278
    -2
288
     1
 68
     0
279
    -2
289
     1
 69
     0
  7
STANDARD
140
6.0
170
     5
 62
     0
 63
     7
283
     0
 90
        4
 91
        0
  1

274
    -2
284
     1
 64
     0
275
    -2
285
     1
 65
     0
276
    -2
286
     1
 66
     0
277
    -2
287
     1
 67
     0
278
    -2
288
     1
 68
     0
279
    -2
289
     1
 69
     0
  7
STANDARD
140
4.5
170
     5
 62
     0
 63
     7
283
     0
 90
        4
 91
        0
  1

274
    -2
284
     1
 64
     0
275
    -2
285
     1
 65
     0
276
    -2
286
     1
 66
     0
277
    -2
287
     1
 67
     0
278
    -2
288
     1
 68
     0
279
    -2
289
     1
 69
     0
  0
VISUALSTYLE
  5
2E
102
{ACAD_REACTORS
330
2F
102
}
330
2F
100
AcDbVisualStyle
  2

 70
     4
177
     3
291
     0
 70
    58
 90
        0
176
     1
 90
        2
176
     1
 90
        0
176
     1
 90
        0
176
     1
 40
0.6
176
     1
 40
30.0
176
     1
 62
     7
176
     1
 90
        1
176
     1
 90
        4
176
     1
 62
     7
176
     1
 62
   257
176
     1
 90
        1
176
     1
 90
        1
176
     1
 40
1.0
176
     1
 90
        0
176
     1
 62
   257
176
     1
 40
1.0
176
     1
 90
        1
176
     1
 90
        6
176
     1
 90
        2
176
     1
 62
     7
176
     1
 90
        5
176
     1
 90
        0
176
     1
 90
        0
176
     1
290
     0
176
     1
 90
        1
176
     1
 40
0.0
176
     1
 90
        0
176
     1
290
     1
176
     1
290
     1
176
     1
290
     0
176
     1
290
     0
176
     1
290
     0
176
     1
290
     0
176
     1
290
     0
176
     1
290
     0
176
     1
290
     0
176
     1
 90
       50
176
     1
 40
0.0
176
     1
 40
1.0
176
     1
 90
        0
176
     1
 62
    18
420
        0
176
     1
 90
       50
176
     1
 90
        3
176
     1
 62
     5
420
      255
176
     1
290
     0
176
     1
 90
       50
176
     1
 90
       50
176
     1
 90
       50
176
     1
290
     0
176
     1
 90
       50
176
     1
 62
   256
176
     0
 40
1.0
176
     0
 90
        2
176
     1
  1
strokes_ogs.tif
176
     1
290
     0
176
     1
 40
1.0
176
     1
 40
1.0
176
     1
1001
ACAD
1000
AcDbSavedByObjectVersion
1070
     0
  0
VISUALSTYLE
  5
38C
102
{ACAD_REACTORS
330
2F
102
}
330
2F
100
AcDbVisualStyle
  2
Basic
 70
     7
177
     3
291
     1
 70
    58
 90
        1
176
     1
 90
        0
176
     1
 90
        1
176
     1
 90
        0
176
     1
 40
0.6
176
     1
 40
30.0
176
     1
 62
     7
420
 16777215
176
     1
 90
        0
176
     1
 90
        4
176
     1
 62
     7
176
     1
 62
   257
176
     1
 90
        1
176
     1
 90
        1
176
     1
 40
1.0
176
     1
 90
        8
176
     1
 62
     7
176
     1
 40
1.0
176
     1
 90
        1
176
     1
 90
        6
176
     1
 90
        2
176
     1
 62
     7
176
     1
 90
        5
176
     1
 90
        0
176
     1
 90
        0
176
     1
290
     0
176
     1
 90
        1
176
     1
 40
0.0
176
     1
 90
        0
176
     1
290
     0
176
     1
290
     1
176
     1
290
     1
176
     1
290
     0
176
     1
290
     0
176
     1
290
     0
176
     1
290
     0
176
     1
290
     0
176
     1
290
     0
176
     1
 90
       50
176
     1
 40
0.0
176
     1
 40
1.0
176
     1
 90
        0
176
     1
 62
    18
420
        0
176
     1
 90
       50
176
     1
 90
        3
176
     1
 62
     5
420
      255
176
     1
290
     0
176
     1
 90
       50
176
     1
 90
       50
176
     1
 90
       50
176
     1
290
     0
176
     1
 90
       50
176
     1
 62
   256
176
     0
 40
1.0
176
     0
 90
        2
176
     1
  1
strokes_ogs.tif
176
     1
290
     0
176
     1
 40
1.0
176
     1
 40
1.0
176
     1
  0
VISUALSTYLE
  5
390
102
{ACAD_REACTORS
330
2F
102
}
330
2F
100
AcDbVisualStyle
  2
Brighten
 70
    12
177
     3
291
     1
 70
    58
 90
        2
176
     1
 90
        2
176
     1
 90
        0
176
     1
 90
        0
176
     1
 40
0.6
176
     1
 40
30.0
176
     1
 62
     7
420
 16777215
176
     1
 90
        1
176
     1
 90
        4
176
     1
 62
     7
176
     1
 62
   257
176
     1
 90
        1
176
     1
 90
        1
176
     1
 40
1.0
176
     1
 90
        8
176
     1
 62
     7
176
     1
 40
1.0
176
     1
 90
        1
176
     1
 90
        6
176
     1
 90
        2
176
     1
 62
     7
176
     1
 90
        5
176
     1
 90
        0
176
     1
 90
        0
176
     1
290
     0
176
     1
 90
        1
176
     1
 40
50.0
176
     1
 90
        0
176
     1
290
     0
176
     1
290
     1
176
     1
290
     1
176
     1
290
     0
176
     1
290
     0
176
     1
290
     0
176
     1
290
     0
176
     1
290
     0
176
     1
290
     0
176
     1
 90
       50
176
     1
 40
0.0
176
     1
 40
1.0
176
     1
 90
        0
176
     1
 62
    18
420
        0
176
     1
 90
       50
176
     1
 90
        3
176
     1
 62
     5
420
      255
176
     1
290
     0
176
     1
 90
       50
176
     1
 90
       50
176
     1
 90
       50
176
     1
290
     0
176
     1
 90
       50
176
     1
 62
   256
176
     0
 40
1.0
176
     0
 90
        2
176
     1
  1
strokes_ogs.tif
176
     1
290
     0
176
     1
 40
1.0
176
     1
 40
1.0
176
     1
  0
VISUALSTYLE
  5
394
102
{ACAD_REACTORS
330
2F
102
}
330
2F
100
AcDbVisualStyle
  2
ColorChange
 70
    16
177
     3
291
     1
 70
    58
 90
        2
176
     1
 90
        2
176
     1
 90
        3
176
     1
 90
        0
176
     1
 40
0.6
176
     1
 40
30.0
176
     1
 62
     8
420
  8421504
176
     1
 90
        1
176
     1
 90
        4
176
     1
 62
     7
176
     1
 62
   257
176
     1
 90
        1
176
     1
 90
        1
176
     1
 40
1.0
176
     1
 90
        8
176
     1
 62
     8
420
  8421504
176
     1
 40
1.0
176
     1
 90
        1
176
     1
 90
        6
176
     1
 90
        2
176
     1
 62
     7
176
     1
 90
        5
176
     1
 90
        0
176
     1
 90
        0
176
     1
290
     0
176
     1
 90
        1
176
     1
 40
0.0
176
     1
 90
        0
176
     1
290
     0
176
     1
290
     1
176
     1
290
     1
176
     1
290
     0
176
     1
290
     0
176
     1
290
     0
176
     1
290
     0
176
     1
290
     0
176
     1
290
     0
176
     1
 90
       50
176
     1
 40
0.0
176
     1
 40
1.0
176
     1
 90
        0
176
     1
 62
    18
420
        0
176
     1
 90
       50
176
     1
 90
        3
176
     1
 62
     5
420
      255
176
     1
290
     0
176
     1
 90
       50
176
     1
 90
       50
176
     1
 90
       50
176
     1
290
     0
176
     1
 90
       50
176
     1
 62
   256
176
     0
 40
1.0
176
     0
 90
        2
176
     1
  1
strokes_ogs.tif
176
     1
290
     0
176
     1
 40
1.0
176
     1
 40
1.0
176
     1
  0
VISUALSTYLE
  5
38E
102
{ACAD_REACTORS
330
2F
102
}
330
2F
100
AcDbVisualStyle
  2
Conceptual
 70
     9
177
     3
291
     0
 70
    58
 90
        3
176
     1
 90
        2
176
     1
 90
        0
176
     1
 90
        0
176
     1
 40
0.6
176
     1
 40
30.0
176
     1
 62
     7
420
 16777215
176
     1
 90
        2
176
     1
 90
        2
176
     1
 62
     7
176
     1
 62
   257
176
     1
 90
        1
176
     1
 90
        1
176
     1
 40
179.0
176
     1
 90
        8
176
     1
 62
     7
176
     1
 40
1.0
176
     1
 90
        1
176
     1
 90
        6
176
     1
 90
        2
176
     1
 62
     7
176
     1
 90
        3
176
     1
 90
        0
176
     1
 90
        0
176
     1
290
     0
176
     1
 90
        1
176
     1
 40
0.0
176
     1
 90
        0
176
     1
290
     0
176
     1
290
     1
176
     1
290
     1
176
     1
290
     0
176
     1
290
     0
176
     1
290
     0
176
     1
290
     0
176
     1
290
     0
176
     1
290
     0
176
     1
 90
       50
176
     1
 40
0.0
176
     1
 40
1.0
176
     1
 90
        0
176
     1
 62
    18
420
        0
176
     1
 90
       50
176
     1
 90
        3
176
     1
 62
     5
420
      255
176
     1
290
     0
176
     1
 90
       50
176
     1
 90
       50
176
     1
 90
       50
176
     1
290
     0
176
     1
 90
       50
176
     1
 62
   256
176
     0
 40
1.0
176
     0
 90
        2
176
     1
  1
strokes_ogs.tif
176
     1
290
     0
176
     1
 40
1.0
176
     1
 40
1.0
176
     1
  0
VISUALSTYLE
  5
38F
102
{ACAD_REACTORS
330
2F
102
}
330
2F
100
AcDbVisualStyle
  2
Dim
 70
    11
177
     3
291
     1
 70
    58
 90
        2
176
     1
 90
        2
176
     1
 90
        0
176
     1
 90
        0
176
     1
 40
0.6
176
     1
 40
30.0
176
     1
 62
     7
420
 16777215
176
     1
 90
        1
176
     1
 90
        4
176
     1
 62
     7
176
     1
 62
   257
176
     1
 90
        1
176
     1
 90
        1
176
     1
 40
1.0
176
     1
 90
        8
176
     1
 62
     7
176
     1
 40
1.0
176
     1
 90
        1
176
     1
 90
        6
176
     1
 90
        2
176
     1
 62
     7
176
     1
 90
        5
176
     1
 90
        0
176
     1
 90
        0
176
     1
290
     0
176
     1
 90
        1
176
     1
 40
-50.0
176
     1
 90
        0
176
     1
290
     0
176
     1
290
     1
176
     1
290
     1
176
     1
290
     0
176
     1
290
     0
176
     1
290
     0
176
     1
290
     0
176
     1
290
     0
176
     1
290
     0
176
     1
 90
       50
176
     1
 40
0.0
176
     1
 40
1.0
176
     1
 90
        0
176
     1
 62
    18
420
        0
176
     1
 90
       50
176
     1
 90
        3
176
     1
 62
     5
420
      255
176
     1
290
     0
176
     1
 90
       50
176
     1
 90
       50
176
     1
 90
       50
176
     1
290
     0
176
     1
 90
       50
176
     1
 62
   256
176
     0
 40
1.0
176
     0
 90
        2
176
     1
  1
strokes_ogs.tif
176
     1
290
     0
176
     1
 40
1.0
176
     1
 40
1.0
176
     1
  0
VISUALSTYLE
  5
39C
102
{ACAD_REACTORS
330
2F
102
}
330
2F
100
AcDbVisualStyle
  2
EdgeColorOff
 70
    22
177
     3
291
     1
 70
    58
 90
        2
176
     0
 90
        2
176
     0
 90
        0
176
     0
 90
        0
176
     0
 40
0.6
176
     0
 40
30.0
176
     0
 62
     7
420
 16777215
176
     0
 90
        1
176
     0
 90
        4
176
     0
 62
     7
176
     0
 62
   257
176
     0
 90
        1
176
     0
 90
        1
176
     0
 40
1.0
176
     0
 90
        8
176
     2
 62
     7
176
     0
 40
1.0
176
     0
 90
        1
176
     0
 90
        6
176
     0
 90
        2
176
     0
 62
     7
176
     0
 90
        5
176
     0
 90
        0
176
     0
 90
        0
176
     0
290
     0
176
     0
 90
        1
176
     0
 40
0.0
176
     0
 90
        0
176
     0
290
     0
176
     1
290
     1
176
     1
290
     1
176
     1
290
     0
176
     1
290
     0
176
     1
290
     0
176
     1
290
     0
176
     1
290
     0
176
     1
290
     0
176
     1
 90
       50
176
     0
 40
0.0
176
     0
 40
1.0
176
     0
 90
        0
176
     0
 62
    18
420
        0
176
     0
 90
       50
176
     0
 90
        3
176
     0
 62
     5
420
      255
176
     0
290
     0
176
     1
 90
       50
176
     0
 90
       50
176
     0
 90
       50
176
     0
290
     0
176
     1
 90
       50
176
     0
 62
   256
176
     0
 40
1.0
176
     0
 90
        2
176
     0
  1
strokes_ogs.tif
176
     0
290
     0
176
     1
 40
1.0
176
     0
 40
1.0
176
     0
  0
VISUALSTYLE
  5
393
102
{ACAD_REACTORS
330
2F
102
}
330
2F
100
AcDbVisualStyle
  2
Facepattern
 70
    15
177
     3
291
     1
 70
    58
 90
        2
176
     1
 90
        2
176
     1
 90
        0
176
     1
 90
        0
176
     1
 40
0.6
176
     1
 40
30.0
176
     1
 62
     7
420
 16777215
176
     1
 90
        1
176
     1
 90
        4
176
     1
 62
     7
176
     1
 62
   257
176
     1
 90
        1
176
     1
 90
        1
176
     1
 40
1.0
176
     1
 90
        8
176
     1
 62
     7
176
     1
 40
1.0
176
     1
 90
        1
176
     1
 90
        6
176
     1
 90
        2
176
     1
 62
     7
176
     1
 90
        5
176
     1
 90
        0
176
     1
 90
        0
176
     1
290
     0
176
     1
 90
        1
176
     1
 40
0.0
176
     1
 90
        0
176
     1
290
     0
176
     1
290
     1
176
     1
290
     1
176
     1
290
     0
176
     1
290
     0
176
     1
290
     0
176
     1
290
     0
176
     1
290
     0
176
     1
290
     0
176
     1
 90
       50
176
     1
 40
0.0
176
     1
 40
1.0
176
     1
 90
        0
176
     1
 62
    18
420
        0
176
     1
 90
       50
176
     1
 90
        3
176
     1
 62
     5
420
      255
176
     1
290
     0
176
     1
 90
       50
176
     1
 90
       50
176
     1
 90
       50
176
     1
290
     0
176
     1
 90
       50
176
     1
 62
   256
176
     0
 40
1.0
176
     0
 90
        2
176
     1
  1
strokes_ogs.tif
176
     1
290
     0
176
     1
 40
1.0
176
     1
 40
1.0
176
     1
  0
VISUALSTYLE
  5
388
102
{ACAD_REACTORS
330
2F
102
}
330
2F
100
AcDbVisualStyle
  2
Flat
 70
     0
177
     3
291
     1
 70
    58
 90
        2
176
     1
 90
        1
176
     1
 90
        1
176
     1
 90
        2
176
     1
 40
0.6
176
     1
 40
30.0
176
     1
 62
     7
420
 16777215
176
     1
 90
        0
176
     1
 90
        0
176
     1
 62
     7
176
     1
 62
   257
176
     1
 90
        1
176
     1
 90
        1
176
     1
 40
1.0
176
     1
 90
        8
176
     1
 62
     7
176
     1
 40
1.0
176
     1
 90
        1
176
     1
 90
        6
176
     1
 90
        2
176
     1
 62
     7
176
     1
 90
        5
176
     1
 90
        0
176
     1
 90
        0
176
     1
290
     0
176
     1
 90
       13
176
     1
 40
0.0
176
     1
 90
        0
176
     1
290
     0
176
     1
290
     1
176
     1
290
     1
176
     1
290
     0
176
     1
290
     0
176
     1
290
     0
176
     1
290
     0
176
     1
290
     0
176
     1
290
     0
176
     1
 90
       50
176
     1
 40
0.0
176
     1
 40
1.0
176
     1
 90
        0
176
     1
 62
    18
420
        0
176
     1
 90
       50
176
     1
 90
        3
176
     1
 62
     5
420
      255
176
     1
290
     0
176
     1
 90
       50
176
     1
 90
       50
176
     1
 90
       50
176
     1
290
     0
176
     1
 90
       50
176
     1
 62
   256
176
     0
 40
1.0
176
     0
 90
        2
176
     1
  1
strokes_ogs.tif
176
     1
290
     0
176
     1
 40
1.0
176
     1
 40
1.0
176
     1
  0
VISUALSTYLE
  5
389
102
{ACAD_REACTORS
330
2F
102
}
330
2F
100
AcDbVisualStyle
  2
FlatWithEdges
 70
     1
177
     3
291
     1
 70
    58
 90
        2
176
     1
 90
        1
176
     1
 90
        1
176
     1
 90
        2
176
     1
 40
0.6
176
     1
 40
30.0
176
     1
 62
     7
420
 16777215
176
     1
 90
        1
176
     1
 90
        0
176
     1
 62
     7
176
     1
 62
   257
176
     1
 90
        1
176
     1
 90
        1
176
     1
 40
1.0
176
     1
 90
        0
176
     1
 62
   257
176
     1
 40
1.0
176
     1
 90
        1
176
     1
 90
        6
176
     1
 90
        2
176
     1
 62
     7
176
     1
 90
        5
176
     1
 90
        0
176
     1
 90
        0
176
     1
290
     0
176
     1
 90
       13
176
     1
 40
0.0
176
     1
 90
        0
176
     1
290
     0
176
     1
290
     1
176
     1
290
     1
176
     1
290
     0
176
     1
290
     0
176
     1
290
     0
176
     1
290
     0
176
     1
290
     0
176
     1
290
     0
176
     1
 90
       50
176
     1
 40
0.0
176
     1
 40
1.0
176
     1
 90
        0
176
     1
 62
    18
420
        0
176
     1
 90
       50
176
     1
 90
        3
176
     1
 62
     5
420
      255
176
     1
290
     0
176
     1
 90
       50
176
     1
 90
       50
176
     1
 90
       50
176
     1
290
     0
176
     1
 90
       50
176
     1
 62
   256
176
     0
 40
1.0
176
     0
 90
        2
176
     1
  1
strokes_ogs.tif
176
     1
290
     0
176
     1
 40
1.0
176
     1
 40
1.0
176
     1
  0
VISUALSTYLE
  5
38A
102
{ACAD_REACTORS
330
2F
102
}
330
2F
100
AcDbVisualStyle
  2
Gouraud
 70
     2
177
     3
291
     1
 70
    58
 90
        2
176
     1
 90
        2
176
     1
 90
        1
176
     1
 90
        2
176
     1
 40
0.6
176
     1
 40
30.0
176
     1
 62
     7
420
 16777215
176
     1
 90
        0
176
     1
 90
        0
176
     1
 62
     7
176
     1
 62
   257
176
     1
 90
        1
176
     1
 90
        1
176
     1
 40
1.0
176
     1
 90
        0
176
     1
 62
     7
176
     1
 40
1.0
176
     1
 90
        1
176
     1
 90
        6
176
     1
 90
        2
176
     1
 62
     7
176
     1
 90
        5
176
     1
 90
        0
176
     1
 90
        0
176
     1
290
     0
176
     1
 90
       13
176
     1
 40
0.0
176
     1
 90
        0
176
     1
290
     0
176
     1
290
     1
176
     1
290
     1
176
     1
290
     0
176
     1
290
     0
176
     1
290
     0
176
     1
290
     0
176
     1
290
     0
176
     1
290
     0
176
     1
 90
       50
176
     1
 40
0.0
176
     1
 40
1.0
176
     1
 90
        0
176
     1
 62
    18
420
        0
176
     1
 90
       50
176
     1
 90
        3
176
     1
 62
     5
420
      255
176
     1
290
     0
176
     1
 90
       50
176
     1
 90
       50
176
     1
 90
       50
176
     1
290
     0
176
     1
 90
       50
176
     1
 62
   256
176
     0
 40
1.0
176
     0
 90
        2
176
     1
  1
strokes_ogs.tif
176
     1
290
     0
176
     1
 40
1.0
176
     1
 40
1.0
176
     1
  0
VISUALSTYLE
  5
38B
102
{ACAD_REACTORS
330
2F
102
}
330
2F
100
AcDbVisualStyle
  2
GouraudWithEdges
 70
     3
177
     3
291
     1
 70
    58
 90
        2
176
     1
 90
        2
176
     1
 90
        1
176
     1
 90
        2
176
     1
 40
0.6
176
     1
 40
30.0
176
     1
 62
     7
420
 16777215
176
     1
 90
        1
176
     1
 90
        0
176
     1
 62
     7
176
     1
 62
   257
176
     1
 90
        1
176
     1
 90
        1
176
     1
 40
1.0
176
     1
 90
        0
176
     1
 62
   257
176
     1
 40
1.0
176
     1
 90
        1
176
     1
 90
        6
176
     1
 90
        2
176
     1
 62
     7
176
     1
 90
        5
176
     1
 90
        0
176
     1
 90
        0
176
     1
290
     0
176
     1
 90
       13
176
     1
 40
0.0
176
     1
 90
        0
176
     1
290
     0
176
     1
290
     1
176
     1
290
     1
176
     1
290
     0
176
     1
290
     0
176
     1
290
     0
176
     1
290
     0
176
     1
290
     0
176
     1
290
     0
176
     1
 90
       50
176
     1
 40
0.0
176
     1
 40
1.0
176
     1
 90
        0
176
     1
 62
    18
420
        0
176
     1
 90
       50
176
     1
 90
        3
176
     1
 62
     5
420
      255
176
     1
290
     0
176
     1
 90
       50
176
     1
 90
       50
176
     1
 90
       50
176
     1
290
     0
176
     1
 90
       50
176
     1
 62
   256
176
     0
 40
1.0
176
     0
 90
        2
176
     1
  1
strokes_ogs.tif
176
     1
290
     0
176
     1
 40
1.0
176
     1
 40
1.0
176
     1
  0
VISUALSTYLE
  5
38D
102
{ACAD_REACTORS
330
2F
102
}
330
2F
100
AcDbVisualStyle
  2
Hidden
 70
     6
177
     3
291
     0
 70
    58
 90
        1
176
     1
 90
        2
176
     1
 90
        2
176
     1
 90
        0
176
     1
 40
0.6
176
     1
 40
30.0
176
     1
 62
     7
420
 16777215
176
     1
 90
        2
176
     1
 90
        2
176
     1
 62
     7
176
     1
 62
   257
176
     1
 90
        2
176
     1
 90
        1
176
     1
 40
40.0
176
     1
 90
        0
176
     1
 62
   257
176
     1
 40
1.0
176
     1
 90
        1
176
     1
 90
        6
176
     1
 90
        2
176
     1
 62
     7
176
     1
 90
        3
176
     1
 90
        0
176
     1
 90
        0
176
     1
290
     0
176
     1
 90
        1
176
     1
 40
0.0
176
     1
 90
        0
176
     1
290
     0
176
     1
290
     1
176
     1
290
     1
176
     1
290
     0
176
     1
290
     0
176
     1
290
     0
176
     1
290
     0
176
     1
290
     0
176
     1
290
     0
176
     1
 90
       50
176
     1
 40
0.0
176
     1
 40
1.0
176
     1
 90
        0
176
     1
 62
    18
420
        0
176
     1
 90
       50
176
     1
 90
        3
176
     1
 62
     5
420
      255
176
     1
290
     0
176
     1
 90
       50
176
     1
 90
       50
176
     1
 90
       50
176
     1
290
     0
176
     1
 90
       50
176
     1
 62
   256
176
     0
 40
1.0
176
     0
 90
        2
176
     1
  1
strokes_ogs.tif
176
     1
290
     0
176
     1
 40
1.0
176
     1
 40
1.0
176
     1
  0
VISUALSTYLE
  5
39A
102
{ACAD_REACTORS
330
2F
102
}
330
2F
100
AcDbVisualStyle
  2
JitterOff
 70
    20
177
     3
291
     1
 70
    58
 90
        2
176
     0
 90
        2
176
     0
 90
        0
176
     0
 90
        0
176
     0
 40
0.6
176
     0
 40
30.0
176
     0
 62
     7
420
 16777215
176
     0
 90
        1
176
     0
 90
        4
176
     0
 62
     7
176
     0
 62
   257
176
     0
 90
        1
176
     0
 90
        1
176
     0
 40
1.0
176
     0
 90
       10
176
     2
 62
     7
176
     0
 40
1.0
176
     0
 90
        1
176
     0
 90
        6
176
     0
 90
        2
176
     0
 62
     7
176
     0
 90
        5
176
     0
 90
        0
176
     0
 90
        0
176
     0
290
     0
176
     0
 90
        1
176
     0
 40
0.0
176
     0
 90
        0
176
     0
290
     0
176
     1
290
     1
176
     1
290
     1
176
     1
290
     0
176
     1
290
     0
176
     1
290
     0
176
     1
290
     0
176
     1
290
     0
176
     1
290
     0
176
     1
 90
       50
176
     0
 40
0.0
176
     0
 40
1.0
176
     0
 90
        0
176
     0
 62
    18
420
        0
176
     0
 90
       50
176
     0
 90
        3
176
     0
 62
     5
420
      255
176
     0
290
     0
176
     1
 90
       50
176
     0
 90
       50
176
     0
 90
       50
176
     0
290
     0
176
     1
 90
       50
176
     0
 62
   256
176
     0
 40
1.0
176
     0
 90
        2
176
     0
  1
strokes_ogs.tif
176
     0
290
     0
176
     1
 40
1.0
176
     0
 40
1.0
176
     0
  0
VISUALSTYLE
  5
392
102
{ACAD_REACTORS
330
2F
102
}
330
2F
100
AcDbVisualStyle
  2
Linepattern
 70
    14
177
     3
291
     1
 70
    58
 90
        2
176
     1
 90
        2
176
     1
 90
        0
176
     1
 90
        0
176
     1
 40
0.6
176
     1
 40
30.0
176
     1
 62
     7
420
 16777215
176
     1
 90
        1
176
     1
 90
        4
176
     1
 62
     7
176
     1
 62
   257
176
     1
 90
        7
176
     1
 90
        7
176
     1
 40
1.0
176
     1
 90
        8
176
     1
 62
     7
176
     1
 40
1.0
176
     1
 90
        1
176
     1
 90
        6
176
     1
 90
        2
176
     1
 62
     7
176
     1
 90
        5
176
     1
 90
        0
176
     1
 90
        0
176
     1
290
     0
176
     1
 90
        1
176
     1
 40
0.0
176
     1
 90
        0
176
     1
290
     0
176
     1
290
     1
176
     1
290
     1
176
     1
290
     0
176
     1
290
     0
176
     1
290
     0
176
     1
290
     0
176
     1
290
     0
176
     1
290
     0
176
     1
 90
       50
176
     1
 40
0.0
176
     1
 40
1.0
176
     1
 90
        0
176
     1
 62
    18
420
        0
176
     1
 90
       50
176
     1
 90
        3
176
     1
 62
     5
420
      255
176
     1
290
     0
176
     1
 90
       50
176
     1
 90
       50
176
     1
 90
       50
176
     1
290
     0
176
     1
 90
       50
176
     1
 62
   256
176
     0
 40
1.0
176
     0
 90
        2
176
     1
  1
strokes_ogs.tif
176
     1
290
     0
176
     1
 40
1.0
176
     1
 40
1.0
176
     1
  0
VISUALSTYLE
  5
39B
102
{ACAD_REACTORS
330
2F
102
}
330
2F
100
AcDbVisualStyle
  2
OverhangOff
 70
    21
177
     3
291
     1
 70
    58
 90
        2
176
     0
 90
        2
176
     0
 90
        0
176
     0
 90
        0
176
     0
 40
0.6
176
     0
 40
30.0
176
     0
 62
     7
420
 16777215
176
     0
 90
        1
176
     0
 90
        4
176
     0
 62
     7
176
     0
 62
   257
176
     0
 90
        1
176
     0
 90
        1
176
     0
 40
1.0
176
     0
 90
        9
176
     2
 62
     7
176
     0
 40
1.0
176
     0
 90
        1
176
     0
 90
        6
176
     0
 90
        2
176
     0
 62
     7
176
     0
 90
        5
176
     0
 90
        0
176
     0
 90
        0
176
     0
290
     0
176
     0
 90
        1
176
     0
 40
0.0
176
     0
 90
        0
176
     0
290
     0
176
     1
290
     1
176
     1
290
     1
176
     1
290
     0
176
     1
290
     0
176
     1
290
     0
176
     1
290
     0
176
     1
290
     0
176
     1
290
     0
176
     1
 90
       50
176
     0
 40
0.0
176
     0
 40
1.0
176
     0
 90
        0
176
     0
 62
    18
420
        0
176
     0
 90
       50
176
     0
 90
        3
176
     0
 62
     5
420
      255
176
     0
290
     0
176
     1
 90
       50
176
     0
 90
       50
176
     0
 90
       50
176
     0
290
     0
176
     1
 90
       50
176
     0
 62
   256
176
     0
 40
1.0
176
     0
 90
        2
176
     0
  1
strokes_ogs.tif
176
     0
290
     0
176
     1
 40
1.0
176
     0
 40
1.0
176
     0
  0
VISUALSTYLE
  5
54
102
{ACAD_REACTORS
330
2F
102
}
330
2F
100
AcDbVisualStyle
  2

 70
     8
177
     3
291
     0
 70
    58
 90
        2
176
     1
 90
        2
176
     1
 90
        0
176
     1
 90
        0
176
     1
 40
0.6
176
     1
 40
30.0
176
     1
 62
     7
176
     1
 90
        1
176
     1
 90
        0
176
     1
 62
     7
176
     1
 62
   257
176
     1
 90
        1
176
     1
 90
        1
176
     1
 40
1.0
176
     1
 90
        8
176
     1
 62
     8
176
     1
 40
1.0
176
     1
 90
        1
176
     1
 90
        6
176
     1
 90
        2
176
     1
 62
     7
176
     1
 90
        5
176
     1
 90
        0
176
     1
 90
        0
176
     1
290
     0
176
     1
 90
       13
176
     1
 40
0.0
176
     1
 90
        0
176
     1
290
     0
176
     1
290
     1
176
     1
290
     1
176
     1
290
     0
176
     1
290
     0
176
     1
290
     0
176
     1
290
     0
176
     1
290
     0
176
     1
290
     0
176
     1
 90
       50
176
     1
 40
0.0
176
     1
 40
1.0
176
     1
 90
        0
176
     1
 62
    18
420
        0
176
     1
 90
       50
176
     1
 90
        3
176
     1
 62
     5
420
      255
176
     1
290
     0
176
     1
 90
       50
176
     1
 90
       50
176
     1
 90
       50
176
     1
290
     0
176
     1
 90
       50
176
     1
 62
   256
176
     0
 40
1.0
176
     0
 90
        2
176
     1
  1
strokes_ogs.tif
176
     1
290
     0
176
     1
 40
1.0
176
     1
 40
1.0
176
     1
1001
ACAD
1000
AcDbSavedByObjectVersion
1070
     0
  0
VISUALSTYLE
  5
399
102
{ACAD_REACTORS
330
2F
102
}
330
2F
100
AcDbVisualStyle
  2
Shaded
 70
    27
177
     3
291
     0
 70
    58
 90
        2
176
     1
 90
        2
176
     1
 90
        1
176
     1
 90
        2
176
     1
 40
0.6
176
     1
 40
30.0
176
     1
 62
     7
420
 16777215
176
     1
 90
        0
176
     1
 90
        4
176
     1
 62
     7
176
     1
 62
   257
176
     1
 90
        1
176
     1
 90
        1
176
     1
 40
1.0
176
     1
 90
        8
176
     1
 62
   257
176
     1
 40
1.0
176
     1
 90
        1
176
     1
 90
        6
176
     1
 90
        2
176
     1
 62
     8
420
  7895160
176
     1
 90
        3
176
     1
 90
        0
176
     1
 90
        0
176
     1
290
     0
176
     1
 90
        5
176
     1
 40
0.0
176
     1
 90
        0
176
     1
290
     0
176
     1
290
     1
176
     1
290
     1
176
     1
290
     0
176
     1
290
     0
176
     1
290
     0
176
     1
290
     0
176
     1
290
     0
176
     1
290
     0
176
     1
 90
       50
176
     1
 40
0.0
176
     1
 40
1.0
176
     1
 90
        0
176
     1
 62
    18
420
        0
176
     1
 90
       50
176
     1
 90
        3
176
     1
 62
     5
420
      255
176
     1
290
     0
176
     1
 90
       50
176
     1
 90
       50
176
     1
 90
       50
176
     1
290
     0
176
     1
 90
       50
176
     1
 62
   256
176
     0
 40
1.0
176
     0
 90
        2
176
     1
  1
strokes_ogs.tif
176
     1
290
     0
176
     1
 40
1.0
176
     1
 40
1.0
176
     1
  0
VISUALSTYLE
  5
398
102
{ACAD_REACTORS
330
2F
102
}
330
2F
100
AcDbVisualStyle
  2
Shaded with edges
 70
    26
177
     3
291
     0
 70
    58
 90
        2
176
     1
 90
        2
176
     1
 90
        1
176
     1
 90
        2
176
     1
 40
0.6
176
     1
 40
30.0
176
     1
 62
     7
420
 16777215
176
     1
 90
        1
176
     1
 90
       10
176
     1
 62
     7
176
     1
 62
   257
176
     1
 90
        2
176
     1
 90
        1
176
     1
 40
1.0
176
     1
 90
        8
176
     1
 62
   257
176
     1
 40
1.0
176
     1
 90
        1
176
     1
 90
        6
176
     1
 90
        2
176
     1
 62
     7
176
     1
 90
        3
176
     1
 90
        0
176
     1
 90
        0
176
     1
290
     0
176
     1
 90
        5
176
     1
 40
0.0
176
     1
 90
        0
176
     1
290
     0
176
     1
290
     1
176
     1
290
     1
176
     1
290
     0
176
     1
290
     0
176
     1
290
     0
176
     1
290
     0
176
     1
290
     0
176
     1
290
     0
176
     1
 90
       50
176
     1
 40
0.0
176
     1
 40
1.0
176
     1
 90
        0
176
     1
 62
    18
420
        0
176
     1
 90
       50
176
     1
 90
        3
176
     1
 62
     5
420
      255
176
     1
290
     0
176
     1
 90
       50
176
     1
 90
       50
176
     1
 90
       50
176
     1
290
     0
176
     1
 90
       50
176
     1
 62
   256
176
     0
 40
1.0
176
     0
 90
        2
176
     1
  1
strokes_ogs.tif
176
     1
290
     0
176
     1
 40
1.0
176
     1
 40
1.0
176
     1
  0
VISUALSTYLE
  5
395
102
{ACAD_REACTORS
330
2F
102
}
330
2F
100
AcDbVisualStyle
  2
Shades of Gray
 70
    23
177
     3
291
     0
 70
    58
 90
        2
176
     1
 90
        2
176
     1
 90
        3
176
     1
 90
        0
176
     1
 40
0.6
176
     1
 40
30.0
176
     1
 62
     7
420
 16777215
176
     1
 90
        2
176
     1
 90
        2
176
     1
 62
     7
176
     1
 62
     7
176
     1
 90
        1
176
     1
 90
        1
176
     1
 40
40.0
176
     1
 90
        8
176
     1
 62
     7
176
     1
 40
1.0
176
     1
 90
        1
176
     1
 90
        6
176
     1
 90
        2
176
     1
 62
     7
176
     1
 90
        3
176
     1
 90
        0
176
     1
 90
        0
176
     1
290
     0
176
     1
 90
        1
176
     1
 40
0.0
176
     1
 90
        0
176
     1
290
     0
176
     1
290
     1
176
     1
290
     1
176
     1
290
     0
176
     1
290
     0
176
     1
290
     0
176
     1
290
     0
176
     1
290
     0
176
     1
290
     0
176
     1
 90
       50
176
     1
 40
0.0
176
     1
 40
1.0
176
     1
 90
        0
176
     1
 62
    18
420
        0
176
     1
 90
       50
176
     1
 90
        3
176
     1
 62
     5
420
      255
176
     1
290
     0
176
     1
 90
       50
176
     1
 90
       50
176
     1
 90
       50
176
     1
290
     0
176
     1
 90
       50
176
     1
 62
   256
176
     0
 40
1.0
176
     0
 90
        2
176
     1
  1
strokes_ogs.tif
176
     1
290
     0
176
     1
 40
1.0
176
     1
 40
1.0
176
     1
  0
VISUALSTYLE
  5
396
102
{ACAD_REACTORS
330
2F
102
}
330
2F
100
AcDbVisualStyle
  2
Sketchy
 70
    24
177
     3
291
     0
 70
    58
 90
        1
176
     1
 90
        2
176
     1
 90
        2
176
     1
 90
        0
176
     1
 40
0.6
176
     1
 40
30.0
176
     1
 62
     7
420
 16777215
176
     1
 90
        2
176
     1
 90
        2
176
     1
 62
     7
176
     1
 62
     7
176
     1
 90
        1
176
     1
 90
        1
176
     1
 40
40.0
176
     1
 90
       11
176
     1
 62
     7
176
     1
 40
1.0
176
     1
 90
        1
176
     1
 90
        6
176
     1
 90
        2
176
     1
 62
     7
176
     1
 90
        6
176
     1
 90
        0
176
     1
 90
        0
176
     1
290
     0
176
     1
 90
        1
176
     1
 40
0.0
176
     1
 90
        0
176
     1
290
     0
176
     1
290
     1
176
     1
290
     1
176
     1
290
     0
176
     1
290
     0
176
     1
290
     0
176
     1
290
     0
176
     1
290
     0
176
     1
290
     0
176
     1
 90
       50
176
     1
 40
0.0
176
     1
 40
1.0
176
     1
 90
        0
176
     1
 62
    18
420
        0
176
     1
 90
       50
176
     1
 90
        3
176
     1
 62
     5
420
      255
176
     1
290
     0
176
     1
 90
       50
176
     1
 90
       50
176
     1
 90
       50
176
     1
290
     0
176
     1
 90
       50
176
     1
 62
   256
176
     0
 40
1.0
176
     0
 90
        2
176
     1
  1
strokes_ogs.tif
176
     1
290
     0
176
     1
 40
1.0
176
     1
 40
1.0
176
     1
  0
VISUALSTYLE
  5
391
102
{ACAD_REACTORS
330
2F
102
}
330
2F
100
AcDbVisualStyle
  2
Thicken
 70
    13
177
     3
291
     1
 70
    58
 90
        2
176
     1
 90
        2
176
     1
 90
        0
176
     1
 90
        0
176
     1
 40
0.6
176
     1
 40
30.0
176
     1
 62
     7
420
 16777215
176
     1
 90
        1
176
     1
 90
        4
176
     1
 62
     7
176
     1
 62
   257
176
     1
 90
        1
176
     1
 90
        1
176
     1
 40
1.0
176
     1
 90
       12
176
     1
 62
     7
176
     1
 40
1.0
176
     1
 90
        1
176
     1
 90
        6
176
     1
 90
        2
176
     1
 62
     7
176
     1
 90
        5
176
     1
 90
        0
176
     1
 90
        0
176
     1
290
     0
176
     1
 90
        1
176
     1
 40
0.0
176
     1
 90
        0
176
     1
290
     0
176
     1
290
     1
176
     1
290
     1
176
     1
290
     0
176
     1
290
     0
176
     1
290
     0
176
     1
290
     0
176
     1
290
     0
176
     1
290
     0
176
     1
 90
       50
176
     1
 40
0.0
176
     1
 40
1.0
176
     1
 90
        0
176
     1
 62
    18
420
        0
176
     1
 90
       50
176
     1
 90
        3
176
     1
 62
     5
420
      255
176
     1
290
     0
176
     1
 90
       50
176
     1
 90
       50
176
     1
 90
       50
176
     1
290
     0
176
     1
 90
       50
176
     1
 62
   256
176
     0
 40
1.0
176
     0
 90
        2
176
     1
  1
strokes_ogs.tif
176
     1
290
     0
176
     1
 40
1.0
176
     1
 40
1.0
176
     1
  0
VISUALSTYLE
  5
55
102
{ACAD_REACTORS
330
2F
102
}
330
2F
100
AcDbVisualStyle
  2

 70
     5
177
     3
291
     0
 70
    58
 90
        0
176
     1
 90
        2
176
     1
 90
        0
176
     1
 90
        0
176
     1
 40
0.6
176
     1
 40
30.0
176
     1
 62
     7
176
     1
 90
        1
176
     1
 90
        4
176
     1
 62
     7
176
     1
 62
   257
176
     1
 90
        1
176
     1
 90
        1
176
     1
 40
1.0
176
     1
 90
        0
176
     1
 62
   257
176
     1
 40
1.0
176
     1
 90
        1
176
     1
 90
        6
176
     1
 90
        2
176
     1
 62
     7
176
     1
 90
        3
176
     1
 90
        0
176
     1
 90
        0
176
     1
290
     0
176
     1
 90
        1
176
     1
 40
0.0
176
     1
 90
        0
176
     1
290
     0
176
     1
290
     1
176
     1
290
     1
176
     1
290
     0
176
     1
290
     0
176
     1
290
     0
176
     1
290
     0
176
     1
290
     0
176
     1
290
     0
176
     1
 90
       50
176
     1
 40
0.0
176
     1
 40
1.0
176
     1
 90
        0
176
     1
 62
    18
420
        0
176
     1
 90
       50
176
     1
 90
        3
176
     1
 62
     5
420
      255
176
     1
290
     0
176
     1
 90
       50
176
     1
 90
       50
176
     1
 90
       50
176
     1
290
     0
176
     1
 90
       50
176
     1
 62
   256
176
     0
 40
1.0
176
     0
 90
        2
176
     1
  1
strokes_ogs.tif
176
     1
290
     0
176
     1
 40
1.0
176
     1
 40
1.0
176
     1
1001
ACAD
1000
AcDbSavedByObjectVersion
1070
     0
  0
VISUALSTYLE
  5
397
102
{ACAD_REACTORS
330
2F
102
}
330
2F
100
AcDbVisualStyle
  2
X-Ray
 70
    25
177
     3
291
     0
 70
    58
 90
        2
176
     1
 90
        2
176
     1
 90
        1
176
     1
 90
        1
176
     1
 40
0.5
176
     1
 40
30.0
176
     1
 62
     7
420
 16777215
176
     1
 90
        1
176
     1
 90
        0
176
     1
 62
     7
176
     1
 62
   257
176
     1
 90
        1
176
     1
 90
        1
176
     1
 40
1.0
176
     1
 90
        8
176
     1
 62
     7
176
     1
 40
1.0
176
     1
 90
        1
176
     1
 90
        6
176
     1
 90
        2
176
     1
 62
     7
176
     1
 90
        3
176
     1
 90
        0
176
     1
 90
        0
176
     1
290
     0
176
     1
 90
       13
176
     1
 40
0.0
176
     1
 90
        0
176
     1
290
     0
176
     1
290
     1
176
     1
290
     1
176
     1
290
     0
176
     1
290
     0
176
     1
290
     0
176
     1
290
     0
176
     1
290
     0
176
     1
290
     0
176
     1
 90
       50
176
     1
 40
0.0
176
     1
 40
1.0
176
     1
 90
        0
176
     1
 62
    18
420
        0
176
     1
 90
       50
176
     1
 90
        3
176
     1
 62
     5
420
      255
176
     1
290
     0
176
     1
 90
       50
176
     1
 90
       50
176
     1
 90
       50
176
     1
290
     0
176
     1
 90
       50
176
     1
 62
   256
176
     0
 40
1.0
176
     0
 90
        2
176
     1
  1
strokes_ogs.tif
176
     1
290
     0
176
     1
 40
1.0
176
     1
 40
1.0
176
     1
  0
DICTIONARYVAR
  5
36E
102
{ACAD_REACTORS
330
36B
102
}
330
36B
100
DictionaryVariables
280
     0
  1
1:1
  0
DICTIONARYVAR
  5
36D
102
{ACAD_REACTORS
330
36B
102
}
330
36B
100
DictionaryVariables
280
     0
  1
STANDARD
  0
DICTIONARYVAR
  5
36C
102
{ACAD_REACTORS
330
36B
102
}
330
36B
100
DictionaryVariables
280
     0
  1
STANDARD
  0
DICTIONARYVAR
  5
453
102
{ACAD_REACTORS
330
36B
102
}
330
36B
100
DictionaryVariables
280
     0
  1
Metric50
  0
DICTIONARYVAR
  5
454
102
{ACAD_REACTORS
330
36B
102
}
330
36B
100
DictionaryVariables
280
     0
  1
Metric50
  0
DICTIONARYVAR
  5
373
102
{ACAD_REACTORS
330
36B
102
}
330
36B
100
DictionaryVariables
280
     0
  1
1
  0
DICTIONARYVAR
  5
371
102
{ACAD_REACTORS
330
36B
102
}
330
36B
100
DictionaryVariables
280
     0
  1
1
  0
DICTIONARYVAR
  5
370
102
{ACAD_REACTORS
330
36B
102
}
330
36B
100
DictionaryVariables
280
     0
  1
0
  0
DICTIONARYVAR
  5
457
102
{ACAD_REACTORS
330
36B
102
}
330
36B
100
DictionaryVariables
280
     0
  1
1
  0
DICTIONARYVAR
  5
458
102
{ACAD_REACTORS
330
36B
102
}
330
36B
100
DictionaryVariables
280
     0
  1
15
  0
DICTIONARYVAR
  5
456
102
{ACAD_REACTORS
330
36B
102
}
330
36B
100
DictionaryVariables
280
     0
  1
0
  0
DICTIONARYVAR
  5
455
102
{ACAD_REACTORS
330
36B
102
}
330
36B
100
DictionaryVariables
280
     0
  1
0
  0
DICTIONARYVAR
  5
36F
102
{ACAD_REACTORS
330
36B
102
}
330
36B
100
DictionaryVariables
280
     0
  1
127
  0
DICTIONARY
  5
324
102
{ACAD_REACTORS
330
323
102
}
330
323
100
AcDbDictionary
281
     1
  0
DICTIONARY
  5
45C
330
3A0
100
AcDbDictionary
280
     1
281
     1
  3
ACAD_XREC_ROUNDTRIP
360
45D
  0
DICTIONARY
  5
46
330
45
100
AcDbDictionary
280
     1
281
     1
  3
ACAD_XREC_ROUNDTRIP
360
37F
  3
BUMPTILE
360
47
  3
DIFFUSETILE
360
48
  3
OPACITYTILE
360
49
  3
REFLECTIONTILE
360
4A
  3
REFRACTIONTILE
360
4B
  3
SPECULARTILE
360
4C
  0
DICTIONARY
  5
3E
330
3D
100
AcDbDictionary
280
     1
281
     1
  3
ACAD_XREC_ROUNDTRIP
360
37E
  3
BUMPTILE
360
3F
  3
DIFFUSETILE
360
40
  3
OPACITYTILE
360
41
  3
REFLECTIONTILE
360
42
  3
REFRACTIONTILE
360
43
  3
SPECULARTILE
360
44
  0
DICTIONARY
  5
E
330
C
100
AcDbDictionary
280
     1
281
     1
  3
ACAD_XREC_ROUNDTRIP
360
377
  3
BUMPTILE
360
F
  3
DIFFUSETILE
360
10
  3
OPACITYTILE
360
11
  3
REFLECTIONTILE
360
12
  3
REFRACTIONTILE
360
13
  3
SPECULARTILE
360
14
  0
DICTIONARY
  5
45A
330
39E
100
AcDbDictionary
280
     1
281
     1
  3
ACAD_XREC_ROUNDTRIP
360
45B
  0
DICTIONARY
  5
53
330
52
100
AcDbDictionary
280
     1
281
     1
  3
ACAD_ROUNDTRIP_2008_TABLESTYLE_CELLSTYLEMAP
360
459
  0
XRECORD
  5
45D
102
{ACAD_REACTORS
330
45C
102
}
330
45C
100
AcDbXrecord
280
     1
102
DISPLAYNAME
  1
Metric50
102
FLAGS
 90
        0
  0
XRECORD
  5
37F
102
{ACAD_REACTORS
330
46
102
}
330
46
100
AcDbXrecord
280
     1
102
MATERIAL
148
0.0
149
0.0
149
0.0
 93
        0
 94
      127
282
     0
 72
     0
 77
     0
171
     0
175
     0
179
     0
273
     0
  0
XRECORD
  5
47
102
{ACAD_REACTORS
330
46
102
}
330
46
100
AcDbXrecord
280
     1
270
     1
271
     1
  0
XRECORD
  5
48
102
{ACAD_REACTORS
330
46
102
}
330
46
100
AcDbXrecord
280
     1
270
     1
271
     1
  0
XRECORD
  5
49
102
{ACAD_REACTORS
330
46
102
}
330
46
100
AcDbXrecord
280
     1
270
     1
271
     1
  0
XRECORD
  5
4A
102
{ACAD_REACTORS
330
46
102
}
330
46
100
AcDbXrecord
280
     1
270
     1
271
     1
  0
XRECORD
  5
4B
102
{ACAD_REACTORS
330
46
102
}
330
46
100
AcDbXrecord
280
     1
270
     1
271
     1
  0
XRECORD
  5
4C
102
{ACAD_REACTORS
330
46
102
}
330
46
100
AcDbXrecord
280
     1
270
     1
271
     1
  0
XRECORD
  5
37E
102
{ACAD_REACTORS
330
3E
102
}
330
3E
100
AcDbXrecord
280
     1
102
MATERIAL
148
0.0
149
0.0
149
0.0
 93
        0
 94
      127
282
     0
 72
     0
 77
     0
171
     0
175
     0
179
     0
273
     0
  0
XRECORD
  5
3F
102
{ACAD_REACTORS
330
3E
102
}
330
3E
100
AcDbXrecord
280
     1
270
     1
271
     1
  0
XRECORD
  5
40
102
{ACAD_REACTORS
330
3E
102
}
330
3E
100
AcDbXrecord
280
     1
270
     1
271
     1
  0
XRECORD
  5
41
102
{ACAD_REACTORS
330
3E
102
}
330
3E
100
AcDbXrecord
280
     1
270
     1
271
     1
  0
XRECORD
  5
42
102
{ACAD_REACTORS
330
3E
102
}
330
3E
100
AcDbXrecord
280
     1
270
     1
271
     1
  0
XRECORD
  5
43
102
{ACAD_REACTORS
330
3E
102
}
330
3E
100
AcDbXrecord
280
     1
270
     1
271
     1
  0
XRECORD
  5
44
102
{ACAD_REACTORS
330
3E
102
}
330
3E
100
AcDbXrecord
280
     1
270
     1
271
     1
  0
XRECORD
  5
377
102
{ACAD_REACTORS
330
E
102
}
330
E
100
AcDbXrecord
280
     1
102
MATERIAL
148
0.0
149
0.0
149
0.0
 93
        0
 94
      127
282
     0
 72
     0
 77
     0
171
     0
175
     0
179
     0
273
     0
  0
XRECORD
  5
F
102
{ACAD_REACTORS
330
E
102
}
330
E
100
AcDbXrecord
280
     1
270
     1
271
     1
  0
XRECORD
  5
10
102
{ACAD_REACTORS
330
E
102
}
330
E
100
AcDbXrecord
280
     1
270
     1
271
     1
  0
XRECORD
  5
11
102
{ACAD_REACTORS
330
E
102
}
330
E
100
AcDbXrecord
280
     1
270
     1
271
     1
  0
XRECORD
  5
12
102
{ACAD_REACTORS
330
E
102
}
330
E
100
AcDbXrecord
280
     1
270
     1
271
     1
  0
XRECORD
  5
13
102
{ACAD_REACTORS
330
E
102
}
330
E
100
AcDbXrecord
280
     1
270
     1
271
     1
  0
XRECORD
  5
14
102
{ACAD_REACTORS
330
E
102
}
330
E
100
AcDbXrecord
280
     1
270
     1
271
     1
  0
XRECORD
  5
45B
102
{ACAD_REACTORS
330
45A
102
}
330
45A
100
AcDbXrecord
280
     1
102
DISPLAYNAME
  1
Metric50
102
FLAGS
 90
        0
  0
CELLSTYLEMAP
  5
459
102
{ACAD_REACTORS
330
53
102
}
330
53
100
AcDbCellStyleMap
 90
        3
300
CELLSTYLE
  1
TABLEFORMAT_BEGIN
 90
        5
170
     1
 91
        0
 92
    32768
 62
   257
 93
        1
300
CONTENTFORMAT
  1
CONTENTFORMAT_BEGIN
 90
        0
 91
        0
 92
        4
 93
        0
300

 40
0.0
140
1.0
 94
        5
 62
     0
340
25
144
6.0
309
CONTENTFORMAT_END
171
     1
301
MARGIN
  1
CELLMARGIN_BEGIN
 40
1.5
 40
1.5
 40
1.5
 40
1.5
 40
0.18
 40
0.18
309
CELLMARGIN_END
 94
        6
 95
        1
302
GRIDFORMAT
  1
GRIDFORMAT_BEGIN
 90
        0
 91
        1
 62
     0
 92
       -2
340
0
 93
        0
 40
0.045
309
GRIDFORMAT_END
 95
        2
302
GRIDFORMAT
  1
GRIDFORMAT_BEGIN
 90
        0
 91
        1
 62
     0
 92
       -2
340
0
 93
        0
 40
0.045
309
GRIDFORMAT_END
 95
        4
302
GRIDFORMAT
  1
GRIDFORMAT_BEGIN
 90
        0
 91
        1
 62
     0
 92
       -2
340
0
 93
        0
 40
0.045
309
GRIDFORMAT_END
 95
        8
302
GRIDFORMAT
  1
GRIDFORMAT_BEGIN
 90
        0
 91
        1
 62
     0
 92
       -2
340
0
 93
        0
 40
0.045
309
GRIDFORMAT_END
 95
       16
302
GRIDFORMAT
  1
GRIDFORMAT_BEGIN
 90
        0
 91
        1
 62
     0
 92
       -2
340
0
 93
        0
 40
0.045
309
GRIDFORMAT_END
 95
       32
302
GRIDFORMAT
  1
GRIDFORMAT_BEGIN
 90
        0
 91
        1
 62
     0
 92
       -2
340
0
 93
        0
 40
0.045
309
GRIDFORMAT_END
309
TABLEFORMAT_END
  1
CELLSTYLE_BEGIN
 90
        1
 91
        1
300
_TITLE
309
CELLSTYLE_END
300
CELLSTYLE
  1
TABLEFORMAT_BEGIN
 90
        5
170
     1
 91
        0
 92
        0
 62
   257
 93
        1
300
CONTENTFORMAT
  1
CONTENTFORMAT_BEGIN
 90
        0
 91
        0
 92
        4
 93
        0
300

 40
0.0
140
1.0
 94
        5
 62
     0
340
25
144
4.5
309
CONTENTFORMAT_END
171
     1
301
MARGIN
  1
CELLMARGIN_BEGIN
 40
1.5
 40
1.5
 40
1.5
 40
1.5
 40
0.18
 40
0.18
309
CELLMARGIN_END
 94
        6
 95
        1
302
GRIDFORMAT
  1
GRIDFORMAT_BEGIN
 90
        0
 91
        1
 62
     0
 92
       -2
340
0
 93
        0
 40
0.045
309
GRIDFORMAT_END
 95
        2
302
GRIDFORMAT
  1
GRIDFORMAT_BEGIN
 90
        0
 91
        1
 62
     0
 92
       -2
340
0
 93
        0
 40
0.045
309
GRIDFORMAT_END
 95
        4
302
GRIDFORMAT
  1
GRIDFORMAT_BEGIN
 90
        0
 91
        1
 62
     0
 92
       -2
340
0
 93
        0
 40
0.045
309
GRIDFORMAT_END
 95
        8
302
GRIDFORMAT
  1
GRIDFORMAT_BEGIN
 90
        0
 91
        1
 62
     0
 92
       -2
340
0
 93
        0
 40
0.045
309
GRIDFORMAT_END
 95
       16
302
GRIDFORMAT
  1
GRIDFORMAT_BEGIN
 90
        0
 91
        1
 62
     0
 92
       -2
340
0
 93
        0
 40
0.045
309
GRIDFORMAT_END
 95
       32
302
GRIDFORMAT
  1
GRIDFORMAT_BEGIN
 90
        0
 91
        1
 62
     0
 92
       -2
340
0
 93
        0
 40
0.045
309
GRIDFORMAT_END
309
TABLEFORMAT_END
  1
CELLSTYLE_BEGIN
 90
        2
 91
        1
300
_HEADER
309
CELLSTYLE_END
300
CELLSTYLE
  1
TABLEFORMAT_BEGIN
 90
        5
170
     1
 91
        0
 92
        0
 62
   257
 93
        1
300
CONTENTFORMAT
  1
CONTENTFORMAT_BEGIN
 90
        0
 91
        0
 92
        4
 93
        0
300

 40
0.0
140
1.0
 94
        2
 62
     0
340
25
144
4.5
309
CONTENTFORMAT_END
171
     1
301
MARGIN
  1
CELLMARGIN_BEGIN
 40
1.5
 40
1.5
 40
1.5
 40
1.5
 40
0.18
 40
0.18
309
CELLMARGIN_END
 94
        6
 95
        1
302
GRIDFORMAT
  1
GRIDFORMAT_BEGIN
 90
        0
 91
        1
 62
     0
 92
       -2
340
0
 93
        0
 40
0.045
309
GRIDFORMAT_END
 95
        2
302
GRIDFORMAT
  1
GRIDFORMAT_BEGIN
 90
        0
 91
        1
 62
     0
 92
       -2
340
0
 93
        0
 40
0.045
309
GRIDFORMAT_END
 95
        4
302
GRIDFORMAT
  1
GRIDFORMAT_BEGIN
 90
        0
 91
        1
 62
     0
 92
       -2
340
0
 93
        0
 40
0.045
309
GRIDFORMAT_END
 95
        8
302
GRIDFORMAT
  1
GRIDFORMAT_BEGIN
 90
        0
 91
        1
 62
     0
 92
       -2
340
0
 93
        0
 40
0.045
309
GRIDFORMAT_END
 95
       16
302
GRIDFORMAT
  1
GRIDFORMAT_BEGIN
 90
        0
 91
        1
 62
     0
 92
       -2
340
0
 93
        0
 40
0.045
309
GRIDFORMAT_END
 95
       32
302
GRIDFORMAT
  1
GRIDFORMAT_BEGIN
 90
        0
 91
        1
 62
     0
 92
       -2
340
0
 93
        0
 40
0.045
309
GRIDFORMAT_END
309
TABLEFORMAT_END
  1
CELLSTYLE_BEGIN
 90
        3
 91
        2
300
_DATA
309
CELLSTYLE_END
  0
ENDSEC
  0
EOF
