  0
SECTION
  2
HEADER
  9
$ACADVER
  1
AC1027
  9
$ACADMAINTVER
 70
    57
  9
$DWGCODEPAGE
  3
ANSI_1252
  9
$LASTSAVEDBY
  1
davsta
  9
$REQUIREDVERSIONS
160
                 0
  9
$INSBASE
 10
0.0
 20
0.0
 30
0.0
  9
$EXTMIN
 10
266.4717857400581
 20
245.9806838862109
 30
0.0
  9
$EXTMAX
 10
316.4423385781524
 20
431.1298821455818
 30
0.0
  9
$LIMMIN
 10
0.0
 20
0.0
  9
$LIMMAX
 10
500.0
 20
600.0
  9
$ORTHOMODE
 70
     0
  9
$REGENMODE
 70
     1
  9
$FILLMODE
 70
     1
  9
$QTEXTMODE
 70
     0
  9
$MIRRTEXT
 70
     1
  9
$LTSCALE
 40
1.0
  9
$ATTMODE
 70
     1
  9
$TEXTSIZE
 40
10.0
  9
$TRACEWID
 40
0.05
  9
$TEXTSTYLE
  7
ARIAL-STANDARD
  9
$CLAYER
  8
BEMASSUNG
  9
$CELTYPE
  6
BYLAYER
  9
$CECOLOR
 62
   256
  9
$CELTSCALE
 40
1.0
  9
$DISPSILH
 70
     0
  9
$DIMSCALE
 40
1.0
  9
$DIMASZ
 40
3.5
  9
$DIMEXO
 40
1.0
  9
$DIMDLI
 40
10.0
  9
$DIMRND
 40
0.0
  9
$DIMDLE
 40
0.0
  9
$DIMEXE
 40
1.0
  9
$DIMTP
 40
0.1
  9
$DIMTM
 40
0.1
  9
$DIMTXT
 40
3.5
  9
$DIMCEN
 40
0.0
  9
$DIMTSZ
 40
0.0
  9
$DIMTOL
 70
     0
  9
$DIMLIM
 70
     0
  9
$DIMTIH
 70
     0
  9
$DIMTOH
 70
     0
  9
$DIMSE1
 70
     0
  9
$DIMSE2
 70
     0
  9
$DIMTAD
 70
     1
  9
$DIMZIN
 70
     8
  9
$DIMBLK
  1

  9
$DIMASO
 70
     1
  9
$DIMSHO
 70
     1
  9
$DIMPOST
  1

  9
$DIMAPOST
  1
"
  9
$DIMALT
 70
     0
  9
$DIMALTD
 70
     2
  9
$DIMALTF
 40
0.0393701
  9
$DIMLFAC
 40
1.0
  9
$DIMTOFL
 70
     1
  9
$DIMTVP
 40
0.0
  9
$DIMTIX
 70
     0
  9
$DIMSOXD
 70
     0
  9
$DIMSAH
 70
     0
  9
$DIMBLK1
  1

  9
$DIMBLK2
  1

  9
$DIMSTYLE
  2
AM_DIN
  9
$DIMCLRD
 70
   256
  9
$DIMCLRE
 70
   256
  9
$DIMCLRT
 70
     2
  9
$DIMTFAC
 40
0.71
  9
$DIMGAP
 40
1.5
  9
$DIMJUST
 70
     0
  9
$DIMSD1
 70
     0
  9
$DIMSD2
 70
     0
  9
$DIMTOLJ
 70
     0
  9
$DIMTZIN
 70
     8
  9
$DIMALTZ
 70
     0
  9
$DIMALTTZ
 70
     0
  9
$DIMUPT
 70
     0
  9
$DIMDEC
 70
     2
  9
$DIMTDEC
 70
     3
  9
$DIMALTU
 70
     2
  9
$DIMALTTD
 70
     4
  9
$DIMTXSTY
  7
STANDARD
  9
$DIMAUNIT
 70
     0
  9
$DIMADEC
 70
     0
  9
$DIMALTRND
 40
0.0
  9
$DIMAZIN
 70
     2
  9
$DIMDSEP
 70
    46
  9
$DIMATFIT
 70
     3
  9
$DIMFRAC
 70
     0
  9
$DIMLDRBLK
  1

  9
$DIMLUNIT
 70
     2
  9
$DIMLWD
 70
    -1
  9
$DIMLWE
 70
    -1
  9
$DIMTMOVE
 70
     0
  9
$DIMFXL
 40
1.0
  9
$DIMFXLON
 70
     0
  9
$DIMJOGANG
 40
1.570796326794896
  9
$DIMTFILL
 70
     0
  9
$DIMTFILLCLR
 70
     0
  9
$DIMARCSYM
 70
     0
  9
$DIMLTYPE
  6
BYBLOCK
  9
$DIMLTEX1
  6
BYBLOCK
  9
$DIMLTEX2
  6
BYBLOCK
  9
$DIMTXTDIRECTION
 70
     0
  9
$LUNITS
 70
     2
  9
$LUPREC
 70
     2
  9
$SKETCHINC
 40
0.1
  9
$FILLETRAD
 40
0.0
  9
$AUNITS
 70
     0
  9
$AUPREC
 70
     0
  9
$MENU
  1
.
  9
$ELEVATION
 40
0.0
  9
$PELEVATION
 40
0.0
  9
$THICKNESS
 40
0.0
  9
$LIMCHECK
 70
     0
  9
$CHAMFERA
 40
0.5
  9
$CHAMFERB
 40
0.5
  9
$CHAMFERC
 40
1.0
  9
$CHAMFERD
 40
0.0
  9
$SKPOLY
 70
     0
  9
$TDCREATE
 40
2451298.667856435
  9
$TDUCREATE
 40
2451298.584523102
  9
$TDUPDATE
 40
2458348.394470359
  9
$TDUUPDATE
 40
2458348.311137025
  9
$TDINDWG
 40
0.0741371528
  9
$TDUSRTIMER
 40
0.0741368519
  9
$USRTIMER
 70
     1
  9
$ANGBASE
 50
0.0
  9
$ANGDIR
 70
     0
  9
$PDMODE
 70
     0
  9
$PDSIZE
 40
0.0
  9
$PLINEWID
 40
0.0
  9
$SPLFRAME
 70
     0
  9
$SPLINETYPE
 70
     6
  9
$SPLINESEGS
 70
     8
  9
$HANDSEED
  5
2DE
  9
$SURFTAB1
 70
     6
  9
$SURFTAB2
 70
     6
  9
$SURFTYPE
 70
     6
  9
$SURFU
 70
     6
  9
$SURFV
 70
     6
  9
$UCSBASE
  2

  9
$UCSNAME
  2

  9
$UCSORG
 10
0.0
 20
0.0
 30
0.0
  9
$UCSXDIR
 10
1.0
 20
0.0
 30
0.0
  9
$UCSYDIR
 10
0.0
 20
1.0
 30
0.0
  9
$UCSORTHOREF
  2

  9
$UCSORTHOVIEW
 70
     0
  9
$UCSORGTOP
 10
0.0
 20
0.0
 30
0.0
  9
$UCSORGBOTTOM
 10
0.0
 20
0.0
 30
0.0
  9
$UCSORGLEFT
 10
0.0
 20
0.0
 30
0.0
  9
$UCSORGRIGHT
 10
0.0
 20
0.0
 30
0.0
  9
$UCSORGFRONT
 10
0.0
 20
0.0
 30
0.0
  9
$UCSORGBACK
 10
0.0
 20
0.0
 30
0.0
  9
$PUCSBASE
  2

  9
$PUCSNAME
  2

  9
$PUCSORG
 10
0.0
 20
0.0
 30
0.0
  9
$PUCSXDIR
 10
1.0
 20
0.0
 30
0.0
  9
$PUCSYDIR
 10
0.0
 20
1.0
 30
0.0
  9
$PUCSORTHOREF
  2

  9
$PUCSORTHOVIEW
 70
     0
  9
$PUCSORGTOP
 10
0.0
 20
0.0
 30
0.0
  9
$PUCSORGBOTTOM
 10
0.0
 20
0.0
 30
0.0
  9
$PUCSORGLEFT
 10
0.0
 20
0.0
 30
0.0
  9
$PUCSORGRIGHT
 10
0.0
 20
0.0
 30
0.0
  9
$PUCSORGFRONT
 10
0.0
 20
0.0
 30
0.0
  9
$PUCSORGBACK
 10
0.0
 20
0.0
 30
0.0
  9
$USERI1
 70
     0
  9
$USERI2
 70
     0
  9
$USERI3
 70
     0
  9
$USERI4
 70
     0
  9
$USERI5
 70
     0
  9
$USERR1
 40
0.0
  9
$USERR2
 40
0.0
  9
$USERR3
 40
0.0
  9
$USERR4
 40
0.0
  9
$USERR5
 40
0.0
  9
$WORLDVIEW
 70
     1
  9
$SHADEDGE
 70
     3
  9
$SHADEDIF
 70
    70
  9
$TILEMODE
 70
     1
  9
$MAXACTVP
 70
    48
  9
$PINSBASE
 10
0.0
 20
0.0
 30
0.0
  9
$PLIMCHECK
 70
     0
  9
$PEXTMIN
 10
1.000000000000000E+20
 20
1.000000000000000E+20
 30
1.000000000000000E+20
  9
$PEXTMAX
 10
-1.000000000000000E+20
 20
-1.000000000000000E+20
 30
-1.000000000000000E+20
  9
$PLIMMIN
 10
0.0
 20
0.0
  9
$PLIMMAX
 10
12.0
 20
9.0
  9
$UNITMODE
 70
     0
  9
$VISRETAIN
 70
     1
  9
$PLINEGEN
 70
     0
  9
$PSLTSCALE
 70
     1
  9
$TREEDEPTH
 70
  3020
  9
$CMLSTYLE
  2
STANDARD
  9
$CMLJUST
 70
     0
  9
$CMLSCALE
 40
1.0
  9
$PROXYGRAPHICS
 70
     1
  9
$MEASUREMENT
 70
     1
  9
$CELWEIGHT
370
    -1
  9
$ENDCAPS
280
     0
  9
$JOINSTYLE
280
     0
  9
$LWDISPLAY
290
     0
  9
$INSUNITS
 70
     0
  9
$HYPERLINKBASE
  1

  9
$STYLESHEET
  1

  9
$XEDIT
290
     1
  9
$CEPSNTYPE
380
     0
  9
$PSTYLEMODE
290
     1
  9
$FINGERPRINTGUID
  2
{F9428483-9EEB-4670-A3BB-A7DD45955965}
  9
$VERSIONGUID
  2
{6E30AD87-3F13-44FD-96A7-9903E9904F87}
  9
$EXTNAMES
290
     1
  9
$PSVPSCALE
 40
0.0
  9
$OLESTARTUP
290
     0
  9
$SORTENTS
280
   127
  9
$INDEXCTL
280
     0
  9
$HIDETEXT
280
     1
  9
$XCLIPFRAME
280
     0
  9
$HALOGAP
280
     0
  9
$OBSCOLOR
 70
   257
  9
$OBSLTYPE
280
     0
  9
$INTERSECTIONDISPLAY
280
     0
  9
$INTERSECTIONCOLOR
 70
   257
  9
$DIMASSOC
280
     1
  9
$PROJECTNAME
  1

  9
$CAMERADISPLAY
290
     0
  9
$LENSLENGTH
 40
50.0
  9
$CAMERAHEIGHT
 40
0.0
  9
$STEPSPERSEC
 40
2.0
  9
$STEPSIZE
 40
6.0
  9
$3DDWFPREC
 40
2.0
  9
$PSOLWIDTH
 40
0.25
  9
$PSOLHEIGHT
 40
4.0
  9
$LOFTANG1
 40
1.570796326794896
  9
$LOFTANG2
 40
1.570796326794896
  9
$LOFTMAG1
 40
0.0
  9
$LOFTMAG2
 40
0.0
  9
$LOFTPARAM
 70
     7
  9
$LOFTNORMALS
280
     1
  9
$LATITUDE
 40
37.795
  9
$LONGITUDE
 40
-122.394
  9
$NORTHDIRECTION
 40
0.0
  9
$TIMEZONE
 70
 -8000
  9
$LIGHTGLYPHDISPLAY
280
     1
  9
$TILEMODELIGHTSYNCH
280
     1
  9
$CMATERIAL
347
1A9
  9
$SOLIDHIST
280
     0
  9
$SHOWHIST
280
     1
  9
$DWFFRAME
280
     2
  9
$DGNFRAME
280
     0
  9
$REALWORLDSCALE
290
     1
  9
$INTERFERECOLOR
 62
     1
  9
$INTERFEREOBJVS
345
1CB
  9
$INTERFEREVPVS
346
1C8
  9
$CSHADOW
280
     0
  9
$SHADOWPLANELOCATION
 40
0.0
  0
ENDSEC
  0
SECTION
  2
CLASSES
  0
CLASS
  1
ACDBDICTIONARYWDFLT
  2
AcDbDictionaryWithDefault
  3
ObjectDBX Classes
 90
        0
 91
        1
280
     0
281
     0
  0
CLASS
  1
TABLESTYLE
  2
AcDbTableStyle
  3
ObjectDBX Classes
 90
     4095
 91
        1
280
     0
281
     0
  0
CLASS
  1
ACME_DOCUMENT
  2
AcMeDbDoc
  3
AcMeServices
 90
     1024
 91
        1
280
     0
281
     0
  0
CLASS
  1
AMGSETTINGSOBJ
  2
AmgSettingsObj
  3
"AcadM|Product Description: AutoCAD Mechanical|Company: Autodesk, Inc."
 90
     1024
 91
        2
280
     0
281
     0
  0
CLASS
  1
ACMESCOPE
  2
AcMeScope
  3
AcMeServices
 90
     1024
 91
        1
280
     0
281
     0
  0
CLASS
  1
ACMECOMMANDHISTORY
  2
AcMeCommandHistory
  3
AcMeServices
 90
     1024
 91
        1
280
     0
281
     0
  0
CLASS
  1
ACIMSYSVARMAN
  2
AcImSysVarManager
  3
AcMeServices
 90
     1024
 91
        3
280
     0
281
     0
  0
CLASS
  1
ACIMINTSYSVAR
  2
AcImIntSysVar
  3
AcMeServices
 90
     1024
 91
        2
280
     0
281
     0
  0
CLASS
  1
ACMEDRAWINGMAN
  2
AcMeDrawingMan
  3
AcMeServices
 90
     1024
 91
        0
280
     0
281
     0
  0
CLASS
  1
ACMEVIEW
  2
AcMeView
  3
AcMeServices
 90
     1024
 91
        0
280
     0
281
     0
  0
CLASS
  1
ACDBENTITYCACHE
  2
AcMeEntityCache
  3
AcMeServices
 90
     1024
 91
        1
280
     0
281
     0
  0
CLASS
  1
GSMANAGER
  2
AcMeGSManager
  3
AcMeServices
 90
        0
 91
        0
280
     0
281
     0
  0
CLASS
  1
AMDTINTERNALREACTOR
  2
AmdtInternalReactor
  3
AcMeServices
 90
     1024
 91
        0
280
     0
281
     0
  0
CLASS
  1
ACMESTATEMGR
  2
AcMeStateMgr
  3
AcMeServices
 90
     1024
 91
        1
280
     0
281
     0
  0
CLASS
  1
ACGREFMASTER
  2
AcGrefMaster
  3
AcAttribServices
 90
     1024
 91
        1
280
     0
281
     0
  0
CLASS
  1
AM_DRAWING_MGR
  2
AcDmDwgMgr
  3
AcMechDwgViewMgmt
 90
     1024
 91
        0
280
     0
281
     0
  0
CLASS
  1
AM_DWG_DOCUMENT
  2
AcDmDwgDocument
  3
AcMechDwgViewMgmt
 90
     1024
 91
        0
280
     0
281
     0
  0
CLASS
  1
AM_DWG_SHEET
  2
AcDmSheet
  3
AcMechDwgViewMgmt
 90
     1024
 91
        0
280
     0
281
     0
  0
CLASS
  1
AM_VIEWDIMPARMAP
  2
AcDmViewDimParMap
  3
AcMechDwgViewMgmt
 90
     1024
 91
        0
280
     0
281
     0
  0
CLASS
  1
ACIMREALSYSVAR
  2
AcImRealSysVar
  3
AcMeServices
 90
     1024
 91
        0
280
     0
281
     0
  0
CLASS
  1
AM_DWGMGR_NAME
  2
AcDmDwgMgrName
  3
AcMechDwgViewMgmt
 90
     1024
 91
        0
280
     0
281
     0
  0
CLASS
  1
ACME_DATABASE
  2
AcMeDbDatabase
  3
AcMeServices
 90
     1024
 91
        1
280
     0
281
     0
  0
CLASS
  1
ACRFINSADJUSTERMGR
  2
AcRfInsAdjusterMgr
  3
AcMeServices
 90
     1024
 91
        1
280
     0
281
     0
  0
CLASS
  1
ACGREFACADMASTER
  2
AcGrefacadMaster
  3
AcGrefServices
 90
     1024
 91
        1
280
     0
281
     0
  0
CLASS
  1
AMDTMENUSTATEMGR
  2
AmdtMenuStateMgr
  3
McadcomServices
 90
     1024
 91
        1
280
     0
281
     0
  0
CLASS
  1
AMDTMCOMMENUSTATE
  2
AmdtMcomMenuState
  3
McadcomServices
 90
     1024
 91
        1
280
     0
281
     0
  0
CLASS
  1
AMIMASTER
  2
AmiMaster
  3
AmiServices
 90
     1024
 91
        1
280
     0
281
     0
  0
CLASS
  1
MAPIAMMOUDLE
  2
MApiAmModule
  3
MApiAmServices
 90
     1024
 91
        1
280
     0
281
     0
  0
CLASS
  1
ACIMSTRSYSVAR
  2
AcImStrSysVar
  3
AcMeServices
 90
     1024
 91
        5
280
     0
281
     0
  0
CLASS
  1
AMDTADMENUSTATE
  2
AmdtAdMenuState
  3
DesignerServices
 90
        0
 91
        0
280
     0
281
     0
  0
CLASS
  1
ADAPPL
  2
AcAdAppl
  3
DesignerAssemblies
 90
     1024
 91
        0
280
     0
281
     0
  0
CLASS
  1
DEPMGR
  2
AcAdDepMgr
  3
DesignerAssemblies
 90
     1024
 91
        0
280
     0
281
     0
  0
CLASS
  1
PARAMMGR
  2
AcAdParamMgr
  3
DesignerAssemblies
 90
     1024
 91
        0
280
     0
281
     0
  0
CLASS
  1
PARAMSCOPE
  2
AcAdParamScope
  3
DesignerAssemblies
 90
     1024
 91
        0
280
     0
281
     0
  0
CLASS
  1
NAMEDAPPL
  2
AcAdNamedAppl
  3
DesignerAssemblies
 90
     1024
 91
        0
280
     0
281
     0
  0
CLASS
  1
AMDTDMMENUSTATE
  2
AmdtDmMenuState
  3
AcMechDwgViewMgmt
 90
        0
 91
        0
280
     0
281
     0
  0
CLASS
  1
AMDTAMMENUSTATE
  2
AmdtAmMenuState
  3
DesignerAssemblies
 90
     1024
 91
        1
280
     0
281
     0
  0
CLASS
  1
ACAMPROJECT
  2
AcAmProject
  3
DesignerAssemblies
 90
     1024
 91
        1
280
     0
281
     0
  0
CLASS
  1
ACAMGRCOMPDEF
  2
AcAmGrCompDef
  3
DesignerAssemblies
 90
     1024
 91
        1
280
     0
281
     0
  0
CLASS
  1
ACCMCONTEXT
  2
AcCmContext
  3
DesignerAssemblies
 90
     1024
 91
        0
280
     0
281
     0
  0
CLASS
  1
ACAMCOMPDEF
  2
AcAmCompDef
  3
DesignerAssemblies
 90
     1024
 91
        1
280
     0
281
     0
  0
CLASS
  1
ACAMCOMPDEFMGR
  2
AcAmCompDefMgr
  3
DesignerAssemblies
 90
     1024
 91
        1
280
     0
281
     0
  0
CLASS
  1
AMCONTEXTMGR
  2
AcAmContextMgr
  3
DesignerAssemblies
 90
     1024
 91
        1
280
     0
281
     0
  0
CLASS
  1
ACAMCONTEXTMODELER
  2
AcAmContextModeler
  3
DesignerAssemblies
 90
     1024
 91
        1
280
     0
281
     0
  0
CLASS
  1
ACMDATADICTIONARY
  2
AcmDataDictionary
  3
"AcmSymBB|Product Description: AutoCAD Mechanical|Company: Autodesk, Inc."
 90
     1024
 91
        1
280
     0
281
     0
  0
CLASS
  1
CATALOGSTATE
  2
AcAmCatalogState
  3
DesignerAssemblies
 90
     1024
 91
        0
280
     0
281
     0
  0
CLASS
  1
ACAMGRCOMPDEFSET
  2
AcAmGrCompDefSet
  3
DesignerAssemblies
 90
     1024
 91
        1
280
     0
281
     0
  0
CLASS
  1
AMDTBROWSERDBTAB
  2
AmdtBrowserDbTab
  3
McadcomServices
 90
     1024
 91
        1
280
     0
281
     0
  0
CLASS
  1
CBROWSERAPPOBJECT
  2
CBrowserAppObject
  3
McadcomServices
 90
     1024
 91
        2
280
     0
281
     0
  0
CLASS
  1
DM_PLACEHOLDER
  2
AcDmSelsetPlaceholder
  3
McadcomServices
 90
     1024
 91
        1
280
     0
281
     0
  0
CLASS
  1
ACMSTANDARDDIN
  2
AcmStandardDIN
  3
"Amdt_StdImp|Product Description: AutoCAD Mechanical|Company: Autodesk, Inc."
 90
     1024
 91
        1
280
     0
281
     0
  0
CLASS
  1
AMGOBJPROPCFG
  2
AmgObjPropCfg
  3
"AmgLay|Product Description: AutoCAD Mechanical|Company: Autodesk, Inc."
 90
     1024
 91
        1
280
     0
281
     0
  0
CLASS
  1
AMDTEDGESTANDARDDIN13715
  2
AmdtEdgeStdDIN13715
  3
"Amdt_StdImp|Product Description: AutoCAD Mechanical|Company: Autodesk, Inc."
 90
     1024
 91
        1
280
     0
281
     0
  0
CLASS
  1
ACMSURFSTANDARDDIN
  2
AcmSurfTextStdDIN
  3
"Amdt_StdImp|Product Description: AutoCAD Mechanical|Company: Autodesk, Inc."
 90
     1024
 91
        0
280
     0
281
     0
  0
CLASS
  1
ACMFCFSTANDARDDIN
  2
AcmFCFStdDIN
  3
"Amdt_StdImp|Product Description: AutoCAD Mechanical|Company: Autodesk, Inc."
 90
     1024
 91
        0
280
     0
281
     0
  0
CLASS
  1
ACMWELDSTANDARDDIN
  2
AcmWeldingStdDIN
  3
"Amdt_StdImp|Product Description: AutoCAD Mechanical|Company: Autodesk, Inc."
 90
     1024
 91
        1
280
     0
281
     0
  0
CLASS
  1
ACMIDSTANDARDDIN
  2
AcmIdStdDIN
  3
"Amdt_StdImp|Product Description: AutoCAD Mechanical|Company: Autodesk, Inc."
 90
     1024
 91
        0
280
     0
281
     0
  0
CLASS
  1
ACMDATUMSTANDARDDIN
  2
AcmDatumStdDIN
  3
"Amdt_StdImp|Product Description: AutoCAD Mechanical|Company: Autodesk, Inc."
 90
     1024
 91
        1
280
     0
281
     0
  0
CLASS
  1
ACMBOMSTANDARDDIN
  2
AcmBOMStdDIN
  3
"Amdt_StdImp|Product Description: AutoCAD Mechanical|Company: Autodesk, Inc."
 90
     1024
 91
        1
280
     0
281
     0
  0
CLASS
  1
ACMDETAILSTANDARDDIN
  2
AmdtDetailSymStdDIN
  3
"Amdt_StdImp|Product Description: AutoCAD Mechanical|Company: Autodesk, Inc."
 90
     1024
 91
        1
280
     0
281
     0
  0
CLASS
  1
ACMSECTIONSTANDARDDIN
  2
AmdtSectionSymStdDIN
  3
"Amdt_StdImp|Product Description: AutoCAD Mechanical|Company: Autodesk, Inc."
 90
     1024
 91
        1
280
     0
281
     0
  0
CLASS
  1
ACMCENTERLINESTANDARDDIN
  2
AmdtCenterLineStdDIN
  3
"Amdt_StdImp|Product Description: AutoCAD Mechanical|Company: Autodesk, Inc."
 90
     1024
 91
        1
280
     0
281
     0
  0
CLASS
  1
ACMTHREADLINESTANDARDDIN
  2
AmdtThreadLineStdDIN
  3
"Amdt_StdImp|Product Description: AutoCAD Mechanical|Company: Autodesk, Inc."
 90
     1024
 91
        1
280
     0
281
     0
  0
CLASS
  1
ACMNOTESTANDARDDIN
  2
AmdtNoteStdDIN
  3
"Amdt_StdImp|Product Description: AutoCAD Mechanical|Company: Autodesk, Inc."
 90
     1024
 91
        1
280
     0
281
     0
  0
CLASS
  1
AMDTNOTETEMPLATEDB
  2
AmdtNoteTemplateDB
  3
AcmSymBB|Product Description: AutoCAD Mechanical|Company: Autodesk, Inc.
 90
     1024
 91
        7
280
     0
281
     0
  0
CLASS
  1
ACAMGLAYSTD
  2
AcAmgLayStd
  3
"AmgLay|Product Description: AutoCAD Mechanical|Company: Autodesk, Inc."
 90
     1024
 91
        1
280
     0
281
     0
  0
CLASS
  1
ACAMGDIMSTD
  2
AcAmgDimStd
  3
"AmgDim|Product Description: AutoCAD Mechanical|Company: Autodesk, Inc."
 90
     1024
 91
        1
280
     0
281
     0
  0
CLASS
  1
ACAMGHOLECHARTSTDDIN
  2
AcAmgHoleChartStdDIN
  3
AmgDim|Product Description: AutoCAD Mechanical|Company: Autodesk, Inc.
 90
     1024
 91
        1
280
     0
281
     0
  0
CLASS
  1
ACAMGTITLESTD
  2
AcAmgTitleStd
  3
"AmgTitle|Product Description: AutoCAD Mechanical|Company: Autodesk, Inc."
 90
     1024
 91
        1
280
     0
281
     0
  0
CLASS
  1
ACAMGFILTERDAT
  2
AcAmgFilterDat
  3
"AcadM|Product Description: AutoCAD Mechanical|Company: Autodesk, Inc."
 90
     1024
 91
        6
280
     0
281
     0
  0
CLASS
  1
SORTENTSTABLE
  2
AcDbSortentsTable
  3
ObjectDBX Classes
 90
        0
 91
        0
280
     0
281
     0
  0
CLASS
  1
ACMDATAENTRYBLOCK
  2
AcmDataEntryBlock
  3
AcmSymBB|Product Description: AutoCAD Mechanical|Company: Autodesk, Inc.
 90
     1024
 91
        0
280
     0
281
     0
  0
CLASS
  1
DICTIONARYVAR
  2
AcDbDictionaryVar
  3
ObjectDBX Classes
 90
        0
 91
        9
280
     0
281
     0
  0
CLASS
  1
AMDTEDGESTANDARDDIN
  2
AmdtEdgeStdDIN
  3
"Amdt_StdImp|Product Description: AutoCAD Mechanical|Company: Autodesk, Inc."
 90
     1024
 91
        0
280
     0
281
     0
  0
CLASS
  1
MATERIAL
  2
AcDbMaterial
  3
ObjectDBX Classes
 90
     1153
 91
        3
280
     0
281
     0
  0
CLASS
  1
VISUALSTYLE
  2
AcDbVisualStyle
  3
ObjectDBX Classes
 90
     4095
 91
       24
280
     0
281
     0
  0
CLASS
  1
SCALE
  2
AcDbScale
  3
ObjectDBX Classes
 90
     1153
 91
       17
280
     0
281
     0
  0
CLASS
  1
MLEADERSTYLE
  2
AcDbMLeaderStyle
  3
ACDB_MLEADERSTYLE_CLASS
 90
     4095
 91
        1
280
     0
281
     0
  0
CLASS
  1
ACDBSECTIONVIEWSTYLE
  2
AcDbSectionViewStyle
  3
ObjectDBX Classes
 90
     1025
 91
        2
280
     0
281
     0
  0
CLASS
  1
ACDBDETAILVIEWSTYLE
  2
AcDbDetailViewStyle
  3
ObjectDBX Classes
 90
     1025
 91
        2
280
     0
281
     0
  0
CLASS
  1
ACMSURFSTANDARDDIN2002
  2
AcmSurfTextStdDIN2002
  3
"Amdt_StdImp|Product Description: AutoCAD Mechanical|Company: Autodesk, Inc."
 90
     1024
 91
        1
280
     0
281
     0
  0
CLASS
  1
ACMFCFSTANDARDDIN2008
  2
AcmFCFStdDIN2008
  3
"Amdt_StdImp|Product Description: AutoCAD Mechanical|Company: Autodesk, Inc."
 90
     1024
 91
        1
280
     0
281
     0
  0
CLASS
  1
ACMIDSTANDARDDIN2008
  2
AcmIdStdDIN2008
  3
"Amdt_StdImp|Product Description: AutoCAD Mechanical|Company: Autodesk, Inc."
 90
     1024
 91
        1
280
     0
281
     0
  0
CLASS
  1
ACMTAPERSTANDARDDIN
  2
AcmTaperStdDIN
  3
"Amdt_StdImp|Product Description: AutoCAD Mechanical|Company: Autodesk, Inc."
 90
     1024
 91
        1
280
     0
281
     0
  0
CLASS
  1
ACMANOOTATIONVIEWSTANDARDDIN
  2
AmdtAnViewStdDIN
  3
"Amdt_StdImp|Product Description: AutoCAD Mechanical|Company: Autodesk, Inc."
 90
     1024
 91
        1
280
     0
281
     0
  0
CLASS
  1
ACMSECTIONSTANDARDCUSTOM
  2
AmdtSectionSymStdCustom
  3
"Amdt_StdImp|Product Description: AutoCAD Mechanical|Company: Autodesk, Inc."
 90
     1024
 91
        1
280
     0
281
     0
  0
CLASS
  1
ACMDETAILTANDARDCUSTOM
  2
AmdtDetailSymStdCustom
  3
"Amdt_StdImp|Product Description: AutoCAD Mechanical|Company: Autodesk, Inc."
 90
     1024
 91
        1
280
     0
281
     0
  0
CLASS
  1
FIELD
  2
AcDbField
  3
ObjectDBX Classes
 90
     1152
 91
        6
280
     0
281
     0
  0
CLASS
  1
FIELDLIST
  2
AcDbFieldList
  3
ObjectDBX Classes
 90
     1152
 91
        1
280
     0
281
     0
  0
CLASS
  1
CELLSTYLEMAP
  2
AcDbCellStyleMap
  3
ObjectDBX Classes
 90
     1152
 91
        1
280
     0
281
     0
  0
ENDSEC
  0
SECTION
  2
TABLES
  0
TABLE
  2
VPORT
  5
19
330
0
100
AcDbSymbolTable
 70
     1
  0
VPORT
  5
1A
330
19
100
AcDbSymbolTableRecord
100
AcDbViewportTableRecord
  2
*Active
 70
     0
 10
0.0
 20
0.0
 11
1.0
 21
1.0
 12
311.3282724085955
 22
389.3511025802724
 13
0.0
 23
0.0
 14
10.0
 24
10.0
 15
20.0
 25
20.0
 16
0.0
 26
0.0
 36
1.0
 17
0.0
 27
0.0
 37
0.0
 40
108.2617521227305
 41
1.989317995069843
 42
50.0
 43
0.0
 44
0.0
 50
0.0
 51
0.0
 71
     0
 72
  5000
 73
     1
 74
     0
 75
     0
 76
     0
 77
     0
 78
     0
281
     0
 65
     0
110
0.0
120
0.0
130
0.0
111
1.0
121
0.0
131
0.0
112
0.0
122
1.0
132
0.0
 79
     0
146
0.0
348
1C7
 60
     3
 61
     5
292
     1
282
     1
141
0.0
142
0.0
 63
   250
421
  3355443
1001
ACAD_NAV_VCDISPLAY
1070
     3
  0
ENDTAB
  0
TABLE
  2
LTYPE
  5
14
330
0
100
AcDbSymbolTable
 70
    16
  0
LTYPE
  5
15
330
14
100
AcDbSymbolTableRecord
100
AcDbLinetypeTableRecord
  2
BYBLOCK
 70
     0
  3

 72
    65
 73
     0
 40
0.0
  0
LTYPE
  5
16
330
14
100
AcDbSymbolTableRecord
100
AcDbLinetypeTableRecord
  2
BYLAYER
 70
     0
  3

 72
    65
 73
     0
 40
0.0
  0
LTYPE
  5
8
330
14
100
AcDbSymbolTableRecord
100
AcDbLinetypeTableRecord
  2
CONTINUOUS
 70
     0
  3
Solid line
 72
    65
 73
     0
 40
0.0
  0
LTYPE
  5
145
330
14
100
AcDbSymbolTableRecord
100
AcDbLinetypeTableRecord
  2
AM_ISO02W050
 70
     0
  3
__ __ __ __ __ __ __ __ __ __ __ __ __ __ __
 72
    65
 73
     2
 40
7.5
 49
6.0
 74
     0
 49
-1.5
 74
     0
  0
LTYPE
  5
157
330
14
100
AcDbSymbolTableRecord
100
AcDbLinetypeTableRecord
  2
ACDINWELD
 70
     0
  3
_ _ _ _ _
 72
    65
 73
     2
 40
2.0
 49
2.0
 74
     0
 49
-1.0
 74
     0
  0
LTYPE
  5
15A
330
14
100
AcDbSymbolTableRecord
100
AcDbLinetypeTableRecord
  2
ACDINTGB
 70
     0
  3
__ . . __ . .
 72
    65
 73
     6
 40
9.0
 49
4.0
 74
     0
 49
-1.0
 74
     0
 49
1.0
 74
     0
 49
-1.0
 74
     0
 49
1.0
 74
     0
 49
-1.0
 74
     0
  0
LTYPE
  5
15B
330
14
100
AcDbSymbolTableRecord
100
AcDbLinetypeTableRecord
  2
ACDINTGL
 70
     0
  3
_ _ _ _ _
 72
    65
 73
     2
 40
3.0
 49
2.0
 74
     0
 49
-1.0
 74
     0
  0
LTYPE
  5
140
330
14
100
AcDbSymbolTableRecord
100
AcDbLinetypeTableRecord
  2
gen3
 70
     0
  3
-- -- -- -- -- -- -- -- -- -- -- -- -- -- --
 72
    65
 73
     2
 40
6.25
 49
4.75
 74
     0
 49
-1.5
 74
     0
  0
LTYPE
  5
141
330
14
100
AcDbSymbolTableRecord
100
AcDbLinetypeTableRecord
  2
gen7
 70
     0
  3
____ . ____ . ____ . ____ . ____ . ____ . ____
 72
    65
 73
     4
 40
13.75
 49
9.75
 74
     0
 49
-1.5
 74
     0
 49
1.0
 74
     0
 49
-1.5
 74
     0
  0
LTYPE
  5
142
330
14
100
AcDbSymbolTableRecord
100
AcDbLinetypeTableRecord
  2
gen3a
 70
     0
  3
 - - - - -
 72
    65
 73
     2
 40
3.125
 49
2.25
 74
     0
 49
-0.875
 74
     0
  0
LTYPE
  5
143
330
14
100
AcDbSymbolTableRecord
100
AcDbLinetypeTableRecord
  2
gen7a
 70
     0
  3
__ . __ . __
 72
    65
 73
     4
 40
6.875
 49
4.75
 74
     0
 49
-0.875
 74
     0
 49
0.375
 74
     0
 49
-0.875
 74
     0
  0
LTYPE
  5
144
330
14
100
AcDbSymbolTableRecord
100
AcDbLinetypeTableRecord
  2
gen4a
 70
     0
  3
_____ . . _____ . . _____ . . ____ .. ____
 72
    65
 73
     6
 40
16.25
 49
9.75
 74
     0
 49
-1.5
 74
     0
 49
1.0
 74
     0
 49
-1.5
 74
     0
 49
1.0
 74
     0
 49
-1.5
 74
     0
  0
LTYPE
  5
146
330
14
100
AcDbSymbolTableRecord
100
AcDbLinetypeTableRecord
  2
genzigzag
 70
     0
  3
/\/-/\/-/\/-/\/-/\/-/\/
 72
    65
 73
     2
 40
12.0001
 49
0.0001
 74
     4
 75
   135
340
147
 46
2.0
 50
0.0
 44
0.0
 45
0.0
 49
-12.0
 74
     0
  0
LTYPE
  5
10A
330
14
100
AcDbSymbolTableRecord
100
AcDbLinetypeTableRecord
  2
CHAIN
 70
     0
  3
Chain ____ _ ____ _ ____ _ ____ _ ____ _ ____
 72
    65
 73
     4
 40
0.3543
 49
0.2362
 74
     0
 49
-0.0295
 74
     0
 49
0.0591
 74
     0
 49
-0.0295
 74
     0
  0
LTYPE
  5
19F
330
14
100
AcDbSymbolTableRecord
100
AcDbLinetypeTableRecord
  2
HIDDEN
 70
     0
  3
Verdeckt
 72
    65
 73
     2
 40
9.525
 49
6.349999999999998
 74
     0
 49
-3.174999999999998
 74
     0
  0
LTYPE
  5
1A0
330
14
100
AcDbSymbolTableRecord
100
AcDbLinetypeTableRecord
  2
PHANTOM2
 70
     0
  3
Phantom (.5x) ___ _ _ ___ _ _ ___ _ _ ___ _ _
 72
    65
 73
     6
 40
31.75
 49
15.875
 74
     0
 49
-3.174999999999998
 74
     0
 49
3.174999999999998
 74
     0
 49
-3.174999999999998
 74
     0
 49
3.174999999999998
 74
     0
 49
-3.174999999999998
 74
     0
  0
LTYPE
  5
1A1
330
14
100
AcDbSymbolTableRecord
100
AcDbLinetypeTableRecord
  2
CENTER
 70
     0
  3
Mitte ____ _ ____ _ ____ _ ____ _ ____ _ ____
 72
    65
 73
     4
 40
50.8
 49
31.75
 74
     0
 49
-6.349999999999998
 74
     0
 49
6.349999999999998
 74
     0
 49
-6.349999999999998
 74
     0
  0
ENDTAB
  0
TABLE
  2
LAYER
  5
10
330
0
100
AcDbSymbolTable
 70
     8
  0
LAYER
  5
4
102
{ACAD_XDICTIONARY
360
2C1
102
}
330
10
100
AcDbSymbolTableRecord
100
AcDbLayerTableRecord
  2
0
 70
     0
 62
     7
  6
CONTINUOUS
370
    -3
390
5
347
1B9
348
0
  0
LAYER
  5
41
102
{ACAD_XDICTIONARY
360
2C3
102
}
330
10
100
AcDbSymbolTableRecord
100
AcDbLayerTableRecord
  2
UMRISS02
 70
     0
 62
     1
  6
CONTINUOUS
370
    -3
390
5
347
1B9
348
0
  0
LAYER
  5
3C
102
{ACAD_XDICTIONARY
360
2C5
102
}
330
10
100
AcDbSymbolTableRecord
100
AcDbLayerTableRecord
  2
UMRISS07
 70
     0
 62
     6
  6
CONTINUOUS
370
    -3
390
5
347
1B9
348
0
  0
LAYER
  5
37
102
{ACAD_XDICTIONARY
360
2C7
102
}
330
10
100
AcDbSymbolTableRecord
100
AcDbLayerTableRecord
  2
BEMASSUNG
 70
     0
 62
     2
  6
CONTINUOUS
370
    -3
390
5
347
1B9
348
0
  0
LAYER
  5
F7
330
10
100
AcDbSymbolTableRecord
100
AcDbLayerTableRecord
  2
DEFPOINTS
 70
     0
 62
     7
  6
CONTINUOUS
290
     0
370
    -3
390
5
347
1B9
348
0
  0
LAYER
  5
CD
102
{ACAD_XDICTIONARY
360
2C9
102
}
330
10
100
AcDbSymbolTableRecord
100
AcDbLayerTableRecord
  2
Bruchlinien(MSL)
 70
     0
 62
   136
  6
CONTINUOUS
370
    25
390
5
347
1B9
348
0
  0
LAYER
  5
109
102
{ACAD_XDICTIONARY
360
2CB
102
}
330
10
100
AcDbSymbolTableRecord
100
AcDbLayerTableRecord
  2
Mittellinie(MSL)
 70
     0
 62
     1
  6
CHAIN
370
    25
390
5
347
1B9
348
0
  0
LAYER
  5
4A
102
{ACAD_XDICTIONARY
360
2CD
102
}
330
10
100
AcDbSymbolTableRecord
100
AcDbLayerTableRecord
  2
Sichtbare Kanten(MSL)
 70
     0
 62
     7
  6
CONTINUOUS
370
    50
390
5
347
1B9
348
0
  0
ENDTAB
  0
TABLE
  2
STYLE
  5
11
330
0
100
AcDbSymbolTable
 70
     7
  0
STYLE
  5
12
330
11
100
AcDbSymbolTableRecord
100
AcDbTextStyleTableRecord
  2
STANDARD
 70
     0
 40
0.0
 41
1.0
 50
0.0
 71
     0
 42
10.0
  3
txt
  4

  0
STYLE
  5
38
330
11
100
AcDbSymbolTableRecord
100
AcDbTextStyleTableRecord
  2
ARIAL-STANDARD
 70
     0
 40
0.0
 41
1.0
 50
0.0
 71
     0
 42
10.0
  3
ARIAL.TTF
  4

1001
ACAD
1000
Arial
1071
       34
  0
STYLE
  5
1F
330
11
100
AcDbSymbolTableRecord
100
AcDbTextStyleTableRecord
  2
NORM
 70
     0
 40
0.0
 41
1.0
 50
0.0
 71
     0
 42
2.399999999999999
  3
SIMPLEX
  4

  0
STYLE
  5
147
330
11
100
AcDbSymbolTableRecord
100
AcDbTextStyleTableRecord
  2

 70
     1
 40
0.0
 41
1.0
 50
0.0
 71
     0
 42
10.0
  3
genltshp.shx
  4

  0
STYLE
  5
151
330
11
100
AcDbSymbolTableRecord
100
AcDbTextStyleTableRecord
  2
ACDINTS
 70
     0
 40
1.0
 41
1.0
 50
0.0
 71
     0
 42
3.5
  3
isocp.shx
  4

  0
STYLE
  5
155
330
11
100
AcDbSymbolTableRecord
100
AcDbTextStyleTableRecord
  2
ACDINGDT
 70
     0
 40
0.0
 41
1.0
 50
0.0
 71
     0
 42
3.5
  3
amgdt.shx
  4

  0
STYLE
  5
21
330
11
100
AcDbSymbolTableRecord
100
AcDbTextStyleTableRecord
  2
NORMAL-MSL
 70
     0
 40
0.0
 41
1.0
 50
0.0
 71
     0
 42
0.2
  3
ARIAL.TTF
  4

1001
ACAD
1000
Arial
1071
      256
  0
ENDTAB
  0
TABLE
  2
VIEW
  5
17
330
0
100
AcDbSymbolTable
 70
     0
  0
ENDTAB
  0
TABLE
  2
UCS
  5
18
330
0
100
AcDbSymbolTable
 70
     0
  0
ENDTAB
  0
TABLE
  2
APPID
  5
1B
330
0
100
AcDbSymbolTable
 70
    13
  0
APPID
  5
1C
330
1B
100
AcDbSymbolTableRecord
100
AcDbRegAppTableRecord
  2
ACAD
 70
     0
  0
APPID
  5
16B
330
1B
100
AcDbSymbolTableRecord
100
AcDbRegAppTableRecord
  2
ACAD_DSTYLE_DIMARC_LENGTH_SYMBOL
 70
     0
  0
APPID
  5
16C
330
1B
100
AcDbSymbolTableRecord
100
AcDbRegAppTableRecord
  2
ACAD_DSTYLE_DIMJOGGED_JOGANGLE_SYMBOL
 70
     0
  0
APPID
  5
1FD
330
1B
100
AcDbSymbolTableRecord
100
AcDbRegAppTableRecord
  2
MCAD_NO_VIS
 70
     0
  0
APPID
  5
1FE
330
1B
100
AcDbSymbolTableRecord
100
AcDbRegAppTableRecord
  2
ACAD_TEMP_GRAPHIC
 70
     0
  0
APPID
  5
208
330
1B
100
AcDbSymbolTableRecord
100
AcDbRegAppTableRecord
  2
ACATTRIBSERVICES
 70
     0
  0
APPID
  5
220
330
1B
100
AcDbSymbolTableRecord
100
AcDbRegAppTableRecord
  2
DESIGNERASSEMBLIES
 70
     0
  0
APPID
  5
238
330
1B
100
AcDbSymbolTableRecord
100
AcDbRegAppTableRecord
  2
ACAD_DSTYLE_DIMBREAK
 70
     0
  0
APPID
  5
239
330
1B
100
AcDbSymbolTableRecord
100
AcDbRegAppTableRecord
  2
ACAD_DSTYLE_DIMJAG
 70
     0
  0
APPID
  5
257
330
1B
100
AcDbSymbolTableRecord
100
AcDbRegAppTableRecord
  2
ACAD_NAV_VCDISPLAY
 70
     0
  0
APPID
  5
258
330
1B
100
AcDbSymbolTableRecord
100
AcDbRegAppTableRecord
  2
ACAD_DSTYLE_DIMINSPECT
 70
     0
  0
APPID
  5
265
330
1B
100
AcDbSymbolTableRecord
100
AcDbRegAppTableRecord
  2
GENIUS_GENDTOL_13
 70
     0
  0
APPID
  5
276
330
1B
100
AcDbSymbolTableRecord
100
AcDbRegAppTableRecord
  2
ACAD_EXEMPT_FROM_CAD_STANDARDS
 70
     0
  0
ENDTAB
  0
TABLE
  2
DIMSTYLE
  5
1D
330
0
100
AcDbSymbolTable
 70
    10
100
AcDbDimStyleTable
 71
     3
340
16A
340
1E
340
20
  0
DIMSTYLE
105
1E
102
{ACAD_REACTORS
330
11F
330
FB
330
ED
330
110
330
12F
102
}
330
1D
100
AcDbSymbolTableRecord
100
AcDbDimStyleTableRecord
  2
PROSPEKT
 70
     0
 40
1.5
 41
3.5
 42
1.0
 43
8.0
 44
0.5
 73
     0
 74
     0
 77
     1
 78
     8
140
3.5
141
1.5
146
0.5
147
1.0
172
     1
174
     1
176
   256
177
   256
178
     3
271
     2
272
     2
279
     2
284
     8
340
1F
  0
DIMSTYLE
105
20
330
1D
100
AcDbSymbolTableRecord
100
AcDbDimStyleTableRecord
  2
NORMAL-MSL
 70
     0
 41
3.5
 42
0.0
 43
6.099999999999997
 44
1.0
 45
0.00000001
 46
7.0
 73
     0
 74
     0
 77
     1
 78
     8
 79
     2
140
3.5
143
1.0
146
0.5
147
1.0
176
     5
177
     5
178
     7
271
     2
272
     2
284
     8
286
     8
340
21
342
22
371
     0
372
     0
  0
DIMSTYLE
105
16A
102
{ACAD_REACTORS
330
227
102
}
330
1D
100
AcDbSymbolTableRecord
100
AcDbDimStyleTableRecord
  2
AM_DIN
 70
     0
  4
"
 41
3.5
 42
1.0
 43
10.0
 44
1.0
 47
0.1
 48
0.1
 50
90.0
 73
     0
 74
     0
 77
     1
 78
     8
 79
     2
140
3.5
141
0.0
143
0.0393701
146
0.71
147
1.5
172
     1
176
   256
177
   256
178
     2
271
     2
272
     3
274
     4
283
     0
284
     8
340
12
345
15
346
15
347
15
371
    -1
372
    -1
1001
ACAD_DSTYLE_DIMJOGGED_JOGANGLE_SYMBOL
1070
   384
1040
1.570796326794896
1001
ACAD_DSTYLE_DIMJAG
1070
   388
1040
1.5
1001
ACAD_DSTYLE_DIMBREAK
1070
   391
1040
3.75
  0
DIMSTYLE
105
16D
330
1D
100
AcDbSymbolTableRecord
100
AcDbDimStyleTableRecord
  2
AM_DIN$3
 70
     0
  4
"
 41
3.5
 42
1.0
 43
10.0
 44
1.0
 47
0.1
 48
0.1
 50
90.0
 73
     0
 77
     1
 78
     8
 79
     2
140
3.5
141
0.0
143
0.0393701
146
0.71
147
1.5
176
   256
177
   256
178
     2
271
     2
272
     3
274
     4
283
     0
284
     8
288
     1
289
     0
340
12
345
15
346
15
347
15
371
    -1
372
    -1
1001
ACAD_DSTYLE_DIMJOGGED_JOGANGLE_SYMBOL
1070
   384
1040
1.570796326794896
1001
ACAD_DSTYLE_DIMBREAK
1070
   391
1040
3.75
1001
ACAD_DSTYLE_DIMJAG
1070
   388
1040
1.5
  0
DIMSTYLE
105
16E
330
1D
100
AcDbSymbolTableRecord
100
AcDbDimStyleTableRecord
  2
AM_DIN$4
 70
     0
  4
"
 41
3.5
 42
1.0
 43
10.0
 44
1.0
 47
0.1
 48
0.1
 50
90.0
 73
     0
 74
     0
 77
     1
 78
     8
 79
     2
140
3.5
141
0.0
143
0.0393701
146
0.71
147
1.5
172
     1
176
   256
177
   256
178
     2
271
     2
272
     3
274
     4
283
     0
284
     8
340
12
345
15
346
15
347
15
371
    -1
372
    -1
1001
ACAD_DSTYLE_DIMJOGGED_JOGANGLE_SYMBOL
1070
   384
1040
1.570796326794896
1001
ACAD_DSTYLE_DIMBREAK
1070
   391
1040
3.75
1001
ACAD_DSTYLE_DIMJAG
1070
   388
1040
1.5
  0
DIMSTYLE
105
16F
330
1D
100
AcDbSymbolTableRecord
100
AcDbDimStyleTableRecord
  2
AM_DIN$6
 70
     0
  4
"
 41
3.5
 42
1.0
 43
10.0
 44
1.0
 47
0.1
 48
0.1
 50
90.0
 73
     0
 74
     0
 78
     8
 79
     2
140
3.5
141
0.0
143
0.0393701
146
0.71
147
1.5
172
     1
176
   256
177
   256
178
     2
271
     2
272
     3
274
     4
283
     0
284
     8
340
12
345
15
346
15
347
15
371
    -1
372
    -1
1001
ACAD_DSTYLE_DIMJOGGED_JOGANGLE_SYMBOL
1070
   384
1040
1.570796326794896
1001
ACAD_DSTYLE_DIMBREAK
1070
   391
1040
3.75
1001
ACAD_DSTYLE_DIMJAG
1070
   388
1040
1.5
  0
DIMSTYLE
105
170
330
1D
100
AcDbSymbolTableRecord
100
AcDbDimStyleTableRecord
  2
AM_DIN$7
 70
     0
  4
"
 41
3.5
 42
1.0
 43
10.0
 44
1.0
 47
0.1
 48
0.1
 50
90.0
 73
     0
 74
     0
 77
     1
 78
     8
 79
     2
140
3.5
141
0.0
143
0.0393701
146
0.71
147
1.5
172
     1
176
   256
177
   256
178
     2
271
     2
272
     3
274
     4
283
     0
284
     8
340
12
345
15
346
15
347
15
371
    -1
372
    -1
1001
ACAD_DSTYLE_DIMJOGGED_JOGANGLE_SYMBOL
1070
   384
1040
1.570796326794896
1001
ACAD_DSTYLE_DIMBREAK
1070
   391
1040
3.75
1001
ACAD_DSTYLE_DIMJAG
1070
   388
1040
1.5
  0
DIMSTYLE
105
171
330
1D
100
AcDbSymbolTableRecord
100
AcDbDimStyleTableRecord
  2
AM_DIN$SF
 70
     0
  4
"
 41
3.5
 42
1.0
 43
10.0
 44
1.0
 47
0.1
 48
0.1
 50
90.0
 73
     0
 74
     0
 75
     1
 76
     1
 77
     1
 78
     8
 79
     2
140
3.5
141
0.0
143
0.0393701
146
0.71
147
1.5
172
     1
176
   256
177
   256
178
     2
271
     2
272
     3
274
     4
283
     0
284
     8
340
12
345
15
346
15
347
15
371
    -1
372
    -1
1001
ACAD_DSTYLE_DIMJOGGED_JOGANGLE_SYMBOL
1070
   384
1040
1.570796326794896
1001
ACAD_DSTYLE_DIMBREAK
1070
   391
1040
3.75
1001
ACAD_DSTYLE_DIMJAG
1070
   388
1040
1.5
  0
DIMSTYLE
105
172
330
1D
100
AcDbSymbolTableRecord
100
AcDbDimStyleTableRecord
  2
AM_DIN$SH
 70
     0
  4
"
 41
3.5
 42
1.0
 43
10.0
 44
1.0
 47
0.1
 48
0.1
 50
90.0
 73
     0
 74
     0
 75
     1
 76
     1
 77
     1
 78
     8
 79
     2
140
3.5
141
0.0
143
0.0393701
144
2.0
146
0.71
147
1.5
172
     1
173
     1
176
   256
177
   256
178
     2
271
     2
272
     3
274
     4
283
     0
284
     8
340
12
343
173
345
15
346
15
347
15
371
    -1
372
    -1
1001
ACAD_DSTYLE_DIMJOGGED_JOGANGLE_SYMBOL
1070
   384
1040
1.570796326794896
1001
ACAD_DSTYLE_DIMBREAK
1070
   391
1040
3.75
1001
ACAD_DSTYLE_DIMJAG
1070
   388
1040
1.5
  0
ENDTAB
  0
TABLE
  2
BLOCK_RECORD
  5
1
330
0
100
AcDbSymbolTable
 70
    12
  0
BLOCK_RECORD
  5
2
330
1
100
AcDbSymbolTableRecord
100
AcDbBlockTableRecord
  2
*MODEL_SPACE
340
A
 70
     0
280
     1
281
     0
  0
BLOCK_RECORD
  5
C
330
1
100
AcDbSymbolTableRecord
100
AcDbBlockTableRecord
  2
*PAPER_SPACE
340
F
 70
     0
280
     1
281
     0
  0
BLOCK_RECORD
  5
22
330
1
100
AcDbSymbolTableRecord
100
AcDbBlockTableRecord
  2
Filled-1
340
0
 70
     0
280
     1
281
     0
  0
BLOCK_RECORD
  5
EE
330
1
100
AcDbSymbolTableRecord
100
AcDbBlockTableRecord
  2
*D1
340
0
 70
     0
280
     1
281
     0
  0
BLOCK_RECORD
  5
111
330
1
100
AcDbSymbolTableRecord
100
AcDbBlockTableRecord
  2
*D2
340
0
 70
     0
280
     1
281
     0
  0
BLOCK_RECORD
  5
130
330
1
100
AcDbSymbolTableRecord
100
AcDbBlockTableRecord
  2
*D3
340
0
 70
     0
280
     1
281
     0
  0
BLOCK_RECORD
  5
173
330
1
100
AcDbSymbolTableRecord
100
AcDbBlockTableRecord
  2
GENAXEH
340
0
 70
     0
280
     1
281
     0
  0
BLOCK_RECORD
  5
FC
330
1
100
AcDbSymbolTableRecord
100
AcDbBlockTableRecord
  2
*D5
340
0
 70
     0
280
     1
281
     0
  0
BLOCK_RECORD
  5
120
330
1
100
AcDbSymbolTableRecord
100
AcDbBlockTableRecord
  2
*D6
340
0
 70
     0
280
     1
281
     0
  0
BLOCK_RECORD
  5
247
330
1
100
AcDbSymbolTableRecord
100
AcDbBlockTableRecord
  2
_ACMFILLED30
340
0
 70
     0
280
     1
281
     0
  0
BLOCK_RECORD
  5
259
330
1
100
AcDbSymbolTableRecord
100
AcDbBlockTableRecord
  2
*D9
340
0
 70
     0
280
     1
281
     0
  0
BLOCK_RECORD
  5
27E
330
1
100
AcDbSymbolTableRecord
100
AcDbBlockTableRecord
  2
*D11
340
0
 70
     0
280
     1
281
     0
  0
ENDTAB
  0
ENDSEC
  0
SECTION
  2
BLOCKS
  0
BLOCK
  5
3
330
2
100
AcDbEntity
  8
0
100
AcDbBlockBegin
  2
*MODEL_SPACE
 70
     0
 10
0.0
 20
0.0
 30
0.0
  3
*MODEL_SPACE
  1

  0
ENDBLK
  5
9
330
2
100
AcDbEntity
  8
0
100
AcDbBlockEnd
  0
BLOCK
  5
D
330
C
100
AcDbEntity
 67
     1
  8
0
100
AcDbBlockBegin
  2
*PAPER_SPACE
 70
     0
 10
0.0
 20
0.0
 30
0.0
  3
*PAPER_SPACE
  1

  0
ENDBLK
  5
E
330
C
100
AcDbEntity
 67
     1
  8
0
100
AcDbBlockEnd
  0
BLOCK
  5
23
330
22
100
AcDbEntity
  8
0
100
AcDbBlockBegin
  2
Filled-1
 70
     0
 10
0.0
 20
0.0
 30
0.0
  3
Filled-1
  1

  0
LINE
  5
24
330
22
100
AcDbEntity
  8
0
 62
     0
100
AcDbLine
 10
-1.0
 20
0.0
 30
0.0
 11
0.0
 21
0.0
 31
0.0
  0
POLYLINE
  5
25
330
22
100
AcDbEntity
  8
0
 62
     0
100
AcDb2dPolyline
 66
     1
 10
0.0
 20
0.0
 30
0.0
 70
   128
  0
VERTEX
  5
26
330
25
100
AcDbEntity
  8
0
 62
     0
100
AcDbVertex
100
AcDb2dVertex
 10
-1.0
 20
-0.1428571428571429
 30
0.0
  0
VERTEX
  5
27
330
25
100
AcDbEntity
  8
0
 62
     0
100
AcDbVertex
100
AcDb2dVertex
 10
0.0
 20
0.0
 30
0.0
  0
VERTEX
  5
28
330
25
100
AcDbEntity
  8
0
 62
     0
100
AcDbVertex
100
AcDb2dVertex
 10
-1.0
 20
0.1428571428571429
 30
0.0
  0
VERTEX
  5
29
330
25
100
AcDbEntity
  8
0
 62
     0
100
AcDbVertex
100
AcDb2dVertex
 10
-1.0
 20
-0.1428571428571429
 30
0.0
  0
SEQEND
  5
2A
330
25
100
AcDbEntity
  8
0
 62
     0
  0
SOLID
  5
2B
330
22
100
AcDbEntity
  8
0
 62
     0
100
AcDbTrace
 10
-1.0
 20
-0.1428571428571429
 30
0.0
 11
0.0
 21
0.0
 31
0.0
 12
-1.0
 22
0.1428571428571429
 32
0.0
 13
-1.0
 23
-0.1428571428571429
 33
0.0
  0
LINE
  5
2C
330
22
100
AcDbEntity
  8
0
 62
     0
100
AcDbLine
 10
-1.0
 20
-0.1428571428571429
 30
0.0
 11
0.0
 21
0.0
 31
0.0
  0
LINE
  5
2D
330
22
100
AcDbEntity
  8
0
 62
     0
100
AcDbLine
 10
0.0
 20
0.0
 30
0.0
 11
-1.0
 21
0.1428571428571429
 31
0.0
  0
LINE
  5
2E
330
22
100
AcDbEntity
  8
0
 62
     0
100
AcDbLine
 10
-1.0
 20
0.1428571428571429
 30
0.0
 11
-1.0
 21
-0.1428571428571429
 31
0.0
  0
ENDBLK
  5
2F
330
22
100
AcDbEntity
  8
0
100
AcDbBlockEnd
  0
BLOCK
  5
EF
330
EE
100
AcDbEntity
  8
0
100
AcDbBlockBegin
  2
*D1
 70
     1
 10
0.0
 20
0.0
 30
0.0
  3
*D1
  1

  0
LINE
  5
F0
330
EE
100
AcDbEntity
  8
BEMASSUNG
440
 16777216
370
    -2
100
AcDbLine
 10
282.1513204471693
 20
280.4178211507159
 30
0.0
 11
273.1783355965712
 21
280.4178211507159
 31
0.0
  0
LINE
  5
F1
330
EE
100
AcDbEntity
  8
BEMASSUNG
440
 16777216
370
    -2
100
AcDbLine
 10
288.6513204471693
 20
318.6998178643144
 30
0.0
 11
273.1783355965712
 21
318.6998178643144
 31
0.0
  0
LINE
  5
F2
330
EE
100
AcDbEntity
  8
BEMASSUNG
440
 16777216
370
    -2
100
AcDbLine
 10
273.9283355965712
 20
285.6678211507158
 30
0.0
 11
273.9283355965712
 21
313.4498178643144
 31
0.0
  0
MTEXT
  5
F3
330
EE
100
AcDbEntity
  8
BEMASSUNG
 62
     3
440
 16777216
100
AcDbMText
 10
266.5645975146633
 20
292.7698153070068
 30
0.0
 40
5.25
 41
0.0
 46
0.0
 71
     1
 72
     1
  1
\A1;140
  7
NORM
 11
0.0000000000000001
 21
1.0
 31
0.0
 73
     1
 44
1.0
  0
SOLID
  5
F4
330
EE
100
AcDbEntity
  8
BEMASSUNG
440
 16777216
100
AcDbTrace
 10
273.0533355965712
 20
285.6678211507158
 30
0.0
 11
274.8033355965712
 21
285.6678211507158
 31
0.0
 12
273.9283355965712
 22
280.4178211507159
 32
0.0
 13
273.9283355965712
 23
280.4178211507159
 33
0.0
  0
SOLID
  5
F5
330
EE
100
AcDbEntity
  8
BEMASSUNG
440
 16777216
100
AcDbTrace
 10
273.0533355965712
 20
313.4498178643144
 30
0.0
 11
274.8033355965712
 21
313.4498178643144
 31
0.0
 12
273.9283355965712
 22
318.6998178643144
 32
0.0
 13
273.9283355965712
 23
318.6998178643144
 33
0.0
  0
POINT
  5
F6
330
EE
100
AcDbEntity
  8
DEFPOINTS
 62
     0
440
 16777216
100
AcDbPoint
 10
283.6513204471692
 20
280.4178211507159
 30
0.0
  0
POINT
  5
F8
330
EE
100
AcDbEntity
  8
DEFPOINTS
 62
     0
440
 16777216
100
AcDbPoint
 10
290.1513204471693
 20
318.6998178643144
 30
0.0
  0
POINT
  5
F9
330
EE
100
AcDbEntity
  8
DEFPOINTS
 62
     0
440
 16777216
100
AcDbPoint
 10
273.9283355965712
 20
318.6998178643144
 30
0.0
  0
ENDBLK
  5
FA
330
EE
100
AcDbEntity
  8
0
100
AcDbBlockEnd
  0
BLOCK
  5
112
330
111
100
AcDbEntity
  8
0
100
AcDbBlockBegin
  2
*D2
 70
     1
 10
0.0
 20
0.0
 30
0.0
  3
*D2
  1

  0
LINE
  5
113
330
111
100
AcDbEntity
  8
BEMASSUNG
440
 16777216
370
    -2
100
AcDbLine
 10
282.6513204471693
 20
263.4659230726805
 30
0.0
 11
273.1783355965712
 21
263.4659230726805
 31
0.0
  0
LINE
  5
114
330
111
100
AcDbEntity
  8
BEMASSUNG
440
 16777216
370
    -2
100
AcDbLine
 10
282.6513204471693
 20
258.4659230726805
 30
0.0
 11
273.1783355965712
 21
258.4659230726805
 31
0.0
  0
LINE
  5
115
330
111
100
AcDbEntity
  8
BEMASSUNG
440
 16777216
370
    -2
100
AcDbLine
 10
273.9283355965712
 20
268.7159230726805
 30
0.0
 11
273.9283355965712
 21
273.9659230726805
 31
0.0
  0
LINE
  5
116
330
111
100
AcDbEntity
  8
BEMASSUNG
440
 16777216
370
    -2
100
AcDbLine
 10
273.9283355965712
 20
253.2159230726805
 30
0.0
 11
273.9283355965712
 21
247.9659230726805
 31
0.0
  0
MTEXT
  5
117
330
111
100
AcDbEntity
  8
BEMASSUNG
 62
     3
440
 16777216
100
AcDbMText
 10
266.4717857400581
 20
259.2551570014491
 30
0.0
 40
5.25
 41
0.0
 46
0.0
 71
     1
 72
     1
  1
\A1;5
  7
NORM
 11
0.0000000000000001
 21
1.0
 31
0.0
 73
     1
 44
1.0
  0
LINE
  5
118
330
111
100
AcDbEntity
  8
BEMASSUNG
440
 16777216
370
    -2
100
AcDbLine
 10
273.9283355965712
 20
263.4659230726805
 30
0.0
 11
273.9283355965712
 21
258.4659230726805
 31
0.0
  0
SOLID
  5
119
330
111
100
AcDbEntity
  8
BEMASSUNG
440
 16777216
100
AcDbTrace
 10
273.0533355965712
 20
268.7159230726805
 30
0.0
 11
274.8033355965712
 21
268.7159230726805
 31
0.0
 12
273.9283355965712
 22
263.4659230726805
 32
0.0
 13
273.9283355965712
 23
263.4659230726805
 33
0.0
  0
SOLID
  5
11A
330
111
100
AcDbEntity
  8
BEMASSUNG
440
 16777216
100
AcDbTrace
 10
273.0533355965712
 20
253.2159230726805
 30
0.0
 11
274.8033355965712
 21
253.2159230726805
 31
0.0
 12
273.9283355965712
 22
258.4659230726805
 32
0.0
 13
273.9283355965712
 23
258.4659230726805
 33
0.0
  0
POINT
  5
11B
330
111
100
AcDbEntity
  8
DEFPOINTS
 62
     0
440
 16777216
100
AcDbPoint
 10
284.1513204471693
 20
263.4659230726805
 30
0.0
  0
POINT
  5
11C
330
111
100
AcDbEntity
  8
DEFPOINTS
 62
     0
440
 16777216
100
AcDbPoint
 10
284.1513204471693
 20
258.4659230726805
 30
0.0
  0
POINT
  5
11D
330
111
100
AcDbEntity
  8
DEFPOINTS
 62
     0
440
 16777216
100
AcDbPoint
 10
273.9283355965712
 20
258.4659230726805
 30
0.0
  0
ENDBLK
  5
11E
330
111
100
AcDbEntity
  8
0
100
AcDbBlockEnd
  0
BLOCK
  5
131
330
130
100
AcDbEntity
  8
0
100
AcDbBlockBegin
  2
*D3
 70
     1
 10
0.0
 20
0.0
 30
0.0
  3
*D3
  1

  0
LINE
  5
132
330
130
100
AcDbEntity
  8
BEMASSUNG
440
 16777216
370
    -2
100
AcDbLine
 10
283.6513204471692
 20
259.4659230726805
 30
0.0
 11
283.6513204471692
 21
246.105683886211
 31
0.0
  0
LINE
  5
133
330
130
100
AcDbEntity
  8
BEMASSUNG
440
 16777216
370
    -2
100
AcDbLine
 10
296.6513204471693
 20
259.4659230726805
 30
0.0
 11
296.6513204471693
 21
246.105683886211
 31
0.0
  0
LINE
  5
134
330
130
100
AcDbEntity
  8
BEMASSUNG
440
 16777216
370
    -2
100
AcDbLine
 10
278.4013204471693
 20
246.8556838862109
 30
0.0
 11
273.1513204471692
 21
246.8556838862109
 31
0.0
  0
LINE
  5
135
330
130
100
AcDbEntity
  8
BEMASSUNG
440
 16777216
370
    -2
100
AcDbLine
 10
301.9013204471693
 20
246.8556838862109
 30
0.0
 11
307.1513204471693
 21
246.8556838862109
 31
0.0
  0
LINE
  5
136
330
130
100
AcDbEntity
  8
BEMASSUNG
440
 16777216
370
    -2
100
AcDbLine
 10
283.6513204471692
 20
246.8556838862109
 30
0.0
 11
296.6513204471693
 21
246.8556838862109
 31
0.0
  0
SOLID
  5
137
330
130
100
AcDbEntity
  8
BEMASSUNG
440
 16777216
100
AcDbTrace
 10
278.4013204471693
 20
247.730683886211
 30
0.0
 11
278.4013204471693
 21
245.9806838862109
 31
0.0
 12
283.6513204471692
 22
246.8556838862109
 32
0.0
 13
283.6513204471692
 23
246.8556838862109
 33
0.0
  0
SOLID
  5
138
330
130
100
AcDbEntity
  8
BEMASSUNG
440
 16777216
100
AcDbTrace
 10
301.9013204471693
 20
247.730683886211
 30
0.0
 11
301.9013204471693
 21
245.9806838862109
 31
0.0
 12
296.6513204471693
 22
246.8556838862109
 32
0.0
 13
296.6513204471693
 23
246.8556838862109
 33
0.0
  0
MTEXT
  5
139
330
130
100
AcDbEntity
  8
BEMASSUNG
 62
     3
440
 16777216
100
AcDbMText
 10
290.1513204471693
 20
250.980683886211
 30
0.0
 40
5.25
 41
0.0
 46
0.0
 71
     5
 72
     1
  1
\A1;ø13
  7
NORM
 73
     1
 44
1.0
  0
POINT
  5
13A
330
130
100
AcDbEntity
  8
DEFPOINTS
 62
     0
440
 16777216
100
AcDbPoint
 10
283.6513204471692
 20
260.9659230726805
 30
0.0
  0
POINT
  5
13B
330
130
100
AcDbEntity
  8
DEFPOINTS
 62
     0
440
 16777216
100
AcDbPoint
 10
296.6513204471693
 20
260.9659230726805
 30
0.0
  0
POINT
  5
13C
330
130
100
AcDbEntity
  8
DEFPOINTS
 62
     0
440
 16777216
100
AcDbPoint
 10
296.6513204471693
 20
246.8556838862109
 30
0.0
  0
ENDBLK
  5
13D
330
130
100
AcDbEntity
  8
0
100
AcDbBlockEnd
  0
BLOCK
  5
174
330
173
100
AcDbEntity
  8
0
100
AcDbBlockBegin
  2
GENAXEH
 70
     0
 10
0.0
 20
0.0
 30
0.0
  3
GENAXEH
  1

  0
LINE
  5
175
330
173
100
AcDbEntity
  8
0
100
AcDbLine
 10
-1.0
 20
0.0
 30
0.0
 11
1.0
 21
0.0
 31
0.0
  0
ENDBLK
  5
176
330
173
100
AcDbEntity
  8
0
100
AcDbBlockEnd
  0
BLOCK
  5
FD
330
FC
100
AcDbEntity
  8
0
100
AcDbBlockBegin
  2
*D5
 70
     1
 10
0.0
 20
0.0
 30
0.0
  3
*D5
  1

  0
LINE
  5
FE
330
FC
100
AcDbEntity
  8
BEMASSUNG
440
 16777216
370
    -2
100
AcDbLine
 10
295.8513205471692
 20
416.1399820718948
 30
0.0
 11
313.5143314045642
 21
416.1399820718948
 31
0.0
  0
LINE
  5
FF
330
FC
100
AcDbEntity
  8
BEMASSUNG
440
 16777216
370
    -2
100
AcDbLine
 10
298.1513204471693
 20
280.4178211507159
 30
0.0
 11
313.5143314045641
 21
280.4178211507159
 31
0.0
  0
LINE
  5
100
330
FC
100
AcDbEntity
  8
BEMASSUNG
440
 16777216
370
    -2
100
AcDbLine
 10
312.7643314045642
 20
410.8899820718948
 30
0.0
 11
312.7643314045641
 21
285.6678211507158
 31
0.0
  0
MTEXT
  5
101
330
FC
100
AcDbEntity
  8
BEMASSUNG
 62
     3
440
 16777216
100
AcDbMText
 10
307.7330453228534
 20
342.5367853527967
 30
0.0
 40
5.25
 41
0.0
 46
0.0
 71
     5
 72
     1
  1
\A1;1487
  7
NORM
 11
0.0000000000000001
 21
1.0
 31
0.0
 73
     1
 44
1.0
  0
SOLID
  5
102
330
FC
100
AcDbEntity
  8
BEMASSUNG
440
 16777216
100
AcDbTrace
 10
311.8893314045642
 20
410.8899820718948
 30
0.0
 11
313.6393314045642
 21
410.8899820718948
 31
0.0
 12
312.7643314045642
 22
416.1399820718948
 32
0.0
 13
312.7643314045642
 23
416.1399820718948
 33
0.0
  0
SOLID
  5
103
330
FC
100
AcDbEntity
  8
BEMASSUNG
440
 16777216
100
AcDbTrace
 10
311.8893314045641
 20
285.6678211507158
 30
0.0
 11
313.6393314045641
 21
285.6678211507158
 31
0.0
 12
312.7643314045641
 22
280.4178211507159
 32
0.0
 13
312.7643314045641
 23
280.4178211507159
 33
0.0
  0
POINT
  5
104
330
FC
100
AcDbEntity
  8
DEFPOINTS
 62
     0
440
 16777216
100
AcDbPoint
 10
294.3513205471692
 20
416.1399820718948
 30
0.0
  0
POINT
  5
105
330
FC
100
AcDbEntity
  8
DEFPOINTS
 62
     0
440
 16777216
100
AcDbPoint
 10
296.6513204471693
 20
280.4178211507159
 30
0.0
  0
POINT
  5
106
330
FC
100
AcDbEntity
  8
DEFPOINTS
 62
     0
440
 16777216
100
AcDbPoint
 10
312.7643314045641
 20
280.4178211507159
 30
0.0
  0
ENDBLK
  5
107
330
FC
100
AcDbEntity
  8
0
100
AcDbBlockEnd
  0
BLOCK
  5
121
330
120
100
AcDbEntity
  8
0
100
AcDbBlockBegin
  2
*D6
 70
     1
 10
0.0
 20
0.0
 30
0.0
  3
*D6
  1

  0
LINE
  5
122
330
120
100
AcDbEntity
  8
BEMASSUNG
440
 16777216
370
    -2
100
AcDbLine
 10
286.1513204471695
 20
416.8399820718946
 30
0.0
 11
286.1513204471695
 21
424.9734340329871
 31
0.0
  0
LINE
  5
123
330
120
100
AcDbEntity
  8
BEMASSUNG
440
 16777216
370
    -2
100
AcDbLine
 10
294.1513204471691
 20
416.8399820718946
 30
0.0
 11
294.1513204471691
 21
424.9734340329871
 31
0.0
  0
LINE
  5
124
330
120
100
AcDbEntity
  8
BEMASSUNG
440
 16777216
370
    -2
100
AcDbLine
 10
280.9013204471696
 20
424.2234340329871
 30
0.0
 11
275.6513204471696
 21
424.2234340329871
 31
0.0
  0
LINE
  5
125
330
120
100
AcDbEntity
  8
BEMASSUNG
440
 16777216
370
    -2
100
AcDbLine
 10
299.4013204471691
 20
424.2234340329871
 30
0.0
 11
304.6513204471691
 21
424.2234340329871
 31
0.0
  0
LINE
  5
126
330
120
100
AcDbEntity
  8
BEMASSUNG
440
 16777216
370
    -2
100
AcDbLine
 10
286.1513204471695
 20
424.2234340329871
 30
0.0
 11
294.1513204471691
 21
424.2234340329871
 31
0.0
  0
SOLID
  5
127
330
120
100
AcDbEntity
  8
BEMASSUNG
440
 16777216
100
AcDbTrace
 10
280.9013204471696
 20
425.0984340329871
 30
0.0
 11
280.9013204471696
 21
423.3484340329871
 31
0.0
 12
286.1513204471695
 22
424.2234340329871
 32
0.0
 13
286.1513204471695
 23
424.2234340329871
 33
0.0
  0
SOLID
  5
128
330
120
100
AcDbEntity
  8
BEMASSUNG
440
 16777216
100
AcDbTrace
 10
299.4013204471691
 20
425.0984340329871
 30
0.0
 11
299.4013204471691
 21
423.3484340329871
 31
0.0
 12
294.1513204471691
 22
424.2234340329871
 32
0.0
 13
294.1513204471691
 23
424.2234340329871
 33
0.0
  0
MTEXT
  5
129
330
120
100
AcDbEntity
  8
BEMASSUNG
 62
     3
440
 16777216
100
AcDbMText
 10
290.1513204471693
 20
428.3484340329871
 30
0.0
 40
5.25
 41
0.0
 46
0.0
 71
     5
 72
     1
  1
\A1;M8
  7
NORM
 73
     1
 44
1.0
  0
POINT
  5
12A
330
120
100
AcDbEntity
  8
DEFPOINTS
 62
     0
440
 16777216
100
AcDbPoint
 10
286.1513204471695
 20
415.3399820718946
 30
0.0
  0
POINT
  5
12B
330
120
100
AcDbEntity
  8
DEFPOINTS
 62
     0
440
 16777216
100
AcDbPoint
 10
294.1513204471691
 20
415.3399820718948
 30
0.0
  0
POINT
  5
12C
330
120
100
AcDbEntity
  8
DEFPOINTS
 62
     0
440
 16777216
100
AcDbPoint
 10
294.1513204471691
 20
424.2234340329871
 30
0.0
  0
ENDBLK
  5
12D
330
120
100
AcDbEntity
  8
0
100
AcDbBlockEnd
  0
BLOCK
  5
248
330
247
100
AcDbEntity
  8
0
100
AcDbBlockBegin
  2
_ACMFILLED30
 70
     0
 10
0.0
 20
0.0
 30
0.0
  3
_ACMFILLED30
  1

  0
TRACE
  5
24A
330
247
100
AcDbEntity
  8
BEMASSUNG
 62
     0
100
AcDbTrace
 10
-1.0
 20
-0.26794919
 30
0.0
 11
-1.0
 21
0.26794919
 31
0.0
 12
0.0
 22
0.0
 32
0.0
 13
0.0
 23
0.0
 33
0.0
  0
ENDBLK
  5
249
330
247
100
AcDbEntity
  8
0
100
AcDbBlockEnd
  0
BLOCK
  5
25A
330
259
100
AcDbEntity
  8
0
100
AcDbBlockBegin
  2
*D9
 70
     1
 10
0.0
 20
0.0
 30
0.0
  3
*D9
  1

  0
LINE
  5
297
330
259
100
AcDbEntity
  8
BEMASSUNG
440
 16777216
370
    -2
100
AcDbLine
 10
291.6513204471694
 20
416.1399820718948
 30
0.0
 11
313.5143314045642
 21
416.1399820718948
 31
0.0
  0
LINE
  5
298
330
259
100
AcDbEntity
  8
BEMASSUNG
440
 16777216
370
    -2
100
AcDbLine
 10
298.1513204471693
 20
280.4178211507159
 30
0.0
 11
313.5143314045641
 21
280.4178211507159
 31
0.0
  0
LINE
  5
299
330
259
100
AcDbEntity
  8
BEMASSUNG
440
 16777216
370
    -2
100
AcDbLine
 10
312.7643314045642
 20
410.8899820718947
 30
0.0
 11
312.7643314045641
 21
285.6678211507159
 31
0.0
  0
MTEXT
  5
29A
330
259
100
AcDbEntity
  8
BEMASSUNG
 62
     3
440
 16777216
100
AcDbMText
 10
307.7330453228534
 20
342.5367853527967
 30
0.0
 40
5.25
 41
0.0
 46
0.0
 71
     5
 72
     1
  1
\A1;L
  7
NORM
 11
0.0000000000000001
 21
1.0
 31
0.0
 73
     1
 44
1.0
  0
SOLID
  5
29B
330
259
100
AcDbEntity
  8
BEMASSUNG
440
 16777216
100
AcDbTrace
 10
311.8893314045642
 20
410.8899820718947
 30
0.0
 11
313.6393314045642
 21
410.8899820718947
 31
0.0
 12
312.7643314045642
 22
416.1399820718948
 32
0.0
 13
312.7643314045642
 23
416.1399820718948
 33
0.0
  0
SOLID
  5
29C
330
259
100
AcDbEntity
  8
BEMASSUNG
440
 16777216
100
AcDbTrace
 10
311.8893314045641
 20
285.6678211507159
 30
0.0
 11
313.6393314045641
 21
285.6678211507159
 31
0.0
 12
312.7643314045641
 22
280.4178211507159
 32
0.0
 13
312.7643314045641
 23
280.4178211507159
 33
0.0
  0
POINT
  5
29D
330
259
100
AcDbEntity
  8
DEFPOINTS
 62
     0
440
 16777216
100
AcDbPoint
 10
290.1513204471694
 20
416.1399820718948
 30
0.0
  0
POINT
  5
29E
330
259
100
AcDbEntity
  8
DEFPOINTS
 62
     0
440
 16777216
100
AcDbPoint
 10
296.6513204471693
 20
280.4178211507159
 30
0.0
  0
POINT
  5
29F
330
259
100
AcDbEntity
  8
DEFPOINTS
 62
     0
440
 16777216
100
AcDbPoint
 10
312.7643314045641
 20
280.4178211507159
 30
0.0
  0
ENDBLK
  5
25B
330
259
100
AcDbEntity
  8
0
100
AcDbBlockEnd
  0
BLOCK
  5
27F
330
27E
100
AcDbEntity
  8
0
100
AcDbBlockBegin
  2
*D11
 70
     1
 10
0.0
 20
0.0
 30
0.0
  3
*D11
  1

  0
LINE
  5
28C
330
27E
100
AcDbEntity
  8
BEMASSUNG
440
 16777216
370
    -2
100
AcDbLine
 10
287.1513204471695
 20
416.8399820718946
 30
0.0
 11
287.1513204471695
 21
424.9734340329871
 31
0.0
  0
LINE
  5
28D
330
27E
100
AcDbEntity
  8
BEMASSUNG
440
 16777216
370
    -2
100
AcDbLine
 10
293.1513204471691
 20
416.8399820718948
 30
0.0
 11
293.1513204471691
 21
424.9734340329871
 31
0.0
  0
LINE
  5
28E
330
27E
100
AcDbEntity
  8
BEMASSUNG
440
 16777216
370
    -2
100
AcDbLine
 10
281.9013204471695
 20
424.2234340329871
 30
0.0
 11
276.6513204471695
 21
424.2234340329871
 31
0.0
  0
LINE
  5
28F
330
27E
100
AcDbEntity
  8
BEMASSUNG
440
 16777216
370
    -2
100
AcDbLine
 10
298.4013204471691
 20
424.2234340329871
 30
0.0
 11
303.6513204471691
 21
424.2234340329871
 31
0.0
  0
LINE
  5
290
330
27E
100
AcDbEntity
  8
BEMASSUNG
440
 16777216
370
    -2
100
AcDbLine
 10
287.1513204471695
 20
424.2234340329871
 30
0.0
 11
293.1513204471691
 21
424.2234340329871
 31
0.0
  0
SOLID
  5
291
330
27E
100
AcDbEntity
  8
BEMASSUNG
440
 16777216
100
AcDbTrace
 10
281.9013204471695
 20
425.0984340329871
 30
0.0
 11
281.9013204471695
 21
423.3484340329871
 31
0.0
 12
287.1513204471695
 22
424.2234340329871
 32
0.0
 13
287.1513204471695
 23
424.2234340329871
 33
0.0
  0
SOLID
  5
292
330
27E
100
AcDbEntity
  8
BEMASSUNG
440
 16777216
100
AcDbTrace
 10
298.4013204471691
 20
425.0984340329871
 30
0.0
 11
298.4013204471691
 21
423.3484340329871
 31
0.0
 12
293.1513204471691
 22
424.2234340329871
 32
0.0
 13
293.1513204471691
 23
424.2234340329871
 33
0.0
  0
MTEXT
  5
293
330
27E
100
AcDbEntity
  8
BEMASSUNG
 62
     3
440
 16777216
100
AcDbMText
 10
290.1513204471693
 20
428.3484340329871
 30
0.0
 40
5.25
 41
0.0
 46
0.0
 71
     5
 72
     1
  1
\A1;M6
  7
NORM
 73
     1
 44
1.0
  0
POINT
  5
294
330
27E
100
AcDbEntity
  8
DEFPOINTS
 62
     0
440
 16777216
100
AcDbPoint
 10
287.1513204471695
 20
415.3399820718946
 30
0.0
  0
POINT
  5
295
330
27E
100
AcDbEntity
  8
DEFPOINTS
 62
     0
440
 16777216
100
AcDbPoint
 10
293.1513204471691
 20
415.3399820718948
 30
0.0
  0
POINT
  5
296
330
27E
100
AcDbEntity
  8
DEFPOINTS
 62
     0
440
 16777216
100
AcDbPoint
 10
293.1513204471691
 20
424.2234340329871
 30
0.0
  0
ENDBLK
  5
280
330
27E
100
AcDbEntity
  8
0
100
AcDbBlockEnd
  0
ENDSEC
  0
SECTION
  2
ENTITIES
  0
LINE
  5
3B
330
2
100
AcDbEntity
  8
UMRISS07
100
AcDbLine
 10
294.6513204471691
 20
386.1399820718945
 30
0.0
 11
294.6513204471691
 21
406.1399820718945
 31
0.0
  0
LINE
  5
3D
330
2
100
AcDbEntity
  8
UMRISS07
100
AcDbLine
 10
287.1513204471695
 20
415.3399820718948
 30
0.0
 11
293.1513204471691
 21
415.3399820718948
 31
0.0
  0
LINE
  5
3E
330
2
100
AcDbEntity
  8
UMRISS07
100
AcDbLine
 10
292.3513204471692
 20
416.1399820718948
 30
0.0
 11
293.1513204471691
 21
415.3399820718948
 31
0.0
  0
LINE
  5
3F
330
2
100
AcDbEntity
  8
UMRISS07
100
AcDbLine
 10
287.1513204471695
 20
415.3399820718948
 30
0.0
 11
287.9513204471695
 21
416.1399820718948
 31
0.0
  0
LINE
  5
40
330
2
100
AcDbEntity
  8
UMRISS02
100
AcDbLine
 10
292.3513204471689
 20
406.1399820718945
 30
0.0
 11
292.3513204471692
 21
416.1399820718948
 31
0.0
  0
LINE
  5
42
330
2
100
AcDbEntity
  8
UMRISS02
100
AcDbLine
 10
287.9513204471695
 20
416.1399820718948
 30
0.0
 11
287.9513204471695
 21
406.1399820718945
 31
0.0
  0
LINE
  5
43
330
2
100
AcDbEntity
  8
UMRISS07
100
AcDbLine
 10
295.1513204471691
 20
386.1399820718945
 30
0.0
 11
285.1513204471696
 21
386.1399820718945
 31
0.0
  0
LINE
  5
44
330
2
100
AcDbEntity
  8
UMRISS07
100
AcDbLine
 10
294.6513204471691
 20
406.1399820718945
 30
0.0
 11
285.6513204471696
 21
406.1399820718945
 31
0.0
  0
LINE
  5
45
330
2
100
AcDbEntity
  8
UMRISS07
100
AcDbLine
 10
293.1513204471691
 20
406.1399820718945
 30
0.0
 11
293.1513204471691
 21
415.3399820718948
 31
0.0
  0
LINE
  5
46
330
2
100
AcDbEntity
  8
UMRISS07
100
AcDbLine
 10
287.1513204471695
 20
415.3399820718948
 30
0.0
 11
287.1513204471695
 21
406.1399820718945
 31
0.0
  0
LINE
  5
47
330
2
100
AcDbEntity
  8
UMRISS07
100
AcDbLine
 10
292.3513204471692
 20
416.1399820718946
 30
0.0
 11
287.9513204471695
 21
416.1399820718948
 31
0.0
  0
LINE
  5
48
330
2
100
AcDbEntity
  8
UMRISS07
100
AcDbLine
 10
285.6513204471696
 20
406.1399820718945
 30
0.0
 11
285.6513204471693
 21
386.1399820718945
 31
0.0
  0
LINE
  5
49
330
2
100
AcDbEntity
  8
Sichtbare Kanten(MSL)
100
AcDbLine
 10
284.1513204471693
 20
318.6998178643142
 30
0.0
 11
283.6513204471692
 21
318.6998178643142
 31
0.0
  0
POLYLINE
  5
4B
330
2
100
AcDbEntity
  8
UMRISS07
100
AcDb2dPolyline
 66
     1
 10
0.0
 20
0.0
 30
0.0
 70
   128
  0
VERTEX
  5
4C
330
4B
100
AcDbEntity
  8
UMRISS07
100
AcDbVertex
100
AcDb2dVertex
 10
284.150842775546
 20
318.7018599853288
 30
0.0
  0
VERTEX
  5
4D
330
4B
100
AcDbEntity
  8
UMRISS07
100
AcDbVertex
100
AcDb2dVertex
 10
284.263888944827
 20
318.7310042724381
 30
0.0
  0
VERTEX
  5
4E
330
4B
100
AcDbEntity
  8
UMRISS07
100
AcDbVertex
100
AcDb2dVertex
 10
284.3728480236158
 20
318.764649902321
 30
0.0
  0
VERTEX
  5
4F
330
4B
100
AcDbEntity
  8
UMRISS07
100
AcDbVertex
100
AcDb2dVertex
 10
284.4762000934705
 20
318.8027205810318
 30
0.0
  0
VERTEX
  5
50
330
4B
100
AcDbEntity
  8
UMRISS07
100
AcDbVertex
100
AcDb2dVertex
 10
284.5783672229871
 20
318.8468947753678
 30
0.0
  0
VERTEX
  5
51
330
4B
100
AcDbEntity
  8
UMRISS07
100
AcDbVertex
100
AcDb2dVertex
 10
284.6814397470579
 20
318.8979354247818
 30
0.0
  0
VERTEX
  5
52
330
4B
100
AcDbEntity
  8
UMRISS07
100
AcDbVertex
100
AcDb2dVertex
 10
284.7839621202573
 20
318.954850707985
 30
0.0
  0
VERTEX
  5
53
330
4B
100
AcDbEntity
  8
UMRISS07
100
AcDbVertex
100
AcDb2dVertex
 10
284.884479989253
 20
319.0169539794693
 30
0.0
  0
VERTEX
  5
54
330
4B
100
AcDbEntity
  8
UMRISS07
100
AcDbVertex
100
AcDb2dVertex
 10
284.9815366165266
 20
319.0831771240007
 30
0.0
  0
VERTEX
  5
55
330
4B
100
AcDbEntity
  8
UMRISS07
100
AcDbVertex
100
AcDb2dVertex
 10
285.0736770526991
 20
319.1529097900164
 30
0.0
  0
VERTEX
  5
56
330
4B
100
AcDbEntity
  8
UMRISS07
100
AcDbVertex
100
AcDb2dVertex
 10
285.1594466464147
 20
319.2250838622819
 30
0.0
  0
VERTEX
  5
57
330
4B
100
AcDbEntity
  8
UMRISS07
100
AcDbVertex
100
AcDb2dVertex
 10
285.2390954391584
 20
319.300538574196
 30
0.0
  0
VERTEX
  5
58
330
4B
100
AcDbEntity
  8
UMRISS07
100
AcDbVertex
100
AcDb2dVertex
 10
285.3168958918677
 20
319.38331750486
 30
0.0
  0
VERTEX
  5
59
330
4B
100
AcDbEntity
  8
UMRISS07
100
AcDbVertex
100
AcDb2dVertex
 10
285.3920633093938
 20
319.4724288329851
 30
0.0
  0
VERTEX
  5
5A
330
4B
100
AcDbEntity
  8
UMRISS07
100
AcDbVertex
100
AcDb2dVertex
 10
285.4633769886121
 20
319.5662703857193
 30
0.0
  0
VERTEX
  5
5B
330
4B
100
AcDbEntity
  8
UMRISS07
100
AcDbVertex
100
AcDb2dVertex
 10
285.5296153323278
 20
319.6635451659929
 30
0.0
  0
VERTEX
  5
5C
330
4B
100
AcDbEntity
  8
UMRISS07
100
AcDbVertex
100
AcDb2dVertex
 10
285.5895573393926
 20
319.7626510009538
 30
0.0
  0
VERTEX
  5
5D
330
4B
100
AcDbEntity
  8
UMRISS07
100
AcDbVertex
100
AcDb2dVertex
 10
285.6419817106352
 20
319.8622908935318
 30
0.0
  0
VERTEX
  5
5E
330
4B
100
AcDbEntity
  8
UMRISS07
100
AcDbVertex
100
AcDb2dVertex
 10
285.6864250199422
 20
319.9625411376725
 30
0.0
  0
VERTEX
  5
5F
330
4B
100
AcDbEntity
  8
UMRISS07
100
AcDbVertex
100
AcDb2dVertex
 10
285.7252607242689
 20
320.0691237792741
 30
0.0
  0
VERTEX
  5
60
330
4B
100
AcDbEntity
  8
UMRISS07
100
AcDbVertex
100
AcDb2dVertex
 10
285.7582965986356
 20
320.1809707031022
 30
0.0
  0
VERTEX
  5
61
330
4B
100
AcDbEntity
  8
UMRISS07
100
AcDbVertex
100
AcDb2dVertex
 10
285.7849702732191
 20
320.2957167968522
 30
0.0
  0
VERTEX
  5
62
330
4B
100
AcDbEntity
  8
UMRISS07
100
AcDbVertex
100
AcDb2dVertex
 10
285.8047193781957
 20
320.4113021240007
 30
0.0
  0
VERTEX
  5
63
330
4B
100
AcDbEntity
  8
UMRISS07
100
AcDbVertex
100
AcDb2dVertex
 10
285.8169812457189
 20
320.5255141601335
 30
0.0
  0
VERTEX
  5
64
330
4B
100
AcDbEntity
  8
UMRISS07
100
AcDbVertex
100
AcDb2dVertex
 10
285.8211935059652
 20
320.6362929687271
 30
0.0
  0
SEQEND
  5
65
330
4B
100
AcDbEntity
  8
UMRISS07
  0
POLYLINE
  5
66
330
2
100
AcDbEntity
  8
UMRISS07
100
AcDb2dPolyline
 66
     1
 10
0.0
 20
0.0
 30
0.0
 70
   128
  0
VERTEX
  5
67
330
66
100
AcDbEntity
  8
UMRISS07
100
AcDbVertex
100
AcDb2dVertex
 10
294.4814473883734
 20
320.6362929687271
 30
0.0
  0
VERTEX
  5
68
330
66
100
AcDbEntity
  8
UMRISS07
100
AcDbVertex
100
AcDb2dVertex
 10
294.4856596486196
 20
320.5255141601335
 30
0.0
  0
VERTEX
  5
69
330
66
100
AcDbEntity
  8
UMRISS07
100
AcDbVertex
100
AcDb2dVertex
 10
294.4979215161428
 20
320.4113021240007
 30
0.0
  0
VERTEX
  5
6A
330
66
100
AcDbEntity
  8
UMRISS07
100
AcDbVertex
100
AcDb2dVertex
 10
294.5176706211195
 20
320.2957167968522
 30
0.0
  0
VERTEX
  5
6B
330
66
100
AcDbEntity
  8
UMRISS07
100
AcDbVertex
100
AcDb2dVertex
 10
294.5443442957028
 20
320.1809707031022
 30
0.0
  0
VERTEX
  5
6C
330
66
100
AcDbEntity
  8
UMRISS07
100
AcDbVertex
100
AcDb2dVertex
 10
294.5773801700696
 20
320.0691237792741
 30
0.0
  0
VERTEX
  5
6D
330
66
100
AcDbEntity
  8
UMRISS07
100
AcDbVertex
100
AcDb2dVertex
 10
294.6162158743963
 20
319.9625411376725
 30
0.0
  0
VERTEX
  5
6E
330
66
100
AcDbEntity
  8
UMRISS07
100
AcDbVertex
100
AcDb2dVertex
 10
294.6606591837034
 20
319.8622908935318
 30
0.0
  0
VERTEX
  5
6F
330
66
100
AcDbEntity
  8
UMRISS07
100
AcDbVertex
100
AcDb2dVertex
 10
294.7130835549458
 20
319.7626510009538
 30
0.0
  0
VERTEX
  5
70
330
66
100
AcDbEntity
  8
UMRISS07
100
AcDbVertex
100
AcDb2dVertex
 10
294.7730255620107
 20
319.6635451659929
 30
0.0
  0
VERTEX
  5
71
330
66
100
AcDbEntity
  8
UMRISS07
100
AcDbVertex
100
AcDb2dVertex
 10
294.8392639057264
 20
319.5662703857193
 30
0.0
  0
VERTEX
  5
72
330
66
100
AcDbEntity
  8
UMRISS07
100
AcDbVertex
100
AcDb2dVertex
 10
294.9105775849447
 20
319.4724288329851
 30
0.0
  0
VERTEX
  5
73
330
66
100
AcDbEntity
  8
UMRISS07
100
AcDbVertex
100
AcDb2dVertex
 10
294.9857450024709
 20
319.38331750486
 30
0.0
  0
VERTEX
  5
74
330
66
100
AcDbEntity
  8
UMRISS07
100
AcDbVertex
100
AcDb2dVertex
 10
295.0635454551801
 20
319.300538574196
 30
0.0
  0
VERTEX
  5
75
330
66
100
AcDbEntity
  8
UMRISS07
100
AcDbVertex
100
AcDb2dVertex
 10
295.1431942479238
 20
319.2250838622819
 30
0.0
  0
VERTEX
  5
76
330
66
100
AcDbEntity
  8
UMRISS07
100
AcDbVertex
100
AcDb2dVertex
 10
295.2289638416395
 20
319.1529097900164
 30
0.0
  0
VERTEX
  5
77
330
66
100
AcDbEntity
  8
UMRISS07
100
AcDbVertex
100
AcDb2dVertex
 10
295.321104277812
 20
319.0831771240007
 30
0.0
  0
VERTEX
  5
78
330
66
100
AcDbEntity
  8
UMRISS07
100
AcDbVertex
100
AcDb2dVertex
 10
295.4181609050855
 20
319.0169539794693
 30
0.0
  0
VERTEX
  5
79
330
66
100
AcDbEntity
  8
UMRISS07
100
AcDbVertex
100
AcDb2dVertex
 10
295.5186787740812
 20
318.954850707985
 30
0.0
  0
VERTEX
  5
7A
330
66
100
AcDbEntity
  8
UMRISS07
100
AcDbVertex
100
AcDb2dVertex
 10
295.6212011472807
 20
318.8979354247818
 30
0.0
  0
VERTEX
  5
7B
330
66
100
AcDbEntity
  8
UMRISS07
100
AcDbVertex
100
AcDb2dVertex
 10
295.7242736713514
 20
318.8468947753678
 30
0.0
  0
VERTEX
  5
7C
330
66
100
AcDbEntity
  8
UMRISS07
100
AcDbVertex
100
AcDb2dVertex
 10
295.826440800868
 20
318.8027205810318
 30
0.0
  0
VERTEX
  5
7D
330
66
100
AcDbEntity
  8
UMRISS07
100
AcDbVertex
100
AcDb2dVertex
 10
295.9297928707227
 20
318.764649902321
 30
0.0
  0
VERTEX
  5
7E
330
66
100
AcDbEntity
  8
UMRISS07
100
AcDbVertex
100
AcDb2dVertex
 10
296.0387519495115
 20
318.7310042724381
 30
0.0
  0
VERTEX
  5
7F
330
66
100
AcDbEntity
  8
UMRISS07
100
AcDbVertex
100
AcDb2dVertex
 10
296.1517981187925
 20
318.7018599853288
 30
0.0
  0
SEQEND
  5
80
330
66
100
AcDbEntity
  8
UMRISS07
  0
LINE
  5
81
330
2
100
AcDbEntity
  8
UMRISS07
100
AcDbLine
 10
296.6513204471693
 20
318.6998178643142
 30
0.0
 11
296.1513204471692
 21
318.6998178643142
 31
0.0
  0
ARC
  5
82
330
2
100
AcDbEntity
  8
UMRISS07
100
AcDbCircle
 10
283.1513204471693
 20
320.636309537418
 30
0.0
 40
2.0
100
AcDbArc
 50
284.4775121859299
 51
0.0
  0
ARC
  5
83
330
2
100
AcDbEntity
  8
UMRISS07
100
AcDbCircle
 10
297.1513204471693
 20
320.636309537418
 30
0.0
 40
2.0
100
AcDbArc
 50
180.0
 51
255.5224878140701
  0
LINE
  5
84
330
2
100
AcDbEntity
  8
UMRISS07
100
AcDbLine
 10
285.8211934282471
 20
320.6998178643145
 30
0.0
 11
285.8211934282471
 21
320.6363095374181
 31
0.0
  0
LINE
  5
85
330
2
100
AcDbEntity
  8
Sichtbare Kanten(MSL)
100
AcDbLine
 10
294.4814474660915
 20
320.6363095374181
 30
0.0
 11
294.4814474660915
 21
320.6998178643145
 31
0.0
  0
LINE
  5
86
330
2
100
AcDbEntity
  8
UMRISS07
100
AcDbLine
 10
296.6513204471693
 20
300.9276509628068
 30
0.0
 11
296.6513204471693
 21
280.417821150716
 31
0.0
  0
LINE
  5
87
330
2
100
AcDbEntity
  8
UMRISS07
100
AcDbLine
 10
284.1513204471693
 20
318.6998178643144
 30
0.0
 11
284.1513204471693
 21
302.9276490554581
 31
0.0
  0
LINE
  5
88
330
2
100
AcDbEntity
  8
UMRISS07
100
AcDbLine
 10
284.1513204471693
 20
280.417821150716
 30
0.0
 11
296.1513204471692
 21
280.417821150716
 31
0.0
  0
LINE
  5
89
330
2
100
AcDbEntity
  8
UMRISS07
100
AcDbLine
 10
296.1513204471692
 20
318.6998178643144
 30
0.0
 11
296.1513204471692
 21
302.9276490554581
 31
0.0
  0
LINE
  5
8A
330
2
100
AcDbEntity
  8
UMRISS07
100
AcDbLine
 10
283.6513204471692
 20
300.9276509628068
 30
0.0
 11
283.6513204471692
 21
280.417821150716
 31
0.0
  0
LINE
  5
8B
330
2
100
AcDbEntity
  8
UMRISS07
100
AcDbLine
 10
283.6513204471692
 20
318.6998178643144
 30
0.0
 11
283.6513204471692
 21
302.9276490554581
 31
0.0
  0
LINE
  5
8C
330
2
100
AcDbEntity
  8
UMRISS07
100
AcDbLine
 10
296.6513204471693
 20
318.6998178643144
 30
0.0
 11
296.6513204471693
 21
302.9276490554581
 31
0.0
  0
LINE
  5
8D
330
2
100
AcDbEntity
  8
UMRISS07
100
AcDbLine
 10
296.6513204471693
 20
280.4178211507159
 30
0.0
 11
296.1513204471692
 21
280.4178211507159
 31
0.0
  0
LINE
  5
8E
330
2
100
AcDbEntity
  8
UMRISS07
100
AcDbLine
 10
284.1513204471693
 20
300.9276509628068
 30
0.0
 11
284.1513204471693
 21
280.417821150716
 31
0.0
  0
LINE
  5
8F
330
2
100
AcDbEntity
  8
UMRISS07
100
AcDbLine
 10
296.1513204471692
 20
300.9276509628068
 30
0.0
 11
296.1513204471692
 21
280.417821150716
 31
0.0
  0
LINE
  5
90
330
2
100
AcDbEntity
  8
UMRISS07
100
AcDbLine
 10
284.1513204471693
 20
280.4178211507159
 30
0.0
 11
283.6513204471692
 21
280.4178211507159
 31
0.0
  0
POLYLINE
  5
91
330
2
100
AcDbEntity
  8
UMRISS07
100
AcDb2dPolyline
 66
     1
 10
0.0
 20
0.0
 30
0.0
 70
   128
  0
VERTEX
  5
92
330
91
100
AcDbEntity
  8
UMRISS07
100
AcDbVertex
100
AcDb2dVertex
 10
294.4814473883734
 20
320.6998458251725
 30
0.0
  0
VERTEX
  5
93
330
91
100
AcDbEntity
  8
UMRISS07
100
AcDbVertex
100
AcDb2dVertex
 10
294.4737929598913
 20
320.5486312255632
 30
0.0
  0
VERTEX
  5
94
330
91
100
AcDbEntity
  8
UMRISS07
100
AcDbVertex
100
AcDb2dVertex
 10
294.4517216579542
 20
320.3923049316178
 30
0.0
  0
VERTEX
  5
95
330
91
100
AcDbEntity
  8
UMRISS07
100
AcDbVertex
100
AcDb2dVertex
 10
294.4165727989301
 20
320.2367415771257
 30
0.0
  0
VERTEX
  5
96
330
91
100
AcDbEntity
  8
UMRISS07
100
AcDbVertex
100
AcDb2dVertex
 10
294.3696848051176
 20
320.087663207985
 30
0.0
  0
VERTEX
  5
97
330
91
100
AcDbEntity
  8
UMRISS07
100
AcDbVertex
100
AcDb2dVertex
 10
294.3119252221212
 20
319.9498763427507
 30
0.0
  0
VERTEX
  5
98
330
91
100
AcDbEntity
  8
UMRISS07
100
AcDbVertex
100
AcDb2dVertex
 10
294.2393264667615
 20
319.8143782958756
 30
0.0
  0
VERTEX
  5
99
330
91
100
AcDbEntity
  8
UMRISS07
100
AcDbVertex
100
AcDb2dVertex
 10
294.1532448427305
 20
319.68116906736
 30
0.0
  0
VERTEX
  5
9A
330
91
100
AcDbEntity
  8
UMRISS07
100
AcDbVertex
100
AcDb2dVertex
 10
294.0569380418882
 20
319.5540633544693
 30
0.0
  0
VERTEX
  5
9B
330
91
100
AcDbEntity
  8
UMRISS07
100
AcDbVertex
100
AcDb2dVertex
 10
293.9536640541181
 20
319.4373336181413
 30
0.0
  0
VERTEX
  5
9C
330
91
100
AcDbEntity
  8
UMRISS07
100
AcDbVertex
100
AcDb2dVertex
 10
293.845893193923
 20
319.3341079101335
 30
0.0
  0
VERTEX
  5
9D
330
91
100
AcDbEntity
  8
UMRISS07
100
AcDbVertex
100
AcDb2dVertex
 10
293.7270096437559
 20
319.2379012450944
 30
0.0
  0
VERTEX
  5
9E
330
91
100
AcDbEntity
  8
UMRISS07
100
AcDbVertex
100
AcDb2dVertex
 10
293.5974875585661
 20
319.1476455077897
 30
0.0
  0
VERTEX
  5
9F
330
91
100
AcDbEntity
  8
UMRISS07
100
AcDbVertex
100
AcDb2dVertex
 10
293.4608266250715
 20
319.0647902831803
 30
0.0
  0
VERTEX
  5
A0
330
91
100
AcDbEntity
  8
UMRISS07
100
AcDbVertex
100
AcDb2dVertex
 10
293.3205277220831
 20
318.9910903320085
 30
0.0
  0
VERTEX
  5
A1
330
91
100
AcDbEntity
  8
UMRISS07
100
AcDbVertex
100
AcDb2dVertex
 10
293.1800905363187
 20
318.927995239235
 30
0.0
  0
VERTEX
  5
A2
330
91
100
AcDbEntity
  8
UMRISS07
100
AcDbVertex
100
AcDb2dVertex
 10
293.0409610764608
 20
318.8763442382585
 30
0.0
  0
VERTEX
  5
A3
330
91
100
AcDbEntity
  8
UMRISS07
100
AcDbVertex
100
AcDb2dVertex
 10
292.89545004531
 20
318.8324752197039
 30
0.0
  0
VERTEX
  5
A4
330
91
100
AcDbEntity
  8
UMRISS07
100
AcDbVertex
100
AcDb2dVertex
 10
292.7439356343374
 20
318.7953963622819
 30
0.0
  0
VERTEX
  5
A5
330
91
100
AcDbEntity
  8
UMRISS07
100
AcDbVertex
100
AcDb2dVertex
 10
292.5882186488733
 20
318.7648787841569
 30
0.0
  0
VERTEX
  5
A6
330
91
100
AcDbEntity
  8
UMRISS07
100
AcDbVertex
100
AcDb2dVertex
 10
292.4301001922712
 20
318.7406173095475
 30
0.0
  0
VERTEX
  5
A7
330
91
100
AcDbEntity
  8
UMRISS07
100
AcDbVertex
100
AcDb2dVertex
 10
292.2713813678846
 20
318.7223067626725
 30
0.0
  0
VERTEX
  5
A8
330
91
100
AcDbEntity
  8
UMRISS07
100
AcDbVertex
100
AcDb2dVertex
 10
292.113863279067
 20
318.7096419677506
 30
0.0
  0
VERTEX
  5
A9
330
91
100
AcDbEntity
  8
UMRISS07
100
AcDbVertex
100
AcDb2dVertex
 10
291.9593467311487
 20
318.7022414550554
 30
0.0
  0
VERTEX
  5
AA
330
91
100
AcDbEntity
  8
UMRISS07
100
AcDbVertex
100
AcDb2dVertex
 10
291.8096328274831
 20
318.6998000488054
 30
0.0
  0
SEQEND
  5
AB
330
91
100
AcDbEntity
  8
UMRISS07
  0
POLYLINE
  5
AC
330
2
100
AcDbEntity
  8
UMRISS07
100
AcDb2dPolyline
 66
     1
 10
0.0
 20
0.0
 30
0.0
 70
   128
  0
VERTEX
  5
AD
330
AC
100
AcDbEntity
  8
UMRISS07
100
AcDbVertex
100
AcDb2dVertex
 10
288.4930080668554
 20
318.6998000488054
 30
0.0
  0
VERTEX
  5
AE
330
AC
100
AcDbEntity
  8
UMRISS07
100
AcDbVertex
100
AcDb2dVertex
 10
288.3432941631899
 20
318.7022414550554
 30
0.0
  0
VERTEX
  5
AF
330
AC
100
AcDbEntity
  8
UMRISS07
100
AcDbVertex
100
AcDb2dVertex
 10
288.1887776152715
 20
318.7096419677506
 30
0.0
  0
VERTEX
  5
B0
330
AC
100
AcDbEntity
  8
UMRISS07
100
AcDbVertex
100
AcDb2dVertex
 10
288.0312595264539
 20
318.7223067626725
 30
0.0
  0
VERTEX
  5
B1
330
AC
100
AcDbEntity
  8
UMRISS07
100
AcDbVertex
100
AcDb2dVertex
 10
287.8725407020673
 20
318.7406173095475
 30
0.0
  0
VERTEX
  5
B2
330
AC
100
AcDbEntity
  8
UMRISS07
100
AcDbVertex
100
AcDb2dVertex
 10
287.7144222454652
 20
318.7648787841569
 30
0.0
  0
VERTEX
  5
B3
330
AC
100
AcDbEntity
  8
UMRISS07
100
AcDbVertex
100
AcDb2dVertex
 10
287.5587052600011
 20
318.7953963622819
 30
0.0
  0
VERTEX
  5
B4
330
AC
100
AcDbEntity
  8
UMRISS07
100
AcDbVertex
100
AcDb2dVertex
 10
287.4071908490286
 20
318.8324752197039
 30
0.0
  0
VERTEX
  5
B5
330
AC
100
AcDbEntity
  8
UMRISS07
100
AcDbVertex
100
AcDb2dVertex
 10
287.2616798178778
 20
318.8763442382585
 30
0.0
  0
VERTEX
  5
B6
330
AC
100
AcDbEntity
  8
UMRISS07
100
AcDbVertex
100
AcDb2dVertex
 10
287.1225503580198
 20
318.927995239235
 30
0.0
  0
VERTEX
  5
B7
330
AC
100
AcDbEntity
  8
UMRISS07
100
AcDbVertex
100
AcDb2dVertex
 10
286.9821131722556
 20
318.9910903320085
 30
0.0
  0
VERTEX
  5
B8
330
AC
100
AcDbEntity
  8
UMRISS07
100
AcDbVertex
100
AcDb2dVertex
 10
286.8418142692671
 20
319.0647902831803
 30
0.0
  0
VERTEX
  5
B9
330
AC
100
AcDbEntity
  8
UMRISS07
100
AcDbVertex
100
AcDb2dVertex
 10
286.7051533357726
 20
319.1476455077897
 30
0.0
  0
VERTEX
  5
BA
330
AC
100
AcDbEntity
  8
UMRISS07
100
AcDbVertex
100
AcDb2dVertex
 10
286.5756312505827
 20
319.2379012450944
 30
0.0
  0
VERTEX
  5
BB
330
AC
100
AcDbEntity
  8
UMRISS07
100
AcDbVertex
100
AcDb2dVertex
 10
286.4567477004156
 20
319.3341079101335
 30
0.0
  0
VERTEX
  5
BC
330
AC
100
AcDbEntity
  8
UMRISS07
100
AcDbVertex
100
AcDb2dVertex
 10
286.3489768402203
 20
319.4373336181413
 30
0.0
  0
VERTEX
  5
BD
330
AC
100
AcDbEntity
  8
UMRISS07
100
AcDbVertex
100
AcDb2dVertex
 10
286.2457028524503
 20
319.5540633544693
 30
0.0
  0
VERTEX
  5
BE
330
AC
100
AcDbEntity
  8
UMRISS07
100
AcDbVertex
100
AcDb2dVertex
 10
286.1493960516081
 20
319.68116906736
 30
0.0
  0
VERTEX
  5
BF
330
AC
100
AcDbEntity
  8
UMRISS07
100
AcDbVertex
100
AcDb2dVertex
 10
286.063314427577
 20
319.8143782958756
 30
0.0
  0
VERTEX
  5
C0
330
AC
100
AcDbEntity
  8
UMRISS07
100
AcDbVertex
100
AcDb2dVertex
 10
285.9907156722173
 20
319.9498763427507
 30
0.0
  0
VERTEX
  5
C1
330
AC
100
AcDbEntity
  8
UMRISS07
100
AcDbVertex
100
AcDb2dVertex
 10
285.932956089221
 20
320.087663207985
 30
0.0
  0
VERTEX
  5
C2
330
AC
100
AcDbEntity
  8
UMRISS07
100
AcDbVertex
100
AcDb2dVertex
 10
285.8860680954084
 20
320.2367415771257
 30
0.0
  0
VERTEX
  5
C3
330
AC
100
AcDbEntity
  8
UMRISS07
100
AcDbVertex
100
AcDb2dVertex
 10
285.8509192363844
 20
320.3923049316178
 30
0.0
  0
VERTEX
  5
C4
330
AC
100
AcDbEntity
  8
UMRISS07
100
AcDbVertex
100
AcDb2dVertex
 10
285.8288479344473
 20
320.5486312255632
 30
0.0
  0
VERTEX
  5
C5
330
AC
100
AcDbEntity
  8
UMRISS07
100
AcDbVertex
100
AcDb2dVertex
 10
285.8211935059652
 20
320.6998458251725
 30
0.0
  0
SEQEND
  5
C6
330
AC
100
AcDbEntity
  8
UMRISS07
  0
LINE
  5
C7
330
2
100
AcDbEntity
  8
UMRISS07
100
AcDbLine
 10
291.8096328423469
 20
318.6998178643142
 30
0.0
 11
288.4930080519915
 21
318.6998178643142
 31
0.0
  0
LINE
  5
C8
330
2
100
AcDbEntity
  8
UMRISS07
100
AcDbLine
 10
285.1513204471693
 20
320.6363095374181
 30
0.0
 11
285.1513204471693
 21
351.6707506455948
 31
0.0
  0
LINE
  5
C9
330
2
100
AcDbEntity
  8
UMRISS07
100
AcDbLine
 10
295.1513204471693
 20
320.6363095374181
 30
0.0
 11
295.1513204471693
 21
351.6707506455948
 31
0.0
  0
LINE
  5
CA
330
2
100
AcDbEntity
  8
UMRISS07
100
AcDbLine
 10
285.1513204471693
 20
353.6707487382458
 30
0.0
 11
285.1513204471693
 21
386.1399820718945
 31
0.0
  0
LINE
  5
CB
330
2
100
AcDbEntity
  8
UMRISS07
100
AcDbLine
 10
295.1513204471693
 20
353.6707487382458
 30
0.0
 11
295.1513204471693
 21
386.1399820718945
 31
0.0
  0
POLYLINE
  5
CC
330
2
100
AcDbEntity
  8
Bruchlinien(MSL)
100
AcDb2dPolyline
 66
     1
 10
0.0
 20
0.0
 30
0.0
 70
   128
  0
VERTEX
  5
CE
330
CC
100
AcDbEntity
  8
Bruchlinien(MSL)
100
AcDbVertex
100
AcDb2dVertex
 10
281.976320494853
 20
353.6707485065232
 30
0.0
  0
VERTEX
  5
CF
330
CC
100
AcDbEntity
  8
Bruchlinien(MSL)
100
AcDbVertex
100
AcDb2dVertex
 10
289.7286707283482
 20
353.6707485065232
 30
0.0
  0
VERTEX
  5
D0
330
CC
100
AcDbEntity
  8
Bruchlinien(MSL)
100
AcDbVertex
100
AcDb2dVertex
 10
289.8626452991292
 20
354.1707504138718
 30
0.0
  0
VERTEX
  5
D1
330
CC
100
AcDbEntity
  8
Bruchlinien(MSL)
100
AcDbVertex
100
AcDb2dVertex
 10
290.4399955952093
 20
353.1707516655694
 30
0.0
  0
VERTEX
  5
D2
330
CC
100
AcDbEntity
  8
Bruchlinien(MSL)
100
AcDbVertex
100
AcDb2dVertex
 10
290.5739701659903
 20
353.6707485065232
 30
0.0
  0
VERTEX
  5
D3
330
CC
100
AcDbEntity
  8
Bruchlinien(MSL)
100
AcDbVertex
100
AcDb2dVertex
 10
298.3263203994856
 20
353.6707485065232
 30
0.0
  0
SEQEND
  5
D4
330
CC
100
AcDbEntity
  8
Bruchlinien(MSL)
  0
POLYLINE
  5
D5
330
2
100
AcDbEntity
  8
Bruchlinien(MSL)
100
AcDb2dPolyline
 66
     1
 10
0.0
 20
0.0
 30
0.0
 70
   128
  0
VERTEX
  5
D6
330
D5
100
AcDbEntity
  8
Bruchlinien(MSL)
100
AcDbVertex
100
AcDb2dVertex
 10
281.976320494853
 20
351.6707507118951
 30
0.0
  0
VERTEX
  5
D7
330
D5
100
AcDbEntity
  8
Bruchlinien(MSL)
100
AcDbVertex
100
AcDb2dVertex
 10
289.7286707283482
 20
351.6707507118951
 30
0.0
  0
VERTEX
  5
D8
330
D5
100
AcDbEntity
  8
Bruchlinien(MSL)
100
AcDbVertex
100
AcDb2dVertex
 10
289.8626452991292
 20
352.1707478508721
 30
0.0
  0
VERTEX
  5
D9
330
D5
100
AcDbEntity
  8
Bruchlinien(MSL)
100
AcDbVertex
100
AcDb2dVertex
 10
290.4399955952093
 20
351.1707488045463
 30
0.0
  0
VERTEX
  5
DA
330
D5
100
AcDbEntity
  8
Bruchlinien(MSL)
100
AcDbVertex
100
AcDb2dVertex
 10
290.5739701659903
 20
351.6707507118951
 30
0.0
  0
VERTEX
  5
DB
330
D5
100
AcDbEntity
  8
Bruchlinien(MSL)
100
AcDbVertex
100
AcDb2dVertex
 10
298.3263203994856
 20
351.6707507118951
 30
0.0
  0
SEQEND
  5
DC
330
D5
100
AcDbEntity
  8
Bruchlinien(MSL)
  0
POLYLINE
  5
DD
330
2
100
AcDbEntity
  8
Bruchlinien(MSL)
100
AcDb2dPolyline
 66
     1
 10
0.0
 20
0.0
 30
0.0
 70
   128
  0
VERTEX
  5
DE
330
DD
100
AcDbEntity
  8
Bruchlinien(MSL)
100
AcDbVertex
100
AcDb2dVertex
 10
280.4763207332716
 20
300.9276509628068
 30
0.0
  0
VERTEX
  5
DF
330
DD
100
AcDbEntity
  8
Bruchlinien(MSL)
100
AcDbVertex
100
AcDb2dVertex
 10
289.7286707283482
 20
300.9276509628068
 30
0.0
  0
VERTEX
  5
E0
330
DD
100
AcDbEntity
  8
Bruchlinien(MSL)
100
AcDbVertex
100
AcDb2dVertex
 10
289.8626452991292
 20
301.4276528701554
 30
0.0
  0
VERTEX
  5
E1
330
DD
100
AcDbEntity
  8
Bruchlinien(MSL)
100
AcDbVertex
100
AcDb2dVertex
 10
290.4399955952093
 20
300.4276490554581
 30
0.0
  0
VERTEX
  5
E2
330
DD
100
AcDbEntity
  8
Bruchlinien(MSL)
100
AcDbVertex
100
AcDb2dVertex
 10
290.5739701659903
 20
300.9276509628068
 30
0.0
  0
VERTEX
  5
E3
330
DD
100
AcDbEntity
  8
Bruchlinien(MSL)
100
AcDbVertex
100
AcDb2dVertex
 10
299.826320161067
 20
300.9276509628068
 30
0.0
  0
SEQEND
  5
E4
330
DD
100
AcDbEntity
  8
Bruchlinien(MSL)
  0
POLYLINE
  5
E5
330
2
100
AcDbEntity
  8
Bruchlinien(MSL)
100
AcDb2dPolyline
 66
     1
 10
0.0
 20
0.0
 30
0.0
 70
   128
  0
VERTEX
  5
E6
330
E5
100
AcDbEntity
  8
Bruchlinien(MSL)
100
AcDbVertex
100
AcDb2dVertex
 10
280.4763207332716
 20
302.9276490554581
 30
0.0
  0
VERTEX
  5
E7
330
E5
100
AcDbEntity
  8
Bruchlinien(MSL)
100
AcDbVertex
100
AcDb2dVertex
 10
289.7286707283482
 20
302.9276490554581
 30
0.0
  0
VERTEX
  5
E8
330
E5
100
AcDbEntity
  8
Bruchlinien(MSL)
100
AcDbVertex
100
AcDb2dVertex
 10
289.8626452991292
 20
303.4276509628067
 30
0.0
  0
VERTEX
  5
E9
330
E5
100
AcDbEntity
  8
Bruchlinien(MSL)
100
AcDbVertex
100
AcDb2dVertex
 10
290.4399955952093
 20
302.4276519164811
 30
0.0
  0
VERTEX
  5
EA
330
E5
100
AcDbEntity
  8
Bruchlinien(MSL)
100
AcDbVertex
100
AcDb2dVertex
 10
290.5739701659903
 20
302.9276490554581
 30
0.0
  0
VERTEX
  5
EB
330
E5
100
AcDbEntity
  8
Bruchlinien(MSL)
100
AcDbVertex
100
AcDb2dVertex
 10
299.826320161067
 20
302.9276490554581
 30
0.0
  0
SEQEND
  5
EC
330
E5
100
AcDbEntity
  8
Bruchlinien(MSL)
  0
DIMENSION
  5
ED
330
2
100
AcDbEntity
  8
BEMASSUNG
100
AcDbDimension
280
     0
  2
*D1
 10
273.9283355965712
 20
318.6998178643144
 30
0.0
 11
269.1895975146633
 21
299.0198153070068
 31
0.0
 70
   128
  1
140
 71
     5
 42
38.28199671359853
 73
     0
 74
     0
 75
     0
  3
PROSPEKT
100
AcDbAlignedDimension
 13
283.6513204471692
 23
280.4178211507159
 33
0.0
 14
290.1513204471693
 24
318.6998178643144
 34
0.0
 50
270.0
100
AcDbRotatedDimension
  0
DIMENSION
  5
FB
330
2
100
AcDbEntity
  8
BEMASSUNG
100
AcDbDimension
280
     0
  2
*D9
 10
312.7643314045641
 20
280.4178211507159
 30
0.0
 11
307.7330453228534
 21
342.5367853527967
 31
0.0
 70
   160
  1
L
 71
     5
 42
135.7221609211789
 73
     0
 74
     0
 75
     0
  3
PROSPEKT
100
AcDbAlignedDimension
 13
290.1513204471694
 23
416.1399820718948
 33
0.0
 14
296.6513204471693
 24
280.4178211507159
 34
0.0
 50
90.0
100
AcDbRotatedDimension
1001
ACAD_DSTYLE_DIMINSPECT
1070
   396
1000
100%
1070
   395
1000

1070
   394
1070
    33
1070
   393
1070
     0
  0
LINE
  5
108
330
2
100
AcDbEntity
  8
Mittellinie(MSL)
  6
CHAIN
 48
23.99096870422363
100
AcDbLine
 10
290.1513204471693
 20
419.5942058338109
 30
0.0
 11
290.1513204471693
 21
277.7424703354176
 31
0.0
  0
ARC
  5
10B
330
2
100
AcDbEntity
  8
UMRISS07
100
AcDbCircle
 10
290.1513204471693
 20
260.9659230726805
 30
0.0
 40
6.499999999999986
100
AcDbArc
 50
157.3801350519591
 51
202.6198649480409
  0
LINE
  5
10C
330
2
100
AcDbEntity
  8
UMRISS07
100
AcDbLine
 10
284.1513204471693
 20
258.4659230726805
 30
0.0
 11
296.1513204471692
 21
258.4659230726805
 31
0.0
  0
ARC
  5
10D
330
2
100
AcDbEntity
  8
UMRISS07
100
AcDbCircle
 10
290.1513204471693
 20
260.9659230726805
 30
0.0
 40
6.499999999999986
100
AcDbArc
 50
337.3801350519591
 51
22.61986494804093
  0
LINE
  5
10E
330
2
100
AcDbEntity
  8
UMRISS07
100
AcDbLine
 10
296.1513204471692
 20
263.4659230726805
 30
0.0
 11
284.1513204471693
 21
263.4659230726805
 31
0.0
  0
HATCH
  5
10F
330
2
100
AcDbEntity
  8
UMRISS02
100
AcDbHatch
 10
0.0
 20
0.0
 30
0.0
210
0.0
220
0.0
230
1.0
  2
ANSI31
 70
     0
 71
     0
 91
        1
 92
        1
 93
        4
 72
     1
 10
296.1513204471692
 20
263.4659230726805
 11
284.1513204471693
 21
263.4659230726805
 72
     3
 10
290.1513204471693
 20
260.9659230726805
 11
-5.999999999999992
 21
2.5
 40
1.0
 50
0.0
 51
45.23972989608088
 73
     1
 72
     1
 10
284.1513204471693
 20
258.4659230726805
 11
296.1513204471692
 21
258.4659230726805
 72
     3
 10
290.1513204471693
 20
260.9659230726805
 11
5.999999999999992
 21
-2.5
 40
1.0
 50
0.0
 51
45.23972989608088
 73
     1
 97
        0
 75
     0
 76
     1
 52
0.0
 41
25.4
 77
     0
 78
     1
 53
45.0
 43
148.6357697878695
 44
163.3383843707328
 45
-2.245064030267287
 46
2.245064030267287
 79
     0
 98
        1
 10
148.6357697878695
 20
163.3383843707328
  0
DIMENSION
  5
110
330
2
100
AcDbEntity
  8
BEMASSUNG
100
AcDbDimension
280
     0
  2
*D2
 10
273.9283355965712
 20
258.4659230726805
 30
0.0
 11
269.0967857400581
 21
261.0051570014491
 31
0.0
 70
   128
  1
<>
 71
     5
 42
5.0
 73
     0
 74
     0
 75
     0
  3
PROSPEKT
100
AcDbAlignedDimension
 13
284.1513204471693
 23
263.4659230726805
 33
0.0
 14
284.1513204471693
 24
258.4659230726805
 34
0.0
 50
90.0
100
AcDbRotatedDimension
  0
DIMENSION
  5
11F
330
2
100
AcDbEntity
  8
BEMASSUNG
100
AcDbDimension
280
     0
  2
*D11
 10
293.1513204471691
 20
424.2234340329871
 30
0.0
 11
290.1513204471693
 21
428.3484340329871
 31
0.0
 70
    32
  1
M<>
 71
     5
 42
5.999999999999602
 73
     0
 74
     0
 75
     0
  3
PROSPEKT
100
AcDbAlignedDimension
 13
287.1513204471695
 23
415.3399820718946
 33
0.0
 14
293.1513204471691
 24
415.3399820718948
 34
0.0
100
AcDbRotatedDimension
  0
LINE
  5
12E
330
2
100
AcDbEntity
  8
Mittellinie(MSL)
  6
CHAIN
 48
23.99096870422363
100
AcDbLine
 10
290.1513204471693
 20
265.2438498694166
 30
0.0
 11
290.1513204471693
 21
256.3966933752821
 31
0.0
  0
DIMENSION
  5
12F
330
2
100
AcDbEntity
  8
BEMASSUNG
100
AcDbDimension
280
     0
  2
*D3
 10
296.6513204471693
 20
246.8556838862109
 30
0.0
 11
290.1513204471693
 21
250.980683886211
 31
0.0
  1
ø<>
 71
     5
 42
13.0
 73
     0
 74
     0
 75
     0
  3
PROSPEKT
100
AcDbAlignedDimension
 13
283.6513204471692
 23
260.9659230726805
 33
0.0
 14
296.6513204471693
 24
260.9659230726805
 34
0.0
100
AcDbRotatedDimension
  0
ENDSEC
  0
SECTION
  2
OBJECTS
  0
DICTIONARY
  5
7
330
0
100
AcDbDictionary
281
     1
  3
ACAD_CIP_PREVIOUS_PRODUCT_INFO
350
1F9
  3
ACAD_COLOR
350
35
  3
ACAD_DETAILVIEWSTYLE
350
1F0
  3
ACAD_FIELDLIST
350
244
  3
ACAD_GROUP
350
31
  3
ACAD_LAYOUT
350
B
  3
ACAD_MATERIAL
350
34
  3
ACAD_MLEADERSTYLE
350
1EC
  3
ACAD_MLINESTYLE
350
32
  3
ACAD_PLOTSETTINGS
350
33
  3
ACAD_PLOTSTYLENAME
350
6
  3
ACAD_SCALELIST
350
1DA
  3
ACAD_SECTIONVIEWSTYLE
350
1EE
  3
ACAD_TABLESTYLE
350
36
  3
ACAD_VISUALSTYLE
350
1C1
  3
ACDB_RECOMPOSE_DATA
350
2DD
  3
AcDbVariableDictionary
350
1A5
  3
AcmDictionary
350
14E
  3
AMG
350
13F
  3
AMGSNAPSETTINGS
350
26F
  0
DICTIONARY
  5
2C1
330
4
100
AcDbDictionary
280
     1
281
     1
  3
ADSK_XREC_LAYER_RECONCILED
360
2C2
  0
DICTIONARY
  5
2C3
330
41
100
AcDbDictionary
280
     1
281
     1
  3
ADSK_XREC_LAYER_RECONCILED
360
2C4
  0
DICTIONARY
  5
2C5
330
3C
100
AcDbDictionary
280
     1
281
     1
  3
ADSK_XREC_LAYER_RECONCILED
360
2C6
  0
DICTIONARY
  5
2C7
330
37
100
AcDbDictionary
280
     1
281
     1
  3
ADSK_XREC_LAYER_RECONCILED
360
2C8
  0
DICTIONARY
  5
2C9
330
CD
100
AcDbDictionary
280
     1
281
     1
  3
ADSK_XREC_LAYER_RECONCILED
360
2CA
  0
DICTIONARY
  5
2CB
330
109
100
AcDbDictionary
280
     1
281
     1
  3
ADSK_XREC_LAYER_RECONCILED
360
2CC
  0
DICTIONARY
  5
2CD
330
4A
100
AcDbDictionary
280
     1
281
     1
  3
ADSK_XREC_LAYER_RECONCILED
360
2CE
  0
XRECORD
  5
1F9
102
{ACAD_REACTORS
330
7
102
}
330
7
100
AcDbXrecord
280
     1
300
AMECH_PP
300
2014
300
PDSU_F_S
  0
DICTIONARY
  5
35
102
{ACAD_REACTORS
330
7
102
}
330
7
100
AcDbDictionary
281
     1
  0
DICTIONARY
  5
1F0
102
{ACAD_REACTORS
330
7
102
}
330
7
100
AcDbDictionary
281
     1
  3
Metric50
350
1F1
  0
FIELDLIST
  5
244
102
{ACAD_REACTORS
330
7
102
}
330
7
100
AcDbIdSet
 90
        6
330
242
330
243
330
245
330
24D
330
24E
330
24F
100
AcDbFieldList
  0
DICTIONARY
  5
31
102
{ACAD_REACTORS
330
7
102
}
330
7
100
AcDbDictionary
281
     1
  0
DICTIONARY
  5
B
102
{ACAD_REACTORS
330
7
102
}
330
7
100
AcDbDictionary
281
     1
  3
Layout1
350
F
  3
Model
350
A
  0
DICTIONARY
  5
34
102
{ACAD_REACTORS
330
7
102
}
330
7
100
AcDbDictionary
281
     1
  3
ByBlock
350
1B1
  3
ByLayer
350
1A9
  3
Global
350
1B9
  0
DICTIONARY
  5
1EC
102
{ACAD_REACTORS
330
7
102
}
330
7
100
AcDbDictionary
281
     1
  3
Standard
350
1ED
  0
DICTIONARY
  5
32
102
{ACAD_REACTORS
330
7
102
}
330
7
100
AcDbDictionary
281
     1
  3
STANDARD
350
39
  0
DICTIONARY
  5
33
102
{ACAD_REACTORS
330
7
102
}
330
7
100
AcDbDictionary
281
     1
  0
ACDBDICTIONARYWDFLT
  5
6
102
{ACAD_REACTORS
330
7
102
}
330
7
100
AcDbDictionary
281
     1
  3
Normal
350
5
100
AcDbDictionaryWithDefault
340
5
  0
DICTIONARY
  5
1DA
102
{ACAD_REACTORS
330
7
102
}
330
7
100
AcDbDictionary
281
     1
  3
A0
350
1DB
  3
A1
350
1DC
  3
A2
350
1DD
  3
A3
350
1DE
  3
A4
350
1DF
  3
A5
350
1E0
  3
A6
350
1E1
  3
A7
350
1E2
  3
A8
350
1E3
  3
A9
350
1E4
  3
B0
350
1E5
  3
B1
350
1E6
  3
B2
350
1E7
  3
B3
350
1E8
  3
B4
350
1E9
  3
B5
350
1EA
  3
B6
350
1EB
  0
DICTIONARY
  5
1EE
102
{ACAD_REACTORS
330
7
102
}
330
7
100
AcDbDictionary
281
     1
  3
Metric50
350
1EF
  0
DICTIONARY
  5
36
102
{ACAD_REACTORS
330
7
102
}
330
7
100
AcDbDictionary
281
     1
  3
Standard
350
3A
  0
DICTIONARY
  5
1C1
102
{ACAD_REACTORS
330
7
102
}
330
7
100
AcDbDictionary
281
     1
  3
2dWireframe
350
1C7
  3
Basic
350
1C6
  3
Brighten
350
1CD
  3
ColorChange
350
1D1
  3
Conceptual
350
1CA
  3
Dim
350
1CC
  3
EdgeColorOff
350
1D9
  3
Facepattern
350
1D0
  3
Flat
350
1C2
  3
FlatWithEdges
350
1C3
  3
Gouraud
350
1C4
  3
GouraudWithEdges
350
1C5
  3
Hidden
350
1C9
  3
JitterOff
350
1D7
  3
Linepattern
350
1CF
  3
OverhangOff
350
1D8
  3
Realistic
350
1CB
  3
Shaded
350
1D6
  3
Shaded with edges
350
1D5
  3
Shades of Gray
350
1D2
  3
Sketchy
350
1D3
  3
Thicken
350
1CE
  3
Wireframe
350
1C8
  3
X-Ray
350
1D4
  0
XRECORD
  5
2DD
102
{ACAD_REACTORS
330
7
102
}
330
7
100
AcDbXrecord
280
     1
 90
        1
330
3A
330
1EF
330
1F1
  0
DICTIONARY
  5
1A5
102
{ACAD_REACTORS
330
7
102
}
330
7
100
AcDbDictionary
281
     1
  3
CANNOSCALE
350
2D3
  3
CMLEADERSTYLE
350
2CF
  3
CTABLESTYLE
350
1A6
  3
CVIEWDETAILSTYLE
350
2D0
  3
CVIEWSECTIONSTYLE
350
2D1
  3
LAYEREVAL
350
2D5
  3
LAYERNOTIFY
350
2D6
  3
LIGHTINGUNITS
350
2D4
  3
MSLTSCALE
350
2D2
  0
DICTIONARY
  5
14E
102
{ACAD_REACTORS
330
7
102
}
330
7
100
AcDbDictionary
281
     1
  3
AcmStdDictionary
350
14F
  0
DICTIONARY
  5
13F
102
{ACAD_REACTORS
330
7
102
}
330
7
100
AcDbDictionary
281
     1
  0
DICTIONARY
  5
26F
102
{ACAD_REACTORS
330
7
102
}
330
7
100
AcDbDictionary
281
     1
  0
XRECORD
  5
2C2
102
{ACAD_REACTORS
330
2C1
102
}
330
2C1
100
AcDbXrecord
280
     1
290
     1
  0
XRECORD
  5
2C4
102
{ACAD_REACTORS
330
2C3
102
}
330
2C3
100
AcDbXrecord
280
     1
290
     1
  0
XRECORD
  5
2C6
102
{ACAD_REACTORS
330
2C5
102
}
330
2C5
100
AcDbXrecord
280
     1
290
     1
  0
XRECORD
  5
2C8
102
{ACAD_REACTORS
330
2C7
102
}
330
2C7
100
AcDbXrecord
280
     1
290
     1
  0
XRECORD
  5
2CA
102
{ACAD_REACTORS
330
2C9
102
}
330
2C9
100
AcDbXrecord
280
     1
290
     1
  0
XRECORD
  5
2CC
102
{ACAD_REACTORS
330
2CB
102
}
330
2CB
100
AcDbXrecord
280
     1
290
     1
  0
XRECORD
  5
2CE
102
{ACAD_REACTORS
330
2CD
102
}
330
2CD
100
AcDbXrecord
280
     1
290
     1
  0
ACDBDETAILVIEWSTYLE
  5
1F1
102
{ACAD_XDICTIONARY
360
2DB
102
}
102
{ACAD_REACTORS
330
1F0
330
23E
102
}
330
1F0
100
AcDbModelDocViewStyle
 70
     0
  3
Metric50
290
     0
100
AcDbDetailViewStyle
 70
     0
 71
     0
 90
        3
 71
     1
340
12
 62
   256
 40
5.0
340
0
 62
   256
 40
5.0
300

 40
0.0
280
     1
 71
     2
340
8
 90
       25
 62
   256
 71
     3
340
12
 62
   256
 40
5.0
 90
        0
 40
15.0
 90
        1
300
%<\AcVar ViewDetailId>% (%<\AcVar ViewScale \f "%sn">%)
 71
     4
340
8
 90
       25
 62
   256
340
8
 90
       25
 62
   256
280
     0
  0
LAYOUT
  5
F
102
{ACAD_REACTORS
330
B
102
}
330
B
100
AcDbPlotSettings
  1

  2
\\mslklsv1\MSLKLP05
  4

  6

 40
0.0
 41
0.0
 42
0.0
 43
0.0
 44
0.0
 45
0.0
 46
0.0
 47
0.0
 48
0.0
 49
0.0
140
0.0
141
0.0
142
1.0
143
1.0
 70
   688
 72
     0
 73
     0
 74
     5
  7
monochrome.ctb
 75
    16
147
1.0
 76
     0
 77
     2
 78
   300
148
0.0
149
0.0
100
AcDbLayout
  1
Layout1
 70
     1
 71
     1
 10
0.0
 20
0.0
 11
12.0
 21
9.0
 12
0.0
 22
0.0
 32
0.0
 14
1.000000000000000E+20
 24
1.000000000000000E+20
 34
1.000000000000000E+20
 15
-1.000000000000000E+20
 25
-1.000000000000000E+20
 35
-1.000000000000000E+20
146
0.0
 13
0.0
 23
0.0
 33
0.0
 16
1.0
 26
0.0
 36
0.0
 17
0.0
 27
1.0
 37
0.0
 76
     0
330
C
  0
LAYOUT
  5
A
102
{ACAD_REACTORS
330
B
102
}
330
B
100
AcDbPlotSettings
  1

  2
\\mslklsv1\MSLKLP05
  4

  6

 40
0.0
 41
0.0
 42
0.0
 43
0.0
 44
0.0
 45
0.0
 46
0.0
 47
0.0
 48
0.0
 49
0.0
140
0.0
141
0.0
142
1.0
143
1.0
 70
  1712
 72
     0
 73
     0
 74
     0
  7
monochrome.ctb
 75
     0
147
1.0
 76
     0
 77
     2
 78
   300
148
0.0
149
0.0
100
AcDbLayout
  1
Model
 70
     1
 71
     0
 10
0.0
 20
0.0
 11
12.0
 21
9.0
 12
0.0
 22
0.0
 32
0.0
 14
0.0
 24
0.0
 34
0.0
 15
0.0
 25
0.0
 35
0.0
146
0.0
 13
0.0
 23
0.0
 33
0.0
 16
1.0
 26
0.0
 36
0.0
 17
0.0
 27
1.0
 37
0.0
 76
     0
330
2
331
1A
  0
MATERIAL
  5
1B1
102
{ACAD_XDICTIONARY
360
1B2
102
}
102
{ACAD_REACTORS
330
34
102
}
330
34
100
AcDbMaterial
  1
ByBlock
 72
     0
 43
0.0208333333333333
 43
0.0
 43
0.0
 43
0.0
 43
0.0
 43
0.0208333333333333
 43
0.0
 43
0.0
 43
0.0
 43
0.0
 43
1.0
 43
0.0
 43
0.0
 43
0.0
 43
0.0
 43
1.0
 77
     0
 47
0.0208333333333333
 47
0.0
 47
0.0
 47
0.0
 47
0.0
 47
0.0208333333333333
 47
0.0
 47
0.0
 47
0.0
 47
0.0
 47
1.0
 47
0.0
 47
0.0
 47
0.0
 47
0.0
 47
1.0
171
     0
 49
0.0208333333333333
 49
0.0
 49
0.0
 49
0.0
 49
0.0
 49
0.0208333333333333
 49
0.0
 49
0.0
 49
0.0
 49
0.0
 49
1.0
 49
0.0
 49
0.0
 49
0.0
 49
0.0
 49
1.0
175
     0
142
0.0208333333333333
142
0.0
142
0.0
142
0.0
142
0.0
142
0.0208333333333333
142
0.0
142
0.0
142
0.0
142
0.0
142
1.0
142
0.0
142
0.0
142
0.0
142
0.0
142
1.0
179
     0
144
0.0208333333333333
144
0.0
144
0.0
144
0.0
144
0.0
144
0.0208333333333333
144
0.0
144
0.0
144
0.0
144
0.0
144
1.0
144
0.0
144
0.0
144
0.0
144
0.0
144
1.0
147
0.0208333333333333
147
0.0
147
0.0
147
0.0
147
0.0
147
0.0208333333333333
147
0.0
147
0.0
147
0.0
147
0.0
147
1.0
147
0.0
147
0.0
147
0.0
147
0.0
147
1.0
  0
MATERIAL
  5
1A9
102
{ACAD_XDICTIONARY
360
1AA
102
}
102
{ACAD_REACTORS
330
34
102
}
330
34
100
AcDbMaterial
  1
ByLayer
 72
     0
 43
0.0208333333333333
 43
0.0
 43
0.0
 43
0.0
 43
0.0
 43
0.0208333333333333
 43
0.0
 43
0.0
 43
0.0
 43
0.0
 43
1.0
 43
0.0
 43
0.0
 43
0.0
 43
0.0
 43
1.0
 77
     0
 47
0.0208333333333333
 47
0.0
 47
0.0
 47
0.0
 47
0.0
 47
0.0208333333333333
 47
0.0
 47
0.0
 47
0.0
 47
0.0
 47
1.0
 47
0.0
 47
0.0
 47
0.0
 47
0.0
 47
1.0
171
     0
 49
0.0208333333333333
 49
0.0
 49
0.0
 49
0.0
 49
0.0
 49
0.0208333333333333
 49
0.0
 49
0.0
 49
0.0
 49
0.0
 49
1.0
 49
0.0
 49
0.0
 49
0.0
 49
0.0
 49
1.0
175
     0
142
0.0208333333333333
142
0.0
142
0.0
142
0.0
142
0.0
142
0.0208333333333333
142
0.0
142
0.0
142
0.0
142
0.0
142
1.0
142
0.0
142
0.0
142
0.0
142
0.0
142
1.0
179
     0
144
0.0208333333333333
144
0.0
144
0.0
144
0.0
144
0.0
144
0.0208333333333333
144
0.0
144
0.0
144
0.0
144
0.0
144
1.0
144
0.0
144
0.0
144
0.0
144
0.0
144
1.0
147
0.0208333333333333
147
0.0
147
0.0
147
0.0
147
0.0
147
0.0208333333333333
147
0.0
147
0.0
147
0.0
147
0.0
147
1.0
147
0.0
147
0.0
147
0.0
147
0.0
147
1.0
  0
MATERIAL
  5
1B9
102
{ACAD_XDICTIONARY
360
1BA
102
}
102
{ACAD_REACTORS
330
34
102
}
330
34
100
AcDbMaterial
  1
Global
 72
     0
 43
0.0208333333333333
 43
0.0
 43
0.0
 43
0.0
 43
0.0
 43
0.0208333333333333
 43
0.0
 43
0.0
 43
0.0
 43
0.0
 43
1.0
 43
0.0
 43
0.0
 43
0.0
 43
0.0
 43
1.0
 77
     0
 47
0.0208333333333333
 47
0.0
 47
0.0
 47
0.0
 47
0.0
 47
0.0208333333333333
 47
0.0
 47
0.0
 47
0.0
 47
0.0
 47
1.0
 47
0.0
 47
0.0
 47
0.0
 47
0.0
 47
1.0
171
     0
 49
0.0208333333333333
 49
0.0
 49
0.0
 49
0.0
 49
0.0
 49
0.0208333333333333
 49
0.0
 49
0.0
 49
0.0
 49
0.0
 49
1.0
 49
0.0
 49
0.0
 49
0.0
 49
0.0
 49
1.0
175
     0
142
0.0208333333333333
142
0.0
142
0.0
142
0.0
142
0.0
142
0.0208333333333333
142
0.0
142
0.0
142
0.0
142
0.0
142
1.0
142
0.0
142
0.0
142
0.0
142
0.0
142
1.0
179
     0
144
0.0208333333333333
144
0.0
144
0.0
144
0.0
144
0.0
144
0.0208333333333333
144
0.0
144
0.0
144
0.0
144
0.0
144
1.0
144
0.0
144
0.0
144
0.0
144
0.0
144
1.0
147
0.0208333333333333
147
0.0
147
0.0
147
0.0
147
0.0
147
0.0208333333333333
147
0.0
147
0.0
147
0.0
147
0.0
147
1.0
147
0.0
147
0.0
147
0.0
147
0.0
147
1.0
  0
MLEADERSTYLE
  5
1ED
102
{ACAD_REACTORS
330
1EC
102
}
330
1EC
100
AcDbMLeaderStyle
179
     2
170
     2
171
     1
172
     0
 90
        2
 40
0.0
 41
0.0
173
     1
 91
-1056964608
340
15
 92
       -2
290
     1
 42
2.0
291
     1
 43
0.36
  3
Standard
 44
4.0
300

342
12
174
     1
178
     6
175
     1
176
     0
 93
-1056964608
 45
4.0
292
     0
297
     0
 46
4.0
 94
-1056964608
 47
1.0
 49
1.0
140
1.0
293
     1
141
0.0
294
     1
177
     0
142
1.0
295
     0
296
     0
143
0.125
271
     0
272
     9
273
     9
298
     0
  0
MLINESTYLE
  5
39
102
{ACAD_REACTORS
330
32
102
}
330
32
100
AcDbMlineStyle
  2
STANDARD
 70
     0
  3

 62
     0
 51
90.0
 52
90.0
 71
     2
 49
0.5
 62
   256
  6
BYLAYER
 49
-0.5
 62
   256
  6
BYLAYER
  0
ACDBPLACEHOLDER
  5
5
102
{ACAD_REACTORS
330
6
102
}
330
6
  0
SCALE
  5
1DB
102
{ACAD_REACTORS
330
1DA
102
}
330
1DA
100
AcDbScale
 70
     0
300
1:1
140
1.0
141
1.0
290
     1
  0
SCALE
  5
1DC
102
{ACAD_REACTORS
330
1DA
102
}
330
1DA
100
AcDbScale
 70
     0
300
1:2
140
1.0
141
2.0
290
     0
  0
SCALE
  5
1DD
102
{ACAD_REACTORS
330
1DA
102
}
330
1DA
100
AcDbScale
 70
     0
300
1:4
140
1.0
141
4.0
290
     0
  0
SCALE
  5
1DE
102
{ACAD_REACTORS
330
1DA
102
}
330
1DA
100
AcDbScale
 70
     0
300
1:5
140
1.0
141
5.0
290
     0
  0
SCALE
  5
1DF
102
{ACAD_REACTORS
330
1DA
102
}
330
1DA
100
AcDbScale
 70
     0
300
1:8
140
1.0
141
8.0
290
     0
  0
SCALE
  5
1E0
102
{ACAD_REACTORS
330
1DA
102
}
330
1DA
100
AcDbScale
 70
     0
300
1:10
140
1.0
141
10.0
290
     0
  0
SCALE
  5
1E1
102
{ACAD_REACTORS
330
1DA
102
}
330
1DA
100
AcDbScale
 70
     0
300
1:16
140
1.0
141
16.0
290
     0
  0
SCALE
  5
1E2
102
{ACAD_REACTORS
330
1DA
102
}
330
1DA
100
AcDbScale
 70
     0
300
1:20
140
1.0
141
20.0
290
     0
  0
SCALE
  5
1E3
102
{ACAD_REACTORS
330
1DA
102
}
330
1DA
100
AcDbScale
 70
     0
300
1:30
140
1.0
141
30.0
290
     0
  0
SCALE
  5
1E4
102
{ACAD_REACTORS
330
1DA
102
}
330
1DA
100
AcDbScale
 70
     0
300
1:40
140
1.0
141
40.0
290
     0
  0
SCALE
  5
1E5
102
{ACAD_REACTORS
330
1DA
102
}
330
1DA
100
AcDbScale
 70
     0
300
1:50
140
1.0
141
50.0
290
     0
  0
SCALE
  5
1E6
102
{ACAD_REACTORS
330
1DA
102
}
330
1DA
100
AcDbScale
 70
     0
300
1:100
140
1.0
141
100.0
290
     0
  0
SCALE
  5
1E7
102
{ACAD_REACTORS
330
1DA
102
}
330
1DA
100
AcDbScale
 70
     0
300
2:1
140
2.0
141
1.0
290
     0
  0
SCALE
  5
1E8
102
{ACAD_REACTORS
330
1DA
102
}
330
1DA
100
AcDbScale
 70
     0
300
4:1
140
4.0
141
1.0
290
     0
  0
SCALE
  5
1E9
102
{ACAD_REACTORS
330
1DA
102
}
330
1DA
100
AcDbScale
 70
     0
300
8:1
140
8.0
141
1.0
290
     0
  0
SCALE
  5
1EA
102
{ACAD_REACTORS
330
1DA
102
}
330
1DA
100
AcDbScale
 70
     0
300
10:1
140
10.0
141
1.0
290
     0
  0
SCALE
  5
1EB
102
{ACAD_REACTORS
330
1DA
102
}
330
1DA
100
AcDbScale
 70
     0
300
100:1
140
100.0
141
1.0
290
     0
  0
ACDBSECTIONVIEWSTYLE
  5
1EF
102
{ACAD_XDICTIONARY
360
2D9
102
}
102
{ACAD_REACTORS
330
1EE
330
23D
102
}
330
1EE
100
AcDbModelDocViewStyle
 70
     0
  3
Metric50
290
     0
100
AcDbSectionViewStyle
 70
     0
 71
     0
 90
      102
 71
     1
340
12
 62
   256
 40
5.0
340
0
340
0
 62
   256
 40
5.0
300
I, O, Q, S, X, Z
 40
10.0
 90
        0
 40
2.5
 90
        0
 71
     2
340
8
 90
       25
 62
   256
340
8
 90
       50
 62
   256
 40
5.0
 40
2.5
 40
5.0
 71
     3
340
12
 62
   256
 40
5.0
 90
        0
 40
15.0
 90
        1
300
%<\AcVar ViewSectionStartId>%-%<\AcVar ViewSectionEndId>% (%<\AcVar ViewScale \f "%sn">%)
 71
     4
 62
   256
 62
   257
300
ANSI31
 40
1.0
 90
        0
290
     0
290
     0
 90
        6
 40
0.0
 40
1.570796326794896
 40
0.2617993877991494
 40
1.308996938995747
 40
-0.2617993877991494
 40
1.832595714594046
  0
TABLESTYLE
  5
3A
102
{ACAD_XDICTIONARY
360
2D7
102
}
102
{ACAD_REACTORS
330
36
102
}
330
36
100
AcDbTableStyle
280
     0
  3
Standard
 70
     0
 71
     0
 40
1.5
 41
1.5
280
     0
281
     0
  7
STANDARD
140
4.5
170
     2
 62
     0
 63
     7
283
     0
 90
        4
 91
        0
  1

274
    -2
284
     1
 64
     0
275
    -2
285
     1
 65
     0
276
    -2
286
     1
 66
     0
277
    -2
287
     1
 67
     0
278
    -2
288
     1
 68
     0
279
    -2
289
     1
 69
     0
  7
STANDARD
140
6.0
170
     5
 62
     0
 63
     7
283
     0
 90
        4
 91
        0
  1

274
    -2
284
     1
 64
     0
275
    -2
285
     1
 65
     0
276
    -2
286
     1
 66
     0
277
    -2
287
     1
 67
     0
278
    -2
288
     1
 68
     0
279
    -2
289
     1
 69
     0
  7
STANDARD
140
4.5
170
     5
 62
     0
 63
     7
283
     0
 90
        4
 91
        0
  1

274
    -2
284
     1
 64
     0
275
    -2
285
     1
 65
     0
276
    -2
286
     1
 66
     0
277
    -2
287
     1
 67
     0
278
    -2
288
     1
 68
     0
279
    -2
289
     1
 69
     0
  0
VISUALSTYLE
  5
1C7
102
{ACAD_REACTORS
330
1C1
102
}
330
1C1
100
AcDbVisualStyle
  2
2dWireframe
 70
     4
177
     3
291
     0
 70
    58
 90
        0
176
     1
 90
        2
176
     1
 90
        0
176
     1
 90
        0
176
     1
 40
0.6
176
     1
 40
30.0
176
     1
 62
     7
420
 16777215
176
     1
 90
        1
176
     1
 90
        4
176
     1
 62
     7
176
     1
 62
   257
176
     1
 90
        1
176
     1
 90
        1
176
     1
 40
1.0
176
     1
 90
        0
176
     1
 62
   257
176
     1
 40
1.0
176
     1
 90
        1
176
     1
 90
        6
176
     1
 90
        2
176
     1
 62
     7
176
     1
 90
        5
176
     1
 90
        0
176
     1
 90
        0
176
     1
290
     0
176
     1
 90
        1
176
     1
 40
0.0
176
     1
 90
        0
176
     1
290
     1
176
     1
290
     1
176
     1
290
     0
176
     1
290
     0
176
     1
290
     0
176
     1
290
     0
176
     1
290
     0
176
     1
290
     0
176
     1
290
     0
176
     1
 90
       50
176
     1
 40
0.0
176
     1
 40
1.0
176
     1
 90
        0
176
     1
 62
    18
420
        0
176
     1
 90
       50
176
     1
 90
        3
176
     1
 62
     5
420
      255
176
     1
290
     0
176
     1
 90
       50
176
     1
 90
       50
176
     1
 90
       50
176
     1
290
     0
176
     1
 90
       50
176
     1
 62
   256
176
     0
 40
1.0
176
     0
 90
        2
176
     1
  1
strokes_ogs.tif
176
     1
290
     0
176
     1
 40
1.0
176
     1
 40
1.0
176
     1
  0
VISUALSTYLE
  5
1C6
102
{ACAD_REACTORS
330
1C1
102
}
330
1C1
100
AcDbVisualStyle
  2
Basic
 70
     7
177
     3
291
     1
 70
    58
 90
        1
176
     1
 90
        0
176
     1
 90
        1
176
     1
 90
        0
176
     1
 40
0.6
176
     1
 40
30.0
176
     1
 62
     7
420
 16777215
176
     1
 90
        0
176
     1
 90
        4
176
     1
 62
     7
176
     1
 62
   257
176
     1
 90
        1
176
     1
 90
        1
176
     1
 40
1.0
176
     1
 90
        8
176
     1
 62
     7
176
     1
 40
1.0
176
     1
 90
        1
176
     1
 90
        6
176
     1
 90
        2
176
     1
 62
     7
176
     1
 90
        5
176
     1
 90
        0
176
     1
 90
        0
176
     1
290
     0
176
     1
 90
        1
176
     1
 40
0.0
176
     1
 90
        0
176
     1
290
     0
176
     1
290
     1
176
     1
290
     1
176
     1
290
     0
176
     1
290
     0
176
     1
290
     0
176
     1
290
     0
176
     1
290
     0
176
     1
290
     0
176
     1
 90
       50
176
     1
 40
0.0
176
     1
 40
1.0
176
     1
 90
        0
176
     1
 62
    18
420
        0
176
     1
 90
       50
176
     1
 90
        3
176
     1
 62
     5
420
      255
176
     1
290
     0
176
     1
 90
       50
176
     1
 90
       50
176
     1
 90
       50
176
     1
290
     0
176
     1
 90
       50
176
     1
 62
   256
176
     0
 40
1.0
176
     0
 90
        2
176
     1
  1
strokes_ogs.tif
176
     1
290
     0
176
     1
 40
1.0
176
     1
 40
1.0
176
     1
  0
VISUALSTYLE
  5
1CD
102
{ACAD_REACTORS
330
1C1
102
}
330
1C1
100
AcDbVisualStyle
  2
Brighten
 70
    12
177
     3
291
     1
 70
    58
 90
        2
176
     1
 90
        2
176
     1
 90
        0
176
     1
 90
        0
176
     1
 40
0.6
176
     1
 40
30.0
176
     1
 62
     7
420
 16777215
176
     1
 90
        1
176
     1
 90
        4
176
     1
 62
     7
176
     1
 62
   257
176
     1
 90
        1
176
     1
 90
        1
176
     1
 40
1.0
176
     1
 90
        8
176
     1
 62
     7
176
     1
 40
1.0
176
     1
 90
        1
176
     1
 90
        6
176
     1
 90
        2
176
     1
 62
     7
176
     1
 90
        5
176
     1
 90
        0
176
     1
 90
        0
176
     1
290
     0
176
     1
 90
        1
176
     1
 40
50.0
176
     1
 90
        0
176
     1
290
     0
176
     1
290
     1
176
     1
290
     1
176
     1
290
     0
176
     1
290
     0
176
     1
290
     0
176
     1
290
     0
176
     1
290
     0
176
     1
290
     0
176
     1
 90
       50
176
     1
 40
0.0
176
     1
 40
1.0
176
     1
 90
        0
176
     1
 62
    18
420
        0
176
     1
 90
       50
176
     1
 90
        3
176
     1
 62
     5
420
      255
176
     1
290
     0
176
     1
 90
       50
176
     1
 90
       50
176
     1
 90
       50
176
     1
290
     0
176
     1
 90
       50
176
     1
 62
   256
176
     0
 40
1.0
176
     0
 90
        2
176
     1
  1
strokes_ogs.tif
176
     1
290
     0
176
     1
 40
1.0
176
     1
 40
1.0
176
     1
  0
VISUALSTYLE
  5
1D1
102
{ACAD_REACTORS
330
1C1
102
}
330
1C1
100
AcDbVisualStyle
  2
ColorChange
 70
    16
177
     3
291
     1
 70
    58
 90
        2
176
     1
 90
        2
176
     1
 90
        3
176
     1
 90
        0
176
     1
 40
0.6
176
     1
 40
30.0
176
     1
 62
     8
420
  8421504
176
     1
 90
        1
176
     1
 90
        4
176
     1
 62
     7
176
     1
 62
   257
176
     1
 90
        1
176
     1
 90
        1
176
     1
 40
1.0
176
     1
 90
        8
176
     1
 62
     8
420
  8421504
176
     1
 40
1.0
176
     1
 90
        1
176
     1
 90
        6
176
     1
 90
        2
176
     1
 62
     7
176
     1
 90
        5
176
     1
 90
        0
176
     1
 90
        0
176
     1
290
     0
176
     1
 90
        1
176
     1
 40
0.0
176
     1
 90
        0
176
     1
290
     0
176
     1
290
     1
176
     1
290
     1
176
     1
290
     0
176
     1
290
     0
176
     1
290
     0
176
     1
290
     0
176
     1
290
     0
176
     1
290
     0
176
     1
 90
       50
176
     1
 40
0.0
176
     1
 40
1.0
176
     1
 90
        0
176
     1
 62
    18
420
        0
176
     1
 90
       50
176
     1
 90
        3
176
     1
 62
     5
420
      255
176
     1
290
     0
176
     1
 90
       50
176
     1
 90
       50
176
     1
 90
       50
176
     1
290
     0
176
     1
 90
       50
176
     1
 62
   256
176
     0
 40
1.0
176
     0
 90
        2
176
     1
  1
strokes_ogs.tif
176
     1
290
     0
176
     1
 40
1.0
176
     1
 40
1.0
176
     1
  0
VISUALSTYLE
  5
1CA
102
{ACAD_REACTORS
330
1C1
102
}
330
1C1
100
AcDbVisualStyle
  2
Conceptual
 70
     9
177
     3
291
     0
 70
    58
 90
        3
176
     1
 90
        2
176
     1
 90
        0
176
     1
 90
        0
176
     1
 40
0.6
176
     1
 40
30.0
176
     1
 62
     7
420
 16777215
176
     1
 90
        2
176
     1
 90
        2
176
     1
 62
     7
176
     1
 62
   257
176
     1
 90
        1
176
     1
 90
        1
176
     1
 40
179.0
176
     1
 90
        8
176
     1
 62
     7
176
     1
 40
1.0
176
     1
 90
        1
176
     1
 90
        6
176
     1
 90
        2
176
     1
 62
     7
176
     1
 90
        3
176
     1
 90
        0
176
     1
 90
        0
176
     1
290
     0
176
     1
 90
        1
176
     1
 40
0.0
176
     1
 90
        0
176
     1
290
     0
176
     1
290
     1
176
     1
290
     1
176
     1
290
     0
176
     1
290
     0
176
     1
290
     0
176
     1
290
     0
176
     1
290
     0
176
     1
290
     0
176
     1
 90
       50
176
     1
 40
0.0
176
     1
 40
1.0
176
     1
 90
        0
176
     1
 62
    18
420
        0
176
     1
 90
       50
176
     1
 90
        3
176
     1
 62
     5
420
      255
176
     1
290
     0
176
     1
 90
       50
176
     1
 90
       50
176
     1
 90
       50
176
     1
290
     0
176
     1
 90
       50
176
     1
 62
   256
176
     0
 40
1.0
176
     0
 90
        2
176
     1
  1
strokes_ogs.tif
176
     1
290
     0
176
     1
 40
1.0
176
     1
 40
1.0
176
     1
  0
VISUALSTYLE
  5
1CC
102
{ACAD_REACTORS
330
1C1
102
}
330
1C1
100
AcDbVisualStyle
  2
Dim
 70
    11
177
     3
291
     1
 70
    58
 90
        2
176
     1
 90
        2
176
     1
 90
        0
176
     1
 90
        0
176
     1
 40
0.6
176
     1
 40
30.0
176
     1
 62
     7
420
 16777215
176
     1
 90
        1
176
     1
 90
        4
176
     1
 62
     7
176
     1
 62
   257
176
     1
 90
        1
176
     1
 90
        1
176
     1
 40
1.0
176
     1
 90
        8
176
     1
 62
     7
176
     1
 40
1.0
176
     1
 90
        1
176
     1
 90
        6
176
     1
 90
        2
176
     1
 62
     7
176
     1
 90
        5
176
     1
 90
        0
176
     1
 90
        0
176
     1
290
     0
176
     1
 90
        1
176
     1
 40
-50.0
176
     1
 90
        0
176
     1
290
     0
176
     1
290
     1
176
     1
290
     1
176
     1
290
     0
176
     1
290
     0
176
     1
290
     0
176
     1
290
     0
176
     1
290
     0
176
     1
290
     0
176
     1
 90
       50
176
     1
 40
0.0
176
     1
 40
1.0
176
     1
 90
        0
176
     1
 62
    18
420
        0
176
     1
 90
       50
176
     1
 90
        3
176
     1
 62
     5
420
      255
176
     1
290
     0
176
     1
 90
       50
176
     1
 90
       50
176
     1
 90
       50
176
     1
290
     0
176
     1
 90
       50
176
     1
 62
   256
176
     0
 40
1.0
176
     0
 90
        2
176
     1
  1
strokes_ogs.tif
176
     1
290
     0
176
     1
 40
1.0
176
     1
 40
1.0
176
     1
  0
VISUALSTYLE
  5
1D9
102
{ACAD_REACTORS
330
1C1
102
}
330
1C1
100
AcDbVisualStyle
  2
EdgeColorOff
 70
    22
177
     3
291
     1
 70
    58
 90
        2
176
     0
 90
        2
176
     0
 90
        0
176
     0
 90
        0
176
     0
 40
0.6
176
     0
 40
30.0
176
     0
 62
     7
420
 16777215
176
     0
 90
        1
176
     0
 90
        4
176
     0
 62
     7
176
     0
 62
   257
176
     0
 90
        1
176
     0
 90
        1
176
     0
 40
1.0
176
     0
 90
        8
176
     2
 62
     7
176
     0
 40
1.0
176
     0
 90
        1
176
     0
 90
        6
176
     0
 90
        2
176
     0
 62
     7
176
     0
 90
        5
176
     0
 90
        0
176
     0
 90
        0
176
     0
290
     0
176
     0
 90
        1
176
     0
 40
0.0
176
     0
 90
        0
176
     0
290
     0
176
     1
290
     1
176
     1
290
     1
176
     1
290
     0
176
     1
290
     0
176
     1
290
     0
176
     1
290
     0
176
     1
290
     0
176
     1
290
     0
176
     1
 90
       50
176
     0
 40
0.0
176
     0
 40
1.0
176
     0
 90
        0
176
     0
 62
    18
420
        0
176
     0
 90
       50
176
     0
 90
        3
176
     0
 62
     5
420
      255
176
     0
290
     0
176
     1
 90
       50
176
     0
 90
       50
176
     0
 90
       50
176
     0
290
     0
176
     1
 90
       50
176
     0
 62
   256
176
     0
 40
1.0
176
     0
 90
        2
176
     0
  1
strokes_ogs.tif
176
     0
290
     0
176
     1
 40
1.0
176
     0
 40
1.0
176
     0
  0
VISUALSTYLE
  5
1D0
102
{ACAD_REACTORS
330
1C1
102
}
330
1C1
100
AcDbVisualStyle
  2
Facepattern
 70
    15
177
     3
291
     1
 70
    58
 90
        2
176
     1
 90
        2
176
     1
 90
        0
176
     1
 90
        0
176
     1
 40
0.6
176
     1
 40
30.0
176
     1
 62
     7
420
 16777215
176
     1
 90
        1
176
     1
 90
        4
176
     1
 62
     7
176
     1
 62
   257
176
     1
 90
        1
176
     1
 90
        1
176
     1
 40
1.0
176
     1
 90
        8
176
     1
 62
     7
176
     1
 40
1.0
176
     1
 90
        1
176
     1
 90
        6
176
     1
 90
        2
176
     1
 62
     7
176
     1
 90
        5
176
     1
 90
        0
176
     1
 90
        0
176
     1
290
     0
176
     1
 90
        1
176
     1
 40
0.0
176
     1
 90
        0
176
     1
290
     0
176
     1
290
     1
176
     1
290
     1
176
     1
290
     0
176
     1
290
     0
176
     1
290
     0
176
     1
290
     0
176
     1
290
     0
176
     1
290
     0
176
     1
 90
       50
176
     1
 40
0.0
176
     1
 40
1.0
176
     1
 90
        0
176
     1
 62
    18
420
        0
176
     1
 90
       50
176
     1
 90
        3
176
     1
 62
     5
420
      255
176
     1
290
     0
176
     1
 90
       50
176
     1
 90
       50
176
     1
 90
       50
176
     1
290
     0
176
     1
 90
       50
176
     1
 62
   256
176
     0
 40
1.0
176
     0
 90
        2
176
     1
  1
strokes_ogs.tif
176
     1
290
     0
176
     1
 40
1.0
176
     1
 40
1.0
176
     1
  0
VISUALSTYLE
  5
1C2
102
{ACAD_REACTORS
330
1C1
102
}
330
1C1
100
AcDbVisualStyle
  2
Flat
 70
     0
177
     3
291
     1
 70
    58
 90
        2
176
     1
 90
        1
176
     1
 90
        1
176
     1
 90
        2
176
     1
 40
0.6
176
     1
 40
30.0
176
     1
 62
     7
420
 16777215
176
     1
 90
        0
176
     1
 90
        0
176
     1
 62
     7
176
     1
 62
   257
176
     1
 90
        1
176
     1
 90
        1
176
     1
 40
1.0
176
     1
 90
        8
176
     1
 62
     7
176
     1
 40
1.0
176
     1
 90
        1
176
     1
 90
        6
176
     1
 90
        2
176
     1
 62
     7
176
     1
 90
        5
176
     1
 90
        0
176
     1
 90
        0
176
     1
290
     0
176
     1
 90
       13
176
     1
 40
0.0
176
     1
 90
        0
176
     1
290
     0
176
     1
290
     1
176
     1
290
     1
176
     1
290
     0
176
     1
290
     0
176
     1
290
     0
176
     1
290
     0
176
     1
290
     0
176
     1
290
     0
176
     1
 90
       50
176
     1
 40
0.0
176
     1
 40
1.0
176
     1
 90
        0
176
     1
 62
    18
420
        0
176
     1
 90
       50
176
     1
 90
        3
176
     1
 62
     5
420
      255
176
     1
290
     0
176
     1
 90
       50
176
     1
 90
       50
176
     1
 90
       50
176
     1
290
     0
176
     1
 90
       50
176
     1
 62
   256
176
     0
 40
1.0
176
     0
 90
        2
176
     1
  1
strokes_ogs.tif
176
     1
290
     0
176
     1
 40
1.0
176
     1
 40
1.0
176
     1
  0
VISUALSTYLE
  5
1C3
102
{ACAD_REACTORS
330
1C1
102
}
330
1C1
100
AcDbVisualStyle
  2
FlatWithEdges
 70
     1
177
     3
291
     1
 70
    58
 90
        2
176
     1
 90
        1
176
     1
 90
        1
176
     1
 90
        2
176
     1
 40
0.6
176
     1
 40
30.0
176
     1
 62
     7
420
 16777215
176
     1
 90
        1
176
     1
 90
        0
176
     1
 62
     7
176
     1
 62
   257
176
     1
 90
        1
176
     1
 90
        1
176
     1
 40
1.0
176
     1
 90
        0
176
     1
 62
   257
176
     1
 40
1.0
176
     1
 90
        1
176
     1
 90
        6
176
     1
 90
        2
176
     1
 62
     7
176
     1
 90
        5
176
     1
 90
        0
176
     1
 90
        0
176
     1
290
     0
176
     1
 90
       13
176
     1
 40
0.0
176
     1
 90
        0
176
     1
290
     0
176
     1
290
     1
176
     1
290
     1
176
     1
290
     0
176
     1
290
     0
176
     1
290
     0
176
     1
290
     0
176
     1
290
     0
176
     1
290
     0
176
     1
 90
       50
176
     1
 40
0.0
176
     1
 40
1.0
176
     1
 90
        0
176
     1
 62
    18
420
        0
176
     1
 90
       50
176
     1
 90
        3
176
     1
 62
     5
420
      255
176
     1
290
     0
176
     1
 90
       50
176
     1
 90
       50
176
     1
 90
       50
176
     1
290
     0
176
     1
 90
       50
176
     1
 62
   256
176
     0
 40
1.0
176
     0
 90
        2
176
     1
  1
strokes_ogs.tif
176
     1
290
     0
176
     1
 40
1.0
176
     1
 40
1.0
176
     1
  0
VISUALSTYLE
  5
1C4
102
{ACAD_REACTORS
330
1C1
102
}
330
1C1
100
AcDbVisualStyle
  2
Gouraud
 70
     2
177
     3
291
     1
 70
    58
 90
        2
176
     1
 90
        2
176
     1
 90
        1
176
     1
 90
        2
176
     1
 40
0.6
176
     1
 40
30.0
176
     1
 62
     7
420
 16777215
176
     1
 90
        0
176
     1
 90
        0
176
     1
 62
     7
176
     1
 62
   257
176
     1
 90
        1
176
     1
 90
        1
176
     1
 40
1.0
176
     1
 90
        0
176
     1
 62
     7
176
     1
 40
1.0
176
     1
 90
        1
176
     1
 90
        6
176
     1
 90
        2
176
     1
 62
     7
176
     1
 90
        5
176
     1
 90
        0
176
     1
 90
        0
176
     1
290
     0
176
     1
 90
       13
176
     1
 40
0.0
176
     1
 90
        0
176
     1
290
     0
176
     1
290
     1
176
     1
290
     1
176
     1
290
     0
176
     1
290
     0
176
     1
290
     0
176
     1
290
     0
176
     1
290
     0
176
     1
290
     0
176
     1
 90
       50
176
     1
 40
0.0
176
     1
 40
1.0
176
     1
 90
        0
176
     1
 62
    18
420
        0
176
     1
 90
       50
176
     1
 90
        3
176
     1
 62
     5
420
      255
176
     1
290
     0
176
     1
 90
       50
176
     1
 90
       50
176
     1
 90
       50
176
     1
290
     0
176
     1
 90
       50
176
     1
 62
   256
176
     0
 40
1.0
176
     0
 90
        2
176
     1
  1
strokes_ogs.tif
176
     1
290
     0
176
     1
 40
1.0
176
     1
 40
1.0
176
     1
  0
VISUALSTYLE
  5
1C5
102
{ACAD_REACTORS
330
1C1
102
}
330
1C1
100
AcDbVisualStyle
  2
GouraudWithEdges
 70
     3
177
     3
291
     1
 70
    58
 90
        2
176
     1
 90
        2
176
     1
 90
        1
176
     1
 90
        2
176
     1
 40
0.6
176
     1
 40
30.0
176
     1
 62
     7
420
 16777215
176
     1
 90
        1
176
     1
 90
        0
176
     1
 62
     7
176
     1
 62
   257
176
     1
 90
        1
176
     1
 90
        1
176
     1
 40
1.0
176
     1
 90
        0
176
     1
 62
   257
176
     1
 40
1.0
176
     1
 90
        1
176
     1
 90
        6
176
     1
 90
        2
176
     1
 62
     7
176
     1
 90
        5
176
     1
 90
        0
176
     1
 90
        0
176
     1
290
     0
176
     1
 90
       13
176
     1
 40
0.0
176
     1
 90
        0
176
     1
290
     0
176
     1
290
     1
176
     1
290
     1
176
     1
290
     0
176
     1
290
     0
176
     1
290
     0
176
     1
290
     0
176
     1
290
     0
176
     1
290
     0
176
     1
 90
       50
176
     1
 40
0.0
176
     1
 40
1.0
176
     1
 90
        0
176
     1
 62
    18
420
        0
176
     1
 90
       50
176
     1
 90
        3
176
     1
 62
     5
420
      255
176
     1
290
     0
176
     1
 90
       50
176
     1
 90
       50
176
     1
 90
       50
176
     1
290
     0
176
     1
 90
       50
176
     1
 62
   256
176
     0
 40
1.0
176
     0
 90
        2
176
     1
  1
strokes_ogs.tif
176
     1
290
     0
176
     1
 40
1.0
176
     1
 40
1.0
176
     1
  0
VISUALSTYLE
  5
1C9
102
{ACAD_REACTORS
330
1C1
102
}
330
1C1
100
AcDbVisualStyle
  2
Hidden
 70
     6
177
     3
291
     0
 70
    58
 90
        1
176
     1
 90
        2
176
     1
 90
        2
176
     1
 90
        0
176
     1
 40
0.6
176
     1
 40
30.0
176
     1
 62
     7
420
 16777215
176
     1
 90
        2
176
     1
 90
        2
176
     1
 62
     7
176
     1
 62
   257
176
     1
 90
        2
176
     1
 90
        1
176
     1
 40
40.0
176
     1
 90
        0
176
     1
 62
   257
176
     1
 40
1.0
176
     1
 90
        1
176
     1
 90
        6
176
     1
 90
        2
176
     1
 62
     7
176
     1
 90
        3
176
     1
 90
        0
176
     1
 90
        0
176
     1
290
     0
176
     1
 90
        1
176
     1
 40
0.0
176
     1
 90
        0
176
     1
290
     0
176
     1
290
     1
176
     1
290
     1
176
     1
290
     0
176
     1
290
     0
176
     1
290
     0
176
     1
290
     0
176
     1
290
     0
176
     1
290
     0
176
     1
 90
       50
176
     1
 40
0.0
176
     1
 40
1.0
176
     1
 90
        0
176
     1
 62
    18
420
        0
176
     1
 90
       50
176
     1
 90
        3
176
     1
 62
     5
420
      255
176
     1
290
     0
176
     1
 90
       50
176
     1
 90
       50
176
     1
 90
       50
176
     1
290
     0
176
     1
 90
       50
176
     1
 62
   256
176
     0
 40
1.0
176
     0
 90
        2
176
     1
  1
strokes_ogs.tif
176
     1
290
     0
176
     1
 40
1.0
176
     1
 40
1.0
176
     1
  0
VISUALSTYLE
  5
1D7
102
{ACAD_REACTORS
330
1C1
102
}
330
1C1
100
AcDbVisualStyle
  2
JitterOff
 70
    20
177
     3
291
     1
 70
    58
 90
        2
176
     0
 90
        2
176
     0
 90
        0
176
     0
 90
        0
176
     0
 40
0.6
176
     0
 40
30.0
176
     0
 62
     7
420
 16777215
176
     0
 90
        1
176
     0
 90
        4
176
     0
 62
     7
176
     0
 62
   257
176
     0
 90
        1
176
     0
 90
        1
176
     0
 40
1.0
176
     0
 90
       10
176
     2
 62
     7
176
     0
 40
1.0
176
     0
 90
        1
176
     0
 90
        6
176
     0
 90
        2
176
     0
 62
     7
176
     0
 90
        5
176
     0
 90
        0
176
     0
 90
        0
176
     0
290
     0
176
     0
 90
        1
176
     0
 40
0.0
176
     0
 90
        0
176
     0
290
     0
176
     1
290
     1
176
     1
290
     1
176
     1
290
     0
176
     1
290
     0
176
     1
290
     0
176
     1
290
     0
176
     1
290
     0
176
     1
290
     0
176
     1
 90
       50
176
     0
 40
0.0
176
     0
 40
1.0
176
     0
 90
        0
176
     0
 62
    18
420
        0
176
     0
 90
       50
176
     0
 90
        3
176
     0
 62
     5
420
      255
176
     0
290
     0
176
     1
 90
       50
176
     0
 90
       50
176
     0
 90
       50
176
     0
290
     0
176
     1
 90
       50
176
     0
 62
   256
176
     0
 40
1.0
176
     0
 90
        2
176
     0
  1
strokes_ogs.tif
176
     0
290
     0
176
     1
 40
1.0
176
     0
 40
1.0
176
     0
  0
VISUALSTYLE
  5
1CF
102
{ACAD_REACTORS
330
1C1
102
}
330
1C1
100
AcDbVisualStyle
  2
Linepattern
 70
    14
177
     3
291
     1
 70
    58
 90
        2
176
     1
 90
        2
176
     1
 90
        0
176
     1
 90
        0
176
     1
 40
0.6
176
     1
 40
30.0
176
     1
 62
     7
420
 16777215
176
     1
 90
        1
176
     1
 90
        4
176
     1
 62
     7
176
     1
 62
   257
176
     1
 90
        7
176
     1
 90
        7
176
     1
 40
1.0
176
     1
 90
        8
176
     1
 62
     7
176
     1
 40
1.0
176
     1
 90
        1
176
     1
 90
        6
176
     1
 90
        2
176
     1
 62
     7
176
     1
 90
        5
176
     1
 90
        0
176
     1
 90
        0
176
     1
290
     0
176
     1
 90
        1
176
     1
 40
0.0
176
     1
 90
        0
176
     1
290
     0
176
     1
290
     1
176
     1
290
     1
176
     1
290
     0
176
     1
290
     0
176
     1
290
     0
176
     1
290
     0
176
     1
290
     0
176
     1
290
     0
176
     1
 90
       50
176
     1
 40
0.0
176
     1
 40
1.0
176
     1
 90
        0
176
     1
 62
    18
420
        0
176
     1
 90
       50
176
     1
 90
        3
176
     1
 62
     5
420
      255
176
     1
290
     0
176
     1
 90
       50
176
     1
 90
       50
176
     1
 90
       50
176
     1
290
     0
176
     1
 90
       50
176
     1
 62
   256
176
     0
 40
1.0
176
     0
 90
        2
176
     1
  1
strokes_ogs.tif
176
     1
290
     0
176
     1
 40
1.0
176
     1
 40
1.0
176
     1
  0
VISUALSTYLE
  5
1D8
102
{ACAD_REACTORS
330
1C1
102
}
330
1C1
100
AcDbVisualStyle
  2
OverhangOff
 70
    21
177
     3
291
     1
 70
    58
 90
        2
176
     0
 90
        2
176
     0
 90
        0
176
     0
 90
        0
176
     0
 40
0.6
176
     0
 40
30.0
176
     0
 62
     7
420
 16777215
176
     0
 90
        1
176
     0
 90
        4
176
     0
 62
     7
176
     0
 62
   257
176
     0
 90
        1
176
     0
 90
        1
176
     0
 40
1.0
176
     0
 90
        9
176
     2
 62
     7
176
     0
 40
1.0
176
     0
 90
        1
176
     0
 90
        6
176
     0
 90
        2
176
     0
 62
     7
176
     0
 90
        5
176
     0
 90
        0
176
     0
 90
        0
176
     0
290
     0
176
     0
 90
        1
176
     0
 40
0.0
176
     0
 90
        0
176
     0
290
     0
176
     1
290
     1
176
     1
290
     1
176
     1
290
     0
176
     1
290
     0
176
     1
290
     0
176
     1
290
     0
176
     1
290
     0
176
     1
290
     0
176
     1
 90
       50
176
     0
 40
0.0
176
     0
 40
1.0
176
     0
 90
        0
176
     0
 62
    18
420
        0
176
     0
 90
       50
176
     0
 90
        3
176
     0
 62
     5
420
      255
176
     0
290
     0
176
     1
 90
       50
176
     0
 90
       50
176
     0
 90
       50
176
     0
290
     0
176
     1
 90
       50
176
     0
 62
   256
176
     0
 40
1.0
176
     0
 90
        2
176
     0
  1
strokes_ogs.tif
176
     0
290
     0
176
     1
 40
1.0
176
     0
 40
1.0
176
     0
  0
VISUALSTYLE
  5
1CB
102
{ACAD_REACTORS
330
1C1
102
}
330
1C1
100
AcDbVisualStyle
  2
Realistic
 70
     8
177
     3
291
     0
 70
    58
 90
        2
176
     1
 90
        3
176
     1
 90
        0
176
     1
 90
        2
176
     1
 40
0.6
176
     1
 40
30.0
176
     1
 62
     7
420
 16777215
176
     1
 90
        0
176
     1
 90
        0
176
     1
 62
     7
176
     1
 62
   257
176
     1
 90
        1
176
     1
 90
        1
176
     1
 40
1.0
176
     1
 90
        8
176
     1
 62
   257
176
     1
 40
1.0
176
     1
 90
        1
176
     1
 90
        6
176
     1
 90
        2
176
     1
 62
     7
176
     1
 90
        3
176
     1
 90
        0
176
     1
 90
        0
176
     1
290
     0
176
     1
 90
       13
176
     1
 40
0.0
176
     1
 90
        0
176
     1
290
     0
176
     1
290
     1
176
     1
290
     1
176
     1
290
     0
176
     1
290
     0
176
     1
290
     0
176
     1
290
     0
176
     1
290
     0
176
     1
290
     0
176
     1
 90
       50
176
     1
 40
0.0
176
     1
 40
1.0
176
     1
 90
        0
176
     1
 62
    18
420
        0
176
     1
 90
       50
176
     1
 90
        3
176
     1
 62
     5
420
      255
176
     1
290
     0
176
     1
 90
       50
176
     1
 90
       50
176
     1
 90
       50
176
     1
290
     0
176
     1
 90
       50
176
     1
 62
   256
176
     0
 40
1.0
176
     0
 90
        2
176
     1
  1
strokes_ogs.tif
176
     1
290
     0
176
     1
 40
1.0
176
     1
 40
1.0
176
     1
  0
VISUALSTYLE
  5
1D6
102
{ACAD_REACTORS
330
1C1
102
}
330
1C1
100
AcDbVisualStyle
  2
Shaded
 70
    27
177
     3
291
     0
 70
    58
 90
        2
176
     1
 90
        2
176
     1
 90
        1
176
     1
 90
        2
176
     1
 40
0.6
176
     1
 40
30.0
176
     1
 62
     7
420
 16777215
176
     1
 90
        0
176
     1
 90
        4
176
     1
 62
     7
176
     1
 62
   257
176
     1
 90
        1
176
     1
 90
        1
176
     1
 40
1.0
176
     1
 90
        8
176
     1
 62
   257
176
     1
 40
1.0
176
     1
 90
        1
176
     1
 90
        6
176
     1
 90
        2
176
     1
 62
     8
420
  7895160
176
     1
 90
        3
176
     1
 90
        0
176
     1
 90
        0
176
     1
290
     0
176
     1
 90
        5
176
     1
 40
0.0
176
     1
 90
        0
176
     1
290
     0
176
     1
290
     1
176
     1
290
     1
176
     1
290
     0
176
     1
290
     0
176
     1
290
     0
176
     1
290
     0
176
     1
290
     0
176
     1
290
     0
176
     1
 90
       50
176
     1
 40
0.0
176
     1
 40
1.0
176
     1
 90
        0
176
     1
 62
    18
420
        0
176
     1
 90
       50
176
     1
 90
        3
176
     1
 62
     5
420
      255
176
     1
290
     0
176
     1
 90
       50
176
     1
 90
       50
176
     1
 90
       50
176
     1
290
     0
176
     1
 90
       50
176
     1
 62
   256
176
     0
 40
1.0
176
     0
 90
        2
176
     1
  1
strokes_ogs.tif
176
     1
290
     0
176
     1
 40
1.0
176
     1
 40
1.0
176
     1
  0
VISUALSTYLE
  5
1D5
102
{ACAD_REACTORS
330
1C1
102
}
330
1C1
100
AcDbVisualStyle
  2
Shaded with edges
 70
    26
177
     3
291
     0
 70
    58
 90
        2
176
     1
 90
        2
176
     1
 90
        1
176
     1
 90
        2
176
     1
 40
0.6
176
     1
 40
30.0
176
     1
 62
     7
420
 16777215
176
     1
 90
        1
176
     1
 90
       10
176
     1
 62
     7
176
     1
 62
   257
176
     1
 90
        2
176
     1
 90
        1
176
     1
 40
1.0
176
     1
 90
        8
176
     1
 62
   257
176
     1
 40
1.0
176
     1
 90
        1
176
     1
 90
        6
176
     1
 90
        2
176
     1
 62
     7
176
     1
 90
        3
176
     1
 90
        0
176
     1
 90
        0
176
     1
290
     0
176
     1
 90
        5
176
     1
 40
0.0
176
     1
 90
        0
176
     1
290
     0
176
     1
290
     1
176
     1
290
     1
176
     1
290
     0
176
     1
290
     0
176
     1
290
     0
176
     1
290
     0
176
     1
290
     0
176
     1
290
     0
176
     1
 90
       50
176
     1
 40
0.0
176
     1
 40
1.0
176
     1
 90
        0
176
     1
 62
    18
420
        0
176
     1
 90
       50
176
     1
 90
        3
176
     1
 62
     5
420
      255
176
     1
290
     0
176
     1
 90
       50
176
     1
 90
       50
176
     1
 90
       50
176
     1
290
     0
176
     1
 90
       50
176
     1
 62
   256
176
     0
 40
1.0
176
     0
 90
        2
176
     1
  1
strokes_ogs.tif
176
     1
290
     0
176
     1
 40
1.0
176
     1
 40
1.0
176
     1
  0
VISUALSTYLE
  5
1D2
102
{ACAD_REACTORS
330
1C1
102
}
330
1C1
100
AcDbVisualStyle
  2
Shades of Gray
 70
    23
177
     3
291
     0
 70
    58
 90
        2
176
     1
 90
        2
176
     1
 90
        3
176
     1
 90
        0
176
     1
 40
0.6
176
     1
 40
30.0
176
     1
 62
     7
420
 16777215
176
     1
 90
        2
176
     1
 90
        2
176
     1
 62
     7
176
     1
 62
     7
176
     1
 90
        1
176
     1
 90
        1
176
     1
 40
40.0
176
     1
 90
        8
176
     1
 62
     7
176
     1
 40
1.0
176
     1
 90
        1
176
     1
 90
        6
176
     1
 90
        2
176
     1
 62
     7
176
     1
 90
        3
176
     1
 90
        0
176
     1
 90
        0
176
     1
290
     0
176
     1
 90
        1
176
     1
 40
0.0
176
     1
 90
        0
176
     1
290
     0
176
     1
290
     1
176
     1
290
     1
176
     1
290
     0
176
     1
290
     0
176
     1
290
     0
176
     1
290
     0
176
     1
290
     0
176
     1
290
     0
176
     1
 90
       50
176
     1
 40
0.0
176
     1
 40
1.0
176
     1
 90
        0
176
     1
 62
    18
420
        0
176
     1
 90
       50
176
     1
 90
        3
176
     1
 62
     5
420
      255
176
     1
290
     0
176
     1
 90
       50
176
     1
 90
       50
176
     1
 90
       50
176
     1
290
     0
176
     1
 90
       50
176
     1
 62
   256
176
     0
 40
1.0
176
     0
 90
        2
176
     1
  1
strokes_ogs.tif
176
     1
290
     0
176
     1
 40
1.0
176
     1
 40
1.0
176
     1
  0
VISUALSTYLE
  5
1D3
102
{ACAD_REACTORS
330
1C1
102
}
330
1C1
100
AcDbVisualStyle
  2
Sketchy
 70
    24
177
     3
291
     0
 70
    58
 90
        1
176
     1
 90
        2
176
     1
 90
        2
176
     1
 90
        0
176
     1
 40
0.6
176
     1
 40
30.0
176
     1
 62
     7
420
 16777215
176
     1
 90
        2
176
     1
 90
        2
176
     1
 62
     7
176
     1
 62
     7
176
     1
 90
        1
176
     1
 90
        1
176
     1
 40
40.0
176
     1
 90
       11
176
     1
 62
     7
176
     1
 40
1.0
176
     1
 90
        1
176
     1
 90
        6
176
     1
 90
        2
176
     1
 62
     7
176
     1
 90
        6
176
     1
 90
        0
176
     1
 90
        0
176
     1
290
     0
176
     1
 90
        1
176
     1
 40
0.0
176
     1
 90
        0
176
     1
290
     0
176
     1
290
     1
176
     1
290
     1
176
     1
290
     0
176
     1
290
     0
176
     1
290
     0
176
     1
290
     0
176
     1
290
     0
176
     1
290
     0
176
     1
 90
       50
176
     1
 40
0.0
176
     1
 40
1.0
176
     1
 90
        0
176
     1
 62
    18
420
        0
176
     1
 90
       50
176
     1
 90
        3
176
     1
 62
     5
420
      255
176
     1
290
     0
176
     1
 90
       50
176
     1
 90
       50
176
     1
 90
       50
176
     1
290
     0
176
     1
 90
       50
176
     1
 62
   256
176
     0
 40
1.0
176
     0
 90
        2
176
     1
  1
strokes_ogs.tif
176
     1
290
     0
176
     1
 40
1.0
176
     1
 40
1.0
176
     1
  0
VISUALSTYLE
  5
1CE
102
{ACAD_REACTORS
330
1C1
102
}
330
1C1
100
AcDbVisualStyle
  2
Thicken
 70
    13
177
     3
291
     1
 70
    58
 90
        2
176
     1
 90
        2
176
     1
 90
        0
176
     1
 90
        0
176
     1
 40
0.6
176
     1
 40
30.0
176
     1
 62
     7
420
 16777215
176
     1
 90
        1
176
     1
 90
        4
176
     1
 62
     7
176
     1
 62
   257
176
     1
 90
        1
176
     1
 90
        1
176
     1
 40
1.0
176
     1
 90
       12
176
     1
 62
     7
176
     1
 40
1.0
176
     1
 90
        1
176
     1
 90
        6
176
     1
 90
        2
176
     1
 62
     7
176
     1
 90
        5
176
     1
 90
        0
176
     1
 90
        0
176
     1
290
     0
176
     1
 90
        1
176
     1
 40
0.0
176
     1
 90
        0
176
     1
290
     0
176
     1
290
     1
176
     1
290
     1
176
     1
290
     0
176
     1
290
     0
176
     1
290
     0
176
     1
290
     0
176
     1
290
     0
176
     1
290
     0
176
     1
 90
       50
176
     1
 40
0.0
176
     1
 40
1.0
176
     1
 90
        0
176
     1
 62
    18
420
        0
176
     1
 90
       50
176
     1
 90
        3
176
     1
 62
     5
420
      255
176
     1
290
     0
176
     1
 90
       50
176
     1
 90
       50
176
     1
 90
       50
176
     1
290
     0
176
     1
 90
       50
176
     1
 62
   256
176
     0
 40
1.0
176
     0
 90
        2
176
     1
  1
strokes_ogs.tif
176
     1
290
     0
176
     1
 40
1.0
176
     1
 40
1.0
176
     1
  0
VISUALSTYLE
  5
1C8
102
{ACAD_REACTORS
330
1C1
102
}
330
1C1
100
AcDbVisualStyle
  2
Wireframe
 70
     5
177
     3
291
     0
 70
    58
 90
        0
176
     1
 90
        2
176
     1
 90
        0
176
     1
 90
        0
176
     1
 40
0.6
176
     1
 40
30.0
176
     1
 62
     7
420
 16777215
176
     1
 90
        1
176
     1
 90
        4
176
     1
 62
     7
176
     1
 62
   257
176
     1
 90
        1
176
     1
 90
        1
176
     1
 40
1.0
176
     1
 90
        0
176
     1
 62
   257
176
     1
 40
1.0
176
     1
 90
        1
176
     1
 90
        6
176
     1
 90
        2
176
     1
 62
     7
176
     1
 90
        3
176
     1
 90
        0
176
     1
 90
        0
176
     1
290
     0
176
     1
 90
        1
176
     1
 40
0.0
176
     1
 90
        0
176
     1
290
     0
176
     1
290
     1
176
     1
290
     1
176
     1
290
     0
176
     1
290
     0
176
     1
290
     0
176
     1
290
     0
176
     1
290
     0
176
     1
290
     0
176
     1
 90
       50
176
     1
 40
0.0
176
     1
 40
1.0
176
     1
 90
        0
176
     1
 62
    18
420
        0
176
     1
 90
       50
176
     1
 90
        3
176
     1
 62
     5
420
      255
176
     1
290
     0
176
     1
 90
       50
176
     1
 90
       50
176
     1
 90
       50
176
     1
290
     0
176
     1
 90
       50
176
     1
 62
   256
176
     0
 40
1.0
176
     0
 90
        2
176
     1
  1
strokes_ogs.tif
176
     1
290
     0
176
     1
 40
1.0
176
     1
 40
1.0
176
     1
  0
VISUALSTYLE
  5
1D4
102
{ACAD_REACTORS
330
1C1
102
}
330
1C1
100
AcDbVisualStyle
  2
X-Ray
 70
    25
177
     3
291
     0
 70
    58
 90
        2
176
     1
 90
        2
176
     1
 90
        1
176
     1
 90
        1
176
     1
 40
0.5
176
     1
 40
30.0
176
     1
 62
     7
420
 16777215
176
     1
 90
        1
176
     1
 90
        0
176
     1
 62
     7
176
     1
 62
   257
176
     1
 90
        1
176
     1
 90
        1
176
     1
 40
1.0
176
     1
 90
        8
176
     1
 62
     7
176
     1
 40
1.0
176
     1
 90
        1
176
     1
 90
        6
176
     1
 90
        2
176
     1
 62
     7
176
     1
 90
        3
176
     1
 90
        0
176
     1
 90
        0
176
     1
290
     0
176
     1
 90
       13
176
     1
 40
0.0
176
     1
 90
        0
176
     1
290
     0
176
     1
290
     1
176
     1
290
     1
176
     1
290
     0
176
     1
290
     0
176
     1
290
     0
176
     1
290
     0
176
     1
290
     0
176
     1
290
     0
176
     1
 90
       50
176
     1
 40
0.0
176
     1
 40
1.0
176
     1
 90
        0
176
     1
 62
    18
420
        0
176
     1
 90
       50
176
     1
 90
        3
176
     1
 62
     5
420
      255
176
     1
290
     0
176
     1
 90
       50
176
     1
 90
       50
176
     1
 90
       50
176
     1
290
     0
176
     1
 90
       50
176
     1
 62
   256
176
     0
 40
1.0
176
     0
 90
        2
176
     1
  1
strokes_ogs.tif
176
     1
290
     0
176
     1
 40
1.0
176
     1
 40
1.0
176
     1
  0
DICTIONARYVAR
  5
2D3
102
{ACAD_REACTORS
330
1A5
102
}
330
1A5
100
DictionaryVariables
280
     0
  1
1:1
  0
DICTIONARYVAR
  5
2CF
102
{ACAD_REACTORS
330
1A5
102
}
330
1A5
100
DictionaryVariables
280
     0
  1
STANDARD
  0
DICTIONARYVAR
  5
1A6
102
{ACAD_REACTORS
330
1A5
102
}
330
1A5
100
DictionaryVariables
280
     0
  1
STANDARD
  0
DICTIONARYVAR
  5
2D0
102
{ACAD_REACTORS
330
1A5
102
}
330
1A5
100
DictionaryVariables
280
     0
  1
Metric50
  0
DICTIONARYVAR
  5
2D1
102
{ACAD_REACTORS
330
1A5
102
}
330
1A5
100
DictionaryVariables
280
     0
  1
Metric50
  0
DICTIONARYVAR
  5
2D5
102
{ACAD_REACTORS
330
1A5
102
}
330
1A5
100
DictionaryVariables
280
     0
  1
1
  0
DICTIONARYVAR
  5
2D6
102
{ACAD_REACTORS
330
1A5
102
}
330
1A5
100
DictionaryVariables
280
     0
  1
15
  0
DICTIONARYVAR
  5
2D4
102
{ACAD_REACTORS
330
1A5
102
}
330
1A5
100
DictionaryVariables
280
     0
  1
0
  0
DICTIONARYVAR
  5
2D2
102
{ACAD_REACTORS
330
1A5
102
}
330
1A5
100
DictionaryVariables
280
     0
  1
0
  0
DICTIONARY
  5
14F
102
{ACAD_REACTORS
330
14E
102
}
330
14E
100
AcDbDictionary
281
     1
  0
DICTIONARY
  5
2DB
330
1F1
100
AcDbDictionary
280
     1
281
     1
  3
ACAD_XREC_ROUNDTRIP
360
2DC
  0
DICTIONARY
  5
1B2
330
1B1
100
AcDbDictionary
280
     1
281
     1
  3
BUMPTILE
360
1B4
  3
DIFFUSETILE
360
1B3
  3
OPACITYTILE
360
1B7
  3
REFLECTIONTILE
360
1B6
  3
REFRACTIONTILE
360
1B8
  3
SPECULARTILE
360
1B5
  0
DICTIONARY
  5
1AA
330
1A9
100
AcDbDictionary
280
     1
281
     1
  3
BUMPTILE
360
1AC
  3
DIFFUSETILE
360
1AB
  3
OPACITYTILE
360
1AF
  3
REFLECTIONTILE
360
1AE
  3
REFRACTIONTILE
360
1B0
  3
SPECULARTILE
360
1AD
  0
DICTIONARY
  5
1BA
330
1B9
100
AcDbDictionary
280
     1
281
     1
  3
BUMPTILE
360
1BC
  3
DIFFUSETILE
360
1BB
  3
OPACITYTILE
360
1BF
  3
REFLECTIONTILE
360
1BE
  3
REFRACTIONTILE
360
1C0
  3
SPECULARTILE
360
1BD
  0
DICTIONARY
  5
2D9
330
1EF
100
AcDbDictionary
280
     1
281
     1
  3
ACAD_XREC_ROUNDTRIP
360
2DA
  0
DICTIONARY
  5
2D7
330
3A
100
AcDbDictionary
280
     1
281
     1
  3
ACAD_ROUNDTRIP_2008_TABLESTYLE_CELLSTYLEMAP
360
2D8
  0
XRECORD
  5
2DC
102
{ACAD_REACTORS
330
2DB
102
}
330
2DB
100
AcDbXrecord
280
     1
102
DISPLAYNAME
  1
Metric50
102
FLAGS
 90
        0
  0
XRECORD
  5
1B4
102
{ACAD_REACTORS
330
1B2
102
}
330
1B2
100
AcDbXrecord
280
     1
270
     1
271
     1
  0
XRECORD
  5
1B3
102
{ACAD_REACTORS
330
1B2
102
}
330
1B2
100
AcDbXrecord
280
     1
270
     1
271
     1
  0
XRECORD
  5
1B7
102
{ACAD_REACTORS
330
1B2
102
}
330
1B2
100
AcDbXrecord
280
     1
270
     1
271
     1
  0
XRECORD
  5
1B6
102
{ACAD_REACTORS
330
1B2
102
}
330
1B2
100
AcDbXrecord
280
     1
270
     1
271
     1
  0
XRECORD
  5
1B8
102
{ACAD_REACTORS
330
1B2
102
}
330
1B2
100
AcDbXrecord
280
     1
270
     1
271
     1
  0
XRECORD
  5
1B5
102
{ACAD_REACTORS
330
1B2
102
}
330
1B2
100
AcDbXrecord
280
     1
270
     1
271
     1
  0
XRECORD
  5
1AC
102
{ACAD_REACTORS
330
1AA
102
}
330
1AA
100
AcDbXrecord
280
     1
270
     1
271
     1
  0
XRECORD
  5
1AB
102
{ACAD_REACTORS
330
1AA
102
}
330
1AA
100
AcDbXrecord
280
     1
270
     1
271
     1
  0
XRECORD
  5
1AF
102
{ACAD_REACTORS
330
1AA
102
}
330
1AA
100
AcDbXrecord
280
     1
270
     1
271
     1
  0
XRECORD
  5
1AE
102
{ACAD_REACTORS
330
1AA
102
}
330
1AA
100
AcDbXrecord
280
     1
270
     1
271
     1
  0
XRECORD
  5
1B0
102
{ACAD_REACTORS
330
1AA
102
}
330
1AA
100
AcDbXrecord
280
     1
270
     1
271
     1
  0
XRECORD
  5
1AD
102
{ACAD_REACTORS
330
1AA
102
}
330
1AA
100
AcDbXrecord
280
     1
270
     1
271
     1
  0
XRECORD
  5
1BC
102
{ACAD_REACTORS
330
1BA
102
}
330
1BA
100
AcDbXrecord
280
     1
270
     1
271
     1
  0
XRECORD
  5
1BB
102
{ACAD_REACTORS
330
1BA
102
}
330
1BA
100
AcDbXrecord
280
     1
270
     1
271
     1
  0
XRECORD
  5
1BF
102
{ACAD_REACTORS
330
1BA
102
}
330
1BA
100
AcDbXrecord
280
     1
270
     1
271
     1
  0
XRECORD
  5
1BE
102
{ACAD_REACTORS
330
1BA
102
}
330
1BA
100
AcDbXrecord
280
     1
270
     1
271
     1
  0
XRECORD
  5
1C0
102
{ACAD_REACTORS
330
1BA
102
}
330
1BA
100
AcDbXrecord
280
     1
270
     1
271
     1
  0
XRECORD
  5
1BD
102
{ACAD_REACTORS
330
1BA
102
}
330
1BA
100
AcDbXrecord
280
     1
270
     1
271
     1
  0
XRECORD
  5
2DA
102
{ACAD_REACTORS
330
2D9
102
}
330
2D9
100
AcDbXrecord
280
     1
102
DISPLAYNAME
  1
Metric50
102
FLAGS
 90
        0
  0
CELLSTYLEMAP
  5
2D8
102
{ACAD_REACTORS
330
2D7
102
}
330
2D7
100
AcDbCellStyleMap
 90
        3
300
CELLSTYLE
  1
TABLEFORMAT_BEGIN
 90
        5
170
     1
 91
        0
 92
    32768
 62
   257
 93
        1
300
CONTENTFORMAT
  1
CONTENTFORMAT_BEGIN
 90
        0
 91
        0
 92
        4
 93
        0
300

 40
0.0
140
1.0
 94
        5
 62
     0
340
12
144
6.0
309
CONTENTFORMAT_END
171
     1
301
MARGIN
  1
CELLMARGIN_BEGIN
 40
1.5
 40
1.5
 40
1.5
 40
1.5
 40
0.18
 40
0.18
309
CELLMARGIN_END
 94
        6
 95
        1
302
GRIDFORMAT
  1
GRIDFORMAT_BEGIN
 90
        0
 91
        1
 62
     0
 92
       -2
340
0
 93
        0
 40
0.045
309
GRIDFORMAT_END
 95
        2
302
GRIDFORMAT
  1
GRIDFORMAT_BEGIN
 90
        0
 91
        1
 62
     0
 92
       -2
340
0
 93
        0
 40
0.045
309
GRIDFORMAT_END
 95
        4
302
GRIDFORMAT
  1
GRIDFORMAT_BEGIN
 90
        0
 91
        1
 62
     0
 92
       -2
340
0
 93
        0
 40
0.045
309
GRIDFORMAT_END
 95
        8
302
GRIDFORMAT
  1
GRIDFORMAT_BEGIN
 90
        0
 91
        1
 62
     0
 92
       -2
340
0
 93
        0
 40
0.045
309
GRIDFORMAT_END
 95
       16
302
GRIDFORMAT
  1
GRIDFORMAT_BEGIN
 90
        0
 91
        1
 62
     0
 92
       -2
340
0
 93
        0
 40
0.045
309
GRIDFORMAT_END
 95
       32
302
GRIDFORMAT
  1
GRIDFORMAT_BEGIN
 90
        0
 91
        1
 62
     0
 92
       -2
340
0
 93
        0
 40
0.045
309
GRIDFORMAT_END
309
TABLEFORMAT_END
  1
CELLSTYLE_BEGIN
 90
        1
 91
        1
300
_TITLE
309
CELLSTYLE_END
300
CELLSTYLE
  1
TABLEFORMAT_BEGIN
 90
        5
170
     1
 91
        0
 92
        0
 62
   257
 93
        1
300
CONTENTFORMAT
  1
CONTENTFORMAT_BEGIN
 90
        0
 91
        0
 92
        4
 93
        0
300

 40
0.0
140
1.0
 94
        5
 62
     0
340
12
144
4.5
309
CONTENTFORMAT_END
171
     1
301
MARGIN
  1
CELLMARGIN_BEGIN
 40
1.5
 40
1.5
 40
1.5
 40
1.5
 40
0.18
 40
0.18
309
CELLMARGIN_END
 94
        6
 95
        1
302
GRIDFORMAT
  1
GRIDFORMAT_BEGIN
 90
        0
 91
        1
 62
     0
 92
       -2
340
0
 93
        0
 40
0.045
309
GRIDFORMAT_END
 95
        2
302
GRIDFORMAT
  1
GRIDFORMAT_BEGIN
 90
        0
 91
        1
 62
     0
 92
       -2
340
0
 93
        0
 40
0.045
309
GRIDFORMAT_END
 95
        4
302
GRIDFORMAT
  1
GRIDFORMAT_BEGIN
 90
        0
 91
        1
 62
     0
 92
       -2
340
0
 93
        0
 40
0.045
309
GRIDFORMAT_END
 95
        8
302
GRIDFORMAT
  1
GRIDFORMAT_BEGIN
 90
        0
 91
        1
 62
     0
 92
       -2
340
0
 93
        0
 40
0.045
309
GRIDFORMAT_END
 95
       16
302
GRIDFORMAT
  1
GRIDFORMAT_BEGIN
 90
        0
 91
        1
 62
     0
 92
       -2
340
0
 93
        0
 40
0.045
309
GRIDFORMAT_END
 95
       32
302
GRIDFORMAT
  1
GRIDFORMAT_BEGIN
 90
        0
 91
        1
 62
     0
 92
       -2
340
0
 93
        0
 40
0.045
309
GRIDFORMAT_END
309
TABLEFORMAT_END
  1
CELLSTYLE_BEGIN
 90
        2
 91
        1
300
_HEADER
309
CELLSTYLE_END
300
CELLSTYLE
  1
TABLEFORMAT_BEGIN
 90
        5
170
     1
 91
        0
 92
        0
 62
   257
 93
        1
300
CONTENTFORMAT
  1
CONTENTFORMAT_BEGIN
 90
        0
 91
        0
 92
        4
 93
        0
300

 40
0.0
140
1.0
 94
        2
 62
     0
340
12
144
4.5
309
CONTENTFORMAT_END
171
     1
301
MARGIN
  1
CELLMARGIN_BEGIN
 40
1.5
 40
1.5
 40
1.5
 40
1.5
 40
0.18
 40
0.18
309
CELLMARGIN_END
 94
        6
 95
        1
302
GRIDFORMAT
  1
GRIDFORMAT_BEGIN
 90
        0
 91
        1
 62
     0
 92
       -2
340
0
 93
        0
 40
0.045
309
GRIDFORMAT_END
 95
        2
302
GRIDFORMAT
  1
GRIDFORMAT_BEGIN
 90
        0
 91
        1
 62
     0
 92
       -2
340
0
 93
        0
 40
0.045
309
GRIDFORMAT_END
 95
        4
302
GRIDFORMAT
  1
GRIDFORMAT_BEGIN
 90
        0
 91
        1
 62
     0
 92
       -2
340
0
 93
        0
 40
0.045
309
GRIDFORMAT_END
 95
        8
302
GRIDFORMAT
  1
GRIDFORMAT_BEGIN
 90
        0
 91
        1
 62
     0
 92
       -2
340
0
 93
        0
 40
0.045
309
GRIDFORMAT_END
 95
       16
302
GRIDFORMAT
  1
GRIDFORMAT_BEGIN
 90
        0
 91
        1
 62
     0
 92
       -2
340
0
 93
        0
 40
0.045
309
GRIDFORMAT_END
 95
       32
302
GRIDFORMAT
  1
GRIDFORMAT_BEGIN
 90
        0
 91
        1
 62
     0
 92
       -2
340
0
 93
        0
 40
0.045
309
GRIDFORMAT_END
309
TABLEFORMAT_END
  1
CELLSTYLE_BEGIN
 90
        3
 91
        2
300
_DATA
309
CELLSTYLE_END
  0
ENDSEC
  0
EOF
