  0
SECTION
  2
HEADER
  9
$ACADVER
  1
AC1027
  9
$ACADMAINTVER
 70
    57
  9
$DWGCODEPAGE
  3
ANSI_1252
  9
$TITLE
  1
Schlossunterlage
  9
$AUTHOR
  1
ra
  9
$LASTSAVEDBY
  1
chrwyd
  9
$CUSTOMPROPERTYTAG
  1
Manager
  9
$CUSTOMPROPERTY
  1

  9
$CUSTOMPROPERTYTAG
  1
Firma
  9
$CUSTOMPROPERTY
  1

  9
$CUSTOMPROPERTYTAG
  1
Kategorie
  9
$CUSTOMPROPERTY
  1

  9
$CUSTOMPROPERTYTAG
  1
Bauteilnummer
  9
$CUSTOMPROPERTY
  1
B-14421.13/3mm
  9
$CUSTOMPROPERTYTAG
  1
Bezeichnung
  9
$CUSTOMPROPERTY
  1
Schlossunterlage
  9
$CUSTOMPROPERTYTAG
  1
Projekt
  9
$CUSTOMPROPERTY
  1

  9
$CUSTOMPROPERTYTAG
  1
Konstrukteur
  9
$CUSTOMPROPERTY
  1
ra
  9
$CUSTOMPROPERTYTAG
  1
Ingenieur
  9
$CUSTOMPROPERTY
  1

  9
$CUSTOMPROPERTYTAG
  1
Bevollmächtigter
  9
$CUSTOMPROPERTY
  1

  9
$CUSTOMPROPERTYTAG
  1
Kostenstelle
  9
$CUSTOMPROPERTY
  1

  9
$CUSTOMPROPERTYTAG
  1
Zulieferer
  9
$CUSTOMPROPERTY
  1

  9
$CUSTOMPROPERTYTAG
  1
Benutzerstatus
  9
$CUSTOMPROPERTY
  1

  9
$CUSTOMPROPERTYTAG
  1
Konstruktionsstatus
  9
$CUSTOMPROPERTY
  1
InBearbeitung
  9
$CUSTOMPROPERTYTAG
  1
Kontrolliert von
  9
$CUSTOMPROPERTY
  1

  9
$CUSTOMPROPERTYTAG
  1
Konstruktion genehmigt von
  9
$CUSTOMPROPERTY
  1

  9
$CUSTOMPROPERTYTAG
  1
Fertigung genehmigt von
  9
$CUSTOMPROPERTY
  1

  9
$CUSTOMPROPERTYTAG
  1
1AIMD_REVISION_DATE
  9
$CUSTOMPROPERTY
  1

  9
$CUSTOMPROPERTYTAG
  1
1AIMD_REVISION_DESCRIPTION
  9
$CUSTOMPROPERTY
  1

  9
$CUSTOMPROPERTYTAG
  1
1AIMD_REVISION_INDEX
  9
$CUSTOMPROPERTY
  1

  9
$CUSTOMPROPERTYTAG
  1
1AIMD_REVISION_USERNAME
  9
$CUSTOMPROPERTY
  1

  9
$CUSTOMPROPERTYTAG
  1
2AIMD_REVISION_DATE
  9
$CUSTOMPROPERTY
  1

  9
$CUSTOMPROPERTYTAG
  1
2AIMD_REVISION_DESCRIPTION
  9
$CUSTOMPROPERTY
  1

  9
$CUSTOMPROPERTYTAG
  1
2AIMD_REVISION_INDEX
  9
$CUSTOMPROPERTY
  1

  9
$CUSTOMPROPERTYTAG
  1
2AIMD_REVISION_USERNAME
  9
$CUSTOMPROPERTY
  1

  9
$CUSTOMPROPERTYTAG
  1
3AIMD_REVISION_DATE
  9
$CUSTOMPROPERTY
  1

  9
$CUSTOMPROPERTYTAG
  1
3AIMD_REVISION_DESCRIPTION
  9
$CUSTOMPROPERTY
  1

  9
$CUSTOMPROPERTYTAG
  1
3AIMD_REVISION_INDEX
  9
$CUSTOMPROPERTY
  1

  9
$CUSTOMPROPERTYTAG
  1
3AIMD_REVISION_USERNAME
  9
$CUSTOMPROPERTY
  1

  9
$CUSTOMPROPERTYTAG
  1
4AIMD_REVISION_DATE
  9
$CUSTOMPROPERTY
  1

  9
$CUSTOMPROPERTYTAG
  1
4AIMD_REVISION_DESCRIPTION
  9
$CUSTOMPROPERTY
  1

  9
$CUSTOMPROPERTYTAG
  1
4AIMD_REVISION_INDEX
  9
$CUSTOMPROPERTY
  1

  9
$CUSTOMPROPERTYTAG
  1
4AIMD_REVISION_USERNAME
  9
$CUSTOMPROPERTY
  1

  9
$CUSTOMPROPERTYTAG
  1
5AIMD_REVISION_DATE
  9
$CUSTOMPROPERTY
  1

  9
$CUSTOMPROPERTYTAG
  1
5AIMD_REVISION_DESCRIPTION
  9
$CUSTOMPROPERTY
  1

  9
$CUSTOMPROPERTYTAG
  1
5AIMD_REVISION_INDEX
  9
$CUSTOMPROPERTY
  1

  9
$CUSTOMPROPERTYTAG
  1
5AIMD_REVISION_USERNAME
  9
$CUSTOMPROPERTY
  1

  9
$CUSTOMPROPERTYTAG
  1
6AIMD_REVISION_DATE
  9
$CUSTOMPROPERTY
  1

  9
$CUSTOMPROPERTYTAG
  1
6AIMD_REVISION_DESCRIPTION
  9
$CUSTOMPROPERTY
  1

  9
$CUSTOMPROPERTYTAG
  1
6AIMD_REVISION_INDEX
  9
$CUSTOMPROPERTY
  1

  9
$CUSTOMPROPERTYTAG
  1
6AIMD_REVISION_USERNAME
  9
$CUSTOMPROPERTY
  1

  9
$CUSTOMPROPERTYTAG
  1
7AIMD_REVISION_DATE
  9
$CUSTOMPROPERTY
  1

  9
$CUSTOMPROPERTYTAG
  1
7AIMD_REVISION_DESCRIPTION
  9
$CUSTOMPROPERTY
  1

  9
$CUSTOMPROPERTYTAG
  1
7AIMD_REVISION_INDEX
  9
$CUSTOMPROPERTY
  1

  9
$CUSTOMPROPERTYTAG
  1
7AIMD_REVISION_USERNAME
  9
$CUSTOMPROPERTY
  1

  9
$CUSTOMPROPERTYTAG
  1
8AIMD_REVISION_DATE
  9
$CUSTOMPROPERTY
  1

  9
$CUSTOMPROPERTYTAG
  1
8AIMD_REVISION_DESCRIPTION
  9
$CUSTOMPROPERTY
  1

  9
$CUSTOMPROPERTYTAG
  1
8AIMD_REVISION_INDEX
  9
$CUSTOMPROPERTY
  1

  9
$CUSTOMPROPERTYTAG
  1
8AIMD_REVISION_USERNAME
  9
$CUSTOMPROPERTY
  1

  9
$CUSTOMPROPERTYTAG
  1
AIMD_MATERIAL
  9
$CUSTOMPROPERTY
  1
1.4301
  9
$CUSTOMPROPERTYTAG
  1
AIMD_ORIGIN
  9
$CUSTOMPROPERTY
  1

  9
$CUSTOMPROPERTYTAG
  1
AIMD_PARTNO
  9
$CUSTOMPROPERTY
  1

  9
$CUSTOMPROPERTYTAG
  1
AIMD_REPLACED
  9
$CUSTOMPROPERTY
  1

  9
$CUSTOMPROPERTYTAG
  1
AIMD_REPLACEMENT
  9
$CUSTOMPROPERTY
  1

  9
$CUSTOMPROPERTYTAG
  1
AIMD_SCALE
  9
$CUSTOMPROPERTY
  1

  9
$CUSTOMPROPERTYTAG
  1
AIMD_WEIGHT
  9
$CUSTOMPROPERTY
  1

  9
$CUSTOMPROPERTYTAG
  1
AIMD_WEIGHT_UNIT
  9
$CUSTOMPROPERTY
  1

  9
$CUSTOMPROPERTYTAG
  1
Masseinheit
  9
$CUSTOMPROPERTY
  1
mm
  9
$CUSTOMPROPERTYTAG
  1
AIMD_BEZ2
  9
$CUSTOMPROPERTY
  1
sFlipLock Standard / Basis
  9
$CUSTOMPROPERTYTAG
  1
AIMD_BEZ3
  9
$CUSTOMPROPERTY
  1
320x24x3mm
  9
$CUSTOMPROPERTYTAG
  1
AIMD_BEZ4
  9
$CUSTOMPROPERTY
  1

  9
$CUSTOMPROPERTYTAG
  1
AIMD_FIRMA
  9
$CUSTOMPROPERTY
  1

  9
$CUSTOMPROPERTYTAG
  1
AIMD_OBERFL
  9
$CUSTOMPROPERTY
  1
matt gebuerstet (mb)
  9
$CUSTOMPROPERTYTAG
  1
TEILENR
  9
$CUSTOMPROPERTY
  1

  9
$CUSTOMPROPERTYTAG
  1
DATEINAME
  9
$CUSTOMPROPERTY
  1
B-14421.13_3MM
  9
$CUSTOMPROPERTYTAG
  1
FILE_EXT
  9
$CUSTOMPROPERTY
  1
idw
  9
$CUSTOMPROPERTYTAG
  1
EDM_CREATE_DATE
  9
$CUSTOMPROPERTY
  1
03/14/2016
  9
$CUSTOMPROPERTYTAG
  1
EDM_CREATE_BY
  9
$CUSTOMPROPERTY
  1
ra
  9
$CUSTOMPROPERTYTAG
  1
EDM_CHECKED_BY
  9
$CUSTOMPROPERTY
  1

  9
$CUSTOMPROPERTYTAG
  1
AIMD_REV
  9
$CUSTOMPROPERTY
  1

  9
$CUSTOMPROPERTYTAG
  1
AIMD_DESCRIPTION
  9
$CUSTOMPROPERTY
  1
sFlipLock Standard / Basis
  9
$CUSTOMPROPERTYTAG
  1
AIMD_AIMKEY
  9
$CUSTOMPROPERTY
  1
217761.21599
  9
$CUSTOMPROPERTYTAG
  1
AIMD_USERID
  9
$CUSTOMPROPERTY
  1
ra
  9
$CUSTOMPROPERTYTAG
  1
FIRST_SCALE
  9
$CUSTOMPROPERTY
  1
1 : 2
  9
$REQUIREDVERSIONS
160
                 0
  9
$INSBASE
 10
0.0
 20
0.0
 30
0.0
  9
$EXTMIN
 10
104.6731578380256
 20
177.2229324975317
 30
-0.0000000349181948
  9
$EXTMAX
 10
286.7440804126022
 20
544.2129835027885
 30
0.0000000814935747
  9
$LIMMIN
 10
0.0
 20
0.0
  9
$LIMMAX
 10
420.0
 20
594.0
  9
$ORTHOMODE
 70
     1
  9
$REGENMODE
 70
     1
  9
$FILLMODE
 70
     1
  9
$QTEXTMODE
 70
     0
  9
$MIRRTEXT
 70
     0
  9
$LTSCALE
 40
2.0
  9
$ATTMODE
 70
     1
  9
$TEXTSIZE
 40
0.2
  9
$TRACEWID
 40
0.05
  9
$TEXTSTYLE
  7
Standard
  9
$CLAYER
  8
0
  9
$CELTYPE
  6
ByLayer
  9
$CECOLOR
 62
   256
  9
$CELTSCALE
 40
1.0
  9
$DISPSILH
 70
     0
  9
$DIMSCALE
 40
1.0
  9
$DIMASZ
 40
1.799999999999999
  9
$DIMEXO
 40
0.0625
  9
$DIMDLI
 40
0.38
  9
$DIMRND
 40
0.0
  9
$DIMDLE
 40
0.0
  9
$DIMEXE
 40
0.18
  9
$DIMTP
 40
0.0
  9
$DIMTM
 40
0.0
  9
$DIMTXT
 40
0.2000000029802322
  9
$DIMCEN
 40
0.09
  9
$DIMTSZ
 40
0.0
  9
$DIMTOL
 70
     0
  9
$DIMLIM
 70
     0
  9
$DIMTIH
 70
     1
  9
$DIMTOH
 70
     1
  9
$DIMSE1
 70
     0
  9
$DIMSE2
 70
     0
  9
$DIMTAD
 70
     0
  9
$DIMZIN
 70
     0
  9
$DIMBLK
  1

  9
$DIMASO
 70
     1
  9
$DIMSHO
 70
     1
  9
$DIMPOST
  1

  9
$DIMAPOST
  1

  9
$DIMALT
 70
     0
  9
$DIMALTD
 70
     2
  9
$DIMALTF
 40
25.4
  9
$DIMLFAC
 40
1.0
  9
$DIMTOFL
 70
     0
  9
$DIMTVP
 40
0.0
  9
$DIMTIX
 70
     0
  9
$DIMSOXD
 70
     0
  9
$DIMSAH
 70
     0
  9
$DIMBLK1
  1

  9
$DIMBLK2
  1

  9
$DIMSTYLE
  2
Standard
  9
$DIMCLRD
 70
     0
  9
$DIMCLRE
 70
     0
  9
$DIMCLRT
 70
     0
  9
$DIMTFAC
 40
1.0
  9
$DIMGAP
 40
0.09
  9
$DIMJUST
 70
     0
  9
$DIMSD1
 70
     0
  9
$DIMSD2
 70
     0
  9
$DIMTOLJ
 70
     1
  9
$DIMTZIN
 70
     0
  9
$DIMALTZ
 70
     0
  9
$DIMALTTZ
 70
     0
  9
$DIMUPT
 70
     0
  9
$DIMDEC
 70
     4
  9
$DIMTDEC
 70
     4
  9
$DIMALTU
 70
     2
  9
$DIMALTTD
 70
     2
  9
$DIMTXSTY
  7
Standard
  9
$DIMAUNIT
 70
     0
  9
$DIMADEC
 70
     0
  9
$DIMALTRND
 40
0.0
  9
$DIMAZIN
 70
     0
  9
$DIMDSEP
 70
    46
  9
$DIMATFIT
 70
     3
  9
$DIMFRAC
 70
     0
  9
$DIMLDRBLK
  1

  9
$DIMLUNIT
 70
     2
  9
$DIMLWD
 70
    -2
  9
$DIMLWE
 70
    -2
  9
$DIMTMOVE
 70
     0
  9
$DIMFXL
 40
1.0
  9
$DIMFXLON
 70
     0
  9
$DIMJOGANG
 40
1.570796326794896
  9
$DIMTFILL
 70
     0
  9
$DIMTFILLCLR
 70
     0
  9
$DIMARCSYM
 70
     0
  9
$DIMLTYPE
  6
ByBlock
  9
$DIMLTEX1
  6
ByBlock
  9
$DIMLTEX2
  6
ByBlock
  9
$DIMTXTDIRECTION
 70
     0
  9
$LUNITS
 70
     2
  9
$LUPREC
 70
     2
  9
$SKETCHINC
 40
0.1
  9
$FILLETRAD
 40
0.0
  9
$AUNITS
 70
     0
  9
$AUPREC
 70
     0
  9
$MENU
  1
.
  9
$ELEVATION
 40
0.0
  9
$PELEVATION
 40
0.0
  9
$THICKNESS
 40
0.0
  9
$LIMCHECK
 70
     0
  9
$CHAMFERA
 40
0.0
  9
$CHAMFERB
 40
0.0
  9
$CHAMFERC
 40
0.0
  9
$CHAMFERD
 40
0.0
  9
$SKPOLY
 70
     0
  9
$TDCREATE
 40
2457462.500015567
  9
$TDUCREATE
 40
2457462.416682234
  9
$TDUPDATE
 40
2458368.594457014
  9
$TDUUPDATE
 40
2458368.511123681
  9
$TDINDWG
 40
0.0009183912
  9
$TDUSRTIMER
 40
0.0009183565
  9
$USRTIMER
 70
     1
  9
$ANGBASE
 50
0.0
  9
$ANGDIR
 70
     0
  9
$PDMODE
 70
     0
  9
$PDSIZE
 40
0.0
  9
$PLINEWID
 40
0.0
  9
$SPLFRAME
 70
     0
  9
$SPLINETYPE
 70
     6
  9
$SPLINESEGS
 70
     8
  9
$HANDSEED
  5
1069
  9
$SURFTAB1
 70
     6
  9
$SURFTAB2
 70
     6
  9
$SURFTYPE
 70
     6
  9
$SURFU
 70
     6
  9
$SURFV
 70
     6
  9
$UCSBASE
  2

  9
$UCSNAME
  2

  9
$UCSORG
 10
0.0
 20
0.0
 30
0.0
  9
$UCSXDIR
 10
1.0
 20
0.0
 30
0.0
  9
$UCSYDIR
 10
0.0
 20
1.0
 30
0.0
  9
$UCSORTHOREF
  2

  9
$UCSORTHOVIEW
 70
     0
  9
$UCSORGTOP
 10
0.0
 20
0.0
 30
0.0
  9
$UCSORGBOTTOM
 10
0.0
 20
0.0
 30
0.0
  9
$UCSORGLEFT
 10
0.0
 20
0.0
 30
0.0
  9
$UCSORGRIGHT
 10
0.0
 20
0.0
 30
0.0
  9
$UCSORGFRONT
 10
0.0
 20
0.0
 30
0.0
  9
$UCSORGBACK
 10
0.0
 20
0.0
 30
0.0
  9
$PUCSBASE
  2

  9
$PUCSNAME
  2

  9
$PUCSORG
 10
0.0
 20
0.0
 30
0.0
  9
$PUCSXDIR
 10
1.0
 20
0.0
 30
0.0
  9
$PUCSYDIR
 10
0.0
 20
1.0
 30
0.0
  9
$PUCSORTHOREF
  2

  9
$PUCSORTHOVIEW
 70
     0
  9
$PUCSORGTOP
 10
0.0
 20
0.0
 30
0.0
  9
$PUCSORGBOTTOM
 10
0.0
 20
0.0
 30
0.0
  9
$PUCSORGLEFT
 10
0.0
 20
0.0
 30
0.0
  9
$PUCSORGRIGHT
 10
0.0
 20
0.0
 30
0.0
  9
$PUCSORGFRONT
 10
0.0
 20
0.0
 30
0.0
  9
$PUCSORGBACK
 10
0.0
 20
0.0
 30
0.0
  9
$USERI1
 70
     0
  9
$USERI2
 70
     0
  9
$USERI3
 70
     0
  9
$USERI4
 70
     0
  9
$USERI5
 70
     0
  9
$USERR1
 40
0.0
  9
$USERR2
 40
0.0
  9
$USERR3
 40
0.0
  9
$USERR4
 40
0.0
  9
$USERR5
 40
0.0
  9
$WORLDVIEW
 70
     1
  9
$SHADEDGE
 70
     3
  9
$SHADEDIF
 70
    70
  9
$TILEMODE
 70
     1
  9
$MAXACTVP
 70
    64
  9
$PINSBASE
 10
0.0
 20
0.0
 30
0.0
  9
$PLIMCHECK
 70
     0
  9
$PEXTMIN
 10
0.0
 20
0.0
 30
0.0
  9
$PEXTMAX
 10
420.0
 20
594.0
 30
0.0
  9
$PLIMMIN
 10
0.0
 20
0.0
  9
$PLIMMAX
 10
420.0
 20
594.0
  9
$UNITMODE
 70
     0
  9
$VISRETAIN
 70
     1
  9
$PLINEGEN
 70
     0
  9
$PSLTSCALE
 70
     1
  9
$TREEDEPTH
 70
  3020
  9
$CMLSTYLE
  2
Standard
  9
$CMLJUST
 70
     0
  9
$CMLSCALE
 40
1.0
  9
$PROXYGRAPHICS
 70
     1
  9
$MEASUREMENT
 70
     1
  9
$CELWEIGHT
370
    -1
  9
$ENDCAPS
280
     0
  9
$JOINSTYLE
280
     0
  9
$LWDISPLAY
290
     0
  9
$INSUNITS
 70
     4
  9
$HYPERLINKBASE
  1

  9
$STYLESHEET
  1

  9
$XEDIT
290
     1
  9
$CEPSNTYPE
380
     0
  9
$PSTYLEMODE
290
     1
  9
$FINGERPRINTGUID
  2
{303595F2-0D16-4107-9A6B-30A6926AE867}
  9
$VERSIONGUID
  2
{94A6CF2D-188C-4A6E-885A-D6B5ECFAE9D7}
  9
$EXTNAMES
290
     1
  9
$PSVPSCALE
 40
0.0
  9
$OLESTARTUP
290
     0
  9
$SORTENTS
280
   127
  9
$INDEXCTL
280
     0
  9
$HIDETEXT
280
     1
  9
$XCLIPFRAME
280
     2
  9
$HALOGAP
280
     0
  9
$OBSCOLOR
 70
   257
  9
$OBSLTYPE
280
     0
  9
$INTERSECTIONDISPLAY
280
     0
  9
$INTERSECTIONCOLOR
 70
   257
  9
$DIMASSOC
280
     1
  9
$PROJECTNAME
  1

  9
$CAMERADISPLAY
290
     0
  9
$LENSLENGTH
 40
50.0
  9
$CAMERAHEIGHT
 40
0.0
  9
$STEPSPERSEC
 40
2.0
  9
$STEPSIZE
 40
6.0
  9
$3DDWFPREC
 40
2.0
  9
$PSOLWIDTH
 40
0.25
  9
$PSOLHEIGHT
 40
4.0
  9
$LOFTANG1
 40
1.570796326794896
  9
$LOFTANG2
 40
1.570796326794896
  9
$LOFTMAG1
 40
0.0
  9
$LOFTMAG2
 40
0.0
  9
$LOFTPARAM
 70
     7
  9
$LOFTNORMALS
280
     1
  9
$LATITUDE
 40
37.795
  9
$LONGITUDE
 40
-122.394
  9
$NORTHDIRECTION
 40
0.0
  9
$TIMEZONE
 70
 -8000
  9
$LIGHTGLYPHDISPLAY
280
     1
  9
$TILEMODELIGHTSYNCH
280
     1
  9
$CMATERIAL
347
11
  9
$SOLIDHIST
280
     0
  9
$SHOWHIST
280
     1
  9
$DWFFRAME
280
     2
  9
$DGNFRAME
280
     0
  9
$REALWORLDSCALE
290
     1
  9
$INTERFERECOLOR
 62
     1
  9
$INTERFEREOBJVS
345
33
  9
$INTERFEREVPVS
346
30
  9
$CSHADOW
280
     0
  9
$SHADOWPLANELOCATION
 40
0.0
  0
ENDSEC
  0
SECTION
  2
CLASSES
  0
CLASS
  1
ACDBDICTIONARYWDFLT
  2
AcDbDictionaryWithDefault
  3
ObjectDBX Classes
 90
        0
 91
        1
280
     0
281
     0
  0
CLASS
  1
MATERIAL
  2
AcDbMaterial
  3
ObjectDBX Classes
 90
     1153
 91
        3
280
     0
281
     0
  0
CLASS
  1
VISUALSTYLE
  2
AcDbVisualStyle
  3
ObjectDBX Classes
 90
     4095
 91
       24
280
     0
281
     0
  0
CLASS
  1
SCALE
  2
AcDbScale
  3
ObjectDBX Classes
 90
     1153
 91
       17
280
     0
281
     0
  0
CLASS
  1
TABLESTYLE
  2
AcDbTableStyle
  3
ObjectDBX Classes
 90
     4095
 91
        1
280
     0
281
     0
  0
CLASS
  1
MLEADERSTYLE
  2
AcDbMLeaderStyle
  3
ACDB_MLEADERSTYLE_CLASS
 90
     4095
 91
        1
280
     0
281
     0
  0
CLASS
  1
ACDBSECTIONVIEWSTYLE
  2
AcDbSectionViewStyle
  3
ObjectDBX Classes
 90
     1025
 91
        3
280
     0
281
     0
  0
CLASS
  1
ACDBDETAILVIEWSTYLE
  2
AcDbDetailViewStyle
  3
ObjectDBX Classes
 90
     1025
 91
        3
280
     0
281
     0
  0
CLASS
  1
DICTIONARYVAR
  2
AcDbDictionaryVar
  3
ObjectDBX Classes
 90
        0
 91
       14
280
     0
281
     0
  0
CLASS
  1
ACME_DOCUMENT
  2
AcMeDbDoc
  3
AcMeServices
 90
     1024
 91
        1
280
     0
281
     0
  0
CLASS
  1
AMGSETTINGSOBJ
  2
AmgSettingsObj
  3
"AcadM|Product Description: AutoCAD Mechanical|Company: Autodesk, Inc."
 90
     1024
 91
        2
280
     0
281
     0
  0
CLASS
  1
ACMESCOPE
  2
AcMeScope
  3
AcMeServices
 90
     1024
 91
        1
280
     0
281
     0
  0
CLASS
  1
ACMECOMMANDHISTORY
  2
AcMeCommandHistory
  3
AcMeServices
 90
     1024
 91
        1
280
     0
281
     0
  0
CLASS
  1
ACIMSYSVARMAN
  2
AcImSysVarManager
  3
AcMeServices
 90
     1024
 91
        3
280
     0
281
     0
  0
CLASS
  1
ACIMINTSYSVAR
  2
AcImIntSysVar
  3
AcMeServices
 90
     1024
 91
        2
280
     0
281
     0
  0
CLASS
  1
ACMESTATEMGR
  2
AcMeStateMgr
  3
AcMeServices
 90
     1024
 91
        1
280
     0
281
     0
  0
CLASS
  1
ACDBENTITYCACHE
  2
AcMeEntityCache
  3
AcMeServices
 90
     1024
 91
        1
280
     0
281
     0
  0
CLASS
  1
ACGREFMASTER
  2
AcGrefMaster
  3
AcAttribServices
 90
     1024
 91
        1
280
     0
281
     0
  0
CLASS
  1
ACME_DATABASE
  2
AcMeDbDatabase
  3
AcMeServices
 90
     1024
 91
        1
280
     0
281
     0
  0
CLASS
  1
ACRFINSADJUSTERMGR
  2
AcRfInsAdjusterMgr
  3
AcMeServices
 90
     1024
 91
        1
280
     0
281
     0
  0
CLASS
  1
ACGREFACADMASTER
  2
AcGrefacadMaster
  3
AcGrefServices
 90
     1024
 91
        1
280
     0
281
     0
  0
CLASS
  1
AMDTMENUSTATEMGR
  2
AmdtMenuStateMgr
  3
McadcomServices
 90
     1024
 91
        1
280
     0
281
     0
  0
CLASS
  1
AMDTMCOMMENUSTATE
  2
AmdtMcomMenuState
  3
McadcomServices
 90
     1024
 91
        1
280
     0
281
     0
  0
CLASS
  1
AMIMASTER
  2
AmiMaster
  3
AmiServices
 90
     1024
 91
        1
280
     0
281
     0
  0
CLASS
  1
MAPIAMMOUDLE
  2
MApiAmModule
  3
MApiAmServices
 90
     1024
 91
        1
280
     0
281
     0
  0
CLASS
  1
ACIMSTRSYSVAR
  2
AcImStrSysVar
  3
AcMeServices
 90
     1024
 91
        5
280
     0
281
     0
  0
CLASS
  1
AMDTAMMENUSTATE
  2
AmdtAmMenuState
  3
DesignerAssemblies
 90
     1024
 91
        1
280
     0
281
     0
  0
CLASS
  1
ACAMPROJECT
  2
AcAmProject
  3
DesignerAssemblies
 90
     1024
 91
        1
280
     0
281
     0
  0
CLASS
  1
ACAMGRCOMPDEF
  2
AcAmGrCompDef
  3
DesignerAssemblies
 90
     1024
 91
        1
280
     0
281
     0
  0
CLASS
  1
ACAMCOMPDEF
  2
AcAmCompDef
  3
DesignerAssemblies
 90
     1024
 91
        1
280
     0
281
     0
  0
CLASS
  1
ACAMCOMPDEFMGR
  2
AcAmCompDefMgr
  3
DesignerAssemblies
 90
     1024
 91
        1
280
     0
281
     0
  0
CLASS
  1
AMCONTEXTMGR
  2
AcAmContextMgr
  3
DesignerAssemblies
 90
     1024
 91
        1
280
     0
281
     0
  0
CLASS
  1
ACAMCONTEXTMODELER
  2
AcAmContextModeler
  3
DesignerAssemblies
 90
     1024
 91
        1
280
     0
281
     0
  0
CLASS
  1
ACMDATADICTIONARY
  2
AcmDataDictionary
  3
"AcmSymBB|Product Description: AutoCAD Mechanical|Company: Autodesk, Inc."
 90
     1024
 91
        1
280
     0
281
     0
  0
CLASS
  1
ACAMGRCOMPDEFSET
  2
AcAmGrCompDefSet
  3
DesignerAssemblies
 90
     1024
 91
        1
280
     0
281
     0
  0
CLASS
  1
AMDTBROWSERDBTAB
  2
AmdtBrowserDbTab
  3
McadcomServices
 90
     1024
 91
        1
280
     0
281
     0
  0
CLASS
  1
CBROWSERAPPOBJECT
  2
CBrowserAppObject
  3
McadcomServices
 90
     1024
 91
        2
280
     0
281
     0
  0
CLASS
  1
DM_PLACEHOLDER
  2
AcDmSelsetPlaceholder
  3
McadcomServices
 90
     1024
 91
        1
280
     0
281
     0
  0
CLASS
  1
ACMSTANDARDDIN
  2
AcmStandardDIN
  3
"Amdt_StdImp|Product Description: AutoCAD Mechanical|Company: Autodesk, Inc."
 90
     1024
 91
        1
280
     0
281
     0
  0
CLASS
  1
AMDTEDGESTANDARDDIN13715
  2
AmdtEdgeStdDIN13715
  3
"Amdt_StdImp|Product Description: AutoCAD Mechanical|Company: Autodesk, Inc."
 90
     1024
 91
        1
280
     0
281
     0
  0
CLASS
  1
ACMSURFSTANDARDDIN2002
  2
AcmSurfTextStdDIN2002
  3
"Amdt_StdImp|Product Description: AutoCAD Mechanical|Company: Autodesk, Inc."
 90
     1024
 91
        1
280
     0
281
     0
  0
CLASS
  1
ACMFCFSTANDARDDIN2008
  2
AcmFCFStdDIN2008
  3
"Amdt_StdImp|Product Description: AutoCAD Mechanical|Company: Autodesk, Inc."
 90
     1024
 91
        1
280
     0
281
     0
  0
CLASS
  1
ACMWELDSTANDARDDIN
  2
AcmWeldingStdDIN
  3
"Amdt_StdImp|Product Description: AutoCAD Mechanical|Company: Autodesk, Inc."
 90
     1024
 91
        1
280
     0
281
     0
  0
CLASS
  1
ACMIDSTANDARDDIN2008
  2
AcmIdStdDIN2008
  3
"Amdt_StdImp|Product Description: AutoCAD Mechanical|Company: Autodesk, Inc."
 90
     1024
 91
        1
280
     0
281
     0
  0
CLASS
  1
ACMDATUMSTANDARDDIN
  2
AcmDatumStdDIN
  3
"Amdt_StdImp|Product Description: AutoCAD Mechanical|Company: Autodesk, Inc."
 90
     1024
 91
        1
280
     0
281
     0
  0
CLASS
  1
ACMBOMSTANDARDDIN
  2
AcmBOMStdDIN
  3
"Amdt_StdImp|Product Description: AutoCAD Mechanical|Company: Autodesk, Inc."
 90
     1024
 91
        1
280
     0
281
     0
  0
CLASS
  1
ACMDETAILSTANDARDDIN
  2
AmdtDetailSymStdDIN
  3
"Amdt_StdImp|Product Description: AutoCAD Mechanical|Company: Autodesk, Inc."
 90
     1024
 91
        1
280
     0
281
     0
  0
CLASS
  1
ACMSECTIONSTANDARDDIN
  2
AmdtSectionSymStdDIN
  3
"Amdt_StdImp|Product Description: AutoCAD Mechanical|Company: Autodesk, Inc."
 90
     1024
 91
        1
280
     0
281
     0
  0
CLASS
  1
ACMCENTERLINESTANDARDDIN
  2
AmdtCenterLineStdDIN
  3
"Amdt_StdImp|Product Description: AutoCAD Mechanical|Company: Autodesk, Inc."
 90
     1024
 91
        1
280
     0
281
     0
  0
CLASS
  1
ACMTHREADLINESTANDARDDIN
  2
AmdtThreadLineStdDIN
  3
"Amdt_StdImp|Product Description: AutoCAD Mechanical|Company: Autodesk, Inc."
 90
     1024
 91
        1
280
     0
281
     0
  0
CLASS
  1
ACMNOTESTANDARDDIN
  2
AmdtNoteStdDIN
  3
"Amdt_StdImp|Product Description: AutoCAD Mechanical|Company: Autodesk, Inc."
 90
     1024
 91
        1
280
     0
281
     0
  0
CLASS
  1
ACMTAPERSTANDARDDIN
  2
AcmTaperStdDIN
  3
"Amdt_StdImp|Product Description: AutoCAD Mechanical|Company: Autodesk, Inc."
 90
     1024
 91
        1
280
     0
281
     0
  0
CLASS
  1
ACMANOOTATIONVIEWSTANDARDDIN
  2
AmdtAnViewStdDIN
  3
"Amdt_StdImp|Product Description: AutoCAD Mechanical|Company: Autodesk, Inc."
 90
     1024
 91
        1
280
     0
281
     0
  0
CLASS
  1
ACAMGLAYSTD
  2
AcAmgLayStd
  3
"AmgLay|Product Description: AutoCAD Mechanical|Company: Autodesk, Inc."
 90
     1024
 91
        1
280
     0
281
     0
  0
CLASS
  1
ACAMGDIMSTD
  2
AcAmgDimStd
  3
"AmgDim|Product Description: AutoCAD Mechanical|Company: Autodesk, Inc."
 90
     1024
 91
        1
280
     0
281
     0
  0
CLASS
  1
AMGOBJPROPCFG
  2
AmgObjPropCfg
  3
"AmgLay|Product Description: AutoCAD Mechanical|Company: Autodesk, Inc."
 90
     1024
 91
        1
280
     0
281
     0
  0
CLASS
  1
ACAMGHOLECHARTSTDDIN
  2
AcAmgHoleChartStdDIN
  3
AmgDim|Product Description: AutoCAD Mechanical|Company: Autodesk, Inc.
 90
     1024
 91
        1
280
     0
281
     0
  0
CLASS
  1
ACAMGTITLESTD
  2
AcAmgTitleStd
  3
"AmgTitle|Product Description: AutoCAD Mechanical|Company: Autodesk, Inc."
 90
     1024
 91
        1
280
     0
281
     0
  0
CLASS
  1
ACMSECTIONSTANDARDCUSTOM
  2
AmdtSectionSymStdCustom
  3
"Amdt_StdImp|Product Description: AutoCAD Mechanical|Company: Autodesk, Inc."
 90
     1024
 91
        2
280
     0
281
     0
  0
CLASS
  1
ACMDETAILTANDARDCUSTOM
  2
AmdtDetailSymStdCustom
  3
"Amdt_StdImp|Product Description: AutoCAD Mechanical|Company: Autodesk, Inc."
 90
     1024
 91
        2
280
     0
281
     0
  0
CLASS
  1
FIELD
  2
AcDbField
  3
ObjectDBX Classes
 90
     1152
 91
        6
280
     0
281
     0
  0
CLASS
  1
FIELDLIST
  2
AcDbFieldList
  3
ObjectDBX Classes
 90
     1152
 91
        1
280
     0
281
     0
  0
CLASS
  1
AMDTNOTETEMPLATEDB
  2
AmdtNoteTemplateDB
  3
AcmSymBB|Product Description: AutoCAD Mechanical|Company: Autodesk, Inc.
 90
     1024
 91
        7
280
     0
281
     0
  0
CLASS
  1
ACAMGFILTERDAT
  2
AcAmgFilterDat
  3
"AcadM|Product Description: AutoCAD Mechanical|Company: Autodesk, Inc."
 90
     1024
 91
        0
280
     0
281
     0
  0
CLASS
  1
CAMSSTRUCTBTNSTATE
  2
StructBtnState
  3
DesignerAssemblies
 90
     1024
 91
        0
280
     0
281
     0
  0
CLASS
  1
CELLSTYLEMAP
  2
AcDbCellStyleMap
  3
ObjectDBX Classes
 90
     1152
 91
        2
280
     0
281
     0
  0
ENDSEC
  0
SECTION
  2
TABLES
  0
TABLE
  2
VPORT
  5
8
330
0
100
AcDbSymbolTable
 70
     1
  0
VPORT
  5
57
330
8
100
AcDbSymbolTableRecord
100
AcDbViewportTableRecord
  2
*Active
 70
     0
 10
0.0
 20
0.0
 11
1.0
 21
1.0
 12
195.7086191253138
 22
360.7179580001601
 13
0.0
 23
0.0
 14
1.0
 24
1.0
 15
0.0
 25
0.0
 16
0.0
 26
0.0
 36
1.0
 17
0.0
 27
0.0
 37
0.0
 40
369.6819095700876
 41
2.179926560587515
 42
50.0
 43
0.0
 44
0.0
 50
0.0
 51
0.0
 71
     0
 72
   100
 73
     1
 74
     1
 75
     0
 76
     0
 77
     0
 78
     0
281
     0
 65
     0
110
0.0
120
0.0
130
0.0
111
1.0
121
0.0
131
0.0
112
0.0
122
1.0
132
0.0
 79
     0
146
0.0
348
2F
 60
     3
 61
     5
292
     1
282
     1
141
0.0
142
0.0
 63
   250
421
  3355443
1001
ACAD_NAV_VCDISPLAY
1070
     3
  0
ENDTAB
  0
TABLE
  2
LTYPE
  5
5
330
0
100
AcDbSymbolTable
 70
    74
  0
LTYPE
  5
5B
330
5
100
AcDbSymbolTableRecord
100
AcDbLinetypeTableRecord
  2
ByBlock
 70
     0
  3

 72
    65
 73
     0
 40
0.0
  0
LTYPE
  5
5C
330
5
100
AcDbSymbolTableRecord
100
AcDbLinetypeTableRecord
  2
ByLayer
 70
     0
  3

 72
    65
 73
     0
 40
0.0
  0
LTYPE
  5
5D
330
5
100
AcDbSymbolTableRecord
100
AcDbLinetypeTableRecord
  2
Continuous
 70
     0
  3
Solid line
 72
    65
 73
     0
 40
0.0
  0
LTYPE
  5
78
330
5
100
AcDbSymbolTableRecord
100
AcDbLinetypeTableRecord
  2
Section_View_Lines
 70
     0
  3
Section View Lines
 72
    65
 73
     4
 40
0.8406
 49
0.6614
 74
     0
 49
-0.0827
 74
     0
 49
0.0138
 74
     0
 49
-0.0827
 74
     0
  0
LTYPE
  5
79
330
5
100
AcDbSymbolTableRecord
100
AcDbLinetypeTableRecord
  2
CHAIN
 70
     0
  3
Chain ____ _ ____ _ ____ _ ____ _ ____ _ ____
 72
    65
 73
     4
 40
0.3543
 49
0.2362
 74
     0
 49
-0.0295
 74
     0
 49
0.0591
 74
     0
 49
-0.0295
 74
     0
  0
LTYPE
  5
7A
330
5
100
AcDbSymbolTableRecord
100
AcDbLinetypeTableRecord
  2
DASH_DOT
 70
     0
  3
Dash dot _._._._._._._._._._._._._._._.
 72
    65
 73
     4
 40
0.37
 49
0.24
 74
     0
 49
-0.06
 74
     0
 49
0.01
 74
     0
 49
-0.06
 74
     0
  0
LTYPE
  5
7B
330
5
100
AcDbSymbolTableRecord
100
AcDbLinetypeTableRecord
  2
DASH_DOUBLE_DOT
 70
     0
  3
Dash Double Dot __ __ . __ __ . __ __ . __ _
 72
    65
 73
     6
 40
0.4398000000000001
 49
0.24
 74
     0
 49
-0.06
 74
     0
 49
0.0098
 74
     0
 49
-0.06
 74
     0
 49
0.01
 74
     0
 49
-0.06
 74
     0
  0
LTYPE
  5
7C
330
5
100
AcDbSymbolTableRecord
100
AcDbLinetypeTableRecord
  2
DASH_TRIPLE_DOT
 70
     0
  3
Dash Triple-Dot _ . . . _ . . . _ . . . _
 72
    65
 73
     8
 40
0.51
 49
0.24
 74
     0
 49
-0.06
 74
     0
 49
0.01
 74
     0
 49
-0.06
 74
     0
 49
0.01
 74
     0
 49
-0.06
 74
     0
 49
0.01
 74
     0
 49
-0.06
 74
     0
  0
LTYPE
  5
7D
330
5
100
AcDbSymbolTableRecord
100
AcDbLinetypeTableRecord
  2
DASHED
 70
     0
  3
Dashed __ __ __ __ __ __ __ __ __ __ __ __ __ _
 72
    65
 73
     2
 40
0.2067
 49
0.1654
 74
     0
 49
-0.0413
 74
     0
  0
LTYPE
  5
7E
330
5
100
AcDbSymbolTableRecord
100
AcDbLinetypeTableRecord
  2
DASHED_SPACE
 70
     0
  3
Dashed Space _._._._._._._._._._._._._._._.
 72
    65
 73
     2
 40
0.2067
 49
0.1654
 74
     0
 49
-0.0413
 74
     0
  0
LTYPE
  5
7F
330
5
100
AcDbSymbolTableRecord
100
AcDbLinetypeTableRecord
  2
DOTTED
 70
     0
  3
Dotted . . . . . . . . . . . . . . . . . . . . 
 72
    65
 73
     2
 40
0.0482
 49
0.0069
 74
     0
 49
-0.0413
 74
     0
  0
LTYPE
  5
80
330
5
100
AcDbSymbolTableRecord
100
AcDbLinetypeTableRecord
  2
DOUBLE_DASH_CHAIN
 70
     0
  3
Double Dash Chain ___ _ _ ___ _ _ ___ _ _ ___ _
 72
    65
 73
     6
 40
1.240299999999998
 49
0.6614
 74
     0
 49
-0.0827
 74
     0
 49
0.1654
 74
     0
 49
-0.0827
 74
     0
 49
0.1654
 74
     0
 49
-0.0827
 74
     0
  0
LTYPE
  5
81
330
5
100
AcDbSymbolTableRecord
100
AcDbLinetypeTableRecord
  2
DOUBLE_DASH_DOT
 70
     0
  3
Double Dash Dot __ __ . __ __ . __ __ . __ _
 72
    65
 73
     6
 40
0.6700000000000001
 49
0.24
 74
     0
 49
-0.06
 74
     0
 49
0.24
 74
     0
 49
-0.06
 74
     0
 49
0.01
 74
     0
 49
-0.06
 74
     0
  0
LTYPE
  5
82
330
5
100
AcDbSymbolTableRecord
100
AcDbLinetypeTableRecord
  2
DOUBLE_DASH_DOUBLE_DOT
 70
     0
  3
Double-dash double-dot _ _ . . _ _ . . _
 72
    65
 73
     8
 40
0.7400000000000002
 49
0.24
 74
     0
 49
-0.06
 74
     0
 49
0.24
 74
     0
 49
-0.06
 74
     0
 49
0.01
 74
     0
 49
-0.06
 74
     0
 49
0.01
 74
     0
 49
-0.06
 74
     0
  0
LTYPE
  5
83
330
5
100
AcDbSymbolTableRecord
100
AcDbLinetypeTableRecord
  2
DOUBLE_DASH_TRIPLE_DOT
 70
     0
  3
Double Dash Triple Dot __ __ . . . __ __ . . .
 72
    65
 73
    10
 40
0.8100000000000001
 49
0.24
 74
     0
 49
-0.06
 74
     0
 49
0.24
 74
     0
 49
-0.06
 74
     0
 49
0.01
 74
     0
 49
-0.06
 74
     0
 49
0.01
 74
     0
 49
-0.06
 74
     0
 49
0.01
 74
     0
 49
-0.06
 74
     0
  0
LTYPE
  5
84
330
5
100
AcDbSymbolTableRecord
100
AcDbLinetypeTableRecord
  2
LONG_DASH_DOTTED
 70
     0
  3
Long-Dash Dot ____ . ____ . ____ . ____ . _
 72
    65
 73
     4
 40
0.3001
 49
0.2362
 74
     0
 49
-0.0295
 74
     0
 49
0.0049
 74
     0
 49
-0.0295
 74
     0
  0
LTYPE
  5
85
330
5
100
AcDbSymbolTableRecord
100
AcDbLinetypeTableRecord
  2
LONG_DASH_DOUBLE_DOT
 70
     0
  3
Long Dash Double Dot ____ . . ____ . . ____ . .
 72
    65
 73
     6
 40
0.3345
 49
0.2362
 74
     0
 49
-0.0295
 74
     0
 49
0.0049
 74
     0
 49
-0.0295
 74
     0
 49
0.0049
 74
     0
 49
-0.0295
 74
     0
  0
LTYPE
  5
86
330
5
100
AcDbSymbolTableRecord
100
AcDbLinetypeTableRecord
  2
LONG_DASH_TRIPLE_DOT
 70
     0
  3
Long Dash Triple Dot ____ ... ____ ... ____
 72
    65
 73
     8
 40
0.75
 49
0.48
 74
     0
 49
-0.06
 74
     0
 49
0.01
 74
     0
 49
-0.06
 74
     0
 49
0.01
 74
     0
 49
-0.06
 74
     0
 49
0.01
 74
     0
 49
-0.06
 74
     0
  0
LTYPE
  5
87
330
5
100
AcDbSymbolTableRecord
100
AcDbLinetypeTableRecord
  2
BORDER
 70
     0
  3
Border __ __ . __ __ . __ __ . __ __ . __ __ .
 72
    65
 73
     6
 40
44.45
 49
12.7
 74
     0
 49
-6.349999999999998
 74
     0
 49
12.7
 74
     0
 49
-6.349999999999998
 74
     0
 49
0.0
 74
     0
 49
-6.349999999999998
 74
     0
  0
LTYPE
  5
88
330
5
100
AcDbSymbolTableRecord
100
AcDbLinetypeTableRecord
  2
BORDER2
 70
     0
  3
Border (.5x) __.__.__.__.__.__.__.__.__.__.__.
 72
    65
 73
     6
 40
22.225
 49
6.349999999999998
 74
     0
 49
-3.174999999999998
 74
     0
 49
6.349999999999998
 74
     0
 49
-3.174999999999998
 74
     0
 49
0.0
 74
     0
 49
-3.174999999999998
 74
     0
  0
LTYPE
  5
89
330
5
100
AcDbSymbolTableRecord
100
AcDbLinetypeTableRecord
  2
BORDERX2
 70
     0
  3
Border (2x) ____  ____  .  ____  ____  .  ___
 72
    65
 73
     6
 40
88.9
 49
25.4
 74
     0
 49
-12.7
 74
     0
 49
25.4
 74
     0
 49
-12.7
 74
     0
 49
0.0
 74
     0
 49
-12.7
 74
     0
  0
LTYPE
  5
8A
330
5
100
AcDbSymbolTableRecord
100
AcDbLinetypeTableRecord
  2
CENTER
 70
     0
  3
Center ____ _ ____ _ ____ _ ____ _ ____ _ ____
 72
    65
 73
     4
 40
50.8
 49
31.75
 74
     0
 49
-6.349999999999998
 74
     0
 49
6.349999999999998
 74
     0
 49
-6.349999999999998
 74
     0
  0
LTYPE
  5
8B
330
5
100
AcDbSymbolTableRecord
100
AcDbLinetypeTableRecord
  2
CENTER2
 70
     0
  3
Center (.5x) ___ _ ___ _ ___ _ ___ _ ___ _ ___
 72
    65
 73
     4
 40
28.575
 49
19.05
 74
     0
 49
-3.174999999999998
 74
     0
 49
3.174999999999998
 74
     0
 49
-3.174999999999998
 74
     0
  0
LTYPE
  5
8C
330
5
100
AcDbSymbolTableRecord
100
AcDbLinetypeTableRecord
  2
CENTERX2
 70
     0
  3
Center (2x) ________  __  ________  __  _____
 72
    65
 73
     4
 40
101.6
 49
63.5
 74
     0
 49
-12.7
 74
     0
 49
12.7
 74
     0
 49
-12.7
 74
     0
  0
LTYPE
  5
8D
330
5
100
AcDbSymbolTableRecord
100
AcDbLinetypeTableRecord
  2
DASHDOT2
 70
     0
  3
Dash dot (.5x) _._._._._._._._._._._._._._._.
 72
    65
 73
     4
 40
12.7
 49
6.349999999999998
 74
     0
 49
-3.174999999999998
 74
     0
 49
0.0
 74
     0
 49
-3.174999999999998
 74
     0
  0
LTYPE
  5
8E
330
5
100
AcDbSymbolTableRecord
100
AcDbLinetypeTableRecord
  2
DASHDOTX2
 70
     0
  3
Dash dot (2x) ____  .  ____  .  ____  .  ___
 72
    65
 73
     4
 40
50.8
 49
25.4
 74
     0
 49
-12.7
 74
     0
 49
0.0
 74
     0
 49
-12.7
 74
     0
  0
LTYPE
  5
8F
330
5
100
AcDbSymbolTableRecord
100
AcDbLinetypeTableRecord
  2
DASHED2
 70
     0
  3
Dashed (.5x) _ _ _ _ _ _ _ _ _ _ _ _ _ _ _ _ _
 72
    65
 73
     2
 40
9.524999999999996
 49
6.349999999999998
 74
     0
 49
-3.174999999999998
 74
     0
  0
LTYPE
  5
90
330
5
100
AcDbSymbolTableRecord
100
AcDbLinetypeTableRecord
  2
DASHEDX2
 70
     0
  3
Dashed (2x) ____  ____  ____  ____  ____  ___
 72
    65
 73
     2
 40
38.1
 49
25.4
 74
     0
 49
-12.7
 74
     0
  0
LTYPE
  5
91
330
5
100
AcDbSymbolTableRecord
100
AcDbLinetypeTableRecord
  2
DIVIDE
 70
     0
  3
Divide ____ . . ____ . . ____ . . ____ . . ____
 72
    65
 73
     6
 40
31.75
 49
12.7
 74
     0
 49
-6.349999999999998
 74
     0
 49
0.0
 74
     0
 49
-6.349999999999998
 74
     0
 49
0.0
 74
     0
 49
-6.349999999999998
 74
     0
  0
LTYPE
  5
92
330
5
100
AcDbSymbolTableRecord
100
AcDbLinetypeTableRecord
  2
DIVIDE2
 70
     0
  3
Divide (.5x) __..__..__..__..__..__..__..__.._
 72
    65
 73
     6
 40
15.875
 49
6.349999999999998
 74
     0
 49
-3.174999999999998
 74
     0
 49
0.0
 74
     0
 49
-3.174999999999998
 74
     0
 49
0.0
 74
     0
 49
-3.174999999999998
 74
     0
  0
LTYPE
  5
93
330
5
100
AcDbSymbolTableRecord
100
AcDbLinetypeTableRecord
  2
DIVIDEX2
 70
     0
  3
Divide (2x) ________  .  .  ________  .  .  _
 72
    65
 73
     6
 40
63.49999999999999
 49
25.4
 74
     0
 49
-12.7
 74
     0
 49
0.0
 74
     0
 49
-12.7
 74
     0
 49
0.0
 74
     0
 49
-12.7
 74
     0
  0
LTYPE
  5
94
330
5
100
AcDbSymbolTableRecord
100
AcDbLinetypeTableRecord
  2
DOT
 70
     0
  3
Dot . . . . . . . . . . . . . . . . . . . . . .
 72
    65
 73
     2
 40
6.349999999999998
 49
0.0
 74
     0
 49
-6.349999999999998
 74
     0
  0
LTYPE
  5
95
330
5
100
AcDbSymbolTableRecord
100
AcDbLinetypeTableRecord
  2
DOT2
 70
     0
  3
Dot (.5x) .....................................
 72
    65
 73
     2
 40
3.174999999999998
 49
0.0
 74
     0
 49
-3.174999999999998
 74
     0
  0
LTYPE
  5
96
330
5
100
AcDbSymbolTableRecord
100
AcDbLinetypeTableRecord
  2
DOTX2
 70
     0
  3
Dot (2x) .  .  .  .  .  .  .  .  .  .  .  .  . 
 72
    65
 73
     2
 40
12.7
 49
0.0
 74
     0
 49
-12.7
 74
     0
  0
LTYPE
  5
97
330
5
100
AcDbSymbolTableRecord
100
AcDbLinetypeTableRecord
  2
HIDDEN
 70
     0
  3
Hidden __ __ __ __ __ __ __ __ __ __ __ __ __ _
 72
    65
 73
     2
 40
9.524999999999996
 49
6.349999999999998
 74
     0
 49
-3.174999999999998
 74
     0
  0
LTYPE
  5
98
330
5
100
AcDbSymbolTableRecord
100
AcDbLinetypeTableRecord
  2
HIDDEN2
 70
     0
  3
Hidden (.5x) _ _ _ _ _ _ _ _ _ _ _ _ _ _ _ _ _
 72
    65
 73
     2
 40
4.762499999999998
 49
3.174999999999998
 74
     0
 49
-1.587499999999999
 74
     0
  0
LTYPE
  5
99
330
5
100
AcDbSymbolTableRecord
100
AcDbLinetypeTableRecord
  2
HIDDENX2
 70
     0
  3
Hidden (2x) ____ ____ ____ ____ ____ ____ ____
 72
    65
 73
     2
 40
19.05
 49
12.7
 74
     0
 49
-6.349999999999998
 74
     0
  0
LTYPE
  5
9A
330
5
100
AcDbSymbolTableRecord
100
AcDbLinetypeTableRecord
  2
PHANTOM
 70
     0
  3
Phantom ______  __  __  ______  __  __  ______
 72
    65
 73
     6
 40
63.5
 49
31.75
 74
     0
 49
-6.349999999999998
 74
     0
 49
6.349999999999998
 74
     0
 49
-6.349999999999998
 74
     0
 49
6.349999999999998
 74
     0
 49
-6.349999999999998
 74
     0
  0
LTYPE
  5
9B
330
5
100
AcDbSymbolTableRecord
100
AcDbLinetypeTableRecord
  2
PHANTOM2
 70
     0
  3
Phantom (.5x) ___ _ _ ___ _ _ ___ _ _ ___ _ _
 72
    65
 73
     6
 40
31.75
 49
15.875
 74
     0
 49
-3.174999999999998
 74
     0
 49
3.174999999999998
 74
     0
 49
-3.174999999999998
 74
     0
 49
3.174999999999998
 74
     0
 49
-3.174999999999998
 74
     0
  0
LTYPE
  5
9C
330
5
100
AcDbSymbolTableRecord
100
AcDbLinetypeTableRecord
  2
PHANTOMX2
 70
     0
  3
Phantom (2x) ____________    ____    ____   _
 72
    65
 73
     6
 40
127.0
 49
63.5
 74
     0
 49
-12.7
 74
     0
 49
12.7
 74
     0
 49
-12.7
 74
     0
 49
12.7
 74
     0
 49
-12.7
 74
     0
  0
LTYPE
  5
9D
330
5
100
AcDbSymbolTableRecord
100
AcDbLinetypeTableRecord
  2
ACAD_ISO02W100
 70
     0
  3
ISO dash __ __ __ __ __ __ __ __ __ __ __ __ __
 72
    65
 73
     2
 40
15.0
 49
12.0
 74
     0
 49
-3.0
 74
     0
  0
LTYPE
  5
9E
330
5
100
AcDbSymbolTableRecord
100
AcDbLinetypeTableRecord
  2
ACAD_ISO03W100
 70
     0
  3
ISO dash space __    __    __    __    __    __
 72
    65
 73
     2
 40
30.0
 49
12.0
 74
     0
 49
-18.0
 74
     0
  0
LTYPE
  5
9F
330
5
100
AcDbSymbolTableRecord
100
AcDbLinetypeTableRecord
  2
ACAD_ISO04W100
 70
     0
  3
ISO long-dash dot ____ . ____ . ____ . ____ . _
 72
    65
 73
     4
 40
30.0
 49
24.0
 74
     0
 49
-3.0
 74
     0
 49
0.0
 74
     0
 49
-3.0
 74
     0
  0
LTYPE
  5
A0
330
5
100
AcDbSymbolTableRecord
100
AcDbLinetypeTableRecord
  2
ACAD_ISO05W100
 70
     0
  3
ISO long-dash double-dot ____ .. ____ .. ____ .
 72
    65
 73
     6
 40
33.0
 49
24.0
 74
     0
 49
-3.0
 74
     0
 49
0.0
 74
     0
 49
-3.0
 74
     0
 49
0.0
 74
     0
 49
-3.0
 74
     0
  0
LTYPE
  5
A1
330
5
100
AcDbSymbolTableRecord
100
AcDbLinetypeTableRecord
  2
ACAD_ISO06W100
 70
     0
  3
ISO long-dash triple-dot ____ ... ____ ... ____
 72
    65
 73
     8
 40
36.0
 49
24.0
 74
     0
 49
-3.0
 74
     0
 49
0.0
 74
     0
 49
-3.0
 74
     0
 49
0.0
 74
     0
 49
-3.0
 74
     0
 49
0.0
 74
     0
 49
-3.0
 74
     0
  0
LTYPE
  5
A2
330
5
100
AcDbSymbolTableRecord
100
AcDbLinetypeTableRecord
  2
ACAD_ISO07W100
 70
     0
  3
ISO dot . . . . . . . . . . . . . . . . . . . .
 72
    65
 73
     2
 40
3.0
 49
0.0
 74
     0
 49
-3.0
 74
     0
  0
LTYPE
  5
A3
330
5
100
AcDbSymbolTableRecord
100
AcDbLinetypeTableRecord
  2
ACAD_ISO08W100
 70
     0
  3
ISO long-dash short-dash ____ __ ____ __ ____ _
 72
    65
 73
     4
 40
36.0
 49
24.0
 74
     0
 49
-3.0
 74
     0
 49
6.0
 74
     0
 49
-3.0
 74
     0
  0
LTYPE
  5
A4
330
5
100
AcDbSymbolTableRecord
100
AcDbLinetypeTableRecord
  2
ACAD_ISO09W100
 70
     0
  3
ISO long-dash double-short-dash ____ __ __ ____
 72
    65
 73
     6
 40
45.0
 49
24.0
 74
     0
 49
-3.0
 74
     0
 49
6.0
 74
     0
 49
-3.0
 74
     0
 49
6.0
 74
     0
 49
-3.0
 74
     0
  0
LTYPE
  5
A5
330
5
100
AcDbSymbolTableRecord
100
AcDbLinetypeTableRecord
  2
ACAD_ISO10W100
 70
     0
  3
ISO dash dot __ . __ . __ . __ . __ . __ . __ .
 72
    65
 73
     4
 40
18.0
 49
12.0
 74
     0
 49
-3.0
 74
     0
 49
0.0
 74
     0
 49
-3.0
 74
     0
  0
LTYPE
  5
A6
330
5
100
AcDbSymbolTableRecord
100
AcDbLinetypeTableRecord
  2
ACAD_ISO11W100
 70
     0
  3
ISO double-dash dot __ __ . __ __ . __ __ . __ 
 72
    65
 73
     6
 40
33.0
 49
12.0
 74
     0
 49
-3.0
 74
     0
 49
12.0
 74
     0
 49
-3.0
 74
     0
 49
0.0
 74
     0
 49
-3.0
 74
     0
  0
LTYPE
  5
A7
330
5
100
AcDbSymbolTableRecord
100
AcDbLinetypeTableRecord
  2
ACAD_ISO12W100
 70
     0
  3
ISO dash double-dot __ . . __ . . __ . . __ . .
 72
    65
 73
     6
 40
21.0
 49
12.0
 74
     0
 49
-3.0
 74
     0
 49
0.0
 74
     0
 49
-3.0
 74
     0
 49
0.0
 74
     0
 49
-3.0
 74
     0
  0
LTYPE
  5
A8
330
5
100
AcDbSymbolTableRecord
100
AcDbLinetypeTableRecord
  2
ACAD_ISO13W100
 70
     0
  3
ISO double-dash double-dot __ __ . . __ __ . . 
 72
    65
 73
     8
 40
36.0
 49
12.0
 74
     0
 49
-3.0
 74
     0
 49
12.0
 74
     0
 49
-3.0
 74
     0
 49
0.0
 74
     0
 49
-3.0
 74
     0
 49
0.0
 74
     0
 49
-3.0
 74
     0
  0
LTYPE
  5
A9
330
5
100
AcDbSymbolTableRecord
100
AcDbLinetypeTableRecord
  2
ACAD_ISO14W100
 70
     0
  3
ISO dash triple-dot __ . . . __ . . . __ . . . 
 72
    65
 73
     8
 40
24.0
 49
12.0
 74
     0
 49
-3.0
 74
     0
 49
0.0
 74
     0
 49
-3.0
 74
     0
 49
0.0
 74
     0
 49
-3.0
 74
     0
 49
0.0
 74
     0
 49
-3.0
 74
     0
  0
LTYPE
  5
AA
330
5
100
AcDbSymbolTableRecord
100
AcDbLinetypeTableRecord
  2
ACAD_ISO15W100
 70
     0
  3
ISO double-dash triple-dot __ __ . . . __ __ . 
 72
    65
 73
    10
 40
39.0
 49
12.0
 74
     0
 49
-3.0
 74
     0
 49
12.0
 74
     0
 49
-3.0
 74
     0
 49
0.0
 74
     0
 49
-3.0
 74
     0
 49
0.0
 74
     0
 49
-3.0
 74
     0
 49
0.0
 74
     0
 49
-3.0
 74
     0
  0
LTYPE
  5
AD
330
5
100
AcDbSymbolTableRecord
100
AcDbLinetypeTableRecord
  2
FENCELINE1
 70
     0
  3
Fenceline circle ----0-----0----0-----0----0---
 72
    65
 73
     4
 40
36.83
 49
6.349999999999998
 74
     0
 49
-2.54
 74
     4
 75
   133
340
AC
 46
2.54
 50
0.0
 44
-2.54
 45
0.0
 49
-2.54
 74
     0
 49
25.4
 74
     0
  0
LTYPE
  5
AE
330
5
100
AcDbSymbolTableRecord
100
AcDbLinetypeTableRecord
  2
FENCELINE2
 70
     0
  3
Fenceline square ----[]-----[]----[]-----[]----
 72
    65
 73
     4
 40
36.83
 49
6.349999999999998
 74
     0
 49
-2.54
 74
     4
 75
   132
340
AC
 46
2.54
 50
0.0
 44
-2.54
 45
0.0
 49
-2.54
 74
     0
 49
25.4
 74
     0
  0
LTYPE
  5
AF
330
5
100
AcDbSymbolTableRecord
100
AcDbLinetypeTableRecord
  2
TRACKS
 70
     0
  3
Tracks -|-|-|-|-|-|-|-|-|-|-|-|-|-|-|-|-|-|-|-|
 72
    65
 73
     2
 40
7.62
 49
3.81
 74
     4
 75
   130
340
AC
 46
6.349999999999998
 50
0.0
 44
0.0
 45
0.0
 49
3.81
 74
     0
  0
LTYPE
  5
B0
330
5
100
AcDbSymbolTableRecord
100
AcDbLinetypeTableRecord
  2
BATTING
 70
     0
  3
Batting SSSSSSSSSSSSSSSSSSSSSSSSSSSSSSSSSSSSSSS
 72
    65
 73
     4
 40
10.16254
 49
0.00254
 74
     0
 49
-2.54
 74
     4
 75
   134
340
AC
 46
2.54
 50
0.0
 44
-2.54
 45
0.0
 49
-5.08
 74
     4
 75
   134
340
AC
 46
2.54
 50
180.0
 44
2.54
 45
0.0
 49
-2.54
 74
     0
  0
LTYPE
  5
B1
330
5
100
AcDbSymbolTableRecord
100
AcDbLinetypeTableRecord
  2
HOT_WATER_SUPPLY
 70
     0
  3
Hot water supply ---- HW ---- HW ---- HW ----
 72
    65
 73
     3
 40
22.86
 49
12.7
 74
     0
 49
-5.08
 74
     2
 75
     0
340
55
 46
2.54
 50
0.0
 44
-2.54
 45
-1.27
  9
HW
 49
-5.08
 74
     0
  0
LTYPE
  5
B2
330
5
100
AcDbSymbolTableRecord
100
AcDbLinetypeTableRecord
  2
GAS_LINE
 70
     0
  3
Gas line ----GAS----GAS----GAS----GAS----GAS---
 72
    65
 73
     3
 40
24.13
 49
12.7
 74
     0
 49
-5.08
 74
     2
 75
     0
340
55
 46
2.54
 50
0.0
 44
-2.54
 45
-1.27
  9
GAS
 49
-6.349999999999998
 74
     0
  0
LTYPE
  5
B3
330
5
100
AcDbSymbolTableRecord
100
AcDbLinetypeTableRecord
  2
ZIGZAG
 70
     0
  3
Zig zag /\/\/\/\/\/\/\/\/\/\/\/\/\/\/\/\/\/\/\/
 72
    65
 73
     4
 40
20.32254
 49
0.00254
 74
     0
 49
-5.08
 74
     4
 75
   131
340
AC
 46
5.08
 50
0.0
 44
-5.08
 45
0.0
 49
-10.16
 74
     4
 75
   131
340
AC
 46
5.08
 50
180.0
 44
5.08
 45
0.0
 49
-5.08
 74
     0
  0
LTYPE
  5
E4D
330
5
100
AcDbSymbolTableRecord
100
AcDbLinetypeTableRecord
  2
AM_ISO02W050
 70
     0
  3
__ __ __ __ __ __ __ __ __ __ __ __ __ __ __
 72
    65
 73
     2
 40
7.5
 49
6.0
 74
     0
 49
-1.5
 74
     0
  0
LTYPE
  5
E4E
330
5
100
AcDbSymbolTableRecord
100
AcDbLinetypeTableRecord
  2
AM_ISO08W050
 70
     0
  3
____ . ____ . ____ . ____ . ____ . ____ . ____
 72
    65
 73
     4
 40
18.0
 49
12.0
 74
     0
 49
-1.5
 74
     0
 49
3.0
 74
     0
 49
-1.5
 74
     0
  0
LTYPE
  5
E4F
330
5
100
AcDbSymbolTableRecord
100
AcDbLinetypeTableRecord
  2
AM_ISO09W050
 70
     0
  3
_____ . . _____ . . _____ . . ____ .. ____
 72
    65
 73
     6
 40
22.5
 49
12.0
 74
     0
 49
-1.5
 74
     0
 49
3.0
 74
     0
 49
-1.5
 74
     0
 49
3.0
 74
     0
 49
-1.5
 74
     0
  0
LTYPE
  5
E50
330
5
100
AcDbSymbolTableRecord
100
AcDbLinetypeTableRecord
  2
Amconstr
 70
     0
  3
_______________________
 72
    65
 73
     2
 40
9999.0
 49
9999.0
 74
     0
 49
0.0
 74
     0
  0
LTYPE
  5
E51
330
5
100
AcDbSymbolTableRecord
100
AcDbLinetypeTableRecord
  2
AM_ISO08W050x2
 70
     0
  3
__ . __ . __ . __ . __ . __
 72
    65
 73
     4
 40
9.0
 49
6.0
 74
     0
 49
-0.75
 74
     0
 49
1.5
 74
     0
 49
-0.75
 74
     0
  0
LTYPE
  5
E52
330
5
100
AcDbSymbolTableRecord
100
AcDbLinetypeTableRecord
  2
AM_ISO02W050x2
 70
     0
  3
 _ _ _ _ _ _ _ _ _ _ _ _
 72
    65
 73
     2
 40
3.75
 49
3.0
 74
     0
 49
-0.75
 74
     0
  0
LTYPE
  5
E55
330
5
100
AcDbSymbolTableRecord
100
AcDbLinetypeTableRecord
  2
Amzigzag
 70
     0
  3
/\/-/\/-/\/-/\/-/\/-/\/
 72
    65
 73
     2
 40
11.0001
 49
0.0001
 74
     4
 75
   136
340
E54
 46
0.04
 50
0.0
 44
0.0
 45
0.0
 49
-11.0
 74
     0
  0
LTYPE
  5
E56
330
5
100
AcDbSymbolTableRecord
100
AcDbLinetypeTableRecord
  2
AM_DIN_F_W050
 70
     0
  3
__ __ __ __ __ __ __ __ __ __ __ __ __ __ __
 72
    65
 73
     2
 40
6.25
 49
4.75
 74
     0
 49
-1.5
 74
     0
  0
LTYPE
  5
E57
330
5
100
AcDbSymbolTableRecord
100
AcDbLinetypeTableRecord
  2
AM_DIN_G_W050
 70
     0
  3
____ . ____ . ____ . ____ . ____ . ____ . ____
 72
    65
 73
     4
 40
13.75
 49
9.75
 74
     0
 49
-1.5
 74
     0
 49
1.0
 74
     0
 49
-1.5
 74
     0
  0
LTYPE
  5
E58
330
5
100
AcDbSymbolTableRecord
100
AcDbLinetypeTableRecord
  2
AM_DIN_K_W050
 70
     0
  3
_____ . . _____ . . _____ . . ____ .. ____
 72
    65
 73
     6
 40
16.25
 49
9.75
 74
     0
 49
-1.5
 74
     0
 49
1.0
 74
     0
 49
-1.5
 74
     0
 49
1.0
 74
     0
 49
-1.5
 74
     0
  0
LTYPE
  5
E59
330
5
100
AcDbSymbolTableRecord
100
AcDbLinetypeTableRecord
  2
AM_DIN_G_W050x2
 70
     0
  3
__ . __ . __ . __ . __ . __
 72
    65
 73
     4
 40
6.875
 49
4.75
 74
     0
 49
-0.875
 74
     0
 49
0.375
 74
     0
 49
-0.875
 74
     0
  0
LTYPE
  5
E5A
330
5
100
AcDbSymbolTableRecord
100
AcDbLinetypeTableRecord
  2
AM_DIN_F_W050x2
 70
     0
  3
 _ _ _ _ _ _ _ _ _ _ _ _
 72
    65
 73
     2
 40
3.125
 49
2.25
 74
     0
 49
-0.875
 74
     0
  0
LTYPE
  5
E6D
330
5
100
AcDbSymbolTableRecord
100
AcDbLinetypeTableRecord
  2
ACDINWELD
 70
     0
  3
_ _ _ _ _
 72
    65
 73
     2
 40
2.0
 49
2.0
 74
     0
 49
-1.0
 74
     0
  0
LTYPE
  5
E6E
330
5
100
AcDbSymbolTableRecord
100
AcDbLinetypeTableRecord
  2
ACDINTGL
 70
     0
  3
_ _ _ _ _
 72
    65
 73
     2
 40
3.0
 49
2.0
 74
     0
 49
-1.0
 74
     0
  0
LTYPE
  5
E6F
330
5
100
AcDbSymbolTableRecord
100
AcDbLinetypeTableRecord
  2
ACDINTGB
 70
     0
  3
__ . . __ . .
 72
    65
 73
     6
 40
9.0
 49
4.0
 74
     0
 49
-1.0
 74
     0
 49
1.0
 74
     0
 49
-1.0
 74
     0
 49
1.0
 74
     0
 49
-1.0
 74
     0
  0
ENDTAB
  0
TABLE
  2
LAYER
  5
2
102
{ACAD_XDICTIONARY
360
E94
102
}
330
0
100
AcDbSymbolTable
 70
    12
  0
LAYER
  5
54
330
2
100
AcDbSymbolTableRecord
100
AcDbLayerTableRecord
  2
0
 70
     0
 62
     7
  6
Continuous
370
    -3
390
F
347
21
348
0
  0
LAYER
  5
BD
330
2
100
AcDbSymbolTableRecord
100
AcDbLayerTableRecord
  2
Bemaßungen(MSL)
 70
     0
 62
   179
  6
Continuous
370
    25
390
F
347
21
348
0
  0
LAYER
  5
CE
330
2
100
AcDbSymbolTableRecord
100
AcDbLayerTableRecord
  2
Mittellinie(DIN)
 70
     0
 62
   179
  6
Continuous
370
    25
390
F
347
21
348
0
  0
LAYER
  5
CF
330
2
100
AcDbSymbolTableRecord
100
AcDbLayerTableRecord
  2
Mittellinie(MSL)
 70
     0
 62
     1
  6
Continuous
370
    25
390
F
347
21
348
0
  0
LAYER
  5
D0
330
2
100
AcDbSymbolTableRecord
100
AcDbLayerTableRecord
  2
Mittelpunktmarkierung(DIN)
 70
     0
 62
   179
  6
Continuous
370
    25
390
F
347
21
348
0
  0
LAYER
  5
D1
330
2
100
AcDbSymbolTableRecord
100
AcDbLayerTableRecord
  2
Mittelpunktmarkierung(MSL)
 70
     0
 62
     1
  6
Continuous
370
    25
390
F
347
21
348
0
  0
LAYER
  5
DC
330
2
100
AcDbSymbolTableRecord
100
AcDbLayerTableRecord
  2
Sichtbare Kanten(MSL)
 70
     0
 62
     7
  6
Continuous
370
    50
390
F
347
21
348
0
  0
LAYER
  5
E0
330
2
100
AcDbSymbolTableRecord
100
AcDbLayerTableRecord
  2
Skizziergeometrie(MSL)
 70
     0
 62
   179
  6
Continuous
370
    25
390
F
347
21
348
0
  0
LAYER
  5
E1
330
2
100
AcDbSymbolTableRecord
100
AcDbLayerTableRecord
  2
Skizzierlinie(DIN)
 70
     0
 62
   179
  6
Continuous
370
    25
390
F
347
21
348
0
  0
LAYER
  5
E8
330
2
100
AcDbSymbolTableRecord
100
AcDbLayerTableRecord
  2
Symbole(MSL)
 70
     0
 62
   179
  6
Continuous
370
    25
390
F
347
21
348
0
  0
LAYER
  5
EF
330
2
100
AcDbSymbolTableRecord
100
AcDbLayerTableRecord
  2
Verdeckte Kanten(MSL)
 70
     0
 62
    30
  6
Continuous
370
    35
390
F
347
21
348
0
  0
LAYER
  5
22B
330
2
100
AcDbSymbolTableRecord
100
AcDbLayerTableRecord
  2
Defpoints
 70
     0
 62
     7
  6
Continuous
290
     0
370
    -3
390
F
347
21
348
0
  0
ENDTAB
  0
TABLE
  2
STYLE
  5
3
330
0
100
AcDbSymbolTable
 70
    21
  0
STYLE
  5
55
330
3
100
AcDbSymbolTableRecord
100
AcDbTextStyleTableRecord
  2
Standard
 70
     0
 40
0.0
 41
1.0
 50
0.0
 71
     0
 42
0.2
  3
arial.ttf
  4

1001
ACAD
1000
Arial
1071
      256
  0
STYLE
  5
5A
330
3
100
AcDbSymbolTableRecord
100
AcDbTextStyleTableRecord
  2
Annotative
 70
     0
 40
0.0
 41
1.0
 50
0.0
 71
     0
 42
0.2
  3
txt
  4

1001
AcadAnnotative
1000
AnnotativeData
1002
{
1070
     1
1070
     1
1002
}
  0
STYLE
  5
AC
330
3
100
AcDbSymbolTableRecord
100
AcDbTextStyleTableRecord
  2

 70
     1
 40
0.0
 41
1.0
 50
0.0
 71
     0
 42
0.2
  3
ltypeshp.shx
  4

  0
STYLE
  5
F2
330
3
100
AcDbSymbolTableRecord
100
AcDbTextStyleTableRecord
  2
Aktuell-DIN
 70
     0
 40
0.0
 41
1.0
 50
0.0
 71
     0
 42
0.2
  3
arial.ttf
  4

1001
ACAD
1000
Arial
1071
      256
  0
STYLE
  5
F3
330
3
100
AcDbSymbolTableRecord
100
AcDbTextStyleTableRecord
  2
Aktuell-DIN-MSL
 70
     0
 40
0.0
 41
1.0
 50
0.0
 71
     0
 42
0.2
  3
arial.ttf
  4

1001
ACAD
1000
Arial
1071
      256
  0
STYLE
  5
F4
330
3
100
AcDbSymbolTableRecord
100
AcDbTextStyleTableRecord
  2
Aktuell-DIN-MSLGroßer Text
 70
     0
 40
0.0
 41
1.0
 50
0.0
 71
     0
 42
0.2
  3
arial.ttf
  4

1001
ACAD
1000
Arial
1071
      256
  0
STYLE
  5
F5
330
3
100
AcDbSymbolTableRecord
100
AcDbTextStyleTableRecord
  2
Aktuell-DIN-MSLNach Layer
 70
     0
 40
0.0
 41
1.0
 50
0.0
 71
     0
 42
0.2
  3
arial.ttf
  4

1001
ACAD
1000
Arial
1071
      256
  0
STYLE
  5
F6
330
3
100
AcDbSymbolTableRecord
100
AcDbTextStyleTableRecord
  2
Aktuell-DINGroßer Text
 70
     0
 40
0.0
 41
1.0
 50
0.0
 71
     0
 42
0.2
  3
arial.ttf
  4

1001
ACAD
1000
Arial
1071
      256
  0
STYLE
  5
F7
330
3
100
AcDbSymbolTableRecord
100
AcDbTextStyleTableRecord
  2
Aktuell-DINNach Layer
 70
     0
 40
0.0
 41
1.0
 50
0.0
 71
     0
 42
0.2
  3
arial.ttf
  4

1001
ACAD
1000
Arial
1071
      256
  0
STYLE
  5
F8
330
3
100
AcDbSymbolTableRecord
100
AcDbTextStyleTableRecord
  2
NORM
 70
     0
 40
0.0
 41
1.0
 50
0.0
 71
     0
 42
0.2
  3
arial.ttf
  4

1001
ACAD
1000
Arial
1071
      256
  0
STYLE
  5
F9
330
3
100
AcDbSymbolTableRecord
100
AcDbTextStyleTableRecord
  2
NORM-MSL
 70
     0
 40
0.0
 41
1.0
 50
0.0
 71
     0
 42
0.2
  3
arial.ttf
  4

1001
ACAD
1000
Arial
1071
      256
  0
STYLE
  5
FA
330
3
100
AcDbSymbolTableRecord
100
AcDbTextStyleTableRecord
  2
NORMAL-MSL
 70
     0
 40
0.0
 41
1.0
 50
0.0
 71
     0
 42
0.2
  3
arial.ttf
  4

1001
ACAD
1000
Arial
1071
      256
  0
STYLE
  5
FB
330
3
100
AcDbSymbolTableRecord
100
AcDbTextStyleTableRecord
  2
Rahmen_1
 70
     0
 40
0.0
 41
1.0
 50
0.0
 71
     0
 42
0.2
  3
arial.ttf
  4

1001
ACAD
1000
Arial
1071
      256
  0
STYLE
  5
FC
330
3
100
AcDbSymbolTableRecord
100
AcDbTextStyleTableRecord
  2
STANDARD-BSI~0
 70
     0
 40
0.0
 41
1.0
 50
0.0
 71
     0
 42
0.2
  3
arial.ttf
  4

1001
ACAD
1000
Arial
1071
      256
  0
STYLE
  5
195
330
3
100
AcDbSymbolTableRecord
100
AcDbTextStyleTableRecord
  2
Textstil20
 70
     0
 40
0.0
 41
1.0
 50
0.0
 71
     0
 42
0.2
  3
arial.ttf
  4

1001
ACAD
1000
Arial
1071
      256
  0
STYLE
  5
19A
330
3
100
AcDbSymbolTableRecord
100
AcDbTextStyleTableRecord
  2
Textstil31
 70
     0
 40
0.0
 41
1.0
 50
0.0
 71
     0
 42
0.2
  3
arial.ttf
  4

1001
ACAD
1000
Arial
1071
      256
  0
STYLE
  5
1A0
330
3
100
AcDbSymbolTableRecord
100
AcDbTextStyleTableRecord
  2
Textstil10
 70
     0
 40
0.0
 41
1.0
 50
0.0
 71
     0
 42
0.2
  3
arial.ttf
  4

1001
ACAD
1000
Arial
1071
      256
  0
STYLE
  5
1B6
330
3
100
AcDbSymbolTableRecord
100
AcDbTextStyleTableRecord
  2
Textstil32
 70
     0
 40
0.0
 41
1.0
 50
0.0
 71
     0
 42
0.2
  3
arial.ttf
  4

1001
ACAD
1000
Arial
1071
      256
  0
STYLE
  5
E54
330
3
100
AcDbSymbolTableRecord
100
AcDbTextStyleTableRecord
  2

 70
     1
 40
0.0
 41
1.0
 50
0.0
 71
     0
 42
0.2
  3
genltshp.shx
  4

  0
STYLE
  5
E6B
330
3
100
AcDbSymbolTableRecord
100
AcDbTextStyleTableRecord
  2
ACDINTS
 70
     0
 40
0.0
 41
1.0
 50
0.0
 71
     0
 42
0.2
  3
isocp.shx
  4

  0
STYLE
  5
E6C
330
3
100
AcDbSymbolTableRecord
100
AcDbTextStyleTableRecord
  2
ACDINGDT
 70
     0
 40
0.0
 41
1.0
 50
0.0
 71
     0
 42
0.2
  3
amgdt.shx
  4

  0
ENDTAB
  0
TABLE
  2
VIEW
  5
6
330
0
100
AcDbSymbolTable
 70
     0
  0
ENDTAB
  0
TABLE
  2
UCS
  5
7
330
0
100
AcDbSymbolTable
 70
     0
  0
ENDTAB
  0
TABLE
  2
APPID
  5
9
330
0
100
AcDbSymbolTable
 70
    16
  0
APPID
  5
56
330
9
100
AcDbSymbolTableRecord
100
AcDbRegAppTableRecord
  2
ACAD
 70
     0
  0
APPID
  5
5E
330
9
100
AcDbSymbolTableRecord
100
AcDbRegAppTableRecord
  2
AcadAnnotative
 70
     0
  0
APPID
  5
198
330
9
100
AcDbSymbolTableRecord
100
AcDbRegAppTableRecord
  2
AcadAnnoPO
 70
     0
  0
APPID
  5
A10
330
9
100
AcDbSymbolTableRecord
100
AcDbRegAppTableRecord
  2
ACAD_DSTYLE_DIMRADIAL_EXTENSION
 70
     0
  0
APPID
  5
E0C
330
9
100
AcDbSymbolTableRecord
100
AcDbRegAppTableRecord
  2
MCAD_NO_VIS
 70
     0
  0
APPID
  5
E0D
330
9
100
AcDbSymbolTableRecord
100
AcDbRegAppTableRecord
  2
ACAD_TEMP_GRAPHIC
 70
     0
  0
APPID
  5
E17
330
9
100
AcDbSymbolTableRecord
100
AcDbRegAppTableRecord
  2
ACATTRIBSERVICES
 70
     0
  0
APPID
  5
E2F
330
9
100
AcDbSymbolTableRecord
100
AcDbRegAppTableRecord
  2
DESIGNERASSEMBLIES
 70
     0
  0
APPID
  5
E4A
330
9
100
AcDbSymbolTableRecord
100
AcDbRegAppTableRecord
  2
ACAD_DSTYLE_DIMJAG
 70
     0
  0
APPID
  5
E4B
330
9
100
AcDbSymbolTableRecord
100
AcDbRegAppTableRecord
  2
ACAD_DSTYLE_DIMBREAK
 70
     0
  0
APPID
  5
E88
330
9
100
AcDbSymbolTableRecord
100
AcDbRegAppTableRecord
  2
ACAD_NAV_VCDISPLAY
 70
     0
  0
APPID
  5
F7F
330
9
100
AcDbSymbolTableRecord
100
AcDbRegAppTableRecord
  2
ACAD_MLEADERVER
 70
     0
  0
APPID
  5
FA8
330
9
100
AcDbSymbolTableRecord
100
AcDbRegAppTableRecord
  2
ACAD_DSTYLE_DIMJOGGED_JOGANGLE_SYMBOL
 70
     0
  0
APPID
  5
FA9
330
9
100
AcDbSymbolTableRecord
100
AcDbRegAppTableRecord
  2
ACAD_DSTYLE_DIM_LINETYPE
 70
     0
  0
APPID
  5
FAA
330
9
100
AcDbSymbolTableRecord
100
AcDbRegAppTableRecord
  2
ACAD_DSTYLE_DIM_EXT1_LINETYPE
 70
     0
  0
APPID
  5
FAB
330
9
100
AcDbSymbolTableRecord
100
AcDbRegAppTableRecord
  2
ACAD_DSTYLE_DIM_EXT2_LINETYPE
 70
     0
  0
ENDTAB
  0
TABLE
  2
DIMSTYLE
  5
A
330
0
100
AcDbSymbolTable
 70
    25
100
AcDbDimStyleTable
 71
     2
340
10C
340
58
  0
DIMSTYLE
105
58
330
A
100
AcDbSymbolTableRecord
100
AcDbDimStyleTableRecord
  2
Standard
 70
     0
340
55
  0
DIMSTYLE
105
59
330
A
100
AcDbSymbolTableRecord
100
AcDbDimStyleTableRecord
  2
Annotative
 70
     0
340
55
1001
AcadAnnotative
1000
AnnotativeData
1002
{
1070
     1
1070
     1
1002
}
  0
DIMSTYLE
105
10C
102
{ACAD_REACTORS
330
22A
330
32B
330
40D
330
50D
330
5EF
330
6D1
330
7B3
330
895
330
977
330
A23
330
B18
102
}
330
A
100
AcDbSymbolTableRecord
100
AcDbDimStyleTableRecord
  2
NORMAL-MSL
 70
     0
 40
2.0
 41
3.5
 42
0.0
 43
6.099999999999998
 44
1.0
 45
0.00000001
 46
6.999999999999999
 73
     0
 74
     0
 77
     1
 78
     8
 79
     2
140
3.5
143
1.0
146
0.5
147
1.0
172
     1
176
     5
177
     5
178
     7
179
     1
271
     2
272
     2
284
     8
286
     8
340
FA
342
FD
371
     0
372
     0
  0
DIMSTYLE
105
10D
330
A
100
AcDbSymbolTableRecord
100
AcDbDimStyleTableRecord
  2
NORMAL-MSL$7
 70
     0
 40
2.0
 41
2.5
 42
0.0
 43
6.099999999999998
 44
1.0
 45
0.00000001
 46
6.999999999999999
 73
     0
 74
     0
 77
     1
 78
     8
 79
     2
140
3.5
143
1.0
146
0.5
147
1.0
172
     1
176
   179
177
     5
178
     7
179
     1
271
     2
272
     2
284
     8
286
     8
340
FA
342
FD
371
    25
372
     0
  0
DIMSTYLE
105
10E
330
A
100
AcDbSymbolTableRecord
100
AcDbDimStyleTableRecord
  2
NORMAL-MSLGroßer Text
 70
     0
 40
2.0
 41
5.0
 42
0.0
 43
5.0
 44
1.499999999999999
 45
0.00000001
 73
     0
 74
     0
 77
     1
 78
     8
 79
     2
140
5.25
143
1.0
146
0.3333333432674408
147
1.0
172
     1
176
     5
177
     5
178
     7
271
     2
272
     2
284
     8
286
     8
340
F4
371
     0
372
     0
  0
DIMSTYLE
105
10F
330
A
100
AcDbSymbolTableRecord
100
AcDbDimStyleTableRecord
  2
NORMAL-MSLGroßer Text$7
 70
     0
 40
2.0
 41
5.0
 42
0.0
 43
5.0
 44
1.499999999999999
 45
0.00000001
 73
     0
 74
     0
 77
     1
 78
     8
 79
     2
140
5.25
143
1.0
146
0.3333333432674408
147
1.0
172
     1
176
   179
177
     5
178
     7
271
     2
272
     2
284
     8
286
     8
340
F4
371
    25
372
     0
  0
DIMSTYLE
105
110
330
A
100
AcDbSymbolTableRecord
100
AcDbDimStyleTableRecord
  2
STANDARD-DIN
 70
     0
 40
2.0
 41
2.5
 42
0.0
 43
5.999999999999999
 44
3.174999999999998
 45
0.00000001
 46
10.0
 73
     0
 74
     0
 77
     1
140
3.5
143
0.03937
147
0.8
171
     3
172
     1
176
   250
177
   250
178
   250
271
     2
272
     2
274
     3
278
    44
340
FC
371
    25
372
    25
  0
DIMSTYLE
105
111
330
A
100
AcDbSymbolTableRecord
100
AcDbDimStyleTableRecord
  2
STANDARD-DIN$7
 70
     0
 40
2.0
 41
2.5
 42
0.0
 43
5.999999999999999
 44
3.174999999999998
 45
0.00000001
 46
10.0
 73
     0
 74
     0
 77
     1
140
3.5
143
0.03937
147
0.8
171
     3
172
     1
176
   179
177
   250
178
   250
271
     2
272
     2
274
     3
278
    44
340
FC
371
    25
372
    25
  0
DIMSTYLE
105
112
330
A
100
AcDbSymbolTableRecord
100
AcDbDimStyleTableRecord
  2
STANDARD-DINGroßer Text
 70
     0
 40
2.0
 41
5.0
 42
0.0
 43
5.999999999999999
 44
3.174999999999998
 45
0.00000001
 46
10.0
 73
     0
 74
     0
 77
     1
140
5.25
143
0.03937
146
0.6666666865348816
147
0.8
171
     3
172
     1
176
   250
177
   250
178
   179
271
     2
272
     2
274
     3
278
    44
340
F6
371
    25
372
    25
  0
DIMSTYLE
105
113
330
A
100
AcDbSymbolTableRecord
100
AcDbDimStyleTableRecord
  2
STANDARD-DINGroßer Text$7
 70
     0
 40
2.0
 41
5.0
 42
0.0
 43
5.999999999999999
 44
3.174999999999998
 45
0.00000001
 46
10.0
 73
     0
 74
     0
 77
     1
140
5.25
143
0.03937
146
0.6666666865348816
147
0.8
171
     3
172
     1
176
   179
177
   250
178
   179
271
     2
272
     2
274
     3
278
    44
340
F6
371
    25
372
    25
  0
DIMSTYLE
105
114
330
A
100
AcDbSymbolTableRecord
100
AcDbDimStyleTableRecord
  2
Führungslinie-Ursprungsindikator(DIN)
 70
     0
 40
2.0
 41
2.5
340
55
  0
DIMSTYLE
105
115
330
A
100
AcDbSymbolTableRecord
100
AcDbDimStyleTableRecord
  2
Führungslinie-Ursprungsindikator(MSL)
 70
     0
 40
2.0
 41
2.5
340
55
  0
DIMSTYLE
105
120
330
A
100
AcDbSymbolTableRecord
100
AcDbDimStyleTableRecord
  2
Führungslinie - Bezugsstelle(DIN)
 70
     0
 40
2.0
 41
2.5
340
55
  0
DIMSTYLE
105
121
330
A
100
AcDbSymbolTableRecord
100
AcDbDimStyleTableRecord
  2
Führungslinie - Bezugsstelle(MSL)
 70
     0
 40
2.0
 41
2.5
340
55
  0
DIMSTYLE
105
122
330
A
100
AcDbSymbolTableRecord
100
AcDbDimStyleTableRecord
  2
Führungslinie - Punkt(DIN)
 70
     0
 40
2.0
 41
2.5
340
55
  0
DIMSTYLE
105
123
330
A
100
AcDbSymbolTableRecord
100
AcDbDimStyleTableRecord
  2
Führungslinie - Punkt(MSL)
 70
     0
 40
2.0
 41
2.5
340
55
  0
DIMSTYLE
105
124
330
A
100
AcDbSymbolTableRecord
100
AcDbDimStyleTableRecord
  2
Führungslinie(DIN)
 70
     0
 40
2.0
 41
2.5
340
55
  0
DIMSTYLE
105
125
330
A
100
AcDbSymbolTableRecord
100
AcDbDimStyleTableRecord
  2
Führungslinie(MSL)
 70
     0
 40
2.0
 41
2.5
340
55
  0
DIMSTYLE
105
E49
102
{ACAD_REACTORS
330
FE1
102
}
330
A
100
AcDbSymbolTableRecord
100
AcDbDimStyleTableRecord
  2
AM_DIN
 70
     0
  4
"
 41
3.5
 42
1.0
 43
10.0
 44
1.0
 47
0.1
 48
0.1
 50
89.99999999999998
 73
     0
 74
     0
 77
     1
 78
     8
 79
     2
140
3.5
141
0.0
143
0.0393701
146
0.71
147
1.5
172
     1
176
   256
177
   256
178
     2
271
     2
272
     3
274
     4
283
     0
284
     8
340
55
345
5B
346
5B
347
5B
371
    -1
372
    -1
1001
ACAD_DSTYLE_DIMJAG
1070
   388
1040
1.5
1001
ACAD_DSTYLE_DIMBREAK
1070
   391
1040
3.75
1001
ACAD_DSTYLE_DIMJOGGED_JOGANGLE_SYMBOL
1070
   384
1040
1.570796326794896
  0
DIMSTYLE
105
E5B
330
A
100
AcDbSymbolTableRecord
100
AcDbDimStyleTableRecord
  2
AM_DIN$3
 70
     0
  4
"
 41
3.5
 42
1.0
 43
10.0
 44
1.0
 47
0.1
 48
0.1
 50
89.99999999999998
 73
     0
 77
     1
 78
     8
 79
     2
140
3.5
141
0.0
143
0.0393701
146
0.71
147
1.5
176
   256
177
   256
178
     2
271
     2
272
     3
274
     4
283
     0
284
     8
288
     1
289
     0
340
55
345
5B
346
5B
347
5B
371
    -1
372
    -1
1001
ACAD_DSTYLE_DIMBREAK
1070
   391
1040
3.75
1001
ACAD_DSTYLE_DIMJAG
1070
   388
1040
1.5
1001
ACAD_DSTYLE_DIMJOGGED_JOGANGLE_SYMBOL
1070
   384
1040
1.570796326794896
  0
DIMSTYLE
105
E5C
330
A
100
AcDbSymbolTableRecord
100
AcDbDimStyleTableRecord
  2
AM_DIN$4
 70
     0
  4
"
 41
3.5
 42
1.0
 43
10.0
 44
1.0
 47
0.1
 48
0.1
 50
89.99999999999998
 73
     0
 77
     1
 78
     8
 79
     2
140
3.5
141
0.0
143
0.0393701
146
0.71
147
1.5
176
   256
177
   256
178
     2
271
     2
272
     3
274
     4
283
     0
284
     8
288
     1
289
     0
340
55
345
5B
346
5B
347
5B
371
    -1
372
    -1
1001
ACAD_DSTYLE_DIMBREAK
1070
   391
1040
3.75
1001
ACAD_DSTYLE_DIMJAG
1070
   388
1040
1.5
1001
ACAD_DSTYLE_DIMJOGGED_JOGANGLE_SYMBOL
1070
   384
1040
1.570796326794896
  0
DIMSTYLE
105
E5D
330
A
100
AcDbSymbolTableRecord
100
AcDbDimStyleTableRecord
  2
AM_DIN$6
 70
     0
  4
"
 41
3.5
 42
1.0
 43
10.0
 44
1.0
 47
0.1
 48
0.1
 50
89.99999999999998
 73
     0
 74
     0
 78
     8
 79
     2
140
3.5
141
0.0
143
0.0393701
146
0.71
147
1.5
172
     1
176
   256
177
   256
178
     2
271
     2
272
     3
274
     4
283
     0
284
     8
340
55
345
5B
346
5B
347
5B
371
    -1
372
    -1
1001
ACAD_DSTYLE_DIMBREAK
1070
   391
1040
3.75
1001
ACAD_DSTYLE_DIMJAG
1070
   388
1040
1.5
1001
ACAD_DSTYLE_DIMJOGGED_JOGANGLE_SYMBOL
1070
   384
1040
1.570796326794896
  0
DIMSTYLE
105
E5E
330
A
100
AcDbSymbolTableRecord
100
AcDbDimStyleTableRecord
  2
AM_DIN$7
 70
     0
  4
"
 41
3.5
 42
1.0
 43
10.0
 44
1.0
 47
0.1
 48
0.1
 50
89.99999999999998
 73
     0
 74
     0
 77
     1
 78
     8
 79
     2
140
3.5
141
0.0
143
0.0393701
146
0.71
147
1.5
172
     1
176
   256
177
   256
178
     2
271
     2
272
     3
274
     4
283
     0
284
     8
340
55
345
5B
346
5B
347
5B
371
    -1
372
    -1
1001
ACAD_DSTYLE_DIMBREAK
1070
   391
1040
3.75
1001
ACAD_DSTYLE_DIMJAG
1070
   388
1040
1.5
1001
ACAD_DSTYLE_DIMJOGGED_JOGANGLE_SYMBOL
1070
   384
1040
1.570796326794896
  0
DIMSTYLE
105
E5F
330
A
100
AcDbSymbolTableRecord
100
AcDbDimStyleTableRecord
  2
AM_DIN$SF
 70
     0
  4
"
 41
3.5
 42
1.0
 43
10.0
 44
1.0
 47
0.1
 48
0.1
 50
89.99999999999998
 73
     0
 74
     0
 75
     1
 76
     1
 77
     1
 78
     8
 79
     2
140
3.5
141
0.0
143
0.0393701
146
0.71
147
1.5
172
     1
176
   256
177
   256
178
     2
271
     2
272
     3
274
     4
283
     0
284
     8
340
55
345
5B
346
5B
347
5B
371
    -1
372
    -1
1001
ACAD_DSTYLE_DIMBREAK
1070
   391
1040
3.75
1001
ACAD_DSTYLE_DIMJAG
1070
   388
1040
1.5
1001
ACAD_DSTYLE_DIMJOGGED_JOGANGLE_SYMBOL
1070
   384
1040
1.570796326794896
  0
DIMSTYLE
105
E64
330
A
100
AcDbSymbolTableRecord
100
AcDbDimStyleTableRecord
  2
AM_DIN$SH
 70
     0
  4
"
 41
3.5
 42
1.0
 43
10.0
 44
1.0
 47
0.1
 48
0.1
 50
89.99999999999998
 73
     0
 74
     0
 75
     1
 76
     1
 77
     1
 78
     8
 79
     2
140
3.5
141
0.0
143
0.0393701
144
2.0
146
0.71
147
1.5
172
     1
173
     1
176
   256
177
   256
178
     2
271
     2
272
     3
274
     4
283
     0
284
     8
340
55
343
E60
345
5B
346
5B
347
5B
371
    -1
372
    -1
1001
ACAD_DSTYLE_DIMBREAK
1070
   391
1040
3.75
1001
ACAD_DSTYLE_DIMJAG
1070
   388
1040
1.5
1001
ACAD_DSTYLE_DIMJOGGED_JOGANGLE_SYMBOL
1070
   384
1040
1.570796326794896
  0
ENDTAB
  0
TABLE
  2
BLOCK_RECORD
  5
1
330
0
100
AcDbSymbolTable
 70
    22
  0
BLOCK_RECORD
  5
70
330
1
100
AcDbSymbolTableRecord
100
AcDbBlockTableRecord
  2
*Model_Space
340
73
 70
     0
280
     1
281
     0
  0
BLOCK_RECORD
  5
6C
330
1
100
AcDbSymbolTableRecord
100
AcDbBlockTableRecord
  2
*Paper_Space
340
6F
 70
     0
280
     1
281
     0
  0
BLOCK_RECORD
  5
74
330
1
100
AcDbSymbolTableRecord
100
AcDbBlockTableRecord
  2
*Paper_Space0
340
77
 70
     0
280
     1
281
     0
  0
BLOCK_RECORD
  5
FD
330
1
100
AcDbSymbolTableRecord
100
AcDbBlockTableRecord
  2
Filled-1
340
0
102
{BLKREFS
331
1011
331
1012
331
325
331
326
331
407
331
507
331
6CB
331
6CC
331
7AD
331
7AE
331
88F
331
A1E
331
A1F
331
B12
331
B13
331
408
331
508
331
5E9
331
5EA
331
890
331
971
331
972
102
}
 70
     0
280
     1
281
     0
  0
BLOCK_RECORD
  5
116
330
1
100
AcDbSymbolTableRecord
100
AcDbBlockTableRecord
  2
DatumFilled45
340
0
 70
     0
280
     1
281
     0
  0
BLOCK_RECORD
  5
126
330
1
100
AcDbSymbolTableRecord
100
AcDbBlockTableRecord
  2
ACHTUNG_ Nicht freigegeben...
340
0
 70
     0
280
     1
281
     0
  0
BLOCK_RECORD
  5
12B
330
1
100
AcDbSymbolTableRecord
100
AcDbBlockTableRecord
  2
ACHTUNG_ Nur Gültig für Anfrage...
340
0
 70
     0
280
     1
281
     0
  0
BLOCK_RECORD
  5
12F
330
1
100
AcDbSymbolTableRecord
100
AcDbBlockTableRecord
  2
Winkeltoleranz
340
0
 70
     0
280
     1
281
     0
  0
BLOCK_RECORD
  5
135
330
1
100
AcDbSymbolTableRecord
100
AcDbBlockTableRecord
  2
Ränder MSL-A4
340
0
 70
     0
280
     1
281
     0
  0
BLOCK_RECORD
  5
14D
330
1
100
AcDbSymbolTableRecord
100
AcDbBlockTableRecord
  2
Schriftfelder MSL-DIN-A
340
0
 70
     0
280
     1
281
     0
  0
BLOCK_RECORD
  5
22C
330
1
100
AcDbSymbolTableRecord
100
AcDbBlockTableRecord
  2
*D8
340
0
 70
     0
280
     1
281
     0
  0
BLOCK_RECORD
  5
32C
330
1
100
AcDbSymbolTableRecord
100
AcDbBlockTableRecord
  2
*D9
340
0
 70
     0
280
     1
281
     0
  0
BLOCK_RECORD
  5
40E
330
1
100
AcDbSymbolTableRecord
100
AcDbBlockTableRecord
  2
*D10
340
0
 70
     0
280
     1
281
     0
  0
BLOCK_RECORD
  5
50E
330
1
100
AcDbSymbolTableRecord
100
AcDbBlockTableRecord
  2
*D11
340
0
 70
     0
280
     1
281
     0
  0
BLOCK_RECORD
  5
5F0
330
1
100
AcDbSymbolTableRecord
100
AcDbBlockTableRecord
  2
*D12
340
0
 70
     0
280
     1
281
     0
  0
BLOCK_RECORD
  5
6D2
330
1
100
AcDbSymbolTableRecord
100
AcDbBlockTableRecord
  2
*D13
340
0
 70
     0
280
     1
281
     0
  0
BLOCK_RECORD
  5
7B4
330
1
100
AcDbSymbolTableRecord
100
AcDbBlockTableRecord
  2
*D14
340
0
 70
     0
280
     1
281
     0
  0
BLOCK_RECORD
  5
896
330
1
100
AcDbSymbolTableRecord
100
AcDbBlockTableRecord
  2
*D15
340
0
 70
     0
280
     1
281
     0
  0
BLOCK_RECORD
  5
978
330
1
100
AcDbSymbolTableRecord
100
AcDbBlockTableRecord
  2
*D16
340
0
 70
     0
280
     1
281
     0
  0
BLOCK_RECORD
  5
A24
330
1
100
AcDbSymbolTableRecord
100
AcDbBlockTableRecord
  2
*D17
340
0
 70
     0
280
     1
281
     0
  0
BLOCK_RECORD
  5
B19
330
1
100
AcDbSymbolTableRecord
100
AcDbBlockTableRecord
  2
*D18
340
0
 70
     0
280
     1
281
     0
  0
BLOCK_RECORD
  5
E60
330
1
100
AcDbSymbolTableRecord
100
AcDbBlockTableRecord
  2
GENAXEH
340
0
 70
     0
280
     1
281
     0
  0
BLOCK_RECORD
  5
E78
330
1
100
AcDbSymbolTableRecord
100
AcDbBlockTableRecord
  2
_ACMFILLED30
340
0
 70
     0
280
     1
281
     0
  0
ENDTAB
  0
ENDSEC
  0
SECTION
  2
BLOCKS
  0
BLOCK
  5
71
330
70
100
AcDbEntity
  8
0
100
AcDbBlockBegin
  2
*Model_Space
 70
     0
 10
0.0
 20
0.0
 30
0.0
  3
*Model_Space
  1

  0
ENDBLK
  5
72
330
70
100
AcDbEntity
  8
0
100
AcDbBlockEnd
  0
BLOCK
  5
6D
330
6C
100
AcDbEntity
 67
     1
  8
0
100
AcDbBlockBegin
  2
*Paper_Space
 70
     0
 10
0.0
 20
0.0
 30
0.0
  3
*Paper_Space
  1

  0
ENDBLK
  5
6E
330
6C
100
AcDbEntity
 67
     1
  8
0
100
AcDbBlockEnd
  0
BLOCK
  5
75
330
74
100
AcDbEntity
 67
     1
  8
0
100
AcDbBlockBegin
  2
*Paper_Space0
 70
     0
 10
0.0
 20
0.0
 30
0.0
  3
*Paper_Space0
  1

  0
ENDBLK
  5
76
330
74
100
AcDbEntity
 67
     1
  8
0
100
AcDbBlockEnd
  0
BLOCK
  5
FE
330
FD
100
AcDbEntity
  8
0
100
AcDbBlockBegin
  2
Filled-1
 70
     0
 10
0.0
 20
0.0
 30
0.0
  3
Filled-1
  1

  0
LINE
  5
100
330
FD
100
AcDbEntity
  8
0
 62
     0
100
AcDbLine
 10
-1.0
 20
0.0
 30
0.0
 11
0.0
 21
0.0
 31
0.0
  0
POLYLINE
  5
102
330
FD
100
AcDbEntity
  8
0
 62
     0
100
AcDb2dPolyline
 66
     1
 10
0.0
 20
0.0
 30
0.0
 70
   128
  0
VERTEX
  5
103
330
102
100
AcDbEntity
  8
0
 62
     0
100
AcDbVertex
100
AcDb2dVertex
 10
-1.0
 20
-0.1428571428571429
 30
0.0
  0
VERTEX
  5
104
330
102
100
AcDbEntity
  8
0
 62
     0
100
AcDbVertex
100
AcDb2dVertex
 10
0.0
 20
0.0
 30
0.0
  0
VERTEX
  5
106
330
102
100
AcDbEntity
  8
0
 62
     0
100
AcDbVertex
100
AcDb2dVertex
 10
-1.0
 20
0.1428571428571429
 30
0.0
  0
VERTEX
  5
107
330
102
100
AcDbEntity
  8
0
 62
     0
100
AcDbVertex
100
AcDb2dVertex
 10
-1.0
 20
-0.1428571428571429
 30
0.0
  0
SEQEND
  5
105
330
102
100
AcDbEntity
  8
0
 62
     0
  0
SOLID
  5
108
330
FD
100
AcDbEntity
  8
0
 62
     0
100
AcDbTrace
 10
-1.0
 20
-0.1428571428571429
 30
0.0
 11
0.0
 21
0.0
 31
0.0
 12
-1.0
 22
0.1428571428571429
 32
0.0
 13
-1.0
 23
-0.1428571428571429
 33
0.0
  0
LINE
  5
109
330
FD
100
AcDbEntity
  8
0
 62
     0
100
AcDbLine
 10
-1.0
 20
-0.1428571428571429
 30
0.0
 11
0.0
 21
0.0
 31
0.0
  0
LINE
  5
10A
330
FD
100
AcDbEntity
  8
0
 62
     0
100
AcDbLine
 10
0.0
 20
0.0
 30
0.0
 11
-1.0
 21
0.1428571428571429
 31
0.0
  0
LINE
  5
10B
330
FD
100
AcDbEntity
  8
0
 62
     0
100
AcDbLine
 10
-1.0
 20
0.1428571428571429
 30
0.0
 11
-1.0
 21
-0.1428571428571429
 31
0.0
  0
ENDBLK
  5
FF
330
FD
100
AcDbEntity
  8
0
100
AcDbBlockEnd
  0
BLOCK
  5
117
330
116
100
AcDbEntity
  8
0
100
AcDbBlockBegin
  2
DatumFilled45
 70
     0
 10
0.0
 20
0.0
 30
0.0
  3
DatumFilled45
  1

  0
POLYLINE
  5
119
330
116
100
AcDbEntity
  8
0
 62
     0
100
AcDb2dPolyline
 66
     1
 10
0.0
 20
0.0
 30
0.0
 70
   128
  0
VERTEX
  5
11A
330
119
100
AcDbEntity
  8
0
 62
     0
100
AcDbVertex
100
AcDb2dVertex
 10
0.0
 20
1.0
 30
0.0
  0
VERTEX
  5
11B
330
119
100
AcDbEntity
  8
0
 62
     0
100
AcDbVertex
100
AcDb2dVertex
 10
0.0
 20
-1.0
 30
0.0
  0
VERTEX
  5
11D
330
119
100
AcDbEntity
  8
0
 62
     0
100
AcDbVertex
100
AcDb2dVertex
 10
-1.0
 20
0.0
 30
0.0
  0
VERTEX
  5
11E
330
119
100
AcDbEntity
  8
0
 62
     0
100
AcDbVertex
100
AcDb2dVertex
 10
0.0
 20
1.0
 30
0.0
  0
SEQEND
  5
11C
330
119
100
AcDbEntity
  8
0
 62
     0
  0
SOLID
  5
11F
330
116
100
AcDbEntity
  8
0
 62
     0
100
AcDbTrace
 10
0.0
 20
1.0
 30
0.0
 11
0.0
 21
-1.0
 31
0.0
 12
-1.0
 22
0.0
 32
0.0
 13
0.0
 23
1.0
 33
0.0
  0
ENDBLK
  5
118
330
116
100
AcDbEntity
  8
0
100
AcDbBlockEnd
  0
BLOCK
  5
127
330
126
100
AcDbEntity
  8
0
100
AcDbBlockBegin
  2
ACHTUNG_ Nicht freigegeben...
 70
     0
 10
0.0
 20
0.0
 30
0.0
  3
ACHTUNG_ Nicht freigegeben...
  1

  0
MTEXT
  5
129
330
126
100
AcDbEntity
  8
Symbole(MSL)
 62
     7
100
AcDbMText
 10
0.0
 20
-0.9292848594486711
 30
0.0
 40
6.984999775886535
 41
0.0
 46
0.0
 71
     5
 72
     1
  1
\fArial|b0|i1;\H6.9850;ACHTUNG: Zeichnung nicht freigegeben! \PDarf nicht an Kunden wetergeleitet werden!
  7
NORM-MSL
 73
     2
 44
0.9442214965820312
1001
ACAD
1000
MTEXTBEGIN
1070
    73
1070
     2
1070
    44
1040
0.9442214965820312
1070
    74
1070
     0
1000
MTEXTEND
  0
ENDBLK
  5
128
330
126
100
AcDbEntity
  8
0
100
AcDbBlockEnd
  0
BLOCK
  5
12C
330
12B
100
AcDbEntity
  8
0
100
AcDbBlockBegin
  2
ACHTUNG_ Nur Gültig für Anfrage...
 70
     0
 10
0.0
 20
0.0
 30
0.0
  3
ACHTUNG_ Nur Gültig für Anfrage...
  1

  0
MTEXT
  5
12E
102
{ACAD_XDICTIONARY
360
F8C
102
}
330
12B
100
AcDbEntity
  8
Symbole(MSL)
 62
     1
100
AcDbMText
 10
0.0
 20
-0.9292848594486711
 30
0.0
 40
6.984999775886535
 41
0.0
 46
0.0
 71
     5
 72
     1
  1
\fArial|b0|i1;\H6.9850;ACHTUNG: \PZeichnung nur für Anfrage gültig!
  7
NORM-MSL
 73
     2
 44
0.9442214965820312
1001
ACAD
1000
MTEXTBEGIN
1070
    73
1070
     2
1070
    44
1040
0.9442214965820312
1070
    74
1070
     0
1000
MTEXTEND
  0
ENDBLK
  5
12D
330
12B
100
AcDbEntity
  8
0
100
AcDbBlockEnd
  0
BLOCK
  5
130
330
12F
100
AcDbEntity
  8
0
100
AcDbBlockBegin
  2
Winkeltoleranz
 70
     0
 10
0.0
 20
0.0
 30
0.0
  3
Winkeltoleranz
  1

  0
LINE
  5
132
330
12F
100
AcDbEntity
  8
Sichtbare Kanten(MSL)
100
AcDbLine
 10
-2.5
 20
2.500000000000035
 30
0.0
 11
-2.5
 21
-2.5
 31
0.0
  0
LINE
  5
133
330
12F
100
AcDbEntity
  8
Sichtbare Kanten(MSL)
100
AcDbLine
 10
-2.5
 20
-2.5
 30
0.0
 11
2.5
 21
-2.5
 31
0.0
  0
MTEXT
  5
134
330
12F
100
AcDbEntity
  8
Symbole(MSL)
 62
     7
100
AcDbMText
 10
-0.1770562725969516
 20
-2.381897279270575
 30
0.0
 40
2.5
 41
0.0
 46
0.0
 71
     7
 72
     1
  1
\fArial|b0|i0;\H2.5000;+0.1\P- 0.3
  7
NORM-MSL
 73
     2
 44
0.9442214965820312
1001
ACAD
1000
MTEXTBEGIN
1070
    73
1070
     2
1070
    44
1040
0.9442214965820312
1070
    74
1070
     0
1000
MTEXTEND
  0
ENDBLK
  5
131
330
12F
100
AcDbEntity
  8
0
100
AcDbBlockEnd
  0
BLOCK
  5
136
330
135
100
AcDbEntity
  8
0
100
AcDbBlockBegin
  2
Ränder MSL-A4
 70
     0
 10
0.0
 20
0.0
 30
0.0
  3
Ränder MSL-A4
  1

  0
LINE
  5
138
330
135
100
AcDbEntity
  8
Sichtbare Kanten(MSL)
100
AcDbLine
 10
20.00000000000014
 20
9.999999999999987
 30
0.0
 11
203.0000000000002
 21
10.00000000000001
 31
0.0
  0
LINE
  5
139
330
135
100
AcDbEntity
  8
Sichtbare Kanten(MSL)
100
AcDbLine
 10
203.0000000000002
 20
10.00000000000001
 30
0.0
 11
203.0
 21
287.0
 31
0.0
  0
LINE
  5
13A
330
135
100
AcDbEntity
  8
Sichtbare Kanten(MSL)
100
AcDbLine
 10
203.0
 20
287.0
 30
0.0
 11
20.0
 21
287.0
 31
0.0
  0
LINE
  5
13B
330
135
100
AcDbEntity
  8
Sichtbare Kanten(MSL)
100
AcDbLine
 10
20.00000000000001
 20
287.0
 30
0.0
 11
20.00000000000014
 21
10.0
 31
0.0
  0
LINE
  5
13C
330
135
100
AcDbEntity
  8
Sichtbare Kanten(MSL)
100
AcDbLine
 10
19.00000000000003
 20
256.0
 30
0.0
 11
19.00000000000002
 21
271.0
 31
0.0
  0
LINE
  5
13D
330
135
100
AcDbEntity
  8
Sichtbare Kanten(MSL)
100
AcDbLine
 10
12.94632198267914
 20
271.0
 30
0.0
 11
12.94632198267916
 21
256.0
 31
0.0
  0
LINE
  5
13E
330
135
100
AcDbEntity
  8
Sichtbare Kanten(MSL)
100
AcDbLine
 10
12.94632198267916
 20
256.0
 30
0.0
 11
19.00000000000003
 21
256.0
 31
0.0
  0
LINE
  5
13F
330
135
100
AcDbEntity
  8
Sichtbare Kanten(MSL)
100
AcDbLine
 10
19.00000000000002
 20
265.0000000000001
 30
0.0
 11
12.94632198267915
 21
265.0000000000001
 31
0.0
  0
LINE
  5
140
330
135
100
AcDbEntity
  8
Sichtbare Kanten(MSL)
100
AcDbLine
 10
19.00000000000001
 20
272.0
 30
0.0
 11
19.0
 21
287.0
 31
0.0
  0
LINE
  5
141
330
135
100
AcDbEntity
  8
Sichtbare Kanten(MSL)
100
AcDbLine
 10
13.0
 20
287.0
 30
0.0
 11
13.00000000000001
 21
272.0
 31
0.0
  0
LINE
  5
142
330
135
100
AcDbEntity
  8
Sichtbare Kanten(MSL)
100
AcDbLine
 10
19.00000000000002
 20
271.0
 30
0.0
 11
12.94632198267914
 21
271.0
 31
0.0
  0
LINE
  5
143
330
135
100
AcDbEntity
  8
Sichtbare Kanten(MSL)
100
AcDbLine
 10
13.00000000000001
 20
272.0
 30
0.0
 11
19.00000000000001
 21
272.0
 31
0.0
  0
LINE
  5
144
330
135
100
AcDbEntity
  8
Sichtbare Kanten(MSL)
100
AcDbLine
 10
19.00000000000001
 20
281.0
 30
0.0
 11
13.0
 21
281.0
 31
0.0
  0
LINE
  5
145
330
135
100
AcDbEntity
  8
Sichtbare Kanten(MSL)
100
AcDbLine
 10
19.0
 20
287.0
 30
0.0
 11
13.0
 21
287.0
 31
0.0
  0
MTEXT
  5
146
102
{ACAD_XDICTIONARY
360
F8E
102
}
330
135
100
AcDbEntity
  8
Symbole(MSL)
 62
     7
100
AcDbMText
 10
19.79772111726938
 20
9.999999999999751
 30
0.0
 40
2.489199936389923
 41
0.0
 46
0.0
 71
     7
 72
     1
  1
\fArial|b0|i0;\H2.4892;Für dieses Dokument behalten wir uns \P\fArial|b0|i0;\H2.4892;alle Rechte nach SN 210318 vor.
  7
NORM
 11
0.0000000000002967
 21
1.0
 31
0.0
 73
     2
 44
0.9442214369773862
1001
ACAD
1000
MTEXTBEGIN
1070
    73
1070
     2
1070
    44
1040
0.9442214369773862
1070
    74
1070
     0
1000
MTEXTEND
  0
MTEXT
  5
147
330
135
100
AcDbEntity
  8
Symbole(MSL)
 62
     7
100
AcDbMText
 10
19.00000000000005
 20
192.0
 30
0.0
 40
2.70000010728836
 41
0.0
 46
0.0
 71
     7
 72
     1
  1
\fArial|b0|i0;\H2.7000;Allgemeintoleranzen EN 22768-1 u.-2
  7
NORM
 11
0.0000000000002967
 21
1.0
 31
0.0
 73
     1
 44
1.0
1001
ACAD
1000
MTEXTBEGIN
1070
    73
1070
     1
1070
    44
1040
1.0
1070
    74
1070
     0
1000
MTEXTEND
  0
MTEXT
  5
148
330
135
100
AcDbEntity
  8
Symbole(MSL)
 62
     7
100
AcDbMText
 10
17.30000000000003
 20
257.5000000000001
 30
0.0
 40
2.489199936389923
 41
0.0
 46
0.0
 71
     7
 72
     1
  1
\fArial|b0|i0;\H2.4892;<30
  7
NORM
 11
0.0000000000002967
 21
1.0
 31
0.0
 73
     1
 44
1.0
1001
ACAD
1000
MTEXTBEGIN
1070
    73
1070
     1
1070
    44
1040
1.0
1070
    74
1070
     0
1000
MTEXTEND
  0
MTEXT
  5
149
330
135
100
AcDbEntity
  8
Symbole(MSL)
 62
     7
100
AcDbMText
 10
17.30000000000002
 20
266.5
 30
0.0
 40
2.489199936389923
 41
0.0
 46
0.0
 71
     7
 72
     1
  1
\fArial|b0|i0;\H2.4892;m
  7
NORM
 11
0.0000000000002967
 21
1.0
 31
0.0
 73
     1
 44
1.0
1001
ACAD
1000
MTEXTBEGIN
1070
    73
1070
     1
1070
    44
1040
1.0
1070
    74
1070
     0
1000
MTEXTEND
  0
MTEXT
  5
14A
330
135
100
AcDbEntity
  8
Symbole(MSL)
 62
     7
100
AcDbMText
 10
17.30000000000001
 20
273.5000000000001
 30
0.0
 40
2.489199936389923
 41
5.896671414375306
 46
0.0
 71
     7
 72
     1
  1
\fArial|b0|i0;\H2.4892;>30
  7
NORM
 11
0.0000000000002967
 21
1.0
 31
0.0
 73
     1
 44
1.0
1001
ACAD
1000
MTEXTBEGIN
1070
    73
1070
     1
1070
    44
1040
1.0
1070
    74
1070
     0
1000
MTEXTEND
  0
MTEXT
  5
14B
330
135
100
AcDbEntity
  8
Symbole(MSL)
 62
     7
100
AcDbMText
 10
17.3
 20
283.5
 30
0.0
 40
2.5
 41
0.0
 46
0.0
 71
     7
 72
     1
  1
\fArial|b0|i0;\H2.5000;f
  7
NORM
 11
0.0000000000002967
 21
1.0
 31
0.0
 73
     1
 44
1.0
1001
ACAD
1000
MTEXTBEGIN
1070
    73
1070
     1
1070
    44
1040
1.0
1070
    74
1070
     0
1000
MTEXTEND
  0
ENDBLK
  5
137
330
135
100
AcDbEntity
  8
0
100
AcDbBlockEnd
  0
BLOCK
  5
14E
330
14D
100
AcDbEntity
  8
0
100
AcDbBlockBegin
  2
Schriftfelder MSL-DIN-A
 70
     2
 10
0.0
 20
0.0
 30
0.0
  3
Schriftfelder MSL-DIN-A
  1

  0
OLE2FRAME
  5
150
330
14D
100
AcDbEntity
  8
0
100
AcDbOle2Frame
 70
     2
 73
     1
 90
        0
1001
ACAD
1000
OLEBEGIN
1070
    70
1070
     1
1070
    71
1070
     1
1070
    40
1040
0.0
1070
    41
1040
10.68528783434909
1070
    42
1040
10.75207071425583
1070
    72
1070
     0
1070
     3
1000

1070
    90
1071
        0
1070
    43
1040
0.0
1070
     4
1000

1070
    91
1071
        0
1070
    44
1040
0.0
1000
OLEEND
  0
LINE
  5
151
330
14D
100
AcDbEntity
  8
Sichtbare Kanten(MSL)
100
AcDbLine
 10
193.5
 20
65.4
 30
0.0
 11
10.5
 21
65.4
 31
0.0
  0
LINE
  5
152
330
14D
100
AcDbEntity
  8
Sichtbare Kanten(MSL)
100
AcDbLine
 10
193.5
 20
16.7
 30
0.0
 11
10.5
 21
16.7
 31
0.0
  0
LINE
  5
153
330
14D
100
AcDbEntity
  8
Sichtbare Kanten(MSL)
100
AcDbLine
 10
193.5
 20
52.40000000000001
 30
0.0
 11
10.5
 21
52.40000000000001
 31
0.0
  0
LINE
  5
154
330
14D
100
AcDbEntity
  8
Sichtbare Kanten(MSL)
100
AcDbLine
 10
193.5
 20
58.9
 30
0.0
 11
10.5
 21
58.9
 31
0.0
  0
LINE
  5
155
330
14D
100
AcDbEntity
  8
Sichtbare Kanten(MSL)
100
AcDbLine
 10
193.5
 20
4.0
 30
0.0
 11
10.5
 21
4.0
 31
0.0
  0
LINE
  5
156
330
14D
100
AcDbEntity
  8
Skizziergeometrie(MSL)
  6
Continuous
 62
     7
370
    18
100
AcDbLine
 10
178.0
 20
42.2
 30
0.0
 11
130.5
 21
42.20000000000001
 31
0.0
  0
LINE
  5
157
330
14D
100
AcDbEntity
  8
Skizziergeometrie(MSL)
  6
Continuous
 62
     7
370
    18
100
AcDbLine
 10
178.0
 20
47.29999999999999
 30
0.0
 11
130.5
 21
47.30000000000001
 31
0.0
  0
LINE
  5
158
330
14D
100
AcDbEntity
  8
Skizziergeometrie(MSL)
  6
Continuous
 62
     7
370
    18
100
AcDbLine
 10
178.0
 20
37.1
 30
0.0
 11
130.5
 21
37.1
 31
0.0
  0
LINE
  5
159
330
14D
100
AcDbEntity
  8
Skizziergeometrie(MSL)
  6
Continuous
 62
     7
370
    18
100
AcDbLine
 10
130.5
 20
32.00000000000004
 30
0.0
 11
193.5
 21
32.0
 31
0.0
  0
LINE
  5
15A
330
14D
100
AcDbEntity
  8
Skizziergeometrie(MSL)
  6
Continuous
 62
     7
370
    18
100
AcDbLine
 10
178.0
 20
26.9
 30
0.0
 11
130.5
 21
26.90000000000001
 31
0.0
  0
LINE
  5
15B
330
14D
100
AcDbEntity
  8
Skizziergeometrie(MSL)
  6
Continuous
 62
     7
370
    18
100
AcDbLine
 10
178.0
 20
21.8
 30
0.0
 11
130.5
 21
21.8
 31
0.0
  0
LINE
  5
15C
330
14D
100
AcDbEntity
  8
Skizziergeometrie(MSL)
  6
Continuous
 62
     7
370
    18
100
AcDbLine
 10
178.0
 20
21.8
 30
0.0
 11
130.5
 21
21.8
 31
0.0
  0
LINE
  5
15D
330
14D
100
AcDbEntity
  8
Sichtbare Kanten(MSL)
100
AcDbLine
 10
10.5
 20
4.0
 30
0.0
 11
10.5
 21
65.4
 31
0.0
  0
LINE
  5
15E
330
14D
100
AcDbEntity
  8
Sichtbare Kanten(MSL)
100
AcDbLine
 10
130.5
 20
32.00000000000004
 30
0.0
 11
10.5
 21
32.0
 31
0.0
  0
LINE
  5
15F
330
14D
100
AcDbEntity
  8
Sichtbare Kanten(MSL)
100
AcDbLine
 10
50.0
 20
16.7
 30
0.0
 11
50.0
 21
4.000000000000009
 31
0.0
  0
LINE
  5
160
330
14D
100
AcDbEntity
  8
Skizziergeometrie(MSL)
  6
Continuous
 62
     7
370
    18
100
AcDbLine
 10
50.0
 20
21.79999999999996
 30
0.0
 11
10.5
 21
21.8
 31
0.0
  0
LINE
  5
161
330
14D
100
AcDbEntity
  8
Skizziergeometrie(MSL)
  6
Continuous
 62
     7
370
    18
100
AcDbLine
 10
50.0
 20
26.89999999999998
 30
0.0
 11
10.5
 21
26.89999999999999
 31
0.0
  0
LINE
  5
162
330
14D
100
AcDbEntity
  8
Sichtbare Kanten(MSL)
100
AcDbLine
 10
50.0
 20
16.7
 30
0.0
 11
50.0
 21
32.0
 31
0.0
  0
LINE
  5
163
330
14D
100
AcDbEntity
  8
Sichtbare Kanten(MSL)
100
AcDbLine
 10
130.5
 20
16.7
 30
0.0
 11
130.5
 21
52.40000000000001
 31
0.0
  0
LINE
  5
164
330
14D
100
AcDbEntity
  8
Skizziergeometrie(MSL)
  6
Continuous
 62
     7
370
    18
100
AcDbLine
 10
148.3
 20
16.7
 30
0.0
 11
148.3
 21
52.40000000000001
 31
0.0
  0
LINE
  5
165
330
14D
100
AcDbEntity
  8
Skizziergeometrie(MSL)
  6
Continuous
 62
     7
370
    18
100
AcDbLine
 10
161.5
 20
65.40000000000005
 30
0.0
 11
161.5
 21
52.40000000000005
 31
0.0
  0
LINE
  5
166
330
14D
100
AcDbEntity
  8
Sichtbare Kanten(MSL)
100
AcDbLine
 10
193.5
 20
4.0
 30
0.0
 11
193.5
 21
65.4
 31
0.0
  0
LINE
  5
167
330
14D
100
AcDbEntity
  8
Sichtbare Kanten(MSL)
100
AcDbLine
 10
130.5
 20
16.7
 30
0.0
 11
130.5
 21
4.00000000000003
 31
0.0
  0
LINE
  5
168
330
14D
100
AcDbEntity
  8
Sichtbare Kanten(MSL)
100
AcDbLine
 10
185.5
 20
16.7
 30
0.0
 11
185.5
 21
4.000000000000046
 31
0.0
  0
LINE
  5
169
330
14D
100
AcDbEntity
  8
Sichtbare Kanten(MSL)
100
AcDbLine
 10
193.5
 20
11.6
 30
0.0
 11
185.5
 21
11.6
 31
0.0
  0
LINE
  5
16A
330
14D
100
AcDbEntity
  8
Sichtbare Kanten(MSL)
100
AcDbLine
 10
178.0
 20
26.9
 30
0.0
 11
193.5
 21
26.90000000000001
 31
0.0
  0
CIRCLE
  5
16B
330
14D
100
AcDbEntity
  8
Sichtbare Kanten(MSL)
100
AcDbCircle
 10
188.7863742236852
 20
21.8
 30
0.0
 40
2.5
  0
CIRCLE
  5
16C
330
14D
100
AcDbEntity
  8
Sichtbare Kanten(MSL)
100
AcDbCircle
 10
188.7863742236852
 20
21.8
 30
0.0
 40
1.399999999999999
  0
LINE
  5
16D
330
14D
100
AcDbEntity
  8
Sichtbare Kanten(MSL)
100
AcDbLine
 10
178.0
 20
26.9
 30
0.0
 11
178.0
 21
16.7
 31
0.0
  0
LINE
  5
16E
330
14D
100
AcDbEntity
  8
Sichtbare Kanten(MSL)
100
AcDbLine
 10
179.5193396765279
 20
23.16767983953888
 30
0.0
 11
184.5646591694761
 21
24.26832806688241
 31
0.0
  0
LINE
  5
16F
330
14D
100
AcDbEntity
  8
Sichtbare Kanten(MSL)
100
AcDbLine
 10
179.5193396765279
 20
20.32434200276218
 30
0.0
 11
184.5646591694761
 21
19.40713492617844
 31
0.0
  0
LINE
  5
170
330
14D
100
AcDbEntity
  8
Sichtbare Kanten(MSL)
100
AcDbLine
 10
179.5193396765279
 20
23.16767983953888
 30
0.0
 11
179.5193396765279
 21
20.32434200276218
 31
0.0
  0
LINE
  5
171
330
14D
100
AcDbEntity
  8
Skizziergeometrie(MSL)
100
AcDbLine
 10
179.5193396765279
 20
23.16767983953888
 30
0.0
 11
179.5193396765279
 21
20.32434200276218
 31
0.0
  0
LINE
  5
172
330
14D
100
AcDbEntity
  8
Sichtbare Kanten(MSL)
100
AcDbLine
 10
184.5646591694761
 20
21.88359178422037
 30
0.0
 11
184.5646591694761
 21
24.26832806688241
 31
0.0
  0
LINE
  5
173
330
14D
100
AcDbEntity
  8
Sichtbare Kanten(MSL)
100
AcDbLine
 10
184.5646591694761
 20
24.26832806688241
 30
0.0
 11
184.5646591694761
 21
19.40713492617844
 31
0.0
  0
LINE
  5
174
330
14D
100
AcDbEntity
  8
Sichtbare Kanten(MSL)
100
AcDbLine
 10
178.0
 20
37.1
 30
0.0
 11
193.5
 21
37.1
 31
0.0
  0
LINE
  5
175
330
14D
100
AcDbEntity
  8
Sichtbare Kanten(MSL)
100
AcDbLine
 10
178.0
 20
52.40000000000001
 30
0.0
 11
178.0
 21
37.1
 31
0.0
  0
LINE
  5
176
330
14D
100
AcDbEntity
  8
Skizzierlinie(DIN)
  6
Continuous
 62
     7
370
    18
100
AcDbLine
 10
10.49999999999997
 20
35.52500000000001
 30
0.0
 11
130.5
 21
35.52500000000001
 31
0.0
  0
LINE
  5
177
330
14D
100
AcDbEntity
  8
Skizzierlinie(DIN)
  6
Continuous
 62
     7
370
    18
100
AcDbLine
 10
130.5
 20
39.77500000000008
 30
0.0
 11
10.49999999999997
 21
39.77500000000008
 31
0.0
  0
LINE
  5
178
330
14D
100
AcDbEntity
  8
Skizzierlinie(DIN)
  6
Continuous
 62
     7
370
    18
100
AcDbLine
 10
10.49999999999997
 20
44.02499999999998
 30
0.0
 11
130.5
 21
44.02499999999998
 31
0.0
  0
LINE
  5
179
330
14D
100
AcDbEntity
  8
Skizzierlinie(DIN)
  6
Continuous
 62
     7
370
    18
100
AcDbLine
 10
10.49999999999997
 20
48.27500000000002
 30
0.0
 11
130.5
 21
48.27500000000002
 31
0.0
  0
LINE
  5
17A
330
14D
100
AcDbEntity
  8
Skizzierlinie(DIN)
  6
Continuous
 62
     7
370
    18
100
AcDbLine
 10
17.5
 20
32.0
 30
0.0
 11
17.5
 21
52.40000000000001
 31
0.0
  0
LINE
  5
17B
330
14D
100
AcDbEntity
  8
Skizzierlinie(DIN)
  6
Continuous
 62
     7
370
    18
100
AcDbLine
 10
104.5
 20
32.00000000000005
 30
0.0
 11
104.5
 21
52.40000000000001
 31
0.0
  0
LINE
  5
17C
330
14D
100
AcDbEntity
  8
Skizzierlinie(DIN)
  6
Continuous
 62
     7
370
    18
100
AcDbLine
 10
120.5
 20
31.92844166135953
 30
0.0
 11
120.5
 21
52.40000000000002
 31
0.0
  0
LINE
  5
17D
330
14D
100
AcDbEntity
  8
Mittellinie(DIN)
100
AcDbLine
 10
178.7155080797722
 20
21.8
 30
0.0
 11
192.4781518097803
 21
21.80000000000001
 31
0.0
  0
LINE
  5
17E
330
14D
100
AcDbEntity
  8
Mittelpunktmarkierung(DIN)
100
AcDbLine
 10
188.7863742236852
 20
25.15535291043369
 30
0.0
 11
188.7863742236852
 21
18.50631197527923
 31
0.0
  0
LINE
  5
17F
330
14D
100
AcDbEntity
  8
Skizziergeometrie(MSL)
  6
Continuous
 62
     7
370
    18
100
AcDbLine
 10
178.0
 20
42.2
 30
0.0
 11
193.5
 21
42.2
 31
0.0
  0
MTEXT
  5
180
330
14D
100
AcDbEntity
  8
Symbole(MSL)
 62
   179
100
AcDbMText
 10
14.0
 20
32.54477700231396
 30
0.0
 40
2.000000029802321
 41
6.939348698654778
 46
0.0
 71
     8
 72
     1
  1
\fArial|b0|i0;\H2.0000;Ind.
  7
Aktuell-DIN
 73
     1
 44
1.0
1001
ACAD
1000
MTEXTBEGIN
1070
    73
1070
     1
1070
    44
1040
1.0
1070
    74
1070
     0
1000
MTEXTEND
  0
MTEXT
  5
181
102
{ACAD_XDICTIONARY
360
F90
102
}
330
14D
100
AcDbEntity
  8
Symbole(MSL)
 62
   179
100
AcDbMText
 10
18.3
 20
32.03633927358136
 30
0.0
 40
2.006599903106689
 41
25.0
 46
0.0
 71
     7
 72
     1
  1
\fArial|b0|i0;\H2.0066;Änderungen
  7
Aktuell-DIN
 73
     1
 44
1.0
1001
ACAD
1000
MTEXTBEGIN
1070
    73
1070
     1
1070
    44
1040
1.0
1070
    74
1070
     0
1000
MTEXTEND
  0
MTEXT
  5
182
330
14D
100
AcDbEntity
  8
Symbole(MSL)
 62
   179
100
AcDbMText
 10
112.5
 20
32.62940108126624
 30
0.0
 40
2.000000029802321
 41
11.36668657259189
 46
0.0
 71
     8
 72
     1
  1
\fArial|b0|i0;Datum
  7
Aktuell-DIN
 73
     1
 44
1.0
1001
ACAD
1000
MTEXTBEGIN
1070
    73
1070
     1
1070
    44
1040
1.0
1070
    74
1070
     0
1000
MTEXTEND
  0
MTEXT
  5
183
330
14D
100
AcDbEntity
  8
Symbole(MSL)
 62
   179
100
AcDbMText
 10
125.5
 20
32.60063320651014
 30
0.0
 40
2.000000029802321
 41
7.649940282224321
 46
0.0
 71
     8
 72
     1
  1
\fArial|b0|i0;Name
  7
Aktuell-DIN
 73
     1
 44
1.0
1001
ACAD
1000
MTEXTBEGIN
1070
    73
1070
     1
1070
    44
1040
1.0
1070
    74
1070
     0
1000
MTEXTEND
  0
MTEXT
  5
184
102
{ACAD_XDICTIONARY
360
F92
102
}
330
14D
100
AcDbEntity
  8
Symbole(MSL)
 62
     7
100
AcDbMText
 10
23.85928899125401
 20
5.700000000000001
 30
0.0
 40
2.000000029802321
 41
0.0
 46
0.0
 71
     7
 72
     1
  1
\fArial|b0|i0;4245 Kleinlützel
  7
NORM
 73
     1
 44
1.0
1001
ACAD
1000
MTEXTBEGIN
1070
    73
1070
     1
1070
    44
1040
1.0
1070
    74
1070
     0
1000
MTEXTEND
  0
MTEXT
  5
185
102
{ACAD_XDICTIONARY
360
F94
102
}
330
14D
100
AcDbEntity
  8
Symbole(MSL)
 62
     7
100
AcDbMText
 10
23.75676497112405
 20
9.144768392486991
 30
0.0
 40
2.000000029802321
 41
0.0
 46
0.0
 71
     7
 72
     1
  1
\fArial|b0|i0;Beschlägefabrik AG
  7
NORM
 73
     1
 44
1.0
1001
ACAD
1000
MTEXTBEGIN
1070
    73
1070
     1
1070
    44
1040
1.0
1070
    74
1070
     0
1000
MTEXTEND
  0
MTEXT
  5
186
330
14D
100
AcDbEntity
  8
Symbole(MSL)
 62
     7
100
AcDbMText
 10
23.85928899125401
 20
13.7
 30
0.0
 40
2.000000029802321
 41
0.0
 46
0.0
 71
     7
 72
     1
  1
\fArial|b0|i0;Schloss- und
  7
NORM
 73
     1
 44
1.0
1001
ACAD
1000
MTEXTBEGIN
1070
    73
1070
     1
1070
    44
1040
1.0
1070
    74
1070
     0
1000
MTEXTEND
  0
MTEXT
  5
187
102
{ACAD_XDICTIONARY
360
F96
102
}
330
14D
100
AcDbEntity
  8
Symbole(MSL)
 62
     7
100
AcDbMText
 10
11.3
 20
17.70704082781659
 30
0.0
 40
2.000000029802321
 41
0.0
 46
0.0
 71
     7
 72
     1
  1
\fArial|b0|i0;Sep.Stückliste anderer Nr.
  7
NORM
 73
     1
 44
1.0
1001
ACAD
1000
MTEXTBEGIN
1070
    73
1070
     1
1070
    44
1040
1.0
1070
    74
1070
     0
1000
MTEXTEND
  0
MTEXT
  5
188
102
{ACAD_XDICTIONARY
360
F98
102
}
330
14D
100
AcDbEntity
  8
Symbole(MSL)
 62
     7
100
AcDbMText
 10
11.3
 20
23.07136055187773
 30
0.0
 40
2.000000029802321
 41
0.0
 46
0.0
 71
     7
 72
     1
  1
\fArial|b0|i0;Sep.Stückliste gleicher Nr.
  7
NORM
 73
     1
 44
1.0
1001
ACAD
1000
MTEXTBEGIN
1070
    73
1070
     1
1070
    44
1040
1.0
1070
    74
1070
     0
1000
MTEXTEND
  0
MTEXT
  5
189
102
{ACAD_XDICTIONARY
360
F9A
102
}
330
14D
100
AcDbEntity
  8
Symbole(MSL)
 62
     7
100
AcDbMText
 10
11.3
 20
28.03920068984718
 30
0.0
 40
2.000000029802321
 41
0.0
 46
0.0
 71
     7
 72
     1
  1
\fArial|b0|i0;Ohne sep.Stückliste
  7
NORM
 73
     1
 44
1.0
1001
ACAD
1000
MTEXTBEGIN
1070
    73
1070
     1
1070
    44
1040
1.0
1070
    74
1070
     0
1000
MTEXTEND
  0
MTEXT
  5
18A
102
{ACAD_XDICTIONARY
360
F9C
102
}
330
14D
100
AcDbEntity
  8
Symbole(MSL)
 62
     7
100
AcDbMText
 10
131.3
 20
28.6
 30
0.0
 40
2.000000029802321
 41
0.0
 46
0.0
 71
     7
 72
     1
  1
Oberfläche
  7
NORM
 73
     1
 44
1.0
1001
ACAD
1000
MTEXTBEGIN
1070
    73
1070
     1
1070
    44
1040
1.0
1070
    74
1070
     0
1000
MTEXTEND
  0
MTEXT
  5
18B
102
{ACAD_XDICTIONARY
360
F9E
102
}
330
14D
100
AcDbEntity
  8
Symbole(MSL)
 62
     7
100
AcDbMText
 10
131.3
 20
18.40000000000017
 30
0.0
 40
2.000000029802321
 41
0.0
 46
0.0
 71
     7
 72
     1
  1
Ersatz für
  7
NORM
 73
     1
 44
1.0
1001
ACAD
1000
MTEXTBEGIN
1070
    73
1070
     1
1070
    44
1040
1.0
1070
    74
1070
     0
1000
MTEXTEND
  0
MTEXT
  5
18C
330
14D
100
AcDbEntity
  8
Symbole(MSL)
 62
     7
100
AcDbMText
 10
131.3
 20
23.5
 30
0.0
 40
2.000000029802321
 41
0.0
 46
0.0
 71
     7
 72
     1
  1
Ursprung
  7
NORM
 73
     1
 44
1.0
1001
ACAD
1000
MTEXTBEGIN
1070
    73
1070
     1
1070
    44
1040
1.0
1070
    74
1070
     0
1000
MTEXTEND
  0
MTEXT
  5
18D
330
14D
100
AcDbEntity
  8
Symbole(MSL)
 62
     7
100
AcDbMText
 10
131.3
 20
33.7
 30
0.0
 40
2.000000029802321
 41
0.0
 46
0.0
 71
     7
 72
     1
  1
Kunde
  7
NORM
 73
     1
 44
1.0
1001
ACAD
1000
MTEXTBEGIN
1070
    73
1070
     1
1070
    44
1040
1.0
1070
    74
1070
     0
1000
MTEXTEND
  0
MTEXT
  5
18E
330
14D
100
AcDbEntity
  8
Symbole(MSL)
 62
     7
100
AcDbMText
 10
75.5
 20
54.40000000000002
 30
0.0
 40
2.489199936389923
 41
0.0
 46
0.0
 71
     7
 72
     1
  1
\fArial|b0|i0;\H2.4892;Bezeichnung
  7
NORM
 73
     1
 44
1.0
1001
ACAD
1000
MTEXTBEGIN
1070
    73
1070
     1
1070
    44
1040
1.0
1070
    74
1070
     0
1000
MTEXTEND
  0
MTEXT
  5
18F
330
14D
100
AcDbEntity
  8
Symbole(MSL)
 62
     7
100
AcDbMText
 10
131.3
 20
49.00000000000002
 30
0.0
 40
2.000000029802321
 41
0.0
 46
0.0
 71
     7
 72
     1
  1
Gezeichnet
  7
NORM
 73
     1
 44
1.0
1001
ACAD
1000
MTEXTBEGIN
1070
    73
1070
     1
1070
    44
1040
1.0
1070
    74
1070
     0
1000
MTEXTEND
  0
MTEXT
  5
190
330
14D
100
AcDbEntity
  8
Symbole(MSL)
 62
     7
100
AcDbMText
 10
131.3
 20
38.8
 30
0.0
 40
2.000000029802321
 41
0.0
 46
0.0
 71
     7
 72
     1
  1
Freigegeben
  7
NORM
 73
     1
 44
1.0
1001
ACAD
1000
MTEXTBEGIN
1070
    73
1070
     1
1070
    44
1040
1.0
1070
    74
1070
     0
1000
MTEXTEND
  0
MTEXT
  5
191
102
{ACAD_XDICTIONARY
360
FA0
102
}
330
14D
100
AcDbEntity
  8
Symbole(MSL)
 62
     7
100
AcDbMText
 10
131.3
 20
43.89999999999999
 30
0.0
 40
2.000000029802321
 41
0.0
 46
0.0
 71
     7
 72
     1
  1
Geprüft
  7
NORM
 73
     1
 44
1.0
1001
ACAD
1000
MTEXTBEGIN
1070
    73
1070
     1
1070
    44
1040
1.0
1070
    74
1070
     0
1000
MTEXTEND
  0
MTEXT
  5
192
330
14D
100
AcDbEntity
  8
Symbole(MSL)
 62
     7
100
AcDbMText
 10
171.0
 20
54.40000000000004
 30
0.0
 40
2.489199936389923
 41
0.0
 46
0.0
 71
     7
 72
     1
  1
\fArial|b0|i0;\H2.4892;Material
  7
NORM
 73
     1
 44
1.0
1001
ACAD
1000
MTEXTBEGIN
1070
    73
1070
     1
1070
    44
1040
1.0
1070
    74
1070
     0
1000
MTEXTEND
  0
MTEXT
  5
193
330
14D
100
AcDbEntity
  8
Symbole(MSL)
 62
     7
100
AcDbMText
 10
187.1993155281755
 20
13.16734989480926
 30
0.0
 40
2.489199936389923
 41
0.0
 46
0.0
 71
     7
 72
     1
  1
\fArial|b0|i0;\H2.4892;Ae
  7
NORM
 73
     1
 44
1.0
1001
ACAD
1000
MTEXTBEGIN
1070
    73
1070
     1
1070
    44
1040
1.0
1070
    74
1070
     0
1000
MTEXTEND
  0
MTEXT
  5
194
330
14D
100
AcDbEntity
  8
Symbole(MSL)
 62
     7
100
AcDbMText
 10
179.6938987369965
 20
48.69389876899635
 30
0.0
 40
2.000000029802321
 41
0.0
 46
0.0
 71
     7
 72
     1
  1
Massstab
  7
NORM
 73
     1
 44
1.0
1001
ACAD
1000
MTEXTBEGIN
1070
    73
1070
     1
1070
    44
1040
1.0
1070
    74
1070
     0
1000
MTEXTEND
  0
ATTDEF
  5
196
102
{ACAD_XDICTIONARY
360
C18
102
}
330
14D
100
AcDbEntity
  8
Symbole(MSL)
 62
   179
100
AcDbText
 10
130.1791268975673
 20
8.151581441795563
 30
0.0
 40
4.499999880790709
  1
B-14421.13/3mm
  7
Textstil20
100
AcDbAttributeDefinition
280
     0
  3
BAUTEILNUMMER
  2
BAUTEILNUMMER_001
 70
     0
280
     0
  0
ATTDEF
  5
199
102
{ACAD_XDICTIONARY
360
C1B
102
}
330
14D
100
AcDbEntity
  8
Symbole(MSL)
 62
   179
100
AcDbText
 10
50.26070941957229
 20
9.402030866296108
 30
0.0
 40
3.499999940395355
  1
Schlossunterlage
  7
Aktuell-DIN
100
AcDbAttributeDefinition
280
     0
  3
TITEL
  2
TITEL_001
 70
     0
280
     0
  0
ATTDEF
  5
19B
102
{ACAD_XDICTIONARY
360
C1E
102
}
330
14D
100
AcDbEntity
  8
Symbole(MSL)
 62
   179
100
AcDbText
 10
148.4895337248361
 20
49.09044521092496
 30
0.0
 40
2.006599903106689
  1
14.03.2016
  7
Textstil31
100
AcDbAttributeDefinition
280
     0
  3
EDM_CREATE_DATE
  2
EDM_CREATE_DATE_001
 70
     0
280
     0
  0
ATTDEF
  5
19C
102
{ACAD_XDICTIONARY
360
C21
102
}
330
14D
100
AcDbEntity
  8
Symbole(MSL)
 62
   179
100
AcDbText
 10
168.1359102484448
 20
49.12145558147289
 30
0.0
 40
2.006599903106689
  1
ra
  7
Textstil31
100
AcDbAttributeDefinition
280
     0
  3
EDM_CREATE_BY
  2
EDM_CREATE_BY_001
 70
     0
280
     0
  0
ATTDEF
  5
19D
102
{ACAD_XDICTIONARY
360
C24
102
}
330
14D
100
AcDbEntity
  8
Symbole(MSL)
 62
   179
100
AcDbText
 10
168.5
 20
43.59683888939732
 30
0.0
 40
2.006599903106689
  1

  7
Textstil31
 11
168.5
 21
44.60013884095066
 31
0.0
100
AcDbAttributeDefinition
280
     0
  3
EDM_CHECKED_BY
  2
EDM_CHECKED_BY
 70
     0
 74
     2
280
     0
  0
ATTDEF
  5
19E
102
{ACAD_XDICTIONARY
360
C27
102
}
330
14D
100
AcDbEntity
  8
Symbole(MSL)
 62
   179
100
AcDbText
 10
149.1
 20
43.62350199303782
 30
0.0
 40
2.006599903106689
  1

  7
Textstil31
 11
149.1
 21
44.62680194459117
 31
0.0
100
AcDbAttributeDefinition
280
     0
  3
EDM_CHECKED_DATE
  2
EDM_CHECKED_DATE
 70
     0
 74
     2
280
     0
  0
ATTDEF
  5
19F
102
{ACAD_XDICTIONARY
360
C2A
102
}
330
14D
100
AcDbEntity
  8
Symbole(MSL)
 62
   179
100
AcDbText
 10
173.4224685217988
 20
60.48054275445273
 30
0.0
 40
2.006599903106689
  1
1.4301
  7
Textstil31
100
AcDbAttributeDefinition
280
     0
  3
AIMD_MATERIAL
  2
AIMD_MATERIAL_001
 70
     0
280
     0
  0
ATTDEF
  5
1A1
102
{ACAD_XDICTIONARY
360
C2D
102
}
330
14D
100
AcDbEntity
  8
Symbole(MSL)
 62
   179
100
AcDbText
 10
149.1
 20
18.22568338421969
 30
0.0
 40
2.000000029802321
  1

  7
Textstil10
 11
149.1
 21
20.22568341402201
 31
0.0
100
AcDbAttributeDefinition
280
     0
  3
AIMD_REPLACEMENT
  2
AIMD_REPLACEMENT
 70
     0
 74
     3
280
     0
  0
ATTDEF
  5
1A2
102
{ACAD_XDICTIONARY
360
C30
102
}
330
14D
100
AcDbEntity
  8
Symbole(MSL)
 62
   179
100
AcDbText
 10
125.5
 20
36.52978810949181
 30
0.0
 40
2.000000029802321
  1

  7
Textstil10
 72
     1
 11
125.5
 21
37.52978812439297
 31
0.0
100
AcDbAttributeDefinition
280
     0
  3
1AIMD_REVISION_USERNAME
  2
1AIMD_REVISION_USERNAME
 70
     0
 74
     2
280
     0
  0
ATTDEF
  5
1A3
102
{ACAD_XDICTIONARY
360
C33
102
}
330
14D
100
AcDbEntity
  8
Symbole(MSL)
 62
   179
100
AcDbText
 10
18.3
 20
36.50344421338437
 30
0.0
 40
2.000000029802321
  1

  7
Textstil10
 11
18.3
 21
37.50344422828553
 31
0.0
100
AcDbAttributeDefinition
280
     0
  3
1AIMD_REVISION_DESCRIPTION
  2
1AIMD_REVISION_DESCRIPTION
 70
     0
 74
     2
280
     0
  0
ATTDEF
  5
1A4
102
{ACAD_XDICTIONARY
360
C36
102
}
330
14D
100
AcDbEntity
  8
Symbole(MSL)
 62
   179
100
AcDbText
 10
14.0
 20
36.57520184743612
 30
0.0
 40
2.000000029802321
  1

  7
Textstil10
 72
     1
 11
14.0
 21
37.57520186233728
 31
0.0
100
AcDbAttributeDefinition
280
     0
  3
1AIMD_REVISION_INDEX
  2
1AIMD_REVISION_INDEX
 70
     0
 74
     2
280
     0
  0
ATTDEF
  5
1A5
102
{ACAD_XDICTIONARY
360
C39
102
}
330
14D
100
AcDbEntity
  8
Symbole(MSL)
 62
   179
100
AcDbText
 10
125.5
 20
40.80881229513106
 30
0.0
 40
2.000000029802321
  1

  7
Textstil10
 72
     1
 11
125.5
 21
41.80881231003222
 31
0.0
100
AcDbAttributeDefinition
280
     0
  3
2AIMD_REVISION_USERNAME
  2
2AIMD_REVISION_USERNAME
 70
     0
 74
     2
280
     0
  0
ATTDEF
  5
1A6
102
{ACAD_XDICTIONARY
360
C3C
102
}
330
14D
100
AcDbEntity
  8
Symbole(MSL)
 62
   179
100
AcDbText
 10
112.5
 20
40.5506551116835
 30
0.0
 40
2.000000029802321
  1

  7
Textstil10
 72
     1
 11
112.5
 21
41.55065512658466
 31
0.0
100
AcDbAttributeDefinition
280
     0
  3
2AIMD_REVISION_DATE
  2
2AIMD_REVISION_DATE
 70
     0
 74
     2
280
     0
  0
ATTDEF
  5
1A7
102
{ACAD_XDICTIONARY
360
C3F
102
}
330
14D
100
AcDbEntity
  8
Symbole(MSL)
 62
   179
100
AcDbText
 10
18.3
 20
40.97394055995201
 30
0.0
 40
2.000000029802321
  1

  7
Textstil10
 11
18.3
 21
41.97394057485317
 31
0.0
100
AcDbAttributeDefinition
280
     0
  3
2AIMD_REVISION_DESCRIPTION
  2
2AIMD_REVISION_DESCRIPTION
 70
     0
 74
     2
280
     0
  0
ATTDEF
  5
1A8
102
{ACAD_XDICTIONARY
360
C42
102
}
330
14D
100
AcDbEntity
  8
Symbole(MSL)
 62
   179
100
AcDbText
 10
14.0
 20
40.93671746542225
 30
0.0
 40
2.000000029802321
  1

  7
Textstil10
 72
     1
 11
14.0
 21
41.93671748032341
 31
0.0
100
AcDbAttributeDefinition
280
     0
  3
2AIMD_REVISION_INDEX
  2
2AIMD_REVISION_INDEX
 70
     0
 74
     2
280
     0
  0
ATTDEF
  5
1A9
102
{ACAD_XDICTIONARY
360
C45
102
}
330
14D
100
AcDbEntity
  8
Symbole(MSL)
 62
   179
100
AcDbText
 10
125.5
 20
45.03595965151094
 30
0.0
 40
2.000000029802321
  1

  7
Textstil10
 72
     1
 11
125.5
 21
46.0359596664121
 31
0.0
100
AcDbAttributeDefinition
280
     0
  3
3AIMD_REVISION_USERNAME
  2
3AIMD_REVISION_USERNAME
 70
     0
 74
     2
280
     0
  0
ATTDEF
  5
1AA
102
{ACAD_XDICTIONARY
360
C48
102
}
330
14D
100
AcDbEntity
  8
Symbole(MSL)
 62
   179
100
AcDbText
 10
112.5
 20
45.05889235840037
 30
0.0
 40
2.000000029802321
  1

  7
Textstil10
 72
     1
 11
112.5
 21
46.05889237330153
 31
0.0
100
AcDbAttributeDefinition
280
     0
  3
3AIMD_REVISION_DATE
  2
3AIMD_REVISION_DATE
 70
     0
 74
     2
280
     0
  0
ATTDEF
  5
1AB
102
{ACAD_XDICTIONARY
360
C4B
102
}
330
14D
100
AcDbEntity
  8
Symbole(MSL)
 62
   179
100
AcDbText
 10
18.3
 20
45.07718269061245
 30
0.0
 40
2.000000029802321
  1

  7
Textstil10
 11
18.3
 21
46.07718270551361
 31
0.0
100
AcDbAttributeDefinition
280
     0
  3
3AIMD_REVISION_DESCRIPTION
  2
3AIMD_REVISION_DESCRIPTION
 70
     0
 74
     2
280
     0
  0
ATTDEF
  5
1AC
102
{ACAD_XDICTIONARY
360
C4E
102
}
330
14D
100
AcDbEntity
  8
Symbole(MSL)
 62
   179
100
AcDbText
 10
14.0
 20
45.08650417609564
 30
0.0
 40
2.000000029802321
  1

  7
Textstil10
 72
     1
 11
14.0
 21
46.08650419099681
 31
0.0
100
AcDbAttributeDefinition
280
     0
  3
3AIMD_REVISION_INDEX
  2
3AIMD_REVISION_INDEX
 70
     0
 74
     2
280
     0
  0
ATTDEF
  5
1AD
102
{ACAD_XDICTIONARY
360
C51
102
}
330
14D
100
AcDbEntity
  8
Symbole(MSL)
 62
   179
100
AcDbText
 10
125.5
 20
49.28595965151096
 30
0.0
 40
2.000000029802321
  1

  7
Textstil10
 72
     1
 11
125.5
 21
50.28595966641212
 31
0.0
100
AcDbAttributeDefinition
280
     0
  3
4AIMD_REVISION_USERNAME
  2
4AIMD_REVISION_USERNAME
 70
     0
 74
     2
280
     0
  0
ATTDEF
  5
1AE
102
{ACAD_XDICTIONARY
360
C54
102
}
330
14D
100
AcDbEntity
  8
Symbole(MSL)
 62
   179
100
AcDbText
 10
14.0
 20
49.35805764822625
 30
0.0
 40
2.000000029802321
  1

  7
Textstil10
 72
     1
 11
14.0
 21
50.35805766312741
 31
0.0
100
AcDbAttributeDefinition
280
     0
  3
4AIMD_REVISION_INDEX
  2
4AIMD_REVISION_INDEX
 70
     0
 74
     2
280
     0
  0
ATTDEF
  5
1AF
102
{ACAD_XDICTIONARY
360
C57
102
}
330
14D
100
AcDbEntity
  8
Symbole(MSL)
 62
   179
100
AcDbText
 10
112.5
 20
49.30889235840036
 30
0.0
 40
2.000000029802321
  1

  7
Textstil10
 72
     1
 11
112.5
 21
50.30889237330153
 31
0.0
100
AcDbAttributeDefinition
280
     0
  3
4AIMD_REVISION_DATE
  2
4AIMD_REVISION_DATE
 70
     0
 74
     2
280
     0
  0
ATTDEF
  5
1B0
102
{ACAD_XDICTIONARY
360
C5A
102
}
330
14D
100
AcDbEntity
  8
Symbole(MSL)
 62
   179
100
AcDbText
 10
149.1
 20
23.06007321009885
 30
0.0
 40
2.006599903106689
  1

  7
Textstil31
 11
149.1
 21
24.06337316165219
 31
0.0
100
AcDbAttributeDefinition
280
     0
  3
AIMD_ORIGIN
  2
AIMD_ORIGIN
 70
     0
 74
     2
280
     0
  0
ATTDEF
  5
1B1
102
{ACAD_XDICTIONARY
360
C5D
102
}
330
14D
100
AcDbEntity
  8
Symbole(MSL)
 62
   179
100
AcDbText
 10
185.5946112811973
 20
43.49435233769703
 30
0.0
 40
3.499999940395355
  1

  7
Aktuell-DIN
 72
     1
 11
185.5946112811973
 21
46.99435227809239
 31
0.0
100
AcDbAttributeDefinition
280
     0
  3
AIMD_SCALE
  2
AIMD_SCALE
 70
     0
 74
     3
280
     0
  0
ATTDEF
  5
1B2
102
{ACAD_XDICTIONARY
360
C60
102
}
330
14D
100
AcDbEntity
  8
Symbole(MSL)
 62
   179
100
AcDbText
 10
112.5
 20
36.57471443539238
 30
0.0
 40
2.000000029802321
  1

  7
Textstil10
 72
     1
 11
112.5
 21
37.57471445029354
 31
0.0
100
AcDbAttributeDefinition
280
     0
  3
1AIMD_REVISION_DATE
  2
1AIMD_REVISION_DATE
 70
     0
 74
     2
280
     0
  0
ATTDEF
  5
1B3
102
{ACAD_XDICTIONARY
360
C63
102
}
330
14D
100
AcDbEntity
  8
Symbole(MSL)
 62
   179
100
AcDbText
 10
18.3
 20
49.34949162618623
 30
0.0
 40
2.000000029802321
  1

  7
Textstil10
 11
18.3
 21
50.34949164108739
 31
0.0
100
AcDbAttributeDefinition
280
     0
  3
4AIMD_REVISION_DESCRIPTION
  2
4AIMD_REVISION_DESCRIPTION
 70
     0
 74
     2
280
     0
  0
ATTDEF
  5
1B4
102
{ACAD_XDICTIONARY
360
C66
102
}
330
14D
100
AcDbEntity
  8
Symbole(MSL)
 62
     7
100
AcDbText
 10
75.77353320203854
 20
61.38604252032552
 30
0.0
 40
2.000000029802321
  1
Schlossunterlage
  7
NORM
100
AcDbAttributeDefinition
280
     0
  3
TITEL
  2
TITEL_001
 70
     0
280
     0
  0
ATTDEF
  5
1B5
102
{ACAD_XDICTIONARY
360
C69
102
}
330
14D
100
AcDbEntity
  8
Symbole(MSL)
 62
   179
100
AcDbText
 10
189.4833791900584
 20
6.22192556758222
 30
0.0
 40
3.499999940395355
  1

  7
Aktuell-DIN
 72
     1
 11
189.4833791900584
 21
7.971925537779898
 31
0.0
100
AcDbAttributeDefinition
280
     0
  3
AIMD_REV
  2
AIMD_REV
 70
     0
 74
     2
280
     0
  0
ATTDEF
  5
1B7
102
{ACAD_XDICTIONARY
360
C6C
102
}
330
14D
100
AcDbEntity
  8
Symbole(MSL)
 62
   179
100
AcDbText
 10
183.7628904612268
 20
38.33391132517058
 30
0.0
 40
2.489199936389923
  1
A4
  7
Textstil32
100
AcDbAttributeDefinition
280
     0
  3
Blattgröße
  2
Blattgröße_001
 70
     0
280
     0
  0
ATTDEF
  5
1B8
102
{ACAD_XDICTIONARY
360
C6F
102
}
330
14D
100
AcDbEntity
  8
Symbole(MSL)
 62
   179
100
AcDbText
 10
149.1
 20
33.43703615947212
 30
0.0
 40
2.006599903106689
  1

  7
Textstil31
 11
149.1
 21
34.44033611102547
 31
0.0
100
AcDbAttributeDefinition
280
     0
  3
AIMD_FIRMA
  2
AIMD_FIRMA
 70
     0
 74
     2
280
     0
  0
ATTDEF
  5
1B9
102
{ACAD_XDICTIONARY
360
C72
102
}
330
14D
100
AcDbEntity
  8
Symbole(MSL)
 62
   178
100
AcDbText
 10
148.7304352145868
 20
28.8852714714548
 30
0.0
 40
2.006599903106689
  1
matt gebuerstet (mb)
  7
Textstil31
100
AcDbAttributeDefinition
280
     0
  3
AIMD_OBERFL
  2
AIMD_OBERFL_001
 70
     0
280
     0
  0
ATTDEF
  5
1BA
102
{ACAD_XDICTIONARY
360
C75
102
}
330
14D
100
AcDbEntity
  8
Symbole(MSL)
 62
   179
100
AcDbText
 10
149.1
 20
38.59728946105423
 30
0.0
 40
2.000000029802321
  1

  7
NORM
 11
149.1
 21
39.59728947595539
 31
0.0
100
AcDbAttributeDefinition
280
     0
  3
EDM_CHECKED_DATE
  2
EDM_CHECKED_DATE
 70
     0
 74
     2
280
     0
  0
ATTDEF
  5
1BB
102
{ACAD_XDICTIONARY
360
C78
102
}
330
14D
100
AcDbEntity
  8
Symbole(MSL)
 62
   179
100
AcDbText
 10
168.5
 20
38.59952379808523
 30
0.0
 40
2.006599903106689
  1

  7
Textstil31
 11
168.5
 21
39.60282374963858
 31
0.0
100
AcDbAttributeDefinition
280
     0
  3
EDM_CHECKED_BY
  2
EDM_CHECKED_BY
 70
     0
 74
     2
280
     0
  0
ATTDEF
  5
1BC
102
{ACAD_XDICTIONARY
360
C7B
102
}
330
14D
100
AcDbEntity
  8
Symbole(MSL)
 62
     7
100
AcDbText
 10
50.62810368043032
 20
28.55948732698215
 30
0.0
 40
2.000000029802321
  1
sFlipLock Standard / Basis
  7
NORM
100
AcDbAttributeDefinition
280
     0
  3
AIMD_BEZ2
  2
AIMD_BEZ2_001
 70
     0
280
     0
  0
ATTDEF
  5
1BD
102
{ACAD_XDICTIONARY
360
C7E
102
}
330
14D
100
AcDbEntity
  8
Symbole(MSL)
 62
     7
100
AcDbText
 10
50.56534788122267
 20
23.13281063699069
 30
0.0
 40
2.000000029802321
  1
320x24x3mm
  7
NORM
100
AcDbAttributeDefinition
280
     0
  3
AIMD_BEZ3
  2
AIMD_BEZ3_001
 70
     0
280
     0
  0
ATTDEF
  5
1BE
102
{ACAD_XDICTIONARY
360
C81
102
}
330
14D
100
AcDbEntity
  8
Symbole(MSL)
 62
     7
100
AcDbText
 10
50.79999999999992
 20
18.09884856114829
 30
0.0
 40
2.000000029802321
  1

  7
NORM
 11
50.79999999999992
 21
19.09884857604945
 31
0.0
100
AcDbAttributeDefinition
280
     0
  3
AIMD_BEZ4
  2
AIMD_BEZ4
 70
     0
 74
     2
280
     0
  0
ENDBLK
  5
14F
330
14D
100
AcDbEntity
  8
0
100
AcDbBlockEnd
  0
BLOCK
  5
22D
330
22C
100
AcDbEntity
  8
0
100
AcDbBlockBegin
  2
*D8
 70
     1
 10
0.0
 20
0.0
 30
0.0
  3
*D8
  1

  0
LINE
  5
320
330
22C
100
AcDbEntity
  8
Bemaßungen(MSL)
  6
Continuous
 62
     5
440
 16777216
370
     0
100
AcDbLine
 10
157.1615690918132
 20
525.4638604583416
 30
0.0
 11
133.7724225329453
 21
525.4638604583416
 31
0.0
  0
LINE
  5
321
330
22C
100
AcDbEntity
  8
Bemaßungen(MSL)
  6
Continuous
 62
     5
440
 16777216
370
     0
100
AcDbLine
 10
161.4115690918132
 20
513.4638604583416
 30
0.0
 11
133.7724225329453
 21
513.4638604583416
 31
0.0
  0
LINE
  5
322
330
22C
100
AcDbEntity
  8
Bemaßungen(MSL)
  6
Continuous
 62
     5
440
 16777216
370
     0
100
AcDbLine
 10
135.7724225329453
 20
532.4638604583416
 30
0.0
 11
135.7724225329453
 21
539.4638604583416
 31
0.0
  0
LINE
  5
323
330
22C
100
AcDbEntity
  8
Bemaßungen(MSL)
  6
Continuous
 62
     5
440
 16777216
370
     0
100
AcDbLine
 10
135.7724225329453
 20
506.4638604583415
 30
0.0
 11
135.7724225329453
 21
499.4638604583417
 31
0.0
  0
LINE
  5
324
330
22C
100
AcDbEntity
  8
Bemaßungen(MSL)
  6
Continuous
 62
     5
440
 16777216
370
     0
100
AcDbLine
 10
135.7724225329453
 20
525.4638604583416
 30
0.0
 11
135.7724225329453
 21
513.4638604583416
 31
0.0
  0
INSERT
  5
325
330
22C
100
AcDbEntity
  8
Bemaßungen(MSL)
  6
Continuous
 62
     5
440
 16777216
370
     0
100
AcDbBlockReference
  2
Filled-1
 10
135.7724225329453
 20
525.4638604583416
 30
0.0
 41
7.0
 42
7.0
 43
7.0
 50
270.0
  0
INSERT
  5
326
330
22C
100
AcDbEntity
  8
Bemaßungen(MSL)
  6
Continuous
 62
     5
440
 16777216
370
     0
100
AcDbBlockReference
  2
Filled-1
 10
135.7724225329453
 20
513.4638604583416
 30
0.0
 41
7.0
 42
7.0
 43
7.0
 50
90.0
  0
MTEXT
  5
327
330
22C
100
AcDbEntity
  8
Bemaßungen(MSL)
  6
Continuous
 62
     7
440
 16777216
370
     5
100
AcDbMText
 10
126.7437731059485
 20
514.8154975390609
 30
0.0
 40
7.0
 41
0.0
 46
0.0
 71
     1
 72
     1
  1
\A1;12
  7
NORMAL-MSL
 11
0.0000000000000001
 21
1.0
 31
0.0
 73
     1
 44
1.0
1001
ACAD
1000
MTEXTBEGIN
1070
    73
1070
     1
1070
    44
1040
1.0
1070
    74
1070
     0
1000
MTEXTEND
  0
POINT
  5
328
330
22C
100
AcDbEntity
  8
Defpoints
  6
Continuous
 62
     0
440
 16777216
100
AcDbPoint
 10
157.1615690918132
 20
525.4638604583416
 30
0.0
  0
POINT
  5
329
330
22C
100
AcDbEntity
  8
Defpoints
  6
Continuous
 62
     0
440
 16777216
100
AcDbPoint
 10
161.4115690918132
 20
513.4638604583416
 30
0.0
  0
POINT
  5
32A
330
22C
100
AcDbEntity
  8
Defpoints
  6
Continuous
 62
     0
440
 16777216
100
AcDbPoint
 10
135.7724225329453
 20
513.4638604583416
 30
0.0
  0
ENDBLK
  5
22E
330
22C
100
AcDbEntity
  8
0
100
AcDbBlockEnd
  0
BLOCK
  5
32D
330
32C
100
AcDbEntity
  8
0
100
AcDbBlockBegin
  2
*D9
 70
     1
 10
0.0
 20
0.0
 30
0.0
  3
*D9
  1

  0
LINE
  5
404
330
32C
100
AcDbEntity
  8
Bemaßungen(MSL)
  6
Continuous
 62
     5
440
 16777216
370
     0
100
AcDbLine
 10
161.4115690918132
 20
513.4638604583416
 30
0.0
 11
133.7724225329453
 21
513.4638604583416
 31
0.0
  0
LINE
  5
405
330
32C
100
AcDbEntity
  8
Bemaßungen(MSL)
  6
Continuous
 62
     5
440
 16777216
370
     0
100
AcDbLine
 10
161.4115690918133
 20
217.4638604583417
 30
0.0
 11
133.7724225329452
 21
217.4638604583417
 31
0.0
  0
LINE
  5
406
330
32C
100
AcDbEntity
  8
Bemaßungen(MSL)
  6
Continuous
 62
     5
440
 16777216
370
     0
100
AcDbLine
 10
135.7724225329453
 20
506.4638604583415
 30
0.0
 11
135.7724225329452
 21
224.4638604583418
 31
0.0
  0
INSERT
  5
407
330
32C
100
AcDbEntity
  8
Bemaßungen(MSL)
  6
Continuous
 62
     5
440
 16777216
370
     0
100
AcDbBlockReference
  2
Filled-1
 10
135.7724225329453
 20
513.4638604583416
 30
0.0
 41
7.0
 42
7.0
 43
7.0
 50
90.0
  0
INSERT
  5
408
330
32C
100
AcDbEntity
  8
Bemaßungen(MSL)
  6
Continuous
 62
     5
440
 16777216
370
     0
100
AcDbBlockReference
  2
Filled-1
 10
135.7724225329452
 20
217.4638604583417
 30
0.0
 41
7.0
 42
7.0
 43
7.0
 50
270.0
  0
MTEXT
  5
409
330
32C
100
AcDbEntity
  8
Bemaßungen(MSL)
  6
Continuous
 62
     7
440
 16777216
370
     5
100
AcDbMText
 10
126.6244006632345
 20
357.6736148468302
 30
0.0
 40
7.0
 41
0.0
 46
0.0
 71
     1
 72
     1
  1
\A1;296
  7
NORMAL-MSL
 11
0.0000000000000001
 21
1.0
 31
0.0
 73
     1
 44
1.0
1001
ACAD
1000
MTEXTBEGIN
1070
    73
1070
     1
1070
    44
1040
1.0
1070
    74
1070
     0
1000
MTEXTEND
  0
POINT
  5
40A
330
32C
100
AcDbEntity
  8
Defpoints
  6
Continuous
 62
     0
440
 16777216
100
AcDbPoint
 10
161.4115690918132
 20
513.4638604583416
 30
0.0
  0
POINT
  5
40B
330
32C
100
AcDbEntity
  8
Defpoints
  6
Continuous
 62
     0
440
 16777216
100
AcDbPoint
 10
161.4115690918133
 20
217.4638604583417
 30
0.0
  0
POINT
  5
40C
330
32C
100
AcDbEntity
  8
Defpoints
  6
Continuous
 62
     0
440
 16777216
100
AcDbPoint
 10
135.7724225329452
 20
217.4638604583417
 30
0.0
  0
ENDBLK
  5
32E
330
32C
100
AcDbEntity
  8
0
100
AcDbBlockEnd
  0
BLOCK
  5
40F
330
40E
100
AcDbEntity
  8
0
100
AcDbBlockBegin
  2
*D10
 70
     1
 10
0.0
 20
0.0
 30
0.0
  3
*D10
  1

  0
LINE
  5
502
330
40E
100
AcDbEntity
  8
Bemaßungen(MSL)
  6
Continuous
 62
     5
440
 16777216
370
     0
100
AcDbLine
 10
161.4115690918133
 20
217.4638604583417
 30
0.0
 11
133.7724225329452
 21
217.4638604583417
 31
0.0
  0
LINE
  5
503
330
40E
100
AcDbEntity
  8
Bemaßungen(MSL)
  6
Continuous
 62
     5
440
 16777216
370
     0
100
AcDbLine
 10
157.1615690918133
 20
205.4638604583417
 30
0.0
 11
133.7724225329452
 21
205.4638604583417
 31
0.0
  0
LINE
  5
504
330
40E
100
AcDbEntity
  8
Bemaßungen(MSL)
  6
Continuous
 62
     5
440
 16777216
370
     0
100
AcDbLine
 10
135.7724225329452
 20
224.4638604583418
 30
0.0
 11
135.7724225329452
 21
231.4638604583417
 31
0.0
  0
LINE
  5
505
330
40E
100
AcDbEntity
  8
Bemaßungen(MSL)
  6
Continuous
 62
     5
440
 16777216
370
     0
100
AcDbLine
 10
135.7724225329452
 20
198.4638604583416
 30
0.0
 11
135.7724225329452
 21
191.4638604583417
 31
0.0
  0
LINE
  5
506
330
40E
100
AcDbEntity
  8
Bemaßungen(MSL)
  6
Continuous
 62
     5
440
 16777216
370
     0
100
AcDbLine
 10
135.7724225329452
 20
217.4638604583417
 30
0.0
 11
135.7724225329452
 21
205.4638604583417
 31
0.0
  0
INSERT
  5
507
330
40E
100
AcDbEntity
  8
Bemaßungen(MSL)
  6
Continuous
 62
     5
440
 16777216
370
     0
100
AcDbBlockReference
  2
Filled-1
 10
135.7724225329452
 20
217.4638604583417
 30
0.0
 41
7.0
 42
7.0
 43
7.0
 50
270.0
  0
INSERT
  5
508
330
40E
100
AcDbEntity
  8
Bemaßungen(MSL)
  6
Continuous
 62
     5
440
 16777216
370
     0
100
AcDbBlockReference
  2
Filled-1
 10
135.7724225329452
 20
205.4638604583417
 30
0.0
 41
7.0
 42
7.0
 43
7.0
 50
90.0
  0
MTEXT
  5
509
330
40E
100
AcDbEntity
  8
Bemaßungen(MSL)
  6
Continuous
 62
     7
440
 16777216
370
     5
100
AcDbMText
 10
126.7437731059485
 20
206.815497539061
 30
0.0
 40
7.0
 41
0.0
 46
0.0
 71
     1
 72
     1
  1
\A1;12
  7
NORMAL-MSL
 11
0.0000000000000001
 21
1.0
 31
0.0
 73
     1
 44
1.0
1001
ACAD
1000
MTEXTBEGIN
1070
    73
1070
     1
1070
    44
1040
1.0
1070
    74
1070
     0
1000
MTEXTEND
  0
POINT
  5
50A
330
40E
100
AcDbEntity
  8
Defpoints
  6
Continuous
 62
     0
440
 16777216
100
AcDbPoint
 10
161.4115690918133
 20
217.4638604583417
 30
0.0
  0
POINT
  5
50B
330
40E
100
AcDbEntity
  8
Defpoints
  6
Continuous
 62
     0
440
 16777216
100
AcDbPoint
 10
157.1615690918133
 20
205.4638604583417
 30
0.0
  0
POINT
  5
50C
330
40E
100
AcDbEntity
  8
Defpoints
  6
Continuous
 62
     0
440
 16777216
100
AcDbPoint
 10
135.7724225329452
 20
205.4638604583417
 30
0.0
  0
ENDBLK
  5
410
330
40E
100
AcDbEntity
  8
0
100
AcDbBlockEnd
  0
BLOCK
  5
50F
330
50E
100
AcDbEntity
  8
0
100
AcDbBlockBegin
  2
*D11
 70
     1
 10
0.0
 20
0.0
 30
0.0
  3
*D11
  1

  0
LINE
  5
5E6
330
50E
100
AcDbEntity
  8
Bemaßungen(MSL)
  6
Continuous
 62
     5
440
 16777216
370
     0
100
AcDbLine
 10
157.1615690918133
 20
205.4638604583417
 30
0.0
 11
157.1615690918133
 21
177.2638604583416
 31
0.0
  0
LINE
  5
5E7
330
50E
100
AcDbEntity
  8
Bemaßungen(MSL)
  6
Continuous
 62
     5
440
 16777216
370
     0
100
AcDbLine
 10
181.1615690918133
 20
205.4638604583417
 30
0.0
 11
181.1615690918133
 21
177.2638604583416
 31
0.0
  0
LINE
  5
5E8
330
50E
100
AcDbEntity
  8
Bemaßungen(MSL)
  6
Continuous
 62
     5
440
 16777216
370
     0
100
AcDbLine
 10
164.1615690918133
 20
179.2638604583416
 30
0.0
 11
174.1615690918133
 21
179.2638604583416
 31
0.0
  0
INSERT
  5
5E9
330
50E
100
AcDbEntity
  8
Bemaßungen(MSL)
  6
Continuous
 62
     5
440
 16777216
370
     0
100
AcDbBlockReference
  2
Filled-1
 10
157.1615690918133
 20
179.2638604583416
 30
0.0
 41
7.0
 42
7.0
 43
7.0
 50
180.0
  0
INSERT
  5
5EA
330
50E
100
AcDbEntity
  8
Bemaßungen(MSL)
  6
Continuous
 62
     5
440
 16777216
370
     0
100
AcDbBlockReference
  2
Filled-1
 10
181.1615690918133
 20
179.2638604583416
 30
0.0
 41
7.0
 42
7.0
 43
7.0
  0
MTEXT
  5
5EB
330
50E
100
AcDbEntity
  8
Bemaßungen(MSL)
  6
Continuous
 62
     7
440
 16777216
370
     5
100
AcDbMText
 10
164.1025649695966
 20
188.2925098853384
 30
0.0
 40
7.0
 41
0.0
 46
0.0
 71
     1
 72
     1
  1
\A1;24
  7
NORMAL-MSL
 73
     1
 44
1.0
1001
ACAD
1000
MTEXTBEGIN
1070
    73
1070
     1
1070
    44
1040
1.0
1070
    74
1070
     0
1000
MTEXTEND
  0
POINT
  5
5EC
330
50E
100
AcDbEntity
  8
Defpoints
  6
Continuous
 62
     0
440
 16777216
100
AcDbPoint
 10
157.1615690918133
 20
205.4638604583417
 30
0.0
  0
POINT
  5
5ED
330
50E
100
AcDbEntity
  8
Defpoints
  6
Continuous
 62
     0
440
 16777216
100
AcDbPoint
 10
181.1615690918133
 20
205.4638604583417
 30
0.0
  0
POINT
  5
5EE
330
50E
100
AcDbEntity
  8
Defpoints
  6
Continuous
 62
     0
440
 16777216
100
AcDbPoint
 10
181.1615690918133
 20
179.2638604583416
 30
0.0
  0
ENDBLK
  5
510
330
50E
100
AcDbEntity
  8
0
100
AcDbBlockEnd
  0
BLOCK
  5
5F1
330
5F0
100
AcDbEntity
  8
0
100
AcDbBlockBegin
  2
*D12
 70
     1
 10
0.0
 20
0.0
 30
0.0
  3
*D12
  1

  0
LINE
  5
6C8
330
5F0
100
AcDbEntity
  8
Bemaßungen(MSL)
  6
Continuous
 62
     5
440
 16777216
370
     0
100
AcDbLine
 10
157.1615690918132
 20
525.4638604583416
 30
0.0
 11
113.6806943431071
 21
525.4638604583416
 31
0.0
  0
LINE
  5
6C9
330
5F0
100
AcDbEntity
  8
Bemaßungen(MSL)
  6
Continuous
 62
     5
440
 16777216
370
     0
100
AcDbLine
 10
157.1615690918133
 20
205.4638604583417
 30
0.0
 11
113.680694343107
 21
205.4638604583417
 31
0.0
  0
LINE
  5
6CA
330
5F0
100
AcDbEntity
  8
Bemaßungen(MSL)
  6
Continuous
 62
     5
440
 16777216
370
     0
100
AcDbLine
 10
115.6806943431071
 20
518.4638604583416
 30
0.0
 11
115.680694343107
 21
212.4638604583418
 31
0.0
  0
INSERT
  5
6CB
330
5F0
100
AcDbEntity
  8
Bemaßungen(MSL)
  6
Continuous
 62
     5
440
 16777216
370
     0
100
AcDbBlockReference
  2
Filled-1
 10
115.6806943431071
 20
525.4638604583416
 30
0.0
 41
7.0
 42
7.0
 43
7.0
 50
90.0
  0
INSERT
  5
6CC
330
5F0
100
AcDbEntity
  8
Bemaßungen(MSL)
  6
Continuous
 62
     5
440
 16777216
370
     0
100
AcDbBlockReference
  2
Filled-1
 10
115.680694343107
 20
205.4638604583417
 30
0.0
 41
7.0
 42
7.0
 43
7.0
 50
270.0
  0
MTEXT
  5
6CD
330
5F0
100
AcDbEntity
  8
Bemaßungen(MSL)
  6
Continuous
 62
     7
440
 16777216
370
     5
100
AcDbMText
 10
106.5278975756878
 20
357.7452383124585
 30
0.0
 40
7.0
 41
0.0
 46
0.0
 71
     1
 72
     1
  1
\A1;320
  7
NORMAL-MSL
 11
0.0000000000000001
 21
1.0
 31
0.0
 73
     1
 44
1.0
1001
ACAD
1000
MTEXTBEGIN
1070
    73
1070
     1
1070
    44
1040
1.0
1070
    74
1070
     0
1000
MTEXTEND
  0
POINT
  5
6CE
330
5F0
100
AcDbEntity
  8
Defpoints
  6
Continuous
 62
     0
440
 16777216
100
AcDbPoint
 10
157.1615690918132
 20
525.4638604583416
 30
0.0
  0
POINT
  5
6CF
330
5F0
100
AcDbEntity
  8
Defpoints
  6
Continuous
 62
     0
440
 16777216
100
AcDbPoint
 10
157.1615690918133
 20
205.4638604583417
 30
0.0
  0
POINT
  5
6D0
330
5F0
100
AcDbEntity
  8
Defpoints
  6
Continuous
 62
     0
440
 16777216
100
AcDbPoint
 10
115.680694343107
 20
205.4638604583417
 30
0.0
  0
ENDBLK
  5
5F2
330
5F0
100
AcDbEntity
  8
0
100
AcDbBlockEnd
  0
BLOCK
  5
6D3
330
6D2
100
AcDbEntity
  8
0
100
AcDbBlockBegin
  2
*D13
 70
     1
 10
0.0
 20
0.0
 30
0.0
  3
*D13
  1

  0
LINE
  5
7AA
330
6D2
100
AcDbEntity
  8
Bemaßungen(MSL)
  6
Continuous
 62
     5
440
 16777216
370
     0
100
AcDbLine
 10
181.1615690918133
 20
205.4638604583417
 30
0.0
 11
207.1713967679272
 21
205.4638604583417
 31
0.0
  0
LINE
  5
7AB
330
6D2
100
AcDbEntity
  8
Bemaßungen(MSL)
  6
Continuous
 62
     5
440
 16777216
370
     0
100
AcDbLine
 10
177.1615690918133
 20
235.4638604583418
 30
0.0
 11
207.1713967679272
 21
235.4638604583417
 31
0.0
  0
LINE
  5
7AC
330
6D2
100
AcDbEntity
  8
Bemaßungen(MSL)
  6
Continuous
 62
     5
440
 16777216
370
     0
100
AcDbLine
 10
205.1713967679272
 20
212.4638604583417
 30
0.0
 11
205.1713967679272
 21
228.4638604583417
 31
0.0
  0
INSERT
  5
7AD
330
6D2
100
AcDbEntity
  8
Bemaßungen(MSL)
  6
Continuous
 62
     5
440
 16777216
370
     0
100
AcDbBlockReference
  2
Filled-1
 10
205.1713967679272
 20
205.4638604583417
 30
0.0
 41
7.0
 42
7.0
 43
7.0
 50
270.0
  0
INSERT
  5
7AE
330
6D2
100
AcDbEntity
  8
Bemaßungen(MSL)
  6
Continuous
 62
     5
440
 16777216
370
     0
100
AcDbBlockReference
  2
Filled-1
 10
205.1713967679272
 20
235.4638604583417
 30
0.0
 41
7.0
 42
7.0
 43
7.0
 50
90.0
  0
MTEXT
  5
7AF
330
6D2
100
AcDbEntity
  8
Bemaßungen(MSL)
  6
Continuous
 62
     7
440
 16777216
370
     5
100
AcDbMText
 10
196.0186000005079
 20
215.464542557482
 30
0.0
 40
7.0
 41
0.0
 46
0.0
 71
     1
 72
     1
  1
\A1;30
  7
NORMAL-MSL
 11
0.0000000000000001
 21
1.0
 31
0.0
 73
     1
 44
1.0
1001
ACAD
1000
MTEXTBEGIN
1070
    73
1070
     1
1070
    44
1040
1.0
1070
    74
1070
     0
1000
MTEXTEND
  0
POINT
  5
7B0
330
6D2
100
AcDbEntity
  8
Defpoints
  6
Continuous
 62
     0
440
 16777216
100
AcDbPoint
 10
181.1615690918133
 20
205.4638604583417
 30
0.0
  0
POINT
  5
7B1
330
6D2
100
AcDbEntity
  8
Defpoints
  6
Continuous
 62
     0
440
 16777216
100
AcDbPoint
 10
177.1615690918133
 20
235.4638604583418
 30
0.0
  0
POINT
  5
7B2
330
6D2
100
AcDbEntity
  8
Defpoints
  6
Continuous
 62
     0
440
 16777216
100
AcDbPoint
 10
205.1713967679272
 20
235.4638604583417
 30
0.0
  0
ENDBLK
  5
6D4
330
6D2
100
AcDbEntity
  8
0
100
AcDbBlockEnd
  0
BLOCK
  5
7B5
330
7B4
100
AcDbEntity
  8
0
100
AcDbBlockBegin
  2
*D14
 70
     1
 10
0.0
 20
0.0
 30
0.0
  3
*D14
  1

  0
LINE
  5
88C
330
7B4
100
AcDbEntity
  8
Bemaßungen(MSL)
  6
Continuous
 62
     5
440
 16777216
370
     0
100
AcDbLine
 10
177.1615690918133
 20
235.4638604583418
 30
0.0
 11
207.1713967679272
 21
235.4638604583417
 31
0.0
  0
LINE
  5
88D
330
7B4
100
AcDbEntity
  8
Bemaßungen(MSL)
  6
Continuous
 62
     5
440
 16777216
370
     0
100
AcDbLine
 10
177.1615690918133
 20
485.4638604583416
 30
0.0
 11
207.1713967679272
 21
485.4638604583416
 31
0.0
  0
LINE
  5
88E
330
7B4
100
AcDbEntity
  8
Bemaßungen(MSL)
  6
Continuous
 62
     5
440
 16777216
370
     0
100
AcDbLine
 10
205.1713967679272
 20
242.4638604583417
 30
0.0
 11
205.1713967679272
 21
478.4638604583417
 31
0.0
  0
INSERT
  5
88F
330
7B4
100
AcDbEntity
  8
Bemaßungen(MSL)
  6
Continuous
 62
     5
440
 16777216
370
     0
100
AcDbBlockReference
  2
Filled-1
 10
205.1713967679272
 20
235.4638604583417
 30
0.0
 41
7.0
 42
7.0
 43
7.0
 50
270.0
  0
INSERT
  5
890
330
7B4
100
AcDbEntity
  8
Bemaßungen(MSL)
  6
Continuous
 62
     5
440
 16777216
370
     0
100
AcDbBlockReference
  2
Filled-1
 10
205.1713967679272
 20
485.4638604583416
 30
0.0
 41
7.0
 42
7.0
 43
7.0
 50
90.0
  0
MTEXT
  5
891
330
7B4
100
AcDbEntity
  8
Bemaßungen(MSL)
  6
Continuous
 62
     7
440
 16777216
370
     5
100
AcDbMText
 10
196.0233748982165
 20
352.6831646422472
 30
0.0
 40
7.0
 41
0.0
 46
0.0
 71
     1
 72
     1
  1
\A1;250
  7
NORMAL-MSL
 11
0.0000000000000001
 21
1.0
 31
0.0
 73
     1
 44
1.0
1001
ACAD
1000
MTEXTBEGIN
1070
    73
1070
     1
1070
    44
1040
1.0
1070
    74
1070
     0
1000
MTEXTEND
  0
POINT
  5
892
330
7B4
100
AcDbEntity
  8
Defpoints
  6
Continuous
 62
     0
440
 16777216
100
AcDbPoint
 10
177.1615690918133
 20
235.4638604583418
 30
0.0
  0
POINT
  5
893
330
7B4
100
AcDbEntity
  8
Defpoints
  6
Continuous
 62
     0
440
 16777216
100
AcDbPoint
 10
177.1615690918133
 20
485.4638604583416
 30
0.0
  0
POINT
  5
894
330
7B4
100
AcDbEntity
  8
Defpoints
  6
Continuous
 62
     0
440
 16777216
100
AcDbPoint
 10
205.1713967679272
 20
485.4638604583416
 30
0.0
  0
ENDBLK
  5
7B6
330
7B4
100
AcDbEntity
  8
0
100
AcDbBlockEnd
  0
BLOCK
  5
897
330
896
100
AcDbEntity
  8
0
100
AcDbBlockBegin
  2
*D15
 70
     1
 10
0.0
 20
0.0
 30
0.0
  3
*D15
  1

  0
LINE
  5
96E
330
896
100
AcDbEntity
  8
Bemaßungen(MSL)
  6
Continuous
 62
     5
440
 16777216
370
     0
100
AcDbLine
 10
177.1615690918133
 20
485.4638604583416
 30
0.0
 11
207.1713967679272
 21
485.4638604583416
 31
0.0
  0
LINE
  5
96F
330
896
100
AcDbEntity
  8
Bemaßungen(MSL)
  6
Continuous
 62
     5
440
 16777216
370
     0
100
AcDbLine
 10
181.1615690918132
 20
525.4638604583416
 30
0.0
 11
207.1713967679272
 21
525.4638604583416
 31
0.0
  0
LINE
  5
970
330
896
100
AcDbEntity
  8
Bemaßungen(MSL)
  6
Continuous
 62
     5
440
 16777216
370
     0
100
AcDbLine
 10
205.1713967679272
 20
492.4638604583416
 30
0.0
 11
205.1713967679272
 21
518.4638604583416
 31
0.0
  0
INSERT
  5
971
330
896
100
AcDbEntity
  8
Bemaßungen(MSL)
  6
Continuous
 62
     5
440
 16777216
370
     0
100
AcDbBlockReference
  2
Filled-1
 10
205.1713967679272
 20
485.4638604583416
 30
0.0
 41
7.0
 42
7.0
 43
7.0
 50
270.0
  0
INSERT
  5
972
330
896
100
AcDbEntity
  8
Bemaßungen(MSL)
  6
Continuous
 62
     5
440
 16777216
370
     0
100
AcDbBlockReference
  2
Filled-1
 10
205.1713967679272
 20
525.4638604583416
 30
0.0
 41
7.0
 42
7.0
 43
7.0
 50
90.0
  0
MTEXT
  5
973
330
896
100
AcDbEntity
  8
Bemaßungen(MSL)
  6
Continuous
 62
     7
440
 16777216
370
     5
100
AcDbMText
 10
196.0233748982165
 20
500.3212956262252
 30
0.0
 40
7.0
 41
0.0
 46
0.0
 71
     1
 72
     1
  1
\A1;40
  7
NORMAL-MSL
 11
0.0000000000000001
 21
1.0
 31
0.0
 73
     1
 44
1.0
1001
ACAD
1000
MTEXTBEGIN
1070
    73
1070
     1
1070
    44
1040
1.0
1070
    74
1070
     0
1000
MTEXTEND
  0
POINT
  5
974
330
896
100
AcDbEntity
  8
Defpoints
  6
Continuous
 62
     0
440
 16777216
100
AcDbPoint
 10
177.1615690918133
 20
485.4638604583416
 30
0.0
  0
POINT
  5
975
330
896
100
AcDbEntity
  8
Defpoints
  6
Continuous
 62
     0
440
 16777216
100
AcDbPoint
 10
181.1615690918132
 20
525.4638604583416
 30
0.0
  0
POINT
  5
976
330
896
100
AcDbEntity
  8
Defpoints
  6
Continuous
 62
     0
440
 16777216
100
AcDbPoint
 10
205.1713967679272
 20
525.4638604583416
 30
0.0
  0
ENDBLK
  5
898
330
896
100
AcDbEntity
  8
0
100
AcDbBlockEnd
  0
BLOCK
  5
979
330
978
100
AcDbEntity
  8
0
100
AcDbBlockBegin
  2
*D16
 70
     1
 10
0.0
 20
0.0
 30
0.0
  3
*D16
  1

  0
LINE
  5
A1A
330
978
100
AcDbEntity
  8
Bemaßungen(MSL)
  6
Continuous
 62
     5
440
 16777216
370
     0
100
AcDbLine
 10
163.8302752283393
 20
505.3005397038151
 30
0.0
 11
160.0026796340503
 21
499.4396940338986
 31
0.0
  0
LINE
  5
A1B
330
978
100
AcDbEntity
  8
Bemaßungen(MSL)
  6
Continuous
 62
     5
440
 16777216
370
     0
100
AcDbLine
 10
174.4928629552869
 20
521.6271812128682
 30
0.0
 11
185.6379313059592
 21
538.6926009979215
 31
0.0
  0
LINE
  5
A1C
330
978
100
AcDbEntity
  8
Bemaßungen(MSL)
  6
Continuous
 62
     5
440
 16777216
370
     0
100
AcDbLine
 10
185.6379313059592
 20
538.6926009979215
 30
0.0
 11
192.6379313059591
 21
538.6926009979215
 31
0.0
  0
LINE
  5
A1D
330
978
100
AcDbEntity
  8
Bemaßungen(MSL)
  6
Continuous
 62
     5
440
 16777216
370
     0
100
AcDbLine
 10
167.6578708226282
 20
511.1613853737316
 30
0.0
 11
170.665267360998
 21
515.7663355429516
 31
0.0
  0
INSERT
  5
A1E
330
978
100
AcDbEntity
  8
Bemaßungen(MSL)
  6
Continuous
 62
     5
440
 16777216
370
     0
100
AcDbBlockReference
  2
Filled-1
 10
167.6578708226282
 20
511.1613853737316
 30
0.0
 41
7.0
 42
7.0
 43
7.0
 50
56.85228770803582
  0
INSERT
  5
A1F
330
978
100
AcDbEntity
  8
Bemaßungen(MSL)
  6
Continuous
 62
     5
440
 16777216
370
     0
100
AcDbBlockReference
  2
Filled-1
 10
170.665267360998
 20
515.7663355429516
 30
0.0
 41
7.0
 42
7.0
 43
7.0
 50
236.8522877080359
  0
MTEXT
  5
A20
102
{ACAD_XDICTIONARY
360
FA2
102
}
330
978
100
AcDbEntity
  8
Bemaßungen(MSL)
  6
Continuous
 62
     7
440
 16777216
370
     5
100
AcDbMText
 10
194.6379313059591
 20
542.4623827388276
 30
0.0
 40
7.0
 41
0.0
 46
0.0
 71
     1
 72
     1
  1
\A1;∅5.5
  7
NORMAL-MSL
 73
     1
 44
1.0
1001
ACAD
1000
MTEXTBEGIN
1070
    73
1070
     1
1070
    44
1040
1.0
1070
    74
1070
     0
1000
MTEXTEND
  0
POINT
  5
A21
330
978
100
AcDbEntity
  8
Defpoints
  6
Continuous
 62
     0
440
 16777216
100
AcDbPoint
 10
170.665267360998
 20
515.7663355429516
 30
0.0
  0
POINT
  5
A22
330
978
100
AcDbEntity
  8
Defpoints
  6
Continuous
 62
     0
440
 16777216
100
AcDbPoint
 10
167.6578708226282
 20
511.1613853737316
 30
0.0
  0
ENDBLK
  5
97A
330
978
100
AcDbEntity
  8
0
100
AcDbBlockEnd
  0
BLOCK
  5
A25
330
A24
100
AcDbEntity
  8
0
100
AcDbBlockBegin
  2
*D17
 70
     1
 10
0.0
 20
0.0
 30
0.0
  3
*D17
  1

  0
LINE
  5
B0F
330
A24
100
AcDbEntity
  8
Bemaßungen(MSL)
  6
Continuous
 62
     5
440
 16777216
370
     0
100
AcDbLine
 10
184.6615690918133
 20
245.1783638087844
 30
0.0
 11
191.6615690918133
 21
245.1783638087844
 31
0.0
  0
LINE
  5
B10
330
A24
100
AcDbEntity
  8
Bemaßungen(MSL)
  6
Continuous
 62
     5
440
 16777216
370
     0
100
AcDbLine
 10
153.6615690918133
 20
245.1783638087844
 30
0.0
 11
146.6615690918133
 21
245.1783638087844
 31
0.0
  0
LINE
  5
B11
330
A24
100
AcDbEntity
  8
Bemaßungen(MSL)
  6
Continuous
 62
     5
440
 16777216
370
     0
100
AcDbLine
 10
177.6615690918133
 20
245.1783638087844
 30
0.0
 11
160.6615690918133
 21
245.1783638087844
 31
0.0
  0
INSERT
  5
B12
330
A24
100
AcDbEntity
  8
Bemaßungen(MSL)
  6
Continuous
 62
     5
440
 16777216
370
     0
100
AcDbBlockReference
  2
Filled-1
 10
177.6615690918133
 20
245.1783638087844
 30
0.0
 41
7.0
 42
7.0
 43
7.0
 50
180.0
  0
INSERT
  5
B13
330
A24
100
AcDbEntity
  8
Bemaßungen(MSL)
  6
Continuous
 62
     5
440
 16777216
370
     0
100
AcDbBlockReference
  2
Filled-1
 10
160.6615690918133
 20
245.1783638087844
 30
0.0
 41
7.0
 42
7.0
 43
7.0
  0
MTEXT
  5
B14
330
A24
100
AcDbEntity
  8
Bemaßungen(MSL)
  6
Continuous
 62
     7
440
 16777216
370
     5
100
AcDbMText
 10
164.4773944397183
 20
254.2070132357811
 30
0.0
 40
7.0
 41
0.0
 46
0.0
 71
     1
 72
     1
  1
\A1;17
  7
NORMAL-MSL
 73
     1
 44
1.0
1001
ACAD
1000
MTEXTBEGIN
1070
    73
1070
     1
1070
    44
1040
1.0
1070
    74
1070
     0
1000
MTEXTEND
  0
POINT
  5
B15
330
A24
100
AcDbEntity
  8
Defpoints
  6
Continuous
 62
     0
440
 16777216
100
AcDbPoint
 10
177.6615690918133
 20
245.1783638087844
 30
0.0
  0
POINT
  5
B16
330
A24
100
AcDbEntity
  8
Defpoints
  6
Continuous
 62
     0
440
 16777216
100
AcDbPoint
 10
160.6615690918133
 20
245.1783638087844
 30
0.0
  0
POINT
  5
B17
330
A24
100
AcDbEntity
  8
Defpoints
  6
Continuous
 62
     0
440
 16777216
100
AcDbPoint
 10
160.6615690918133
 20
245.1783638087844
 30
0.0
  0
ENDBLK
  5
A26
330
A24
100
AcDbEntity
  8
0
100
AcDbBlockEnd
  0
BLOCK
  5
B1A
330
B19
100
AcDbEntity
  8
0
100
AcDbBlockBegin
  2
*D18
 70
     1
 10
0.0
 20
0.0
 30
0.0
  3
*D18
  1

  0
LINE
  5
100C
330
B19
100
AcDbEntity
  8
Bemaßungen(MSL)
  6
Continuous
 62
     5
440
 16777216
370
     0
100
AcDbLine
 10
256.5852961052544
 20
205.4638604583417
 30
0.0
 11
256.5852961052544
 21
177.2638604583416
 31
0.0
  0
LINE
  5
100D
330
B19
100
AcDbEntity
  8
Bemaßungen(MSL)
  6
Continuous
 62
     5
440
 16777216
370
     0
100
AcDbLine
 10
255.0852961052544
 20
205.4638604583417
 30
0.0
 11
255.0852961052544
 21
177.2638604583416
 31
0.0
  0
LINE
  5
100E
330
B19
100
AcDbEntity
  8
Bemaßungen(MSL)
  6
Continuous
 62
     5
440
 16777216
370
     0
100
AcDbLine
 10
248.0852961052544
 20
179.2638604583416
 30
0.0
 11
241.0852961052544
 21
179.2638604583416
 31
0.0
  0
LINE
  5
100F
330
B19
100
AcDbEntity
  8
Bemaßungen(MSL)
  6
Continuous
 62
     5
440
 16777216
370
     0
100
AcDbLine
 10
263.5852961052544
 20
179.2638604583416
 30
0.0
 11
286.7230860097564
 21
179.2638604583416
 31
0.0
  0
LINE
  5
1010
330
B19
100
AcDbEntity
  8
Bemaßungen(MSL)
  6
Continuous
 62
     5
440
 16777216
370
     0
100
AcDbLine
 10
255.0852961052544
 20
179.2638604583416
 30
0.0
 11
256.5852961052544
 21
179.2638604583416
 31
0.0
  0
INSERT
  5
1011
330
B19
100
AcDbEntity
  8
Bemaßungen(MSL)
  6
Continuous
 62
     5
440
 16777216
370
     0
100
AcDbBlockReference
  2
Filled-1
 10
255.0852961052544
 20
179.2638604583416
 30
0.0
 41
7.0
 42
7.0
 43
7.0
  0
INSERT
  5
1012
330
B19
100
AcDbEntity
  8
Bemaßungen(MSL)
  6
Continuous
 62
     5
440
 16777216
370
     0
100
AcDbBlockReference
  2
Filled-1
 10
256.5852961052544
 20
179.2638604583416
 30
0.0
 41
7.0
 42
7.0
 43
7.0
 50
180.0
  0
MTEXT
  5
1013
330
B19
100
AcDbEntity
  8
Bemaßungen(MSL)
  6
Continuous
 62
     7
440
 16777216
370
     5
100
AcDbMText
 10
278.6541910575055
 20
184.8378713723935
 30
0.0
 40
7.0
 41
0.0
 46
0.0
 71
     5
 72
     1
  1
\A1;1.5
  7
NORMAL-MSL
 73
     1
 44
1.0
  0
POINT
  5
1014
330
B19
100
AcDbEntity
  8
Defpoints
  6
Continuous
 62
     0
440
 16777216
100
AcDbPoint
 10
256.5852961052544
 20
205.4638604583417
 30
0.0
  0
POINT
  5
1015
330
B19
100
AcDbEntity
  8
Defpoints
  6
Continuous
 62
     0
440
 16777216
100
AcDbPoint
 10
255.0852961052544
 20
205.4638604583417
 30
0.0
  0
POINT
  5
1016
330
B19
100
AcDbEntity
  8
Defpoints
  6
Continuous
 62
     0
440
 16777216
100
AcDbPoint
 10
255.0852961052544
 20
179.2638604583416
 30
0.0
  0
ENDBLK
  5
B1B
330
B19
100
AcDbEntity
  8
0
100
AcDbBlockEnd
  0
BLOCK
  5
E62
330
E60
100
AcDbEntity
  8
0
100
AcDbBlockBegin
  2
GENAXEH
 70
     0
 10
0.0
 20
0.0
 30
0.0
  3
GENAXEH
  1

  0
LINE
  5
E61
330
E60
100
AcDbEntity
  8
0
100
AcDbLine
 10
-1.0
 20
0.0
 30
0.0
 11
1.0
 21
0.0
 31
0.0
  0
ENDBLK
  5
E63
330
E60
100
AcDbEntity
  8
0
100
AcDbBlockEnd
  0
BLOCK
  5
E79
330
E78
100
AcDbEntity
  8
0
100
AcDbBlockBegin
  2
_ACMFILLED30
 70
     0
 10
0.0
 20
0.0
 30
0.0
  3
_ACMFILLED30
  1

  0
TRACE
  5
E7B
330
E78
100
AcDbEntity
  8
0
 62
     0
100
AcDbTrace
 10
-1.0
 20
-0.26794919
 30
0.0
 11
-1.0
 21
0.26794919
 31
0.0
 12
0.0
 22
0.0
 32
0.0
 13
0.0
 23
0.0
 33
0.0
  0
ENDBLK
  5
E7A
330
E78
100
AcDbEntity
  8
0
100
AcDbBlockEnd
  0
ENDSEC
  0
SECTION
  2
ENTITIES
  0
ARC
  5
1E5
330
70
100
AcDbEntity
  8
Sichtbare Kanten(MSL)
100
AcDbCircle
 10
175.6615690918134
 20
262.6909662034738
 30
0.0
 40
1.999999999999965
100
AcDbArc
 50
320.4823472028243
 51
0.0
  0
ARC
  5
1E6
330
70
100
AcDbEntity
  8
Sichtbare Kanten(MSL)
100
AcDbCircle
 10
175.6615690918132
 20
258.2367547132097
 30
0.0
 40
2.00000000000007
100
AcDbArc
 50
0.0
 51
39.51765279717228
  0
ARC
  5
1E7
330
70
100
AcDbEntity
  8
Sichtbare Kanten(MSL)
100
AcDbCircle
 10
162.6615690918132
 20
262.6909662034738
 30
0.0
 40
1.999999999999885
100
AcDbArc
 50
180.0
 51
219.5176527971733
  0
ARC
  5
1E8
330
70
100
AcDbEntity
  8
Sichtbare Kanten(MSL)
100
AcDbCircle
 10
162.6615690918133
 20
258.2367547132097
 30
0.0
 40
2.00000000000006
100
AcDbArc
 50
140.4823472028277
 51
180.0
  0
ARC
  5
1E9
330
70
100
AcDbEntity
  8
Sichtbare Kanten(MSL)
100
AcDbCircle
 10
175.6615690918132
 20
308.2367547132097
 30
0.0
 40
2.00000000000007
100
AcDbArc
 50
0.0
 51
39.51765279717228
  0
ARC
  5
1EA
330
70
100
AcDbEntity
  8
Sichtbare Kanten(MSL)
100
AcDbCircle
 10
175.6615690918133
 20
312.6909662034738
 30
0.0
 40
1.999999999999893
100
AcDbArc
 50
320.4823472028267
 51
0.0
  0
ARC
  5
1EB
330
70
100
AcDbEntity
  8
Sichtbare Kanten(MSL)
100
AcDbCircle
 10
162.6615690918133
 20
308.2367547132097
 30
0.0
 40
2.000000000000063
100
AcDbArc
 50
140.4823472028277
 51
180.0
  0
ARC
  5
1EC
330
70
100
AcDbEntity
  8
Sichtbare Kanten(MSL)
100
AcDbCircle
 10
162.6615690918133
 20
312.6909662034738
 30
0.0
 40
2.000000000000005
100
AcDbArc
 50
180.0
 51
219.5176527971721
  0
ARC
  5
1ED
330
70
100
AcDbEntity
  8
Sichtbare Kanten(MSL)
100
AcDbCircle
 10
175.6615690918132
 20
358.2367547132098
 30
0.0
 40
1.999999999999931
100
AcDbArc
 50
0.0
 51
39.51765279717407
  0
ARC
  5
1EE
330
70
100
AcDbEntity
  8
Sichtbare Kanten(MSL)
100
AcDbCircle
 10
175.6615690918132
 20
362.6909662034736
 30
0.0
 40
1.999999999999984
100
AcDbArc
 50
320.4823472028301
 51
0.0
  0
ARC
  5
1EF
330
70
100
AcDbEntity
  8
Sichtbare Kanten(MSL)
100
AcDbCircle
 10
162.6615690918133
 20
362.6909662034738
 30
0.0
 40
1.999999999999996
100
AcDbArc
 50
180.0
 51
219.5176527971721
  0
ARC
  5
1F0
330
70
100
AcDbEntity
  8
Sichtbare Kanten(MSL)
100
AcDbCircle
 10
162.6615690918132
 20
358.2367547132097
 30
0.0
 40
1.999999999999971
100
AcDbArc
 50
140.4823472028272
 51
180.0
  0
ARC
  5
1F1
330
70
100
AcDbEntity
  8
Sichtbare Kanten(MSL)
100
AcDbCircle
 10
175.661569091813
 20
408.2367547132098
 30
0.0
 40
1.999999999999987
100
AcDbArc
 50
0.0
 51
39.5176527971699
  0
ARC
  5
1F2
330
70
100
AcDbEntity
  8
Sichtbare Kanten(MSL)
100
AcDbCircle
 10
175.661569091813
 20
412.6909662034735
 30
0.0
 40
2.000000000000039
100
AcDbArc
 50
320.4823472028307
 51
0.0
  0
ARC
  5
1F3
330
70
100
AcDbEntity
  8
Sichtbare Kanten(MSL)
100
AcDbCircle
 10
162.6615690918133
 20
408.2367547132096
 30
0.0
 40
2.000000000000051
100
AcDbArc
 50
140.4823472028256
 51
180.0
  0
ARC
  5
1F4
330
70
100
AcDbEntity
  8
Sichtbare Kanten(MSL)
100
AcDbCircle
 10
162.6615690918132
 20
412.6909662034738
 30
0.0
 40
2.000000000000003
100
AcDbArc
 50
180.0
 51
219.5176527971728
  0
ARC
  5
1F5
330
70
100
AcDbEntity
  8
Sichtbare Kanten(MSL)
100
AcDbCircle
 10
162.6615690918132
 20
458.2367547132096
 30
0.0
 40
2.000000000000002
100
AcDbArc
 50
140.4823472028272
 51
180.0
  0
ARC
  5
1F6
330
70
100
AcDbEntity
  8
Sichtbare Kanten(MSL)
100
AcDbCircle
 10
162.6615690918132
 20
462.6909662034736
 30
0.0
 40
1.999999999999999
100
AcDbArc
 50
180.0
 51
219.5176527971728
  0
ARC
  5
1F7
330
70
100
AcDbEntity
  8
Sichtbare Kanten(MSL)
100
AcDbCircle
 10
175.661569091813
 20
458.23675471321
 30
0.0
 40
1.999999999999985
100
AcDbArc
 50
0.0
 51
39.5176527971677
  0
ARC
  5
1F8
330
70
100
AcDbEntity
  8
Sichtbare Kanten(MSL)
100
AcDbCircle
 10
175.661569091813
 20
462.6909662034733
 30
0.0
 40
1.999999999999995
100
AcDbArc
 50
320.4823472028329
 51
0.0
  0
LINE
  5
1F9
330
70
100
AcDbEntity
  8
Sichtbare Kanten(MSL)
100
AcDbLine
 10
177.6615690918133
 20
308.2367547132097
 30
0.0
 11
177.6615690918133
 21
262.6909662034738
 31
0.0
  0
ARC
  5
1FA
330
70
100
AcDbEntity
  8
Sichtbare Kanten(MSL)
100
AcDbCircle
 10
178.3615690918132
 20
260.4638604583418
 30
0.0
 40
1.500000000000006
100
AcDbArc
 50
140.4823472028252
 51
219.5176527971729
  0
ARC
  5
1FB
330
70
100
AcDbEntity
  8
Sichtbare Kanten(MSL)
100
AcDbCircle
 10
159.9615690918133
 20
260.4638604583418
 30
0.0
 40
1.5
100
AcDbArc
 50
320.4823472028267
 51
39.51765279717245
  0
LINE
  5
1FC
330
70
100
AcDbEntity
  8
Sichtbare Kanten(MSL)
100
AcDbLine
 10
160.6615690918133
 20
235.9638604583418
 30
0.0
 11
160.6615690918133
 21
258.2367547132097
 31
0.0
  0
ARC
  5
1FD
330
70
100
AcDbEntity
  8
Sichtbare Kanten(MSL)
100
AcDbCircle
 10
178.3615690918132
 20
310.4638604583418
 30
0.0
 40
1.499999999999993
100
AcDbArc
 50
140.4823472028263
 51
219.5176527971737
  0
LINE
  5
1FE
330
70
100
AcDbEntity
  8
Sichtbare Kanten(MSL)
100
AcDbLine
 10
177.6615690918132
 20
358.2367547132098
 30
0.0
 11
177.6615690918132
 21
312.6909662034738
 31
0.0
  0
LINE
  5
1FF
330
70
100
AcDbEntity
  8
Sichtbare Kanten(MSL)
100
AcDbLine
 10
160.6615690918133
 20
262.6909662034738
 30
0.0
 11
160.6615690918133
 21
308.2367547132097
 31
0.0
  0
ARC
  5
200
330
70
100
AcDbEntity
  8
Sichtbare Kanten(MSL)
100
AcDbCircle
 10
159.9615690918133
 20
310.4638604583418
 30
0.0
 40
1.500000000000019
100
AcDbArc
 50
320.4823472028276
 51
39.51765279717245
  0
ARC
  5
201
330
70
100
AcDbEntity
  8
Sichtbare Kanten(MSL)
100
AcDbCircle
 10
178.3615690918132
 20
360.4638604583418
 30
0.0
 40
1.499999999999995
100
AcDbArc
 50
140.4823472028301
 51
219.5176527971708
  0
LINE
  5
202
330
70
100
AcDbEntity
  8
Sichtbare Kanten(MSL)
100
AcDbLine
 10
177.6615690918131
 20
408.2367547132098
 30
0.0
 11
177.6615690918132
 21
362.6909662034736
 31
0.0
  0
ARC
  5
203
330
70
100
AcDbEntity
  8
Sichtbare Kanten(MSL)
100
AcDbCircle
 10
159.9615690918133
 20
360.4638604583418
 30
0.0
 40
1.499999999999988
100
AcDbArc
 50
320.4823472028262
 51
39.51765279717284
  0
LINE
  5
204
330
70
100
AcDbEntity
  8
Sichtbare Kanten(MSL)
100
AcDbLine
 10
160.6615690918133
 20
312.6909662034738
 30
0.0
 11
160.6615690918133
 21
358.2367547132097
 31
0.0
  0
ARC
  5
205
330
70
100
AcDbEntity
  8
Sichtbare Kanten(MSL)
100
AcDbCircle
 10
178.3615690918132
 20
410.4638604583416
 30
0.0
 40
1.500000000000003
100
AcDbArc
 50
140.4823472028301
 51
219.51765279717
  0
LINE
  5
206
330
70
100
AcDbEntity
  8
Sichtbare Kanten(MSL)
100
AcDbLine
 10
177.661569091813
 20
458.23675471321
 30
0.0
 11
177.6615690918131
 21
412.6909662034735
 31
0.0
  0
LINE
  5
207
330
70
100
AcDbEntity
  8
Sichtbare Kanten(MSL)
100
AcDbLine
 10
160.6615690918133
 20
362.6909662034738
 30
0.0
 11
160.6615690918132
 21
408.2367547132096
 31
0.0
  0
ARC
  5
208
330
70
100
AcDbEntity
  8
Sichtbare Kanten(MSL)
100
AcDbCircle
 10
159.9615690918132
 20
410.4638604583416
 30
0.0
 40
1.500000000000006
100
AcDbArc
 50
320.4823472028267
 51
39.51765279717245
  0
LINE
  5
209
330
70
100
AcDbEntity
  8
Sichtbare Kanten(MSL)
100
AcDbLine
 10
160.6615690918132
 20
412.6909662034738
 30
0.0
 11
160.6615690918132
 21
458.2367547132096
 31
0.0
  0
ARC
  5
20A
330
70
100
AcDbEntity
  8
Sichtbare Kanten(MSL)
100
AcDbCircle
 10
159.9615690918132
 20
460.4638604583416
 30
0.0
 40
1.499999999999998
100
AcDbArc
 50
320.4823472028267
 51
39.51765279717326
  0
ARC
  5
20B
330
70
100
AcDbEntity
  8
Sichtbare Kanten(MSL)
100
AcDbCircle
 10
178.3615690918132
 20
460.4638604583416
 30
0.0
 40
1.499999999999989
100
AcDbArc
 50
140.482347202833
 51
219.517652797169
  0
LINE
  5
20C
330
70
100
AcDbEntity
  8
Sichtbare Kanten(MSL)
100
AcDbLine
 10
177.6615690918133
 20
484.9638604583416
 30
0.0
 11
177.661569091813
 21
462.6909662034733
 31
0.0
  0
ARC
  5
20D
330
70
100
AcDbEntity
  8
Sichtbare Kanten(MSL)
100
AcDbCircle
 10
161.161569091813
 20
484.9638604583416
 30
0.0
 40
0.5
100
AcDbArc
 50
90.0
 51
180.0
  0
LINE
  5
20E
330
70
100
AcDbEntity
  8
Sichtbare Kanten(MSL)
100
AcDbLine
 10
160.6615690918132
 20
462.6909662034736
 30
0.0
 11
160.6615690918131
 21
484.9638604583416
 31
0.0
  0
ARC
  5
20F
330
70
100
AcDbEntity
  8
Sichtbare Kanten(MSL)
100
AcDbCircle
 10
161.1615690918133
 20
235.9638604583417
 30
0.0
 40
0.4999999999999716
100
AcDbArc
 50
180.0
 51
270.0000000000041
  0
LINE
  5
210
330
70
100
AcDbEntity
  8
Sichtbare Kanten(MSL)
100
AcDbLine
 10
177.1615690918133
 20
235.4638604583418
 30
0.0
 11
161.1615690918133
 21
235.4638604583418
 31
0.0
  0
ARC
  5
211
330
70
100
AcDbEntity
  8
Sichtbare Kanten(MSL)
100
AcDbCircle
 10
177.1615690918133
 20
235.9638604583417
 30
0.0
 40
0.4999999999999761
100
AcDbArc
 50
269.9999999999959
 51
0.0
  0
LINE
  5
212
330
70
100
AcDbEntity
  8
Sichtbare Kanten(MSL)
100
AcDbLine
 10
177.6615690918133
 20
258.2367547132097
 30
0.0
 11
177.6615690918133
 21
235.9638604583418
 31
0.0
  0
ARC
  5
213
330
70
100
AcDbEntity
  8
Sichtbare Kanten(MSL)
100
AcDbCircle
 10
177.1615690918133
 20
484.9638604583416
 30
0.0
 40
0.5000000000000195
100
AcDbArc
 50
0.0
 51
90.0
  0
LINE
  5
214
330
70
100
AcDbEntity
  8
Sichtbare Kanten(MSL)
100
AcDbLine
 10
161.161569091813
 20
485.4638604583416
 30
0.0
 11
177.1615690918133
 21
485.4638604583416
 31
0.0
  0
CIRCLE
  5
215
330
70
100
AcDbEntity
  8
Sichtbare Kanten(MSL)
100
AcDbCircle
 10
169.1615690918132
 20
513.4638604583416
 30
0.0
 40
2.75
  0
CIRCLE
  5
216
330
70
100
AcDbEntity
  8
Sichtbare Kanten(MSL)
100
AcDbCircle
 10
169.1615690918133
 20
217.4638604583417
 30
0.0
 40
2.75
  0
LINE
  5
217
330
70
100
AcDbEntity
  8
Sichtbare Kanten(MSL)
100
AcDbLine
 10
157.1615690918132
 20
525.4638604583416
 30
0.0
 11
181.1615690918132
 21
525.4638604583416
 31
0.0
  0
LINE
  5
218
330
70
100
AcDbEntity
  8
Sichtbare Kanten(MSL)
100
AcDbLine
 10
181.1615690918132
 20
525.4638604583416
 30
0.0
 11
181.1615690918133
 21
205.4638604583417
 31
0.0
  0
LINE
  5
219
330
70
100
AcDbEntity
  8
Sichtbare Kanten(MSL)
100
AcDbLine
 10
181.1615690918133
 20
205.4638604583417
 30
0.0
 11
157.1615690918133
 21
205.4638604583417
 31
0.0
  0
LINE
  5
21A
330
70
100
AcDbEntity
  8
Sichtbare Kanten(MSL)
100
AcDbLine
 10
157.1615690918133
 20
205.4638604583417
 30
0.0
 11
157.1615690918132
 21
525.4638604583416
 31
0.0
  0
LINE
  5
21B
330
70
100
AcDbEntity
  8
Verdeckte Kanten(MSL)
100
AcDbLine
 10
256.5852961052556
 20
485.4638604583416
 30
0.0
 11
255.0852961052556
 21
485.4638604583416
 31
0.0
  0
LINE
  5
21C
330
70
100
AcDbEntity
  8
Verdeckte Kanten(MSL)
100
AcDbLine
 10
256.5852961052556
 20
235.4638604583418
 30
0.0
 11
255.0852961052556
 21
235.4638604583418
 31
0.0
  0
LINE
  5
21D
330
70
100
AcDbEntity
  8
Sichtbare Kanten(MSL)
100
AcDbLine
 10
255.0852961052544
 20
525.4638604583416
 30
0.0
 11
256.5852961052544
 21
525.4638604583416
 31
0.0
  0
LINE
  5
21E
330
70
100
AcDbEntity
  8
Sichtbare Kanten(MSL)
100
AcDbLine
 10
255.0852961052544
 20
205.4638604583417
 30
0.0
 11
256.5852961052544
 21
205.4638604583417
 31
0.0
  0
LINE
  5
21F
330
70
100
AcDbEntity
  8
Sichtbare Kanten(MSL)
100
AcDbLine
 10
256.5852961052544
 20
205.4638604583417
 30
0.0
 11
256.5852961052544
 21
525.4638604583416
 31
0.0
  0
LINE
  5
220
330
70
100
AcDbEntity
  8
Sichtbare Kanten(MSL)
100
AcDbLine
 10
255.0852961052544
 20
525.4638604583416
 30
0.0
 11
255.0852961052544
 21
205.4638604583417
 31
0.0
  0
LINE
  5
221
330
70
100
AcDbEntity
  8
Verdeckte Kanten(MSL)
100
AcDbLine
 10
255.085296105258
 20
516.2138604583416
 30
0.0
 11
256.585296105258
 21
516.2138604583416
 31
0.0
  0
LINE
  5
222
330
70
100
AcDbEntity
  8
Verdeckte Kanten(MSL)
100
AcDbLine
 10
255.085296105258
 20
510.7138604583417
 30
0.0
 11
256.585296105258
 21
510.7138604583417
 31
0.0
  0
LINE
  5
223
330
70
100
AcDbEntity
  8
Verdeckte Kanten(MSL)
100
AcDbLine
 10
255.085296105258
 20
220.2138604583417
 30
0.0
 11
256.585296105258
 21
220.2138604583417
 31
0.0
  0
LINE
  5
224
330
70
100
AcDbEntity
  8
Verdeckte Kanten(MSL)
100
AcDbLine
 10
255.085296105258
 20
214.7138604583417
 30
0.0
 11
256.585296105258
 21
214.7138604583417
 31
0.0
  0
LINE
  5
225
330
70
100
AcDbEntity
  8
Mittellinie(MSL)
  6
Continuous
100
AcDbLine
 10
169.1615690918133
 20
200.4638604583417
 30
0.0
 11
169.1615690918132
 21
530.4638604583415
 31
0.0
  0
LINE
  5
226
330
70
100
AcDbEntity
  8
Mittelpunktmarkierung(MSL)
  6
Continuous
100
AcDbLine
 10
176.9115690918132
 20
513.4638604583416
 30
0.0
 11
161.4115690918132
 21
513.4638604583416
 31
0.0
  0
LINE
  5
227
330
70
100
AcDbEntity
  8
Mittelpunktmarkierung(MSL)
  6
Continuous
100
AcDbLine
 10
169.1615690918132
 20
521.2138604583416
 30
0.0
 11
169.1615690918132
 21
505.7138604583419
 31
0.0
  0
LINE
  5
228
330
70
100
AcDbEntity
  8
Mittelpunktmarkierung(MSL)
  6
Continuous
100
AcDbLine
 10
176.9115690918132
 20
217.4638604583417
 30
0.0
 11
161.4115690918133
 21
217.4638604583417
 31
0.0
  0
LINE
  5
229
330
70
100
AcDbEntity
  8
Mittelpunktmarkierung(MSL)
  6
Continuous
100
AcDbLine
 10
169.1615690918133
 20
225.2138604583417
 30
0.0
 11
169.1615690918133
 21
209.7138604583418
 31
0.0
  0
DIMENSION
  5
22A
330
70
100
AcDbEntity
  8
Bemaßungen(MSL)
  6
Continuous
 62
     5
370
     5
100
AcDbDimension
280
     0
  2
*D8
 10
135.7724225329453
 20
513.4638604583416
 30
0.0
 11
135.7724225329452
 21
519.4638604583416
 31
0.0
 70
   160
  1
<>
 71
     5
 42
12.0
 73
     0
 74
     0
 75
     0
  3
NORMAL-MSL
100
AcDbAlignedDimension
 13
157.1615690918132
 23
525.4638604583416
 33
0.0
 14
161.4115690918132
 24
513.4638604583416
 34
0.0
 50
270.0
100
AcDbRotatedDimension
1001
ACAD
1000
DSTYLE
1002
{
1070
   172
1070
     1
1070
   289
1070
     1
1070
   271
1070
     2
1070
   272
1070
     2
1070
    48
1040
0.0
1070
    47
1040
0.0
1002
}
  0
DIMENSION
  5
32B
330
70
100
AcDbEntity
  8
Bemaßungen(MSL)
  6
Continuous
 62
     5
370
     5
100
AcDbDimension
280
     0
  2
*D9
 10
135.7724225329452
 20
217.4638604583417
 30
0.0
 11
135.7724225329452
 21
365.4638604583419
 31
0.0
 70
   160
  1
<>
 71
     5
 42
296.0
 73
     0
 74
     0
 75
     0
  3
NORMAL-MSL
100
AcDbAlignedDimension
 13
161.4115690918132
 23
513.4638604583416
 33
0.0
 14
161.4115690918133
 24
217.4638604583417
 34
0.0
 50
90.0
100
AcDbRotatedDimension
1001
ACAD
1000
DSTYLE
1002
{
1070
   172
1070
     0
1070
   289
1070
     1
1070
   271
1070
     2
1070
   272
1070
     2
1070
    48
1040
0.0
1070
    47
1040
0.0
1002
}
  0
DIMENSION
  5
40D
330
70
100
AcDbEntity
  8
Bemaßungen(MSL)
  6
Continuous
 62
     5
370
     5
100
AcDbDimension
280
     0
  2
*D10
 10
135.7724225329452
 20
205.4638604583417
 30
0.0
 11
135.7724225329452
 21
211.4638604583418
 31
0.0
 70
   160
  1
<>
 71
     5
 42
12.0
 73
     0
 74
     0
 75
     0
  3
NORMAL-MSL
100
AcDbAlignedDimension
 13
161.4115690918133
 23
217.4638604583417
 33
0.0
 14
157.1615690918133
 24
205.4638604583417
 34
0.0
 50
90.0
100
AcDbRotatedDimension
1001
ACAD
1000
DSTYLE
1002
{
1070
   172
1070
     1
1070
   289
1070
     1
1070
   271
1070
     2
1070
   272
1070
     2
1070
    48
1040
0.0
1070
    47
1040
0.0
1002
}
  0
DIMENSION
  5
50D
330
70
100
AcDbEntity
  8
Bemaßungen(MSL)
  6
Continuous
 62
     5
370
     5
100
AcDbDimension
280
     0
  2
*D11
 10
181.1615690918133
 20
179.2638604583416
 30
0.0
 11
169.1615690918133
 21
179.2638604583416
 31
0.0
 70
   160
  1
<>
 71
     5
 42
24.0
 73
     0
 74
     0
 75
     0
  3
NORMAL-MSL
100
AcDbAlignedDimension
 13
157.1615690918133
 23
205.4638604583417
 33
0.0
 14
181.1615690918133
 24
205.4638604583417
 34
0.0
100
AcDbRotatedDimension
1001
ACAD
1000
DSTYLE
1002
{
1070
   172
1070
     0
1070
   289
1070
     1
1070
   271
1070
     2
1070
   272
1070
     2
1070
    48
1040
0.0
1070
    47
1040
0.0
1002
}
  0
DIMENSION
  5
5EF
330
70
100
AcDbEntity
  8
Bemaßungen(MSL)
  6
Continuous
 62
     5
370
     5
100
AcDbDimension
280
     0
  2
*D12
 10
115.680694343107
 20
205.4638604583417
 30
0.0
 11
115.680694343107
 21
365.4638604583417
 31
0.0
 70
   160
  1
<>
 71
     5
 42
320.0
 73
     0
 74
     0
 75
     0
  3
NORMAL-MSL
100
AcDbAlignedDimension
 13
157.1615690918132
 23
525.4638604583416
 33
0.0
 14
157.1615690918133
 24
205.4638604583417
 34
0.0
 50
270.0
100
AcDbRotatedDimension
1001
ACAD
1000
DSTYLE
1002
{
1070
   172
1070
     0
1070
   289
1070
     1
1070
   271
1070
     2
1070
   272
1070
     2
1070
    48
1040
0.0
1070
    47
1040
0.0
1002
}
  0
DIMENSION
  5
6D1
330
70
100
AcDbEntity
  8
Bemaßungen(MSL)
  6
Continuous
 62
     5
370
     5
100
AcDbDimension
280
     0
  2
*D13
 10
205.1713967679272
 20
235.4638604583417
 30
0.0
 11
205.1713967679271
 21
220.4638604583418
 31
0.0
 70
   160
  1
<>
 71
     5
 42
30.0
 73
     0
 74
     0
 75
     0
  3
NORMAL-MSL
100
AcDbAlignedDimension
 13
181.1615690918133
 23
205.4638604583417
 33
0.0
 14
177.1615690918133
 24
235.4638604583418
 34
0.0
 50
90.0
100
AcDbRotatedDimension
1001
ACAD
1000
DSTYLE
1002
{
1070
   172
1070
     0
1070
   289
1070
     1
1070
   271
1070
     2
1070
   272
1070
     2
1070
    48
1040
0.0
1070
    47
1040
0.0
1002
}
  0
DIMENSION
  5
7B3
330
70
100
AcDbEntity
  8
Bemaßungen(MSL)
  6
Continuous
 62
     5
370
     5
100
AcDbDimension
280
     0
  2
*D14
 10
205.1713967679272
 20
485.4638604583416
 30
0.0
 11
205.1713967679272
 21
360.4638604583418
 31
0.0
 70
   160
  1
<>
 71
     5
 42
250.0
 73
     0
 74
     0
 75
     0
  3
NORMAL-MSL
100
AcDbAlignedDimension
 13
177.1615690918133
 23
235.4638604583418
 33
0.0
 14
177.1615690918133
 24
485.4638604583416
 34
0.0
 50
90.0
100
AcDbRotatedDimension
1001
ACAD
1000
DSTYLE
1002
{
1070
   172
1070
     0
1070
   289
1070
     1
1070
   271
1070
     2
1070
   272
1070
     2
1070
    48
1040
0.0
1070
    47
1040
0.0
1002
}
  0
DIMENSION
  5
895
330
70
100
AcDbEntity
  8
Bemaßungen(MSL)
  6
Continuous
 62
     5
370
     5
100
AcDbDimension
280
     0
  2
*D15
 10
205.1713967679272
 20
525.4638604583416
 30
0.0
 11
205.1713967679271
 21
505.4638604583416
 31
0.0
 70
   160
  1
<>
 71
     5
 42
39.99999999999995
 73
     0
 74
     0
 75
     0
  3
NORMAL-MSL
100
AcDbAlignedDimension
 13
177.1615690918133
 23
485.4638604583416
 33
0.0
 14
181.1615690918132
 24
525.4638604583416
 34
0.0
 50
270.0
100
AcDbRotatedDimension
1001
ACAD
1000
DSTYLE
1002
{
1070
   172
1070
     0
1070
   289
1070
     1
1070
   271
1070
     2
1070
   272
1070
     2
1070
    48
1040
0.0
1070
    47
1040
0.0
1002
}
  0
DIMENSION
  5
977
330
70
100
AcDbEntity
  8
Bemaßungen(MSL)
  6
Continuous
 62
     5
370
     5
100
AcDbDimension
280
     0
  2
*D16
 10
167.6578708226282
 20
511.1613853737316
 30
0.0
 11
204.8442751580009
 21
538.6926009979215
 31
0.0
 70
   163
  1
<>
 71
     5
 42
5.499999999999999
 73
     0
 74
     0
 75
     0
  3
NORMAL-MSL
100
AcDbDiametricDimension
 15
170.665267360998
 25
515.7663355429516
 35
0.0
 40
0.0
1001
ACAD
1000
DSTYLE
1002
{
1070
   144
1040
1.000000000000082
1070
    77
1070
     0
1070
    73
1070
     1
1070
    74
1070
     1
1070
   289
1070
     2
1070
   271
1070
     2
1070
   272
1070
     2
1070
    48
1040
0.0
1070
    47
1040
0.0
1002
}
1001
ACAD_DSTYLE_DIMRADIAL_EXTENSION
1070
   387
1070
     1
1070
   388
1040
0.0
1070
   390
1040
0.0
  0
DIMENSION
  5
A23
330
70
100
AcDbEntity
  8
Bemaßungen(MSL)
  6
Continuous
 62
     5
370
     5
100
AcDbDimension
280
     0
  2
*D17
 10
160.6615690918133
 20
245.1783638087844
 30
0.0
 11
169.1615690918133
 21
245.1783638087844
 31
0.0
 70
   160
  1
<>
 71
     5
 42
17.00000000000003
 73
     0
 74
     0
 75
     0
  3
NORMAL-MSL
100
AcDbAlignedDimension
 13
177.6615690918133
 23
245.1783638087844
 33
0.0
 14
160.6615690918133
 24
245.1783638087844
 34
0.0
 50
180.0
100
AcDbRotatedDimension
1001
ACAD
1000
DSTYLE
1002
{
1070
   172
1070
     1
1070
   289
1070
     1
1070
   271
1070
     2
1070
    76
1070
     1
1070
    75
1070
     1
1070
   272
1070
     2
1070
    48
1040
0.0
1070
    47
1040
0.0
1002
}
  0
DIMENSION
  5
B18
330
70
100
AcDbEntity
  8
Bemaßungen(MSL)
  6
Continuous
 62
     5
370
     5
100
AcDbDimension
280
     0
  2
*D18
 10
255.0852961052544
 20
179.2638604583416
 30
0.0
 11
278.6541910575055
 21
179.2638604583416
 31
0.0
 70
   160
  1
<>
 71
     5
 42
1.500000000000028
 73
     0
 74
     0
 75
     0
  3
NORMAL-MSL
100
AcDbAlignedDimension
 13
256.5852961052544
 23
205.4638604583417
 33
0.0
 14
255.0852961052544
 24
205.4638604583417
 34
0.0
100
AcDbRotatedDimension
1001
ACAD
1000
DSTYLE
1002
{
1070
   172
1070
     1
1070
   289
1070
     1
1070
   271
1070
     2
1070
   272
1070
     2
1070
    48
1040
0.0
1070
    47
1040
0.0
1002
}
  0
ENDSEC
  0
SECTION
  2
OBJECTS
  0
DICTIONARY
  5
C
330
0
100
AcDbDictionary
281
     1
  3
ACAD_CIP_PREVIOUS_PRODUCT_INFO
350
C16
  3
ACAD_COLOR
350
63
  3
ACAD_DETAILVIEWSTYLE
350
6A
  3
ACAD_FIELDLIST
350
E75
  3
ACAD_GROUP
350
D
  3
ACAD_LAYOUT
350
62
  3
ACAD_MATERIAL
350
10
  3
ACAD_MLEADERSTYLE
350
66
  3
ACAD_MLINESTYLE
350
5F
  3
ACAD_PLOTSETTINGS
350
61
  3
ACAD_PLOTSTYLENAME
350
E
  3
ACAD_SCALELIST
350
42
  3
ACAD_SECTIONVIEWSTYLE
350
68
  3
ACAD_TABLESTYLE
350
64
  3
ACAD_VISUALSTYLE
350
29
  3
ACDB_RECOMPOSE_DATA
350
1068
  3
AcDbVariableDictionary
350
D27
  3
AcmDictionary
350
E30
  3
AMG
350
E07
  3
AMGSNAPSETTINGS
350
E89
  0
DICTIONARY
  5
E94
330
2
100
AcDbDictionary
280
     1
281
     1
  3
ACAD_LAYERSTATES
360
E95
  0
DICTIONARY
  5
F8C
330
12E
100
AcDbDictionary
280
     1
281
     1
  0
DICTIONARY
  5
F8E
330
146
100
AcDbDictionary
280
     1
281
     1
  0
DICTIONARY
  5
F90
330
181
100
AcDbDictionary
280
     1
281
     1
  0
DICTIONARY
  5
F92
330
184
100
AcDbDictionary
280
     1
281
     1
  0
DICTIONARY
  5
F94
330
185
100
AcDbDictionary
280
     1
281
     1
  0
DICTIONARY
  5
F96
330
187
100
AcDbDictionary
280
     1
281
     1
  0
DICTIONARY
  5
F98
330
188
100
AcDbDictionary
280
     1
281
     1
  0
DICTIONARY
  5
F9A
330
189
100
AcDbDictionary
280
     1
281
     1
  0
DICTIONARY
  5
F9C
330
18A
100
AcDbDictionary
280
     1
281
     1
  0
DICTIONARY
  5
F9E
330
18B
100
AcDbDictionary
280
     1
281
     1
  0
DICTIONARY
  5
FA0
330
191
100
AcDbDictionary
280
     1
281
     1
  0
DICTIONARY
  5
C18
330
196
100
AcDbDictionary
280
     1
281
     1
  3
ACAD_MLATT
360
101D
  3
ACAD_XREC_ROUNDTRIP
360
101C
  0
DICTIONARY
  5
C1B
330
199
100
AcDbDictionary
280
     1
281
     1
  3
ACAD_MLATT
360
101F
  3
ACAD_XREC_ROUNDTRIP
360
101E
  0
DICTIONARY
  5
C1E
330
19B
100
AcDbDictionary
280
     1
281
     1
  3
ACAD_MLATT
360
1021
  3
ACAD_XREC_ROUNDTRIP
360
1020
  0
DICTIONARY
  5
C21
330
19C
100
AcDbDictionary
280
     1
281
     1
  3
ACAD_MLATT
360
1023
  3
ACAD_XREC_ROUNDTRIP
360
1022
  0
DICTIONARY
  5
C24
330
19D
100
AcDbDictionary
280
     1
281
     1
  3
ACAD_MLATT
360
1025
  3
ACAD_XREC_ROUNDTRIP
360
1024
  0
DICTIONARY
  5
C27
330
19E
100
AcDbDictionary
280
     1
281
     1
  3
ACAD_MLATT
360
1027
  3
ACAD_XREC_ROUNDTRIP
360
1026
  0
DICTIONARY
  5
C2A
330
19F
100
AcDbDictionary
280
     1
281
     1
  3
ACAD_MLATT
360
1029
  3
ACAD_XREC_ROUNDTRIP
360
1028
  0
DICTIONARY
  5
C2D
330
1A1
100
AcDbDictionary
280
     1
281
     1
  3
ACAD_MLATT
360
102B
  3
ACAD_XREC_ROUNDTRIP
360
102A
  0
DICTIONARY
  5
C30
330
1A2
100
AcDbDictionary
280
     1
281
     1
  3
ACAD_MLATT
360
102D
  3
ACAD_XREC_ROUNDTRIP
360
102C
  0
DICTIONARY
  5
C33
330
1A3
100
AcDbDictionary
280
     1
281
     1
  3
ACAD_MLATT
360
102F
  3
ACAD_XREC_ROUNDTRIP
360
102E
  0
DICTIONARY
  5
C36
330
1A4
100
AcDbDictionary
280
     1
281
     1
  3
ACAD_MLATT
360
1031
  3
ACAD_XREC_ROUNDTRIP
360
1030
  0
DICTIONARY
  5
C39
330
1A5
100
AcDbDictionary
280
     1
281
     1
  3
ACAD_MLATT
360
1033
  3
ACAD_XREC_ROUNDTRIP
360
1032
  0
DICTIONARY
  5
C3C
330
1A6
100
AcDbDictionary
280
     1
281
     1
  3
ACAD_MLATT
360
1035
  3
ACAD_XREC_ROUNDTRIP
360
1034
  0
DICTIONARY
  5
C3F
330
1A7
100
AcDbDictionary
280
     1
281
     1
  3
ACAD_MLATT
360
1037
  3
ACAD_XREC_ROUNDTRIP
360
1036
  0
DICTIONARY
  5
C42
330
1A8
100
AcDbDictionary
280
     1
281
     1
  3
ACAD_MLATT
360
1039
  3
ACAD_XREC_ROUNDTRIP
360
1038
  0
DICTIONARY
  5
C45
330
1A9
100
AcDbDictionary
280
     1
281
     1
  3
ACAD_MLATT
360
103B
  3
ACAD_XREC_ROUNDTRIP
360
103A
  0
DICTIONARY
  5
C48
330
1AA
100
AcDbDictionary
280
     1
281
     1
  3
ACAD_MLATT
360
103D
  3
ACAD_XREC_ROUNDTRIP
360
103C
  0
DICTIONARY
  5
C4B
330
1AB
100
AcDbDictionary
280
     1
281
     1
  3
ACAD_MLATT
360
103F
  3
ACAD_XREC_ROUNDTRIP
360
103E
  0
DICTIONARY
  5
C4E
330
1AC
100
AcDbDictionary
280
     1
281
     1
  3
ACAD_MLATT
360
1041
  3
ACAD_XREC_ROUNDTRIP
360
1040
  0
DICTIONARY
  5
C51
330
1AD
100
AcDbDictionary
280
     1
281
     1
  3
ACAD_MLATT
360
1043
  3
ACAD_XREC_ROUNDTRIP
360
1042
  0
DICTIONARY
  5
C54
330
1AE
100
AcDbDictionary
280
     1
281
     1
  3
ACAD_MLATT
360
1045
  3
ACAD_XREC_ROUNDTRIP
360
1044
  0
DICTIONARY
  5
C57
330
1AF
100
AcDbDictionary
280
     1
281
     1
  3
ACAD_MLATT
360
1047
  3
ACAD_XREC_ROUNDTRIP
360
1046
  0
DICTIONARY
  5
C5A
330
1B0
100
AcDbDictionary
280
     1
281
     1
  3
ACAD_MLATT
360
1049
  3
ACAD_XREC_ROUNDTRIP
360
1048
  0
DICTIONARY
  5
C5D
330
1B1
100
AcDbDictionary
280
     1
281
     1
  3
ACAD_MLATT
360
104B
  3
ACAD_XREC_ROUNDTRIP
360
104A
  0
DICTIONARY
  5
C60
330
1B2
100
AcDbDictionary
280
     1
281
     1
  3
ACAD_MLATT
360
104D
  3
ACAD_XREC_ROUNDTRIP
360
104C
  0
DICTIONARY
  5
C63
330
1B3
100
AcDbDictionary
280
     1
281
     1
  3
ACAD_MLATT
360
104F
  3
ACAD_XREC_ROUNDTRIP
360
104E
  0
DICTIONARY
  5
C66
330
1B4
100
AcDbDictionary
280
     1
281
     1
  3
ACAD_MLATT
360
1051
  3
ACAD_XREC_ROUNDTRIP
360
1050
  0
DICTIONARY
  5
C69
330
1B5
100
AcDbDictionary
280
     1
281
     1
  3
ACAD_MLATT
360
1053
  3
ACAD_XREC_ROUNDTRIP
360
1052
  0
DICTIONARY
  5
C6C
330
1B7
100
AcDbDictionary
280
     1
281
     1
  3
ACAD_MLATT
360
1055
  3
ACAD_XREC_ROUNDTRIP
360
1054
  0
DICTIONARY
  5
C6F
330
1B8
100
AcDbDictionary
280
     1
281
     1
  3
ACAD_MLATT
360
1057
  3
ACAD_XREC_ROUNDTRIP
360
1056
  0
DICTIONARY
  5
C72
330
1B9
100
AcDbDictionary
280
     1
281
     1
  3
ACAD_MLATT
360
1059
  3
ACAD_XREC_ROUNDTRIP
360
1058
  0
DICTIONARY
  5
C75
330
1BA
100
AcDbDictionary
280
     1
281
     1
  3
ACAD_MLATT
360
105B
  3
ACAD_XREC_ROUNDTRIP
360
105A
  0
DICTIONARY
  5
C78
330
1BB
100
AcDbDictionary
280
     1
281
     1
  3
ACAD_MLATT
360
105D
  3
ACAD_XREC_ROUNDTRIP
360
105C
  0
DICTIONARY
  5
C7B
330
1BC
100
AcDbDictionary
280
     1
281
     1
  3
ACAD_MLATT
360
105F
  3
ACAD_XREC_ROUNDTRIP
360
105E
  0
DICTIONARY
  5
C7E
330
1BD
100
AcDbDictionary
280
     1
281
     1
  3
ACAD_MLATT
360
1061
  3
ACAD_XREC_ROUNDTRIP
360
1060
  0
DICTIONARY
  5
C81
330
1BE
100
AcDbDictionary
280
     1
281
     1
  3
ACAD_MLATT
360
1063
  3
ACAD_XREC_ROUNDTRIP
360
1062
  0
DICTIONARY
  5
FA2
330
A20
100
AcDbDictionary
280
     1
281
     1
  0
XRECORD
  5
C16
102
{ACAD_REACTORS
330
C
102
}
330
C
100
AcDbXrecord
280
     1
300
AMECH_PP
300
2014
300
PDSU_F_S
  0
DICTIONARY
  5
63
102
{ACAD_REACTORS
330
C
102
}
330
C
100
AcDbDictionary
281
     1
  0
DICTIONARY
  5
6A
102
{ACAD_REACTORS
330
C
102
}
330
C
100
AcDbDictionary
281
     1
  3
Imperial24
350
6B
  3
Metric50
350
D2F
  0
FIELDLIST
  5
E75
102
{ACAD_REACTORS
330
C
102
}
330
C
100
AcDbIdSet
 90
        6
330
FFC
330
FFD
330
FFE
330
1002
330
1003
330
1004
100
AcDbFieldList
  0
DICTIONARY
  5
D
102
{ACAD_REACTORS
330
C
102
}
330
C
100
AcDbDictionary
281
     1
  0
DICTIONARY
  5
62
102
{ACAD_REACTORS
330
C
102
}
330
C
100
AcDbDictionary
281
     1
  3
Layout1
350
6F
  3
Layout2
350
77
  3
Model
350
73
  0
DICTIONARY
  5
10
102
{ACAD_REACTORS
330
C
102
}
330
C
100
AcDbDictionary
281
     1
  3
ByBlock
350
19
  3
ByLayer
350
11
  3
Global
350
21
  0
DICTIONARY
  5
66
102
{ACAD_REACTORS
330
C
102
}
330
C
100
AcDbDictionary
281
     1
  3
Standard
350
67
  0
DICTIONARY
  5
5F
102
{ACAD_REACTORS
330
C
102
}
330
C
100
AcDbDictionary
281
     1
  3
Standard
350
60
  0
DICTIONARY
  5
61
102
{ACAD_REACTORS
330
C
102
}
330
C
100
AcDbDictionary
281
     1
  0
ACDBDICTIONARYWDFLT
  5
E
102
{ACAD_REACTORS
330
C
102
}
330
C
100
AcDbDictionary
281
     1
  3
Normal
350
F
100
AcDbDictionaryWithDefault
340
F
  0
DICTIONARY
  5
42
102
{ACAD_REACTORS
330
C
102
}
330
C
100
AcDbDictionary
281
     1
  3
A0
350
43
  3
A1
350
44
  3
A2
350
45
  3
A3
350
46
  3
A4
350
47
  3
A5
350
48
  3
A6
350
49
  3
A7
350
4A
  3
A8
350
4B
  3
A9
350
4C
  3
B0
350
4D
  3
B1
350
4E
  3
B2
350
4F
  3
B3
350
50
  3
B4
350
51
  3
B5
350
52
  3
B6
350
53
  0
DICTIONARY
  5
68
102
{ACAD_REACTORS
330
C
102
}
330
C
100
AcDbDictionary
281
     1
  3
Imperial24
350
69
  3
Metric50
350
D2E
  0
DICTIONARY
  5
64
102
{ACAD_REACTORS
330
C
102
}
330
C
100
AcDbDictionary
281
     1
  3
Standard
350
65
  0
DICTIONARY
  5
29
102
{ACAD_REACTORS
330
C
102
}
330
C
100
AcDbDictionary
281
     1
  3
2dWireframe
350
2F
  3
Basic
350
2E
  3
Brighten
350
35
  3
ColorChange
350
39
  3
Conceptual
350
32
  3
Dim
350
34
  3
EdgeColorOff
350
41
  3
Facepattern
350
38
  3
Flat
350
2A
  3
FlatWithEdges
350
2B
  3
Gouraud
350
2C
  3
GouraudWithEdges
350
2D
  3
Hidden
350
31
  3
JitterOff
350
3F
  3
Linepattern
350
37
  3
OverhangOff
350
40
  3
Realistic
350
33
  3
Shaded
350
3E
  3
Shaded with edges
350
3D
  3
Shades of Gray
350
3A
  3
Sketchy
350
3B
  3
Thicken
350
36
  3
Wireframe
350
30
  3
X-Ray
350
3C
  0
XRECORD
  5
1068
102
{ACAD_REACTORS
330
C
102
}
330
C
100
AcDbXrecord
280
     1
 90
        1
330
65
330
69
330
6B
330
196
330
199
330
19B
330
19C
330
19D
330
19E
330
19F
330
1A1
330
1A2
330
1A3
330
1A4
330
1A5
330
1A6
330
1A7
330
1A8
330
1A9
330
1AA
330
1AB
330
1AC
330
1AD
330
1AE
330
1AF
330
1B0
330
1B1
330
1B2
330
1B3
330
1B4
330
1B5
330
1B7
330
1B8
330
1B9
330
1BA
330
1BB
330
1BC
330
1BD
330
1BE
330
D2E
330
D2F
  0
DICTIONARY
  5
D27
102
{ACAD_REACTORS
330
C
102
}
330
C
100
AcDbDictionary
281
     1
  3
CANNOSCALE
350
D2C
  3
CMLEADERSTYLE
350
D29
  3
CTABLESTYLE
350
D28
  3
CVIEWDETAILSTYLE
350
D2A
  3
CVIEWSECTIONSTYLE
350
D2B
  3
DIMASSOC
350
EF5
  3
HIDETEXT
350
EF4
  3
INDEXCTL
350
EF3
  3
LAYEREVAL
350
EF0
  3
LAYERNOTIFY
350
EF1
  3
LIGHTINGUNITS
350
EEF
  3
MSLTSCALE
350
EEE
  3
SORTENTS
350
EF2
  0
DICTIONARY
  5
E30
102
{ACAD_REACTORS
330
C
102
}
330
C
100
AcDbDictionary
281
     1
  3
AcmStdDictionary
350
E37
  0
DICTIONARY
  5
E07
102
{ACAD_REACTORS
330
C
102
}
330
C
100
AcDbDictionary
281
     1
  0
DICTIONARY
  5
E89
102
{ACAD_REACTORS
330
C
102
}
330
C
100
AcDbDictionary
281
     1
  0
DICTIONARY
  5
E95
102
{ACAD_REACTORS
330
E94
102
}
330
E94
100
AcDbDictionary
281
     1
  0
XRECORD
  5
101D
102
{ACAD_REACTORS
330
C18
102
}
330
C18
100
AcDbXrecord
280
     1
 70
     4
 70
     0
 70
     0
 40
1.0
  2
BAUTEILNUMMER
  1
Embedded Object
 10
130.6395634474436
 20
10.40004659369133
 30
0.0
 40
4.499999880790709
 41
54.70195188917251
 46
0.0
 71
     4
 72
     5
  1
B-14421.13/3mm
  7
Textstil20
 73
     1
 44
1.0
  0
XRECORD
  5
101C
102
{ACAD_REACTORS
330
C18
102
}
330
C18
100
AcDbXrecord
280
     1
102
ACAD_MATT_HEIGHT
140
4.499999880790709
  0
XRECORD
  5
101F
102
{ACAD_REACTORS
330
C1B
102
}
330
C1B
100
AcDbXrecord
280
     1
 70
     4
 70
     0
 70
     0
 40
1.0
  2
TITEL
  1
Embedded Object
 10
50.4803547091469
 20
10.66737873014982
 30
0.0
 40
3.499999940395355
 41
79.0802469174333
 46
0.0
 71
     4
 72
     5
  1
Schlossunterlage
  7
Aktuell-DIN
 73
     1
 44
1.0
  0
XRECORD
  5
101E
102
{ACAD_REACTORS
330
C1B
102
}
330
C1B
100
AcDbXrecord
280
     1
102
ACAD_MATT_HEIGHT
140
3.499999940395355
  0
XRECORD
  5
1021
102
{ACAD_REACTORS
330
C1E
102
}
330
C1E
100
AcDbXrecord
280
     1
 70
     4
 70
     0
 70
     0
 40
1.0
  2
EDM_CREATE_DATE
  1
Embedded Object
 10
148.7947668615297
 20
50.08005757787322
 30
0.0
 40
2.006599903106689
 41
19.36406890964408
 46
0.0
 71
     4
 72
     5
  1
14.03.2016
  7
Textstil31
 73
     1
 44
1.0
  0
XRECORD
  5
1020
102
{ACAD_REACTORS
330
C1E
102
}
330
C1E
100
AcDbXrecord
280
     1
102
ACAD_MATT_HEIGHT
140
2.006599903106689
  0
XRECORD
  5
1023
102
{ACAD_REACTORS
330
C21
102
}
330
C21
100
AcDbXrecord
280
     1
 70
     4
 70
     0
 70
     0
 40
1.0
  2
EDM_CREATE_BY
  1
Embedded Object
 10
168.3179551236926
 20
50.10833043150012
 30
0.0
 40
2.006599903106689
 41
15.92843426507769
 46
0.0
 71
     4
 72
     5
  1
ra
  7
Textstil31
 73
     1
 44
1.0
  0
XRECORD
  5
1022
102
{ACAD_REACTORS
330
C21
102
}
330
C21
100
AcDbXrecord
280
     1
102
ACAD_MATT_HEIGHT
140
2.006599903106689
  0
XRECORD
  5
1025
102
{ACAD_REACTORS
330
C24
102
}
330
C24
100
AcDbXrecord
280
     1
 70
     4
 70
     0
 70
     0
 40
1.0
  2
EDM_CHECKED_BY
  1
Embedded Object
 10
168.5
 20
44.60013884095066
 30
0.0
 40
2.006599903106689
 41
31.83181559697239
 46
0.0
 71
     4
 72
     5
  1

  7
Textstil31
 73
     1
 44
1.0
  0
XRECORD
  5
1024
102
{ACAD_REACTORS
330
C24
102
}
330
C24
100
AcDbXrecord
280
     1
102
ACAD_MATT_HEIGHT
140
2.006599903106689
  0
XRECORD
  5
1027
102
{ACAD_REACTORS
330
C27
102
}
330
C27
100
AcDbXrecord
280
     1
 70
     4
 70
     0
 70
     0
 40
1.0
  2
EDM_CHECKED_DATE
  1
Embedded Object
 10
149.1
 20
44.62680194459117
 30
0.0
 40
2.006599903106689
 41
19.26865427753236
 46
0.0
 71
     4
 72
     5
  1

  7
Textstil31
 73
     1
 44
1.0
  0
XRECORD
  5
1026
102
{ACAD_REACTORS
330
C27
102
}
330
C27
100
AcDbXrecord
280
     1
102
ACAD_MATT_HEIGHT
140
2.006599903106689
  0
XRECORD
  5
1029
102
{ACAD_REACTORS
330
C2A
102
}
330
C2A
100
AcDbXrecord
280
     1
 70
     4
 70
     0
 70
     0
 40
1.0
  2
AIMD_MATERIAL
  1
Embedded Object
 10
177.6047099978851
 20
61.47015512140098
 30
0.0
 40
2.006599903106689
 41
26.51720840769073
 46
0.0
 71
     5
 72
     5
  1
1.4301
  7
Textstil31
 73
     1
 44
1.0
  0
XRECORD
  5
1028
102
{ACAD_REACTORS
330
C2A
102
}
330
C2A
100
AcDbXrecord
280
     1
102
ACAD_MATT_HEIGHT
140
2.006599903106689
  0
XRECORD
  5
102B
102
{ACAD_REACTORS
330
C2D
102
}
330
C2D
100
AcDbXrecord
280
     1
 70
     4
 70
     0
 70
     0
 40
1.0
  2
AIMD_REPLACEMENT
  1
Embedded Object
 10
149.1
 20
20.22568341402201
 30
0.0
 40
2.000000029802321
 41
29.0
 46
0.0
 71
     1
 72
     5
  1

  7
Textstil10
 73
     1
 44
1.0
  0
XRECORD
  5
102A
102
{ACAD_REACTORS
330
C2D
102
}
330
C2D
100
AcDbXrecord
280
     1
102
ACAD_MATT_HEIGHT
140
2.000000029802321
  0
XRECORD
  5
102D
102
{ACAD_REACTORS
330
C30
102
}
330
C30
100
AcDbXrecord
280
     1
 70
     4
 70
     0
 70
     0
 40
1.0
  2
1AIMD_REVISION_USERNAME
  1
Embedded Object
 10
125.5
 20
37.52978812439297
 30
0.0
 40
2.000000029802321
 41
7.999999999999988
 46
0.0
 71
     5
 72
     5
  1

  7
Textstil10
 73
     1
 44
1.0
  0
XRECORD
  5
102C
102
{ACAD_REACTORS
330
C30
102
}
330
C30
100
AcDbXrecord
280
     1
102
ACAD_MATT_HEIGHT
140
2.000000029802321
  0
XRECORD
  5
102F
102
{ACAD_REACTORS
330
C33
102
}
330
C33
100
AcDbXrecord
280
     1
 70
     4
 70
     0
 70
     0
 40
1.0
  2
1AIMD_REVISION_DESCRIPTION
  1
Embedded Object
 10
18.3
 20
37.50344422828553
 30
0.0
 40
2.000000029802321
 41
82.96770945006056
 46
0.0
 71
     4
 72
     5
  1

  7
Textstil10
 73
     1
 44
1.0
  0
XRECORD
  5
102E
102
{ACAD_REACTORS
330
C33
102
}
330
C33
100
AcDbXrecord
280
     1
102
ACAD_MATT_HEIGHT
140
2.000000029802321
  0
XRECORD
  5
1031
102
{ACAD_REACTORS
330
C36
102
}
330
C36
100
AcDbXrecord
280
     1
 70
     4
 70
     0
 70
     0
 40
1.0
  2
1AIMD_REVISION_INDEX
  1
Embedded Object
 10
14.0
 20
37.57520186233728
 30
0.0
 40
2.000000029802321
 41
8.000000000000008
 46
0.0
 71
     5
 72
     5
  1

  7
Textstil10
 73
     1
 44
1.0
  0
XRECORD
  5
1030
102
{ACAD_REACTORS
330
C36
102
}
330
C36
100
AcDbXrecord
280
     1
102
ACAD_MATT_HEIGHT
140
2.000000029802321
  0
XRECORD
  5
1033
102
{ACAD_REACTORS
330
C39
102
}
330
C39
100
AcDbXrecord
280
     1
 70
     4
 70
     0
 70
     0
 40
1.0
  2
2AIMD_REVISION_USERNAME
  1
Embedded Object
 10
125.5
 20
41.80881231003222
 30
0.0
 40
2.000000029802321
 41
7.999999999999988
 46
0.0
 71
     5
 72
     5
  1

  7
Textstil10
 73
     1
 44
1.0
  0
XRECORD
  5
1032
102
{ACAD_REACTORS
330
C39
102
}
330
C39
100
AcDbXrecord
280
     1
102
ACAD_MATT_HEIGHT
140
2.000000029802321
  0
XRECORD
  5
1035
102
{ACAD_REACTORS
330
C3C
102
}
330
C3C
100
AcDbXrecord
280
     1
 70
     4
 70
     0
 70
     0
 40
1.0
  2
2AIMD_REVISION_DATE
  1
Embedded Object
 10
112.5
 20
41.55065512658466
 30
0.0
 40
2.000000029802321
 41
13.0
 46
0.0
 71
     5
 72
     5
  1

  7
Textstil10
 73
     1
 44
1.0
  0
XRECORD
  5
1034
102
{ACAD_REACTORS
330
C3C
102
}
330
C3C
100
AcDbXrecord
280
     1
102
ACAD_MATT_HEIGHT
140
2.000000029802321
  0
XRECORD
  5
1037
102
{ACAD_REACTORS
330
C3F
102
}
330
C3F
100
AcDbXrecord
280
     1
 70
     4
 70
     0
 70
     0
 40
1.0
  2
2AIMD_REVISION_DESCRIPTION
  1
Embedded Object
 10
18.3
 20
41.97394057485317
 30
0.0
 40
2.000000029802321
 41
82.99495632584735
 46
0.0
 71
     4
 72
     5
  1

  7
Textstil10
 73
     1
 44
1.0
  0
XRECORD
  5
1036
102
{ACAD_REACTORS
330
C3F
102
}
330
C3F
100
AcDbXrecord
280
     1
102
ACAD_MATT_HEIGHT
140
2.000000029802321
  0
XRECORD
  5
1039
102
{ACAD_REACTORS
330
C42
102
}
330
C42
100
AcDbXrecord
280
     1
 70
     4
 70
     0
 70
     0
 40
1.0
  2
2AIMD_REVISION_INDEX
  1
Embedded Object
 10
14.0
 20
41.93671748032341
 30
0.0
 40
2.000000029802321
 41
8.000000000000008
 46
0.0
 71
     5
 72
     5
  1

  7
Textstil10
 73
     1
 44
1.0
  0
XRECORD
  5
1038
102
{ACAD_REACTORS
330
C42
102
}
330
C42
100
AcDbXrecord
280
     1
102
ACAD_MATT_HEIGHT
140
2.000000029802321
  0
XRECORD
  5
103B
102
{ACAD_REACTORS
330
C45
102
}
330
C45
100
AcDbXrecord
280
     1
 70
     4
 70
     0
 70
     0
 40
1.0
  2
3AIMD_REVISION_USERNAME
  1
Embedded Object
 10
125.5
 20
46.0359596664121
 30
0.0
 40
2.000000029802321
 41
7.999999999999988
 46
0.0
 71
     5
 72
     5
  1

  7
Textstil10
 73
     1
 44
1.0
  0
XRECORD
  5
103A
102
{ACAD_REACTORS
330
C45
102
}
330
C45
100
AcDbXrecord
280
     1
102
ACAD_MATT_HEIGHT
140
2.000000029802321
  0
XRECORD
  5
103D
102
{ACAD_REACTORS
330
C48
102
}
330
C48
100
AcDbXrecord
280
     1
 70
     4
 70
     0
 70
     0
 40
1.0
  2
3AIMD_REVISION_DATE
  1
Embedded Object
 10
112.5
 20
46.05889237330153
 30
0.0
 40
2.000000029802321
 41
13.0
 46
0.0
 71
     5
 72
     5
  1

  7
Textstil10
 73
     1
 44
1.0
  0
XRECORD
  5
103C
102
{ACAD_REACTORS
330
C48
102
}
330
C48
100
AcDbXrecord
280
     1
102
ACAD_MATT_HEIGHT
140
2.000000029802321
  0
XRECORD
  5
103F
102
{ACAD_REACTORS
330
C4B
102
}
330
C4B
100
AcDbXrecord
280
     1
 70
     4
 70
     0
 70
     0
 40
1.0
  2
3AIMD_REVISION_DESCRIPTION
  1
Embedded Object
 10
18.3
 20
46.07718270551361
 30
0.0
 40
2.000000029802321
 41
83.06691918986144
 46
0.0
 71
     4
 72
     5
  1

  7
Textstil10
 73
     1
 44
1.0
  0
XRECORD
  5
103E
102
{ACAD_REACTORS
330
C4B
102
}
330
C4B
100
AcDbXrecord
280
     1
102
ACAD_MATT_HEIGHT
140
2.000000029802321
  0
XRECORD
  5
1041
102
{ACAD_REACTORS
330
C4E
102
}
330
C4E
100
AcDbXrecord
280
     1
 70
     4
 70
     0
 70
     0
 40
1.0
  2
3AIMD_REVISION_INDEX
  1
Embedded Object
 10
14.0
 20
46.08650419099681
 30
0.0
 40
2.000000029802321
 41
8.000000000000008
 46
0.0
 71
     5
 72
     5
  1

  7
Textstil10
 73
     1
 44
1.0
  0
XRECORD
  5
1040
102
{ACAD_REACTORS
330
C4E
102
}
330
C4E
100
AcDbXrecord
280
     1
102
ACAD_MATT_HEIGHT
140
2.000000029802321
  0
XRECORD
  5
1043
102
{ACAD_REACTORS
330
C51
102
}
330
C51
100
AcDbXrecord
280
     1
 70
     4
 70
     0
 70
     0
 40
1.0
  2
4AIMD_REVISION_USERNAME
  1
Embedded Object
 10
125.5
 20
50.28595966641212
 30
0.0
 40
2.000000029802321
 41
7.999999999999988
 46
0.0
 71
     5
 72
     5
  1

  7
Textstil10
 73
     1
 44
1.0
  0
XRECORD
  5
1042
102
{ACAD_REACTORS
330
C51
102
}
330
C51
100
AcDbXrecord
280
     1
102
ACAD_MATT_HEIGHT
140
2.000000029802321
  0
XRECORD
  5
1045
102
{ACAD_REACTORS
330
C54
102
}
330
C54
100
AcDbXrecord
280
     1
 70
     4
 70
     0
 70
     0
 40
1.0
  2
4AIMD_REVISION_INDEX
  1
Embedded Object
 10
14.0
 20
50.35805766312741
 30
0.0
 40
2.000000029802321
 41
8.000000000000008
 46
0.0
 71
     5
 72
     5
  1

  7
Textstil10
 73
     1
 44
1.0
  0
XRECORD
  5
1044
102
{ACAD_REACTORS
330
C54
102
}
330
C54
100
AcDbXrecord
280
     1
102
ACAD_MATT_HEIGHT
140
2.000000029802321
  0
XRECORD
  5
1047
102
{ACAD_REACTORS
330
C57
102
}
330
C57
100
AcDbXrecord
280
     1
 70
     4
 70
     0
 70
     0
 40
1.0
  2
4AIMD_REVISION_DATE
  1
Embedded Object
 10
112.5
 20
50.30889237330153
 30
0.0
 40
2.000000029802321
 41
13.0
 46
0.0
 71
     5
 72
     5
  1

  7
Textstil10
 73
     1
 44
1.0
  0
XRECORD
  5
1046
102
{ACAD_REACTORS
330
C57
102
}
330
C57
100
AcDbXrecord
280
     1
102
ACAD_MATT_HEIGHT
140
2.000000029802321
  0
XRECORD
  5
1049
102
{ACAD_REACTORS
330
C5A
102
}
330
C5A
100
AcDbXrecord
280
     1
 70
     4
 70
     0
 70
     0
 40
1.0
  2
AIMD_ORIGIN
  1
Embedded Object
 10
149.1
 20
24.06337316165219
 30
0.0
 40
2.006599903106689
 41
0.0
 46
0.0
 71
     4
 72
     5
  1

  7
Textstil31
 73
     1
 44
1.0
  0
XRECORD
  5
1048
102
{ACAD_REACTORS
330
C5A
102
}
330
C5A
100
AcDbXrecord
280
     1
102
ACAD_MATT_HEIGHT
140
2.006599903106689
  0
XRECORD
  5
104B
102
{ACAD_REACTORS
330
C5D
102
}
330
C5D
100
AcDbXrecord
280
     1
 70
     4
 70
     0
 70
     0
 40
1.0
  2
AIMD_SCALE
  1
Embedded Object
 10
185.5946112811973
 20
46.99435227809239
 30
0.0
 40
3.499999940395355
 41
0.0
 46
0.0
 71
     2
 72
     5
  1

  7
Aktuell-DIN
 73
     1
 44
1.0
  0
XRECORD
  5
104A
102
{ACAD_REACTORS
330
C5D
102
}
330
C5D
100
AcDbXrecord
280
     1
102
ACAD_MATT_HEIGHT
140
3.499999940395355
  0
XRECORD
  5
104D
102
{ACAD_REACTORS
330
C60
102
}
330
C60
100
AcDbXrecord
280
     1
 70
     4
 70
     0
 70
     0
 40
1.0
  2
1AIMD_REVISION_DATE
  1
Embedded Object
 10
112.5
 20
37.57471445029354
 30
0.0
 40
2.000000029802321
 41
13.0
 46
0.0
 71
     5
 72
     5
  1

  7
Textstil10
 73
     1
 44
1.0
  0
XRECORD
  5
104C
102
{ACAD_REACTORS
330
C60
102
}
330
C60
100
AcDbXrecord
280
     1
102
ACAD_MATT_HEIGHT
140
2.000000029802321
  0
XRECORD
  5
104F
102
{ACAD_REACTORS
330
C63
102
}
330
C63
100
AcDbXrecord
280
     1
 70
     4
 70
     0
 70
     0
 40
1.0
  2
4AIMD_REVISION_DESCRIPTION
  1
Embedded Object
 10
18.3
 20
50.34949164108739
 30
0.0
 40
2.000000029802321
 41
82.92267927108245
 46
0.0
 71
     4
 72
     5
  1

  7
Textstil10
 73
     1
 44
1.0
  0
XRECORD
  5
104E
102
{ACAD_REACTORS
330
C63
102
}
330
C63
100
AcDbXrecord
280
     1
102
ACAD_MATT_HEIGHT
140
2.000000029802321
  0
XRECORD
  5
1051
102
{ACAD_REACTORS
330
C66
102
}
330
C66
100
AcDbXrecord
280
     1
 70
     4
 70
     0
 70
     0
 40
1.0
  2
TITEL
  1
Embedded Object
 10
86.49522503983964
 20
62.10909846561558
 30
0.0
 40
2.000000029802321
 41
80.17531946005505
 46
0.0
 71
     5
 72
     5
  1
Schlossunterlage
  7
NORM
 73
     1
 44
1.0
  0
XRECORD
  5
1050
102
{ACAD_REACTORS
330
C66
102
}
330
C66
100
AcDbXrecord
280
     1
102
ACAD_MATT_HEIGHT
140
2.000000029802321
  0
XRECORD
  5
1053
102
{ACAD_REACTORS
330
C69
102
}
330
C69
100
AcDbXrecord
280
     1
 70
     4
 70
     0
 70
     0
 40
1.0
  2
AIMD_REV
  1
Embedded Object
 10
189.4833791900584
 20
7.971925537779898
 30
0.0
 40
3.499999940395355
 41
8.835954606110972
 46
0.0
 71
     5
 72
     5
  1

  7
Aktuell-DIN
 73
     1
 44
1.0
  0
XRECORD
  5
1052
102
{ACAD_REACTORS
330
C69
102
}
330
C69
100
AcDbXrecord
280
     1
102
ACAD_MATT_HEIGHT
140
3.499999940395355
  0
XRECORD
  5
1055
102
{ACAD_REACTORS
330
C6C
102
}
330
C6C
100
AcDbXrecord
280
     1
 70
     4
 70
     0
 70
     0
 40
1.0
  2
Blattgröße
  1
Embedded Object
 10
185.8055286082098
 20
39.57851129336555
 30
0.0
 40
2.489199936389923
 41
15.61272158242218
 46
0.0
 71
     5
 72
     5
  1
A4
  7
Textstil32
 73
     1
 44
1.0
  0
XRECORD
  5
1054
102
{ACAD_REACTORS
330
C6C
102
}
330
C6C
100
AcDbXrecord
280
     1
102
ACAD_MATT_HEIGHT
140
2.489199936389923
  0
XRECORD
  5
1057
102
{ACAD_REACTORS
330
C6F
102
}
330
C6F
100
AcDbXrecord
280
     1
 70
     4
 70
     0
 70
     0
 40
1.0
  2
AIMD_FIRMA
  1
Embedded Object
 10
149.1
 20
34.44033611102547
 30
0.0
 40
2.006599903106689
 41
52.94720680962109
 46
0.0
 71
     4
 72
     5
  1

  7
Textstil31
 73
     1
 44
1.0
  0
XRECORD
  5
1056
102
{ACAD_REACTORS
330
C6F
102
}
330
C6F
100
AcDbXrecord
280
     1
102
ACAD_MATT_HEIGHT
140
2.006599903106689
  0
XRECORD
  5
1059
102
{ACAD_REACTORS
330
C72
102
}
330
C72
100
AcDbXrecord
280
     1
 70
     4
 70
     0
 70
     0
 40
1.0
  2
AIMD_OBERFL
  1
Embedded Object
 10
148.9152176067556
 20
29.61071345552475
 30
0.0
 40
2.006599903106689
 41
52.33510037251564
 46
0.0
 71
     4
 72
     5
  1
matt gebuerstet (mb)
  7
Textstil31
 73
     1
 44
1.0
  0
XRECORD
  5
1058
102
{ACAD_REACTORS
330
C72
102
}
330
C72
100
AcDbXrecord
280
     1
102
ACAD_MATT_HEIGHT
140
2.006599903106689
  0
XRECORD
  5
105B
102
{ACAD_REACTORS
330
C75
102
}
330
C75
100
AcDbXrecord
280
     1
 70
     4
 70
     0
 70
     0
 40
1.0
  2
EDM_CHECKED_DATE
  1
Embedded Object
 10
149.1
 20
39.59728947595539
 30
0.0
 40
2.000000029802321
 41
19.39355134107019
 46
0.0
 71
     4
 72
     5
  1

  7
NORM
 73
     1
 44
1.0
  0
XRECORD
  5
105A
102
{ACAD_REACTORS
330
C75
102
}
330
C75
100
AcDbXrecord
280
     1
102
ACAD_MATT_HEIGHT
140
2.000000029802321
  0
XRECORD
  5
105D
102
{ACAD_REACTORS
330
C78
102
}
330
C78
100
AcDbXrecord
280
     1
 70
     4
 70
     0
 70
     0
 40
1.0
  2
EDM_CHECKED_BY
  1
Embedded Object
 10
168.5
 20
39.60282374963858
 30
0.0
 40
2.006599903106689
 41
31.25263641681158
 46
0.0
 71
     4
 72
     5
  1

  7
Textstil31
 73
     1
 44
1.0
  0
XRECORD
  5
105C
102
{ACAD_REACTORS
330
C78
102
}
330
C78
100
AcDbXrecord
280
     1
102
ACAD_MATT_HEIGHT
140
2.006599903106689
  0
XRECORD
  5
105F
102
{ACAD_REACTORS
330
C7B
102
}
330
C7B
100
AcDbXrecord
280
     1
 70
     4
 70
     0
 70
     0
 40
1.0
  2
AIMD_BEZ2
  1
Embedded Object
 10
50.7140518399648
 20
29.29891435027878
 30
0.0
 40
2.000000029802321
 41
62.84993842412557
 46
0.0
 71
     4
 72
     5
  1
sFlipLock Standard / Basis
  7
NORM
 73
     1
 44
1.0
  0
XRECORD
  5
105E
102
{ACAD_REACTORS
330
C7B
102
}
330
C7B
100
AcDbXrecord
280
     1
102
ACAD_MATT_HEIGHT
140
2.000000029802321
  0
XRECORD
  5
1061
102
{ACAD_REACTORS
330
C7E
102
}
330
C7E
100
AcDbXrecord
280
     1
 70
     4
 70
     0
 70
     0
 40
1.0
  2
AIMD_BEZ3
  1
Embedded Object
 10
50.68267394026975
 20
24.11916808688638
 30
0.0
 40
2.000000029802321
 41
62.5576131291296
 46
0.0
 71
     4
 72
     5
  1
320x24x3mm
  7
NORM
 73
     1
 44
1.0
  0
XRECORD
  5
1060
102
{ACAD_REACTORS
330
C7E
102
}
330
C7E
100
AcDbXrecord
280
     1
102
ACAD_MATT_HEIGHT
140
2.000000029802321
  0
XRECORD
  5
1063
102
{ACAD_REACTORS
330
C81
102
}
330
C81
100
AcDbXrecord
280
     1
 70
     4
 70
     0
 70
     0
 40
1.0
  2
AIMD_BEZ4
  1
Embedded Object
 10
50.79999999999992
 20
19.09884857604945
 30
0.0
 40
2.000000029802321
 41
62.7037757766276
 46
0.0
 71
     4
 72
     5
  1

  7
NORM
 73
     1
 44
1.0
  0
XRECORD
  5
1062
102
{ACAD_REACTORS
330
C81
102
}
330
C81
100
AcDbXrecord
280
     1
102
ACAD_MATT_HEIGHT
140
2.000000029802321
  0
ACDBDETAILVIEWSTYLE
  5
6B
102
{ACAD_XDICTIONARY
360
101A
102
}
102
{ACAD_REACTORS
330
6A
330
FF7
102
}
330
6A
100
AcDbModelDocViewStyle
 70
     0
  3
Imperial24
290
     0
100
AcDbDetailViewStyle
 70
     0
 71
     0
 90
        3
 71
     1
340
55
 62
   256
 40
0.24
340
0
 62
   256
 40
0.24
300

 40
0.36
280
     3
 71
     2
340
5D
 90
       25
 62
   256
 71
     3
340
55
 62
   256
 40
0.24
 90
        1
 40
0.75
 90
        1
300
%<\AcVar ViewType \f "%tc1">% %<\AcVar ViewDetailId>%\PVARIA %<\AcVar ViewScale \f "%sn">%
 71
     4
340
5D
 90
       25
 62
   256
340
5D
 90
       25
 62
   256
280
     0
  0
ACDBDETAILVIEWSTYLE
  5
D2F
102
{ACAD_XDICTIONARY
360
1066
102
}
102
{ACAD_REACTORS
330
6A
330
FF8
102
}
330
6A
100
AcDbModelDocViewStyle
 70
     0
  3
Metric50
290
     0
100
AcDbDetailViewStyle
 70
     0
 71
     0
 90
        3
 71
     1
340
55
 62
   256
 40
5.0
340
0
 62
   256
 40
5.0
300

 40
0.0
280
     1
 71
     2
340
5D
 90
       25
 62
   256
 71
     3
340
55
 62
   256
 40
5.0
 90
        0
 40
15.0
 90
        1
300
%<\AcVar ViewDetailId>% (%<\AcVar ViewScale \f "%sn">%)
 71
     4
340
5D
 90
       25
 62
   256
340
5D
 90
       25
 62
   256
280
     0
  0
LAYOUT
  5
6F
102
{ACAD_REACTORS
330
62
102
}
330
62
100
AcDbPlotSettings
  1

  2

  4

  6

 40
0.0
 41
0.0
 42
0.0
 43
0.0
 44
0.0
 45
0.0
 46
0.0
 47
0.0
 48
0.0
 49
0.0
140
0.0
141
0.0
142
1.0
143
1.0
 70
   688
 72
     0
 73
     0
 74
     5
  7

 75
    16
147
1.0
 76
     0
 77
     2
 78
   300
148
0.0
149
0.0
100
AcDbLayout
  1
Layout1
 70
     1
 71
     1
 10
0.0
 20
0.0
 11
420.0
 21
594.0
 12
0.0
 22
0.0
 32
0.0
 14
0.0
 24
0.0
 34
0.0
 15
420.0
 25
594.0
 35
0.0
146
0.0
 13
0.0
 23
0.0
 33
0.0
 16
1.0
 26
0.0
 36
0.0
 17
0.0
 27
1.0
 37
0.0
 76
     0
330
6C
  0
LAYOUT
  5
77
102
{ACAD_REACTORS
330
62
102
}
330
62
100
AcDbPlotSettings
  1

  2

  4

  6

 40
0.0
 41
0.0
 42
0.0
 43
0.0
 44
0.0
 45
0.0
 46
0.0
 47
0.0
 48
0.0
 49
0.0
140
0.0
141
0.0
142
1.0
143
1.0
 70
   688
 72
     0
 73
     0
 74
     5
  7

 75
    16
147
1.0
 76
     0
 77
     2
 78
   300
148
0.0
149
0.0
100
AcDbLayout
  1
Layout2
 70
     1
 71
     2
 10
0.0
 20
0.0
 11
12.0
 21
9.0
 12
0.0
 22
0.0
 32
0.0
 14
0.0
 24
0.0
 34
0.0
 15
0.0
 25
0.0
 35
0.0
146
0.0
 13
0.0
 23
0.0
 33
0.0
 16
1.0
 26
0.0
 36
0.0
 17
0.0
 27
1.0
 37
0.0
 76
     0
330
74
  0
LAYOUT
  5
73
102
{ACAD_REACTORS
330
62
102
}
330
62
100
AcDbPlotSettings
  1

  2

  4

  6

 40
0.0
 41
0.0
 42
0.0
 43
0.0
 44
0.0
 45
0.0
 46
0.0
 47
0.0
 48
0.0
 49
0.0
140
0.0
141
0.0
142
1.0
143
1.0
 70
  1712
 72
     0
 73
     0
 74
     0
  7

 75
     0
147
1.0
 76
     0
 77
     2
 78
   300
148
0.0
149
0.0
100
AcDbLayout
  1
Model
 70
     1
 71
     0
 10
0.0
 20
0.0
 11
12.0
 21
9.0
 12
0.0
 22
0.0
 32
0.0
 14
0.0
 24
0.0
 34
0.0
 15
0.0
 25
0.0
 35
0.0
146
0.0
 13
0.0
 23
0.0
 33
0.0
 16
1.0
 26
0.0
 36
0.0
 17
0.0
 27
1.0
 37
0.0
 76
     0
330
70
331
57
  0
MATERIAL
  5
19
102
{ACAD_XDICTIONARY
360
1A
102
}
102
{ACAD_REACTORS
330
10
102
}
330
10
100
AcDbMaterial
  1
ByBlock
 72
     0
 43
0.0208333333333333
 43
0.0
 43
0.0
 43
0.0
 43
0.0
 43
0.0208333333333333
 43
0.0
 43
0.0
 43
0.0
 43
0.0
 43
1.0
 43
0.0
 43
0.0
 43
0.0
 43
0.0
 43
1.0
 77
     0
 47
0.0208333333333333
 47
0.0
 47
0.0
 47
0.0
 47
0.0
 47
0.0208333333333333
 47
0.0
 47
0.0
 47
0.0
 47
0.0
 47
1.0
 47
0.0
 47
0.0
 47
0.0
 47
0.0
 47
1.0
171
     0
 49
0.0208333333333333
 49
0.0
 49
0.0
 49
0.0
 49
0.0
 49
0.0208333333333333
 49
0.0
 49
0.0
 49
0.0
 49
0.0
 49
1.0
 49
0.0
 49
0.0
 49
0.0
 49
0.0
 49
1.0
175
     0
142
0.0208333333333333
142
0.0
142
0.0
142
0.0
142
0.0
142
0.0208333333333333
142
0.0
142
0.0
142
0.0
142
0.0
142
1.0
142
0.0
142
0.0
142
0.0
142
0.0
142
1.0
179
     0
144
0.0208333333333333
144
0.0
144
0.0
144
0.0
144
0.0
144
0.0208333333333333
144
0.0
144
0.0
144
0.0
144
0.0
144
1.0
144
0.0
144
0.0
144
0.0
144
0.0
144
1.0
147
0.0208333333333333
147
0.0
147
0.0
147
0.0
147
0.0
147
0.0208333333333333
147
0.0
147
0.0
147
0.0
147
0.0
147
1.0
147
0.0
147
0.0
147
0.0
147
0.0
147
1.0
  0
MATERIAL
  5
11
102
{ACAD_XDICTIONARY
360
12
102
}
102
{ACAD_REACTORS
330
10
102
}
330
10
100
AcDbMaterial
  1
ByLayer
 72
     0
 43
0.0208333333333333
 43
0.0
 43
0.0
 43
0.0
 43
0.0
 43
0.0208333333333333
 43
0.0
 43
0.0
 43
0.0
 43
0.0
 43
1.0
 43
0.0
 43
0.0
 43
0.0
 43
0.0
 43
1.0
 77
     0
 47
0.0208333333333333
 47
0.0
 47
0.0
 47
0.0
 47
0.0
 47
0.0208333333333333
 47
0.0
 47
0.0
 47
0.0
 47
0.0
 47
1.0
 47
0.0
 47
0.0
 47
0.0
 47
0.0
 47
1.0
171
     0
 49
0.0208333333333333
 49
0.0
 49
0.0
 49
0.0
 49
0.0
 49
0.0208333333333333
 49
0.0
 49
0.0
 49
0.0
 49
0.0
 49
1.0
 49
0.0
 49
0.0
 49
0.0
 49
0.0
 49
1.0
175
     0
142
0.0208333333333333
142
0.0
142
0.0
142
0.0
142
0.0
142
0.0208333333333333
142
0.0
142
0.0
142
0.0
142
0.0
142
1.0
142
0.0
142
0.0
142
0.0
142
0.0
142
1.0
179
     0
144
0.0208333333333333
144
0.0
144
0.0
144
0.0
144
0.0
144
0.0208333333333333
144
0.0
144
0.0
144
0.0
144
0.0
144
1.0
144
0.0
144
0.0
144
0.0
144
0.0
144
1.0
147
0.0208333333333333
147
0.0
147
0.0
147
0.0
147
0.0
147
0.0208333333333333
147
0.0
147
0.0
147
0.0
147
0.0
147
1.0
147
0.0
147
0.0
147
0.0
147
0.0
147
1.0
  0
MATERIAL
  5
21
102
{ACAD_XDICTIONARY
360
22
102
}
102
{ACAD_REACTORS
330
10
102
}
330
10
100
AcDbMaterial
  1
Global
 72
     0
 43
0.0208333333333333
 43
0.0
 43
0.0
 43
0.0
 43
0.0
 43
0.0208333333333333
 43
0.0
 43
0.0
 43
0.0
 43
0.0
 43
1.0
 43
0.0
 43
0.0
 43
0.0
 43
0.0
 43
1.0
 77
     0
 47
0.0208333333333333
 47
0.0
 47
0.0
 47
0.0
 47
0.0
 47
0.0208333333333333
 47
0.0
 47
0.0
 47
0.0
 47
0.0
 47
1.0
 47
0.0
 47
0.0
 47
0.0
 47
0.0
 47
1.0
171
     0
 49
0.0208333333333333
 49
0.0
 49
0.0
 49
0.0
 49
0.0
 49
0.0208333333333333
 49
0.0
 49
0.0
 49
0.0
 49
0.0
 49
1.0
 49
0.0
 49
0.0
 49
0.0
 49
0.0
 49
1.0
175
     0
142
0.0208333333333333
142
0.0
142
0.0
142
0.0
142
0.0
142
0.0208333333333333
142
0.0
142
0.0
142
0.0
142
0.0
142
1.0
142
0.0
142
0.0
142
0.0
142
0.0
142
1.0
179
     0
144
0.0208333333333333
144
0.0
144
0.0
144
0.0
144
0.0
144
0.0208333333333333
144
0.0
144
0.0
144
0.0
144
0.0
144
1.0
144
0.0
144
0.0
144
0.0
144
0.0
144
1.0
147
0.0208333333333333
147
0.0
147
0.0
147
0.0
147
0.0
147
0.0208333333333333
147
0.0
147
0.0
147
0.0
147
0.0
147
1.0
147
0.0
147
0.0
147
0.0
147
0.0
147
1.0
  0
MLEADERSTYLE
  5
67
102
{ACAD_REACTORS
330
66
102
}
330
66
100
AcDbMLeaderStyle
179
     2
170
     2
171
     1
172
     0
 90
        2
 40
0.0
 41
0.0
173
     1
 91
-1056964608
340
5B
 92
       -2
290
     1
 42
0.09
291
     1
 43
0.36
  3
Standard
 44
0.18
300

342
55
174
     1
178
     6
175
     1
176
     0
 93
-1056964608
 45
0.18
292
     0
297
     0
 46
0.18
 94
-1056964608
 47
1.0
 49
1.0
140
1.0
293
     1
141
0.0
294
     1
177
     0
142
1.0
295
     0
296
     0
143
0.125
271
     0
272
     9
273
     9
298
     1
1001
ACAD_MLEADERVER
1070
     2
  0
MLINESTYLE
  5
60
102
{ACAD_REACTORS
330
5F
102
}
330
5F
100
AcDbMlineStyle
  2
STANDARD
 70
     0
  3

 62
   256
 51
90.0
 52
90.0
 71
     2
 49
0.5
 62
   256
  6
BYLAYER
 49
-0.5
 62
   256
  6
BYLAYER
  0
ACDBPLACEHOLDER
  5
F
102
{ACAD_REACTORS
330
E
102
}
330
E
  0
SCALE
  5
43
102
{ACAD_REACTORS
330
42
102
}
330
42
100
AcDbScale
 70
     0
300
1:1
140
1.0
141
1.0
290
     1
  0
SCALE
  5
44
102
{ACAD_REACTORS
330
42
102
}
330
42
100
AcDbScale
 70
     0
300
1/128" = 1'-0"
140
0.0078125
141
12.0
290
     0
  0
SCALE
  5
45
102
{ACAD_REACTORS
330
42
102
}
330
42
100
AcDbScale
 70
     0
300
1/64" = 1'-0"
140
0.015625
141
12.0
290
     0
  0
SCALE
  5
46
102
{ACAD_REACTORS
330
42
102
}
330
42
100
AcDbScale
 70
     0
300
1/32" = 1'-0"
140
0.03125
141
12.0
290
     0
  0
SCALE
  5
47
102
{ACAD_REACTORS
330
42
102
}
330
42
100
AcDbScale
 70
     0
300
1/16" = 1'-0"
140
0.0625
141
12.0
290
     0
  0
SCALE
  5
48
102
{ACAD_REACTORS
330
42
102
}
330
42
100
AcDbScale
 70
     0
300
3/32" = 1'-0"
140
0.09375
141
12.0
290
     0
  0
SCALE
  5
49
102
{ACAD_REACTORS
330
42
102
}
330
42
100
AcDbScale
 70
     0
300
1/8" = 1'-0"
140
0.125
141
12.0
290
     0
  0
SCALE
  5
4A
102
{ACAD_REACTORS
330
42
102
}
330
42
100
AcDbScale
 70
     0
300
3/16" = 1'-0"
140
0.1875
141
12.0
290
     0
  0
SCALE
  5
4B
102
{ACAD_REACTORS
330
42
102
}
330
42
100
AcDbScale
 70
     0
300
1/4" = 1'-0"
140
0.25
141
12.0
290
     0
  0
SCALE
  5
4C
102
{ACAD_REACTORS
330
42
102
}
330
42
100
AcDbScale
 70
     0
300
3/8" = 1'-0"
140
0.375
141
12.0
290
     0
  0
SCALE
  5
4D
102
{ACAD_REACTORS
330
42
102
}
330
42
100
AcDbScale
 70
     0
300
1/2" = 1'-0"
140
0.5
141
12.0
290
     0
  0
SCALE
  5
4E
102
{ACAD_REACTORS
330
42
102
}
330
42
100
AcDbScale
 70
     0
300
3/4" = 1'-0"
140
0.75
141
12.0
290
     0
  0
SCALE
  5
4F
102
{ACAD_REACTORS
330
42
102
}
330
42
100
AcDbScale
 70
     0
300
1" = 1'-0"
140
1.0
141
12.0
290
     0
  0
SCALE
  5
50
102
{ACAD_REACTORS
330
42
102
}
330
42
100
AcDbScale
 70
     0
300
1-1/2" = 1'-0"
140
1.5
141
12.0
290
     0
  0
SCALE
  5
51
102
{ACAD_REACTORS
330
42
102
}
330
42
100
AcDbScale
 70
     0
300
3" = 1'-0"
140
3.0
141
12.0
290
     0
  0
SCALE
  5
52
102
{ACAD_REACTORS
330
42
102
}
330
42
100
AcDbScale
 70
     0
300
6" = 1'-0"
140
6.0
141
12.0
290
     0
  0
SCALE
  5
53
102
{ACAD_REACTORS
330
42
102
}
330
42
100
AcDbScale
 70
     0
300
1'-0" = 1'-0"
140
12.0
141
12.0
290
     0
  0
ACDBSECTIONVIEWSTYLE
  5
69
102
{ACAD_XDICTIONARY
360
1018
102
}
102
{ACAD_REACTORS
330
68
330
FF5
102
}
330
68
100
AcDbModelDocViewStyle
 70
     0
  3
Imperial24
290
     0
100
AcDbSectionViewStyle
 70
     0
 71
     0
 90
       78
 71
     1
340
55
 62
   256
 40
0.24
340
0
340
0
 62
   256
 40
0.24
300
I, O, Q, S, X, Z
 40
0.48
 90
        3
 40
0.18
 90
        1
 71
     2
340
5D
 90
       25
 62
   256
340
5D
 90
       50
 62
   256
 40
0.24
 40
0.0
 40
0.24
 71
     3
340
55
 62
   256
 40
0.24
 90
        1
 40
0.75
 90
        1
300
%<\AcVar ViewType \f "%tc1">% %<\AcVar ViewSectionStartId>%-%<\AcVar ViewSectionEndId>%\PVARIA %<\AcVar ViewScale \f "%sn">%
 71
     4
 62
   256
 62
   257
300
ANSI31
 40
1.0
 90
        0
290
     0
290
     0
 90
        6
 40
0.0
 40
1.570796326794896
 40
0.2617993877991494
 40
1.308996938995747
 40
-0.2617993877991494
 40
1.832595714594045
  0
ACDBSECTIONVIEWSTYLE
  5
D2E
102
{ACAD_XDICTIONARY
360
1064
102
}
102
{ACAD_REACTORS
330
68
330
FF6
102
}
330
68
100
AcDbModelDocViewStyle
 70
     0
  3
Metric50
290
     0
100
AcDbSectionViewStyle
 70
     0
 71
     0
 90
      102
 71
     1
340
55
 62
   256
 40
5.0
340
0
340
0
 62
   256
 40
5.0
300
I, O, Q, S, X, Z
 40
10.0
 90
        0
 40
2.5
 90
        0
 71
     2
340
5D
 90
       25
 62
   256
340
5D
 90
       50
 62
   256
 40
5.0
 40
2.5
 40
5.0
 71
     3
340
55
 62
   256
 40
5.0
 90
        0
 40
15.0
 90
        1
300
%<\AcVar ViewSectionStartId>%-%<\AcVar ViewSectionEndId>% (%<\AcVar ViewScale \f "%sn">%)
 71
     4
 62
   256
 62
   257
300
ANSI31
 40
1.0
 90
        0
290
     0
290
     0
 90
        6
 40
0.0
 40
1.570796326794896
 40
0.2617993877991494
 40
1.308996938995747
 40
-0.2617993877991494
 40
1.832595714594045
  0
TABLESTYLE
  5
65
102
{ACAD_XDICTIONARY
360
EF7
102
}
102
{ACAD_REACTORS
330
64
102
}
330
64
100
AcDbTableStyle
280
     0
  3
Standard
 70
     0
 71
     0
 40
0.06
 41
0.06
280
     0
281
     0
  7
Standard
140
0.18
170
     2
 62
     0
 63
     7
283
     0
 90
      512
 91
        0
  1

274
    -2
284
     1
 64
     0
275
    -2
285
     1
 65
     0
276
    -2
286
     1
 66
     0
277
    -2
287
     1
 67
     0
278
    -2
288
     1
 68
     0
279
    -2
289
     1
 69
     0
  7
Standard
140
0.25
170
     5
 62
     0
 63
     7
283
     0
 90
      512
 91
        0
  1

274
    -2
284
     1
 64
     0
275
    -2
285
     1
 65
     0
276
    -2
286
     1
 66
     0
277
    -2
287
     1
 67
     0
278
    -2
288
     1
 68
     0
279
    -2
289
     1
 69
     0
  7
Standard
140
0.18
170
     5
 62
     0
 63
     7
283
     0
 90
      512
 91
        0
  1

274
    -2
284
     1
 64
     0
275
    -2
285
     1
 65
     0
276
    -2
286
     1
 66
     0
277
    -2
287
     1
 67
     0
278
    -2
288
     1
 68
     0
279
    -2
289
     1
 69
     0
  0
VISUALSTYLE
  5
2F
102
{ACAD_REACTORS
330
29
102
}
330
29
100
AcDbVisualStyle
  2

 70
     4
177
     3
291
     0
 70
    58
 90
        0
176
     1
 90
        2
176
     1
 90
        0
176
     1
 90
        0
176
     1
 40
0.6
176
     1
 40
30.0
176
     1
 62
     7
176
     1
 90
        1
176
     1
 90
        4
176
     1
 62
     7
176
     1
 62
   257
176
     1
 90
        1
176
     1
 90
        1
176
     1
 40
1.0
176
     1
 90
        0
176
     1
 62
   257
176
     1
 40
1.0
176
     1
 90
        1
176
     1
 90
        6
176
     1
 90
        2
176
     1
 62
     7
176
     1
 90
        5
176
     1
 90
        0
176
     1
 90
        0
176
     1
290
     0
176
     1
 90
        1
176
     1
 40
0.0
176
     1
 90
        0
176
     1
290
     1
176
     1
290
     1
176
     1
290
     0
176
     1
290
     0
176
     1
290
     0
176
     1
290
     0
176
     1
290
     0
176
     1
290
     0
176
     1
290
     0
176
     1
 90
       50
176
     1
 40
0.0
176
     1
 40
1.0
176
     1
 90
        0
176
     1
 62
    18
420
        0
176
     1
 90
       50
176
     1
 90
        3
176
     1
 62
     5
420
      255
176
     1
290
     0
176
     1
 90
       50
176
     1
 90
       50
176
     1
 90
       50
176
     1
290
     0
176
     1
 90
       50
176
     1
 62
   256
176
     0
 40
1.0
176
     0
 90
        2
176
     1
  1
strokes_ogs.tif
176
     1
290
     0
176
     1
 40
1.0
176
     1
 40
1.0
176
     1
1001
ACAD
1000
AcDbSavedByObjectVersion
1070
     0
  0
VISUALSTYLE
  5
2E
102
{ACAD_REACTORS
330
29
102
}
330
29
100
AcDbVisualStyle
  2

 70
     7
177
     3
291
     1
 70
    58
 90
        1
176
     1
 90
        0
176
     1
 90
        1
176
     1
 90
        0
176
     1
 40
0.6
176
     1
 40
30.0
176
     1
 62
     7
176
     1
 90
        0
176
     1
 90
        4
176
     1
 62
     7
176
     1
 62
   257
176
     1
 90
        1
176
     1
 90
        1
176
     1
 40
1.0
176
     1
 90
        8
176
     1
 62
     7
176
     1
 40
1.0
176
     1
 90
        1
176
     1
 90
        6
176
     1
 90
        2
176
     1
 62
     7
176
     1
 90
        5
176
     1
 90
        0
176
     1
 90
        0
176
     1
290
     0
176
     1
 90
        1
176
     1
 40
0.0
176
     1
 90
        0
176
     1
290
     0
176
     1
290
     1
176
     1
290
     1
176
     1
290
     0
176
     1
290
     0
176
     1
290
     0
176
     1
290
     0
176
     1
290
     0
176
     1
290
     0
176
     1
 90
       50
176
     1
 40
0.0
176
     1
 40
1.0
176
     1
 90
        0
176
     1
 62
    18
420
        0
176
     1
 90
       50
176
     1
 90
        3
176
     1
 62
     5
420
      255
176
     1
290
     0
176
     1
 90
       50
176
     1
 90
       50
176
     1
 90
       50
176
     1
290
     0
176
     1
 90
       50
176
     1
 62
   256
176
     0
 40
1.0
176
     0
 90
        2
176
     1
  1
strokes_ogs.tif
176
     1
290
     0
176
     1
 40
1.0
176
     1
 40
1.0
176
     1
1001
ACAD
1000
AcDbSavedByObjectVersion
1070
     0
  0
VISUALSTYLE
  5
35
102
{ACAD_REACTORS
330
29
102
}
330
29
100
AcDbVisualStyle
  2

 70
    12
177
     3
291
     1
 70
    58
 90
        2
176
     1
 90
        2
176
     1
 90
        0
176
     1
 90
        0
176
     1
 40
0.6
176
     1
 40
30.0
176
     1
 62
     7
176
     1
 90
        1
176
     1
 90
        4
176
     1
 62
     7
176
     1
 62
   257
176
     1
 90
        1
176
     1
 90
        1
176
     1
 40
1.0
176
     1
 90
        8
176
     1
 62
     7
176
     1
 40
1.0
176
     1
 90
        1
176
     1
 90
        6
176
     1
 90
        2
176
     1
 62
     7
176
     1
 90
        5
176
     1
 90
        0
176
     1
 90
        0
176
     1
290
     0
176
     1
 90
        1
176
     1
 40
50.0
176
     1
 90
        0
176
     1
290
     0
176
     1
290
     1
176
     1
290
     1
176
     1
290
     0
176
     1
290
     0
176
     1
290
     0
176
     1
290
     0
176
     1
290
     0
176
     1
290
     0
176
     1
 90
       50
176
     1
 40
0.0
176
     1
 40
1.0
176
     1
 90
        0
176
     1
 62
    18
420
        0
176
     1
 90
       50
176
     1
 90
        3
176
     1
 62
     5
420
      255
176
     1
290
     0
176
     1
 90
       50
176
     1
 90
       50
176
     1
 90
       50
176
     1
290
     0
176
     1
 90
       50
176
     1
 62
   256
176
     0
 40
1.0
176
     0
 90
        2
176
     1
  1
strokes_ogs.tif
176
     1
290
     0
176
     1
 40
1.0
176
     1
 40
1.0
176
     1
1001
ACAD
1000
AcDbSavedByObjectVersion
1070
     0
  0
VISUALSTYLE
  5
39
102
{ACAD_REACTORS
330
29
102
}
330
29
100
AcDbVisualStyle
  2

 70
    16
177
     3
291
     1
 70
    58
 90
        2
176
     1
 90
        2
176
     1
 90
        3
176
     1
 90
        0
176
     1
 40
0.6
176
     1
 40
30.0
176
     1
 62
     8
176
     1
 90
        1
176
     1
 90
        4
176
     1
 62
     7
176
     1
 62
   257
176
     1
 90
        1
176
     1
 90
        1
176
     1
 40
1.0
176
     1
 90
        8
176
     1
 62
     8
176
     1
 40
1.0
176
     1
 90
        1
176
     1
 90
        6
176
     1
 90
        2
176
     1
 62
     7
176
     1
 90
        5
176
     1
 90
        0
176
     1
 90
        0
176
     1
290
     0
176
     1
 90
        1
176
     1
 40
0.0
176
     1
 90
        0
176
     1
290
     0
176
     1
290
     1
176
     1
290
     1
176
     1
290
     0
176
     1
290
     0
176
     1
290
     0
176
     1
290
     0
176
     1
290
     0
176
     1
290
     0
176
     1
 90
       50
176
     1
 40
0.0
176
     1
 40
1.0
176
     1
 90
        0
176
     1
 62
    18
420
        0
176
     1
 90
       50
176
     1
 90
        3
176
     1
 62
     5
420
      255
176
     1
290
     0
176
     1
 90
       50
176
     1
 90
       50
176
     1
 90
       50
176
     1
290
     0
176
     1
 90
       50
176
     1
 62
   256
176
     0
 40
1.0
176
     0
 90
        2
176
     1
  1
strokes_ogs.tif
176
     1
290
     0
176
     1
 40
1.0
176
     1
 40
1.0
176
     1
1001
ACAD
1000
AcDbSavedByObjectVersion
1070
     0
  0
VISUALSTYLE
  5
32
102
{ACAD_REACTORS
330
29
102
}
330
29
100
AcDbVisualStyle
  2

 70
     9
177
     3
291
     0
 70
    58
 90
        3
176
     1
 90
        2
176
     1
 90
        0
176
     1
 90
        0
176
     1
 40
0.6
176
     1
 40
30.0
176
     1
 62
     7
176
     1
 90
        2
176
     1
 90
        2
176
     1
 62
     7
176
     1
 62
   257
176
     1
 90
        1
176
     1
 90
        1
176
     1
 40
179.0
176
     1
 90
        8
176
     1
 62
     7
176
     1
 40
1.0
176
     1
 90
        1
176
     1
 90
        6
176
     1
 90
        2
176
     1
 62
     7
176
     1
 90
        3
176
     1
 90
        0
176
     1
 90
        0
176
     1
290
     0
176
     1
 90
        1
176
     1
 40
0.0
176
     1
 90
        0
176
     1
290
     0
176
     1
290
     1
176
     1
290
     1
176
     1
290
     0
176
     1
290
     0
176
     1
290
     0
176
     1
290
     0
176
     1
290
     0
176
     1
290
     0
176
     1
 90
       50
176
     1
 40
0.0
176
     1
 40
1.0
176
     1
 90
        0
176
     1
 62
    18
420
        0
176
     1
 90
       50
176
     1
 90
        3
176
     1
 62
     5
420
      255
176
     1
290
     0
176
     1
 90
       50
176
     1
 90
       50
176
     1
 90
       50
176
     1
290
     0
176
     1
 90
       50
176
     1
 62
   256
176
     0
 40
1.0
176
     0
 90
        2
176
     1
  1
strokes_ogs.tif
176
     1
290
     0
176
     1
 40
1.0
176
     1
 40
1.0
176
     1
1001
ACAD
1000
AcDbSavedByObjectVersion
1070
     0
  0
VISUALSTYLE
  5
34
102
{ACAD_REACTORS
330
29
102
}
330
29
100
AcDbVisualStyle
  2

 70
    11
177
     3
291
     1
 70
    58
 90
        2
176
     1
 90
        2
176
     1
 90
        0
176
     1
 90
        0
176
     1
 40
0.6
176
     1
 40
30.0
176
     1
 62
     7
176
     1
 90
        1
176
     1
 90
        4
176
     1
 62
     7
176
     1
 62
   257
176
     1
 90
        1
176
     1
 90
        1
176
     1
 40
1.0
176
     1
 90
        8
176
     1
 62
     7
176
     1
 40
1.0
176
     1
 90
        1
176
     1
 90
        6
176
     1
 90
        2
176
     1
 62
     7
176
     1
 90
        5
176
     1
 90
        0
176
     1
 90
        0
176
     1
290
     0
176
     1
 90
        1
176
     1
 40
-50.0
176
     1
 90
        0
176
     1
290
     0
176
     1
290
     1
176
     1
290
     1
176
     1
290
     0
176
     1
290
     0
176
     1
290
     0
176
     1
290
     0
176
     1
290
     0
176
     1
290
     0
176
     1
 90
       50
176
     1
 40
0.0
176
     1
 40
1.0
176
     1
 90
        0
176
     1
 62
    18
420
        0
176
     1
 90
       50
176
     1
 90
        3
176
     1
 62
     5
420
      255
176
     1
290
     0
176
     1
 90
       50
176
     1
 90
       50
176
     1
 90
       50
176
     1
290
     0
176
     1
 90
       50
176
     1
 62
   256
176
     0
 40
1.0
176
     0
 90
        2
176
     1
  1
strokes_ogs.tif
176
     1
290
     0
176
     1
 40
1.0
176
     1
 40
1.0
176
     1
1001
ACAD
1000
AcDbSavedByObjectVersion
1070
     0
  0
VISUALSTYLE
  5
41
102
{ACAD_REACTORS
330
29
102
}
330
29
100
AcDbVisualStyle
  2

 70
    22
177
     3
291
     1
 70
    58
 90
        2
176
     0
 90
        2
176
     0
 90
        0
176
     0
 90
        0
176
     0
 40
0.6
176
     0
 40
30.0
176
     0
 62
     7
176
     0
 90
        1
176
     0
 90
        4
176
     0
 62
     7
176
     0
 62
   257
176
     0
 90
        1
176
     0
 90
        1
176
     0
 40
1.0
176
     0
 90
        8
176
     2
 62
     7
176
     0
 40
1.0
176
     0
 90
        1
176
     0
 90
        6
176
     0
 90
        2
176
     0
 62
     7
176
     0
 90
        5
176
     0
 90
        0
176
     0
 90
        0
176
     0
290
     0
176
     0
 90
        1
176
     0
 40
0.0
176
     0
 90
        0
176
     0
290
     0
176
     0
290
     1
176
     0
290
     1
176
     0
290
     0
176
     0
290
     0
176
     0
290
     0
176
     0
290
     0
176
     0
290
     0
176
     0
290
     0
176
     0
 90
       50
176
     0
 40
0.0
176
     0
 40
1.0
176
     0
 90
        0
176
     0
 62
    18
420
        0
176
     0
 90
       50
176
     0
 90
        3
176
     0
 62
     5
420
      255
176
     0
290
     0
176
     0
 90
       50
176
     0
 90
       50
176
     0
 90
       50
176
     0
290
     0
176
     0
 90
       50
176
     0
 62
   256
176
     0
 40
1.0
176
     0
 90
        2
176
     0
  1
strokes_ogs.tif
176
     0
290
     0
176
     0
 40
1.0
176
     0
 40
1.0
176
     0
1001
ACAD
1000
AcDbSavedByObjectVersion
1070
     0
  0
VISUALSTYLE
  5
38
102
{ACAD_REACTORS
330
29
102
}
330
29
100
AcDbVisualStyle
  2

 70
    15
177
     3
291
     1
 70
    58
 90
        2
176
     1
 90
        2
176
     1
 90
        0
176
     1
 90
        0
176
     1
 40
0.6
176
     1
 40
30.0
176
     1
 62
     7
176
     1
 90
        1
176
     1
 90
        4
176
     1
 62
     7
176
     1
 62
   257
176
     1
 90
        1
176
     1
 90
        1
176
     1
 40
1.0
176
     1
 90
        8
176
     1
 62
     7
176
     1
 40
1.0
176
     1
 90
        1
176
     1
 90
        6
176
     1
 90
        2
176
     1
 62
     7
176
     1
 90
        5
176
     1
 90
        0
176
     1
 90
        0
176
     1
290
     0
176
     1
 90
        1
176
     1
 40
0.0
176
     1
 90
        0
176
     1
290
     0
176
     1
290
     1
176
     1
290
     1
176
     1
290
     0
176
     1
290
     0
176
     1
290
     0
176
     1
290
     0
176
     1
290
     0
176
     1
290
     0
176
     1
 90
       50
176
     1
 40
0.0
176
     1
 40
1.0
176
     1
 90
        0
176
     1
 62
    18
420
        0
176
     1
 90
       50
176
     1
 90
        3
176
     1
 62
     5
420
      255
176
     1
290
     0
176
     1
 90
       50
176
     1
 90
       50
176
     1
 90
       50
176
     1
290
     0
176
     1
 90
       50
176
     1
 62
   256
176
     0
 40
1.0
176
     0
 90
        2
176
     1
  1
strokes_ogs.tif
176
     1
290
     0
176
     1
 40
1.0
176
     1
 40
1.0
176
     1
1001
ACAD
1000
AcDbSavedByObjectVersion
1070
     0
  0
VISUALSTYLE
  5
2A
102
{ACAD_REACTORS
330
29
102
}
330
29
100
AcDbVisualStyle
  2

 70
     0
177
     3
291
     1
 70
    58
 90
        2
176
     1
 90
        1
176
     1
 90
        1
176
     1
 90
        2
176
     1
 40
0.6
176
     1
 40
30.0
176
     1
 62
     7
176
     1
 90
        0
176
     1
 90
        0
176
     1
 62
     7
176
     1
 62
   257
176
     1
 90
        1
176
     1
 90
        1
176
     1
 40
1.0
176
     1
 90
        8
176
     1
 62
     7
176
     1
 40
1.0
176
     1
 90
        1
176
     1
 90
        6
176
     1
 90
        2
176
     1
 62
     7
176
     1
 90
        5
176
     1
 90
        0
176
     1
 90
        0
176
     1
290
     0
176
     1
 90
       13
176
     1
 40
0.0
176
     1
 90
        0
176
     1
290
     0
176
     1
290
     1
176
     1
290
     1
176
     1
290
     0
176
     1
290
     0
176
     1
290
     0
176
     1
290
     0
176
     1
290
     0
176
     1
290
     0
176
     1
 90
       50
176
     1
 40
0.0
176
     1
 40
1.0
176
     1
 90
        0
176
     1
 62
    18
420
        0
176
     1
 90
       50
176
     1
 90
        3
176
     1
 62
     5
420
      255
176
     1
290
     0
176
     1
 90
       50
176
     1
 90
       50
176
     1
 90
       50
176
     1
290
     0
176
     1
 90
       50
176
     1
 62
   256
176
     0
 40
1.0
176
     0
 90
        2
176
     1
  1
strokes_ogs.tif
176
     1
290
     0
176
     1
 40
1.0
176
     1
 40
1.0
176
     1
1001
ACAD
1000
AcDbSavedByObjectVersion
1070
     0
  0
VISUALSTYLE
  5
2B
102
{ACAD_REACTORS
330
29
102
}
330
29
100
AcDbVisualStyle
  2

 70
     1
177
     3
291
     1
 70
    58
 90
        2
176
     1
 90
        1
176
     1
 90
        1
176
     1
 90
        2
176
     1
 40
0.6
176
     1
 40
30.0
176
     1
 62
     7
176
     1
 90
        1
176
     1
 90
        0
176
     1
 62
     7
176
     1
 62
   257
176
     1
 90
        1
176
     1
 90
        1
176
     1
 40
1.0
176
     1
 90
        0
176
     1
 62
   257
176
     1
 40
1.0
176
     1
 90
        1
176
     1
 90
        6
176
     1
 90
        2
176
     1
 62
     7
176
     1
 90
        5
176
     1
 90
        0
176
     1
 90
        0
176
     1
290
     0
176
     1
 90
       13
176
     1
 40
0.0
176
     1
 90
        0
176
     1
290
     0
176
     1
290
     1
176
     1
290
     1
176
     1
290
     0
176
     1
290
     0
176
     1
290
     0
176
     1
290
     0
176
     1
290
     0
176
     1
290
     0
176
     1
 90
       50
176
     1
 40
0.0
176
     1
 40
1.0
176
     1
 90
        0
176
     1
 62
    18
420
        0
176
     1
 90
       50
176
     1
 90
        3
176
     1
 62
     5
420
      255
176
     1
290
     0
176
     1
 90
       50
176
     1
 90
       50
176
     1
 90
       50
176
     1
290
     0
176
     1
 90
       50
176
     1
 62
   256
176
     0
 40
1.0
176
     0
 90
        2
176
     1
  1
strokes_ogs.tif
176
     1
290
     0
176
     1
 40
1.0
176
     1
 40
1.0
176
     1
1001
ACAD
1000
AcDbSavedByObjectVersion
1070
     0
  0
VISUALSTYLE
  5
2C
102
{ACAD_REACTORS
330
29
102
}
330
29
100
AcDbVisualStyle
  2

 70
     2
177
     3
291
     1
 70
    58
 90
        2
176
     1
 90
        2
176
     1
 90
        1
176
     1
 90
        2
176
     1
 40
0.6
176
     1
 40
30.0
176
     1
 62
     7
176
     1
 90
        0
176
     1
 90
        0
176
     1
 62
     7
176
     1
 62
   257
176
     1
 90
        1
176
     1
 90
        1
176
     1
 40
1.0
176
     1
 90
        0
176
     1
 62
     7
176
     1
 40
1.0
176
     1
 90
        1
176
     1
 90
        6
176
     1
 90
        2
176
     1
 62
     7
176
     1
 90
        5
176
     1
 90
        0
176
     1
 90
        0
176
     1
290
     0
176
     1
 90
       13
176
     1
 40
0.0
176
     1
 90
        0
176
     1
290
     0
176
     1
290
     1
176
     1
290
     1
176
     1
290
     0
176
     1
290
     0
176
     1
290
     0
176
     1
290
     0
176
     1
290
     0
176
     1
290
     0
176
     1
 90
       50
176
     1
 40
0.0
176
     1
 40
1.0
176
     1
 90
        0
176
     1
 62
    18
420
        0
176
     1
 90
       50
176
     1
 90
        3
176
     1
 62
     5
420
      255
176
     1
290
     0
176
     1
 90
       50
176
     1
 90
       50
176
     1
 90
       50
176
     1
290
     0
176
     1
 90
       50
176
     1
 62
   256
176
     0
 40
1.0
176
     0
 90
        2
176
     1
  1
strokes_ogs.tif
176
     1
290
     0
176
     1
 40
1.0
176
     1
 40
1.0
176
     1
1001
ACAD
1000
AcDbSavedByObjectVersion
1070
     0
  0
VISUALSTYLE
  5
2D
102
{ACAD_REACTORS
330
29
102
}
330
29
100
AcDbVisualStyle
  2

 70
     3
177
     3
291
     1
 70
    58
 90
        2
176
     1
 90
        2
176
     1
 90
        1
176
     1
 90
        2
176
     1
 40
0.6
176
     1
 40
30.0
176
     1
 62
     7
176
     1
 90
        1
176
     1
 90
        0
176
     1
 62
     7
176
     1
 62
   257
176
     1
 90
        1
176
     1
 90
        1
176
     1
 40
1.0
176
     1
 90
        0
176
     1
 62
   257
176
     1
 40
1.0
176
     1
 90
        1
176
     1
 90
        6
176
     1
 90
        2
176
     1
 62
     7
176
     1
 90
        5
176
     1
 90
        0
176
     1
 90
        0
176
     1
290
     0
176
     1
 90
       13
176
     1
 40
0.0
176
     1
 90
        0
176
     1
290
     0
176
     1
290
     1
176
     1
290
     1
176
     1
290
     0
176
     1
290
     0
176
     1
290
     0
176
     1
290
     0
176
     1
290
     0
176
     1
290
     0
176
     1
 90
       50
176
     1
 40
0.0
176
     1
 40
1.0
176
     1
 90
        0
176
     1
 62
    18
420
        0
176
     1
 90
       50
176
     1
 90
        3
176
     1
 62
     5
420
      255
176
     1
290
     0
176
     1
 90
       50
176
     1
 90
       50
176
     1
 90
       50
176
     1
290
     0
176
     1
 90
       50
176
     1
 62
   256
176
     0
 40
1.0
176
     0
 90
        2
176
     1
  1
strokes_ogs.tif
176
     1
290
     0
176
     1
 40
1.0
176
     1
 40
1.0
176
     1
1001
ACAD
1000
AcDbSavedByObjectVersion
1070
     0
  0
VISUALSTYLE
  5
31
102
{ACAD_REACTORS
330
29
102
}
330
29
100
AcDbVisualStyle
  2

 70
     6
177
     3
291
     0
 70
    58
 90
        1
176
     1
 90
        2
176
     1
 90
        2
176
     1
 90
        0
176
     1
 40
0.6
176
     1
 40
30.0
176
     1
 62
     7
176
     1
 90
        2
176
     1
 90
        2
176
     1
 62
     7
176
     1
 62
   257
176
     1
 90
        2
176
     1
 90
        1
176
     1
 40
40.0
176
     1
 90
        0
176
     1
 62
   257
176
     1
 40
1.0
176
     1
 90
        1
176
     1
 90
        6
176
     1
 90
        2
176
     1
 62
     7
176
     1
 90
        3
176
     1
 90
        0
176
     1
 90
        0
176
     1
290
     0
176
     1
 90
        1
176
     1
 40
0.0
176
     1
 90
        0
176
     1
290
     0
176
     1
290
     1
176
     1
290
     1
176
     1
290
     0
176
     1
290
     0
176
     1
290
     0
176
     1
290
     0
176
     1
290
     0
176
     1
290
     0
176
     1
 90
       50
176
     1
 40
0.0
176
     1
 40
1.0
176
     1
 90
        0
176
     1
 62
    18
420
        0
176
     1
 90
       50
176
     1
 90
        3
176
     1
 62
     5
420
      255
176
     1
290
     0
176
     1
 90
       50
176
     1
 90
       50
176
     1
 90
       50
176
     1
290
     0
176
     1
 90
       50
176
     1
 62
   256
176
     0
 40
1.0
176
     0
 90
        2
176
     1
  1
strokes_ogs.tif
176
     1
290
     0
176
     1
 40
1.0
176
     1
 40
1.0
176
     1
1001
ACAD
1000
AcDbSavedByObjectVersion
1070
     0
  0
VISUALSTYLE
  5
3F
102
{ACAD_REACTORS
330
29
102
}
330
29
100
AcDbVisualStyle
  2

 70
    20
177
     3
291
     1
 70
    58
 90
        2
176
     0
 90
        2
176
     0
 90
        0
176
     0
 90
        0
176
     0
 40
0.6
176
     0
 40
30.0
176
     0
 62
     7
176
     0
 90
        1
176
     0
 90
        4
176
     0
 62
     7
176
     0
 62
   257
176
     0
 90
        1
176
     0
 90
        1
176
     0
 40
1.0
176
     0
 90
       10
176
     2
 62
     7
176
     0
 40
1.0
176
     0
 90
        1
176
     0
 90
        6
176
     0
 90
        2
176
     0
 62
     7
176
     0
 90
        5
176
     0
 90
        0
176
     0
 90
        0
176
     0
290
     0
176
     0
 90
        1
176
     0
 40
0.0
176
     0
 90
        0
176
     0
290
     0
176
     0
290
     1
176
     0
290
     1
176
     0
290
     0
176
     0
290
     0
176
     0
290
     0
176
     0
290
     0
176
     0
290
     0
176
     0
290
     0
176
     0
 90
       50
176
     0
 40
0.0
176
     0
 40
1.0
176
     0
 90
        0
176
     0
 62
    18
420
        0
176
     0
 90
       50
176
     0
 90
        3
176
     0
 62
     5
420
      255
176
     0
290
     0
176
     0
 90
       50
176
     0
 90
       50
176
     0
 90
       50
176
     0
290
     0
176
     0
 90
       50
176
     0
 62
   256
176
     0
 40
1.0
176
     0
 90
        2
176
     0
  1
strokes_ogs.tif
176
     0
290
     0
176
     0
 40
1.0
176
     0
 40
1.0
176
     0
1001
ACAD
1000
AcDbSavedByObjectVersion
1070
     0
  0
VISUALSTYLE
  5
37
102
{ACAD_REACTORS
330
29
102
}
330
29
100
AcDbVisualStyle
  2

 70
    14
177
     3
291
     1
 70
    58
 90
        2
176
     1
 90
        2
176
     1
 90
        0
176
     1
 90
        0
176
     1
 40
0.6
176
     1
 40
30.0
176
     1
 62
     7
176
     1
 90
        1
176
     1
 90
        4
176
     1
 62
     7
176
     1
 62
   257
176
     1
 90
        7
176
     1
 90
        7
176
     1
 40
1.0
176
     1
 90
        8
176
     1
 62
     7
176
     1
 40
1.0
176
     1
 90
        1
176
     1
 90
        6
176
     1
 90
        2
176
     1
 62
     7
176
     1
 90
        5
176
     1
 90
        0
176
     1
 90
        0
176
     1
290
     0
176
     1
 90
        1
176
     1
 40
0.0
176
     1
 90
        0
176
     1
290
     0
176
     1
290
     1
176
     1
290
     1
176
     1
290
     0
176
     1
290
     0
176
     1
290
     0
176
     1
290
     0
176
     1
290
     0
176
     1
290
     0
176
     1
 90
       50
176
     1
 40
0.0
176
     1
 40
1.0
176
     1
 90
        0
176
     1
 62
    18
420
        0
176
     1
 90
       50
176
     1
 90
        3
176
     1
 62
     5
420
      255
176
     1
290
     0
176
     1
 90
       50
176
     1
 90
       50
176
     1
 90
       50
176
     1
290
     0
176
     1
 90
       50
176
     1
 62
   256
176
     0
 40
1.0
176
     0
 90
        2
176
     1
  1
strokes_ogs.tif
176
     1
290
     0
176
     1
 40
1.0
176
     1
 40
1.0
176
     1
1001
ACAD
1000
AcDbSavedByObjectVersion
1070
     0
  0
VISUALSTYLE
  5
40
102
{ACAD_REACTORS
330
29
102
}
330
29
100
AcDbVisualStyle
  2

 70
    21
177
     3
291
     1
 70
    58
 90
        2
176
     0
 90
        2
176
     0
 90
        0
176
     0
 90
        0
176
     0
 40
0.6
176
     0
 40
30.0
176
     0
 62
     7
176
     0
 90
        1
176
     0
 90
        4
176
     0
 62
     7
176
     0
 62
   257
176
     0
 90
        1
176
     0
 90
        1
176
     0
 40
1.0
176
     0
 90
        9
176
     2
 62
     7
176
     0
 40
1.0
176
     0
 90
        1
176
     0
 90
        6
176
     0
 90
        2
176
     0
 62
     7
176
     0
 90
        5
176
     0
 90
        0
176
     0
 90
        0
176
     0
290
     0
176
     0
 90
        1
176
     0
 40
0.0
176
     0
 90
        0
176
     0
290
     0
176
     0
290
     1
176
     0
290
     1
176
     0
290
     0
176
     0
290
     0
176
     0
290
     0
176
     0
290
     0
176
     0
290
     0
176
     0
290
     0
176
     0
 90
       50
176
     0
 40
0.0
176
     0
 40
1.0
176
     0
 90
        0
176
     0
 62
    18
420
        0
176
     0
 90
       50
176
     0
 90
        3
176
     0
 62
     5
420
      255
176
     0
290
     0
176
     0
 90
       50
176
     0
 90
       50
176
     0
 90
       50
176
     0
290
     0
176
     0
 90
       50
176
     0
 62
   256
176
     0
 40
1.0
176
     0
 90
        2
176
     0
  1
strokes_ogs.tif
176
     0
290
     0
176
     0
 40
1.0
176
     0
 40
1.0
176
     0
1001
ACAD
1000
AcDbSavedByObjectVersion
1070
     0
  0
VISUALSTYLE
  5
33
102
{ACAD_REACTORS
330
29
102
}
330
29
100
AcDbVisualStyle
  2

 70
     8
177
     3
291
     0
 70
    58
 90
        2
176
     1
 90
        3
176
     1
 90
        0
176
     1
 90
        2
176
     1
 40
0.6
176
     1
 40
30.0
176
     1
 62
     7
176
     1
 90
        0
176
     1
 90
        0
176
     1
 62
     7
176
     1
 62
   257
176
     1
 90
        1
176
     1
 90
        1
176
     1
 40
1.0
176
     1
 90
        8
176
     1
 62
   257
176
     1
 40
1.0
176
     1
 90
        1
176
     1
 90
        6
176
     1
 90
        2
176
     1
 62
     7
176
     1
 90
        3
176
     1
 90
        0
176
     1
 90
        0
176
     1
290
     0
176
     1
 90
       13
176
     1
 40
0.0
176
     1
 90
        0
176
     1
290
     0
176
     1
290
     1
176
     1
290
     1
176
     1
290
     0
176
     1
290
     0
176
     1
290
     0
176
     1
290
     0
176
     1
290
     0
176
     1
290
     0
176
     1
 90
       50
176
     1
 40
0.0
176
     1
 40
1.0
176
     1
 90
        0
176
     1
 62
    18
420
        0
176
     1
 90
       50
176
     1
 90
        3
176
     1
 62
     5
420
      255
176
     1
290
     0
176
     1
 90
       50
176
     1
 90
       50
176
     1
 90
       50
176
     1
290
     0
176
     1
 90
       50
176
     1
 62
   256
176
     0
 40
1.0
176
     0
 90
        2
176
     1
  1
strokes_ogs.tif
176
     1
290
     0
176
     1
 40
1.0
176
     1
 40
1.0
176
     1
1001
ACAD
1000
AcDbSavedByObjectVersion
1070
     0
  0
VISUALSTYLE
  5
3E
102
{ACAD_REACTORS
330
29
102
}
330
29
100
AcDbVisualStyle
  2

 70
    27
177
     3
291
     0
 70
    58
 90
        2
176
     1
 90
        2
176
     1
 90
        1
176
     1
 90
        2
176
     1
 40
0.6
176
     1
 40
30.0
176
     1
 62
     7
176
     1
 90
        0
176
     1
 90
        4
176
     1
 62
     7
176
     1
 62
   257
176
     1
 90
        1
176
     1
 90
        1
176
     1
 40
1.0
176
     1
 90
        8
176
     1
 62
   257
176
     1
 40
1.0
176
     1
 90
        1
176
     1
 90
        6
176
     1
 90
        2
176
     1
 62
     8
176
     1
 90
        3
176
     1
 90
        0
176
     1
 90
        0
176
     1
290
     0
176
     1
 90
        5
176
     1
 40
0.0
176
     1
 90
        0
176
     1
290
     0
176
     1
290
     1
176
     1
290
     1
176
     1
290
     0
176
     1
290
     0
176
     1
290
     0
176
     1
290
     0
176
     1
290
     0
176
     1
290
     0
176
     1
 90
       50
176
     1
 40
0.0
176
     1
 40
1.0
176
     1
 90
        0
176
     1
 62
    18
420
        0
176
     1
 90
       50
176
     1
 90
        3
176
     1
 62
     5
420
      255
176
     1
290
     0
176
     1
 90
       50
176
     1
 90
       50
176
     1
 90
       50
176
     1
290
     0
176
     1
 90
       50
176
     1
 62
   256
176
     0
 40
1.0
176
     0
 90
        2
176
     1
  1
strokes_ogs.tif
176
     1
290
     0
176
     1
 40
1.0
176
     1
 40
1.0
176
     1
1001
ACAD
1000
AcDbSavedByObjectVersion
1070
     0
  0
VISUALSTYLE
  5
3D
102
{ACAD_REACTORS
330
29
102
}
330
29
100
AcDbVisualStyle
  2

 70
    26
177
     3
291
     0
 70
    58
 90
        2
176
     1
 90
        2
176
     1
 90
        1
176
     1
 90
        2
176
     1
 40
0.6
176
     1
 40
30.0
176
     1
 62
     7
176
     1
 90
        1
176
     1
 90
       10
176
     1
 62
     7
176
     1
 62
   257
176
     1
 90
        2
176
     1
 90
        1
176
     1
 40
1.0
176
     1
 90
        8
176
     1
 62
   257
176
     1
 40
1.0
176
     1
 90
        1
176
     1
 90
        6
176
     1
 90
        2
176
     1
 62
     7
176
     1
 90
        3
176
     1
 90
        0
176
     1
 90
        0
176
     1
290
     0
176
     1
 90
        5
176
     1
 40
0.0
176
     1
 90
        0
176
     1
290
     0
176
     1
290
     1
176
     1
290
     1
176
     1
290
     0
176
     1
290
     0
176
     1
290
     0
176
     1
290
     0
176
     1
290
     0
176
     1
290
     0
176
     1
 90
       50
176
     1
 40
0.0
176
     1
 40
1.0
176
     1
 90
        0
176
     1
 62
    18
420
        0
176
     1
 90
       50
176
     1
 90
        3
176
     1
 62
     5
420
      255
176
     1
290
     0
176
     1
 90
       50
176
     1
 90
       50
176
     1
 90
       50
176
     1
290
     0
176
     1
 90
       50
176
     1
 62
   256
176
     0
 40
1.0
176
     0
 90
        2
176
     1
  1
strokes_ogs.tif
176
     1
290
     0
176
     1
 40
1.0
176
     1
 40
1.0
176
     1
1001
ACAD
1000
AcDbSavedByObjectVersion
1070
     0
  0
VISUALSTYLE
  5
3A
102
{ACAD_REACTORS
330
29
102
}
330
29
100
AcDbVisualStyle
  2

 70
    23
177
     3
291
     0
 70
    58
 90
        2
176
     1
 90
        2
176
     1
 90
        3
176
     1
 90
        0
176
     1
 40
0.6
176
     1
 40
30.0
176
     1
 62
     7
176
     1
 90
        2
176
     1
 90
        2
176
     1
 62
     7
176
     1
 62
     7
176
     1
 90
        1
176
     1
 90
        1
176
     1
 40
40.0
176
     1
 90
        8
176
     1
 62
     7
176
     1
 40
1.0
176
     1
 90
        1
176
     1
 90
        6
176
     1
 90
        2
176
     1
 62
     7
176
     1
 90
        3
176
     1
 90
        0
176
     1
 90
        0
176
     1
290
     0
176
     1
 90
        1
176
     1
 40
0.0
176
     1
 90
        0
176
     1
290
     0
176
     1
290
     1
176
     1
290
     1
176
     1
290
     0
176
     1
290
     0
176
     1
290
     0
176
     1
290
     0
176
     1
290
     0
176
     1
290
     0
176
     1
 90
       50
176
     1
 40
0.0
176
     1
 40
1.0
176
     1
 90
        0
176
     1
 62
    18
420
        0
176
     1
 90
       50
176
     1
 90
        3
176
     1
 62
     5
420
      255
176
     1
290
     0
176
     1
 90
       50
176
     1
 90
       50
176
     1
 90
       50
176
     1
290
     0
176
     1
 90
       50
176
     1
 62
   256
176
     0
 40
1.0
176
     0
 90
        2
176
     1
  1
strokes_ogs.tif
176
     1
290
     0
176
     1
 40
1.0
176
     1
 40
1.0
176
     1
1001
ACAD
1000
AcDbSavedByObjectVersion
1070
     0
  0
VISUALSTYLE
  5
3B
102
{ACAD_REACTORS
330
29
102
}
330
29
100
AcDbVisualStyle
  2

 70
    24
177
     3
291
     0
 70
    58
 90
        1
176
     1
 90
        2
176
     1
 90
        2
176
     1
 90
        0
176
     1
 40
0.6
176
     1
 40
30.0
176
     1
 62
     7
176
     1
 90
        2
176
     1
 90
        2
176
     1
 62
     7
176
     1
 62
     7
176
     1
 90
        1
176
     1
 90
        1
176
     1
 40
40.0
176
     1
 90
       11
176
     1
 62
     7
176
     1
 40
1.0
176
     1
 90
        1
176
     1
 90
        6
176
     1
 90
        2
176
     1
 62
     7
176
     1
 90
        6
176
     1
 90
        0
176
     1
 90
        0
176
     1
290
     0
176
     1
 90
        1
176
     1
 40
0.0
176
     1
 90
        0
176
     1
290
     0
176
     1
290
     1
176
     1
290
     1
176
     1
290
     0
176
     1
290
     0
176
     1
290
     0
176
     1
290
     0
176
     1
290
     0
176
     1
290
     0
176
     1
 90
       50
176
     1
 40
0.0
176
     1
 40
1.0
176
     1
 90
        0
176
     1
 62
    18
420
        0
176
     1
 90
       50
176
     1
 90
        3
176
     1
 62
     5
420
      255
176
     1
290
     0
176
     1
 90
       50
176
     1
 90
       50
176
     1
 90
       50
176
     1
290
     0
176
     1
 90
       50
176
     1
 62
   256
176
     0
 40
1.0
176
     0
 90
        2
176
     1
  1
strokes_ogs.tif
176
     1
290
     0
176
     1
 40
1.0
176
     1
 40
1.0
176
     1
1001
ACAD
1000
AcDbSavedByObjectVersion
1070
     0
  0
VISUALSTYLE
  5
36
102
{ACAD_REACTORS
330
29
102
}
330
29
100
AcDbVisualStyle
  2

 70
    13
177
     3
291
     1
 70
    58
 90
        2
176
     1
 90
        2
176
     1
 90
        0
176
     1
 90
        0
176
     1
 40
0.6
176
     1
 40
30.0
176
     1
 62
     7
176
     1
 90
        1
176
     1
 90
        4
176
     1
 62
     7
176
     1
 62
   257
176
     1
 90
        1
176
     1
 90
        1
176
     1
 40
1.0
176
     1
 90
       12
176
     1
 62
     7
176
     1
 40
1.0
176
     1
 90
        1
176
     1
 90
        6
176
     1
 90
        2
176
     1
 62
     7
176
     1
 90
        5
176
     1
 90
        0
176
     1
 90
        0
176
     1
290
     0
176
     1
 90
        1
176
     1
 40
0.0
176
     1
 90
        0
176
     1
290
     0
176
     1
290
     1
176
     1
290
     1
176
     1
290
     0
176
     1
290
     0
176
     1
290
     0
176
     1
290
     0
176
     1
290
     0
176
     1
290
     0
176
     1
 90
       50
176
     1
 40
0.0
176
     1
 40
1.0
176
     1
 90
        0
176
     1
 62
    18
420
        0
176
     1
 90
       50
176
     1
 90
        3
176
     1
 62
     5
420
      255
176
     1
290
     0
176
     1
 90
       50
176
     1
 90
       50
176
     1
 90
       50
176
     1
290
     0
176
     1
 90
       50
176
     1
 62
   256
176
     0
 40
1.0
176
     0
 90
        2
176
     1
  1
strokes_ogs.tif
176
     1
290
     0
176
     1
 40
1.0
176
     1
 40
1.0
176
     1
1001
ACAD
1000
AcDbSavedByObjectVersion
1070
     0
  0
VISUALSTYLE
  5
30
102
{ACAD_REACTORS
330
29
102
}
330
29
100
AcDbVisualStyle
  2

 70
     5
177
     3
291
     0
 70
    58
 90
        0
176
     1
 90
        2
176
     1
 90
        0
176
     1
 90
        0
176
     1
 40
0.6
176
     1
 40
30.0
176
     1
 62
     7
176
     1
 90
        1
176
     1
 90
        4
176
     1
 62
     7
176
     1
 62
   257
176
     1
 90
        1
176
     1
 90
        1
176
     1
 40
1.0
176
     1
 90
        0
176
     1
 62
   257
176
     1
 40
1.0
176
     1
 90
        1
176
     1
 90
        6
176
     1
 90
        2
176
     1
 62
     7
176
     1
 90
        3
176
     1
 90
        0
176
     1
 90
        0
176
     1
290
     0
176
     1
 90
        1
176
     1
 40
0.0
176
     1
 90
        0
176
     1
290
     0
176
     1
290
     1
176
     1
290
     1
176
     1
290
     0
176
     1
290
     0
176
     1
290
     0
176
     1
290
     0
176
     1
290
     0
176
     1
290
     0
176
     1
 90
       50
176
     1
 40
0.0
176
     1
 40
1.0
176
     1
 90
        0
176
     1
 62
    18
420
        0
176
     1
 90
       50
176
     1
 90
        3
176
     1
 62
     5
420
      255
176
     1
290
     0
176
     1
 90
       50
176
     1
 90
       50
176
     1
 90
       50
176
     1
290
     0
176
     1
 90
       50
176
     1
 62
   256
176
     0
 40
1.0
176
     0
 90
        2
176
     1
  1
strokes_ogs.tif
176
     1
290
     0
176
     1
 40
1.0
176
     1
 40
1.0
176
     1
1001
ACAD
1000
AcDbSavedByObjectVersion
1070
     0
  0
VISUALSTYLE
  5
3C
102
{ACAD_REACTORS
330
29
102
}
330
29
100
AcDbVisualStyle
  2

 70
    25
177
     3
291
     0
 70
    58
 90
        2
176
     1
 90
        2
176
     1
 90
        1
176
     1
 90
        1
176
     1
 40
0.5
176
     1
 40
30.0
176
     1
 62
     7
176
     1
 90
        1
176
     1
 90
        0
176
     1
 62
     7
176
     1
 62
   257
176
     1
 90
        1
176
     1
 90
        1
176
     1
 40
1.0
176
     1
 90
        8
176
     1
 62
     7
176
     1
 40
1.0
176
     1
 90
        1
176
     1
 90
        6
176
     1
 90
        2
176
     1
 62
     7
176
     1
 90
        3
176
     1
 90
        0
176
     1
 90
        0
176
     1
290
     0
176
     1
 90
       13
176
     1
 40
0.0
176
     1
 90
        0
176
     1
290
     0
176
     1
290
     1
176
     1
290
     1
176
     1
290
     0
176
     1
290
     0
176
     1
290
     0
176
     1
290
     0
176
     1
290
     0
176
     1
290
     0
176
     1
 90
       50
176
     1
 40
0.0
176
     1
 40
1.0
176
     1
 90
        0
176
     1
 62
    18
420
        0
176
     1
 90
       50
176
     1
 90
        3
176
     1
 62
     5
420
      255
176
     1
290
     0
176
     1
 90
       50
176
     1
 90
       50
176
     1
 90
       50
176
     1
290
     0
176
     1
 90
       50
176
     1
 62
   256
176
     0
 40
1.0
176
     0
 90
        2
176
     1
  1
strokes_ogs.tif
176
     1
290
     0
176
     1
 40
1.0
176
     1
 40
1.0
176
     1
1001
ACAD
1000
AcDbSavedByObjectVersion
1070
     0
  0
DICTIONARYVAR
  5
D2C
102
{ACAD_REACTORS
330
D27
102
}
330
D27
100
DictionaryVariables
280
     0
  1
1:1
  0
DICTIONARYVAR
  5
D29
102
{ACAD_REACTORS
330
D27
102
}
330
D27
100
DictionaryVariables
280
     0
  1
STANDARD
  0
DICTIONARYVAR
  5
D28
102
{ACAD_REACTORS
330
D27
102
}
330
D27
100
DictionaryVariables
280
     0
  1
STANDARD
  0
DICTIONARYVAR
  5
D2A
102
{ACAD_REACTORS
330
D27
102
}
330
D27
100
DictionaryVariables
280
     0
  1
Metric50
  0
DICTIONARYVAR
  5
D2B
102
{ACAD_REACTORS
330
D27
102
}
330
D27
100
DictionaryVariables
280
     0
  1
Metric50
  0
DICTIONARYVAR
  5
EF5
102
{ACAD_REACTORS
330
D27
102
}
330
D27
100
DictionaryVariables
280
     0
  1
1
  0
DICTIONARYVAR
  5
EF4
102
{ACAD_REACTORS
330
D27
102
}
330
D27
100
DictionaryVariables
280
     0
  1
1
  0
DICTIONARYVAR
  5
EF3
102
{ACAD_REACTORS
330
D27
102
}
330
D27
100
DictionaryVariables
280
     0
  1
0
  0
DICTIONARYVAR
  5
EF0
102
{ACAD_REACTORS
330
D27
102
}
330
D27
100
DictionaryVariables
280
     0
  1
0
  0
DICTIONARYVAR
  5
EF1
102
{ACAD_REACTORS
330
D27
102
}
330
D27
100
DictionaryVariables
280
     0
  1
0
  0
DICTIONARYVAR
  5
EEF
102
{ACAD_REACTORS
330
D27
102
}
330
D27
100
DictionaryVariables
280
     0
  1
2
  0
DICTIONARYVAR
  5
EEE
102
{ACAD_REACTORS
330
D27
102
}
330
D27
100
DictionaryVariables
280
     0
  1
1
  0
DICTIONARYVAR
  5
EF2
102
{ACAD_REACTORS
330
D27
102
}
330
D27
100
DictionaryVariables
280
     0
  1
127
  0
DICTIONARY
  5
E37
102
{ACAD_REACTORS
330
E30
102
}
330
E30
100
AcDbDictionary
281
     1
  0
DICTIONARY
  5
101A
330
6B
100
AcDbDictionary
280
     1
281
     1
  3
ACAD_XREC_ROUNDTRIP
360
101B
  0
DICTIONARY
  5
1066
330
D2F
100
AcDbDictionary
280
     1
281
     1
  3
ACAD_XREC_ROUNDTRIP
360
1067
  0
DICTIONARY
  5
1A
330
19
100
AcDbDictionary
280
     1
281
     1
  3
ACAD_XREC_ROUNDTRIP
360
F4C
  3
BUMPTILE
360
1C
  3
DIFFUSETILE
360
1B
  3
OPACITYTILE
360
1F
  3
REFLECTIONTILE
360
1E
  3
REFRACTIONTILE
360
20
  3
SPECULARTILE
360
1D
  0
DICTIONARY
  5
12
330
11
100
AcDbDictionary
280
     1
281
     1
  3
ACAD_XREC_ROUNDTRIP
360
F4B
  3
BUMPTILE
360
14
  3
DIFFUSETILE
360
13
  3
FBXASSET
360
101
  3
OPACITYTILE
360
17
  3
REFLECTIONTILE
360
16
  3
REFRACTIONTILE
360
18
  3
SPECULARTILE
360
15
  0
DICTIONARY
  5
22
330
21
100
AcDbDictionary
280
     1
281
     1
  3
ACAD_XREC_ROUNDTRIP
360
F4D
  3
BUMPTILE
360
24
  3
DIFFUSETILE
360
23
  3
OPACITYTILE
360
27
  3
REFLECTIONTILE
360
26
  3
REFRACTIONTILE
360
28
  3
SPECULARTILE
360
25
  0
DICTIONARY
  5
1018
330
69
100
AcDbDictionary
280
     1
281
     1
  3
ACAD_XREC_ROUNDTRIP
360
1019
  0
DICTIONARY
  5
1064
330
D2E
100
AcDbDictionary
280
     1
281
     1
  3
ACAD_XREC_ROUNDTRIP
360
1065
  0
DICTIONARY
  5
EF7
330
65
100
AcDbDictionary
280
     1
281
     1
  3
ACAD_ROUNDTRIP_2008_TABLESTYLE_CELLSTYLEMAP
360
1017
  0
XRECORD
  5
101B
102
{ACAD_REACTORS
330
101A
102
}
330
101A
100
AcDbXrecord
280
     1
102
DISPLAYNAME
  1
Imperial24
102
FLAGS
 90
        0
  0
XRECORD
  5
1067
102
{ACAD_REACTORS
330
1066
102
}
330
1066
100
AcDbXrecord
280
     1
102
DISPLAYNAME
  1
Metric50
102
FLAGS
 90
        0
  0
XRECORD
  5
F4C
102
{ACAD_REACTORS
330
1A
102
}
330
1A
100
AcDbXrecord
280
     1
102
MATERIAL
148
0.0
149
0.0
149
0.0
 93
        0
 94
      127
282
     0
 72
     0
 77
     0
171
     0
175
     0
179
     0
273
     0
  0
XRECORD
  5
1C
102
{ACAD_REACTORS
330
1A
102
}
330
1A
100
AcDbXrecord
280
     1
270
     1
271
     1
  0
XRECORD
  5
1B
102
{ACAD_REACTORS
330
1A
102
}
330
1A
100
AcDbXrecord
280
     1
270
     1
271
     1
  0
XRECORD
  5
1F
102
{ACAD_REACTORS
330
1A
102
}
330
1A
100
AcDbXrecord
280
     1
270
     1
271
     1
  0
XRECORD
  5
1E
102
{ACAD_REACTORS
330
1A
102
}
330
1A
100
AcDbXrecord
280
     1
270
     1
271
     1
  0
XRECORD
  5
20
102
{ACAD_REACTORS
330
1A
102
}
330
1A
100
AcDbXrecord
280
     1
270
     1
271
     1
  0
XRECORD
  5
1D
102
{ACAD_REACTORS
330
1A
102
}
330
1A
100
AcDbXrecord
280
     1
270
     1
271
     1
  0
XRECORD
  5
F4B
102
{ACAD_REACTORS
330
12
102
}
330
12
100
AcDbXrecord
280
     1
102
MATERIAL
148
0.0
149
0.0
149
0.0
 93
        0
 94
      127
282
     0
 72
     0
 77
     0
171
     0
175
     0
179
     0
273
     0
  0
XRECORD
  5
14
102
{ACAD_REACTORS
330
12
102
}
330
12
100
AcDbXrecord
280
     1
270
     1
271
     1
  0
XRECORD
  5
13
102
{ACAD_REACTORS
330
12
102
}
330
12
100
AcDbXrecord
280
     1
270
     1
271
     1
  0
XRECORD
  5
101
102
{ACAD_REACTORS
330
12
102
}
330
12
100
AcDbXrecord
280
     1
 70
     1
 90
1959938040
 71
     1
  1
277A226E-5B2F-4B40-931A-79D01727922B
311
504B030414000608080001586E488B307015DA000000200100004F00000044353246384237362D434645452D344345442D413341322D4233424630414136394443392F4173736574446174612F446566696E6974696F6E4974657261746F7250726F706572746965732E62696E454E3D4FC33010352C8881817FC01F304E2F
311
698C1108D971D20516D8589009471BC949ABD8117463E45FC3590DE2A477F7EEFB7D33C67E6623CA8E085FE4CF28AE70C0B16B9FDA0DF68E9D50C5ECEFDD1EC744E7E631D1945A7C77938F69EDA10B2D7AEF06DC4EE1FC7FF4A27791EE397F99964E097F85902EAC0FDF92808F83A64FA2CCBDEDAEEF5C08186F855D427365
311
64C9ABA6AE7951D596EB5C0337B96932AD4B652B251E316CA7B1C520404A0D50D67C69A0E1852932AEF285E652D96C21412A0023E266EA5F07D779918959C2CB6E58C3F38D885D8FBF504B030414000608080001586E48BCE219C334010000300200004500000044353246384237362D434645452D344345442D413341322D
311
4233424630414136394443392F4173736574446174612F496E7374616E636550726F706572746965732E62696E75504B4EC330101D3E121B403D425475010B2B89F3B12C95A6713F1CA05B24E426561A294D505281D875C98EF3B0E50C1C802374C31AC6246DA1D091DECC9BE737B6354F00F0D9045238402C319F61BD56B9
311
2AD36812CDD45C7650A08C8594FA23E2093A26AE702DC21D3B248C0F2D9B51C6291527DB413DE2D8EE70443D4E3CD77588EB539B88B118129B39D6C01F0C7838E2FA4DB8BC797EFDB8780B9A7A88D212B1EE03E418ABE0FB87C85A7D6869A58E4E7FCDF6541CAC6343F618F5133F9C47C89775FFDE1C9CD6ED4ED63BDC9E6C
311
2ED97101C42FFD3FDA2FE1FF517DBDDEA78E55708C596FED1C3179908B68464429F358C5FABF1252C8C0040B9180821C51A216C12DDC6197A0C7C8E55C5DB533592D8C4ADEABB8DDEB9AD5A24CF3A4D79D1645D6184A2563A3C8B3C776CFEA9AD3E20B504B030414000608080001586E4888E57597CD3F0000904100006B00
311
000044353246384237362D434645452D344345442D413341322D4233424630414136394443392F5265736F75726365732F32373741323236452D354232462D344234302D393331412D3739443031373237393232422F7468756D626E61696C2F302F67656E657269635F706E67355B773CD4FF1FBF73E71C0E67EF7576C9DE
311
F3EC995D46C6A1EC5046649CBDF79E192942562825CE965D8A868C2842C8DE9FDFD1F7E7F138F7078FCF6B3F5FCFD7EBFDFEC41B196891913091804020321D6D7513FC77D8C5070EC3FFEE51B21F068154CC75D455CC028A3EA68992803810109FDDE5D5CEC5521B28A1B422BF80741695D5B529DA1C2D058AD2388BDA9F47
311
6F7C2CADC939304173DBF48A452BF8A700C0C70C3D121C1AA15A5270C22E2B9E28763651F7DA0D12CE11077B2ECD0D560B5E3DE2368B1E65C5E1C87384A4CC5F2D9FB8BE39E9B77C753783A37998F5CEF1B4FEE553463245C9712270880DF339E0B882A6BA713D865F6F384C842D440934EF264F4A304F8DE4EEFA1E2BF5E2
311
D91F5ADD9613D6E31DDB33ED31DB1D7916CAF091286EA3D31B9CFECB78BB0060245B943C4C040119FF780A74DD308BA9D028678674EB5504ECF284EE814DAED07440BAF649BE4B55DA2890F4D73E2D489A59EE54FDB0A85B59F2F52C4858A02705C4815A792B0C4A996A2023ECB195073E115E3E3647F64243A8338F2000BC
311
B58DA5692C7E7C3D413F963FEDF3CF00FBB0F831A9D51360FECA43819F527B89FA260EB63C5DA676830AA3626A3693B23F1A17A0DFFCE3EE164E31B5365EDF0C89EF64D8E38AB0BA9A1117D7C3A0EC44F44F4023095E80BA610DE336D0F99593A88BFC5306E72DF98F7FD132ED95878DF2964EA7E43071359FD83B2BDF9C6B
311
5BDF768F0F3C0FC351199526F53D9460A34511F75D1B63E488178569472C91A94497807A3FD4A390C6558F26D416365C3656DE6E769DA9D8FC73774E1709812842DD8EF96AED1960F79D21B395CDDFE6F92CB4EB962A4668C76990E2EF29798C8941D67DA50F4A5F947872460F1F6FDB794E8A29FD7AC0C0D6E0714339CE25
311
8FB17AE8535221E3464A10F29A0BE5EEECEFC5675926A89F49EB14E5711894F6586DB5754EB4D5DA9C6437EBA57DB97A24F8B8A8DB295FFD73266CF57E82694DF5166DDF93573AFE9C9C5EB05F8FEF8E89E0A8917B0B3724DB7BEBB53252581EFC3E38166BA131A3A5B42FE2AD00A769BBFA4458D2DE7822F8C4F63D0B8E21
311
B285AE13325F3410A435C648C9D91FDEB109E73CEDA7BC796961AF79175E1A3CE4C5E8B0D009B0C9E29EFD98BC8E97554E3D8D838424E270F7685226E5AC268E021EDE3522D583E8F20C0BDE2959EF5BBFEEDAB32FE9A3ED0E39F211A86AA9DEBFC68182EDED132AB8BB794442D2D7EA9F4D8BFF52BC4D55BB165124EE90A4
311
2D101E67BBBB292FFB4F66DE5BF2300E44546757DA7CEF8932BFC9F92A0707953491A55C5A5ACEDABD9FA1AEA01BAC3DC5A24E22E7C47213493996EFBC369D086ED9397C9BA6C7F9855C7BD5E15BFC8C53DB3D2A4C5901A57ACD2FBDF4D1676E95338B2C2BCE65FDA4C64F5FEFDC7D9CA5AA1FCF11E193F2FDABF0F4916BF1
311
3FB916A224380E6462A9815F2300DC49CC4DF8D055CEF76462F4B7A7ACA7365C2707891370BC1D0AA6203C44CCAB47084FEC057F27FFCD57F89B8B9852459798A675C66BD7CE572CAF71FF7E6D7ECF7BF62CAB7B3F1107DCD04DC55A3F9961700286141C94A4F771FEB2BCDA2DDEE0CB0BAE402FF1DB0100F8E475DFFFC074
311
DDB4498AB7D186A7654DDB1CB680D703D47CEB4E72F8CB13D86A4AA68116E26387B93FD6738779B34FEDB8E517EDF2BAF28D9BE93A1D3A164320E07D42E514725C29515FF361754213EDE06B079A2E99EB1CA82A02019EADEEB87B9AF005BD04BBCECB14AACD6B24EFBE482194A97DD32400685FF1FEF1544D1B14EFB1E7F0
311
8E6D2CD2AF52DE757F35F5E62332EE88EA26417AD5C3E0E319D68F25414E6D672BD4522B278C57D18F0113921C71D96527E091F00CEB15AE23D24667369BD3CEFA10C7549D930890BA4366F4EBC55F01F746109F98ABCDD5A3EE06619C6AD78AB33E48E4C9BD21BF7478B385EC05C4F8987E2C1BFA0A60EBEDAA0AE0B015C2
311
720ECE180FB6F2DEFBEB822D96338C9B63822183BBF52FB664A7AE57003AABCE512BF77E7E31BDA2E739AC4C131657DDFE5225E900FB56CC01CDE808FA4A9C9DA16AC679656BB64796283D89812B8F91136AE18EE5EBBAF47A73BE3C153EB5D4CD491B4BFB4FE690A4CF9ABA08C0D8AA64220C438C96EA6CA80B58FE5761E6
311
97B3A292EB9FBDA502FA863E49FE694ADDFFF9D62C520BDD1A22014147A0903A05B9B729F54272EF83931FEEC057BFF8C8055C279EAC5C0011804828734024F6CFA319C9CC6867C727184465CD9BB7ED386AFFD96B294A85E3802FAE47244602D8273615952B98C4F23F7EAE4463D9D638EEE374A20959E0FE519C4CFB0FBF
311
E5DD80C2AA3F9DB961D1BDE57E67C9BB47B77FDD74EE3094F5DBBE3EBC1FBDB7393F5116263009E2EFE1AF9A221B2AE234C902BF70E9F280ED23E73908361565964333A3F01D0B006AF32FB21AA1316744B489D5A198E85299241735BE559675130955C902A8ED761FC0DBE337A9F91919AF5CE32AF902ADF9AB2615E00E8A
311
94586BA1A90839B61832FF1BFB76D2EFADE6DB1BA04CCAD3DA649E7E2A0219F592E22F2AD54847EEA8E42271011E9074F8F3DD9FBA6CDF88FFC9FC7E811AD1CA8F4557CE4AFC7BBEDCF0114A48689F20A584520C74DA8127124B767E2FB91A6B186246727BE63C9445BAE02088D58B8EFDC0F1072407CD9B89A13F6303B4A9
311
28F593AD489B58E6869325790ADC406036C591729FE14021F94B7796BB11848D463536A092A26F077F94639F7CEEE2A724C66EC885F4A24F8B8A0AC321F8FD149BA529460FAA34E4663C02D41FDF80BCA222D42F0ABFF8490F4FA74C673807C2051D8E467B47B616072860069A9A303ABA9B319D58404461401B0A0F9BE5E1
311
E151C14BC33B32ABE03DDE91708DFAEB15E7C0D593C86BB7D7EC17BE56E57975F077BFD5525F3A1A361D584A75E08CF29FC7B44B2B3085014F3A5A14517377C3F6B8F37E59514C3B12F8AACDEDDA4DFC49BE5710101534CD6FB6DE15B50F11A09472AABA727F0C49D9CB906B158030065F48EB3625E010CEC1D511D0053474
311
B11E6A4F01C0D6EF1BED3A944FDEC70E0DDCDC756C86545910E0DAE3BE3AA9A404574C2995CD5CAF9549226BC94B4F4F0F5F9086F418F6B32346464610D8BC7391D3C3A3CCF04CFC1FB2A3A3170E369511868F14EEA4E5E438CC73DB1F3248AA94B6B2FF33B222FF3D1E7BF146CAD229770158063BCE4F5391964DF62F7E52
311
A7BE0EEA829C9E13C4C147D6F93FE59E111DAB5E4594D6F3CD1AD375EE039930EFE5AF2BB2D41C83C7DABD8C659BAFBE8FAB392CA634F3D15C1D945DB4588D2B0824A4EC928AAC565557CA2F0DAA588CA5BE30B3A8004F7BF005E96CBF891D7F18112A3619FDF530DC8AA64954258E1811789B5189B49B4EB53F5F89F7D375
311
23894F3EB57B373763C91E502F52CC99EB7BDDF933FC324C4FFC2561DFFA7339FAFDD0A4BFBE6D3A8FF9ED1FC49898139864602458968913181918F719CCF5A68B2EE9C1FF050E34E63107003B8120FA982C21B30A874E4F5E4B38D5A8290C4B8D9BE48A0BE31EA995BDC37AC6DE90BA17D259DEF53605D55922FEB1855D91
311
5B659FBEB350EE0DFB2F9F766E1C84CC8964B75D08667445EAB966015F63A18A9E0A325C1B3DC628C0D3CB60F767FA93CC65F25458BD23C3B312716E5F40E5858AC06EBA9AB14F95DB99147B832069201541D09A0D856E12C629CF32683760EE855537D1901988D5EBC156676C7DD51D7207CF3267AF1D76C2AD867315E446
311
18015313A98B19941C696FED3461CAA9B5415F918556D7802EDACEFD6B2E45853A9735DFC9DBF7E440F9319F8B6805A973BCCDC76C069A9144E51F187EDCC12FC31B5DEAAF0A76137199B106EC84ADA6B6EE697D4E6A96E007417F4E880E8B1E89B4BCE9D81EF611E2ED8F0C1A6C25F620FAFAAB656A7C42D464880E8AFAB0
311
E0FC8EA38CA9A8AEEAEE3E4648BA4680270A89743CDD3E6C6CBF34B7B640EFA285ABC7EA0A1E28F3CC963D114A80123EE66D0AF7D5380EB41909B605AB4765B709B808590458157E69BA1378FEC4B48CAF6A730E3BE3C5EF2DD1A5EAF94B1DDE50CEB55DDFD7EE9A16747FA4B223359FB1FCC69E1194892BABB93A1D5C4E80
311
7AC0EA2E30180811E77A2291F6E7F7FAA5E0F60215BC6024E48DE436C511F0628B8CA189982D4D83CCA17D305A7E923C37941CFDFDCD93ACAF735EF5F0E61BBD3E6C41A59B242790D3A3BAC7064DCD89AA2E37214EC839820949D5CAA31E240D2948E48F690298974A96BA9A8432BC90F5071D6537C9666EA4564796B7AFFF
311
A548077BEEA75F63083435074BA182F3699557397F71548383FDA8CA34D99B981E72835ECDA5DDDC151315173D05A21F651AAF8524E88209E2E7A737ED1045800CE3390050BCFB8BE588DF111617874C62575039CA588EEFDEFEFE319B739DE2EDC147092A262611E159650E787917885EF08F1F51B8F2D8A71D60B58B190F
311
EF9541A1BE94BC19FEA50784DA1419FE4B0FB51B8D36B5FF8E1286FD8AF42B91E59A5F1CC4D60174E764045FD8C57B18209B217F89A62252BD20BE0E63E12B8E8F029FE19E0E8D0870F58721A557082250D5424F7909369376E41666C0EE77CD87CB283F661D5FB6D0DA023CB67320A20DC7BE661E9E1BFE5463085C557DA1
311
FF9BE835733766C3D139F2CF9E2208873AD0EB4814DE9E6BF2CAF81614D4D43906ED1C05A3265CABBFE192770FC2F64F940CB6B17B5F166F133C9AEEAD2641807C3E69515171DD74C4A85311513D6EC9530B3B601B6BA3EBFF3B5C3D2F7D69765141E345F75433953D013ADDF8F6AA7DC3F4A7563FE5C7D367937E2900D7EA
311
D0F9FC9A4A1A9B5BDF1FEF08532660C01C5D6DE22199AA774383E306DAB87E301ABB7D213887F9869D4942D0D71E94B27EDF216A318BD488D45DF84529EF575AF3C3938C0AAA0215B01994153E2054A0B894DA5C784980633AAD48576957CF4AEAEAFADC7C587368551C73DBE1E57C58AC713303A8BFC258BD04B51724459F
311
F9E24C03A81E0E0679CEB9B348C0DC998FEB9C6D6EFA77D247CC8F92D3848599ED89A23218D0636465AD1CEEB7DC140D7426F83491C4E8E8281C2FB35240918FFECE880CA2A42D70E8B20B34DF5221C7DB0CF90ECCB9C745B37A47E9B716FF7A97B7A252C1F3814DC7B1E1A7F72B8751D524EF7CAE45B0C73B3BE7D08ED397
311
81B380DDFC9AA4A4749C9493DB5BAD07A6EA6C092FBD0E85DB004DF06B8C9D3089C5320187E4CE1846158C7EA7DDAE8AD9AFFF21AA3A1026BB06A259845E8232DEE62811A4DA9CEAB3A4887320B76E2AE5615EAB7BDF738CBDD01F1E64064BC13D9EC53576751CA8CACD58B3CEB0E6CA585BD089B2A59B9FC101403387AADB
311
DBE70586B93D64BF3AD4453EF9C3B6A93817E8346991798601344F79A83C51F3D50F7BF2683A3605F51A72449489E0EE6169C749C60B1035651103AEE24D24E51A759C840DD3FC6504DA6FE107510E447B43461C79D22970B75DE5E1BD3007D1AFC619A4A4A69B5626AF5E9B8374E20677F77E2F8E73DF868E8BEC7EBA7B6A
311
75EEF7205E1AB9486CB642741D6E03FF13FCCEDB1C4AC129886268B01CDF4B124AF797CF784F3C6DEC97A17D4B558070A0F1C04DA4FF9BDBF34159AEFE958479824B3F58EBD1E19088A2AFDE501B6F2052368A3FD0E650A179EFAB1561E1D27527077136E652676C3670F42DCB3352F48F6BC86D2C3B0051727E41A0A4DC6C
311
E2BE9D47F5CAA2935A3C0539AF080665997194ABECD723B08129CC5B6B21D2E7D54CD4D12610E7E9FB8306771A89576C7A982002775ED44F3F744CF21EEBB27A631671D921938AAEE3EB0D19CD1E083727F607823E817BF599DCED5394E37EEBC2E88782E638920CA641EF74D4CDFCDEF06F4278ECB18E31E7E9876F2D783C
311
8BF429C75395F57E98C2B495A3DA077EB3AC3C158608B6B57FE3EA48484D9A480096FCEE0DE880950E7E5A5714131C5C41AAA29FD19AE81AC145FA1B9E85C7169A5AB837B213493DF7E9AA4B5FBF9CDEB36EBD21EF1181B7CF7366AB2A951D01E37AF4EB835D1BE8C117CFBE7625D2EBCDB0B20C5A4B45CED0BCDE3EE8DA9D
311
A78C2E21DEAAFFD1197E463C33CC6A80FB785669B856EFF7A8CCCA2841B5A5369173320B1170C368B2748D81062EA0296E5E2D95D7667A4A46D98A6FF475C76AAB0A8C8D45E226FAFC9FE0133EA9F60111F99CA81ACE03A1D14C89E8B0D69079C91464FA1D99E651D0EAF606F345C42A8A1AA9BA391031582B96D5B4176A77
311
AADB01F12FD298A75DEEBB2C82F0B8650E880722F8DDD90C56A7A058E5FDEF1AC93545BA27367C76F5D8F9690CB6F8DAE141EDD7971F0FB548A2AE435F224D6E5954CA155512F7332029D5A1230854B79F258EC5FFDB09F5F6343A8EB193229B7F7E79B3E48F8E183860B38C8269D1B53738FF1E0BACF6AADA6D4869E9DE70
311
8E79B5DADCC09B1BC76F649731CFAF59A83FD8BAE4C749D66FA87A3810D4D62FFE826FA400C0F325D2BC0F3CA35F5847B82A2ACC7961745C823E4D863D54460AF792CE6F79B5C7A33B25C3AEA6CDE15A919B6367D781E9D44F61BF828672594A3E1D9EDD6DF179A81F27EAC05B936575D73E05C209DDD2115CFB705DF9BBF3
311
C911589B3640735E9E618FC9C36A7326C82B2205E244C55D56FDB9D5DC93CE958D4BF8174D2B3DA54CB3C09F2C2A6DFF73D23B2197355761AD421EC581284A7EF8DE2CE3497C0C804D49B41DFD6A7360844E5BEFFB495CFCDB97A4595911CDBA623274CE852B5E278AF0BEB1770E9D37CD977B2766A7DED0E94B840E1E95E8
311
C77DE5CB6354AF7871427C28ADBEEF7BA0A28E19DE9ACD75F379FE373EAE6DDDAE3834692F9C2B03B4FCA8FCA9ABE8EEEBEBB725B88A7C90941E850682CA04061A7DF0CE82ED49BFAFFD42C309818FAE14755CAAE78B0F73243ECCCAD7DF58FCB9CDFAE7A4D3E6671A613639130D056C8383C8F4FCF4808C331E544DD26E47
311
55D09EA05253B3049A1E32587CC25D72E073E2CD96D04A71BBCB0038FEC3F53D254199C3CDC67CD66640269431860225392B2CB3ECD0B4498AAE78BA1994246AE1EE78F2EDFB79F6C6CB6B5E279C4D373FBC21CB2698C9ACBBEB6A4BB6B39E16AB0E421CCBFC7654D81ED86022F9BB522146F9F4772E2D0E4FA70120C95A85
311
A417BF5078B232F4754363EB1750B2AC2148EB46B1EA72AD9B4D23ADCBC589D70106C3EC2ABEEED84DFE28E718C6C83502C28E9FDD3B09DA0A6F6F7B72B706A31C9E2A331EE70DA56A083D2177BFD63C55B11D8D949FAFCF90B23A1E24B9B5018B9A17E99F2890EC302F330FE7936E2C23F0D237EC8916F5166AB84B62A21B
311
B0B950146962D754F92CC2C8877BED8FC7B7B25726DD19545392570B3A2C66B58F027BEF412E552D12A588C4A3CC5C3193FCB3485EFFF700D0B9EEC077754A33DC1FB9E25AF814628F91DDFECB667D3F7690803F38D13F8AE39353523BB08FC6760144AFA2CE28236F65EDBB3D5F59A57D612B99E3D7E5F8A851666BF9B5A6
311
658EFC96EEB37A378ABB0EB3FDDF1303AF32C41BD1C8560745D7BD81066B0D6313359CF488563D3BA3F8E2185D1FAA3EBA1397C9D0E3DD232180A4DCADB6AF25DB3AC3CC26589C8239E66E81547BC7E2F328F9884764CA37EB5DBE390DFC03A5246B456A7C3684C4377D0EEF9A350680FA9A077E8B2957B489E09AB1AD4131
311
6944C2254B5984830F691C93CAA767EECF976FA5647538830B5E63236A6F0365C1E0F3E327F24FE35EDDBD7360B0F7374837409F7A6311BECC12B7026D4FA1AE204FA3F5FE904B1F420C7A9044AE58E403E7C4848E7DA25DC9EDAC79DD756FAA26B9EA83ACE8A214A2612A22AFA19DAE7DBAC5F8CDE1292A485F98DAC731A2
311
9FE01A3966E96BCB9FB5A4C8830E1B9AF0C54B87FBE221A097036E5D28D1F869F810C06A9BB0AC0612F69AEBAF893C6E7AD59460208BAB3A6B09CA4F6BDDAB8CF0D1F84B72487498395A70DCD754796E271099A567A55CF242BBED64696378BB6CF25EF0FCDB589F3A82F1116D010A9AB9FA4358809EE0C973A2B4229BAA87
311
6A70B03AB49CBA7FBE71DB1832FFD32F9BF2C8E98075CACAFB36921235D0F552B6A67E94E094097A5D7DF681B40623DA535ADA7A9AD8E9A62407D7C9A5AE51D62A17A83A23728DE86BB56115804D3F2675F2C6B87541A0FC497BF0CA86420F558C9859EBE9FAD62747E323E3AADC03FDCDDFE7407B09DA90B44E3185723C53
311
81EAEF589765E2F7A099BA46695BAD60CEF3491B8A171F5F56444F7CE9455312C3498C74173AEA0214EC029833B34B650CBB5A5508D5091665309642791708ECF27CF11DB3D797D6CFE474453BD4BFADB768094B2147814D81C7CBAF8228DCAF5564B5891F5EF6A860EB2E323CB82AB868D8EA048880D63B0DE5341F1B3D53
311
297B928A11E15F25E5148990F710747C3509ED14909C552EBE3973246FCE55D00564D8310BC3EBC5085D08D806799B77D6C57FDF5E55837F9E934F09C03C729271B64F12D0A9F9E938107CAF7BF1EC8CF1BB9B42363D33070F4CACB425E605DDB0A34A12BB936DE286B9887A4E2E558F0886498BFF49C311D96C277CF6A9FC
311
0D75AD0ECC5226D7E0E3572012E56D7FDE4410CEC7A6D0F997F225A2055B8B92E3956E875AE4993CB3D4C9063AF98FD45E1BAB165640A43439A2C9181A7C355B297C0A0CCFFAE19B6FA3C2BA238A885FBC98B8F6DAF4B94B97304878DF4D8BFF6A4AEDF79E90ED4E68F00CD7299F4E0D83E35601AF0CBEF18C1E870E74758F
311
A91F5131075004DB3CFCF09AE1DABC11957FD9808C92E8A678CE9DBE40DDA0E0D1D505AAFBCBA208232BFB6FB3704E8985E61ADE53DE74152F5C7DE74B1DEDCD37DC3E8FB30D7EBA8B9EFFC3606BF90B8D438279CB7709FC7C00D327F41817EEA71CD9E49FE9C8C9A81C70915D9F0F15958EC5AA4C3BBFAF46986B90F188BD
311
B24B89DE3C6F29EC3E6F66D84856EE96A35E657CA41B41EFD8DBFA16AD6E91439EA92B40B21C053249F51AE50EB0B24C770FFAF40DF12C8436366819C48E36547D4E7B72FE2BBF10828583057814A668BDF183F6B2E58DFB151103E56303E63D00F39C27C4661605DB644D19175D02E3F0241E8FC3458D17AAAADB117CE9EE
311
A690D0DB01E634878C04C2C9310B69FCAB831151E3AD293BEF6E46B0ABCECB50F5939B39C613D41E81FAE8D34CAE3C4566B761D37185FE864AC32FCB71AEF39DAA5BAB88609BB980CD2F07A8F941653B529567726E2B2A58D079DD57E1E5E31426CF184A04D7B03B985F276D47406AF276FE32E3328BA866EB1FD39BEF5786
311
3A317634AA5FE467409B3873F5069EF0D71AF00AD189D17BA1974ECDB2D623E9E14086386A6AAB5807825C37B015BFE892AFD154920EC437EB945D958E18622E1E0FE2FA06557CE4BB9BBD05A2D40E774DA2B65473791E314B7D6C886820B2FCFE4AA272B3B8B15E7344A145E8AF919B5454D89D36D413E87211186BF6F645
311
E5EC94DCCE8E1C799022E4EC9BC86D7A0F2AFB1FC4B2CE48F84B3F49ECE65BAD24CADCC07EFF39AB06BE9E6B27A059938EA7208838455383DDBCFCD967DDE4650EF92A14FF933C975DB20BD7FEEBC4487576485963D757D16340D9599FEB362F775F38CA4185A86F74B629C81B133644A3B18FD056E997E0734F9BE26D11C0
311
AAFC669E2AC9FC41D281F8B2E1C35AE27BCE05F3DA295488096688719D974DF1B5D182DB7792288697F8763CFB43562C1CDEE11C4AABD5C22B6E33F6F389CFC3477C5919DC0D533F8A7A1846B7ADB60ABDC26C43D0CFC8910B7C15EE22675BD02702ED39DB77A87A192CA7A543E6205B979B9F5A6B512A3CA799E198B2D579
311
7C0AF8D1D872CA455D4D431A7879D4DD76110B5FF7F4176B54477A9EB5E4A5D11214FDA585F0382751D8E2582BA5D2075053298FEB8F1537304E32CB22C2E2B693DC0A760B1DFCA751BDC445AFDCBB12820ED85F6D5298933C7EF1211E9E057684056CDA3FEF3BB6052355E162DF27C59E965A8DDB7F9437EB72CDDA3A090D
311
E65A5B2F50326247B7EC67B73ACC7047FC9B353D6EE990F772207C6EC52B39DC2F3C0754821DAB559F7C1809C7D0DD5B0499D0442E0A6E391B3D5DB46D11E731E6794EC77523FBDAA242ED67F9FA1FB684255671F63C9BCFE6E7E896D51001A6113EF2298BA494E0B0980D1FA5B9D60796554C02256B1E0345FB7C6186B6A1
311
9D2DCA270416262845FA4F42DB5D9B0A0B6F07FCA2E56C242522E001E0CEB734AF310FC8BFB57E38E03AACE93B3326A2197891E68452B26A6307FDABFEE0223D3C03C3C73D2D5BC054C8311F12004CAE488E5C29287F8156A2CAA4AD0D7BE6B97264E4139F437CE73ADF52E5134C52B819777C18B323A5924E4F67AFD13B1C
311
DC3A61793A79FAF5C0CEB718E441071E797C6DCCB9EFCF7E4A1E9F3DF3C2F9C9E8294E9586868788C972857FB0556D7A26941A7EEB9B580AD78EC40B85DC906B4120A563CA3B87797ED612D3B035962BB75F6515A393F4CB057F564CDF54F2E5A024514E6A1F901DB80C7E70B1FC05E356A7E72FABF4775B3E3FB8F70A2A8E
311
7B6A94542BB304157978CCC999E707A29CC795E67A59CC546A5D47B368954CA7B6E75EC9E1F6FC73CE3B4F71F8CB1A6B15923D61EAAEB14626AAA9D04A26EB9C66CD1BE86CA31A5D8703DE04CD1EBCE4F5CCB62F93909AD11E55799A781A956ED27D3E738F4538CB04ADABC7DAEF20BC35BA6A90BCC1DC61BA05F20D8832FF
311
B9BC9B15E2DB838A0AFBB7E0C82A562127E0446894F427794C3037186F622BF24DE1B00AA10A23BFA47B2A180D6DA5AD6F7326FEB8C100C2D7142EB2A0B2A9D1008A09BA343D70E054AB69E2A7EDB783CBD92537FAF4A44D1296AC2792729104B3276C276C951D0CF3CF3F1E6B017720A7B8505A5FF9589365979678C36F1B
311
AF759EAF57C60F1FF5FE9DCF5F8E764FF25A2D06CF25117A8FED51884C13B2B750DB0E4F5E3D64124FCF11F0AD8F1CC3B3DA4B38ED22BF1CB2585EE6BFEBBA63FBFD44F9537B9B37BDD6B358720F98A8125AED4349CCFEB0E135F19E208A04CA7E2B10711185D72E381F448036EF57C9F874E54A971CA37A639E986AC0226D
311
C5AA00D5B14FEA9192234B3DE617814FC221C92F33F1D392F297731B567FD98FD91D989379AF567A65B8ADF177591DB90FBEA99BF4ED11B16E50A0AB1DBF1156D034BBE04D69D08F939D8E92BF525A1DDAFF80ECBC95D8F45D3FDD289FD23F7D8B452F8EBB34EC082DEEE68E18EDDF072060FAD2AB1504DD4879BF67099FC5
311
8F6E9DEFBF645D16334A3E9A127C6F1AF6132CF287E433B43A0EE93812B4AA0B194E03EE3FF91EF9C6ED0074A2F6EB18A96A7C9890B1FCDA1F2095E944DB911ED54C60DF16FB74C8CE9BDC7C54C4F14078CF73C2FFF1F1BBCCD7CF64F71407EA1683DBC410D226627F66E509060D5C0AFD611DE681D509DB8DD12FB1265B03
311
C6F5C55FF4C30BD94187FF692B4F152982502F193098A789526A038AB529A52BC0DC4FB6285CBAC10A8B8DB75DCD9BDABBB221E27D1F8DA9F5EE5926A1C8AA9BA9BC09239C6A7F12914EA3B59EFF7AAEC3FFCCE56F1C5C2980AD072793527565E774F4631DB178CEEC691B1F367BEA0CF2907E1D6B854D527065979DDEF002
311
D8B2ACEA7CE21AE297737EDE1D45B31233B73FEA35BCFDD0B09721FDBAF6432681F2FD10C3E9EFB246FD6E854B344ACC9D8A0EEF876A7314B49B6A499FC650B099D650DBFEC7638ADFD245E2B7839DA5AC5F7D5623FC0ECEEC8653FC9B2BDD1AD4D00A566FBA7186DD3C9CD26512551637498CADB950FEC71ADB9A5524285D
311
E328B8EC7EC75D2345AEC6A27C42AF6D9B92155315C80DBFCABBB7DA0FAE425C4FB896B15C9BFAC4FE67DF5A23D30C93DA4D8F36FB15D100050DA6062E22AEC5F4DAC4F6FEEF97AE05DE63C6D38F9E068A20BC5E3B6BCD75320C5090924E7F93640A7735B1A43451C2D91EE62C6238B797349E59890AF3A520DF4A87095F3A
311
BEC2E61F0593416CE46CDCBE0E00E2523FCCD04408588B5B6C9DB6459C786CE378770B54F51DA3A5E1DF2A3349BEAAC234A6CF8993B598B3B25B4B113E353A4D750FA7534749430F3EBF2512E7EA3FD43C6AB9A1F765A58463B306721A15D224FAFE8C6F5E3432D57EE697DA0DD5A9D4866A8BCCAAA9DFF1F06047851408FE
311
C060471D0E3EB86BFAF46E4B5E60311DC3E3CEA147C75CF971BE74689507154FF2D2E92F15CDB2B9182B11459FD8ACAC5A85F174BC94A7F4EE4C4F5CAFA7C02E37BF0BC77B7DCD0C047BC316F562A01A441AFA7931CC84A28CB9F4AA367EB515778F29BFE61195FA671F4352E5E46E3A64773F1F76EE5EB36D7BCE9BCEAD83
311
7A4D77F8DB8C92AEEF6711920D7C7D0F76B0FD0EB7AB83724CD35BCA7D36DDDF5FBB7FF6F04A91F3E2BB3B8F1A43CD659639507FF6331C5F697BCC782AE57D757A27D97F1AB9E0AEDB43F92F1B2AACDF5FEC8ADBAF9F814E2027003BA2F9E144B1938A7A04050AE5D953B82C45619165C813A10E76DD6906B3C16438064D14
311
CDA713AEC420034613E1AC7241904A49FBF87409AFB1FCB9B72FE7933A87D8FBEDACECE4EDCF6A4FE9FB94D5DEB74FAB7CFEAE17EE965DF980DCCA2D04134994F9A2E94D2265DA4FE6AA7B7AC15FACAC2B5ABBCD7DFF542C5314FDAB2E1B9D8B65220B8E2B638BE008E8DCA22678C820C5053664D15E89F2D735B51A84955E
311
81A443545E9FF787BE0FA700A76D136C27DA179A7C6E8939E01BE756E19CB292798063D8B97F44E8A27BCF3A614FEB8BE974A718E86F7EC99B53CA35FA24F61F2B07266684623A3D4CF073E511F3A10A8FDAFAF0078C577F4DF9D339FE7862E5FA47CF4344209E5BF76D783B1B48E152AD281B15FCB934DCDA49CEC5706B1E
311
E8B460F435324A5CAD154725E21AB8044B75A557A79F6C807B9340AA3D92503E866F4274412926C8C504E4D5EF8C0E68DD0B028781A6B4054F11CF18941F101C57CCC796773ABC8DED9CD91FE5788806C05E548895354AEAC96546D55B0E94A59F148D061F42AA398D822CDECA4CDE79E13469BDCC44FDC990F366BA5978C1
311
5F97ED80CBFD73B0CD9B8B83A4F6845BDFBFAF034019473FB9A63BD55D3A4A7284757071574029A4D016DCCBE95DD679EF3C4880BF169422F8C89B68A988D2B13793CAED4F74DE7486C72DC94DF46B8E93D8E02EFCB1FF9B3BA10C8AE7F653DF94F4AF466CDDCEF5776687F7C4C14B63E4EED1719DC2EC482D7DBCC7AE518C
311
DE3D5FF86D39000EC3673C0044E1D308BF05F74D1B5F033A7D1BE7F74BC55BBE3E4A20F920946CA0271EB17BD2B80E5660ACB8A29A79F5E4BBA49D4D945B6EEF4A7EFEAA65E5555BBB57A7E15D2F83C69F30BBB978D2B39F1F26FC097424D39BB33CA3D87ABF64E307938B685BAD44F71556A30B7E712CA4FE600613C3E554
311
B69ADE949A7CFE214DF1FFF05CB82151EC6FC31950239F94CF7AD39DC473F6EA356E5EC2C4EFA04383CEFE985A127484366FBEE3C0EC4FEA363E4F6632AE781392FD45D67B63FB8DF70E82734F431FD3443172A0E30A83D60982D55FA6A2CF86DBA8382502ACC6CDEF3B907982EED1160E14863FA242F9757347E1544275CC
311
DCF71ECD5F8621CBEA326B8BA884AD7F825781923E66971F04010D574C541D8427A438A37EEF8AF88240EED7362C953F5A81DE2D56109CDE2524EA0F5D2F87308C0C47BD97AD605878AB8589E17CA83930CB5E0DCCD75853D68B1AB136594926DE426C367428E9334AFAFF90ECE221BB5DC9E5BB53D2CDEF954EAA9CD814F0
311
E5725F1965DD458E5F8487683AD86B9D0076BE3EE91EB1CECC5331A67A3F79D8B27587C12EC2A6A70474749F27B4C0BBAFB94B34189E88DC18964BE4121B9137FD516C7755356E50D6714E31ACD222621EBBCD1CFF81D87479056A9DA0E0B8EA19D24CF937DA89F78E8650CCBDC110AAB6C4E46DCBFD0446BA9E2060E81F31
311
4AC2031E88135E5476AC0160EF5C0DD2EEF1B8B5CB2D198BE9A554A9093B5F7D7E4B5407DDFCA1D9C152FD97F55BFFFDFE802954DFEC8995B983E28AC92F1971E28F531DC407A1280EB125F64A72E617EFB27DFBCEDCDA2D6F2BDADA36873EE46B9BE1782998C63DA7182BC383FB6FD15DA472B175D7E8B4FC88F38D6E07FE
311
AA3FA3CBB8F6B449ECF14D2175E5C5CCA3A42ABF24CA6C9395AF74535F4DDB38CB84F56614B0FD32D7E19CA5CF988DB4449C40E23DF2B16772594554579094450F56F253CD25EA7F77366FB1CFE79696C428BB64D5A41E986189427E5E4D7E2DAE3D5BB4972B3DC44EAABDDDD63A2264ECFA5C786EB0EE1FDC5BE34FA0F083
311
76869FD1E61EA06CAE15191135445EE8F0394161C3266A596AA035572BB0C8876180D8B9C77D307DF9DCDF7365ABDA6F3A2366436457A4DFC1F259666569A9E4A79C817BDD5610E5200FCE894A358EC72858D50EF67545DA81C6FACE3D457BAF70367E1E6BDD9A952FB4F56247F58F523B97E640246051A72F79BE42FFA0B3
311
187F63097F91C48B868586F714B0EBD5A00A8412C1236E1298F60C72BE6C96B82B404CADAA304AE9F303176B14BA53FBC2D5E86377E35542019E24D97B96A49B2C0E5006E7795954DEAF5DA58958839043C6C70BD3B1B33B6DC5C31316D8A6923F142E26F6711A2258AF977DDF1F970ECC4F1F2B434B96D81BEB6E89BF3BBB
311
3C7C8CC80505070723D6D7D7D3C8CA27CA164A26024FED94B12A86031867241DA53D929636DA600F050BC40CE48B8BA03D69224720DEE2ED2127390BDF5E6EA64527BBD4C4C63FA76BB801FEEC0E61218EC98A8A86CD8313781617877E66692839B9468CF4DB8E50A73986E558E309C0D6F676F921BE02F1185454DC75B111
311
572FF9D27D85EA14C05AD7271225B391C4275659CA4A43759D0BA44639BE4C30A84DB7F67A41399FB95CBF923B1B1672ABC807C1590557FB18D811983FA97F5E609516D62281D38B1281F68FC75528C35E4CD7DF0F7DBB5E5DD69C414EBEA2F4A5B241B996BA77AE6C772E367408C633EA3E438B68563EA8BE7667F3A4C4FD
311
EEA52ABD78A2820F443B7914A15F180018D231E64519C56A12F6CA7C8DAE18F06F6B769DBF92329EF6A5D18FBCE600F36BD8E8198DE5CDAA96181F3A756EBA5501CEE58F497EA4F418A2B82565B9BCC611713C0B708CCA1F398B78C5F7D03B3437CC18F13061F55C7BEDADD5ACB1DB0E36D3CE47FF6EA1A563A57E9649EA5D
311
14D1A50EAA457463381C073777EF1600607BAF6428A7DDC079D47A204EF1E1F1F0589FB054D45E02CE623B3823C317C601E589E22B1E88B448524B86A82828E32345EC18AE17214B42F8C41C6D428016D9BA31DDCB47572561E5A402E5BA4FCE55F78AF7268524AA04130F3A20BA5D1E9F9948EA48FC8F5314FDB35E218981
311
98060034ACE5E3E2BBCA34092518F275190AF65F45867FF0900AA4B81F25427414C372BF51DC29AA855C5428EE1EEDD6B849AD60F6E73475C2D2523F8A2772C840A478DED18A8C5C91B085F255DC4F54EA7AA8947354FD17ECF8FB3B4A0DE7B483CAF3A1165EE05BBA413E5C1FEF3DE1D6B8F2F3F3251C17D9FCAB48A9AAF6
311
3AC773A0E413BBC46A9ADF84A566FC920E4D8C52C9769EE3301CADEEEDD92B312E02E2A7E35B7F1E7D203FE5A7D75578B06E99D0E46FFADB8FDA17ED8880390DA29094202D6F645F76F6F96409CDA05495A96E84B04A00D1A6C6C81D7F3DE9376E828CCF144EE50E364ACCE7237EA0BFB5607ED1AC3CFE73794E5B61739D14
311
DF1743441B1AC98F00ECEDE9E7301FA29755FBEFA68C91EF2B314CF510537EF1ABFC9A762496280B546F5EDAAF8A5B387D469FC9A878A92828C88608453ACEC6094DCA54111E7AD5B2663DFE2DD151B7F123B9F4FEF8EE36AB125FD7AD52A59B1B765B3E3F73E3F73DEA93875004D2AFFE3CDE9493B87A9904DD0520289490
311
41A91DC0E1BA47BA714343FD5B25E0A6A09503AFC17C790058A836A324FE31D7893512E28230332F153181C1E018E1124EBE1BA262AA428A518237D1EA7275E48C5C561BD19ED6912EDD8367DA0F31E40EEAE9683DA9257525AEA7B632B97119E17145A90231768A4F3B9120FF32E8319B015E3CBE26F1A754177D81853458
311
17C096B0CE443A955D13AC15E1FB5DEEA0239EC32A3C92241A237B0B02FFCB4F93CF2B02570C8D192E2F2A68CEEB42F12E6F8CEEFF46C251E22B4341C56FB08CCE550E7A9D6F4D6564B9EA52A83D5BF2C6E03FA19D2775E15A8A7ACF30A13C259EE7F5EF2AC3BA354F1500E1A07FC63FB4686E2F12EC69719F9ECF5FE3F355
311
98DF2CE944008CE78F0911BA5BE5D0A34E0098FF038669C26030BA9B300303039852A8F6F496341737CA7E0D2E3AAA36DE0A70AA7D9CA0D54D9AD84B18A44C9E625475E1C97B93BEBB38DCE7D227E67A2D00F531436136355F243D1FC0D712C5765754FA22FCFFAE97919161F46D6E61ACB37D83777B385889770B50765B12
311
7768443A5C4D3A4E35A3151111F146B7CA116F918A049F1C272F2CD7976C69A0068773451659A97E0F4A08FE604C3FF6CE7385DB19F4D3ABC8A0D80DA8A42096AC377DB49382B36E270B6FA7570188B4B7D1DDDDA82ACA487CCA5D38BD3BD039ADBAFA4ACFF27809239B722081E2EB9F145320553D183F28471C388BC8814E
311
5045676767AB58A8E72D1CED2CA731379515D2E533E4CF0B39DFC625F97AC4836831A4DE330E87A8126FA17EBE583D614E71E22A8DBF2825599743E0640037303E8E1B1E8EA4E1ABFA4F62907B5E4E0E5DCFDAB417C36C6848A2B8D15F1E505434C0707E16B1CFC2A1C36A42BBF55734F8F4301DDC2A5110CEE8C0747F6951
311
9265012A2174BF4E955ECD4FDE095A3ABC70536B7AD0B9D7892F81287D667C108703C9B66A221E9A0929D030008F77FF6F5D2108EF5706FC87A3069B976F7C9FC3239D13D283CDEA83597461079FEEE049B0F392889898B7D87D31F8D60ED7B56B91823A8E4EDDB36C6172ECEE42BD42B12CD67994FA0F0DFAE9389356F4CD
311
4425A4B8AA55CBF7ECD585C6A2C2316791E43D5C06841ADBB226A87FD61515FFBB0167B74E56BD7F3E90A57A97FEDCBDF483A0D6699A8C0849CAEB4947FAA90D8E332D9DEBD9F4738C37DA0CAF9CF3DAA68BCB67C420459C7A64498D6E848E5CADE92BB6901F607AA331104A67F7CD650EE169B1DAE94D2C31C2F993632259
311
B6957E246EFE4C5481107B07118607700040E5812A2A2A38DA0076875258C753F60E0F2662C748EDD5F3F3686B8FC3BD6FE631ECCAA1E8B1C1E565AD117E54893E79F4672E32F9E46B2A183DFDCF3EECB4D4D077DBEA0DA254D256045109670050129E9B9B1A9E4A11344D61497A992778095151510C4BB7EF2009B63AA436
311
0635312E4CF668B7E0D3D85A8688E2BD83B569439892ADB63461930D428E0DE42E4AC57CE48DA5CC1449530D8BD3D6A0F08DF20C8E8F570F2CFFFCEA286E30969B4654D498A58D9DA782E19FE3F002181838925592C4A1EF0B332D88B61A92C644547BED490D3A42CFFAB70E36D961F694F6307F72FF15A1C79D5B1B5CEFD3
311
53D9E2B52566DEC8F8F09CB3E8359C0F68EBBB7898243E34E12A015B2685AB303C04D3A9E00671FF3DFF0A184E4A2ABEB2B666AF5B3A209C73D8EF29DCDB069C9F391EEE9DD0F74C7BCDE16F8F02E3B8816122BBEB50665775B600549D8BB33A54A6BF940C028118BC6878C79958D6784F9DEAA6E26748386FFAF8D0D0101E
311
2847B6563F5D8DC1D78F787BE00E2C941AE12148D4A81599FE8F68D4DA5CDED75530ADE138240300EE13B0FC13A1687FED6774662C05A2B7DFB186732F0D7A93545D8B0A6390AE5054D9CB582DA846D7A061B3358B45E2B52DDE63E114397EDB7E09233A579155D795BE76102CF277F4DF8B188C4F2879BEAE3C08347124BF
311
9ED23B128259FE107D31E34A652F090B30B39E0D9AF917B76A2806135621A8A60681F16AF216514BBD02711585B5B1AE823F4B2D0369EA5B6BCB863072727FFC871CA6C9AB79A814D989057E9470A3D238BC87CBB4A0EA49AFE2B86F22E499793CAA9047080450166BDC357524561E258C77CB697F1ABB32562CF87C3B7AA1
311
2F911EF19FB3E5C02222E887D08202A60A17151F5E053A86B437771088B4FEE14D652C43E8D939995D34545E12E2FF93D4E366EAD25F10CB7DED141563C3D0C447AF06078A91135FD4B9611583CB4BF3BD167F2399CEAB0E0100F8FFC305F00F1711717173138B4B48C83022295DE657EFEDD97F238ECA80F528AFB4F8D67A
311
D4E2594B9A3AA86D7487EFC313BA95745C186F0CDD84CC12DC9CB0424B42203D351FD9C0A3AF10CC7F388E0329279087386421F194F4A29464C1DEF7EF8BE515E4A199DCD5B909342598D8FE6A231F71336248D5CEC5454455C7BE383B3BC7B260FED27F703FDC39A170F3827239102F59D4DEE7FEF82EAA1A5E4BA94DCC4C
311
C44E7E2EDE20F24244E4454369D2E87C3F823F193FD4FD27E1C23984B01898D15ABC20711A8A558054951A6AE280096BA36CBA439603B7B0B4C45F248C14B2383B4B5CD8ECECE4FF859AD4A6CA2326D020EF090F4041D28DB66E5256B56232CC52829DE8060BAE6BBF37D4B7469B822454FE93210A3E8D15E69FFCF0112322
311
2611C51C4FD0A041A0CFA2471CF6BE38D2B20FA4C3525B5B8B586759475CF80ADFE67A284AC24651E52B8E683D24C2622642F27E7C3C22783BCF63648BC398BD6CD0D9C97E7E7E3EACB6126DB7A6C1FD9F1031302EE67ED96F22B77C7CA0239BB324207559B105E4693EB26EC46182A92C9C0DBD24F29B31C5C5AC1F84300E
311
0E17CEEAC15F5736FA4A98971E2F1423BFCD68D4BBD5F86E74B40A369F39507C88FCDB35D2DD8DEBEA4AF999E23CF2816D204200DF6E611781B9884C1AC8888B4DE397320472959434323A5A36B22A8E1F721A270DF3BD65E4A31C11FF048AFB0D8B7B6881423793963A23CFCE935FC189ED36FAE35C46DA3574C979E4394B
311
E52084F3081837BE033396D2EBD80F1F691B273F660D2B32FA27A33B1DE4ADA5F0FA4651511102DFA410DDA86E065272CA314D5249DF91B06BB92807B28EFD54F08F7B525252782CD276DD02E6B0319B13DF87B1F6361AD6B28FC0D711CF445429B9E5A433CD493051C49A9E03DDB1B147D880253514A5DED88009018620EE
311
229101C041950E2D8AA8E1F5F5438E0C0C0C60EEDEE9E3E0C051948C69F84BB7B2A48A1F3C8EB9E6864687F4F4F6F6E2FA87608ADAF9C5E117B7C1A737E710769DA1D15ECE6A84502AA855398712D5FB51BE92E4EF824969CE18278798AC303C2C7980DD2500ADF8FB1E6D6C2FAAFF9987178923334A244758BAA01A9A1B70
311
FA5097D01E1CC2A58DAD0EC94CE6430AA9B0C10D75E3C6BAC670EFBADEE1607739CE0FC18A2587E3EC3058562014C64219C69BC269082D5C2F4A659278D585755912176D78A1B641719C2A394CED495A1AC5D583FD2F5EDD93308EA7EAE8A6DD396598BDBD3D4CFED62D18A5BDFDE0DD5C80D1A89BA62697B131AE7CE9A659
311
4138582F1B37D68F1749AC7CB67A70695D48A4A056AC1FBD4E82358CEAE38F54B95A9016F9000F9879C0D9D131768635CA798895F27D6F1614F11F2838A83611AA51C9A3DDB539D42979C29F10465655C17BEC3E2760B80DCBF609198C7B171A531905F3EC218D696025975E986C6B4C666666787271F202805577DD5A3EF0
311
CAFAF91B62DC4B2DB4217A7606282F31D8DDBC290593BAA93EA6353AFA9939B877978481E15CFC9F2755CDC00C538F63A4BA3E80AE009B73CA0185687D339A507D165B74290D6EE46D5C58148F020C3668ABE9EF2F7549170DC80DB41FFC1D678FF19AEB10C7133832B104B80F691B3138F97A92D26E551F1F110400D45AC7
311
1A9B9AC41A1A1B1DAEED0B0810638EFFB511D46B121C6FEA0F38CD00E03CFFEB9713FE1F9C263E4DDEC160D0497FA9A132BA608584057FB15380825DE6C7FC3C667EE947D488A09898D8E939C4953BF4EC9836344D2CC6B2971B2A21A572B06096F4982D2CC7232D46E8EA69DC83722E267754D777F97F96D5DA74E1E75178
311
084D0E70F12AD33E5F71EF2AFA599B2BEBF60A5BE475F444F240CBFE8143C334E7ED9150FEEFEF7EB020C4DBED388DD1D6A167A76F3CBF119B578AE8CFA7736ACAFA4440A1C47185638A0D2F3EB5BDDEFDA958FB13CE4AA4923D5BF840392D45544329525749734866684BF7F8D9D54D892E19BCA9F829A0F8BFCBEEA6CFDF
311
C61D74EA1A645ED7A1FF241739F15694BD835B66FEC5677E40FE69BD3F91AE402F036537218A401CB0828604AD189E575015C6F3F6BBC8AC79CF6C70653847254B31551EFCBEB5978B9DB85D58D0FA41A9DFE9C624834AA04949D24B5AE6D299E072D152D12097920F14AA92C31C3B97E28B6C2E6E9C23D63043ECBBC0A60F
311
DF5BD0C33C127EA8A3308B8B6AFFEB28B4455BF6E7AF4FC6222728357EB8E46E85053E6A8843AB23295BF838ABDA94658FEF3F832F147046B4ACD6F7D48E8FCC9618582961C898D1C7A253C91BFECBDA6BA18A1FCF70755DCCEE2222F41B76D23CA98D0CB3D95F0CF66D57FFF65E2A90F5DF40FC3187621E981BD0BC1D9927
311
87212688976B94A8F0C6EF646624B570B78E068826F87CE27041A95C9A4871FF65CC17FCB1639629AD6A9517000D63AC231F3D741CB8430777E7ECF80CE7A3F73C0F162F7E56AA71F4DA80A33CD6ACEE78E2C11FAC03DAFCE929B106F8F6B3ED2DC71FF994BD9CEF4E9A94896EF1B6E2B7B4978168BCF0847A3D2A4F1B0500
311
B926E634B174548E9FBAD27153FB5FC36799B1E6C7C38A94E1F9E996796D7B485E635D5287A2AE76FBD11A341DB3F8F810385BB7296391973DC6C37C452A9305AEBBE0CDB6C566DB59FE60C8E94B1FD090354BF51439FFD1B48D725228FFA88C84F686F547107A7A235665A4593B7C34D748C1AC8D56DD5DA861EEFBADDECB
311
BD65117E65851F90351AEB65F0EFCFF4BCFEF24CB7A5879699FAC437A7AF9099186CF006BB923A59E37D7A36A29FD8D2CBB914A5E9D0A8FD212FBF796AE9A67958FF1D5D8B85F78F96219D4714EB919929241B6C018AAE0C02069F8D919961EC5DDFBFB7573E3AC8E08BFB7C8534BE6DE045B3CD63DBD71F7638BA2309CAE3
311
98EA3A7D8F98BBBC7AEB367EFA5CFA27A9F8F2F52FE878058E6209C026453F8E7E8A237DFC389E9590F6059B397CFD65183BBF936E86896612A5B5FEE49DAC8455D026218AFEBEC12B3523A45B57B82C9C97E02ACFA1184DB18E48CF615DBF39C3CC6F0B4AE6BBEEA2E39D944E290302FA3DE33FA7E40296E2EF7BF1CD855B
311
BECFAD0FD622BEE9746FC4FDFDE545AE6E3BC234CADF83A0FB76DFB145BF3828AE3436368AC24989454F8FF70A177672C711CAA1A76107218CF948CA01F873520E7A2B118EBB161ABAD432932029628B6761590C98AB590C8C8C79798CE9F715BA696E839E9131A4BB68BE923F1747FBFF165331FFDD4D05997ACD168F12CA
311
75348DAC04C7F509FE83898A8B421181AF492861CE81E4A2DD0A30850CFA95E05F097FF70F9E777310D584A75BA7018922E271DAB1D785671157685B7D383D3E074DDB4F1E44EF04B07BAAC75A062077C54B9752C738C9D804D402E02851F3F89605AF189738C18C021D2139EAF72513824E10DDD3047BACC8521ED7E98B25
311
7D1166903B1B08FA6F918FD7E162913FEC7D0EF4787E29C35FBA8C6E2C9C20E9AB30AE42CA2A01A090E7D010C1B5BF9CEE2A304BF3A987FB40D836979B79E18D70F257DA61E808472DD85B82761825779D6B90CAEB0F23360C6F80A7D7D77545E95B3DFF0CF96A827F9B5BCECD2C9698718417EF80FEEDEE938AFF55859D0D
311
540B7FE09435583A6F04874A0C7E8CF234DF4879722000167F5872CEC6BF3EF7E5A8CC8121E6A359227C8A29C95212F9F735BC72A887D56B8F309FC525BFB4FD767AAEC4AEFF249CFBBD2DE1AB9969A6155C7D8DABC307E47324C1F916C7BCFF40ABA5644E9FFB9238D19ADADA49D9610F01ABBA57E4DFCBDCCBB2B93C8953
311
206C91DE01B0E2651A6D6C31721915B31F7B7CBCE55466F6D70402788FA91D73BE4ADCBA99A35F17D6B83383704917D6833F0FA3CD45C926ADB8BC17999A4A0AFBCE2541F7B8CF4C2F5FBA611B3E626D64407CB32C122DFF4EF8674D6EDBB86C8F7C6A16D50FA685E2CCA34F8F7D1D8265BB0042E9D7F1F666F7BE5FAA5184
311
DF58E12122A42EF02F461B3F369AC746F96528AD208512AB56844CF75B97F352DF7995024FB02855385854F3798670D01CAC771AC3E1889EC25F61A20C1F8CAB46898817F9C47E2CDA1F286BF2F358298709FE567C91133E2638C8B53975E753EA8BFD3578B5F7186B7BF084EBA3F77BAC3132A5779902EC22AF2D2E79F42D
311
324E083386DAEE9810D1B44A5DAA54513C7A71E52A4AB9257D975B621308FE4D2141CC3DCFE946C154A3C1DFCCA7629EC69ACFA831634ADDA93C0388D2A9A2DDAFCF957C6995BCE7FBB6DC4EBAE79E63EB08E9A25F52F67076F7093CA545CA3053B5BF576DEAD4E0017143C5F759F32B2D6F145B52B67B48909B7C7FCA6586
311
EE385A2189C16932CB6DDFD9152AE317C430492A578ED27B72D85D40C7C93C097939E1B50F4D67F05334FE9DC362C30B7FF561B95259138ECFD9274C8D695C31B14D4EAA9F3D7FA8DDF652F8C5DEFA23284C799B7D94416DEE81E05A866302DC70192A5368EA65E1CED8BF107A1E2D3119A71E85DC1A7B0C1E93274CE04DD0
311
F2ABC8AC7C987FDB002B6F81757B43502EF7A0D92E416494FAEEA4C9C090CD9557AA4D532F4996A272B94355C5A0E4974EEA9627476F30809B94D8D8D860062E02204643BEC7D0438AF800FC7E2B26955D595421E83C69E1A07E0E3122285835F014AD538188CF9737CE76D464A353FA55A001AB2526B84E985083693BC76F
311
E211CA1D000679C889E3C009832C87E1AC2EDD05C302557422DF0800E316FCAC86978A371F025A6C7DAA9F333E7BD160403A1A06EA75AA9888FF01504B030414000608080001586E487D09B9F3790100005E0600003D00000044353246384237362D434645452D344345442D413341322D4233424630414136394443392F53
311
6368656D61732F436F6D6D6F6E536368656D612E786D6CC595D16A83301486EFFB14E20B94B15B2DB42B6C42D9458BBB3F9AD32E2C2692448B6FBF18ADCBA22D0E847927497EBFF39FFFC468AB14EA53FE89056C56817DA234D90735B0387C11452178B71A6E56D1DAACFCEC3A1E024AE2704B6AE03912B38667CAA9A68287
311
4159658CE6717806A6300C2402119C3571A86565DEAD7C27793C0C92272D29BF74AA2DD78166C9FEB6396090A181B2C4DD4A8BD49D9992D881C29EDDC7210369A2518216720F1AC6709EF84E0886C02DE01B2504C785CE50EE2C69D97BBD013EE11A2F28AD7E47FE8152CDF6F3D91ADA8B0CA269DFA765FB9326EF5098467A
311
7D7E5C3E13791B2B3F029ECB694589B5A02FFED590FFF1434EBC8CD86085932F68F3A59B725CC2FDA87A9C8E5A0EA6714236234C604C5C8B8A695A32345415AA5BFD4B58E5201054B9A4E5E4F42DFCA92F6CAE42927F2CD606894F05D0EFDEBCC8393EDA03B382314FDA9D6989359D1C679BD7A787E3AB3FAB22E340D972B6
311
3B53E25CC22E707DE7FAB9C71BAD7FFD4FBE01504B030414000608080001586E48317D3058AB040000AB1500003E00000044353246384237362D434645452D344345442D413341322D4233424630414136394443392F536368656D61732F47656E65726963536368656D612E786D6CDD586D4FE33810FECEAFB0F27D4BE18E
311
D5AD4491DA4570FD807A82E5B3E53A6EEB3B3B891CA7D0FBF537633B6ED27437A170D26A2B21F232F1BC3DCFCCD8D7D3B214F6896F84663767C4FDAE9FE7B764CBD424B917993092FBD7C9CDD9F539BC8A6233560A2FF728B254980766419AA986388A4479BB2B82BC0E92AC2804332CE3C22D8E0251BA9244A693649A6EF1
311
7D0A8AC54A66D2CA3C4B48512D95E49364C554291262044BF34CED26893515DC3BE3C19CF23C7850FFDFAF367AD5CA29AD64542975A184169965A8C5A99FB71E3DE03BF5C8762758E0BF9D6BB61651775BE1703B16F74F2758005FBD5BF35F466CA57839417BF8F26BAE72D36746C8FDC7E4FC791ED535723DCB7325984F32
311
479BE87247F3E5DF82DB809F802DC59602A8E0EC26B31D59781924435823E6ADB9E6DA5387B29CA6C232A9CAB0AC476858F51918E457BE33B9260BBB1186D43C2A1D3E0F95DCA99C5987CDA60A595A47230FFDDF1312143CB057725BBF449BDDE77D1623C51C87DA3198EAA504069005E7AA2A9188C7A230CFAC58831BC8DE
311
868925432AD551B8F81C4D7C0A2F6ECE42FD21E47A9657595A9242188E945B8B48759971E3385ACA7FE1E945423454055DE9497219AF65096268E216447CC0357B0D5257A03ADC75E5BC43A83CC6E83C38141F1C4BF392F17F568C0BCA2BA58E066F1624C857943816B86E6697952E28D3100C0025532A7FE17996014445CA
311
B06E9793043C5DABBAE48D47975F0E7E31CC53BFCCBBA3FCE9623C1E0F8A7410F4811F16EA363A3D339A387201D1AC18108DC7490266028AEFEB8B597D3175B8090C99418C5D3A9CB698E46E327865F3CAD2BC605C5AE80003F201E8ACCB87FBD833BACFC954AE5615B6B55E0DE8E3E8B78BABE867BC415FE34DCB5FE7E620
311
87831D5462CFA22B96D630DBBBE5DA19B9C3573DC0F22CFC017B0762EA8DDC6DC7BA9BD4B5CA4BA09028A130F5861B630AB10E29BDDF7F3AACB0CA926A6805C7CBC39F72BD51F0678F57FD6345D5889582E652D84D283810C260DB23BC823281530C76806F064A13B975A23D790A15FFDD89BAC47CBE85FA8755F67B1E7BB7
311
A84BDC8E1E74156801DD08B844EDC887F5998148BDFCE39D11E8A215338EFE6FA1005166E93815EB61B8EDC405977055A08F21873ABF7CBCD2EFA4DAB4C0FD695F75165B618C4C05019803B21DCC3F08DCA8250C14DD8E55031A468DFF09DDC19B21E8AE1DFFA5D05DFB2F613FF91AAADAC5E8AA45EB20D3D7700614B2D178
311
58B6A1E6BFA9940DA054EDA885DD6FA92A9872F98EBE086C006F2434D4F6B8425F4C7E8A267C6C7C3638EFF3DCC07143495D1FA6387D0803D33FAD4F0BEABD437B53325370F8405EA4DD9CB87D6AE9362C95D5C059605F53D17AD8C739F30715D552A815954A559A72B7F9B442C36687D9CAD443D6E72B1CB3EBF11185C8B7
311
865077E4E84ECB0D2D2BA9E0700642590C80178C95400C3F3AFB0B1827FD456B94BC738BFA0DAC73BB6F846E1804AECBACB165DDFBFA04B121738C0D08B8E39EAEAFDDD6E8885430000C1F369BEF153A06D59FF68C473F05837EECFD2F34AF3F5903DB5B7792A072CE54C634D0A3E7F0CF49D6DB7E00713CC67410F54BC66D
311
DEA1063C823C41C3B47D9079A0A439DFE83C6EA31AA734F81051DE1A82AFCF5B87B3FF01504B030414000608080001586E4879B77F2750010000C20300004500000044353246384237362D434645452D344345442D413341322D4233424630414136394443392F536368656D61732F52656E6465724D6174657269616C5363
311
68656D612E786D6CAD93516BC23010C7DFFD14211F602A636FADA00E445036DAB95739D39B0DA489A451F1DBAFB9A4B5E2C660D8B7CBFDEF77C9DDBFC9B4AED1E5A2C40A2603465FB259BEB213A89467A80BB46B706825A8A0E29341326C149D7A063506F9DC5495D13D994F75BA4DB662B248F9B23A28AC503B70D2E805EA
311
062E383B1C774A8A947F81AA91338B5018AD2E2977F6D8C4749FD03B5BFDC15C7BB8CAE0F250EADB227F28EFDDE249E2F99FCC7969A4401AA8A0B16FF3122C165B5A689C57CCD494E14CC10E9BAD7AA1D4FB669871E18C2501F709EA78C36C2B69FAA31B0216B48D5E61BB95DF71B2B1D3C17B4ABB78C371C75CF672DE623F
311
80DBC3B6513237CAD8FE0C3EA4765BE14F899FA57CF4F43C7EA160D10F66FD609AF2EB3D3C821138BCCFC3BA8633631482BE6BE9CC7EAF5A974607C7697B1E91626DC7CA9DDF02A1EA333851DE39E1EAF9A00DA5C9F0E69FFD06504B030414000608080001586E488614BCB851000000570000004700000044353246384237
311
362D434645452D344345442D413341322D4233424630414136394443392F4173736574446174612F41737365745461626C654F66436F6E74656E74732E62696E536160603032377734323273D535753272D335713231D0B5343674D435B7743130343732B73432721202AACB4D2C492DCA4CCC492C28484D2C4ACC4B4E050A
311
82012F90744FCD03CA26072767A4E6260200504B030414000608080001586E48F865834058000000680000004500000044353246384237362D434645452D344345442D413341322D4233424630414136394443392F4173736574446174612F53747265616D56657273696F6E5461626C652E696E66558CBD0A80300C06F73E
311
4B117FB66E451741D041DC5BF98480A492E4FDD18EAEC7DD4555D89EF28DF51A0B1BD8340C4DE7DD848B988C0ACF0649566493F2408C508DDEBB99D5129FF8F1AF8CF5B9503E20FAE5A16B5AF702504B030414000608080001586E4813BB0A56340100009A0400003600000044353246384237362D434645452D344345442D
311
413341322D4233424630414136394443392F4173736574446174612F636E782E786D6CCD94314FC3301085FF4AE43DB653104295E30AC1D209242A06B6AB7369AD3A76645F10FC7BEC3603A888A943D7F3BBF3F327BF53ABCFC1551F18930DBE650D97AC426F4267FDAE6513F5F53DAB565AC510E8878C551E066C592933AD
311
76314CE35CEAB087C995AAB3FE30171F5242DAC0D6E173FF183CA1A7C42AE320A59625B3C701384C143A4C07DE01016F78C414A668304F223BE03CC94404C28EE9856CEE6A795337B79BA6594AB9948B77258A52AB6D086ED6DB7C590C63654EB7322D9528C75A4DD1CE9AF216A6FFF2C8B7D62B91955A258A99C9DC415F63
311
EE807174D6006574221842AAB3086150E224D64A1406BF483C616FBD2D2DEB6C0C28C4976C0F2359BC3A22FF79BD3C99B54F04DEE0F5F2387778790AAFC71FF4760AE43131D796937387DCFAFE022911C735924353B68AFE06504B030414000608080001586E48554E5D7FE30000005E010000670000004435324638423736
311
2D434645452D344345442D413341322D4233424630414136394443392F5265736F75726365732F32373741323236452D354232462D344234302D393331412D3739443031373237393232422F7468756D626E61696C2F302F636E782E786D6C4D90C16E03210C447F0571DF05D2AAAA2296FC444EBD549475B628801198AAFD
311
FB42CB21275B334F9667F4E53B06F605A57A4C1B57ABE40C92C3DDA763E38D6ECB2B6717A30B223D609C251B61E343E6461F055B9ED20E37DBC250834FF7291E90A078F79ED3C1990BB6D68D57F709D1AEB611EE50EFEB6EC9AE6A2D50B11507FD00F908F3802B6009766E4E52BD2CF26951CF57A5CE529EE5E94D8B411AFD
311
811826EF1341C1CC1CF625F56FA416C336BA153F9911819B87D7B4E8A6D1954A4F3F21FAC91DB23907EF2CF592043A025A3A04366AF10F1B2D46DA3EFEAAE87334637E01504B030414000608080001586E48A233C2345D000000800000006500000044353246384237362D434645452D344345442D413341322D4233424630
311
414136394443392F5265736F75726365732F32373741323236452D354232462D344234302D393331412D3739443031373237393232422F7468756D626E61696C2F636E782E786D6C4D8B490E80201004BF42E6EE76F3C0F216234B883063108CCF170C074F95AE5473F5C4C06E932E4F28601967600677D21E9D8092EDB002
311
539227A2FCCB80E1168D80A6417297A89C5D6963B7129A0D1E8F2EE73AA7B62BBEB8B27DE50B504B030414000608080001586E48BE89762363000000880000005B00000044353246384237362D434645452D344345442D413341322D4233424630414136394443392F5265736F75726365732F32373741323236452D354232
311
462D344234302D393331412D3739443031373237393232422F636E782E786D6C4DCC3B0E80201004D0AB90EDFD75167CCE820A4A845D83603CBE602CAC26799919AEEEE0D965E2E908050C6D0FCCE04C8BC355404EB6198129C92351FAD580A10E464065907C8D948F8F166375F655BDC3FDC3B4E530A176BE7057BDC43B2A
311
593FE403504B030414000608080001586E48D65F0C227E000000A30000003600000044353246384237362D434645452D344345442D413341322D4233424630414136394443392F5265736F75726365732F636E782E786D6C4D8CD10AC22018465F45FE7B4BFF562638C7A47A8FD1DC909C86CDE8F1D3D845571F1CBE7354F7
311
593C79DBF47231B4C0770C880DF738BA30B790D7899E81745AA518D7BF1B90302CB6858A41AB39C5FCDCD068A721FB4ABD0B8F0DA2103DE2E94A8F066FB4310DA3F2C07B2AE485718142229A62ECAB52E6D72B5BF3FA0B504B030414000608080001586E4881ADE2BB070100004F0300003400000044353246384237362D43
311
4645452D344345442D413341322D4233424630414136394443392F536368656D61732F636E782E786D6CCD93BD4E042114855F85D0CF00AB3166C3B08585958D5AD921DCDD250BDC093F46DF5E18A7D84DECB4D80E0E5FC839878BDC7D064F3E20658771A262E4944034685D3C4CB496FD704FC94EC98458CE304AA20E30D1
311
2E53250F09EBBC4A16F6BAFAAE7A174FABF88021607C3147089A12E375CE13CDCB76D4B5A0857C1AAD2E7A1463828C35196837141760BDC124D0052C551B2EEE067E3388DB5721B69C6FF9E64DB24E2AF98EE857DEC502096762B02D62B3C325EBC74AD6E456A667A0EADCDBD8DA90AC114AE6925A072B59BEE646EA79F6CE
311
E8D2AA620BF8C328C97AD48BC08F102139739D892FCCFD5BE4678816D2537BA5E4B4BFCEE4BF79FC5B016C99FD3602FD2BA86F504B030414000608080001586E48E3603EBE7A000000C20000002C00000044353246384237362D434645452D344345442D413341322D4233424630414136394443392F636E782E786D6C6DCD
311
410EC2201085E1AB90D9DBEACE05D09878023D01A1D34A8419C380F1F82DA68B9AB8FDFEC93C3D7C52546FCC12980C9CBA232824CF63A0D9402DD3E10C6AB03A3397DD192872090D3406ABE7CCF5B5D18893ABB1690CF4DCF02282E5EA8A5BB96FFE536F285CB347F95BEFFE81C9ED5AFF9D5B1FB575BB00504B0304140006
311
08080001586E48ABBE265180000000A300000007000000636E782E786D6C4D8CDF0E82201C465F85FDEE29D332DD0087FC790F97E89808CDA4F5F841F3A2AB6F3BFBCE21DD6775E86DB6970D9EC2E5540032FE1146EB670A719F7003A863640B61FFBB01F2C36A28640C8CCC5B88CF038D661AA2CBD459BF1C50DE4ADDF4F7
311
1A0BAD14BE0A2531AF7889FBAAD705E7752B459B8C7356D2FC7A69739E7D01504B030414000608080001586E48CA1DF9C9A900000073010000130000005B436F6E74656E745F54797065735D2E786D6CA590410EC2300C04BF12E5DEBA70400835E500FC800F84E0B411AD13252E2ABF27A55740421CEDDDD9B55CEFA7A117
311
778CC979527255565220197F75D42A39B22DB652EC9BFAFC089844F65252B2630E3B80643A1C742A7D40CA8AF571D09CC7D842D0E6A65B8475556DC07862242E78CE904D7D44ABC79EC569CAEBA537E3521C16DF5CA5A40EA17746733E0B6615DE7217475F386F18B9481C510F1F021CD9FF027EA0E1F5C4E609504B030414
311
000608080001586E483DEE336E64000000790000001B0000006175746F6465736B2D64657369676E2D7061636B6167652E786D6C35CBC10E83200C00D05F21DCA56CA76D41FC96062B120735B69A7DBE268BB7777961F8D5AF396893C2ADB70FE7ADA196782C2DF776D7A97B5933C430F15651E5469C55D70F80A4992A3ADC
311
954792C525AE70A1E4D6AD9816CC044FEFDF01FE3FDE907802504B030414000608080001586E48BA2E9DB8F8000000960100003700000044353246384237362D434645452D344345442D413341322D4233424630414136394443392F4173736574446174612F636F72652E786D6C8550CB6EC23010FC9568EF4EEC24840639
311
4640E917F4D49B659B6041ECC80FC4E7D726A9D49E7ADAD5ECCCECEED0FD73BA170FE5BCB666005262289411566A330E10C305BD41B167D4591B7ED1A0307C52036418181D9D8DF30A096B8232193556AA15E4DEAB0085B8A766002FAE6AE2258F2131FCAD9CB9B8F15195A45C788CC6A8E52AD532B9E98B560E58B36DDAF3
311
0677E8E37CC4A8AD49878EFD86A0BE3B75A7BEDB92F6D0D02A8B190D7AFAD92E9CE2414960354E0ADC20D27E12B2C37887EB2F5A6526A33EB8F4F3BA347F07EC90AF7EE781D36A99FE718DB3FCDF356A139A7A755D141E184947BE068C5639A5545E11A69A1365DF504B030414000608080001586E48BA062929F30000008E
311
0100006800000044353246384237362D434645452D344345442D413341322D4233424630414136394443392F5265736F75726365732F32373741323236452D354232462D344234302D393331412D3739443031373237393232422F7468756D626E61696C2F302F636F72652E786D6C8550CB6EC32010FC156BEF60B01DA78E
311
305113A55FD0536F0888831283C5A3EAE71762576A4F3DED6A76667677D8F16B7E549FDA07E3EC081413A8B4954E193B8D90E215BD4075E4CC3B177FD1A0B262D6231418389BBC4BCB064967A3B605B54EE90D1421E808957CE46684206F7A1658A49819E18E1721EF62D298E295C7594A466D52A3B29BB91AED81B7FBB6BB
311
EC488FDE2E2782BA86F6E834EC281AFA737F1EFA3DED5E5B56173167D1CC3FDBA5D7226A05BC2159415A44BB774A0F841C48F3C1EAC2E42C449F7FDE9696EF801356AFE81FB7B4A8FFDD92B1B16D36B7551180D37CDC73C0595DD2C9E5195DAE2549FE0D504B030414000608080001586E48DAE0ACBAF90000009601000066
311
00000044353246384237362D434645452D344345442D413341322D4233424630414136394443392F5265736F75726365732F32373741323236452D354232462D344234302D393331412D3739443031373237393232422F7468756D626E61696C2F636F72652E786D6C8550CB6E833010FC15B477830D8494C8384AA2F40B7A
311
EACDB51D62056CE447D5CFAF1DA8D49E7ADAD5ECCCECEED0E3D73C159FCA796DCD00A4C4502823ACD4661C20861B7A81E2C8A8B336FCA24161F8AC06C830303A3A1B970D12D60465326AAC541BC8BD57010A31A566002FEE6AE6258F2131FCA35CB878F05195A45C798CC6A8E526D532B9E99B560E58B36FDAEB0E77E8F57A
311
C6A8AD4987CEFD8EA0BEBB7497BEDB93F6D4D02A8B190D7AFED92E9CE2414960354E0ADC20D2BE1172C0F880EB775A6526A33EB8F4F3B6347F072CDCE3FC61B89E68B54EFFB8C645FEEF1AB5094DBDB9AE0A0F8CA4239F0346AB9C522ACF0853CD89B26F504B030414000608080001586E48BA31B60C0C010000B10100005C
311
00000044353246384237362D434645452D344345442D413341322D4233424630414136394443392F5265736F75726365732F32373741323236452D354232462D344234302D393331412D3739443031373237393232422F636F72652E786D6C8590CD6E842014855FC5B047F951A91364A253E709BAEA8E2863C98C60049A3E
311
7E61B449BBEAEA92C3397CDCC3CF5FCB23FB549BD3D6B400E70864CA8C76D2666E41F037F802B2B3E09BB5FE970D64462EAA05490682CF9B0DEB218DD67865926AECA40E513AA73CC8C6473CB4C08D1F6A91B90C3E3ADC3D5FE57897B3CA71BEFB040F414F47544FF1357DD36A0382325A0E15AAE175E8112C09AE61DF5418
311
36F5A5BE3435C365477991C2827BBDFCD0C74D49AF2620088A0944212EDF303E217442E49D17C929B8F35BDCF980A6EDA29DB18E907A80554FAEB0EC4B041B8A3BC89A578419610D213D2FF6E01F6058A7FF81411B4FC901DC130E081CFFFFBC10BC4805C6F16C37CE54B6F806504B030414000608080001586E482E72FAE5
311
F9000000960100003700000044353246384237362D434645452D344345442D413341322D4233424630414136394443392F5265736F75726365732F636F72652E786D6C8550CB6E833010FC15B477830D8494C8386AA2F403AA9E7AB3CC865A0936F2A3EAE7D70E546A4F3DED6A76667677F8F16BBE179FE8BCB66600565228
311
D0283B6A330D10C3953C417114DC591B7ED1A03072C601320C824FCEC665839435014D468D1D7103A5F718A050F7D40CE0D507CEB294312486BF958B54373961C9CA9527788C7ADCA47A4C6EFAAAD18168F64D7BD9D18EBC5C4E94B435EBC8A9DF31D277E7EEDC777BD63E37BCCA62C1839E7FB62B8732E008A2A649411BC2
311
DA37C60E941E68FDCEABCC14DC07977EDE96E6EF40BCA2B7D129F4BC5AA77F5CE332FEEF1AB5094DBDB9AE0A0F82A5231F03C1AB9C522A8F0853CD898A6F504B030414000608080001586E488C828666F7000000940100003500000044353246384237362D434645452D344345442D413341322D4233424630414136394443
311
392F536368656D61732F636F72652E786D6C8550CB6E833010FC15B477830D8494C8386AA2F4079A536F96ED502BC1467E54FDFCDA40A5F4D4D3AE66676677871EBFA747F1A59CD7D60C404A0C8532C24A6DC60162B8A117288E8C3A6BC3130D0AC32735408681D1D1D9386F90B02628935163A5DA40EEBD0A5088476A06F0
311
E2534DBCE4312486BF973317773EAA92942B8FD118B5DCA45A26377DD3CA016BF64D7BD9E10EBD5D4E18B535E9D0A9DF11D477E7EEDC777BD2BE36B4CA6246839E7EB70BA7785012588D93023788B457420E181F70FD41ABCC64D407977EDE96E6EF80BD2F777A5AADB33F9E7196FF7B466D42536F9EABC20323E9C465C068
311
95334A650930D59C27FB01504B030414000608080001586E48187A3AD803010000D70100002D00000044353246384237362D434645452D344345442D413341322D4233424630414136394443392F636F72652E786D6C9591C172832010865FC5D93B0A9AD8248364D4E813F4D41B958D6112C111ECF4F18BD54EDB5B7B82F9
311
F9FE5DFE5D7E7E1F1ED11B4E4E5B53008B2944683AABB4E90B98FD951C203A0B3E59EB7F6010193960018B0C82F7939DC74DEAACF16816D558859B289D430F51F70897025C77C341C672F68170F77894DD5DF618B378E504F77AF8B276134A8F0A444A594E6846D8EE99B113A5279ABEF06421059FB5F159BA35C3E1155564
311
471F2281D8F3647D0DD4ACD5C66815FEA8AF1A2710977DDA1EAAA79CD46DD3905DDD5C48999529A9B2AAA565991F2FF531140966C19D9FC264B622CB0CFE6A5F8DBF92CDA3FA67B2D5E140B0EF50C93266C193CF1D84735989F800504B030414000608080001586E48DF2EA40606010000B201000008000000636F72652E78
311
6D6C8D504B6EC32010BD0A9A3D36D88E534798A889D21374D51D35C445B1C13210B5B72FC4546A775D0D7AF37E0C3B7ECE13BAABD5696B7AA00501A4CC60A536630FC15FF113A02367ABB5FE170D9011B3EA21C1C0D9B8DAB06468B0C62B935063A5CAA0704E7940C3141F3DB8E143CDA210C14786BB158B186E6254052D36
311
1E675ECF3FD26155C22B09BC22B4C5A4C6B479A5F440C881546FAC4C4CCE42D032476919D3F555AB1578BDAF9BCB8EB4F8E57222B8A9A2C1A9DB51DCB5E7F6DCB57BDA3CD7AC4C62CE9C5FE39FB349ECE99113F794CBCA6DC5D9BBB55326C4521259337D0127AC4C8B3FA5C322FF515A1B5F57D9705338E034167A2C6270BA
311
601C8FF3C699AECDBF01504B0102140014000608080001586E488B307015DA000000200100004F000000000000000000000000000000000044353246384237362D434645452D344345442D413341322D4233424630414136394443392F4173736574446174612F446566696E6974696F6E4974657261746F7250726F706572
311
746965732E62696E504B0102140014000608080001586E48BCE219C3340100003002000045000000000000000000000000004701000044353246384237362D434645452D344345442D413341322D4233424630414136394443392F4173736574446174612F496E7374616E636550726F706572746965732E62696E504B0102
311
140014000608080001586E4888E57597CD3F0000904100006B00000000000000000000000000DE02000044353246384237362D434645452D344345442D413341322D4233424630414136394443392F5265736F75726365732F32373741323236452D354232462D344234302D393331412D3739443031373237393232422F74
311
68756D626E61696C2F302F67656E657269635F706E67504B0102140014000608080001586E487D09B9F3790100005E0600003D000000000000000000000000003443000044353246384237362D434645452D344345442D413341322D4233424630414136394443392F536368656D61732F436F6D6D6F6E536368656D612E78
311
6D6C504B0102140014000608080001586E48317D3058AB040000AB1500003E000000000000000000000000000845000044353246384237362D434645452D344345442D413341322D4233424630414136394443392F536368656D61732F47656E65726963536368656D612E786D6C504B0102140014000608080001586E4879
311
B77F2750010000C203000045000000000000000000000000000F4A000044353246384237362D434645452D344345442D413341322D4233424630414136394443392F536368656D61732F52656E6465724D6174657269616C536368656D612E786D6C504B0102140014000608080001586E488614BCB8510000005700000047
311
00000000000000000000000000C24B000044353246384237362D434645452D344345442D413341322D4233424630414136394443392F4173736574446174612F41737365745461626C654F66436F6E74656E74732E62696E504B0102140014000608080001586E48F865834058000000680000004500000000000000000000
311
000000784C000044353246384237362D434645452D344345442D413341322D4233424630414136394443392F4173736574446174612F53747265616D56657273696F6E5461626C652E696E66504B0102140014000608080001586E4813BB0A56340100009A0400003600000000000000000000000000334D00004435324638
311
4237362D434645452D344345442D413341322D4233424630414136394443392F4173736574446174612F636E782E786D6C504B0102140014000608080001586E48554E5D7FE30000005E0100006700000000000000000000000000BB4E000044353246384237362D434645452D344345442D413341322D4233424630414136
311
394443392F5265736F75726365732F32373741323236452D354232462D344234302D393331412D3739443031373237393232422F7468756D626E61696C2F302F636E782E786D6C504B0102140014000608080001586E48A233C2345D0000008000000065000000000000000000000000002350000044353246384237362D43
311
4645452D344345442D413341322D4233424630414136394443392F5265736F75726365732F32373741323236452D354232462D344234302D393331412D3739443031373237393232422F7468756D626E61696C2F636E782E786D6C504B0102140014000608080001586E48BE89762363000000880000005B00000000000000
311
0000000000000351000044353246384237362D434645452D344345442D413341322D4233424630414136394443392F5265736F75726365732F32373741323236452D354232462D344234302D393331412D3739443031373237393232422F636E782E786D6C504B0102140014000608080001586E48D65F0C227E000000A300
311
00003600000000000000000000000000DF51000044353246384237362D434645452D344345442D413341322D4233424630414136394443392F5265736F75726365732F636E782E786D6C504B0102140014000608080001586E4881ADE2BB070100004F0300003400000000000000000000000000B152000044353246384237
311
362D434645452D344345442D413341322D4233424630414136394443392F536368656D61732F636E782E786D6C504B0102140014000608080001586E48E3603EBE7A000000C20000002C000000000000000000000000000A54000044353246384237362D434645452D344345442D413341322D423342463041413639444339
311
2F636E782E786D6C504B0102140014000608080001586E48ABBE265180000000A30000000700000000000000000000000000CE540000636E782E786D6C504B0102140014000608080001586E48CA1DF9C9A9000000730100001300000000000000000000000000735500005B436F6E74656E745F54797065735D2E786D6C50
311
4B0102140014000608080001586E483DEE336E64000000790000001B000000000000000000000000004D5600006175746F6465736B2D64657369676E2D7061636B6167652E786D6C504B0102140014000608080001586E48BA2E9DB8F8000000960100003700000000000000000000000000EA56000044353246384237362D
311
434645452D344345442D413341322D4233424630414136394443392F4173736574446174612F636F72652E786D6C504B0102140014000608080001586E48BA062929F30000008E01000068000000000000000000000000003758000044353246384237362D434645452D344345442D413341322D4233424630414136394443
311
392F5265736F75726365732F32373741323236452D354232462D344234302D393331412D3739443031373237393232422F7468756D626E61696C2F302F636F72652E786D6C504B0102140014000608080001586E48DAE0ACBAF9000000960100006600000000000000000000000000B059000044353246384237362D434645
311
452D344345442D413341322D4233424630414136394443392F5265736F75726365732F32373741323236452D354232462D344234302D393331412D3739443031373237393232422F7468756D626E61696C2F636F72652E786D6C504B0102140014000608080001586E48BA31B60C0C010000B10100005C0000000000000000
311
00000000002D5B000044353246384237362D434645452D344345442D413341322D4233424630414136394443392F5265736F75726365732F32373741323236452D354232462D344234302D393331412D3739443031373237393232422F636F72652E786D6C504B0102140014000608080001586E482E72FAE5F90000009601
311
00003700000000000000000000000000B35C000044353246384237362D434645452D344345442D413341322D4233424630414136394443392F5265736F75726365732F636F72652E786D6C504B0102140014000608080001586E488C828666F7000000940100003500000000000000000000000000015E0000443532463842
311
37362D434645452D344345442D413341322D4233424630414136394443392F536368656D61732F636F72652E786D6C504B0102140014000608080001586E48187A3AD803010000D70100002D000000000000000000000000004B5F000044353246384237362D434645452D344345442D413341322D42334246304141363944
311
43392F636F72652E786D6C504B0102140014000608080001586E48DF2EA40606010000B2010000080000000000000000000000000099600000636F72652E786D6C504B0506000000001A001A00210B0000C56100000000
310
504B030414000608080001586E48000000000000000000000000370000006662782F37393942414146382D373038412D343931312D414230312D4235323831443939453233352F617474726962757465732E62696E504B030414000608080001586E48000000000000000000000000350000006662782F3739394241414638
310
2D373038412D343931312D414230312D4235323831443939453233352F76657274696365732E62696E504B030414000608080001586E48F270F1330600000004000000360000006662782F37393942414146382D373038412D343931312D414230312D4235323831443939453233352F747269616E676C65732E62696E6366
310
60600000504B030414000608080001586E4888E57597CD3F000090410000420000006662782F37393942414146382D373038412D343931312D414230312D4235323831443939453233352F7265736F75726365732F322F305F67656E657269632E706E67355B773CD4FF1FBF73E71C0E67EF7576C9DEF3EC995D46C6A1EC50
310
46649CBDF79E192942562825CE965D8A868C2842C8DE9FDFD1F7E7F138F7078FCF6B3F5FCFD7EBFDFEC41B196891913091804020321D6D7513FC77D8C5070EC3FFEE51B21F068154CC75D455CC028A3EA68992803810109FDDE5D5CEC5521B28A1B422BF80741695D5B529DA1C2D058AD2388BDA9F476F7C2CADC939304173
310
DBF48A452BF8A700C0C70C3D121C1AA15A5270C22E2B9E28763651F7DA0D12CE11077B2ECD0D560B5E3DE2368B1E65C5E1C87384A4CC5F2D9FB8BE39E9B77C753783A37998F5CEF1B4FEE553463245C9712270880DF339E0B882A6BA713D865F6F384C842D440934EF264F4A304F8DE4EEFA1E2BF5E2D91F5ADD9613D6E31D
310
DB33ED31DB1D7916CAF091286EA3D31B9CFECB78BB0060245B943C4C040119FF780A74DD308BA9D028678674EB5504ECF284EE814DAED07440BAF649BE4B55DA2890F4D73E2D489A59EE54FDB0A85B59F2F52C4858A02705C4815A792B0C4A996A2023ECB195073E115E3E3647F64243A8338F2000BCB58DA5692C7E7C3D41
310
3F963FEDF3CF00FBB0F831A9D51360FECA43819F527B89FA260EB63C5DA676830AA3626A3693B23F1A17A0DFFCE3EE164E31B5365EDF0C89EF64D8E38AB0BA9A1117D7C3A0EC44F44F4023095E80BA610DE336D0F99593A88BFC5306E72DF98F7FD132ED95878DF2964EA7E43071359FD83B2BDF9C6B5BDF768F0F3C0FC351
310
199526F53D9460A34511F75D1B63E488178569472C91A94497807A3FD4A390C6558F26D416365C3656DE6E769DA9D8FC73774E1709812842DD8EF96AED1960F79D21B395CDDFE6F92CB4EB962A4668C76990E2EF29798C8941D67DA50F4A5F947872460F1F6FDB794E8A29FD7AC0C0D6E0714339CE258FB17AE8535221E346
310
4A10F29A0BE5EEECEFC5675926A89F49EB14E5711894F6586DB5754EB4D5DA9C6437EBA57DB97A24F8B8A8DB295FFD73266CF57E82694DF5166DDF93573AFE9C9C5EB05F8FEF8E89E0A8917B0B3724DB7BEBB53252581EFC3E38166BA131A3A5B42FE2AD00A769BBFA4458D2DE7822F8C4F63D0B8E21B285AE13325F3410A4
310
35C648C9D91FDEB109E73CEDA7BC796961AF79175E1A3CE4C5E8B0D009B0C9E29EFD98BC8E97554E3D8D838424E270F7685226E5AC268E021EDE3522D583E8F20C0BDE2959EF5BBFEEDAB32FE9A3ED0E39F211A86AA9DEBFC68182EDED132AB8BB794442D2D7EA9F4D8BFF52BC4D55BB165124EE90A42D101E67BBBB292FFB
310
4F66DE5BF2300E44546757DA7CEF8932BFC9F92A0707953491A55C5A5ACEDABD9FA1AEA01BAC3DC5A24E22E7C47213493996EFBC369D086ED9397C9BA6C7F9855C7BD5E15BFC8C53DB3D2A4C5901A57ACD2FBDF4D1676E95338B2C2BCE65FDA4C64F5FEFDC7D9CA5AA1FCF11E193F2FDABF0F4916BF13FB916A224380E6462
310
A9815F2300DC49CC4DF8D055CEF76462F4B7A7ACA7365C2707891370BC1D0AA6203C44CCAB47084FEC057F27FFCD57F89B8B9852459798A675C66BD7CE572CAF71FF7E6D7ECF7BF62CAB7B3F1107DCD04DC55A3F9961700286141C94A4F771FEB2BCDA2DDEE0CB0BAE402FF1DB0100F8E475DFFFC074DDB4498AB7D186A765
310
4DDB1CB680D703D47CEB4E72F8CB13D86A4AA68116E26387B93FD6738779B34FEDB8E517EDF2BAF28D9BE93A1D3A164320E07D42E514725C29515FF361754213EDE06B079A2E99EB1CA82A02019EADEEB87B9AF005BD04BBCECB14AACD6B24EFBE482194A97DD32400685FF1FEF1544D1B14EFB1E7F08E6D2CD2AF52DE757F
310
35F5E62332EE88EA26417AD5C3E0E319D68F25414E6D672BD4522B278C57D18F0113921C71D96527E091F00CEB15AE23D24667369BD3CEFA10C7549D930890BA4366F4EBC55F01F746109F98ABCDD5A3EE06619C6AD78AB33E48E4C9BD21BF7478B385EC05C4F8987E2C1BFA0A60EBEDAA0AE0B015C2720ECE180FB6F2DEFB
310
EB822D96338C9B63822183BBF52FB664A7AE57003AABCE512BF77E7E31BDA2E739AC4C131657DDFE5225E900FB56CC01CDE808FA4A9C9DA16AC679656BB64796283D89812B8F91136AE18EE5EBBAF47A73BE3C153EB5D4CD491B4BFB4FE690A4CF9ABA08C0D8AA64220C438C96EA6CA80B58FE5761E697B3A292EB9FBDA502
310
FA863E49FE694ADDFFF9D62C520BDD1A22014147A0903A05B9B729F54272EF83931FEEC057BFF8C8055C279EAC5C0011804828734024F6CFA319C9CC6867C727184465CD9BB7ED386AFFD96B294A85E3802FAE47244602D8273615952B98C4F23F7EAE4463D9D638EEE374A20959E0FE519C4CFB0FBFE5DD80C2AA3F9DB961
310
D1BDE57E67C9BB47B77FDD74EE3094F5DBBE3EBC1FBDB7393F5116263009E2EFE1AF9A221B2AE234C902BF70E9F280ED23E73908361565964333A3F01D0B006AF32FB21AA1316744B489D5A198E85299241735BE559675130955C902A8ED761FC0DBE337A9F91919AF5CE32AF902ADF9AB2615E00E8A94586BA1A90839B618
310
32FF1BFB76D2EFADE6DB1BA04CCAD3DA649E7E2A0219F592E22F2AD54847EEA8E42271011E9074F8F3DD9FBA6CDF88FFC9FC7E811AD1CA8F4557CE4AFC7BBEDCF0114A48689F20A584520C74DA8127124B767E2FB91A6B186246727BE63C9445BAE02088D58B8EFDC0F1072407CD9B89A13F6303B4A928F593AD489B58E686
310
9325790ADC406036C591729FE14021F94B7796BB11848D463536A092A26F077F94639F7CEEE2A724C66EC885F4A24F8B8A0AC321F8FD149BA529460FAA34E4663C02D41FDF80BCA222D42F0ABFF8490F4FA74C673807C2051D8E467B47B616072860069A9A303ABA9B319D58404461401B0A0F9BE5E1E151C14BC33B32ABE0
310
3DDE91708DFAEB15E7C0D593C86BB7D7EC17BE56E57975F077BFD5525F3A1A361D584A75E08CF29FC7B44B2B3085014F3A5A14517377C3F6B8F37E59514C3B12F8AACDEDDA4DFC49BE5710101534CD6FB6DE15B50F11A09472AABA727F0C49D9CB906B158030065F48EB3625E010CEC1D511D0053474B11E6A4F01C0D6EF1B
310
ED3A944FDEC70E0DDCDC756C86545910E0DAE3BE3AA9A404574C2995CD5CAF9549226BC94B4F4F0F5F9086F418F6B32346464610D8BC7391D3C3A3CCF04CFC1FB2A3A3170E369511868F14EEA4E5E438CC73DB1F3248AA94B6B2FF33B222FF3D1E7BF146CAD229770158063BCE4F5391964DF62F7E52A7BE0EEA829C9E13C4
310
C147D6F93FE59E111DAB5E4594D6F3CD1AD375EE039930EFE5AF2BB2D41C83C7DABD8C659BAFBE8FAB392CA634F3D15C1D945DB4588D2B0824A4EC928AAC565557CA2F0DAA588CA5BE30B3A8004F7BF005E96CBF891D7F18112A3619FDF530DC8AA64954258E1811789B5189B49B4EB53F5F89F7D37523894F3EB57B373763
310
C91E502F52CC99EB7BDDF933FC324C4FFC2561DFFA7339FAFDD0A4BFBE6D3A8FF9ED1FC49898139864602458968913181918F719CCF5A68B2EE9C1FF050E34E63107003B8120FA982C21B30A874E4F5E4B38D5A8290C4B8D9BE48A0BE31EA995BDC37AC6DE90BA17D259DEF53605D55922FEB1855D915B659FBEB350EE0DFB
310
2F9F766E1C84CC8964B75D08667445EAB966015F63A18A9E0A325C1B3DC628C0D3CB60F767FA93CC65F25458BD23C3B312716E5F40E5858AC06EBA9AB14F95DB99147B832069201541D09A0D856E12C629CF32683760EE855537D1901988D5EBC156676C7DD51D7207CF3267AF1D76C2AD867315E44618015313A98B19941C
310
696FED3461CAA9B5415F918556D7802EDACEFD6B2E45853A9735DFC9DBF7E440F9319F8B6805A973BCCDC76C069A9144E51F187EDCC12FC31B5DEAAF0A76137199B106EC84ADA6B6EE697D4E6A96E007417F4E880E8B1E89B4BCE9D81EF611E2ED8F0C1A6C25F620FAFAAB656A7C42D464880E8AFAB0E0FC8EA38CA9A8AEEA
310
EE3E4648BA4680270A89743CDD3E6C6CBF34B7B640EFA285ABC7EA0A1E28F3CC963D114A80123EE66D0AF7D5380EB41909B605AB4765B709B808590458157E69BA1378FEC4B48CAF6A730E3BE3C5EF2DD1A5EAF94B1DDE50CEB55DDFD7EE9A16747FA4B223359FB1FCC69E1194892BABB93A1D5C4E807AC0EA2E30180811E7
310
7A2291F6E7F7FAA5E0F60215BC6024E48DE436C511F0628B8CA189982D4D83CCA17D305A7E923C37941CFDFDCD93ACAF735EF5F0E61BBD3E6C41A59B242790D3A3BAC7064DCD89AA2E37214EC839820949D5CAA31E240D2948E48F690298974A96BA9A8432BC90F5071D6537C9666EA4564796B7AFFFA548077BEEA75F6308
310
3435074BA182F3699557397F71548383FDA8CA34D99B981E72835ECDA5DDDC151315173D05A21F651AAF8524E88209E2E7A737ED1045800CE3390050BCFB8BE588DF111617874C62575039CA588EEFDEFEFE319B739DE2EDC147092A262611E159650E787917885EF08F1F51B8F2D8A71D60B58B190FEF9541A1BE94BC19FE
310
A50784DA1419FE4B0FB51B8D36B5FF8E1286FD8AF42B91E59A5F1CC4D60174E764045FD8C57B18209B217F89A62252BD20BE0E63E12B8E8F029FE19E0E8D0870F58721A557082250D5424F7909369376E41666C0EE77CD87CB283F661D5FB6D0DA023CB67320A20DC7BE661E9E1BFE5463085C557DA1FF9BE835733766C3D1
310
39F2CF9E2208873AD0EB4814DE9E6BF2CAF81614D4D43906ED1C05A3265CABBFE192770FC2F64F940CB6B17B5F166F133C9AEEAD2641807C3E69515171DD74C4A85311513D6EC9530B3B601B6BA3EBFF3B5C3D2F7D69765141E345F75433953D013ADDF8F6AA7DC3F4A7563FE5C7D367937E2900D7EAD0F9FC9A4A1A9B5BDF
310
1FEF08532660C01C5D6DE22199AA774383E306DAB87E301ABB7D213887F9869D4942D0D71E94B27EDF216A318BD488D45DF84529EF575AF3C3938C0AAA0215B01994153E2054A0B894DA5C784980633AAD48576957CF4AEAEAFADC7C587368551C73DBE1E57C58AC713303A8BFC258BD04B51724459FF9E24C03A81E0E0679
310
CEB9B348C0DC998FEB9C6D6EFA77D247CC8F92D3848599ED89A23218D0636465AD1CEEB7DC140D7426F83491C4E8E8281C2FB35240918FFECE880CA2A42D70E8B20B34DF5221C7DB0CF90ECCB9C745B37A47E9B716FF7A97B7A252C1F3814DC7B1E1A7F72B8751D524EF7CAE45B0C73B3BE7D08ED39781B380DDFC9AA4A474
310
9C9493DB5BAD07A6EA6C092FBD0E85DB004DF06B8C9D3089C5320187E4CE1846158C7EA7DDAE8AD9AFFF21AA3A1026BB06A259845E8232DEE62811A4DA9CEAB3A4887320B76E2AE5615EAB7BDF738CBDD01F1E64064BC13D9EC53576751CA8CACD58B3CEB0E6CA585BD089B2A59B9FC101403387AADBDBE70586B93D64BF3A
310
D4453EF9C3B6A93817E8346991798601344F79A83C51F3D50F7BF2683A3605F51A72449489E0EE6169C749C60B1035651103AEE24D24E51A759C840DD3FC6504DA6FE107510E447B43461C79D22970B75DE5E1BD3007D1AFC619A4A4A69B5626AF5E9B8374E20677F77E2F8E73DF868E8BEC7EBA7B6A75EEF7205E1AB9486C
310
B642741D6E03FF13FCCEDB1C4AC129886268B01CDF4B124AF797CF784F3C6DEC97A17D4B558070A0F1C04DA4FF9BDBF34159AEFE958479824B3F58EBD1E19088A2AFDE501B6F2052368A3FD0E650A179EFAB1561E1D27527077136E652676C3670F42DCB3352F48F6BC86D2C3B0051727E41A0A4DC6CE2BE9D47F5CAA2935A
310
3C0539AF080665997194ABECD723B08129CC5B6B21D2E7D54CD4D12610E7E9FB8306771A89576C7A982002775ED44F3F744CF21EEBB27A631671D921938AAEE3EB0D19CD1E083727F607823E817BF599DCED5394E37EEBC2E88782E638920CA641EF74D4CDFCDEF06F4278ECB18E31E7E9876F2D783C8BF429C75395F57E98
310
C2B495A3DA077EB3AC3C158608B6B57FE3EA48484D9A480096FCEE0DE880950E7E5A5714131C5C41AAA29FD19AE81AC145FA1B9E85C7169A5AB837B213493DF7E9AA4B5FBF9CDEB36EBD21EF1181B7CF7366AB2A951D01E37AF4EB835D1BE8C117CFBE7625D2EBCDB0B20C5A4B45CED0BCDE3EE8DA9DA78C2E21DEAAFFD119
310
7E463C33CC6A80FB785669B856EFF7A8CCCA2841B5A5369173320B1170C368B2748D81062EA0296E5E2D95D7667A4A46D98A6FF475C76AAB0A8C8D45E226FAFC9FE0133EA9F60111F99CA81ACE03A1D14C89E8B0D69079C91464FA1D99E651D0EAF606F345C42A8A1AA9BA391031582B96D5B4176A77AADB01F12FD298A75D
310
EEBB2C82F0B8650E880722F8DDD90C56A7A058E5FDEF1AC93545BA27367C76F5D8F9690CB6F8DAE141EDD7971F0FB548A2AE435F224D6E5954CA155512F7332029D5A1230854B79F258EC5FFDB09F5F6343A8EB193229B7F7E79B3E48F8E183860B38C8269D1B53738FF1E0BACF6AADA6D4869E9DE708E79B5DADCC09B1BC7
310
6F649731CFAF59A83FD8BAE4C749D66FA87A3810D4D62FFE826FA400C0F325D2BC0F3CA35F5847B82A2ACC7961745C823E4D863D54460AF792CE6F79B5C7A33B25C3AEA6CDE15A919B6367D781E9D44F61BF828672594A3E1D9EDD6DF179A81F27EAC05B936575D73E05C209DDD2115CFB705DF9BBF3C911589B3640735E9E
310
618FC9C36A7326C82B2205E244C55D56FDB9D5DC93CE958D4BF8174D2B3DA54CB3C09F2C2A6DFF73D23B2197355761AD421EC581284A7EF8DE2CE3497C0C804D49B41DFD6A7360844E5BEFFB495CFCDB97A4595911CDBA623274CE852B5E278AF0BEB1770E9D37CD977B2766A7DED0E94B840E1E95E8C77DE5CB6354AF7871
310
427C28ADBEEF7BA0A28E19DE9ACD75F379FE373EAE6DDDAE3834692F9C2B03B4FCA8FCA9ABE8EEEBEBB725B88A7C90941E850682CA04061A7DF0CE82ED49BFAFFD42C309818FAE14755CAAE78B0F73243ECCCAD7DF58FCB9CDFAE7A4D3E6671A613639130D056C8383C8F4FCF4808C331E544DD26E4755D09EA05253B3049A
310
1E32587CC25D72E073E2CD96D04A71BBCB0038FEC3F53D254199C3CDC67CD66640269431860225392B2CB3ECD0B4498AAE78BA1994246AE1EE78F2EDFB79F6C6CB6B5E279C4D373FBC21CB2698C9ACBBEB6A4BB6B39E16AB0E421CCBFC7654D81ED86022F9BB522146F9F4772E2D0E4FA70120C95A85A417BF5078B232F475
310
4363EB1750B2AC2148EB46B1EA72AD9B4D23ADCBC589D70106C3EC2ABEEED84DFE28E718C6C83502C28E9FDD3B09DA0A6F6F7B72B706A31C9E2A331EE70DA56A083D2177BFD63C55B11D8D949FAFCF90B23A1E24B9B5018B9A17E99F2890EC302F330FE7936E2C23F0D237EC8916F5166AB84B62A21BB0B950146962D754F9
310
2CC2C8877BED8FC7B7B25726DD19545392570B3A2C66B58F027BEF412E552D12A588C4A3CC5C3193FCB3485EFFF700D0B9EEC077754A33DC1FB9E25AF814628F91DDFECB667D3F7690803F38D13F8AE39353523BB08FC6760144AFA2CE28236F65EDBB3D5F59A57D612B99E3D7E5F8A851666BF9B5A6658EFC96EEB37A378A
310
BB0EB3FDDF1303AF32C41BD1C8560745D7BD81066B0D6313359CF488563D3BA3F8E2185D1FAA3EBA1397C9D0E3DD232180A4DCADB6AF25DB3AC3CC26589C8239E66E81547BC7E2F328F9884764CA37EB5DBE390DFC03A5246B456A7C3684C4377D0EEF9A350680FA9A077E8B2957B489E09AB1AD41316944C2254B5984830F
310
691C93CAA767EECF976FA5647538830B5E63236A6F0365C1E0F3E327F24FE35EDDBD7360B0F7374837409F7A6311BECC12B7026D4FA1AE204FA3F5FE904B1F420C7A9044AE58E403E7C4848E7DA25DC9EDAC79DD756FAA26B9EA83ACE8A214A2612A22AFA19DAE7DBAC5F8CDE1292A485F98DAC731A29FE01A3966E96BCB9F
310
B5A4C8830E1B9AF0C54B87FBE221A097036E5D28D1F869F810C06A9BB0AC0612F69AEBAF893C6E7AD59460208BAB3A6B09CA4F6BDDAB8CF0D1F84B72487498395A70DCD754796E271099A567A55CF242BBED64696378BB6CF25EF0FCDB589F3A82F1116D010A9AB9FA4358809EE0C973A2B4229BAA876A70B03AB49CBA7FBE
310
71DB1832FFD32F9BF2C8E98075CACAFB36921235D0F552B6A67E94E094097A5D7DF681B40623DA535ADA7A9AD8E9A62407D7C9A5AE51D62A17A83A23728DE86BB56115804D3F2675F2C6B87541A0FC497BF0CA86420F558C9859EBE9FAD62747E323E3AADC03FDCDDFE7407B09DA90B44E3185723C5381EAEF589765E2F7A0
310
99BA46695BAD60CEF3491B8A171F5F56444F7CE9455312C3498C74173AEA0214EC029833B34B650CBB5A5508D5091665309642791708ECF27CF11DB3D797D6CFE474453BD4BFADB768094B2147814D81C7CBAF8228DCAF5564B5891F5EF6A860EB2E323CB82AB868D8EA048880D63B0DE5341F1B3D53297B928A11E15F25E5
310
148990F710747C3509ED14909C552EBE3973246FCE55D00564D8310BC3EBC5085D08D806799B77D6C57FDF5E55837F9E934F09C03C729271B64F12D0A9F9E938107CAF7BF1EC8CF1BB9B42363D33070F4CACB425E605DDB0A34A12BB936DE286B9887A4E2E558F0886498BFF49C311D96C277CF6A9FC0D75AD0ECC5226D7E0
310
E3572012E56D7FDE4410CEC7A6D0F997F225A2055B8B92E3956E875AE4993CB3D4C9063AF98FD45E1BAB165640A43439A2C9181A7C355B297C0A0CCFFAE19B6FA3C2BA238A885FBC98B8F6DAF4B94B97304878DF4D8BFF6A4AEDF79E90ED4E68F00CD7299F4E0D83E35601AF0CBEF18C1E870E74758FA91F5131075004DB3C
310
FCF09AE1DABC11957FD9808C92E8A678CE9DBE40DDA0E0D1D505AAFBCBA208232BFB6FB3704E8985E61ADE53DE74152F5C7DE74B1DEDCD37DC3E8FB30D7EBA8B9EFFC3606BF90B8D438279CB7709FC7C00D327F41817EEA71CD9E49FE9C8C9A81C70915D9F0F15958EC5AA4C3BBFAF46986B90F188BDB24B89DE3C6F29EC3E
310
6F66D84856EE96A35E657CA41B41EFD8DBFA16AD6E91439EA92B40B21C053249F51AE50EB0B24C770FFAF40DF12C8436366819C48E36547D4E7B72FE2BBF10828583057814A668BDF183F6B2E58DFB151103E56303E63D00F39C27C4661605DB644D19175D02E3F0241E8FC3458D17AAAADB117CE9EEA690D0DB01E634878C
310
04C2C9310B69FCAB831151E3AD293BEF6E46B0ABCECB50F5939B39C613D41E81FAE8D34CAE3C4566B761D37185FE864AC32FCB71AEF39DAA5BAB88609BB980CD2F07A8F941653B529567726E2B2A58D079DD57E1E5E31426CF184A04D7B03B985F276D47406AF276FE32E3328BA866EB1FD39BEF57863A317634AA5FE46740
310
9B3873F5069EF0D71AF00AD189D17BA1974ECDB2D623E9E14086386A6AAB5807825C37B015BFE892AFD154920EC437EB945D958E18622E1E0FE2FA06557CE4BB9BBD05A2D40E774DA2B65473791E314B7D6C886820B2FCFE4AA272B3B8B15E7344A145E8AF919B5454D89D36D413E87211186BF6F645E5EC94DCCE8E1C7990
310
22E4EC9BC86D7A0F2AFB1FC4B2CE48F84B3F49ECE65BAD24CADCC07EFF39AB06BE9E6B27A059938EA7208838455383DDBCFCD967DDE4650EF92A14FF933C975DB20BD7FEEBC4487576485963D757D16340D9599FEB362F775F38CA4185A86F74B629C81B133644A3B18FD056E997E0734F9BE26D11C0AAFC669E2AC9FC41D2
310
81F8B2E1C35AE27BCE05F3DA295488096688719D974DF1B5D182DB7792288697F8763CFB43562C1CDEE11C4AABD5C22B6E33F6F389CFC3477C5919DC0D533F8A7A1846B7ADB60ABDC26C43D0CFC8910B7C15EE22675BD02702ED39DB77A87A192CA7A543E6205B979B9F5A6B512A3CA799E198B2D5797C0AF8D1D872CA455D
310
4D431A7879D4DD76110B5FF7F4176B54477A9EB5E4A5D11214FDA585F0382751D8E2582BA5D2075053298FEB8F1537304E32CB22C2E2B693DC0A760B1DFCA751BDC445AFDCBB12820ED85F6D5298933C7EF1211E9E057684056CDA3FEF3BB6052355E162DF27C59E965A8DDB7F9437EB72CDDA3A090DE65A5B2F50326247B7
310
EC67B73ACC7047FC9B353D6EE990F772207C6EC52B39DC2F3C0754821DAB559F7C1809C7D0DD5B0499D0442E0A6E391B3D5DB46D11E731E6794EC77523FBDAA242ED67F9FA1FB684255671F63C9BCFE6E7E896D51001A6113EF2298BA494E0B0980D1FA5B9D60796554C02256B1E0345FB7C6186B6A19D2DCA270416262845
310
FA4F42DB5D9B0A0B6F07FCA2E56C242522E001E0CEB734AF310FC8BFB57E38E03AACE93B3326A2197891E68452B26A6307FDABFEE0223D3C03C3C73D2D5BC054C8311F12004CAE488E5C29287F8156A2CAA4AD0D7BE6B97264E4139F437CE73ADF52E5134C52B819777C18B323A5924E4F67AFD13B1CDC3A61793A79FAF5C0
310
CEB718E441071E797C6DCCB9EFCF7E4A1E9F3DF3C2F9C9E8294E9586868788C972857FB0556D7A26941A7EEB9B580AD78EC40B85DC906B4120A563CA3B87797ED612D3B035962BB75F6515A393F4CB057F564CDF54F2E5A024514E6A1F901DB80C7E70B1FC05E356A7E72FABF4775B3E3FB8F70A2A8E7B6A94542BB3041579
310
78CCC999E707A29CC795E67A59CC546A5D47B368954CA7B6E75EC9E1F6FC73CE3B4F71F8CB1A6B15923D61EAAEB14626AAA9D04A26EB9C66CD1BE86CA31A5D8703DE04CD1EBCE4F5CCB62F93909AD11E55799A781A956ED27D3E738F4538CB04ADABC7DAEF20BC35BA6A90BCC1DC61BA05F20D8832FFB9BC9B15E2DB838A0A
310
FBB7E0C82A562127E0446894F427794C3037186F622BF24DE1B00AA10A23BFA47B2A180D6DA5AD6F7326FEB8C100C2D7142EB2A0B2A9D1008A09BA343D70E054AB69E2A7EDB783CBD92537FAF4A44D1296AC2792729104B3276C276C951D0CF3CF3F1E6B017720A7B8505A5FF9589365979678C36F1BAF759EAF57C60F1FF5
310
FE9DCF5F8E764FF25A2D06CF25117A8FED51884C13B2B750DB0E4F5E3D64124FCF11F0AD8F1CC3B3DA4B38ED22BF1CB2585EE6BFEBBA63FBFD44F9537B9B37BDD6B358720F98A8125AED4349CCFEB0E135F19E208A04CA7E2B10711185D72E381F448036EF57C9F874E54A971CA37A639E986AC0226DC5AA00D5B14FEA9192
310
234B3DE617814FC221C92F33F1D392F297731B567FD98FD91D989379AF567A65B8ADF177591DB90FBEA99BF4ED11B16E50A0AB1DBF1156D034BBE04D69D08F939D8E92BF525A1DDAFF80ECBC95D8F45D3FDD289FD23F7D8B452F8EBB34EC082DEEE68E18EDDF072060FAD2AB1504DD4879BF67099FC58F6E9DEFBF645D1633
310
4A3E9A127C6F1AF6132CF287E433B43A0EE93812B4AA0B194E03EE3FF91EF9C6ED0074A2F6EB18A96A7C9890B1FCDA1F2095E944DB911ED54C60DF16FB74C8CE9BDC7C54C4F14078CF73C2FFF1F1BBCCD7CF64F71407EA1683DBC410D226627F66E509060D5C0AFD611DE681D509DB8DD12FB1265B03C6F5C55FF4C30BD941
310
87FF692B4F152982502F193098A789526A038AB529A52BC0DC4FB6285CBAC10A8B8DB75DCD9BDABBB221E27D1F8DA9F5EE5926A1C8AA9BA9BC09239C6A7F12914EA3B59EFF7AAEC3FFCCE56F1C5C2980AD072793527565E774F4631DB178CEEC691B1F367BEA0CF2907E1D6B854D527065979DDEF002D8B2ACEA7CE21AE297
310
737EDE1D45B31233B73FEA35BCFDD0B09721FDBAF6432681F2FD10C3E9EFB246FD6E854B344ACC9D8A0EEF876A7314B49B6A499FC650B099D650DBFEC7638ADFD245E2B7839DA5AC5F7D5623FC0ECEEC8653FC9B2BDD1AD4D00A566FBA7186DD3C9CD26512551637498CADB950FEC71ADB9A5524285DE328B8EC7EC75D2345
310
AEC6A27C42AF6D9B92155315C80DBFCABBB7DA0FAE425C4FB896B15C9BFAC4FE67DF5A23D30C93DA4D8F36FB15D100050DA6062E22AEC5F4DAC4F6FEEF97AE05DE63C6D38F9E068A20BC5E3B6BCD75320C5090924E7F93640A7735B1A43451C2D91EE62C6238B797349E59890AF3A520DF4A87095F3ABEC2E61F0593416CE4
310
6CDCBE0E00E2523FCCD04408588B5B6C9DB6459C786CE378770B54F51DA3A5E1DF2A3349BEAAC234A6CF8993B598B3B25B4B113E353A4D750FA7534749430F3EBF2512E7EA3FD43C6AB9A1F765A58463B306721A15D224FAFE8C6F5E3432D57EE697DA0DD5A9D4866A8BCCAAA9DFF1F06047851408FEC060471D0E3EB86BFA
310
F46E4B5E60311DC3E3CEA147C75CF971BE74689507154FF2D2E92F15CDB2B9182B11459FD8ACAC5A85F174BC94A7F4EE4C4F5CAFA7C02E37BF0BC77B7DCD0C047BC316F562A01A441AFA7931CC84A28CB9F4AA367EB515778F29BFE61195FA671F4352E5E46E3A64773F1F76EE5EB36D7BCE9BCEAD837A4D77F8DB8C92AEEF
310
6711920D7C7D0F76B0FD0EB7AB83724CD35BCA7D36DDDF5FBB7FF6F04A91F3E2BB3B8F1A43CD659639507FF6331C5F697BCC782AE57D757A27D97F1AB9E0AEDB43F92F1B2AACDF5FEC8ADBAF9F814E2027003BA2F9E144B1938A7A04050AE5D953B82C45619165C813A10E76DD6906B3C16438064D14CDA713AEC420034613
310
E1AC7241904A49FBF87409AFB1FCB9B72FE7933A87D8FBEDACECE4EDCF6A4FE9FB94D5DEB74FAB7CFEAE17EE965DF980DCCA2D04134994F9A2E94D2265DA4FE6AA7B7AC15FACAC2B5ABBCD7DFF542C5314FDAB2E1B9D8B65220B8E2B638BE008E8DCA22678C820C5053664D15E89F2D735B51A84955E81A443545E9FF787BE
310
0FA700A76D136C27DA179A7C6E8939E01BE756E19CB292798063D8B97F44E8A27BCF3A614FEB8BE974A718E86F7EC99B53CA35FA24F61F2B07266684623A3D4CF073E511F3A10A8FDAFAF0078C577F4DF9D339FE7862E5FA47CF4344209E5BF76D783B1B48E152AD281B15FCB934DCDA49CEC5706B1EE8B460F435324A5CAD
310
154725E21AB8044B75A557A79F6C807B9340AA3D92503E866F4274412926C8C504E4D5EF8C0E68DD0B028781A6B4054F11CF18941F101C57CCC796773ABC8DED9CD91FE5788806C05E548895354AEAC96546D55B0E94A59F148D061F42AA398D822CDECA4CDE79E13469BDCC44FDC990F366BA5978C15F97ED80CBFD73B0CD
310
9B8B83A4F6845BDFBFAF034019473FB9A63BD55D3A4A7284757071574029A4D016DCCBE95DD679EF3C4880BF169422F8C89B68A988D2B13793CAED4F74DE7486C72DC94DF46B8E93D8E02EFCB1FF9B3BA10C8AE7F653DF94F4AF466CDDCEF5776687F7C4C14B63E4EED1719DC2EC482D7DBCC7AE518CDE3D5FF86D39000EC3
310
673C0044E1D308BF05F74D1B5F033A7D1BE7F74BC55BBE3E4A20F920946CA0271EB17BD2B80E5660ACB8A29A79F5E4BBA49D4D945B6EEF4A7EFEAA65E5555BBB57A7E15D2F83C69F30BBB978D2B39F1F26FC097424D39BB33CA3D87ABF64E307938B685BAD44F71556A30B7E712CA4FE600613C3E554B69ADE949A7CFE214D
310
F1FFF05CB82151EC6FC31950239F94CF7AD39DC473F6EA356E5EC2C4EFA04383CEFE985A127484366FBEE3C0EC4FEA363E4F6632AE781392FD45D67B63FB8DF70E82734F431FD3443172A0E30A83D60982D55FA6A2CF86DBA8382502ACC6CDEF3B907982EED1160E14863FA242F9757347E1544275CCDCF71ECD5F8621CBEA
310
326B8BA884AD7F825781923E66971F04010D574C541D8427A438A37EEF8AF88240EED7362C953F5A81DE2D56109CDE2524EA0F5D2F87308C0C47BD97AD605878AB8589E17CA83930CB5E0DCCD75853D68B1AB136594926DE426C367428E9334AFAFF90ECE221BB5DC9E5BB53D2CDEF954EAA9CD814F0E5725F1965DD458E5F
310
8487683AD86B9D0076BE3EE91EB1CECC5331A67A3F79D8B27587C12EC2A6A70474749F27B4C0BBAFB94B34189E88DC18964BE4121B9137FD516C7755356E50D6714E31ACD222621EBBCD1CFF81D87479056A9DA0E0B8EA19D24CF937DA89F78E8650CCBDC110AAB6C4E46DCBFD0446BA9E2060E81F314AC2031E88135E5476
310
AC0160EF5C0DD2EEF1B8B5CB2D198BE9A554A9093B5F7D7E4B5407DDFCA1D9C152FD97F55BFFFDFE802954DFEC8995B983E28AC92F1971E28F531DC407A1280EB125F64A72E617EFB27DFBCEDCDA2D6F2BDADA36873EE46B9BE1782998C63DA7182BC383FB6FD15DA472B175D7E8B4FC88F38D6E07FEAA3FA3CBB8F6B449EC
310
F14D2175E5C5CCA3A42ABF24CA6C9395AF74535F4DDB38CB84F56614B0FD32D7E19CA5CF988DB4449C40E23DF2B16772594554579094450F56F253CD25EA7F77366FB1CFE79696C428BB64D5A41E986189427E5E4D7E2DAE3D5BB4972B3DC44EAABDDDD63A2264ECFA5C786EB0EE1FDC5BE34FA0F08376869FD1E61EA06CAE
310
15191135445EE8F0394161C3266A596AA035572BB0C8876180D8B9C77D307DF9DCDF7365ABDA6F3A2366436457A4DFC1F259666569A9E4A79C817BDD5610E5200FCE894A358EC72858D50EF67545DA81C6FACE3D457BAF70367E1E6BDD9A952FB4F56247F58F523B97E640246051A72F79BE42FFA0B3187F63097F91C48B86
310
8586F714B0EBD5A00A8412C1236E1298F60C72BE6C96B82B404CADAA304AE9F303176B14BA53FBC2D5E86377E35542019E24D97B96A49B2C0E5006E7795954DEAF5DA58958839043C6C70BD3B1B33B6DC5C31316D8A6923F142E26F6711A2258AF977DDF1F970ECC4F1F2B434B96D81BEB6E89BF3BBB3C7C8CC80505070723
310
D6D7D7D3C8CA27CA164A26024FED94B12A86031867241DA53D929636DA600F050BC40CE48B8BA03D69224720DEE2ED2127390BDF5E6EA64527BBD4C4C63FA76BB801FEEC0E61218EC98A8A86CD8313781617877E66692839B9468CF4DB8E50A73986E558E309C0D6F676F921BE02F1185454DC75B111572FF9D27D85EA14C0
310
5AD7271225B391C4275659CA4A43759D0BA44639BE4C30A84DB7F67A41399FB95CBF923B1B1672ABC807C1590557FB18D811983FA97F5E609516D62281D38B1281F68FC75528C35E4CD7DF0F7DBB5E5DD69C414EBEA2F4A5B241B996BA77AE6C772E367408C633EA3E438B68563EA8BE7667F3A4C4FDEEA52ABD78A2820F44
310
3B7914A15F180018D231E64519C56A12F6CA7C8DAE18F06F6B769DBF92329EF6A5D18FBCE600F36BD8E8198DE5CDAA96181F3A756EBA5501CEE58F497EA4F418A2B82565B9BCC611713C0B708CCA1F398B78C5F7D03B3437CC18F13061F55C7BEDADD5ACB1DB0E36D3CE47FF6EA1A563A57E9649EA5D14D1A50EAA45746338
310
1C073777EF1600607BAF6428A7DDC079D47A204EF1E1F1F0589FB054D45E02CE623B3823C317C601E589E22B1E88B448524B86A82828E32345EC18AE17214B42F8C41C6D428016D9BA31DDCB47572561E5A402E5BA4FCE55F78AF7268524AA04130F3A20BA5D1E9F9948EA48FC8F5314FDB35E21898198060034ACE5E3E2BB
310
CA34092518F275190AF65F45867FF0900AA4B81F25427414C372BF51DC29AA855C5428EE1EEDD6B849AD60F6E73475C2D2523F8A2772C840A478DED18A8C5C91B085F255DC4F54EA7AA8947354FD17ECF8FB3B4A0DE7B483CAF3A1165EE05BBA413E5C1FEF3DE1D6B8F2F3F3251C17D9FCAB48A9AAF63AC773A0E413BBC46A
310
9ADF84A566FC920E4D8C52C9769EE3301CADEEEDD92B312E02E2A7E35B7F1E7D203FE5A7D75578B06E99D0E46FFADB8FDA17ED8880390DA29094202D6F645F76F6F96409CDA05495A96E84B04A00D1A6C6C81D7F3DE9376E828CCF144EE50E364ACCE7237EA0BFB5607ED1AC3CFE73794E5B61739D14DF1743441B1AC98F00
310
ECEDE9E7301FA29755FBEFA68C91EF2B314CF510537EF1ABFC9A762496280B546F5EDAAF8A5B387D469FC9A878A92828C88608453ACEC6094DCA54111E7AD5B2663DFE2DD151B7F123B9F4FEF8EE36AB125FD7AD52A59B1B765B3E3F73E3F73DEA93875004D2AFFE3CDE9493B87A9904DD052028949041A91DC0E1BA47BA71
310
4343FD5B25E0A6A09503AFC17C790058A836A324FE31D7893512E28230332F153181C1E018E1124EBE1BA262AA428A518237D1EA7275E48C5C561BD19ED6912EDD8367DA0F31E40EEAE9683DA9257525AEA7B632B97119E17145A90231768A4F3B9120FF32E8319B015E3CBE26F1A754177D8185345817C096B0CE443A955D
310
13AC15E1FB5DEEA0239EC32A3C92241A237B0B02FFCB4F93CF2B02570C8D192E2F2A68CEEB42F12E6F8CEEFF46C251E22B4341C56FB08CCE550E7A9D6F4D6564B9EA52A83D5BF2C6E03FA19D2775E15A8A7ACF30A13C259EE7F5EF2AC3BA354F1500E1A07FC63FB4686E2F12EC69719F9ECF5FE3F35598DF2CE944008CE78F
310
0911BA5BE5D0A34E0098FF038669C26030BA9B300303039852A8F6F496341737CA7E0D2E3AAA36DE0A70AA7D9CA0D54D9AD84B18A44C9E625475E1C97B93BEBB38DCE7D227E67A2D00F531436136355F243D1FC0D712C5765754FA22FCFFAE97919161F46D6E61ACB37D83777B385889770B50765B127768443A5C4D3A4E35
310
A3151111F146B7CA116F918A049F1C272F2CD7976C69A0068773451659A97E0F4A08FE604C3FF6CE7385DB19F4D3ABC8A0D80DA8A42096AC377DB49382B36E270B6FA7570188B4B7D1DDDDA82ACA487CCA5D38BD3BD039ADBAFA4ACFF27809239B722081E2EB9F145320553D183F28471C388BC8814E5045676767AB58A8E7
310
2D1CED2CA731379515D2E533E4CF0B39DFC625F97AC4836831A4DE330E87A8126FA17EBE583D614E71E22A8DBF2825599743E0640037303E8E1B1E8EA4E1ABFA4F62907B5E4E0E5DCFDAB417C36C6848A2B8D15F1E505434C0707E16B1CFC2A1C36A42BBF55734F8F4301DDC2A5110CEE8C0747F69519265012A2174BF4E95
310
5ECD4FDE095A3ABC70536B7AD0B9D7892F81287D667C108703C9B66A221E9A0929D030008F77FF6F5D2108EF5706FC87A3069B976F7C9FC3239D13D283CDEA83597461079FEEE049B0F392889898B7D87D31F8D60ED7B56B91823A8E4EDDB36C6172ECEE42BD42B12CD67994FA0F0DFAE9389356F4CD4425A4B8AA55CBF7EC
310
D585C6A2C2316791E43D5C06841ADBB226A87FD61515FFBB0167B74E56BD7F3E90A57A97FEDCBDF483A0D6699A8C0849CAEB4947FAA90D8E332D9DEBD9F4738C37DA0CAF9CF3DAA68BCB67C420459C7A64498D6E848E5CADE92BB6901F607AA331104A67F7CD650EE169B1DAE94D2C31C2F993632259B6957E246EFE4C5481
310
107B07118607700040E5812A2A2A38DA0076875258C753F60E0F2662C748EDD5F3F3686B8FC3BD6FE631ECCAA1E8B1C1E565AD117E54893E79F4672E32F9E46B2A183DFDCF3EECB4D4D077DBEA0DA254D256045109670050129E9B9B1A9E4A11344D61497A992778095151510C4BB7EF2009B63AA4360635312E4CF668B7E0
310
D3D85A8688E2BD83B569439892ADB63461930D428E0DE42E4AC57CE48DA5CC1449530D8BD3D6A0F08DF20C8E8F570F2CFFFCEA286E30969B4654D498A58D9DA782E19FE3F002181838925592C4A1EF0B332D88B61A92C644547BED490D3A42CFFAB70E36D961F694F6307F72FF15A1C79D5B1B5CEFD353D9E2B52566DEC8F8
310
F09CB3E8359C0F68EBBB7898243E34E12A015B2685AB303C04D3A9E00671FF3DFF0A184E4A2ABEB2B666AF5B3A209C73D8EF29DCDB069C9F391EEE9DD0F74C7BCDE16F8F02E3B8816122BBEB50665775B600549D8BB33A54A6BF940C028118BC6878C79958D6784F9DEAA6E26748386FFAF8D0D0101E2847B6563F5D8DC1D7
310
8F787BE00E2C941AE12148D4A81599FE8F68D4DA5CDED75530ADE138240300EE13B0FC13A1687FED6774662C05A2B7DFB186732F0D7A93545D8B0A6390AE5054D9CB582DA846D7A061B3358B45E2B52DDE63E114397EDB7E09233A579155D795BE76102CF277F4DF8B188C4F2879BEAE3C08347124BF9ED23B128259FE107D
310
31E34A652F090B30B39E0D9AF917B76A2806135621A8A60681F16AF216514BBD02711585B5B1AE823F4B2D0369EA5B6BCB863072727FFC871CA6C9AB79A814D989057E9470A3D238BC87CBB4A0EA49AFE2B86F22E499793CAA9047080450166BDC357524561E258C77CB697F1ABB32562CF87C3B7AA12F911EF19FB3E5C022
310
22E887D08202A60A17151F5E053A86B437771088B4FEE14D652C43E8D939995D34545E12E2FF93D4E366EAD25F10CB7DED141563C3D0C447AF06078A91135FD4B9611583CB4BF3BD167F2399CEAB0E0100F8FFC305F00F1711717173138B4B48C83022295DE657EFEDD97F238ECA80F528AFB4F8D67AD4E2594B9A3AA86D74
310
87EFC313BA95745C186F0CDD84CC12DC9CB0424B42203D351FD9C0A3AF10CC7F388E0329279087386421F194F4A29464C1DEF7EF8BE515E4A199DCD5B909342598D8FE6A231F71336248D5CEC5454455C7BE383B3BC7B260FED27F703FDC39A170F3827239102F59D4DEE7FEF82EAA1A5E4BA94DCC4CC44E7E2EDE20F24244
310
E4454369D2E87C3F823F193FD4FD27E1C23984B01898D15ABC20711A8A558054951A6AE280096BA36CBA439603B7B0B4C45F248C14B2383B4B5CD8ECECE4FF859AD4A6CA2326D020EF090F4041D28DB66E5256B56232CC52829DE8060BAE6BBF37D4B7469B822454FE93210A3E8D15E69FFCF01123222611C51C4FD0A041A0
310
CFA2471CF6BE38D2B20FA4C3525B5B8B586759475CF80ADFE67A284AC24651E52B8E683D24C2622642F27E7C3C22783BCF63648BC398BD6CD0D9C97E7E7E3EACB6126DB7A6C1FD9F1031302EE67ED96F22B77C7CA0239BB324207559B105E4693EB26EC46182A92C9C0DBD24F29B31C5C5AC1F84300E0E17CEEAC15F5736FA
310
4A98971E2F1423BFCD68D4BBD5F86E74B40A369F39507C88FCDB35D2DD8DEBEA4AF999E23CF2816D204200DF6E611781B9884C1AC8888B4DE397320472959434323A5A36B22A8E1F721A270DF3BD65E4A31C11FF048AFB0D8B7B6881423793963A23CFCE935FC189ED36FAE35C46DA3574C979E4394BE52084F3081837BE03
310
3396D2EBD80F1F691B273F660D2B32FA27A33B1DE4ADA5F0FA4651511102DFA410DDA86E065272CA314D5249DF91B06BB92807B28EFD54F08F7B525252782CD276DD02E6B0319B13DF87B1F6361AD6B28FC0D711CF445429B9E5A433CD493051C49A9E03DDB1B147D880253514A5DED88009018620EE229101C041950E2D8A
310
A8E1F5F5438E0C0C0C60EEDEE9E3E0C051948C69F84BB7B2A48A1F3C8EB9E6864687F4F4F6F6E2FA87608ADAF9C5E117B7C1A737E710769DA1D15ECE6A84502AA855398712D5FB51BE92E4EF824969CE18278798AC303C2C7980DD2500ADF8FB1E6D6C2FAAFF9987178923334A244758BAA01A9A1B70FA5097D01E1CC2A58D
310
AD0EC94CE6430AA9B0C10D75E3C6BAC670EFBADEE1607739CE0FC18A2587E3EC3058562014C64219C69BC269082D5C2F4A659278D585755912176D78A1B641719C2A394CED495A1AC5D583FD2F5EDD93308EA7EAE8A6DD396598BDBD3D4CFED62D18A5BDFDE0DD5C80D1A89BA62697B131AE7CE9A6594138582F1B37D68F17
310
49AC7CB67A70695D48A4A056AC1FBD4E82358CEAE38F54B95A9016F9000F9879C0D9D131768635CA798895F27D6F1614F11F2838A83611AA51C9A3DDB539D42979C29F10465655C17BEC3E2760B80DCBF609198C7B171A531905F3EC218D696025975E986C6B4C666666787271F202805577DD5A3EF0CAFAF91B62DC4B2DB4
310
217A7606282F31D8DDBC290593BAA93EA6353AFA9939B877978481E15CFC9F2755CDC00C538F63A4BA3E80AE009B73CA0185687D339A507D165B74290D6EE46D5C58148F020C3668ABE9EF2F7549170DC80DB41FFC1D678FF19AEB10C7133832B104B80F691B3138F97A92D26E551F1F110400D45AC71A9B9AC41A1A1B1DAE
310
ED0B0810638EFFB511D46B121C6FEA0F38CD00E03CFFEB9713FE1F9C263E4DDEC160D0497FA9A132BA608584057FB15380825DE6C7FC3C667EE947D488A09898D8E939C4953BF4EC9836344D2CC6B2971B2A21A572B06096F4982D2CC7232D46E8EA69DC83722E267754D777F97F96D5DA74E1E75178084D0E70F12AD33E5F
310
71EF2AFA599B2BEBF60A5BE475F444F240CBFE8143C334E7ED9150FEEFEF7EB020C4DBED388DD1D6A167A76F3CBF119B578AE8CFA7736ACAFA4440A1C47185638A0D2F3EB5BDDEFDA958FB13CE4AA4923D5BF840392D45544329525749734866684BF7F8D9D54D892E19BCA9F829A0F8BFCBEEA6CFDFC61D74EA1A645ED7A1
310
FF241739F15694BD835B66FEC5677E40FE69BD3F91AE402F036537218A401CB0828604AD189E575015C6F3F6BBC8AC79CF6C70653847254B31551EFCBEB5978B9DB85D58D0FA41A9DFE9C624834AA04949D24B5AE6D299E072D152D12097920F14AA92C31C3B97E28B6C2E6E9C23D63043ECBBC0A60FDF5BD0C33C127EA8A3
310
308B8B6AFFEB28B4455BF6E7AF4FC6222728357EB8E46E85053E6A8843AB23295BF838ABDA94658FEF3F832F147046B4ACD6F7D48E8FCC9618582961C898D1C7A253C91BFECBDA6BA18A1FCF70755DCCEE2222F41B76D23CA98D0CB3D95F0CF66D57FFF65E2A90F5DF40FC3187621E981BD0BC1D992787212688976B94A8F0
310
C6EF646624B570B78E068826F87CE27041A95C9A4871FF65CC17FCB1639629AD6A9517000D63AC231F3D741CB8430777E7ECF80CE7A3F73C0F162F7E56AA71F4DA80A33CD6ACEE78E2C11FAC03DAFCE929B106F8F6B3ED2DC71FF994BD9CEF4E9A94896EF1B6E2B7B4978168BCF0847A3D2A4F1B0500B926E634B174548E9F
310
BAD27153FB5FC36799B1E6C7C38A94E1F9E996796D7B485E635D5287A2AE76FBD11A341DB3F8F810385BB7296391973DC6C37C452A9305AEBBE0CDB6C566DB59FE60C8E94B1FD090354BF51439FFD1B48D725228FFA88C84F686F547107A7A235665A4593B7C34D748C1AC8D56DD5DA861EEFBADDECBBD65117E65851F9035
310
1AEB65F0EFCFF4BCFEF24CB7A5879699FAC437A7AF9099186CF006BB923A59E37D7A36A29FD8D2CBB914A5E9D0A8FD212FBF796AE9A67958FF1D5D8B85F78F96219D4714EB919929241B6C018AAE0C02069F8D919961EC5DDFBFB7573E3AC8E08BFB7C8534BE6DE045B3CD63DBD71F7638BA2309CAE398EA3A7D8F98BBBC7A
310
EB367EFA5CFA27A9F8F2F52FE878058E6209C026453F8E7E8A237DFC389E9590F6059B397CFD65183BBF936E86896612A5B5FEE49DAC8455D026218AFEBEC12B3523A45B57B82C9C97E02ACFA1184DB18E48CF615DBF39C3CC6F0B4AE6BBEEA2E39D944E290302FA3DE33FA7E40296E2EF7BF1CD855BBECFAD0FD622BEE974
310
6FC4FDFDE545AE6E3BC234CADF83A0FB76DFB145BF3828AE3436368AC24989454F8FF70A177672C711CAA1A76107218CF948CA01F873520E7A2B118EBB161ABAD432932029628B6761590C98AB590C8C8C79798CE9F715BA696E839E9131A4BB68BE923F1747FBFF165331FFDD4D05997ACD168F12CA75348DAC04C7F509FE
310
83898A8B421181AF492861CE81E4A2DD0A30850CFA95E05F097FF70F9E777310D584A75BA7018922E271DAB1D785671157685B7D383D3E074DDB4F1E44EF04B07BAAC75A062077C54B9752C738C9D804D402E02851F3F89605AF189738C18C021D2139EAF72513824E10DDD3047BACC8521ED7E98B257D1166903B1B08FA6F
310
918FD7E162913FEC7D0EF4787E29C35FBA8C6E2C9C20E9AB30AE42CA2A01A090E7D010C1B5BF9CEE2A304BF3A987FB40D836979B79E18D70F257DA61E808472DD85B82761825779D6B90CAEB0F23360C6F80A7D7D77545E95B3DFF0CF96A827F9B5BCECD2C9698718417EF80FEEDEE938AFF55859D0D540B7FE09435583A6F
310
04874A0C7E8CF234DF4879722000167F5872CEC6BF3EF7E5A8CC8121E6A359227C8A29C95212F9F735BC72A887D56B8F309FC525BFB4FD767AAEC4AEFF249CFBBD2DE1AB9969A6155C7D8DABC307E47324C1F916C7BCFF40ABA5644E9FFB9238D19ADADA49D9610F01ABBA57E4DFCBDCCBB2B93C8953206C91DE01B0E2651A
310
6D6C31721915B31F7B7CBCE55466F6D70402788FA91D73BE4ADCBA99A35F17D6B83383704917D6833F0FA3CD45C926ADB8BC17999A4A0AFBCE2541F7B8CF4C2F5FBA611B3E626D64407CB32C122DFF4EF8674D6EDBB86C8F7C6A16D50FA685E2CCA34F8F7D1D8265BB0042E9D7F1F666F7BE5FAA5184DF58E12122A42EF02F
310
461B3F369AC746F96528AD208512AB56844CF75B97F352DF7995024FB02855385854F3798670D01CAC771AC3E1889EC25F61A20C1F8CAB46898817F9C47E2CDA1F286BF2F358298709FE567C91133E2638C8B53975E753EA8BFD3578B5F7186B7BF084EBA3F77BAC3132A5779902EC22AF2D2E79F42D324E083386DAEE9810
310
D1B44A5DAA54513C7A71E52A4AB9257D975B621308FE4D2141CC3DCFE946C154A3C1DFCCA7629EC69ACFA831634ADDA93C0388D2A9A2DDAFCF957C6995BCE7FBB6DC4EBAE79E63EB08E9A25F52F67076F7093CA545CA3053B5BF576DEAD4E0017143C5F759F32B2D6F145B52B67B48909B7C7FCA6586EE385A2189C16932CB
310
6DDFD9152AE317C430492A578ED27B72D85D40C7C93C097939E1B50F4D67F05334FE9DC362C30B7FF561B95259138ECFD9274C8D695C31B14D4EAA9F3D7FA8DDF652F8C5DEFA23284C799B7D94416DEE81E05A866302DC70192A5368EA65E1CED8BF107A1E2D3119A71E85DC1A7B0C1E93274CE04DD0F2ABC8AC7C987FDB00
310
2B6F81757B43502EF7A0D92E416494FAEEA4C9C090CD9557AA4D532F4996A272B94355C5A0E4974EEA9627476F30809B94D8D8D860062E02204643BEC7D0438AF800FC7E2B26955D595421E83C69E1A07E0E3122285835F014AD538188CF9737CE76D464A353FA55A001AB2526B84E985083693BC76FE211CA1D000679C889
310
E3C009832C87E1AC2EDD05C302557422DF0800E316FCAC86978A371F025A6C7DAA9F333E7BD160403A1A06EA75AA9888FF01504B030414000608080001586E4851464CB48900000043010000360000006662782F37393942414146382D373038412D343931312D414230312D4235323831443939453233352F646972656374
310
6F72792E786D6C9D8F310EC2300C45AF127987122606C71DD918B841D4B851A43646695A717C52A85029031293A5A76FBF6FACEF7DA7264E43906840EF0FA03836E242F406C6DCEE4EA06AC22492573150D1F66C60C640E8938CB705396EEDD86DE9B5042FE27813D640EA63BB001C722AF6E55CB61E4863F58284D5D3F53D
310
D715CE1C3985E63FD7F1B7EBDD617E9F1E504B030414000608080001586E487A168D623D070000211C0000340000006662782F37393942414146382D373038412D343931312D414230312D4235323831443939453233352F6F626A656374732E786D6CDD595B6FDB3614FE2B84F6B23DE86A3BB60AC5851D3783D1A52D6A74
310
D89B40CBB4C34537505262EFD7EF90226549966D256B816209102B347978CE77EE47DEFB7D14A267C2329AC4B79A6D581A2271906C68BCBBD58A7CAB4F34F47E8A3C9624796D9F86621C915B8D2F6B536FC79222954B1BB2C545D85EBD9FFF85B280C444434188B3EC56CB82471261031779B221D993B1C1393676DBBD611B
310
E5C626D91DC3E963EBAA143312E7C02AACC74045726037FF0591CCA967F20D8D6D4EBF6D830BDB4C217893511A67398E8313AE5A749C7E5C0DECE1E2833372F5D17038D087378EADCFEFE70BDD1E0FACBB9BBB3B77F6C1D5D0D45B274958292025F106B478D0A6B667F26F2AF1250A5D7C07491C9340A2D9B56143245D4AB2
310
36260D606D215A4D21A5ACB585414FE1CF6CEB054A83A506DA4A38F559B7DE64FD378090F5B15296116EE559CE40D712FBD21F2CCF2C571B7AA1198A704E18C5210AE99A61060A82ADA5821A64B8B77052886326B4A8E8D57905C3BEEE4B5D5C6E8B30E4FEAB4D85A7F9E08F24CF0467F41FC28EDCD76F039E40DA82C6F944
310
0A9B1F5220E17AA6582CBF1B38F2CB1248B40DF10EAC05C4E49B064E0BAF3B1E0B960B6DFAF17EBD5FF1F8D07D79CA9294B09C5B9E7066E9774A8335D302E3EB014A896B53774754BE02F49F00F98A17E481E618DD0FF743253BC371B64D5804DA4116D22DF86321FE78F2E499D5E129428D58790E5370DBEF8469438CC6DD
310
3548A7DE33187DC20652B8558043B0E9071A733F07434161024B10EFB7EBBD365D42308545388543901E7E3D933F22F828E940BC6969A82BFCF650947298B69F1D75F53BD80CA341A5AA868CE7F01D7D177C678BD5C755C1B638200FD2B117644B639A4332ED66A8017AC3E5BF2D3F098F3C91A7B12B807B76090F1C1D7A59
310
49BD20A1186085E7E1523562E58182BB87218E49526472BD2B50054998307F7DF04B1FEEBCEB4F6504E565E0DFDC023A831964F780D19483A24DA5785524348E38F138280D70572AD55FE3E089C3EB0710B1DEC207582D666DA24594FA384A8A9887EF53F36E8B660C2CF163DBAE63B9CEC4BD51C26682BCF21E151A2AE6F9
310
3D114ECF5C72D7D0968C1A8A72E9474388965D1204503315B99FA438A079B72DB484901E0A605F647943B7DB2283A0DE094B8B6363608F9055FB5B5D72997B79894F23BC23FE16F30CD7795F03A08AB892A013995D9864198D49262A9493C8D542C53220109476ABA8761821CDFC88E4F82DF627525ECBFC18D9863ED45239
310
AF66AF5B9F625066CF731479E596C4BE90FFE067384AC3B24ABB8681EDB46EE8C49533CDAF78067BF371EE5B1B228AEE6BD4ABB8A0F0ED45DD7D33F933F030FCC3E151575028BD21475ED7AC6D8C6C97FF4C20A8DC8CECC15829E21A56EAAA9CD7206101555370F05F08DD3DF60B68BDEEC948B8F5691816915FE6839C4450
310
82E1BC60BDFCF566649D285FC6859643D46EDAD2100AE4DE4153D41EAAFA00A944F1712E68D6AE01A1680C3D5A2F414EA4E83461A10BD18FF2B6EBBAF65F4FF53FC7CB7A9FF2440E2F09DB7472DA2C235405A60A061E2E6586ABEC48509E7A75E78B44E3721D87A12222E35BD925480B61E499F2C184E8803AFB87EC05E701
310
04D295F8D4E7E0111BB239D6140D7272CCA14D07C76E44D5A9F54E07821D4F1F8DC26BC9036A04D306CCE3EC037F08BF625035547E9929AB1AB35C5FF2C466C060E5C8C7055A9F7F5FB5A8C04AEFD35F3846E4A54541AEDEF142EE02A96FCB63BDDAA22025FAB6BC703C7F2CA2758C29CF8CDC2CF0267DF75EF492B726340A
310
E6D875E7B3D9FD441F5B93993E746D5B9FCD2D18608C9C89BD70DD0FCE6064329225050B48663AA6E5ABDA298D77CA304AE8FA74143055B8DEFA297B6E2BF8FFDB51CC0F7FE043BDAB6F18E3CFDA5154F51EAFC85ACED8B7A3E88CD4EBD795FFF649A4EECE62AF2A9DCB6181B2F0CB790BA2914AF8FD6B0B455A9512DD3CD7
310
52E22B33EFD976E58727994644EF4C108D1D5D31BF61FF7CF8D491A6547B2B029B331ECF1CE7E6833E9A3BF7FA703EB4747760CFF4B1BBB0ECB133761D675E212E9361DFC4F2530451C56C6D8E06E3E02C09294CE5C906ED48022D108C1D7A045816914CB4365001C83CAE5E09F438FD5C0E5573BC0ED5E9E011C3643A9429
310
B908602A0A6DC7AD26D7D12F3007E5A348319D329E20F3486BD750C1E8AD062690534830C61AE659627A28A8B7E695A0361CEF78D3549EAAFE3F1EE3E880AD1CE5AAF6F4C1454AD6B04E980EA4E2450144BBF28BA9F776D1153B08E7F0B82EF24A98E3C2511A09827A23500A0763BF2709EF1E02CF65B96C43EC6940D26B34
310
7FD10E4AAA7A8ED94ECCD76B78CF165F4C3E1A5F7E466958ECB83A2F25FC06259D171A61514EA13C300C29668A79237EF7CEFCC21278C714A17B0A46807EDD4F6E7E33EF92284AE272C99CC9375568F508EF9D36A69AF941E562D94353143E72AE0F83AB8C1878933DC102A896513E1C2D216E1840159E6A06A034C27501C7
310
1AFB970B24930014CECA62EAB52B87470CF51138127F99C3DDA6BEA13681045F00AECA416DF5A0163C93C1147CFA2F504B030414000608080001586E4898FEDF55DD000000530100003C0000006662782F37393942414146382D373038412D343931312D414230312D4235323831443939453233352F7265736F7572636573
310
2F322F636E782E786D6C4D904B6E03211044AF82D80F1F278A228BC197F02A1B8B409B200FF4888FE5DC3EE01029AB6E553DB5AA5A9D1E712377C825605AA964821248165D487EA5AD5E97774A4E5A65C4FA0FA32499082B1D32D5CA676CFB941C5C4DDB86BA85749BA2B878489083BDECC953623753CA4A8BFD8268986915
310
1D941B73A61A265986822D5BE8276A88304FD80CA682A3FA20E4DB225E16F97A96F228C4511C3E141FA4569F88DBE443AA90712716FB927A1EA1F8B0B56A394C6694E8C65F38D6C329DE6DAD4ACDFD0313ABDF7BC742341EF813F975B5E2A3621FCFFE7D8E77E81F504B030414000608080001586E48FF15A4A45D00000080
310
0000003A0000006662782F37393942414146382D373038412D343931312D414230312D4235323831443939453233352F7265736F75726365732F636E782E786D6C4D8B3B0E80201005AF42B6F75B59F0390B113044D83508C6E30BC6C26AF226F3B8BA6360974DA7271430F523308B2B198F9B80925DB700539227A2FCCB80
310
A18E5640D320F996A81C9F32D6E9129A0D1EF74FCE750E6D57BC7165FBCA07504B030414000608080001586E48139CFE7A3E01000046050000300000006662782F37393942414146382D373038412D343931312D414230312D4235323831443939453233352F636E782E786D6CCD94C14EC3300C865FA5CABD4D321042539A
310
491C78020E885B9A7A255B1B57898BD8DB938C6E80D0108749DB2D727E4BFF67FFB25ABD0F7DF106213AF43593956005788BADF35DCD265A97F7AC58691510E99B8C15DE0C50B35C665A7501A7712EB5B036539FABBDF3DBB96888826B2682C80ADB9B186B16ED2B0CA63213610B715BB5864C25AB0011A76021F5931B60EE
310
B7010C41CBF442C8BB52DC94F2F649CAA5104BB178513C2BB56A10FB59EF3C41C0B1B0981E3E99118AE76FADA6E0664D2660FACB59D538AF78FAD72A26B7BE9B75B41BB36E1C7B670DA53171B4045426119841F14FB1563CF3FEA07E7C783E38285A17C01286DD8506204F0DE068AC4A49F81FFF5EF83736369B847BA96D9F
310
849D6D9D0DF590D698E2FA7BFF2945C677FDF585FE68ECFC994FA7849CBD3EE483AF3311F3FDC94B4BCF17507F00504B030414000608080001586E48AC5B2CE27E000000A30000000B0000006662782F636E782E786D6C4D8CD10AC22018465F45FE7B4B57630AEA50AAF718CD0DC969D81C7BFC3476D1D50787EF1CD1EF8B
310
479B4D1F1783047A22806C78C6D18559425E27CC00F54AA418D7BF1BA0302C5642C5A0C49C627E1F68B4D3907DA5DE85D7013BCE8DD60F863BC234BE724AB1368462D3368CDE38BF3797B618E7AA94F9F5CAD6BCFA02504B030414000608080001586E48A6D797065F0000008200000007000000636E782E786D6C4DCB3B0E
310
80201045D1AD90E9FD7516806B51190811670C8A61F982B1B0BAC9C97B72CA7B1037C6D3332918DA1E04D2CAC69353902EDB8C20262D23F3F59B81A079470595414B17391D1F19B4730A5583A7ED43BBE4025D9592775E5ADFFA01504B030414000608080001586E48ECFD112DA800000026010000130000005B436F6E7465
310
6E745F54797065735D2E786D6C7D4F4B0EC22010BD0A61DF525D18634ABB506FE00510A79458060253536F2FD89D5197F3FED3F68B9BD80362B21E25DFD40D6780DADF2C1AC9671AAA3D677DD75E9E0112CB5A4C928F44E12044D22338956A1F003333F8E814E5331A1194BE2B0362DB343BA13D122055543278D79E6050F3
310
44ECBC6478EDCD76CE8EABAE5449AE4298AC56946789C28AAFBEABC53F3EAF09A84A1441B91F0101CD4780756578C173A578FFDDBD00504B030414000608080001586E483DEE336E64000000790000001B0000006175746F6465736B2D64657369676E2D7061636B6167652E786D6C35CBC10E83200C00D05F21DCA56CA76D
310
41FC96062B120735B69A7DBE268BB7777961F8D5AF396893C2ADB70FE7ADA196782C2DF776D7A97B5933C430F15651E5469C55D70F80A4992A3ADC954792C525AE70A1E4D6AD9816CC044FEFDF01FE3FDE907802504B030414000608080001586E48F02325E3F30000008E0100003D0000006662782F37393942414146382D
310
373038412D343931312D414230312D4235323831443939453233352F7265736F75726365732F322F636F72652E786D6C8550CB6EC32010FC156BEFD860DCB48930915BCB5FD0536F0888831283C5A3EAE71762576A4F3DED6A76667677D8F96BB9579FDA07E36C0FA4C650692B9D3276EE21C50B7A81EACC99772EFEA24165
310
C5A27B283070367B97D61D92CE466D0B6A9DD23B2842D0112A79CF4D0F415EF5226A916266845BBD0A7913B3AE49BDF1384BC9A85D6A54763317A33DF071A0F4300E6FE8699A06D4BD4E181D879620428F237D9EA6960E1D6B8A98B368969FEDD26B11B502DE6272409822D2BD1372C2F884DB0FD614266721FAFCF3BEB47C
310
97E9ACD9D03F6E6955FFBB2563236D77B74D1180937CDC63C05953D2C9E5115DAE2549FE0D504B030414000608080001586E48F0889E3FF9000000960100003B0000006662782F37393942414146382D373038412D343931312D414230312D4235323831443939453233352F7265736F75726365732F636F72652E786D6C85
310
50CB6EC32010FC156BEFD860D2B48930915BCB5FD0536F086F1C9418221E553FBF10BB527BEA6957B333B3BB234E5FCBADFA441F8CB31DB09A428556BBC9D8B98314CFE405AA9314DEB9F88B0695550B7650609062F62EDD37483B1BD116D4BA0937508580112A7DCB4D07415F7051B54A3133C2B5BE2B7D5533D6AC5E7952
310
A464A64D6AA6EC66CE063DC8A1E77C3FF46FE4691C7BB27B1D2939F42D238C1F06FE3C8E2DEF77A2296229A2597EB66B8F2AE204B2A56C4F28276CF7CED891D2236D3F4453985284E8F3CFDBD2F21D488FC125AF3188669DFE714DF7E97FD7646CE4EDE6BA2A0248968F7C0CA4684A4AB93C22CCB5242ABF01504B03041400
310
0608080001586E48284535E4F2000000B1010000310000006662782F37393942414146382D373038412D343931312D414230312D4235323831443939453233352F636F72652E786D6C8D50CB6EC32010FC156BEFD860278D1D61225B6DBFA0A7DE10100725068B4794CF2FC4AED4DE725A343BC3CC0E3D3DE65B7157CE6B6B
310
7A202586421961A536530F319C510BC58951676DF84383C2F059F59061607472362E1B24AC09CA64D458A936907BAF0214E2961E3D787151332F790C89E1AFE5C2C5954FAA24E5CA6334E8F9572A9CE241496035266F083788ECBE0839627CC4F537AD3293D118B5DCACB44CEEFAAC950376E8BA71183E5B74C0ED80761D21
310
68183141E3BE6EC97BD77DD4CD9E5659CCA80F2EDDBC7D92AF7B55BE0AFF658E8B7C21B336A1A937C355E1819194E7B960B4CA05A6F16C37CD5C36FB01504B030414000608080001586E48789D012953010000DD0200000C0000006662782F636F72652E786D6C8D52DB6E842014FC15C33B0A6AB7ED06D9D86EFC823EF58D
310
45D692553008663FBFE025D6876E1B132473CE993933819CEE5D1B8DC20C52AB02E018814828AE6BA99A02387B852F203A5162B4B63FDA40A458270A1060404963B4EB17886B65850AA8D2B55840360CC28288B7FE5280817F898EC5CC59DF31DCE29EF11B6B448CE3B98F12E764BD8CCADAB3C9AB1406D07399658773F90E
310
9FAAAA84F95B85E06B996288B3D773F65C556956E62409C39458D9ADEADC0866450D688AF001A20CE2FC03E3234247947E922474523258E33D2FA2C11DA0D7CB9D2433BEE3737DFD379F93CA66E9C2374F0C8062BFDE54A02409F9F8DF14DE3E432FECF3B3ECD2AE166E1E1A05B7DAE4BE526BB79546D63AE1A951347D2499
310
AB9E7922F88D277DC0F398C307C554E35763D65F2FCE06F5FD4EBD3070B4F74869D3B1765B6E5E713B37A19DA5759CEB569BFF4CAF56D73093F030E937504B030414000608080001586E483EB3BDE206010000B201000008000000636F72652E786D6C8D50C16E842014FC15F2EE2888DD7637C8C6D6F8053DF54685B56415
310
0CE0A6FDFBC26A93F6D6D32333F3DE0CC3CF9FF3846EDA07E36C03B42080B41D9C32766C608D17FC04E82CB8772EFE9201B272D60D6418041FBD5B971D1A9C8DDA66D43AA5775086A023A0614A8F06C2F0A16759C8352645B8168B1CAE72D4052D369DE0D1CC3FAB83D7326A05A222F48009C3B47EA5F444C889546FBCCC4A
310
C1D7D5A8DDCAA8E46E2E467B105DCBD8A16B5FF043DFB7B87EEE093EB615C5941D3BF6D8F7156B6B5EE665C143F4E9CFFB919433A2206FD997971B25F8BB73D32E48A1147276FA02417899893FA1D745FD23B4B19155FBC16D2380A029D09D48C6B9C134EEF5A699DB16DF504B0102140014000608080001586E4800000000
310
00000000000000003700000000000000000000000000000000006662782F37393942414146382D373038412D343931312D414230312D4235323831443939453233352F617474726962757465732E62696E504B0102140014000608080001586E48000000000000000000000000350000000000000000000000000055000000
310
6662782F37393942414146382D373038412D343931312D414230312D4235323831443939453233352F76657274696365732E62696E504B0102140014000608080001586E48F270F13306000000040000003600000000000000000000000000A80000006662782F37393942414146382D373038412D343931312D414230312D
310
4235323831443939453233352F747269616E676C65732E62696E504B0102140014000608080001586E4888E57597CD3F0000904100004200000000000000000000000000020100006662782F37393942414146382D373038412D343931312D414230312D4235323831443939453233352F7265736F75726365732F322F305F
310
67656E657269632E706E67504B0102140014000608080001586E4851464CB4890000004301000036000000000000000000000000002F4100006662782F37393942414146382D373038412D343931312D414230312D4235323831443939453233352F6469726563746F72792E786D6C504B0102140014000608080001586E48
310
7A168D623D070000211C000034000000000000000000000000000C4200006662782F37393942414146382D373038412D343931312D414230312D4235323831443939453233352F6F626A656374732E786D6C504B0102140014000608080001586E4898FEDF55DD000000530100003C000000000000000000000000009B4900
310
006662782F37393942414146382D373038412D343931312D414230312D4235323831443939453233352F7265736F75726365732F322F636E782E786D6C504B0102140014000608080001586E48FF15A4A45D000000800000003A00000000000000000000000000D24A00006662782F37393942414146382D373038412D3439
310
31312D414230312D4235323831443939453233352F7265736F75726365732F636E782E786D6C504B0102140014000608080001586E48139CFE7A3E010000460500003000000000000000000000000000874B00006662782F37393942414146382D373038412D343931312D414230312D4235323831443939453233352F636E
310
782E786D6C504B0102140014000608080001586E48AC5B2CE27E000000A30000000B00000000000000000000000000134D00006662782F636E782E786D6C504B0102140014000608080001586E48A6D797065F000000820000000700000000000000000000000000BA4D0000636E782E786D6C504B01021400140006080800
310
01586E48ECFD112DA80000002601000013000000000000000000000000003E4E00005B436F6E74656E745F54797065735D2E786D6C504B0102140014000608080001586E483DEE336E64000000790000001B00000000000000000000000000174F00006175746F6465736B2D64657369676E2D7061636B6167652E786D6C50
310
4B0102140014000608080001586E48F02325E3F30000008E0100003D00000000000000000000000000B44F00006662782F37393942414146382D373038412D343931312D414230312D4235323831443939453233352F7265736F75726365732F322F636F72652E786D6C504B0102140014000608080001586E48F0889E3FF9
310
000000960100003B00000000000000000000000000025100006662782F37393942414146382D373038412D343931312D414230312D4235323831443939453233352F7265736F75726365732F636F72652E786D6C504B0102140014000608080001586E48284535E4F2000000B1010000310000000000000000000000000054
310
5200006662782F37393942414146382D373038412D343931312D414230312D4235323831443939453233352F636F72652E786D6C504B0102140014000608080001586E48789D012953010000DD0200000C00000000000000000000000000955300006662782F636F72652E786D6C504B0102140014000608080001586E483E
310
B3BDE206010000B2010000080000000000000000000000000012550000636F72652E786D6C504B050600000000120012002D0600003E5600000000
  0
XRECORD
  5
17
102
{ACAD_REACTORS
330
12
102
}
330
12
100
AcDbXrecord
280
     1
270
     1
271
     1
  0
XRECORD
  5
16
102
{ACAD_REACTORS
330
12
102
}
330
12
100
AcDbXrecord
280
     1
270
     1
271
     1
  0
XRECORD
  5
18
102
{ACAD_REACTORS
330
12
102
}
330
12
100
AcDbXrecord
280
     1
270
     1
271
     1
  0
XRECORD
  5
15
102
{ACAD_REACTORS
330
12
102
}
330
12
100
AcDbXrecord
280
     1
270
     1
271
     1
  0
XRECORD
  5
F4D
102
{ACAD_REACTORS
330
22
102
}
330
22
100
AcDbXrecord
280
     1
102
MATERIAL
148
0.0
149
0.0
149
0.0
 93
        0
 94
      127
282
     0
 72
     0
 77
     0
171
     0
175
     0
179
     0
273
     0
  0
XRECORD
  5
24
102
{ACAD_REACTORS
330
22
102
}
330
22
100
AcDbXrecord
280
     1
270
     1
271
     1
  0
XRECORD
  5
23
102
{ACAD_REACTORS
330
22
102
}
330
22
100
AcDbXrecord
280
     1
270
     1
271
     1
  0
XRECORD
  5
27
102
{ACAD_REACTORS
330
22
102
}
330
22
100
AcDbXrecord
280
     1
270
     1
271
     1
  0
XRECORD
  5
26
102
{ACAD_REACTORS
330
22
102
}
330
22
100
AcDbXrecord
280
     1
270
     1
271
     1
  0
XRECORD
  5
28
102
{ACAD_REACTORS
330
22
102
}
330
22
100
AcDbXrecord
280
     1
270
     1
271
     1
  0
XRECORD
  5
25
102
{ACAD_REACTORS
330
22
102
}
330
22
100
AcDbXrecord
280
     1
270
     1
271
     1
  0
XRECORD
  5
1019
102
{ACAD_REACTORS
330
1018
102
}
330
1018
100
AcDbXrecord
280
     1
102
DISPLAYNAME
  1
Imperial24
102
FLAGS
 90
        0
  0
XRECORD
  5
1065
102
{ACAD_REACTORS
330
1064
102
}
330
1064
100
AcDbXrecord
280
     1
102
DISPLAYNAME
  1
Metric50
102
FLAGS
 90
        0
  0
CELLSTYLEMAP
  5
1017
102
{ACAD_REACTORS
330
EF7
102
}
330
EF7
100
AcDbCellStyleMap
 90
        3
300
CELLSTYLE
  1
TABLEFORMAT_BEGIN
 90
        5
170
     1
 91
        0
 92
    32768
 62
   257
 93
        1
300
CONTENTFORMAT
  1
CONTENTFORMAT_BEGIN
 90
        0
 91
        0
 92
      512
 93
        0
300

 40
0.0
140
1.0
 94
        5
 62
     0
340
55
144
0.25
309
CONTENTFORMAT_END
171
     1
301
MARGIN
  1
CELLMARGIN_BEGIN
 40
0.06
 40
0.06
 40
0.06
 40
0.06
 40
0.18
 40
0.18
309
CELLMARGIN_END
 94
        6
 95
        1
302
GRIDFORMAT
  1
GRIDFORMAT_BEGIN
 90
        0
 91
        1
 62
     0
 92
       -2
340
0
 93
        0
 40
0.045
309
GRIDFORMAT_END
 95
        2
302
GRIDFORMAT
  1
GRIDFORMAT_BEGIN
 90
        0
 91
        1
 62
     0
 92
       -2
340
0
 93
        0
 40
0.045
309
GRIDFORMAT_END
 95
        4
302
GRIDFORMAT
  1
GRIDFORMAT_BEGIN
 90
        0
 91
        1
 62
     0
 92
       -2
340
0
 93
        0
 40
0.045
309
GRIDFORMAT_END
 95
        8
302
GRIDFORMAT
  1
GRIDFORMAT_BEGIN
 90
        0
 91
        1
 62
     0
 92
       -2
340
0
 93
        0
 40
0.045
309
GRIDFORMAT_END
 95
       16
302
GRIDFORMAT
  1
GRIDFORMAT_BEGIN
 90
        0
 91
        1
 62
     0
 92
       -2
340
0
 93
        0
 40
0.045
309
GRIDFORMAT_END
 95
       32
302
GRIDFORMAT
  1
GRIDFORMAT_BEGIN
 90
        0
 91
        1
 62
     0
 92
       -2
340
0
 93
        0
 40
0.045
309
GRIDFORMAT_END
309
TABLEFORMAT_END
  1
CELLSTYLE_BEGIN
 90
        1
 91
        1
300
_TITLE
309
CELLSTYLE_END
300
CELLSTYLE
  1
TABLEFORMAT_BEGIN
 90
        5
170
     1
 91
        0
 92
        0
 62
   257
 93
        1
300
CONTENTFORMAT
  1
CONTENTFORMAT_BEGIN
 90
        0
 91
        0
 92
      512
 93
        0
300

 40
0.0
140
1.0
 94
        5
 62
     0
340
55
144
0.18
309
CONTENTFORMAT_END
171
     1
301
MARGIN
  1
CELLMARGIN_BEGIN
 40
0.06
 40
0.06
 40
0.06
 40
0.06
 40
0.18
 40
0.18
309
CELLMARGIN_END
 94
        6
 95
        1
302
GRIDFORMAT
  1
GRIDFORMAT_BEGIN
 90
        0
 91
        1
 62
     0
 92
       -2
340
0
 93
        0
 40
0.045
309
GRIDFORMAT_END
 95
        2
302
GRIDFORMAT
  1
GRIDFORMAT_BEGIN
 90
        0
 91
        1
 62
     0
 92
       -2
340
0
 93
        0
 40
0.045
309
GRIDFORMAT_END
 95
        4
302
GRIDFORMAT
  1
GRIDFORMAT_BEGIN
 90
        0
 91
        1
 62
     0
 92
       -2
340
0
 93
        0
 40
0.045
309
GRIDFORMAT_END
 95
        8
302
GRIDFORMAT
  1
GRIDFORMAT_BEGIN
 90
        0
 91
        1
 62
     0
 92
       -2
340
0
 93
        0
 40
0.045
309
GRIDFORMAT_END
 95
       16
302
GRIDFORMAT
  1
GRIDFORMAT_BEGIN
 90
        0
 91
        1
 62
     0
 92
       -2
340
0
 93
        0
 40
0.045
309
GRIDFORMAT_END
 95
       32
302
GRIDFORMAT
  1
GRIDFORMAT_BEGIN
 90
        0
 91
        1
 62
     0
 92
       -2
340
0
 93
        0
 40
0.045
309
GRIDFORMAT_END
309
TABLEFORMAT_END
  1
CELLSTYLE_BEGIN
 90
        2
 91
        1
300
_HEADER
309
CELLSTYLE_END
300
CELLSTYLE
  1
TABLEFORMAT_BEGIN
 90
        5
170
     1
 91
        0
 92
        0
 62
   257
 93
        1
300
CONTENTFORMAT
  1
CONTENTFORMAT_BEGIN
 90
        0
 91
        0
 92
      512
 93
        0
300

 40
0.0
140
1.0
 94
        2
 62
     0
340
55
144
0.18
309
CONTENTFORMAT_END
171
     1
301
MARGIN
  1
CELLMARGIN_BEGIN
 40
0.06
 40
0.06
 40
0.06
 40
0.06
 40
0.18
 40
0.18
309
CELLMARGIN_END
 94
        6
 95
        1
302
GRIDFORMAT
  1
GRIDFORMAT_BEGIN
 90
        0
 91
        1
 62
     0
 92
       -2
340
0
 93
        0
 40
0.045
309
GRIDFORMAT_END
 95
        2
302
GRIDFORMAT
  1
GRIDFORMAT_BEGIN
 90
        0
 91
        1
 62
     0
 92
       -2
340
0
 93
        0
 40
0.045
309
GRIDFORMAT_END
 95
        4
302
GRIDFORMAT
  1
GRIDFORMAT_BEGIN
 90
        0
 91
        1
 62
     0
 92
       -2
340
0
 93
        0
 40
0.045
309
GRIDFORMAT_END
 95
        8
302
GRIDFORMAT
  1
GRIDFORMAT_BEGIN
 90
        0
 91
        1
 62
     0
 92
       -2
340
0
 93
        0
 40
0.045
309
GRIDFORMAT_END
 95
       16
302
GRIDFORMAT
  1
GRIDFORMAT_BEGIN
 90
        0
 91
        1
 62
     0
 92
       -2
340
0
 93
        0
 40
0.045
309
GRIDFORMAT_END
 95
       32
302
GRIDFORMAT
  1
GRIDFORMAT_BEGIN
 90
        0
 91
        1
 62
     0
 92
       -2
340
0
 93
        0
 40
0.045
309
GRIDFORMAT_END
309
TABLEFORMAT_END
  1
CELLSTYLE_BEGIN
 90
        3
 91
        2
300
_DATA
309
CELLSTYLE_END
  0
ENDSEC
  0
EOF
