  0
SECTION
  2
HEADER
  9
$ACADVER
  1
AC1027
  9
$ACADMAINTVER
 70
    57
  9
$DWGCODEPAGE
  3
ANSI_1252
  9
$REQUIREDVERSIONS
160
                 0
  9
$INSBASE
 10
0.0
 20
0.0
 30
0.0
  9
$EXTMIN
 10
-2111.426470865578
 20
123.0175442021168
 30
-0.0015258207003583
  9
$EXTMAX
 10
1074.098539945638
 20
1530.433482873617
 30
0.0000000349246037
  9
$LIMMIN
 10
0.0
 20
0.0
  9
$LIMMAX
 10
500.0
 20
600.0
  9
$ORTHOMODE
 70
     1
  9
$REGENMODE
 70
     1
  9
$FILLMODE
 70
     1
  9
$QTEXTMODE
 70
     0
  9
$MIRRTEXT
 70
     1
  9
$LTSCALE
 40
1.0
  9
$ATTMODE
 70
     1
  9
$TEXTSIZE
 40
2.399999999999999
  9
$TRACEWID
 40
0.05
  9
$TEXTSTYLE
  7
NORM
  9
$CLAYER
  8
BEMASSUNG
  9
$CELTYPE
  6
BYLAYER
  9
$CECOLOR
 62
   256
  9
$CELTSCALE
 40
1.0
  9
$DISPSILH
 70
     0
  9
$DIMSCALE
 40
1.0
  9
$DIMASZ
 40
12.0
  9
$DIMEXO
 40
0.0
  9
$DIMDLI
 40
8.0
  9
$DIMRND
 40
0.0
  9
$DIMDLE
 40
0.0
  9
$DIMEXE
 40
1.0
  9
$DIMTP
 40
0.0
  9
$DIMTM
 40
0.0
  9
$DIMTXT
 40
9.0
  9
$DIMCEN
 40
1.5
  9
$DIMTSZ
 40
0.0
  9
$DIMTOL
 70
     0
  9
$DIMLIM
 70
     0
  9
$DIMTIH
 70
     0
  9
$DIMTOH
 70
     0
  9
$DIMSE1
 70
     0
  9
$DIMSE2
 70
     0
  9
$DIMTAD
 70
     1
  9
$DIMZIN
 70
     8
  9
$DIMBLK
  1

  9
$DIMASO
 70
     1
  9
$DIMSHO
 70
     1
  9
$DIMPOST
  1

  9
$DIMAPOST
  1

  9
$DIMALT
 70
     0
  9
$DIMALTD
 70
     2
  9
$DIMALTF
 40
25.39999999999999
  9
$DIMLFAC
 40
1.0
  9
$DIMTOFL
 70
     1
  9
$DIMTVP
 40
0.0
  9
$DIMTIX
 70
     1
  9
$DIMSOXD
 70
     0
  9
$DIMSAH
 70
     0
  9
$DIMBLK1
  1

  9
$DIMBLK2
  1

  9
$DIMSTYLE
  2
Katalog 09
  9
$DIMCLRD
 70
     2
  9
$DIMCLRE
 70
     2
  9
$DIMCLRT
 70
     3
  9
$DIMTFAC
 40
0.4285714285714288
  9
$DIMGAP
 40
2.5
  9
$DIMJUST
 70
     0
  9
$DIMSD1
 70
     0
  9
$DIMSD2
 70
     0
  9
$DIMTOLJ
 70
     1
  9
$DIMTZIN
 70
     8
  9
$DIMALTZ
 70
     8
  9
$DIMALTTZ
 70
     8
  9
$DIMUPT
 70
     0
  9
$DIMDEC
 70
     2
  9
$DIMTDEC
 70
     2
  9
$DIMALTU
 70
     2
  9
$DIMALTTD
 70
     2
  9
$DIMTXSTY
  7
ARIAL-STANDARD
  9
$DIMAUNIT
 70
     0
  9
$DIMADEC
 70
     0
  9
$DIMALTRND
 40
0.0
  9
$DIMAZIN
 70
     0
  9
$DIMDSEP
 70
    46
  9
$DIMATFIT
 70
     3
  9
$DIMFRAC
 70
     0
  9
$DIMLDRBLK
  1

  9
$DIMLUNIT
 70
     2
  9
$DIMLWD
 70
    -2
  9
$DIMLWE
 70
    -2
  9
$DIMTMOVE
 70
     0
  9
$DIMFXL
 40
1.0
  9
$DIMFXLON
 70
     0
  9
$DIMJOGANG
 40
1.570796326794896
  9
$DIMTFILL
 70
     0
  9
$DIMTFILLCLR
 70
     0
  9
$DIMARCSYM
 70
     0
  9
$DIMLTYPE
  6
BYBLOCK
  9
$DIMLTEX1
  6
BYBLOCK
  9
$DIMLTEX2
  6
BYBLOCK
  9
$DIMTXTDIRECTION
 70
     0
  9
$LUNITS
 70
     2
  9
$LUPREC
 70
     2
  9
$SKETCHINC
 40
0.1
  9
$FILLETRAD
 40
0.0
  9
$AUNITS
 70
     0
  9
$AUPREC
 70
     0
  9
$MENU
  1
.
  9
$ELEVATION
 40
0.0
  9
$PELEVATION
 40
0.0
  9
$THICKNESS
 40
0.0
  9
$LIMCHECK
 70
     0
  9
$CHAMFERA
 40
0.5
  9
$CHAMFERB
 40
0.5
  9
$CHAMFERC
 40
1.0
  9
$CHAMFERD
 40
0.0
  9
$SKPOLY
 70
     0
  9
$TDCREATE
 40
2451305.426412037
  9
$TDUCREATE
 40
2451305.343078704
  9
$TDUPDATE
 40
2457282.441861782
  9
$TDUUPDATE
 40
2457282.358528449
  9
$TDINDWG
 40
6.4130545833
  9
$TDUSRTIMER
 40
6.4130544329
  9
$USRTIMER
 70
     1
  9
$ANGBASE
 50
0.0
  9
$ANGDIR
 70
     0
  9
$PDMODE
 70
     0
  9
$PDSIZE
 40
0.0
  9
$PLINEWID
 40
0.0
  9
$SPLFRAME
 70
     0
  9
$SPLINETYPE
 70
     6
  9
$SPLINESEGS
 70
     8
  9
$HANDSEED
  5
420
  9
$SURFTAB1
 70
     6
  9
$SURFTAB2
 70
     6
  9
$SURFTYPE
 70
     6
  9
$SURFU
 70
     6
  9
$SURFV
 70
     6
  9
$UCSBASE
  2

  9
$UCSNAME
  2

  9
$UCSORG
 10
0.0
 20
0.0
 30
0.0
  9
$UCSXDIR
 10
1.0
 20
0.0
 30
0.0
  9
$UCSYDIR
 10
0.0
 20
1.0
 30
0.0
  9
$UCSORTHOREF
  2

  9
$UCSORTHOVIEW
 70
     0
  9
$UCSORGTOP
 10
0.0
 20
0.0
 30
0.0
  9
$UCSORGBOTTOM
 10
0.0
 20
0.0
 30
0.0
  9
$UCSORGLEFT
 10
0.0
 20
0.0
 30
0.0
  9
$UCSORGRIGHT
 10
0.0
 20
0.0
 30
0.0
  9
$UCSORGFRONT
 10
0.0
 20
0.0
 30
0.0
  9
$UCSORGBACK
 10
0.0
 20
0.0
 30
0.0
  9
$PUCSBASE
  2

  9
$PUCSNAME
  2

  9
$PUCSORG
 10
0.0
 20
0.0
 30
0.0
  9
$PUCSXDIR
 10
1.0
 20
0.0
 30
0.0
  9
$PUCSYDIR
 10
0.0
 20
1.0
 30
0.0
  9
$PUCSORTHOREF
  2

  9
$PUCSORTHOVIEW
 70
     0
  9
$PUCSORGTOP
 10
0.0
 20
0.0
 30
0.0
  9
$PUCSORGBOTTOM
 10
0.0
 20
0.0
 30
0.0
  9
$PUCSORGLEFT
 10
0.0
 20
0.0
 30
0.0
  9
$PUCSORGRIGHT
 10
0.0
 20
0.0
 30
0.0
  9
$PUCSORGFRONT
 10
0.0
 20
0.0
 30
0.0
  9
$PUCSORGBACK
 10
0.0
 20
0.0
 30
0.0
  9
$USERI1
 70
     0
  9
$USERI2
 70
     0
  9
$USERI3
 70
     0
  9
$USERI4
 70
     0
  9
$USERI5
 70
     0
  9
$USERR1
 40
0.0
  9
$USERR2
 40
0.0
  9
$USERR3
 40
0.0
  9
$USERR4
 40
0.0
  9
$USERR5
 40
0.0
  9
$WORLDVIEW
 70
     1
  9
$SHADEDGE
 70
     3
  9
$SHADEDIF
 70
    70
  9
$TILEMODE
 70
     1
  9
$MAXACTVP
 70
    48
  9
$PINSBASE
 10
0.0
 20
0.0
 30
0.0
  9
$PLIMCHECK
 70
     0
  9
$PEXTMIN
 10
1.000000000000000E+20
 20
1.000000000000000E+20
 30
1.000000000000000E+20
  9
$PEXTMAX
 10
-1.000000000000000E+20
 20
-1.000000000000000E+20
 30
-1.000000000000000E+20
  9
$PLIMMIN
 10
0.0
 20
0.0
  9
$PLIMMAX
 10
12.0
 20
9.0
  9
$UNITMODE
 70
     0
  9
$VISRETAIN
 70
     1
  9
$PLINEGEN
 70
     0
  9
$PSLTSCALE
 70
     1
  9
$TREEDEPTH
 70
  3020
  9
$CMLSTYLE
  2
STANDARD
  9
$CMLJUST
 70
     0
  9
$CMLSCALE
 40
1.0
  9
$PROXYGRAPHICS
 70
     1
  9
$MEASUREMENT
 70
     1
  9
$CELWEIGHT
370
    -1
  9
$ENDCAPS
280
     0
  9
$JOINSTYLE
280
     0
  9
$LWDISPLAY
290
     0
  9
$INSUNITS
 70
     4
  9
$HYPERLINKBASE
  1

  9
$STYLESHEET
  1

  9
$XEDIT
290
     1
  9
$CEPSNTYPE
380
     0
  9
$PSTYLEMODE
290
     1
  9
$FINGERPRINTGUID
  2
{6E732251-5826-47E7-9017-D9034D3D4C55}
  9
$VERSIONGUID
  2
{7C5A9D02-3257-459E-877A-86F7E4F1F18C}
  9
$EXTNAMES
290
     1
  9
$PSVPSCALE
 40
0.0
  9
$OLESTARTUP
290
     0
  9
$SORTENTS
280
   127
  9
$INDEXCTL
280
     0
  9
$HIDETEXT
280
     1
  9
$XCLIPFRAME
280
     0
  9
$HALOGAP
280
     0
  9
$OBSCOLOR
 70
   257
  9
$OBSLTYPE
280
     0
  9
$INTERSECTIONDISPLAY
280
     0
  9
$INTERSECTIONCOLOR
 70
   257
  9
$DIMASSOC
280
     1
  9
$PROJECTNAME
  1

  9
$CAMERADISPLAY
290
     0
  9
$LENSLENGTH
 40
50.0
  9
$CAMERAHEIGHT
 40
0.0
  9
$STEPSPERSEC
 40
2.0
  9
$STEPSIZE
 40
6.0
  9
$3DDWFPREC
 40
2.0
  9
$PSOLWIDTH
 40
0.25
  9
$PSOLHEIGHT
 40
4.0
  9
$LOFTANG1
 40
1.570795999999999
  9
$LOFTANG2
 40
1.570795999999999
  9
$LOFTMAG1
 40
0.0
  9
$LOFTMAG2
 40
0.0
  9
$LOFTPARAM
 70
     7
  9
$LOFTNORMALS
280
     1
  9
$LATITUDE
 40
37.795
  9
$LONGITUDE
 40
-122.394
  9
$NORTHDIRECTION
 40
0.0
  9
$TIMEZONE
 70
 -8000
  9
$LIGHTGLYPHDISPLAY
280
     1
  9
$TILEMODELIGHTSYNCH
280
     1
  9
$CMATERIAL
347
40
  9
$SOLIDHIST
280
     1
  9
$SHOWHIST
280
     1
  9
$DWFFRAME
280
     2
  9
$DGNFRAME
280
     0
  9
$REALWORLDSCALE
290
     1
  9
$INTERFERECOLOR
 62
     1
  9
$INTERFEREOBJVS
345
5D
  9
$INTERFEREVPVS
346
5E
  9
$CSHADOW
280
     0
  9
$SHADOWPLANELOCATION
 40
0.0
  0
ENDSEC
  0
SECTION
  2
CLASSES
  0
CLASS
  1
ACDBDICTIONARYWDFLT
  2
AcDbDictionaryWithDefault
  3
ObjectDBX Classes
 90
        0
 91
        1
280
     0
281
     0
  0
CLASS
  1
TABLESTYLE
  2
AcDbTableStyle
  3
ObjectDBX Classes
 90
     4095
 91
        1
280
     0
281
     0
  0
CLASS
  1
ACME_DOCUMENT
  2
AcMeDbDoc
  3
AcMeServices
 90
     1024
 91
        0
280
     0
281
     0
  0
CLASS
  1
AMGSETTINGSOBJ
  2
AmgSettingsObj
  3
"AcadM|Product Description: AutoCAD Mechanical|Company: Autodesk, Inc."
 90
     1024
 91
        2
280
     0
281
     0
  0
CLASS
  1
ACMESCOPE
  2
AcMeScope
  3
AcMeServices
 90
     1024
 91
        1
280
     0
281
     0
  0
CLASS
  1
ACMECOMMANDHISTORY
  2
AcMeCommandHistory
  3
AcMeServices
 90
     1024
 91
        0
280
     0
281
     0
  0
CLASS
  1
ACIMSYSVARMAN
  2
AcImSysVarManager
  3
AcMeServices
 90
     1024
 91
        1
280
     0
281
     0
  0
CLASS
  1
ACIMINTSYSVAR
  2
AcImIntSysVar
  3
AcMeServices
 90
     1024
 91
        0
280
     0
281
     0
  0
CLASS
  1
ACMEDRAWINGMAN
  2
AcMeDrawingMan
  3
AcMeServices
 90
     1024
 91
        0
280
     0
281
     0
  0
CLASS
  1
ACMEVIEW
  2
AcMeView
  3
AcMeServices
 90
     1024
 91
        0
280
     0
281
     0
  0
CLASS
  1
ACDBENTITYCACHE
  2
AcMeEntityCache
  3
AcMeServices
 90
     1024
 91
        0
280
     0
281
     0
  0
CLASS
  1
GSMANAGER
  2
AcMeGSManager
  3
AcMeServices
 90
     1024
 91
        0
280
     1
281
     0
  0
CLASS
  1
AMDTINTERNALREACTOR
  2
AmdtInternalReactor
  3
AcMeServices
 90
     1024
 91
        0
280
     0
281
     0
  0
CLASS
  1
ACMESTATEMGR
  2
AcMeStateMgr
  3
AcMeServices
 90
     1024
 91
        1
280
     0
281
     0
  0
CLASS
  1
ACGREFMASTER
  2
AcGrefMaster
  3
AcAttribServices
 90
     1024
 91
        1
280
     0
281
     0
  0
CLASS
  1
AM_DRAWING_MGR
  2
AcDmDwgMgr
  3
AcMechDwgViewMgmt
 90
     1024
 91
        0
280
     1
281
     0
  0
CLASS
  1
AM_DWG_DOCUMENT
  2
AcDmDwgDocument
  3
AcMechDwgViewMgmt
 90
     1024
 91
        0
280
     1
281
     0
  0
CLASS
  1
AM_DWG_SHEET
  2
AcDmSheet
  3
AcMechDwgViewMgmt
 90
     1024
 91
        0
280
     1
281
     0
  0
CLASS
  1
AM_VIEWDIMPARMAP
  2
AcDmViewDimParMap
  3
AcMechDwgViewMgmt
 90
     1024
 91
        0
280
     1
281
     0
  0
CLASS
  1
ACIMREALSYSVAR
  2
AcImRealSysVar
  3
AcMeServices
 90
     1024
 91
        0
280
     0
281
     0
  0
CLASS
  1
AM_DWGMGR_NAME
  2
AcDmDwgMgrName
  3
AcMechDwgViewMgmt
 90
     1024
 91
        0
280
     1
281
     0
  0
CLASS
  1
ACME_DATABASE
  2
AcMeDbDatabase
  3
AcMeServices
 90
     1024
 91
        0
280
     0
281
     0
  0
CLASS
  1
ACRFINSADJUSTERMGR
  2
AcRfInsAdjusterMgr
  3
AcMeServices
 90
     1024
 91
        0
280
     0
281
     0
  0
CLASS
  1
ACGREFACADMASTER
  2
AcGrefacadMaster
  3
AcGrefServices
 90
     1024
 91
        0
280
     0
281
     0
  0
CLASS
  1
AMDTMENUSTATEMGR
  2
AmdtMenuStateMgr
  3
McadcomServices
 90
     1024
 91
        0
280
     0
281
     0
  0
CLASS
  1
AMDTMCOMMENUSTATE
  2
AmdtMcomMenuState
  3
McadcomServices
 90
     1024
 91
        0
280
     0
281
     0
  0
CLASS
  1
AMIMASTER
  2
AmiMaster
  3
AmiServices
 90
     1024
 91
        0
280
     0
281
     0
  0
CLASS
  1
MAPIAMMOUDLE
  2
MApiAmModule
  3
MApiAmServices
 90
     1024
 91
        0
280
     0
281
     0
  0
CLASS
  1
ACIMSTRSYSVAR
  2
AcImStrSysVar
  3
AcMeServices
 90
     1024
 91
        1
280
     0
281
     0
  0
CLASS
  1
AMDTADMENUSTATE
  2
AmdtAdMenuState
  3
DesignerServices
 90
     1024
 91
        0
280
     1
281
     0
  0
CLASS
  1
ADAPPL
  2
AcAdAppl
  3
DesignerAssemblies
 90
     1024
 91
        0
280
     0
281
     0
  0
CLASS
  1
DEPMGR
  2
AcAdDepMgr
  3
DesignerAssemblies
 90
     1024
 91
        0
280
     0
281
     0
  0
CLASS
  1
PARAMMGR
  2
AcAdParamMgr
  3
DesignerAssemblies
 90
     1024
 91
        0
280
     0
281
     0
  0
CLASS
  1
PARAMSCOPE
  2
AcAdParamScope
  3
DesignerAssemblies
 90
     1024
 91
        0
280
     0
281
     0
  0
CLASS
  1
NAMEDAPPL
  2
AcAdNamedAppl
  3
DesignerAssemblies
 90
     1024
 91
        0
280
     0
281
     0
  0
CLASS
  1
AMDTDMMENUSTATE
  2
AmdtDmMenuState
  3
AcMechDwgViewMgmt
 90
     1024
 91
        0
280
     1
281
     0
  0
CLASS
  1
AMDTAMMENUSTATE
  2
AmdtAmMenuState
  3
DesignerAssemblies
 90
     1024
 91
        0
280
     0
281
     0
  0
CLASS
  1
ACAMPROJECT
  2
AcAmProject
  3
DesignerAssemblies
 90
     1024
 91
        0
280
     0
281
     0
  0
CLASS
  1
ACAMGRCOMPDEF
  2
AcAmGrCompDef
  3
DesignerAssemblies
 90
     1024
 91
        0
280
     0
281
     0
  0
CLASS
  1
ACCMCONTEXT
  2
AcCmContext
  3
DesignerAssemblies
 90
     1024
 91
        0
280
     0
281
     0
  0
CLASS
  1
ACAMCOMPDEF
  2
AcAmCompDef
  3
DesignerAssemblies
 90
     1024
 91
        0
280
     0
281
     0
  0
CLASS
  1
ACAMCOMPDEFMGR
  2
AcAmCompDefMgr
  3
DesignerAssemblies
 90
     1024
 91
        0
280
     0
281
     0
  0
CLASS
  1
AMCONTEXTMGR
  2
AcAmContextMgr
  3
DesignerAssemblies
 90
     1024
 91
        0
280
     0
281
     0
  0
CLASS
  1
ACAMCONTEXTMODELER
  2
AcAmContextModeler
  3
DesignerAssemblies
 90
     1024
 91
        0
280
     0
281
     0
  0
CLASS
  1
ACMDATADICTIONARY
  2
AcmDataDictionary
  3
"AcmSymBB|Product Description: AutoCAD Mechanical|Company: Autodesk, Inc."
 90
     1024
 91
        0
280
     0
281
     0
  0
CLASS
  1
CATALOGSTATE
  2
AcAmCatalogState
  3
DesignerAssemblies
 90
     1024
 91
        0
280
     0
281
     0
  0
CLASS
  1
ACAMGRCOMPDEFSET
  2
AcAmGrCompDefSet
  3
DesignerAssemblies
 90
     1024
 91
        0
280
     0
281
     0
  0
CLASS
  1
AMDTBROWSERDBTAB
  2
AmdtBrowserDbTab
  3
McadcomServices
 90
     1024
 91
        0
280
     0
281
     0
  0
CLASS
  1
CBROWSERAPPOBJECT
  2
CBrowserAppObject
  3
McadcomServices
 90
     1024
 91
        0
280
     0
281
     0
  0
CLASS
  1
DM_PLACEHOLDER
  2
AcDmSelsetPlaceholder
  3
McadcomServices
 90
     1024
 91
        0
280
     0
281
     0
  0
CLASS
  1
ACMSTANDARDANSI
  2
AcmStandardANSI
  3
"Amdt_StdImp|Product Description: AutoCAD Mechanical|Company: Autodesk, Inc."
 90
     1024
 91
        0
280
     0
281
     0
  0
CLASS
  1
AMGOBJPROPCFG
  2
AmgObjPropCfg
  3
"AmgLay|Product Description: AutoCAD Mechanical|Company: Autodesk, Inc."
 90
     1024
 91
        1
280
     0
281
     0
  0
CLASS
  1
ACMSURFSTANDARDANSI
  2
AcmSurfTextStdANSI
  3
"Amdt_StdImp|Product Description: AutoCAD Mechanical|Company: Autodesk, Inc."
 90
     1024
 91
        0
280
     0
281
     0
  0
CLASS
  1
ACMFCFSTANDARDANSI
  2
AcmFCFStdANSI
  3
"Amdt_StdImp|Product Description: AutoCAD Mechanical|Company: Autodesk, Inc."
 90
     1024
 91
        0
280
     0
281
     0
  0
CLASS
  1
ACMWELDSTANDARDANSI
  2
AcmWeldingStdANSI
  3
"Amdt_StdImp|Product Description: AutoCAD Mechanical|Company: Autodesk, Inc."
 90
     1024
 91
        0
280
     0
281
     0
  0
CLASS
  1
ACMIDSTANDARDANSI
  2
AcmIdStdANSI
  3
"Amdt_StdImp|Product Description: AutoCAD Mechanical|Company: Autodesk, Inc."
 90
     1024
 91
        0
280
     0
281
     0
  0
CLASS
  1
ACMDATUMSTANDARDANSI
  2
AcmDatumStdANSI
  3
"Amdt_StdImp|Product Description: AutoCAD Mechanical|Company: Autodesk, Inc."
 90
     1024
 91
        0
280
     0
281
     0
  0
CLASS
  1
ACMBOMSTANDARDANSI
  2
AcmBOMStdANSI
  3
"Amdt_StdImp|Product Description: AutoCAD Mechanical|Company: Autodesk, Inc."
 90
     1024
 91
        0
280
     0
281
     0
  0
CLASS
  1
ACMDETAILSTANDARDANSI
  2
AmdtDetailSymStdANSI
  3
"Amdt_StdImp|Product Description: AutoCAD Mechanical|Company: Autodesk, Inc."
 90
     1024
 91
        0
280
     0
281
     0
  0
CLASS
  1
ACMSECTIONSTANDARDANSI
  2
AmdtSectionSymStdANSI
  3
"Amdt_StdImp|Product Description: AutoCAD Mechanical|Company: Autodesk, Inc."
 90
     1024
 91
        0
280
     0
281
     0
  0
CLASS
  1
ACMCENTERLINESTANDARDANSI
  2
AmdtCenterLineStdANSI
  3
"Amdt_StdImp|Product Description: AutoCAD Mechanical|Company: Autodesk, Inc."
 90
     1024
 91
        0
280
     0
281
     0
  0
CLASS
  1
ACMTHREADLINESTANDARDANSI
  2
AmdtThreadLineStdANSI
  3
"Amdt_StdImp|Product Description: AutoCAD Mechanical|Company: Autodesk, Inc."
 90
     1024
 91
        0
280
     0
281
     0
  0
CLASS
  1
ACMNOTESTANDARDANSI
  2
AmdtNoteStdANSI
  3
"Amdt_StdImp|Product Description: AutoCAD Mechanical|Company: Autodesk, Inc."
 90
     1024
 91
        0
280
     0
281
     0
  0
CLASS
  1
AMDTNOTETEMPLATEDB
  2
AmdtNoteTemplateDB
  3
AcmSymBB|Product Description: AutoCAD Mechanical|Company: Autodesk, Inc.
 90
     1024
 91
        7
280
     0
281
     0
  0
CLASS
  1
ACAMGLAYSTD
  2
AcAmgLayStd
  3
"AmgLay|Product Description: AutoCAD Mechanical|Company: Autodesk, Inc."
 90
     1024
 91
        1
280
     0
281
     0
  0
CLASS
  1
ACAMGDIMSTD
  2
AcAmgDimStd
  3
"AmgDim|Product Description: AutoCAD Mechanical|Company: Autodesk, Inc."
 90
     1024
 91
        1
280
     0
281
     0
  0
CLASS
  1
ACAMGHOLECHARTSTDANSI
  2
AcAmgHoleChartStdANSI
  3
AmgDim|Product Description: AutoCAD Mechanical|Company: Autodesk, Inc.
 90
     1024
 91
        0
280
     0
281
     0
  0
CLASS
  1
ACAMGTITLESTD
  2
AcAmgTitleStd
  3
"AmgTitle|Product Description: AutoCAD Mechanical|Company: Autodesk, Inc."
 90
     1024
 91
        1
280
     0
281
     0
  0
CLASS
  1
ACAMGFILTERDAT
  2
AcAmgFilterDat
  3
"AcadM|Product Description: AutoCAD Mechanical|Company: Autodesk, Inc."
 90
     1024
 91
        0
280
     0
281
     0
  0
CLASS
  1
PLOTSETTINGS
  2
AcDbPlotSettings
  3
ObjectDBX Classes
 90
        0
 91
        0
280
     0
281
     0
  0
CLASS
  1
ACMSTANDARDDIN
  2
AcmStandardDIN
  3
"Amdt_StdImp|Product Description: AutoCAD Mechanical|Company: Autodesk, Inc."
 90
     1024
 91
        1
280
     0
281
     0
  0
CLASS
  1
AMDTEDGESTANDARDDIN
  2
AmdtEdgeStdDIN
  3
"Amdt_StdImp|Product Description: AutoCAD Mechanical|Company: Autodesk, Inc."
 90
     1024
 91
        0
280
     0
281
     0
  0
CLASS
  1
ACMSURFSTANDARDDIN
  2
AcmSurfTextStdDIN
  3
"Amdt_StdImp|Product Description: AutoCAD Mechanical|Company: Autodesk, Inc."
 90
     1024
 91
        0
280
     0
281
     0
  0
CLASS
  1
ACMFCFSTANDARDDIN
  2
AcmFCFStdDIN
  3
"Amdt_StdImp|Product Description: AutoCAD Mechanical|Company: Autodesk, Inc."
 90
     1024
 91
        0
280
     0
281
     0
  0
CLASS
  1
ACMWELDSTANDARDDIN
  2
AcmWeldingStdDIN
  3
"Amdt_StdImp|Product Description: AutoCAD Mechanical|Company: Autodesk, Inc."
 90
     1024
 91
        1
280
     0
281
     0
  0
CLASS
  1
ACMIDSTANDARDDIN
  2
AcmIdStdDIN
  3
"Amdt_StdImp|Product Description: AutoCAD Mechanical|Company: Autodesk, Inc."
 90
     1024
 91
        0
280
     0
281
     0
  0
CLASS
  1
ACMDATUMSTANDARDDIN
  2
AcmDatumStdDIN
  3
"Amdt_StdImp|Product Description: AutoCAD Mechanical|Company: Autodesk, Inc."
 90
     1024
 91
        1
280
     0
281
     0
  0
CLASS
  1
ACMBOMSTANDARDDIN
  2
AcmBOMStdDIN
  3
"Amdt_StdImp|Product Description: AutoCAD Mechanical|Company: Autodesk, Inc."
 90
     1024
 91
        1
280
     0
281
     0
  0
CLASS
  1
ACMDETAILSTANDARDDIN
  2
AmdtDetailSymStdDIN
  3
"Amdt_StdImp|Product Description: AutoCAD Mechanical|Company: Autodesk, Inc."
 90
     1024
 91
        1
280
     0
281
     0
  0
CLASS
  1
ACMSECTIONSTANDARDDIN
  2
AmdtSectionSymStdDIN
  3
"Amdt_StdImp|Product Description: AutoCAD Mechanical|Company: Autodesk, Inc."
 90
     1024
 91
        1
280
     0
281
     0
  0
CLASS
  1
ACMCENTERLINESTANDARDDIN
  2
AmdtCenterLineStdDIN
  3
"Amdt_StdImp|Product Description: AutoCAD Mechanical|Company: Autodesk, Inc."
 90
     1024
 91
        1
280
     0
281
     0
  0
CLASS
  1
ACMNOTESTANDARDDIN
  2
AmdtNoteStdDIN
  3
"Amdt_StdImp|Product Description: AutoCAD Mechanical|Company: Autodesk, Inc."
 90
     1024
 91
        1
280
     0
281
     0
  0
CLASS
  1
ACAMGHOLECHARTSTDDIN
  2
AcAmgHoleChartStdDIN
  3
AmgDim|Product Description: AutoCAD Mechanical|Company: Autodesk, Inc.
 90
     1024
 91
        1
280
     0
281
     0
  0
CLASS
  1
ACMTHREADLINESTANDARDDIN
  2
AmdtThreadLineStdDIN
  3
"Amdt_StdImp|Product Description: AutoCAD Mechanical|Company: Autodesk, Inc."
 90
     1024
 91
        1
280
     0
281
     0
  0
CLASS
  1
ACMDATAENTRYBLOCK
  2
AcmDataEntryBlock
  3
AcmSymBB|Product Description: AutoCAD Mechanical|Company: Autodesk, Inc.
 90
     1024
 91
        0
280
     0
281
     0
  0
CLASS
  1
DICTIONARYVAR
  2
AcDbDictionaryVar
  3
ObjectDBX Classes
 90
        0
 91
        9
280
     0
281
     0
  0
CLASS
  1
SORTENTSTABLE
  2
AcDbSortentsTable
  3
ObjectDBX Classes
 90
        0
 91
        2
280
     0
281
     0
  0
CLASS
  1
MATERIAL
  2
AcDbMaterial
  3
ObjectDBX Classes
 90
     1153
 91
        3
280
     0
281
     0
  0
CLASS
  1
VISUALSTYLE
  2
AcDbVisualStyle
  3
ObjectDBX Classes
 90
     4095
 91
        3
280
     0
281
     0
  0
CLASS
  1
SCALE
  2
AcDbScale
  3
ObjectDBX Classes
 90
     1153
 91
       17
280
     0
281
     0
  0
CLASS
  1
MLEADERSTYLE
  2
AcDbMLeaderStyle
  3
ACDB_MLEADERSTYLE_CLASS
 90
     4095
 91
        0
280
     0
281
     0
  0
CLASS
  1
ACMTAPERSTANDARDANSI
  2
AcmTaperStdANSI
  3
"Amdt_StdImp|Product Description: AutoCAD Mechanical|Company: Autodesk, Inc."
 90
     1024
 91
        0
280
     0
281
     0
  0
CLASS
  1
ACMANOOTATIONVIEWSTANDARDANSI
  2
AmdtAnViewStdANSI
  3
"Amdt_StdImp|Product Description: AutoCAD Mechanical|Company: Autodesk, Inc."
 90
     1024
 91
        0
280
     0
281
     0
  0
CLASS
  1
ACMTAPERSTANDARDDIN
  2
AcmTaperStdDIN
  3
"Amdt_StdImp|Product Description: AutoCAD Mechanical|Company: Autodesk, Inc."
 90
     1024
 91
        1
280
     0
281
     0
  0
CLASS
  1
ACMANOOTATIONVIEWSTANDARDDIN
  2
AmdtAnViewStdDIN
  3
"Amdt_StdImp|Product Description: AutoCAD Mechanical|Company: Autodesk, Inc."
 90
     1024
 91
        1
280
     0
281
     0
  0
CLASS
  1
ACRFATTGENMGR
  2
AcRfAttGeneralMgr
  3
AcAttribServices
 90
     1024
 91
        0
280
     0
281
     0
  0
CLASS
  1
ACRFMCADAPIATTHOLDER
  2
AcRfMCADAPIAttHolder
  3
AcAttribServices
 90
     1024
 91
        0
280
     0
281
     0
  0
CLASS
  1
AMDTSYSATTR
  2
AmdtSystemAttribute
  3
AcAttribServices
 90
     1024
 91
        0
280
     0
281
     0
  0
CLASS
  1
CAMSSTRUCTBTNSTATE
  2
StructBtnState
  3
DesignerAssemblies
 90
     1024
 91
        0
280
     0
281
     0
  0
CLASS
  1
CELLSTYLEMAP
  2
AcDbCellStyleMap
  3
ObjectDBX Classes
 90
     1152
 91
        1
280
     0
281
     0
  0
CLASS
  1
AEC_REFEDIT_STATUS_TRACKER
  2
AecDbRefEditStatusTracker
  3
AecArchBase70|Product Desc: Autodesk Architectural Desktop 2007 |Company: Autodesk,Inc. |WEB Address: www.autodesk.com
 90
      129
 91
        0
280
     1
281
     0
  0
CLASS
  1
NPOCOLLECTION
  2
AcDbImpNonPersistentObjectsCollection
  3
ObjectDBX Classes
 90
     1153
 91
        0
280
     0
281
     0
  0
CLASS
  1
ACDBLINERES
  2
AcDbLineRes
  3
AcGrefServices
 90
     1024
 91
        0
280
     0
281
     0
  0
CLASS
  1
AMDTNOTE
  2
AmdtNote
  3
"AcmSymBB|Product Description: AutoCAD Mechanical|Company: Autodesk, Inc."
 90
     1024
 91
        0
280
     0
281
     1
  0
CLASS
  1
AMDTFORMULAUPDATEDISPATCHER
  2
AmdtFormulaUpdateDispatcher
  3
AcMeServices
 90
     1024
 91
        0
280
     0
281
     0
  0
CLASS
  1
AMDTEDGESTANDARDDIN13715
  2
AmdtEdgeStdDIN13715
  3
"Amdt_StdImp|Product Description: AutoCAD Mechanical|Company: Autodesk, Inc."
 90
     1024
 91
        1
280
     0
281
     0
  0
CLASS
  1
ACMSURFSTANDARDDIN2002
  2
AcmSurfTextStdDIN2002
  3
"Amdt_StdImp|Product Description: AutoCAD Mechanical|Company: Autodesk, Inc."
 90
     1024
 91
        1
280
     0
281
     0
  0
CLASS
  1
ACMDIMBREAKPERSREACTOR
  2
AcmDimBreakPersReactor
  3
AmgDim|Product Description: AutoCAD Mechanical|Company: Autodesk, Inc.
 90
     1024
 91
        0
280
     0
281
     0
  0
CLASS
  1
ACMFCFSTANDARDDIN2008
  2
AcmFCFStdDIN2008
  3
"Amdt_StdImp|Product Description: AutoCAD Mechanical|Company: Autodesk, Inc."
 90
     1024
 91
        1
280
     0
281
     0
  0
CLASS
  1
ACMIDSTANDARDDIN2008
  2
AcmIdStdDIN2008
  3
"Amdt_StdImp|Product Description: AutoCAD Mechanical|Company: Autodesk, Inc."
 90
     1024
 91
        1
280
     0
281
     0
  0
CLASS
  1
ACDBASSOCNETWORK
  2
AcDbAssocNetwork
  3
ObjectDBX Classes
 90
     1025
 91
        0
280
     0
281
     0
  0
CLASS
  1
ACDBASSOC2DCONSTRAINTGROUP
  2
AcDbAssoc2dConstraintGroup
  3
ObjectDBX Classes
 90
     1025
 91
        0
280
     0
281
     0
  0
CLASS
  1
ACDBASSOCGEOMDEPENDENCY
  2
AcDbAssocGeomDependency
  3
ObjectDBX Classes
 90
     1025
 91
        0
280
     0
281
     0
  0
CLASS
  1
ACDBSECTIONVIEWSTYLE
  2
AcDbSectionViewStyle
  3
ObjectDBX Classes
 90
     1025
 91
        3
280
     0
281
     0
  0
CLASS
  1
ACDBDETAILVIEWSTYLE
  2
AcDbDetailViewStyle
  3
ObjectDBX Classes
 90
     1025
 91
        3
280
     0
281
     0
  0
CLASS
  1
ACMSECTIONSTANDARDCUSTOM
  2
AmdtSectionSymStdCustom
  3
"Amdt_StdImp|Product Description: AutoCAD Mechanical|Company: Autodesk, Inc."
 90
     1024
 91
        2
280
     0
281
     0
  0
CLASS
  1
ACMDETAILTANDARDCUSTOM
  2
AmdtDetailSymStdCustom
  3
"Amdt_StdImp|Product Description: AutoCAD Mechanical|Company: Autodesk, Inc."
 90
     1024
 91
        2
280
     0
281
     0
  0
CLASS
  1
FIELD
  2
AcDbField
  3
ObjectDBX Classes
 90
     1152
 91
        6
280
     0
281
     0
  0
CLASS
  1
FIELDLIST
  2
AcDbFieldList
  3
ObjectDBX Classes
 90
     1152
 91
        1
280
     0
281
     0
  0
ENDSEC
  0
SECTION
  2
TABLES
  0
TABLE
  2
VPORT
  5
30
330
0
100
AcDbSymbolTable
 70
     1
  0
VPORT
  5
31
330
30
100
AcDbSymbolTableRecord
100
AcDbViewportTableRecord
  2
*Active
 70
     0
 10
0.0
 20
0.0
 11
1.0
 21
1.0
 12
-1480.168892954799
 22
815.8153255529528
 13
0.0
 23
0.0
 14
10.0
 24
10.0
 15
10.0
 25
10.0
 16
0.0
 26
0.0
 36
1.0
 17
0.0
 27
0.0
 37
0.0
 40
1503.64514045638
 41
2.179646017699115
 42
50.0
 43
0.0
 44
0.0
 50
0.0
 51
0.0
 71
     0
 72
  5000
 73
     1
 74
     0
 75
     0
 76
     0
 77
     0
 78
     2
281
     0
 65
     0
110
0.0
120
0.0
130
0.0
111
1.0
121
0.0
131
0.0
112
0.0
122
1.0
132
0.0
 79
     0
146
0.0
348
32
 60
     3
 61
     5
292
     1
282
     1
141
0.0
142
0.0
 63
   250
421
  3355443
1001
ACAD_NAV_VCDISPLAY
1070
     3
  0
ENDTAB
  0
TABLE
  2
LTYPE
  5
2B
330
0
100
AcDbSymbolTable
 70
    13
  0
LTYPE
  5
2C
330
2B
100
AcDbSymbolTableRecord
100
AcDbLinetypeTableRecord
  2
BYBLOCK
 70
     0
  3

 72
    65
 73
     0
 40
0.0
  0
LTYPE
  5
2D
330
2B
100
AcDbSymbolTableRecord
100
AcDbLinetypeTableRecord
  2
BYLAYER
 70
     0
  3

 72
    65
 73
     0
 40
0.0
  0
LTYPE
  5
17
330
2B
100
AcDbSymbolTableRecord
100
AcDbLinetypeTableRecord
  2
CONTINUOUS
 70
     0
  3
Solid line
 72
    65
 73
     0
 40
0.0
  0
LTYPE
  5
1C1
330
2B
100
AcDbSymbolTableRecord
100
AcDbLinetypeTableRecord
  2
STRICHPUNKT2
 70
     0
  3
Strichpunkt (.5x) _._._._._._._._._._._._._._._
 72
    65
 73
     4
 40
12.7
 49
6.349999999999997
 74
     0
 49
-3.174999999999998
 74
     0
 49
0.0
 74
     0
 49
-3.174999999999998
 74
     0
  0
LTYPE
  5
3C8
330
2B
100
AcDbSymbolTableRecord
100
AcDbLinetypeTableRecord
  2
ACDINWELD
 70
     0
  3
_ _ _ _ _
 72
    65
 73
     2
 40
2.0
 49
2.0
 74
     0
 49
-1.0
 74
     0
  0
LTYPE
  5
3CC
330
2B
100
AcDbSymbolTableRecord
100
AcDbLinetypeTableRecord
  2
ACDINTGB
 70
     0
  3
__ . . __ . .
 72
    65
 73
     6
 40
9.0
 49
4.0
 74
     0
 49
-1.0
 74
     0
 49
1.0
 74
     0
 49
-1.0
 74
     0
 49
1.0
 74
     0
 49
-1.0
 74
     0
  0
LTYPE
  5
3CA
330
2B
100
AcDbSymbolTableRecord
100
AcDbLinetypeTableRecord
  2
ACDINTGL
 70
     0
  3
_ _ _ _ _
 72
    65
 73
     2
 40
3.0
 49
2.0
 74
     0
 49
-1.0
 74
     0
  0
LTYPE
  5
1CB
330
2B
100
AcDbSymbolTableRecord
100
AcDbLinetypeTableRecord
  2
VERDECKT
 70
     0
  3
Verdeckt __ __ __ __ __ __ __ __ __ __ __ __ __
 72
    65
 73
     2
 40
9.524999999999996
 49
6.349999999999997
 74
     0
 49
-3.174999999999998
 74
     0
  0
LTYPE
  5
3B5
330
2B
100
AcDbSymbolTableRecord
100
AcDbLinetypeTableRecord
  2
Amconstr
 70
     0
  3
_______________________
 72
    65
 73
     2
 40
9999.0
 49
9999.0
 74
     0
 49
0.0
 74
     0
  0
LTYPE
  5
3B8
330
2B
100
AcDbSymbolTableRecord
100
AcDbLinetypeTableRecord
  2
Amzigzag
 70
     0
  3
/\/-/\/-/\/-/\/-/\/-/\/
 72
    65
 73
     2
 40
11.0001
 49
0.0001
 74
     4
 75
   135
340
3B9
 46
0.04
 50
0.0
 44
0.0
 45
0.0
 49
-11.0
 74
     0
  0
LTYPE
  5
3B2
330
2B
100
AcDbSymbolTableRecord
100
AcDbLinetypeTableRecord
  2
AM_DIN_F_W050
 70
     0
  3
__ __ __ __ __ __ __ __ __ __ __ __ __ __ __
 72
    65
 73
     2
 40
6.25
 49
4.75
 74
     0
 49
-1.5
 74
     0
  0
LTYPE
  5
3B3
330
2B
100
AcDbSymbolTableRecord
100
AcDbLinetypeTableRecord
  2
AM_DIN_G_W050
 70
     0
  3
____ . ____ . ____ . ____ . ____ . ____ . ____
 72
    65
 73
     4
 40
13.75
 49
9.75
 74
     0
 49
-1.5
 74
     0
 49
1.0
 74
     0
 49
-1.5
 74
     0
  0
LTYPE
  5
3B4
330
2B
100
AcDbSymbolTableRecord
100
AcDbLinetypeTableRecord
  2
AM_DIN_K_W050
 70
     0
  3
_____ . . _____ . . _____ . . ____ .. ____
 72
    65
 73
     6
 40
16.25
 49
9.75
 74
     0
 49
-1.5
 74
     0
 49
1.0
 74
     0
 49
-1.5
 74
     0
 49
1.0
 74
     0
 49
-1.5
 74
     0
  0
LTYPE
  5
3B6
330
2B
100
AcDbSymbolTableRecord
100
AcDbLinetypeTableRecord
  2
AM_DIN_G_W050x2
 70
     0
  3
__ . __ . __ . __ . __ . __
 72
    65
 73
     4
 40
6.875
 49
4.75
 74
     0
 49
-0.875
 74
     0
 49
0.375
 74
     0
 49
-0.875
 74
     0
  0
LTYPE
  5
3B7
330
2B
100
AcDbSymbolTableRecord
100
AcDbLinetypeTableRecord
  2
AM_DIN_F_W050x2
 70
     0
  3
 _ _ _ _ _ _ _ _ _ _ _ _
 72
    65
 73
     2
 40
3.125
 49
2.25
 74
     0
 49
-0.875
 74
     0
  0
ENDTAB
  0
TABLE
  2
LAYER
  5
21
102
{ACAD_XDICTIONARY
360
22
102
}
330
0
100
AcDbSymbolTable
 70
     8
  0
LAYER
  5
7
102
{ACAD_XDICTIONARY
360
8
102
}
330
21
100
AcDbSymbolTableRecord
100
AcDbLayerTableRecord
  2
0
 70
     0
 62
     7
  6
CONTINUOUS
370
    -3
390
A
347
D
348
0
  0
LAYER
  5
113
102
{ACAD_XDICTIONARY
360
114
102
}
330
21
100
AcDbSymbolTableRecord
100
AcDbLayerTableRecord
  2
UMRISS05
 70
     0
 62
     4
  6
CONTINUOUS
370
    -3
390
A
347
D
348
0
  0
LAYER
  5
56
102
{ACAD_XDICTIONARY
360
57
102
}
330
21
100
AcDbSymbolTableRecord
100
AcDbLayerTableRecord
  2
BEMASSUNG
 70
     0
 62
     2
  6
CONTINUOUS
370
    -3
390
A
347
D
348
0
  0
LAYER
  5
1BE
102
{ACAD_XDICTIONARY
360
1BF
102
}
330
21
100
AcDbSymbolTableRecord
100
AcDbLayerTableRecord
  2
ACHSEN
 70
     0
 62
     1
  6
STRICHPUNKT2
370
    -3
390
A
347
D
348
0
  0
LAYER
  5
7C
330
21
100
AcDbSymbolTableRecord
100
AcDbLayerTableRecord
  2
DEFPOINTS
 70
     0
 62
     7
  6
CONTINUOUS
290
     0
370
    -3
390
A
347
D
348
0
  0
LAYER
  5
1C8
102
{ACAD_XDICTIONARY
360
1C9
102
}
330
21
100
AcDbSymbolTableRecord
100
AcDbLayerTableRecord
  2
AVERDECKTE
 70
     0
 62
    13
  6
VERDECKT
370
    -3
390
A
347
D
348
0
  0
LAYER
  5
11A
330
21
100
AcDbSymbolTableRecord
100
AcDbLayerTableRecord
  2
AM_0
 70
     0
 62
     7
  6
CONTINUOUS
370
    50
390
A
347
D
348
0
1001
AcAecLayerStandard
1000

1000

  0
LAYER
  5
101
330
21
100
AcDbSymbolTableRecord
100
AcDbLayerTableRecord
  2
AM_5
 70
     0
 62
     3
  6
CONTINUOUS
370
    25
390
A
347
D
348
0
1001
AcAecLayerStandard
1000

1000

  0
ENDTAB
  0
TABLE
  2
STYLE
  5
28
330
0
100
AcDbSymbolTable
 70
     5
  0
STYLE
  5
29
330
28
100
AcDbSymbolTableRecord
100
AcDbTextStyleTableRecord
  2
STANDARD
 70
     0
 40
0.0
 41
1.0
 50
0.0
 71
     0
 42
10.0
  3
txt
  4

  0
STYLE
  5
59
330
28
100
AcDbSymbolTableRecord
100
AcDbTextStyleTableRecord
  2
NORM
 70
     0
 40
0.0
 41
0.8
 50
0.0
 71
     0
 42
2.399999999999999
  3
SIMPLEX.shx
  4

  0
STYLE
  5
3C6
330
28
100
AcDbSymbolTableRecord
100
AcDbTextStyleTableRecord
  2
ACDINGDT
 70
     0
 40
0.0
 41
1.0
 50
0.0
 71
     0
 42
2.5
  3
amgdt.shx
  4

  0
STYLE
  5
38
330
28
100
AcDbSymbolTableRecord
100
AcDbTextStyleTableRecord
  2
ARIAL-STANDARD
 70
     0
 40
0.0
 41
1.0
 50
0.0
 71
     0
 42
3.5
  3
arial.ttf
  4

1001
ACAD
1000
Arial
1071
       34
  0
STYLE
  5
3B9
330
28
100
AcDbSymbolTableRecord
100
AcDbTextStyleTableRecord
  2

 70
     1
 40
0.0
 41
1.0
 50
0.0
 71
     0
 42
2.5
  3
ltypeshp.shx
  4

  0
ENDTAB
  0
TABLE
  2
VIEW
  5
2E
330
0
100
AcDbSymbolTable
 70
     0
  0
ENDTAB
  0
TABLE
  2
UCS
  5
2F
330
0
100
AcDbSymbolTable
 70
     0
  0
ENDTAB
  0
TABLE
  2
APPID
  5
35
330
0
100
AcDbSymbolTable
 70
    10
  0
APPID
  5
26
330
35
100
AcDbSymbolTableRecord
100
AcDbRegAppTableRecord
  2
ACAD
 70
     0
  0
APPID
  5
3F9
330
35
100
AcDbSymbolTableRecord
100
AcDbRegAppTableRecord
  2
ACAD_DSTYLE_DIMJOGGED_JOGANGLE_SYMBOL
 70
     0
  0
APPID
  5
3A
330
35
100
AcDbSymbolTableRecord
100
AcDbRegAppTableRecord
  2
ACAD_DSTYLE_DIMJAG
 70
     0
  0
APPID
  5
39
330
35
100
AcDbSymbolTableRecord
100
AcDbRegAppTableRecord
  2
ACAD_DSTYLE_DIMBREAK
 70
     0
  0
APPID
  5
3B
330
35
100
AcDbSymbolTableRecord
100
AcDbRegAppTableRecord
  2
ACAD_DSTYLE_DIMTALN
 70
     0
  0
APPID
  5
1C
330
35
100
AcDbSymbolTableRecord
100
AcDbRegAppTableRecord
  2
ACAD_PSEXT
 70
     0
  0
APPID
  5
111
330
35
100
AcDbSymbolTableRecord
100
AcDbRegAppTableRecord
  2
ACAD_DSTYLE_DIMINSPECT
 70
     0
  0
APPID
  5
102
330
35
100
AcDbSymbolTableRecord
100
AcDbRegAppTableRecord
  2
AcAecLayerStandard
 70
     0
  0
APPID
  5
34
330
35
100
AcDbSymbolTableRecord
100
AcDbRegAppTableRecord
  2
ACAD_NAV_VCDISPLAY
 70
     0
  0
APPID
  5
408
330
35
100
AcDbSymbolTableRecord
100
AcDbRegAppTableRecord
  2
ACATTRIBSERVICES
 70
     0
  0
ENDTAB
  0
TABLE
  2
DIMSTYLE
  5
36
330
0
100
AcDbSymbolTable
 70
    10
100
AcDbDimStyleTable
 71
     1
340
37
  0
DIMSTYLE
105
3F8
102
{ACAD_REACTORS
330
3C2
102
}
330
36
100
AcDbSymbolTableRecord
100
AcDbDimStyleTableRecord
  2
AM_DIN
 70
     0
  4
"
 41
3.5
 42
1.0
 43
10.0
 44
1.0
 47
0.1
 48
0.1
 50
89.99999999999998
 73
     0
 74
     0
 77
     1
 78
     8
 79
     2
140
3.5
141
0.0
143
0.0393701
146
0.71
147
1.5
172
     1
176
   256
177
   256
178
     2
271
     2
272
     3
274
     4
283
     0
284
     8
340
29
345
2C
346
2C
347
2C
371
    -1
372
    -1
1001
ACAD_DSTYLE_DIMJOGGED_JOGANGLE_SYMBOL
1070
   384
1040
1.570796326794896
  0
DIMSTYLE
105
3FB
330
36
100
AcDbSymbolTableRecord
100
AcDbDimStyleTableRecord
  2
AM_DIN$3
 70
     0
  4
"
 41
3.5
 42
1.0
 43
10.0
 44
1.0
 47
0.1
 48
0.1
 50
89.99999999999998
 73
     0
 77
     1
 78
     8
 79
     2
140
3.5
141
0.0
143
0.0393701
146
0.71
147
1.5
176
   256
177
   256
178
     2
271
     2
272
     3
274
     4
283
     0
284
     8
288
     1
289
     0
340
29
345
2C
346
2C
347
2C
371
    -1
372
    -1
1001
ACAD_DSTYLE_DIMJOGGED_JOGANGLE_SYMBOL
1070
   384
1040
1.570796326794896
  0
DIMSTYLE
105
3FC
330
36
100
AcDbSymbolTableRecord
100
AcDbDimStyleTableRecord
  2
AM_DIN$4
 70
     0
  4
"
 41
3.5
 42
1.0
 43
10.0
 44
1.0
 47
0.1
 48
0.1
 50
89.99999999999998
 73
     0
 74
     0
 77
     1
 78
     8
 79
     2
140
3.5
141
0.0
143
0.0393701
146
0.71
147
1.5
172
     1
176
   256
177
   256
178
     2
271
     2
272
     3
274
     4
283
     0
284
     8
340
29
345
2C
346
2C
347
2C
371
    -1
372
    -1
1001
ACAD_DSTYLE_DIMJOGGED_JOGANGLE_SYMBOL
1070
   384
1040
1.570796326794896
  0
DIMSTYLE
105
3FD
330
36
100
AcDbSymbolTableRecord
100
AcDbDimStyleTableRecord
  2
AM_DIN$6
 70
     0
  4
"
 41
3.5
 42
1.0
 43
10.0
 44
1.0
 47
0.1
 48
0.1
 50
89.99999999999998
 73
     0
 74
     0
 78
     8
 79
     2
140
3.5
141
0.0
143
0.0393701
146
0.71
147
1.5
172
     1
176
   256
177
   256
178
     2
271
     2
272
     3
274
     4
283
     0
284
     8
340
29
345
2C
346
2C
347
2C
371
    -1
372
    -1
1001
ACAD_DSTYLE_DIMJOGGED_JOGANGLE_SYMBOL
1070
   384
1040
1.570796326794896
  0
DIMSTYLE
105
3FE
330
36
100
AcDbSymbolTableRecord
100
AcDbDimStyleTableRecord
  2
AM_DIN$7
 70
     0
  4
"
 41
3.5
 42
1.0
 43
10.0
 44
1.0
 47
0.1
 48
0.1
 50
89.99999999999998
 73
     0
 74
     0
 77
     1
 78
     8
 79
     2
140
3.5
141
0.0
143
0.0393701
146
0.71
147
1.5
172
     1
176
   256
177
   256
178
     2
271
     2
272
     3
274
     4
283
     0
284
     8
340
29
345
2C
346
2C
347
2C
371
    -1
372
    -1
1001
ACAD_DSTYLE_DIMJOGGED_JOGANGLE_SYMBOL
1070
   384
1040
1.570796326794896
  0
DIMSTYLE
105
3FF
330
36
100
AcDbSymbolTableRecord
100
AcDbDimStyleTableRecord
  2
AM_DIN$SF
 70
     0
  4
"
 41
3.5
 42
1.0
 43
10.0
 44
1.0
 47
0.1
 48
0.1
 50
89.99999999999998
 73
     0
 74
     0
 75
     1
 76
     1
 77
     1
 78
     8
 79
     2
140
3.5
141
0.0
143
0.0393701
146
0.71
147
1.5
172
     1
176
   256
177
   256
178
     2
271
     2
272
     3
274
     4
283
     0
284
     8
340
29
345
2C
346
2C
347
2C
371
    -1
372
    -1
1001
ACAD_DSTYLE_DIMJOGGED_JOGANGLE_SYMBOL
1070
   384
1040
1.570796326794896
  0
DIMSTYLE
105
400
330
36
100
AcDbSymbolTableRecord
100
AcDbDimStyleTableRecord
  2
AM_DIN$SH
 70
     0
  4
"
 41
3.5
 42
1.0
 43
10.0
 44
1.0
 47
0.1
 48
0.1
 50
89.99999999999998
 73
     0
 74
     0
 75
     1
 76
     1
 77
     1
 78
     8
 79
     2
140
3.5
141
0.0
143
0.0393701
144
2.0
146
0.71
147
1.5
172
     1
173
     1
176
   256
177
   256
178
     2
271
     2
272
     3
274
     4
283
     0
284
     8
340
29
343
401
345
2C
346
2C
347
2C
371
    -1
372
    -1
1001
ACAD_DSTYLE_DIMJOGGED_JOGANGLE_SYMBOL
1070
   384
1040
1.570796326794896
  0
DIMSTYLE
105
37
102
{ACAD_REACTORS
330
1AE
330
19F
330
192
330
185
330
119
330
2DB
330
2CB
330
2B8
330
298
330
378
330
369
330
35C
330
34F
330
3A2
330
395
330
387
330
22D
330
21E
102
}
330
36
100
AcDbSymbolTableRecord
100
AcDbDimStyleTableRecord
  2
Katalog 09
 70
     0
 41
12.0
 42
0.0
 43
8.0
 44
1.0
 73
     0
 74
     0
 77
     1
 78
     8
140
9.0
141
1.5
143
25.39999999999999
146
0.4285714285714288
147
2.5
172
     1
174
     1
176
     2
177
     2
178
     3
271
     2
272
     2
284
     8
285
     8
286
     8
340
38
1001
ACAD_DSTYLE_DIMBREAK
1070
   391
1040
3.75
1001
ACAD_DSTYLE_DIMJAG
1070
   388
1040
1.5
1001
ACAD_DSTYLE_DIMTALN
1070
   392
1070
     0
  0
DIMSTYLE
105
3FA
330
36
100
AcDbSymbolTableRecord
100
AcDbDimStyleTableRecord
  2
AM_DIN$0
 70
     0
  4
"
 41
3.5
 42
1.0
 43
10.0
 44
1.0
 47
0.1
 48
0.1
 50
89.99999999999998
 73
     0
 74
     0
 77
     1
 78
     8
 79
     2
140
3.5
141
0.0
143
0.0393701
146
0.71
147
1.5
172
     1
176
   256
177
   256
178
     2
271
     2
272
     3
274
     4
283
     0
284
     8
340
29
345
2C
346
2C
347
2C
371
    -1
372
    -1
1001
ACAD_DSTYLE_DIMJOGGED_JOGANGLE_SYMBOL
1070
   384
1040
1.570796326794896
  0
DIMSTYLE
105
80
102
{ACAD_REACTORS
330
100
330
F1
330
E2
330
D5
330
C8
330
B9
330
AC
330
9D
330
8E
330
81
330
70
102
}
330
36
100
AcDbSymbolTableRecord
100
AcDbDimStyleTableRecord
  2
Katalog 09$0
 70
     0
 41
12.0
 42
0.0
 43
8.0
 44
1.0
 73
     0
 74
     0
 77
     1
 78
     8
140
9.0
141
1.5
143
25.39999999999999
146
0.4285714285714288
147
2.5
172
     1
174
     1
176
     2
177
     2
178
     3
271
     2
272
     2
284
     8
285
     8
286
     8
340
38
1001
ACAD_DSTYLE_DIMBREAK
1070
   391
1040
3.75
1001
ACAD_DSTYLE_DIMJAG
1070
   388
1040
1.5
  0
ENDTAB
  0
TABLE
  2
BLOCK_RECORD
  5
1
330
0
100
AcDbSymbolTable
 70
    31
  0
BLOCK_RECORD
  5
2
102
{ACAD_XDICTIONARY
360
3
102
}
330
1
100
AcDbSymbolTableRecord
100
AcDbBlockTableRecord
  2
*MODEL_SPACE
340
19
 70
     0
280
     1
281
     0
  0
BLOCK_RECORD
  5
1D
330
1
100
AcDbSymbolTableRecord
100
AcDbBlockTableRecord
  2
*PAPER_SPACE
340
20
 70
     0
280
     1
281
     0
  0
BLOCK_RECORD
  5
401
330
1
100
AcDbSymbolTableRecord
100
AcDbBlockTableRecord
  2
GENAXEH
340
0
 70
     0
280
     1
281
     0
  0
BLOCK_RECORD
  5
3E2
330
1
100
AcDbSymbolTableRecord
100
AcDbBlockTableRecord
  2
_ACMFILLED30
340
0
 70
     0
280
     1
281
     0
  0
BLOCK_RECORD
  5
1AF
330
1
100
AcDbSymbolTableRecord
100
AcDbBlockTableRecord
  2
*D2
340
0
 70
     0
280
     1
281
     0
  0
BLOCK_RECORD
  5
1A0
330
1
100
AcDbSymbolTableRecord
100
AcDbBlockTableRecord
  2
*D3
340
0
 70
     0
280
     1
281
     0
  0
BLOCK_RECORD
  5
193
330
1
100
AcDbSymbolTableRecord
100
AcDbBlockTableRecord
  2
*D4
340
0
 70
     0
280
     1
281
     0
  0
BLOCK_RECORD
  5
186
330
1
100
AcDbSymbolTableRecord
100
AcDbBlockTableRecord
  2
*D5
340
0
 70
     0
280
     1
281
     0
  0
BLOCK_RECORD
  5
11B
330
1
100
AcDbSymbolTableRecord
100
AcDbBlockTableRecord
  2
*D6
340
0
 70
     0
280
     1
281
     0
  0
BLOCK_RECORD
  5
103
330
1
100
AcDbSymbolTableRecord
100
AcDbBlockTableRecord
  2
*D7
340
0
 70
     0
280
     1
281
     0
  0
BLOCK_RECORD
  5
2DC
330
1
100
AcDbSymbolTableRecord
100
AcDbBlockTableRecord
  2
*D8
340
0
 70
     0
280
     1
281
     0
  0
BLOCK_RECORD
  5
2CC
330
1
100
AcDbSymbolTableRecord
100
AcDbBlockTableRecord
  2
*D9
340
0
 70
     0
280
     1
281
     0
  0
BLOCK_RECORD
  5
2B9
330
1
100
AcDbSymbolTableRecord
100
AcDbBlockTableRecord
  2
*D10
340
0
 70
     0
280
     1
281
     0
  0
BLOCK_RECORD
  5
299
330
1
100
AcDbSymbolTableRecord
100
AcDbBlockTableRecord
  2
*D11
340
0
 70
     0
280
     1
281
     0
  0
BLOCK_RECORD
  5
379
330
1
100
AcDbSymbolTableRecord
100
AcDbBlockTableRecord
  2
*D12
340
0
 70
     0
280
     1
281
     0
  0
BLOCK_RECORD
  5
36A
330
1
100
AcDbSymbolTableRecord
100
AcDbBlockTableRecord
  2
*D13
340
0
 70
     0
280
     1
281
     0
  0
BLOCK_RECORD
  5
35D
330
1
100
AcDbSymbolTableRecord
100
AcDbBlockTableRecord
  2
*D14
340
0
 70
     0
280
     1
281
     0
  0
BLOCK_RECORD
  5
350
330
1
100
AcDbSymbolTableRecord
100
AcDbBlockTableRecord
  2
*D15
340
0
 70
     0
280
     1
281
     0
  0
BLOCK_RECORD
  5
3A3
330
1
100
AcDbSymbolTableRecord
100
AcDbBlockTableRecord
  2
*D16
340
0
 70
     0
280
     1
281
     0
  0
BLOCK_RECORD
  5
396
330
1
100
AcDbSymbolTableRecord
100
AcDbBlockTableRecord
  2
*D17
340
0
 70
     0
280
     1
281
     0
  0
BLOCK_RECORD
  5
388
330
1
100
AcDbSymbolTableRecord
100
AcDbBlockTableRecord
  2
*D18
340
0
 70
     0
280
     1
281
     0
  0
BLOCK_RECORD
  5
22E
330
1
100
AcDbSymbolTableRecord
100
AcDbBlockTableRecord
  2
*D19
340
0
 70
     0
280
     1
281
     0
  0
BLOCK_RECORD
  5
21F
330
1
100
AcDbSymbolTableRecord
100
AcDbBlockTableRecord
  2
*D20
340
0
 70
     0
280
     1
281
     0
  0
BLOCK_RECORD
  5
F2
330
1
100
AcDbSymbolTableRecord
100
AcDbBlockTableRecord
  2
*D21
340
0
 70
     0
280
     1
281
     0
  0
BLOCK_RECORD
  5
E3
330
1
100
AcDbSymbolTableRecord
100
AcDbBlockTableRecord
  2
*D22
340
0
 70
     0
280
     1
281
     0
  0
BLOCK_RECORD
  5
D6
330
1
100
AcDbSymbolTableRecord
100
AcDbBlockTableRecord
  2
*D23
340
0
 70
     0
280
     1
281
     0
  0
BLOCK_RECORD
  5
C9
330
1
100
AcDbSymbolTableRecord
100
AcDbBlockTableRecord
  2
*D24
340
0
 70
     0
280
     1
281
     0
  0
BLOCK_RECORD
  5
BA
330
1
100
AcDbSymbolTableRecord
100
AcDbBlockTableRecord
  2
*D25
340
0
 70
     0
280
     1
281
     0
  0
BLOCK_RECORD
  5
AD
330
1
100
AcDbSymbolTableRecord
100
AcDbBlockTableRecord
  2
*D26
340
0
 70
     0
280
     1
281
     0
  0
BLOCK_RECORD
  5
9E
330
1
100
AcDbSymbolTableRecord
100
AcDbBlockTableRecord
  2
*D27
340
0
 70
     0
280
     1
281
     0
  0
BLOCK_RECORD
  5
8F
330
1
100
AcDbSymbolTableRecord
100
AcDbBlockTableRecord
  2
*D28
340
0
 70
     0
280
     1
281
     0
  0
BLOCK_RECORD
  5
82
330
1
100
AcDbSymbolTableRecord
100
AcDbBlockTableRecord
  2
*D29
340
0
 70
     0
280
     1
281
     0
  0
BLOCK_RECORD
  5
71
330
1
100
AcDbSymbolTableRecord
100
AcDbBlockTableRecord
  2
*D30
340
0
 70
     0
280
     1
281
     0
  0
ENDTAB
  0
ENDSEC
  0
SECTION
  2
BLOCKS
  0
BLOCK
  5
6
330
2
100
AcDbEntity
  8
0
100
AcDbBlockBegin
  2
*MODEL_SPACE
 70
     0
 10
0.0
 20
0.0
 30
0.0
  3
*MODEL_SPACE
  1

  0
ENDBLK
  5
18
330
2
100
AcDbEntity
  8
0
100
AcDbBlockEnd
  0
BLOCK
  5
1E
330
1D
100
AcDbEntity
 67
     1
  8
0
100
AcDbBlockBegin
  2
*PAPER_SPACE
 70
     0
 10
0.0
 20
0.0
 30
0.0
  3
*PAPER_SPACE
  1

  0
ENDBLK
  5
1F
330
1D
100
AcDbEntity
 67
     1
  8
0
100
AcDbBlockEnd
  0
BLOCK
  5
402
330
401
100
AcDbEntity
  8
0
100
AcDbBlockBegin
  2
GENAXEH
 70
     0
 10
0.0
 20
0.0
 30
0.0
  3
GENAXEH
  1

  0
LINE
  5
403
330
401
100
AcDbEntity
  8
0
100
AcDbLine
 10
-1.0
 20
0.0
 30
0.0
 11
1.0
 21
0.0
 31
0.0
  0
ENDBLK
  5
404
330
401
100
AcDbEntity
  8
0
100
AcDbBlockEnd
  0
BLOCK
  5
3E3
330
3E2
100
AcDbEntity
  8
0
100
AcDbBlockBegin
  2
_ACMFILLED30
 70
     0
 10
0.0
 20
0.0
 30
0.0
  3
_ACMFILLED30
  1

  0
TRACE
  5
3E4
330
3E2
100
AcDbEntity
  8
BEMASSUNG
 62
     0
100
AcDbTrace
 10
-1.0
 20
-0.26794919
 30
0.0
 11
-1.0
 21
0.26794919
 31
0.0
 12
0.0
 22
0.0
 32
0.0
 13
0.0
 23
0.0
 33
0.0
  0
ENDBLK
  5
3E5
330
3E2
100
AcDbEntity
  8
0
100
AcDbBlockEnd
  0
BLOCK
  5
1B0
330
1AF
100
AcDbEntity
  8
0
100
AcDbBlockBegin
  2
*D2
 70
     1
 10
0.0
 20
0.0
 30
0.0
  3
*D2
  1

  0
LINE
  5
1B1
330
1AF
100
AcDbEntity
  8
AM_0
 62
     2
440
 16777216
370
    -2
100
AcDbLine
 10
-2020.264552498825
 20
185.0279796710025
 30
0.0
 11
-1991.569327524032
 21
185.0279796710025
 31
0.0
  0
LINE
  5
1B2
330
1AF
100
AcDbEntity
  8
AM_0
 62
     2
440
 16777216
370
    -2
100
AcDbLine
 10
-2019.964552498825
 20
170.0279796710188
 30
0.0
 11
-1991.569327524032
 21
170.0279796710188
 31
0.0
  0
LINE
  5
1B3
330
1AF
100
AcDbEntity
  8
AM_0
 62
     2
440
 16777216
370
    -2
100
AcDbLine
 10
-1992.569327524032
 20
197.0279796710025
 30
0.0
 11
-1992.569327524032
 21
209.0279796710025
 31
0.0
  0
LINE
  5
1B4
330
1AF
100
AcDbEntity
  8
AM_0
 62
     2
440
 16777216
370
    -2
100
AcDbLine
 10
-1992.569327524032
 20
158.0279796710188
 30
0.0
 11
-1992.569327524032
 21
146.0279796710188
 31
0.0
  0
LINE
  5
1B5
330
1AF
100
AcDbEntity
  8
AM_0
 62
     2
440
 16777216
370
    -2
100
AcDbLine
 10
-1992.569327524032
 20
185.0279796710025
 30
0.0
 11
-1992.569327524032
 21
170.0279796710188
 31
0.0
  0
SOLID
  5
1B6
330
1AF
100
AcDbEntity
  8
AM_0
 62
     2
440
 16777216
100
AcDbTrace
 10
-1994.569327524032
 20
197.0279796710025
 30
0.0
 11
-1990.569327524032
 21
197.0279796710025
 31
0.0
 12
-1992.569327524032
 22
185.0279796710025
 32
0.0
 13
-1992.569327524032
 23
185.0279796710025
 33
0.0
  0
SOLID
  5
1B7
330
1AF
100
AcDbEntity
  8
AM_0
 62
     2
440
 16777216
100
AcDbTrace
 10
-1994.569327524032
 20
158.0279796710188
 30
0.0
 11
-1990.569327524032
 21
158.0279796710188
 31
0.0
 12
-1992.569327524032
 22
170.0279796710188
 32
0.0
 13
-1992.569327524032
 23
170.0279796710188
 33
0.0
  0
MTEXT
  5
1B8
330
1AF
100
AcDbEntity
  8
AM_0
 62
     3
440
 16777216
100
AcDbMText
 10
-1999.664484413527
 20
177.5279796710103
 30
0.0
 40
9.0
 41
0.0
 46
0.0
 71
     5
 72
     1
  1
\A1;15
  7
ARIAL-STANDARD
 11
0.0000000000000001
 21
1.0
 31
0.0
 73
     1
 44
1.0
  0
POINT
  5
1B9
330
1AF
100
AcDbEntity
  8
DEFPOINTS
 62
     0
440
 16777216
100
AcDbPoint
 10
-2020.264552498825
 20
185.0279796710025
 30
0.0
  0
POINT
  5
1BA
330
1AF
100
AcDbEntity
  8
DEFPOINTS
 62
     0
440
 16777216
100
AcDbPoint
 10
-2019.964552498825
 20
170.0279796710188
 30
0.0
  0
POINT
  5
1BB
330
1AF
100
AcDbEntity
  8
DEFPOINTS
 62
     0
440
 16777216
100
AcDbPoint
 10
-1992.569327524032
 20
170.0279796710188
 30
0.0
  0
ENDBLK
  5
1BC
330
1AF
100
AcDbEntity
  8
0
100
AcDbBlockEnd
  0
BLOCK
  5
1A1
330
1A0
100
AcDbEntity
  8
0
100
AcDbBlockBegin
  2
*D3
 70
     1
 10
0.0
 20
0.0
 30
0.0
  3
*D3
  1

  0
LINE
  5
1A2
330
1A0
100
AcDbEntity
  8
AM_0
 62
     2
440
 16777216
370
    -2
100
AcDbLine
 10
-2041.964552498825
 20
174.0279796710188
 30
0.0
 11
-2098.241720881107
 21
174.0279796710188
 31
0.0
  0
LINE
  5
1A3
330
1A0
100
AcDbEntity
  8
AM_0
 62
     2
440
 16777216
370
    -2
100
AcDbLine
 10
-2039.964552498825
 20
168.0279796710188
 30
0.0
 11
-2098.241720881107
 21
168.0279796710188
 31
0.0
  0
LINE
  5
1A4
330
1A0
100
AcDbEntity
  8
AM_0
 62
     2
440
 16777216
370
    -2
100
AcDbLine
 10
-2097.241720881107
 20
186.0279796710188
 30
0.0
 11
-2097.241720881107
 21
198.0279796710188
 31
0.0
  0
LINE
  5
1A5
330
1A0
100
AcDbEntity
  8
AM_0
 62
     2
440
 16777216
370
    -2
100
AcDbLine
 10
-2097.241720881107
 20
156.0279796710188
 30
0.0
 11
-2097.241720881107
 21
144.0279796710188
 31
0.0
  0
LINE
  5
1A6
330
1A0
100
AcDbEntity
  8
AM_0
 62
     2
440
 16777216
370
    -2
100
AcDbLine
 10
-2097.241720881107
 20
174.0279796710188
 30
0.0
 11
-2097.241720881107
 21
168.0279796710188
 31
0.0
  0
SOLID
  5
1A7
330
1A0
100
AcDbEntity
  8
AM_0
 62
     2
440
 16777216
100
AcDbTrace
 10
-2099.241720881106
 20
186.0279796710188
 30
0.0
 11
-2095.241720881107
 21
186.0279796710188
 31
0.0
 12
-2097.241720881107
 22
174.0279796710188
 32
0.0
 13
-2097.241720881107
 23
174.0279796710188
 33
0.0
  0
SOLID
  5
1A8
330
1A0
100
AcDbEntity
  8
AM_0
 62
     2
440
 16777216
100
AcDbTrace
 10
-2099.241720881106
 20
156.0279796710188
 30
0.0
 11
-2095.241720881107
 21
156.0279796710188
 31
0.0
 12
-2097.241720881107
 22
168.0279796710188
 32
0.0
 13
-2097.241720881107
 23
168.0279796710188
 33
0.0
  0
MTEXT
  5
1A9
330
1A0
100
AcDbEntity
  8
AM_0
 62
     3
440
 16777216
100
AcDbMText
 10
-2104.336877770602
 20
171.0279796710185
 30
0.0
 40
9.0
 41
0.0
 46
0.0
 71
     5
 72
     1
  1
\A1;6
  7
ARIAL-STANDARD
 11
0.0000000000000001
 21
1.0
 31
0.0
 73
     1
 44
1.0
  0
POINT
  5
1AA
330
1A0
100
AcDbEntity
  8
DEFPOINTS
 62
     0
440
 16777216
100
AcDbPoint
 10
-2041.964552498825
 20
174.0279796710188
 30
0.0
  0
POINT
  5
1AB
330
1A0
100
AcDbEntity
  8
DEFPOINTS
 62
     0
440
 16777216
100
AcDbPoint
 10
-2039.964552498825
 20
168.0279796710188
 30
0.0
  0
POINT
  5
1AC
330
1A0
100
AcDbEntity
  8
DEFPOINTS
 62
     0
440
 16777216
100
AcDbPoint
 10
-2097.241720881107
 20
168.0279796710188
 30
0.0
  0
ENDBLK
  5
1AD
330
1A0
100
AcDbEntity
  8
0
100
AcDbBlockEnd
  0
BLOCK
  5
194
330
193
100
AcDbEntity
  8
0
100
AcDbBlockBegin
  2
*D4
 70
     1
 10
0.0
 20
0.0
 30
0.0
  3
*D4
  1

  0
LINE
  5
195
330
193
100
AcDbEntity
  8
AM_0
 62
     2
440
 16777216
370
    -2
100
AcDbLine
 10
-2041.964552498772
 20
1354.394316489294
 30
0.0
 11
-2065.90304130501
 21
1354.394316489294
 31
0.0
  0
LINE
  5
196
330
193
100
AcDbEntity
  8
AM_0
 62
     2
440
 16777216
370
    -2
100
AcDbLine
 10
-2038.283985461883
 20
1291.894316489294
 30
0.0
 11
-2065.90304130501
 21
1291.894316489294
 31
0.0
  0
LINE
  5
197
330
193
100
AcDbEntity
  8
AM_0
 62
     2
440
 16777216
370
    -2
100
AcDbLine
 10
-2064.90304130501
 20
1342.394316489294
 30
0.0
 11
-2064.90304130501
 21
1303.894316489294
 31
0.0
  0
SOLID
  5
198
330
193
100
AcDbEntity
  8
AM_0
 62
     2
440
 16777216
100
AcDbTrace
 10
-2066.90304130501
 20
1342.394316489294
 30
0.0
 11
-2062.90304130501
 21
1342.394316489294
 31
0.0
 12
-2064.90304130501
 22
1354.394316489294
 32
0.0
 13
-2064.90304130501
 23
1354.394316489294
 33
0.0
  0
SOLID
  5
199
330
193
100
AcDbEntity
  8
AM_0
 62
     2
440
 16777216
100
AcDbTrace
 10
-2066.90304130501
 20
1303.894316489294
 30
0.0
 11
-2062.90304130501
 21
1303.894316489294
 31
0.0
 12
-2064.90304130501
 22
1291.894316489294
 32
0.0
 13
-2064.90304130501
 23
1291.894316489294
 33
0.0
  0
MTEXT
  5
19A
330
193
100
AcDbEntity
  8
AM_0
 62
     3
440
 16777216
100
AcDbMText
 10
-2071.998198194505
 20
1323.144316489293
 30
0.0
 40
9.0
 41
0.0
 46
0.0
 71
     5
 72
     1
  1
\A1;62.5
  7
ARIAL-STANDARD
 11
0.0000000000000001
 21
1.0
 31
0.0
 73
     1
 44
1.0
  0
POINT
  5
19B
330
193
100
AcDbEntity
  8
DEFPOINTS
 62
     0
440
 16777216
100
AcDbPoint
 10
-2041.964552498772
 20
1354.394316489294
 30
0.0
  0
POINT
  5
19C
330
193
100
AcDbEntity
  8
DEFPOINTS
 62
     0
440
 16777216
100
AcDbPoint
 10
-2038.283985461883
 20
1291.894316489294
 30
0.0
  0
POINT
  5
19D
330
193
100
AcDbEntity
  8
DEFPOINTS
 62
     0
440
 16777216
100
AcDbPoint
 10
-2064.90304130501
 20
1291.894316489294
 30
0.0
  0
ENDBLK
  5
19E
330
193
100
AcDbEntity
  8
0
100
AcDbBlockEnd
  0
BLOCK
  5
187
330
186
100
AcDbEntity
  8
0
100
AcDbBlockBegin
  2
*D5
 70
     1
 10
0.0
 20
0.0
 30
0.0
  3
*D5
  1

  0
LINE
  5
188
330
186
100
AcDbEntity
  8
AM_0
 62
     2
440
 16777216
370
    -2
100
AcDbLine
 10
-2066.408816979599
 20
866.8943164892947
 30
0.0
 11
-2064.598196262152
 21
866.8943164892947
 31
0.0
  0
LINE
  5
189
330
186
100
AcDbEntity
  8
AM_0
 62
     2
440
 16777216
370
    -2
100
AcDbLine
 10
-2035.464552498773
 20
783.394316489293
 30
0.0
 11
-2066.598196262152
 21
783.394316489293
 31
0.0
  0
LINE
  5
18A
330
186
100
AcDbEntity
  8
AM_0
 62
     2
440
 16777216
370
    -2
100
AcDbLine
 10
-2065.598196262152
 20
854.8943164892946
 30
0.0
 11
-2065.598196262152
 21
795.394316489293
 31
0.0
  0
SOLID
  5
18B
330
186
100
AcDbEntity
  8
AM_0
 62
     2
440
 16777216
100
AcDbTrace
 10
-2067.598196262153
 20
854.8943164892946
 30
0.0
 11
-2063.598196262152
 21
854.8943164892946
 31
0.0
 12
-2065.598196262152
 22
866.8943164892947
 32
0.0
 13
-2065.598196262152
 23
866.8943164892947
 33
0.0
  0
SOLID
  5
18C
330
186
100
AcDbEntity
  8
AM_0
 62
     2
440
 16777216
100
AcDbTrace
 10
-2067.598196262153
 20
795.394316489293
 30
0.0
 11
-2063.598196262152
 21
795.394316489293
 31
0.0
 12
-2065.598196262152
 22
783.394316489293
 32
0.0
 13
-2065.598196262152
 23
783.394316489293
 33
0.0
  0
MTEXT
  5
18D
330
186
100
AcDbEntity
  8
AM_0
 62
     3
440
 16777216
100
AcDbMText
 10
-2072.696422728728
 20
825.1443164892936
 30
0.0
 40
9.0
 41
0.0
 46
0.0
 71
     5
 72
     1
  1
\A1;83.5
  7
ARIAL-STANDARD
 11
0.0000000000000001
 21
1.0
 31
0.0
 73
     1
 44
1.0
  0
POINT
  5
18E
330
186
100
AcDbEntity
  8
DEFPOINTS
 62
     0
440
 16777216
100
AcDbPoint
 10
-2066.408816979599
 20
866.8943164892947
 30
0.0
  0
POINT
  5
18F
330
186
100
AcDbEntity
  8
DEFPOINTS
 62
     0
440
 16777216
100
AcDbPoint
 10
-2035.464552498773
 20
783.394316489293
 30
0.0
  0
POINT
  5
190
330
186
100
AcDbEntity
  8
DEFPOINTS
 62
     0
440
 16777216
100
AcDbPoint
 10
-2065.598196262152
 20
783.394316489293
 30
0.0
  0
ENDBLK
  5
191
330
186
100
AcDbEntity
  8
0
100
AcDbBlockEnd
  0
BLOCK
  5
11C
330
11B
100
AcDbEntity
  8
0
100
AcDbBlockBegin
  2
*D6
 70
     1
 10
0.0
 20
0.0
 30
0.0
  3
*D6
  1

  0
LINE
  5
11D
330
11B
100
AcDbEntity
  8
AM_0
 62
     2
440
 16777216
370
    -2
100
AcDbLine
 10
-2041.964552498772
 20
534.3943164892939
 30
0.0
 11
-2065.136380780862
 21
534.3943164892939
 31
0.0
  0
LINE
  5
11E
330
11B
100
AcDbEntity
  8
AM_0
 62
     2
440
 16777216
370
    -2
100
AcDbLine
 10
-2038.283985461883
 20
471.8943164892938
 30
0.0
 11
-2065.136380780862
 21
471.8943164892938
 31
0.0
  0
LINE
  5
11F
330
11B
100
AcDbEntity
  8
AM_0
 62
     2
440
 16777216
370
    -2
100
AcDbLine
 10
-2064.136380780862
 20
522.3943164892939
 30
0.0
 11
-2064.136380780862
 21
483.8943164892937
 31
0.0
  0
SOLID
  5
120
330
11B
100
AcDbEntity
  8
AM_0
 62
     2
440
 16777216
100
AcDbTrace
 10
-2066.136380780862
 20
522.3943164892939
 30
0.0
 11
-2062.136380780862
 21
522.3943164892939
 31
0.0
 12
-2064.136380780862
 22
534.3943164892939
 32
0.0
 13
-2064.136380780862
 23
534.3943164892939
 33
0.0
  0
SOLID
  5
121
330
11B
100
AcDbEntity
  8
AM_0
 62
     2
440
 16777216
100
AcDbTrace
 10
-2066.136380780862
 20
483.8943164892937
 30
0.0
 11
-2062.136380780862
 21
483.8943164892937
 31
0.0
 12
-2064.136380780862
 22
471.8943164892938
 32
0.0
 13
-2064.136380780862
 23
471.8943164892938
 33
0.0
  0
MTEXT
  5
122
330
11B
100
AcDbEntity
  8
AM_0
 62
     3
440
 16777216
100
AcDbMText
 10
-2071.231537670357
 20
503.1443164892935
 30
0.0
 40
9.0
 41
0.0
 46
0.0
 71
     5
 72
     1
  1
\A1;62.5
  7
ARIAL-STANDARD
 11
0.0000000000000001
 21
1.0
 31
0.0
 73
     1
 44
1.0
  0
POINT
  5
123
330
11B
100
AcDbEntity
  8
DEFPOINTS
 62
     0
440
 16777216
100
AcDbPoint
 10
-2041.964552498772
 20
534.3943164892939
 30
0.0
  0
POINT
  5
124
330
11B
100
AcDbEntity
  8
DEFPOINTS
 62
     0
440
 16777216
100
AcDbPoint
 10
-2038.283985461883
 20
471.8943164892938
 30
0.0
  0
POINT
  5
125
330
11B
100
AcDbEntity
  8
DEFPOINTS
 62
     0
440
 16777216
100
AcDbPoint
 10
-2064.136380780862
 20
471.8943164892938
 30
0.0
  0
ENDBLK
  5
126
330
11B
100
AcDbEntity
  8
0
100
AcDbBlockEnd
  0
BLOCK
  5
104
330
103
100
AcDbEntity
  8
0
100
AcDbBlockBegin
  2
*D7
 70
     1
 10
0.0
 20
0.0
 30
0.0
  3
*D7
  1

  0
LINE
  5
105
330
103
100
AcDbEntity
  8
AM_5
 62
     2
440
 16777216
370
    -2
100
AcDbLine
 10
-2024.464552498772
 20
929.8943164892937
 30
0.0
 11
-2024.464552498772
 21
950.9894733787886
 31
0.0
  0
LINE
  5
106
330
103
100
AcDbEntity
  8
AM_5
 62
     2
440
 16777216
370
    -2
100
AcDbLine
 10
-2017.964552498773
 20
930.8943164892937
 30
0.0
 11
-2017.964552498773
 21
950.9894733787886
 31
0.0
  0
LINE
  5
107
330
103
100
AcDbEntity
  8
AM_5
 62
     2
440
 16777216
370
    -2
100
AcDbLine
 10
-2036.464552498773
 20
949.9894733787886
 30
0.0
 11
-2048.464552498773
 21
949.9894733787886
 31
0.0
  0
LINE
  5
108
330
103
100
AcDbEntity
  8
AM_5
 62
     2
440
 16777216
370
    -2
100
AcDbLine
 10
-2005.964552498772
 20
949.9894733787886
 30
0.0
 11
-1972.462506114052
 21
949.9894733787886
 31
0.0
  0
LINE
  5
109
330
103
100
AcDbEntity
  8
AM_5
 62
     2
440
 16777216
370
    -2
100
AcDbLine
 10
-2024.464552498772
 20
949.9894733787886
 30
0.0
 11
-2017.964552498773
 21
949.9894733787886
 31
0.0
  0
SOLID
  5
10A
330
103
100
AcDbEntity
  8
AM_5
 62
     2
440
 16777216
100
AcDbTrace
 10
-2036.464552498773
 20
951.9894733787886
 30
0.0
 11
-2036.464552498773
 21
947.9894733787885
 31
0.0
 12
-2024.464552498772
 22
949.9894733787886
 32
0.0
 13
-2024.464552498772
 23
949.9894733787886
 33
0.0
  0
SOLID
  5
10B
330
103
100
AcDbEntity
  8
AM_5
 62
     2
440
 16777216
100
AcDbTrace
 10
-2005.964552498772
 20
951.9894733787886
 30
0.0
 11
-2005.964552498772
 21
947.9894733787885
 31
0.0
 12
-2017.964552498773
 22
949.9894733787886
 32
0.0
 13
-2017.964552498773
 23
949.9894733787886
 33
0.0
  0
MTEXT
  5
10C
330
103
100
AcDbEntity
  8
AM_5
 62
     3
440
 16777216
100
AcDbMText
 10
-1983.213529306412
 20
957.0846302682838
 30
0.0
 40
9.0
 41
0.0
 46
0.0
 71
     5
 72
     1
  1
\A1;6.5
  7
ARIAL-STANDARD
 73
     1
 44
1.0
  0
POINT
  5
10D
330
103
100
AcDbEntity
  8
DEFPOINTS
 62
     0
440
 16777216
100
AcDbPoint
 10
-2024.464552498772
 20
929.8943164892937
 30
0.0
  0
POINT
  5
10E
330
103
100
AcDbEntity
  8
DEFPOINTS
 62
     0
440
 16777216
100
AcDbPoint
 10
-2017.964552498773
 20
930.8943164892937
 30
0.0
  0
POINT
  5
10F
330
103
100
AcDbEntity
  8
DEFPOINTS
 62
     0
440
 16777216
100
AcDbPoint
 10
-2017.964552498773
 20
949.9894733787886
 30
0.0
  0
ENDBLK
  5
110
330
103
100
AcDbEntity
  8
0
100
AcDbBlockEnd
  0
BLOCK
  5
2DD
330
2DC
100
AcDbEntity
  8
0
100
AcDbBlockBegin
  2
*D8
 70
     1
 10
0.0
 20
0.0
 30
0.0
  3
*D8
  1

  0
LINE
  5
2DE
330
2DC
100
AcDbEntity
  8
UMRISS05
 62
     2
440
 16777216
370
    -2
100
AcDbLine
 10
-2039.664552498825
 20
185.0279796710024
 30
0.0
 11
-2039.664552498825
 21
222.6610492997494
 31
0.0
  0
LINE
  5
2DF
330
2DC
100
AcDbEntity
  8
UMRISS05
 62
     2
440
 16777216
370
    -2
100
AcDbLine
 10
-2020.264552498825
 20
185.0279796710024
 30
0.0
 11
-2020.264552498825
 21
222.6610492997494
 31
0.0
  0
LINE
  5
2E0
330
2DC
100
AcDbEntity
  8
UMRISS05
 62
     2
440
 16777216
370
    -2
100
AcDbLine
 10
-2051.664552498825
 20
221.6610492997494
 30
0.0
 11
-2063.664552498825
 21
221.6610492997494
 31
0.0
  0
LINE
  5
2E1
330
2DC
100
AcDbEntity
  8
UMRISS05
 62
     2
440
 16777216
370
    -2
100
AcDbLine
 10
-2008.264552498825
 20
221.6610492997494
 30
0.0
 11
-1996.264552498825
 21
221.6610492997494
 31
0.0
  0
LINE
  5
2E2
330
2DC
100
AcDbEntity
  8
UMRISS05
 62
     2
440
 16777216
370
    -2
100
AcDbLine
 10
-2039.664552498825
 20
221.6610492997494
 30
0.0
 11
-2020.264552498825
 21
221.6610492997494
 31
0.0
  0
SOLID
  5
2E3
330
2DC
100
AcDbEntity
  8
UMRISS05
 62
     2
440
 16777216
100
AcDbTrace
 10
-2051.664552498825
 20
223.6610492997494
 30
0.0
 11
-2051.664552498825
 21
219.6610492997494
 31
0.0
 12
-2039.664552498825
 22
221.6610492997494
 32
0.0
 13
-2039.664552498825
 23
221.6610492997494
 33
0.0
  0
SOLID
  5
2E4
330
2DC
100
AcDbEntity
  8
UMRISS05
 62
     2
440
 16777216
100
AcDbTrace
 10
-2008.264552498825
 20
223.6610492997494
 30
0.0
 11
-2008.264552498825
 21
219.6610492997494
 31
0.0
 12
-2020.264552498825
 22
221.6610492997494
 32
0.0
 13
-2020.264552498825
 23
221.6610492997494
 33
0.0
  0
MTEXT
  5
2E5
330
2DC
100
AcDbEntity
  8
UMRISS05
 62
     3
440
 16777216
100
AcDbMText
 10
-2029.964552498825
 20
228.7562061892447
 30
0.0
 40
9.0
 41
0.0
 46
0.0
 71
     5
 72
     1
  1
\A1;19.4
  7
ARIAL-STANDARD
 73
     1
 44
1.0
  0
POINT
  5
2E6
330
2DC
100
AcDbEntity
  8
DEFPOINTS
 62
     0
440
 16777216
100
AcDbPoint
 10
-2039.664552498825
 20
185.0279796710024
 30
0.0
  0
POINT
  5
2E7
330
2DC
100
AcDbEntity
  8
DEFPOINTS
 62
     0
440
 16777216
100
AcDbPoint
 10
-2020.264552498825
 20
185.0279796710024
 30
0.0
  0
POINT
  5
2E8
330
2DC
100
AcDbEntity
  8
DEFPOINTS
 62
     0
440
 16777216
100
AcDbPoint
 10
-2020.264552498825
 20
221.6610492997494
 30
0.0
  0
ENDBLK
  5
2E9
330
2DC
100
AcDbEntity
  8
0
100
AcDbBlockEnd
  0
BLOCK
  5
2CD
330
2CC
100
AcDbEntity
  8
0
100
AcDbBlockBegin
  2
*D9
 70
     1
 10
0.0
 20
0.0
 30
0.0
  3
*D9
  1

  0
LINE
  5
2CE
330
2CC
100
AcDbEntity
  8
UMRISS05
 62
     2
440
 16777216
370
    -2
100
AcDbLine
 10
-2039.664552498825
 20
170.0279796710187
 30
0.0
 11
-2039.664552498825
 21
140.595300133471
 31
0.0
  0
LINE
  5
2CF
330
2CC
100
AcDbEntity
  8
UMRISS05
 62
     2
440
 16777216
370
    -2
100
AcDbLine
 10
-2041.964552498825
 20
170.0279796710188
 30
0.0
 11
-2041.964552498825
 21
140.595300133471
 31
0.0
  0
LINE
  5
2D0
330
2CC
100
AcDbEntity
  8
UMRISS05
 62
     2
440
 16777216
370
    -2
100
AcDbLine
 10
-2027.664552498825
 20
141.595300133471
 30
0.0
 11
-2015.664552498825
 21
141.595300133471
 31
0.0
  0
LINE
  5
2D1
330
2CC
100
AcDbEntity
  8
UMRISS05
 62
     2
440
 16777216
370
    -2
100
AcDbLine
 10
-2053.964552498825
 20
141.595300133471
 30
0.0
 11
-2087.503433808511
 21
141.595300133471
 31
0.0
  0
LINE
  5
2D2
330
2CC
100
AcDbEntity
  8
UMRISS05
 62
     2
440
 16777216
370
    -2
100
AcDbLine
 10
-2039.664552498825
 20
141.595300133471
 30
0.0
 11
-2041.964552498825
 21
141.595300133471
 31
0.0
  0
SOLID
  5
2D3
330
2CC
100
AcDbEntity
  8
UMRISS05
 62
     2
440
 16777216
100
AcDbTrace
 10
-2027.664552498825
 20
143.595300133471
 30
0.0
 11
-2027.664552498825
 21
139.595300133471
 31
0.0
 12
-2039.664552498825
 22
141.595300133471
 32
0.0
 13
-2039.664552498825
 23
141.595300133471
 33
0.0
  0
SOLID
  5
2D4
330
2CC
100
AcDbEntity
  8
UMRISS05
 62
     2
440
 16777216
100
AcDbTrace
 10
-2053.964552498825
 20
143.595300133471
 30
0.0
 11
-2053.964552498825
 21
139.595300133471
 31
0.0
 12
-2041.964552498825
 22
141.595300133471
 32
0.0
 13
-2041.964552498825
 23
141.595300133471
 33
0.0
  0
MTEXT
  5
2D5
330
2CC
100
AcDbEntity
  8
UMRISS05
 62
     3
440
 16777216
100
AcDbMText
 10
-2076.733993153668
 20
148.6935266000467
 30
0.0
 40
9.0
 41
0.0
 46
0.0
 71
     5
 72
     1
  1
\A1;2.3
  7
ARIAL-STANDARD
 73
     1
 44
1.0
  0
POINT
  5
2D6
330
2CC
100
AcDbEntity
  8
DEFPOINTS
 62
     0
440
 16777216
100
AcDbPoint
 10
-2039.664552498825
 20
170.0279796710187
 30
0.0
  0
POINT
  5
2D7
330
2CC
100
AcDbEntity
  8
DEFPOINTS
 62
     0
440
 16777216
100
AcDbPoint
 10
-2041.964552498825
 20
170.0279796710188
 30
0.0
  0
POINT
  5
2D8
330
2CC
100
AcDbEntity
  8
DEFPOINTS
 62
     0
440
 16777216
100
AcDbPoint
 10
-2041.964552498825
 20
141.595300133471
 30
0.0
  0
ENDBLK
  5
2D9
330
2CC
100
AcDbEntity
  8
0
100
AcDbBlockEnd
  0
BLOCK
  5
2BA
330
2B9
100
AcDbEntity
  8
0
100
AcDbBlockBegin
  2
*D10
 70
     1
 10
0.0
 20
0.0
 30
0.0
  3
*D10
  1

  0
LINE
  5
2BB
330
2B9
100
AcDbEntity
  8
BEMASSUNG
 62
     2
440
 16777216
370
    -2
100
AcDbLine
 10
-2041.964552498772
 20
721.8943164892936
 30
0.0
 11
-2041.964552498772
 21
702.5018652704982
 31
0.0
  0
LINE
  5
2BC
330
2B9
100
AcDbEntity
  8
BEMASSUNG
 62
     2
440
 16777216
370
    -2
100
AcDbLine
 10
-2017.964552498773
 20
721.8943164892936
 30
0.0
 11
-2017.964552498773
 21
702.5018652704982
 31
0.0
  0
LINE
  5
2BD
330
2B9
100
AcDbEntity
  8
BEMASSUNG
 62
     2
440
 16777216
370
    -2
100
AcDbLine
 10
-2053.964552498772
 20
703.5018652704982
 30
0.0
 11
-2065.964552498773
 21
703.5018652704982
 31
0.0
  0
LINE
  5
2BE
330
2B9
100
AcDbEntity
  8
BEMASSUNG
 62
     2
440
 16777216
370
    -2
100
AcDbLine
 10
-2005.964552498772
 20
703.5018652704982
 30
0.0
 11
-1993.964552498772
 21
703.5018652704982
 31
0.0
  0
LINE
  5
2BF
330
2B9
100
AcDbEntity
  8
BEMASSUNG
 62
     2
440
 16777216
370
    -2
100
AcDbLine
 10
-2041.964552498772
 20
703.5018652704982
 30
0.0
 11
-2017.964552498773
 21
703.5018652704982
 31
0.0
  0
SOLID
  5
2C0
330
2B9
100
AcDbEntity
  8
BEMASSUNG
 62
     2
440
 16777216
100
AcDbTrace
 10
-2053.964552498772
 20
705.5018652704982
 30
0.0
 11
-2053.964552498772
 21
701.5018652704982
 31
0.0
 12
-2041.964552498772
 22
703.5018652704982
 32
0.0
 13
-2041.964552498772
 23
703.5018652704982
 33
0.0
  0
SOLID
  5
2C1
330
2B9
100
AcDbEntity
  8
BEMASSUNG
 62
     2
440
 16777216
100
AcDbTrace
 10
-2005.964552498772
 20
705.5018652704982
 30
0.0
 11
-2005.964552498772
 21
701.5018652704982
 31
0.0
 12
-2017.964552498773
 22
703.5018652704982
 32
0.0
 13
-2017.964552498773
 23
703.5018652704982
 33
0.0
  0
MTEXT
  5
2C2
330
2B9
100
AcDbEntity
  8
BEMASSUNG
 62
     3
440
 16777216
100
AcDbMText
 10
-2029.964552498773
 20
710.5202827329812
 30
0.0
 40
9.0
 41
0.0
 46
0.0
 71
     5
 72
     1
  1
\A1;24
  7
ARIAL-STANDARD
 73
     1
 44
1.0
  0
POINT
  5
2C3
330
2B9
100
AcDbEntity
  8
DEFPOINTS
 62
     0
440
 16777216
100
AcDbPoint
 10
-2041.964552498772
 20
721.8943164892936
 30
0.0
  0
POINT
  5
2C4
330
2B9
100
AcDbEntity
  8
DEFPOINTS
 62
     0
440
 16777216
100
AcDbPoint
 10
-2017.964552498773
 20
721.8943164892936
 30
0.0
  0
POINT
  5
2C5
330
2B9
100
AcDbEntity
  8
DEFPOINTS
 62
     0
440
 16777216
100
AcDbPoint
 10
-2017.964552498773
 20
703.5018652704982
 30
0.0
  0
ENDBLK
  5
2C6
330
2B9
100
AcDbEntity
  8
0
100
AcDbBlockEnd
  0
BLOCK
  5
29A
330
299
100
AcDbEntity
  8
0
100
AcDbBlockBegin
  2
*D11
 70
     1
 10
0.0
 20
0.0
 30
0.0
  3
*D11
  1

  0
LINE
  5
29B
330
299
100
AcDbEntity
  8
AM_0
 62
     2
440
 16777216
370
    -2
100
AcDbLine
 10
-2041.964552498825
 20
170.0279796710188
 30
0.0
 11
-2041.964552498825
 21
124.072064430341
 31
0.0
  0
LINE
  5
29C
330
299
100
AcDbEntity
  8
AM_0
 62
     2
440
 16777216
370
    -2
100
AcDbLine
 10
-2017.964552498825
 20
170.0279796710188
 30
0.0
 11
-2017.964552498825
 21
124.072064430341
 31
0.0
  0
LINE
  5
29D
330
299
100
AcDbEntity
  8
AM_0
 62
     2
440
 16777216
370
    -2
100
AcDbLine
 10
-2053.964552498825
 20
125.072064430341
 30
0.0
 11
-2065.964552498825
 21
125.072064430341
 31
0.0
  0
LINE
  5
29E
330
299
100
AcDbEntity
  8
AM_0
 62
     2
440
 16777216
370
    -2
100
AcDbLine
 10
-2005.964552498825
 20
125.072064430341
 30
0.0
 11
-1993.964552498825
 21
125.072064430341
 31
0.0
  0
LINE
  5
29F
330
299
100
AcDbEntity
  8
AM_0
 62
     2
440
 16777216
370
    -2
100
AcDbLine
 10
-2041.964552498825
 20
125.072064430341
 30
0.0
 11
-2017.964552498825
 21
125.072064430341
 31
0.0
  0
SOLID
  5
2A0
330
299
100
AcDbEntity
  8
AM_0
 62
     2
440
 16777216
100
AcDbTrace
 10
-2053.964552498825
 20
127.072064430341
 30
0.0
 11
-2053.964552498825
 21
123.072064430341
 31
0.0
 12
-2041.964552498825
 22
125.072064430341
 32
0.0
 13
-2041.964552498825
 23
125.072064430341
 33
0.0
  0
SOLID
  5
2A1
330
299
100
AcDbEntity
  8
AM_0
 62
     2
440
 16777216
100
AcDbTrace
 10
-2005.964552498825
 20
127.072064430341
 30
0.0
 11
-2005.964552498825
 21
123.072064430341
 31
0.0
 12
-2017.964552498825
 22
125.072064430341
 32
0.0
 13
-2017.964552498825
 23
125.072064430341
 33
0.0
  0
MTEXT
  5
2A2
330
299
100
AcDbEntity
  8
AM_0
 62
     3
440
 16777216
100
AcDbMText
 10
-2029.964552498825
 20
132.0904818928239
 30
0.0
 40
9.0
 41
0.0
 46
0.0
 71
     5
 72
     1
  1
\A1;24
  7
ARIAL-STANDARD
 73
     1
 44
1.0
  0
POINT
  5
2A3
330
299
100
AcDbEntity
  8
DEFPOINTS
 62
     0
440
 16777216
100
AcDbPoint
 10
-2041.964552498825
 20
170.0279796710188
 30
0.0
  0
POINT
  5
2A4
330
299
100
AcDbEntity
  8
DEFPOINTS
 62
     0
440
 16777216
100
AcDbPoint
 10
-2017.964552498825
 20
170.0279796710188
 30
0.0
  0
POINT
  5
2A5
330
299
100
AcDbEntity
  8
DEFPOINTS
 62
     0
440
 16777216
100
AcDbPoint
 10
-2017.964552498825
 20
125.072064430341
 30
0.0
  0
ENDBLK
  5
2A6
330
299
100
AcDbEntity
  8
0
100
AcDbBlockEnd
  0
BLOCK
  5
37A
330
379
100
AcDbEntity
  8
0
100
AcDbBlockBegin
  2
*D12
 70
     1
 10
0.0
 20
0.0
 30
0.0
  3
*D12
  1

  0
LINE
  5
37B
330
379
100
AcDbEntity
  8
BEMASSUNG
 62
     2
440
 16777216
370
    -2
100
AcDbLine
 10
-2041.964552498772
 20
1169.394316489294
 30
0.0
 11
-2041.964552498772
 21
1147.927100198383
 31
0.0
  0
LINE
  5
37C
330
379
100
AcDbEntity
  8
BEMASSUNG
 62
     2
440
 16777216
370
    -2
100
AcDbLine
 10
-2017.964552498773
 20
1169.394316489294
 30
0.0
 11
-2017.964552498773
 21
1147.927100198383
 31
0.0
  0
LINE
  5
37D
330
379
100
AcDbEntity
  8
BEMASSUNG
 62
     2
440
 16777216
370
    -2
100
AcDbLine
 10
-2053.964552498772
 20
1148.927100198383
 30
0.0
 11
-2065.964552498773
 21
1148.927100198383
 31
0.0
  0
LINE
  5
37E
330
379
100
AcDbEntity
  8
BEMASSUNG
 62
     2
440
 16777216
370
    -2
100
AcDbLine
 10
-2005.964552498772
 20
1148.927100198383
 30
0.0
 11
-1993.964552498772
 21
1148.927100198383
 31
0.0
  0
LINE
  5
37F
330
379
100
AcDbEntity
  8
BEMASSUNG
 62
     2
440
 16777216
370
    -2
100
AcDbLine
 10
-2041.964552498772
 20
1148.927100198383
 30
0.0
 11
-2017.964552498773
 21
1148.927100198383
 31
0.0
  0
SOLID
  5
380
330
379
100
AcDbEntity
  8
BEMASSUNG
 62
     2
440
 16777216
100
AcDbTrace
 10
-2053.964552498772
 20
1150.927100198383
 30
0.0
 11
-2053.964552498772
 21
1146.927100198383
 31
0.0
 12
-2041.964552498772
 22
1148.927100198383
 32
0.0
 13
-2041.964552498772
 23
1148.927100198383
 33
0.0
  0
SOLID
  5
381
330
379
100
AcDbEntity
  8
BEMASSUNG
 62
     2
440
 16777216
100
AcDbTrace
 10
-2005.964552498772
 20
1150.927100198383
 30
0.0
 11
-2005.964552498772
 21
1146.927100198383
 31
0.0
 12
-2017.964552498773
 22
1148.927100198383
 32
0.0
 13
-2017.964552498773
 23
1148.927100198383
 33
0.0
  0
MTEXT
  5
382
330
379
100
AcDbEntity
  8
BEMASSUNG
 62
     3
440
 16777216
100
AcDbMText
 10
-2029.964552498773
 20
1155.945517660866
 30
0.0
 40
9.0
 41
0.0
 46
0.0
 71
     5
 72
     1
  1
\A1;24
  7
ARIAL-STANDARD
 73
     1
 44
1.0
  0
POINT
  5
383
330
379
100
AcDbEntity
  8
DEFPOINTS
 62
     0
440
 16777216
100
AcDbPoint
 10
-2041.964552498772
 20
1169.394316489294
 30
0.0
  0
POINT
  5
384
330
379
100
AcDbEntity
  8
DEFPOINTS
 62
     0
440
 16777216
100
AcDbPoint
 10
-2017.964552498773
 20
1169.394316489294
 30
0.0
  0
POINT
  5
385
330
379
100
AcDbEntity
  8
DEFPOINTS
 62
     0
440
 16777216
100
AcDbPoint
 10
-2017.964552498773
 20
1148.927100198383
 30
0.0
  0
ENDBLK
  5
386
330
379
100
AcDbEntity
  8
0
100
AcDbBlockEnd
  0
BLOCK
  5
36B
330
36A
100
AcDbEntity
  8
0
100
AcDbBlockBegin
  2
*D13
 70
     1
 10
0.0
 20
0.0
 30
0.0
  3
*D13
  1

  0
LINE
  5
36C
330
36A
100
AcDbEntity
  8
UMRISS05
 62
     2
440
 16777216
370
    -2
100
AcDbLine
 10
-2046.316715073741
 20
866.8943164892951
 30
0.0
 11
-2048.923621157899
 21
866.8943164892951
 31
0.0
  0
LINE
  5
36D
330
36A
100
AcDbEntity
  8
UMRISS05
 62
     2
440
 16777216
370
    -2
100
AcDbLine
 10
-2035.664552498774
 20
875.8943164892933
 30
0.0
 11
-2048.923621157899
 21
875.8943164892933
 31
0.0
  0
LINE
  5
36E
330
36A
100
AcDbEntity
  8
UMRISS05
 62
     2
440
 16777216
370
    -2
100
AcDbLine
 10
-2047.923621157899
 20
854.8943164892952
 30
0.0
 11
-2047.923621157899
 21
842.8943164892952
 31
0.0
  0
LINE
  5
36F
330
36A
100
AcDbEntity
  8
UMRISS05
 62
     2
440
 16777216
370
    -2
100
AcDbLine
 10
-2047.923621157899
 20
887.8943164892932
 30
0.0
 11
-2047.923621157899
 21
899.8943164892933
 31
0.0
  0
LINE
  5
370
330
36A
100
AcDbEntity
  8
UMRISS05
 62
     2
440
 16777216
370
    -2
100
AcDbLine
 10
-2047.923621157899
 20
866.8943164892951
 30
0.0
 11
-2047.923621157899
 21
875.8943164892933
 31
0.0
  0
SOLID
  5
371
330
36A
100
AcDbEntity
  8
UMRISS05
 62
     2
440
 16777216
100
AcDbTrace
 10
-2049.923621157899
 20
854.8943164892952
 30
0.0
 11
-2045.923621157899
 21
854.8943164892952
 31
0.0
 12
-2047.923621157899
 22
866.8943164892951
 32
0.0
 13
-2047.923621157899
 23
866.8943164892951
 33
0.0
  0
SOLID
  5
372
330
36A
100
AcDbEntity
  8
UMRISS05
 62
     2
440
 16777216
100
AcDbTrace
 10
-2049.923621157899
 20
887.8943164892932
 30
0.0
 11
-2045.923621157899
 21
887.8943164892932
 31
0.0
 12
-2047.923621157899
 22
875.8943164892933
 32
0.0
 13
-2047.923621157899
 23
875.8943164892933
 33
0.0
  0
MTEXT
  5
373
330
36A
100
AcDbEntity
  8
UMRISS05
 62
     3
440
 16777216
100
AcDbMText
 10
-2055.018778047394
 20
871.3943164892938
 30
0.0
 40
9.0
 41
0.0
 46
0.0
 71
     5
 72
     1
  1
\A1;9
  7
ARIAL-STANDARD
 11
0.0000000000000001
 21
1.0
 31
0.0
 73
     1
 44
1.0
  0
POINT
  5
374
330
36A
100
AcDbEntity
  8
DEFPOINTS
 62
     0
440
 16777216
100
AcDbPoint
 10
-2046.316715073741
 20
866.8943164892951
 30
0.0
  0
POINT
  5
375
330
36A
100
AcDbEntity
  8
DEFPOINTS
 62
     0
440
 16777216
100
AcDbPoint
 10
-2035.664552498774
 20
875.8943164892933
 30
0.0
  0
POINT
  5
376
330
36A
100
AcDbEntity
  8
DEFPOINTS
 62
     0
440
 16777216
100
AcDbPoint
 10
-2047.923621157899
 20
875.8943164892933
 30
0.0
  0
ENDBLK
  5
377
330
36A
100
AcDbEntity
  8
0
100
AcDbBlockEnd
  0
BLOCK
  5
35E
330
35D
100
AcDbEntity
  8
0
100
AcDbBlockBegin
  2
*D14
 70
     1
 10
0.0
 20
0.0
 30
0.0
  3
*D14
  1

  0
LINE
  5
35F
330
35D
100
AcDbEntity
  8
UMRISS05
 62
     2
440
 16777216
370
    -2
100
AcDbLine
 10
-2065.598196262152
 20
866.8943164892951
 30
0.0
 11
-2066.598196262152
 21
866.8943164892951
 31
0.0
  0
LINE
  5
360
330
35D
100
AcDbEntity
  8
UMRISS05
 62
     2
440
 16777216
370
    -2
100
AcDbLine
 10
-2035.664552498774
 20
937.8943164892938
 30
0.0
 11
-2066.598196262152
 21
937.8943164892938
 31
0.0
  0
LINE
  5
361
330
35D
100
AcDbEntity
  8
UMRISS05
 62
     2
440
 16777216
370
    -2
100
AcDbLine
 10
-2065.598196262152
 20
878.8943164892952
 30
0.0
 11
-2065.598196262152
 21
925.8943164892938
 31
0.0
  0
SOLID
  5
362
330
35D
100
AcDbEntity
  8
UMRISS05
 62
     2
440
 16777216
100
AcDbTrace
 10
-2067.598196262153
 20
878.8943164892952
 30
0.0
 11
-2063.598196262152
 21
878.8943164892952
 31
0.0
 12
-2065.598196262152
 22
866.8943164892951
 32
0.0
 13
-2065.598196262152
 23
866.8943164892951
 33
0.0
  0
SOLID
  5
363
330
35D
100
AcDbEntity
  8
UMRISS05
 62
     2
440
 16777216
100
AcDbTrace
 10
-2067.598196262153
 20
925.8943164892938
 30
0.0
 11
-2063.598196262152
 21
925.8943164892938
 31
0.0
 12
-2065.598196262152
 22
937.8943164892938
 32
0.0
 13
-2065.598196262152
 23
937.8943164892938
 33
0.0
  0
MTEXT
  5
364
330
35D
100
AcDbEntity
  8
UMRISS05
 62
     3
440
 16777216
100
AcDbMText
 10
-2072.616613724635
 20
902.3943164892944
 30
0.0
 40
9.0
 41
0.0
 46
0.0
 71
     5
 72
     1
  1
\A1;71
  7
ARIAL-STANDARD
 11
0.0000000000000001
 21
1.0
 31
0.0
 73
     1
 44
1.0
  0
POINT
  5
365
330
35D
100
AcDbEntity
  8
DEFPOINTS
 62
     0
440
 16777216
100
AcDbPoint
 10
-2065.598196262152
 20
866.8943164892951
 30
0.0
  0
POINT
  5
366
330
35D
100
AcDbEntity
  8
DEFPOINTS
 62
     0
440
 16777216
100
AcDbPoint
 10
-2035.664552498774
 20
937.8943164892938
 30
0.0
  0
POINT
  5
367
330
35D
100
AcDbEntity
  8
DEFPOINTS
 62
     0
440
 16777216
100
AcDbPoint
 10
-2065.598196262152
 20
937.8943164892938
 30
0.0
  0
ENDBLK
  5
368
330
35D
100
AcDbEntity
  8
0
100
AcDbBlockEnd
  0
BLOCK
  5
351
330
350
100
AcDbEntity
  8
0
100
AcDbBlockBegin
  2
*D15
 70
     1
 10
0.0
 20
0.0
 30
0.0
  3
*D15
  1

  0
LINE
  5
352
330
350
100
AcDbEntity
  8
BEMASSUNG
 62
     2
440
 16777216
370
    -2
100
AcDbLine
 10
-2052.116881207156
 20
866.8943164892951
 30
0.0
 11
-2046.923621157899
 21
866.8943164892951
 31
0.0
  0
LINE
  5
353
330
350
100
AcDbEntity
  8
BEMASSUNG
 62
     2
440
 16777216
370
    -2
100
AcDbLine
 10
-2034.964552498773
 20
830.3982144631445
 30
0.0
 11
-2048.923621157899
 21
830.3982144631445
 31
0.0
  0
LINE
  5
354
330
350
100
AcDbEntity
  8
BEMASSUNG
 62
     2
440
 16777216
370
    -2
100
AcDbLine
 10
-2047.923621157899
 20
854.8943164892952
 30
0.0
 11
-2047.923621157899
 21
842.3982144631445
 31
0.0
  0
SOLID
  5
355
330
350
100
AcDbEntity
  8
BEMASSUNG
 62
     2
440
 16777216
100
AcDbTrace
 10
-2049.923621157899
 20
854.8943164892952
 30
0.0
 11
-2045.923621157899
 21
854.8943164892952
 31
0.0
 12
-2047.923621157899
 22
866.8943164892951
 32
0.0
 13
-2047.923621157899
 23
866.8943164892951
 33
0.0
  0
SOLID
  5
356
330
350
100
AcDbEntity
  8
BEMASSUNG
 62
     2
440
 16777216
100
AcDbTrace
 10
-2049.923621157899
 20
842.3982144631445
 30
0.0
 11
-2045.923621157899
 21
842.3982144631445
 31
0.0
 12
-2047.923621157899
 22
830.3982144631445
 32
0.0
 13
-2047.923621157899
 23
830.3982144631445
 33
0.0
  0
MTEXT
  5
357
330
350
100
AcDbEntity
  8
BEMASSUNG
 62
     3
440
 16777216
100
AcDbMText
 10
-2055.021847624475
 20
848.6462654762195
 30
0.0
 40
9.0
 41
0.0
 46
0.0
 71
     5
 72
     1
  1
\A1;36.5
  7
ARIAL-STANDARD
 11
0.0000000000000001
 21
1.0
 31
0.0
 73
     1
 44
1.0
  0
POINT
  5
358
330
350
100
AcDbEntity
  8
DEFPOINTS
 62
     0
440
 16777216
100
AcDbPoint
 10
-2052.116881207156
 20
866.8943164892951
 30
0.0
  0
POINT
  5
359
330
350
100
AcDbEntity
  8
DEFPOINTS
 62
     0
440
 16777216
100
AcDbPoint
 10
-2034.964552498773
 20
830.3982144631445
 30
0.0
  0
POINT
  5
35A
330
350
100
AcDbEntity
  8
DEFPOINTS
 62
     0
440
 16777216
100
AcDbPoint
 10
-2047.923621157899
 20
830.3982144631445
 30
0.0
  0
ENDBLK
  5
35B
330
350
100
AcDbEntity
  8
0
100
AcDbBlockEnd
  0
BLOCK
  5
3A4
330
3A3
100
AcDbEntity
  8
0
100
AcDbBlockBegin
  2
*D16
 70
     1
 10
0.0
 20
0.0
 30
0.0
  3
*D16
  1

  0
LINE
  5
3A5
330
3A3
100
AcDbEntity
  8
UMRISS05
 62
     2
440
 16777216
370
    -2
100
AcDbLine
 10
-2041.964552498772
 20
991.8982144631442
 30
0.0
 11
-2098.241720881107
 21
991.8982144631442
 31
0.0
  0
LINE
  5
3A6
330
3A3
100
AcDbEntity
  8
UMRISS05
 62
     2
440
 16777216
370
    -2
100
AcDbLine
 10
-2040.464552498774
 20
721.8982144631451
 30
0.0
 11
-2098.241720881107
 21
721.8982144631451
 31
0.0
  0
LINE
  5
3A7
330
3A3
100
AcDbEntity
  8
UMRISS05
 62
     2
440
 16777216
370
    -2
100
AcDbLine
 10
-2097.241720881107
 20
979.8982144631441
 30
0.0
 11
-2097.241720881107
 21
733.8982144631451
 31
0.0
  0
SOLID
  5
3A8
330
3A3
100
AcDbEntity
  8
UMRISS05
 62
     2
440
 16777216
100
AcDbTrace
 10
-2099.241720881106
 20
979.8982144631441
 30
0.0
 11
-2095.241720881107
 21
979.8982144631441
 31
0.0
 12
-2097.241720881107
 22
991.8982144631442
 32
0.0
 13
-2097.241720881107
 23
991.8982144631442
 33
0.0
  0
SOLID
  5
3A9
330
3A3
100
AcDbEntity
  8
UMRISS05
 62
     2
440
 16777216
100
AcDbTrace
 10
-2099.241720881106
 20
733.8982144631451
 30
0.0
 11
-2095.241720881107
 21
733.8982144631451
 31
0.0
 12
-2097.241720881107
 22
721.8982144631451
 32
0.0
 13
-2097.241720881107
 23
721.8982144631451
 33
0.0
  0
MTEXT
  5
3AA
330
3A3
100
AcDbEntity
  8
UMRISS05
 62
     3
440
 16777216
100
AcDbMText
 10
-2104.336877770602
 20
880.0878854514776
 30
0.0
 40
9.0
 41
0.0
 46
0.0
 71
     5
 72
     1
  1
\A1;270
  7
ARIAL-STANDARD
 11
0.0000000000000001
 21
1.0
 31
0.0
 73
     1
 44
1.0
  0
POINT
  5
3AB
330
3A3
100
AcDbEntity
  8
DEFPOINTS
 62
     0
440
 16777216
100
AcDbPoint
 10
-2041.964552498772
 20
991.8982144631442
 30
0.0
  0
POINT
  5
3AC
330
3A3
100
AcDbEntity
  8
DEFPOINTS
 62
     0
440
 16777216
100
AcDbPoint
 10
-2040.464552498774
 20
721.8982144631451
 30
0.0
  0
POINT
  5
3AD
330
3A3
100
AcDbEntity
  8
DEFPOINTS
 62
     0
440
 16777216
100
AcDbPoint
 10
-2097.241720881107
 20
721.8982144631451
 30
0.0
  0
ENDBLK
  5
3AE
330
3A3
100
AcDbEntity
  8
0
100
AcDbBlockEnd
  0
BLOCK
  5
397
330
396
100
AcDbEntity
  8
0
100
AcDbBlockBegin
  2
*D17
 70
     1
 10
0.0
 20
0.0
 30
0.0
  3
*D17
  1

  0
LINE
  5
398
330
396
100
AcDbEntity
  8
UMRISS05
 62
     2
440
 16777216
370
    -2
100
AcDbLine
 10
-2080.298645203686
 20
866.8943164892951
 30
0.0
 11
-2081.298645203687
 21
866.8943164892951
 31
0.0
  0
LINE
  5
399
330
396
100
AcDbEntity
  8
UMRISS05
 62
     2
440
 16777216
370
    -2
100
AcDbLine
 10
-2041.964552498772
 20
991.8943164892937
 30
0.0
 11
-2081.298645203687
 21
991.8943164892937
 31
0.0
  0
LINE
  5
39A
330
396
100
AcDbEntity
  8
UMRISS05
 62
     2
440
 16777216
370
    -2
100
AcDbLine
 10
-2080.298645203686
 20
878.8943164892952
 30
0.0
 11
-2080.298645203686
 21
979.8943164892937
 31
0.0
  0
SOLID
  5
39B
330
396
100
AcDbEntity
  8
UMRISS05
 62
     2
440
 16777216
100
AcDbTrace
 10
-2082.298645203687
 20
878.8943164892952
 30
0.0
 11
-2078.298645203687
 21
878.8943164892952
 31
0.0
 12
-2080.298645203686
 22
866.8943164892951
 32
0.0
 13
-2080.298645203686
 23
866.8943164892951
 33
0.0
  0
SOLID
  5
39C
330
396
100
AcDbEntity
  8
UMRISS05
 62
     2
440
 16777216
100
AcDbTrace
 10
-2082.298645203687
 20
979.8943164892937
 30
0.0
 11
-2078.298645203687
 21
979.8943164892937
 31
0.0
 12
-2080.298645203686
 22
991.8943164892937
 32
0.0
 13
-2080.298645203686
 23
991.8943164892937
 33
0.0
  0
MTEXT
  5
39D
330
396
100
AcDbEntity
  8
UMRISS05
 62
     3
440
 16777216
100
AcDbMText
 10
-2087.393802093182
 20
929.3962654762195
 30
0.0
 40
9.0
 41
0.0
 46
0.0
 71
     5
 72
     1
  1
\A1;125
  7
ARIAL-STANDARD
 11
0.0000000000000001
 21
1.0
 31
0.0
 73
     1
 44
1.0
  0
POINT
  5
39E
330
396
100
AcDbEntity
  8
DEFPOINTS
 62
     0
440
 16777216
100
AcDbPoint
 10
-2080.298645203686
 20
866.8943164892951
 30
0.0
  0
POINT
  5
39F
330
396
100
AcDbEntity
  8
DEFPOINTS
 62
     0
440
 16777216
100
AcDbPoint
 10
-2041.964552498772
 20
991.8943164892937
 30
0.0
  0
POINT
  5
3A0
330
396
100
AcDbEntity
  8
DEFPOINTS
 62
     0
440
 16777216
100
AcDbPoint
 10
-2080.298645203686
 20
991.8943164892937
 30
0.0
  0
ENDBLK
  5
3A1
330
396
100
AcDbEntity
  8
0
100
AcDbBlockEnd
  0
BLOCK
  5
389
330
388
100
AcDbEntity
  8
0
100
AcDbBlockBegin
  2
*D18
 70
     1
 10
0.0
 20
0.0
 30
0.0
  3
*D18
  1

  0
LINE
  5
38A
330
388
100
AcDbEntity
  8
BEMASSUNG
 62
     2
440
 16777216
370
    -2
100
AcDbLine
 10
-2041.964552498772
 20
1169.394316489294
 30
0.0
 11
-2098.241720881106
 21
1169.394316489294
 31
0.0
  0
LINE
  5
38B
330
388
100
AcDbEntity
  8
BEMASSUNG
 62
     2
440
 16777216
370
    -2
100
AcDbLine
 10
-2041.964552498772
 20
1354.394316489294
 30
0.0
 11
-2098.241720881106
 21
1354.394316489294
 31
0.0
  0
LINE
  5
38C
330
388
100
AcDbEntity
  8
BEMASSUNG
 62
     2
440
 16777216
370
    -2
100
AcDbLine
 10
-2097.241720881106
 20
1181.394316489294
 30
0.0
 11
-2097.241720881106
 21
1342.394316489294
 31
0.0
  0
SOLID
  5
38D
330
388
100
AcDbEntity
  8
BEMASSUNG
 62
     2
440
 16777216
100
AcDbTrace
 10
-2099.241720881106
 20
1181.394316489294
 30
0.0
 11
-2095.241720881106
 21
1181.394316489294
 31
0.0
 12
-2097.241720881106
 22
1169.394316489294
 32
0.0
 13
-2097.241720881106
 23
1169.394316489294
 33
0.0
  0
SOLID
  5
38E
330
388
100
AcDbEntity
  8
BEMASSUNG
 62
     2
440
 16777216
100
AcDbTrace
 10
-2099.241720881106
 20
1342.394316489294
 30
0.0
 11
-2095.241720881106
 21
1342.394316489294
 31
0.0
 12
-2097.241720881106
 22
1354.394316489294
 32
0.0
 13
-2097.241720881106
 23
1354.394316489294
 33
0.0
  0
MTEXT
  5
38F
330
388
100
AcDbEntity
  8
BEMASSUNG
 62
     3
440
 16777216
100
AcDbMText
 10
-2104.336877770602
 20
1278.596914827677
 30
0.0
 40
9.0
 41
0.0
 46
0.0
 71
     5
 72
     1
  1
\A1;185
  7
ARIAL-STANDARD
 11
0.0000000000000001
 21
1.0
 31
0.0
 73
     1
 44
1.0
  0
POINT
  5
390
330
388
100
AcDbEntity
  8
DEFPOINTS
 62
     0
440
 16777216
100
AcDbPoint
 10
-2041.964552498772
 20
1169.394316489294
 30
0.0
  0
POINT
  5
391
330
388
100
AcDbEntity
  8
DEFPOINTS
 62
     0
440
 16777216
100
AcDbPoint
 10
-2041.964552498772
 20
1354.394316489294
 30
0.0
  0
POINT
  5
392
330
388
100
AcDbEntity
  8
DEFPOINTS
 62
     0
440
 16777216
100
AcDbPoint
 10
-2097.241720881106
 20
1354.394316489294
 30
0.0
  0
ENDBLK
  5
393
330
388
100
AcDbEntity
  8
0
100
AcDbBlockEnd
  0
BLOCK
  5
22F
330
22E
100
AcDbEntity
  8
0
100
AcDbBlockBegin
  2
*D19
 70
     1
 10
0.0
 20
0.0
 30
0.0
  3
*D19
  1

  0
LINE
  5
230
330
22E
100
AcDbEntity
  8
BEMASSUNG
 62
     2
440
 16777216
370
    -2
100
AcDbLine
 10
-2041.964552498772
 20
349.3943164892938
 30
0.0
 11
-2098.241720881107
 21
349.3943164892938
 31
0.0
  0
LINE
  5
231
330
22E
100
AcDbEntity
  8
BEMASSUNG
 62
     2
440
 16777216
370
    -2
100
AcDbLine
 10
-2041.964552498772
 20
534.3943164892938
 30
0.0
 11
-2098.241720881107
 21
534.3943164892938
 31
0.0
  0
LINE
  5
232
330
22E
100
AcDbEntity
  8
BEMASSUNG
 62
     2
440
 16777216
370
    -2
100
AcDbLine
 10
-2097.241720881107
 20
361.3943164892938
 30
0.0
 11
-2097.241720881107
 21
522.3943164892938
 31
0.0
  0
SOLID
  5
233
330
22E
100
AcDbEntity
  8
BEMASSUNG
 62
     2
440
 16777216
100
AcDbTrace
 10
-2099.241720881106
 20
361.3943164892938
 30
0.0
 11
-2095.241720881107
 21
361.3943164892938
 31
0.0
 12
-2097.241720881107
 22
349.3943164892938
 32
0.0
 13
-2097.241720881107
 23
349.3943164892938
 33
0.0
  0
SOLID
  5
234
330
22E
100
AcDbEntity
  8
BEMASSUNG
 62
     2
440
 16777216
100
AcDbTrace
 10
-2099.241720881106
 20
522.3943164892938
 30
0.0
 11
-2095.241720881107
 21
522.3943164892938
 31
0.0
 12
-2097.241720881107
 22
534.3943164892938
 32
0.0
 13
-2097.241720881107
 23
534.3943164892938
 33
0.0
  0
MTEXT
  5
235
330
22E
100
AcDbEntity
  8
BEMASSUNG
 62
     3
440
 16777216
100
AcDbMText
 10
-2104.336877770602
 20
458.5969148276766
 30
0.0
 40
9.0
 41
0.0
 46
0.0
 71
     5
 72
     1
  1
\A1;185
  7
ARIAL-STANDARD
 11
0.0000000000000001
 21
1.0
 31
0.0
 73
     1
 44
1.0
  0
POINT
  5
236
330
22E
100
AcDbEntity
  8
DEFPOINTS
 62
     0
440
 16777216
100
AcDbPoint
 10
-2041.964552498772
 20
349.3943164892938
 30
0.0
  0
POINT
  5
237
330
22E
100
AcDbEntity
  8
DEFPOINTS
 62
     0
440
 16777216
100
AcDbPoint
 10
-2041.964552498772
 20
534.3943164892938
 30
0.0
  0
POINT
  5
238
330
22E
100
AcDbEntity
  8
DEFPOINTS
 62
     0
440
 16777216
100
AcDbPoint
 10
-2097.241720881107
 20
534.3943164892938
 30
0.0
  0
ENDBLK
  5
239
330
22E
100
AcDbEntity
  8
0
100
AcDbBlockEnd
  0
BLOCK
  5
220
330
21F
100
AcDbEntity
  8
0
100
AcDbBlockBegin
  2
*D20
 70
     1
 10
0.0
 20
0.0
 30
0.0
  3
*D20
  1

  0
LINE
  5
221
330
21F
100
AcDbEntity
  8
BEMASSUNG
 62
     2
440
 16777216
370
    -2
100
AcDbLine
 10
-2041.964552498772
 20
349.3943164892938
 30
0.0
 11
-2041.964552498772
 21
326.5488719416007
 31
0.0
  0
LINE
  5
222
330
21F
100
AcDbEntity
  8
BEMASSUNG
 62
     2
440
 16777216
370
    -2
100
AcDbLine
 10
-2017.964552498773
 20
349.3943164892938
 30
0.0
 11
-2017.964552498773
 21
326.5488719416007
 31
0.0
  0
LINE
  5
223
330
21F
100
AcDbEntity
  8
BEMASSUNG
 62
     2
440
 16777216
370
    -2
100
AcDbLine
 10
-2053.964552498772
 20
327.5488719416007
 30
0.0
 11
-2065.964552498773
 21
327.5488719416007
 31
0.0
  0
LINE
  5
224
330
21F
100
AcDbEntity
  8
BEMASSUNG
 62
     2
440
 16777216
370
    -2
100
AcDbLine
 10
-2005.964552498772
 20
327.5488719416007
 30
0.0
 11
-1993.964552498772
 21
327.5488719416007
 31
0.0
  0
LINE
  5
225
330
21F
100
AcDbEntity
  8
BEMASSUNG
 62
     2
440
 16777216
370
    -2
100
AcDbLine
 10
-2041.964552498772
 20
327.5488719416007
 30
0.0
 11
-2017.964552498773
 21
327.5488719416007
 31
0.0
  0
SOLID
  5
226
330
21F
100
AcDbEntity
  8
BEMASSUNG
 62
     2
440
 16777216
100
AcDbTrace
 10
-2053.964552498772
 20
329.5488719416007
 30
0.0
 11
-2053.964552498772
 21
325.5488719416007
 31
0.0
 12
-2041.964552498772
 22
327.5488719416007
 32
0.0
 13
-2041.964552498772
 23
327.5488719416007
 33
0.0
  0
SOLID
  5
227
330
21F
100
AcDbEntity
  8
BEMASSUNG
 62
     2
440
 16777216
100
AcDbTrace
 10
-2005.964552498772
 20
329.5488719416007
 30
0.0
 11
-2005.964552498772
 21
325.5488719416007
 31
0.0
 12
-2017.964552498773
 22
327.5488719416007
 32
0.0
 13
-2017.964552498773
 23
327.5488719416007
 33
0.0
  0
MTEXT
  5
228
330
21F
100
AcDbEntity
  8
BEMASSUNG
 62
     3
440
 16777216
100
AcDbMText
 10
-2029.964552498773
 20
334.5672894040836
 30
0.0
 40
9.0
 41
0.0
 46
0.0
 71
     5
 72
     1
  1
\A1;24
  7
ARIAL-STANDARD
 73
     1
 44
1.0
  0
POINT
  5
229
330
21F
100
AcDbEntity
  8
DEFPOINTS
 62
     0
440
 16777216
100
AcDbPoint
 10
-2041.964552498772
 20
349.3943164892938
 30
0.0
  0
POINT
  5
22A
330
21F
100
AcDbEntity
  8
DEFPOINTS
 62
     0
440
 16777216
100
AcDbPoint
 10
-2017.964552498773
 20
349.3943164892938
 30
0.0
  0
POINT
  5
22B
330
21F
100
AcDbEntity
  8
DEFPOINTS
 62
     0
440
 16777216
100
AcDbPoint
 10
-2017.964552498773
 20
327.5488719416007
 30
0.0
  0
ENDBLK
  5
22C
330
21F
100
AcDbEntity
  8
0
100
AcDbBlockEnd
  0
BLOCK
  5
F3
330
F2
100
AcDbEntity
  8
0
100
AcDbBlockBegin
  2
*D21
 70
     1
 10
0.0
 20
0.0
 30
0.0
  3
*D21
  1

  0
LINE
  5
F4
330
F2
100
AcDbEntity
  8
BEMASSUNG
  6
ByBlock
 62
     2
440
 16777216
370
    -2
100
AcDbLine
 10
-2041.964552498772
 20
991.8982144631442
 30
0.0
 11
-1959.155113724978
 21
991.8982144631442
 31
0.0
  0
LINE
  5
F5
330
F2
100
AcDbEntity
  8
BEMASSUNG
  6
ByBlock
 62
     2
440
 16777216
370
    -2
100
AcDbLine
 10
-2037.714552498772
 20
979.8943164892934
 30
0.0
 11
-1959.155113724978
 21
979.8943164892934
 31
0.0
  0
LINE
  5
F6
330
F2
100
AcDbEntity
  8
BEMASSUNG
  6
ByBlock
 62
     2
440
 16777216
370
    -2
100
AcDbLine
 10
-1960.155113724978
 20
1003.898214463144
 30
0.0
 11
-1960.155113724978
 21
1015.898214463144
 31
0.0
  0
LINE
  5
F7
330
F2
100
AcDbEntity
  8
BEMASSUNG
  6
ByBlock
 62
     2
440
 16777216
370
    -2
100
AcDbLine
 10
-1960.155113724978
 20
967.8943164892933
 30
0.0
 11
-1960.155113724978
 21
955.8943164892934
 31
0.0
  0
LINE
  5
F8
330
F2
100
AcDbEntity
  8
BEMASSUNG
  6
ByBlock
 62
     2
440
 16777216
370
    -2
100
AcDbLine
 10
-1960.155113724978
 20
991.8982144631442
 30
0.0
 11
-1960.155113724978
 21
979.8943164892934
 31
0.0
  0
SOLID
  5
F9
330
F2
100
AcDbEntity
  8
BEMASSUNG
 62
     2
440
 16777216
100
AcDbTrace
 10
-1962.155113724978
 20
1003.898214463144
 30
0.0
 11
-1958.155113724978
 21
1003.898214463144
 31
0.0
 12
-1960.155113724978
 22
991.8982144631442
 32
0.0
 13
-1960.155113724978
 23
991.8982144631442
 33
0.0
  0
SOLID
  5
FA
330
F2
100
AcDbEntity
  8
BEMASSUNG
 62
     2
440
 16777216
100
AcDbTrace
 10
-1962.155113724978
 20
967.8943164892933
 30
0.0
 11
-1958.155113724978
 21
967.8943164892933
 31
0.0
 12
-1960.155113724978
 22
979.8943164892934
 32
0.0
 13
-1960.155113724978
 23
979.8943164892934
 33
0.0
  0
MTEXT
  5
FB
330
F2
100
AcDbEntity
  8
BEMASSUNG
 62
     3
440
 16777216
100
AcDbMText
 10
-1967.173531187461
 20
985.8962654762184
 30
0.0
 40
9.0
 41
0.0
 46
0.0
 71
     5
 72
     1
  1
\A1;12
  7
ARIAL-STANDARD
 11
0.0000000000000001
 21
1.0
 31
0.0
 73
     1
 44
1.0
  0
POINT
  5
FC
330
F2
100
AcDbEntity
  8
DEFPOINTS
 62
     0
440
 16777216
100
AcDbPoint
 10
-2041.964552498772
 20
991.8982144631442
 30
0.0
  0
POINT
  5
FD
330
F2
100
AcDbEntity
  8
DEFPOINTS
 62
     0
440
 16777216
100
AcDbPoint
 10
-2037.714552498772
 20
979.8943164892934
 30
0.0
  0
POINT
  5
FE
330
F2
100
AcDbEntity
  8
DEFPOINTS
 62
     0
440
 16777216
100
AcDbPoint
 10
-1960.155113724978
 20
979.8943164892934
 30
0.0
  0
ENDBLK
  5
FF
330
F2
100
AcDbEntity
  8
0
100
AcDbBlockEnd
  0
BLOCK
  5
E4
330
E3
100
AcDbEntity
  8
0
100
AcDbBlockBegin
  2
*D22
 70
     1
 10
0.0
 20
0.0
 30
0.0
  3
*D22
  1

  0
LINE
  5
E5
330
E3
100
AcDbEntity
  8
BEMASSUNG
  6
ByBlock
 62
     2
440
 16777216
370
    -2
100
AcDbLine
 10
-2041.964552498772
 20
721.8943164892936
 30
0.0
 11
-1959.155113724978
 21
721.8943164892936
 31
0.0
  0
LINE
  5
E6
330
E3
100
AcDbEntity
  8
BEMASSUNG
  6
ByBlock
 62
     2
440
 16777216
370
    -2
100
AcDbLine
 10
-2037.714552498772
 20
733.8943164892935
 30
0.0
 11
-1959.155113724978
 21
733.8943164892935
 31
0.0
  0
LINE
  5
E7
330
E3
100
AcDbEntity
  8
BEMASSUNG
  6
ByBlock
 62
     2
440
 16777216
370
    -2
100
AcDbLine
 10
-1960.155113724978
 20
709.8943164892936
 30
0.0
 11
-1960.155113724978
 21
697.8943164892937
 31
0.0
  0
LINE
  5
E8
330
E3
100
AcDbEntity
  8
BEMASSUNG
  6
ByBlock
 62
     2
440
 16777216
370
    -2
100
AcDbLine
 10
-1960.155113724978
 20
745.8943164892935
 30
0.0
 11
-1960.155113724978
 21
757.8943164892934
 31
0.0
  0
LINE
  5
E9
330
E3
100
AcDbEntity
  8
BEMASSUNG
  6
ByBlock
 62
     2
440
 16777216
370
    -2
100
AcDbLine
 10
-1960.155113724978
 20
721.8943164892936
 30
0.0
 11
-1960.155113724978
 21
733.8943164892935
 31
0.0
  0
SOLID
  5
EA
330
E3
100
AcDbEntity
  8
BEMASSUNG
 62
     2
440
 16777216
100
AcDbTrace
 10
-1962.155113724978
 20
709.8943164892936
 30
0.0
 11
-1958.155113724978
 21
709.8943164892936
 31
0.0
 12
-1960.155113724978
 22
721.8943164892936
 32
0.0
 13
-1960.155113724978
 23
721.8943164892936
 33
0.0
  0
SOLID
  5
EB
330
E3
100
AcDbEntity
  8
BEMASSUNG
 62
     2
440
 16777216
100
AcDbTrace
 10
-1962.155113724978
 20
745.8943164892935
 30
0.0
 11
-1958.155113724978
 21
745.8943164892935
 31
0.0
 12
-1960.155113724978
 22
733.8943164892935
 32
0.0
 13
-1960.155113724978
 23
733.8943164892935
 33
0.0
  0
MTEXT
  5
EC
330
E3
100
AcDbEntity
  8
BEMASSUNG
 62
     3
440
 16777216
100
AcDbMText
 10
-1967.173531187461
 20
727.8943164892933
 30
0.0
 40
9.0
 41
0.0
 46
0.0
 71
     5
 72
     1
  1
\A1;12
  7
ARIAL-STANDARD
 11
0.0000000000000001
 21
1.0
 31
0.0
 73
     1
 44
1.0
  0
POINT
  5
ED
330
E3
100
AcDbEntity
  8
DEFPOINTS
 62
     0
440
 16777216
100
AcDbPoint
 10
-2041.964552498772
 20
721.8943164892936
 30
0.0
  0
POINT
  5
EE
330
E3
100
AcDbEntity
  8
DEFPOINTS
 62
     0
440
 16777216
100
AcDbPoint
 10
-2037.714552498772
 20
733.8943164892935
 30
0.0
  0
POINT
  5
EF
330
E3
100
AcDbEntity
  8
DEFPOINTS
 62
     0
440
 16777216
100
AcDbPoint
 10
-1960.155113724978
 20
733.8943164892935
 30
0.0
  0
ENDBLK
  5
F0
330
E3
100
AcDbEntity
  8
0
100
AcDbBlockEnd
  0
BLOCK
  5
D7
330
D6
100
AcDbEntity
  8
0
100
AcDbBlockBegin
  2
*D23
 70
     1
 10
0.0
 20
0.0
 30
0.0
  3
*D23
  1

  0
LINE
  5
D8
330
D6
100
AcDbEntity
  8
BEMASSUNG
  6
ByBlock
 62
     2
440
 16777216
370
    -2
100
AcDbLine
 10
-2022.214552498772
 20
979.8943164892934
 30
0.0
 11
-1959.155113724978
 21
979.8943164892934
 31
0.0
  0
LINE
  5
D9
330
D6
100
AcDbEntity
  8
BEMASSUNG
  6
ByBlock
 62
     2
440
 16777216
370
    -2
100
AcDbLine
 10
-2022.214552498772
 20
856.8943164892935
 30
0.0
 11
-1959.155113724978
 21
856.8943164892935
 31
0.0
  0
LINE
  5
DA
330
D6
100
AcDbEntity
  8
BEMASSUNG
  6
ByBlock
 62
     2
440
 16777216
370
    -2
100
AcDbLine
 10
-1960.155113724978
 20
967.8943164892933
 30
0.0
 11
-1960.155113724978
 21
868.8943164892934
 31
0.0
  0
SOLID
  5
DB
330
D6
100
AcDbEntity
  8
BEMASSUNG
 62
     2
440
 16777216
100
AcDbTrace
 10
-1962.155113724978
 20
967.8943164892933
 30
0.0
 11
-1958.155113724978
 21
967.8943164892933
 31
0.0
 12
-1960.155113724978
 22
979.8943164892934
 32
0.0
 13
-1960.155113724978
 23
979.8943164892934
 33
0.0
  0
SOLID
  5
DC
330
D6
100
AcDbEntity
  8
BEMASSUNG
 62
     2
440
 16777216
100
AcDbTrace
 10
-1962.155113724978
 20
868.8943164892934
 30
0.0
 11
-1958.155113724978
 21
868.8943164892934
 31
0.0
 12
-1960.155113724978
 22
856.8943164892935
 32
0.0
 13
-1960.155113724978
 23
856.8943164892935
 33
0.0
  0
MTEXT
  5
DD
330
D6
100
AcDbEntity
  8
BEMASSUNG
 62
     3
440
 16777216
100
AcDbMText
 10
-1967.253340191554
 20
918.3943164892932
 30
0.0
 40
9.0
 41
0.0
 46
0.0
 71
     5
 72
     1
  1
\A1;123
  7
ARIAL-STANDARD
 11
0.0000000000000001
 21
1.0
 31
0.0
 73
     1
 44
1.0
  0
POINT
  5
DE
330
D6
100
AcDbEntity
  8
DEFPOINTS
 62
     0
440
 16777216
100
AcDbPoint
 10
-2022.214552498772
 20
979.8943164892934
 30
0.0
  0
POINT
  5
DF
330
D6
100
AcDbEntity
  8
DEFPOINTS
 62
     0
440
 16777216
100
AcDbPoint
 10
-2022.214552498772
 20
856.8943164892935
 30
0.0
  0
POINT
  5
E0
330
D6
100
AcDbEntity
  8
DEFPOINTS
 62
     0
440
 16777216
100
AcDbPoint
 10
-1960.155113724978
 20
856.8943164892935
 30
0.0
  0
ENDBLK
  5
E1
330
D6
100
AcDbEntity
  8
0
100
AcDbBlockEnd
  0
BLOCK
  5
CA
330
C9
100
AcDbEntity
  8
0
100
AcDbBlockBegin
  2
*D24
 70
     1
 10
0.0
 20
0.0
 30
0.0
  3
*D24
  1

  0
LINE
  5
CB
330
C9
100
AcDbEntity
  8
BEMASSUNG
  6
ByBlock
 62
     2
440
 16777216
370
    -2
100
AcDbLine
 10
-2022.214552498772
 20
856.8943164892935
 30
0.0
 11
-1959.155113724978
 21
856.8943164892935
 31
0.0
  0
LINE
  5
CC
330
C9
100
AcDbEntity
  8
BEMASSUNG
  6
ByBlock
 62
     2
440
 16777216
370
    -2
100
AcDbLine
 10
-2022.214552498772
 20
733.8943164892935
 30
0.0
 11
-1959.155113724978
 21
733.8943164892935
 31
0.0
  0
LINE
  5
CD
330
C9
100
AcDbEntity
  8
BEMASSUNG
  6
ByBlock
 62
     2
440
 16777216
370
    -2
100
AcDbLine
 10
-1960.155113724978
 20
844.8943164892934
 30
0.0
 11
-1960.155113724978
 21
745.8943164892935
 31
0.0
  0
SOLID
  5
CE
330
C9
100
AcDbEntity
  8
BEMASSUNG
 62
     2
440
 16777216
100
AcDbTrace
 10
-1962.155113724978
 20
844.8943164892934
 30
0.0
 11
-1958.155113724978
 21
844.8943164892934
 31
0.0
 12
-1960.155113724978
 22
856.8943164892935
 32
0.0
 13
-1960.155113724978
 23
856.8943164892935
 33
0.0
  0
SOLID
  5
CF
330
C9
100
AcDbEntity
  8
BEMASSUNG
 62
     2
440
 16777216
100
AcDbTrace
 10
-1962.155113724978
 20
745.8943164892935
 30
0.0
 11
-1958.155113724978
 21
745.8943164892935
 31
0.0
 12
-1960.155113724978
 22
733.8943164892935
 32
0.0
 13
-1960.155113724978
 23
733.8943164892935
 33
0.0
  0
MTEXT
  5
D0
330
C9
100
AcDbEntity
  8
BEMASSUNG
 62
     3
440
 16777216
100
AcDbMText
 10
-1967.253340191554
 20
795.3943164892931
 30
0.0
 40
9.0
 41
0.0
 46
0.0
 71
     5
 72
     1
  1
\A1;123
  7
ARIAL-STANDARD
 11
0.0000000000000001
 21
1.0
 31
0.0
 73
     1
 44
1.0
  0
POINT
  5
D1
330
C9
100
AcDbEntity
  8
DEFPOINTS
 62
     0
440
 16777216
100
AcDbPoint
 10
-2022.214552498772
 20
856.8943164892935
 30
0.0
  0
POINT
  5
D2
330
C9
100
AcDbEntity
  8
DEFPOINTS
 62
     0
440
 16777216
100
AcDbPoint
 10
-2022.214552498772
 20
733.8943164892935
 30
0.0
  0
POINT
  5
D3
330
C9
100
AcDbEntity
  8
DEFPOINTS
 62
     0
440
 16777216
100
AcDbPoint
 10
-1960.155113724978
 20
733.8943164892935
 30
0.0
  0
ENDBLK
  5
D4
330
C9
100
AcDbEntity
  8
0
100
AcDbBlockEnd
  0
BLOCK
  5
BB
330
BA
100
AcDbEntity
  8
0
100
AcDbBlockBegin
  2
*D25
 70
     1
 10
0.0
 20
0.0
 30
0.0
  3
*D25
  1

  0
LINE
  5
BC
330
BA
100
AcDbEntity
  8
BEMASSUNG
  6
ByBlock
 62
     2
440
 16777216
370
    -2
100
AcDbLine
 10
-2017.964552498773
 20
1354.394316489294
 30
0.0
 11
-1968.634197825878
 21
1354.394316489294
 31
0.0
  0
LINE
  5
BD
330
BA
100
AcDbEntity
  8
BEMASSUNG
  6
ByBlock
 62
     2
440
 16777216
370
    -2
100
AcDbLine
 10
-2022.214552498772
 20
1342.394316489294
 30
0.0
 11
-1968.634197825878
 21
1342.394316489294
 31
0.0
  0
LINE
  5
BE
330
BA
100
AcDbEntity
  8
BEMASSUNG
  6
ByBlock
 62
     2
440
 16777216
370
    -2
100
AcDbLine
 10
-1969.634197825878
 20
1366.394316489294
 30
0.0
 11
-1969.634197825878
 21
1378.394316489294
 31
0.0
  0
LINE
  5
BF
330
BA
100
AcDbEntity
  8
BEMASSUNG
  6
ByBlock
 62
     2
440
 16777216
370
    -2
100
AcDbLine
 10
-1969.634197825878
 20
1330.394316489294
 30
0.0
 11
-1969.634197825878
 21
1318.394316489294
 31
0.0
  0
LINE
  5
C0
330
BA
100
AcDbEntity
  8
BEMASSUNG
  6
ByBlock
 62
     2
440
 16777216
370
    -2
100
AcDbLine
 10
-1969.634197825878
 20
1354.394316489294
 30
0.0
 11
-1969.634197825878
 21
1342.394316489294
 31
0.0
  0
SOLID
  5
C1
330
BA
100
AcDbEntity
  8
BEMASSUNG
 62
     2
440
 16777216
100
AcDbTrace
 10
-1971.634197825878
 20
1366.394316489294
 30
0.0
 11
-1967.634197825878
 21
1366.394316489294
 31
0.0
 12
-1969.634197825878
 22
1354.394316489294
 32
0.0
 13
-1969.634197825878
 23
1354.394316489294
 33
0.0
  0
SOLID
  5
C2
330
BA
100
AcDbEntity
  8
BEMASSUNG
 62
     2
440
 16777216
100
AcDbTrace
 10
-1971.634197825878
 20
1330.394316489294
 30
0.0
 11
-1967.634197825878
 21
1330.394316489294
 31
0.0
 12
-1969.634197825878
 22
1342.394316489294
 32
0.0
 13
-1969.634197825878
 23
1342.394316489294
 33
0.0
  0
MTEXT
  5
C3
330
BA
100
AcDbEntity
  8
BEMASSUNG
 62
     3
440
 16777216
100
AcDbMText
 10
-1976.652615288361
 20
1348.394316489293
 30
0.0
 40
9.0
 41
0.0
 46
0.0
 71
     5
 72
     1
  1
\A1;12
  7
ARIAL-STANDARD
 11
0.0000000000000001
 21
1.0
 31
0.0
 73
     1
 44
1.0
  0
POINT
  5
C4
330
BA
100
AcDbEntity
  8
DEFPOINTS
 62
     0
440
 16777216
100
AcDbPoint
 10
-2017.964552498773
 20
1354.394316489294
 30
0.0
  0
POINT
  5
C5
330
BA
100
AcDbEntity
  8
DEFPOINTS
 62
     0
440
 16777216
100
AcDbPoint
 10
-2022.214552498772
 20
1342.394316489294
 30
0.0
  0
POINT
  5
C6
330
BA
100
AcDbEntity
  8
DEFPOINTS
 62
     0
440
 16777216
100
AcDbPoint
 10
-1969.634197825878
 20
1342.394316489294
 30
0.0
  0
ENDBLK
  5
C7
330
BA
100
AcDbEntity
  8
0
100
AcDbBlockEnd
  0
BLOCK
  5
AE
330
AD
100
AcDbEntity
  8
0
100
AcDbBlockBegin
  2
*D26
 70
     1
 10
0.0
 20
0.0
 30
0.0
  3
*D26
  1

  0
LINE
  5
AF
330
AD
100
AcDbEntity
  8
BEMASSUNG
  6
ByBlock
 62
     2
440
 16777216
370
    -2
100
AcDbLine
 10
-2022.214552498772
 20
1342.394316489294
 30
0.0
 11
-1968.634197825878
 21
1342.394316489294
 31
0.0
  0
LINE
  5
B0
330
AD
100
AcDbEntity
  8
BEMASSUNG
  6
ByBlock
 62
     2
440
 16777216
370
    -2
100
AcDbLine
 10
-2022.214552498772
 20
1181.394316489294
 30
0.0
 11
-1968.634197825878
 21
1181.394316489294
 31
0.0
  0
LINE
  5
B1
330
AD
100
AcDbEntity
  8
BEMASSUNG
  6
ByBlock
 62
     2
440
 16777216
370
    -2
100
AcDbLine
 10
-1969.634197825878
 20
1330.394316489294
 30
0.0
 11
-1969.634197825878
 21
1193.394316489294
 31
0.0
  0
SOLID
  5
B2
330
AD
100
AcDbEntity
  8
BEMASSUNG
 62
     2
440
 16777216
100
AcDbTrace
 10
-1971.634197825878
 20
1330.394316489294
 30
0.0
 11
-1967.634197825878
 21
1330.394316489294
 31
0.0
 12
-1969.634197825878
 22
1342.394316489294
 32
0.0
 13
-1969.634197825878
 23
1342.394316489294
 33
0.0
  0
SOLID
  5
B3
330
AD
100
AcDbEntity
  8
BEMASSUNG
 62
     2
440
 16777216
100
AcDbTrace
 10
-1971.634197825878
 20
1193.394316489294
 30
0.0
 11
-1967.634197825878
 21
1193.394316489294
 31
0.0
 12
-1969.634197825878
 22
1181.394316489294
 32
0.0
 13
-1969.634197825878
 23
1181.394316489294
 33
0.0
  0
MTEXT
  5
B4
330
AD
100
AcDbEntity
  8
BEMASSUNG
 62
     3
440
 16777216
100
AcDbMText
 10
-1976.729354715373
 20
1261.894316489294
 30
0.0
 40
9.0
 41
0.0
 46
0.0
 71
     5
 72
     1
  1
\A1;161
  7
ARIAL-STANDARD
 11
0.0000000000000001
 21
1.0
 31
0.0
 73
     1
 44
1.0
  0
POINT
  5
B5
330
AD
100
AcDbEntity
  8
DEFPOINTS
 62
     0
440
 16777216
100
AcDbPoint
 10
-2022.214552498772
 20
1342.394316489294
 30
0.0
  0
POINT
  5
B6
330
AD
100
AcDbEntity
  8
DEFPOINTS
 62
     0
440
 16777216
100
AcDbPoint
 10
-2022.214552498772
 20
1181.394316489294
 30
0.0
  0
POINT
  5
B7
330
AD
100
AcDbEntity
  8
DEFPOINTS
 62
     0
440
 16777216
100
AcDbPoint
 10
-1969.634197825878
 20
1181.394316489294
 30
0.0
  0
ENDBLK
  5
B8
330
AD
100
AcDbEntity
  8
0
100
AcDbBlockEnd
  0
BLOCK
  5
9F
330
9E
100
AcDbEntity
  8
0
100
AcDbBlockBegin
  2
*D27
 70
     1
 10
0.0
 20
0.0
 30
0.0
  3
*D27
  1

  0
LINE
  5
A0
330
9E
100
AcDbEntity
  8
BEMASSUNG
  6
ByBlock
 62
     2
440
 16777216
370
    -2
100
AcDbLine
 10
-2022.214552498772
 20
1181.394316489294
 30
0.0
 11
-1968.634197825878
 21
1181.394316489294
 31
0.0
  0
LINE
  5
A1
330
9E
100
AcDbEntity
  8
BEMASSUNG
  6
ByBlock
 62
     2
440
 16777216
370
    -2
100
AcDbLine
 10
-2017.964552498773
 20
1169.394316489294
 30
0.0
 11
-1968.634197825878
 21
1169.394316489294
 31
0.0
  0
LINE
  5
A2
330
9E
100
AcDbEntity
  8
BEMASSUNG
  6
ByBlock
 62
     2
440
 16777216
370
    -2
100
AcDbLine
 10
-1969.634197825878
 20
1193.394316489294
 30
0.0
 11
-1969.634197825878
 21
1205.394316489294
 31
0.0
  0
LINE
  5
A3
330
9E
100
AcDbEntity
  8
BEMASSUNG
  6
ByBlock
 62
     2
440
 16777216
370
    -2
100
AcDbLine
 10
-1969.634197825878
 20
1157.394316489294
 30
0.0
 11
-1969.634197825878
 21
1145.394316489294
 31
0.0
  0
LINE
  5
A4
330
9E
100
AcDbEntity
  8
BEMASSUNG
  6
ByBlock
 62
     2
440
 16777216
370
    -2
100
AcDbLine
 10
-1969.634197825878
 20
1181.394316489294
 30
0.0
 11
-1969.634197825878
 21
1169.394316489294
 31
0.0
  0
SOLID
  5
A5
330
9E
100
AcDbEntity
  8
BEMASSUNG
 62
     2
440
 16777216
100
AcDbTrace
 10
-1971.634197825878
 20
1193.394316489294
 30
0.0
 11
-1967.634197825878
 21
1193.394316489294
 31
0.0
 12
-1969.634197825878
 22
1181.394316489294
 32
0.0
 13
-1969.634197825878
 23
1181.394316489294
 33
0.0
  0
SOLID
  5
A6
330
9E
100
AcDbEntity
  8
BEMASSUNG
 62
     2
440
 16777216
100
AcDbTrace
 10
-1971.634197825878
 20
1157.394316489294
 30
0.0
 11
-1967.634197825878
 21
1157.394316489294
 31
0.0
 12
-1969.634197825878
 22
1169.394316489294
 32
0.0
 13
-1969.634197825878
 23
1169.394316489294
 33
0.0
  0
MTEXT
  5
A7
330
9E
100
AcDbEntity
  8
BEMASSUNG
 62
     3
440
 16777216
100
AcDbMText
 10
-1976.652615288361
 20
1175.394316489294
 30
0.0
 40
9.0
 41
0.0
 46
0.0
 71
     5
 72
     1
  1
\A1;12
  7
ARIAL-STANDARD
 11
0.0000000000000001
 21
1.0
 31
0.0
 73
     1
 44
1.0
  0
POINT
  5
A8
330
9E
100
AcDbEntity
  8
DEFPOINTS
 62
     0
440
 16777216
100
AcDbPoint
 10
-2022.214552498772
 20
1181.394316489294
 30
0.0
  0
POINT
  5
A9
330
9E
100
AcDbEntity
  8
DEFPOINTS
 62
     0
440
 16777216
100
AcDbPoint
 10
-2017.964552498773
 20
1169.394316489294
 30
0.0
  0
POINT
  5
AA
330
9E
100
AcDbEntity
  8
DEFPOINTS
 62
     0
440
 16777216
100
AcDbPoint
 10
-1969.634197825878
 20
1169.394316489294
 30
0.0
  0
ENDBLK
  5
AB
330
9E
100
AcDbEntity
  8
0
100
AcDbBlockEnd
  0
BLOCK
  5
90
330
8F
100
AcDbEntity
  8
0
100
AcDbBlockBegin
  2
*D28
 70
     1
 10
0.0
 20
0.0
 30
0.0
  3
*D28
  1

  0
LINE
  5
91
330
8F
100
AcDbEntity
  8
BEMASSUNG
  6
ByBlock
 62
     2
440
 16777216
370
    -2
100
AcDbLine
 10
-2017.964552498773
 20
534.3943164892938
 30
0.0
 11
-1966.577130682751
 21
534.3943164892938
 31
0.0
  0
LINE
  5
92
330
8F
100
AcDbEntity
  8
BEMASSUNG
  6
ByBlock
 62
     2
440
 16777216
370
    -2
100
AcDbLine
 10
-2022.214552498772
 20
522.3943164892938
 30
0.0
 11
-1966.577130682751
 21
522.3943164892938
 31
0.0
  0
LINE
  5
93
330
8F
100
AcDbEntity
  8
BEMASSUNG
  6
ByBlock
 62
     2
440
 16777216
370
    -2
100
AcDbLine
 10
-1967.577130682752
 20
546.3943164892937
 30
0.0
 11
-1967.577130682752
 21
558.3943164892938
 31
0.0
  0
LINE
  5
94
330
8F
100
AcDbEntity
  8
BEMASSUNG
  6
ByBlock
 62
     2
440
 16777216
370
    -2
100
AcDbLine
 10
-1967.577130682752
 20
510.3943164892938
 30
0.0
 11
-1967.577130682752
 21
498.3943164892938
 31
0.0
  0
LINE
  5
95
330
8F
100
AcDbEntity
  8
BEMASSUNG
  6
ByBlock
 62
     2
440
 16777216
370
    -2
100
AcDbLine
 10
-1967.577130682752
 20
534.3943164892938
 30
0.0
 11
-1967.577130682752
 21
522.3943164892938
 31
0.0
  0
SOLID
  5
96
330
8F
100
AcDbEntity
  8
BEMASSUNG
 62
     2
440
 16777216
100
AcDbTrace
 10
-1969.577130682752
 20
546.3943164892937
 30
0.0
 11
-1965.577130682752
 21
546.3943164892937
 31
0.0
 12
-1967.577130682752
 22
534.3943164892938
 32
0.0
 13
-1967.577130682752
 23
534.3943164892938
 33
0.0
  0
SOLID
  5
97
330
8F
100
AcDbEntity
  8
BEMASSUNG
 62
     2
440
 16777216
100
AcDbTrace
 10
-1969.577130682752
 20
510.3943164892938
 30
0.0
 11
-1965.577130682752
 21
510.3943164892938
 31
0.0
 12
-1967.577130682752
 22
522.3943164892938
 32
0.0
 13
-1967.577130682752
 23
522.3943164892938
 33
0.0
  0
MTEXT
  5
98
330
8F
100
AcDbEntity
  8
BEMASSUNG
 62
     3
440
 16777216
100
AcDbMText
 10
-1974.595548145235
 20
528.3943164892934
 30
0.0
 40
9.0
 41
0.0
 46
0.0
 71
     5
 72
     1
  1
\A1;12
  7
ARIAL-STANDARD
 11
0.0000000000000001
 21
1.0
 31
0.0
 73
     1
 44
1.0
  0
POINT
  5
99
330
8F
100
AcDbEntity
  8
DEFPOINTS
 62
     0
440
 16777216
100
AcDbPoint
 10
-2017.964552498773
 20
534.3943164892938
 30
0.0
  0
POINT
  5
9A
330
8F
100
AcDbEntity
  8
DEFPOINTS
 62
     0
440
 16777216
100
AcDbPoint
 10
-2022.214552498772
 20
522.3943164892938
 30
0.0
  0
POINT
  5
9B
330
8F
100
AcDbEntity
  8
DEFPOINTS
 62
     0
440
 16777216
100
AcDbPoint
 10
-1967.577130682752
 20
522.3943164892938
 30
0.0
  0
ENDBLK
  5
9C
330
8F
100
AcDbEntity
  8
0
100
AcDbBlockEnd
  0
BLOCK
  5
83
330
82
100
AcDbEntity
  8
0
100
AcDbBlockBegin
  2
*D29
 70
     1
 10
0.0
 20
0.0
 30
0.0
  3
*D29
  1

  0
LINE
  5
84
330
82
100
AcDbEntity
  8
BEMASSUNG
  6
ByBlock
 62
     2
440
 16777216
370
    -2
100
AcDbLine
 10
-2022.214552498772
 20
522.3943164892938
 30
0.0
 11
-1966.577130682751
 21
522.3943164892938
 31
0.0
  0
LINE
  5
85
330
82
100
AcDbEntity
  8
BEMASSUNG
  6
ByBlock
 62
     2
440
 16777216
370
    -2
100
AcDbLine
 10
-2022.214552498772
 20
361.3943164892938
 30
0.0
 11
-1966.577130682752
 21
361.3943164892938
 31
0.0
  0
LINE
  5
86
330
82
100
AcDbEntity
  8
BEMASSUNG
  6
ByBlock
 62
     2
440
 16777216
370
    -2
100
AcDbLine
 10
-1967.577130682752
 20
510.3943164892938
 30
0.0
 11
-1967.577130682752
 21
373.3943164892938
 31
0.0
  0
SOLID
  5
87
330
82
100
AcDbEntity
  8
BEMASSUNG
 62
     2
440
 16777216
100
AcDbTrace
 10
-1969.577130682752
 20
510.3943164892938
 30
0.0
 11
-1965.577130682752
 21
510.3943164892938
 31
0.0
 12
-1967.577130682752
 22
522.3943164892938
 32
0.0
 13
-1967.577130682752
 23
522.3943164892938
 33
0.0
  0
SOLID
  5
88
330
82
100
AcDbEntity
  8
BEMASSUNG
 62
     2
440
 16777216
100
AcDbTrace
 10
-1969.577130682752
 20
373.3943164892938
 30
0.0
 11
-1965.577130682752
 21
373.3943164892938
 31
0.0
 12
-1967.577130682752
 22
361.3943164892938
 32
0.0
 13
-1967.577130682752
 23
361.3943164892938
 33
0.0
  0
MTEXT
  5
89
330
82
100
AcDbEntity
  8
BEMASSUNG
 62
     3
440
 16777216
100
AcDbMText
 10
-1974.672287572247
 20
441.8943164892935
 30
0.0
 40
9.0
 41
0.0
 46
0.0
 71
     5
 72
     1
  1
\A1;161
  7
ARIAL-STANDARD
 11
0.0000000000000001
 21
1.0
 31
0.0
 73
     1
 44
1.0
  0
POINT
  5
8A
330
82
100
AcDbEntity
  8
DEFPOINTS
 62
     0
440
 16777216
100
AcDbPoint
 10
-2022.214552498772
 20
522.3943164892938
 30
0.0
  0
POINT
  5
8B
330
82
100
AcDbEntity
  8
DEFPOINTS
 62
     0
440
 16777216
100
AcDbPoint
 10
-2022.214552498772
 20
361.3943164892938
 30
0.0
  0
POINT
  5
8C
330
82
100
AcDbEntity
  8
DEFPOINTS
 62
     0
440
 16777216
100
AcDbPoint
 10
-1967.577130682752
 20
361.3943164892938
 30
0.0
  0
ENDBLK
  5
8D
330
82
100
AcDbEntity
  8
0
100
AcDbBlockEnd
  0
BLOCK
  5
72
330
71
100
AcDbEntity
  8
0
100
AcDbBlockBegin
  2
*D30
 70
     1
 10
0.0
 20
0.0
 30
0.0
  3
*D30
  1

  0
LINE
  5
73
330
71
100
AcDbEntity
  8
BEMASSUNG
  6
ByBlock
 62
     2
440
 16777216
370
    -2
100
AcDbLine
 10
-2022.214552498772
 20
361.3943164892938
 30
0.0
 11
-1966.577130682752
 21
361.3943164892938
 31
0.0
  0
LINE
  5
74
330
71
100
AcDbEntity
  8
BEMASSUNG
  6
ByBlock
 62
     2
440
 16777216
370
    -2
100
AcDbLine
 10
-2017.964552498773
 20
349.3943164892938
 30
0.0
 11
-1966.577130682752
 21
349.3943164892938
 31
0.0
  0
LINE
  5
75
330
71
100
AcDbEntity
  8
BEMASSUNG
  6
ByBlock
 62
     2
440
 16777216
370
    -2
100
AcDbLine
 10
-1967.577130682752
 20
373.3943164892938
 30
0.0
 11
-1967.577130682752
 21
385.3943164892939
 31
0.0
  0
LINE
  5
76
330
71
100
AcDbEntity
  8
BEMASSUNG
  6
ByBlock
 62
     2
440
 16777216
370
    -2
100
AcDbLine
 10
-1967.577130682752
 20
337.3943164892938
 30
0.0
 11
-1967.577130682752
 21
325.3943164892938
 31
0.0
  0
LINE
  5
77
330
71
100
AcDbEntity
  8
BEMASSUNG
  6
ByBlock
 62
     2
440
 16777216
370
    -2
100
AcDbLine
 10
-1967.577130682752
 20
361.3943164892938
 30
0.0
 11
-1967.577130682752
 21
349.3943164892938
 31
0.0
  0
SOLID
  5
78
330
71
100
AcDbEntity
  8
BEMASSUNG
 62
     2
440
 16777216
100
AcDbTrace
 10
-1969.577130682752
 20
373.3943164892938
 30
0.0
 11
-1965.577130682752
 21
373.3943164892938
 31
0.0
 12
-1967.577130682752
 22
361.3943164892938
 32
0.0
 13
-1967.577130682752
 23
361.3943164892938
 33
0.0
  0
SOLID
  5
79
330
71
100
AcDbEntity
  8
BEMASSUNG
 62
     2
440
 16777216
100
AcDbTrace
 10
-1969.577130682752
 20
337.3943164892938
 30
0.0
 11
-1965.577130682752
 21
337.3943164892938
 31
0.0
 12
-1967.577130682752
 22
349.3943164892938
 32
0.0
 13
-1967.577130682752
 23
349.3943164892938
 33
0.0
  0
MTEXT
  5
7A
330
71
100
AcDbEntity
  8
BEMASSUNG
 62
     3
440
 16777216
100
AcDbMText
 10
-1974.595548145235
 20
355.3943164892935
 30
0.0
 40
9.0
 41
0.0
 46
0.0
 71
     5
 72
     1
  1
\A1;12
  7
ARIAL-STANDARD
 11
0.0000000000000001
 21
1.0
 31
0.0
 73
     1
 44
1.0
  0
POINT
  5
7B
330
71
100
AcDbEntity
  8
DEFPOINTS
 62
     0
440
 16777216
100
AcDbPoint
 10
-2022.214552498772
 20
361.3943164892938
 30
0.0
  0
POINT
  5
7D
330
71
100
AcDbEntity
  8
DEFPOINTS
 62
     0
440
 16777216
100
AcDbPoint
 10
-2017.964552498773
 20
349.3943164892938
 30
0.0
  0
POINT
  5
7E
330
71
100
AcDbEntity
  8
DEFPOINTS
 62
     0
440
 16777216
100
AcDbPoint
 10
-1967.577130682752
 20
349.3943164892938
 30
0.0
  0
ENDBLK
  5
7F
330
71
100
AcDbEntity
  8
0
100
AcDbBlockEnd
  0
ENDSEC
  0
SECTION
  2
ENTITIES
  0
DIMENSION
  5
70
330
2
100
AcDbEntity
  8
BEMASSUNG
100
AcDbDimension
280
     0
  2
*D30
 10
-1967.577130682752
 20
349.3943164892938
 30
0.0
 11
-1974.595548145235
 21
355.3943164892935
 31
0.0
 71
     5
 42
12.0
 73
     0
 74
     0
 75
     0
  3
Katalog 09$0
100
AcDbAlignedDimension
 13
-2022.214552498772
 23
361.3943164892938
 33
0.0
 14
-2017.964552498773
 24
349.3943164892938
 34
0.0
 50
90.0
100
AcDbRotatedDimension
1001
ACAD
1000
DSTYLE
1002
{
1070
    50
1040
1.570796326794896
1070
   345
1005
2C
1070
   346
1005
2C
1070
   347
1005
2C
1002
}
  0
DIMENSION
  5
81
330
2
100
AcDbEntity
  8
BEMASSUNG
100
AcDbDimension
280
     0
  2
*D29
 10
-1967.577130682752
 20
361.3943164892938
 30
0.0
 11
-1974.672287572247
 21
441.8943164892935
 31
0.0
 71
     5
 42
161.0
 73
     0
 74
     0
 75
     0
  3
Katalog 09$0
100
AcDbAlignedDimension
 13
-2022.214552498772
 23
522.3943164892938
 33
0.0
 14
-2022.214552498772
 24
361.3943164892938
 34
0.0
 50
90.0
100
AcDbRotatedDimension
1001
ACAD
1000
DSTYLE
1002
{
1070
    50
1040
1.570796326794896
1070
   345
1005
2C
1070
   346
1005
2C
1070
   347
1005
2C
1002
}
  0
DIMENSION
  5
8E
330
2
100
AcDbEntity
  8
BEMASSUNG
100
AcDbDimension
280
     0
  2
*D28
 10
-1967.577130682752
 20
522.3943164892938
 30
0.0
 11
-1974.595548145235
 21
528.3943164892934
 31
0.0
 71
     5
 42
12.0
 73
     0
 74
     0
 75
     0
  3
Katalog 09$0
100
AcDbAlignedDimension
 13
-2017.964552498773
 23
534.3943164892938
 33
0.0
 14
-2022.214552498772
 24
522.3943164892938
 34
0.0
 50
90.0
100
AcDbRotatedDimension
1001
ACAD
1000
DSTYLE
1002
{
1070
    50
1040
1.570796326794896
1070
   345
1005
2C
1070
   346
1005
2C
1070
   347
1005
2C
1002
}
  0
DIMENSION
  5
9D
330
2
100
AcDbEntity
  8
BEMASSUNG
100
AcDbDimension
280
     0
  2
*D27
 10
-1969.634197825878
 20
1169.394316489294
 30
0.0
 11
-1976.652615288361
 21
1175.394316489294
 31
0.0
 71
     5
 42
12.0
 73
     0
 74
     0
 75
     0
  3
Katalog 09$0
100
AcDbAlignedDimension
 13
-2022.214552498772
 23
1181.394316489294
 33
0.0
 14
-2017.964552498773
 24
1169.394316489294
 34
0.0
 50
90.0
100
AcDbRotatedDimension
1001
ACAD
1000
DSTYLE
1002
{
1070
    50
1040
1.570796326794896
1070
   345
1005
2C
1070
   346
1005
2C
1070
   347
1005
2C
1002
}
  0
DIMENSION
  5
AC
330
2
100
AcDbEntity
  8
BEMASSUNG
100
AcDbDimension
280
     0
  2
*D26
 10
-1969.634197825878
 20
1181.394316489294
 30
0.0
 11
-1976.729354715373
 21
1261.894316489294
 31
0.0
 71
     5
 42
161.0
 73
     0
 74
     0
 75
     0
  3
Katalog 09$0
100
AcDbAlignedDimension
 13
-2022.214552498772
 23
1342.394316489294
 33
0.0
 14
-2022.214552498772
 24
1181.394316489294
 34
0.0
 50
90.0
100
AcDbRotatedDimension
1001
ACAD
1000
DSTYLE
1002
{
1070
    50
1040
1.570796326794896
1070
   345
1005
2C
1070
   346
1005
2C
1070
   347
1005
2C
1002
}
  0
DIMENSION
  5
B9
330
2
100
AcDbEntity
  8
BEMASSUNG
100
AcDbDimension
280
     0
  2
*D25
 10
-1969.634197825878
 20
1342.394316489294
 30
0.0
 11
-1976.652615288361
 21
1348.394316489293
 31
0.0
 71
     5
 42
12.0
 73
     0
 74
     0
 75
     0
  3
Katalog 09$0
100
AcDbAlignedDimension
 13
-2017.964552498773
 23
1354.394316489294
 33
0.0
 14
-2022.214552498772
 24
1342.394316489294
 34
0.0
 50
90.0
100
AcDbRotatedDimension
1001
ACAD
1000
DSTYLE
1002
{
1070
    50
1040
1.570796326794896
1070
   345
1005
2C
1070
   346
1005
2C
1070
   347
1005
2C
1002
}
  0
DIMENSION
  5
C8
330
2
100
AcDbEntity
  8
BEMASSUNG
100
AcDbDimension
280
     0
  2
*D24
 10
-1960.155113724978
 20
733.8943164892935
 30
0.0
 11
-1967.253340191554
 21
795.3943164892931
 31
0.0
 71
     5
 42
123.0
 73
     0
 74
     0
 75
     0
  3
Katalog 09$0
100
AcDbAlignedDimension
 13
-2022.214552498772
 23
856.8943164892935
 33
0.0
 14
-2022.214552498772
 24
733.8943164892935
 34
0.0
 50
90.0
100
AcDbRotatedDimension
1001
ACAD
1000
DSTYLE
1002
{
1070
    50
1040
1.570796326794896
1070
   345
1005
2C
1070
   346
1005
2C
1070
   347
1005
2C
1002
}
  0
DIMENSION
  5
D5
330
2
100
AcDbEntity
  8
BEMASSUNG
100
AcDbDimension
280
     0
  2
*D23
 10
-1960.155113724978
 20
856.8943164892935
 30
0.0
 11
-1967.253340191554
 21
918.3943164892932
 31
0.0
 71
     5
 42
122.9999999999999
 73
     0
 74
     0
 75
     0
  3
Katalog 09$0
100
AcDbAlignedDimension
 13
-2022.214552498772
 23
979.8943164892934
 33
0.0
 14
-2022.214552498772
 24
856.8943164892935
 34
0.0
 50
90.0
100
AcDbRotatedDimension
1001
ACAD
1000
DSTYLE
1002
{
1070
    50
1040
1.570796326794896
1070
   345
1005
2C
1070
   346
1005
2C
1070
   347
1005
2C
1002
}
  0
DIMENSION
  5
E2
330
2
100
AcDbEntity
  8
BEMASSUNG
100
AcDbDimension
280
     0
  2
*D22
 10
-1960.155113724978
 20
733.8943164892935
 30
0.0
 11
-1967.173531187461
 21
727.8943164892933
 31
0.0
 71
     5
 42
11.99999999999977
 73
     0
 74
     0
 75
     0
  3
Katalog 09$0
100
AcDbAlignedDimension
 13
-2041.964552498772
 23
721.8943164892936
 33
0.0
 14
-2037.714552498772
 24
733.8943164892935
 34
0.0
 50
90.0
100
AcDbRotatedDimension
1001
ACAD
1000
DSTYLE
1002
{
1070
    50
1040
1.570796326794896
1070
   345
1005
2C
1070
   346
1005
2C
1070
   347
1005
2C
1002
}
  0
DIMENSION
  5
F1
330
2
100
AcDbEntity
  8
BEMASSUNG
100
AcDbDimension
280
     0
  2
*D21
 10
-1960.155113724978
 20
979.8943164892934
 30
0.0
 11
-1967.173531187461
 21
985.8962654762184
 31
0.0
 71
     5
 42
12.00389797385083
 73
     0
 74
     0
 75
     0
  3
Katalog 09$0
100
AcDbAlignedDimension
 13
-2041.964552498772
 23
991.8982144631442
 33
0.0
 14
-2037.714552498772
 24
979.8943164892934
 34
0.0
 50
90.0
100
AcDbRotatedDimension
1001
ACAD
1000
DSTYLE
1002
{
1070
    50
1040
1.570796326794896
1070
   345
1005
2C
1070
   346
1005
2C
1070
   347
1005
2C
1002
}
  0
DIMENSION
  5
100
330
2
100
AcDbEntity
  8
AM_5
100
AcDbDimension
280
     0
  2
*D7
 10
-2017.964552498773
 20
949.9894733787886
 30
0.0
 11
-1983.213529306412
 21
949.9894733787886
 31
0.0
 70
   128
 71
     5
 42
6.500000000000227
 73
     0
 74
     0
 75
     0
  3
Katalog 09$0
100
AcDbAlignedDimension
 13
-2024.464552498772
 23
929.8943164892937
 33
0.0
 14
-2017.964552498773
 24
930.8943164892937
 34
0.0
100
AcDbRotatedDimension
1001
ACAD_DSTYLE_DIMINSPECT
1070
   396
1000
100%
1070
   395
1000

1070
   394
1070
    33
1070
   393
1070
     0
  0
MTEXT
  5
112
330
2
100
AcDbEntity
  8
UMRISS05
 62
     3
100
AcDbMText
 10
-2035.161766276431
 20
571.6664880053226
 30
0.0
 40
10.0
 41
0.0
 46
0.0
 71
     5
 72
     1
  1
\A1;200.03801
  7
ARIAL-STANDARD
 73
     1
 44
1.0
  0
MTEXT
  5
116
330
2
100
AcDbEntity
  8
UMRISS05
 62
     3
100
AcDbMText
 10
-2037.026380378025
 20
1416.14401347842
 30
0.0
 40
10.0
 41
0.0
 46
0.0
 71
     5
 72
     1
  1
\A1;200.03801
  7
ARIAL-STANDARD
 73
     1
 44
1.0
  0
MTEXT
  5
117
330
2
100
AcDbEntity
  8
UMRISS05
 62
     3
100
AcDbMText
 10
-2044.59037635363
 20
1047.148527904756
 30
0.0
 40
10.0
 41
0.0
 46
0.0
 71
     5
 72
     1
  1
\A1;200.03800
  7
ARIAL-STANDARD
 73
     1
 44
1.0
  0
MTEXT
  5
118
330
2
100
AcDbEntity
  8
UMRISS05
 62
     3
100
AcDbMText
 10
-2032.818772329143
 20
1092.036729376926
 30
0.0
 40
10.0
 41
0.0
 46
0.0
 71
     5
 72
     1
  1
\A1;BV-24421\PR6932-24
  7
ARIAL-STANDARD
 73
     1
 44
1.0
  0
DIMENSION
  5
119
330
2
100
AcDbEntity
  8
AM_0
100
AcDbDimension
280
     0
  2
*D6
 10
-2064.136380780862
 20
471.8943164892938
 30
0.0
 11
-2071.231537670357
 21
503.1443164892935
 31
0.0
 71
     5
 42
62.50000000000011
 73
     0
 74
     0
 75
     0
  3
Katalog 09
100
AcDbAlignedDimension
 13
-2041.964552498772
 23
534.3943164892939
 33
0.0
 14
-2038.283985461883
 24
471.8943164892938
 34
0.0
 50
90.0
100
AcDbRotatedDimension
  0
LINE
  5
127
330
2
100
AcDbEntity
  8
UMRISS05
100
AcDbLine
 10
-2026.664552498773
 20
891.1443164892933
 30
0.0
 11
-2028.364552498773
 21
891.1443164892933
 31
0.0
  0
LINE
  5
128
330
2
100
AcDbEntity
  8
UMRISS05
100
AcDbLine
 10
-2030.664552498773
 20
891.1443164892933
 30
0.0
 11
-2030.664552498773
 21
891.7443164892929
 31
0.0
  0
LINE
  5
129
330
2
100
AcDbEntity
  8
UMRISS05
100
AcDbLine
 10
-2028.364552498773
 20
891.7443164892929
 30
0.0
 11
-2026.664552498773
 21
891.7443164892929
 31
0.0
  0
LINE
  5
12A
330
2
100
AcDbEntity
  8
UMRISS05
100
AcDbLine
 10
-2026.664552498773
 20
891.7443164892929
 30
0.0
 11
-2026.664552498773
 21
891.1443164892933
 31
0.0
  0
LINE
  5
12B
330
2
100
AcDbEntity
  8
UMRISS05
100
AcDbLine
 10
-2028.964552498773
 20
891.1443164892933
 30
0.0
 11
-2030.664552498773
 21
891.1443164892933
 31
0.0
  0
LINE
  5
12C
330
2
100
AcDbEntity
  8
UMRISS05
100
AcDbLine
 10
-2030.664552498773
 20
891.7443164892929
 30
0.0
 11
-2028.964552498773
 21
891.7443164892929
 31
0.0
  0
LINE
  5
12D
330
2
100
AcDbEntity
  8
UMRISS05
100
AcDbLine
 10
-2028.364552498773
 20
889.4443164892932
 30
0.0
 11
-2028.964552498773
 21
889.4443164892932
 31
0.0
  0
LINE
  5
12E
330
2
100
AcDbEntity
  8
UMRISS05
100
AcDbLine
 10
-2028.964552498773
 20
891.7443164892929
 30
0.0
 11
-2028.964552498773
 21
893.4443164892932
 31
0.0
  0
LINE
  5
12F
330
2
100
AcDbEntity
  8
UMRISS05
100
AcDbLine
 10
-2028.964552498773
 20
893.4443164892932
 30
0.0
 11
-2028.364552498773
 21
893.4443164892932
 31
0.0
  0
LINE
  5
130
330
2
100
AcDbEntity
  8
UMRISS05
100
AcDbLine
 10
-2028.964552498773
 20
889.4443164892932
 30
0.0
 11
-2028.964552498773
 21
891.1443164892933
 31
0.0
  0
LINE
  5
131
330
2
100
AcDbEntity
  8
UMRISS05
100
AcDbLine
 10
-2028.364552498773
 20
893.4443164892932
 30
0.0
 11
-2028.364552498773
 21
891.7443164892929
 31
0.0
  0
LINE
  5
132
330
2
100
AcDbEntity
  8
UMRISS05
100
AcDbLine
 10
-2028.364552498773
 20
891.1443164892933
 30
0.0
 11
-2028.364552498773
 21
889.4443164892932
 31
0.0
  0
CIRCLE
  5
133
330
2
100
AcDbEntity
  8
UMRISS05
100
AcDbCircle
 10
-2028.664552498772
 20
891.4443164892931
 30
0.0
 40
4.0
  0
LINE
  5
134
330
2
100
AcDbEntity
  8
UMRISS05
100
AcDbLine
 10
-2026.664552498773
 20
922.1443164892932
 30
0.0
 11
-2028.364552498773
 21
922.1443164892932
 31
0.0
  0
LINE
  5
135
330
2
100
AcDbEntity
  8
UMRISS05
100
AcDbLine
 10
-2030.664552498773
 20
922.1443164892932
 30
0.0
 11
-2030.664552498773
 21
922.7443164892934
 31
0.0
  0
LINE
  5
136
330
2
100
AcDbEntity
  8
UMRISS05
100
AcDbLine
 10
-2028.364552498773
 20
922.7443164892934
 30
0.0
 11
-2026.664552498773
 21
922.7443164892934
 31
0.0
  0
LINE
  5
137
330
2
100
AcDbEntity
  8
UMRISS05
100
AcDbLine
 10
-2026.664552498773
 20
922.7443164892934
 30
0.0
 11
-2026.664552498773
 21
922.1443164892932
 31
0.0
  0
LINE
  5
138
330
2
100
AcDbEntity
  8
UMRISS05
100
AcDbLine
 10
-2028.964552498773
 20
922.1443164892932
 30
0.0
 11
-2030.664552498773
 21
922.1443164892932
 31
0.0
  0
LINE
  5
139
330
2
100
AcDbEntity
  8
UMRISS05
100
AcDbLine
 10
-2030.664552498773
 20
922.7443164892934
 30
0.0
 11
-2028.964552498773
 21
922.7443164892934
 31
0.0
  0
LINE
  5
13A
330
2
100
AcDbEntity
  8
UMRISS05
100
AcDbLine
 10
-2028.364552498773
 20
920.4443164892934
 30
0.0
 11
-2028.964552498773
 21
920.4443164892934
 31
0.0
  0
LINE
  5
13B
330
2
100
AcDbEntity
  8
UMRISS05
100
AcDbLine
 10
-2028.964552498773
 20
922.7443164892934
 30
0.0
 11
-2028.964552498773
 21
924.4443164892931
 31
0.0
  0
LINE
  5
13C
330
2
100
AcDbEntity
  8
UMRISS05
100
AcDbLine
 10
-2028.964552498773
 20
924.4443164892931
 30
0.0
 11
-2028.364552498773
 21
924.4443164892931
 31
0.0
  0
LINE
  5
13D
330
2
100
AcDbEntity
  8
UMRISS05
100
AcDbLine
 10
-2028.964552498773
 20
920.4443164892934
 30
0.0
 11
-2028.964552498773
 21
922.1443164892932
 31
0.0
  0
LINE
  5
13E
330
2
100
AcDbEntity
  8
UMRISS05
100
AcDbLine
 10
-2028.364552498773
 20
924.4443164892931
 30
0.0
 11
-2028.364552498773
 21
922.7443164892934
 31
0.0
  0
LINE
  5
13F
330
2
100
AcDbEntity
  8
UMRISS05
100
AcDbLine
 10
-2028.364552498773
 20
922.1443164892932
 30
0.0
 11
-2028.364552498773
 21
920.4443164892934
 31
0.0
  0
CIRCLE
  5
140
330
2
100
AcDbEntity
  8
UMRISS05
100
AcDbCircle
 10
-2028.664552498772
 20
922.4443164892932
 30
0.0
 40
4.0
  0
ARC
  5
141
330
2
100
AcDbEntity
  8
UMRISS05
100
AcDbCircle
 10
-2031.864552498773
 20
891.4443164892936
 30
0.0
 40
2.150000000000004
100
AcDbArc
 50
94.74189026112103
 51
265.2581097388658
  0
LINE
  5
142
330
2
100
AcDbEntity
  8
UMRISS05
100
AcDbLine
 10
-2028.664552498772
 20
926.4443164892936
 30
0.0
 11
-2031.864552498773
 21
926.4443164892936
 31
0.0
  0
ARC
  5
143
330
2
100
AcDbEntity
  8
UMRISS05
100
AcDbCircle
 10
-2031.864552498773
 20
922.4443164892937
 30
0.0
 40
4.000000000000008
100
AcDbArc
 50
90.0
 51
270.0
  0
LINE
  5
144
330
2
100
AcDbEntity
  8
UMRISS05
100
AcDbLine
 10
-2031.864552498773
 20
918.4443164892936
 30
0.0
 11
-2028.664552498772
 21
918.4443164892936
 31
0.0
  0
LINE
  5
145
330
2
100
AcDbEntity
  8
UMRISS05
100
AcDbLine
 10
-2028.664552498772
 20
895.4443164892936
 30
0.0
 11
-2031.864552498773
 21
895.4443164892936
 31
0.0
  0
ARC
  5
146
330
2
100
AcDbEntity
  8
UMRISS05
100
AcDbCircle
 10
-2031.864552498773
 20
891.4443164892936
 30
0.0
 40
4.000000000000008
100
AcDbArc
 50
90.0
 51
270.0
  0
LINE
  5
147
330
2
100
AcDbEntity
  8
UMRISS05
100
AcDbLine
 10
-2031.864552498773
 20
887.4443164892936
 30
0.0
 11
-2028.664552498772
 21
887.4443164892936
 31
0.0
  0
ARC
  5
148
330
2
100
AcDbEntity
  8
UMRISS05
100
AcDbCircle
 10
-2031.864552498773
 20
922.4443164892937
 30
0.0
 40
2.150000000000004
100
AcDbArc
 50
94.74189026112103
 51
265.2581097388658
  0
LINE
  5
149
330
2
100
AcDbEntity
  8
UMRISS05
100
AcDbLine
 10
-2026.664552498772
 20
487.0943164892936
 30
0.0
 11
-2028.364552498772
 21
487.0943164892936
 31
0.0
  0
LINE
  5
14A
330
2
100
AcDbEntity
  8
UMRISS05
100
AcDbLine
 10
-2030.664552498773
 20
487.0943164892936
 30
0.0
 11
-2030.664552498772
 21
487.6943164892939
 31
0.0
  0
LINE
  5
14B
330
2
100
AcDbEntity
  8
UMRISS05
100
AcDbLine
 10
-2028.364552498772
 20
487.6943164892939
 30
0.0
 11
-2026.664552498772
 21
487.6943164892939
 31
0.0
  0
LINE
  5
14C
330
2
100
AcDbEntity
  8
UMRISS05
100
AcDbLine
 10
-2026.664552498772
 20
487.6943164892939
 30
0.0
 11
-2026.664552498772
 21
487.0943164892936
 31
0.0
  0
LINE
  5
14D
330
2
100
AcDbEntity
  8
UMRISS05
100
AcDbLine
 10
-2028.964552498772
 20
487.0943164892936
 30
0.0
 11
-2030.664552498773
 21
487.0943164892936
 31
0.0
  0
LINE
  5
14E
330
2
100
AcDbEntity
  8
UMRISS05
100
AcDbLine
 10
-2030.664552498772
 20
487.6943164892939
 30
0.0
 11
-2028.964552498772
 21
487.6943164892939
 31
0.0
  0
LINE
  5
14F
330
2
100
AcDbEntity
  8
UMRISS05
100
AcDbLine
 10
-2028.364552498772
 20
485.3943164892938
 30
0.0
 11
-2028.964552498772
 21
485.3943164892938
 31
0.0
  0
LINE
  5
150
330
2
100
AcDbEntity
  8
UMRISS05
100
AcDbLine
 10
-2028.964552498772
 20
487.6943164892939
 30
0.0
 11
-2028.964552498772
 21
489.3943164892938
 31
0.0
  0
LINE
  5
151
330
2
100
AcDbEntity
  8
UMRISS05
100
AcDbLine
 10
-2028.964552498772
 20
489.3943164892938
 30
0.0
 11
-2028.364552498772
 21
489.3943164892938
 31
0.0
  0
LINE
  5
152
330
2
100
AcDbEntity
  8
UMRISS05
100
AcDbLine
 10
-2028.964552498772
 20
485.3943164892938
 30
0.0
 11
-2028.964552498772
 21
487.0943164892936
 31
0.0
  0
LINE
  5
153
330
2
100
AcDbEntity
  8
UMRISS05
100
AcDbLine
 10
-2028.364552498772
 20
489.3943164892938
 30
0.0
 11
-2028.364552498772
 21
487.6943164892939
 31
0.0
  0
LINE
  5
154
330
2
100
AcDbEntity
  8
UMRISS05
100
AcDbLine
 10
-2028.364552498772
 20
487.0943164892936
 30
0.0
 11
-2028.364552498772
 21
485.3943164892938
 31
0.0
  0
CIRCLE
  5
155
330
2
100
AcDbEntity
  8
UMRISS05
100
AcDbCircle
 10
-2028.664552498772
 20
487.3943164892938
 30
0.0
 40
4.0
  0
LINE
  5
156
330
2
100
AcDbEntity
  8
UMRISS05
100
AcDbLine
 10
-2026.664552498772
 20
456.0943164892939
 30
0.0
 11
-2028.364552498772
 21
456.0943164892939
 31
0.0
  0
LINE
  5
157
330
2
100
AcDbEntity
  8
UMRISS05
100
AcDbLine
 10
-2030.664552498772
 20
456.0943164892939
 30
0.0
 11
-2030.664552498772
 21
456.6943164892939
 31
0.0
  0
LINE
  5
158
330
2
100
AcDbEntity
  8
UMRISS05
100
AcDbLine
 10
-2028.364552498772
 20
456.6943164892939
 30
0.0
 11
-2026.664552498772
 21
456.6943164892939
 31
0.0
  0
LINE
  5
159
330
2
100
AcDbEntity
  8
UMRISS05
100
AcDbLine
 10
-2026.664552498772
 20
456.6943164892939
 30
0.0
 11
-2026.664552498772
 21
456.0943164892939
 31
0.0
  0
LINE
  5
15A
330
2
100
AcDbEntity
  8
UMRISS05
100
AcDbLine
 10
-2028.964552498772
 20
456.0943164892939
 30
0.0
 11
-2030.664552498772
 21
456.0943164892939
 31
0.0
  0
LINE
  5
15B
330
2
100
AcDbEntity
  8
UMRISS05
100
AcDbLine
 10
-2030.664552498772
 20
456.6943164892939
 30
0.0
 11
-2028.964552498772
 21
456.6943164892939
 31
0.0
  0
LINE
  5
15C
330
2
100
AcDbEntity
  8
UMRISS05
100
AcDbLine
 10
-2028.364552498772
 20
454.3943164892938
 30
0.0
 11
-2028.964552498772
 21
454.3943164892938
 31
0.0
  0
LINE
  5
15D
330
2
100
AcDbEntity
  8
UMRISS05
100
AcDbLine
 10
-2028.964552498772
 20
456.6943164892939
 30
0.0
 11
-2028.964552498772
 21
458.3943164892938
 31
0.0
  0
LINE
  5
15E
330
2
100
AcDbEntity
  8
UMRISS05
100
AcDbLine
 10
-2028.964552498772
 20
458.3943164892938
 30
0.0
 11
-2028.364552498772
 21
458.3943164892938
 31
0.0
  0
LINE
  5
15F
330
2
100
AcDbEntity
  8
UMRISS05
100
AcDbLine
 10
-2028.964552498772
 20
454.3943164892938
 30
0.0
 11
-2028.964552498772
 21
456.0943164892939
 31
0.0
  0
LINE
  5
160
330
2
100
AcDbEntity
  8
UMRISS05
100
AcDbLine
 10
-2028.364552498772
 20
458.3943164892938
 30
0.0
 11
-2028.364552498772
 21
456.6943164892939
 31
0.0
  0
LINE
  5
161
330
2
100
AcDbEntity
  8
UMRISS05
100
AcDbLine
 10
-2028.364552498772
 20
456.0943164892939
 30
0.0
 11
-2028.364552498772
 21
454.3943164892938
 31
0.0
  0
CIRCLE
  5
162
330
2
100
AcDbEntity
  8
UMRISS05
100
AcDbCircle
 10
-2028.664552498772
 20
456.3943164892938
 30
0.0
 40
4.0
  0
ARC
  5
163
330
2
100
AcDbEntity
  8
UMRISS05
100
AcDbCircle
 10
-2031.864552498772
 20
456.3943164892942
 30
0.0
 40
2.149999999999999
100
AcDbArc
 50
94.74189026112105
 51
265.2581097388658
  0
LINE
  5
164
330
2
100
AcDbEntity
  8
UMRISS05
100
AcDbLine
 10
-2028.664552498772
 20
491.3943164892942
 30
0.0
 11
-2031.864552498772
 21
491.3943164892942
 31
0.0
  0
ARC
  5
165
330
2
100
AcDbEntity
  8
UMRISS05
100
AcDbCircle
 10
-2031.864552498772
 20
487.3943164892942
 30
0.0
 40
4.0
100
AcDbArc
 50
90.0
 51
270.0
  0
LINE
  5
166
330
2
100
AcDbEntity
  8
UMRISS05
100
AcDbLine
 10
-2031.864552498772
 20
483.3943164892942
 30
0.0
 11
-2028.664552498772
 21
483.3943164892942
 31
0.0
  0
LINE
  5
167
330
2
100
AcDbEntity
  8
UMRISS05
100
AcDbLine
 10
-2028.664552498772
 20
460.3943164892942
 30
0.0
 11
-2031.864552498772
 21
460.3943164892942
 31
0.0
  0
ARC
  5
168
330
2
100
AcDbEntity
  8
UMRISS05
100
AcDbCircle
 10
-2031.864552498772
 20
456.3943164892942
 30
0.0
 40
4.0
100
AcDbArc
 50
90.0
 51
270.0
  0
LINE
  5
169
330
2
100
AcDbEntity
  8
UMRISS05
100
AcDbLine
 10
-2031.864552498772
 20
452.3943164892942
 30
0.0
 11
-2028.664552498772
 21
452.3943164892942
 31
0.0
  0
ARC
  5
16A
330
2
100
AcDbEntity
  8
UMRISS05
100
AcDbCircle
 10
-2031.864552498772
 20
487.3943164892942
 30
0.0
 40
2.149999999999945
100
AcDbArc
 50
94.74189026112103
 51
265.2581097388658
  0
LINE
  5
16B
330
2
100
AcDbEntity
  8
UMRISS05
100
AcDbLine
 10
-2026.664552498772
 20
1307.094316489294
 30
0.0
 11
-2028.364552498772
 21
1307.094316489294
 31
0.0
  0
LINE
  5
16C
330
2
100
AcDbEntity
  8
UMRISS05
100
AcDbLine
 10
-2030.664552498772
 20
1307.094316489294
 30
0.0
 11
-2030.664552498772
 21
1307.694316489294
 31
0.0
  0
LINE
  5
16D
330
2
100
AcDbEntity
  8
UMRISS05
100
AcDbLine
 10
-2028.364552498772
 20
1307.694316489294
 30
0.0
 11
-2026.664552498772
 21
1307.694316489294
 31
0.0
  0
LINE
  5
16E
330
2
100
AcDbEntity
  8
UMRISS05
100
AcDbLine
 10
-2026.664552498772
 20
1307.694316489294
 30
0.0
 11
-2026.664552498772
 21
1307.094316489294
 31
0.0
  0
LINE
  5
16F
330
2
100
AcDbEntity
  8
UMRISS05
100
AcDbLine
 10
-2028.964552498772
 20
1307.094316489294
 30
0.0
 11
-2030.664552498772
 21
1307.094316489294
 31
0.0
  0
LINE
  5
170
330
2
100
AcDbEntity
  8
UMRISS05
100
AcDbLine
 10
-2030.664552498772
 20
1307.694316489294
 30
0.0
 11
-2028.964552498772
 21
1307.694316489294
 31
0.0
  0
LINE
  5
171
330
2
100
AcDbEntity
  8
UMRISS05
100
AcDbLine
 10
-2028.364552498772
 20
1305.394316489294
 30
0.0
 11
-2028.964552498772
 21
1305.394316489294
 31
0.0
  0
LINE
  5
172
330
2
100
AcDbEntity
  8
UMRISS05
100
AcDbLine
 10
-2028.964552498772
 20
1307.694316489294
 30
0.0
 11
-2028.964552498772
 21
1309.394316489294
 31
0.0
  0
LINE
  5
173
330
2
100
AcDbEntity
  8
UMRISS05
100
AcDbLine
 10
-2028.964552498772
 20
1309.394316489294
 30
0.0
 11
-2028.364552498772
 21
1309.394316489294
 31
0.0
  0
LINE
  5
174
330
2
100
AcDbEntity
  8
UMRISS05
100
AcDbLine
 10
-2028.964552498772
 20
1305.394316489294
 30
0.0
 11
-2028.964552498772
 21
1307.094316489294
 31
0.0
  0
LINE
  5
175
330
2
100
AcDbEntity
  8
UMRISS05
100
AcDbLine
 10
-2028.364552498772
 20
1309.394316489294
 30
0.0
 11
-2028.364552498772
 21
1307.694316489294
 31
0.0
  0
LINE
  5
176
330
2
100
AcDbEntity
  8
UMRISS05
100
AcDbLine
 10
-2028.364552498772
 20
1307.094316489294
 30
0.0
 11
-2028.364552498772
 21
1305.394316489294
 31
0.0
  0
CIRCLE
  5
177
330
2
100
AcDbEntity
  8
UMRISS05
100
AcDbCircle
 10
-2028.664552498772
 20
1307.394316489294
 30
0.0
 40
4.0
  0
LINE
  5
178
330
2
100
AcDbEntity
  8
UMRISS05
100
AcDbLine
 10
-2026.664552498772
 20
1276.094316489294
 30
0.0
 11
-2028.364552498772
 21
1276.094316489294
 31
0.0
  0
LINE
  5
179
330
2
100
AcDbEntity
  8
UMRISS05
100
AcDbLine
 10
-2030.664552498772
 20
1276.094316489294
 30
0.0
 11
-2030.664552498772
 21
1276.694316489294
 31
0.0
  0
LINE
  5
17A
330
2
100
AcDbEntity
  8
UMRISS05
100
AcDbLine
 10
-2028.364552498772
 20
1276.694316489294
 30
0.0
 11
-2026.664552498772
 21
1276.694316489294
 31
0.0
  0
LINE
  5
17B
330
2
100
AcDbEntity
  8
UMRISS05
100
AcDbLine
 10
-2026.664552498772
 20
1276.694316489294
 30
0.0
 11
-2026.664552498772
 21
1276.094316489294
 31
0.0
  0
LINE
  5
17C
330
2
100
AcDbEntity
  8
UMRISS05
100
AcDbLine
 10
-2028.964552498772
 20
1276.094316489294
 30
0.0
 11
-2030.664552498772
 21
1276.094316489294
 31
0.0
  0
LINE
  5
17D
330
2
100
AcDbEntity
  8
UMRISS05
100
AcDbLine
 10
-2030.664552498772
 20
1276.694316489294
 30
0.0
 11
-2028.964552498772
 21
1276.694316489294
 31
0.0
  0
LINE
  5
17E
330
2
100
AcDbEntity
  8
UMRISS05
100
AcDbLine
 10
-2028.364552498772
 20
1274.394316489294
 30
0.0
 11
-2028.964552498772
 21
1274.394316489294
 31
0.0
  0
LINE
  5
17F
330
2
100
AcDbEntity
  8
UMRISS05
100
AcDbLine
 10
-2028.964552498772
 20
1276.694316489294
 30
0.0
 11
-2028.964552498772
 21
1278.394316489294
 31
0.0
  0
LINE
  5
180
330
2
100
AcDbEntity
  8
UMRISS05
100
AcDbLine
 10
-2028.964552498772
 20
1278.394316489294
 30
0.0
 11
-2028.364552498772
 21
1278.394316489294
 31
0.0
  0
LINE
  5
181
330
2
100
AcDbEntity
  8
UMRISS05
100
AcDbLine
 10
-2028.964552498772
 20
1274.394316489294
 30
0.0
 11
-2028.964552498772
 21
1276.094316489294
 31
0.0
  0
LINE
  5
182
330
2
100
AcDbEntity
  8
UMRISS05
100
AcDbLine
 10
-2028.364552498772
 20
1278.394316489294
 30
0.0
 11
-2028.364552498772
 21
1276.694316489294
 31
0.0
  0
LINE
  5
183
330
2
100
AcDbEntity
  8
UMRISS05
100
AcDbLine
 10
-2028.364552498772
 20
1276.094316489294
 30
0.0
 11
-2028.364552498772
 21
1274.394316489294
 31
0.0
  0
CIRCLE
  5
184
330
2
100
AcDbEntity
  8
UMRISS05
100
AcDbCircle
 10
-2028.664552498772
 20
1276.394316489294
 30
0.0
 40
4.0
  0
DIMENSION
  5
185
330
2
100
AcDbEntity
  8
AM_0
100
AcDbDimension
280
     0
  2
*D5
 10
-2065.598196262152
 20
783.394316489293
 30
0.0
 11
-2072.696422728728
 21
825.1443164892936
 31
0.0
 71
     5
 42
83.5000000000017
 73
     0
 74
     0
 75
     0
  3
Katalog 09
100
AcDbAlignedDimension
 13
-2066.408816979599
 23
866.8943164892947
 33
0.0
 14
-2035.464552498773
 24
783.394316489293
 34
0.0
 50
90.0
100
AcDbRotatedDimension
  0
DIMENSION
  5
192
330
2
100
AcDbEntity
  8
AM_0
100
AcDbDimension
280
     0
  2
*D4
 10
-2064.90304130501
 20
1291.894316489294
 30
0.0
 11
-2071.998198194505
 21
1323.144316489293
 31
0.0
 71
     5
 42
62.5
 73
     0
 74
     0
 75
     0
  3
Katalog 09
100
AcDbAlignedDimension
 13
-2041.964552498772
 23
1354.394316489294
 33
0.0
 14
-2038.283985461883
 24
1291.894316489294
 34
0.0
 50
90.0
100
AcDbRotatedDimension
  0
DIMENSION
  5
19F
330
2
100
AcDbEntity
  8
AM_0
100
AcDbDimension
280
     0
  2
*D3
 10
-2097.241720881107
 20
168.0279796710188
 30
0.0
 11
-2104.336877770602
 21
171.0279796710185
 31
0.0
 71
     5
 42
6.000000000000028
 73
     0
 74
     0
 75
     0
  3
Katalog 09
100
AcDbAlignedDimension
 13
-2041.964552498825
 23
174.0279796710188
 33
0.0
 14
-2039.964552498825
 24
168.0279796710188
 34
0.0
 50
90.0
100
AcDbRotatedDimension
  0
DIMENSION
  5
1AE
330
2
100
AcDbEntity
  8
AM_0
100
AcDbDimension
280
     0
  2
*D2
 10
-1992.569327524032
 20
170.0279796710188
 30
0.0
 11
-1999.664484413527
 21
177.5279796710103
 31
0.0
 71
     5
 42
14.99999999998368
 73
     0
 74
     0
 75
     0
  3
Katalog 09
100
AcDbAlignedDimension
 13
-2020.264552498825
 23
185.0279796710025
 33
0.0
 14
-2019.964552498825
 24
170.0279796710188
 34
0.0
 50
90.0
100
AcDbRotatedDimension
  0
LINE
  5
1BD
330
2
100
AcDbEntity
  8
ACHSEN
 48
2.0
100
AcDbLine
 10
-2061.927119846072
 20
440.8943164892938
 30
0.0
 11
-2105.459796096818
 21
440.8943164892931
 31
0.0
  0
LINE
  5
1C2
330
2
100
AcDbEntity
  8
ACHSEN
 48
2.0
100
AcDbLine
 10
-2061.927134128005
 20
502.8987844885613
 30
0.0
 11
-2100.659796096819
 21
502.8987844885616
 31
0.0
  0
LINE
  5
1C3
330
2
100
AcDbEntity
  8
ACHSEN
 48
2.0
100
AcDbLine
 10
-2061.864552498773
 20
1260.894316489294
 30
0.0
 11
-2105.39722874952
 21
1260.894316489294
 31
0.0
  0
LINE
  5
1C4
330
2
100
AcDbEntity
  8
ACHSEN
 48
2.0
100
AcDbLine
 10
-2061.864552498773
 20
1322.894316489294
 30
0.0
 11
-2105.39722874952
 21
1322.894316489294
 31
0.0
  0
LINE
  5
1C5
330
2
100
AcDbEntity
  8
UMRISS05
100
AcDbLine
 10
-2018.064552498772
 20
448.9943164892939
 30
0.0
 11
-2026.064552498772
 21
448.9943164892939
 31
0.0
  0
LINE
  5
1C6
330
2
100
AcDbEntity
  8
UMRISS05
100
AcDbLine
 10
-2020.264552498773
 20
447.8943164892938
 30
0.0
 11
-2020.264552498773
 21
448.9943164892939
 31
0.0
  0
LINE
  5
1C7
330
2
100
AcDbEntity
  8
AVERDECKTE
 48
0.6
100
AcDbLine
 10
-2039.46455249877
 20
349.3943164892938
 30
0.0
 11
-2039.46455249877
 21
534.3943164892938
 31
0.0
  0
LINE
  5
1CC
330
2
100
AcDbEntity
  8
AVERDECKTE
 48
0.6
100
AcDbLine
 10
-2020.464552498776
 20
495.8943164892936
 30
0.0
 11
-2020.464552498776
 21
534.3943164892938
 31
0.0
  0
LINE
  5
1CD
330
2
100
AcDbEntity
  8
AVERDECKTE
 48
0.6
100
AcDbLine
 10
-2020.464552498776
 20
349.3943164892938
 30
0.0
 11
-2020.464552498776
 21
447.8943164892935
 31
0.0
  0
LINE
  5
1CE
330
2
100
AcDbEntity
  8
ACHSEN
 48
0.8
100
AcDbLine
 10
-2022.214552498772
 20
522.3943164892938
 30
0.0
 11
-2037.714552498772
 21
522.3943164892938
 31
0.0
  0
LINE
  5
1CF
330
2
100
AcDbEntity
  8
ACHSEN
 48
0.8
100
AcDbLine
 10
-2022.214552498772
 20
361.3943164892938
 30
0.0
 11
-2037.714552498772
 21
361.3943164892938
 31
0.0
  0
ARC
  5
1D0
330
2
100
AcDbEntity
  8
AVERDECKTE
 48
0.6
100
AcDbCircle
 10
-2021.764552498773
 20
501.3943164892936
 30
0.0
 40
1.5
100
AcDbArc
 50
29.92643486683096
 51
90.0
  0
ARC
  5
1D1
330
2
100
AcDbEntity
  8
AVERDECKTE
 48
0.6
100
AcDbCircle
 10
-2037.964552498769
 20
501.3943164892936
 30
0.0
 40
1.5
100
AcDbArc
 50
90.0
 51
180.0
  0
LINE
  5
1D2
330
2
100
AcDbEntity
  8
AVERDECKTE
 48
0.6
100
AcDbLine
 10
-2021.764552498773
 20
502.8943164892935
 30
0.0
 11
-2037.964552498769
 21
502.8943164892935
 31
0.0
  0
ARC
  5
1D3
330
2
100
AcDbEntity
  8
AVERDECKTE
 48
0.6
100
AcDbCircle
 10
-2037.964552498769
 20
442.3943164892933
 30
0.0
 40
1.5
100
AcDbArc
 50
180.0
 51
270.0
  0
ARC
  5
1D4
330
2
100
AcDbEntity
  8
AVERDECKTE
 48
0.6
100
AcDbCircle
 10
-2021.764552498773
 20
442.3943164892936
 30
0.0
 40
1.5
100
AcDbArc
 50
270.0
 51
330.0735651331689
  0
LINE
  5
1D5
330
2
100
AcDbEntity
  8
AVERDECKTE
 48
0.6
100
AcDbLine
 10
-2021.764552498773
 20
440.8943164892936
 30
0.0
 11
-2037.964552498769
 21
440.8943164892932
 31
0.0
  0
LINE
  5
1D6
330
2
100
AcDbEntity
  8
ACHSEN
 48
0.8
100
AcDbLine
 10
-2021.164552498773
 20
456.3943164892938
 30
0.0
 11
-2036.114552498773
 21
456.3943164892938
 31
0.0
  0
LINE
  5
1D7
330
2
100
AcDbEntity
  8
ACHSEN
 48
0.8
100
AcDbLine
 10
-2036.114552498773
 20
487.3943164892938
 30
0.0
 11
-2021.248446233604
 21
487.3943164892938
 31
0.0
  0
LINE
  5
1D8
330
2
100
AcDbEntity
  8
ACHSEN
 48
0.8
100
AcDbLine
 10
-2038.283985461883
 20
471.8943164892938
 30
0.0
 11
-2015.278597652573
 21
471.8943164892938
 31
0.0
  0
LINE
  5
1D9
330
2
100
AcDbEntity
  8
ACHSEN
 48
0.8
100
AcDbLine
 10
-2029.964552498773
 20
514.6443164892938
 30
0.0
 11
-2029.964552498773
 21
530.1443164892938
 31
0.0
  0
LINE
  5
1DA
330
2
100
AcDbEntity
  8
ACHSEN
 48
0.8
100
AcDbLine
 10
-2029.964552498773
 20
353.6443164892938
 30
0.0
 11
-2029.964552498773
 21
369.1443164892938
 31
0.0
  0
LINE
  5
1DB
330
2
100
AcDbEntity
  8
UMRISS05
100
AcDbLine
 10
-2025.964552498772
 20
494.8943164892936
 30
0.0
 11
-2018.064552498773
 21
494.8943164892938
 31
0.0
  0
LINE
  5
1DC
330
2
100
AcDbEntity
  8
UMRISS05
100
AcDbLine
 10
-2020.264552498773
 20
494.8943164892938
 30
0.0
 11
-2020.264552498773
 21
495.8943164892936
 31
0.0
  0
LINE
  5
1DD
330
2
100
AcDbEntity
  8
UMRISS05
100
AcDbLine
 10
-2024.550338936399
 20
495.8943164892936
 30
0.0
 11
-2017.964552498773
 21
495.8943164892936
 31
0.0
  0
LINE
  5
1DE
330
2
100
AcDbEntity
  8
UMRISS05
100
AcDbLine
 10
-2027.964552498772
 20
445.3443164892938
 30
0.0
 11
-2029.664552498772
 21
445.3443164892938
 31
0.0
  0
LINE
  5
1DF
330
2
100
AcDbEntity
  8
UMRISS05
100
AcDbLine
 10
-2031.964552498772
 20
445.3443164892938
 30
0.0
 11
-2031.964552498772
 21
445.9443164892938
 31
0.0
  0
LINE
  5
1E0
330
2
100
AcDbEntity
  8
UMRISS05
100
AcDbLine
 10
-2029.664552498772
 20
445.9443164892938
 30
0.0
 11
-2027.964552498772
 21
445.9443164892938
 31
0.0
  0
LINE
  5
1E1
330
2
100
AcDbEntity
  8
UMRISS05
100
AcDbLine
 10
-2027.964552498772
 20
445.9443164892938
 30
0.0
 11
-2027.964552498772
 21
445.3443164892938
 31
0.0
  0
LINE
  5
1E2
330
2
100
AcDbEntity
  8
UMRISS05
100
AcDbLine
 10
-2030.264552498772
 20
445.3443164892938
 30
0.0
 11
-2031.964552498772
 21
445.3443164892938
 31
0.0
  0
LINE
  5
1E3
330
2
100
AcDbEntity
  8
UMRISS05
100
AcDbLine
 10
-2031.964552498772
 20
445.9443164892938
 30
0.0
 11
-2030.264552498772
 21
445.9443164892938
 31
0.0
  0
LINE
  5
1E4
330
2
100
AcDbEntity
  8
UMRISS05
100
AcDbLine
 10
-2029.664552498772
 20
443.6443164892938
 30
0.0
 11
-2030.264552498772
 21
443.6443164892938
 31
0.0
  0
LINE
  5
1E5
330
2
100
AcDbEntity
  8
UMRISS05
100
AcDbLine
 10
-2030.264552498772
 20
445.9443164892938
 30
0.0
 11
-2030.264552498772
 21
447.6443164892938
 31
0.0
  0
LINE
  5
1E6
330
2
100
AcDbEntity
  8
UMRISS05
100
AcDbLine
 10
-2030.264552498772
 20
447.6443164892938
 30
0.0
 11
-2029.664552498772
 21
447.6443164892938
 31
0.0
  0
LINE
  5
1E7
330
2
100
AcDbEntity
  8
UMRISS05
100
AcDbLine
 10
-2030.264552498772
 20
443.6443164892938
 30
0.0
 11
-2030.264552498772
 21
445.3443164892938
 31
0.0
  0
LINE
  5
1E8
330
2
100
AcDbEntity
  8
UMRISS05
100
AcDbLine
 10
-2029.664552498772
 20
447.6443164892938
 30
0.0
 11
-2029.664552498772
 21
445.9443164892938
 31
0.0
  0
LINE
  5
1E9
330
2
100
AcDbEntity
  8
UMRISS05
100
AcDbLine
 10
-2029.664552498772
 20
445.3443164892938
 30
0.0
 11
-2029.664552498772
 21
443.6443164892938
 31
0.0
  0
LINE
  5
1EA
330
2
100
AcDbEntity
  8
UMRISS05
100
AcDbLine
 10
-2027.964552498772
 20
497.8443164892936
 30
0.0
 11
-2029.664552498772
 21
497.8443164892936
 31
0.0
  0
LINE
  5
1EB
330
2
100
AcDbEntity
  8
UMRISS05
100
AcDbLine
 10
-2031.964552498772
 20
497.8443164892936
 30
0.0
 11
-2031.964552498772
 21
498.4443164892939
 31
0.0
  0
LINE
  5
1EC
330
2
100
AcDbEntity
  8
UMRISS05
100
AcDbLine
 10
-2029.664552498772
 20
498.4443164892939
 30
0.0
 11
-2027.964552498772
 21
498.4443164892939
 31
0.0
  0
LINE
  5
1ED
330
2
100
AcDbEntity
  8
UMRISS05
100
AcDbLine
 10
-2027.964552498772
 20
498.4443164892939
 30
0.0
 11
-2027.964552498772
 21
497.8443164892936
 31
0.0
  0
LINE
  5
1EE
330
2
100
AcDbEntity
  8
UMRISS05
100
AcDbLine
 10
-2030.264552498772
 20
497.8443164892936
 30
0.0
 11
-2031.964552498772
 21
497.8443164892936
 31
0.0
  0
LINE
  5
1EF
330
2
100
AcDbEntity
  8
UMRISS05
100
AcDbLine
 10
-2031.964552498772
 20
498.4443164892939
 30
0.0
 11
-2030.264552498772
 21
498.4443164892939
 31
0.0
  0
LINE
  5
1F0
330
2
100
AcDbEntity
  8
UMRISS05
100
AcDbLine
 10
-2029.664552498772
 20
496.1443164892938
 30
0.0
 11
-2030.264552498772
 21
496.1443164892938
 31
0.0
  0
LINE
  5
1F1
330
2
100
AcDbEntity
  8
UMRISS05
100
AcDbLine
 10
-2030.264552498772
 20
498.4443164892939
 30
0.0
 11
-2030.264552498772
 21
500.1443164892938
 31
0.0
  0
LINE
  5
1F2
330
2
100
AcDbEntity
  8
UMRISS05
100
AcDbLine
 10
-2030.264552498772
 20
500.1443164892938
 30
0.0
 11
-2029.664552498772
 21
500.1443164892938
 31
0.0
  0
LINE
  5
1F3
330
2
100
AcDbEntity
  8
UMRISS05
100
AcDbLine
 10
-2030.264552498772
 20
496.1443164892938
 30
0.0
 11
-2030.264552498772
 21
497.8443164892936
 31
0.0
  0
LINE
  5
1F4
330
2
100
AcDbEntity
  8
UMRISS05
100
AcDbLine
 10
-2029.664552498772
 20
500.1443164892938
 30
0.0
 11
-2029.664552498772
 21
498.4443164892939
 31
0.0
  0
LINE
  5
1F5
330
2
100
AcDbEntity
  8
UMRISS05
100
AcDbLine
 10
-2029.664552498772
 20
497.8443164892936
 30
0.0
 11
-2029.664552498772
 21
496.1443164892938
 31
0.0
  0
LINE
  5
1F6
330
2
100
AcDbEntity
  8
UMRISS05
100
AcDbLine
 10
-2018.064552498772
 20
448.9943164892939
 30
0.0
 11
-2018.064552498772
 21
494.8943164892938
 31
0.0
  0
LINE
  5
1F7
330
2
100
AcDbEntity
  8
UMRISS05
100
AcDbLine
 10
-2024.464552498772
 20
494.8943164892938
 30
0.0
 11
-2024.464552498772
 21
448.9943164892939
 31
0.0
  0
CIRCLE
  5
1F8
330
2
100
AcDbEntity
  8
UMRISS05
100
AcDbCircle
 10
-2029.964552498773
 20
522.3943164892938
 30
0.0
 40
2.75
  0
CIRCLE
  5
1F9
330
2
100
AcDbEntity
  8
UMRISS05
100
AcDbCircle
 10
-2029.964552498773
 20
361.3943164892938
 30
0.0
 40
2.75
  0
CIRCLE
  5
1FA
330
2
100
AcDbEntity
  8
UMRISS05
100
AcDbCircle
 10
-2029.964552498773
 20
361.3943164892938
 30
0.0
 40
4.75
  0
CIRCLE
  5
1FB
330
2
100
AcDbEntity
  8
UMRISS05
100
AcDbCircle
 10
-2029.964552498773
 20
522.3943164892938
 30
0.0
 40
4.75
  0
CIRCLE
  5
1FC
330
2
100
AcDbEntity
  8
UMRISS05
100
AcDbCircle
 10
-2029.964552498773
 20
445.6443164892938
 30
0.0
 40
4.0
  0
CIRCLE
  5
1FD
330
2
100
AcDbEntity
  8
UMRISS05
100
AcDbCircle
 10
-2029.964552498773
 20
498.1443164892938
 30
0.0
 40
4.0
  0
LINE
  5
1FE
330
2
100
AcDbEntity
  8
UMRISS05
100
AcDbLine
 10
-2019.964552498772
 20
349.3943164892938
 30
0.0
 11
-2039.964552498772
 21
349.3943164892938
 31
0.0
  0
LINE
  5
1FF
330
2
100
AcDbEntity
  8
UMRISS05
100
AcDbLine
 10
-2039.964552498772
 20
534.3943164892938
 30
0.0
 11
-2019.964552498772
 21
534.3943164892938
 31
0.0
  0
ARC
  5
200
330
2
100
AcDbEntity
  8
UMRISS05
100
AcDbCircle
 10
-2024.550338936399
 20
494.8943164892938
 30
0.0
 40
1.000000000000011
100
AcDbArc
 50
90.0
 51
134.9999999999943
  0
LINE
  5
201
330
2
100
AcDbEntity
  8
UMRISS05
100
AcDbLine
 10
-2026.671659279959
 20
494.1872097081073
 30
0.0
 11
-2025.257445717586
 21
495.6014232704805
 31
0.0
  0
ARC
  5
202
330
2
100
AcDbEntity
  8
UMRISS05
100
AcDbCircle
 10
-2027.378766061145
 20
494.8943164892938
 30
0.0
 40
1.00000000000003
100
AcDbArc
 50
270.0
 51
314.9999999999943
  0
LINE
  5
203
330
2
100
AcDbEntity
  8
UMRISS05
100
AcDbLine
 10
-2034.964552498772
 20
493.8943164892938
 30
0.0
 11
-2027.378766061145
 21
493.8943164892938
 31
0.0
  0
ARC
  5
204
330
2
100
AcDbEntity
  8
UMRISS05
100
AcDbCircle
 10
-2034.964552498772
 20
492.8943164892938
 30
0.0
 40
0.9999999999999918
100
AcDbArc
 50
90.0
 51
180.0
  0
LINE
  5
205
330
2
100
AcDbEntity
  8
UMRISS05
100
AcDbLine
 10
-2035.964552498772
 20
450.8943164892938
 30
0.0
 11
-2035.964552498772
 21
492.8943164892938
 31
0.0
  0
ARC
  5
206
330
2
100
AcDbEntity
  8
UMRISS05
100
AcDbCircle
 10
-2034.964552498772
 20
450.8943164892938
 30
0.0
 40
1.000000000000049
100
AcDbArc
 50
180.0
 51
270.0
  0
LINE
  5
207
330
2
100
AcDbEntity
  8
UMRISS05
100
AcDbLine
 10
-2027.378766061146
 20
449.8943164892938
 30
0.0
 11
-2034.964552498772
 21
449.8943164892938
 31
0.0
  0
ARC
  5
208
330
2
100
AcDbEntity
  8
UMRISS05
100
AcDbCircle
 10
-2027.378766061146
 20
448.8943164892936
 30
0.0
 40
1.000000000000359
100
AcDbArc
 50
45.00000000000915
 51
89.99999999998697
  0
LINE
  5
209
330
2
100
AcDbEntity
  8
UMRISS05
100
AcDbLine
 10
-2025.257445717586
 20
448.1872097081073
 30
0.0
 11
-2026.671659279959
 21
449.6014232704805
 31
0.0
  0
ARC
  5
20A
330
2
100
AcDbEntity
  8
UMRISS05
100
AcDbCircle
 10
-2024.550338936399
 20
448.8943164892942
 30
0.0
 40
1.000000000000369
100
AcDbArc
 50
225.0000000000091
 51
269.999999999987
  0
LINE
  5
20B
330
2
100
AcDbEntity
  8
UMRISS05
100
AcDbLine
 10
-2019.964552498772
 20
447.8943164892938
 30
0.0
 11
-2024.550338936399
 21
447.894316489294
 31
0.0
  0
LINE
  5
20C
330
2
100
AcDbEntity
  8
UMRISS05
100
AcDbLine
 10
-2022.464552498772
 20
433.3943164892938
 30
0.0
 11
-2022.464552498772
 21
390.3943164892938
 31
0.0
  0
ARC
  5
20D
330
2
100
AcDbEntity
  8
UMRISS05
100
AcDbCircle
 10
-2024.464552498772
 20
433.3943164892938
 30
0.0
 40
1.99999999999985
100
AcDbArc
 50
0.0
 51
90.0
  0
LINE
  5
20E
330
2
100
AcDbEntity
  8
UMRISS05
100
AcDbLine
 10
-2035.464552498773
 20
435.3943164892938
 30
0.0
 11
-2024.464552498772
 21
435.3943164892938
 31
0.0
  0
ARC
  5
20F
330
2
100
AcDbEntity
  8
UMRISS05
100
AcDbCircle
 10
-2035.464552498773
 20
433.3943164892938
 30
0.0
 40
1.999999999999806
100
AcDbArc
 50
90.0
 51
180.0
  0
LINE
  5
210
330
2
100
AcDbEntity
  8
UMRISS05
100
AcDbLine
 10
-2037.464552498772
 20
390.3943164892938
 30
0.0
 11
-2037.464552498772
 21
433.3943164892938
 31
0.0
  0
ARC
  5
211
330
2
100
AcDbEntity
  8
UMRISS05
100
AcDbCircle
 10
-2035.464552498773
 20
390.3943164892938
 30
0.0
 40
1.999999999999884
100
AcDbArc
 50
180.0
 51
270.0
  0
LINE
  5
212
330
2
100
AcDbEntity
  8
UMRISS05
100
AcDbLine
 10
-2024.464552498772
 20
388.3943164892938
 30
0.0
 11
-2035.464552498773
 21
388.3943164892938
 31
0.0
  0
ARC
  5
213
330
2
100
AcDbEntity
  8
UMRISS05
100
AcDbCircle
 10
-2024.464552498772
 20
390.3943164892938
 30
0.0
 40
1.999999999999495
100
AcDbArc
 50
270.0
 51
0.0
  0
LINE
  5
214
330
2
100
AcDbEntity
  8
UMRISS05
100
AcDbLine
 10
-2024.550338936399
 20
495.8943164892938
 30
0.0
 11
-2019.964552498772
 21
495.8943164892938
 31
0.0
  0
LINE
  5
215
330
2
100
AcDbEntity
  8
UMRISS05
100
AcDbLine
 10
-2041.964552498772
 20
534.3943164892938
 30
0.0
 11
-2041.964552498772
 21
349.3943164892938
 31
0.0
  0
LINE
  5
216
330
2
100
AcDbEntity
  8
UMRISS05
100
AcDbLine
 10
-2041.964552498772
 20
534.3943164892938
 30
0.0
 11
-2039.964552498772
 21
534.3943164892938
 31
0.0
  0
LINE
  5
217
330
2
100
AcDbEntity
  8
UMRISS05
100
AcDbLine
 10
-2039.964552498772
 20
349.3943164892938
 30
0.0
 11
-2041.964552498772
 21
349.3943164892938
 31
0.0
  0
LINE
  5
218
330
2
100
AcDbEntity
  8
UMRISS05
100
AcDbLine
 10
-2019.964552498772
 20
447.894316489294
 30
0.0
 11
-2017.964552498773
 21
447.894316489294
 31
0.0
  0
LINE
  5
219
330
2
100
AcDbEntity
  8
UMRISS05
100
AcDbLine
 10
-2017.964552498773
 20
349.3943164892938
 30
0.0
 11
-2019.964552498772
 21
349.3943164892938
 31
0.0
  0
LINE
  5
21A
330
2
100
AcDbEntity
  8
UMRISS05
100
AcDbLine
 10
-2017.964552498773
 20
495.8943164892938
 30
0.0
 11
-2019.964552498772
 21
495.8943164892938
 31
0.0
  0
LINE
  5
21B
330
2
100
AcDbEntity
  8
UMRISS05
100
AcDbLine
 10
-2019.964552498772
 20
534.3943164892938
 30
0.0
 11
-2017.964552498773
 21
534.3943164892938
 31
0.0
  0
LINE
  5
21C
330
2
100
AcDbEntity
  8
UMRISS05
100
AcDbLine
 10
-2017.964552498773
 20
349.3943164892938
 30
0.0
 11
-2017.964552498773
 21
447.8943164892938
 31
0.0
  0
LINE
  5
21D
330
2
100
AcDbEntity
  8
UMRISS05
100
AcDbLine
 10
-2017.964552498773
 20
495.8943164892938
 30
0.0
 11
-2017.964552498773
 21
534.3943164892938
 31
0.0
  0
DIMENSION
  5
21E
330
2
100
AcDbEntity
  8
BEMASSUNG
100
AcDbDimension
280
     0
  2
*D20
 10
-2017.964552498773
 20
327.5488719416007
 30
0.0
 11
-2029.964552498773
 21
334.5672894040836
 31
0.0
 71
     5
 42
24.0
 73
     0
 74
     0
 75
     0
  3
Katalog 09
100
AcDbAlignedDimension
 13
-2041.964552498772
 23
349.3943164892938
 33
0.0
 14
-2017.964552498773
 24
349.3943164892938
 34
0.0
100
AcDbRotatedDimension
1001
ACAD_DSTYLE_DIMINSPECT
1070
   396
1000
100%
1070
   395
1000

1070
   394
1070
    33
1070
   393
1070
     0
  0
DIMENSION
  5
22D
330
2
100
AcDbEntity
  8
BEMASSUNG
100
AcDbDimension
280
     0
  2
*D19
 10
-2097.241720881107
 20
534.3943164892938
 30
0.0
 11
-2097.241720881107
 21
458.5969148276766
 31
0.0
 70
   128
 71
     5
 42
185.0
 73
     0
 74
     0
 75
     0
  3
Katalog 09
100
AcDbAlignedDimension
 13
-2041.964552498772
 23
349.3943164892938
 33
0.0
 14
-2041.964552498772
 24
534.3943164892938
 34
0.0
 50
90.0
100
AcDbRotatedDimension
  0
MTEXT
  5
23A
330
2
100
AcDbEntity
  8
UMRISS05
 62
     3
100
AcDbMText
 10
-2034.801681798589
 20
1489.605812788139
 30
0.0
 40
10.0
 41
0.0
 46
0.0
 71
     5
 72
     1
  1
\A1;BV-24421\PR6931/2
  7
ARIAL-STANDARD
 73
     1
 44
1.0
  0
LINE
  5
23B
330
2
100
AcDbEntity
  8
UMRISS05
100
AcDbLine
 10
-2018.064552498772
 20
1268.994316489294
 30
0.0
 11
-2026.064552498772
 21
1268.994316489294
 31
0.0
  0
LINE
  5
23C
330
2
100
AcDbEntity
  8
UMRISS05
100
AcDbLine
 10
-2020.464552498776
 20
1267.894316489294
 30
0.0
 11
-2020.464552498776
 21
1268.994316489294
 31
0.0
  0
LINE
  5
23D
330
2
100
AcDbEntity
  8
AVERDECKTE
 48
0.6
100
AcDbLine
 10
-2039.46455249877
 20
1169.394316489294
 30
0.0
 11
-2039.46455249877
 21
1354.394316489294
 31
0.0
  0
LINE
  5
23E
330
2
100
AcDbEntity
  8
AVERDECKTE
 48
0.6
100
AcDbLine
 10
-2020.464552498776
 20
1315.894316489294
 30
0.0
 11
-2020.464552498776
 21
1354.394316489294
 31
0.0
  0
LINE
  5
23F
330
2
100
AcDbEntity
  8
AVERDECKTE
 48
0.6
100
AcDbLine
 10
-2020.464552498776
 20
1169.394316489294
 30
0.0
 11
-2020.464552498776
 21
1267.894316489294
 31
0.0
  0
LINE
  5
240
330
2
100
AcDbEntity
  8
ACHSEN
 48
0.8
100
AcDbLine
 10
-2022.214552498772
 20
1342.394316489294
 30
0.0
 11
-2037.714552498772
 21
1342.394316489294
 31
0.0
  0
LINE
  5
241
330
2
100
AcDbEntity
  8
ACHSEN
 48
0.8
100
AcDbLine
 10
-2022.214552498772
 20
1181.394316489294
 30
0.0
 11
-2037.714552498772
 21
1181.394316489294
 31
0.0
  0
ARC
  5
242
330
2
100
AcDbEntity
  8
AVERDECKTE
 48
0.6
100
AcDbCircle
 10
-2021.764552498773
 20
1321.394316489294
 30
0.0
 40
1.5
100
AcDbArc
 50
29.92643486683223
 51
90.0
  0
ARC
  5
243
330
2
100
AcDbEntity
  8
AVERDECKTE
 48
0.6
100
AcDbCircle
 10
-2037.964552498769
 20
1321.394316489294
 30
0.0
 40
1.5
100
AcDbArc
 50
90.0
 51
180.0
  0
LINE
  5
244
330
2
100
AcDbEntity
  8
AVERDECKTE
 48
0.6
100
AcDbLine
 10
-2021.764552498773
 20
1322.894316489294
 30
0.0
 11
-2037.964552498769
 21
1322.894316489294
 31
0.0
  0
ARC
  5
245
330
2
100
AcDbEntity
  8
AVERDECKTE
 48
0.6
100
AcDbCircle
 10
-2037.964552498769
 20
1262.394316489294
 30
0.0
 40
1.5
100
AcDbArc
 50
180.0
 51
270.0
  0
ARC
  5
246
330
2
100
AcDbEntity
  8
AVERDECKTE
 48
0.6
100
AcDbCircle
 10
-2021.764552498773
 20
1262.394316489294
 30
0.0
 40
1.5
100
AcDbArc
 50
270.0
 51
330.0735651331677
  0
LINE
  5
247
330
2
100
AcDbEntity
  8
AVERDECKTE
 48
0.6
100
AcDbLine
 10
-2021.764552498773
 20
1260.894316489294
 30
0.0
 11
-2037.964552498769
 21
1260.894316489294
 31
0.0
  0
LINE
  5
248
330
2
100
AcDbEntity
  8
ACHSEN
 48
0.8
100
AcDbLine
 10
-2021.164552498773
 20
1276.394316489294
 30
0.0
 11
-2036.114552498773
 21
1276.394316489294
 31
0.0
  0
LINE
  5
249
330
2
100
AcDbEntity
  8
ACHSEN
 48
0.8
100
AcDbLine
 10
-2036.114552498773
 20
1307.394316489294
 30
0.0
 11
-2021.248446233604
 21
1307.394316489294
 31
0.0
  0
LINE
  5
24A
330
2
100
AcDbEntity
  8
ACHSEN
 48
0.8
100
AcDbLine
 10
-2038.283985461883
 20
1291.894316489294
 30
0.0
 11
-2015.278597652573
 21
1291.894316489294
 31
0.0
  0
LINE
  5
24B
330
2
100
AcDbEntity
  8
ACHSEN
 48
0.8
100
AcDbLine
 10
-2029.964552498773
 20
1334.644316489294
 30
0.0
 11
-2029.964552498773
 21
1350.144316489294
 31
0.0
  0
LINE
  5
24C
330
2
100
AcDbEntity
  8
ACHSEN
 48
0.8
100
AcDbLine
 10
-2029.964552498773
 20
1173.644316489294
 30
0.0
 11
-2029.964552498773
 21
1189.144316489294
 31
0.0
  0
LINE
  5
24D
330
2
100
AcDbEntity
  8
UMRISS05
100
AcDbLine
 10
-2025.964552498772
 20
1314.894316489294
 30
0.0
 11
-2018.064552498773
 21
1314.894316489294
 31
0.0
  0
LINE
  5
24E
330
2
100
AcDbEntity
  8
UMRISS05
100
AcDbLine
 10
-2020.464552498776
 20
1314.894316489294
 30
0.0
 11
-2020.464552498776
 21
1315.894316489294
 31
0.0
  0
LINE
  5
24F
330
2
100
AcDbEntity
  8
UMRISS05
100
AcDbLine
 10
-2024.550338936399
 20
1315.894316489294
 30
0.0
 11
-2017.964552498773
 21
1315.894316489294
 31
0.0
  0
LINE
  5
250
330
2
100
AcDbEntity
  8
UMRISS05
100
AcDbLine
 10
-2027.964552498772
 20
1265.344316489294
 30
0.0
 11
-2029.664552498772
 21
1265.344316489294
 31
0.0
  0
LINE
  5
251
330
2
100
AcDbEntity
  8
UMRISS05
100
AcDbLine
 10
-2031.964552498772
 20
1265.344316489294
 30
0.0
 11
-2031.964552498772
 21
1265.944316489294
 31
0.0
  0
LINE
  5
252
330
2
100
AcDbEntity
  8
UMRISS05
100
AcDbLine
 10
-2029.664552498772
 20
1265.944316489294
 30
0.0
 11
-2027.964552498772
 21
1265.944316489294
 31
0.0
  0
LINE
  5
253
330
2
100
AcDbEntity
  8
UMRISS05
100
AcDbLine
 10
-2027.964552498772
 20
1265.944316489294
 30
0.0
 11
-2027.964552498772
 21
1265.344316489294
 31
0.0
  0
LINE
  5
254
330
2
100
AcDbEntity
  8
UMRISS05
100
AcDbLine
 10
-2030.264552498772
 20
1265.344316489294
 30
0.0
 11
-2031.964552498772
 21
1265.344316489294
 31
0.0
  0
LINE
  5
255
330
2
100
AcDbEntity
  8
UMRISS05
100
AcDbLine
 10
-2031.964552498772
 20
1265.944316489294
 30
0.0
 11
-2030.264552498772
 21
1265.944316489294
 31
0.0
  0
LINE
  5
256
330
2
100
AcDbEntity
  8
UMRISS05
100
AcDbLine
 10
-2029.664552498772
 20
1263.644316489294
 30
0.0
 11
-2030.264552498772
 21
1263.644316489294
 31
0.0
  0
LINE
  5
257
330
2
100
AcDbEntity
  8
UMRISS05
100
AcDbLine
 10
-2030.264552498772
 20
1265.944316489294
 30
0.0
 11
-2030.264552498772
 21
1267.644316489294
 31
0.0
  0
LINE
  5
258
330
2
100
AcDbEntity
  8
UMRISS05
100
AcDbLine
 10
-2030.264552498772
 20
1267.644316489294
 30
0.0
 11
-2029.664552498772
 21
1267.644316489294
 31
0.0
  0
LINE
  5
259
330
2
100
AcDbEntity
  8
UMRISS05
100
AcDbLine
 10
-2030.264552498772
 20
1263.644316489294
 30
0.0
 11
-2030.264552498772
 21
1265.344316489294
 31
0.0
  0
LINE
  5
25A
330
2
100
AcDbEntity
  8
UMRISS05
100
AcDbLine
 10
-2029.664552498772
 20
1267.644316489294
 30
0.0
 11
-2029.664552498772
 21
1265.944316489294
 31
0.0
  0
LINE
  5
25B
330
2
100
AcDbEntity
  8
UMRISS05
100
AcDbLine
 10
-2029.664552498772
 20
1265.344316489294
 30
0.0
 11
-2029.664552498772
 21
1263.644316489294
 31
0.0
  0
LINE
  5
25C
330
2
100
AcDbEntity
  8
UMRISS05
100
AcDbLine
 10
-2027.964552498772
 20
1317.844316489294
 30
0.0
 11
-2029.664552498772
 21
1317.844316489294
 31
0.0
  0
LINE
  5
25D
330
2
100
AcDbEntity
  8
UMRISS05
100
AcDbLine
 10
-2031.964552498772
 20
1317.844316489294
 30
0.0
 11
-2031.964552498772
 21
1318.444316489294
 31
0.0
  0
LINE
  5
25E
330
2
100
AcDbEntity
  8
UMRISS05
100
AcDbLine
 10
-2029.664552498772
 20
1318.444316489294
 30
0.0
 11
-2027.964552498772
 21
1318.444316489294
 31
0.0
  0
LINE
  5
25F
330
2
100
AcDbEntity
  8
UMRISS05
100
AcDbLine
 10
-2027.964552498772
 20
1318.444316489294
 30
0.0
 11
-2027.964552498772
 21
1317.844316489294
 31
0.0
  0
LINE
  5
260
330
2
100
AcDbEntity
  8
UMRISS05
100
AcDbLine
 10
-2030.264552498772
 20
1317.844316489294
 30
0.0
 11
-2031.964552498772
 21
1317.844316489294
 31
0.0
  0
LINE
  5
261
330
2
100
AcDbEntity
  8
UMRISS05
100
AcDbLine
 10
-2031.964552498772
 20
1318.444316489294
 30
0.0
 11
-2030.264552498772
 21
1318.444316489294
 31
0.0
  0
LINE
  5
262
330
2
100
AcDbEntity
  8
UMRISS05
100
AcDbLine
 10
-2029.664552498772
 20
1316.144316489294
 30
0.0
 11
-2030.264552498772
 21
1316.144316489294
 31
0.0
  0
LINE
  5
263
330
2
100
AcDbEntity
  8
UMRISS05
100
AcDbLine
 10
-2030.264552498772
 20
1318.444316489294
 30
0.0
 11
-2030.264552498772
 21
1320.144316489294
 31
0.0
  0
LINE
  5
264
330
2
100
AcDbEntity
  8
UMRISS05
100
AcDbLine
 10
-2030.264552498772
 20
1320.144316489294
 30
0.0
 11
-2029.664552498772
 21
1320.144316489294
 31
0.0
  0
LINE
  5
265
330
2
100
AcDbEntity
  8
UMRISS05
100
AcDbLine
 10
-2030.264552498772
 20
1316.144316489294
 30
0.0
 11
-2030.264552498772
 21
1317.844316489294
 31
0.0
  0
LINE
  5
266
330
2
100
AcDbEntity
  8
UMRISS05
100
AcDbLine
 10
-2029.664552498772
 20
1320.144316489294
 30
0.0
 11
-2029.664552498772
 21
1318.444316489294
 31
0.0
  0
LINE
  5
267
330
2
100
AcDbEntity
  8
UMRISS05
100
AcDbLine
 10
-2029.664552498772
 20
1317.844316489294
 30
0.0
 11
-2029.664552498772
 21
1316.144316489294
 31
0.0
  0
ARC
  5
268
330
2
100
AcDbEntity
  8
UMRISS05
100
AcDbCircle
 10
-2031.864552498772
 20
1276.394316489294
 30
0.0
 40
2.149999999999999
100
AcDbArc
 50
94.74189026112112
 51
265.2581097388789
  0
LINE
  5
269
330
2
100
AcDbEntity
  8
UMRISS05
100
AcDbLine
 10
-2028.664552498772
 20
1311.394316489294
 30
0.0
 11
-2031.864552498772
 21
1311.394316489294
 31
0.0
  0
ARC
  5
26A
330
2
100
AcDbEntity
  8
UMRISS05
100
AcDbCircle
 10
-2031.864552498772
 20
1307.394316489294
 30
0.0
 40
4.000000000000001
100
AcDbArc
 50
90.0
 51
270.0
  0
LINE
  5
26B
330
2
100
AcDbEntity
  8
UMRISS05
100
AcDbLine
 10
-2031.864552498772
 20
1303.394316489294
 30
0.0
 11
-2028.664552498772
 21
1303.394316489294
 31
0.0
  0
LINE
  5
26C
330
2
100
AcDbEntity
  8
UMRISS05
100
AcDbLine
 10
-2028.664552498772
 20
1280.394316489294
 30
0.0
 11
-2031.864552498772
 21
1280.394316489294
 31
0.0
  0
ARC
  5
26D
330
2
100
AcDbEntity
  8
UMRISS05
100
AcDbCircle
 10
-2031.864552498772
 20
1276.394316489294
 30
0.0
 40
4.000000000000001
100
AcDbArc
 50
90.0
 51
270.0
  0
LINE
  5
26E
330
2
100
AcDbEntity
  8
UMRISS05
100
AcDbLine
 10
-2031.864552498772
 20
1272.394316489294
 30
0.0
 11
-2028.664552498772
 21
1272.394316489294
 31
0.0
  0
ARC
  5
26F
330
2
100
AcDbEntity
  8
UMRISS05
100
AcDbCircle
 10
-2031.864552498772
 20
1307.394316489294
 30
0.0
 40
2.149999999999999
100
AcDbArc
 50
94.74189026112105
 51
265.2581097388789
  0
LINE
  5
270
330
2
100
AcDbEntity
  8
UMRISS05
100
AcDbLine
 10
-2018.064552498772
 20
1268.994316489294
 30
0.0
 11
-2018.064552498772
 21
1314.894316489294
 31
0.0
  0
LINE
  5
271
330
2
100
AcDbEntity
  8
UMRISS05
100
AcDbLine
 10
-2024.464552498772
 20
1314.894316489294
 30
0.0
 11
-2024.464552498772
 21
1268.994316489294
 31
0.0
  0
CIRCLE
  5
272
330
2
100
AcDbEntity
  8
UMRISS05
100
AcDbCircle
 10
-2029.964552498773
 20
1342.394316489294
 30
0.0
 40
2.75
  0
CIRCLE
  5
273
330
2
100
AcDbEntity
  8
UMRISS05
100
AcDbCircle
 10
-2029.964552498773
 20
1181.394316489294
 30
0.0
 40
2.75
  0
CIRCLE
  5
274
330
2
100
AcDbEntity
  8
UMRISS05
100
AcDbCircle
 10
-2029.964552498773
 20
1181.394316489294
 30
0.0
 40
4.75
  0
CIRCLE
  5
275
330
2
100
AcDbEntity
  8
UMRISS05
100
AcDbCircle
 10
-2029.964552498773
 20
1342.394316489294
 30
0.0
 40
4.75
  0
CIRCLE
  5
276
330
2
100
AcDbEntity
  8
UMRISS05
100
AcDbCircle
 10
-2029.964552498773
 20
1265.644316489294
 30
0.0
 40
4.0
  0
CIRCLE
  5
277
330
2
100
AcDbEntity
  8
UMRISS05
100
AcDbCircle
 10
-2029.964552498773
 20
1318.144316489294
 30
0.0
 40
4.0
  0
LINE
  5
278
330
2
100
AcDbEntity
  8
UMRISS05
100
AcDbLine
 10
-2019.964552498772
 20
1169.394316489294
 30
0.0
 11
-2039.964552498772
 21
1169.394316489294
 31
0.0
  0
LINE
  5
279
330
2
100
AcDbEntity
  8
UMRISS05
100
AcDbLine
 10
-2039.964552498772
 20
1354.394316489294
 30
0.0
 11
-2019.964552498772
 21
1354.394316489294
 31
0.0
  0
ARC
  5
27A
330
2
100
AcDbEntity
  8
UMRISS05
100
AcDbCircle
 10
-2024.550338936399
 20
1314.894316489294
 30
0.0
 40
1.000000000000011
100
AcDbArc
 50
90.0
 51
134.9999999999932
  0
LINE
  5
27B
330
2
100
AcDbEntity
  8
UMRISS05
100
AcDbLine
 10
-2026.671659279959
 20
1314.187209708108
 30
0.0
 11
-2025.257445717586
 21
1315.601423270481
 31
0.0
  0
ARC
  5
27C
330
2
100
AcDbEntity
  8
UMRISS05
100
AcDbCircle
 10
-2027.378766061145
 20
1314.894316489294
 30
0.0
 40
1.00000000000003
100
AcDbArc
 50
270.0
 51
314.9999999999932
  0
LINE
  5
27D
330
2
100
AcDbEntity
  8
UMRISS05
100
AcDbLine
 10
-2034.964552498772
 20
1313.894316489294
 30
0.0
 11
-2027.378766061145
 21
1313.894316489294
 31
0.0
  0
ARC
  5
27E
330
2
100
AcDbEntity
  8
UMRISS05
100
AcDbCircle
 10
-2034.964552498772
 20
1312.894316489294
 30
0.0
 40
0.9999999999999918
100
AcDbArc
 50
90.0
 51
180.0
  0
LINE
  5
27F
330
2
100
AcDbEntity
  8
UMRISS05
100
AcDbLine
 10
-2035.964552498772
 20
1270.894316489294
 30
0.0
 11
-2035.964552498772
 21
1312.894316489294
 31
0.0
  0
ARC
  5
280
330
2
100
AcDbEntity
  8
UMRISS05
100
AcDbCircle
 10
-2034.964552498772
 20
1270.894316489294
 30
0.0
 40
1.000000000000049
100
AcDbArc
 50
180.0
 51
270.0
  0
LINE
  5
281
330
2
100
AcDbEntity
  8
UMRISS05
100
AcDbLine
 10
-2027.378766061146
 20
1269.894316489294
 30
0.0
 11
-2034.964552498772
 21
1269.894316489294
 31
0.0
  0
ARC
  5
282
330
2
100
AcDbEntity
  8
UMRISS05
100
AcDbCircle
 10
-2027.378766061146
 20
1268.894316489294
 30
0.0
 40
1.000000000000359
100
AcDbArc
 50
45.00000000000912
 51
89.99999999998697
  0
LINE
  5
283
330
2
100
AcDbEntity
  8
UMRISS05
100
AcDbLine
 10
-2025.257445717586
 20
1268.187209708108
 30
0.0
 11
-2026.671659279959
 21
1269.601423270481
 31
0.0
  0
ARC
  5
284
330
2
100
AcDbEntity
  8
UMRISS05
100
AcDbCircle
 10
-2024.550338936399
 20
1268.894316489295
 30
0.0
 40
1.000000000000369
100
AcDbArc
 50
225.0000000000091
 51
269.999999999987
  0
LINE
  5
285
330
2
100
AcDbEntity
  8
UMRISS05
100
AcDbLine
 10
-2019.964552498772
 20
1267.894316489294
 30
0.0
 11
-2024.550338936399
 21
1267.894316489294
 31
0.0
  0
LINE
  5
286
330
2
100
AcDbEntity
  8
UMRISS05
100
AcDbLine
 10
-2022.464552498772
 20
1253.394316489294
 30
0.0
 11
-2022.464552498772
 21
1210.394316489294
 31
0.0
  0
ARC
  5
287
330
2
100
AcDbEntity
  8
UMRISS05
100
AcDbCircle
 10
-2024.464552498772
 20
1253.394316489294
 30
0.0
 40
1.99999999999985
100
AcDbArc
 50
0.0
 51
90.0
  0
LINE
  5
288
330
2
100
AcDbEntity
  8
UMRISS05
100
AcDbLine
 10
-2035.464552498773
 20
1255.394316489294
 30
0.0
 11
-2024.464552498772
 21
1255.394316489294
 31
0.0
  0
ARC
  5
289
330
2
100
AcDbEntity
  8
UMRISS05
100
AcDbCircle
 10
-2035.464552498773
 20
1253.394316489294
 30
0.0
 40
1.999999999999806
100
AcDbArc
 50
90.0
 51
180.0
  0
LINE
  5
28A
330
2
100
AcDbEntity
  8
UMRISS05
100
AcDbLine
 10
-2037.464552498772
 20
1210.394316489294
 30
0.0
 11
-2037.464552498772
 21
1253.394316489294
 31
0.0
  0
ARC
  5
28B
330
2
100
AcDbEntity
  8
UMRISS05
100
AcDbCircle
 10
-2035.464552498773
 20
1210.394316489294
 30
0.0
 40
1.999999999999884
100
AcDbArc
 50
180.0
 51
270.0
  0
LINE
  5
28C
330
2
100
AcDbEntity
  8
UMRISS05
100
AcDbLine
 10
-2024.464552498772
 20
1208.394316489294
 30
0.0
 11
-2035.464552498773
 21
1208.394316489294
 31
0.0
  0
ARC
  5
28D
330
2
100
AcDbEntity
  8
UMRISS05
100
AcDbCircle
 10
-2024.464552498772
 20
1210.394316489294
 30
0.0
 40
1.999999999999495
100
AcDbArc
 50
270.0
 51
0.0
  0
LINE
  5
28E
330
2
100
AcDbEntity
  8
UMRISS05
100
AcDbLine
 10
-2024.550338936399
 20
1315.894316489294
 30
0.0
 11
-2019.964552498772
 21
1315.894316489294
 31
0.0
  0
LINE
  5
28F
330
2
100
AcDbEntity
  8
UMRISS05
100
AcDbLine
 10
-2041.964552498772
 20
1354.394316489294
 30
0.0
 11
-2041.964552498772
 21
1169.394316489294
 31
0.0
  0
LINE
  5
290
330
2
100
AcDbEntity
  8
UMRISS05
100
AcDbLine
 10
-2041.964552498772
 20
1354.394316489294
 30
0.0
 11
-2039.964552498772
 21
1354.394316489294
 31
0.0
  0
LINE
  5
291
330
2
100
AcDbEntity
  8
UMRISS05
100
AcDbLine
 10
-2039.964552498772
 20
1169.394316489294
 30
0.0
 11
-2041.964552498772
 21
1169.394316489294
 31
0.0
  0
LINE
  5
292
330
2
100
AcDbEntity
  8
UMRISS05
100
AcDbLine
 10
-2019.964552498772
 20
1267.894316489294
 30
0.0
 11
-2017.964552498773
 21
1267.894316489294
 31
0.0
  0
LINE
  5
293
330
2
100
AcDbEntity
  8
UMRISS05
100
AcDbLine
 10
-2017.964552498773
 20
1169.394316489294
 30
0.0
 11
-2019.964552498772
 21
1169.394316489294
 31
0.0
  0
LINE
  5
294
330
2
100
AcDbEntity
  8
UMRISS05
100
AcDbLine
 10
-2017.964552498773
 20
1315.894316489294
 30
0.0
 11
-2019.964552498772
 21
1315.894316489294
 31
0.0
  0
LINE
  5
295
330
2
100
AcDbEntity
  8
UMRISS05
100
AcDbLine
 10
-2019.964552498772
 20
1354.394316489294
 30
0.0
 11
-2017.964552498773
 21
1354.394316489294
 31
0.0
  0
LINE
  5
296
330
2
100
AcDbEntity
  8
UMRISS05
100
AcDbLine
 10
-2017.964552498773
 20
1169.394316489294
 30
0.0
 11
-2017.964552498773
 21
1267.894316489294
 31
0.0
  0
LINE
  5
297
330
2
100
AcDbEntity
  8
UMRISS05
100
AcDbLine
 10
-2017.964552498773
 20
1315.894316489294
 30
0.0
 11
-2017.964552498773
 21
1354.394316489294
 31
0.0
  0
DIMENSION
  5
298
330
2
100
AcDbEntity
  8
AM_0
100
AcDbDimension
280
     0
  2
*D11
 10
-2017.964552498825
 20
125.072064430341
 30
0.0
 11
-2029.964552498825
 21
132.0904818928239
 31
0.0
 71
     5
 42
24.0
 73
     0
 74
     0
 75
     0
  3
Katalog 09
100
AcDbAlignedDimension
 13
-2041.964552498825
 23
170.0279796710188
 33
0.0
 14
-2017.964552498825
 24
170.0279796710188
 34
0.0
100
AcDbRotatedDimension
  0
LINE
  5
2A7
330
2
100
AcDbEntity
  8
AVERDECKTE
 48
0.6
100
AcDbLine
 10
-2039.46455249877
 20
721.8943164892936
 30
0.0
 11
-2039.46455249877
 21
991.8943164892937
 31
0.0
  0
LINE
  5
2A8
330
2
100
AcDbEntity
  8
AVERDECKTE
 48
0.6
100
AcDbLine
 10
-2020.464552498776
 20
930.8943164892937
 30
0.0
 11
-2020.464552498776
 21
991.8943164892937
 31
0.0
  0
LINE
  5
2A9
330
2
100
AcDbEntity
  8
AVERDECKTE
 48
0.6
100
AcDbLine
 10
-2020.464552498776
 20
721.8943164892936
 30
0.0
 11
-2020.464552498776
 21
882.8943164892935
 31
0.0
  0
LINE
  5
2AA
330
2
100
AcDbEntity
  8
ACHSEN
 48
0.8
100
AcDbLine
 10
-2022.214552498772
 20
979.8943164892934
 30
0.0
 11
-2037.714552498772
 21
979.8943164892934
 31
0.0
  0
LINE
  5
2AB
330
2
100
AcDbEntity
  8
ACHSEN
 48
0.8
100
AcDbLine
 10
-2022.214552498772
 20
733.8943164892935
 30
0.0
 11
-2037.714552498772
 21
733.8943164892935
 31
0.0
  0
LINE
  5
2AC
330
2
100
AcDbEntity
  8
ACHSEN
 48
0.8
100
AcDbLine
 10
-2022.214552498772
 20
856.8943164892935
 30
0.0
 11
-2037.714552498772
 21
856.8943164892935
 31
0.0
  0
LINE
  5
2AD
330
2
100
AcDbEntity
  8
ACHSEN
 48
0.8
100
AcDbLine
 10
-2026.214552498772
 20
776.8943164892935
 30
0.0
 11
-2034.714552498773
 21
776.8943164892935
 31
0.0
  0
LINE
  5
2AE
330
2
100
AcDbEntity
  8
ACHSEN
 48
0.8
100
AcDbLine
 10
-2026.214552498772
 20
765.8943164892938
 30
0.0
 11
-2034.714552498773
 21
765.8943164892938
 31
0.0
  0
ARC
  5
2AF
330
2
100
AcDbEntity
  8
AVERDECKTE
 48
0.6
100
AcDbCircle
 10
-2021.764552498773
 20
936.3943164892937
 30
0.0
 40
1.5
100
AcDbArc
 50
29.92643486683587
 51
90.0
  0
ARC
  5
2B0
330
2
100
AcDbEntity
  8
AVERDECKTE
 48
0.6
100
AcDbCircle
 10
-2037.964552498769
 20
936.3943164892937
 30
0.0
 40
1.5
100
AcDbArc
 50
90.0
 51
180.0
  0
LINE
  5
2B1
330
2
100
AcDbEntity
  8
AVERDECKTE
 48
0.6
100
AcDbLine
 10
-2021.764552498773
 20
937.8943164892938
 30
0.0
 11
-2037.964552498769
 21
937.8943164892938
 31
0.0
  0
ARC
  5
2B2
330
2
100
AcDbEntity
  8
AVERDECKTE
 48
0.5
100
AcDbCircle
 10
-2037.964552498769
 20
877.3943164892934
 30
0.0
 40
1.5
100
AcDbArc
 50
180.0
 51
270.0
  0
ARC
  5
2B3
330
2
100
AcDbEntity
  8
AVERDECKTE
 48
0.6
100
AcDbCircle
 10
-2021.764552498773
 20
877.3943164892935
 30
0.0
 40
1.5
100
AcDbArc
 50
270.0
 51
330.0735651331641
  0
LINE
  5
2B4
330
2
100
AcDbEntity
  8
AVERDECKTE
 48
0.6
100
AcDbLine
 10
-2021.764552498773
 20
875.8943164892938
 30
0.0
 11
-2037.964552498769
 21
875.8943164892933
 31
0.0
  0
LINE
  5
2B5
330
2
100
AcDbEntity
  8
ACHSEN
 48
0.8
100
AcDbLine
 10
-2021.164552498773
 20
891.3943164892938
 30
0.0
 11
-2036.114552498773
 21
891.3943164892938
 31
0.0
  0
LINE
  5
2B6
330
2
100
AcDbEntity
  8
ACHSEN
 48
0.8
100
AcDbLine
 10
-2036.114552498773
 20
922.3943164892938
 30
0.0
 11
-2021.248446233604
 21
922.3943164892938
 31
0.0
  0
LINE
  5
2B7
330
2
100
AcDbEntity
  8
ACHSEN
 48
0.8
100
AcDbLine
 10
-2038.283985461883
 20
906.8943164892939
 30
0.0
 11
-2015.278597652573
 21
906.8943164892939
 31
0.0
  0
DIMENSION
  5
2B8
330
2
100
AcDbEntity
  8
BEMASSUNG
100
AcDbDimension
280
     0
  2
*D10
 10
-2017.964552498773
 20
703.5018652704982
 30
0.0
 11
-2029.964552498773
 21
703.5018652704982
 31
0.0
 70
   128
  1
<>
 71
     5
 42
24.0
 73
     0
 74
     0
 75
     0
  3
Katalog 09
100
AcDbAlignedDimension
 13
-2041.964552498772
 23
721.8943164892936
 33
0.0
 14
-2017.964552498773
 24
721.8943164892936
 34
0.0
100
AcDbRotatedDimension
  0
LINE
  5
2C7
330
2
100
AcDbEntity
  8
ACHSEN
 48
0.8
100
AcDbLine
 10
-2029.964552498773
 20
972.1443164892937
 30
0.0
 11
-2029.964552498773
 21
987.6443164892933
 31
0.0
  0
LINE
  5
2C8
330
2
100
AcDbEntity
  8
ACHSEN
 48
0.8
100
AcDbLine
 10
-2029.964552498773
 20
849.1443164892935
 30
0.0
 11
-2029.964552498773
 21
864.6443164892934
 31
0.0
  0
LINE
  5
2C9
330
2
100
AcDbEntity
  8
ACHSEN
 48
0.8
100
AcDbLine
 10
-2029.964552498773
 20
761.1443164892938
 30
0.0
 11
-2029.964552498773
 21
781.6443164892935
 31
0.0
  0
LINE
  5
2CA
330
2
100
AcDbEntity
  8
ACHSEN
 48
0.8
100
AcDbLine
 10
-2029.964552498773
 20
726.1443164892932
 30
0.0
 11
-2029.964552498773
 21
741.6443164892934
 31
0.0
  0
DIMENSION
  5
2CB
330
2
100
AcDbEntity
  8
UMRISS05
100
AcDbDimension
280
     0
  2
*D9
 10
-2041.964552498825
 20
141.595300133471
 30
0.0
 11
-2076.733993153668
 21
141.595300133471
 31
0.0
 70
   128
 71
     5
 42
2.300000000000181
 73
     0
 74
     0
 75
     0
  3
Katalog 09
100
AcDbAlignedDimension
 13
-2039.664552498825
 23
170.0279796710187
 33
0.0
 14
-2041.964552498825
 24
170.0279796710188
 34
0.0
100
AcDbRotatedDimension
  0
LINE
  5
2DA
330
2
100
AcDbEntity
  8
ACHSEN
 48
0.8
100
AcDbLine
 10
-2029.964552498684
 20
188.3357898531303
 30
0.0
 11
-2029.964552498684
 21
162.9089122536822
 31
0.0
  0
DIMENSION
  5
2DB
330
2
100
AcDbEntity
  8
UMRISS05
100
AcDbDimension
280
     0
  2
*D8
 10
-2020.264552498825
 20
221.6610492997494
 30
0.0
 11
-2029.964552498825
 21
228.7562061892447
 31
0.0
 71
     5
 42
19.39999999999986
 73
     0
 74
     0
 75
     0
  3
Katalog 09
100
AcDbAlignedDimension
 13
-2039.664552498825
 23
185.0279796710024
 33
0.0
 14
-2020.264552498825
 24
185.0279796710024
 34
0.0
100
AcDbRotatedDimension
  0
LINE
  5
2EA
330
2
100
AcDbEntity
  8
UMRISS05
100
AcDbLine
 10
-2022.214552498825
 20
170.0279796710006
 30
0.0
 11
-2022.214552498825
 21
174.5279796710003
 31
0.0
  0
LINE
  5
2EB
330
2
100
AcDbEntity
  8
UMRISS05
100
AcDbLine
 10
-2018.064552498825
 20
169.3279796710004
 30
0.0
 11
-2018.091053099306
 21
169.3279796710004
 31
0.0
  0
LINE
  5
2EC
330
2
100
AcDbEntity
  8
UMRISS05
100
AcDbLine
 10
-2018.064552498825
 20
168.4279796710004
 30
0.0
 11
-2018.064552498825
 21
169.3279796710004
 31
0.0
  0
ARC
  5
2ED
330
2
100
AcDbEntity
  8
UMRISS05
100
AcDbCircle
 10
-2019.564552498825
 20
168.4279796710004
 30
0.0
 40
1.499999999999993
100
AcDbArc
 50
270.0
 51
0.0
  0
LINE
  5
2EE
330
2
100
AcDbEntity
  8
UMRISS05
100
AcDbLine
 10
-2022.964552498825
 20
166.9279796710004
 30
0.0
 11
-2019.564552498825
 21
166.9279796710004
 31
0.0
  0
ARC
  5
2EF
330
2
100
AcDbEntity
  8
UMRISS05
100
AcDbCircle
 10
-2022.964552498825
 20
168.4279796710004
 30
0.0
 40
1.5
100
AcDbArc
 50
195.4660099534185
 51
270.0
  0
LINE
  5
2F0
330
2
100
AcDbEntity
  8
UMRISS05
100
AcDbLine
 10
-2020.264552498825
 20
185.0279796710023
 30
0.0
 11
-2021.764552498825
 21
185.0279796710027
 31
0.0
  0
LINE
  5
2F1
330
2
100
AcDbEntity
  8
UMRISS05
100
AcDbLine
 10
-2038.164552498825
 20
185.0279796710028
 30
0.0
 11
-2021.764552498825
 21
185.0279796710027
 31
0.0
  0
LINE
  5
2F2
330
2
100
AcDbEntity
  8
UMRISS05
100
AcDbLine
 10
-2038.164552498825
 20
185.0279796710028
 30
0.0
 11
-2039.664552498825
 21
185.0279796710024
 31
0.0
  0
LINE
  5
2F3
330
2
100
AcDbEntity
  8
UMRISS05
100
AcDbLine
 10
-2039.664552498825
 20
185.0279796710024
 30
0.0
 11
-2039.664552498825
 21
170.0279796710024
 31
0.0
  0
LINE
  5
2F4
330
2
100
AcDbEntity
  8
UMRISS05
100
AcDbLine
 10
-2020.264552498825
 20
185.0279796710023
 30
0.0
 11
-2020.264552498825
 21
174.5279796710023
 31
0.0
  0
LINE
  5
2F5
330
2
100
AcDbEntity
  8
UMRISS05
100
AcDbLine
 10
-2022.764552498825
 20
170.0279796710028
 30
0.0
 11
-2022.764552498825
 21
174.5279796710028
 31
0.0
  0
LINE
  5
2F6
330
2
100
AcDbEntity
  8
UMRISS05
100
AcDbLine
 10
-2022.764552498825
 20
174.5279796710028
 30
0.0
 11
-2021.764552498825
 21
174.5279796710028
 31
0.0
  0
LINE
  5
2F7
330
2
100
AcDbEntity
  8
UMRISS05
100
AcDbLine
 10
-2020.264552498825
 20
174.5279796710024
 30
0.0
 11
-2021.764552498825
 21
174.5279796710028
 31
0.0
  0
ARC
  5
2F8
330
2
100
AcDbEntity
  8
UMRISS05
100
AcDbCircle
 10
-2039.964552498825
 20
170.0279796710188
 30
0.0
 40
2.0
100
AcDbArc
 50
180.0
 51
270.0
  0
ARC
  5
2F9
330
2
100
AcDbEntity
  8
UMRISS05
100
AcDbCircle
 10
-2019.964552498825
 20
170.0279796710188
 30
0.0
 40
1.999999999999999
100
AcDbArc
 50
270.0
 51
0.0
  0
LINE
  5
2FA
330
2
100
AcDbEntity
  8
UMRISS05
100
AcDbLine
 10
-2041.964552498825
 20
174.0279796710188
 30
0.0
 11
-2041.964552498825
 21
170.0279796710188
 31
0.0
  0
LINE
  5
2FB
330
2
100
AcDbEntity
  8
UMRISS05
100
AcDbLine
 10
-2019.964552498825
 20
170.0279796710188
 30
0.0
 11
-2039.964552498825
 21
170.0279796710188
 31
0.0
  0
LINE
  5
2FC
330
2
100
AcDbEntity
  8
UMRISS05
100
AcDbLine
 10
-2039.964552498825
 20
168.0279796710188
 30
0.0
 11
-2019.964552498825
 21
168.0279796710188
 31
0.0
  0
LINE
  5
2FD
330
2
100
AcDbEntity
  8
UMRISS05
100
AcDbLine
 10
-2017.964552498825
 20
174.0279796710188
 30
0.0
 11
-2017.964552498825
 21
170.0279796710188
 31
0.0
  0
LINE
  5
2FE
330
2
100
AcDbEntity
  8
UMRISS05
100
AcDbLine
 10
-2039.964552498825
 20
174.0279796710188
 30
0.0
 11
-2041.964552498825
 21
174.0279796710188
 31
0.0
  0
LINE
  5
2FF
330
2
100
AcDbEntity
  8
UMRISS05
100
AcDbLine
 10
-2039.964552498825
 20
170.0279796710188
 30
0.0
 11
-2039.964552498825
 21
174.0279796710188
 31
0.0
  0
LINE
  5
300
330
2
100
AcDbEntity
  8
UMRISS05
100
AcDbLine
 10
-2019.964552498825
 20
174.0279796710188
 30
0.0
 11
-2019.964552498825
 21
170.0279796710188
 31
0.0
  0
LINE
  5
301
330
2
100
AcDbEntity
  8
UMRISS05
100
AcDbLine
 10
-2017.964552498825
 20
174.0279796710188
 30
0.0
 11
-2019.964552498825
 21
174.0279796710188
 31
0.0
  0
LINE
  5
302
330
2
100
AcDbEntity
  8
UMRISS05
100
AcDbLine
 10
-2027.964552498772
 20
932.8443164892934
 30
0.0
 11
-2029.664552498772
 21
932.8443164892934
 31
0.0
  0
LINE
  5
303
330
2
100
AcDbEntity
  8
UMRISS05
100
AcDbLine
 10
-2031.964552498772
 20
932.8443164892934
 30
0.0
 11
-2031.964552498772
 21
933.4443164892936
 31
0.0
  0
LINE
  5
304
330
2
100
AcDbEntity
  8
UMRISS05
100
AcDbLine
 10
-2029.664552498772
 20
933.4443164892936
 30
0.0
 11
-2027.964552498772
 21
933.4443164892936
 31
0.0
  0
LINE
  5
305
330
2
100
AcDbEntity
  8
UMRISS05
100
AcDbLine
 10
-2027.964552498772
 20
933.4443164892936
 30
0.0
 11
-2027.964552498772
 21
932.8443164892934
 31
0.0
  0
LINE
  5
306
330
2
100
AcDbEntity
  8
UMRISS05
100
AcDbLine
 10
-2030.264552498772
 20
932.8443164892934
 30
0.0
 11
-2031.964552498772
 21
932.8443164892936
 31
0.0
  0
LINE
  5
307
330
2
100
AcDbEntity
  8
UMRISS05
100
AcDbLine
 10
-2031.964552498772
 20
933.4443164892936
 30
0.0
 11
-2030.264552498772
 21
933.4443164892936
 31
0.0
  0
LINE
  5
308
330
2
100
AcDbEntity
  8
UMRISS05
100
AcDbLine
 10
-2029.664552498772
 20
931.1443164892937
 30
0.0
 11
-2030.264552498772
 21
931.1443164892937
 31
0.0
  0
LINE
  5
309
330
2
100
AcDbEntity
  8
UMRISS05
100
AcDbLine
 10
-2030.264552498772
 20
933.4443164892936
 30
0.0
 11
-2030.264552498772
 21
935.1443164892938
 31
0.0
  0
LINE
  5
30A
330
2
100
AcDbEntity
  8
UMRISS05
100
AcDbLine
 10
-2030.264552498772
 20
935.1443164892938
 30
0.0
 11
-2029.664552498772
 21
935.1443164892938
 31
0.0
  0
LINE
  5
30B
330
2
100
AcDbEntity
  8
UMRISS05
100
AcDbLine
 10
-2030.264552498772
 20
931.1443164892937
 30
0.0
 11
-2030.264552498772
 21
932.8443164892934
 31
0.0
  0
LINE
  5
30C
330
2
100
AcDbEntity
  8
UMRISS05
100
AcDbLine
 10
-2029.664552498772
 20
935.1443164892938
 30
0.0
 11
-2029.664552498772
 21
933.4443164892936
 31
0.0
  0
LINE
  5
30D
330
2
100
AcDbEntity
  8
UMRISS05
100
AcDbLine
 10
-2029.664552498772
 20
932.8443164892934
 30
0.0
 11
-2029.664552498772
 21
931.1443164892937
 31
0.0
  0
LINE
  5
30E
330
2
100
AcDbEntity
  8
UMRISS05
100
AcDbLine
 10
-2027.964552498772
 20
880.3443164892936
 30
0.0
 11
-2029.664552498772
 21
880.3443164892936
 31
0.0
  0
LINE
  5
30F
330
2
100
AcDbEntity
  8
UMRISS05
100
AcDbLine
 10
-2031.964552498772
 20
880.3443164892936
 30
0.0
 11
-2031.964552498772
 21
880.9443164892936
 31
0.0
  0
LINE
  5
310
330
2
100
AcDbEntity
  8
UMRISS05
100
AcDbLine
 10
-2029.664552498772
 20
880.9443164892936
 30
0.0
 11
-2027.964552498772
 21
880.9443164892936
 31
0.0
  0
LINE
  5
311
330
2
100
AcDbEntity
  8
UMRISS05
100
AcDbLine
 10
-2027.964552498772
 20
880.9443164892936
 30
0.0
 11
-2027.964552498772
 21
880.3443164892936
 31
0.0
  0
LINE
  5
312
330
2
100
AcDbEntity
  8
UMRISS05
100
AcDbLine
 10
-2030.264552498772
 20
880.3443164892936
 30
0.0
 11
-2031.964552498772
 21
880.3443164892936
 31
0.0
  0
LINE
  5
313
330
2
100
AcDbEntity
  8
UMRISS05
100
AcDbLine
 10
-2031.964552498772
 20
880.9443164892936
 30
0.0
 11
-2030.264552498772
 21
880.9443164892936
 31
0.0
  0
LINE
  5
314
330
2
100
AcDbEntity
  8
UMRISS05
100
AcDbLine
 10
-2029.664552498772
 20
878.6443164892936
 30
0.0
 11
-2030.264552498772
 21
878.6443164892936
 31
0.0
  0
LINE
  5
315
330
2
100
AcDbEntity
  8
UMRISS05
100
AcDbLine
 10
-2030.264552498772
 20
880.9443164892936
 30
0.0
 11
-2030.264552498772
 21
882.6443164892937
 31
0.0
  0
LINE
  5
316
330
2
100
AcDbEntity
  8
UMRISS05
100
AcDbLine
 10
-2030.264552498772
 20
882.6443164892937
 30
0.0
 11
-2029.664552498772
 21
882.6443164892937
 31
0.0
  0
LINE
  5
317
330
2
100
AcDbEntity
  8
UMRISS05
100
AcDbLine
 10
-2030.264552498772
 20
878.6443164892936
 30
0.0
 11
-2030.264552498772
 21
880.3443164892936
 31
0.0
  0
LINE
  5
318
330
2
100
AcDbEntity
  8
UMRISS05
100
AcDbLine
 10
-2029.664552498772
 20
882.6443164892937
 30
0.0
 11
-2029.664552498772
 21
880.9443164892936
 31
0.0
  0
LINE
  5
319
330
2
100
AcDbEntity
  8
UMRISS05
100
AcDbLine
 10
-2029.664552498772
 20
880.3443164892936
 30
0.0
 11
-2029.664552498772
 21
878.6443164892936
 31
0.0
  0
LINE
  5
31A
330
2
100
AcDbEntity
  8
UMRISS05
100
AcDbLine
 10
-2018.064552498772
 20
883.9943164892938
 30
0.0
 11
-2018.064552498773
 21
929.8943164892937
 31
0.0
  0
LINE
  5
31B
330
2
100
AcDbEntity
  8
UMRISS05
100
AcDbLine
 10
-2024.464552498772
 20
929.8943164892937
 30
0.0
 11
-2024.464552498772
 21
883.9943164892938
 31
0.0
  0
LINE
  5
31C
330
2
100
AcDbEntity
  8
UMRISS05
100
AcDbLine
 10
-2018.064552498772
 20
883.9943164892938
 30
0.0
 11
-2026.064552498773
 21
883.9943164892938
 31
0.0
  0
LINE
  5
31D
330
2
100
AcDbEntity
  8
UMRISS05
100
AcDbLine
 10
-2025.964552498772
 20
929.8943164892937
 30
0.0
 11
-2018.064552498773
 21
929.8943164892937
 31
0.0
  0
LINE
  5
31E
330
2
100
AcDbEntity
  8
UMRISS05
100
AcDbLine
 10
-2020.264552498773
 20
929.8943164892937
 30
0.0
 11
-2020.264552498773
 21
930.8943164892937
 31
0.0
  0
LINE
  5
31F
330
2
100
AcDbEntity
  8
UMRISS05
100
AcDbLine
 10
-2020.264552498773
 20
882.8943164892935
 30
0.0
 11
-2020.264552498773
 21
883.9943164892938
 31
0.0
  0
CIRCLE
  5
320
330
2
100
AcDbEntity
  8
UMRISS05
100
AcDbCircle
 10
-2029.964552498773
 20
979.8943164892934
 30
0.0
 40
2.75
  0
CIRCLE
  5
321
330
2
100
AcDbEntity
  8
UMRISS05
100
AcDbCircle
 10
-2029.964552498773
 20
733.8943164892935
 30
0.0
 40
2.75
  0
CIRCLE
  5
322
330
2
100
AcDbEntity
  8
UMRISS05
100
AcDbCircle
 10
-2029.964552498773
 20
733.8943164892935
 30
0.0
 40
4.75
  0
CIRCLE
  5
323
330
2
100
AcDbEntity
  8
UMRISS05
100
AcDbCircle
 10
-2029.964552498773
 20
979.8943164892934
 30
0.0
 40
4.75
  0
CIRCLE
  5
324
330
2
100
AcDbEntity
  8
UMRISS05
100
AcDbCircle
 10
-2029.964552498773
 20
856.8943164892935
 30
0.0
 40
2.75
  0
CIRCLE
  5
325
330
2
100
AcDbEntity
  8
UMRISS05
100
AcDbCircle
 10
-2029.964552498773
 20
856.8943164892935
 30
0.0
 40
4.75
  0
CIRCLE
  5
326
330
2
100
AcDbEntity
  8
UMRISS05
100
AcDbCircle
 10
-2029.964552498773
 20
880.6443164892938
 30
0.0
 40
4.0
  0
CIRCLE
  5
327
330
2
100
AcDbEntity
  8
UMRISS05
100
AcDbCircle
 10
-2029.964552498773
 20
933.1443164892936
 30
0.0
 40
4.0
  0
LINE
  5
328
330
2
100
AcDbEntity
  8
UMRISS05
100
AcDbLine
 10
-2019.964552498772
 20
721.8943164892936
 30
0.0
 11
-2039.964552498772
 21
721.8943164892936
 31
0.0
  0
LINE
  5
329
330
2
100
AcDbEntity
  8
UMRISS05
100
AcDbLine
 10
-2041.964552498772
 20
991.8943164892937
 30
0.0
 11
-2019.964552498772
 21
991.8943164892937
 31
0.0
  0
ARC
  5
32A
330
2
100
AcDbEntity
  8
UMRISS05
100
AcDbCircle
 10
-2024.550338936399
 20
929.8943164892937
 30
0.0
 40
0.9999999999999069
100
AcDbArc
 50
90.0
 51
135.0000000000073
  0
LINE
  5
32B
330
2
100
AcDbEntity
  8
UMRISS05
100
AcDbLine
 10
-2026.671659279959
 20
929.1872097081066
 30
0.0
 11
-2025.257445717586
 21
930.60142327048
 31
0.0
  0
ARC
  5
32C
330
2
100
AcDbEntity
  8
UMRISS05
100
AcDbCircle
 10
-2027.378766061145
 20
929.8943164892937
 30
0.0
 40
1.000000000000012
100
AcDbArc
 50
270.0
 51
315.0000000000051
  0
LINE
  5
32D
330
2
100
AcDbEntity
  8
UMRISS05
100
AcDbLine
 10
-2034.964552498772
 20
928.8943164892934
 30
0.0
 11
-2027.378766061145
 21
928.8943164892934
 31
0.0
  0
ARC
  5
32E
330
2
100
AcDbEntity
  8
UMRISS05
100
AcDbCircle
 10
-2034.964552498772
 20
927.8943164892936
 30
0.0
 40
0.9999999999999962
100
AcDbArc
 50
90.0
 51
180.0
  0
LINE
  5
32F
330
2
100
AcDbEntity
  8
UMRISS05
100
AcDbLine
 10
-2035.964552498772
 20
885.8943164892936
 30
0.0
 11
-2035.964552498772
 21
927.8943164892936
 31
0.0
  0
ARC
  5
330
330
2
100
AcDbEntity
  8
UMRISS05
100
AcDbCircle
 10
-2034.964552498772
 20
885.8943164892936
 30
0.0
 40
0.9999999999999964
100
AcDbArc
 50
180.0
 51
270.0
  0
LINE
  5
331
330
2
100
AcDbEntity
  8
UMRISS05
100
AcDbLine
 10
-2027.378766061146
 20
884.8943164892936
 30
0.0
 11
-2034.964552498772
 21
884.8943164892936
 31
0.0
  0
ARC
  5
332
330
2
100
AcDbEntity
  8
UMRISS05
100
AcDbCircle
 10
-2027.378766061145
 20
883.8943164892938
 30
0.0
 40
0.9999999999998168
100
AcDbArc
 50
44.99999999999032
 51
90.0
  0
LINE
  5
333
330
2
100
AcDbEntity
  8
UMRISS05
100
AcDbLine
 10
-2025.257445717586
 20
883.1872097081069
 30
0.0
 11
-2026.671659279959
 21
884.6014232704801
 31
0.0
  0
ARC
  5
334
330
2
100
AcDbEntity
  8
UMRISS05
100
AcDbCircle
 10
-2024.550338936399
 20
883.8943164892938
 30
0.0
 40
1.000000000000119
100
AcDbArc
 50
225.0000000000042
 51
270.0
  0
LINE
  5
335
330
2
100
AcDbEntity
  8
UMRISS05
100
AcDbLine
 10
-2017.964552498773
 20
882.8943164892935
 30
0.0
 11
-2024.550338936399
 21
882.8943164892935
 31
0.0
  0
LINE
  5
336
330
2
100
AcDbEntity
  8
UMRISS05
100
AcDbLine
 10
-2022.464552498772
 20
828.3943164892932
 30
0.0
 11
-2022.464552498772
 21
785.394316489293
 31
0.0
  0
ARC
  5
337
330
2
100
AcDbEntity
  8
UMRISS05
100
AcDbCircle
 10
-2024.464552498772
 20
828.3943164892932
 30
0.0
 40
1.99999999999985
100
AcDbArc
 50
0.0
 51
90.0
  0
LINE
  5
338
330
2
100
AcDbEntity
  8
UMRISS05
100
AcDbLine
 10
-2035.464552498773
 20
830.3943164892929
 30
0.0
 11
-2024.464552498772
 21
830.3943164892929
 31
0.0
  0
ARC
  5
339
330
2
100
AcDbEntity
  8
UMRISS05
100
AcDbCircle
 10
-2035.464552498773
 20
828.3943164892932
 30
0.0
 40
1.999999999999806
100
AcDbArc
 50
90.0
 51
180.0
  0
LINE
  5
33A
330
2
100
AcDbEntity
  8
UMRISS05
100
AcDbLine
 10
-2037.464552498772
 20
785.394316489293
 30
0.0
 11
-2037.464552498772
 21
828.3943164892932
 31
0.0
  0
ARC
  5
33B
330
2
100
AcDbEntity
  8
UMRISS05
100
AcDbCircle
 10
-2035.464552498773
 20
785.394316489293
 30
0.0
 40
1.999999999999884
100
AcDbArc
 50
180.0
 51
270.0
  0
LINE
  5
33C
330
2
100
AcDbEntity
  8
UMRISS05
100
AcDbLine
 10
-2024.464552498772
 20
783.394316489293
 30
0.0
 11
-2035.464552498773
 21
783.394316489293
 31
0.0
  0
ARC
  5
33D
330
2
100
AcDbEntity
  8
UMRISS05
100
AcDbCircle
 10
-2024.464552498772
 20
785.394316489293
 30
0.0
 40
1.999999999999495
100
AcDbArc
 50
270.0
 51
0.0
  0
LINE
  5
33E
330
2
100
AcDbEntity
  8
UMRISS05
100
AcDbLine
 10
-2024.550338936399
 20
930.8943164892937
 30
0.0
 11
-2017.964552498773
 21
930.8943164892937
 31
0.0
  0
LINE
  5
33F
330
2
100
AcDbEntity
  8
UMRISS05
100
AcDbLine
 10
-2041.964552498772
 20
991.8943164892937
 30
0.0
 11
-2041.964552498772
 21
721.8943164892936
 31
0.0
  0
LINE
  5
340
330
2
100
AcDbEntity
  8
UMRISS05
100
AcDbLine
 10
-2039.964552498772
 20
721.8943164892936
 30
0.0
 11
-2041.964552498772
 21
721.8943164892936
 31
0.0
  0
LINE
  5
341
330
2
100
AcDbEntity
  8
UMRISS05
100
AcDbLine
 10
-2017.964552498773
 20
721.8943164892936
 30
0.0
 11
-2019.964552498772
 21
721.8943164892936
 31
0.0
  0
LINE
  5
342
330
2
100
AcDbEntity
  8
UMRISS05
100
AcDbLine
 10
-2019.964552498772
 20
991.8943164892937
 30
0.0
 11
-2017.964552498773
 21
991.8943164892937
 31
0.0
  0
LINE
  5
343
330
2
100
AcDbEntity
  8
UMRISS05
100
AcDbLine
 10
-2017.964552498773
 20
721.8943164892936
 30
0.0
 11
-2017.964552498773
 21
882.8943164892935
 31
0.0
  0
LINE
  5
344
330
2
100
AcDbEntity
  8
UMRISS05
100
AcDbLine
 10
-2017.964552498773
 20
930.8943164892937
 30
0.0
 11
-2017.964552498773
 21
991.8943164892937
 31
0.0
  0
CIRCLE
  5
345
330
2
100
AcDbEntity
  8
UMRISS05
100
AcDbCircle
 10
-2029.964552498773
 20
776.894316489293
 30
0.0
 40
1.75
  0
CIRCLE
  5
346
330
2
100
AcDbEntity
  8
UMRISS05
100
AcDbCircle
 10
-2029.964552498773
 20
765.8943164892932
 30
0.0
 40
1.75
  0
LINE
  5
347
330
2
100
AcDbEntity
  8
ACHSEN
 48
2.0
100
AcDbLine
 10
-2037.127119846072
 20
440.8943164892938
 30
0.0
 11
-2100.659796096819
 21
440.8943164892931
 31
0.0
  0
LINE
  5
348
330
2
100
AcDbEntity
  8
ACHSEN
 48
2.0
100
AcDbLine
 10
-1995.183262116977
 20
440.8943164892932
 30
0.0
 11
-2022.327119846071
 21
440.8943164892932
 31
0.0
  0
LINE
  5
349
330
2
100
AcDbEntity
  8
ACHSEN
 48
2.0
100
AcDbLine
 10
-2037.127119846072
 20
502.8943164892938
 30
0.0
 11
-2100.659796096819
 21
502.8943164892933
 31
0.0
  0
LINE
  5
34A
330
2
100
AcDbEntity
  8
ACHSEN
 48
2.0
100
AcDbLine
 10
-1995.183262116977
 20
502.8943164892935
 30
0.0
 11
-2022.327119846071
 21
502.8943164892935
 31
0.0
  0
LINE
  5
34B
330
2
100
AcDbEntity
  8
ACHSEN
 48
2.0
100
AcDbLine
 10
-2037.064552498773
 20
1260.894316489294
 30
0.0
 11
-2100.597228749521
 21
1260.894316489294
 31
0.0
  0
LINE
  5
34C
330
2
100
AcDbEntity
  8
ACHSEN
 48
2.0
100
AcDbLine
 10
-1995.120694769678
 20
1260.894316489294
 30
0.0
 11
-2022.264552498772
 21
1260.894316489294
 31
0.0
  0
LINE
  5
34D
330
2
100
AcDbEntity
  8
ACHSEN
 48
2.0
100
AcDbLine
 10
-2037.064552498773
 20
1322.894316489294
 30
0.0
 11
-2100.597228749521
 21
1322.894316489294
 31
0.0
  0
LINE
  5
34E
330
2
100
AcDbEntity
  8
ACHSEN
 48
2.0
100
AcDbLine
 10
-1995.120694769678
 20
1322.894316489294
 30
0.0
 11
-2022.264552498772
 21
1322.894316489294
 31
0.0
  0
DIMENSION
  5
34F
330
2
100
AcDbEntity
  8
BEMASSUNG
100
AcDbDimension
280
     0
  2
*D15
 10
-2047.923621157899
 20
830.3982144631445
 30
0.0
 11
-2055.021847624475
 21
848.6462654762195
 31
0.0
 71
     5
 42
36.49610202615065
 73
     0
 74
     0
 75
     0
  3
Katalog 09
100
AcDbAlignedDimension
 13
-2052.116881207156
 23
866.8943164892951
 33
0.0
 14
-2034.964552498773
 24
830.3982144631445
 34
0.0
 50
90.0
100
AcDbRotatedDimension
  0
DIMENSION
  5
35C
330
2
100
AcDbEntity
  8
UMRISS05
100
AcDbDimension
280
     0
  2
*D14
 10
-2065.598196262152
 20
937.8943164892938
 30
0.0
 11
-2065.598196262152
 21
902.3943164892944
 31
0.0
 70
   128
 71
     5
 42
70.99999999999863
 73
     0
 74
     0
 75
     0
  3
Katalog 09
100
AcDbAlignedDimension
 13
-2065.598196262152
 23
866.8943164892951
 33
0.0
 14
-2035.664552498774
 24
937.8943164892938
 34
0.0
 50
90.0
100
AcDbRotatedDimension
  0
DIMENSION
  5
369
330
2
100
AcDbEntity
  8
UMRISS05
100
AcDbDimension
280
     0
  2
*D13
 10
-2047.923621157899
 20
875.8943164892933
 30
0.0
 11
-2055.018778047394
 21
871.3943164892938
 31
0.0
 71
     5
 42
8.999999999998067
 73
     0
 74
     0
 75
     0
  3
Katalog 09
100
AcDbAlignedDimension
 13
-2046.316715073741
 23
866.8943164892951
 33
0.0
 14
-2035.664552498774
 24
875.8943164892933
 34
0.0
 50
90.0
100
AcDbRotatedDimension
  0
DIMENSION
  5
378
330
2
100
AcDbEntity
  8
BEMASSUNG
100
AcDbDimension
280
     0
  2
*D12
 10
-2017.964552498773
 20
1148.927100198383
 30
0.0
 11
-2029.964552498773
 21
1155.945517660866
 31
0.0
 71
     5
 42
24.0
 73
     0
 74
     0
 75
     0
  3
Katalog 09
100
AcDbAlignedDimension
 13
-2041.964552498772
 23
1169.394316489294
 33
0.0
 14
-2017.964552498773
 24
1169.394316489294
 34
0.0
100
AcDbRotatedDimension
1001
ACAD_DSTYLE_DIMINSPECT
1070
   396
1000
100%
1070
   395
1000

1070
   394
1070
    33
1070
   393
1070
     0
  0
DIMENSION
  5
387
330
2
100
AcDbEntity
  8
BEMASSUNG
100
AcDbDimension
280
     0
  2
*D18
 10
-2097.241720881106
 20
1354.394316489294
 30
0.0
 11
-2097.241720881107
 21
1278.596914827677
 31
0.0
 70
   128
 71
     5
 42
185.0
 73
     0
 74
     0
 75
     0
  3
Katalog 09
100
AcDbAlignedDimension
 13
-2041.964552498772
 23
1169.394316489294
 33
0.0
 14
-2041.964552498772
 24
1354.394316489294
 34
0.0
 50
90.0
100
AcDbRotatedDimension
  0
LINE
  5
394
330
2
100
AcDbEntity
  8
ACHSEN
 48
2.0
100
AcDbLine
 10
-2000.479277701381
 20
866.8943164892949
 30
0.0
 11
-2100.659796096818
 21
866.8943164892947
 31
0.0
  0
DIMENSION
  5
395
330
2
100
AcDbEntity
  8
UMRISS05
100
AcDbDimension
280
     0
  2
*D17
 10
-2080.298645203686
 20
991.8943164892937
 30
0.0
 11
-2080.298645203686
 21
929.3962654762195
 31
0.0
 70
   128
 71
     5
 42
124.9999999999985
 73
     0
 74
     0
 75
     0
  3
Katalog 09
100
AcDbAlignedDimension
 13
-2080.298645203686
 23
866.8943164892951
 33
0.0
 14
-2041.964552498772
 24
991.8943164892937
 34
0.0
 50
90.0
100
AcDbRotatedDimension
  0
DIMENSION
  5
3A2
330
2
100
AcDbEntity
  8
UMRISS05
100
AcDbDimension
280
     0
  2
*D16
 10
-2097.241720881107
 20
721.8982144631451
 30
0.0
 11
-2097.241720881107
 21
880.0878854514776
 31
0.0
 70
   128
 71
     5
 42
269.9999999999991
 73
     0
 74
     0
 75
     0
  3
Katalog 09
100
AcDbAlignedDimension
 13
-2041.964552498772
 23
991.8982144631442
 33
0.0
 14
-2040.464552498774
 24
721.8982144631451
 34
0.0
 50
90.0
100
AcDbRotatedDimension
  0
ENDSEC
  0
SECTION
  2
OBJECTS
  0
DICTIONARY
  5
C
330
0
100
AcDbDictionary
281
     1
  3
ACAD_COLOR
350
52
  3
ACAD_DETAILVIEWSTYLE
350
3D0
  3
ACAD_FIELDLIST
350
407
  3
ACAD_GROUP
350
3D
  3
ACAD_LAYOUT
350
1A
  3
ACAD_MATERIAL
350
E
  3
ACAD_MLEADERSTYLE
350
55
  3
ACAD_MLINESTYLE
350
3E
  3
ACAD_PLOTSETTINGS
350
3F
  3
ACAD_PLOTSTYLENAME
350
B
  3
ACAD_SCALELIST
350
53
  3
ACAD_SECTIONVIEWSTYLE
350
3DC
  3
ACAD_TABLESTYLE
350
54
  3
ACAD_VISUALSTYLE
350
33
  3
ACDB_RECOMPOSE_DATA
350
41F
  3
AcDbVariableDictionary
350
40B
  3
AcmDictionary
350
3C0
  3
AMG
350
3B1
  0
DICTIONARY
  5
22
330
21
100
AcDbDictionary
280
     1
281
     1
  3
ACAD_LAYERFILTERS
360
23
  3
ACAD_LAYERSTATES
360
24
  3
ACLYDICTIONARY
360
25
  3
AMLAYER_GROUPCOLORS
360
27
  0
DICTIONARY
  5
8
330
7
100
AcDbDictionary
280
     1
281
     1
  3
ADSK_XREC_LAYER_RECONCILED
360
9
  0
DICTIONARY
  5
114
330
113
100
AcDbDictionary
280
     1
281
     1
  3
ADSK_XREC_LAYER_RECONCILED
360
115
  0
DICTIONARY
  5
57
330
56
100
AcDbDictionary
280
     1
281
     1
  3
ADSK_XREC_LAYER_RECONCILED
360
58
  0
DICTIONARY
  5
1BF
330
1BE
100
AcDbDictionary
280
     1
281
     1
  3
ADSK_XREC_LAYER_RECONCILED
360
1C0
  0
DICTIONARY
  5
1C9
330
1C8
100
AcDbDictionary
280
     1
281
     1
  3
ADSK_XREC_LAYER_RECONCILED
360
1CA
  0
DICTIONARY
  5
3
330
2
100
AcDbDictionary
280
     1
281
     1
  3
ACAD_ASSOCNETWORK
360
4
  3
ACAD_SORTENTS
360
3AF
  0
DICTIONARY
  5
52
102
{ACAD_REACTORS
330
C
102
}
330
C
100
AcDbDictionary
281
     1
  0
DICTIONARY
  5
3D0
102
{ACAD_REACTORS
330
C
102
}
330
C
100
AcDbDictionary
281
     1
  3
Imperial24
350
3D7
  3
Metric50
350
3D9
  0
FIELDLIST
  5
407
102
{ACAD_REACTORS
330
C
102
}
330
C
100
AcDbIdSet
 90
        6
330
3D3
330
3D4
330
3D5
330
3DF
330
3E0
330
3E1
100
AcDbFieldList
  0
DICTIONARY
  5
3D
102
{ACAD_REACTORS
330
C
102
}
330
C
100
AcDbDictionary
281
     1
  0
DICTIONARY
  5
1A
102
{ACAD_REACTORS
330
C
102
}
330
C
100
AcDbDictionary
281
     1
  3
Layout1
350
20
  3
Model
350
19
  0
DICTIONARY
  5
E
102
{ACAD_REACTORS
330
C
102
}
330
C
100
AcDbDictionary
281
     1
  3
ByBlock
350
49
  3
ByLayer
350
40
  3
Global
350
D
  0
DICTIONARY
  5
55
102
{ACAD_REACTORS
330
C
102
}
330
C
100
AcDbDictionary
281
     1
  0
DICTIONARY
  5
3E
102
{ACAD_REACTORS
330
C
102
}
330
C
100
AcDbDictionary
281
     1
  3
STANDARD
350
5A
  0
DICTIONARY
  5
3F
102
{ACAD_REACTORS
330
C
102
}
330
C
100
AcDbDictionary
281
     1
  0
ACDBDICTIONARYWDFLT
  5
B
102
{ACAD_REACTORS
330
C
102
}
330
C
100
AcDbDictionary
281
     1
  3
Normal
350
A
100
AcDbDictionaryWithDefault
340
A
  0
DICTIONARY
  5
53
102
{ACAD_REACTORS
330
C
102
}
330
C
100
AcDbDictionary
281
     1
  3
A0
350
5F
  3
A1
350
60
  3
A2
350
61
  3
A3
350
62
  3
A4
350
63
  3
A5
350
64
  3
A6
350
65
  3
A7
350
66
  3
A8
350
67
  3
A9
350
68
  3
B0
350
69
  3
B1
350
6A
  3
B2
350
6B
  3
B3
350
6C
  3
B4
350
6D
  3
B5
350
6E
  3
B6
350
6F
  0
DICTIONARY
  5
3DC
102
{ACAD_REACTORS
330
C
102
}
330
C
100
AcDbDictionary
281
     1
  3
Imperial24
350
3E7
  3
Metric50
350
3E9
  0
DICTIONARY
  5
54
102
{ACAD_REACTORS
330
C
102
}
330
C
100
AcDbDictionary
281
     1
  3
Standard
350
5B
  0
DICTIONARY
  5
33
102
{ACAD_REACTORS
330
C
102
}
330
C
100
AcDbDictionary
281
     1
  3
2dWireframe
350
32
  3
Realistic
350
5D
  3
Wireframe
350
5E
  0
XRECORD
  5
41F
102
{ACAD_REACTORS
330
C
102
}
330
C
100
AcDbXrecord
280
     1
 90
        1
330
5B
330
3D7
330
3D9
330
3E7
330
3E9
  0
DICTIONARY
  5
40B
102
{ACAD_REACTORS
330
C
102
}
330
C
100
AcDbDictionary
281
     1
  3
CANNOSCALE
350
411
  3
CMLEADERSTYLE
350
40D
  3
CTABLESTYLE
350
40C
  3
CVIEWDETAILSTYLE
350
40E
  3
CVIEWSECTIONSTYLE
350
40F
  3
LAYEREVAL
350
413
  3
LAYERNOTIFY
350
414
  3
LIGHTINGUNITS
350
412
  3
MSLTSCALE
350
410
  0
DICTIONARY
  5
3C0
102
{ACAD_REACTORS
330
C
102
}
330
C
100
AcDbDictionary
281
     1
  3
AcmStdDictionary
350
3C1
  0
DICTIONARY
  5
3B1
102
{ACAD_REACTORS
330
C
102
}
330
C
100
AcDbDictionary
281
     1
  3
AcMgSettings
350
3BB
  3
AMGLAYCFG
350
3B0
  0
DICTIONARY
  5
23
102
{ACAD_REACTORS
330
22
102
}
330
22
100
AcDbDictionary
281
     1
  0
DICTIONARY
  5
24
102
{ACAD_REACTORS
330
22
102
}
330
22
100
AcDbDictionary
281
     1
  0
DICTIONARY
  5
25
102
{ACAD_REACTORS
330
22
102
}
330
22
100
AcDbDictionary
281
     1
1001
ACAD
1000
<All
  0
DICTIONARY
  5
27
102
{ACAD_REACTORS
330
22
102
}
330
22
100
AcDbDictionary
280
     1
281
     1
  0
XRECORD
  5
9
102
{ACAD_REACTORS
330
8
102
}
330
8
100
AcDbXrecord
280
     1
290
     1
  0
XRECORD
  5
115
102
{ACAD_REACTORS
330
114
102
}
330
114
100
AcDbXrecord
280
     1
290
     1
  0
XRECORD
  5
58
102
{ACAD_REACTORS
330
57
102
}
330
57
100
AcDbXrecord
280
     1
290
     1
  0
XRECORD
  5
1C0
102
{ACAD_REACTORS
330
1BF
102
}
330
1BF
100
AcDbXrecord
280
     1
290
     1
  0
XRECORD
  5
1CA
102
{ACAD_REACTORS
330
1C9
102
}
330
1C9
100
AcDbXrecord
280
     1
290
     1
  0
DICTIONARY
  5
4
102
{ACAD_REACTORS
330
3
102
}
330
3
100
AcDbDictionary
281
     1
  0
SORTENTSTABLE
  5
3AF
102
{ACAD_REACTORS
330
3
102
}
330
3
100
AcDbSortentsTable
330
2
331
12F
  5
33E
331
12B
  5
342
331
127
  5
346
331
166
  5
307
331
162
  5
30B
331
21D
  5
254
331
19F
  5
2CA
331
1DE
  5
293
331
219
  5
258
331
254
  5
21D
331
1DA
  5
297
331
215
  5
25C
331
211
  5
260
331
250
  5
23B
331
297
  5
1DA
331
293
  5
1DE
331
30D
  5
160
331
28F
  5
1E2
331
309
  5
164
331
2CA
  5
19F
331
305
  5
168
331
344
  5
129
331
28B
  5
1E6
331
301
  5
16C
331
340
  5
12D
331
15E
  5
30F
331
15A
  5
313
331
9D
  5
387
331
117
  5
349
331
156
  5
317
331
152
  5
31B
331
1D6
  5
2A9
331
1D2
  5
2AD
331
20D
  5
264
331
24C
  5
23F
331
1CE
  5
2B1
331
209
  5
268
331
248
  5
243
331
244
  5
247
331
205
  5
26C
331
240
  5
24B
331
201
  5
270
331
287
  5
1EA
331
283
  5
1EE
331
2FD
  5
170
331
33C
  5
131
331
338
  5
135
331
27F
  5
1F2
331
2F9
  5
174
331
2F5
  5
178
331
334
  5
139
331
27B
  5
1F6
331
2F1
  5
17C
331
330
  5
13D
331
14E
  5
31F
331
14A
  5
323
331
146
  5
327
331
C8
  5
35C
331
142
  5
32B
331
1C6
  5
2B5
331
1C2
  5
2C7
331
1FD
  5
274
331
23C
  5
24F
331
183
  5
2EA
331
17F
  5
2EE
331
1F9
  5
278
331
17B
  5
2F2
331
1F5
  5
27C
331
1F1
  5
280
331
2B6
  5
1C5
331
277
  5
1FA
331
273
  5
1FE
331
2B2
  5
1CD
331
2ED
  5
180
331
32C
  5
141
331
328
  5
145
331
26F
  5
202
331
2AE
  5
1D1
331
324
  5
149
331
26B
  5
206
331
2AA
  5
1D5
331
320
  5
14D
331
13E
  5
32F
331
13A
  5
333
331
81
  5
395
331
136
  5
337
331
132
  5
33B
331
177
  5
2F6
331
1ED
  5
284
331
173
  5
2FA
331
1AE
  5
2C9
331
1E9
  5
288
331
16F
  5
2FE
331
16B
  5
302
331
1E5
  5
28C
331
1E1
  5
290
331
267
  5
20A
331
263
  5
20E
331
395
  5
81
331
31C
  5
151
331
318
  5
155
331
25F
  5
212
331
314
  5
159
331
34E
  5
E2
331
25B
  5
216
331
310
  5
15D
331
34A
  5
116
331
12E
  5
33F
331
12A
  5
343
331
AC
  5
378
331
165
  5
308
331
161
  5
30C
331
21C
  5
255
331
1DD
  5
294
331
218
  5
259
331
257
  5
21A
331
253
  5
21E
331
1D9
  5
298
331
214
  5
25D
331
210
  5
261
331
296
  5
1DB
331
292
  5
1DF
331
30C
  5
161
331
308
  5
165
331
347
  5
119
331
28E
  5
1E3
331
2C9
  5
1AE
331
304
  5
169
331
343
  5
12A
331
28A
  5
1E7
331
300
  5
16D
331
15D
  5
310
331
159
  5
314
331
116
  5
34A
331
155
  5
318
331
151
  5
31C
331
112
  5
34B
331
24F
  5
23C
331
1D5
  5
2AA
331
1D1
  5
2AE
331
20C
  5
265
331
24B
  5
240
331
192
  5
2CB
331
1CD
  5
2B2
331
208
  5
269
331
247
  5
244
331
243
  5
248
331
204
  5
26D
331
200
  5
271
331
286
  5
1EB
331
33F
  5
12E
331
33B
  5
132
331
282
  5
1EF
331
2FC
  5
171
331
337
  5
136
331
27E
  5
1F3
331
2F8
  5
175
331
2F4
  5
179
331
333
  5
13A
331
27A
  5
1F7
331
2F0
  5
17D
331
369
  5
B9
331
14D
  5
320
331
149
  5
324
331
145
  5
328
331
141
  5
32C
331
23F
  5
24C
331
1C5
  5
2B6
331
1FC
  5
275
331
23B
  5
250
331
182
  5
2EB
331
17E
  5
2EF
331
1BD
  5
2C8
331
1F8
  5
279
331
17A
  5
2F3
331
1F4
  5
27D
331
1F0
  5
281
331
276
  5
1FB
331
2B5
  5
1C6
331
32F
  5
13E
331
272
  5
1FF
331
2B1
  5
1CE
331
2EC
  5
181
331
32B
  5
142
331
327
  5
146
331
26E
  5
203
331
2AD
  5
1D2
331
2A9
  5
1D6
331
323
  5
14A
331
26A
  5
207
331
13D
  5
330
331
139
  5
334
331
135
  5
338
331
131
  5
33C
331
176
  5
2F7
331
1EC
  5
285
331
172
  5
2FB
331
16E
  5
2FF
331
1E8
  5
289
331
16A
  5
303
331
1E4
  5
28D
331
1E0
  5
291
331
31F
  5
14E
331
266
  5
20B
331
262
  5
20F
331
394
  5
8E
331
31B
  5
152
331
317
  5
156
331
25E
  5
213
331
313
  5
15A
331
34D
  5
F1
331
25A
  5
217
331
349
  5
117
331
12D
  5
340
331
129
  5
344
331
164
  5
309
331
160
  5
30D
331
21B
  5
256
331
1DC
  5
295
331
217
  5
25A
331
256
  5
21B
331
252
  5
22D
331
1D8
  5
2A7
331
213
  5
25E
331
295
  5
1DC
331
30F
  5
15E
331
291
  5
1E0
331
30B
  5
162
331
307
  5
166
331
346
  5
127
331
28D
  5
1E4
331
2C8
  5
1BD
331
303
  5
16A
331
342
  5
12B
331
289
  5
1E8
331
378
  5
AC
331
15C
  5
311
331
E2
  5
34E
331
119
  5
347
331
158
  5
315
331
154
  5
319
331
150
  5
31D
331
1D4
  5
2AB
331
20F
  5
262
331
24E
  5
23D
331
1D0
  5
2AF
331
20B
  5
266
331
24A
  5
241
331
1CC
  5
2B3
331
207
  5
26A
331
246
  5
245
331
242
  5
249
331
203
  5
26E
331
285
  5
1EC
331
2FF
  5
16E
331
33E
  5
12F
331
33A
  5
133
331
281
  5
1F0
331
2FB
  5
172
331
2F7
  5
176
331
336
  5
137
331
27D
  5
1F4
331
2B8
  5
1C3
331
2F3
  5
17A
331
332
  5
13B
331
279
  5
1F8
331
14C
  5
321
331
148
  5
325
331
144
  5
329
331
140
  5
32D
331
1FF
  5
272
331
23E
  5
24D
331
185
  5
2DA
331
1C4
  5
2B7
331
1FB
  5
276
331
23A
  5
251
331
181
  5
2EC
331
17D
  5
2F0
331
1F7
  5
27A
331
179
  5
2F4
331
1F3
  5
27E
331
275
  5
1FC
331
2B4
  5
1C7
331
2EF
  5
17E
331
32E
  5
13F
331
32A
  5
143
331
271
  5
200
331
2B0
  5
1CF
331
2EB
  5
182
331
326
  5
147
331
26D
  5
204
331
2AC
  5
1D3
331
2A8
  5
1D7
331
322
  5
14B
331
35C
  5
C8
331
269
  5
208
331
13C
  5
331
331
138
  5
335
331
134
  5
339
331
F1
  5
34D
331
130
  5
33D
331
1EF
  5
282
331
175
  5
2F8
331
1EB
  5
286
331
171
  5
2FC
331
16D
  5
300
331
1E7
  5
28A
331
169
  5
304
331
1E3
  5
28E
331
265
  5
20C
331
31E
  5
14F
331
261
  5
210
331
2DB
  5
184
331
31A
  5
153
331
316
  5
157
331
25D
  5
214
331
298
  5
1D9
331
312
  5
15B
331
34C
  5
100
331
259
  5
218
331
348
  5
118
331
12C
  5
341
331
128
  5
345
331
167
  5
306
331
163
  5
30A
331
21E
  5
253
331
1DF
  5
292
331
21A
  5
257
331
255
  5
21C
331
1DB
  5
296
331
216
  5
25B
331
251
  5
23A
331
212
  5
25F
331
294
  5
1DD
331
387
  5
9D
331
30E
  5
15F
331
290
  5
1E1
331
30A
  5
163
331
2CB
  5
192
331
306
  5
167
331
345
  5
128
331
28C
  5
1E5
331
302
  5
16B
331
341
  5
12C
331
288
  5
1E9
331
15F
  5
30E
331
15B
  5
312
331
118
  5
348
331
157
  5
316
331
153
  5
31A
331
1D7
  5
2A8
331
1D3
  5
2AC
331
20E
  5
263
331
24D
  5
23E
331
1CF
  5
2B0
331
20A
  5
267
331
249
  5
242
331
206
  5
26B
331
245
  5
246
331
241
  5
24A
331
202
  5
26F
331
2C7
  5
1C2
331
284
  5
1ED
331
2FE
  5
16F
331
33D
  5
130
331
339
  5
134
331
280
  5
1F1
331
2FA
  5
173
331
2F6
  5
177
331
335
  5
138
331
27C
  5
1F5
331
2F2
  5
17B
331
331
  5
13C
331
278
  5
1F9
331
14F
  5
31E
331
D5
  5
34F
331
14B
  5
322
331
147
  5
326
331
8E
  5
394
331
143
  5
32A
331
100
  5
34C
331
1C7
  5
2B4
331
1C3
  5
2B8
331
1FE
  5
273
331
23D
  5
24E
331
184
  5
2DB
331
1FA
  5
277
331
180
  5
2ED
331
17C
  5
2F1
331
1F6
  5
27B
331
178
  5
2F5
331
1F2
  5
27F
331
2B7
  5
1C4
331
274
  5
1FD
331
2B3
  5
1CC
331
2EE
  5
17F
331
32D
  5
140
331
329
  5
144
331
270
  5
201
331
2AF
  5
1D0
331
3A2
  5
70
331
2EA
  5
183
331
325
  5
148
331
26C
  5
205
331
2AB
  5
1D4
331
321
  5
14C
331
268
  5
209
331
13F
  5
32E
331
13B
  5
332
331
137
  5
336
331
B9
  5
369
331
133
  5
33A
331
1EE
  5
283
331
22D
  5
252
331
174
  5
2F9
331
1EA
  5
287
331
170
  5
2FD
331
16C
  5
301
331
1E6
  5
28B
331
168
  5
305
331
1E2
  5
28F
331
2A7
  5
1D8
331
264
  5
20D
331
31D
  5
150
331
319
  5
154
331
260
  5
211
331
2DA
  5
185
331
315
  5
158
331
34F
  5
D5
331
25C
  5
215
331
311
  5
15C
331
34B
  5
112
331
258
  5
219
331
70
  5
3A2
  0
ACDBDETAILVIEWSTYLE
  5
3D7
102
{ACAD_XDICTIONARY
360
417
102
}
102
{ACAD_REACTORS
330
3D0
330
3D6
102
}
330
3D0
100
AcDbModelDocViewStyle
 70
     0
  3
Imperial24
290
     0
100
AcDbDetailViewStyle
 70
     0
 71
     0
 90
        3
 71
     1
340
29
 62
   256
 40
0.24
340
0
 62
   256
 40
0.24
300

 40
0.36
280
     3
 71
     2
340
17
 90
       25
 62
   256
 71
     3
340
29
 62
   256
 40
0.24
 90
        1
 40
0.75
 90
        1
300
%<\AcVar ViewType \f "%tc1">% %<\AcVar ViewDetailId>%\PVARIA %<\AcVar ViewScale \f "%sn">%
 71
     4
340
17
 90
       25
 62
   256
340
17
 90
       25
 62
   256
280
     0
  0
ACDBDETAILVIEWSTYLE
  5
3D9
102
{ACAD_XDICTIONARY
360
419
102
}
102
{ACAD_REACTORS
330
3D0
330
3D8
102
}
330
3D0
100
AcDbModelDocViewStyle
 70
     0
  3
Metric50
290
     0
100
AcDbDetailViewStyle
 70
     0
 71
     0
 90
        3
 71
     1
340
29
 62
   256
 40
5.0
340
0
 62
   256
 40
5.0
300

 40
0.0
280
     1
 71
     2
340
17
 90
       25
 62
   256
 71
     3
340
29
 62
   256
 40
5.0
 90
        0
 40
15.0
 90
        1
300
%<\AcVar ViewDetailId>% (%<\AcVar ViewScale \f "%sn">%)
 71
     4
340
17
 90
       25
 62
   256
340
17
 90
       25
 62
   256
280
     0
  0
LAYOUT
  5
20
102
{ACAD_REACTORS
330
1A
102
}
330
1A
100
AcDbPlotSettings
  1

  2
\\mslklsv1\MSLKLP05
  4

  6

 40
0.0
 41
0.0
 42
0.0
 43
0.0
 44
0.0
 45
0.0
 46
0.0
 47
0.0
 48
0.0
 49
0.0
140
0.0
141
0.0
142
1.0
143
1.0
 70
   688
 72
     0
 73
     0
 74
     5
  7
Datenblatt.ctb
 75
    16
147
1.0
 76
     0
 77
     2
 78
   300
148
0.0
149
0.0
100
AcDbLayout
  1
Layout1
 70
     1
 71
     1
 10
0.0
 20
0.0
 11
12.0
 21
9.0
 12
0.0
 22
0.0
 32
0.0
 14
1.000000000000000E+20
 24
1.000000000000000E+20
 34
1.000000000000000E+20
 15
-1.000000000000000E+20
 25
-1.000000000000000E+20
 35
-1.000000000000000E+20
146
0.0
 13
0.0
 23
0.0
 33
0.0
 16
1.0
 26
0.0
 36
0.0
 17
0.0
 27
1.0
 37
0.0
 76
     0
330
1D
  0
LAYOUT
  5
19
102
{ACAD_XDICTIONARY
360
1B
102
}
102
{ACAD_REACTORS
330
1A
102
}
330
1A
100
AcDbPlotSettings
  1

  2
eDocPrinter PDF Pro.pc3
  4
A4
  6

 40
3.174999952316282
 41
3.174999952316282
 42
3.175003051757812
 43
3.17498779296875
 44
209.9733276367186
 45
296.9683227539062
 46
19.29972539581467
 47
13.89993045488109
 48
286.1646742213279
 49
1137.023721278003
140
451.1885480623432
141
1399.842195376862
142
1.0
143
1.0
 70
 11940
 72
     1
 73
     0
 74
     4
  7
Datenblatt.ctb
 75
     0
147
1.014817848984429
 76
     0
 77
     2
 78
   300
148
-286.1646742213279
149
-1137.023721278003
100
AcDbLayout
  1
Model
 70
     1
 71
     0
 10
0.0
 20
0.0
 11
12.0
 21
9.0
 12
0.0
 22
0.0
 32
0.0
 14
0.0
 24
0.0
 34
0.0
 15
0.0
 25
0.0
 35
0.0
146
0.0
 13
0.0
 23
0.0
 33
0.0
 16
1.0
 26
0.0
 36
0.0
 17
0.0
 27
1.0
 37
0.0
 76
     0
330
2
331
31
1001
ACAD_PSEXT
1000
eDocPrinter PDF Pro.pc3
1000
eDocPrinter PDF Pro
1000
eDocPDF
1000

1070
     0
  0
MATERIAL
  5
49
102
{ACAD_XDICTIONARY
360
4A
102
}
102
{ACAD_REACTORS
330
E
102
}
330
E
100
AcDbMaterial
  1
ByBlock
 72
     0
 43
0.0008202099737533
 43
0.0
 43
0.0
 43
0.0
 43
0.0
 43
0.0008202099737533
 43
0.0
 43
0.0
 43
0.0
 43
0.0
 43
1.0
 43
0.0
 43
0.0
 43
0.0
 43
0.0
 43
1.0
 77
     0
 47
0.0008202099737533
 47
0.0
 47
0.0
 47
0.0
 47
0.0
 47
0.0008202099737533
 47
0.0
 47
0.0
 47
0.0
 47
0.0
 47
1.0
 47
0.0
 47
0.0
 47
0.0
 47
0.0
 47
1.0
171
     0
 49
0.0008202099737533
 49
0.0
 49
0.0
 49
0.0
 49
0.0
 49
0.0008202099737533
 49
0.0
 49
0.0
 49
0.0
 49
0.0
 49
1.0
 49
0.0
 49
0.0
 49
0.0
 49
0.0
 49
1.0
175
     0
142
0.0008202099737533
142
0.0
142
0.0
142
0.0
142
0.0
142
0.0008202099737533
142
0.0
142
0.0
142
0.0
142
0.0
142
1.0
142
0.0
142
0.0
142
0.0
142
0.0
142
1.0
179
     0
144
0.0008202099737533
144
0.0
144
0.0
144
0.0
144
0.0
144
0.0008202099737533
144
0.0
144
0.0
144
0.0
144
0.0
144
1.0
144
0.0
144
0.0
144
0.0
144
0.0
144
1.0
147
0.0008202099737533
147
0.0
147
0.0
147
0.0
147
0.0
147
0.0008202099737533
147
0.0
147
0.0
147
0.0
147
0.0
147
1.0
147
0.0
147
0.0
147
0.0
147
0.0
147
1.0
  0
MATERIAL
  5
40
102
{ACAD_XDICTIONARY
360
41
102
}
102
{ACAD_REACTORS
330
E
102
}
330
E
100
AcDbMaterial
  1
ByLayer
 72
     0
 43
0.0008202099737533
 43
0.0
 43
0.0
 43
0.0
 43
0.0
 43
0.0008202099737533
 43
0.0
 43
0.0
 43
0.0
 43
0.0
 43
1.0
 43
0.0
 43
0.0
 43
0.0
 43
0.0
 43
1.0
 77
     0
 47
0.0008202099737533
 47
0.0
 47
0.0
 47
0.0
 47
0.0
 47
0.0008202099737533
 47
0.0
 47
0.0
 47
0.0
 47
0.0
 47
1.0
 47
0.0
 47
0.0
 47
0.0
 47
0.0
 47
1.0
171
     0
 49
0.0008202099737533
 49
0.0
 49
0.0
 49
0.0
 49
0.0
 49
0.0008202099737533
 49
0.0
 49
0.0
 49
0.0
 49
0.0
 49
1.0
 49
0.0
 49
0.0
 49
0.0
 49
0.0
 49
1.0
175
     0
142
0.0008202099737533
142
0.0
142
0.0
142
0.0
142
0.0
142
0.0008202099737533
142
0.0
142
0.0
142
0.0
142
0.0
142
1.0
142
0.0
142
0.0
142
0.0
142
0.0
142
1.0
179
     0
144
0.0008202099737533
144
0.0
144
0.0
144
0.0
144
0.0
144
0.0008202099737533
144
0.0
144
0.0
144
0.0
144
0.0
144
1.0
144
0.0
144
0.0
144
0.0
144
0.0
144
1.0
147
0.0008202099737533
147
0.0
147
0.0
147
0.0
147
0.0
147
0.0008202099737533
147
0.0
147
0.0
147
0.0
147
0.0
147
1.0
147
0.0
147
0.0
147
0.0
147
0.0
147
1.0
  0
MATERIAL
  5
D
102
{ACAD_XDICTIONARY
360
F
102
}
102
{ACAD_REACTORS
330
E
102
}
330
E
100
AcDbMaterial
  1
Global
 72
     0
 43
0.0008202099737533
 43
0.0
 43
0.0
 43
0.0
 43
0.0
 43
0.0008202099737533
 43
0.0
 43
0.0
 43
0.0
 43
0.0
 43
1.0
 43
0.0
 43
0.0
 43
0.0
 43
0.0
 43
1.0
 77
     0
 47
0.0008202099737533
 47
0.0
 47
0.0
 47
0.0
 47
0.0
 47
0.0008202099737533
 47
0.0
 47
0.0
 47
0.0
 47
0.0
 47
1.0
 47
0.0
 47
0.0
 47
0.0
 47
0.0
 47
1.0
171
     0
 49
0.0008202099737533
 49
0.0
 49
0.0
 49
0.0
 49
0.0
 49
0.0008202099737533
 49
0.0
 49
0.0
 49
0.0
 49
0.0
 49
1.0
 49
0.0
 49
0.0
 49
0.0
 49
0.0
 49
1.0
175
     0
142
0.0008202099737533
142
0.0
142
0.0
142
0.0
142
0.0
142
0.0008202099737533
142
0.0
142
0.0
142
0.0
142
0.0
142
1.0
142
0.0
142
0.0
142
0.0
142
0.0
142
1.0
179
     0
144
0.0008202099737533
144
0.0
144
0.0
144
0.0
144
0.0
144
0.0008202099737533
144
0.0
144
0.0
144
0.0
144
0.0
144
1.0
144
0.0
144
0.0
144
0.0
144
0.0
144
1.0
147
0.0008202099737533
147
0.0
147
0.0
147
0.0
147
0.0
147
0.0008202099737533
147
0.0
147
0.0
147
0.0
147
0.0
147
1.0
147
0.0
147
0.0
147
0.0
147
0.0
147
1.0
  0
MLINESTYLE
  5
5A
102
{ACAD_REACTORS
330
3E
102
}
330
3E
100
AcDbMlineStyle
  2
STANDARD
 70
     0
  3

 62
     0
 51
90.0
 52
90.0
 71
     2
 49
0.5
 62
   256
  6
BYLAYER
 49
-0.5
 62
   256
  6
BYLAYER
  0
ACDBPLACEHOLDER
  5
A
102
{ACAD_REACTORS
330
B
102
}
330
B
  0
SCALE
  5
5F
102
{ACAD_REACTORS
330
53
102
}
330
53
100
AcDbScale
 70
     0
300
1:1
140
1.0
141
1.0
290
     1
  0
SCALE
  5
60
102
{ACAD_REACTORS
330
53
102
}
330
53
100
AcDbScale
 70
     0
300
1:2
140
1.0
141
2.0
290
     0
  0
SCALE
  5
61
102
{ACAD_REACTORS
330
53
102
}
330
53
100
AcDbScale
 70
     0
300
1:4
140
1.0
141
4.0
290
     0
  0
SCALE
  5
62
102
{ACAD_REACTORS
330
53
102
}
330
53
100
AcDbScale
 70
     0
300
1:5
140
1.0
141
5.0
290
     0
  0
SCALE
  5
63
102
{ACAD_REACTORS
330
53
102
}
330
53
100
AcDbScale
 70
     0
300
1:8
140
1.0
141
8.0
290
     0
  0
SCALE
  5
64
102
{ACAD_REACTORS
330
53
102
}
330
53
100
AcDbScale
 70
     0
300
1:10
140
1.0
141
10.0
290
     0
  0
SCALE
  5
65
102
{ACAD_REACTORS
330
53
102
}
330
53
100
AcDbScale
 70
     0
300
1:16
140
1.0
141
16.0
290
     0
  0
SCALE
  5
66
102
{ACAD_REACTORS
330
53
102
}
330
53
100
AcDbScale
 70
     0
300
1:20
140
1.0
141
20.0
290
     0
  0
SCALE
  5
67
102
{ACAD_REACTORS
330
53
102
}
330
53
100
AcDbScale
 70
     0
300
1:30
140
1.0
141
30.0
290
     0
  0
SCALE
  5
68
102
{ACAD_REACTORS
330
53
102
}
330
53
100
AcDbScale
 70
     0
300
1:40
140
1.0
141
40.0
290
     0
  0
SCALE
  5
69
102
{ACAD_REACTORS
330
53
102
}
330
53
100
AcDbScale
 70
     0
300
1:50
140
1.0
141
50.0
290
     0
  0
SCALE
  5
6A
102
{ACAD_REACTORS
330
53
102
}
330
53
100
AcDbScale
 70
     0
300
1:100
140
1.0
141
100.0
290
     0
  0
SCALE
  5
6B
102
{ACAD_REACTORS
330
53
102
}
330
53
100
AcDbScale
 70
     0
300
2:1
140
2.0
141
1.0
290
     0
  0
SCALE
  5
6C
102
{ACAD_REACTORS
330
53
102
}
330
53
100
AcDbScale
 70
     0
300
4:1
140
4.0
141
1.0
290
     0
  0
SCALE
  5
6D
102
{ACAD_REACTORS
330
53
102
}
330
53
100
AcDbScale
 70
     0
300
8:1
140
8.0
141
1.0
290
     0
  0
SCALE
  5
6E
102
{ACAD_REACTORS
330
53
102
}
330
53
100
AcDbScale
 70
     0
300
10:1
140
10.0
141
1.0
290
     0
  0
SCALE
  5
6F
102
{ACAD_REACTORS
330
53
102
}
330
53
100
AcDbScale
 70
     0
300
100:1
140
100.0
141
1.0
290
     0
  0
ACDBSECTIONVIEWSTYLE
  5
3E7
102
{ACAD_XDICTIONARY
360
41B
102
}
102
{ACAD_REACTORS
330
3DC
330
3E6
102
}
330
3DC
100
AcDbModelDocViewStyle
 70
     0
  3
Imperial24
290
     0
100
AcDbSectionViewStyle
 70
     0
 71
     0
 90
       78
 71
     1
340
29
 62
   256
 40
0.24
340
0
340
0
 62
   256
 40
0.24
300
I, O, Q, S, X, Z
 40
0.48
 90
        3
 40
0.18
 90
        1
 71
     2
340
17
 90
       25
 62
   256
340
17
 90
       50
 62
   256
 40
0.24
 40
0.0
 40
0.24
 71
     3
340
29
 62
   256
 40
0.24
 90
        1
 40
0.75
 90
        1
300
%<\AcVar ViewType \f "%tc1">% %<\AcVar ViewSectionStartId>%-%<\AcVar ViewSectionEndId>%\PVARIA %<\AcVar ViewScale \f "%sn">%
 71
     4
 62
   256
 62
   257
300
ANSI31
 40
1.0
 90
        0
290
     0
290
     0
 90
        6
 40
0.0
 40
1.570796326794896
 40
0.2617993877991494
 40
1.308996938995747
 40
-0.2617993877991494
 40
1.832595714594044
  0
ACDBSECTIONVIEWSTYLE
  5
3E9
102
{ACAD_XDICTIONARY
360
41D
102
}
102
{ACAD_REACTORS
330
3DC
330
3E8
102
}
330
3DC
100
AcDbModelDocViewStyle
 70
     0
  3
Metric50
290
     0
100
AcDbSectionViewStyle
 70
     0
 71
     0
 90
      102
 71
     1
340
29
 62
   256
 40
5.0
340
0
340
0
 62
   256
 40
5.0
300
I, O, Q, S, X, Z
 40
10.0
 90
        0
 40
2.5
 90
        0
 71
     2
340
17
 90
       25
 62
   256
340
17
 90
       50
 62
   256
 40
5.0
 40
2.5
 40
5.0
 71
     3
340
29
 62
   256
 40
5.0
 90
        0
 40
15.0
 90
        1
300
%<\AcVar ViewSectionStartId>%-%<\AcVar ViewSectionEndId>% (%<\AcVar ViewScale \f "%sn">%)
 71
     4
 62
   256
 62
   257
300
ANSI31
 40
1.0
 90
        0
290
     0
290
     0
 90
        6
 40
0.0
 40
1.570796326794896
 40
0.2617993877991494
 40
1.308996938995747
 40
-0.2617993877991494
 40
1.832595714594044
  0
TABLESTYLE
  5
5B
102
{ACAD_XDICTIONARY
360
5C
102
}
102
{ACAD_REACTORS
330
54
102
}
330
54
100
AcDbTableStyle
280
     0
  3
Standard
 70
     0
 71
     0
 40
0.06
 41
0.06
280
     0
281
     0
  7
STANDARD
140
0.18
170
     2
 62
     0
 63
     7
283
     0
 90
        4
 91
        0
  1

274
    -2
284
     1
 64
     0
275
    -2
285
     1
 65
     0
276
    -2
286
     1
 66
     0
277
    -2
287
     1
 67
     0
278
    -2
288
     1
 68
     0
279
    -2
289
     1
 69
     0
  7
STANDARD
140
0.25
170
     5
 62
     0
 63
     7
283
     0
 90
        4
 91
        0
  1

274
    -2
284
     1
 64
     0
275
    -2
285
     1
 65
     0
276
    -2
286
     1
 66
     0
277
    -2
287
     1
 67
     0
278
    -2
288
     1
 68
     0
279
    -2
289
     1
 69
     0
  7
STANDARD
140
0.18
170
     5
 62
     0
 63
     7
283
     0
 90
        4
 91
        0
  1

274
    -2
284
     1
 64
     0
275
    -2
285
     1
 65
     0
276
    -2
286
     1
 66
     0
277
    -2
287
     1
 67
     0
278
    -2
288
     1
 68
     0
279
    -2
289
     1
 69
     0
  0
VISUALSTYLE
  5
32
102
{ACAD_REACTORS
330
33
102
}
330
33
100
AcDbVisualStyle
  2

 70
     4
177
     3
291
     0
 70
    58
 90
        0
176
     1
 90
        2
176
     1
 90
        0
176
     1
 90
        0
176
     1
 40
0.6
176
     1
 40
30.0
176
     1
 62
     7
420
 16777215
176
     1
 90
        1
176
     1
 90
        4
176
     1
 62
     7
176
     1
 62
   257
176
     1
 90
        1
176
     1
 90
        1
176
     1
 40
1.0
176
     1
 90
        0
176
     1
 62
   257
176
     1
 40
1.0
176
     1
 90
        1
176
     1
 90
        6
176
     1
 90
        2
176
     1
 62
     7
176
     1
 90
        5
176
     1
 90
        0
176
     1
 90
        0
176
     1
290
     0
176
     1
 90
        1
176
     1
 40
0.0
176
     1
 90
        0
176
     1
290
     1
176
     1
290
     1
176
     1
290
     0
176
     1
290
     0
176
     1
290
     0
176
     1
290
     0
176
     1
290
     0
176
     1
290
     0
176
     1
290
     0
176
     1
 90
       50
176
     1
 40
0.0
176
     1
 40
1.0
176
     1
 90
        0
176
     1
 62
    18
176
     1
 90
       50
176
     1
 90
        3
176
     1
 62
     5
420
      255
176
     1
290
     0
176
     1
 90
       50
176
     1
 90
       50
176
     1
 90
       50
176
     1
290
     0
176
     1
 90
       50
176
     1
 62
   256
176
     0
 40
1.0
176
     0
 90
        2
176
     1
  1
strokes_ogs.tif
176
     1
290
     0
176
     1
 40
1.0
176
     1
 40
1.0
176
     1
1001
ACAD
1000
AcDbSavedByObjectVersion
1070
     0
  0
VISUALSTYLE
  5
5D
102
{ACAD_REACTORS
330
33
102
}
330
33
100
AcDbVisualStyle
  2

 70
     8
177
     3
291
     0
 70
    58
 90
        2
176
     1
 90
        2
176
     1
 90
        0
176
     1
 90
        0
176
     1
 40
0.6
176
     1
 40
30.0
176
     1
 62
     7
420
 16777215
176
     1
 90
        1
176
     1
 90
        0
176
     1
 62
     7
176
     1
 62
   257
176
     1
 90
        1
176
     1
 90
        1
176
     1
 40
1.0
176
     1
 90
        8
176
     1
 62
     8
420
  7895160
176
     1
 40
1.0
176
     1
 90
        1
176
     1
 90
        6
176
     1
 90
        2
176
     1
 62
     7
176
     1
 90
        5
176
     1
 90
        0
176
     1
 90
        0
176
     1
290
     0
176
     1
 90
       13
176
     1
 40
0.0
176
     1
 90
        0
176
     1
290
     0
176
     1
290
     1
176
     1
290
     1
176
     1
290
     0
176
     1
290
     0
176
     1
290
     0
176
     1
290
     0
176
     1
290
     0
176
     1
290
     0
176
     1
 90
       50
176
     1
 40
0.0
176
     1
 40
1.0
176
     1
 90
        0
176
     1
 62
    18
176
     1
 90
       50
176
     1
 90
        3
176
     1
 62
     5
420
      255
176
     1
290
     0
176
     1
 90
       50
176
     1
 90
       50
176
     1
 90
       50
176
     1
290
     0
176
     1
 90
       50
176
     1
 62
   256
176
     0
 40
1.0
176
     0
 90
        2
176
     1
  1
strokes_ogs.tif
176
     1
290
     0
176
     1
 40
1.0
176
     1
 40
1.0
176
     1
1001
ACAD
1000
AcDbSavedByObjectVersion
1070
     0
  0
VISUALSTYLE
  5
5E
102
{ACAD_REACTORS
330
33
102
}
330
33
100
AcDbVisualStyle
  2

 70
     5
177
     3
291
     0
 70
    58
 90
        0
176
     1
 90
        2
176
     1
 90
        0
176
     1
 90
        0
176
     1
 40
0.6
176
     1
 40
30.0
176
     1
 62
     7
420
 16777215
176
     1
 90
        1
176
     1
 90
        4
176
     1
 62
     7
176
     1
 62
   257
176
     1
 90
        1
176
     1
 90
        1
176
     1
 40
1.0
176
     1
 90
        0
176
     1
 62
   257
176
     1
 40
1.0
176
     1
 90
        1
176
     1
 90
        6
176
     1
 90
        2
176
     1
 62
     7
176
     1
 90
        3
176
     1
 90
        0
176
     1
 90
        0
176
     1
290
     0
176
     1
 90
        1
176
     1
 40
0.0
176
     1
 90
        0
176
     1
290
     0
176
     1
290
     1
176
     1
290
     1
176
     1
290
     0
176
     1
290
     0
176
     1
290
     0
176
     1
290
     0
176
     1
290
     0
176
     1
290
     0
176
     1
 90
       50
176
     1
 40
0.0
176
     1
 40
1.0
176
     1
 90
        0
176
     1
 62
    18
176
     1
 90
       50
176
     1
 90
        3
176
     1
 62
     5
420
      255
176
     1
290
     0
176
     1
 90
       50
176
     1
 90
       50
176
     1
 90
       50
176
     1
290
     0
176
     1
 90
       50
176
     1
 62
   256
176
     0
 40
1.0
176
     0
 90
        2
176
     1
  1
strokes_ogs.tif
176
     1
290
     0
176
     1
 40
1.0
176
     1
 40
1.0
176
     1
1001
ACAD
1000
AcDbSavedByObjectVersion
1070
     0
  0
DICTIONARYVAR
  5
411
102
{ACAD_REACTORS
330
40B
102
}
330
40B
100
DictionaryVariables
280
     0
  1
1:1
  0
DICTIONARYVAR
  5
40D
102
{ACAD_REACTORS
330
40B
102
}
330
40B
100
DictionaryVariables
280
     0
  1
STANDARD
  0
DICTIONARYVAR
  5
40C
102
{ACAD_REACTORS
330
40B
102
}
330
40B
100
DictionaryVariables
280
     0
  1
STANDARD
  0
DICTIONARYVAR
  5
40E
102
{ACAD_REACTORS
330
40B
102
}
330
40B
100
DictionaryVariables
280
     0
  1

  0
DICTIONARYVAR
  5
40F
102
{ACAD_REACTORS
330
40B
102
}
330
40B
100
DictionaryVariables
280
     0
  1

  0
DICTIONARYVAR
  5
413
102
{ACAD_REACTORS
330
40B
102
}
330
40B
100
DictionaryVariables
280
     0
  1
1
  0
DICTIONARYVAR
  5
414
102
{ACAD_REACTORS
330
40B
102
}
330
40B
100
DictionaryVariables
280
     0
  1
15
  0
DICTIONARYVAR
  5
412
102
{ACAD_REACTORS
330
40B
102
}
330
40B
100
DictionaryVariables
280
     0
  1
0
  0
DICTIONARYVAR
  5
410
102
{ACAD_REACTORS
330
40B
102
}
330
40B
100
DictionaryVariables
280
     0
  1
0
  0
DICTIONARY
  5
3C1
102
{ACAD_REACTORS
330
3C0
102
}
330
3C0
100
AcDbDictionary
281
     1
  0
DICTIONARY
  5
3BB
102
{ACAD_REACTORS
330
3B1
102
}
330
3B1
100
AcDbDictionary
281
     1
  3
DWGSETTINGS
350
3BA
  3
TRANSSETTINGS
350
3BC
  0
DICTIONARY
  5
417
330
3D7
100
AcDbDictionary
280
     1
281
     1
  3
ACAD_XREC_ROUNDTRIP
360
418
  0
DICTIONARY
  5
419
330
3D9
100
AcDbDictionary
280
     1
281
     1
  3
ACAD_XREC_ROUNDTRIP
360
41A
  0
DICTIONARY
  5
1B
330
19
100
AcDbDictionary
280
     1
281
     1
  0
DICTIONARY
  5
4A
330
49
100
AcDbDictionary
280
     1
281
     1
  3
ACAD_XREC_ROUNDTRIP
360
4B
  3
BUMPTILE
360
4C
  3
DIFFUSETILE
360
4D
  3
OPACITYTILE
360
4E
  3
REFLECTIONTILE
360
4F
  3
REFRACTIONTILE
360
50
  3
SPECULARTILE
360
51
  0
DICTIONARY
  5
41
330
40
100
AcDbDictionary
280
     1
281
     1
  3
ACAD_XREC_ROUNDTRIP
360
42
  3
BUMPTILE
360
43
  3
DIFFUSETILE
360
44
  3
OPACITYTILE
360
45
  3
REFLECTIONTILE
360
46
  3
REFRACTIONTILE
360
47
  3
SPECULARTILE
360
48
  0
DICTIONARY
  5
F
330
D
100
AcDbDictionary
280
     1
281
     1
  3
ACAD_XREC_ROUNDTRIP
360
10
  3
BUMPTILE
360
11
  3
DIFFUSETILE
360
12
  3
OPACITYTILE
360
13
  3
REFLECTIONTILE
360
14
  3
REFRACTIONTILE
360
15
  3
SPECULARTILE
360
16
  0
DICTIONARY
  5
41B
330
3E7
100
AcDbDictionary
280
     1
281
     1
  3
ACAD_XREC_ROUNDTRIP
360
41C
  0
DICTIONARY
  5
41D
330
3E9
100
AcDbDictionary
280
     1
281
     1
  3
ACAD_XREC_ROUNDTRIP
360
41E
  0
DICTIONARY
  5
5C
330
5B
100
AcDbDictionary
280
     1
281
     1
  3
ACAD_ROUNDTRIP_2008_TABLESTYLE_CELLSTYLEMAP
360
415
  0
XRECORD
  5
418
102
{ACAD_REACTORS
330
417
102
}
330
417
100
AcDbXrecord
280
     1
102
DISPLAYNAME
  1
Imperial24
102
FLAGS
 90
        0
  0
XRECORD
  5
41A
102
{ACAD_REACTORS
330
419
102
}
330
419
100
AcDbXrecord
280
     1
102
DISPLAYNAME
  1
Metric50
102
FLAGS
 90
        0
  0
XRECORD
  5
4B
102
{ACAD_REACTORS
330
4A
102
}
330
4A
100
AcDbXrecord
280
     1
102
MATERIAL
148
0.0
149
0.0
149
0.0
 93
        0
 94
      127
282
     0
 72
     0
 77
     0
171
     0
175
     0
179
     0
273
     0
  0
XRECORD
  5
4C
102
{ACAD_REACTORS
330
4A
102
}
330
4A
100
AcDbXrecord
280
     1
270
     1
271
     1
  0
XRECORD
  5
4D
102
{ACAD_REACTORS
330
4A
102
}
330
4A
100
AcDbXrecord
280
     1
270
     1
271
     1
  0
XRECORD
  5
4E
102
{ACAD_REACTORS
330
4A
102
}
330
4A
100
AcDbXrecord
280
     1
270
     1
271
     1
  0
XRECORD
  5
4F
102
{ACAD_REACTORS
330
4A
102
}
330
4A
100
AcDbXrecord
280
     1
270
     1
271
     1
  0
XRECORD
  5
50
102
{ACAD_REACTORS
330
4A
102
}
330
4A
100
AcDbXrecord
280
     1
270
     1
271
     1
  0
XRECORD
  5
51
102
{ACAD_REACTORS
330
4A
102
}
330
4A
100
AcDbXrecord
280
     1
270
     1
271
     1
  0
XRECORD
  5
42
102
{ACAD_REACTORS
330
41
102
}
330
41
100
AcDbXrecord
280
     1
102
MATERIAL
148
0.0
149
0.0
149
0.0
 93
        0
 94
      127
282
     0
 72
     0
 77
     0
171
     0
175
     0
179
     0
273
     0
  0
XRECORD
  5
43
102
{ACAD_REACTORS
330
41
102
}
330
41
100
AcDbXrecord
280
     1
270
     1
271
     1
  0
XRECORD
  5
44
102
{ACAD_REACTORS
330
41
102
}
330
41
100
AcDbXrecord
280
     1
270
     1
271
     1
  0
XRECORD
  5
45
102
{ACAD_REACTORS
330
41
102
}
330
41
100
AcDbXrecord
280
     1
270
     1
271
     1
  0
XRECORD
  5
46
102
{ACAD_REACTORS
330
41
102
}
330
41
100
AcDbXrecord
280
     1
270
     1
271
     1
  0
XRECORD
  5
47
102
{ACAD_REACTORS
330
41
102
}
330
41
100
AcDbXrecord
280
     1
270
     1
271
     1
  0
XRECORD
  5
48
102
{ACAD_REACTORS
330
41
102
}
330
41
100
AcDbXrecord
280
     1
270
     1
271
     1
  0
XRECORD
  5
10
102
{ACAD_REACTORS
330
F
102
}
330
F
100
AcDbXrecord
280
     1
102
MATERIAL
148
0.0
149
0.0
149
0.0
 93
        0
 94
      127
282
     0
 72
     0
 77
     0
171
     0
175
     0
179
     0
273
     0
  0
XRECORD
  5
11
102
{ACAD_REACTORS
330
F
102
}
330
F
100
AcDbXrecord
280
     1
270
     1
271
     1
  0
XRECORD
  5
12
102
{ACAD_REACTORS
330
F
102
}
330
F
100
AcDbXrecord
280
     1
270
     1
271
     1
  0
XRECORD
  5
13
102
{ACAD_REACTORS
330
F
102
}
330
F
100
AcDbXrecord
280
     1
270
     1
271
     1
  0
XRECORD
  5
14
102
{ACAD_REACTORS
330
F
102
}
330
F
100
AcDbXrecord
280
     1
270
     1
271
     1
  0
XRECORD
  5
15
102
{ACAD_REACTORS
330
F
102
}
330
F
100
AcDbXrecord
280
     1
270
     1
271
     1
  0
XRECORD
  5
16
102
{ACAD_REACTORS
330
F
102
}
330
F
100
AcDbXrecord
280
     1
270
     1
271
     1
  0
XRECORD
  5
41C
102
{ACAD_REACTORS
330
41B
102
}
330
41B
100
AcDbXrecord
280
     1
102
DISPLAYNAME
  1
Imperial24
102
FLAGS
 90
        0
  0
XRECORD
  5
41E
102
{ACAD_REACTORS
330
41D
102
}
330
41D
100
AcDbXrecord
280
     1
102
DISPLAYNAME
  1
Metric50
102
FLAGS
 90
        0
  0
CELLSTYLEMAP
  5
415
102
{ACAD_REACTORS
330
5C
102
}
330
5C
100
AcDbCellStyleMap
 90
        3
300
CELLSTYLE
  1
TABLEFORMAT_BEGIN
 90
        5
170
     1
 91
        0
 92
    32768
 62
   257
 93
        1
300
CONTENTFORMAT
  1
CONTENTFORMAT_BEGIN
 90
        0
 91
        0
 92
        4
 93
        0
300

 40
0.0
140
1.0
 94
        5
 62
     0
340
29
144
0.25
309
CONTENTFORMAT_END
171
     1
301
MARGIN
  1
CELLMARGIN_BEGIN
 40
0.06
 40
0.06
 40
0.06
 40
0.06
 40
0.18
 40
0.18
309
CELLMARGIN_END
 94
        6
 95
        1
302
GRIDFORMAT
  1
GRIDFORMAT_BEGIN
 90
        0
 91
        1
 62
     0
 92
       -2
340
0
 93
        0
 40
0.045
309
GRIDFORMAT_END
 95
        2
302
GRIDFORMAT
  1
GRIDFORMAT_BEGIN
 90
        0
 91
        1
 62
     0
 92
       -2
340
0
 93
        0
 40
0.045
309
GRIDFORMAT_END
 95
        4
302
GRIDFORMAT
  1
GRIDFORMAT_BEGIN
 90
        0
 91
        1
 62
     0
 92
       -2
340
0
 93
        0
 40
0.045
309
GRIDFORMAT_END
 95
        8
302
GRIDFORMAT
  1
GRIDFORMAT_BEGIN
 90
        0
 91
        1
 62
     0
 92
       -2
340
0
 93
        0
 40
0.045
309
GRIDFORMAT_END
 95
       16
302
GRIDFORMAT
  1
GRIDFORMAT_BEGIN
 90
        0
 91
        1
 62
     0
 92
       -2
340
0
 93
        0
 40
0.045
309
GRIDFORMAT_END
 95
       32
302
GRIDFORMAT
  1
GRIDFORMAT_BEGIN
 90
        0
 91
        1
 62
     0
 92
       -2
340
0
 93
        0
 40
0.045
309
GRIDFORMAT_END
309
TABLEFORMAT_END
  1
CELLSTYLE_BEGIN
 90
        1
 91
        1
300
_TITLE
309
CELLSTYLE_END
300
CELLSTYLE
  1
TABLEFORMAT_BEGIN
 90
        5
170
     1
 91
        0
 92
        0
 62
   257
 93
        1
300
CONTENTFORMAT
  1
CONTENTFORMAT_BEGIN
 90
        0
 91
        0
 92
        4
 93
        0
300

 40
0.0
140
1.0
 94
        5
 62
     0
340
29
144
0.18
309
CONTENTFORMAT_END
171
     1
301
MARGIN
  1
CELLMARGIN_BEGIN
 40
0.06
 40
0.06
 40
0.06
 40
0.06
 40
0.18
 40
0.18
309
CELLMARGIN_END
 94
        6
 95
        1
302
GRIDFORMAT
  1
GRIDFORMAT_BEGIN
 90
        0
 91
        1
 62
     0
 92
       -2
340
0
 93
        0
 40
0.045
309
GRIDFORMAT_END
 95
        2
302
GRIDFORMAT
  1
GRIDFORMAT_BEGIN
 90
        0
 91
        1
 62
     0
 92
       -2
340
0
 93
        0
 40
0.045
309
GRIDFORMAT_END
 95
        4
302
GRIDFORMAT
  1
GRIDFORMAT_BEGIN
 90
        0
 91
        1
 62
     0
 92
       -2
340
0
 93
        0
 40
0.045
309
GRIDFORMAT_END
 95
        8
302
GRIDFORMAT
  1
GRIDFORMAT_BEGIN
 90
        0
 91
        1
 62
     0
 92
       -2
340
0
 93
        0
 40
0.045
309
GRIDFORMAT_END
 95
       16
302
GRIDFORMAT
  1
GRIDFORMAT_BEGIN
 90
        0
 91
        1
 62
     0
 92
       -2
340
0
 93
        0
 40
0.045
309
GRIDFORMAT_END
 95
       32
302
GRIDFORMAT
  1
GRIDFORMAT_BEGIN
 90
        0
 91
        1
 62
     0
 92
       -2
340
0
 93
        0
 40
0.045
309
GRIDFORMAT_END
309
TABLEFORMAT_END
  1
CELLSTYLE_BEGIN
 90
        2
 91
        1
300
_HEADER
309
CELLSTYLE_END
300
CELLSTYLE
  1
TABLEFORMAT_BEGIN
 90
        5
170
     1
 91
        0
 92
        0
 62
   257
 93
        1
300
CONTENTFORMAT
  1
CONTENTFORMAT_BEGIN
 90
        0
 91
        0
 92
        4
 93
        0
300

 40
0.0
140
1.0
 94
        2
 62
     0
340
29
144
0.18
309
CONTENTFORMAT_END
171
     1
301
MARGIN
  1
CELLMARGIN_BEGIN
 40
0.06
 40
0.06
 40
0.06
 40
0.06
 40
0.18
 40
0.18
309
CELLMARGIN_END
 94
        6
 95
        1
302
GRIDFORMAT
  1
GRIDFORMAT_BEGIN
 90
        0
 91
        1
 62
     0
 92
       -2
340
0
 93
        0
 40
0.045
309
GRIDFORMAT_END
 95
        2
302
GRIDFORMAT
  1
GRIDFORMAT_BEGIN
 90
        0
 91
        1
 62
     0
 92
       -2
340
0
 93
        0
 40
0.045
309
GRIDFORMAT_END
 95
        4
302
GRIDFORMAT
  1
GRIDFORMAT_BEGIN
 90
        0
 91
        1
 62
     0
 92
       -2
340
0
 93
        0
 40
0.045
309
GRIDFORMAT_END
 95
        8
302
GRIDFORMAT
  1
GRIDFORMAT_BEGIN
 90
        0
 91
        1
 62
     0
 92
       -2
340
0
 93
        0
 40
0.045
309
GRIDFORMAT_END
 95
       16
302
GRIDFORMAT
  1
GRIDFORMAT_BEGIN
 90
        0
 91
        1
 62
     0
 92
       -2
340
0
 93
        0
 40
0.045
309
GRIDFORMAT_END
 95
       32
302
GRIDFORMAT
  1
GRIDFORMAT_BEGIN
 90
        0
 91
        1
 62
     0
 92
       -2
340
0
 93
        0
 40
0.045
309
GRIDFORMAT_END
309
TABLEFORMAT_END
  1
CELLSTYLE_BEGIN
 90
        3
 91
        2
300
_DATA
309
CELLSTYLE_END
  0
ENDSEC
  0
EOF
