  0
SECTION
  2
HEADER
  9
$ACADVER
  1
AC1024
  9
$ACADMAINTVER
 70
   157
  9
$DWGCODEPAGE
  3
ANSI_1252
  9
$LASTSAVEDBY
  1
phiose
  9
$INSBASE
 10
0.0
 20
0.0
 30
0.0
  9
$EXTMIN
 10
122.0932019898821
 20
113.8146675340072
 30
-0.0000000000000053
  9
$EXTMAX
 10
251.2969979449374
 20
1483.41614754139
 30
0.0000000000000099
  9
$LIMMIN
 10
0.0
 20
0.0
  9
$LIMMAX
 10
500.0
 20
600.0
  9
$ORTHOMODE
 70
     1
  9
$REGENMODE
 70
     1
  9
$FILLMODE
 70
     1
  9
$QTEXTMODE
 70
     0
  9
$MIRRTEXT
 70
     1
  9
$LTSCALE
 40
1.0
  9
$ATTMODE
 70
     1
  9
$TEXTSIZE
 40
2.399999999999999
  9
$TRACEWID
 40
0.05
  9
$TEXTSTYLE
  7
NORM
  9
$CLAYER
  8
SCHRAFFUR
  9
$CELTYPE
  6
BYLAYER
  9
$CECOLOR
 62
   256
  9
$CELTSCALE
 40
1.0
  9
$DISPSILH
 70
     0
  9
$DIMSCALE
 40
1.0
  9
$DIMASZ
 40
12.0
  9
$DIMEXO
 40
0.0
  9
$DIMDLI
 40
8.0
  9
$DIMRND
 40
0.0
  9
$DIMDLE
 40
0.0
  9
$DIMEXE
 40
1.0
  9
$DIMTP
 40
0.0
  9
$DIMTM
 40
0.0
  9
$DIMTXT
 40
9.0
  9
$DIMCEN
 40
1.5
  9
$DIMTSZ
 40
0.0
  9
$DIMTOL
 70
     0
  9
$DIMLIM
 70
     0
  9
$DIMTIH
 70
     0
  9
$DIMTOH
 70
     0
  9
$DIMSE1
 70
     0
  9
$DIMSE2
 70
     0
  9
$DIMTAD
 70
     1
  9
$DIMZIN
 70
     8
  9
$DIMBLK
  1

  9
$DIMASO
 70
     1
  9
$DIMSHO
 70
     1
  9
$DIMPOST
  1

  9
$DIMAPOST
  1

  9
$DIMALT
 70
     0
  9
$DIMALTD
 70
     2
  9
$DIMALTF
 40
25.39999999999999
  9
$DIMLFAC
 40
1.0
  9
$DIMTOFL
 70
     1
  9
$DIMTVP
 40
0.0
  9
$DIMTIX
 70
     1
  9
$DIMSOXD
 70
     0
  9
$DIMSAH
 70
     0
  9
$DIMBLK1
  1

  9
$DIMBLK2
  1

  9
$DIMSTYLE
  2
Katalog 09
  9
$DIMCLRD
 70
     2
  9
$DIMCLRE
 70
     2
  9
$DIMCLRT
 70
     3
  9
$DIMTFAC
 40
0.428571428571429
  9
$DIMGAP
 40
2.5
  9
$DIMJUST
 70
     0
  9
$DIMSD1
 70
     0
  9
$DIMSD2
 70
     0
  9
$DIMTOLJ
 70
     1
  9
$DIMTZIN
 70
     8
  9
$DIMALTZ
 70
     8
  9
$DIMALTTZ
 70
     8
  9
$DIMUPT
 70
     0
  9
$DIMDEC
 70
     2
  9
$DIMTDEC
 70
     2
  9
$DIMALTU
 70
     2
  9
$DIMALTTD
 70
     2
  9
$DIMTXSTY
  7
ARIAL-STANDARD
  9
$DIMAUNIT
 70
     0
  9
$DIMADEC
 70
     0
  9
$DIMALTRND
 40
0.0
  9
$DIMAZIN
 70
     0
  9
$DIMDSEP
 70
    46
  9
$DIMATFIT
 70
     3
  9
$DIMFRAC
 70
     0
  9
$DIMLDRBLK
  1

  9
$DIMLUNIT
 70
     2
  9
$DIMLWD
 70
    -2
  9
$DIMLWE
 70
    -2
  9
$DIMTMOVE
 70
     0
  9
$DIMFXL
 40
1.0
  9
$DIMFXLON
 70
     0
  9
$DIMJOGANG
 40
0.7853981633974483
  9
$DIMTFILL
 70
     0
  9
$DIMTFILLCLR
 70
     0
  9
$DIMARCSYM
 70
     0
  9
$DIMLTYPE
  6

  9
$DIMLTEX1
  6

  9
$DIMLTEX2
  6

  9
$DIMTXTDIRECTION
 70
     0
  9
$LUNITS
 70
     2
  9
$LUPREC
 70
     2
  9
$SKETCHINC
 40
0.1
  9
$FILLETRAD
 40
0.3
  9
$AUNITS
 70
     0
  9
$AUPREC
 70
     0
  9
$MENU
  1
.
  9
$ELEVATION
 40
0.0
  9
$PELEVATION
 40
0.0
  9
$THICKNESS
 40
0.0
  9
$LIMCHECK
 70
     0
  9
$CHAMFERA
 40
0.5
  9
$CHAMFERB
 40
0.5
  9
$CHAMFERC
 40
1.0
  9
$CHAMFERD
 40
0.0
  9
$SKPOLY
 70
     0
  9
$TDCREATE
 40
2451305.426412037
  9
$TDUCREATE
 40
2451305.343078704
  9
$TDUPDATE
 40
2457906.632769225
  9
$TDUUPDATE
 40
2457906.549435891
  9
$TDINDWG
 40
9.1379423958
  9
$TDUSRTIMER
 40
9.1379420370
  9
$USRTIMER
 70
     1
  9
$ANGBASE
 50
0.0
  9
$ANGDIR
 70
     0
  9
$PDMODE
 70
     0
  9
$PDSIZE
 40
0.0
  9
$PLINEWID
 40
0.0
  9
$SPLFRAME
 70
     0
  9
$SPLINETYPE
 70
     6
  9
$SPLINESEGS
 70
     8
  9
$HANDSEED
  5
855
  9
$SURFTAB1
 70
     6
  9
$SURFTAB2
 70
     6
  9
$SURFTYPE
 70
     6
  9
$SURFU
 70
     6
  9
$SURFV
 70
     6
  9
$UCSBASE
  2

  9
$UCSNAME
  2

  9
$UCSORG
 10
0.0
 20
0.0
 30
0.0
  9
$UCSXDIR
 10
1.0
 20
0.0
 30
0.0
  9
$UCSYDIR
 10
0.0
 20
1.0
 30
0.0
  9
$UCSORTHOREF
  2

  9
$UCSORTHOVIEW
 70
     0
  9
$UCSORGTOP
 10
0.0
 20
0.0
 30
0.0
  9
$UCSORGBOTTOM
 10
0.0
 20
0.0
 30
0.0
  9
$UCSORGLEFT
 10
0.0
 20
0.0
 30
0.0
  9
$UCSORGRIGHT
 10
0.0
 20
0.0
 30
0.0
  9
$UCSORGFRONT
 10
0.0
 20
0.0
 30
0.0
  9
$UCSORGBACK
 10
0.0
 20
0.0
 30
0.0
  9
$PUCSBASE
  2

  9
$PUCSNAME
  2

  9
$PUCSORG
 10
0.0
 20
0.0
 30
0.0
  9
$PUCSXDIR
 10
1.0
 20
0.0
 30
0.0
  9
$PUCSYDIR
 10
0.0
 20
1.0
 30
0.0
  9
$PUCSORTHOREF
  2

  9
$PUCSORTHOVIEW
 70
     0
  9
$PUCSORGTOP
 10
0.0
 20
0.0
 30
0.0
  9
$PUCSORGBOTTOM
 10
0.0
 20
0.0
 30
0.0
  9
$PUCSORGLEFT
 10
0.0
 20
0.0
 30
0.0
  9
$PUCSORGRIGHT
 10
0.0
 20
0.0
 30
0.0
  9
$PUCSORGFRONT
 10
0.0
 20
0.0
 30
0.0
  9
$PUCSORGBACK
 10
0.0
 20
0.0
 30
0.0
  9
$USERI1
 70
     0
  9
$USERI2
 70
     0
  9
$USERI3
 70
     0
  9
$USERI4
 70
     0
  9
$USERI5
 70
     0
  9
$USERR1
 40
0.0
  9
$USERR2
 40
0.0
  9
$USERR3
 40
0.0
  9
$USERR4
 40
0.0
  9
$USERR5
 40
0.0
  9
$WORLDVIEW
 70
     1
  9
$SHADEDGE
 70
     3
  9
$SHADEDIF
 70
    70
  9
$TILEMODE
 70
     1
  9
$MAXACTVP
 70
    48
  9
$PINSBASE
 10
0.0
 20
0.0
 30
0.0
  9
$PLIMCHECK
 70
     0
  9
$PEXTMIN
 10
1.000000000000000E+20
 20
1.000000000000000E+20
 30
1.000000000000000E+20
  9
$PEXTMAX
 10
-1.000000000000000E+20
 20
-1.000000000000000E+20
 30
-1.000000000000000E+20
  9
$PLIMMIN
 10
0.0
 20
0.0
  9
$PLIMMAX
 10
12.0
 20
9.0
  9
$UNITMODE
 70
     0
  9
$VISRETAIN
 70
     1
  9
$PLINEGEN
 70
     0
  9
$PSLTSCALE
 70
     1
  9
$TREEDEPTH
 70
  3020
  9
$CMLSTYLE
  2
STANDARD
  9
$CMLJUST
 70
     0
  9
$CMLSCALE
 40
1.0
  9
$PROXYGRAPHICS
 70
     1
  9
$MEASUREMENT
 70
     1
  9
$CELWEIGHT
370
    -1
  9
$ENDCAPS
280
     0
  9
$JOINSTYLE
280
     0
  9
$LWDISPLAY
290
     0
  9
$INSUNITS
 70
     4
  9
$HYPERLINKBASE
  1

  9
$STYLESHEET
  1

  9
$XEDIT
290
     1
  9
$CEPSNTYPE
380
     0
  9
$PSTYLEMODE
290
     1
  9
$FINGERPRINTGUID
  2
{4127A4C3-9591-4D2E-9B4E-5240422E538C}
  9
$VERSIONGUID
  2
{A433FDE7-747C-46D7-9947-AF2AA520FF15}
  9
$EXTNAMES
290
     1
  9
$PSVPSCALE
 40
0.0
  9
$OLESTARTUP
290
     0
  9
$SORTENTS
280
   127
  9
$INDEXCTL
280
     0
  9
$HIDETEXT
280
     1
  9
$XCLIPFRAME
280
     0
  9
$HALOGAP
280
     0
  9
$OBSCOLOR
 70
   257
  9
$OBSLTYPE
280
     0
  9
$INTERSECTIONDISPLAY
280
     0
  9
$INTERSECTIONCOLOR
 70
   257
  9
$DIMASSOC
280
     1
  9
$PROJECTNAME
  1

  9
$CAMERADISPLAY
290
     0
  9
$LENSLENGTH
 40
50.0
  9
$CAMERAHEIGHT
 40
0.0
  9
$STEPSPERSEC
 40
2.0
  9
$STEPSIZE
 40
6.0
  9
$3DDWFPREC
 40
2.0
  9
$PSOLWIDTH
 40
0.25
  9
$PSOLHEIGHT
 40
4.0
  9
$LOFTANG1
 40
1.570796326794896
  9
$LOFTANG2
 40
1.570796326794896
  9
$LOFTMAG1
 40
0.0
  9
$LOFTMAG2
 40
0.0
  9
$LOFTPARAM
 70
     7
  9
$LOFTNORMALS
280
     1
  9
$LATITUDE
 40
37.795
  9
$LONGITUDE
 40
-122.394
  9
$NORTHDIRECTION
 40
0.0
  9
$TIMEZONE
 70
 -8000
  9
$LIGHTGLYPHDISPLAY
280
     1
  9
$TILEMODELIGHTSYNCH
280
     1
  9
$CMATERIAL
347
4F
  9
$SOLIDHIST
280
     1
  9
$SHOWHIST
280
     1
  9
$DWFFRAME
280
     2
  9
$DGNFRAME
280
     0
  9
$REALWORLDSCALE
290
     1
  9
$INTERFERECOLOR
 62
     1
  9
$INTERFEREOBJVS
345
69
  9
$INTERFEREVPVS
346
6A
  9
$CSHADOW
280
     0
  9
$SHADOWPLANELOCATION
 40
0.0
  0
ENDSEC
  0
SECTION
  2
CLASSES
  0
CLASS
  1
ACDBDICTIONARYWDFLT
  2
AcDbDictionaryWithDefault
  3
ObjectDBX Classes
 90
        0
 91
        1
280
     0
281
     0
  0
CLASS
  1
TABLESTYLE
  2
AcDbTableStyle
  3
ObjectDBX Classes
 90
     4095
 91
        1
280
     0
281
     0
  0
CLASS
  1
ACME_DOCUMENT
  2
AcMeDbDoc
  3
AcMeServices
 90
     1024
 91
        1
280
     0
281
     0
  0
CLASS
  1
AMGSETTINGSOBJ
  2
AmgSettingsObj
  3
"AcadM|Product Description: AutoCAD Mechanical|Company: Autodesk, Inc."
 90
     1024
 91
        2
280
     0
281
     0
  0
CLASS
  1
ACMESCOPE
  2
AcMeScope
  3
AcMeServices
 90
     1024
 91
        1
280
     0
281
     0
  0
CLASS
  1
ACMECOMMANDHISTORY
  2
AcMeCommandHistory
  3
AcMeServices
 90
     1024
 91
        1
280
     0
281
     0
  0
CLASS
  1
ACIMSYSVARMAN
  2
AcImSysVarManager
  3
AcMeServices
 90
     1024
 91
        3
280
     0
281
     0
  0
CLASS
  1
ACIMINTSYSVAR
  2
AcImIntSysVar
  3
AcMeServices
 90
     1024
 91
        2
280
     0
281
     0
  0
CLASS
  1
ACMEDRAWINGMAN
  2
AcMeDrawingMan
  3
AcMeServices
 90
     1024
 91
        0
280
     0
281
     0
  0
CLASS
  1
ACMEVIEW
  2
AcMeView
  3
AcMeServices
 90
     1024
 91
        0
280
     0
281
     0
  0
CLASS
  1
ACDBENTITYCACHE
  2
AcMeEntityCache
  3
AcMeServices
 90
     1024
 91
        1
280
     0
281
     0
  0
CLASS
  1
GSMANAGER
  2
AcMeGSManager
  3
AcMeServices
 90
     1024
 91
        0
280
     1
281
     0
  0
CLASS
  1
AMDTINTERNALREACTOR
  2
AmdtInternalReactor
  3
AcMeServices
 90
     1024
 91
        0
280
     0
281
     0
  0
CLASS
  1
ACMESTATEMGR
  2
AcMeStateMgr
  3
AcMeServices
 90
     1024
 91
        1
280
     0
281
     0
  0
CLASS
  1
ACGREFMASTER
  2
AcGrefMaster
  3
AcAttribServices
 90
     1024
 91
        1
280
     0
281
     0
  0
CLASS
  1
AM_DRAWING_MGR
  2
AcDmDwgMgr
  3
AcMechDwgViewMgmt
 90
     1024
 91
        0
280
     0
281
     0
  0
CLASS
  1
AM_DWG_DOCUMENT
  2
AcDmDwgDocument
  3
AcMechDwgViewMgmt
 90
     1024
 91
        0
280
     0
281
     0
  0
CLASS
  1
AM_DWG_SHEET
  2
AcDmSheet
  3
AcMechDwgViewMgmt
 90
     1024
 91
        0
280
     0
281
     0
  0
CLASS
  1
AM_VIEWDIMPARMAP
  2
AcDmViewDimParMap
  3
AcMechDwgViewMgmt
 90
     1024
 91
        0
280
     0
281
     0
  0
CLASS
  1
ACIMREALSYSVAR
  2
AcImRealSysVar
  3
AcMeServices
 90
     1024
 91
        0
280
     0
281
     0
  0
CLASS
  1
AM_DWGMGR_NAME
  2
AcDmDwgMgrName
  3
AcMechDwgViewMgmt
 90
     1024
 91
        0
280
     0
281
     0
  0
CLASS
  1
ACME_DATABASE
  2
AcMeDbDatabase
  3
AcMeServices
 90
     1024
 91
        1
280
     0
281
     0
  0
CLASS
  1
ACRFINSADJUSTERMGR
  2
AcRfInsAdjusterMgr
  3
AcMeServices
 90
     1024
 91
        1
280
     0
281
     0
  0
CLASS
  1
ACGREFACADMASTER
  2
AcGrefacadMaster
  3
AcGrefServices
 90
     1024
 91
        1
280
     0
281
     0
  0
CLASS
  1
AMDTMENUSTATEMGR
  2
AmdtMenuStateMgr
  3
McadcomServices
 90
     1024
 91
        1
280
     0
281
     0
  0
CLASS
  1
AMDTMCOMMENUSTATE
  2
AmdtMcomMenuState
  3
McadcomServices
 90
     1024
 91
        1
280
     0
281
     0
  0
CLASS
  1
AMIMASTER
  2
AmiMaster
  3
AmiServices
 90
     1024
 91
        1
280
     0
281
     0
  0
CLASS
  1
MAPIAMMOUDLE
  2
MApiAmModule
  3
MApiAmServices
 90
     1024
 91
        1
280
     0
281
     0
  0
CLASS
  1
ACIMSTRSYSVAR
  2
AcImStrSysVar
  3
AcMeServices
 90
     1024
 91
        5
280
     0
281
     0
  0
CLASS
  1
AMDTADMENUSTATE
  2
AmdtAdMenuState
  3
DesignerServices
 90
     1024
 91
        0
280
     1
281
     0
  0
CLASS
  1
ADAPPL
  2
AcAdAppl
  3
DesignerAssemblies
 90
     1024
 91
        0
280
     0
281
     0
  0
CLASS
  1
DEPMGR
  2
AcAdDepMgr
  3
DesignerAssemblies
 90
     1024
 91
        0
280
     0
281
     0
  0
CLASS
  1
PARAMMGR
  2
AcAdParamMgr
  3
DesignerAssemblies
 90
     1024
 91
        0
280
     0
281
     0
  0
CLASS
  1
PARAMSCOPE
  2
AcAdParamScope
  3
DesignerAssemblies
 90
     1024
 91
        0
280
     0
281
     0
  0
CLASS
  1
NAMEDAPPL
  2
AcAdNamedAppl
  3
DesignerAssemblies
 90
     1024
 91
        0
280
     0
281
     0
  0
CLASS
  1
AMDTDMMENUSTATE
  2
AmdtDmMenuState
  3
AcMechDwgViewMgmt
 90
     1024
 91
        0
280
     1
281
     0
  0
CLASS
  1
AMDTAMMENUSTATE
  2
AmdtAmMenuState
  3
DesignerAssemblies
 90
     1024
 91
        1
280
     0
281
     0
  0
CLASS
  1
ACAMPROJECT
  2
AcAmProject
  3
DesignerAssemblies
 90
     1024
 91
        1
280
     0
281
     0
  0
CLASS
  1
ACAMGRCOMPDEF
  2
AcAmGrCompDef
  3
DesignerAssemblies
 90
     1024
 91
        1
280
     0
281
     0
  0
CLASS
  1
ACCMCONTEXT
  2
AcCmContext
  3
DesignerAssemblies
 90
     1024
 91
        0
280
     0
281
     0
  0
CLASS
  1
ACAMCOMPDEF
  2
AcAmCompDef
  3
DesignerAssemblies
 90
     1024
 91
        1
280
     0
281
     0
  0
CLASS
  1
ACAMCOMPDEFMGR
  2
AcAmCompDefMgr
  3
DesignerAssemblies
 90
     1024
 91
        1
280
     0
281
     0
  0
CLASS
  1
AMCONTEXTMGR
  2
AcAmContextMgr
  3
DesignerAssemblies
 90
     1024
 91
        1
280
     0
281
     0
  0
CLASS
  1
ACAMCONTEXTMODELER
  2
AcAmContextModeler
  3
DesignerAssemblies
 90
     1024
 91
        1
280
     0
281
     0
  0
CLASS
  1
ACMDATADICTIONARY
  2
AcmDataDictionary
  3
"AcmSymBB|Product Description: AutoCAD Mechanical|Company: Autodesk, Inc."
 90
     1024
 91
        1
280
     0
281
     0
  0
CLASS
  1
CATALOGSTATE
  2
AcAmCatalogState
  3
DesignerAssemblies
 90
     1024
 91
        0
280
     0
281
     0
  0
CLASS
  1
ACAMGRCOMPDEFSET
  2
AcAmGrCompDefSet
  3
DesignerAssemblies
 90
     1024
 91
        1
280
     0
281
     0
  0
CLASS
  1
AMDTBROWSERDBTAB
  2
AmdtBrowserDbTab
  3
McadcomServices
 90
     1024
 91
        1
280
     0
281
     0
  0
CLASS
  1
CBROWSERAPPOBJECT
  2
CBrowserAppObject
  3
McadcomServices
 90
     1024
 91
        2
280
     0
281
     0
  0
CLASS
  1
DM_PLACEHOLDER
  2
AcDmSelsetPlaceholder
  3
McadcomServices
 90
     1024
 91
        1
280
     0
281
     0
  0
CLASS
  1
ACMSTANDARDANSI
  2
AcmStandardANSI
  3
"Amdt_StdImp|Product Description: AutoCAD Mechanical|Company: Autodesk, Inc."
 90
     1024
 91
        0
280
     0
281
     0
  0
CLASS
  1
AMGOBJPROPCFG
  2
AmgObjPropCfg
  3
"AmgLay|Product Description: AutoCAD Mechanical|Company: Autodesk, Inc."
 90
     1024
 91
        1
280
     0
281
     0
  0
CLASS
  1
ACMSURFSTANDARDANSI
  2
AcmSurfTextStdANSI
  3
"Amdt_StdImp|Product Description: AutoCAD Mechanical|Company: Autodesk, Inc."
 90
     1024
 91
        0
280
     0
281
     0
  0
CLASS
  1
ACMFCFSTANDARDANSI
  2
AcmFCFStdANSI
  3
"Amdt_StdImp|Product Description: AutoCAD Mechanical|Company: Autodesk, Inc."
 90
     1024
 91
        0
280
     0
281
     0
  0
CLASS
  1
ACMWELDSTANDARDANSI
  2
AcmWeldingStdANSI
  3
"Amdt_StdImp|Product Description: AutoCAD Mechanical|Company: Autodesk, Inc."
 90
     1024
 91
        0
280
     0
281
     0
  0
CLASS
  1
ACMIDSTANDARDANSI
  2
AcmIdStdANSI
  3
"Amdt_StdImp|Product Description: AutoCAD Mechanical|Company: Autodesk, Inc."
 90
     1024
 91
        0
280
     0
281
     0
  0
CLASS
  1
ACMDATUMSTANDARDANSI
  2
AcmDatumStdANSI
  3
"Amdt_StdImp|Product Description: AutoCAD Mechanical|Company: Autodesk, Inc."
 90
     1024
 91
        0
280
     0
281
     0
  0
CLASS
  1
ACMBOMSTANDARDANSI
  2
AcmBOMStdANSI
  3
"Amdt_StdImp|Product Description: AutoCAD Mechanical|Company: Autodesk, Inc."
 90
     1024
 91
        0
280
     0
281
     0
  0
CLASS
  1
ACMDETAILSTANDARDANSI
  2
AmdtDetailSymStdANSI
  3
"Amdt_StdImp|Product Description: AutoCAD Mechanical|Company: Autodesk, Inc."
 90
     1024
 91
        0
280
     0
281
     0
  0
CLASS
  1
ACMSECTIONSTANDARDANSI
  2
AmdtSectionSymStdANSI
  3
"Amdt_StdImp|Product Description: AutoCAD Mechanical|Company: Autodesk, Inc."
 90
     1024
 91
        0
280
     0
281
     0
  0
CLASS
  1
ACMCENTERLINESTANDARDANSI
  2
AmdtCenterLineStdANSI
  3
"Amdt_StdImp|Product Description: AutoCAD Mechanical|Company: Autodesk, Inc."
 90
     1024
 91
        0
280
     0
281
     0
  0
CLASS
  1
ACMTHREADLINESTANDARDANSI
  2
AmdtThreadLineStdANSI
  3
"Amdt_StdImp|Product Description: AutoCAD Mechanical|Company: Autodesk, Inc."
 90
     1024
 91
        0
280
     0
281
     0
  0
CLASS
  1
ACMNOTESTANDARDANSI
  2
AmdtNoteStdANSI
  3
"Amdt_StdImp|Product Description: AutoCAD Mechanical|Company: Autodesk, Inc."
 90
     1024
 91
        0
280
     0
281
     0
  0
CLASS
  1
AMDTNOTETEMPLATEDB
  2
AmdtNoteTemplateDB
  3
AcmSymBB|Product Description: AutoCAD Mechanical|Company: Autodesk, Inc.
 90
     1024
 91
        7
280
     0
281
     0
  0
CLASS
  1
ACAMGLAYSTD
  2
AcAmgLayStd
  3
"AmgLay|Product Description: AutoCAD Mechanical|Company: Autodesk, Inc."
 90
     1024
 91
        1
280
     0
281
     0
  0
CLASS
  1
ACAMGDIMSTD
  2
AcAmgDimStd
  3
"AmgDim|Product Description: AutoCAD Mechanical|Company: Autodesk, Inc."
 90
     1024
 91
        1
280
     0
281
     0
  0
CLASS
  1
ACAMGHOLECHARTSTDANSI
  2
AcAmgHoleChartStdANSI
  3
AmgDim|Product Description: AutoCAD Mechanical|Company: Autodesk, Inc.
 90
     1024
 91
        0
280
     0
281
     0
  0
CLASS
  1
ACAMGTITLESTD
  2
AcAmgTitleStd
  3
"AmgTitle|Product Description: AutoCAD Mechanical|Company: Autodesk, Inc."
 90
     1024
 91
        1
280
     0
281
     0
  0
CLASS
  1
ACAMGFILTERDAT
  2
AcAmgFilterDat
  3
"AcadM|Product Description: AutoCAD Mechanical|Company: Autodesk, Inc."
 90
     1024
 91
        0
280
     0
281
     0
  0
CLASS
  1
PLOTSETTINGS
  2
AcDbPlotSettings
  3
ObjectDBX Classes
 90
        0
 91
        0
280
     0
281
     0
  0
CLASS
  1
ACMSTANDARDDIN
  2
AcmStandardDIN
  3
"Amdt_StdImp|Product Description: AutoCAD Mechanical|Company: Autodesk, Inc."
 90
     1024
 91
        1
280
     0
281
     0
  0
CLASS
  1
AMDTEDGESTANDARDDIN
  2
AmdtEdgeStdDIN
  3
"Amdt_StdImp|Product Description: AutoCAD Mechanical|Company: Autodesk, Inc."
 90
     1024
 91
        0
280
     0
281
     0
  0
CLASS
  1
ACMSURFSTANDARDDIN
  2
AcmSurfTextStdDIN
  3
"Amdt_StdImp|Product Description: AutoCAD Mechanical|Company: Autodesk, Inc."
 90
     1024
 91
        0
280
     0
281
     0
  0
CLASS
  1
ACMFCFSTANDARDDIN
  2
AcmFCFStdDIN
  3
"Amdt_StdImp|Product Description: AutoCAD Mechanical|Company: Autodesk, Inc."
 90
     1024
 91
        0
280
     0
281
     0
  0
CLASS
  1
ACMWELDSTANDARDDIN
  2
AcmWeldingStdDIN
  3
"Amdt_StdImp|Product Description: AutoCAD Mechanical|Company: Autodesk, Inc."
 90
     1024
 91
        1
280
     0
281
     0
  0
CLASS
  1
ACMIDSTANDARDDIN
  2
AcmIdStdDIN
  3
"Amdt_StdImp|Product Description: AutoCAD Mechanical|Company: Autodesk, Inc."
 90
     1024
 91
        0
280
     0
281
     0
  0
CLASS
  1
ACMDATUMSTANDARDDIN
  2
AcmDatumStdDIN
  3
"Amdt_StdImp|Product Description: AutoCAD Mechanical|Company: Autodesk, Inc."
 90
     1024
 91
        1
280
     0
281
     0
  0
CLASS
  1
ACMBOMSTANDARDDIN
  2
AcmBOMStdDIN
  3
"Amdt_StdImp|Product Description: AutoCAD Mechanical|Company: Autodesk, Inc."
 90
     1024
 91
        1
280
     0
281
     0
  0
CLASS
  1
ACMDETAILSTANDARDDIN
  2
AmdtDetailSymStdDIN
  3
"Amdt_StdImp|Product Description: AutoCAD Mechanical|Company: Autodesk, Inc."
 90
     1024
 91
        1
280
     0
281
     0
  0
CLASS
  1
ACMSECTIONSTANDARDDIN
  2
AmdtSectionSymStdDIN
  3
"Amdt_StdImp|Product Description: AutoCAD Mechanical|Company: Autodesk, Inc."
 90
     1024
 91
        1
280
     0
281
     0
  0
CLASS
  1
ACMCENTERLINESTANDARDDIN
  2
AmdtCenterLineStdDIN
  3
"Amdt_StdImp|Product Description: AutoCAD Mechanical|Company: Autodesk, Inc."
 90
     1024
 91
        1
280
     0
281
     0
  0
CLASS
  1
ACMNOTESTANDARDDIN
  2
AmdtNoteStdDIN
  3
"Amdt_StdImp|Product Description: AutoCAD Mechanical|Company: Autodesk, Inc."
 90
     1024
 91
        1
280
     0
281
     0
  0
CLASS
  1
ACAMGHOLECHARTSTDDIN
  2
AcAmgHoleChartStdDIN
  3
AmgDim|Product Description: AutoCAD Mechanical|Company: Autodesk, Inc.
 90
     1024
 91
        1
280
     0
281
     0
  0
CLASS
  1
ACMTHREADLINESTANDARDDIN
  2
AmdtThreadLineStdDIN
  3
"Amdt_StdImp|Product Description: AutoCAD Mechanical|Company: Autodesk, Inc."
 90
     1024
 91
        1
280
     0
281
     0
  0
CLASS
  1
ACMDATAENTRYBLOCK
  2
AcmDataEntryBlock
  3
AcmSymBB|Product Description: AutoCAD Mechanical|Company: Autodesk, Inc.
 90
     1024
 91
        0
280
     0
281
     0
  0
CLASS
  1
DICTIONARYVAR
  2
AcDbDictionaryVar
  3
ObjectDBX Classes
 90
        0
 91
        9
280
     0
281
     0
  0
CLASS
  1
SORTENTSTABLE
  2
AcDbSortentsTable
  3
ObjectDBX Classes
 90
        0
 91
        1
280
     0
281
     0
  0
CLASS
  1
MATERIAL
  2
AcDbMaterial
  3
ObjectDBX Classes
 90
     1153
 91
        3
280
     0
281
     0
  0
CLASS
  1
VISUALSTYLE
  2
AcDbVisualStyle
  3
ObjectDBX Classes
 90
     4095
 91
       24
280
     0
281
     0
  0
CLASS
  1
SCALE
  2
AcDbScale
  3
ObjectDBX Classes
 90
     1153
 91
       17
280
     0
281
     0
  0
CLASS
  1
MLEADERSTYLE
  2
AcDbMLeaderStyle
  3
ACDB_MLEADERSTYLE_CLASS
 90
     4095
 91
        1
280
     0
281
     0
  0
CLASS
  1
ACMTAPERSTANDARDANSI
  2
AcmTaperStdANSI
  3
"Amdt_StdImp|Product Description: AutoCAD Mechanical|Company: Autodesk, Inc."
 90
     1024
 91
        0
280
     0
281
     0
  0
CLASS
  1
ACMANOOTATIONVIEWSTANDARDANSI
  2
AmdtAnViewStdANSI
  3
"Amdt_StdImp|Product Description: AutoCAD Mechanical|Company: Autodesk, Inc."
 90
     1024
 91
        0
280
     0
281
     0
  0
CLASS
  1
ACMTAPERSTANDARDDIN
  2
AcmTaperStdDIN
  3
"Amdt_StdImp|Product Description: AutoCAD Mechanical|Company: Autodesk, Inc."
 90
     1024
 91
        1
280
     0
281
     0
  0
CLASS
  1
ACMANOOTATIONVIEWSTANDARDDIN
  2
AmdtAnViewStdDIN
  3
"Amdt_StdImp|Product Description: AutoCAD Mechanical|Company: Autodesk, Inc."
 90
     1024
 91
        1
280
     0
281
     0
  0
CLASS
  1
ACRFATTGENMGR
  2
AcRfAttGeneralMgr
  3
AcAttribServices
 90
     1024
 91
        0
280
     0
281
     0
  0
CLASS
  1
ACRFMCADAPIATTHOLDER
  2
AcRfMCADAPIAttHolder
  3
AcAttribServices
 90
     1024
 91
        0
280
     0
281
     0
  0
CLASS
  1
AMDTSYSATTR
  2
AmdtSystemAttribute
  3
AcAttribServices
 90
     1024
 91
        0
280
     0
281
     0
  0
CLASS
  1
CAMSSTRUCTBTNSTATE
  2
StructBtnState
  3
DesignerAssemblies
 90
     1024
 91
        0
280
     0
281
     0
  0
CLASS
  1
CELLSTYLEMAP
  2
AcDbCellStyleMap
  3
ObjectDBX Classes
 90
     1152
 91
        2
280
     0
281
     0
  0
CLASS
  1
AEC_REFEDIT_STATUS_TRACKER
  2
AecDbRefEditStatusTracker
  3
AecArchBase70|Product Desc: Autodesk Architectural Desktop 2007 |Company: Autodesk,Inc. |WEB Address: www.autodesk.com
 90
      129
 91
        0
280
     1
281
     0
  0
CLASS
  1
NPOCOLLECTION
  2
AcDbImpNonPersistentObjectsCollection
  3
ObjectDBX Classes
 90
     1153
 91
        0
280
     0
281
     0
  0
CLASS
  1
ACDBLINERES
  2
AcDbLineRes
  3
AcGrefServices
 90
     1024
 91
        0
280
     0
281
     0
  0
CLASS
  1
AMDTNOTE
  2
AmdtNote
  3
"AcmSymBB|Product Description: AutoCAD Mechanical|Company: Autodesk, Inc."
 90
     1024
 91
        0
280
     0
281
     1
  0
CLASS
  1
AMDTFORMULAUPDATEDISPATCHER
  2
AmdtFormulaUpdateDispatcher
  3
AcMeServices
 90
     1024
 91
        0
280
     0
281
     0
  0
CLASS
  1
AMDTEDGESTANDARDDIN13715
  2
AmdtEdgeStdDIN13715
  3
"Amdt_StdImp|Product Description: AutoCAD Mechanical|Company: Autodesk, Inc."
 90
     1024
 91
        1
280
     0
281
     0
  0
CLASS
  1
ACMSURFSTANDARDDIN2002
  2
AcmSurfTextStdDIN2002
  3
"Amdt_StdImp|Product Description: AutoCAD Mechanical|Company: Autodesk, Inc."
 90
     1024
 91
        1
280
     0
281
     0
  0
CLASS
  1
ACMDIMBREAKPERSREACTOR
  2
AcmDimBreakPersReactor
  3
AmgDim|Product Description: AutoCAD Mechanical|Company: Autodesk, Inc.
 90
     1024
 91
        0
280
     0
281
     0
  0
CLASS
  1
ACDBASSOCNETWORK
  2
AcDbAssocNetwork
  3
ObjectDBX Classes
 90
     1025
 91
        0
280
     0
281
     0
  0
CLASS
  1
ACDBASSOC2DCONSTRAINTGROUP
  2
AcDbAssoc2dConstraintGroup
  3
ObjectDBX Classes
 90
     1025
 91
        0
280
     0
281
     0
  0
CLASS
  1
ACDBASSOCGEOMDEPENDENCY
  2
AcDbAssocGeomDependency
  3
ObjectDBX Classes
 90
     1025
 91
        0
280
     0
281
     0
  0
CLASS
  1
ACMFCFSTANDARDDIN2008
  2
AcmFCFStdDIN2008
  3
"Amdt_StdImp|Product Description: AutoCAD Mechanical|Company: Autodesk, Inc."
 90
     1024
 91
        1
280
     0
281
     0
  0
CLASS
  1
ACMIDSTANDARDDIN2008
  2
AcmIdStdDIN2008
  3
"Amdt_StdImp|Product Description: AutoCAD Mechanical|Company: Autodesk, Inc."
 90
     1024
 91
        1
280
     0
281
     0
  0
CLASS
  1
ACDB_DYNAMICBLOCKPURGEPREVENTER_VERSION
  2
AcDbDynamicBlockPurgePreventer
  3
ObjectDBX Classes
 90
     1153
 91
        0
280
     0
281
     0
  0
CLASS
  1
ACDBSECTIONVIEWSTYLE
  2
AcDbSectionViewStyle
  3
ObjectDBX Classes
 90
     1025
 91
        3
280
     0
281
     0
  0
CLASS
  1
ACDBDETAILVIEWSTYLE
  2
AcDbDetailViewStyle
  3
ObjectDBX Classes
 90
     1025
 91
        3
280
     0
281
     0
  0
CLASS
  1
ACMSECTIONSTANDARDCUSTOM
  2
AmdtSectionSymStdCustom
  3
"Amdt_StdImp|Product Description: AutoCAD Mechanical|Company: Autodesk, Inc."
 90
     1024
 91
        2
280
     0
281
     0
  0
CLASS
  1
ACMDETAILTANDARDCUSTOM
  2
AmdtDetailSymStdCustom
  3
"Amdt_StdImp|Product Description: AutoCAD Mechanical|Company: Autodesk, Inc."
 90
     1024
 91
        2
280
     0
281
     0
  0
CLASS
  1
FIELD
  2
AcDbField
  3
ObjectDBX Classes
 90
     1152
 91
        6
280
     0
281
     0
  0
CLASS
  1
FIELDLIST
  2
AcDbFieldList
  3
ObjectDBX Classes
 90
     1152
 91
        1
280
     0
281
     0
  0
ENDSEC
  0
SECTION
  2
TABLES
  0
TABLE
  2
VPORT
  5
2F
330
0
100
AcDbSymbolTable
 70
     1
  0
VPORT
  5
30
330
2F
100
AcDbSymbolTableRecord
100
AcDbViewportTableRecord
  2
*Active
 70
     0
 10
0.0
 20
0.0
 11
1.0
 21
1.0
 12
186.6950999674097
 22
798.6154075376985
 13
0.0
 23
0.0
 14
10.0
 24
10.0
 15
10.0
 25
10.0
 16
0.0
 26
0.0
 36
1.0
 17
0.0
 27
0.0
 37
0.0
 40
1376.577378886877
 41
2.056924384027187
 42
50.0
 43
0.0
 44
0.0
 50
0.0
 51
0.0
 71
     0
 72
  5000
 73
     1
 74
     0
 75
     0
 76
     0
 77
     0
 78
     0
281
     0
 65
     0
110
0.0
120
0.0
130
0.0
111
1.0
121
0.0
131
0.0
112
0.0
122
1.0
132
0.0
 79
     0
146
0.0
348
31
 60
     3
 61
     5
292
     1
282
     1
141
0.0
142
0.0
 63
   250
421
  3355443
1001
ACAD_NAV_VCDISPLAY
1070
     3
  0
ENDTAB
  0
TABLE
  2
LTYPE
  5
2A
330
0
100
AcDbSymbolTable
 70
    21
  0
LTYPE
  5
2B
330
2A
100
AcDbSymbolTableRecord
100
AcDbLinetypeTableRecord
  2
BYBLOCK
 70
     0
  3

 72
    65
 73
     0
 40
0.0
  0
LTYPE
  5
2C
330
2A
100
AcDbSymbolTableRecord
100
AcDbLinetypeTableRecord
  2
BYLAYER
 70
     0
  3

 72
    65
 73
     0
 40
0.0
  0
LTYPE
  5
20
330
2A
100
AcDbSymbolTableRecord
100
AcDbLinetypeTableRecord
  2
CONTINUOUS
 70
     0
  3
Solid line
 72
    65
 73
     0
 40
0.0
  0
LTYPE
  5
87
330
2A
100
AcDbSymbolTableRecord
100
AcDbLinetypeTableRecord
  2
STRICHPUNKT2
 70
     0
  3
Strichpunkt (.5x) _._._._._._._._._._._._._._._
 72
    65
 73
     4
 40
12.7
 49
6.349999999999997
 74
     0
 49
-3.174999999999998
 74
     0
 49
0.0
 74
     0
 49
-3.174999999999998
 74
     0
  0
LTYPE
  5
2F1
330
2A
100
AcDbSymbolTableRecord
100
AcDbLinetypeTableRecord
  2
ACDINWELD
 70
     0
  3
_ _ _ _ _
 72
    65
 73
     2
 40
2.0
 49
2.0
 74
     0
 49
-1.0
 74
     0
  0
LTYPE
  5
2F5
330
2A
100
AcDbSymbolTableRecord
100
AcDbLinetypeTableRecord
  2
ACDINTGB
 70
     0
  3
__ . . __ . .
 72
    65
 73
     6
 40
9.0
 49
4.0
 74
     0
 49
-1.0
 74
     0
 49
1.0
 74
     0
 49
-1.0
 74
     0
 49
1.0
 74
     0
 49
-1.0
 74
     0
  0
LTYPE
  5
2F3
330
2A
100
AcDbSymbolTableRecord
100
AcDbLinetypeTableRecord
  2
ACDINTGL
 70
     0
  3
_ _ _ _ _
 72
    65
 73
     2
 40
3.0
 49
2.0
 74
     0
 49
-1.0
 74
     0
  0
LTYPE
  5
E0
330
2A
100
AcDbSymbolTableRecord
100
AcDbLinetypeTableRecord
  2
DASHED
 70
     0
  3
Dashed __ __ __ __ __ __ __ __ __ __ __ __ __ _
 72
    65
 73
     2
 40
19.05
 49
12.7
 74
     0
 49
-6.349999999999997
 74
     0
  0
LTYPE
  5
2DE
330
2A
100
AcDbSymbolTableRecord
100
AcDbLinetypeTableRecord
  2
Amconstr
 70
     0
  3
_______________________
 72
    65
 73
     2
 40
9999.0
 49
9999.0
 74
     0
 49
0.0
 74
     0
  0
LTYPE
  5
2E1
330
2A
100
AcDbSymbolTableRecord
100
AcDbLinetypeTableRecord
  2
Amzigzag
 70
     0
  3
/\/-/\/-/\/-/\/-/\/-/\/
 72
    65
 73
     2
 40
11.0001
 49
0.0001
 74
     4
 75
   135
340
2E2
 46
0.04
 50
0.0
 44
0.0
 45
0.0
 49
-11.0
 74
     0
  0
LTYPE
  5
2DB
330
2A
100
AcDbSymbolTableRecord
100
AcDbLinetypeTableRecord
  2
AM_DIN_F_W050
 70
     0
  3
__ __ __ __ __ __ __ __ __ __ __ __ __ __ __
 72
    65
 73
     2
 40
6.25
 49
4.75
 74
     0
 49
-1.5
 74
     0
  0
LTYPE
  5
2DC
330
2A
100
AcDbSymbolTableRecord
100
AcDbLinetypeTableRecord
  2
AM_DIN_G_W050
 70
     0
  3
____ . ____ . ____ . ____ . ____ . ____ . ____
 72
    65
 73
     4
 40
13.75
 49
9.75
 74
     0
 49
-1.5
 74
     0
 49
1.0
 74
     0
 49
-1.5
 74
     0
  0
LTYPE
  5
2DD
330
2A
100
AcDbSymbolTableRecord
100
AcDbLinetypeTableRecord
  2
AM_DIN_K_W050
 70
     0
  3
_____ . . _____ . . _____ . . ____ .. ____
 72
    65
 73
     6
 40
16.25
 49
9.75
 74
     0
 49
-1.5
 74
     0
 49
1.0
 74
     0
 49
-1.5
 74
     0
 49
1.0
 74
     0
 49
-1.5
 74
     0
  0
LTYPE
  5
2DF
330
2A
100
AcDbSymbolTableRecord
100
AcDbLinetypeTableRecord
  2
AM_DIN_G_W050x2
 70
     0
  3
__ . __ . __ . __ . __ . __
 72
    65
 73
     4
 40
6.875
 49
4.75
 74
     0
 49
-0.875
 74
     0
 49
0.375
 74
     0
 49
-0.875
 74
     0
  0
LTYPE
  5
2E0
330
2A
100
AcDbSymbolTableRecord
100
AcDbLinetypeTableRecord
  2
AM_DIN_F_W050x2
 70
     0
  3
 _ _ _ _ _ _ _ _ _ _ _ _
 72
    65
 73
     2
 40
3.125
 49
2.25
 74
     0
 49
-0.875
 74
     0
  0
LTYPE
  5
381
330
2A
100
AcDbSymbolTableRecord
100
AcDbLinetypeTableRecord
  2
HIDDEN
 70
     0
  3
Hidden __ __ __ __ __ __ __ __ __ __ __ __ __ __
 72
    65
 73
     2
 40
9.525
 49
6.349999999999997
 74
     0
 49
-3.174999999999998
 74
     0
  0
LTYPE
  5
382
330
2A
100
AcDbSymbolTableRecord
100
AcDbLinetypeTableRecord
  2
PHANTOM2
 70
     0
  3
Phantom (.5x) ___ _ _ ___ _ _ ___ _ _ ___ _ _
 72
    65
 73
     6
 40
31.75
 49
15.875
 74
     0
 49
-3.174999999999998
 74
     0
 49
3.174999999999998
 74
     0
 49
-3.174999999999998
 74
     0
 49
3.174999999999998
 74
     0
 49
-3.174999999999998
 74
     0
  0
LTYPE
  5
383
330
2A
100
AcDbSymbolTableRecord
100
AcDbLinetypeTableRecord
  2
CENTER
 70
     0
  3
Center ____ _ ____ _ ____ _ ____ _ ____ _ ____
 72
    65
 73
     4
 40
50.8
 49
31.75
 74
     0
 49
-6.349999999999997
 74
     0
 49
6.349999999999997
 74
     0
 49
-6.349999999999997
 74
     0
  0
LTYPE
  5
3B9
330
2A
100
AcDbSymbolTableRecord
100
AcDbLinetypeTableRecord
  2
AM_ISO02W050
 70
     0
  3
__ __ __ __ __ __ __ __ __ __ __ __ __ __ __
 72
    65
 73
     2
 40
7.5
 49
6.0
 74
     0
 49
-1.5
 74
     0
  0
LTYPE
  5
3BA
330
2A
100
AcDbSymbolTableRecord
100
AcDbLinetypeTableRecord
  2
AM_ISO08W050
 70
     0
  3
____ . ____ . ____ . ____ . ____ . ____ . ____
 72
    65
 73
     4
 40
18.0
 49
12.0
 74
     0
 49
-1.5
 74
     0
 49
3.0
 74
     0
 49
-1.5
 74
     0
  0
LTYPE
  5
3BB
330
2A
100
AcDbSymbolTableRecord
100
AcDbLinetypeTableRecord
  2
AM_ISO09W050
 70
     0
  3
_____ . . _____ . . _____ . . ____ .. ____
 72
    65
 73
     6
 40
22.5
 49
12.0
 74
     0
 49
-1.5
 74
     0
 49
3.0
 74
     0
 49
-1.5
 74
     0
 49
3.0
 74
     0
 49
-1.5
 74
     0
  0
LTYPE
  5
3BC
330
2A
100
AcDbSymbolTableRecord
100
AcDbLinetypeTableRecord
  2
AM_ISO08W050x2
 70
     0
  3
__ . __ . __ . __ . __ . __
 72
    65
 73
     4
 40
9.0
 49
6.0
 74
     0
 49
-0.75
 74
     0
 49
1.5
 74
     0
 49
-0.75
 74
     0
  0
LTYPE
  5
3BD
330
2A
100
AcDbSymbolTableRecord
100
AcDbLinetypeTableRecord
  2
AM_ISO02W050x2
 70
     0
  3
 _ _ _ _ _ _ _ _ _ _ _ _
 72
    65
 73
     2
 40
3.75
 49
3.0
 74
     0
 49
-0.75
 74
     0
  0
ENDTAB
  0
TABLE
  2
LAYER
  5
11
102
{ACAD_XDICTIONARY
360
21
102
}
330
0
100
AcDbSymbolTable
 70
    10
  0
LAYER
  5
12
102
{ACAD_XDICTIONARY
360
13
102
}
330
11
100
AcDbSymbolTableRecord
100
AcDbLayerTableRecord
  2
0
 70
     0
 62
     7
  6
CONTINUOUS
370
    -3
390
15
347
17
  0
LAYER
  5
7D
102
{ACAD_XDICTIONARY
360
7E
102
}
330
11
100
AcDbSymbolTableRecord
100
AcDbLayerTableRecord
  2
UMRISS05
 70
     0
 62
     4
  6
CONTINUOUS
370
    -3
390
15
347
17
  0
LAYER
  5
8C
102
{ACAD_XDICTIONARY
360
8D
102
}
330
11
100
AcDbSymbolTableRecord
100
AcDbLayerTableRecord
  2
BEMASSUNG
 70
     0
 62
     2
  6
CONTINUOUS
370
    -3
390
15
347
17
  0
LAYER
  5
84
102
{ACAD_XDICTIONARY
360
85
102
}
330
11
100
AcDbSymbolTableRecord
100
AcDbLayerTableRecord
  2
ACHSEN
 70
     0
 62
     1
  6
STRICHPUNKT2
370
    -3
390
15
347
17
  0
LAYER
  5
98
330
11
100
AcDbSymbolTableRecord
100
AcDbLayerTableRecord
  2
DEFPOINTS
 70
     0
 62
     7
  6
CONTINUOUS
290
     0
370
    -3
390
15
347
17
  0
LAYER
  5
1CA
330
11
100
AcDbSymbolTableRecord
100
AcDbLayerTableRecord
  2
Sichtbare Kanten(MSL)
 70
     0
 62
     7
  6
CONTINUOUS
370
    50
390
15
347
17
  0
LAYER
  5
DF
330
11
100
AcDbSymbolTableRecord
100
AcDbLayerTableRecord
  2
Verdeckte Kanten(MSL)
 70
     0
 62
    11
  6
DASHED
370
    35
390
15
347
17
  0
LAYER
  5
63
102
{ACAD_XDICTIONARY
360
64
102
}
330
11
100
AcDbSymbolTableRecord
100
AcDbLayerTableRecord
  2
SCHRAFFUR
 70
     0
 62
     8
  6
CONTINUOUS
370
    -3
390
15
347
17
  0
LAYER
  5
BB
330
11
100
AcDbSymbolTableRecord
100
AcDbLayerTableRecord
  2
AM_0
 70
     0
 62
     7
  6
CONTINUOUS
370
    50
390
15
347
17
1001
AcAecLayerStandard
1000

1000

  0
LAYER
  5
477
330
11
100
AcDbSymbolTableRecord
100
AcDbLayerTableRecord
  2
AM_CL
 70
     0
 62
     1
  6
Amconstr
370
    25
390
15
347
17
1001
AcAecLayerStandard
1000

1000

  0
ENDTAB
  0
TABLE
  2
STYLE
  5
27
330
0
100
AcDbSymbolTable
 70
     7
  0
STYLE
  5
28
330
27
100
AcDbSymbolTableRecord
100
AcDbTextStyleTableRecord
  2
STANDARD
 70
     0
 40
0.0
 41
1.0
 50
0.0
 71
     0
 42
10.0
  3
txt
  4

  0
STYLE
  5
65
330
27
100
AcDbSymbolTableRecord
100
AcDbTextStyleTableRecord
  2
NORM
 70
     0
 40
0.0
 41
0.8
 50
0.0
 71
     0
 42
2.399999999999999
  3
SIMPLEX.shx
  4

  0
STYLE
  5
2EF
330
27
100
AcDbSymbolTableRecord
100
AcDbTextStyleTableRecord
  2
ACDINGDT
 70
     0
 40
0.0
 41
1.0
 50
0.0
 71
     0
 42
2.5
  3
amgdt.shx
  4

  0
STYLE
  5
37
330
27
100
AcDbSymbolTableRecord
100
AcDbTextStyleTableRecord
  2
ARIAL-STANDARD
 70
     0
 40
0.0
 41
1.0
 50
0.0
 71
     0
 42
3.5
  3
arial.ttf
  4

1001
ACAD
1000
Arial
1071
       34
  0
STYLE
  5
2E2
330
27
100
AcDbSymbolTableRecord
100
AcDbTextStyleTableRecord
  2

 70
     1
 40
0.0
 41
1.0
 50
0.0
 71
     0
 42
2.5
  3
ltypeshp.shx
  4

  0
STYLE
  5
3C
330
27
100
AcDbSymbolTableRecord
100
AcDbTextStyleTableRecord
  2
NORMAL-MSL
 70
     0
 40
0.0
 41
1.0
 50
0.0
 71
     0
 42
0.2
  3
arial.ttf
  4

1001
ACAD
1000
Arial
1071
      256
  0
STYLE
  5
3C3
330
27
100
AcDbSymbolTableRecord
100
AcDbTextStyleTableRecord
  2
ACDINTS
 70
     0
 40
0.0
 41
1.0
 50
0.0
 71
     0
 42
2.399999999999999
  3
isocp.shx
  4

  0
ENDTAB
  0
TABLE
  2
VIEW
  5
2D
330
0
100
AcDbSymbolTable
 70
     0
  0
ENDTAB
  0
TABLE
  2
UCS
  5
2E
330
0
100
AcDbSymbolTable
 70
     0
  0
ENDTAB
  0
TABLE
  2
APPID
  5
34
330
0
100
AcDbSymbolTable
 70
    13
  0
APPID
  5
25
330
34
100
AcDbSymbolTableRecord
100
AcDbRegAppTableRecord
  2
ACAD
 70
     0
  0
APPID
  5
326
330
34
100
AcDbSymbolTableRecord
100
AcDbRegAppTableRecord
  2
ACAD_DSTYLE_DIMJOGGED_JOGANGLE_SYMBOL
 70
     0
  0
APPID
  5
39
330
34
100
AcDbSymbolTableRecord
100
AcDbRegAppTableRecord
  2
ACAD_DSTYLE_DIMJAG
 70
     0
  0
APPID
  5
38
330
34
100
AcDbSymbolTableRecord
100
AcDbRegAppTableRecord
  2
ACAD_DSTYLE_DIMBREAK
 70
     0
  0
APPID
  5
3A
330
34
100
AcDbSymbolTableRecord
100
AcDbRegAppTableRecord
  2
ACAD_DSTYLE_DIMTALN
 70
     0
  0
APPID
  5
C
330
34
100
AcDbSymbolTableRecord
100
AcDbRegAppTableRecord
  2
ACAD_PSEXT
 70
     0
  0
APPID
  5
C9
330
34
100
AcDbSymbolTableRecord
100
AcDbRegAppTableRecord
  2
ACAD_DSTYLE_DIMINSPECT
 70
     0
  0
APPID
  5
BC
330
34
100
AcDbSymbolTableRecord
100
AcDbRegAppTableRecord
  2
AcAecLayerStandard
 70
     0
  0
APPID
  5
33
330
34
100
AcDbSymbolTableRecord
100
AcDbRegAppTableRecord
  2
ACAD_NAV_VCDISPLAY
 70
     0
  0
APPID
  5
335
330
34
100
AcDbSymbolTableRecord
100
AcDbRegAppTableRecord
  2
ACATTRIBSERVICES
 70
     0
  0
APPID
  5
37A
330
34
100
AcDbSymbolTableRecord
100
AcDbRegAppTableRecord
  2
MCAD_NO_VIS
 70
     0
  0
APPID
  5
37B
330
34
100
AcDbSymbolTableRecord
100
AcDbRegAppTableRecord
  2
ACAD_TEMP_GRAPHIC
 70
     0
  0
APPID
  5
39F
330
34
100
AcDbSymbolTableRecord
100
AcDbRegAppTableRecord
  2
DESIGNERASSEMBLIES
 70
     0
  0
ENDTAB
  0
TABLE
  2
DIMSTYLE
  5
35
330
0
100
AcDbSymbolTable
 70
    11
100
AcDbDimStyleTable
 71
     2
340
36
340
3B
  0
DIMSTYLE
105
325
102
{ACAD_REACTORS
330
7BC
102
}
330
35
100
AcDbSymbolTableRecord
100
AcDbDimStyleTableRecord
  2
AM_DIN
 70
     0
  4
"
 41
3.5
 42
1.0
 43
10.0
 44
1.0
 47
0.1
 48
0.1
 50
90.0
 73
     0
 74
     0
 77
     1
 78
     8
 79
     2
140
3.5
141
0.0
143
0.0393701
146
0.71
147
1.5
172
     1
176
   256
177
   256
178
     2
271
     2
272
     3
274
     4
283
     0
284
     8
340
28
345
2B
346
2B
347
2B
371
    -1
372
    -1
1001
ACAD_DSTYLE_DIMJOGGED_JOGANGLE_SYMBOL
1070
   384
1040
1.570796326794896
  0
DIMSTYLE
105
328
330
35
100
AcDbSymbolTableRecord
100
AcDbDimStyleTableRecord
  2
AM_DIN$3
 70
     0
  4
"
 41
3.5
 42
1.0
 43
10.0
 44
1.0
 47
0.1
 48
0.1
 50
90.0
 73
     0
 77
     1
 78
     8
 79
     2
140
3.5
141
0.0
143
0.0393701
146
0.71
147
1.5
176
   256
177
   256
178
     2
271
     2
272
     3
274
     4
283
     0
284
     8
288
     1
289
     0
340
28
345
2B
346
2B
347
2B
371
    -1
372
    -1
1001
ACAD_DSTYLE_DIMJOGGED_JOGANGLE_SYMBOL
1070
   384
1040
1.570796326794896
  0
DIMSTYLE
105
329
330
35
100
AcDbSymbolTableRecord
100
AcDbDimStyleTableRecord
  2
AM_DIN$4
 70
     0
  4
"
 41
3.5
 42
1.0
 43
10.0
 44
1.0
 47
0.1
 48
0.1
 50
90.0
 73
     0
 74
     0
 77
     1
 78
     8
 79
     2
140
3.5
141
0.0
143
0.0393701
146
0.71
147
1.5
172
     1
176
   256
177
   256
178
     2
271
     2
272
     3
274
     4
283
     0
284
     8
340
28
345
2B
346
2B
347
2B
371
    -1
372
    -1
1001
ACAD_DSTYLE_DIMJOGGED_JOGANGLE_SYMBOL
1070
   384
1040
1.570796326794896
  0
DIMSTYLE
105
32A
330
35
100
AcDbSymbolTableRecord
100
AcDbDimStyleTableRecord
  2
AM_DIN$6
 70
     0
  4
"
 41
3.5
 42
1.0
 43
10.0
 44
1.0
 47
0.1
 48
0.1
 50
90.0
 73
     0
 74
     0
 78
     8
 79
     2
140
3.5
141
0.0
143
0.0393701
146
0.71
147
1.5
172
     1
176
   256
177
   256
178
     2
271
     2
272
     3
274
     4
283
     0
284
     8
340
28
345
2B
346
2B
347
2B
371
    -1
372
    -1
1001
ACAD_DSTYLE_DIMJOGGED_JOGANGLE_SYMBOL
1070
   384
1040
1.570796326794896
  0
DIMSTYLE
105
32B
330
35
100
AcDbSymbolTableRecord
100
AcDbDimStyleTableRecord
  2
AM_DIN$7
 70
     0
  4
"
 41
3.5
 42
1.0
 43
10.0
 44
1.0
 47
0.1
 48
0.1
 50
90.0
 73
     0
 74
     0
 77
     1
 78
     8
 79
     2
140
3.5
141
0.0
143
0.0393701
146
0.71
147
1.5
172
     1
176
   256
177
   256
178
     2
271
     2
272
     3
274
     4
283
     0
284
     8
340
28
345
2B
346
2B
347
2B
371
    -1
372
    -1
1001
ACAD_DSTYLE_DIMJOGGED_JOGANGLE_SYMBOL
1070
   384
1040
1.570796326794896
  0
DIMSTYLE
105
32C
330
35
100
AcDbSymbolTableRecord
100
AcDbDimStyleTableRecord
  2
AM_DIN$SF
 70
     0
  4
"
 41
3.5
 42
1.0
 43
10.0
 44
1.0
 47
0.1
 48
0.1
 50
90.0
 73
     0
 74
     0
 75
     1
 76
     1
 77
     1
 78
     8
 79
     2
140
3.5
141
0.0
143
0.0393701
146
0.71
147
1.5
172
     1
176
   256
177
   256
178
     2
271
     2
272
     3
274
     4
283
     0
284
     8
340
28
345
2B
346
2B
347
2B
371
    -1
372
    -1
1001
ACAD_DSTYLE_DIMJOGGED_JOGANGLE_SYMBOL
1070
   384
1040
1.570796326794896
  0
DIMSTYLE
105
32D
330
35
100
AcDbSymbolTableRecord
100
AcDbDimStyleTableRecord
  2
AM_DIN$SH
 70
     0
  4
"
 41
3.5
 42
1.0
 43
10.0
 44
1.0
 47
0.1
 48
0.1
 50
90.0
 73
     0
 74
     0
 75
     1
 76
     1
 77
     1
 78
     8
 79
     2
140
3.5
141
0.0
143
0.0393701
144
2.0
146
0.71
147
1.5
172
     1
173
     1
176
   256
177
   256
178
     2
271
     2
272
     3
274
     4
283
     0
284
     8
340
28
343
32E
345
2B
346
2B
347
2B
371
    -1
372
    -1
1001
ACAD_DSTYLE_DIMJOGGED_JOGANGLE_SYMBOL
1070
   384
1040
1.570796326794896
  0
DIMSTYLE
105
36
102
{ACAD_REACTORS
330
156
330
173
330
163
330
146
330
136
330
BA
330
AB
330
9C
330
122
330
115
330
8B
330
108
330
2B3
330
2A3
330
281
330
274
330
267
330
254
330
F4
330
E5
102
}
330
35
100
AcDbSymbolTableRecord
100
AcDbDimStyleTableRecord
  2
Katalog 09
 70
     0
 41
12.0
 42
0.0
 43
8.0
 44
1.0
 73
     0
 74
     0
 77
     1
 78
     8
140
9.0
141
1.5
143
25.39999999999999
146
0.428571428571429
147
2.5
172
     1
174
     1
176
     2
177
     2
178
     3
271
     2
272
     2
284
     8
285
     8
286
     8
340
37
1001
ACAD_DSTYLE_DIMBREAK
1070
   391
1040
3.75
1001
ACAD_DSTYLE_DIMJAG
1070
   388
1040
1.5
1001
ACAD_DSTYLE_DIMTALN
1070
   392
1070
     0
  0
DIMSTYLE
105
3B
330
35
100
AcDbSymbolTableRecord
100
AcDbDimStyleTableRecord
  2
NORMAL-MSL
 70
     0
 41
3.5
 42
0.0
 43
6.099999999999997
 44
1.0
 45
0.00000001
 46
7.0
 73
     0
 74
     0
 77
     1
 78
     8
 79
     2
140
3.5
143
1.0
146
0.5
147
1.0
172
     1
176
     5
177
     5
178
     7
179
     1
271
     2
272
     2
284
     8
286
     8
340
3C
342
3D
371
     0
372
     0
  0
DIMSTYLE
105
327
330
35
100
AcDbSymbolTableRecord
100
AcDbDimStyleTableRecord
  2
AM_DIN$0
 70
     0
  4
"
 41
3.5
 42
1.0
 43
10.0
 44
1.0
 47
0.1
 48
0.1
 50
90.0
 73
     0
 74
     0
 77
     1
 78
     8
 79
     2
140
3.5
141
0.0
143
0.0393701
146
0.71
147
1.5
172
     1
176
   256
177
   256
178
     2
271
     2
272
     3
274
     4
283
     0
284
     8
340
28
345
2B
346
2B
347
2B
371
    -1
372
    -1
  0
DIMSTYLE
105
251
102
{ACAD_REACTORS
330
242
102
}
330
35
100
AcDbSymbolTableRecord
100
AcDbDimStyleTableRecord
  2
Katalog 09$0
 70
     0
 41
4.0
 42
0.0
 43
8.0
 44
1.0
 73
     0
 74
     0
 77
     1
 78
     8
140
4.349999999999996
141
1.5
143
25.39999999999999
146
0.428571428571429
147
1.0
172
     1
174
     1
176
     2
177
     2
178
     3
271
     2
272
     2
284
     8
285
     8
286
     8
340
37
1001
ACAD_DSTYLE_DIMBREAK
1070
   391
1040
3.75
1001
ACAD_DSTYLE_DIMJAG
1070
   388
1040
1.5
  0
ENDTAB
  0
TABLE
  2
BLOCK_RECORD
  5
1
330
0
100
AcDbSymbolTable
 70
    33
  0
BLOCK_RECORD
  5
2
102
{ACAD_XDICTIONARY
360
3
102
}
330
1
100
AcDbSymbolTableRecord
100
AcDbBlockTableRecord
  2
*MODEL_SPACE
340
8
 70
     0
280
     1
281
     0
  0
BLOCK_RECORD
  5
D
330
1
100
AcDbSymbolTableRecord
100
AcDbBlockTableRecord
  2
*PAPER_SPACE
340
10
 70
     0
280
     1
281
     0
  0
BLOCK_RECORD
  5
32E
330
1
100
AcDbSymbolTableRecord
100
AcDbBlockTableRecord
  2
GENAXEH
340
0
 70
     0
280
     1
281
     0
  0
BLOCK_RECORD
  5
3D
330
1
100
AcDbSymbolTableRecord
100
AcDbBlockTableRecord
  2
Filled-1
340
0
 70
     0
280
     1
281
     0
  0
BLOCK_RECORD
  5
174
330
1
100
AcDbSymbolTableRecord
100
AcDbBlockTableRecord
  2
*D2
340
0
 70
     0
280
     1
281
     0
  0
BLOCK_RECORD
  5
164
330
1
100
AcDbSymbolTableRecord
100
AcDbBlockTableRecord
  2
*D3
340
0
 70
     0
280
     1
281
     0
  0
BLOCK_RECORD
  5
157
330
1
100
AcDbSymbolTableRecord
100
AcDbBlockTableRecord
  2
*D4
340
0
 70
     0
280
     1
281
     0
  0
BLOCK_RECORD
  5
147
330
1
100
AcDbSymbolTableRecord
100
AcDbBlockTableRecord
  2
*D5
340
0
 70
     0
280
     1
281
     0
  0
BLOCK_RECORD
  5
137
330
1
100
AcDbSymbolTableRecord
100
AcDbBlockTableRecord
  2
*D6
340
0
 70
     0
280
     1
281
     0
  0
BLOCK_RECORD
  5
BD
330
1
100
AcDbSymbolTableRecord
100
AcDbBlockTableRecord
  2
*D7
340
0
 70
     0
280
     1
281
     0
  0
BLOCK_RECORD
  5
AC
330
1
100
AcDbSymbolTableRecord
100
AcDbBlockTableRecord
  2
*D8
340
0
 70
     0
280
     1
281
     0
  0
BLOCK_RECORD
  5
9D
330
1
100
AcDbSymbolTableRecord
100
AcDbBlockTableRecord
  2
*D9
340
0
 70
     0
280
     1
281
     0
  0
BLOCK_RECORD
  5
123
330
1
100
AcDbSymbolTableRecord
100
AcDbBlockTableRecord
  2
*D10
340
0
 70
     0
280
     1
281
     0
  0
BLOCK_RECORD
  5
116
330
1
100
AcDbSymbolTableRecord
100
AcDbBlockTableRecord
  2
*D11
340
0
 70
     0
280
     1
281
     0
  0
BLOCK_RECORD
  5
8F
330
1
100
AcDbSymbolTableRecord
100
AcDbBlockTableRecord
  2
*D12
340
0
 70
     0
280
     1
281
     0
  0
BLOCK_RECORD
  5
109
330
1
100
AcDbSymbolTableRecord
100
AcDbBlockTableRecord
  2
*D13
340
0
 70
     0
280
     1
281
     0
  0
BLOCK_RECORD
  5
2B4
330
1
100
AcDbSymbolTableRecord
100
AcDbBlockTableRecord
  2
*D14
340
0
 70
     0
280
     1
281
     0
  0
BLOCK_RECORD
  5
2A4
330
1
100
AcDbSymbolTableRecord
100
AcDbBlockTableRecord
  2
*D15
340
0
 70
     0
280
     1
281
     0
  0
BLOCK_RECORD
  5
282
330
1
100
AcDbSymbolTableRecord
100
AcDbBlockTableRecord
  2
*D16
340
0
 70
     0
280
     1
281
     0
  0
BLOCK_RECORD
  5
275
330
1
100
AcDbSymbolTableRecord
100
AcDbBlockTableRecord
  2
*D17
340
0
 70
     0
280
     1
281
     0
  0
BLOCK_RECORD
  5
268
330
1
100
AcDbSymbolTableRecord
100
AcDbBlockTableRecord
  2
*D18
340
0
 70
     0
280
     1
281
     0
  0
BLOCK_RECORD
  5
255
330
1
100
AcDbSymbolTableRecord
100
AcDbBlockTableRecord
  2
*D19
340
0
 70
     0
280
     1
281
     0
  0
BLOCK_RECORD
  5
F5
330
1
100
AcDbSymbolTableRecord
100
AcDbBlockTableRecord
  2
*D20
340
0
 70
     0
280
     1
281
     0
  0
BLOCK_RECORD
  5
E6
330
1
100
AcDbSymbolTableRecord
100
AcDbBlockTableRecord
  2
*D21
340
0
 70
     0
280
     1
281
     0
  0
BLOCK_RECORD
  5
30D
330
1
100
AcDbSymbolTableRecord
100
AcDbBlockTableRecord
  2
_ACMFILLED30
340
0
 70
     0
280
     1
281
     0
  0
BLOCK_RECORD
  5
243
330
1
100
AcDbSymbolTableRecord
100
AcDbBlockTableRecord
  2
*D23
340
0
 70
     0
280
     1
281
     0
  0
BLOCK_RECORD
  5
51A
330
1
100
AcDbSymbolTableRecord
100
AcDbBlockTableRecord
  2
*D24
340
0
 70
     0
280
     1
281
     0
  0
BLOCK_RECORD
  5
526
330
1
100
AcDbSymbolTableRecord
100
AcDbBlockTableRecord
  2
*D25
340
0
 70
     0
280
     1
281
     0
  0
BLOCK_RECORD
  5
532
330
1
100
AcDbSymbolTableRecord
100
AcDbBlockTableRecord
  2
*D26
340
0
 70
     0
280
     1
281
     0
  0
BLOCK_RECORD
  5
53E
330
1
100
AcDbSymbolTableRecord
100
AcDbBlockTableRecord
  2
*D27
340
0
 70
     0
280
     1
281
     0
  0
BLOCK_RECORD
  5
555
330
1
100
AcDbSymbolTableRecord
100
AcDbBlockTableRecord
  2
*D28
340
0
 70
     0
280
     1
281
     0
  0
BLOCK_RECORD
  5
736
330
1
100
AcDbSymbolTableRecord
100
AcDbBlockTableRecord
  2
*D29
340
0
 70
     0
280
     1
281
     0
  0
BLOCK_RECORD
  5
742
330
1
100
AcDbSymbolTableRecord
100
AcDbBlockTableRecord
  2
*D30
340
0
 70
     0
280
     1
281
     0
  0
BLOCK_RECORD
  5
80D
330
1
100
AcDbSymbolTableRecord
100
AcDbBlockTableRecord
  2
*D32
340
0
 70
     0
280
     1
281
     0
  0
ENDTAB
  0
ENDSEC
  0
SECTION
  2
BLOCKS
  0
BLOCK
  5
6
330
2
100
AcDbEntity
  8
0
100
AcDbBlockBegin
  2
*MODEL_SPACE
 70
     0
 10
0.0
 20
0.0
 30
0.0
  3
*MODEL_SPACE
  1

  0
ENDBLK
  5
7
330
2
100
AcDbEntity
  8
0
100
AcDbBlockEnd
  0
BLOCK
  5
E
330
D
100
AcDbEntity
 67
     1
  8
0
100
AcDbBlockBegin
  2
*PAPER_SPACE
 70
     0
 10
0.0
 20
0.0
 30
0.0
  3
*PAPER_SPACE
  1

  0
ENDBLK
  5
F
330
D
100
AcDbEntity
 67
     1
  8
0
100
AcDbBlockEnd
  0
BLOCK
  5
32F
330
32E
100
AcDbEntity
  8
0
100
AcDbBlockBegin
  2
GENAXEH
 70
     0
 10
0.0
 20
0.0
 30
0.0
  3
GENAXEH
  1

  0
LINE
  5
330
330
32E
100
AcDbEntity
  8
0
100
AcDbLine
 10
-1.0
 20
0.0
 30
0.0
 11
1.0
 21
0.0
 31
0.0
  0
ENDBLK
  5
331
330
32E
100
AcDbEntity
  8
0
100
AcDbBlockEnd
  0
BLOCK
  5
3E
330
3D
100
AcDbEntity
  8
0
100
AcDbBlockBegin
  2
Filled-1
 70
     0
 10
0.0
 20
0.0
 30
0.0
  3
Filled-1
  1

  0
LINE
  5
3F
330
3D
100
AcDbEntity
  8
0
 62
     0
100
AcDbLine
 10
-1.0
 20
0.0
 30
0.0
 11
0.0
 21
0.0
 31
0.0
  0
POLYLINE
  5
40
330
3D
100
AcDbEntity
  8
0
 62
     0
100
AcDb2dPolyline
 66
     1
 10
0.0
 20
0.0
 30
0.0
 70
   128
  0
VERTEX
  5
41
330
40
100
AcDbEntity
  8
0
 62
     0
100
AcDbVertex
100
AcDb2dVertex
 10
-1.0
 20
-0.1428571428571428
 30
0.0
  0
VERTEX
  5
42
330
40
100
AcDbEntity
  8
0
 62
     0
100
AcDbVertex
100
AcDb2dVertex
 10
0.0
 20
0.0
 30
0.0
  0
VERTEX
  5
43
330
40
100
AcDbEntity
  8
0
 62
     0
100
AcDbVertex
100
AcDb2dVertex
 10
-1.0
 20
0.1428571428571428
 30
0.0
  0
VERTEX
  5
44
330
40
100
AcDbEntity
  8
0
 62
     0
100
AcDbVertex
100
AcDb2dVertex
 10
-1.0
 20
-0.1428571428571428
 30
0.0
  0
SEQEND
  5
45
330
40
100
AcDbEntity
  8
0
 62
     0
  0
SOLID
  5
46
330
3D
100
AcDbEntity
  8
0
 62
     0
100
AcDbTrace
 10
-1.0
 20
-0.1428571428571428
 30
0.0
 11
0.0
 21
0.0
 31
0.0
 12
-1.0
 22
0.1428571428571428
 32
0.0
 13
-1.0
 23
-0.1428571428571428
 33
0.0
  0
LINE
  5
47
330
3D
100
AcDbEntity
  8
0
 62
     0
100
AcDbLine
 10
-1.0
 20
-0.1428571428571428
 30
0.0
 11
0.0
 21
0.0
 31
0.0
  0
LINE
  5
48
330
3D
100
AcDbEntity
  8
0
 62
     0
100
AcDbLine
 10
0.0
 20
0.0
 30
0.0
 11
-1.0
 21
0.1428571428571428
 31
0.0
  0
LINE
  5
49
330
3D
100
AcDbEntity
  8
0
 62
     0
100
AcDbLine
 10
-1.0
 20
0.1428571428571428
 30
0.0
 11
-1.0
 21
-0.1428571428571428
 31
0.0
  0
ENDBLK
  5
4A
330
3D
100
AcDbEntity
  8
0
100
AcDbBlockEnd
  0
BLOCK
  5
175
330
174
100
AcDbEntity
  8
0
100
AcDbBlockBegin
  2
*D2
 70
     1
 10
0.0
 20
0.0
 30
0.0
  3
*D2
  1

  0
LINE
  5
176
330
174
100
AcDbEntity
  8
BEMASSUNG
 62
     2
440
 16777216
370
    -2
100
AcDbLine
 10
192.6415752235855
 20
784.9801173583487
 30
0.0
 11
217.7885195066235
 21
784.9801173583487
 31
0.0
  0
LINE
  5
177
330
174
100
AcDbEntity
  8
BEMASSUNG
 62
     2
440
 16777216
370
    -2
100
AcDbLine
 10
192.6415752235854
 20
831.9801173583487
 30
0.0
 11
217.7885195066235
 21
831.9801173583487
 31
0.0
  0
LINE
  5
178
330
174
100
AcDbEntity
  8
BEMASSUNG
 62
     2
440
 16777216
370
    -2
100
AcDbLine
 10
216.7885195066234
 20
796.9801173583487
 30
0.0
 11
216.7885195066234
 21
819.9801173583487
 31
0.0
  0
SOLID
  5
179
330
174
100
AcDbEntity
  8
BEMASSUNG
 62
     2
440
 16777216
100
AcDbTrace
 10
214.7885195066234
 20
796.9801173583487
 30
0.0
 11
218.7885195066234
 21
796.9801173583487
 31
0.0
 12
216.7885195066234
 22
784.9801173583487
 32
0.0
 13
216.7885195066234
 23
784.9801173583487
 33
0.0
  0
SOLID
  5
17A
330
174
100
AcDbEntity
  8
BEMASSUNG
 62
     2
440
 16777216
100
AcDbTrace
 10
214.7885195066234
 20
819.9801173583487
 30
0.0
 11
218.7885195066234
 21
819.9801173583487
 31
0.0
 12
216.7885195066234
 22
831.9801173583487
 32
0.0
 13
216.7885195066234
 23
831.9801173583487
 33
0.0
  0
MTEXT
  5
17B
330
174
100
AcDbEntity
  8
BEMASSUNG
 62
     3
440
 16777216
100
AcDbMText
 10
205.2885195066233
 20
801.743859486018
 30
0.0
 40
9.0
 41
0.0
 46
0.0
 71
     1
 72
     1
  1
\A1;47
  7
ARIAL-STANDARD
 11
0.0000000000000001
 21
1.0
 31
0.0
 73
     1
 44
1.0
  0
POINT
  5
17C
330
174
100
AcDbEntity
  8
DEFPOINTS
 62
     0
440
 16777216
100
AcDbPoint
 10
192.6415752235855
 20
784.9801173583487
 30
0.0
  0
POINT
  5
17D
330
174
100
AcDbEntity
  8
DEFPOINTS
 62
     0
440
 16777216
100
AcDbPoint
 10
192.6415752235854
 20
831.9801173583487
 30
0.0
  0
POINT
  5
17E
330
174
100
AcDbEntity
  8
DEFPOINTS
 62
     0
440
 16777216
100
AcDbPoint
 10
216.7885195066234
 20
831.9801173583487
 30
0.0
  0
ENDBLK
  5
17F
330
174
100
AcDbEntity
  8
0
100
AcDbBlockEnd
  0
BLOCK
  5
165
330
164
100
AcDbEntity
  8
0
100
AcDbBlockBegin
  2
*D3
 70
     1
 10
0.0
 20
0.0
 30
0.0
  3
*D3
  1

  0
LINE
  5
166
330
164
100
AcDbEntity
  8
BEMASSUNG
 62
     2
440
 16777216
370
    -2
100
AcDbLine
 10
196.7715752235858
 20
723.4801173583487
 30
0.0
 11
196.7715752235858
 21
694.5663330953514
 31
0.0
  0
LINE
  5
167
330
164
100
AcDbEntity
  8
BEMASSUNG
 62
     2
440
 16777216
370
    -2
100
AcDbLine
 10
172.7762109085473
 20
723.378276875132
 30
0.0
 11
172.7762109085473
 21
694.5663330953514
 31
0.0
  0
LINE
  5
168
330
164
100
AcDbEntity
  8
BEMASSUNG
 62
     2
440
 16777216
370
    -2
100
AcDbLine
 10
208.7715752235858
 20
695.5663330953515
 30
0.0
 11
220.7715752235858
 21
695.5663330953515
 31
0.0
  0
LINE
  5
169
330
164
100
AcDbEntity
  8
BEMASSUNG
 62
     2
440
 16777216
370
    -2
100
AcDbLine
 10
160.7762109085473
 20
695.5663330953515
 30
0.0
 11
148.7762109085473
 21
695.5663330953515
 31
0.0
  0
LINE
  5
16A
330
164
100
AcDbEntity
  8
BEMASSUNG
 62
     2
440
 16777216
370
    -2
100
AcDbLine
 10
196.7715752235858
 20
695.5663330953515
 30
0.0
 11
172.7762109085473
 21
695.5663330953515
 31
0.0
  0
SOLID
  5
16B
330
164
100
AcDbEntity
  8
BEMASSUNG
 62
     2
440
 16777216
100
AcDbTrace
 10
208.7715752235858
 20
697.5663330953515
 30
0.0
 11
208.7715752235858
 21
693.5663330953515
 31
0.0
 12
196.7715752235858
 22
695.5663330953515
 32
0.0
 13
196.7715752235858
 23
695.5663330953515
 33
0.0
  0
SOLID
  5
16C
330
164
100
AcDbEntity
  8
BEMASSUNG
 62
     2
440
 16777216
100
AcDbTrace
 10
160.7762109085473
 20
697.5663330953515
 30
0.0
 11
160.7762109085473
 21
693.5663330953515
 31
0.0
 12
172.7762109085473
 22
695.5663330953515
 32
0.0
 13
172.7762109085473
 23
695.5663330953515
 33
0.0
  0
MTEXT
  5
16D
330
164
100
AcDbEntity
  8
BEMASSUNG
 62
     3
440
 16777216
100
AcDbMText
 10
178.2694592325058
 20
707.1031680203175
 30
0.0
 40
9.0
 41
0.0
 46
0.0
 71
     1
 72
     1
  1
\A1;24
  7
ARIAL-STANDARD
 73
     1
 44
1.0
  0
POINT
  5
16E
330
164
100
AcDbEntity
  8
DEFPOINTS
 62
     0
440
 16777216
100
AcDbPoint
 10
196.7715752235858
 20
723.4801173583487
 30
0.0
  0
POINT
  5
16F
330
164
100
AcDbEntity
  8
DEFPOINTS
 62
     0
440
 16777216
100
AcDbPoint
 10
172.7762109085473
 20
723.378276875132
 30
0.0
  0
POINT
  5
170
330
164
100
AcDbEntity
  8
DEFPOINTS
 62
     0
440
 16777216
100
AcDbPoint
 10
172.7762109085473
 20
695.5663330953515
 30
0.0
  0
ENDBLK
  5
171
330
164
100
AcDbEntity
  8
0
100
AcDbBlockEnd
  0
BLOCK
  5
158
330
157
100
AcDbEntity
  8
0
100
AcDbBlockBegin
  2
*D4
 70
     1
 10
0.0
 20
0.0
 30
0.0
  3
*D4
  1

  0
LINE
  5
159
330
157
100
AcDbEntity
  8
BEMASSUNG
 62
     2
440
 16777216
370
    -2
100
AcDbLine
 10
234.1415752235857
 20
963.4801173583486
 30
0.0
 11
250.2940916881422
 21
963.4801173583486
 31
0.0
  0
LINE
  5
15A
330
157
100
AcDbEntity
  8
BEMASSUNG
 62
     2
440
 16777216
370
    -2
100
AcDbLine
 10
234.1415752235857
 20
873.4801173583488
 30
0.0
 11
250.2940916881422
 21
873.4801173583488
 31
0.0
  0
LINE
  5
15B
330
157
100
AcDbEntity
  8
BEMASSUNG
 62
     2
440
 16777216
370
    -2
100
AcDbLine
 10
249.2940916881422
 20
951.4801173583487
 30
0.0
 11
249.2940916881422
 21
885.4801173583489
 31
0.0
  0
SOLID
  5
15C
330
157
100
AcDbEntity
  8
BEMASSUNG
 62
     2
440
 16777216
100
AcDbTrace
 10
247.2940916881422
 20
951.4801173583487
 30
0.0
 11
251.2940916881422
 21
951.4801173583487
 31
0.0
 12
249.2940916881422
 22
963.4801173583486
 32
0.0
 13
249.2940916881422
 23
963.4801173583486
 33
0.0
  0
SOLID
  5
15D
330
157
100
AcDbEntity
  8
BEMASSUNG
 62
     2
440
 16777216
100
AcDbTrace
 10
247.2940916881422
 20
885.4801173583489
 30
0.0
 11
251.2940916881422
 21
885.4801173583489
 31
0.0
 12
249.2940916881422
 22
873.4801173583488
 32
0.0
 13
249.2940916881422
 23
873.4801173583488
 33
0.0
  0
MTEXT
  5
15E
330
157
100
AcDbEntity
  8
BEMASSUNG
 62
     3
440
 16777216
100
AcDbMText
 10
237.6037779091516
 20
914.7122747438963
 30
0.0
 40
9.0
 41
0.0
 46
0.0
 71
     1
 72
     1
  1
\A1;90
  7
ARIAL-STANDARD
 11
0.0000000000000001
 21
1.0
 31
0.0
 73
     1
 44
1.0
  0
POINT
  5
15F
330
157
100
AcDbEntity
  8
DEFPOINTS
 62
     0
440
 16777216
100
AcDbPoint
 10
234.1415752235857
 20
963.4801173583486
 30
0.0
  0
POINT
  5
160
330
157
100
AcDbEntity
  8
DEFPOINTS
 62
     0
440
 16777216
100
AcDbPoint
 10
234.1415752235857
 20
873.4801173583488
 30
0.0
  0
POINT
  5
161
330
157
100
AcDbEntity
  8
DEFPOINTS
 62
     0
440
 16777216
100
AcDbPoint
 10
249.2940916881422
 20
873.4801173583488
 30
0.0
  0
ENDBLK
  5
162
330
157
100
AcDbEntity
  8
0
100
AcDbBlockEnd
  0
BLOCK
  5
148
330
147
100
AcDbEntity
  8
0
100
AcDbBlockBegin
  2
*D5
 70
     1
 10
0.0
 20
0.0
 30
0.0
  3
*D5
  1

  0
LINE
  5
149
330
147
100
AcDbEntity
  8
BEMASSUNG
 62
     2
440
 16777216
370
    -2
100
AcDbLine
 10
177.2715752235854
 20
829.9801173583487
 30
0.0
 11
177.2715752235854
 21
838.8961080589778
 31
0.0
  0
LINE
  5
14A
330
147
100
AcDbEntity
  8
BEMASSUNG
 62
     2
440
 16777216
370
    -2
100
AcDbLine
 10
192.2715752235854
 20
829.9801173583487
 30
0.0
 11
192.2715752235854
 21
838.8961080589778
 31
0.0
  0
LINE
  5
14B
330
147
100
AcDbEntity
  8
BEMASSUNG
 62
     2
440
 16777216
370
    -2
100
AcDbLine
 10
165.2715752235854
 20
837.8961080589778
 30
0.0
 11
153.2715752235854
 21
837.8961080589778
 31
0.0
  0
LINE
  5
14C
330
147
100
AcDbEntity
  8
BEMASSUNG
 62
     2
440
 16777216
370
    -2
100
AcDbLine
 10
204.2715752235854
 20
837.8961080589778
 30
0.0
 11
233.3841263832034
 21
837.8961080589778
 31
0.0
  0
LINE
  5
14D
330
147
100
AcDbEntity
  8
BEMASSUNG
 62
     2
440
 16777216
370
    -2
100
AcDbLine
 10
177.2715752235854
 20
837.8961080589778
 30
0.0
 11
192.2715752235854
 21
837.8961080589778
 31
0.0
  0
SOLID
  5
14E
330
147
100
AcDbEntity
  8
BEMASSUNG
 62
     2
440
 16777216
100
AcDbTrace
 10
165.2715752235854
 20
839.896108058978
 30
0.0
 11
165.2715752235854
 21
835.8961080589777
 31
0.0
 12
177.2715752235854
 22
837.8961080589778
 32
0.0
 13
177.2715752235854
 23
837.8961080589778
 33
0.0
  0
SOLID
  5
14F
330
147
100
AcDbEntity
  8
BEMASSUNG
 62
     2
440
 16777216
100
AcDbTrace
 10
204.2715752235854
 20
839.896108058978
 30
0.0
 11
204.2715752235854
 21
835.8961080589777
 31
0.0
 12
192.2715752235854
 22
837.8961080589778
 32
0.0
 13
192.2715752235854
 23
837.8961080589778
 33
0.0
  0
MTEXT
  5
150
330
147
100
AcDbEntity
  8
BEMASSUNG
 62
     3
440
 16777216
100
AcDbMText
 10
218.7715752235854
 20
849.5864218379683
 30
0.0
 40
9.0
 41
0.0
 46
0.0
 71
     1
 72
     1
  1
\A1;15
  7
ARIAL-STANDARD
 73
     1
 44
1.0
  0
POINT
  5
151
330
147
100
AcDbEntity
  8
DEFPOINTS
 62
     0
440
 16777216
100
AcDbPoint
 10
177.2715752235854
 20
829.9801173583487
 30
0.0
  0
POINT
  5
152
330
147
100
AcDbEntity
  8
DEFPOINTS
 62
     0
440
 16777216
100
AcDbPoint
 10
192.2715752235854
 20
829.9801173583487
 30
0.0
  0
POINT
  5
153
330
147
100
AcDbEntity
  8
DEFPOINTS
 62
     0
440
 16777216
100
AcDbPoint
 10
192.2715752235854
 20
837.8961080589778
 30
0.0
  0
ENDBLK
  5
154
330
147
100
AcDbEntity
  8
0
100
AcDbBlockEnd
  0
BLOCK
  5
138
330
137
100
AcDbEntity
  8
0
100
AcDbBlockBegin
  2
*D6
 70
     1
 10
0.0
 20
0.0
 30
0.0
  3
*D6
  1

  0
LINE
  5
139
330
137
100
AcDbEntity
  8
BEMASSUNG
 62
     2
440
 16777216
370
    -2
100
AcDbLine
 10
196.7762109085473
 20
993.4801173583487
 30
0.0
 11
250.2940916881422
 21
993.4801173583487
 31
0.0
  0
LINE
  5
13A
330
137
100
AcDbEntity
  8
BEMASSUNG
 62
     2
440
 16777216
370
    -2
100
AcDbLine
 10
234.1415752235857
 20
963.4801173583486
 30
0.0
 11
250.2940916881422
 21
963.4801173583486
 31
0.0
  0
LINE
  5
13B
330
137
100
AcDbEntity
  8
BEMASSUNG
 62
     2
440
 16777216
370
    -2
100
AcDbLine
 10
249.2940916881422
 20
981.4801173583488
 30
0.0
 11
249.2940916881422
 21
975.4801173583487
 31
0.0
  0
SOLID
  5
13C
330
137
100
AcDbEntity
  8
BEMASSUNG
 62
     2
440
 16777216
100
AcDbTrace
 10
247.2940916881422
 20
981.4801173583488
 30
0.0
 11
251.2940916881422
 21
981.4801173583488
 31
0.0
 12
249.2940916881422
 22
993.4801173583487
 32
0.0
 13
249.2940916881422
 23
993.4801173583487
 33
0.0
  0
SOLID
  5
13D
330
137
100
AcDbEntity
  8
BEMASSUNG
 62
     2
440
 16777216
100
AcDbTrace
 10
247.2940916881422
 20
975.4801173583487
 30
0.0
 11
251.2940916881422
 21
975.4801173583487
 31
0.0
 12
249.2940916881422
 22
963.4801173583486
 32
0.0
 13
249.2940916881422
 23
963.4801173583486
 33
0.0
  0
MTEXT
  5
13E
330
137
100
AcDbEntity
  8
BEMASSUNG
 62
     3
440
 16777216
100
AcDbMText
 10
237.5976387549906
 20
970.9167097165783
 30
0.0
 40
9.0
 41
0.0
 46
0.0
 71
     1
 72
     1
  1
\A1;30
  7
ARIAL-STANDARD
 11
0.0000000000000001
 21
1.0
 31
0.0
 73
     1
 44
1.0
  0
POINT
  5
13F
330
137
100
AcDbEntity
  8
DEFPOINTS
 62
     0
440
 16777216
100
AcDbPoint
 10
196.7762109085473
 20
993.4801173583487
 30
0.0
  0
POINT
  5
140
330
137
100
AcDbEntity
  8
DEFPOINTS
 62
     0
440
 16777216
100
AcDbPoint
 10
234.1415752235857
 20
963.4801173583486
 30
0.0
  0
POINT
  5
141
330
137
100
AcDbEntity
  8
DEFPOINTS
 62
     0
440
 16777216
100
AcDbPoint
 10
249.2940916881422
 20
963.4801173583486
 30
0.0
  0
ENDBLK
  5
142
330
137
100
AcDbEntity
  8
0
100
AcDbBlockEnd
  0
BLOCK
  5
BE
330
BD
100
AcDbEntity
  8
0
100
AcDbBlockBegin
  2
*D7
 70
     1
 10
0.0
 20
0.0
 30
0.0
  3
*D7
  1

  0
LINE
  5
BF
330
BD
100
AcDbEntity
  8
AM_0
 62
     2
440
 16777216
370
    -2
100
AcDbLine
 10
173.3294487760794
 20
1293.472929449996
 30
0.0
 11
152.1167951815784
 21
1293.472929449996
 31
0.0
  0
LINE
  5
C0
330
BD
100
AcDbEntity
  8
AM_0
 62
     2
440
 16777216
370
    -2
100
AcDbLine
 10
173.3294487760794
 20
1183.472929449996
 30
0.0
 11
152.1167951815783
 21
1183.472929449996
 31
0.0
  0
LINE
  5
C1
330
BD
100
AcDbEntity
  8
AM_0
 62
     2
440
 16777216
370
    -2
100
AcDbLine
 10
153.1167951815784
 20
1281.472929449996
 30
0.0
 11
153.1167951815783
 21
1195.472929449996
 31
0.0
  0
SOLID
  5
C2
330
BD
100
AcDbEntity
  8
AM_0
 62
     2
440
 16777216
100
AcDbTrace
 10
151.1167951815784
 20
1281.472929449996
 30
0.0
 11
155.1167951815784
 21
1281.472929449996
 31
0.0
 12
153.1167951815784
 22
1293.472929449996
 32
0.0
 13
153.1167951815784
 23
1293.472929449996
 33
0.0
  0
SOLID
  5
C3
330
BD
100
AcDbEntity
  8
AM_0
 62
     2
440
 16777216
100
AcDbTrace
 10
151.1167951815783
 20
1195.472929449996
 30
0.0
 11
155.1167951815783
 21
1195.472929449996
 31
0.0
 12
153.1167951815783
 22
1183.472929449996
 32
0.0
 13
153.1167951815783
 23
1183.472929449996
 33
0.0
  0
MTEXT
  5
C4
330
BD
100
AcDbEntity
  8
AM_0
 62
     3
440
 16777216
100
AcDbMText
 10
141.4264814025877
 20
1230.057119592649
 30
0.0
 40
9.0
 41
0.0
 46
0.0
 71
     1
 72
     1
  1
\A1;110
  7
ARIAL-STANDARD
 11
0.0000000000000001
 21
1.0
 31
0.0
 73
     1
 44
1.0
  0
POINT
  5
C5
330
BD
100
AcDbEntity
  8
DEFPOINTS
 62
     0
440
 16777216
100
AcDbPoint
 10
173.3294487760794
 20
1293.472929449996
 30
0.0
  0
POINT
  5
C6
330
BD
100
AcDbEntity
  8
DEFPOINTS
 62
     0
440
 16777216
100
AcDbPoint
 10
173.3294487760794
 20
1183.472929449996
 30
0.0
  0
POINT
  5
C7
330
BD
100
AcDbEntity
  8
DEFPOINTS
 62
     0
440
 16777216
100
AcDbPoint
 10
153.1167951815783
 20
1183.472929449996
 30
0.0
  0
ENDBLK
  5
C8
330
BD
100
AcDbEntity
  8
0
100
AcDbBlockEnd
  0
BLOCK
  5
AD
330
AC
100
AcDbEntity
  8
0
100
AcDbBlockBegin
  2
*D8
 70
     1
 10
0.0
 20
0.0
 30
0.0
  3
*D8
  1

  0
LINE
  5
AE
330
AC
100
AcDbEntity
  8
BEMASSUNG
 62
     2
440
 16777216
370
    -2
100
AcDbLine
 10
172.8294487760794
 20
1183.972929449996
 30
0.0
 11
172.8294487760794
 21
1157.509370601396
 31
0.0
  0
LINE
  5
AF
330
AC
100
AcDbEntity
  8
BEMASSUNG
 62
     2
440
 16777216
370
    -2
100
AcDbLine
 10
196.8294487760794
 20
1183.972929449996
 30
0.0
 11
196.8294487760794
 21
1157.509370601396
 31
0.0
  0
LINE
  5
B0
330
AC
100
AcDbEntity
  8
BEMASSUNG
 62
     2
440
 16777216
370
    -2
100
AcDbLine
 10
160.8294487760794
 20
1158.509370601396
 30
0.0
 11
148.8294487760794
 21
1158.509370601396
 31
0.0
  0
LINE
  5
B1
330
AC
100
AcDbEntity
  8
BEMASSUNG
 62
     2
440
 16777216
370
    -2
100
AcDbLine
 10
208.8294487760795
 20
1158.509370601396
 30
0.0
 11
220.8294487760795
 21
1158.509370601396
 31
0.0
  0
LINE
  5
B2
330
AC
100
AcDbEntity
  8
BEMASSUNG
 62
     2
440
 16777216
370
    -2
100
AcDbLine
 10
172.8294487760794
 20
1158.509370601396
 30
0.0
 11
196.8294487760794
 21
1158.509370601396
 31
0.0
  0
SOLID
  5
B3
330
AC
100
AcDbEntity
  8
BEMASSUNG
 62
     2
440
 16777216
100
AcDbTrace
 10
160.8294487760794
 20
1160.509370601396
 30
0.0
 11
160.8294487760794
 21
1156.509370601396
 31
0.0
 12
172.8294487760794
 22
1158.509370601396
 32
0.0
 13
172.8294487760794
 23
1158.509370601396
 33
0.0
  0
SOLID
  5
B4
330
AC
100
AcDbEntity
  8
BEMASSUNG
 62
     2
440
 16777216
100
AcDbTrace
 10
208.8294487760795
 20
1160.509370601396
 30
0.0
 11
208.8294487760795
 21
1156.509370601396
 31
0.0
 12
196.8294487760794
 22
1158.509370601396
 32
0.0
 13
196.8294487760794
 23
1158.509370601396
 33
0.0
  0
MTEXT
  5
B5
330
AC
100
AcDbEntity
  8
BEMASSUNG
 62
     3
440
 16777216
100
AcDbMText
 10
184.8294487760794
 20
1165.527788063879
 30
0.0
 40
9.0
 41
0.0
 46
0.0
 71
     5
 72
     1
  1
\A1;24
  7
ARIAL-STANDARD
 73
     1
 44
1.0
  0
POINT
  5
B6
330
AC
100
AcDbEntity
  8
DEFPOINTS
 62
     0
440
 16777216
100
AcDbPoint
 10
172.8294487760794
 20
1183.972929449996
 30
0.0
  0
POINT
  5
B7
330
AC
100
AcDbEntity
  8
DEFPOINTS
 62
     0
440
 16777216
100
AcDbPoint
 10
196.8294487760794
 20
1183.972929449996
 30
0.0
  0
POINT
  5
B8
330
AC
100
AcDbEntity
  8
DEFPOINTS
 62
     0
440
 16777216
100
AcDbPoint
 10
196.8294487760794
 20
1158.509370601396
 30
0.0
  0
ENDBLK
  5
B9
330
AC
100
AcDbEntity
  8
0
100
AcDbBlockEnd
  0
BLOCK
  5
9E
330
9D
100
AcDbEntity
  8
0
100
AcDbBlockBegin
  2
*D9
 70
     1
 10
0.0
 20
0.0
 30
0.0
  3
*D9
  1

  0
LINE
  5
9F
330
9D
100
AcDbEntity
  8
BEMASSUNG
 62
     2
440
 16777216
370
    -2
100
AcDbLine
 10
177.3294487760794
 20
1216.972929449996
 30
0.0
 11
177.3294487760794
 21
1202.026017938502
 31
0.0
  0
LINE
  5
A0
330
9D
100
AcDbEntity
  8
BEMASSUNG
 62
     2
440
 16777216
370
    -2
100
AcDbLine
 10
192.3294487760795
 20
1216.972929449996
 30
0.0
 11
192.3294487760795
 21
1202.026017938502
 31
0.0
  0
LINE
  5
A1
330
9D
100
AcDbEntity
  8
BEMASSUNG
 62
     2
440
 16777216
370
    -2
100
AcDbLine
 10
165.3294487760794
 20
1203.026017938502
 30
0.0
 11
153.3294487760794
 21
1203.026017938502
 31
0.0
  0
LINE
  5
A2
330
9D
100
AcDbEntity
  8
BEMASSUNG
 62
     2
440
 16777216
370
    -2
100
AcDbLine
 10
204.3294487760796
 20
1203.026017938502
 30
0.0
 11
233.80478294216
 21
1203.026017938502
 31
0.0
  0
LINE
  5
A3
330
9D
100
AcDbEntity
  8
BEMASSUNG
 62
     2
440
 16777216
370
    -2
100
AcDbLine
 10
177.3294487760794
 20
1203.026017938502
 30
0.0
 11
192.3294487760795
 21
1203.026017938502
 31
0.0
  0
SOLID
  5
A4
330
9D
100
AcDbEntity
  8
BEMASSUNG
 62
     2
440
 16777216
100
AcDbTrace
 10
165.3294487760794
 20
1205.026017938502
 30
0.0
 11
165.3294487760794
 21
1201.026017938502
 31
0.0
 12
177.3294487760794
 22
1203.026017938502
 32
0.0
 13
177.3294487760794
 23
1203.026017938502
 33
0.0
  0
SOLID
  5
A5
330
9D
100
AcDbEntity
  8
BEMASSUNG
 62
     2
440
 16777216
100
AcDbTrace
 10
204.3294487760796
 20
1205.026017938502
 30
0.0
 11
204.3294487760796
 21
1201.026017938502
 31
0.0
 12
192.3294487760795
 22
1203.026017938502
 32
0.0
 13
192.3294487760795
 23
1203.026017938502
 33
0.0
  0
MTEXT
  5
A6
330
9D
100
AcDbEntity
  8
BEMASSUNG
 62
     3
440
 16777216
100
AcDbMText
 10
225.248507362351
 20
1210.121174827997
 30
0.0
 40
9.0
 41
0.0
 46
0.0
 71
     5
 72
     1
  1
\A1;15
  7
ARIAL-STANDARD
 73
     1
 44
1.0
  0
POINT
  5
A7
330
9D
100
AcDbEntity
  8
DEFPOINTS
 62
     0
440
 16777216
100
AcDbPoint
 10
177.3294487760794
 20
1216.972929449996
 30
0.0
  0
POINT
  5
A8
330
9D
100
AcDbEntity
  8
DEFPOINTS
 62
     0
440
 16777216
100
AcDbPoint
 10
192.3294487760795
 20
1216.972929449996
 30
0.0
  0
POINT
  5
A9
330
9D
100
AcDbEntity
  8
DEFPOINTS
 62
     0
440
 16777216
100
AcDbPoint
 10
192.3294487760795
 20
1203.026017938502
 30
0.0
  0
ENDBLK
  5
AA
330
9D
100
AcDbEntity
  8
0
100
AcDbBlockEnd
  0
BLOCK
  5
124
330
123
100
AcDbEntity
  8
0
100
AcDbBlockBegin
  2
*D10
 70
     1
 10
0.0
 20
0.0
 30
0.0
  3
*D10
  1

  0
LINE
  5
125
330
123
100
AcDbEntity
  8
BEMASSUNG
 62
     2
440
 16777216
370
    -2
100
AcDbLine
 10
183.0165752235856
 20
930.480117358349
 30
0.0
 11
193.4898989194803
 21
930.480117358349
 31
0.0
  0
LINE
  5
126
330
123
100
AcDbEntity
  8
BEMASSUNG
 62
     2
440
 16777216
370
    -2
100
AcDbLine
 10
187.3615752235857
 20
886.4801173583487
 30
0.0
 11
193.4898989194803
 21
886.4801173583487
 31
0.0
  0
LINE
  5
127
330
123
100
AcDbEntity
  8
BEMASSUNG
 62
     2
440
 16777216
370
    -2
100
AcDbLine
 10
192.4898989194803
 20
918.4801173583487
 30
0.0
 11
192.4898989194803
 21
898.4801173583488
 31
0.0
  0
SOLID
  5
128
330
123
100
AcDbEntity
  8
BEMASSUNG
 62
     2
440
 16777216
100
AcDbTrace
 10
190.4898989194803
 20
918.4801173583487
 30
0.0
 11
194.4898989194803
 21
918.4801173583487
 31
0.0
 12
192.4898989194803
 22
930.480117358349
 32
0.0
 13
192.4898989194803
 23
930.480117358349
 33
0.0
  0
SOLID
  5
129
330
123
100
AcDbEntity
  8
BEMASSUNG
 62
     2
440
 16777216
100
AcDbTrace
 10
190.4898989194803
 20
898.4801173583488
 30
0.0
 11
194.4898989194803
 21
898.4801173583488
 31
0.0
 12
192.4898989194803
 22
886.4801173583487
 32
0.0
 13
192.4898989194803
 23
886.4801173583487
 33
0.0
  0
MTEXT
  5
12A
330
123
100
AcDbEntity
  8
BEMASSUNG
 62
     3
440
 16777216
100
AcDbMText
 10
185.4898989194802
 20
908.4801173583487
 30
0.0
 40
9.0
 41
0.0
 46
0.0
 71
     5
 72
     1
  1
\A1;44
  7
ARIAL-STANDARD
 11
0.0000000000000001
 21
1.0
 31
0.0
 73
     1
 44
1.0
  0
POINT
  5
12B
330
123
100
AcDbEntity
  8
DEFPOINTS
 62
     0
440
 16777216
100
AcDbPoint
 10
183.0165752235856
 20
930.480117358349
 30
0.0
  0
POINT
  5
12C
330
123
100
AcDbEntity
  8
DEFPOINTS
 62
     0
440
 16777216
100
AcDbPoint
 10
187.3615752235857
 20
886.4801173583487
 30
0.0
  0
POINT
  5
12D
330
123
100
AcDbEntity
  8
DEFPOINTS
 62
     0
440
 16777216
100
AcDbPoint
 10
192.4898989194803
 20
886.4801173583487
 30
0.0
  0
ENDBLK
  5
12E
330
123
100
AcDbEntity
  8
0
100
AcDbBlockEnd
  0
BLOCK
  5
117
330
116
100
AcDbEntity
  8
0
100
AcDbBlockBegin
  2
*D11
 70
     1
 10
0.0
 20
0.0
 30
0.0
  3
*D11
  1

  0
LINE
  5
118
330
116
100
AcDbEntity
  8
BEMASSUNG
 62
     2
440
 16777216
370
    -2
100
AcDbLine
 10
190.1900023483318
 20
932.4801173583487
 30
0.0
 11
156.1774317110448
 21
932.4801173583487
 31
0.0
  0
LINE
  5
119
330
116
100
AcDbEntity
  8
BEMASSUNG
 62
     2
440
 16777216
370
    -2
100
AcDbLine
 10
190.1900023483321
 20
884.4801173583489
 30
0.0
 11
156.1774317110448
 21
884.4801173583489
 31
0.0
  0
LINE
  5
11A
330
116
100
AcDbEntity
  8
BEMASSUNG
 62
     2
440
 16777216
370
    -2
100
AcDbLine
 10
157.1774317110448
 20
920.4801173583486
 30
0.0
 11
157.1774317110448
 21
896.4801173583486
 31
0.0
  0
SOLID
  5
11B
330
116
100
AcDbEntity
  8
BEMASSUNG
 62
     2
440
 16777216
100
AcDbTrace
 10
155.1774317110448
 20
920.4801173583486
 30
0.0
 11
159.1774317110448
 21
920.4801173583486
 31
0.0
 12
157.1774317110448
 22
932.4801173583487
 32
0.0
 13
157.1774317110448
 23
932.4801173583487
 33
0.0
  0
SOLID
  5
11C
330
116
100
AcDbEntity
  8
BEMASSUNG
 62
     2
440
 16777216
100
AcDbTrace
 10
155.1774317110448
 20
896.4801173583486
 30
0.0
 11
159.1774317110448
 21
896.4801173583486
 31
0.0
 12
157.1774317110448
 22
884.4801173583489
 32
0.0
 13
157.1774317110448
 23
884.4801173583489
 33
0.0
  0
MTEXT
  5
11D
330
116
100
AcDbEntity
  8
BEMASSUNG
 62
     3
440
 16777216
100
AcDbMText
 10
150.0822748215495
 20
908.4801173583487
 30
0.0
 40
9.0
 41
0.0
 46
0.0
 71
     5
 72
     1
  1
\A1;48
  7
ARIAL-STANDARD
 11
0.0000000000000001
 21
1.0
 31
0.0
 73
     1
 44
1.0
  0
POINT
  5
11E
330
116
100
AcDbEntity
  8
DEFPOINTS
 62
     0
440
 16777216
100
AcDbPoint
 10
190.1900023483318
 20
932.4801173583487
 30
0.0
  0
POINT
  5
11F
330
116
100
AcDbEntity
  8
DEFPOINTS
 62
     0
440
 16777216
100
AcDbPoint
 10
190.1900023483321
 20
884.4801173583489
 30
0.0
  0
POINT
  5
120
330
116
100
AcDbEntity
  8
DEFPOINTS
 62
     0
440
 16777216
100
AcDbPoint
 10
157.1774317110448
 20
884.4801173583489
 30
0.0
  0
ENDBLK
  5
121
330
116
100
AcDbEntity
  8
0
100
AcDbBlockEnd
  0
BLOCK
  5
90
330
8F
100
AcDbEntity
  8
0
100
AcDbBlockBegin
  2
*D12
 70
     1
 10
0.0
 20
0.0
 30
0.0
  3
*D12
  1

  0
LINE
  5
91
330
8F
100
AcDbEntity
  8
BEMASSUNG
 62
     2
440
 16777216
370
    -2
100
AcDbLine
 10
179.3294487760794
 20
1261.972929449996
 30
0.0
 11
165.498906524606
 21
1261.972929449996
 31
0.0
  0
LINE
  5
92
330
8F
100
AcDbEntity
  8
BEMASSUNG
 62
     2
440
 16777216
370
    -2
100
AcDbLine
 10
179.3294487760794
 20
1214.972929449996
 30
0.0
 11
165.498906524606
 21
1214.972929449996
 31
0.0
  0
LINE
  5
93
330
8F
100
AcDbEntity
  8
BEMASSUNG
 62
     2
440
 16777216
370
    -2
100
AcDbLine
 10
166.498906524606
 20
1249.972929449996
 30
0.0
 11
166.498906524606
 21
1226.972929449996
 31
0.0
  0
SOLID
  5
94
330
8F
100
AcDbEntity
  8
BEMASSUNG
 62
     2
440
 16777216
100
AcDbTrace
 10
164.498906524606
 20
1249.972929449996
 30
0.0
 11
168.498906524606
 21
1249.972929449996
 31
0.0
 12
166.498906524606
 22
1261.972929449996
 32
0.0
 13
166.498906524606
 23
1261.972929449996
 33
0.0
  0
SOLID
  5
95
330
8F
100
AcDbEntity
  8
BEMASSUNG
 62
     2
440
 16777216
100
AcDbTrace
 10
164.498906524606
 20
1226.972929449996
 30
0.0
 11
168.498906524606
 21
1226.972929449996
 31
0.0
 12
166.498906524606
 22
1214.972929449996
 32
0.0
 13
166.498906524606
 23
1214.972929449996
 33
0.0
  0
MTEXT
  5
96
330
8F
100
AcDbEntity
  8
BEMASSUNG
 62
     3
440
 16777216
100
AcDbMText
 10
159.4989065246058
 20
1238.472929449996
 30
0.0
 40
9.0
 41
0.0
 46
0.0
 71
     5
 72
     1
  1
\A1;47
  7
ARIAL-STANDARD
 11
0.0000000000000001
 21
1.0
 31
0.0
 73
     1
 44
1.0
  0
POINT
  5
97
330
8F
100
AcDbEntity
  8
DEFPOINTS
 62
     0
440
 16777216
100
AcDbPoint
 10
179.3294487760794
 20
1261.972929449996
 30
0.0
  0
POINT
  5
99
330
8F
100
AcDbEntity
  8
DEFPOINTS
 62
     0
440
 16777216
100
AcDbPoint
 10
179.3294487760794
 20
1214.972929449996
 30
0.0
  0
POINT
  5
9A
330
8F
100
AcDbEntity
  8
DEFPOINTS
 62
     0
440
 16777216
100
AcDbPoint
 10
166.498906524606
 20
1214.972929449996
 30
0.0
  0
ENDBLK
  5
9B
330
8F
100
AcDbEntity
  8
0
100
AcDbBlockEnd
  0
BLOCK
  5
10A
330
109
100
AcDbEntity
  8
0
100
AcDbBlockBegin
  2
*D13
 70
     1
 10
0.0
 20
0.0
 30
0.0
  3
*D13
  1

  0
LINE
  5
10B
330
109
100
AcDbEntity
  8
BEMASSUNG
 62
     2
440
 16777216
370
    -2
100
AcDbLine
 10
172.7762109085473
 20
993.4782768751324
 30
0.0
 11
162.5827607133457
 21
993.4782768751324
 31
0.0
  0
LINE
  5
10C
330
109
100
AcDbEntity
  8
BEMASSUNG
 62
     2
440
 16777216
370
    -2
100
AcDbLine
 10
172.7762109085473
 20
723.4801173583487
 30
0.0
 11
162.5827607133457
 21
723.4801173583487
 31
0.0
  0
LINE
  5
10D
330
109
100
AcDbEntity
  8
BEMASSUNG
 62
     2
440
 16777216
370
    -2
100
AcDbLine
 10
163.5827607133457
 20
981.4782768751324
 30
0.0
 11
163.5827607133457
 21
735.4801173583487
 31
0.0
  0
SOLID
  5
10E
330
109
100
AcDbEntity
  8
BEMASSUNG
 62
     2
440
 16777216
100
AcDbTrace
 10
161.5827607133457
 20
981.4782768751324
 30
0.0
 11
165.5827607133457
 21
981.4782768751324
 31
0.0
 12
163.5827607133457
 22
993.4782768751324
 32
0.0
 13
163.5827607133457
 23
993.4782768751324
 33
0.0
  0
SOLID
  5
10F
330
109
100
AcDbEntity
  8
BEMASSUNG
 62
     2
440
 16777216
100
AcDbTrace
 10
161.5827607133457
 20
735.4801173583487
 30
0.0
 11
165.5827607133457
 21
735.4801173583487
 31
0.0
 12
163.5827607133457
 22
723.4801173583487
 32
0.0
 13
163.5827607133457
 23
723.4801173583487
 33
0.0
  0
MTEXT
  5
110
330
109
100
AcDbEntity
  8
BEMASSUNG
 62
     3
440
 16777216
100
AcDbMText
 10
156.4876038238503
 20
858.4791971167405
 30
0.0
 40
9.0
 41
0.0
 46
0.0
 71
     5
 72
     1
  1
\A1;270
  7
ARIAL-STANDARD
 11
0.0000000000000001
 21
1.0
 31
0.0
 73
     1
 44
1.0
  0
POINT
  5
111
330
109
100
AcDbEntity
  8
DEFPOINTS
 62
     0
440
 16777216
100
AcDbPoint
 10
172.7762109085473
 20
993.4782768751324
 30
0.0
  0
POINT
  5
112
330
109
100
AcDbEntity
  8
DEFPOINTS
 62
     0
440
 16777216
100
AcDbPoint
 10
172.7762109085473
 20
723.4801173583487
 30
0.0
  0
POINT
  5
113
330
109
100
AcDbEntity
  8
DEFPOINTS
 62
     0
440
 16777216
100
AcDbPoint
 10
163.5827607133457
 20
723.4801173583487
 30
0.0
  0
ENDBLK
  5
114
330
109
100
AcDbEntity
  8
0
100
AcDbBlockEnd
  0
BLOCK
  5
2B5
330
2B4
100
AcDbEntity
  8
0
100
AcDbBlockBegin
  2
*D14
 70
     1
 10
0.0
 20
0.0
 30
0.0
  3
*D14
  1

  0
LINE
  5
2B6
330
2B4
100
AcDbEntity
  8
BEMASSUNG
 62
     2
440
 16777216
370
    -2
100
AcDbLine
 10
172.7738930660682
 20
145.5972726480934
 30
0.0
 11
156.3452872154701
 21
145.5972726480934
 31
0.0
  0
LINE
  5
2B7
330
2B4
100
AcDbEntity
  8
BEMASSUNG
 62
     2
440
 16777216
370
    -2
100
AcDbLine
 10
172.7738930660675
 20
142.5972726480934
 30
0.0
 11
156.3452872154701
 21
142.5972726480934
 31
0.0
  0
LINE
  5
2B8
330
2B4
100
AcDbEntity
  8
BEMASSUNG
 62
     2
440
 16777216
370
    -2
100
AcDbLine
 10
157.34528721547
 20
157.5972726480934
 30
0.0
 11
157.34528721547
 21
169.5972726480934
 31
0.0
  0
LINE
  5
2B9
330
2B4
100
AcDbEntity
  8
BEMASSUNG
 62
     2
440
 16777216
370
    -2
100
AcDbLine
 10
157.34528721547
 20
130.5972726480934
 30
0.0
 11
157.34528721547
 21
118.5972726480934
 31
0.0
  0
LINE
  5
2BA
330
2B4
100
AcDbEntity
  8
BEMASSUNG
 62
     2
440
 16777216
370
    -2
100
AcDbLine
 10
157.34528721547
 20
145.5972726480934
 30
0.0
 11
157.34528721547
 21
142.5972726480934
 31
0.0
  0
SOLID
  5
2BB
330
2B4
100
AcDbEntity
  8
BEMASSUNG
 62
     2
440
 16777216
100
AcDbTrace
 10
155.34528721547
 20
157.5972726480934
 30
0.0
 11
159.34528721547
 21
157.5972726480934
 31
0.0
 12
157.34528721547
 22
145.5972726480934
 32
0.0
 13
157.34528721547
 23
145.5972726480934
 33
0.0
  0
SOLID
  5
2BC
330
2B4
100
AcDbEntity
  8
BEMASSUNG
 62
     2
440
 16777216
100
AcDbTrace
 10
155.34528721547
 20
130.5972726480934
 30
0.0
 11
159.34528721547
 21
130.5972726480934
 31
0.0
 12
157.34528721547
 22
142.5972726480934
 32
0.0
 13
157.34528721547
 23
142.5972726480934
 33
0.0
  0
MTEXT
  5
2BD
330
2B4
100
AcDbEntity
  8
BEMASSUNG
 62
     3
440
 16777216
100
AcDbMText
 10
145.6488342823186
 20
141.1504786508219
 30
0.0
 40
9.0
 41
0.0
 46
0.0
 71
     1
 72
     1
  1
\A1;3
  7
ARIAL-STANDARD
 11
0.0000000000000001
 21
1.0
 31
0.0
 73
     1
 44
1.0
  0
POINT
  5
2BE
330
2B4
100
AcDbEntity
  8
DEFPOINTS
 62
     0
440
 16777216
100
AcDbPoint
 10
172.7738930660682
 20
145.5972726480934
 30
0.0
  0
POINT
  5
2BF
330
2B4
100
AcDbEntity
  8
DEFPOINTS
 62
     0
440
 16777216
100
AcDbPoint
 10
172.7738930660675
 20
142.5972726480934
 30
0.0
  0
POINT
  5
2C0
330
2B4
100
AcDbEntity
  8
DEFPOINTS
 62
     0
440
 16777216
100
AcDbPoint
 10
157.34528721547
 20
142.5972726480934
 30
0.0
  0
ENDBLK
  5
2C1
330
2B4
100
AcDbEntity
  8
0
100
AcDbBlockEnd
  0
BLOCK
  5
2A5
330
2A4
100
AcDbEntity
  8
0
100
AcDbBlockBegin
  2
*D15
 70
     1
 10
0.0
 20
0.0
 30
0.0
  3
*D15
  1

  0
LINE
  5
2A6
330
2A4
100
AcDbEntity
  8
UMRISS05
 62
     2
440
 16777216
370
    -2
100
AcDbLine
 10
196.7738930660675
 20
142.5972726480863
 30
0.0
 11
196.7738930660675
 21
114.8436893072456
 31
0.0
  0
LINE
  5
2A7
330
2A4
100
AcDbEntity
  8
UMRISS05
 62
     2
440
 16777216
370
    -2
100
AcDbLine
 10
172.7738930660675
 20
142.5972726480917
 30
0.0
 11
172.7738930660675
 21
114.8436893072456
 31
0.0
  0
LINE
  5
2A8
330
2A4
100
AcDbEntity
  8
UMRISS05
 62
     2
440
 16777216
370
    -2
100
AcDbLine
 10
208.7738930660675
 20
115.8436893072456
 30
0.0
 11
220.7738930660675
 21
115.8436893072456
 31
0.0
  0
LINE
  5
2A9
330
2A4
100
AcDbEntity
  8
UMRISS05
 62
     2
440
 16777216
370
    -2
100
AcDbLine
 10
160.7738930660675
 20
115.8436893072456
 30
0.0
 11
148.7738930660675
 21
115.8436893072456
 31
0.0
  0
LINE
  5
2AA
330
2A4
100
AcDbEntity
  8
UMRISS05
 62
     2
440
 16777216
370
    -2
100
AcDbLine
 10
196.7738930660675
 20
115.8436893072456
 30
0.0
 11
172.7738930660675
 21
115.8436893072456
 31
0.0
  0
SOLID
  5
2AB
330
2A4
100
AcDbEntity
  8
UMRISS05
 62
     2
440
 16777216
100
AcDbTrace
 10
208.7738930660675
 20
117.8436893072456
 30
0.0
 11
208.7738930660675
 21
113.8436893072456
 31
0.0
 12
196.7738930660675
 22
115.8436893072456
 32
0.0
 13
196.7738930660675
 23
115.8436893072456
 33
0.0
  0
SOLID
  5
2AC
330
2A4
100
AcDbEntity
  8
UMRISS05
 62
     2
440
 16777216
100
AcDbTrace
 10
160.7738930660675
 20
117.8436893072456
 30
0.0
 11
160.7738930660675
 21
113.8436893072456
 31
0.0
 12
172.7738930660675
 22
115.8436893072456
 32
0.0
 13
172.7738930660675
 23
115.8436893072456
 33
0.0
  0
MTEXT
  5
2AD
330
2A4
100
AcDbEntity
  8
UMRISS05
 62
     3
440
 16777216
100
AcDbMText
 10
184.7738930660675
 20
122.8621067697285
 30
0.0
 40
9.0
 41
0.0
 46
0.0
 71
     5
 72
     1
  1
\A1;24
  7
ARIAL-STANDARD
 73
     1
 44
1.0
  0
POINT
  5
2AE
330
2A4
100
AcDbEntity
  8
DEFPOINTS
 62
     0
440
 16777216
100
AcDbPoint
 10
196.7738930660675
 20
142.5972726480863
 30
0.0
  0
POINT
  5
2AF
330
2A4
100
AcDbEntity
  8
DEFPOINTS
 62
     0
440
 16777216
100
AcDbPoint
 10
172.7738930660675
 20
142.5972726480917
 30
0.0
  0
POINT
  5
2B0
330
2A4
100
AcDbEntity
  8
DEFPOINTS
 62
     0
440
 16777216
100
AcDbPoint
 10
172.7738930660675
 20
115.8436893072456
 30
0.0
  0
ENDBLK
  5
2B1
330
2A4
100
AcDbEntity
  8
0
100
AcDbBlockEnd
  0
BLOCK
  5
283
330
282
100
AcDbEntity
  8
0
100
AcDbBlockBegin
  2
*D16
 70
     1
 10
0.0
 20
0.0
 30
0.0
  3
*D16
  1

  0
LINE
  5
284
330
282
100
AcDbEntity
  8
AM_0
 62
     2
440
 16777216
370
    -2
100
AcDbLine
 10
172.7738930660665
 20
353.9729294499953
 30
0.0
 11
172.7738930660665
 21
302.5647517981679
 31
0.0
  0
LINE
  5
285
330
282
100
AcDbEntity
  8
AM_0
 62
     2
440
 16777216
370
    -2
100
AcDbLine
 10
196.7738930660665
 20
353.9729294499953
 30
0.0
 11
196.7738930660665
 21
302.5647517981679
 31
0.0
  0
LINE
  5
286
330
282
100
AcDbEntity
  8
AM_0
 62
     2
440
 16777216
370
    -2
100
AcDbLine
 10
160.7738930660665
 20
303.5647517981679
 30
0.0
 11
148.7738930660665
 21
303.5647517981679
 31
0.0
  0
LINE
  5
287
330
282
100
AcDbEntity
  8
AM_0
 62
     2
440
 16777216
370
    -2
100
AcDbLine
 10
208.7738930660665
 20
303.5647517981679
 30
0.0
 11
220.7738930660665
 21
303.5647517981679
 31
0.0
  0
LINE
  5
288
330
282
100
AcDbEntity
  8
AM_0
 62
     2
440
 16777216
370
    -2
100
AcDbLine
 10
172.7738930660665
 20
303.5647517981679
 30
0.0
 11
196.7738930660665
 21
303.5647517981679
 31
0.0
  0
SOLID
  5
289
330
282
100
AcDbEntity
  8
AM_0
 62
     2
440
 16777216
100
AcDbTrace
 10
160.7738930660665
 20
305.5647517981679
 30
0.0
 11
160.7738930660665
 21
301.5647517981679
 31
0.0
 12
172.7738930660665
 22
303.5647517981679
 32
0.0
 13
172.7738930660665
 23
303.5647517981679
 33
0.0
  0
SOLID
  5
28A
330
282
100
AcDbEntity
  8
AM_0
 62
     2
440
 16777216
100
AcDbTrace
 10
208.7738930660665
 20
305.5647517981679
 30
0.0
 11
208.7738930660665
 21
301.5647517981679
 31
0.0
 12
196.7738930660665
 22
303.5647517981679
 32
0.0
 13
196.7738930660665
 23
303.5647517981679
 33
0.0
  0
MTEXT
  5
28B
330
282
100
AcDbEntity
  8
AM_0
 62
     3
440
 16777216
100
AcDbMText
 10
178.2694592325058
 20
315.1015867231338
 30
0.0
 40
9.0
 41
0.0
 46
0.0
 71
     1
 72
     1
  1
\A1;24
  7
ARIAL-STANDARD
 73
     1
 44
1.0
  0
POINT
  5
28C
330
282
100
AcDbEntity
  8
DEFPOINTS
 62
     0
440
 16777216
100
AcDbPoint
 10
172.7738930660665
 20
353.9729294499953
 30
0.0
  0
POINT
  5
28D
330
282
100
AcDbEntity
  8
DEFPOINTS
 62
     0
440
 16777216
100
AcDbPoint
 10
196.7738930660665
 20
353.9729294499953
 30
0.0
  0
POINT
  5
28E
330
282
100
AcDbEntity
  8
DEFPOINTS
 62
     0
440
 16777216
100
AcDbPoint
 10
196.7738930660665
 20
303.5647517981679
 30
0.0
  0
ENDBLK
  5
28F
330
282
100
AcDbEntity
  8
0
100
AcDbBlockEnd
  0
BLOCK
  5
276
330
275
100
AcDbEntity
  8
0
100
AcDbBlockBegin
  2
*D17
 70
     1
 10
0.0
 20
0.0
 30
0.0
  3
*D17
  1

  0
LINE
  5
277
330
275
100
AcDbEntity
  8
AM_0
 62
     2
440
 16777216
370
    -2
100
AcDbLine
 10
173.2738930660665
 20
463.4729294499952
 30
0.0
 11
148.2812197958823
 21
463.4729294499952
 31
0.0
  0
LINE
  5
278
330
275
100
AcDbEntity
  8
AM_0
 62
     2
440
 16777216
370
    -2
100
AcDbLine
 10
173.2738930660665
 20
353.4729294499953
 30
0.0
 11
148.2812197958823
 21
353.4729294499953
 31
0.0
  0
LINE
  5
279
330
275
100
AcDbEntity
  8
AM_0
 62
     2
440
 16777216
370
    -2
100
AcDbLine
 10
149.2812197958823
 20
451.4729294499952
 30
0.0
 11
149.2812197958823
 21
365.4729294499952
 31
0.0
  0
SOLID
  5
27A
330
275
100
AcDbEntity
  8
AM_0
 62
     2
440
 16777216
100
AcDbTrace
 10
147.2812197958823
 20
451.4729294499952
 30
0.0
 11
151.2812197958823
 21
451.4729294499952
 31
0.0
 12
149.2812197958823
 22
463.4729294499952
 32
0.0
 13
149.2812197958823
 23
463.4729294499952
 33
0.0
  0
SOLID
  5
27B
330
275
100
AcDbEntity
  8
AM_0
 62
     2
440
 16777216
100
AcDbTrace
 10
147.2812197958823
 20
365.4729294499952
 30
0.0
 11
151.2812197958823
 21
365.4729294499952
 31
0.0
 12
149.2812197958823
 22
353.4729294499953
 32
0.0
 13
149.2812197958823
 23
353.4729294499953
 33
0.0
  0
MTEXT
  5
27C
330
275
100
AcDbEntity
  8
AM_0
 62
     3
440
 16777216
100
AcDbMText
 10
137.5909060168918
 20
398.6368954418934
 30
0.0
 40
9.0
 41
0.0
 46
0.0
 71
     1
 72
     1
  1
\A1;110
  7
ARIAL-STANDARD
 11
0.0000000000000001
 21
1.0
 31
0.0
 73
     1
 44
1.0
  0
POINT
  5
27D
330
275
100
AcDbEntity
  8
DEFPOINTS
 62
     0
440
 16777216
100
AcDbPoint
 10
173.2738930660665
 20
463.4729294499952
 30
0.0
  0
POINT
  5
27E
330
275
100
AcDbEntity
  8
DEFPOINTS
 62
     0
440
 16777216
100
AcDbPoint
 10
173.2738930660665
 20
353.4729294499953
 30
0.0
  0
POINT
  5
27F
330
275
100
AcDbEntity
  8
DEFPOINTS
 62
     0
440
 16777216
100
AcDbPoint
 10
149.2812197958823
 20
353.4729294499953
 30
0.0
  0
ENDBLK
  5
280
330
275
100
AcDbEntity
  8
0
100
AcDbBlockEnd
  0
BLOCK
  5
269
330
268
100
AcDbEntity
  8
0
100
AcDbBlockBegin
  2
*D18
 70
     1
 10
0.0
 20
0.0
 30
0.0
  3
*D18
  1

  0
LINE
  5
26A
330
268
100
AcDbEntity
  8
AM_0
 62
     2
440
 16777216
370
    -2
100
AcDbLine
 10
179.2738930660665
 20
431.9729294499953
 30
0.0
 11
161.9268710149452
 21
431.9729294499953
 31
0.0
  0
LINE
  5
26B
330
268
100
AcDbEntity
  8
AM_0
 62
     2
440
 16777216
370
    -2
100
AcDbLine
 10
179.2738930660665
 20
384.9729294499953
 30
0.0
 11
161.9268710149452
 21
384.9729294499953
 31
0.0
  0
LINE
  5
26C
330
268
100
AcDbEntity
  8
AM_0
 62
     2
440
 16777216
370
    -2
100
AcDbLine
 10
162.9268710149452
 20
419.9729294499952
 30
0.0
 11
162.9268710149452
 21
396.9729294499953
 31
0.0
  0
SOLID
  5
26D
330
268
100
AcDbEntity
  8
AM_0
 62
     2
440
 16777216
100
AcDbTrace
 10
160.9268710149452
 20
419.9729294499952
 30
0.0
 11
164.9268710149453
 21
419.9729294499952
 31
0.0
 12
162.9268710149452
 22
431.9729294499953
 32
0.0
 13
162.9268710149452
 23
431.9729294499953
 33
0.0
  0
SOLID
  5
26E
330
268
100
AcDbEntity
  8
AM_0
 62
     2
440
 16777216
100
AcDbTrace
 10
160.9268710149452
 20
396.9729294499953
 30
0.0
 11
164.9268710149453
 21
396.9729294499953
 31
0.0
 12
162.9268710149452
 22
384.9729294499953
 32
0.0
 13
162.9268710149452
 23
384.9729294499953
 33
0.0
  0
MTEXT
  5
26F
330
268
100
AcDbEntity
  8
AM_0
 62
     3
440
 16777216
100
AcDbMText
 10
151.4268710149452
 20
401.8159185634606
 30
0.0
 40
9.0
 41
0.0
 46
0.0
 71
     1
 72
     1
  1
\A1;47
  7
ARIAL-STANDARD
 11
0.0000000000000001
 21
1.0
 31
0.0
 73
     1
 44
1.0
  0
POINT
  5
270
330
268
100
AcDbEntity
  8
DEFPOINTS
 62
     0
440
 16777216
100
AcDbPoint
 10
179.2738930660665
 20
431.9729294499953
 30
0.0
  0
POINT
  5
271
330
268
100
AcDbEntity
  8
DEFPOINTS
 62
     0
440
 16777216
100
AcDbPoint
 10
179.2738930660665
 20
384.9729294499953
 30
0.0
  0
POINT
  5
272
330
268
100
AcDbEntity
  8
DEFPOINTS
 62
     0
440
 16777216
100
AcDbPoint
 10
162.9268710149452
 20
384.9729294499953
 30
0.0
  0
ENDBLK
  5
273
330
268
100
AcDbEntity
  8
0
100
AcDbBlockEnd
  0
BLOCK
  5
256
330
255
100
AcDbEntity
  8
0
100
AcDbBlockBegin
  2
*D19
 70
     1
 10
0.0
 20
0.0
 30
0.0
  3
*D19
  1

  0
LINE
  5
257
330
255
100
AcDbEntity
  8
BEMASSUNG
 62
     2
440
 16777216
370
    -2
100
AcDbLine
 10
177.2738930660665
 20
386.9729294499953
 30
0.0
 11
177.2738930660665
 21
371.0718281439949
 31
0.0
  0
LINE
  5
258
330
255
100
AcDbEntity
  8
BEMASSUNG
 62
     2
440
 16777216
370
    -2
100
AcDbLine
 10
192.2738930660665
 20
386.9729294499953
 30
0.0
 11
192.2738930660665
 21
371.0718281439949
 31
0.0
  0
LINE
  5
259
330
255
100
AcDbEntity
  8
BEMASSUNG
 62
     2
440
 16777216
370
    -2
100
AcDbLine
 10
165.2738930660665
 20
372.0718281439949
 30
0.0
 11
153.2738930660665
 21
372.0718281439949
 31
0.0
  0
LINE
  5
25A
330
255
100
AcDbEntity
  8
BEMASSUNG
 62
     2
440
 16777216
370
    -2
100
AcDbLine
 10
204.2738930660666
 20
372.0718281439949
 30
0.0
 11
216.2738930660665
 21
372.0718281439949
 31
0.0
  0
LINE
  5
25B
330
255
100
AcDbEntity
  8
BEMASSUNG
 62
     2
440
 16777216
370
    -2
100
AcDbLine
 10
177.2738930660665
 20
372.0718281439949
 30
0.0
 11
192.2738930660665
 21
372.0718281439949
 31
0.0
  0
SOLID
  5
25C
330
255
100
AcDbEntity
  8
BEMASSUNG
 62
     2
440
 16777216
100
AcDbTrace
 10
165.2738930660665
 20
374.0718281439949
 30
0.0
 11
165.2738930660665
 21
370.0718281439949
 31
0.0
 12
177.2738930660665
 22
372.0718281439949
 32
0.0
 13
177.2738930660665
 23
372.0718281439949
 33
0.0
  0
SOLID
  5
25D
330
255
100
AcDbEntity
  8
BEMASSUNG
 62
     2
440
 16777216
100
AcDbTrace
 10
204.2738930660666
 20
374.0718281439949
 30
0.0
 11
204.2738930660666
 21
370.0718281439949
 31
0.0
 12
192.2738930660665
 22
372.0718281439949
 32
0.0
 13
192.2738930660665
 23
372.0718281439949
 33
0.0
  0
MTEXT
  5
25E
330
255
100
AcDbEntity
  8
BEMASSUNG
 62
     3
440
 16777216
100
AcDbMText
 10
184.7738930660665
 20
379.1669850334902
 30
0.0
 40
9.0
 41
0.0
 46
0.0
 71
     5
 72
     1
  1
\A1;15
  7
ARIAL-STANDARD
 73
     1
 44
1.0
  0
POINT
  5
25F
330
255
100
AcDbEntity
  8
DEFPOINTS
 62
     0
440
 16777216
100
AcDbPoint
 10
177.2738930660665
 20
386.9729294499953
 30
0.0
  0
POINT
  5
260
330
255
100
AcDbEntity
  8
DEFPOINTS
 62
     0
440
 16777216
100
AcDbPoint
 10
192.2738930660665
 20
386.9729294499953
 30
0.0
  0
POINT
  5
261
330
255
100
AcDbEntity
  8
DEFPOINTS
 62
     0
440
 16777216
100
AcDbPoint
 10
192.2738930660665
 20
372.0718281439949
 30
0.0
  0
ENDBLK
  5
262
330
255
100
AcDbEntity
  8
0
100
AcDbBlockEnd
  0
BLOCK
  5
F6
330
F5
100
AcDbEntity
  8
0
100
AcDbBlockBegin
  2
*D20
 70
     1
 10
0.0
 20
0.0
 30
0.0
  3
*D20
  1

  0
LINE
  5
F7
330
F5
100
AcDbEntity
  8
UMRISS05
 62
     2
440
 16777216
370
    -2
100
AcDbLine
 10
184.7715752235852
 20
988.2301173583487
 30
0.0
 11
184.7715752235852
 21
1001.801833156653
 31
0.0
  0
LINE
  5
F8
330
F5
100
AcDbEntity
  8
UMRISS05
 62
     2
440
 16777216
370
    -2
100
AcDbLine
 10
232.7715752235857
 20
962.480117358349
 30
0.0
 11
232.7715752235857
 21
1001.801833156653
 31
0.0
  0
LINE
  5
F9
330
F5
100
AcDbEntity
  8
UMRISS05
 62
     2
440
 16777216
370
    -2
100
AcDbLine
 10
196.7715752235852
 20
1000.801833156653
 30
0.0
 11
220.7715752235857
 21
1000.801833156653
 31
0.0
  0
SOLID
  5
FA
330
F5
100
AcDbEntity
  8
UMRISS05
 62
     2
440
 16777216
100
AcDbTrace
 10
196.7715752235852
 20
1002.801833156653
 30
0.0
 11
196.7715752235852
 21
998.8018331566536
 31
0.0
 12
184.7715752235852
 22
1000.801833156653
 32
0.0
 13
184.7715752235852
 23
1000.801833156653
 33
0.0
  0
SOLID
  5
FB
330
F5
100
AcDbEntity
  8
UMRISS05
 62
     2
440
 16777216
100
AcDbTrace
 10
220.7715752235857
 20
1002.801833156653
 30
0.0
 11
220.7715752235857
 21
998.8018331566536
 31
0.0
 12
232.7715752235857
 22
1000.801833156653
 32
0.0
 13
232.7715752235857
 23
1000.801833156653
 33
0.0
  0
MTEXT
  5
FC
330
F5
100
AcDbEntity
  8
UMRISS05
 62
     3
440
 16777216
100
AcDbMText
 10
208.7715752235855
 20
1007.896990046149
 30
0.0
 40
9.0
 41
0.0
 46
0.0
 71
     5
 72
     1
  1
\A1;48
  7
ARIAL-STANDARD
 73
     1
 44
1.0
  0
POINT
  5
FD
330
F5
100
AcDbEntity
  8
DEFPOINTS
 62
     0
440
 16777216
100
AcDbPoint
 10
184.7715752235852
 20
988.2301173583487
 30
0.0
  0
POINT
  5
FE
330
F5
100
AcDbEntity
  8
DEFPOINTS
 62
     0
440
 16777216
100
AcDbPoint
 10
232.7715752235857
 20
962.480117358349
 30
0.0
  0
POINT
  5
FF
330
F5
100
AcDbEntity
  8
DEFPOINTS
 62
     0
440
 16777216
100
AcDbPoint
 10
232.7715752235857
 20
1000.801833156653
 30
0.0
  0
ENDBLK
  5
100
330
F5
100
AcDbEntity
  8
0
100
AcDbBlockEnd
  0
BLOCK
  5
E7
330
E6
100
AcDbEntity
  8
0
100
AcDbBlockBegin
  2
*D21
 70
     1
 10
0.0
 20
0.0
 30
0.0
  3
*D21
  1

  0
LINE
  5
E8
330
E6
100
AcDbEntity
  8
BEMASSUNG
 62
     2
440
 16777216
370
    -2
100
AcDbLine
 10
184.7715752235856
 20
939.990154924617
 30
0.0
 11
184.7715752235856
 21
951.2363601552044
 31
0.0
  0
LINE
  5
E9
330
E6
100
AcDbEntity
  8
BEMASSUNG
 62
     2
440
 16777216
370
    -2
100
AcDbLine
 10
196.7762109085471
 20
967.1966525900495
 30
0.0
 11
196.7762109085471
 21
949.2363601552042
 31
0.0
  0
LINE
  5
EA
330
E6
100
AcDbEntity
  8
BEMASSUNG
 62
     2
440
 16777216
370
    -2
100
AcDbLine
 10
172.7715752235857
 20
950.2363601552044
 30
0.0
 11
160.7715752235856
 21
950.2363601552044
 31
0.0
  0
LINE
  5
EB
330
E6
100
AcDbEntity
  8
BEMASSUNG
 62
     2
440
 16777216
370
    -2
100
AcDbLine
 10
208.7762109085473
 20
950.2363601552044
 30
0.0
 11
220.7762109085471
 21
950.2363601552044
 31
0.0
  0
LINE
  5
EC
330
E6
100
AcDbEntity
  8
BEMASSUNG
 62
     2
440
 16777216
370
    -2
100
AcDbLine
 10
184.7715752235856
 20
950.2363601552044
 30
0.0
 11
196.7762109085471
 21
950.2363601552044
 31
0.0
  0
SOLID
  5
ED
330
E6
100
AcDbEntity
  8
BEMASSUNG
 62
     2
440
 16777216
100
AcDbTrace
 10
172.7715752235857
 20
952.2363601552044
 30
0.0
 11
172.7715752235857
 21
948.2363601552043
 31
0.0
 12
184.7715752235856
 22
950.2363601552044
 32
0.0
 13
184.7715752235856
 23
950.2363601552044
 33
0.0
  0
SOLID
  5
EE
330
E6
100
AcDbEntity
  8
BEMASSUNG
 62
     2
440
 16777216
100
AcDbTrace
 10
208.7762109085473
 20
952.2363601552044
 30
0.0
 11
208.7762109085473
 21
948.2363601552043
 31
0.0
 12
196.7762109085471
 22
950.2363601552044
 32
0.0
 13
196.7762109085471
 23
950.2363601552044
 33
0.0
  0
MTEXT
  5
EF
330
E6
100
AcDbEntity
  8
BEMASSUNG
 62
     3
440
 16777216
100
AcDbMText
 10
190.7738930660665
 20
957.2547776176872
 30
0.0
 40
9.0
 41
0.0
 46
0.0
 71
     5
 72
     1
  1
\A1;12
  7
ARIAL-STANDARD
 73
     1
 44
1.0
  0
POINT
  5
F0
330
E6
100
AcDbEntity
  8
DEFPOINTS
 62
     0
440
 16777216
100
AcDbPoint
 10
184.7715752235856
 20
939.990154924617
 30
0.0
  0
POINT
  5
F1
330
E6
100
AcDbEntity
  8
DEFPOINTS
 62
     0
440
 16777216
100
AcDbPoint
 10
196.7762109085471
 20
967.1966525900495
 30
0.0
  0
POINT
  5
F2
330
E6
100
AcDbEntity
  8
DEFPOINTS
 62
     0
440
 16777216
100
AcDbPoint
 10
196.7762109085471
 20
950.2363601552044
 30
0.0
  0
ENDBLK
  5
F3
330
E6
100
AcDbEntity
  8
0
100
AcDbBlockEnd
  0
BLOCK
  5
30E
330
30D
100
AcDbEntity
  8
0
100
AcDbBlockBegin
  2
_ACMFILLED30
 70
     0
 10
0.0
 20
0.0
 30
0.0
  3
_ACMFILLED30
  1

  0
TRACE
  5
30F
330
30D
100
AcDbEntity
  8
BEMASSUNG
 62
     0
100
AcDbTrace
 10
-1.0
 20
-0.26794919
 30
0.0
 11
-1.0
 21
0.26794919
 31
0.0
 12
0.0
 22
0.0
 32
0.0
 13
0.0
 23
0.0
 33
0.0
  0
ENDBLK
  5
310
330
30D
100
AcDbEntity
  8
0
100
AcDbBlockEnd
  0
BLOCK
  5
244
330
243
100
AcDbEntity
  8
0
100
AcDbBlockBegin
  2
*D23
 70
     1
 10
0.0
 20
0.0
 30
0.0
  3
*D23
  1

  0
LINE
  5
245
330
243
100
AcDbEntity
  8
BEMASSUNG
 62
     2
440
 16777216
370
    -2
100
AcDbLine
 10
191.4651913566736
 20
888.480117358349
 30
0.0
 11
191.4651913566736
 21
869.2838496613292
 31
0.0
  0
LINE
  5
246
330
243
100
AcDbEntity
  8
BEMASSUNG
 62
     2
440
 16777216
370
    -2
100
AcDbLine
 10
196.7715752235856
 20
872.480117358349
 30
0.0
 11
196.7715752235856
 21
869.2838496613292
 31
0.0
  0
LINE
  5
247
330
243
100
AcDbEntity
  8
BEMASSUNG
 62
     2
440
 16777216
370
    -2
100
AcDbLine
 10
208.7715752235856
 20
870.2838496613292
 30
0.0
 11
220.7715752235856
 21
870.2838496613292
 31
0.0
  0
LINE
  5
248
330
243
100
AcDbEntity
  8
BEMASSUNG
 62
     2
440
 16777216
370
    -2
100
AcDbLine
 10
179.4651913566736
 20
870.2838496613292
 30
0.0
 11
143.3939089555821
 21
870.2838496613292
 31
0.0
  0
LINE
  5
249
330
243
100
AcDbEntity
  8
BEMASSUNG
 62
     2
440
 16777216
370
    -2
100
AcDbLine
 10
196.7715752235856
 20
870.2838496613292
 30
0.0
 11
191.4651913566736
 21
870.2838496613292
 31
0.0
  0
SOLID
  5
24A
330
243
100
AcDbEntity
  8
BEMASSUNG
 62
     2
440
 16777216
100
AcDbTrace
 10
208.7715752235856
 20
872.2838496613292
 30
0.0
 11
208.7715752235856
 21
868.2838496613292
 31
0.0
 12
196.7715752235856
 22
870.2838496613292
 32
0.0
 13
196.7715752235856
 23
870.2838496613292
 33
0.0
  0
SOLID
  5
24B
330
243
100
AcDbEntity
  8
BEMASSUNG
 62
     2
440
 16777216
100
AcDbTrace
 10
179.4651913566736
 20
872.2838496613292
 30
0.0
 11
179.4651913566736
 21
868.2838496613292
 31
0.0
 12
191.4651913566736
 22
870.2838496613292
 32
0.0
 13
191.4651913566736
 23
870.2838496613292
 33
0.0
  0
MTEXT
  5
24C
330
243
100
AcDbEntity
  8
BEMASSUNG
 62
     3
440
 16777216
100
AcDbMText
 10
154.1449321479423
 20
877.3790065508244
 30
0.0
 40
9.0
 41
0.0
 46
0.0
 71
     5
 72
     1
  1
\A1;6.5
  7
ARIAL-STANDARD
 73
     1
 44
1.0
  0
POINT
  5
24D
330
243
100
AcDbEntity
  8
DEFPOINTS
 62
     0
440
 16777216
100
AcDbPoint
 10
191.4651913566736
 20
888.480117358349
 30
0.0
  0
POINT
  5
24E
330
243
100
AcDbEntity
  8
DEFPOINTS
 62
     0
440
 16777216
100
AcDbPoint
 10
196.7715752235856
 20
872.480117358349
 30
0.0
  0
POINT
  5
24F
330
243
100
AcDbEntity
  8
DEFPOINTS
 62
     0
440
 16777216
100
AcDbPoint
 10
196.7715752235856
 20
870.2838496613292
 30
0.0
  0
ENDBLK
  5
250
330
243
100
AcDbEntity
  8
0
100
AcDbBlockEnd
  0
BLOCK
  5
51B
330
51A
100
AcDbEntity
  8
0
100
AcDbBlockBegin
  2
*D24
 70
     1
 10
0.0
 20
0.0
 30
0.0
  3
*D24
  1

  0
LINE
  5
7E9
330
51A
100
AcDbEntity
  8
AM_0
 62
     2
440
 16777216
370
    -2
100
AcDbLine
 10
173.3294487760794
 20
1293.472929449996
 30
0.0
 11
135.1593959287529
 21
1293.472929449996
 31
0.0
  0
LINE
  5
7EA
330
51A
100
AcDbEntity
  8
AM_0
 62
     2
440
 16777216
370
    -2
100
AcDbLine
 10
173.3294487760794
 20
1183.472929449996
 30
0.0
 11
135.1593959287528
 21
1183.472929449996
 31
0.0
  0
LINE
  5
7EB
330
51A
100
AcDbEntity
  8
AM_0
 62
     2
440
 16777216
370
    -2
100
AcDbLine
 10
136.1593959287529
 20
1281.472929449996
 30
0.0
 11
136.1593959287528
 21
1195.472929449996
 31
0.0
  0
SOLID
  5
7EC
330
51A
100
AcDbEntity
  8
AM_0
 62
     2
440
 16777216
100
AcDbTrace
 10
134.1593959287529
 20
1281.472929449996
 30
0.0
 11
138.1593959287529
 21
1281.472929449996
 31
0.0
 12
136.1593959287529
 22
1293.472929449996
 32
0.0
 13
136.1593959287529
 23
1293.472929449996
 33
0.0
  0
SOLID
  5
7ED
330
51A
100
AcDbEntity
  8
AM_0
 62
     2
440
 16777216
100
AcDbTrace
 10
134.1593959287528
 20
1195.472929449996
 30
0.0
 11
138.1593959287528
 21
1195.472929449996
 31
0.0
 12
136.1593959287528
 22
1183.472929449996
 32
0.0
 13
136.1593959287528
 23
1183.472929449996
 33
0.0
  0
MTEXT
  5
7EE
330
51A
100
AcDbEntity
  8
AM_0
 62
     3
440
 16777216
100
AcDbMText
 10
129.0642390392574
 20
1239.560530233849
 30
0.0
 40
9.0
 41
0.0
 46
0.0
 71
     5
 72
     1
  1
\A1;110
  7
ARIAL-STANDARD
 11
0.0000000000000001
 21
1.0
 31
0.0
 73
     1
 44
1.0
  0
POINT
  5
7EF
330
51A
100
AcDbEntity
  8
DEFPOINTS
 62
     0
440
 16777216
100
AcDbPoint
 10
173.3294487760794
 20
1293.472929449996
 30
0.0
  0
POINT
  5
7F0
330
51A
100
AcDbEntity
  8
DEFPOINTS
 62
     0
440
 16777216
100
AcDbPoint
 10
173.3294487760794
 20
1183.472929449996
 30
0.0
  0
POINT
  5
7F1
330
51A
100
AcDbEntity
  8
DEFPOINTS
 62
     0
440
 16777216
100
AcDbPoint
 10
136.1593959287528
 20
1183.472929449996
 30
0.0
  0
ENDBLK
  5
51C
330
51A
100
AcDbEntity
  8
0
100
AcDbBlockEnd
  0
BLOCK
  5
527
330
526
100
AcDbEntity
  8
0
100
AcDbBlockBegin
  2
*D25
 70
     1
 10
0.0
 20
0.0
 30
0.0
  3
*D25
  1

  0
LINE
  5
7F2
330
526
100
AcDbEntity
  8
BEMASSUNG
 62
     2
440
 16777216
370
    -2
100
AcDbLine
 10
179.3294487760794
 20
1261.972929449996
 30
0.0
 11
151.1774317110448
 21
1261.972929449996
 31
0.0
  0
LINE
  5
7F3
330
526
100
AcDbEntity
  8
BEMASSUNG
 62
     2
440
 16777216
370
    -2
100
AcDbLine
 10
179.3294487760794
 20
1214.972929449996
 30
0.0
 11
151.1774317110448
 21
1214.972929449996
 31
0.0
  0
LINE
  5
7F4
330
526
100
AcDbEntity
  8
BEMASSUNG
 62
     2
440
 16777216
370
    -2
100
AcDbLine
 10
152.1774317110448
 20
1249.972929449996
 30
0.0
 11
152.1774317110448
 21
1226.972929449996
 31
0.0
  0
SOLID
  5
7F5
330
526
100
AcDbEntity
  8
BEMASSUNG
 62
     2
440
 16777216
100
AcDbTrace
 10
150.1774317110448
 20
1249.972929449996
 30
0.0
 11
154.1774317110448
 21
1249.972929449996
 31
0.0
 12
152.1774317110448
 22
1261.972929449996
 32
0.0
 13
152.1774317110448
 23
1261.972929449996
 33
0.0
  0
SOLID
  5
7F6
330
526
100
AcDbEntity
  8
BEMASSUNG
 62
     2
440
 16777216
100
AcDbTrace
 10
150.1774317110448
 20
1226.972929449996
 30
0.0
 11
154.1774317110448
 21
1226.972929449996
 31
0.0
 12
152.1774317110448
 22
1214.972929449996
 32
0.0
 13
152.1774317110448
 23
1214.972929449996
 33
0.0
  0
MTEXT
  5
7F7
330
526
100
AcDbEntity
  8
BEMASSUNG
 62
     3
440
 16777216
100
AcDbMText
 10
145.1774317110446
 20
1238.472929449996
 30
0.0
 40
9.0
 41
0.0
 46
0.0
 71
     5
 72
     1
  1
\A1;47
  7
ARIAL-STANDARD
 11
0.0000000000000001
 21
1.0
 31
0.0
 73
     1
 44
1.0
  0
POINT
  5
7F8
330
526
100
AcDbEntity
  8
DEFPOINTS
 62
     0
440
 16777216
100
AcDbPoint
 10
179.3294487760794
 20
1261.972929449996
 30
0.0
  0
POINT
  5
7F9
330
526
100
AcDbEntity
  8
DEFPOINTS
 62
     0
440
 16777216
100
AcDbPoint
 10
179.3294487760794
 20
1214.972929449996
 30
0.0
  0
POINT
  5
7FA
330
526
100
AcDbEntity
  8
DEFPOINTS
 62
     0
440
 16777216
100
AcDbPoint
 10
152.1774317110448
 20
1214.972929449996
 30
0.0
  0
ENDBLK
  5
528
330
526
100
AcDbEntity
  8
0
100
AcDbBlockEnd
  0
BLOCK
  5
533
330
532
100
AcDbEntity
  8
0
100
AcDbBlockBegin
  2
*D26
 70
     1
 10
0.0
 20
0.0
 30
0.0
  3
*D26
  1

  0
LINE
  5
72D
330
532
100
AcDbEntity
  8
BEMASSUNG
 62
     2
440
 16777216
370
    -2
100
AcDbLine
 10
172.7762109085473
 20
993.4782768751324
 30
0.0
 11
135.1593959287529
 21
993.4782768751324
 31
0.0
  0
LINE
  5
72E
330
532
100
AcDbEntity
  8
BEMASSUNG
 62
     2
440
 16777216
370
    -2
100
AcDbLine
 10
172.7762109085473
 20
723.4801173583487
 30
0.0
 11
135.1593959287528
 21
723.4801173583487
 31
0.0
  0
LINE
  5
72F
330
532
100
AcDbEntity
  8
BEMASSUNG
 62
     2
440
 16777216
370
    -2
100
AcDbLine
 10
136.1593959287529
 20
981.4782768751324
 30
0.0
 11
136.1593959287528
 21
735.4801173583487
 31
0.0
  0
SOLID
  5
730
330
532
100
AcDbEntity
  8
BEMASSUNG
 62
     2
440
 16777216
100
AcDbTrace
 10
134.1593959287529
 20
981.4782768751324
 30
0.0
 11
138.1593959287529
 21
981.4782768751324
 31
0.0
 12
136.1593959287529
 22
993.4782768751324
 32
0.0
 13
136.1593959287529
 23
993.4782768751324
 33
0.0
  0
SOLID
  5
731
330
532
100
AcDbEntity
  8
BEMASSUNG
 62
     2
440
 16777216
100
AcDbTrace
 10
134.1593959287528
 20
735.4801173583487
 30
0.0
 11
138.1593959287528
 21
735.4801173583487
 31
0.0
 12
136.1593959287528
 22
723.4801173583487
 32
0.0
 13
136.1593959287528
 23
723.4801173583487
 33
0.0
  0
MTEXT
  5
732
330
532
100
AcDbEntity
  8
BEMASSUNG
 62
     3
440
 16777216
100
AcDbMText
 10
129.0642390392575
 20
858.4791971167405
 30
0.0
 40
9.0
 41
0.0
 46
0.0
 71
     5
 72
     1
  1
\A1;270
  7
ARIAL-STANDARD
 11
0.0000000000000001
 21
1.0
 31
0.0
 73
     1
 44
1.0
  0
POINT
  5
733
330
532
100
AcDbEntity
  8
DEFPOINTS
 62
     0
440
 16777216
100
AcDbPoint
 10
172.7762109085473
 20
993.4782768751324
 30
0.0
  0
POINT
  5
734
330
532
100
AcDbEntity
  8
DEFPOINTS
 62
     0
440
 16777216
100
AcDbPoint
 10
172.7762109085473
 20
723.4801173583487
 30
0.0
  0
POINT
  5
735
330
532
100
AcDbEntity
  8
DEFPOINTS
 62
     0
440
 16777216
100
AcDbPoint
 10
136.1593959287528
 20
723.4801173583487
 30
0.0
  0
ENDBLK
  5
534
330
532
100
AcDbEntity
  8
0
100
AcDbBlockEnd
  0
BLOCK
  5
53F
330
53E
100
AcDbEntity
  8
0
100
AcDbBlockBegin
  2
*D27
 70
     1
 10
0.0
 20
0.0
 30
0.0
  3
*D27
  1

  0
LINE
  5
7FB
330
53E
100
AcDbEntity
  8
AM_0
 62
     2
440
 16777216
370
    -2
100
AcDbLine
 10
173.2738930660665
 20
463.4729294499952
 30
0.0
 11
135.1593959287528
 21
463.4729294499952
 31
0.0
  0
LINE
  5
7FC
330
53E
100
AcDbEntity
  8
AM_0
 62
     2
440
 16777216
370
    -2
100
AcDbLine
 10
173.2738930660665
 20
353.4729294499953
 30
0.0
 11
135.1593959287528
 21
353.4729294499953
 31
0.0
  0
LINE
  5
7FD
330
53E
100
AcDbEntity
  8
AM_0
 62
     2
440
 16777216
370
    -2
100
AcDbLine
 10
136.1593959287528
 20
451.4729294499952
 30
0.0
 11
136.1593959287528
 21
365.4729294499953
 31
0.0
  0
SOLID
  5
7FE
330
53E
100
AcDbEntity
  8
AM_0
 62
     2
440
 16777216
100
AcDbTrace
 10
134.1593959287528
 20
451.4729294499952
 30
0.0
 11
138.1593959287528
 21
451.4729294499952
 31
0.0
 12
136.1593959287528
 22
463.4729294499952
 32
0.0
 13
136.1593959287528
 23
463.4729294499952
 33
0.0
  0
SOLID
  5
7FF
330
53E
100
AcDbEntity
  8
AM_0
 62
     2
440
 16777216
100
AcDbTrace
 10
134.1593959287528
 20
365.4729294499953
 30
0.0
 11
138.1593959287528
 21
365.4729294499953
 31
0.0
 12
136.1593959287528
 22
353.4729294499953
 32
0.0
 13
136.1593959287528
 23
353.4729294499953
 33
0.0
  0
MTEXT
  5
800
330
53E
100
AcDbEntity
  8
AM_0
 62
     3
440
 16777216
100
AcDbMText
 10
129.0642390392575
 20
408.472929449995
 30
0.0
 40
9.0
 41
0.0
 46
0.0
 71
     5
 72
     1
  1
\A1;110
  7
ARIAL-STANDARD
 11
0.0000000000000001
 21
1.0
 31
0.0
 73
     1
 44
1.0
  0
POINT
  5
801
330
53E
100
AcDbEntity
  8
DEFPOINTS
 62
     0
440
 16777216
100
AcDbPoint
 10
173.2738930660665
 20
463.4729294499952
 30
0.0
  0
POINT
  5
802
330
53E
100
AcDbEntity
  8
DEFPOINTS
 62
     0
440
 16777216
100
AcDbPoint
 10
173.2738930660665
 20
353.4729294499953
 30
0.0
  0
POINT
  5
803
330
53E
100
AcDbEntity
  8
DEFPOINTS
 62
     0
440
 16777216
100
AcDbPoint
 10
136.1593959287528
 20
353.4729294499953
 30
0.0
  0
ENDBLK
  5
540
330
53E
100
AcDbEntity
  8
0
100
AcDbBlockEnd
  0
BLOCK
  5
556
330
555
100
AcDbEntity
  8
0
100
AcDbBlockBegin
  2
*D28
 70
     1
 10
0.0
 20
0.0
 30
0.0
  3
*D28
  1

  0
LINE
  5
804
330
555
100
AcDbEntity
  8
AM_0
 62
     2
440
 16777216
370
    -2
100
AcDbLine
 10
179.2738930660665
 20
431.9729294499953
 30
0.0
 11
151.1774317110448
 21
431.9729294499953
 31
0.0
  0
LINE
  5
805
330
555
100
AcDbEntity
  8
AM_0
 62
     2
440
 16777216
370
    -2
100
AcDbLine
 10
179.2738930660665
 20
384.9729294499953
 30
0.0
 11
151.1774317110448
 21
384.9729294499953
 31
0.0
  0
LINE
  5
806
330
555
100
AcDbEntity
  8
AM_0
 62
     2
440
 16777216
370
    -2
100
AcDbLine
 10
152.1774317110448
 20
419.9729294499952
 30
0.0
 11
152.1774317110448
 21
396.9729294499953
 31
0.0
  0
SOLID
  5
807
330
555
100
AcDbEntity
  8
AM_0
 62
     2
440
 16777216
100
AcDbTrace
 10
150.1774317110448
 20
419.9729294499952
 30
0.0
 11
154.1774317110448
 21
419.9729294499952
 31
0.0
 12
152.1774317110448
 22
431.9729294499953
 32
0.0
 13
152.1774317110448
 23
431.9729294499953
 33
0.0
  0
SOLID
  5
808
330
555
100
AcDbEntity
  8
AM_0
 62
     2
440
 16777216
100
AcDbTrace
 10
150.1774317110448
 20
396.9729294499953
 30
0.0
 11
154.1774317110448
 21
396.9729294499953
 31
0.0
 12
152.1774317110448
 22
384.9729294499953
 32
0.0
 13
152.1774317110448
 23
384.9729294499953
 33
0.0
  0
MTEXT
  5
809
330
555
100
AcDbEntity
  8
AM_0
 62
     3
440
 16777216
100
AcDbMText
 10
145.1774317110447
 20
408.4431354802409
 30
0.0
 40
9.0
 41
0.0
 46
0.0
 71
     5
 72
     1
  1
\A1;47
  7
ARIAL-STANDARD
 11
0.0000000000000001
 21
1.0
 31
0.0
 73
     1
 44
1.0
  0
POINT
  5
80A
330
555
100
AcDbEntity
  8
DEFPOINTS
 62
     0
440
 16777216
100
AcDbPoint
 10
179.2738930660665
 20
431.9729294499953
 30
0.0
  0
POINT
  5
80B
330
555
100
AcDbEntity
  8
DEFPOINTS
 62
     0
440
 16777216
100
AcDbPoint
 10
179.2738930660665
 20
384.9729294499953
 30
0.0
  0
POINT
  5
80C
330
555
100
AcDbEntity
  8
DEFPOINTS
 62
     0
440
 16777216
100
AcDbPoint
 10
152.1774317110448
 20
384.9729294499953
 30
0.0
  0
ENDBLK
  5
557
330
555
100
AcDbEntity
  8
0
100
AcDbBlockEnd
  0
BLOCK
  5
737
330
736
100
AcDbEntity
  8
0
100
AcDbBlockBegin
  2
*D29
 70
     1
 10
0.0
 20
0.0
 30
0.0
  3
*D29
  1

  0
LINE
  5
739
330
736
100
AcDbEntity
  8
BEMASSUNG
 62
     2
440
 16777216
370
    -2
100
AcDbLine
 10
190.1900023483318
 20
932.4801173583487
 30
0.0
 11
151.1774317110448
 21
932.4801173583487
 31
0.0
  0
LINE
  5
73A
330
736
100
AcDbEntity
  8
BEMASSUNG
 62
     2
440
 16777216
370
    -2
100
AcDbLine
 10
190.1900023483321
 20
884.4801173583489
 30
0.0
 11
151.1774317110448
 21
884.4801173583489
 31
0.0
  0
LINE
  5
73B
330
736
100
AcDbEntity
  8
BEMASSUNG
 62
     2
440
 16777216
370
    -2
100
AcDbLine
 10
152.1774317110448
 20
920.4801173583486
 30
0.0
 11
152.1774317110448
 21
896.4801173583486
 31
0.0
  0
SOLID
  5
73C
330
736
100
AcDbEntity
  8
BEMASSUNG
 62
     2
440
 16777216
100
AcDbTrace
 10
150.1774317110448
 20
920.4801173583486
 30
0.0
 11
154.1774317110448
 21
920.4801173583486
 31
0.0
 12
152.1774317110448
 22
932.4801173583487
 32
0.0
 13
152.1774317110448
 23
932.4801173583487
 33
0.0
  0
SOLID
  5
73D
330
736
100
AcDbEntity
  8
BEMASSUNG
 62
     2
440
 16777216
100
AcDbTrace
 10
150.1774317110448
 20
896.4801173583486
 30
0.0
 11
154.1774317110448
 21
896.4801173583486
 31
0.0
 12
152.1774317110448
 22
884.4801173583489
 32
0.0
 13
152.1774317110448
 23
884.4801173583489
 33
0.0
  0
MTEXT
  5
73E
330
736
100
AcDbEntity
  8
BEMASSUNG
 62
     3
440
 16777216
100
AcDbMText
 10
145.0822748215494
 20
908.4801173583487
 30
0.0
 40
9.0
 41
0.0
 46
0.0
 71
     5
 72
     1
  1
\A1;48
  7
ARIAL-STANDARD
 11
0.0000000000000001
 21
1.0
 31
0.0
 73
     1
 44
1.0
  0
POINT
  5
73F
330
736
100
AcDbEntity
  8
DEFPOINTS
 62
     0
440
 16777216
100
AcDbPoint
 10
190.1900023483318
 20
932.4801173583487
 30
0.0
  0
POINT
  5
740
330
736
100
AcDbEntity
  8
DEFPOINTS
 62
     0
440
 16777216
100
AcDbPoint
 10
190.1900023483321
 20
884.4801173583489
 30
0.0
  0
POINT
  5
741
330
736
100
AcDbEntity
  8
DEFPOINTS
 62
     0
440
 16777216
100
AcDbPoint
 10
152.1774317110448
 20
884.4801173583489
 30
0.0
  0
ENDBLK
  5
738
330
736
100
AcDbEntity
  8
0
100
AcDbBlockEnd
  0
BLOCK
  5
743
330
742
100
AcDbEntity
  8
0
100
AcDbBlockBegin
  2
*D30
 70
     1
 10
0.0
 20
0.0
 30
0.0
  3
*D30
  1

  0
LINE
  5
745
330
742
100
AcDbEntity
  8
BEMASSUNG
 62
     2
440
 16777216
370
    -2
100
AcDbLine
 10
183.0165752235856
 20
930.480117358349
 30
0.0
 11
166.1769669034456
 21
930.480117358349
 31
0.0
  0
LINE
  5
746
330
742
100
AcDbEntity
  8
BEMASSUNG
 62
     2
440
 16777216
370
    -2
100
AcDbLine
 10
187.3615752235857
 20
886.4801173583487
 30
0.0
 11
166.1769669034456
 21
886.4801173583487
 31
0.0
  0
LINE
  5
747
330
742
100
AcDbEntity
  8
BEMASSUNG
 62
     2
440
 16777216
370
    -2
100
AcDbLine
 10
167.1769669034456
 20
918.480117358349
 30
0.0
 11
167.1769669034456
 21
898.4801173583488
 31
0.0
  0
SOLID
  5
748
330
742
100
AcDbEntity
  8
BEMASSUNG
 62
     2
440
 16777216
100
AcDbTrace
 10
165.1769669034456
 20
918.480117358349
 30
0.0
 11
169.1769669034456
 21
918.480117358349
 31
0.0
 12
167.1769669034456
 22
930.480117358349
 32
0.0
 13
167.1769669034456
 23
930.480117358349
 33
0.0
  0
SOLID
  5
749
330
742
100
AcDbEntity
  8
BEMASSUNG
 62
     2
440
 16777216
100
AcDbTrace
 10
165.1769669034456
 20
898.4801173583488
 30
0.0
 11
169.1769669034456
 21
898.4801173583488
 31
0.0
 12
167.1769669034456
 22
886.4801173583487
 32
0.0
 13
167.1769669034456
 23
886.4801173583487
 33
0.0
  0
MTEXT
  5
74A
330
742
100
AcDbEntity
  8
BEMASSUNG
 62
     3
440
 16777216
100
AcDbMText
 10
160.1769669034455
 20
908.4801173583487
 30
0.0
 40
9.0
 41
0.0
 46
0.0
 71
     5
 72
     1
  1
\A1;44
  7
ARIAL-STANDARD
 11
0.0000000000000001
 21
1.0
 31
0.0
 73
     1
 44
1.0
  0
POINT
  5
74B
330
742
100
AcDbEntity
  8
DEFPOINTS
 62
     0
440
 16777216
100
AcDbPoint
 10
183.0165752235856
 20
930.480117358349
 30
0.0
  0
POINT
  5
74C
330
742
100
AcDbEntity
  8
DEFPOINTS
 62
     0
440
 16777216
100
AcDbPoint
 10
187.3615752235857
 20
886.4801173583487
 30
0.0
  0
POINT
  5
74D
330
742
100
AcDbEntity
  8
DEFPOINTS
 62
     0
440
 16777216
100
AcDbPoint
 10
167.1769669034456
 20
886.4801173583487
 30
0.0
  0
ENDBLK
  5
744
330
742
100
AcDbEntity
  8
0
100
AcDbBlockEnd
  0
BLOCK
  5
80E
330
80D
100
AcDbEntity
  8
0
100
AcDbBlockBegin
  2
*D32
 70
     1
 10
0.0
 20
0.0
 30
0.0
  3
*D32
  1

  0
LINE
  5
810
330
80D
100
AcDbEntity
  8
BEMASSUNG
 62
     2
440
 16777216
370
    -2
100
AcDbLine
 10
172.7738930660682
 20
145.5972726480934
 30
0.0
 11
151.1774317110448
 21
145.5972726480934
 31
0.0
  0
LINE
  5
811
330
80D
100
AcDbEntity
  8
BEMASSUNG
 62
     2
440
 16777216
370
    -2
100
AcDbLine
 10
172.7738930660675
 20
142.5972726480934
 30
0.0
 11
151.1774317110448
 21
142.5972726480934
 31
0.0
  0
LINE
  5
812
330
80D
100
AcDbEntity
  8
BEMASSUNG
 62
     2
440
 16777216
370
    -2
100
AcDbLine
 10
152.1774317110448
 20
157.5972726480934
 30
0.0
 11
152.1774317110448
 21
169.5972726480934
 31
0.0
  0
LINE
  5
813
330
80D
100
AcDbEntity
  8
BEMASSUNG
 62
     2
440
 16777216
370
    -2
100
AcDbLine
 10
152.1774317110448
 20
130.5972726480934
 30
0.0
 11
152.1774317110448
 21
118.5972726480934
 31
0.0
  0
LINE
  5
814
330
80D
100
AcDbEntity
  8
BEMASSUNG
 62
     2
440
 16777216
370
    -2
100
AcDbLine
 10
152.1774317110448
 20
145.5972726480934
 30
0.0
 11
152.1774317110448
 21
142.5972726480934
 31
0.0
  0
SOLID
  5
815
330
80D
100
AcDbEntity
  8
BEMASSUNG
 62
     2
440
 16777216
100
AcDbTrace
 10
150.1774317110448
 20
157.5972726480934
 30
0.0
 11
154.1774317110448
 21
157.5972726480934
 31
0.0
 12
152.1774317110448
 22
145.5972726480934
 32
0.0
 13
152.1774317110448
 23
145.5972726480934
 33
0.0
  0
SOLID
  5
816
330
80D
100
AcDbEntity
  8
BEMASSUNG
 62
     2
440
 16777216
100
AcDbTrace
 10
150.1774317110448
 20
130.5972726480934
 30
0.0
 11
154.1774317110448
 21
130.5972726480934
 31
0.0
 12
152.1774317110448
 22
142.5972726480934
 32
0.0
 13
152.1774317110448
 23
142.5972726480934
 33
0.0
  0
MTEXT
  5
817
330
80D
100
AcDbEntity
  8
BEMASSUNG
 62
     3
440
 16777216
100
AcDbMText
 10
145.0792052444691
 20
144.0972726480934
 30
0.0
 40
9.0
 41
0.0
 46
0.0
 71
     5
 72
     1
  1
\A1;3
  7
ARIAL-STANDARD
 11
0.0000000000000001
 21
1.0
 31
0.0
 73
     1
 44
1.0
  0
POINT
  5
818
330
80D
100
AcDbEntity
  8
DEFPOINTS
 62
     0
440
 16777216
100
AcDbPoint
 10
172.7738930660682
 20
145.5972726480934
 30
0.0
  0
POINT
  5
819
330
80D
100
AcDbEntity
  8
DEFPOINTS
 62
     0
440
 16777216
100
AcDbPoint
 10
172.7738930660675
 20
142.5972726480934
 30
0.0
  0
POINT
  5
81A
330
80D
100
AcDbEntity
  8
DEFPOINTS
 62
     0
440
 16777216
100
AcDbPoint
 10
152.1774317110448
 20
142.5972726480934
 30
0.0
  0
ENDBLK
  5
80F
330
80D
100
AcDbEntity
  8
0
100
AcDbBlockEnd
  0
ENDSEC
  0
SECTION
  2
ENTITIES
  0
MTEXT
  5
7C
330
2
100
AcDbEntity
  8
UMRISS05
 62
     3
100
AcDbMText
 10
180.0
 20
1467.281785893487
 30
0.0
 40
10.0
 41
0.0
 46
0.0
 71
     5
 72
     1
  1
\A1;B-23421.\PRE6233 
  7
ARIAL-STANDARD
 73
     1
 44
1.0
  0
MTEXT
  5
80
330
2
100
AcDbEntity
  8
UMRISS05
 62
     3
100
AcDbMText
 10
192.4425943869732
 20
1420.800363801728
 30
0.0
 40
8.0
 41
0.0
 46
0.0
 71
     5
 72
     1
  1
\A1;rechts / links\Pverwendbar
  7
ARIAL-STANDARD
 73
     1
 44
1.0
  0
MTEXT
  5
81
330
2
100
AcDbEntity
  8
UMRISS05
 62
     3
100
AcDbMText
 10
182.211574920564
 20
1349.229649840837
 30
0.0
 40
8.0
 41
0.0
 46
0.0
 71
     5
 72
     1
  1
\A1;B-23421Z.\P4333
  7
ARIAL-STANDARD
 73
     1
 44
1.0
  0
LINE
  5
82
330
2
100
AcDbEntity
  8
UMRISS05
100
AcDbLine
 10
172.8294487760794
 20
1292.972929449996
 30
0.0
 11
172.8294487760794
 21
1183.972929449996
 31
0.0
  0
LINE
  5
83
330
2
100
AcDbEntity
  8
ACHSEN
 48
0.5
100
AcDbLine
 10
184.7715752235853
 20
1202.972929449998
 30
0.0
 11
184.7715752235853
 21
1187.972929449998
 31
0.0
  0
LINE
  5
88
330
2
100
AcDbEntity
  8
ACHSEN
 48
0.5
100
AcDbLine
 10
184.7417208138637
 20
1288.972929449998
 30
0.0
 11
184.7417208138637
 21
1273.972929449998
 31
0.0
  0
LINE
  5
89
330
2
100
AcDbEntity
  8
ACHSEN
 48
0.5
100
AcDbLine
 10
193.1968679407069
 20
1195.472929449975
 30
0.0
 11
174.9894847720401
 21
1195.472929449975
 31
0.0
  0
LINE
  5
8A
330
2
100
AcDbEntity
  8
ACHSEN
 48
0.5
100
AcDbLine
 10
192.4133027514705
 20
1281.472929449996
 30
0.0
 11
177.1858859812452
 21
1281.472929449996
 31
0.0
  0
DIMENSION
  5
8B
330
2
100
AcDbEntity
  8
BEMASSUNG
100
AcDbDimension
280
     0
  2
*D25
 10
152.1774317110448
 20
1214.972929449996
 30
0.0
 11
145.1774317110446
 21
1238.472929449996
 31
0.0
 70
    32
 71
     5
 42
47.0
 73
     0
 74
     0
 75
     0
  3
Katalog 09
100
AcDbAlignedDimension
 13
179.3294487760794
 23
1261.972929449996
 33
0.0
 14
179.3294487760794
 24
1214.972929449996
 34
0.0
 50
90.0
100
AcDbRotatedDimension
  0
DIMENSION
  5
9C
330
2
100
AcDbEntity
  8
BEMASSUNG
100
AcDbDimension
280
     0
  2
*D9
 10
192.3294487760795
 20
1203.026017938502
 30
0.0
 11
225.248507362351
 21
1203.026017938502
 31
0.0
 70
   128
 71
     5
 42
15.00000000000011
 73
     0
 74
     0
 75
     0
  3
Katalog 09
100
AcDbAlignedDimension
 13
177.3294487760794
 23
1216.972929449996
 33
0.0
 14
192.3294487760795
 24
1216.972929449996
 34
0.0
100
AcDbRotatedDimension
  0
DIMENSION
  5
AB
330
2
100
AcDbEntity
  8
BEMASSUNG
100
AcDbDimension
280
     0
  2
*D8
 10
196.8294487760794
 20
1158.509370601396
 30
0.0
 11
184.8294487760794
 21
1165.527788063879
 31
0.0
 71
     5
 42
24.0
 73
     0
 74
     0
 75
     0
  3
Katalog 09
100
AcDbAlignedDimension
 13
172.8294487760794
 23
1183.972929449996
 33
0.0
 14
196.8294487760794
 24
1183.972929449996
 34
0.0
100
AcDbRotatedDimension
  0
DIMENSION
  5
BA
330
2
100
AcDbEntity
  8
AM_0
100
AcDbDimension
280
     0
  2
*D24
 10
136.1593959287528
 20
1183.472929449996
 30
0.0
 11
136.1593959287527
 21
1239.560530233849
 31
0.0
 70
   160
  1
<>
 71
     5
 42
110.0
 73
     0
 74
     0
 75
     0
  3
Katalog 09
100
AcDbAlignedDimension
 13
173.3294487760794
 23
1293.472929449996
 33
0.0
 14
173.3294487760794
 24
1183.472929449996
 34
0.0
 50
270.0
100
AcDbRotatedDimension
1001
ACAD_DSTYLE_DIMINSPECT
1070
   396
1000
100%
1070
   395
1000

1070
   394
1070
    33
1070
   393
1070
     0
  0
LINE
  5
CA
330
2
100
AcDbEntity
  8
UMRISS05
100
AcDbLine
 10
177.3294487760794
 20
1216.972929449996
 30
0.0
 11
177.3294487760794
 21
1259.972929449996
 31
0.0
  0
LINE
  5
CB
330
2
100
AcDbEntity
  8
UMRISS05
100
AcDbLine
 10
192.3294487760808
 20
1259.972929449996
 30
0.0
 11
192.3294487760808
 21
1216.972929449996
 31
0.0
  0
LINE
  5
CC
330
2
100
AcDbEntity
  8
UMRISS05
100
AcDbLine
 10
179.3294487760797
 20
1261.972929449983
 30
0.0
 11
190.3294487760799
 21
1261.972929449983
 31
0.0
  0
LINE
  5
CD
330
2
100
AcDbEntity
  8
UMRISS05
100
AcDbLine
 10
190.3294487760796
 20
1214.972929449996
 30
0.0
 11
179.3294487760794
 21
1214.972929449996
 31
0.0
  0
ARC
  5
CE
330
2
100
AcDbEntity
  8
UMRISS05
100
AcDbCircle
 10
179.3294487760794
 20
1259.972929449996
 30
0.0
 40
2.00000000000001
100
AcDbArc
 50
90.0
 51
180.0
  0
ARC
  5
CF
330
2
100
AcDbEntity
  8
UMRISS05
100
AcDbCircle
 10
190.3294487760796
 20
1216.972929449996
 30
0.0
 40
1.999999999999995
100
AcDbArc
 50
270.0
 51
0.0
  0
ARC
  5
D0
330
2
100
AcDbEntity
  8
UMRISS05
100
AcDbCircle
 10
190.3294487760794
 20
1259.972929449996
 30
0.0
 40
2.000000000000003
100
AcDbArc
 50
0.0
 51
90.0
  0
ARC
  5
D1
330
2
100
AcDbEntity
  8
UMRISS05
100
AcDbCircle
 10
179.3294487760794
 20
1216.972929449996
 30
0.0
 40
1.999999999999999
100
AcDbArc
 50
180.0
 51
270.0
  0
LINE
  5
D2
330
2
100
AcDbEntity
  8
UMRISS05
100
AcDbLine
 10
173.3294487760794
 20
1293.472929449996
 30
0.0
 11
196.3294487760794
 21
1293.472929449996
 31
0.0
  0
LINE
  5
D3
330
2
100
AcDbEntity
  8
UMRISS05
100
AcDbLine
 10
196.8294487760794
 20
1292.972929449996
 30
0.0
 11
196.8294487760794
 21
1183.972929449996
 31
0.0
  0
LINE
  5
D4
330
2
100
AcDbEntity
  8
UMRISS05
100
AcDbLine
 10
196.3294487760796
 20
1183.472929449996
 30
0.0
 11
173.3294487760794
 21
1183.472929449996
 31
0.0
  0
ARC
  5
D5
330
2
100
AcDbEntity
  8
UMRISS05
100
AcDbCircle
 10
196.3294487760794
 20
1292.972929449996
 30
0.0
 40
0.5000000000000249
100
AcDbArc
 50
0.0
 51
90.0
  0
ARC
  5
D6
330
2
100
AcDbEntity
  8
UMRISS05
100
AcDbCircle
 10
173.3294487760794
 20
1183.972929449996
 30
0.0
 40
0.5000000000000027
100
AcDbArc
 50
180.0
 51
270.0
  0
ARC
  5
D7
330
2
100
AcDbEntity
  8
UMRISS05
100
AcDbCircle
 10
196.3294487760796
 20
1183.972929449996
 30
0.0
 40
0.4999999999999984
100
AcDbArc
 50
270.0
 51
0.0
  0
ARC
  5
D8
330
2
100
AcDbEntity
  8
UMRISS05
100
AcDbCircle
 10
173.3294487760794
 20
1292.972929449996
 30
0.0
 40
0.5000000000000271
100
AcDbArc
 50
90.00000000000651
 51
180.0
  0
CIRCLE
  5
D9
330
2
100
AcDbEntity
  8
UMRISS05
100
AcDbCircle
 10
184.8294487760794
 20
1281.472929449996
 30
0.0
 40
2.75
  0
CIRCLE
  5
DA
330
2
100
AcDbEntity
  8
UMRISS05
100
AcDbCircle
 10
184.8294487760794
 20
1281.472929449996
 30
0.0
 40
4.75
  0
CIRCLE
  5
DB
330
2
100
AcDbEntity
  8
UMRISS05
100
AcDbCircle
 10
184.8294487760839
 20
1195.472929449975
 30
0.0
 40
2.75
  0
CIRCLE
  5
DC
330
2
100
AcDbEntity
  8
UMRISS05
100
AcDbCircle
 10
184.8294487760794
 20
1195.472929449996
 30
0.0
 40
4.75
  0
MTEXT
  5
DD
330
2
100
AcDbEntity
  8
UMRISS05
 62
     3
100
AcDbMText
 10
190.0
 20
1070.0
 30
0.0
 40
8.0
 41
0.0
 46
0.0
 71
     5
 72
     1
  1
\A1;B-23421.\PHRE4233
  7
ARIAL-STANDARD
 73
     1
 44
1.0
  0
LINE
  5
DE
330
2
100
AcDbEntity
  8
Verdeckte Kanten(MSL)
100
AcDbLine
 10
195.4651913566758
 20
888.4801173583486
 30
0.0
 11
191.4651913566758
 21
888.480117358349
 31
0.0
  0
LINE
  5
E1
330
2
100
AcDbEntity
  8
Verdeckte Kanten(MSL)
100
AcDbLine
 10
191.4651913566758
 20
928.4801173583486
 30
0.0
 11
195.4651913566758
 21
928.4801173583486
 31
0.0
  0
LINE
  5
E2
330
2
100
AcDbEntity
  8
Verdeckte Kanten(MSL)
100
AcDbLine
 10
195.4651913566758
 20
928.4801173583486
 30
0.0
 11
195.4651913566758
 21
888.4801173583486
 31
0.0
  0
LINE
  5
E3
330
2
100
AcDbEntity
  8
Verdeckte Kanten(MSL)
100
AcDbLine
 10
191.4651913566758
 20
928.4801173583486
 30
0.0
 11
191.4651913566758
 21
888.480117358349
 31
0.0
  0
LINE
  5
E4
330
2
100
AcDbEntity
  8
ACHSEN
 48
0.5
100
AcDbLine
 10
184.7715752235856
 20
888.9801173583487
 30
0.0
 11
184.7715752235856
 21
875.4801173583487
 31
0.0
  0
DIMENSION
  5
E5
330
2
100
AcDbEntity
  8
BEMASSUNG
100
AcDbDimension
280
     0
  2
*D21
 10
196.7762109085471
 20
950.2363601552044
 30
0.0
 11
190.7738930660665
 21
957.2547776176872
 31
0.0
 71
     5
 42
12.00463568496158
 73
     0
 74
     0
 75
     0
  3
Katalog 09
100
AcDbAlignedDimension
 13
184.7715752235856
 23
939.990154924617
 33
0.0
 14
196.7762109085471
 24
967.1966525900495
 34
0.0
100
AcDbRotatedDimension
  0
DIMENSION
  5
F4
330
2
100
AcDbEntity
  8
UMRISS05
100
AcDbDimension
280
     0
  2
*D20
 10
232.7715752235857
 20
1000.801833156653
 30
0.0
 11
208.7715752235855
 21
1007.896990046149
 31
0.0
 71
     5
 42
48.00000000000046
 73
     0
 74
     0
 75
     0
  3
Katalog 09
100
AcDbAlignedDimension
 13
184.7715752235852
 23
988.2301173583487
 33
0.0
 14
232.7715752235857
 24
962.480117358349
 34
0.0
100
AcDbRotatedDimension
  0
LINE
  5
101
330
2
100
AcDbEntity
  8
ACHSEN
 48
0.5
100
AcDbLine
 10
178.0215752235854
 20
858.4801173583493
 30
0.0
 11
191.5215752235854
 21
858.4801173583493
 31
0.0
  0
LINE
  5
102
330
2
100
AcDbEntity
  8
ACHSEN
 48
0.5
100
AcDbLine
 10
184.7715752235854
 20
865.2301173583493
 30
0.0
 11
184.7715752235854
 21
851.7301173583492
 31
0.0
  0
CIRCLE
  5
103
330
2
100
AcDbEntity
  8
UMRISS05
100
AcDbCircle
 10
184.7715752235854
 20
858.4801173583493
 30
0.0
 40
3.5
  0
CIRCLE
  5
104
330
2
100
AcDbEntity
  8
UMRISS05
100
AcDbCircle
 10
184.7715752235854
 20
858.4801173583493
 30
0.0
 40
4.75
  0
LINE
  5
105
330
2
100
AcDbEntity
  8
ACHSEN
 48
0.5
100
AcDbLine
 10
184.7715752235857
 20
742.7301173583487
 30
0.0
 11
184.7715752235857
 21
728.2301173583487
 31
0.0
  0
LINE
  5
106
330
2
100
AcDbEntity
  8
ACHSEN
 48
0.5
100
AcDbLine
 10
192.0215752235857
 20
735.4801173583487
 30
0.0
 11
177.5215752235857
 21
735.4801173583487
 31
0.0
  0
CIRCLE
  5
107
330
2
100
AcDbEntity
  8
UMRISS05
100
AcDbCircle
 10
184.7715752235857
 20
735.4801173583487
 30
0.0
 40
3.5
  0
DIMENSION
  5
108
330
2
100
AcDbEntity
  8
BEMASSUNG
100
AcDbDimension
280
     0
  2
*D26
 10
136.1593959287528
 20
723.4801173583487
 30
0.0
 11
129.0642390392575
 21
858.4791971167405
 31
0.0
 70
    32
 71
     5
 42
269.9981595167837
 73
     0
 74
     0
 75
     0
  3
Katalog 09
100
AcDbAlignedDimension
 13
172.7762109085473
 23
993.4782768751324
 33
0.0
 14
172.7762109085473
 24
723.4801173583487
 34
0.0
 50
90.0
100
AcDbRotatedDimension
1001
ACAD_DSTYLE_DIMINSPECT
1070
   396
1000
100%
1070
   395
1000

1070
   394
1070
    33
1070
   393
1070
     0
1001
ACAD
1000
DSTYLE
1002
{
1070
   271
1070
     1
1002
}
  0
DIMENSION
  5
115
330
2
100
AcDbEntity
  8
BEMASSUNG
100
AcDbDimension
280
     0
  2
*D29
 10
152.1774317110448
 20
884.4801173583489
 30
0.0
 11
145.0822748215494
 21
908.4801173583487
 31
0.0
 70
    32
 71
     5
 42
47.99999999999989
 73
     0
 74
     0
 75
     0
  3
Katalog 09
100
AcDbAlignedDimension
 13
190.1900023483318
 23
932.4801173583487
 33
0.0
 14
190.1900023483321
 24
884.4801173583489
 34
0.0
 50
90.0
100
AcDbRotatedDimension
  0
DIMENSION
  5
122
330
2
100
AcDbEntity
  8
BEMASSUNG
100
AcDbDimension
280
     0
  2
*D30
 10
167.1769669034456
 20
886.4801173583487
 30
0.0
 11
160.1769669034455
 21
908.4801173583487
 31
0.0
 70
    32
 71
     5
 42
44.00000000000034
 73
     0
 74
     0
 75
     0
  3
Katalog 09
100
AcDbAlignedDimension
 13
183.0165752235856
 23
930.480117358349
 33
0.0
 14
187.3615752235857
 24
886.4801173583487
 34
0.0
 50
90.0
100
AcDbRotatedDimension
  0
LINE
  5
12F
330
2
100
AcDbEntity
  8
ACHSEN
 48
0.8
100
AcDbLine
 10
184.7715752235854
 20
832.4801173583487
 30
0.0
 11
184.7715752235854
 21
784.4801173583487
 31
0.0
  0
LINE
  5
130
330
2
100
AcDbEntity
  8
ACHSEN
 48
0.5
100
AcDbLine
 10
178.0215752235853
 20
981.4801173583488
 30
0.0
 11
191.5215752235852
 21
981.4801173583488
 31
0.0
  0
LINE
  5
131
330
2
100
AcDbEntity
  8
ACHSEN
 48
0.5
100
AcDbLine
 10
184.7715752235852
 20
988.2301173583487
 30
0.0
 11
184.7715752235852
 21
974.7301173583487
 31
0.0
  0
LINE
  5
132
330
2
100
AcDbEntity
  8
ACHSEN
 48
0.5
100
AcDbLine
 10
178.0215752235855
 20
767.4801173583487
 30
0.0
 11
191.5215752235855
 21
767.4801173583487
 31
0.0
  0
LINE
  5
133
330
2
100
AcDbEntity
  8
ACHSEN
 48
0.5
100
AcDbLine
 10
184.7715752235855
 20
774.2301173583487
 30
0.0
 11
184.7715752235855
 21
760.7301173583486
 31
0.0
  0
LINE
  5
134
330
2
100
AcDbEntity
  8
ACHSEN
 48
0.5
100
AcDbLine
 10
178.0215752235855
 20
778.4801173583486
 30
0.0
 11
191.5215752235853
 21
778.4801173583486
 31
0.0
  0
LINE
  5
135
330
2
100
AcDbEntity
  8
ACHSEN
 48
0.5
100
AcDbLine
 10
184.7715752235854
 20
785.2301173582982
 30
0.0
 11
184.7715752235854
 21
771.7301173583991
 31
0.0
  0
DIMENSION
  5
136
330
2
100
AcDbEntity
  8
BEMASSUNG
100
AcDbDimension
280
     0
  2
*D6
 10
249.2940916881422
 20
963.4801173583486
 30
0.0
 11
249.294091688142
 21
977.3444041231266
 31
0.0
 70
   128
  1
<>
 71
     5
 42
30.0
 73
     0
 74
     0
 75
     0
  3
Katalog 09
100
AcDbAlignedDimension
 13
196.7762109085473
 23
993.4801173583487
 33
0.0
 14
234.1415752235857
 24
963.4801173583486
 34
0.0
 50
90.0
100
AcDbRotatedDimension
1001
ACAD_DSTYLE_DIMINSPECT
1070
   396
1000
100%
1070
   395
1000

1070
   394
1070
    33
1070
   393
1070
     0
  0
LINE
  5
143
330
2
100
AcDbEntity
  8
ACHSEN
 48
0.8
100
AcDbLine
 10
191.2715752235856
 20
882.2301173583486
 30
0.0
 11
178.2715752235856
 21
882.2301173583486
 31
0.0
  0
LINE
  5
144
330
2
100
AcDbEntity
  8
ACHSEN
 48
0.8
100
AcDbLine
 10
184.7715752235857
 20
941.2301173583486
 30
0.0
 11
184.7715752235857
 21
928.2301173583487
 31
0.0
  0
LINE
  5
145
330
2
100
AcDbEntity
  8
ACHSEN
 48
0.8
100
AcDbLine
 10
191.2715752235857
 20
934.7301173583486
 30
0.0
 11
178.2715752235857
 21
934.7301173583486
 31
0.0
  0
DIMENSION
  5
146
330
2
100
AcDbEntity
  8
BEMASSUNG
100
AcDbDimension
280
     0
  2
*D5
 10
192.2715752235854
 20
837.8961080589778
 30
0.0
 11
224.8278508033944
 21
837.8961080589778
 31
0.0
 70
   128
  1
<>
 71
     5
 42
15.0
 73
     0
 74
     0
 75
     0
  3
Katalog 09
100
AcDbAlignedDimension
 13
177.2715752235854
 23
829.9801173583487
 33
0.0
 14
192.2715752235854
 24
829.9801173583487
 34
0.0
100
AcDbRotatedDimension
1001
ACAD_DSTYLE_DIMINSPECT
1070
   396
1000
100%
1070
   395
1000

1070
   394
1070
    33
1070
   393
1070
     0
  0
LINE
  5
155
330
2
100
AcDbEntity
  8
ACHSEN
 48
0.8
100
AcDbLine
 10
173.0301542937153
 20
808.4801173583487
 30
0.0
 11
203.2716071225713
 21
808.4801173583487
 31
0.0
  0
DIMENSION
  5
156
330
2
100
AcDbEntity
  8
BEMASSUNG
100
AcDbDimension
280
     0
  2
*D4
 10
249.2940916881422
 20
873.4801173583488
 30
0.0
 11
249.294091688142
 21
921.1430387275257
 31
0.0
 70
   128
  1
<>
 71
     5
 42
89.99999999999989
 73
     0
 74
     0
 75
     0
  3
Katalog 09
100
AcDbAlignedDimension
 13
234.1415752235857
 23
963.4801173583486
 33
0.0
 14
234.1415752235857
 24
873.4801173583488
 34
0.0
 50
90.0
100
AcDbRotatedDimension
1001
ACAD_DSTYLE_DIMINSPECT
1070
   396
1000
100%
1070
   395
1000

1070
   394
1070
    33
1070
   393
1070
     0
  0
DIMENSION
  5
163
330
2
100
AcDbEntity
  8
BEMASSUNG
100
AcDbDimension
280
     0
  2
*D3
 10
172.7762109085473
 20
695.5663330953515
 30
0.0
 11
184.7738930660665
 21
695.5663330953515
 31
0.0
 70
   128
  1
<>
 71
     5
 42
23.99536431503847
 73
     0
 74
     0
 75
     0
  3
Katalog 09
100
AcDbAlignedDimension
 13
196.7715752235858
 23
723.4801173583487
 33
0.0
 14
172.7762109085473
 24
723.378276875132
 34
0.0
 50
180.0
100
AcDbRotatedDimension
1001
ACAD_DSTYLE_DIMINSPECT
1070
   396
1000
100%
1070
   395
1000

1070
   394
1070
    33
1070
   393
1070
     0
  0
LINE
  5
172
330
2
100
AcDbEntity
  8
ACHSEN
 48
0.8
100
AcDbLine
 10
169.6331179063887
 20
908.4801173583487
 30
0.0
 11
203.920157860116
 21
908.4801173583487
 31
0.0
  0
DIMENSION
  5
173
330
2
100
AcDbEntity
  8
BEMASSUNG
100
AcDbDimension
280
     0
  2
*D2
 10
216.7885195066234
 20
831.9801173583487
 30
0.0
 11
216.7885195066233
 21
808.3710764027982
 31
0.0
 70
   128
  1
<>
 71
     5
 42
47.0
 73
     0
 74
     0
 75
     0
  3
Katalog 09
100
AcDbAlignedDimension
 13
192.6415752235855
 23
784.9801173583487
 33
0.0
 14
192.6415752235854
 24
831.9801173583487
 34
0.0
 50
90.0
100
AcDbRotatedDimension
1001
ACAD_DSTYLE_DIMINSPECT
1070
   396
1000
100%
1070
   395
1000

1070
   394
1070
    33
1070
   393
1070
     0
  0
CIRCLE
  5
180
330
2
100
AcDbEntity
  8
UMRISS05
100
AcDbCircle
 10
184.7715752235857
 20
934.7301173583486
 30
0.0
 40
2.5
  0
CIRCLE
  5
181
330
2
100
AcDbEntity
  8
UMRISS05
100
AcDbCircle
 10
184.7715752235856
 20
882.2301173583486
 30
0.0
 40
2.5
  0
ARC
  5
182
330
2
100
AcDbEntity
  8
UMRISS05
100
AcDbCircle
 10
190.2715752235854
 20
829.9801173583487
 30
0.0
 40
1.999999999999993
100
AcDbArc
 50
0.0
 51
90.0
  0
ARC
  5
183
330
2
100
AcDbEntity
  8
UMRISS05
100
AcDbCircle
 10
179.2715752235854
 20
829.9801173583487
 30
0.0
 40
1.999999999999992
100
AcDbArc
 50
90.0
 51
180.0
  0
ARC
  5
184
330
2
100
AcDbEntity
  8
UMRISS05
100
AcDbCircle
 10
179.2715752235855
 20
786.9801173583486
 30
0.0
 40
2.000000000000003
100
AcDbArc
 50
180.0
 51
270.0
  0
ARC
  5
185
330
2
100
AcDbEntity
  8
UMRISS05
100
AcDbCircle
 10
190.2715752235855
 20
786.9801173583486
 30
0.0
 40
1.999999999999992
100
AcDbArc
 50
270.0
 51
0.0
  0
ARC
  5
186
330
2
100
AcDbEntity
  8
UMRISS05
100
AcDbCircle
 10
177.9715752235856
 20
920.2801173583486
 30
0.0
 40
0.3000000000000114
100
AcDbArc
 50
180.0
 51
270.0
  0
LINE
  5
187
330
2
100
AcDbEntity
  8
UMRISS05
100
AcDbLine
 10
178.4715752235858
 20
919.9801173583487
 30
0.0
 11
177.9715752235856
 21
919.9801173583487
 31
0.0
  0
ARC
  5
188
330
2
100
AcDbEntity
  8
UMRISS05
100
AcDbCircle
 10
178.4715752235856
 20
919.6801173583486
 30
0.0
 40
0.3000000000000269
100
AcDbArc
 50
0.0
 51
89.99999999999348
  0
LINE
  5
189
330
2
100
AcDbEntity
  8
UMRISS05
100
AcDbLine
 10
178.7715752235857
 20
897.2801173583487
 30
0.0
 11
178.7715752235857
 21
919.6801173583486
 31
0.0
  0
ARC
  5
18A
330
2
100
AcDbEntity
  8
UMRISS05
100
AcDbCircle
 10
178.4715752235858
 20
897.2801173583487
 30
0.0
 40
0.3000000000000468
100
AcDbArc
 50
270.0
 51
0.0
  0
LINE
  5
18B
330
2
100
AcDbEntity
  8
UMRISS05
100
AcDbLine
 10
177.9715752235857
 20
896.9801173583487
 30
0.0
 11
178.4715752235858
 21
896.9801173583487
 31
0.0
  0
ARC
  5
18C
330
2
100
AcDbEntity
  8
UMRISS05
100
AcDbCircle
 10
177.9715752235857
 20
896.6801173583487
 30
0.0
 40
0.3000000000000402
100
AcDbArc
 50
90.0
 51
180.0
  0
LINE
  5
18D
330
2
100
AcDbEntity
  8
UMRISS05
100
AcDbLine
 10
177.6715752235858
 20
887.4801173583486
 30
0.0
 11
177.6715752235858
 21
896.6801173583487
 31
0.0
  0
ARC
  5
18E
330
2
100
AcDbEntity
  8
UMRISS05
100
AcDbCircle
 10
178.6715752235858
 20
887.4801173583486
 30
0.0
 40
0.9999999999999964
100
AcDbArc
 50
180.0
 51
270.0
  0
LINE
  5
18F
330
2
100
AcDbEntity
  8
UMRISS05
100
AcDbLine
 10
187.3615752235858
 20
886.4801173583487
 30
0.0
 11
178.6715752235858
 21
886.4801173583487
 31
0.0
  0
ARC
  5
190
330
2
100
AcDbEntity
  8
UMRISS05
100
AcDbCircle
 10
187.3615752235857
 20
885.4801173583487
 30
0.0
 40
1.000000000000123
100
AcDbArc
 50
44.99999999999977
 51
89.99999999999348
  0
LINE
  5
191
330
2
100
AcDbEntity
  8
UMRISS05
100
AcDbLine
 10
189.4828955671454
 20
884.7730105771622
 30
0.0
 11
188.0686820047723
 21
886.1872241395353
 31
0.0
  0
ARC
  5
192
330
2
100
AcDbEntity
  8
UMRISS05
100
AcDbCircle
 10
190.1900023483319
 20
885.4801173583485
 30
0.0
 40
0.9999999999998188
100
AcDbArc
 50
224.9999999999972
 51
270.0000000000065
  0
LINE
  5
193
330
2
100
AcDbEntity
  8
UMRISS05
100
AcDbLine
 10
196.7715752235858
 20
884.4801173583487
 30
0.0
 11
190.1900023483319
 21
884.4801173583487
 31
0.0
  0
ARC
  5
194
330
2
100
AcDbEntity
  8
UMRISS05
100
AcDbCircle
 10
196.7715752235858
 20
885.4801173583487
 30
0.0
 40
0.9999999999999895
100
AcDbArc
 50
270.0
 51
0.0
  0
LINE
  5
195
330
2
100
AcDbEntity
  8
UMRISS05
100
AcDbLine
 10
197.7715752235859
 20
905.0801173583487
 30
0.0
 11
197.7715752235859
 21
885.4801173583487
 31
0.0
  0
ARC
  5
196
330
2
100
AcDbEntity
  8
UMRISS05
100
AcDbCircle
 10
198.0715752235857
 20
905.0801173583487
 30
0.0
 40
0.3000000000000291
100
AcDbArc
 50
90.0
 51
180.0
  0
LINE
  5
197
330
2
100
AcDbEntity
  8
UMRISS05
100
AcDbLine
 10
199.4715752235858
 20
905.3801173583487
 30
0.0
 11
198.0715752235857
 21
905.3801173583487
 31
0.0
  0
ARC
  5
198
330
2
100
AcDbEntity
  8
UMRISS05
100
AcDbCircle
 10
199.4715752235858
 20
905.6801173583487
 30
0.0
 40
0.3000000000000524
100
AcDbArc
 50
270.0
 51
0.0
  0
LINE
  5
199
330
2
100
AcDbEntity
  8
UMRISS05
100
AcDbLine
 10
199.7715752235857
 20
911.2801173583486
 30
0.0
 11
199.7715752235857
 21
905.6801173583487
 31
0.0
  0
ARC
  5
19A
330
2
100
AcDbEntity
  8
UMRISS05
100
AcDbCircle
 10
199.4715752235858
 20
911.2801173583486
 30
0.0
 40
0.3000000000000291
100
AcDbArc
 50
0.0
 51
90.0
  0
LINE
  5
19B
330
2
100
AcDbEntity
  8
UMRISS05
100
AcDbLine
 10
198.0715752235857
 20
911.5801173583488
 30
0.0
 11
199.4715752235858
 21
911.5801173583488
 31
0.0
  0
ARC
  5
19C
330
2
100
AcDbEntity
  8
UMRISS05
100
AcDbCircle
 10
198.0715752235857
 20
911.8801173583486
 30
0.0
 40
0.3000000000000035
100
AcDbArc
 50
180.0
 51
270.0
  0
LINE
  5
19D
330
2
100
AcDbEntity
  8
UMRISS05
100
AcDbLine
 10
197.7715752235857
 20
931.4801173583488
 30
0.0
 11
197.7715752235857
 21
911.8801173583486
 31
0.0
  0
ARC
  5
19E
330
2
100
AcDbEntity
  8
UMRISS05
100
AcDbCircle
 10
196.7715752235857
 20
931.4801173583488
 30
0.0
 40
0.9999999999999964
100
AcDbArc
 50
0.0
 51
90.0
  0
LINE
  5
19F
330
2
100
AcDbEntity
  8
UMRISS05
100
AcDbLine
 10
190.1900023483318
 20
932.4801173583487
 30
0.0
 11
196.7715752235856
 21
932.4801173583487
 31
0.0
  0
ARC
  5
1A0
330
2
100
AcDbEntity
  8
UMRISS05
100
AcDbCircle
 10
190.1900023483318
 20
931.4801173583488
 30
0.0
 40
0.9999999999999516
100
AcDbArc
 50
90.0
 51
135.0000000000002
  0
LINE
  5
1A1
330
2
100
AcDbEntity
  8
UMRISS05
100
AcDbLine
 10
188.0686820047723
 20
930.7730105771623
 30
0.0
 11
189.4828955671453
 21
932.1872241395354
 31
0.0
  0
ARC
  5
1A2
330
2
100
AcDbEntity
  8
UMRISS05
100
AcDbCircle
 10
187.3615752235856
 20
931.4801173583488
 30
0.0
 40
0.9999999999999431
100
AcDbArc
 50
270.0
 51
315.0000000000002
  0
LINE
  5
1A3
330
2
100
AcDbEntity
  8
UMRISS05
100
AcDbLine
 10
178.6715752235857
 20
930.480117358349
 30
0.0
 11
187.3615752235856
 21
930.480117358349
 31
0.0
  0
ARC
  5
1A4
330
2
100
AcDbEntity
  8
UMRISS05
100
AcDbCircle
 10
178.6715752235857
 20
929.4801173583486
 30
0.0
 40
0.9999999999999964
100
AcDbArc
 50
90.0
 51
180.0
  0
LINE
  5
1A5
330
2
100
AcDbEntity
  8
UMRISS05
100
AcDbLine
 10
177.6715752235857
 20
920.2801173583486
 30
0.0
 11
177.6715752235857
 21
929.4801173583486
 31
0.0
  0
LINE
  5
1A6
330
2
100
AcDbEntity
  8
UMRISS05
100
AcDbLine
 10
179.2715752235854
 20
831.9801173583487
 30
0.0
 11
190.2715752235854
 21
831.9801173583487
 31
0.0
  0
LINE
  5
1A7
330
2
100
AcDbEntity
  8
UMRISS05
100
AcDbLine
 10
177.2715752235853
 20
786.9801173583486
 30
0.0
 11
177.2715752235853
 21
829.9801173583487
 31
0.0
  0
LINE
  5
1A8
330
2
100
AcDbEntity
  8
UMRISS05
100
AcDbLine
 10
190.2715752235855
 20
784.9801173583487
 30
0.0
 11
179.2715752235855
 21
784.9801173583487
 31
0.0
  0
LINE
  5
1A9
330
2
100
AcDbEntity
  8
UMRISS05
100
AcDbLine
 10
192.2715752235853
 20
829.9801173583487
 30
0.0
 11
192.2715752235853
 21
786.9801173583486
 31
0.0
  0
CIRCLE
  5
1AA
330
2
100
AcDbEntity
  8
UMRISS05
100
AcDbCircle
 10
184.7715752235852
 20
981.4801173583488
 30
0.0
 40
3.5
  0
CIRCLE
  5
1AB
330
2
100
AcDbEntity
  8
UMRISS05
100
AcDbCircle
 10
184.7715752235852
 20
981.4801173583488
 30
0.0
 40
4.75
  0
CIRCLE
  5
1AC
330
2
100
AcDbEntity
  8
UMRISS05
100
AcDbCircle
 10
184.7715752235857
 20
735.4801173583487
 30
0.0
 40
4.75
  0
ARC
  5
1AD
330
2
100
AcDbEntity
  8
UMRISS05
100
AcDbCircle
 10
208.6715752235855
 20
958.4801173583487
 30
0.0
 40
0.1
100
AcDbArc
 50
0.0
 51
180.0
  0
LINE
  5
1AE
330
2
100
AcDbEntity
  8
UMRISS05
100
AcDbLine
 10
208.5715752235858
 20
878.480117358349
 30
0.0
 11
208.5715752235855
 21
958.4801173583487
 31
0.0
  0
ARC
  5
1AF
330
2
100
AcDbEntity
  8
UMRISS05
100
AcDbCircle
 10
208.6715752235858
 20
878.480117358349
 30
0.0
 40
0.1
100
AcDbArc
 50
180.0
 51
0.0
  0
LINE
  5
1B0
330
2
100
AcDbEntity
  8
UMRISS05
100
AcDbLine
 10
208.7715752235855
 20
958.4801173583487
 30
0.0
 11
208.7715752235858
 21
878.480117358349
 31
0.0
  0
ARC
  5
1B1
330
2
100
AcDbEntity
  8
UMRISS05
100
AcDbCircle
 10
212.6715752235856
 20
958.4801173583487
 30
0.0
 40
0.1
100
AcDbArc
 50
0.0
 51
180.0
  0
LINE
  5
1B2
330
2
100
AcDbEntity
  8
UMRISS05
100
AcDbLine
 10
212.5715752235858
 20
878.480117358349
 30
0.0
 11
212.5715752235856
 21
958.4801173583487
 31
0.0
  0
ARC
  5
1B3
330
2
100
AcDbEntity
  8
UMRISS05
100
AcDbCircle
 10
212.6715752235858
 20
878.480117358349
 30
0.0
 40
0.1
100
AcDbArc
 50
180.0
 51
0.0
  0
LINE
  5
1B4
330
2
100
AcDbEntity
  8
UMRISS05
100
AcDbLine
 10
212.7715752235856
 20
958.4801173583487
 30
0.0
 11
212.7715752235858
 21
878.480117358349
 31
0.0
  0
ARC
  5
1B5
330
2
100
AcDbEntity
  8
UMRISS05
100
AcDbCircle
 10
224.6715752235856
 20
958.4801173583487
 30
0.0
 40
0.1
100
AcDbArc
 50
0.0
 51
180.0
  0
LINE
  5
1B6
330
2
100
AcDbEntity
  8
UMRISS05
100
AcDbLine
 10
224.5715752235857
 20
878.480117358349
 30
0.0
 11
224.5715752235856
 21
958.4801173583487
 31
0.0
  0
ARC
  5
1B7
330
2
100
AcDbEntity
  8
UMRISS05
100
AcDbCircle
 10
224.6715752235857
 20
878.480117358349
 30
0.0
 40
0.1
100
AcDbArc
 50
180.0
 51
0.0
  0
LINE
  5
1B8
330
2
100
AcDbEntity
  8
UMRISS05
100
AcDbLine
 10
224.7715752235856
 20
958.4801173583487
 30
0.0
 11
224.7715752235857
 21
878.480117358349
 31
0.0
  0
ARC
  5
1B9
330
2
100
AcDbEntity
  8
UMRISS05
100
AcDbCircle
 10
228.6715752235857
 20
878.480117358349
 30
0.0
 40
0.1
100
AcDbArc
 50
180.0
 51
0.0
  0
LINE
  5
1BA
330
2
100
AcDbEntity
  8
UMRISS05
100
AcDbLine
 10
228.7715752235856
 20
958.4801173583487
 30
0.0
 11
228.7715752235857
 21
878.480117358349
 31
0.0
  0
ARC
  5
1BB
330
2
100
AcDbEntity
  8
UMRISS05
100
AcDbCircle
 10
228.6715752235856
 20
958.4801173583487
 30
0.0
 40
0.1
100
AcDbArc
 50
0.0
 51
180.0
  0
LINE
  5
1BC
330
2
100
AcDbEntity
  8
UMRISS05
100
AcDbLine
 10
228.5715752235857
 20
878.480117358349
 30
0.0
 11
228.5715752235856
 21
958.4801173583487
 31
0.0
  0
ARC
  5
1BD
330
2
100
AcDbEntity
  8
UMRISS05
100
AcDbCircle
 10
216.6715752235856
 20
958.4801173583487
 30
0.0
 40
0.1
100
AcDbArc
 50
0.0
 51
180.0
  0
LINE
  5
1BE
330
2
100
AcDbEntity
  8
UMRISS05
100
AcDbLine
 10
216.5715752235858
 20
878.480117358349
 30
0.0
 11
216.5715752235856
 21
958.4801173583487
 31
0.0
  0
ARC
  5
1BF
330
2
100
AcDbEntity
  8
UMRISS05
100
AcDbCircle
 10
216.6715752235858
 20
878.480117358349
 30
0.0
 40
0.1
100
AcDbArc
 50
180.0
 51
0.0
  0
LINE
  5
1C0
330
2
100
AcDbEntity
  8
UMRISS05
100
AcDbLine
 10
216.7715752235856
 20
958.4801173583487
 30
0.0
 11
216.7715752235858
 21
878.480117358349
 31
0.0
  0
ARC
  5
1C1
330
2
100
AcDbEntity
  8
UMRISS05
100
AcDbCircle
 10
220.6715752235856
 20
958.4801173583487
 30
0.0
 40
0.1
100
AcDbArc
 50
0.0
 51
180.0
  0
LINE
  5
1C2
330
2
100
AcDbEntity
  8
UMRISS05
100
AcDbLine
 10
220.5715752235858
 20
878.480117358349
 30
0.0
 11
220.5715752235856
 21
958.4801173583487
 31
0.0
  0
ARC
  5
1C3
330
2
100
AcDbEntity
  8
UMRISS05
100
AcDbCircle
 10
220.6715752235858
 20
878.480117358349
 30
0.0
 40
0.1
100
AcDbArc
 50
180.0
 51
0.0
  0
LINE
  5
1C4
330
2
100
AcDbEntity
  8
UMRISS05
100
AcDbLine
 10
220.7715752235856
 20
958.4801173583487
 30
0.0
 11
220.7715752235858
 21
878.480117358349
 31
0.0
  0
ARC
  5
1C5
330
2
100
AcDbEntity
  8
UMRISS05
100
AcDbCircle
 10
204.6715752235855
 20
958.4801173583487
 30
0.0
 40
0.1
100
AcDbArc
 50
0.0
 51
180.0
  0
LINE
  5
1C6
330
2
100
AcDbEntity
  8
UMRISS05
100
AcDbLine
 10
204.5715752235857
 20
878.480117358349
 30
0.0
 11
204.5715752235855
 21
958.4801173583487
 31
0.0
  0
ARC
  5
1C7
330
2
100
AcDbEntity
  8
UMRISS05
100
AcDbCircle
 10
204.6715752235857
 20
878.480117358349
 30
0.0
 40
0.1
100
AcDbArc
 50
180.0
 51
0.0
  0
LINE
  5
1C8
330
2
100
AcDbEntity
  8
UMRISS05
100
AcDbLine
 10
204.7715752235855
 20
958.4801173583487
 30
0.0
 11
204.7715752235857
 21
878.480117358349
 31
0.0
  0
ARC
  5
1C9
330
2
100
AcDbEntity
  8
Sichtbare Kanten(MSL)
100
AcDbCircle
 10
197.7715752235856
 20
872.480117358349
 30
0.0
 40
0.9999999999999964
100
AcDbArc
 50
90.0
 51
180.0
  0
ARC
  5
1CB
330
2
100
AcDbEntity
  8
UMRISS05
100
AcDbCircle
 10
197.7715752235857
 20
964.4801173583486
 30
0.0
 40
1.000000000000001
100
AcDbArc
 50
180.0
 51
270.0
  0
LINE
  5
1CC
330
2
100
AcDbEntity
  8
UMRISS05
100
AcDbLine
 10
230.0211903118872
 20
874.6056947258969
 30
0.0
 11
230.6825152628309
 21
873.6137072994813
 31
0.0
  0
LINE
  5
1CD
330
2
100
AcDbEntity
  8
UMRISS05
100
AcDbLine
 10
228.8606351843407
 20
873.6137072994813
 30
0.0
 11
229.5219601352843
 21
874.6056947258969
 31
0.0
  0
LINE
  5
1CE
330
2
100
AcDbEntity
  8
UMRISS05
100
AcDbLine
 10
226.0211903118872
 20
874.6056947258969
 30
0.0
 11
226.6825152628308
 21
873.6137072994813
 31
0.0
  0
LINE
  5
1CF
330
2
100
AcDbEntity
  8
UMRISS05
100
AcDbLine
 10
224.8606351843407
 20
873.6137072994813
 30
0.0
 11
225.5219601352843
 21
874.6056947258969
 31
0.0
  0
LINE
  5
1D0
330
2
100
AcDbEntity
  8
UMRISS05
100
AcDbLine
 10
222.021190311887
 20
874.6056947258969
 30
0.0
 11
222.6825152628308
 21
873.6137072994813
 31
0.0
  0
LINE
  5
1D1
330
2
100
AcDbEntity
  8
UMRISS05
100
AcDbLine
 10
220.8606351843407
 20
873.6137072994813
 30
0.0
 11
221.5219601352843
 21
874.6056947258969
 31
0.0
  0
LINE
  5
1D2
330
2
100
AcDbEntity
  8
UMRISS05
100
AcDbLine
 10
218.021190311887
 20
874.6056947258969
 30
0.0
 11
218.6825152628308
 21
873.6137072994813
 31
0.0
  0
LINE
  5
1D3
330
2
100
AcDbEntity
  8
UMRISS05
100
AcDbLine
 10
216.8606351843406
 20
873.6137072994813
 30
0.0
 11
217.5219601352843
 21
874.6056947258969
 31
0.0
  0
LINE
  5
1D4
330
2
100
AcDbEntity
  8
UMRISS05
100
AcDbLine
 10
214.0211903118871
 20
874.6056947258969
 30
0.0
 11
214.6825152628309
 21
873.6137072994813
 31
0.0
  0
LINE
  5
1D5
330
2
100
AcDbEntity
  8
UMRISS05
100
AcDbLine
 10
212.8606351843407
 20
873.6137072994813
 30
0.0
 11
213.5219601352843
 21
874.6056947258969
 31
0.0
  0
LINE
  5
1D6
330
2
100
AcDbEntity
  8
UMRISS05
100
AcDbLine
 10
210.0211903118871
 20
874.6056947258969
 30
0.0
 11
210.6825152628309
 21
873.6137072994813
 31
0.0
  0
LINE
  5
1D7
330
2
100
AcDbEntity
  8
UMRISS05
100
AcDbLine
 10
208.8606351843407
 20
873.6137072994813
 30
0.0
 11
209.5219601352843
 21
874.6056947258969
 31
0.0
  0
LINE
  5
1D8
330
2
100
AcDbEntity
  8
UMRISS05
100
AcDbLine
 10
206.0211903118871
 20
874.6056947258969
 30
0.0
 11
206.6825152628307
 21
873.6137072994813
 31
0.0
  0
LINE
  5
1D9
330
2
100
AcDbEntity
  8
UMRISS05
100
AcDbLine
 10
204.8606351843406
 20
873.6137072994813
 30
0.0
 11
205.5219601352843
 21
874.6056947258969
 31
0.0
  0
LINE
  5
1DA
330
2
100
AcDbEntity
  8
UMRISS05
100
AcDbLine
 10
202.021190311887
 20
874.6056947258969
 30
0.0
 11
202.6825152628307
 21
873.6137072994813
 31
0.0
  0
LINE
  5
1DB
330
2
100
AcDbEntity
  8
UMRISS05
100
AcDbLine
 10
200.8606351843407
 20
873.6137072994813
 30
0.0
 11
201.5219601352843
 21
874.6056947258969
 31
0.0
  0
LINE
  5
1DC
330
2
100
AcDbEntity
  8
UMRISS05
100
AcDbLine
 10
201.5219601352843
 20
962.3545399908007
 30
0.0
 11
200.8606351843406
 21
963.3465274172163
 31
0.0
  0
LINE
  5
1DD
330
2
100
AcDbEntity
  8
UMRISS05
100
AcDbLine
 10
202.6825152628307
 20
963.3465274172163
 30
0.0
 11
202.021190311887
 21
962.3545399908007
 31
0.0
  0
LINE
  5
1DE
330
2
100
AcDbEntity
  8
UMRISS05
100
AcDbLine
 10
205.5219601352843
 20
962.3545399908007
 30
0.0
 11
204.8606351843406
 21
963.3465274172163
 31
0.0
  0
LINE
  5
1DF
330
2
100
AcDbEntity
  8
UMRISS05
100
AcDbLine
 10
206.6825152628307
 20
963.3465274172163
 30
0.0
 11
206.0211903118871
 21
962.3545399908007
 31
0.0
  0
LINE
  5
1E0
330
2
100
AcDbEntity
  8
UMRISS05
100
AcDbLine
 10
209.5219601352843
 20
962.3545399908007
 30
0.0
 11
208.8606351843406
 21
963.3465274172163
 31
0.0
  0
LINE
  5
1E1
330
2
100
AcDbEntity
  8
UMRISS05
100
AcDbLine
 10
210.6825152628307
 20
963.3465274172163
 30
0.0
 11
210.0211903118871
 21
962.3545399908007
 31
0.0
  0
LINE
  5
1E2
330
2
100
AcDbEntity
  8
UMRISS05
100
AcDbLine
 10
213.5219601352843
 20
962.3545399908007
 30
0.0
 11
212.8606351843406
 21
963.3465274172163
 31
0.0
  0
LINE
  5
1E3
330
2
100
AcDbEntity
  8
UMRISS05
100
AcDbLine
 10
214.6825152628306
 20
963.3465274172163
 30
0.0
 11
214.0211903118871
 21
962.3545399908007
 31
0.0
  0
LINE
  5
1E4
330
2
100
AcDbEntity
  8
UMRISS05
100
AcDbLine
 10
217.5219601352843
 20
962.3545399908007
 30
0.0
 11
216.8606351843406
 21
963.3465274172163
 31
0.0
  0
LINE
  5
1E5
330
2
100
AcDbEntity
  8
UMRISS05
100
AcDbLine
 10
218.6825152628308
 20
963.3465274172163
 30
0.0
 11
218.021190311887
 21
962.3545399908007
 31
0.0
  0
LINE
  5
1E6
330
2
100
AcDbEntity
  8
UMRISS05
100
AcDbLine
 10
221.5219601352843
 20
962.3545399908007
 30
0.0
 11
220.8606351843406
 21
963.3465274172163
 31
0.0
  0
LINE
  5
1E7
330
2
100
AcDbEntity
  8
UMRISS05
100
AcDbLine
 10
222.6825152628308
 20
963.3465274172163
 30
0.0
 11
222.021190311887
 21
962.3545399908007
 31
0.0
  0
LINE
  5
1E8
330
2
100
AcDbEntity
  8
UMRISS05
100
AcDbLine
 10
225.5219601352843
 20
962.3545399908007
 30
0.0
 11
224.8606351843406
 21
963.3465274172163
 31
0.0
  0
LINE
  5
1E9
330
2
100
AcDbEntity
  8
UMRISS05
100
AcDbLine
 10
226.6825152628308
 20
963.3465274172163
 30
0.0
 11
226.021190311887
 21
962.3545399908007
 31
0.0
  0
LINE
  5
1EA
330
2
100
AcDbEntity
  8
UMRISS05
100
AcDbLine
 10
229.5219601352843
 20
962.3545399908007
 30
0.0
 11
228.8606351843406
 21
963.3465274172163
 31
0.0
  0
LINE
  5
1EB
330
2
100
AcDbEntity
  8
UMRISS05
100
AcDbLine
 10
230.6825152628308
 20
963.3465274172163
 30
0.0
 11
230.021190311887
 21
962.3545399908007
 31
0.0
  0
ARC
  5
1EC
330
2
100
AcDbEntity
  8
UMRISS05
100
AcDbCircle
 10
230.9321303511322
 20
873.7801173583489
 30
0.0
 40
0.2999999999999936
100
AcDbArc
 50
213.6900675259805
 51
270.0
  0
ARC
  5
1ED
330
2
100
AcDbEntity
  8
UMRISS05
100
AcDbCircle
 10
229.7715752235857
 20
874.4392846670292
 30
0.0
 40
0.3000000000000092
100
AcDbArc
 50
33.69006752598419
 51
146.3099324740158
  0
ARC
  5
1EE
330
2
100
AcDbEntity
  8
UMRISS05
100
AcDbCircle
 10
228.6110200960393
 20
873.7801173583489
 30
0.0
 40
0.2999999999999882
100
AcDbArc
 50
269.9999999999935
 51
326.3099324740158
  0
ARC
  5
1EF
330
2
100
AcDbEntity
  8
UMRISS05
100
AcDbCircle
 10
226.9321303511322
 20
873.7801173583489
 30
0.0
 40
0.2999999999999936
100
AcDbArc
 50
213.6900675259805
 51
270.0000000000065
  0
ARC
  5
1F0
330
2
100
AcDbEntity
  8
UMRISS05
100
AcDbCircle
 10
225.7715752235857
 20
874.4392846670292
 30
0.0
 40
0.3000000000000128
100
AcDbArc
 50
33.69006752599047
 51
146.3099324740293
  0
ARC
  5
1F1
330
2
100
AcDbEntity
  8
UMRISS05
100
AcDbCircle
 10
224.6110200960394
 20
873.7801173583489
 30
0.0
 40
0.2999999999999759
100
AcDbArc
 50
269.9999999999935
 51
326.3099324740256
  0
ARC
  5
1F2
330
2
100
AcDbEntity
  8
UMRISS05
100
AcDbCircle
 10
222.9321303511321
 20
873.7801173583489
 30
0.0
 40
0.2999999999999936
100
AcDbArc
 50
213.6900675259805
 51
270.0000000000065
  0
ARC
  5
1F3
330
2
100
AcDbEntity
  8
UMRISS05
100
AcDbCircle
 10
221.7715752235857
 20
874.4392846670292
 30
0.0
 40
0.3000000000000128
100
AcDbArc
 50
33.69006752599047
 51
146.3099324740293
  0
ARC
  5
1F4
330
2
100
AcDbEntity
  8
UMRISS05
100
AcDbCircle
 10
220.6110200960394
 20
873.7801173583489
 30
0.0
 40
0.2999999999999376
100
AcDbArc
 50
269.9999999999935
 51
326.3099324740293
  0
ARC
  5
1F5
330
2
100
AcDbEntity
  8
UMRISS05
100
AcDbCircle
 10
218.9321303511321
 20
873.7801173583489
 30
0.0
 40
0.2999999999999936
100
AcDbArc
 50
213.6900675259805
 51
270.0000000000065
  0
ARC
  5
1F6
330
2
100
AcDbEntity
  8
UMRISS05
100
AcDbCircle
 10
217.7715752235857
 20
874.4392846670292
 30
0.0
 40
0.3000000000000227
100
AcDbArc
 50
33.69006752598419
 51
146.3099324740158
  0
ARC
  5
1F7
330
2
100
AcDbEntity
  8
UMRISS05
100
AcDbCircle
 10
216.6110200960393
 20
873.7801173583489
 30
0.0
 40
0.300000000000083
100
AcDbArc
 50
270.000000000013
 51
326.3099324740158
  0
ARC
  5
1F8
330
2
100
AcDbEntity
  8
UMRISS05
100
AcDbCircle
 10
214.9321303511322
 20
873.7801173583489
 30
0.0
 40
0.3000000000000114
100
AcDbArc
 50
213.6900675259805
 51
270.0
  0
ARC
  5
1F9
330
2
100
AcDbEntity
  8
UMRISS05
100
AcDbCircle
 10
213.7715752235857
 20
874.4392846670292
 30
0.0
 40
0.3000000000000092
100
AcDbArc
 50
33.69006752598419
 51
146.3099324740158
  0
ARC
  5
1FA
330
2
100
AcDbEntity
  8
UMRISS05
100
AcDbCircle
 10
212.6110200960393
 20
873.7801173583489
 30
0.0
 40
0.3000000000000966
100
AcDbArc
 50
270.0000000000065
 51
326.3099324740058
  0
ARC
  5
1FB
330
2
100
AcDbEntity
  8
UMRISS05
100
AcDbCircle
 10
210.9321303511322
 20
873.7801173583489
 30
0.0
 40
0.3000000000000114
100
AcDbArc
 50
213.6900675259805
 51
270.0
  0
ARC
  5
1FC
330
2
100
AcDbEntity
  8
UMRISS05
100
AcDbCircle
 10
209.7715752235857
 20
874.4392846670292
 30
0.0
 40
0.3000000000000209
100
AcDbArc
 50
33.69006752598419
 51
146.3099324740158
  0
ARC
  5
1FD
330
2
100
AcDbEntity
  8
UMRISS05
100
AcDbCircle
 10
208.6110200960393
 20
873.7801173583489
 30
0.0
 40
0.2999999999999937
100
AcDbArc
 50
269.9999999999935
 51
326.3099324740196
  0
ARC
  5
1FE
330
2
100
AcDbEntity
  8
UMRISS05
100
AcDbCircle
 10
206.9321303511322
 20
873.7801173583489
 30
0.0
 40
0.2999999999999936
100
AcDbArc
 50
213.6900675259805
 51
270.0000000000065
  0
ARC
  5
1FF
330
2
100
AcDbEntity
  8
UMRISS05
100
AcDbCircle
 10
205.7715752235857
 20
874.4392846670292
 30
0.0
 40
0.3000000000000011
100
AcDbArc
 50
33.6900675259805
 51
146.3099324740195
  0
ARC
  5
200
330
2
100
AcDbEntity
  8
UMRISS05
100
AcDbCircle
 10
204.6110200960393
 20
873.7801173583489
 30
0.0
 40
0.29999999999999
100
AcDbArc
 50
269.9999999999935
 51
326.3099324740158
  0
ARC
  5
201
330
2
100
AcDbEntity
  8
UMRISS05
100
AcDbCircle
 10
202.932130351132
 20
873.7801173583489
 30
0.0
 40
0.2999999999999936
100
AcDbArc
 50
213.6900675259805
 51
270.0
  0
ARC
  5
202
330
2
100
AcDbEntity
  8
UMRISS05
100
AcDbCircle
 10
201.7715752235857
 20
874.4392846670292
 30
0.0
 40
0.3000000000000128
100
AcDbArc
 50
33.69006752599047
 51
146.3099324740293
  0
ARC
  5
203
330
2
100
AcDbEntity
  8
UMRISS05
100
AcDbCircle
 10
200.6110200960394
 20
873.7801173583489
 30
0.0
 40
0.2999999999999587
100
AcDbArc
 50
269.999999999987
 51
326.3099324740196
  0
ARC
  5
204
330
2
100
AcDbEntity
  8
UMRISS05
100
AcDbCircle
 10
200.6110200960393
 20
963.1801173583486
 30
0.0
 40
0.3000000000000091
100
AcDbArc
 50
33.69006752598419
 51
90.0
  0
ARC
  5
205
330
2
100
AcDbEntity
  8
UMRISS05
100
AcDbCircle
 10
201.7715752235857
 20
962.5209500496684
 30
0.0
 40
0.2999999999999998
100
AcDbArc
 50
213.6900675259707
 51
326.3099324740158
  0
ARC
  5
206
330
2
100
AcDbEntity
  8
UMRISS05
100
AcDbCircle
 10
202.932130351132
 20
963.1801173583486
 30
0.0
 40
0.3000000000000104
100
AcDbArc
 50
90.0
 51
146.3099324740158
  0
ARC
  5
207
330
2
100
AcDbEntity
  8
UMRISS05
100
AcDbCircle
 10
204.6110200960393
 20
963.1801173583486
 30
0.0
 40
0.2999999999999958
100
AcDbArc
 50
33.69006752597438
 51
90.0
  0
ARC
  5
208
330
2
100
AcDbEntity
  8
UMRISS05
100
AcDbCircle
 10
205.7715752235857
 20
962.5209500496684
 30
0.0
 40
0.299999999999998
100
AcDbArc
 50
213.6900675259744
 51
326.3099324740158
  0
ARC
  5
209
330
2
100
AcDbEntity
  8
UMRISS05
100
AcDbCircle
 10
206.932130351132
 20
963.1801173583486
 30
0.0
 40
0.2999999999999925
100
AcDbArc
 50
90.00000000000651
 51
146.3099324740254
  0
ARC
  5
20A
330
2
100
AcDbEntity
  8
UMRISS05
100
AcDbCircle
 10
208.6110200960393
 20
963.1801173583486
 30
0.0
 40
0.3000000000000003
100
AcDbArc
 50
33.69006752597438
 51
90.0
  0
ARC
  5
20B
330
2
100
AcDbEntity
  8
UMRISS05
100
AcDbCircle
 10
209.7715752235857
 20
962.5209500496684
 30
0.0
 40
0.3000000000000042
100
AcDbArc
 50
213.6900675259904
 51
326.3099324740158
  0
ARC
  5
20C
330
2
100
AcDbEntity
  8
UMRISS05
100
AcDbCircle
 10
210.932130351132
 20
963.1801173583486
 30
0.0
 40
0.3000000000000011
100
AcDbArc
 50
90.00000000000651
 51
146.3099324740293
  0
ARC
  5
20D
330
2
100
AcDbEntity
  8
UMRISS05
100
AcDbCircle
 10
212.6110200960393
 20
963.1801173583486
 30
0.0
 40
0.3000000000000069
100
AcDbArc
 50
33.6900675259707
 51
90.0
  0
ARC
  5
20E
330
2
100
AcDbEntity
  8
UMRISS05
100
AcDbCircle
 10
213.7715752235857
 20
962.5209500496684
 30
0.0
 40
0.3000000000000005
100
AcDbArc
 50
213.6900675259744
 51
326.3099324740158
  0
ARC
  5
20F
330
2
100
AcDbEntity
  8
UMRISS05
100
AcDbCircle
 10
214.9321303511321
 20
963.180117358349
 30
0.0
 40
0.2999999999999931
100
AcDbArc
 50
90.00000000000651
 51
146.3099324740293
  0
ARC
  5
210
330
2
100
AcDbEntity
  8
UMRISS05
100
AcDbCircle
 10
216.6110200960393
 20
963.1801173583486
 30
0.0
 40
0.3000000000000091
100
AcDbArc
 50
33.69006752598419
 51
90.0
  0
ARC
  5
211
330
2
100
AcDbEntity
  8
UMRISS05
100
AcDbCircle
 10
217.7715752235857
 20
962.5209500496684
 30
0.0
 40
0.2999999999999956
100
AcDbArc
 50
213.6900675259707
 51
326.3099324740094
  0
ARC
  5
212
330
2
100
AcDbEntity
  8
UMRISS05
100
AcDbCircle
 10
218.9321303511321
 20
963.1801173583486
 30
0.0
 40
0.3000000000000005
100
AcDbArc
 50
90.00000000000651
 51
146.3099324740254
  0
ARC
  5
213
330
2
100
AcDbEntity
  8
UMRISS05
100
AcDbCircle
 10
220.6110200960393
 20
963.180117358349
 30
0.0
 40
0.2999999999999913
100
AcDbArc
 50
33.69006752597438
 51
90.0
  0
ARC
  5
214
330
2
100
AcDbEntity
  8
UMRISS05
100
AcDbCircle
 10
221.7715752235857
 20
962.5209500496684
 30
0.0
 40
0.3000000000000018
100
AcDbArc
 50
213.6900675259707
 51
326.3099324740158
  0
ARC
  5
215
330
2
100
AcDbEntity
  8
UMRISS05
100
AcDbCircle
 10
222.9321303511321
 20
963.180117358349
 30
0.0
 40
0.300000000000003
100
AcDbArc
 50
89.99999999999348
 51
146.3099324740095
  0
ARC
  5
216
330
2
100
AcDbEntity
  8
UMRISS05
100
AcDbCircle
 10
224.6110200960393
 20
963.180117358349
 30
0.0
 40
0.3000000000000003
100
AcDbArc
 50
33.69006752597438
 51
90.0
  0
ARC
  5
217
330
2
100
AcDbEntity
  8
UMRISS05
100
AcDbCircle
 10
225.7715752235857
 20
962.5209500496684
 30
0.0
 40
0.299999999999998
100
AcDbArc
 50
213.6900675259707
 51
326.3099324740158
  0
ARC
  5
218
330
2
100
AcDbEntity
  8
UMRISS05
100
AcDbCircle
 10
226.9321303511321
 20
963.1801173583486
 30
0.0
 40
0.300000000000014
100
AcDbArc
 50
89.99999999999348
 51
146.3099324740095
  0
ARC
  5
219
330
2
100
AcDbEntity
  8
UMRISS05
100
AcDbCircle
 10
228.6110200960393
 20
963.180117358349
 30
0.0
 40
0.2999999999999958
100
AcDbArc
 50
33.69006752597438
 51
90.0
  0
ARC
  5
21A
330
2
100
AcDbEntity
  8
UMRISS05
100
AcDbCircle
 10
229.7715752235857
 20
962.5209500496684
 30
0.0
 40
0.3000000000000042
100
AcDbArc
 50
213.6900675259707
 51
326.3099324740094
  0
ARC
  5
21B
330
2
100
AcDbEntity
  8
UMRISS05
100
AcDbCircle
 10
230.9321303511321
 20
963.180117358349
 30
0.0
 40
0.3000000000000017
100
AcDbArc
 50
89.99999999999348
 51
146.3099324740158
  0
LINE
  5
21C
330
2
100
AcDbEntity
  8
UMRISS05
100
AcDbLine
 10
231.7715752235857
 20
873.4801173583488
 30
0.0
 11
230.9321303511322
 21
873.4801173583488
 31
0.0
  0
LINE
  5
21D
330
2
100
AcDbEntity
  8
UMRISS05
100
AcDbLine
 10
228.6110200960393
 20
873.4801173583488
 30
0.0
 11
226.9321303511322
 21
873.4801173583488
 31
0.0
  0
LINE
  5
21E
330
2
100
AcDbEntity
  8
UMRISS05
100
AcDbLine
 10
224.6110200960394
 20
873.4801173583488
 30
0.0
 11
222.9321303511321
 21
873.4801173583488
 31
0.0
  0
LINE
  5
21F
330
2
100
AcDbEntity
  8
UMRISS05
100
AcDbLine
 10
220.6110200960394
 20
873.4801173583488
 30
0.0
 11
218.9321303511322
 21
873.4801173583488
 31
0.0
  0
LINE
  5
220
330
2
100
AcDbEntity
  8
UMRISS05
100
AcDbLine
 10
216.6110200960393
 20
873.4801173583488
 30
0.0
 11
214.9321303511322
 21
873.4801173583488
 31
0.0
  0
LINE
  5
221
330
2
100
AcDbEntity
  8
UMRISS05
100
AcDbLine
 10
212.6110200960394
 20
873.4801173583488
 30
0.0
 11
210.9321303511322
 21
873.4801173583488
 31
0.0
  0
LINE
  5
222
330
2
100
AcDbEntity
  8
UMRISS05
100
AcDbLine
 10
208.6110200960393
 20
873.4801173583488
 30
0.0
 11
206.9321303511322
 21
873.4801173583488
 31
0.0
  0
LINE
  5
223
330
2
100
AcDbEntity
  8
UMRISS05
100
AcDbLine
 10
204.6110200960393
 20
873.4801173583488
 30
0.0
 11
202.9321303511322
 21
873.4801173583488
 31
0.0
  0
LINE
  5
224
330
2
100
AcDbEntity
  8
UMRISS05
100
AcDbLine
 10
200.6110200960394
 20
873.4801173583488
 30
0.0
 11
197.7715752235856
 21
873.4801173583488
 31
0.0
  0
LINE
  5
225
330
2
100
AcDbEntity
  8
UMRISS05
100
AcDbLine
 10
196.7715752235857
 20
872.480117358349
 30
0.0
 11
196.7715752235857
 21
723.4801173583487
 31
0.0
  0
LINE
  5
226
330
2
100
AcDbEntity
  8
UMRISS05
100
AcDbLine
 10
196.7715752235857
 20
723.4801173583487
 30
0.0
 11
172.7762109085473
 21
723.4801173583487
 31
0.0
  0
LINE
  5
227
330
2
100
AcDbEntity
  8
UMRISS05
100
AcDbLine
 10
172.7762109085473
 20
723.378276875132
 30
0.0
 11
172.7762109085473
 21
993.4782768751324
 31
0.0
  0
LINE
  5
228
330
2
100
AcDbEntity
  8
UMRISS05
100
AcDbLine
 10
172.7762109085473
 20
993.4782768751324
 30
0.0
 11
196.7762109085473
 21
993.4782768751324
 31
0.0
  0
LINE
  5
229
330
2
100
AcDbEntity
  8
UMRISS05
100
AcDbLine
 10
196.7762109085473
 20
993.3782768751319
 30
0.0
 11
196.7762109085473
 21
964.3782768751323
 31
0.0
  0
LINE
  5
22A
330
2
100
AcDbEntity
  8
UMRISS05
100
AcDbLine
 10
197.7715752235857
 20
963.4801173583486
 30
0.0
 11
200.6110200960393
 21
963.4801173583486
 31
0.0
  0
LINE
  5
22B
330
2
100
AcDbEntity
  8
UMRISS05
100
AcDbLine
 10
202.932130351132
 20
963.4801173583486
 30
0.0
 11
204.6110200960393
 21
963.4801173583486
 31
0.0
  0
LINE
  5
22C
330
2
100
AcDbEntity
  8
UMRISS05
100
AcDbLine
 10
206.932130351132
 20
963.4801173583486
 30
0.0
 11
208.6110200960393
 21
963.4801173583486
 31
0.0
  0
LINE
  5
22D
330
2
100
AcDbEntity
  8
UMRISS05
100
AcDbLine
 10
210.932130351132
 20
963.4801173583486
 30
0.0
 11
212.6110200960393
 21
963.4801173583486
 31
0.0
  0
LINE
  5
22E
330
2
100
AcDbEntity
  8
UMRISS05
100
AcDbLine
 10
214.9321303511321
 20
963.4801173583486
 30
0.0
 11
216.6110200960393
 21
963.4801173583486
 31
0.0
  0
LINE
  5
22F
330
2
100
AcDbEntity
  8
UMRISS05
100
AcDbLine
 10
218.9321303511321
 20
963.4801173583486
 30
0.0
 11
220.6110200960393
 21
963.4801173583486
 31
0.0
  0
LINE
  5
230
330
2
100
AcDbEntity
  8
UMRISS05
100
AcDbLine
 10
222.9321303511321
 20
963.4801173583486
 30
0.0
 11
224.6110200960393
 21
963.4801173583486
 31
0.0
  0
LINE
  5
231
330
2
100
AcDbEntity
  8
UMRISS05
100
AcDbLine
 10
226.9321303511321
 20
963.4801173583486
 30
0.0
 11
228.6110200960393
 21
963.4801173583486
 31
0.0
  0
LINE
  5
232
330
2
100
AcDbEntity
  8
UMRISS05
100
AcDbLine
 10
230.9321303511321
 20
963.4801173583486
 30
0.0
 11
231.7715752235857
 21
963.4801173583486
 31
0.0
  0
LINE
  5
233
330
2
100
AcDbEntity
  8
UMRISS05
100
AcDbLine
 10
232.7715752235857
 20
962.480117358349
 30
0.0
 11
232.7715752235858
 21
874.4801173583487
 31
0.0
  0
CIRCLE
  5
234
330
2
100
AcDbEntity
  8
UMRISS05
100
AcDbCircle
 10
184.7715752235857
 20
934.7301173583486
 30
0.0
 40
4.0
  0
CIRCLE
  5
235
330
2
100
AcDbEntity
  8
UMRISS05
100
AcDbCircle
 10
184.7715752235856
 20
882.2301173583486
 30
0.0
 40
4.0
  0
LINE
  5
236
330
2
100
AcDbEntity
  8
UMRISS05
100
AcDbLine
 10
187.2715752235857
 20
747.8301173583489
 30
0.0
 11
182.2715752235857
 21
747.8301173583489
 31
0.0
  0
ARC
  5
237
330
2
100
AcDbEntity
  8
UMRISS05
100
AcDbCircle
 10
187.2715752235857
 20
750.4801173583487
 30
0.0
 40
2.650000000000003
100
AcDbArc
 50
270.0
 51
90.0
  0
LINE
  5
238
330
2
100
AcDbEntity
  8
UMRISS05
100
AcDbLine
 10
182.2715752235857
 20
753.1301173583487
 30
0.0
 11
187.2715752235857
 21
753.1301173583487
 31
0.0
  0
ARC
  5
239
330
2
100
AcDbEntity
  8
UMRISS05
100
AcDbCircle
 10
182.2715752235857
 20
750.4801173583487
 30
0.0
 40
2.650000000000003
100
AcDbArc
 50
90.0
 51
270.0
  0
ARC
  5
23A
330
2
100
AcDbEntity
  8
UMRISS05
100
AcDbCircle
 10
187.2715752235853
 20
966.4801173583487
 30
0.0
 40
2.649999999999999
100
AcDbArc
 50
270.0
 51
90.0
  0
LINE
  5
23B
330
2
100
AcDbEntity
  8
UMRISS05
100
AcDbLine
 10
182.2715752235852
 20
969.1301173583486
 30
0.0
 11
187.2715752235853
 21
969.1301173583486
 31
0.0
  0
ARC
  5
23C
330
2
100
AcDbEntity
  8
UMRISS05
100
AcDbCircle
 10
182.2715752235852
 20
966.4801173583487
 30
0.0
 40
2.649999999999999
100
AcDbArc
 50
90.0
 51
270.0
  0
LINE
  5
23D
330
2
100
AcDbEntity
  8
UMRISS05
100
AcDbLine
 10
187.2715752235853
 20
963.8301173583487
 30
0.0
 11
182.2715752235852
 21
963.8301173583487
 31
0.0
  0
CIRCLE
  5
23E
330
2
100
AcDbEntity
  8
UMRISS05
100
AcDbCircle
 10
184.7715752235854
 20
778.4801173583486
 30
0.0
 40
1.75
  0
CIRCLE
  5
23F
330
2
100
AcDbEntity
  8
UMRISS05
100
AcDbCircle
 10
184.7715752235855
 20
767.4801173583487
 30
0.0
 40
1.75
  0
ARC
  5
240
330
2
100
AcDbEntity
  8
UMRISS05
100
AcDbCircle
 10
231.7715752235857
 20
962.480117358349
 30
0.0
 40
0.9999999999999964
100
AcDbArc
 50
0.0
 51
90.0
  0
ARC
  5
241
330
2
100
AcDbEntity
  8
UMRISS05
100
AcDbCircle
 10
231.7715752235857
 20
874.4801173583487
 30
0.0
 40
0.9999999999999964
100
AcDbArc
 50
270.0
 51
0.0
  0
DIMENSION
  5
242
330
2
100
AcDbEntity
  8
BEMASSUNG
100
AcDbDimension
280
     0
  2
*D23
 10
196.7715752235856
 20
870.2838496613292
 30
0.0
 11
154.1449321479423
 21
870.2838496613292
 31
0.0
 70
   128
  1
6.5
 71
     5
 42
5.306383866912027
 73
     0
 74
     0
 75
     0
  3
Katalog 09$0
100
AcDbAlignedDimension
 13
191.4651913566736
 23
888.480117358349
 33
0.0
 14
196.7715752235856
 24
872.480117358349
 34
0.0
100
AcDbRotatedDimension
1001
ACAD
1000
DSTYLE
1002
{
1070
    41
1040
12.0
1070
   140
1040
9.0
1070
   147
1040
2.5
1002
}
1001
ACAD_DSTYLE_DIMINSPECT
1070
   396
1000
100%
1070
   395
1000

1070
   394
1070
    33
1070
   393
1070
     0
  0
MTEXT
  5
252
330
2
100
AcDbEntity
  8
UMRISS05
 62
     3
100
AcDbMText
 10
182.211574920564
 20
520.946765913546
 30
0.0
 40
8.0
 41
0.0
 46
0.0
 71
     5
 72
     1
  1
\A1;B-23421Z.\P4333
  7
ARIAL-STANDARD
 73
     1
 44
1.0
  0
LINE
  5
253
330
2
100
AcDbEntity
  8
UMRISS05
100
AcDbLine
 10
172.7738930660664
 20
462.9729294499949
 30
0.0
 11
172.7738930660665
 21
353.9729294499953
 31
0.0
  0
DIMENSION
  5
254
330
2
100
AcDbEntity
  8
BEMASSUNG
100
AcDbDimension
280
     0
  2
*D19
 10
192.2738930660665
 20
372.0718281439949
 30
0.0
 11
184.7738930660665
 21
379.1669850334902
 31
0.0
 71
     5
 42
15.00000000000006
 73
     0
 74
     0
 75
     0
  3
Katalog 09
100
AcDbAlignedDimension
 13
177.2738930660665
 23
386.9729294499953
 33
0.0
 14
192.2738930660665
 24
386.9729294499953
 34
0.0
100
AcDbRotatedDimension
  0
LINE
  5
263
330
2
100
AcDbEntity
  8
ACHSEN
 48
0.5
100
AcDbLine
 10
184.7738930660664
 20
456.7229294499822
 30
0.0
 11
184.7738930660664
 21
446.222929450008
 31
0.0
  0
LINE
  5
264
330
2
100
AcDbEntity
  8
ACHSEN
 48
0.5
100
AcDbLine
 10
190.0238930660664
 20
451.4729294499953
 30
0.0
 11
179.5238930660665
 21
451.4729294499953
 31
0.0
  0
LINE
  5
265
330
2
100
AcDbEntity
  8
ACHSEN
 48
0.5
100
AcDbLine
 10
184.7738930660665
 20
370.7229294499952
 30
0.0
 11
184.7738930660665
 21
360.2229294499952
 31
0.0
  0
LINE
  5
266
330
2
100
AcDbEntity
  8
ACHSEN
 48
0.5
100
AcDbLine
 10
190.0238930660665
 20
365.4729294499952
 30
0.0
 11
179.5238930660665
 21
365.4729294499952
 31
0.0
  0
DIMENSION
  5
267
330
2
100
AcDbEntity
  8
AM_0
100
AcDbDimension
280
     0
  2
*D28
 10
152.1774317110448
 20
384.9729294499953
 30
0.0
 11
152.1774317110447
 21
408.4431354802409
 31
0.0
 70
   160
  1
<>
 71
     5
 42
47.0
 73
     0
 74
     0
 75
     0
  3
Katalog 09
100
AcDbAlignedDimension
 13
179.2738930660665
 23
431.9729294499953
 33
0.0
 14
179.2738930660665
 24
384.9729294499953
 34
0.0
 50
270.0
100
AcDbRotatedDimension
1001
ACAD_DSTYLE_DIMINSPECT
1070
   396
1000
100%
1070
   395
1000

1070
   394
1070
    33
1070
   393
1070
     0
  0
DIMENSION
  5
274
330
2
100
AcDbEntity
  8
AM_0
100
AcDbDimension
280
     0
  2
*D27
 10
136.1593959287528
 20
353.4729294499953
 30
0.0
 11
136.1593959287527
 21
408.472929449995
 31
0.0
 70
   160
  1
<>
 71
     5
 42
109.9999999999999
 73
     0
 74
     0
 75
     0
  3
Katalog 09
100
AcDbAlignedDimension
 13
173.2738930660665
 23
463.4729294499952
 33
0.0
 14
173.2738930660665
 24
353.4729294499953
 34
0.0
 50
270.0
100
AcDbRotatedDimension
1001
ACAD_DSTYLE_DIMINSPECT
1070
   396
1000
100%
1070
   395
1000

1070
   394
1070
    33
1070
   393
1070
     0
  0
DIMENSION
  5
281
330
2
100
AcDbEntity
  8
AM_0
100
AcDbDimension
280
     0
  2
*D16
 10
196.7738930660665
 20
303.5647517981679
 30
0.0
 11
184.7738930660665
 21
303.5647517981679
 31
0.0
 70
   128
  1
<>
 71
     5
 42
24.0
 73
     0
 74
     0
 75
     0
  3
Katalog 09
100
AcDbAlignedDimension
 13
172.7738930660665
 23
353.9729294499953
 33
0.0
 14
196.7738930660665
 24
353.9729294499953
 34
0.0
100
AcDbRotatedDimension
1001
ACAD_DSTYLE_DIMINSPECT
1070
   396
1000
100%
1070
   395
1000

1070
   394
1070
    33
1070
   393
1070
     0
  0
LINE
  5
290
330
2
100
AcDbEntity
  8
UMRISS05
100
AcDbLine
 10
177.2738930660665
 20
386.9729294499951
 30
0.0
 11
177.2738930660665
 21
429.9729294499953
 31
0.0
  0
LINE
  5
291
330
2
100
AcDbEntity
  8
UMRISS05
100
AcDbLine
 10
192.2738930660665
 20
429.9729294499949
 30
0.0
 11
192.2738930660665
 21
386.9729294499953
 31
0.0
  0
LINE
  5
292
330
2
100
AcDbEntity
  8
UMRISS05
100
AcDbLine
 10
179.2738930660665
 20
431.9729294499952
 30
0.0
 11
190.2738930660666
 21
431.9729294499952
 31
0.0
  0
LINE
  5
293
330
2
100
AcDbEntity
  8
UMRISS05
100
AcDbLine
 10
190.2738930660666
 20
384.9729294499953
 30
0.0
 11
179.2738930660665
 21
384.9729294499953
 31
0.0
  0
ARC
  5
294
330
2
100
AcDbEntity
  8
UMRISS05
100
AcDbCircle
 10
179.2738930660665
 20
429.9729294499952
 30
0.0
 40
2.00000000000001
100
AcDbArc
 50
90.0
 51
180.0
  0
ARC
  5
295
330
2
100
AcDbEntity
  8
UMRISS05
100
AcDbCircle
 10
190.2738930660666
 20
386.9729294499953
 30
0.0
 40
1.999999999999995
100
AcDbArc
 50
270.0
 51
0.0
  0
ARC
  5
296
330
2
100
AcDbEntity
  8
UMRISS05
100
AcDbCircle
 10
190.2738930660665
 20
429.9729294499952
 30
0.0
 40
2.000000000000003
100
AcDbArc
 50
0.0
 51
90.0
  0
ARC
  5
297
330
2
100
AcDbEntity
  8
UMRISS05
100
AcDbCircle
 10
179.2738930660665
 20
386.9729294499953
 30
0.0
 40
1.999999999999999
100
AcDbArc
 50
180.0
 51
270.0
  0
LINE
  5
298
330
2
100
AcDbEntity
  8
UMRISS05
100
AcDbLine
 10
173.2738930660665
 20
463.4729294499952
 30
0.0
 11
196.2738930660665
 21
463.4729294499952
 31
0.0
  0
LINE
  5
299
330
2
100
AcDbEntity
  8
UMRISS05
100
AcDbLine
 10
196.7738930660665
 20
462.9729294499949
 30
0.0
 11
196.7738930660665
 21
353.9729294499955
 31
0.0
  0
LINE
  5
29A
330
2
100
AcDbEntity
  8
UMRISS05
100
AcDbLine
 10
196.2738930660666
 20
353.4729294499953
 30
0.0
 11
173.2738930660665
 21
353.4729294499953
 31
0.0
  0
ARC
  5
29B
330
2
100
AcDbEntity
  8
UMRISS05
100
AcDbCircle
 10
196.2738930660665
 20
462.9729294499949
 30
0.0
 40
0.5000000000000249
100
AcDbArc
 50
0.0
 51
90.0
  0
ARC
  5
29C
330
2
100
AcDbEntity
  8
UMRISS05
100
AcDbCircle
 10
173.2738930660665
 20
353.9729294499953
 30
0.0
 40
0.5000000000000027
100
AcDbArc
 50
180.0
 51
270.0
  0
ARC
  5
29D
330
2
100
AcDbEntity
  8
UMRISS05
100
AcDbCircle
 10
196.2738930660666
 20
353.9729294499953
 30
0.0
 40
0.4999999999999984
100
AcDbArc
 50
270.0
 51
0.0
  0
ARC
  5
29E
330
2
100
AcDbEntity
  8
UMRISS05
100
AcDbCircle
 10
173.2738930660665
 20
462.9729294499949
 30
0.0
 40
0.5000000000000271
100
AcDbArc
 50
90.00000000000651
 51
180.0
  0
CIRCLE
  5
29F
330
2
100
AcDbEntity
  8
UMRISS05
100
AcDbCircle
 10
184.7738930660665
 20
451.4729294499952
 30
0.0
 40
2.75
  0
CIRCLE
  5
2A0
330
2
100
AcDbEntity
  8
UMRISS05
100
AcDbCircle
 10
184.7738930660665
 20
451.4729294499952
 30
0.0
 40
4.75
  0
CIRCLE
  5
2A1
330
2
100
AcDbEntity
  8
UMRISS05
100
AcDbCircle
 10
184.7738930660665
 20
365.4729294499952
 30
0.0
 40
2.75
  0
CIRCLE
  5
2A2
330
2
100
AcDbEntity
  8
UMRISS05
100
AcDbCircle
 10
184.7738930660665
 20
365.4729294499952
 30
0.0
 40
4.75
  0
DIMENSION
  5
2A3
330
2
100
AcDbEntity
  8
UMRISS05
100
AcDbDimension
280
     0
  2
*D15
 10
172.7738930660675
 20
115.8436893072456
 30
0.0
 11
184.7738930660675
 21
122.8621067697285
 31
0.0
 71
     5
 42
24.0
 73
     0
 74
     0
 75
     0
  3
Katalog 09
100
AcDbAlignedDimension
 13
196.7738930660675
 23
142.5972726480863
 33
0.0
 14
172.7738930660675
 24
142.5972726480917
 34
0.0
100
AcDbRotatedDimension
  0
LINE
  5
2B2
330
2
100
AcDbEntity
  8
ACHSEN
 48
0.5
100
AcDbLine
 10
184.7738930660689
 20
140.0972726480897
 30
0.0
 11
184.7738930660689
 21
150.8442383143403
 31
0.0
  0
DIMENSION
  5
2B3
330
2
100
AcDbEntity
  8
BEMASSUNG
100
AcDbDimension
280
     0
  2
*D32
 10
152.1774317110448
 20
142.5972726480934
 30
0.0
 11
152.1774317110448
 21
144.0972726480934
 31
0.0
 70
   160
  1
<>
 71
     5
 42
3.0
 73
     0
 74
     0
 75
     0
  3
Katalog 09
100
AcDbAlignedDimension
 13
172.7738930660682
 23
145.5972726480934
 33
0.0
 14
172.7738930660675
 24
142.5972726480934
 34
0.0
 50
90.0
100
AcDbRotatedDimension
1001
ACAD_DSTYLE_DIMINSPECT
1070
   396
1000
100%
1070
   395
1000

1070
   394
1070
    33
1070
   393
1070
     0
  0
LINE
  5
2C2
330
2
100
AcDbEntity
  8
Verdeckte Kanten(MSL)
100
AcDbLine
 10
187.2738930661209
 20
144.097272648089
 30
0.0
 11
188.7738930661214
 21
145.5972726480886
 31
0.0
  0
LINE
  5
2C3
330
2
100
AcDbEntity
  8
Verdeckte Kanten(MSL)
100
AcDbLine
 10
182.2738930661209
 20
144.0972726480906
 30
0.0
 11
180.7738930661214
 21
145.597272648091
 31
0.0
  0
LINE
  5
2C4
330
2
100
AcDbEntity
  8
Verdeckte Kanten(MSL)
100
AcDbLine
 10
186.5238930663806
 20
142.5972726480893
 30
0.0
 11
186.5238930663815
 21
145.5972726480893
 31
0.0
  0
LINE
  5
2C5
330
2
100
AcDbEntity
  8
Verdeckte Kanten(MSL)
100
AcDbLine
 10
183.0238930663805
 20
142.5972726480904
 30
0.0
 11
183.0238930663815
 21
145.5972726480903
 31
0.0
  0
LINE
  5
2C6
330
2
100
AcDbEntity
  8
Verdeckte Kanten(MSL)
100
AcDbLine
 10
190.7738930661223
 20
145.5972726480881
 30
0.0
 11
190.7738930661214
 21
142.5972726480881
 31
0.0
  0
LINE
  5
2C7
330
2
100
AcDbEntity
  8
Verdeckte Kanten(MSL)
100
AcDbLine
 10
192.2738930661406
 20
145.5972726480876
 30
0.0
 11
192.2738930661398
 21
142.5972726480876
 31
0.0
  0
LINE
  5
2C8
330
2
100
AcDbEntity
  8
Verdeckte Kanten(MSL)
100
AcDbLine
 10
177.2738930661406
 20
145.597272648092
 30
0.0
 11
177.2738930661398
 21
142.5972726480921
 31
0.0
  0
LINE
  5
2C9
330
2
100
AcDbEntity
  8
Verdeckte Kanten(MSL)
100
AcDbLine
 10
188.2738930661021
 20
144.3472726480888
 30
0.0
 11
189.5238930661023
 21
145.5972726480885
 31
0.0
  0
LINE
  5
2CA
330
2
100
AcDbEntity
  8
Verdeckte Kanten(MSL)
100
AcDbLine
 10
181.2738930661021
 20
144.3472726480909
 30
0.0
 11
180.0238930661023
 21
145.5972726480911
 31
0.0
  0
LINE
  5
2CB
330
2
100
AcDbEntity
  8
Verdeckte Kanten(MSL)
100
AcDbLine
 10
188.2738930661018
 20
143.8472726480888
 30
0.0
 11
188.2738930661021
 21
144.3472726480889
 31
0.0
  0
LINE
  5
2CC
330
2
100
AcDbEntity
  8
Verdeckte Kanten(MSL)
100
AcDbLine
 10
181.2738930661018
 20
143.8472726480909
 30
0.0
 11
181.2738930661021
 21
144.3472726480909
 31
0.0
  0
LINE
  5
2CD
330
2
100
AcDbEntity
  8
Verdeckte Kanten(MSL)
100
AcDbLine
 10
188.2738930661021
 20
144.3472726480888
 30
0.0
 11
181.2738930661021
 21
144.3472726480909
 31
0.0
  0
LINE
  5
2CE
330
2
100
AcDbEntity
  8
Verdeckte Kanten(MSL)
100
AcDbLine
 10
181.2738930661018
 20
143.8472726480909
 30
0.0
 11
180.0238930661014
 21
142.5972726480912
 31
0.0
  0
LINE
  5
2CF
330
2
100
AcDbEntity
  8
Verdeckte Kanten(MSL)
100
AcDbLine
 10
188.2738930661018
 20
143.8472726480888
 30
0.0
 11
189.5238930661014
 21
142.5972726480884
 31
0.0
  0
LINE
  5
2D0
330
2
100
AcDbEntity
  8
Verdeckte Kanten(MSL)
100
AcDbLine
 10
188.2738930661018
 20
143.8472726480888
 30
0.0
 11
181.2738930661018
 21
143.8472726480909
 31
0.0
  0
LINE
  5
2D1
330
2
100
AcDbEntity
  8
Verdeckte Kanten(MSL)
100
AcDbLine
 10
182.2738930661209
 20
144.0972726480906
 30
0.0
 11
180.7738930661205
 21
142.597272648091
 31
0.0
  0
LINE
  5
2D2
330
2
100
AcDbEntity
  8
Verdeckte Kanten(MSL)
100
AcDbLine
 10
187.2738930661209
 20
144.097272648089
 30
0.0
 11
188.7738930661205
 21
142.5972726480886
 31
0.0
  0
LINE
  5
2D3
330
2
100
AcDbEntity
  8
Verdeckte Kanten(MSL)
100
AcDbLine
 10
187.2738930661209
 20
144.097272648089
 30
0.0
 11
182.2738930661209
 21
144.0972726480906
 31
0.0
  0
LINE
  5
2D4
330
2
100
AcDbEntity
  8
UMRISS05
100
AcDbLine
 10
196.7738930660675
 20
142.5972726480863
 30
0.0
 11
196.773893066068
 21
145.5972726480863
 31
0.0
  0
LINE
  5
2D5
330
2
100
AcDbEntity
  8
UMRISS05
100
AcDbLine
 10
196.7738930660706
 20
145.5972726480863
 30
0.0
 11
172.7738930660706
 21
145.5972726480863
 31
0.0
  0
LINE
  5
2D6
330
2
100
AcDbEntity
  8
UMRISS05
100
AcDbLine
 10
172.7738930660675
 20
142.5972726480934
 30
0.0
 11
172.7738930660682
 21
145.5972726480934
 31
0.0
  0
LINE
  5
2D7
330
2
100
AcDbEntity
  8
UMRISS05
100
AcDbLine
 10
172.7738930660675
 20
142.5972726480934
 30
0.0
 11
196.7738930660675
 21
142.5972726480863
 31
0.0
  0
ENDSEC
  0
SECTION
  2
OBJECTS
  0
DICTIONARY
  5
A
330
0
100
AcDbDictionary
281
     1
  3
ACAD_CIP_PREVIOUS_PRODUCT_INFO
350
375
  3
ACAD_COLOR
350
5F
  3
ACAD_DETAILVIEWSTYLE
350
2F9
  3
ACAD_FIELDLIST
350
334
  3
ACAD_GROUP
350
4C
  3
ACAD_LAYOUT
350
9
  3
ACAD_MATERIAL
350
18
  3
ACAD_MLEADERSTYLE
350
62
  3
ACAD_MLINESTYLE
350
4D
  3
ACAD_PLOTSETTINGS
350
4E
  3
ACAD_PLOTSTYLENAME
350
16
  3
ACAD_SCALELIST
350
60
  3
ACAD_SECTIONVIEWSTYLE
350
307
  3
ACAD_TABLESTYLE
350
61
  3
ACAD_VISUALSTYLE
350
32
  3
ACDB_RECOMPOSE_DATA
350
81C
  3
AcDbVariableDictionary
350
338
  3
AcmDictionary
350
2E9
  3
AMG
350
2DA
  3
AMGSNAPSETTINGS
350
3D7
  0
DICTIONARY
  5
21
330
11
100
AcDbDictionary
280
     1
281
     1
  3
ACAD_LAYERFILTERS
360
22
  3
ACAD_LAYERSTATES
360
23
  3
ACLYDICTIONARY
360
24
  3
AMLAYER_GROUPCOLORS
360
26
  0
DICTIONARY
  5
13
330
12
100
AcDbDictionary
280
     1
281
     1
  3
ADSK_XREC_LAYER_RECONCILED
360
14
  0
DICTIONARY
  5
7E
330
7D
100
AcDbDictionary
280
     1
281
     1
  3
ADSK_XREC_LAYER_RECONCILED
360
7F
  0
DICTIONARY
  5
8D
330
8C
100
AcDbDictionary
280
     1
281
     1
  3
ADSK_XREC_LAYER_RECONCILED
360
8E
  0
DICTIONARY
  5
85
330
84
100
AcDbDictionary
280
     1
281
     1
  3
ADSK_XREC_LAYER_RECONCILED
360
86
  0
DICTIONARY
  5
64
330
63
100
AcDbDictionary
280
     1
281
     1
  0
DICTIONARY
  5
3
330
2
100
AcDbDictionary
280
     1
281
     1
  3
ACAD_ASSOCNETWORK
360
4
  3
ACAD_SORTENTS
360
2D8
  0
XRECORD
  5
375
102
{ACAD_REACTORS
330
A
102
}
330
A
100
AcDbXrecord
280
     1
300
AMECH_PP
300
2014
300
PDSU_F_S
  0
DICTIONARY
  5
5F
102
{ACAD_REACTORS
330
A
102
}
330
A
100
AcDbDictionary
281
     1
  0
DICTIONARY
  5
2F9
102
{ACAD_REACTORS
330
A
102
}
330
A
100
AcDbDictionary
281
     1
  3
Imperial24
350
300
  3
Metric50
350
303
  0
FIELDLIST
  5
334
102
{ACAD_REACTORS
330
A
102
}
330
A
100
AcDbIdSet
 90
        6
330
7D7
330
7D8
330
7D9
330
7DD
330
7DE
330
7DF
100
AcDbFieldList
  0
DICTIONARY
  5
4C
102
{ACAD_REACTORS
330
A
102
}
330
A
100
AcDbDictionary
281
     1
  0
DICTIONARY
  5
9
102
{ACAD_REACTORS
330
A
102
}
330
A
100
AcDbDictionary
281
     1
  3
Layout1
350
10
  3
Model
350
8
  0
DICTIONARY
  5
18
102
{ACAD_REACTORS
330
A
102
}
330
A
100
AcDbDictionary
281
     1
  3
ByBlock
350
57
  3
ByLayer
350
4F
  3
Global
350
17
  0
DICTIONARY
  5
62
102
{ACAD_REACTORS
330
A
102
}
330
A
100
AcDbDictionary
281
     1
  3
Standard
350
36E
  0
DICTIONARY
  5
4D
102
{ACAD_REACTORS
330
A
102
}
330
A
100
AcDbDictionary
281
     1
  3
STANDARD
350
66
  0
DICTIONARY
  5
4E
102
{ACAD_REACTORS
330
A
102
}
330
A
100
AcDbDictionary
281
     1
  0
ACDBDICTIONARYWDFLT
  5
16
102
{ACAD_REACTORS
330
A
102
}
330
A
100
AcDbDictionary
281
     1
  3
Normal
350
15
100
AcDbDictionaryWithDefault
340
15
  0
DICTIONARY
  5
60
102
{ACAD_REACTORS
330
A
102
}
330
A
100
AcDbDictionary
281
     1
  3
A0
350
6B
  3
A1
350
6C
  3
A2
350
6D
  3
A3
350
6E
  3
A4
350
6F
  3
A5
350
70
  3
A6
350
71
  3
A7
350
72
  3
A8
350
73
  3
A9
350
74
  3
B0
350
75
  3
B1
350
76
  3
B2
350
77
  3
B3
350
78
  3
B4
350
79
  3
B5
350
7A
  3
B6
350
7B
  0
DICTIONARY
  5
307
102
{ACAD_REACTORS
330
A
102
}
330
A
100
AcDbDictionary
281
     1
  3
Imperial24
350
312
  3
Metric50
350
315
  0
DICTIONARY
  5
61
102
{ACAD_REACTORS
330
A
102
}
330
A
100
AcDbDictionary
281
     1
  3
Standard
350
67
  0
DICTIONARY
  5
32
102
{ACAD_REACTORS
330
A
102
}
330
A
100
AcDbDictionary
281
     1
  3
2dWireframe
350
31
  3
Basic
350
35D
  3
Brighten
350
361
  3
ColorChange
350
365
  3
Conceptual
350
35F
  3
Dim
350
360
  3
EdgeColorOff
350
36D
  3
Facepattern
350
364
  3
Flat
350
359
  3
FlatWithEdges
350
35A
  3
Gouraud
350
35B
  3
GouraudWithEdges
350
35C
  3
Hidden
350
35E
  3
JitterOff
350
36B
  3
Linepattern
350
363
  3
OverhangOff
350
36C
  3
Realistic
350
69
  3
Shaded
350
36A
  3
Shaded with edges
350
369
  3
Shades of Gray
350
366
  3
Sketchy
350
367
  3
Thicken
350
362
  3
Wireframe
350
6A
  3
X-Ray
350
368
  0
XRECORD
  5
81C
102
{ACAD_REACTORS
330
A
102
}
330
A
100
AcDbXrecord
280
     1
 90
        1
330
67
  0
DICTIONARY
  5
338
102
{ACAD_REACTORS
330
A
102
}
330
A
100
AcDbDictionary
281
     1
  3
CANNOSCALE
350
33E
  3
CMLEADERSTYLE
350
33A
  3
CTABLESTYLE
350
339
  3
CVIEWDETAILSTYLE
350
33B
  3
CVIEWSECTIONSTYLE
350
33C
  3
LAYEREVAL
350
340
  3
LAYERNOTIFY
350
341
  3
LIGHTINGUNITS
350
33F
  3
MSLTSCALE
350
33D
  0
DICTIONARY
  5
2E9
102
{ACAD_REACTORS
330
A
102
}
330
A
100
AcDbDictionary
281
     1
  3
AcmStdDictionary
350
2EA
  0
DICTIONARY
  5
2DA
102
{ACAD_REACTORS
330
A
102
}
330
A
100
AcDbDictionary
281
     1
  0
DICTIONARY
  5
3D7
102
{ACAD_REACTORS
330
A
102
}
330
A
100
AcDbDictionary
281
     1
  0
DICTIONARY
  5
22
102
{ACAD_REACTORS
330
21
102
}
330
21
100
AcDbDictionary
281
     1
  0
DICTIONARY
  5
23
102
{ACAD_REACTORS
330
21
102
}
330
21
100
AcDbDictionary
281
     1
  0
DICTIONARY
  5
24
102
{ACAD_REACTORS
330
21
102
}
330
21
100
AcDbDictionary
281
     1
1001
ACAD
1000
<All
  0
DICTIONARY
  5
26
102
{ACAD_REACTORS
330
21
102
}
330
21
100
AcDbDictionary
280
     1
281
     1
  0
XRECORD
  5
14
102
{ACAD_REACTORS
330
13
102
}
330
13
100
AcDbXrecord
280
     1
290
     1
  0
XRECORD
  5
7F
102
{ACAD_REACTORS
330
7E
102
}
330
7E
100
AcDbXrecord
280
     1
290
     1
  0
XRECORD
  5
8E
102
{ACAD_REACTORS
330
8D
102
}
330
8D
100
AcDbXrecord
280
     1
290
     1
  0
XRECORD
  5
86
102
{ACAD_REACTORS
330
85
102
}
330
85
100
AcDbXrecord
280
     1
290
     1
  0
DICTIONARY
  5
4
102
{ACAD_REACTORS
330
3
102
}
330
3
100
AcDbDictionary
281
     1
  0
SORTENTSTABLE
  5
2D8
102
{ACAD_REACTORS
330
3
102
}
330
3
100
AcDbSortentsTable
330
2
331
1B7
  5
1CF
331
1B3
  5
1D3
331
235
  5
D1
331
1AF
  5
1D7
331
1F6
  5
190
331
231
  5
D5
331
1AB
  5
1DB
331
1F2
  5
194
331
22D
  5
D9
331
229
  5
DD
331
E3
  5
519
331
2A0
  5
29C
331
145
  5
20D
331
1A7
  5
1DF
331
1EE
  5
198
331
1A3
  5
1E3
331
1EA
  5
19C
331
225
  5
E3
331
19F
  5
1E7
331
1E6
  5
1A0
331
221
  5
101
331
2D4
  5
23D
331
19B
  5
1EB
331
1E2
  5
1A4
331
21D
  5
105
331
2D0
  5
241
331
219
  5
115
331
DE
  5
7E7
331
108
  5
231
331
DA
  5
213
331
1CE
  5
1B8
331
197
  5
1EF
331
1DE
  5
1A8
331
2CC
  5
254
331
193
  5
1F3
331
1DA
  5
1AC
331
215
  5
131
331
2C8
  5
266
331
18F
  5
1F7
331
1D6
  5
1B0
331
211
  5
135
331
29C
  5
2A0
331
18B
  5
1FB
331
1D2
  5
1B4
331
20D
  5
145
331
298
  5
2B2
331
209
  5
163
331
253
  5
2D1
331
155
  5
20B
331
267
  5
2CB
331
82
  5
236
331
263
  5
2CF
331
8A
  5
232
331
107
  5
237
331
103
  5
297
331
2C4
  5
290
331
187
  5
1FF
331
1C6
  5
1BF
331
294
  5
2C4
331
183
  5
203
331
1C2
  5
1C3
331
205
  5
181
331
290
  5
2C8
331
D7
  5
216
331
1BE
  5
1C7
331
201
  5
185
331
D3
  5
21A
331
1BA
  5
1CC
331
1FD
  5
189
331
23C
  5
CA
331
1F9
  5
18D
331
238
  5
CE
331
134
  5
226
331
CF
  5
21E
331
130
  5
22A
331
CB
  5
222
331
1B6
  5
1D0
331
1B2
  5
1D4
331
234
  5
D2
331
1AE
  5
1D8
331
1F5
  5
191
331
230
  5
D6
331
1AA
  5
1DC
331
1F1
  5
195
331
22C
  5
DA
331
228
  5
DE
331
2A3
  5
295
331
E2
  5
554
331
2B3
  5
293
331
144
  5
20E
331
1A6
  5
1E0
331
1ED
  5
199
331
1A2
  5
1E4
331
1E9
  5
19D
331
224
  5
E4
331
2D7
  5
23A
331
19E
  5
1E8
331
1E5
  5
1A1
331
220
  5
102
331
2D3
  5
23E
331
19A
  5
1EC
331
1E1
  5
1A5
331
21C
  5
106
331
218
  5
122
331
242
  5
7E8
331
DD
  5
2D6
331
D9
  5
214
331
1CD
  5
1B9
331
1C9
  5
1BC
331
2CF
  5
242
331
196
  5
1F0
331
1DD
  5
1A9
331
2CB
  5
263
331
192
  5
1F4
331
1D9
  5
1AD
331
214
  5
132
331
29F
  5
29D
331
18E
  5
1F8
331
1D5
  5
1B1
331
210
  5
136
331
29B
  5
2A1
331
18A
  5
1FC
331
1D1
  5
1B5
331
20C
  5
146
331
208
  5
172
331
252
  5
518
331
81
  5
2D5
331
266
  5
2CC
331
AB
  5
22C
331
89
  5
233
331
BA
  5
224
331
106
  5
238
331
102
  5
298
331
2C7
  5
267
331
2C3
  5
291
331
297
  5
2B3
331
186
  5
200
331
1C5
  5
1C0
331
293
  5
2C5
331
182
  5
204
331
1C1
  5
1C4
331
204
  5
182
331
D6
  5
217
331
1BD
  5
1C8
331
200
  5
186
331
23F
  5
9C
331
D2
  5
21B
331
1B9
  5
1CD
331
1FC
  5
18A
331
23B
  5
CB
331
1F8
  5
18E
331
133
  5
227
331
CE
  5
21F
331
CA
  5
223
331
1B5
  5
1D1
331
237
  5
CF
331
1B1
  5
1D5
331
233
  5
D3
331
1AD
  5
1D9
331
1F4
  5
192
331
22F
  5
D7
331
1A9
  5
1DD
331
1F0
  5
196
331
22B
  5
DB
331
E5
  5
2D3
331
2A2
  5
29A
331
E1
  5
561
331
2B2
  5
294
331
143
  5
20F
331
12F
  5
22B
331
1A5
  5
1E1
331
1EC
  5
19A
331
227
  5
E1
331
1A1
  5
1E5
331
1E8
  5
19E
331
223
  5
E5
331
2D6
  5
23B
331
19D
  5
1E9
331
1E4
  5
1A2
331
21F
  5
103
331
2D2
  5
23F
331
199
  5
1ED
331
1E0
  5
1A6
331
21B
  5
107
331
DC
  5
211
331
163
  5
209
331
241
  5
8A
331
D8
  5
215
331
173
  5
207
331
1CC
  5
1BA
331
1C8
  5
1BD
331
2CE
  5
252
331
195
  5
1F1
331
1DC
  5
1AA
331
217
  5
12F
331
2CA
  5
264
331
191
  5
1F5
331
1D8
  5
1AE
331
213
  5
133
331
18D
  5
1F9
331
1D4
  5
1B2
331
20F
  5
143
331
29A
  5
2A2
331
189
  5
1FD
331
1D0
  5
1B6
331
20B
  5
155
331
122
  5
22E
331
9C
  5
22D
331
80
  5
478
331
265
  5
2CD
331
88
  5
234
331
105
  5
239
331
101
  5
299
331
2C6
  5
274
331
2C2
  5
292
331
296
  5
2C2
331
185
  5
201
331
1C4
  5
1C1
331
207
  5
173
331
292
  5
2C6
331
181
  5
205
331
1C0
  5
1C5
331
203
  5
183
331
D5
  5
218
331
1BC
  5
1C9
331
1FF
  5
187
331
23E
  5
AB
331
D1
  5
21C
331
1B8
  5
1CE
331
1FB
  5
18B
331
23A
  5
CC
331
136
  5
210
331
7C
  5
2D7
331
132
  5
228
331
CD
  5
220
331
281
  5
2C9
331
1B4
  5
1D2
331
236
  5
D0
331
1B0
  5
1D6
331
1F7
  5
18F
331
232
  5
D4
331
1AC
  5
1DA
331
1F3
  5
193
331
22E
  5
D8
331
1A8
  5
1DE
331
22A
  5
DC
331
E4
  5
2D4
331
2A1
  5
29B
331
146
  5
20C
331
1EF
  5
197
331
1A4
  5
1E2
331
1EB
  5
19B
331
226
  5
E2
331
1A0
  5
1E6
331
1E7
  5
19F
331
222
  5
F4
331
2D5
  5
23C
331
19C
  5
1EA
331
1E3
  5
1A3
331
21E
  5
104
331
2D1
  5
240
331
198
  5
1EE
331
21A
  5
108
331
DB
  5
212
331
240
  5
8B
331
F4
  5
2D2
331
115
  5
22F
331
1CF
  5
1B7
331
172
  5
208
331
1CB
  5
1BB
331
1DF
  5
1A7
331
2CD
  5
253
331
194
  5
1F2
331
1DB
  5
1AB
331
216
  5
130
331
2C9
  5
265
331
190
  5
1F6
331
1D7
  5
1AF
331
212
  5
134
331
29D
  5
29F
331
18C
  5
1FA
331
1D3
  5
1B3
331
20E
  5
144
331
299
  5
2A3
331
188
  5
1FE
331
20A
  5
156
331
254
  5
2D0
331
156
  5
20A
331
83
  5
235
331
264
  5
2CE
331
8B
  5
230
331
104
  5
296
331
2C5
  5
281
331
1C7
  5
1BE
331
295
  5
2C3
331
184
  5
202
331
1C3
  5
1C2
331
206
  5
180
331
291
  5
2C7
331
180
  5
206
331
1BF
  5
1C6
331
202
  5
184
331
D4
  5
219
331
1BB
  5
1CB
331
1FE
  5
188
331
23D
  5
BA
331
D0
  5
21D
331
1FA
  5
18C
331
239
  5
CD
331
274
  5
2CA
331
135
  5
225
331
131
  5
229
331
CC
  5
221
  0
ACDBDETAILVIEWSTYLE
  5
300
102
{ACAD_XDICTIONARY
360
823
102
}
102
{ACAD_REACTORS
330
2F9
330
7D2
102
}
330
2F9
100
AcDbModelDocViewStyle
 70
     0
  3
Imperial24
290
     0
100
AcDbDetailViewStyle
 70
     0
 71
     0
 90
        3
 71
     1
340
28
 62
   256
 40
0.24
340
0
 62
   256
 40
0.24
300

 40
0.36
280
     3
 71
     2
340
20
 90
       25
 62
   256
 71
     3
340
28
 62
   256
 40
0.24
 90
        1
 40
0.75
 90
        1
300
%<\AcVar ViewType \f "%tc1">% %<\AcVar ViewDetailId>%\PVARIA %<\AcVar ViewScale \f "%sn">%
 71
     4
340
20
 90
       25
 62
   256
340
20
 90
       25
 62
   256
280
     0
  0
ACDBDETAILVIEWSTYLE
  5
303
102
{ACAD_XDICTIONARY
360
825
102
}
102
{ACAD_REACTORS
330
2F9
330
7D3
102
}
330
2F9
100
AcDbModelDocViewStyle
 70
     0
  3
Metric50
290
     0
100
AcDbDetailViewStyle
 70
     0
 71
     0
 90
        3
 71
     1
340
28
 62
   256
 40
5.0
340
0
 62
   256
 40
5.0
300

 40
0.0
280
     1
 71
     2
340
20
 90
       25
 62
   256
 71
     3
340
28
 62
   256
 40
5.0
 90
        0
 40
15.0
 90
        1
300
%<\AcVar ViewDetailId>% (%<\AcVar ViewScale \f "%sn">%)
 71
     4
340
20
 90
       25
 62
   256
340
20
 90
       25
 62
   256
280
     0
  0
LAYOUT
  5
10
102
{ACAD_REACTORS
330
9
102
}
330
9
100
AcDbPlotSettings
  1

  2
\\mslklsv1\MSLKLP05
  4

  6

 40
0.0
 41
0.0
 42
0.0
 43
0.0
 44
0.0
 45
0.0
 46
0.0
 47
0.0
 48
0.0
 49
0.0
140
0.0
141
0.0
142
1.0
143
1.0
 70
   688
 72
     0
 73
     0
 74
     5
  7
monochrome.ctb
 75
    16
147
1.0
 76
     0
 77
     2
 78
   300
148
0.0
149
0.0
100
AcDbLayout
  1
Layout1
 70
     1
 71
     1
 10
0.0
 20
0.0
 11
12.0
 21
9.0
 12
0.0
 22
0.0
 32
0.0
 14
1.000000000000000E+20
 24
1.000000000000000E+20
 34
1.000000000000000E+20
 15
-1.000000000000000E+20
 25
-1.000000000000000E+20
 35
-1.000000000000000E+20
146
0.0
 13
0.0
 23
0.0
 33
0.0
 16
1.0
 26
0.0
 36
0.0
 17
0.0
 27
1.0
 37
0.0
 76
     0
330
D
  0
LAYOUT
  5
8
102
{ACAD_XDICTIONARY
360
B
102
}
102
{ACAD_REACTORS
330
9
102
}
330
9
100
AcDbPlotSettings
  1

  2
\\mslklsv1\MSLKLP05
  4
A4
  6

 40
6.720416545867919
 41
6.720392704010007
 42
7.694076538085937
 43
4.011077880859375
 44
209.9733276367186
 45
296.9683227539062
 46
0.0
 47
0.0
 48
0.0
 49
0.0
140
0.0
141
0.0
142
1.0
143
2.49309260033622
 70
 11952
 72
     1
 73
     1
 74
     0
  7
monochrome.ctb
 75
     0
147
0.4011082459853835
 76
     0
 77
     2
 78
   300
148
235.6679059730945
149
-4.095299769500028
100
AcDbLayout
  1
Model
 70
     1
 71
     0
 10
0.0
 20
0.0
 11
12.0
 21
9.0
 12
0.0
 22
0.0
 32
0.0
 14
0.0
 24
0.0
 34
0.0
 15
0.0
 25
0.0
 35
0.0
146
0.0
 13
0.0
 23
0.0
 33
0.0
 16
1.0
 26
0.0
 36
0.0
 17
0.0
 27
1.0
 37
0.0
 76
     0
330
2
331
30
1001
ACAD_PSEXT
1000
\\mslklsv1\MSLKLP05
1000
HP LaserJet 5000 Series PCL
1000
CAD
1000
HP LaserJet 5000N
1070
     0
  0
MATERIAL
  5
57
102
{ACAD_XDICTIONARY
360
58
102
}
102
{ACAD_REACTORS
330
18
102
}
330
18
100
AcDbMaterial
  1
ByBlock
 72
     0
 43
0.0008202099737533
 43
0.0
 43
0.0
 43
0.0
 43
0.0
 43
0.0008202099737533
 43
0.0
 43
0.0
 43
0.0
 43
0.0
 43
1.0
 43
0.0
 43
0.0
 43
0.0
 43
0.0
 43
1.0
 77
     0
 47
0.0008202099737533
 47
0.0
 47
0.0
 47
0.0
 47
0.0
 47
0.0008202099737533
 47
0.0
 47
0.0
 47
0.0
 47
0.0
 47
1.0
 47
0.0
 47
0.0
 47
0.0
 47
0.0
 47
1.0
171
     0
 49
0.0008202099737533
 49
0.0
 49
0.0
 49
0.0
 49
0.0
 49
0.0008202099737533
 49
0.0
 49
0.0
 49
0.0
 49
0.0
 49
1.0
 49
0.0
 49
0.0
 49
0.0
 49
0.0
 49
1.0
175
     0
142
0.0008202099737533
142
0.0
142
0.0
142
0.0
142
0.0
142
0.0008202099737533
142
0.0
142
0.0
142
0.0
142
0.0
142
1.0
142
0.0
142
0.0
142
0.0
142
0.0
142
1.0
179
     0
144
0.0008202099737533
144
0.0
144
0.0
144
0.0
144
0.0
144
0.0008202099737533
144
0.0
144
0.0
144
0.0
144
0.0
144
1.0
144
0.0
144
0.0
144
0.0
144
0.0
144
1.0
147
0.0008202099737533
147
0.0
147
0.0
147
0.0
147
0.0
147
0.0008202099737533
147
0.0
147
0.0
147
0.0
147
0.0
147
1.0
147
0.0
147
0.0
147
0.0
147
0.0
147
1.0
  0
MATERIAL
  5
4F
102
{ACAD_XDICTIONARY
360
50
102
}
102
{ACAD_REACTORS
330
18
102
}
330
18
100
AcDbMaterial
  1
ByLayer
 72
     0
 43
0.0008202099737533
 43
0.0
 43
0.0
 43
0.0
 43
0.0
 43
0.0008202099737533
 43
0.0
 43
0.0
 43
0.0
 43
0.0
 43
1.0
 43
0.0
 43
0.0
 43
0.0
 43
0.0
 43
1.0
 77
     0
 47
0.0008202099737533
 47
0.0
 47
0.0
 47
0.0
 47
0.0
 47
0.0008202099737533
 47
0.0
 47
0.0
 47
0.0
 47
0.0
 47
1.0
 47
0.0
 47
0.0
 47
0.0
 47
0.0
 47
1.0
171
     0
 49
0.0008202099737533
 49
0.0
 49
0.0
 49
0.0
 49
0.0
 49
0.0008202099737533
 49
0.0
 49
0.0
 49
0.0
 49
0.0
 49
1.0
 49
0.0
 49
0.0
 49
0.0
 49
0.0
 49
1.0
175
     0
142
0.0008202099737533
142
0.0
142
0.0
142
0.0
142
0.0
142
0.0008202099737533
142
0.0
142
0.0
142
0.0
142
0.0
142
1.0
142
0.0
142
0.0
142
0.0
142
0.0
142
1.0
179
     0
144
0.0008202099737533
144
0.0
144
0.0
144
0.0
144
0.0
144
0.0008202099737533
144
0.0
144
0.0
144
0.0
144
0.0
144
1.0
144
0.0
144
0.0
144
0.0
144
0.0
144
1.0
147
0.0008202099737533
147
0.0
147
0.0
147
0.0
147
0.0
147
0.0008202099737533
147
0.0
147
0.0
147
0.0
147
0.0
147
1.0
147
0.0
147
0.0
147
0.0
147
0.0
147
1.0
  0
MATERIAL
  5
17
102
{ACAD_XDICTIONARY
360
19
102
}
102
{ACAD_REACTORS
330
18
102
}
330
18
100
AcDbMaterial
  1
Global
 72
     0
 43
0.0008202099737533
 43
0.0
 43
0.0
 43
0.0
 43
0.0
 43
0.0008202099737533
 43
0.0
 43
0.0
 43
0.0
 43
0.0
 43
1.0
 43
0.0
 43
0.0
 43
0.0
 43
0.0
 43
1.0
 77
     0
 47
0.0008202099737533
 47
0.0
 47
0.0
 47
0.0
 47
0.0
 47
0.0008202099737533
 47
0.0
 47
0.0
 47
0.0
 47
0.0
 47
1.0
 47
0.0
 47
0.0
 47
0.0
 47
0.0
 47
1.0
171
     0
 49
0.0008202099737533
 49
0.0
 49
0.0
 49
0.0
 49
0.0
 49
0.0008202099737533
 49
0.0
 49
0.0
 49
0.0
 49
0.0
 49
1.0
 49
0.0
 49
0.0
 49
0.0
 49
0.0
 49
1.0
175
     0
142
0.0008202099737533
142
0.0
142
0.0
142
0.0
142
0.0
142
0.0008202099737533
142
0.0
142
0.0
142
0.0
142
0.0
142
1.0
142
0.0
142
0.0
142
0.0
142
0.0
142
1.0
179
     0
144
0.0008202099737533
144
0.0
144
0.0
144
0.0
144
0.0
144
0.0008202099737533
144
0.0
144
0.0
144
0.0
144
0.0
144
1.0
144
0.0
144
0.0
144
0.0
144
0.0
144
1.0
147
0.0008202099737533
147
0.0
147
0.0
147
0.0
147
0.0
147
0.0008202099737533
147
0.0
147
0.0
147
0.0
147
0.0
147
1.0
147
0.0
147
0.0
147
0.0
147
0.0
147
1.0
  0
MLEADERSTYLE
  5
36E
102
{ACAD_REACTORS
330
62
102
}
330
62
100
AcDbMLeaderStyle
179
     2
170
     2
171
     1
172
     0
 90
        2
 40
0.0
 41
0.0
173
     1
 91
-1056964608
340
2B
 92
       -2
290
     1
 42
2.0
291
     1
 43
0.36
  3
Standard
 44
4.0
300

342
28
174
     1
178
     6
175
     1
176
     0
 93
-1056964608
 45
4.0
292
     0
297
     0
 46
4.0
 94
-1056964608
 47
1.0
 49
1.0
140
1.0
293
     1
141
0.0
294
     1
177
     0
142
1.0
295
     0
296
     0
143
0.125
271
     0
272
     9
273
     9
  0
MLINESTYLE
  5
66
102
{ACAD_REACTORS
330
4D
102
}
330
4D
100
AcDbMlineStyle
  2
STANDARD
 70
     0
  3

 62
     0
 51
90.0
 52
90.0
 71
     2
 49
0.5
 62
   256
  6
BYLAYER
 49
-0.5
 62
   256
  6
BYLAYER
  0
ACDBPLACEHOLDER
  5
15
102
{ACAD_REACTORS
330
16
102
}
330
16
  0
SCALE
  5
6B
102
{ACAD_REACTORS
330
60
102
}
330
60
100
AcDbScale
 70
     0
300
1:1
140
1.0
141
1.0
290
     1
  0
SCALE
  5
6C
102
{ACAD_REACTORS
330
60
102
}
330
60
100
AcDbScale
 70
     0
300
1:2
140
1.0
141
2.0
290
     0
  0
SCALE
  5
6D
102
{ACAD_REACTORS
330
60
102
}
330
60
100
AcDbScale
 70
     0
300
1:4
140
1.0
141
4.0
290
     0
  0
SCALE
  5
6E
102
{ACAD_REACTORS
330
60
102
}
330
60
100
AcDbScale
 70
     0
300
1:5
140
1.0
141
5.0
290
     0
  0
SCALE
  5
6F
102
{ACAD_REACTORS
330
60
102
}
330
60
100
AcDbScale
 70
     0
300
1:8
140
1.0
141
8.0
290
     0
  0
SCALE
  5
70
102
{ACAD_REACTORS
330
60
102
}
330
60
100
AcDbScale
 70
     0
300
1:10
140
1.0
141
10.0
290
     0
  0
SCALE
  5
71
102
{ACAD_REACTORS
330
60
102
}
330
60
100
AcDbScale
 70
     0
300
1:16
140
1.0
141
16.0
290
     0
  0
SCALE
  5
72
102
{ACAD_REACTORS
330
60
102
}
330
60
100
AcDbScale
 70
     0
300
1:20
140
1.0
141
20.0
290
     0
  0
SCALE
  5
73
102
{ACAD_REACTORS
330
60
102
}
330
60
100
AcDbScale
 70
     0
300
1:30
140
1.0
141
30.0
290
     0
  0
SCALE
  5
74
102
{ACAD_REACTORS
330
60
102
}
330
60
100
AcDbScale
 70
     0
300
1:40
140
1.0
141
40.0
290
     0
  0
SCALE
  5
75
102
{ACAD_REACTORS
330
60
102
}
330
60
100
AcDbScale
 70
     0
300
1:50
140
1.0
141
50.0
290
     0
  0
SCALE
  5
76
102
{ACAD_REACTORS
330
60
102
}
330
60
100
AcDbScale
 70
     0
300
1:100
140
1.0
141
100.0
290
     0
  0
SCALE
  5
77
102
{ACAD_REACTORS
330
60
102
}
330
60
100
AcDbScale
 70
     0
300
2:1
140
2.0
141
1.0
290
     0
  0
SCALE
  5
78
102
{ACAD_REACTORS
330
60
102
}
330
60
100
AcDbScale
 70
     0
300
4:1
140
4.0
141
1.0
290
     0
  0
SCALE
  5
79
102
{ACAD_REACTORS
330
60
102
}
330
60
100
AcDbScale
 70
     0
300
8:1
140
8.0
141
1.0
290
     0
  0
SCALE
  5
7A
102
{ACAD_REACTORS
330
60
102
}
330
60
100
AcDbScale
 70
     0
300
10:1
140
10.0
141
1.0
290
     0
  0
SCALE
  5
7B
102
{ACAD_REACTORS
330
60
102
}
330
60
100
AcDbScale
 70
     0
300
100:1
140
100.0
141
1.0
290
     0
  0
ACDBSECTIONVIEWSTYLE
  5
312
102
{ACAD_XDICTIONARY
360
827
102
}
102
{ACAD_REACTORS
330
307
330
7D0
102
}
330
307
100
AcDbModelDocViewStyle
 70
     0
  3
Imperial24
290
     0
100
AcDbSectionViewStyle
 70
     0
 71
     0
 90
       78
 71
     1
340
28
 62
   256
 40
0.24
340
0
340
0
 62
   256
 40
0.24
300
I, O, Q, S, X, Z
 40
0.48
 90
        3
 40
0.18
 90
        1
 71
     2
340
20
 90
       25
 62
   256
340
20
 90
       50
 62
   256
 40
0.24
 40
0.0
 40
0.24
 71
     3
340
28
 62
   256
 40
0.24
 90
        1
 40
0.75
 90
        1
300
%<\AcVar ViewType \f "%tc1">% %<\AcVar ViewSectionStartId>%-%<\AcVar ViewSectionEndId>%\PVARIA %<\AcVar ViewScale \f "%sn">%
 71
     4
 62
   256
 62
   257
300
ANSI31
 40
1.0
 90
        0
290
     0
290
     0
 90
        6
 40
0.0
 40
1.570796326794896
 40
0.2617993877991494
 40
1.308996938995747
 40
-0.2617993877991494
 40
1.832595714594044
  0
ACDBSECTIONVIEWSTYLE
  5
315
102
{ACAD_XDICTIONARY
360
829
102
}
102
{ACAD_REACTORS
330
307
330
7D1
102
}
330
307
100
AcDbModelDocViewStyle
 70
     0
  3
Metric50
290
     0
100
AcDbSectionViewStyle
 70
     0
 71
     0
 90
      102
 71
     1
340
28
 62
   256
 40
5.0
340
0
340
0
 62
   256
 40
5.0
300
I, O, Q, S, X, Z
 40
10.0
 90
        0
 40
2.5
 90
        0
 71
     2
340
20
 90
       25
 62
   256
340
20
 90
       50
 62
   256
 40
5.0
 40
2.5
 40
5.0
 71
     3
340
28
 62
   256
 40
5.0
 90
        0
 40
15.0
 90
        1
300
%<\AcVar ViewSectionStartId>%-%<\AcVar ViewSectionEndId>% (%<\AcVar ViewScale \f "%sn">%)
 71
     4
 62
   256
 62
   257
300
ANSI31
 40
1.0
 90
        0
290
     0
290
     0
 90
        6
 40
0.0
 40
1.570796326794896
 40
0.2617993877991494
 40
1.308996938995747
 40
-0.2617993877991494
 40
1.832595714594044
  0
TABLESTYLE
  5
67
102
{ACAD_XDICTIONARY
360
68
102
}
102
{ACAD_REACTORS
330
61
102
}
330
61
100
AcDbTableStyle
280
     0
  3
Standard
 70
     0
 71
     0
 40
0.06
 41
0.06
280
     0
281
     0
  7
STANDARD
140
0.18
170
     2
 62
     0
 63
     7
283
     0
 90
        4
 91
        0
  1

274
    -2
284
     1
 64
     0
275
    -2
285
     1
 65
     0
276
    -2
286
     1
 66
     0
277
    -2
287
     1
 67
     0
278
    -2
288
     1
 68
     0
279
    -2
289
     1
 69
     0
  7
STANDARD
140
0.25
170
     5
 62
     0
 63
     7
283
     0
 90
        4
 91
        0
  1

274
    -2
284
     1
 64
     0
275
    -2
285
     1
 65
     0
276
    -2
286
     1
 66
     0
277
    -2
287
     1
 67
     0
278
    -2
288
     1
 68
     0
279
    -2
289
     1
 69
     0
  7
STANDARD
140
0.18
170
     5
 62
     0
 63
     7
283
     0
 90
        4
 91
        0
  1

274
    -2
284
     1
 64
     0
275
    -2
285
     1
 65
     0
276
    -2
286
     1
 66
     0
277
    -2
287
     1
 67
     0
278
    -2
288
     1
 68
     0
279
    -2
289
     1
 69
     0
  0
VISUALSTYLE
  5
31
102
{ACAD_XDICTIONARY
360
81D
102
}
102
{ACAD_REACTORS
330
32
102
}
330
32
100
AcDbVisualStyle
  2
2dWireframe
 70
     4
177
     2
291
     0
 71
     0
176
     1
 72
     2
176
     1
 73
     0
176
     1
 90
        0
176
     1
 40
0.6
176
     1
 41
30.0
176
     1
 63
     7
421
 16777215
176
     1
 74
     1
176
     1
 91
        4
176
     1
 64
     7
176
     1
 65
   257
176
     1
 75
     1
176
     1
175
     1
176
     1
 42
1.0
176
     1
 92
        0
176
     1
 66
   257
176
     1
 43
1.0
176
     1
 76
     1
176
     1
 77
     6
176
     1
 78
     2
176
     1
 67
     7
176
     1
 79
     5
176
     1
170
     0
176
     1
171
     0
176
     1
290
     0
176
     1
 93
        1
176
     1
 44
0.0
176
     1
173
     0
176
     1
1001
ACAD
1000
AcDbSavedByObjectVersion
1070
     0
  0
VISUALSTYLE
  5
35D
102
{ACAD_XDICTIONARY
360
833
102
}
102
{ACAD_REACTORS
330
32
102
}
330
32
100
AcDbVisualStyle
  2
Basic
 70
     7
177
     2
291
     1
 71
     1
176
     1
 72
     0
176
     1
 73
     1
176
     1
 90
        0
176
     1
 40
0.6
176
     1
 41
30.0
176
     1
 63
     7
421
 16777215
176
     1
 74
     0
176
     1
 91
        4
176
     1
 64
     7
176
     1
 65
   257
176
     1
 75
     1
176
     1
175
     1
176
     1
 42
1.0
176
     1
 92
        8
176
     1
 66
     7
176
     1
 43
1.0
176
     1
 76
     1
176
     1
 77
     6
176
     1
 78
     2
176
     1
 67
     7
176
     1
 79
     5
176
     1
170
     0
176
     1
171
     0
176
     1
290
     0
176
     1
 93
        1
176
     1
 44
0.0
176
     1
173
     0
176
     1
1001
ACAD
1000
AcDbSavedByObjectVersion
1070
     0
  0
VISUALSTYLE
  5
361
102
{ACAD_XDICTIONARY
360
83B
102
}
102
{ACAD_REACTORS
330
32
102
}
330
32
100
AcDbVisualStyle
  2
Brighten
 70
    12
177
     2
291
     1
 71
     2
176
     1
 72
     2
176
     1
 73
     0
176
     1
 90
        0
176
     1
 40
0.6
176
     1
 41
30.0
176
     1
 63
     7
421
 16777215
176
     1
 74
     1
176
     1
 91
        4
176
     1
 64
     7
176
     1
 65
   257
176
     1
 75
     1
176
     1
175
     1
176
     1
 42
1.0
176
     1
 92
        8
176
     1
 66
     7
176
     1
 43
1.0
176
     1
 76
     1
176
     1
 77
     6
176
     1
 78
     2
176
     1
 67
     7
176
     1
 79
     5
176
     1
170
     0
176
     1
171
     0
176
     1
290
     0
176
     1
 93
        1
176
     1
 44
50.0
176
     1
173
     0
176
     1
1001
ACAD
1000
AcDbSavedByObjectVersion
1070
     0
  0
VISUALSTYLE
  5
365
102
{ACAD_XDICTIONARY
360
843
102
}
102
{ACAD_REACTORS
330
32
102
}
330
32
100
AcDbVisualStyle
  2
ColorChange
 70
    16
177
     2
291
     1
 71
     2
176
     1
 72
     2
176
     1
 73
     3
176
     1
 90
        0
176
     1
 40
0.6
176
     1
 41
30.0
176
     1
 63
     8
421
  8421504
176
     1
 74
     1
176
     1
 91
        4
176
     1
 64
     7
176
     1
 65
   257
176
     1
 75
     1
176
     1
175
     1
176
     1
 42
1.0
176
     1
 92
        8
176
     1
 66
     8
424
  8421504
176
     1
 43
1.0
176
     1
 76
     1
176
     1
 77
     6
176
     1
 78
     2
176
     1
 67
     7
176
     1
 79
     5
176
     1
170
     0
176
     1
171
     0
176
     1
290
     0
176
     1
 93
        1
176
     1
 44
0.0
176
     1
173
     0
176
     1
1001
ACAD
1000
AcDbSavedByObjectVersion
1070
     0
  0
VISUALSTYLE
  5
35F
102
{ACAD_XDICTIONARY
360
837
102
}
102
{ACAD_REACTORS
330
32
102
}
330
32
100
AcDbVisualStyle
  2
Conceptual
 70
     9
177
     2
291
     0
 71
     3
176
     1
 72
     2
176
     1
 73
     0
176
     1
 90
        0
176
     1
 40
0.6
176
     1
 41
30.0
176
     1
 63
     7
421
 16777215
176
     1
 74
     2
176
     1
 91
        2
176
     1
 64
     7
176
     1
 65
   257
176
     1
 75
     1
176
     1
175
     1
176
     1
 42
179.0
176
     1
 92
        8
176
     1
 66
     7
176
     1
 43
1.0
176
     1
 76
     1
176
     1
 77
     6
176
     1
 78
     2
176
     1
 67
     7
176
     1
 79
     3
176
     1
170
     0
176
     1
171
     0
176
     1
290
     0
176
     1
 93
        1
176
     1
 44
0.0
176
     1
173
     0
176
     1
1001
ACAD
1000
AcDbSavedByObjectVersion
1070
     0
  0
VISUALSTYLE
  5
360
102
{ACAD_XDICTIONARY
360
839
102
}
102
{ACAD_REACTORS
330
32
102
}
330
32
100
AcDbVisualStyle
  2
Dim
 70
    11
177
     2
291
     1
 71
     2
176
     1
 72
     2
176
     1
 73
     0
176
     1
 90
        0
176
     1
 40
0.6
176
     1
 41
30.0
176
     1
 63
     7
421
 16777215
176
     1
 74
     1
176
     1
 91
        4
176
     1
 64
     7
176
     1
 65
   257
176
     1
 75
     1
176
     1
175
     1
176
     1
 42
1.0
176
     1
 92
        8
176
     1
 66
     7
176
     1
 43
1.0
176
     1
 76
     1
176
     1
 77
     6
176
     1
 78
     2
176
     1
 67
     7
176
     1
 79
     5
176
     1
170
     0
176
     1
171
     0
176
     1
290
     0
176
     1
 93
        1
176
     1
 44
-50.0
176
     1
173
     0
176
     1
1001
ACAD
1000
AcDbSavedByObjectVersion
1070
     0
  0
VISUALSTYLE
  5
36D
102
{ACAD_XDICTIONARY
360
853
102
}
102
{ACAD_REACTORS
330
32
102
}
330
32
100
AcDbVisualStyle
  2
EdgeColorOff
 70
    22
177
     2
291
     1
 71
     2
176
     0
 72
     2
176
     0
 73
     0
176
     0
 90
        0
176
     0
 40
0.6
176
     0
 41
30.0
176
     0
 63
     7
421
 16777215
176
     0
 74
     1
176
     0
 91
        4
176
     0
 64
     7
176
     0
 65
   257
176
     0
 75
     1
176
     0
175
     1
176
     0
 42
1.0
176
     0
 92
        8
176
     2
 66
     7
176
     0
 43
1.0
176
     0
 76
     1
176
     0
 77
     6
176
     0
 78
     2
176
     0
 67
     7
176
     0
 79
     5
176
     0
170
     0
176
     0
171
     0
176
     0
290
     0
176
     0
 93
        1
176
     0
 44
0.0
176
     0
173
     0
176
     0
1001
ACAD
1000
AcDbSavedByObjectVersion
1070
     0
  0
VISUALSTYLE
  5
364
102
{ACAD_XDICTIONARY
360
841
102
}
102
{ACAD_REACTORS
330
32
102
}
330
32
100
AcDbVisualStyle
  2
Facepattern
 70
    15
177
     2
291
     1
 71
     2
176
     1
 72
     2
176
     1
 73
     0
176
     1
 90
        0
176
     1
 40
0.6
176
     1
 41
30.0
176
     1
 63
     7
421
 16777215
176
     1
 74
     1
176
     1
 91
        4
176
     1
 64
     7
176
     1
 65
   257
176
     1
 75
     1
176
     1
175
     1
176
     1
 42
1.0
176
     1
 92
        8
176
     1
 66
     7
176
     1
 43
1.0
176
     1
 76
     1
176
     1
 77
     6
176
     1
 78
     2
176
     1
 67
     7
176
     1
 79
     5
176
     1
170
     0
176
     1
171
     0
176
     1
290
     0
176
     1
 93
        1
176
     1
 44
0.0
176
     1
173
     0
176
     1
1001
ACAD
1000
AcDbSavedByObjectVersion
1070
     0
  0
VISUALSTYLE
  5
359
102
{ACAD_XDICTIONARY
360
82B
102
}
102
{ACAD_REACTORS
330
32
102
}
330
32
100
AcDbVisualStyle
  2
Flat
 70
     0
177
     2
291
     1
 71
     2
176
     1
 72
     1
176
     1
 73
     1
176
     1
 90
        2
176
     1
 40
0.6
176
     1
 41
30.0
176
     1
 63
     7
421
 16777215
176
     1
 74
     0
176
     1
 91
        0
176
     1
 64
     7
176
     1
 65
   257
176
     1
 75
     1
176
     1
175
     1
176
     1
 42
1.0
176
     1
 92
        8
176
     1
 66
     7
176
     1
 43
1.0
176
     1
 76
     1
176
     1
 77
     6
176
     1
 78
     2
176
     1
 67
     7
176
     1
 79
     5
176
     1
170
     0
176
     1
171
     0
176
     1
290
     0
176
     1
 93
       13
176
     1
 44
0.0
176
     1
173
     0
176
     1
1001
ACAD
1000
AcDbSavedByObjectVersion
1070
     0
  0
VISUALSTYLE
  5
35A
102
{ACAD_XDICTIONARY
360
82D
102
}
102
{ACAD_REACTORS
330
32
102
}
330
32
100
AcDbVisualStyle
  2
FlatWithEdges
 70
     1
177
     2
291
     1
 71
     2
176
     1
 72
     1
176
     1
 73
     1
176
     1
 90
        2
176
     1
 40
0.6
176
     1
 41
30.0
176
     1
 63
     7
421
 16777215
176
     1
 74
     1
176
     1
 91
        0
176
     1
 64
     7
176
     1
 65
   257
176
     1
 75
     1
176
     1
175
     1
176
     1
 42
1.0
176
     1
 92
        0
176
     1
 66
   257
176
     1
 43
1.0
176
     1
 76
     1
176
     1
 77
     6
176
     1
 78
     2
176
     1
 67
     7
176
     1
 79
     5
176
     1
170
     0
176
     1
171
     0
176
     1
290
     0
176
     1
 93
       13
176
     1
 44
0.0
176
     1
173
     0
176
     1
1001
ACAD
1000
AcDbSavedByObjectVersion
1070
     0
  0
VISUALSTYLE
  5
35B
102
{ACAD_XDICTIONARY
360
82F
102
}
102
{ACAD_REACTORS
330
32
102
}
330
32
100
AcDbVisualStyle
  2
Gouraud
 70
     2
177
     2
291
     1
 71
     2
176
     1
 72
     2
176
     1
 73
     1
176
     1
 90
        2
176
     1
 40
0.6
176
     1
 41
30.0
176
     1
 63
     7
421
 16777215
176
     1
 74
     0
176
     1
 91
        0
176
     1
 64
     7
176
     1
 65
   257
176
     1
 75
     1
176
     1
175
     1
176
     1
 42
1.0
176
     1
 92
        0
176
     1
 66
     7
176
     1
 43
1.0
176
     1
 76
     1
176
     1
 77
     6
176
     1
 78
     2
176
     1
 67
     7
176
     1
 79
     5
176
     1
170
     0
176
     1
171
     0
176
     1
290
     0
176
     1
 93
       13
176
     1
 44
0.0
176
     1
173
     0
176
     1
1001
ACAD
1000
AcDbSavedByObjectVersion
1070
     0
  0
VISUALSTYLE
  5
35C
102
{ACAD_XDICTIONARY
360
831
102
}
102
{ACAD_REACTORS
330
32
102
}
330
32
100
AcDbVisualStyle
  2
GouraudWithEdges
 70
     3
177
     2
291
     1
 71
     2
176
     1
 72
     2
176
     1
 73
     1
176
     1
 90
        2
176
     1
 40
0.6
176
     1
 41
30.0
176
     1
 63
     7
421
 16777215
176
     1
 74
     1
176
     1
 91
        0
176
     1
 64
     7
176
     1
 65
   257
176
     1
 75
     1
176
     1
175
     1
176
     1
 42
1.0
176
     1
 92
        0
176
     1
 66
   257
176
     1
 43
1.0
176
     1
 76
     1
176
     1
 77
     6
176
     1
 78
     2
176
     1
 67
     7
176
     1
 79
     5
176
     1
170
     0
176
     1
171
     0
176
     1
290
     0
176
     1
 93
       13
176
     1
 44
0.0
176
     1
173
     0
176
     1
1001
ACAD
1000
AcDbSavedByObjectVersion
1070
     0
  0
VISUALSTYLE
  5
35E
102
{ACAD_XDICTIONARY
360
835
102
}
102
{ACAD_REACTORS
330
32
102
}
330
32
100
AcDbVisualStyle
  2
Hidden
 70
     6
177
     2
291
     0
 71
     1
176
     1
 72
     2
176
     1
 73
     2
176
     1
 90
        0
176
     1
 40
0.6
176
     1
 41
30.0
176
     1
 63
     7
421
 16777215
176
     1
 74
     2
176
     1
 91
        2
176
     1
 64
     7
176
     1
 65
   257
176
     1
 75
     2
176
     1
175
     1
176
     1
 42
40.0
176
     1
 92
        0
176
     1
 66
   257
176
     1
 43
1.0
176
     1
 76
     1
176
     1
 77
     6
176
     1
 78
     2
176
     1
 67
     7
176
     1
 79
     3
176
     1
170
     0
176
     1
171
     0
176
     1
290
     0
176
     1
 93
        1
176
     1
 44
0.0
176
     1
173
     0
176
     1
1001
ACAD
1000
AcDbSavedByObjectVersion
1070
     0
  0
VISUALSTYLE
  5
36B
102
{ACAD_XDICTIONARY
360
84F
102
}
102
{ACAD_REACTORS
330
32
102
}
330
32
100
AcDbVisualStyle
  2
JitterOff
 70
    20
177
     2
291
     1
 71
     2
176
     0
 72
     2
176
     0
 73
     0
176
     0
 90
        0
176
     0
 40
0.6
176
     0
 41
30.0
176
     0
 63
     7
421
 16777215
176
     0
 74
     1
176
     0
 91
        4
176
     0
 64
     7
176
     0
 65
   257
176
     0
 75
     1
176
     0
175
     1
176
     0
 42
1.0
176
     0
 92
       10
176
     2
 66
     7
176
     0
 43
1.0
176
     0
 76
     1
176
     0
 77
     6
176
     0
 78
     2
176
     0
 67
     7
176
     0
 79
     5
176
     0
170
     0
176
     0
171
     0
176
     0
290
     0
176
     0
 93
        1
176
     0
 44
0.0
176
     0
173
     0
176
     0
1001
ACAD
1000
AcDbSavedByObjectVersion
1070
     0
  0
VISUALSTYLE
  5
363
102
{ACAD_XDICTIONARY
360
83F
102
}
102
{ACAD_REACTORS
330
32
102
}
330
32
100
AcDbVisualStyle
  2
Linepattern
 70
    14
177
     2
291
     1
 71
     2
176
     1
 72
     2
176
     1
 73
     0
176
     1
 90
        0
176
     1
 40
0.6
176
     1
 41
30.0
176
     1
 63
     7
421
 16777215
176
     1
 74
     1
176
     1
 91
        4
176
     1
 64
     7
176
     1
 65
   257
176
     1
 75
     7
176
     1
175
     7
176
     1
 42
1.0
176
     1
 92
        8
176
     1
 66
     7
176
     1
 43
1.0
176
     1
 76
     1
176
     1
 77
     6
176
     1
 78
     2
176
     1
 67
     7
176
     1
 79
     5
176
     1
170
     0
176
     1
171
     0
176
     1
290
     0
176
     1
 93
        1
176
     1
 44
0.0
176
     1
173
     0
176
     1
1001
ACAD
1000
AcDbSavedByObjectVersion
1070
     0
  0
VISUALSTYLE
  5
36C
102
{ACAD_XDICTIONARY
360
851
102
}
102
{ACAD_REACTORS
330
32
102
}
330
32
100
AcDbVisualStyle
  2
OverhangOff
 70
    21
177
     2
291
     1
 71
     2
176
     0
 72
     2
176
     0
 73
     0
176
     0
 90
        0
176
     0
 40
0.6
176
     0
 41
30.0
176
     0
 63
     7
421
 16777215
176
     0
 74
     1
176
     0
 91
        4
176
     0
 64
     7
176
     0
 65
   257
176
     0
 75
     1
176
     0
175
     1
176
     0
 42
1.0
176
     0
 92
        9
176
     2
 66
     7
176
     0
 43
1.0
176
     0
 76
     1
176
     0
 77
     6
176
     0
 78
     2
176
     0
 67
     7
176
     0
 79
     5
176
     0
170
     0
176
     0
171
     0
176
     0
290
     0
176
     0
 93
        1
176
     0
 44
0.0
176
     0
173
     0
176
     0
1001
ACAD
1000
AcDbSavedByObjectVersion
1070
     0
  0
VISUALSTYLE
  5
69
102
{ACAD_XDICTIONARY
360
81F
102
}
102
{ACAD_REACTORS
330
32
102
}
330
32
100
AcDbVisualStyle
  2
Realistic
 70
     8
177
     2
291
     0
 71
     2
176
     1
 72
     2
176
     1
 73
     0
176
     1
 90
        0
176
     1
 40
0.6
176
     1
 41
30.0
176
     1
 63
     7
421
 16777215
176
     1
 74
     1
176
     1
 91
        0
176
     1
 64
     7
176
     1
 65
   257
176
     1
 75
     1
176
     1
175
     1
176
     1
 42
1.0
176
     1
 92
        8
176
     1
 66
     8
424
  7895160
176
     1
 43
1.0
176
     1
 76
     1
176
     1
 77
     6
176
     1
 78
     2
176
     1
 67
     7
176
     1
 79
     5
176
     1
170
     0
176
     1
171
     0
176
     1
290
     0
176
     1
 93
       13
176
     1
 44
0.0
176
     1
173
     0
176
     1
1001
ACAD
1000
AcDbSavedByObjectVersion
1070
     0
  0
VISUALSTYLE
  5
36A
102
{ACAD_XDICTIONARY
360
84D
102
}
102
{ACAD_REACTORS
330
32
102
}
330
32
100
AcDbVisualStyle
  2
Shaded
 70
    27
177
     2
291
     0
 71
     2
176
     1
 72
     2
176
     1
 73
     1
176
     1
 90
        2
176
     1
 40
0.6
176
     1
 41
30.0
176
     1
 63
     7
421
 16777215
176
     1
 74
     0
176
     1
 91
        4
176
     1
 64
     7
176
     1
 65
   257
176
     1
 75
     1
176
     1
175
     1
176
     1
 42
1.0
176
     1
 92
        8
176
     1
 66
   257
176
     1
 43
1.0
176
     1
 76
     1
176
     1
 77
     6
176
     1
 78
     2
176
     1
 67
     8
425
  7895160
176
     1
 79
     3
176
     1
170
     0
176
     1
171
     0
176
     1
290
     0
176
     1
 93
        5
176
     1
 44
0.0
176
     1
173
     0
176
     1
1001
ACAD
1000
AcDbSavedByObjectVersion
1070
     0
  0
VISUALSTYLE
  5
369
102
{ACAD_XDICTIONARY
360
84B
102
}
102
{ACAD_REACTORS
330
32
102
}
330
32
100
AcDbVisualStyle
  2
Shaded with edges
 70
    26
177
     2
291
     0
 71
     2
176
     1
 72
     2
176
     1
 73
     1
176
     1
 90
        2
176
     1
 40
0.6
176
     1
 41
30.0
176
     1
 63
     7
421
 16777215
176
     1
 74
     1
176
     1
 91
       10
176
     1
 64
     7
176
     1
 65
   257
176
     1
 75
     2
176
     1
175
     1
176
     1
 42
1.0
176
     1
 92
        8
176
     1
 66
   257
176
     1
 43
1.0
176
     1
 76
     1
176
     1
 77
     6
176
     1
 78
     2
176
     1
 67
     7
176
     1
 79
     3
176
     1
170
     0
176
     1
171
     0
176
     1
290
     0
176
     1
 93
        5
176
     1
 44
0.0
176
     1
173
     0
176
     1
1001
ACAD
1000
AcDbSavedByObjectVersion
1070
     0
  0
VISUALSTYLE
  5
366
102
{ACAD_XDICTIONARY
360
845
102
}
102
{ACAD_REACTORS
330
32
102
}
330
32
100
AcDbVisualStyle
  2
Shades of Gray
 70
    23
177
     2
291
     0
 71
     2
176
     1
 72
     2
176
     1
 73
     3
176
     1
 90
        0
176
     1
 40
0.6
176
     1
 41
30.0
176
     1
 63
     7
421
 16777215
176
     1
 74
     2
176
     1
 91
        2
176
     1
 64
     7
176
     1
 65
     7
176
     1
 75
     1
176
     1
175
     1
176
     1
 42
40.0
176
     1
 92
        8
176
     1
 66
     7
176
     1
 43
1.0
176
     1
 76
     1
176
     1
 77
     6
176
     1
 78
     2
176
     1
 67
     7
176
     1
 79
     3
176
     1
170
     0
176
     1
171
     0
176
     1
290
     0
176
     1
 93
        1
176
     1
 44
0.0
176
     1
173
     0
176
     1
1001
ACAD
1000
AcDbSavedByObjectVersion
1070
     0
  0
VISUALSTYLE
  5
367
102
{ACAD_XDICTIONARY
360
847
102
}
102
{ACAD_REACTORS
330
32
102
}
330
32
100
AcDbVisualStyle
  2
Sketchy
 70
    24
177
     2
291
     0
 71
     1
176
     1
 72
     2
176
     1
 73
     2
176
     1
 90
        0
176
     1
 40
0.6
176
     1
 41
30.0
176
     1
 63
     7
421
 16777215
176
     1
 74
     2
176
     1
 91
        2
176
     1
 64
     7
176
     1
 65
     7
176
     1
 75
     1
176
     1
175
     1
176
     1
 42
40.0
176
     1
 92
       11
176
     1
 66
     7
176
     1
 43
1.0
176
     1
 76
     1
176
     1
 77
     6
176
     1
 78
     2
176
     1
 67
     7
176
     1
 79
     6
176
     1
170
     0
176
     1
171
     0
176
     1
290
     0
176
     1
 93
        1
176
     1
 44
0.0
176
     1
173
     0
176
     1
1001
ACAD
1000
AcDbSavedByObjectVersion
1070
     0
  0
VISUALSTYLE
  5
362
102
{ACAD_XDICTIONARY
360
83D
102
}
102
{ACAD_REACTORS
330
32
102
}
330
32
100
AcDbVisualStyle
  2
Thicken
 70
    13
177
     2
291
     1
 71
     2
176
     1
 72
     2
176
     1
 73
     0
176
     1
 90
        0
176
     1
 40
0.6
176
     1
 41
30.0
176
     1
 63
     7
421
 16777215
176
     1
 74
     1
176
     1
 91
        4
176
     1
 64
     7
176
     1
 65
   257
176
     1
 75
     1
176
     1
175
     1
176
     1
 42
1.0
176
     1
 92
       12
176
     1
 66
     7
176
     1
 43
1.0
176
     1
 76
     1
176
     1
 77
     6
176
     1
 78
     2
176
     1
 67
     7
176
     1
 79
     5
176
     1
170
     0
176
     1
171
     0
176
     1
290
     0
176
     1
 93
        1
176
     1
 44
0.0
176
     1
173
     0
176
     1
1001
ACAD
1000
AcDbSavedByObjectVersion
1070
     0
  0
VISUALSTYLE
  5
6A
102
{ACAD_XDICTIONARY
360
821
102
}
102
{ACAD_REACTORS
330
32
102
}
330
32
100
AcDbVisualStyle
  2
Wireframe
 70
     5
177
     2
291
     0
 71
     0
176
     1
 72
     2
176
     1
 73
     0
176
     1
 90
        0
176
     1
 40
0.6
176
     1
 41
30.0
176
     1
 63
     7
421
 16777215
176
     1
 74
     1
176
     1
 91
        4
176
     1
 64
     7
176
     1
 65
   257
176
     1
 75
     1
176
     1
175
     1
176
     1
 42
1.0
176
     1
 92
        0
176
     1
 66
   257
176
     1
 43
1.0
176
     1
 76
     1
176
     1
 77
     6
176
     1
 78
     2
176
     1
 67
     7
176
     1
 79
     3
176
     1
170
     0
176
     1
171
     0
176
     1
290
     0
176
     1
 93
        1
176
     1
 44
0.0
176
     1
173
     0
176
     1
1001
ACAD
1000
AcDbSavedByObjectVersion
1070
     0
  0
VISUALSTYLE
  5
368
102
{ACAD_XDICTIONARY
360
849
102
}
102
{ACAD_REACTORS
330
32
102
}
330
32
100
AcDbVisualStyle
  2
X-Ray
 70
    25
177
     2
291
     0
 71
     2
176
     1
 72
     2
176
     1
 73
     1
176
     1
 90
        1
176
     1
 40
0.5
176
     1
 41
30.0
176
     1
 63
     7
421
 16777215
176
     1
 74
     1
176
     1
 91
        0
176
     1
 64
     7
176
     1
 65
   257
176
     1
 75
     1
176
     1
175
     1
176
     1
 42
1.0
176
     1
 92
        8
176
     1
 66
     7
176
     1
 43
1.0
176
     1
 76
     1
176
     1
 77
     6
176
     1
 78
     2
176
     1
 67
     7
176
     1
 79
     3
176
     1
170
     0
176
     1
171
     0
176
     1
290
     0
176
     1
 93
       13
176
     1
 44
0.0
176
     1
173
     0
176
     1
1001
ACAD
1000
AcDbSavedByObjectVersion
1070
     0
  0
DICTIONARYVAR
  5
33E
102
{ACAD_REACTORS
330
338
102
}
330
338
100
DictionaryVariables
280
     0
  1
1:1
  0
DICTIONARYVAR
  5
33A
102
{ACAD_REACTORS
330
338
102
}
330
338
100
DictionaryVariables
280
     0
  1
STANDARD
  0
DICTIONARYVAR
  5
339
102
{ACAD_REACTORS
330
338
102
}
330
338
100
DictionaryVariables
280
     0
  1
STANDARD
  0
DICTIONARYVAR
  5
33B
102
{ACAD_REACTORS
330
338
102
}
330
338
100
DictionaryVariables
280
     0
  1
Metric50
  0
DICTIONARYVAR
  5
33C
102
{ACAD_REACTORS
330
338
102
}
330
338
100
DictionaryVariables
280
     0
  1
Metric50
  0
DICTIONARYVAR
  5
340
102
{ACAD_REACTORS
330
338
102
}
330
338
100
DictionaryVariables
280
     0
  1
1
  0
DICTIONARYVAR
  5
341
102
{ACAD_REACTORS
330
338
102
}
330
338
100
DictionaryVariables
280
     0
  1
15
  0
DICTIONARYVAR
  5
33F
102
{ACAD_REACTORS
330
338
102
}
330
338
100
DictionaryVariables
280
     0
  1
0
  0
DICTIONARYVAR
  5
33D
102
{ACAD_REACTORS
330
338
102
}
330
338
100
DictionaryVariables
280
     0
  1
0
  0
DICTIONARY
  5
2EA
102
{ACAD_REACTORS
330
2E9
102
}
330
2E9
100
AcDbDictionary
281
     1
  0
DICTIONARY
  5
823
330
300
100
AcDbDictionary
280
     1
281
     1
  3
ACAD_XREC_ROUNDTRIP
360
824
  0
DICTIONARY
  5
825
330
303
100
AcDbDictionary
280
     1
281
     1
  3
ACAD_XREC_ROUNDTRIP
360
826
  0
DICTIONARY
  5
B
330
8
100
AcDbDictionary
280
     1
281
     1
  0
DICTIONARY
  5
58
330
57
100
AcDbDictionary
280
     1
281
     1
  3
BUMPTILE
360
59
  3
DIFFUSETILE
360
5A
  3
OPACITYTILE
360
5B
  3
REFLECTIONTILE
360
5C
  3
REFRACTIONTILE
360
5D
  3
SPECULARTILE
360
5E
  0
DICTIONARY
  5
50
330
4F
100
AcDbDictionary
280
     1
281
     1
  3
BUMPTILE
360
51
  3
DIFFUSETILE
360
52
  3
OPACITYTILE
360
53
  3
REFLECTIONTILE
360
54
  3
REFRACTIONTILE
360
55
  3
SPECULARTILE
360
56
  0
DICTIONARY
  5
19
330
17
100
AcDbDictionary
280
     1
281
     1
  3
BUMPTILE
360
1A
  3
DIFFUSETILE
360
1B
  3
OPACITYTILE
360
1C
  3
REFLECTIONTILE
360
1D
  3
REFRACTIONTILE
360
1E
  3
SPECULARTILE
360
1F
  0
DICTIONARY
  5
827
330
312
100
AcDbDictionary
280
     1
281
     1
  3
ACAD_XREC_ROUNDTRIP
360
828
  0
DICTIONARY
  5
829
330
315
100
AcDbDictionary
280
     1
281
     1
  3
ACAD_XREC_ROUNDTRIP
360
82A
  0
DICTIONARY
  5
68
330
67
100
AcDbDictionary
280
     1
281
     1
  3
ACAD_ROUNDTRIP_2008_TABLESTYLE_CELLSTYLEMAP
360
81B
  0
DICTIONARY
  5
81D
330
31
100
AcDbDictionary
280
     1
281
     1
  3
ACAD_XREC_ROUNDTRIP
360
81E
  0
DICTIONARY
  5
833
330
35D
100
AcDbDictionary
280
     1
281
     1
  3
ACAD_XREC_ROUNDTRIP
360
834
  0
DICTIONARY
  5
83B
330
361
100
AcDbDictionary
280
     1
281
     1
  3
ACAD_XREC_ROUNDTRIP
360
83C
  0
DICTIONARY
  5
843
330
365
100
AcDbDictionary
280
     1
281
     1
  3
ACAD_XREC_ROUNDTRIP
360
844
  0
DICTIONARY
  5
837
330
35F
100
AcDbDictionary
280
     1
281
     1
  3
ACAD_XREC_ROUNDTRIP
360
838
  0
DICTIONARY
  5
839
330
360
100
AcDbDictionary
280
     1
281
     1
  3
ACAD_XREC_ROUNDTRIP
360
83A
  0
DICTIONARY
  5
853
330
36D
100
AcDbDictionary
280
     1
281
     1
  3
ACAD_XREC_ROUNDTRIP
360
854
  0
DICTIONARY
  5
841
330
364
100
AcDbDictionary
280
     1
281
     1
  3
ACAD_XREC_ROUNDTRIP
360
842
  0
DICTIONARY
  5
82B
330
359
100
AcDbDictionary
280
     1
281
     1
  3
ACAD_XREC_ROUNDTRIP
360
82C
  0
DICTIONARY
  5
82D
330
35A
100
AcDbDictionary
280
     1
281
     1
  3
ACAD_XREC_ROUNDTRIP
360
82E
  0
DICTIONARY
  5
82F
330
35B
100
AcDbDictionary
280
     1
281
     1
  3
ACAD_XREC_ROUNDTRIP
360
830
  0
DICTIONARY
  5
831
330
35C
100
AcDbDictionary
280
     1
281
     1
  3
ACAD_XREC_ROUNDTRIP
360
832
  0
DICTIONARY
  5
835
330
35E
100
AcDbDictionary
280
     1
281
     1
  3
ACAD_XREC_ROUNDTRIP
360
836
  0
DICTIONARY
  5
84F
330
36B
100
AcDbDictionary
280
     1
281
     1
  3
ACAD_XREC_ROUNDTRIP
360
850
  0
DICTIONARY
  5
83F
330
363
100
AcDbDictionary
280
     1
281
     1
  3
ACAD_XREC_ROUNDTRIP
360
840
  0
DICTIONARY
  5
851
330
36C
100
AcDbDictionary
280
     1
281
     1
  3
ACAD_XREC_ROUNDTRIP
360
852
  0
DICTIONARY
  5
81F
330
69
100
AcDbDictionary
280
     1
281
     1
  3
ACAD_XREC_ROUNDTRIP
360
820
  0
DICTIONARY
  5
84D
330
36A
100
AcDbDictionary
280
     1
281
     1
  3
ACAD_XREC_ROUNDTRIP
360
84E
  0
DICTIONARY
  5
84B
330
369
100
AcDbDictionary
280
     1
281
     1
  3
ACAD_XREC_ROUNDTRIP
360
84C
  0
DICTIONARY
  5
845
330
366
100
AcDbDictionary
280
     1
281
     1
  3
ACAD_XREC_ROUNDTRIP
360
846
  0
DICTIONARY
  5
847
330
367
100
AcDbDictionary
280
     1
281
     1
  3
ACAD_XREC_ROUNDTRIP
360
848
  0
DICTIONARY
  5
83D
330
362
100
AcDbDictionary
280
     1
281
     1
  3
ACAD_XREC_ROUNDTRIP
360
83E
  0
DICTIONARY
  5
821
330
6A
100
AcDbDictionary
280
     1
281
     1
  3
ACAD_XREC_ROUNDTRIP
360
822
  0
DICTIONARY
  5
849
330
368
100
AcDbDictionary
280
     1
281
     1
  3
ACAD_XREC_ROUNDTRIP
360
84A
  0
XRECORD
  5
824
102
{ACAD_REACTORS
330
823
102
}
330
823
100
AcDbXrecord
280
     1
102
DISPLAYNAME
  1
Imperial24
102
FLAGS
 90
        0
  0
XRECORD
  5
826
102
{ACAD_REACTORS
330
825
102
}
330
825
100
AcDbXrecord
280
     1
102
DISPLAYNAME
  1
Metric50
102
FLAGS
 90
        0
  0
XRECORD
  5
59
102
{ACAD_REACTORS
330
58
102
}
330
58
100
AcDbXrecord
280
     1
270
     1
271
     1
  0
XRECORD
  5
5A
102
{ACAD_REACTORS
330
58
102
}
330
58
100
AcDbXrecord
280
     1
270
     1
271
     1
  0
XRECORD
  5
5B
102
{ACAD_REACTORS
330
58
102
}
330
58
100
AcDbXrecord
280
     1
270
     1
271
     1
  0
XRECORD
  5
5C
102
{ACAD_REACTORS
330
58
102
}
330
58
100
AcDbXrecord
280
     1
270
     1
271
     1
  0
XRECORD
  5
5D
102
{ACAD_REACTORS
330
58
102
}
330
58
100
AcDbXrecord
280
     1
270
     1
271
     1
  0
XRECORD
  5
5E
102
{ACAD_REACTORS
330
58
102
}
330
58
100
AcDbXrecord
280
     1
270
     1
271
     1
  0
XRECORD
  5
51
102
{ACAD_REACTORS
330
50
102
}
330
50
100
AcDbXrecord
280
     1
270
     1
271
     1
  0
XRECORD
  5
52
102
{ACAD_REACTORS
330
50
102
}
330
50
100
AcDbXrecord
280
     1
270
     1
271
     1
  0
XRECORD
  5
53
102
{ACAD_REACTORS
330
50
102
}
330
50
100
AcDbXrecord
280
     1
270
     1
271
     1
  0
XRECORD
  5
54
102
{ACAD_REACTORS
330
50
102
}
330
50
100
AcDbXrecord
280
     1
270
     1
271
     1
  0
XRECORD
  5
55
102
{ACAD_REACTORS
330
50
102
}
330
50
100
AcDbXrecord
280
     1
270
     1
271
     1
  0
XRECORD
  5
56
102
{ACAD_REACTORS
330
50
102
}
330
50
100
AcDbXrecord
280
     1
270
     1
271
     1
  0
XRECORD
  5
1A
102
{ACAD_REACTORS
330
19
102
}
330
19
100
AcDbXrecord
280
     1
270
     1
271
     1
  0
XRECORD
  5
1B
102
{ACAD_REACTORS
330
19
102
}
330
19
100
AcDbXrecord
280
     1
270
     1
271
     1
  0
XRECORD
  5
1C
102
{ACAD_REACTORS
330
19
102
}
330
19
100
AcDbXrecord
280
     1
270
     1
271
     1
  0
XRECORD
  5
1D
102
{ACAD_REACTORS
330
19
102
}
330
19
100
AcDbXrecord
280
     1
270
     1
271
     1
  0
XRECORD
  5
1E
102
{ACAD_REACTORS
330
19
102
}
330
19
100
AcDbXrecord
280
     1
270
     1
271
     1
  0
XRECORD
  5
1F
102
{ACAD_REACTORS
330
19
102
}
330
19
100
AcDbXrecord
280
     1
270
     1
271
     1
  0
XRECORD
  5
828
102
{ACAD_REACTORS
330
827
102
}
330
827
100
AcDbXrecord
280
     1
102
DISPLAYNAME
  1
Imperial24
102
FLAGS
 90
        0
  0
XRECORD
  5
82A
102
{ACAD_REACTORS
330
829
102
}
330
829
100
AcDbXrecord
280
     1
102
DISPLAYNAME
  1
Metric50
102
FLAGS
 90
        0
  0
CELLSTYLEMAP
  5
81B
102
{ACAD_REACTORS
330
68
102
}
330
68
100
AcDbCellStyleMap
 90
        3
300
CELLSTYLE
  1
TABLEFORMAT_BEGIN
 90
        5
170
     1
 91
        0
 92
    32768
 62
   257
 93
        1
300
CONTENTFORMAT
  1
CONTENTFORMAT_BEGIN
 90
        0
 91
        0
 92
        4
 93
        0
300

 40
0.0
140
1.0
 94
        5
 62
     0
340
28
144
0.25
309
CONTENTFORMAT_END
171
     1
301
MARGIN
  1
CELLMARGIN_BEGIN
 40
0.06
 40
0.06
 40
0.06
 40
0.06
 40
0.18
 40
0.18
309
CELLMARGIN_END
 94
        6
 95
        1
302
GRIDFORMAT
  1
GRIDFORMAT_BEGIN
 90
        0
 91
        1
 62
     0
 92
       -2
340
0
 93
        0
 40
0.045
309
GRIDFORMAT_END
 95
        2
302
GRIDFORMAT
  1
GRIDFORMAT_BEGIN
 90
        0
 91
        1
 62
     0
 92
       -2
340
0
 93
        0
 40
0.045
309
GRIDFORMAT_END
 95
        4
302
GRIDFORMAT
  1
GRIDFORMAT_BEGIN
 90
        0
 91
        1
 62
     0
 92
       -2
340
0
 93
        0
 40
0.045
309
GRIDFORMAT_END
 95
        8
302
GRIDFORMAT
  1
GRIDFORMAT_BEGIN
 90
        0
 91
        1
 62
     0
 92
       -2
340
0
 93
        0
 40
0.045
309
GRIDFORMAT_END
 95
       16
302
GRIDFORMAT
  1
GRIDFORMAT_BEGIN
 90
        0
 91
        1
 62
     0
 92
       -2
340
0
 93
        0
 40
0.045
309
GRIDFORMAT_END
 95
       32
302
GRIDFORMAT
  1
GRIDFORMAT_BEGIN
 90
        0
 91
        1
 62
     0
 92
       -2
340
0
 93
        0
 40
0.045
309
GRIDFORMAT_END
309
TABLEFORMAT_END
  1
CELLSTYLE_BEGIN
 90
        1
 91
        1
300
_TITLE
309
CELLSTYLE_END
300
CELLSTYLE
  1
TABLEFORMAT_BEGIN
 90
        5
170
     1
 91
        0
 92
        0
 62
   257
 93
        1
300
CONTENTFORMAT
  1
CONTENTFORMAT_BEGIN
 90
        0
 91
        0
 92
        4
 93
        0
300

 40
0.0
140
1.0
 94
        5
 62
     0
340
28
144
0.18
309
CONTENTFORMAT_END
171
     1
301
MARGIN
  1
CELLMARGIN_BEGIN
 40
0.06
 40
0.06
 40
0.06
 40
0.06
 40
0.18
 40
0.18
309
CELLMARGIN_END
 94
        6
 95
        1
302
GRIDFORMAT
  1
GRIDFORMAT_BEGIN
 90
        0
 91
        1
 62
     0
 92
       -2
340
0
 93
        0
 40
0.045
309
GRIDFORMAT_END
 95
        2
302
GRIDFORMAT
  1
GRIDFORMAT_BEGIN
 90
        0
 91
        1
 62
     0
 92
       -2
340
0
 93
        0
 40
0.045
309
GRIDFORMAT_END
 95
        4
302
GRIDFORMAT
  1
GRIDFORMAT_BEGIN
 90
        0
 91
        1
 62
     0
 92
       -2
340
0
 93
        0
 40
0.045
309
GRIDFORMAT_END
 95
        8
302
GRIDFORMAT
  1
GRIDFORMAT_BEGIN
 90
        0
 91
        1
 62
     0
 92
       -2
340
0
 93
        0
 40
0.045
309
GRIDFORMAT_END
 95
       16
302
GRIDFORMAT
  1
GRIDFORMAT_BEGIN
 90
        0
 91
        1
 62
     0
 92
       -2
340
0
 93
        0
 40
0.045
309
GRIDFORMAT_END
 95
       32
302
GRIDFORMAT
  1
GRIDFORMAT_BEGIN
 90
        0
 91
        1
 62
     0
 92
       -2
340
0
 93
        0
 40
0.045
309
GRIDFORMAT_END
309
TABLEFORMAT_END
  1
CELLSTYLE_BEGIN
 90
        2
 91
        1
300
_HEADER
309
CELLSTYLE_END
300
CELLSTYLE
  1
TABLEFORMAT_BEGIN
 90
        5
170
     1
 91
        0
 92
        0
 62
   257
 93
        1
300
CONTENTFORMAT
  1
CONTENTFORMAT_BEGIN
 90
        0
 91
        0
 92
        4
 93
        0
300

 40
0.0
140
1.0
 94
        2
 62
     0
340
28
144
0.18
309
CONTENTFORMAT_END
171
     1
301
MARGIN
  1
CELLMARGIN_BEGIN
 40
0.06
 40
0.06
 40
0.06
 40
0.06
 40
0.18
 40
0.18
309
CELLMARGIN_END
 94
        6
 95
        1
302
GRIDFORMAT
  1
GRIDFORMAT_BEGIN
 90
        0
 91
        1
 62
     0
 92
       -2
340
0
 93
        0
 40
0.045
309
GRIDFORMAT_END
 95
        2
302
GRIDFORMAT
  1
GRIDFORMAT_BEGIN
 90
        0
 91
        1
 62
     0
 92
       -2
340
0
 93
        0
 40
0.045
309
GRIDFORMAT_END
 95
        4
302
GRIDFORMAT
  1
GRIDFORMAT_BEGIN
 90
        0
 91
        1
 62
     0
 92
       -2
340
0
 93
        0
 40
0.045
309
GRIDFORMAT_END
 95
        8
302
GRIDFORMAT
  1
GRIDFORMAT_BEGIN
 90
        0
 91
        1
 62
     0
 92
       -2
340
0
 93
        0
 40
0.045
309
GRIDFORMAT_END
 95
       16
302
GRIDFORMAT
  1
GRIDFORMAT_BEGIN
 90
        0
 91
        1
 62
     0
 92
       -2
340
0
 93
        0
 40
0.045
309
GRIDFORMAT_END
 95
       32
302
GRIDFORMAT
  1
GRIDFORMAT_BEGIN
 90
        0
 91
        1
 62
     0
 92
       -2
340
0
 93
        0
 40
0.045
309
GRIDFORMAT_END
309
TABLEFORMAT_END
  1
CELLSTYLE_BEGIN
 90
        3
 91
        2
300
_DATA
309
CELLSTYLE_END
  0
XRECORD
  5
81E
102
{ACAD_REACTORS
330
81D
102
}
330
81D
100
AcDbXrecord
280
     1
102
RTVSPost2010Prop28
280
     1
102
RTVSPost2010PropOp28
 70
     1
102
RTVSPost2010Prop29
280
     1
102
RTVSPost2010PropOp29
 70
     1
102
RTVSPost2010Prop30
280
     0
102
RTVSPost2010PropOp30
 70
     1
102
RTVSPost2010Prop31
280
     0
102
RTVSPost2010PropOp31
 70
     1
102
RTVSPost2010Prop32
280
     0
102
RTVSPost2010PropOp32
 70
     1
102
RTVSPost2010Prop33
280
     0
102
RTVSPost2010PropOp33
 70
     1
102
RTVSPost2010Prop34
280
     0
102
RTVSPost2010PropOp34
 70
     1
102
RTVSPost2010Prop35
280
     0
102
RTVSPost2010PropOp35
 70
     1
102
RTVSPost2010Prop36
280
     0
102
RTVSPost2010PropOp36
 70
     1
102
RTVSPost2010Prop37
 90
       50
102
RTVSPost2010PropOp37
 70
     1
102
RTVSPost2010Prop38
140
0.0
102
RTVSPost2010PropOp38
 70
     1
102
RTVSPost2010Prop39
140
1.0
102
RTVSPost2010PropOp39
 70
     1
102
RTVSPost2010Prop40
 90
        0
102
RTVSPost2010PropOp40
 70
     1
102
RTVSPost2010Prop41ColorIndex
 90
       18
102
RTVSPost2010Prop41ColorRGB
 90
-16777216
102
RTVSPost2010PropOp41
 70
     1
102
RTVSPost2010Prop42
 90
       50
102
RTVSPost2010PropOp42
 70
     1
102
RTVSPost2010Prop43
 90
        3
102
RTVSPost2010PropOp43
 70
     1
102
RTVSPost2010Prop44ColorIndex
 90
        5
102
RTVSPost2010Prop44ColorRGB
 90
      255
102
RTVSPost2010PropOp44
 70
     1
102
RTVSPost2010Prop45
280
     0
102
RTVSPost2010PropOp45
 70
     1
102
RTVSPost2010Prop46
 90
       50
102
RTVSPost2010PropOp46
 70
     1
102
RTVSPost2010Prop47
 90
       50
102
RTVSPost2010PropOp47
 70
     1
102
RTVSPost2010Prop48
 90
       50
102
RTVSPost2010PropOp48
 70
     1
102
RTVSPost2010Prop49
280
     0
102
RTVSPost2010PropOp49
 70
     1
102
RTVSPost2010Prop50
 90
       50
102
RTVSPost2010PropOp50
 70
     1
102
RTVSPost2010Prop51ColorIndex
 90
      256
102
RTVSPost2010Prop51ColorRGB
 90
-16777216
102
RTVSPost2010PropOp51
 70
     0
102
RTVSPost2010Prop52
140
1.0
102
RTVSPost2010PropOp52
 70
     0
102
RTVSPost2010Prop53
 90
        2
102
RTVSPost2010PropOp53
 70
     1
102
RTVSPost2010Prop54
  1
strokes_ogs.tif
102
RTVSPost2010PropOp54
 70
     1
102
RTVSPost2010Prop55
280
     0
102
RTVSPost2010PropOp55
 70
     1
102
RTVSPost2010Prop56
140
1.0
102
RTVSPost2010PropOp56
 70
     1
102
RTVSPost2010Prop57
140
1.0
102
RTVSPost2010PropOp57
 70
     1
  0
XRECORD
  5
834
102
{ACAD_REACTORS
330
833
102
}
330
833
100
AcDbXrecord
280
     1
102
RTVSPost2010Prop28
280
     0
102
RTVSPost2010PropOp28
 70
     1
102
RTVSPost2010Prop29
280
     1
102
RTVSPost2010PropOp29
 70
     1
102
RTVSPost2010Prop30
280
     1
102
RTVSPost2010PropOp30
 70
     1
102
RTVSPost2010Prop31
280
     0
102
RTVSPost2010PropOp31
 70
     1
102
RTVSPost2010Prop32
280
     0
102
RTVSPost2010PropOp32
 70
     1
102
RTVSPost2010Prop33
280
     0
102
RTVSPost2010PropOp33
 70
     1
102
RTVSPost2010Prop34
280
     0
102
RTVSPost2010PropOp34
 70
     1
102
RTVSPost2010Prop35
280
     0
102
RTVSPost2010PropOp35
 70
     1
102
RTVSPost2010Prop36
280
     0
102
RTVSPost2010PropOp36
 70
     1
102
RTVSPost2010Prop37
 90
       50
102
RTVSPost2010PropOp37
 70
     1
102
RTVSPost2010Prop38
140
0.0
102
RTVSPost2010PropOp38
 70
     1
102
RTVSPost2010Prop39
140
1.0
102
RTVSPost2010PropOp39
 70
     1
102
RTVSPost2010Prop40
 90
        0
102
RTVSPost2010PropOp40
 70
     1
102
RTVSPost2010Prop41ColorIndex
 90
       18
102
RTVSPost2010Prop41ColorRGB
 90
        0
102
RTVSPost2010PropOp41
 70
     1
102
RTVSPost2010Prop42
 90
       50
102
RTVSPost2010PropOp42
 70
     1
102
RTVSPost2010Prop43
 90
        3
102
RTVSPost2010PropOp43
 70
     1
102
RTVSPost2010Prop44ColorIndex
 90
        5
102
RTVSPost2010Prop44ColorRGB
 90
      255
102
RTVSPost2010PropOp44
 70
     1
102
RTVSPost2010Prop45
280
     0
102
RTVSPost2010PropOp45
 70
     1
102
RTVSPost2010Prop46
 90
       50
102
RTVSPost2010PropOp46
 70
     1
102
RTVSPost2010Prop47
 90
       50
102
RTVSPost2010PropOp47
 70
     1
102
RTVSPost2010Prop48
 90
       50
102
RTVSPost2010PropOp48
 70
     1
102
RTVSPost2010Prop49
280
     0
102
RTVSPost2010PropOp49
 70
     1
102
RTVSPost2010Prop50
 90
       50
102
RTVSPost2010PropOp50
 70
     1
102
RTVSPost2010Prop51ColorIndex
 90
      256
102
RTVSPost2010Prop51ColorRGB
 90
-16777216
102
RTVSPost2010PropOp51
 70
     0
102
RTVSPost2010Prop52
140
1.0
102
RTVSPost2010PropOp52
 70
     0
102
RTVSPost2010Prop53
 90
        2
102
RTVSPost2010PropOp53
 70
     1
102
RTVSPost2010Prop54
  1
strokes_ogs.tif
102
RTVSPost2010PropOp54
 70
     1
102
RTVSPost2010Prop55
280
     0
102
RTVSPost2010PropOp55
 70
     1
102
RTVSPost2010Prop56
140
1.0
102
RTVSPost2010PropOp56
 70
     1
102
RTVSPost2010Prop57
140
1.0
102
RTVSPost2010PropOp57
 70
     1
  0
XRECORD
  5
83C
102
{ACAD_REACTORS
330
83B
102
}
330
83B
100
AcDbXrecord
280
     1
102
RTVSPost2010Prop28
280
     0
102
RTVSPost2010PropOp28
 70
     1
102
RTVSPost2010Prop29
280
     1
102
RTVSPost2010PropOp29
 70
     1
102
RTVSPost2010Prop30
280
     1
102
RTVSPost2010PropOp30
 70
     1
102
RTVSPost2010Prop31
280
     0
102
RTVSPost2010PropOp31
 70
     1
102
RTVSPost2010Prop32
280
     0
102
RTVSPost2010PropOp32
 70
     1
102
RTVSPost2010Prop33
280
     0
102
RTVSPost2010PropOp33
 70
     1
102
RTVSPost2010Prop34
280
     0
102
RTVSPost2010PropOp34
 70
     1
102
RTVSPost2010Prop35
280
     0
102
RTVSPost2010PropOp35
 70
     1
102
RTVSPost2010Prop36
280
     0
102
RTVSPost2010PropOp36
 70
     1
102
RTVSPost2010Prop37
 90
       50
102
RTVSPost2010PropOp37
 70
     1
102
RTVSPost2010Prop38
140
0.0
102
RTVSPost2010PropOp38
 70
     1
102
RTVSPost2010Prop39
140
1.0
102
RTVSPost2010PropOp39
 70
     1
102
RTVSPost2010Prop40
 90
        0
102
RTVSPost2010PropOp40
 70
     1
102
RTVSPost2010Prop41ColorIndex
 90
       18
102
RTVSPost2010Prop41ColorRGB
 90
        0
102
RTVSPost2010PropOp41
 70
     1
102
RTVSPost2010Prop42
 90
       50
102
RTVSPost2010PropOp42
 70
     1
102
RTVSPost2010Prop43
 90
        3
102
RTVSPost2010PropOp43
 70
     1
102
RTVSPost2010Prop44ColorIndex
 90
        5
102
RTVSPost2010Prop44ColorRGB
 90
      255
102
RTVSPost2010PropOp44
 70
     1
102
RTVSPost2010Prop45
280
     0
102
RTVSPost2010PropOp45
 70
     1
102
RTVSPost2010Prop46
 90
       50
102
RTVSPost2010PropOp46
 70
     1
102
RTVSPost2010Prop47
 90
       50
102
RTVSPost2010PropOp47
 70
     1
102
RTVSPost2010Prop48
 90
       50
102
RTVSPost2010PropOp48
 70
     1
102
RTVSPost2010Prop49
280
     0
102
RTVSPost2010PropOp49
 70
     1
102
RTVSPost2010Prop50
 90
       50
102
RTVSPost2010PropOp50
 70
     1
102
RTVSPost2010Prop51ColorIndex
 90
      256
102
RTVSPost2010Prop51ColorRGB
 90
-16777216
102
RTVSPost2010PropOp51
 70
     0
102
RTVSPost2010Prop52
140
1.0
102
RTVSPost2010PropOp52
 70
     0
102
RTVSPost2010Prop53
 90
        2
102
RTVSPost2010PropOp53
 70
     1
102
RTVSPost2010Prop54
  1
strokes_ogs.tif
102
RTVSPost2010PropOp54
 70
     1
102
RTVSPost2010Prop55
280
     0
102
RTVSPost2010PropOp55
 70
     1
102
RTVSPost2010Prop56
140
1.0
102
RTVSPost2010PropOp56
 70
     1
102
RTVSPost2010Prop57
140
1.0
102
RTVSPost2010PropOp57
 70
     1
  0
XRECORD
  5
844
102
{ACAD_REACTORS
330
843
102
}
330
843
100
AcDbXrecord
280
     1
102
RTVSPost2010Prop28
280
     0
102
RTVSPost2010PropOp28
 70
     1
102
RTVSPost2010Prop29
280
     1
102
RTVSPost2010PropOp29
 70
     1
102
RTVSPost2010Prop30
280
     1
102
RTVSPost2010PropOp30
 70
     1
102
RTVSPost2010Prop31
280
     0
102
RTVSPost2010PropOp31
 70
     1
102
RTVSPost2010Prop32
280
     0
102
RTVSPost2010PropOp32
 70
     1
102
RTVSPost2010Prop33
280
     0
102
RTVSPost2010PropOp33
 70
     1
102
RTVSPost2010Prop34
280
     0
102
RTVSPost2010PropOp34
 70
     1
102
RTVSPost2010Prop35
280
     0
102
RTVSPost2010PropOp35
 70
     1
102
RTVSPost2010Prop36
280
     0
102
RTVSPost2010PropOp36
 70
     1
102
RTVSPost2010Prop37
 90
       50
102
RTVSPost2010PropOp37
 70
     1
102
RTVSPost2010Prop38
140
0.0
102
RTVSPost2010PropOp38
 70
     1
102
RTVSPost2010Prop39
140
1.0
102
RTVSPost2010PropOp39
 70
     1
102
RTVSPost2010Prop40
 90
        0
102
RTVSPost2010PropOp40
 70
     1
102
RTVSPost2010Prop41ColorIndex
 90
       18
102
RTVSPost2010Prop41ColorRGB
 90
        0
102
RTVSPost2010PropOp41
 70
     1
102
RTVSPost2010Prop42
 90
       50
102
RTVSPost2010PropOp42
 70
     1
102
RTVSPost2010Prop43
 90
        3
102
RTVSPost2010PropOp43
 70
     1
102
RTVSPost2010Prop44ColorIndex
 90
        5
102
RTVSPost2010Prop44ColorRGB
 90
      255
102
RTVSPost2010PropOp44
 70
     1
102
RTVSPost2010Prop45
280
     0
102
RTVSPost2010PropOp45
 70
     1
102
RTVSPost2010Prop46
 90
       50
102
RTVSPost2010PropOp46
 70
     1
102
RTVSPost2010Prop47
 90
       50
102
RTVSPost2010PropOp47
 70
     1
102
RTVSPost2010Prop48
 90
       50
102
RTVSPost2010PropOp48
 70
     1
102
RTVSPost2010Prop49
280
     0
102
RTVSPost2010PropOp49
 70
     1
102
RTVSPost2010Prop50
 90
       50
102
RTVSPost2010PropOp50
 70
     1
102
RTVSPost2010Prop51ColorIndex
 90
      256
102
RTVSPost2010Prop51ColorRGB
 90
-16777216
102
RTVSPost2010PropOp51
 70
     0
102
RTVSPost2010Prop52
140
1.0
102
RTVSPost2010PropOp52
 70
     0
102
RTVSPost2010Prop53
 90
        2
102
RTVSPost2010PropOp53
 70
     1
102
RTVSPost2010Prop54
  1
strokes_ogs.tif
102
RTVSPost2010PropOp54
 70
     1
102
RTVSPost2010Prop55
280
     0
102
RTVSPost2010PropOp55
 70
     1
102
RTVSPost2010Prop56
140
1.0
102
RTVSPost2010PropOp56
 70
     1
102
RTVSPost2010Prop57
140
1.0
102
RTVSPost2010PropOp57
 70
     1
  0
XRECORD
  5
838
102
{ACAD_REACTORS
330
837
102
}
330
837
100
AcDbXrecord
280
     1
102
RTVSPost2010Prop28
280
     0
102
RTVSPost2010PropOp28
 70
     1
102
RTVSPost2010Prop29
280
     1
102
RTVSPost2010PropOp29
 70
     1
102
RTVSPost2010Prop30
280
     1
102
RTVSPost2010PropOp30
 70
     1
102
RTVSPost2010Prop31
280
     0
102
RTVSPost2010PropOp31
 70
     1
102
RTVSPost2010Prop32
280
     0
102
RTVSPost2010PropOp32
 70
     1
102
RTVSPost2010Prop33
280
     0
102
RTVSPost2010PropOp33
 70
     1
102
RTVSPost2010Prop34
280
     0
102
RTVSPost2010PropOp34
 70
     1
102
RTVSPost2010Prop35
280
     0
102
RTVSPost2010PropOp35
 70
     1
102
RTVSPost2010Prop36
280
     0
102
RTVSPost2010PropOp36
 70
     1
102
RTVSPost2010Prop37
 90
       50
102
RTVSPost2010PropOp37
 70
     1
102
RTVSPost2010Prop38
140
0.0
102
RTVSPost2010PropOp38
 70
     1
102
RTVSPost2010Prop39
140
1.0
102
RTVSPost2010PropOp39
 70
     1
102
RTVSPost2010Prop40
 90
        0
102
RTVSPost2010PropOp40
 70
     1
102
RTVSPost2010Prop41ColorIndex
 90
       18
102
RTVSPost2010Prop41ColorRGB
 90
        0
102
RTVSPost2010PropOp41
 70
     1
102
RTVSPost2010Prop42
 90
       50
102
RTVSPost2010PropOp42
 70
     1
102
RTVSPost2010Prop43
 90
        3
102
RTVSPost2010PropOp43
 70
     1
102
RTVSPost2010Prop44ColorIndex
 90
        5
102
RTVSPost2010Prop44ColorRGB
 90
      255
102
RTVSPost2010PropOp44
 70
     1
102
RTVSPost2010Prop45
280
     0
102
RTVSPost2010PropOp45
 70
     1
102
RTVSPost2010Prop46
 90
       50
102
RTVSPost2010PropOp46
 70
     1
102
RTVSPost2010Prop47
 90
       50
102
RTVSPost2010PropOp47
 70
     1
102
RTVSPost2010Prop48
 90
       50
102
RTVSPost2010PropOp48
 70
     1
102
RTVSPost2010Prop49
280
     0
102
RTVSPost2010PropOp49
 70
     1
102
RTVSPost2010Prop50
 90
       50
102
RTVSPost2010PropOp50
 70
     1
102
RTVSPost2010Prop51ColorIndex
 90
      256
102
RTVSPost2010Prop51ColorRGB
 90
-16777216
102
RTVSPost2010PropOp51
 70
     0
102
RTVSPost2010Prop52
140
1.0
102
RTVSPost2010PropOp52
 70
     0
102
RTVSPost2010Prop53
 90
        2
102
RTVSPost2010PropOp53
 70
     1
102
RTVSPost2010Prop54
  1
strokes_ogs.tif
102
RTVSPost2010PropOp54
 70
     1
102
RTVSPost2010Prop55
280
     0
102
RTVSPost2010PropOp55
 70
     1
102
RTVSPost2010Prop56
140
1.0
102
RTVSPost2010PropOp56
 70
     1
102
RTVSPost2010Prop57
140
1.0
102
RTVSPost2010PropOp57
 70
     1
  0
XRECORD
  5
83A
102
{ACAD_REACTORS
330
839
102
}
330
839
100
AcDbXrecord
280
     1
102
RTVSPost2010Prop28
280
     0
102
RTVSPost2010PropOp28
 70
     1
102
RTVSPost2010Prop29
280
     1
102
RTVSPost2010PropOp29
 70
     1
102
RTVSPost2010Prop30
280
     1
102
RTVSPost2010PropOp30
 70
     1
102
RTVSPost2010Prop31
280
     0
102
RTVSPost2010PropOp31
 70
     1
102
RTVSPost2010Prop32
280
     0
102
RTVSPost2010PropOp32
 70
     1
102
RTVSPost2010Prop33
280
     0
102
RTVSPost2010PropOp33
 70
     1
102
RTVSPost2010Prop34
280
     0
102
RTVSPost2010PropOp34
 70
     1
102
RTVSPost2010Prop35
280
     0
102
RTVSPost2010PropOp35
 70
     1
102
RTVSPost2010Prop36
280
     0
102
RTVSPost2010PropOp36
 70
     1
102
RTVSPost2010Prop37
 90
       50
102
RTVSPost2010PropOp37
 70
     1
102
RTVSPost2010Prop38
140
0.0
102
RTVSPost2010PropOp38
 70
     1
102
RTVSPost2010Prop39
140
1.0
102
RTVSPost2010PropOp39
 70
     1
102
RTVSPost2010Prop40
 90
        0
102
RTVSPost2010PropOp40
 70
     1
102
RTVSPost2010Prop41ColorIndex
 90
       18
102
RTVSPost2010Prop41ColorRGB
 90
        0
102
RTVSPost2010PropOp41
 70
     1
102
RTVSPost2010Prop42
 90
       50
102
RTVSPost2010PropOp42
 70
     1
102
RTVSPost2010Prop43
 90
        3
102
RTVSPost2010PropOp43
 70
     1
102
RTVSPost2010Prop44ColorIndex
 90
        5
102
RTVSPost2010Prop44ColorRGB
 90
      255
102
RTVSPost2010PropOp44
 70
     1
102
RTVSPost2010Prop45
280
     0
102
RTVSPost2010PropOp45
 70
     1
102
RTVSPost2010Prop46
 90
       50
102
RTVSPost2010PropOp46
 70
     1
102
RTVSPost2010Prop47
 90
       50
102
RTVSPost2010PropOp47
 70
     1
102
RTVSPost2010Prop48
 90
       50
102
RTVSPost2010PropOp48
 70
     1
102
RTVSPost2010Prop49
280
     0
102
RTVSPost2010PropOp49
 70
     1
102
RTVSPost2010Prop50
 90
       50
102
RTVSPost2010PropOp50
 70
     1
102
RTVSPost2010Prop51ColorIndex
 90
      256
102
RTVSPost2010Prop51ColorRGB
 90
-16777216
102
RTVSPost2010PropOp51
 70
     0
102
RTVSPost2010Prop52
140
1.0
102
RTVSPost2010PropOp52
 70
     0
102
RTVSPost2010Prop53
 90
        2
102
RTVSPost2010PropOp53
 70
     1
102
RTVSPost2010Prop54
  1
strokes_ogs.tif
102
RTVSPost2010PropOp54
 70
     1
102
RTVSPost2010Prop55
280
     0
102
RTVSPost2010PropOp55
 70
     1
102
RTVSPost2010Prop56
140
1.0
102
RTVSPost2010PropOp56
 70
     1
102
RTVSPost2010Prop57
140
1.0
102
RTVSPost2010PropOp57
 70
     1
  0
XRECORD
  5
854
102
{ACAD_REACTORS
330
853
102
}
330
853
100
AcDbXrecord
280
     1
102
RTVSPost2010Prop28
280
     0
102
RTVSPost2010PropOp28
 70
     1
102
RTVSPost2010Prop29
280
     1
102
RTVSPost2010PropOp29
 70
     1
102
RTVSPost2010Prop30
280
     1
102
RTVSPost2010PropOp30
 70
     1
102
RTVSPost2010Prop31
280
     0
102
RTVSPost2010PropOp31
 70
     1
102
RTVSPost2010Prop32
280
     0
102
RTVSPost2010PropOp32
 70
     1
102
RTVSPost2010Prop33
280
     0
102
RTVSPost2010PropOp33
 70
     1
102
RTVSPost2010Prop34
280
     0
102
RTVSPost2010PropOp34
 70
     1
102
RTVSPost2010Prop35
280
     0
102
RTVSPost2010PropOp35
 70
     1
102
RTVSPost2010Prop36
280
     0
102
RTVSPost2010PropOp36
 70
     1
102
RTVSPost2010Prop37
 90
       50
102
RTVSPost2010PropOp37
 70
     0
102
RTVSPost2010Prop38
140
0.0
102
RTVSPost2010PropOp38
 70
     0
102
RTVSPost2010Prop39
140
1.0
102
RTVSPost2010PropOp39
 70
     0
102
RTVSPost2010Prop40
 90
        0
102
RTVSPost2010PropOp40
 70
     0
102
RTVSPost2010Prop41ColorIndex
 90
       18
102
RTVSPost2010Prop41ColorRGB
 90
        0
102
RTVSPost2010PropOp41
 70
     0
102
RTVSPost2010Prop42
 90
       50
102
RTVSPost2010PropOp42
 70
     0
102
RTVSPost2010Prop43
 90
        3
102
RTVSPost2010PropOp43
 70
     0
102
RTVSPost2010Prop44ColorIndex
 90
        5
102
RTVSPost2010Prop44ColorRGB
 90
      255
102
RTVSPost2010PropOp44
 70
     0
102
RTVSPost2010Prop45
280
     0
102
RTVSPost2010PropOp45
 70
     1
102
RTVSPost2010Prop46
 90
       50
102
RTVSPost2010PropOp46
 70
     0
102
RTVSPost2010Prop47
 90
       50
102
RTVSPost2010PropOp47
 70
     0
102
RTVSPost2010Prop48
 90
       50
102
RTVSPost2010PropOp48
 70
     0
102
RTVSPost2010Prop49
280
     0
102
RTVSPost2010PropOp49
 70
     1
102
RTVSPost2010Prop50
 90
       50
102
RTVSPost2010PropOp50
 70
     0
102
RTVSPost2010Prop51ColorIndex
 90
      256
102
RTVSPost2010Prop51ColorRGB
 90
-16777216
102
RTVSPost2010PropOp51
 70
     0
102
RTVSPost2010Prop52
140
1.0
102
RTVSPost2010PropOp52
 70
     0
102
RTVSPost2010Prop53
 90
        2
102
RTVSPost2010PropOp53
 70
     0
102
RTVSPost2010Prop54
  1
strokes_ogs.tif
102
RTVSPost2010PropOp54
 70
     0
102
RTVSPost2010Prop55
280
     0
102
RTVSPost2010PropOp55
 70
     1
102
RTVSPost2010Prop56
140
1.0
102
RTVSPost2010PropOp56
 70
     0
102
RTVSPost2010Prop57
140
1.0
102
RTVSPost2010PropOp57
 70
     0
  0
XRECORD
  5
842
102
{ACAD_REACTORS
330
841
102
}
330
841
100
AcDbXrecord
280
     1
102
RTVSPost2010Prop28
280
     0
102
RTVSPost2010PropOp28
 70
     1
102
RTVSPost2010Prop29
280
     1
102
RTVSPost2010PropOp29
 70
     1
102
RTVSPost2010Prop30
280
     1
102
RTVSPost2010PropOp30
 70
     1
102
RTVSPost2010Prop31
280
     0
102
RTVSPost2010PropOp31
 70
     1
102
RTVSPost2010Prop32
280
     0
102
RTVSPost2010PropOp32
 70
     1
102
RTVSPost2010Prop33
280
     0
102
RTVSPost2010PropOp33
 70
     1
102
RTVSPost2010Prop34
280
     0
102
RTVSPost2010PropOp34
 70
     1
102
RTVSPost2010Prop35
280
     0
102
RTVSPost2010PropOp35
 70
     1
102
RTVSPost2010Prop36
280
     0
102
RTVSPost2010PropOp36
 70
     1
102
RTVSPost2010Prop37
 90
       50
102
RTVSPost2010PropOp37
 70
     1
102
RTVSPost2010Prop38
140
0.0
102
RTVSPost2010PropOp38
 70
     1
102
RTVSPost2010Prop39
140
1.0
102
RTVSPost2010PropOp39
 70
     1
102
RTVSPost2010Prop40
 90
        0
102
RTVSPost2010PropOp40
 70
     1
102
RTVSPost2010Prop41ColorIndex
 90
       18
102
RTVSPost2010Prop41ColorRGB
 90
        0
102
RTVSPost2010PropOp41
 70
     1
102
RTVSPost2010Prop42
 90
       50
102
RTVSPost2010PropOp42
 70
     1
102
RTVSPost2010Prop43
 90
        3
102
RTVSPost2010PropOp43
 70
     1
102
RTVSPost2010Prop44ColorIndex
 90
        5
102
RTVSPost2010Prop44ColorRGB
 90
      255
102
RTVSPost2010PropOp44
 70
     1
102
RTVSPost2010Prop45
280
     0
102
RTVSPost2010PropOp45
 70
     1
102
RTVSPost2010Prop46
 90
       50
102
RTVSPost2010PropOp46
 70
     1
102
RTVSPost2010Prop47
 90
       50
102
RTVSPost2010PropOp47
 70
     1
102
RTVSPost2010Prop48
 90
       50
102
RTVSPost2010PropOp48
 70
     1
102
RTVSPost2010Prop49
280
     0
102
RTVSPost2010PropOp49
 70
     1
102
RTVSPost2010Prop50
 90
       50
102
RTVSPost2010PropOp50
 70
     1
102
RTVSPost2010Prop51ColorIndex
 90
      256
102
RTVSPost2010Prop51ColorRGB
 90
-16777216
102
RTVSPost2010PropOp51
 70
     0
102
RTVSPost2010Prop52
140
1.0
102
RTVSPost2010PropOp52
 70
     0
102
RTVSPost2010Prop53
 90
        2
102
RTVSPost2010PropOp53
 70
     1
102
RTVSPost2010Prop54
  1
strokes_ogs.tif
102
RTVSPost2010PropOp54
 70
     1
102
RTVSPost2010Prop55
280
     0
102
RTVSPost2010PropOp55
 70
     1
102
RTVSPost2010Prop56
140
1.0
102
RTVSPost2010PropOp56
 70
     1
102
RTVSPost2010Prop57
140
1.0
102
RTVSPost2010PropOp57
 70
     1
  0
XRECORD
  5
82C
102
{ACAD_REACTORS
330
82B
102
}
330
82B
100
AcDbXrecord
280
     1
102
RTVSPost2010Prop28
280
     0
102
RTVSPost2010PropOp28
 70
     1
102
RTVSPost2010Prop29
280
     1
102
RTVSPost2010PropOp29
 70
     1
102
RTVSPost2010Prop30
280
     1
102
RTVSPost2010PropOp30
 70
     1
102
RTVSPost2010Prop31
280
     0
102
RTVSPost2010PropOp31
 70
     1
102
RTVSPost2010Prop32
280
     0
102
RTVSPost2010PropOp32
 70
     1
102
RTVSPost2010Prop33
280
     0
102
RTVSPost2010PropOp33
 70
     1
102
RTVSPost2010Prop34
280
     0
102
RTVSPost2010PropOp34
 70
     1
102
RTVSPost2010Prop35
280
     0
102
RTVSPost2010PropOp35
 70
     1
102
RTVSPost2010Prop36
280
     0
102
RTVSPost2010PropOp36
 70
     1
102
RTVSPost2010Prop37
 90
       50
102
RTVSPost2010PropOp37
 70
     1
102
RTVSPost2010Prop38
140
0.0
102
RTVSPost2010PropOp38
 70
     1
102
RTVSPost2010Prop39
140
1.0
102
RTVSPost2010PropOp39
 70
     1
102
RTVSPost2010Prop40
 90
        0
102
RTVSPost2010PropOp40
 70
     1
102
RTVSPost2010Prop41ColorIndex
 90
       18
102
RTVSPost2010Prop41ColorRGB
 90
        0
102
RTVSPost2010PropOp41
 70
     1
102
RTVSPost2010Prop42
 90
       50
102
RTVSPost2010PropOp42
 70
     1
102
RTVSPost2010Prop43
 90
        3
102
RTVSPost2010PropOp43
 70
     1
102
RTVSPost2010Prop44ColorIndex
 90
        5
102
RTVSPost2010Prop44ColorRGB
 90
      255
102
RTVSPost2010PropOp44
 70
     1
102
RTVSPost2010Prop45
280
     0
102
RTVSPost2010PropOp45
 70
     1
102
RTVSPost2010Prop46
 90
       50
102
RTVSPost2010PropOp46
 70
     1
102
RTVSPost2010Prop47
 90
       50
102
RTVSPost2010PropOp47
 70
     1
102
RTVSPost2010Prop48
 90
       50
102
RTVSPost2010PropOp48
 70
     1
102
RTVSPost2010Prop49
280
     0
102
RTVSPost2010PropOp49
 70
     1
102
RTVSPost2010Prop50
 90
       50
102
RTVSPost2010PropOp50
 70
     1
102
RTVSPost2010Prop51ColorIndex
 90
      256
102
RTVSPost2010Prop51ColorRGB
 90
-16777216
102
RTVSPost2010PropOp51
 70
     0
102
RTVSPost2010Prop52
140
1.0
102
RTVSPost2010PropOp52
 70
     0
102
RTVSPost2010Prop53
 90
        2
102
RTVSPost2010PropOp53
 70
     1
102
RTVSPost2010Prop54
  1
strokes_ogs.tif
102
RTVSPost2010PropOp54
 70
     1
102
RTVSPost2010Prop55
280
     0
102
RTVSPost2010PropOp55
 70
     1
102
RTVSPost2010Prop56
140
1.0
102
RTVSPost2010PropOp56
 70
     1
102
RTVSPost2010Prop57
140
1.0
102
RTVSPost2010PropOp57
 70
     1
  0
XRECORD
  5
82E
102
{ACAD_REACTORS
330
82D
102
}
330
82D
100
AcDbXrecord
280
     1
102
RTVSPost2010Prop28
280
     0
102
RTVSPost2010PropOp28
 70
     1
102
RTVSPost2010Prop29
280
     1
102
RTVSPost2010PropOp29
 70
     1
102
RTVSPost2010Prop30
280
     1
102
RTVSPost2010PropOp30
 70
     1
102
RTVSPost2010Prop31
280
     0
102
RTVSPost2010PropOp31
 70
     1
102
RTVSPost2010Prop32
280
     0
102
RTVSPost2010PropOp32
 70
     1
102
RTVSPost2010Prop33
280
     0
102
RTVSPost2010PropOp33
 70
     1
102
RTVSPost2010Prop34
280
     0
102
RTVSPost2010PropOp34
 70
     1
102
RTVSPost2010Prop35
280
     0
102
RTVSPost2010PropOp35
 70
     1
102
RTVSPost2010Prop36
280
     0
102
RTVSPost2010PropOp36
 70
     1
102
RTVSPost2010Prop37
 90
       50
102
RTVSPost2010PropOp37
 70
     1
102
RTVSPost2010Prop38
140
0.0
102
RTVSPost2010PropOp38
 70
     1
102
RTVSPost2010Prop39
140
1.0
102
RTVSPost2010PropOp39
 70
     1
102
RTVSPost2010Prop40
 90
        0
102
RTVSPost2010PropOp40
 70
     1
102
RTVSPost2010Prop41ColorIndex
 90
       18
102
RTVSPost2010Prop41ColorRGB
 90
        0
102
RTVSPost2010PropOp41
 70
     1
102
RTVSPost2010Prop42
 90
       50
102
RTVSPost2010PropOp42
 70
     1
102
RTVSPost2010Prop43
 90
        3
102
RTVSPost2010PropOp43
 70
     1
102
RTVSPost2010Prop44ColorIndex
 90
        5
102
RTVSPost2010Prop44ColorRGB
 90
      255
102
RTVSPost2010PropOp44
 70
     1
102
RTVSPost2010Prop45
280
     0
102
RTVSPost2010PropOp45
 70
     1
102
RTVSPost2010Prop46
 90
       50
102
RTVSPost2010PropOp46
 70
     1
102
RTVSPost2010Prop47
 90
       50
102
RTVSPost2010PropOp47
 70
     1
102
RTVSPost2010Prop48
 90
       50
102
RTVSPost2010PropOp48
 70
     1
102
RTVSPost2010Prop49
280
     0
102
RTVSPost2010PropOp49
 70
     1
102
RTVSPost2010Prop50
 90
       50
102
RTVSPost2010PropOp50
 70
     1
102
RTVSPost2010Prop51ColorIndex
 90
      256
102
RTVSPost2010Prop51ColorRGB
 90
-16777216
102
RTVSPost2010PropOp51
 70
     0
102
RTVSPost2010Prop52
140
1.0
102
RTVSPost2010PropOp52
 70
     0
102
RTVSPost2010Prop53
 90
        2
102
RTVSPost2010PropOp53
 70
     1
102
RTVSPost2010Prop54
  1
strokes_ogs.tif
102
RTVSPost2010PropOp54
 70
     1
102
RTVSPost2010Prop55
280
     0
102
RTVSPost2010PropOp55
 70
     1
102
RTVSPost2010Prop56
140
1.0
102
RTVSPost2010PropOp56
 70
     1
102
RTVSPost2010Prop57
140
1.0
102
RTVSPost2010PropOp57
 70
     1
  0
XRECORD
  5
830
102
{ACAD_REACTORS
330
82F
102
}
330
82F
100
AcDbXrecord
280
     1
102
RTVSPost2010Prop28
280
     0
102
RTVSPost2010PropOp28
 70
     1
102
RTVSPost2010Prop29
280
     1
102
RTVSPost2010PropOp29
 70
     1
102
RTVSPost2010Prop30
280
     1
102
RTVSPost2010PropOp30
 70
     1
102
RTVSPost2010Prop31
280
     0
102
RTVSPost2010PropOp31
 70
     1
102
RTVSPost2010Prop32
280
     0
102
RTVSPost2010PropOp32
 70
     1
102
RTVSPost2010Prop33
280
     0
102
RTVSPost2010PropOp33
 70
     1
102
RTVSPost2010Prop34
280
     0
102
RTVSPost2010PropOp34
 70
     1
102
RTVSPost2010Prop35
280
     0
102
RTVSPost2010PropOp35
 70
     1
102
RTVSPost2010Prop36
280
     0
102
RTVSPost2010PropOp36
 70
     1
102
RTVSPost2010Prop37
 90
       50
102
RTVSPost2010PropOp37
 70
     1
102
RTVSPost2010Prop38
140
0.0
102
RTVSPost2010PropOp38
 70
     1
102
RTVSPost2010Prop39
140
1.0
102
RTVSPost2010PropOp39
 70
     1
102
RTVSPost2010Prop40
 90
        0
102
RTVSPost2010PropOp40
 70
     1
102
RTVSPost2010Prop41ColorIndex
 90
       18
102
RTVSPost2010Prop41ColorRGB
 90
        0
102
RTVSPost2010PropOp41
 70
     1
102
RTVSPost2010Prop42
 90
       50
102
RTVSPost2010PropOp42
 70
     1
102
RTVSPost2010Prop43
 90
        3
102
RTVSPost2010PropOp43
 70
     1
102
RTVSPost2010Prop44ColorIndex
 90
        5
102
RTVSPost2010Prop44ColorRGB
 90
      255
102
RTVSPost2010PropOp44
 70
     1
102
RTVSPost2010Prop45
280
     0
102
RTVSPost2010PropOp45
 70
     1
102
RTVSPost2010Prop46
 90
       50
102
RTVSPost2010PropOp46
 70
     1
102
RTVSPost2010Prop47
 90
       50
102
RTVSPost2010PropOp47
 70
     1
102
RTVSPost2010Prop48
 90
       50
102
RTVSPost2010PropOp48
 70
     1
102
RTVSPost2010Prop49
280
     0
102
RTVSPost2010PropOp49
 70
     1
102
RTVSPost2010Prop50
 90
       50
102
RTVSPost2010PropOp50
 70
     1
102
RTVSPost2010Prop51ColorIndex
 90
      256
102
RTVSPost2010Prop51ColorRGB
 90
-16777216
102
RTVSPost2010PropOp51
 70
     0
102
RTVSPost2010Prop52
140
1.0
102
RTVSPost2010PropOp52
 70
     0
102
RTVSPost2010Prop53
 90
        2
102
RTVSPost2010PropOp53
 70
     1
102
RTVSPost2010Prop54
  1
strokes_ogs.tif
102
RTVSPost2010PropOp54
 70
     1
102
RTVSPost2010Prop55
280
     0
102
RTVSPost2010PropOp55
 70
     1
102
RTVSPost2010Prop56
140
1.0
102
RTVSPost2010PropOp56
 70
     1
102
RTVSPost2010Prop57
140
1.0
102
RTVSPost2010PropOp57
 70
     1
  0
XRECORD
  5
832
102
{ACAD_REACTORS
330
831
102
}
330
831
100
AcDbXrecord
280
     1
102
RTVSPost2010Prop28
280
     0
102
RTVSPost2010PropOp28
 70
     1
102
RTVSPost2010Prop29
280
     1
102
RTVSPost2010PropOp29
 70
     1
102
RTVSPost2010Prop30
280
     1
102
RTVSPost2010PropOp30
 70
     1
102
RTVSPost2010Prop31
280
     0
102
RTVSPost2010PropOp31
 70
     1
102
RTVSPost2010Prop32
280
     0
102
RTVSPost2010PropOp32
 70
     1
102
RTVSPost2010Prop33
280
     0
102
RTVSPost2010PropOp33
 70
     1
102
RTVSPost2010Prop34
280
     0
102
RTVSPost2010PropOp34
 70
     1
102
RTVSPost2010Prop35
280
     0
102
RTVSPost2010PropOp35
 70
     1
102
RTVSPost2010Prop36
280
     0
102
RTVSPost2010PropOp36
 70
     1
102
RTVSPost2010Prop37
 90
       50
102
RTVSPost2010PropOp37
 70
     1
102
RTVSPost2010Prop38
140
0.0
102
RTVSPost2010PropOp38
 70
     1
102
RTVSPost2010Prop39
140
1.0
102
RTVSPost2010PropOp39
 70
     1
102
RTVSPost2010Prop40
 90
        0
102
RTVSPost2010PropOp40
 70
     1
102
RTVSPost2010Prop41ColorIndex
 90
       18
102
RTVSPost2010Prop41ColorRGB
 90
        0
102
RTVSPost2010PropOp41
 70
     1
102
RTVSPost2010Prop42
 90
       50
102
RTVSPost2010PropOp42
 70
     1
102
RTVSPost2010Prop43
 90
        3
102
RTVSPost2010PropOp43
 70
     1
102
RTVSPost2010Prop44ColorIndex
 90
        5
102
RTVSPost2010Prop44ColorRGB
 90
      255
102
RTVSPost2010PropOp44
 70
     1
102
RTVSPost2010Prop45
280
     0
102
RTVSPost2010PropOp45
 70
     1
102
RTVSPost2010Prop46
 90
       50
102
RTVSPost2010PropOp46
 70
     1
102
RTVSPost2010Prop47
 90
       50
102
RTVSPost2010PropOp47
 70
     1
102
RTVSPost2010Prop48
 90
       50
102
RTVSPost2010PropOp48
 70
     1
102
RTVSPost2010Prop49
280
     0
102
RTVSPost2010PropOp49
 70
     1
102
RTVSPost2010Prop50
 90
       50
102
RTVSPost2010PropOp50
 70
     1
102
RTVSPost2010Prop51ColorIndex
 90
      256
102
RTVSPost2010Prop51ColorRGB
 90
-16777216
102
RTVSPost2010PropOp51
 70
     0
102
RTVSPost2010Prop52
140
1.0
102
RTVSPost2010PropOp52
 70
     0
102
RTVSPost2010Prop53
 90
        2
102
RTVSPost2010PropOp53
 70
     1
102
RTVSPost2010Prop54
  1
strokes_ogs.tif
102
RTVSPost2010PropOp54
 70
     1
102
RTVSPost2010Prop55
280
     0
102
RTVSPost2010PropOp55
 70
     1
102
RTVSPost2010Prop56
140
1.0
102
RTVSPost2010PropOp56
 70
     1
102
RTVSPost2010Prop57
140
1.0
102
RTVSPost2010PropOp57
 70
     1
  0
XRECORD
  5
836
102
{ACAD_REACTORS
330
835
102
}
330
835
100
AcDbXrecord
280
     1
102
RTVSPost2010Prop28
280
     0
102
RTVSPost2010PropOp28
 70
     1
102
RTVSPost2010Prop29
280
     1
102
RTVSPost2010PropOp29
 70
     1
102
RTVSPost2010Prop30
280
     1
102
RTVSPost2010PropOp30
 70
     1
102
RTVSPost2010Prop31
280
     0
102
RTVSPost2010PropOp31
 70
     1
102
RTVSPost2010Prop32
280
     0
102
RTVSPost2010PropOp32
 70
     1
102
RTVSPost2010Prop33
280
     0
102
RTVSPost2010PropOp33
 70
     1
102
RTVSPost2010Prop34
280
     0
102
RTVSPost2010PropOp34
 70
     1
102
RTVSPost2010Prop35
280
     0
102
RTVSPost2010PropOp35
 70
     1
102
RTVSPost2010Prop36
280
     0
102
RTVSPost2010PropOp36
 70
     1
102
RTVSPost2010Prop37
 90
       50
102
RTVSPost2010PropOp37
 70
     1
102
RTVSPost2010Prop38
140
0.0
102
RTVSPost2010PropOp38
 70
     1
102
RTVSPost2010Prop39
140
1.0
102
RTVSPost2010PropOp39
 70
     1
102
RTVSPost2010Prop40
 90
        0
102
RTVSPost2010PropOp40
 70
     1
102
RTVSPost2010Prop41ColorIndex
 90
       18
102
RTVSPost2010Prop41ColorRGB
 90
        0
102
RTVSPost2010PropOp41
 70
     1
102
RTVSPost2010Prop42
 90
       50
102
RTVSPost2010PropOp42
 70
     1
102
RTVSPost2010Prop43
 90
        3
102
RTVSPost2010PropOp43
 70
     1
102
RTVSPost2010Prop44ColorIndex
 90
        5
102
RTVSPost2010Prop44ColorRGB
 90
      255
102
RTVSPost2010PropOp44
 70
     1
102
RTVSPost2010Prop45
280
     0
102
RTVSPost2010PropOp45
 70
     1
102
RTVSPost2010Prop46
 90
       50
102
RTVSPost2010PropOp46
 70
     1
102
RTVSPost2010Prop47
 90
       50
102
RTVSPost2010PropOp47
 70
     1
102
RTVSPost2010Prop48
 90
       50
102
RTVSPost2010PropOp48
 70
     1
102
RTVSPost2010Prop49
280
     0
102
RTVSPost2010PropOp49
 70
     1
102
RTVSPost2010Prop50
 90
       50
102
RTVSPost2010PropOp50
 70
     1
102
RTVSPost2010Prop51ColorIndex
 90
      256
102
RTVSPost2010Prop51ColorRGB
 90
-16777216
102
RTVSPost2010PropOp51
 70
     0
102
RTVSPost2010Prop52
140
1.0
102
RTVSPost2010PropOp52
 70
     0
102
RTVSPost2010Prop53
 90
        2
102
RTVSPost2010PropOp53
 70
     1
102
RTVSPost2010Prop54
  1
strokes_ogs.tif
102
RTVSPost2010PropOp54
 70
     1
102
RTVSPost2010Prop55
280
     0
102
RTVSPost2010PropOp55
 70
     1
102
RTVSPost2010Prop56
140
1.0
102
RTVSPost2010PropOp56
 70
     1
102
RTVSPost2010Prop57
140
1.0
102
RTVSPost2010PropOp57
 70
     1
  0
XRECORD
  5
850
102
{ACAD_REACTORS
330
84F
102
}
330
84F
100
AcDbXrecord
280
     1
102
RTVSPost2010Prop28
280
     0
102
RTVSPost2010PropOp28
 70
     1
102
RTVSPost2010Prop29
280
     1
102
RTVSPost2010PropOp29
 70
     1
102
RTVSPost2010Prop30
280
     1
102
RTVSPost2010PropOp30
 70
     1
102
RTVSPost2010Prop31
280
     0
102
RTVSPost2010PropOp31
 70
     1
102
RTVSPost2010Prop32
280
     0
102
RTVSPost2010PropOp32
 70
     1
102
RTVSPost2010Prop33
280
     0
102
RTVSPost2010PropOp33
 70
     1
102
RTVSPost2010Prop34
280
     0
102
RTVSPost2010PropOp34
 70
     1
102
RTVSPost2010Prop35
280
     0
102
RTVSPost2010PropOp35
 70
     1
102
RTVSPost2010Prop36
280
     0
102
RTVSPost2010PropOp36
 70
     1
102
RTVSPost2010Prop37
 90
       50
102
RTVSPost2010PropOp37
 70
     0
102
RTVSPost2010Prop38
140
0.0
102
RTVSPost2010PropOp38
 70
     0
102
RTVSPost2010Prop39
140
1.0
102
RTVSPost2010PropOp39
 70
     0
102
RTVSPost2010Prop40
 90
        0
102
RTVSPost2010PropOp40
 70
     0
102
RTVSPost2010Prop41ColorIndex
 90
       18
102
RTVSPost2010Prop41ColorRGB
 90
        0
102
RTVSPost2010PropOp41
 70
     0
102
RTVSPost2010Prop42
 90
       50
102
RTVSPost2010PropOp42
 70
     0
102
RTVSPost2010Prop43
 90
        3
102
RTVSPost2010PropOp43
 70
     0
102
RTVSPost2010Prop44ColorIndex
 90
        5
102
RTVSPost2010Prop44ColorRGB
 90
      255
102
RTVSPost2010PropOp44
 70
     0
102
RTVSPost2010Prop45
280
     0
102
RTVSPost2010PropOp45
 70
     1
102
RTVSPost2010Prop46
 90
       50
102
RTVSPost2010PropOp46
 70
     0
102
RTVSPost2010Prop47
 90
       50
102
RTVSPost2010PropOp47
 70
     0
102
RTVSPost2010Prop48
 90
       50
102
RTVSPost2010PropOp48
 70
     0
102
RTVSPost2010Prop49
280
     0
102
RTVSPost2010PropOp49
 70
     1
102
RTVSPost2010Prop50
 90
       50
102
RTVSPost2010PropOp50
 70
     0
102
RTVSPost2010Prop51ColorIndex
 90
      256
102
RTVSPost2010Prop51ColorRGB
 90
-16777216
102
RTVSPost2010PropOp51
 70
     0
102
RTVSPost2010Prop52
140
1.0
102
RTVSPost2010PropOp52
 70
     0
102
RTVSPost2010Prop53
 90
        2
102
RTVSPost2010PropOp53
 70
     0
102
RTVSPost2010Prop54
  1
strokes_ogs.tif
102
RTVSPost2010PropOp54
 70
     0
102
RTVSPost2010Prop55
280
     0
102
RTVSPost2010PropOp55
 70
     1
102
RTVSPost2010Prop56
140
1.0
102
RTVSPost2010PropOp56
 70
     0
102
RTVSPost2010Prop57
140
1.0
102
RTVSPost2010PropOp57
 70
     0
  0
XRECORD
  5
840
102
{ACAD_REACTORS
330
83F
102
}
330
83F
100
AcDbXrecord
280
     1
102
RTVSPost2010Prop28
280
     0
102
RTVSPost2010PropOp28
 70
     1
102
RTVSPost2010Prop29
280
     1
102
RTVSPost2010PropOp29
 70
     1
102
RTVSPost2010Prop30
280
     1
102
RTVSPost2010PropOp30
 70
     1
102
RTVSPost2010Prop31
280
     0
102
RTVSPost2010PropOp31
 70
     1
102
RTVSPost2010Prop32
280
     0
102
RTVSPost2010PropOp32
 70
     1
102
RTVSPost2010Prop33
280
     0
102
RTVSPost2010PropOp33
 70
     1
102
RTVSPost2010Prop34
280
     0
102
RTVSPost2010PropOp34
 70
     1
102
RTVSPost2010Prop35
280
     0
102
RTVSPost2010PropOp35
 70
     1
102
RTVSPost2010Prop36
280
     0
102
RTVSPost2010PropOp36
 70
     1
102
RTVSPost2010Prop37
 90
       50
102
RTVSPost2010PropOp37
 70
     1
102
RTVSPost2010Prop38
140
0.0
102
RTVSPost2010PropOp38
 70
     1
102
RTVSPost2010Prop39
140
1.0
102
RTVSPost2010PropOp39
 70
     1
102
RTVSPost2010Prop40
 90
        0
102
RTVSPost2010PropOp40
 70
     1
102
RTVSPost2010Prop41ColorIndex
 90
       18
102
RTVSPost2010Prop41ColorRGB
 90
        0
102
RTVSPost2010PropOp41
 70
     1
102
RTVSPost2010Prop42
 90
       50
102
RTVSPost2010PropOp42
 70
     1
102
RTVSPost2010Prop43
 90
        3
102
RTVSPost2010PropOp43
 70
     1
102
RTVSPost2010Prop44ColorIndex
 90
        5
102
RTVSPost2010Prop44ColorRGB
 90
      255
102
RTVSPost2010PropOp44
 70
     1
102
RTVSPost2010Prop45
280
     0
102
RTVSPost2010PropOp45
 70
     1
102
RTVSPost2010Prop46
 90
       50
102
RTVSPost2010PropOp46
 70
     1
102
RTVSPost2010Prop47
 90
       50
102
RTVSPost2010PropOp47
 70
     1
102
RTVSPost2010Prop48
 90
       50
102
RTVSPost2010PropOp48
 70
     1
102
RTVSPost2010Prop49
280
     0
102
RTVSPost2010PropOp49
 70
     1
102
RTVSPost2010Prop50
 90
       50
102
RTVSPost2010PropOp50
 70
     1
102
RTVSPost2010Prop51ColorIndex
 90
      256
102
RTVSPost2010Prop51ColorRGB
 90
-16777216
102
RTVSPost2010PropOp51
 70
     0
102
RTVSPost2010Prop52
140
1.0
102
RTVSPost2010PropOp52
 70
     0
102
RTVSPost2010Prop53
 90
        2
102
RTVSPost2010PropOp53
 70
     1
102
RTVSPost2010Prop54
  1
strokes_ogs.tif
102
RTVSPost2010PropOp54
 70
     1
102
RTVSPost2010Prop55
280
     0
102
RTVSPost2010PropOp55
 70
     1
102
RTVSPost2010Prop56
140
1.0
102
RTVSPost2010PropOp56
 70
     1
102
RTVSPost2010Prop57
140
1.0
102
RTVSPost2010PropOp57
 70
     1
  0
XRECORD
  5
852
102
{ACAD_REACTORS
330
851
102
}
330
851
100
AcDbXrecord
280
     1
102
RTVSPost2010Prop28
280
     0
102
RTVSPost2010PropOp28
 70
     1
102
RTVSPost2010Prop29
280
     1
102
RTVSPost2010PropOp29
 70
     1
102
RTVSPost2010Prop30
280
     1
102
RTVSPost2010PropOp30
 70
     1
102
RTVSPost2010Prop31
280
     0
102
RTVSPost2010PropOp31
 70
     1
102
RTVSPost2010Prop32
280
     0
102
RTVSPost2010PropOp32
 70
     1
102
RTVSPost2010Prop33
280
     0
102
RTVSPost2010PropOp33
 70
     1
102
RTVSPost2010Prop34
280
     0
102
RTVSPost2010PropOp34
 70
     1
102
RTVSPost2010Prop35
280
     0
102
RTVSPost2010PropOp35
 70
     1
102
RTVSPost2010Prop36
280
     0
102
RTVSPost2010PropOp36
 70
     1
102
RTVSPost2010Prop37
 90
       50
102
RTVSPost2010PropOp37
 70
     0
102
RTVSPost2010Prop38
140
0.0
102
RTVSPost2010PropOp38
 70
     0
102
RTVSPost2010Prop39
140
1.0
102
RTVSPost2010PropOp39
 70
     0
102
RTVSPost2010Prop40
 90
        0
102
RTVSPost2010PropOp40
 70
     0
102
RTVSPost2010Prop41ColorIndex
 90
       18
102
RTVSPost2010Prop41ColorRGB
 90
        0
102
RTVSPost2010PropOp41
 70
     0
102
RTVSPost2010Prop42
 90
       50
102
RTVSPost2010PropOp42
 70
     0
102
RTVSPost2010Prop43
 90
        3
102
RTVSPost2010PropOp43
 70
     0
102
RTVSPost2010Prop44ColorIndex
 90
        5
102
RTVSPost2010Prop44ColorRGB
 90
      255
102
RTVSPost2010PropOp44
 70
     0
102
RTVSPost2010Prop45
280
     0
102
RTVSPost2010PropOp45
 70
     1
102
RTVSPost2010Prop46
 90
       50
102
RTVSPost2010PropOp46
 70
     0
102
RTVSPost2010Prop47
 90
       50
102
RTVSPost2010PropOp47
 70
     0
102
RTVSPost2010Prop48
 90
       50
102
RTVSPost2010PropOp48
 70
     0
102
RTVSPost2010Prop49
280
     0
102
RTVSPost2010PropOp49
 70
     1
102
RTVSPost2010Prop50
 90
       50
102
RTVSPost2010PropOp50
 70
     0
102
RTVSPost2010Prop51ColorIndex
 90
      256
102
RTVSPost2010Prop51ColorRGB
 90
-16777216
102
RTVSPost2010PropOp51
 70
     0
102
RTVSPost2010Prop52
140
1.0
102
RTVSPost2010PropOp52
 70
     0
102
RTVSPost2010Prop53
 90
        2
102
RTVSPost2010PropOp53
 70
     0
102
RTVSPost2010Prop54
  1
strokes_ogs.tif
102
RTVSPost2010PropOp54
 70
     0
102
RTVSPost2010Prop55
280
     0
102
RTVSPost2010PropOp55
 70
     1
102
RTVSPost2010Prop56
140
1.0
102
RTVSPost2010PropOp56
 70
     0
102
RTVSPost2010Prop57
140
1.0
102
RTVSPost2010PropOp57
 70
     0
  0
XRECORD
  5
820
102
{ACAD_REACTORS
330
81F
102
}
330
81F
100
AcDbXrecord
280
     1
102
RTVSPost2010Prop28
280
     0
102
RTVSPost2010PropOp28
 70
     1
102
RTVSPost2010Prop29
280
     1
102
RTVSPost2010PropOp29
 70
     1
102
RTVSPost2010Prop30
280
     1
102
RTVSPost2010PropOp30
 70
     1
102
RTVSPost2010Prop31
280
     0
102
RTVSPost2010PropOp31
 70
     1
102
RTVSPost2010Prop32
280
     0
102
RTVSPost2010PropOp32
 70
     1
102
RTVSPost2010Prop33
280
     0
102
RTVSPost2010PropOp33
 70
     1
102
RTVSPost2010Prop34
280
     0
102
RTVSPost2010PropOp34
 70
     1
102
RTVSPost2010Prop35
280
     0
102
RTVSPost2010PropOp35
 70
     1
102
RTVSPost2010Prop36
280
     0
102
RTVSPost2010PropOp36
 70
     1
102
RTVSPost2010Prop37
 90
       50
102
RTVSPost2010PropOp37
 70
     1
102
RTVSPost2010Prop38
140
0.0
102
RTVSPost2010PropOp38
 70
     1
102
RTVSPost2010Prop39
140
1.0
102
RTVSPost2010PropOp39
 70
     1
102
RTVSPost2010Prop40
 90
        0
102
RTVSPost2010PropOp40
 70
     1
102
RTVSPost2010Prop41ColorIndex
 90
       18
102
RTVSPost2010Prop41ColorRGB
 90
-16777216
102
RTVSPost2010PropOp41
 70
     1
102
RTVSPost2010Prop42
 90
       50
102
RTVSPost2010PropOp42
 70
     1
102
RTVSPost2010Prop43
 90
        3
102
RTVSPost2010PropOp43
 70
     1
102
RTVSPost2010Prop44ColorIndex
 90
        5
102
RTVSPost2010Prop44ColorRGB
 90
      255
102
RTVSPost2010PropOp44
 70
     1
102
RTVSPost2010Prop45
280
     0
102
RTVSPost2010PropOp45
 70
     1
102
RTVSPost2010Prop46
 90
       50
102
RTVSPost2010PropOp46
 70
     1
102
RTVSPost2010Prop47
 90
       50
102
RTVSPost2010PropOp47
 70
     1
102
RTVSPost2010Prop48
 90
       50
102
RTVSPost2010PropOp48
 70
     1
102
RTVSPost2010Prop49
280
     0
102
RTVSPost2010PropOp49
 70
     1
102
RTVSPost2010Prop50
 90
       50
102
RTVSPost2010PropOp50
 70
     1
102
RTVSPost2010Prop51ColorIndex
 90
      256
102
RTVSPost2010Prop51ColorRGB
 90
-16777216
102
RTVSPost2010PropOp51
 70
     0
102
RTVSPost2010Prop52
140
1.0
102
RTVSPost2010PropOp52
 70
     0
102
RTVSPost2010Prop53
 90
        2
102
RTVSPost2010PropOp53
 70
     1
102
RTVSPost2010Prop54
  1
strokes_ogs.tif
102
RTVSPost2010PropOp54
 70
     1
102
RTVSPost2010Prop55
280
     0
102
RTVSPost2010PropOp55
 70
     1
102
RTVSPost2010Prop56
140
1.0
102
RTVSPost2010PropOp56
 70
     1
102
RTVSPost2010Prop57
140
1.0
102
RTVSPost2010PropOp57
 70
     1
  0
XRECORD
  5
84E
102
{ACAD_REACTORS
330
84D
102
}
330
84D
100
AcDbXrecord
280
     1
102
RTVSPost2010Prop28
280
     0
102
RTVSPost2010PropOp28
 70
     1
102
RTVSPost2010Prop29
280
     1
102
RTVSPost2010PropOp29
 70
     1
102
RTVSPost2010Prop30
280
     1
102
RTVSPost2010PropOp30
 70
     1
102
RTVSPost2010Prop31
280
     0
102
RTVSPost2010PropOp31
 70
     1
102
RTVSPost2010Prop32
280
     0
102
RTVSPost2010PropOp32
 70
     1
102
RTVSPost2010Prop33
280
     0
102
RTVSPost2010PropOp33
 70
     1
102
RTVSPost2010Prop34
280
     0
102
RTVSPost2010PropOp34
 70
     1
102
RTVSPost2010Prop35
280
     0
102
RTVSPost2010PropOp35
 70
     1
102
RTVSPost2010Prop36
280
     0
102
RTVSPost2010PropOp36
 70
     1
102
RTVSPost2010Prop37
 90
       50
102
RTVSPost2010PropOp37
 70
     1
102
RTVSPost2010Prop38
140
0.0
102
RTVSPost2010PropOp38
 70
     1
102
RTVSPost2010Prop39
140
1.0
102
RTVSPost2010PropOp39
 70
     1
102
RTVSPost2010Prop40
 90
        0
102
RTVSPost2010PropOp40
 70
     1
102
RTVSPost2010Prop41ColorIndex
 90
       18
102
RTVSPost2010Prop41ColorRGB
 90
        0
102
RTVSPost2010PropOp41
 70
     1
102
RTVSPost2010Prop42
 90
       50
102
RTVSPost2010PropOp42
 70
     1
102
RTVSPost2010Prop43
 90
        3
102
RTVSPost2010PropOp43
 70
     1
102
RTVSPost2010Prop44ColorIndex
 90
        5
102
RTVSPost2010Prop44ColorRGB
 90
      255
102
RTVSPost2010PropOp44
 70
     1
102
RTVSPost2010Prop45
280
     0
102
RTVSPost2010PropOp45
 70
     1
102
RTVSPost2010Prop46
 90
       50
102
RTVSPost2010PropOp46
 70
     1
102
RTVSPost2010Prop47
 90
       50
102
RTVSPost2010PropOp47
 70
     1
102
RTVSPost2010Prop48
 90
       50
102
RTVSPost2010PropOp48
 70
     1
102
RTVSPost2010Prop49
280
     0
102
RTVSPost2010PropOp49
 70
     1
102
RTVSPost2010Prop50
 90
       50
102
RTVSPost2010PropOp50
 70
     1
102
RTVSPost2010Prop51ColorIndex
 90
      256
102
RTVSPost2010Prop51ColorRGB
 90
-16777216
102
RTVSPost2010PropOp51
 70
     0
102
RTVSPost2010Prop52
140
1.0
102
RTVSPost2010PropOp52
 70
     0
102
RTVSPost2010Prop53
 90
        2
102
RTVSPost2010PropOp53
 70
     1
102
RTVSPost2010Prop54
  1
strokes_ogs.tif
102
RTVSPost2010PropOp54
 70
     1
102
RTVSPost2010Prop55
280
     0
102
RTVSPost2010PropOp55
 70
     1
102
RTVSPost2010Prop56
140
1.0
102
RTVSPost2010PropOp56
 70
     1
102
RTVSPost2010Prop57
140
1.0
102
RTVSPost2010PropOp57
 70
     1
  0
XRECORD
  5
84C
102
{ACAD_REACTORS
330
84B
102
}
330
84B
100
AcDbXrecord
280
     1
102
RTVSPost2010Prop28
280
     0
102
RTVSPost2010PropOp28
 70
     1
102
RTVSPost2010Prop29
280
     1
102
RTVSPost2010PropOp29
 70
     1
102
RTVSPost2010Prop30
280
     1
102
RTVSPost2010PropOp30
 70
     1
102
RTVSPost2010Prop31
280
     0
102
RTVSPost2010PropOp31
 70
     1
102
RTVSPost2010Prop32
280
     0
102
RTVSPost2010PropOp32
 70
     1
102
RTVSPost2010Prop33
280
     0
102
RTVSPost2010PropOp33
 70
     1
102
RTVSPost2010Prop34
280
     0
102
RTVSPost2010PropOp34
 70
     1
102
RTVSPost2010Prop35
280
     0
102
RTVSPost2010PropOp35
 70
     1
102
RTVSPost2010Prop36
280
     0
102
RTVSPost2010PropOp36
 70
     1
102
RTVSPost2010Prop37
 90
       50
102
RTVSPost2010PropOp37
 70
     1
102
RTVSPost2010Prop38
140
0.0
102
RTVSPost2010PropOp38
 70
     1
102
RTVSPost2010Prop39
140
1.0
102
RTVSPost2010PropOp39
 70
     1
102
RTVSPost2010Prop40
 90
        0
102
RTVSPost2010PropOp40
 70
     1
102
RTVSPost2010Prop41ColorIndex
 90
       18
102
RTVSPost2010Prop41ColorRGB
 90
        0
102
RTVSPost2010PropOp41
 70
     1
102
RTVSPost2010Prop42
 90
       50
102
RTVSPost2010PropOp42
 70
     1
102
RTVSPost2010Prop43
 90
        3
102
RTVSPost2010PropOp43
 70
     1
102
RTVSPost2010Prop44ColorIndex
 90
        5
102
RTVSPost2010Prop44ColorRGB
 90
      255
102
RTVSPost2010PropOp44
 70
     1
102
RTVSPost2010Prop45
280
     0
102
RTVSPost2010PropOp45
 70
     1
102
RTVSPost2010Prop46
 90
       50
102
RTVSPost2010PropOp46
 70
     1
102
RTVSPost2010Prop47
 90
       50
102
RTVSPost2010PropOp47
 70
     1
102
RTVSPost2010Prop48
 90
       50
102
RTVSPost2010PropOp48
 70
     1
102
RTVSPost2010Prop49
280
     0
102
RTVSPost2010PropOp49
 70
     1
102
RTVSPost2010Prop50
 90
       50
102
RTVSPost2010PropOp50
 70
     1
102
RTVSPost2010Prop51ColorIndex
 90
      256
102
RTVSPost2010Prop51ColorRGB
 90
-16777216
102
RTVSPost2010PropOp51
 70
     0
102
RTVSPost2010Prop52
140
1.0
102
RTVSPost2010PropOp52
 70
     0
102
RTVSPost2010Prop53
 90
        2
102
RTVSPost2010PropOp53
 70
     1
102
RTVSPost2010Prop54
  1
strokes_ogs.tif
102
RTVSPost2010PropOp54
 70
     1
102
RTVSPost2010Prop55
280
     0
102
RTVSPost2010PropOp55
 70
     1
102
RTVSPost2010Prop56
140
1.0
102
RTVSPost2010PropOp56
 70
     1
102
RTVSPost2010Prop57
140
1.0
102
RTVSPost2010PropOp57
 70
     1
  0
XRECORD
  5
846
102
{ACAD_REACTORS
330
845
102
}
330
845
100
AcDbXrecord
280
     1
102
RTVSPost2010Prop28
280
     0
102
RTVSPost2010PropOp28
 70
     1
102
RTVSPost2010Prop29
280
     1
102
RTVSPost2010PropOp29
 70
     1
102
RTVSPost2010Prop30
280
     1
102
RTVSPost2010PropOp30
 70
     1
102
RTVSPost2010Prop31
280
     0
102
RTVSPost2010PropOp31
 70
     1
102
RTVSPost2010Prop32
280
     0
102
RTVSPost2010PropOp32
 70
     1
102
RTVSPost2010Prop33
280
     0
102
RTVSPost2010PropOp33
 70
     1
102
RTVSPost2010Prop34
280
     0
102
RTVSPost2010PropOp34
 70
     1
102
RTVSPost2010Prop35
280
     0
102
RTVSPost2010PropOp35
 70
     1
102
RTVSPost2010Prop36
280
     0
102
RTVSPost2010PropOp36
 70
     1
102
RTVSPost2010Prop37
 90
       50
102
RTVSPost2010PropOp37
 70
     1
102
RTVSPost2010Prop38
140
0.0
102
RTVSPost2010PropOp38
 70
     1
102
RTVSPost2010Prop39
140
1.0
102
RTVSPost2010PropOp39
 70
     1
102
RTVSPost2010Prop40
 90
        0
102
RTVSPost2010PropOp40
 70
     1
102
RTVSPost2010Prop41ColorIndex
 90
       18
102
RTVSPost2010Prop41ColorRGB
 90
        0
102
RTVSPost2010PropOp41
 70
     1
102
RTVSPost2010Prop42
 90
       50
102
RTVSPost2010PropOp42
 70
     1
102
RTVSPost2010Prop43
 90
        3
102
RTVSPost2010PropOp43
 70
     1
102
RTVSPost2010Prop44ColorIndex
 90
        5
102
RTVSPost2010Prop44ColorRGB
 90
      255
102
RTVSPost2010PropOp44
 70
     1
102
RTVSPost2010Prop45
280
     0
102
RTVSPost2010PropOp45
 70
     1
102
RTVSPost2010Prop46
 90
       50
102
RTVSPost2010PropOp46
 70
     1
102
RTVSPost2010Prop47
 90
       50
102
RTVSPost2010PropOp47
 70
     1
102
RTVSPost2010Prop48
 90
       50
102
RTVSPost2010PropOp48
 70
     1
102
RTVSPost2010Prop49
280
     0
102
RTVSPost2010PropOp49
 70
     1
102
RTVSPost2010Prop50
 90
       50
102
RTVSPost2010PropOp50
 70
     1
102
RTVSPost2010Prop51ColorIndex
 90
      256
102
RTVSPost2010Prop51ColorRGB
 90
-16777216
102
RTVSPost2010PropOp51
 70
     0
102
RTVSPost2010Prop52
140
1.0
102
RTVSPost2010PropOp52
 70
     0
102
RTVSPost2010Prop53
 90
        2
102
RTVSPost2010PropOp53
 70
     1
102
RTVSPost2010Prop54
  1
strokes_ogs.tif
102
RTVSPost2010PropOp54
 70
     1
102
RTVSPost2010Prop55
280
     0
102
RTVSPost2010PropOp55
 70
     1
102
RTVSPost2010Prop56
140
1.0
102
RTVSPost2010PropOp56
 70
     1
102
RTVSPost2010Prop57
140
1.0
102
RTVSPost2010PropOp57
 70
     1
  0
XRECORD
  5
848
102
{ACAD_REACTORS
330
847
102
}
330
847
100
AcDbXrecord
280
     1
102
RTVSPost2010Prop28
280
     0
102
RTVSPost2010PropOp28
 70
     1
102
RTVSPost2010Prop29
280
     1
102
RTVSPost2010PropOp29
 70
     1
102
RTVSPost2010Prop30
280
     1
102
RTVSPost2010PropOp30
 70
     1
102
RTVSPost2010Prop31
280
     0
102
RTVSPost2010PropOp31
 70
     1
102
RTVSPost2010Prop32
280
     0
102
RTVSPost2010PropOp32
 70
     1
102
RTVSPost2010Prop33
280
     0
102
RTVSPost2010PropOp33
 70
     1
102
RTVSPost2010Prop34
280
     0
102
RTVSPost2010PropOp34
 70
     1
102
RTVSPost2010Prop35
280
     0
102
RTVSPost2010PropOp35
 70
     1
102
RTVSPost2010Prop36
280
     0
102
RTVSPost2010PropOp36
 70
     1
102
RTVSPost2010Prop37
 90
       50
102
RTVSPost2010PropOp37
 70
     1
102
RTVSPost2010Prop38
140
0.0
102
RTVSPost2010PropOp38
 70
     1
102
RTVSPost2010Prop39
140
1.0
102
RTVSPost2010PropOp39
 70
     1
102
RTVSPost2010Prop40
 90
        0
102
RTVSPost2010PropOp40
 70
     1
102
RTVSPost2010Prop41ColorIndex
 90
       18
102
RTVSPost2010Prop41ColorRGB
 90
        0
102
RTVSPost2010PropOp41
 70
     1
102
RTVSPost2010Prop42
 90
       50
102
RTVSPost2010PropOp42
 70
     1
102
RTVSPost2010Prop43
 90
        3
102
RTVSPost2010PropOp43
 70
     1
102
RTVSPost2010Prop44ColorIndex
 90
        5
102
RTVSPost2010Prop44ColorRGB
 90
      255
102
RTVSPost2010PropOp44
 70
     1
102
RTVSPost2010Prop45
280
     0
102
RTVSPost2010PropOp45
 70
     1
102
RTVSPost2010Prop46
 90
       50
102
RTVSPost2010PropOp46
 70
     1
102
RTVSPost2010Prop47
 90
       50
102
RTVSPost2010PropOp47
 70
     1
102
RTVSPost2010Prop48
 90
       50
102
RTVSPost2010PropOp48
 70
     1
102
RTVSPost2010Prop49
280
     0
102
RTVSPost2010PropOp49
 70
     1
102
RTVSPost2010Prop50
 90
       50
102
RTVSPost2010PropOp50
 70
     1
102
RTVSPost2010Prop51ColorIndex
 90
      256
102
RTVSPost2010Prop51ColorRGB
 90
-16777216
102
RTVSPost2010PropOp51
 70
     0
102
RTVSPost2010Prop52
140
1.0
102
RTVSPost2010PropOp52
 70
     0
102
RTVSPost2010Prop53
 90
        2
102
RTVSPost2010PropOp53
 70
     1
102
RTVSPost2010Prop54
  1
strokes_ogs.tif
102
RTVSPost2010PropOp54
 70
     1
102
RTVSPost2010Prop55
280
     0
102
RTVSPost2010PropOp55
 70
     1
102
RTVSPost2010Prop56
140
1.0
102
RTVSPost2010PropOp56
 70
     1
102
RTVSPost2010Prop57
140
1.0
102
RTVSPost2010PropOp57
 70
     1
  0
XRECORD
  5
83E
102
{ACAD_REACTORS
330
83D
102
}
330
83D
100
AcDbXrecord
280
     1
102
RTVSPost2010Prop28
280
     0
102
RTVSPost2010PropOp28
 70
     1
102
RTVSPost2010Prop29
280
     1
102
RTVSPost2010PropOp29
 70
     1
102
RTVSPost2010Prop30
280
     1
102
RTVSPost2010PropOp30
 70
     1
102
RTVSPost2010Prop31
280
     0
102
RTVSPost2010PropOp31
 70
     1
102
RTVSPost2010Prop32
280
     0
102
RTVSPost2010PropOp32
 70
     1
102
RTVSPost2010Prop33
280
     0
102
RTVSPost2010PropOp33
 70
     1
102
RTVSPost2010Prop34
280
     0
102
RTVSPost2010PropOp34
 70
     1
102
RTVSPost2010Prop35
280
     0
102
RTVSPost2010PropOp35
 70
     1
102
RTVSPost2010Prop36
280
     0
102
RTVSPost2010PropOp36
 70
     1
102
RTVSPost2010Prop37
 90
       50
102
RTVSPost2010PropOp37
 70
     1
102
RTVSPost2010Prop38
140
0.0
102
RTVSPost2010PropOp38
 70
     1
102
RTVSPost2010Prop39
140
1.0
102
RTVSPost2010PropOp39
 70
     1
102
RTVSPost2010Prop40
 90
        0
102
RTVSPost2010PropOp40
 70
     1
102
RTVSPost2010Prop41ColorIndex
 90
       18
102
RTVSPost2010Prop41ColorRGB
 90
        0
102
RTVSPost2010PropOp41
 70
     1
102
RTVSPost2010Prop42
 90
       50
102
RTVSPost2010PropOp42
 70
     1
102
RTVSPost2010Prop43
 90
        3
102
RTVSPost2010PropOp43
 70
     1
102
RTVSPost2010Prop44ColorIndex
 90
        5
102
RTVSPost2010Prop44ColorRGB
 90
      255
102
RTVSPost2010PropOp44
 70
     1
102
RTVSPost2010Prop45
280
     0
102
RTVSPost2010PropOp45
 70
     1
102
RTVSPost2010Prop46
 90
       50
102
RTVSPost2010PropOp46
 70
     1
102
RTVSPost2010Prop47
 90
       50
102
RTVSPost2010PropOp47
 70
     1
102
RTVSPost2010Prop48
 90
       50
102
RTVSPost2010PropOp48
 70
     1
102
RTVSPost2010Prop49
280
     0
102
RTVSPost2010PropOp49
 70
     1
102
RTVSPost2010Prop50
 90
       50
102
RTVSPost2010PropOp50
 70
     1
102
RTVSPost2010Prop51ColorIndex
 90
      256
102
RTVSPost2010Prop51ColorRGB
 90
-16777216
102
RTVSPost2010PropOp51
 70
     0
102
RTVSPost2010Prop52
140
1.0
102
RTVSPost2010PropOp52
 70
     0
102
RTVSPost2010Prop53
 90
        2
102
RTVSPost2010PropOp53
 70
     1
102
RTVSPost2010Prop54
  1
strokes_ogs.tif
102
RTVSPost2010PropOp54
 70
     1
102
RTVSPost2010Prop55
280
     0
102
RTVSPost2010PropOp55
 70
     1
102
RTVSPost2010Prop56
140
1.0
102
RTVSPost2010PropOp56
 70
     1
102
RTVSPost2010Prop57
140
1.0
102
RTVSPost2010PropOp57
 70
     1
  0
XRECORD
  5
822
102
{ACAD_REACTORS
330
821
102
}
330
821
100
AcDbXrecord
280
     1
102
RTVSPost2010Prop28
280
     0
102
RTVSPost2010PropOp28
 70
     1
102
RTVSPost2010Prop29
280
     1
102
RTVSPost2010PropOp29
 70
     1
102
RTVSPost2010Prop30
280
     1
102
RTVSPost2010PropOp30
 70
     1
102
RTVSPost2010Prop31
280
     0
102
RTVSPost2010PropOp31
 70
     1
102
RTVSPost2010Prop32
280
     0
102
RTVSPost2010PropOp32
 70
     1
102
RTVSPost2010Prop33
280
     0
102
RTVSPost2010PropOp33
 70
     1
102
RTVSPost2010Prop34
280
     0
102
RTVSPost2010PropOp34
 70
     1
102
RTVSPost2010Prop35
280
     0
102
RTVSPost2010PropOp35
 70
     1
102
RTVSPost2010Prop36
280
     0
102
RTVSPost2010PropOp36
 70
     1
102
RTVSPost2010Prop37
 90
       50
102
RTVSPost2010PropOp37
 70
     1
102
RTVSPost2010Prop38
140
0.0
102
RTVSPost2010PropOp38
 70
     1
102
RTVSPost2010Prop39
140
1.0
102
RTVSPost2010PropOp39
 70
     1
102
RTVSPost2010Prop40
 90
        0
102
RTVSPost2010PropOp40
 70
     1
102
RTVSPost2010Prop41ColorIndex
 90
       18
102
RTVSPost2010Prop41ColorRGB
 90
-16777216
102
RTVSPost2010PropOp41
 70
     1
102
RTVSPost2010Prop42
 90
       50
102
RTVSPost2010PropOp42
 70
     1
102
RTVSPost2010Prop43
 90
        3
102
RTVSPost2010PropOp43
 70
     1
102
RTVSPost2010Prop44ColorIndex
 90
        5
102
RTVSPost2010Prop44ColorRGB
 90
      255
102
RTVSPost2010PropOp44
 70
     1
102
RTVSPost2010Prop45
280
     0
102
RTVSPost2010PropOp45
 70
     1
102
RTVSPost2010Prop46
 90
       50
102
RTVSPost2010PropOp46
 70
     1
102
RTVSPost2010Prop47
 90
       50
102
RTVSPost2010PropOp47
 70
     1
102
RTVSPost2010Prop48
 90
       50
102
RTVSPost2010PropOp48
 70
     1
102
RTVSPost2010Prop49
280
     0
102
RTVSPost2010PropOp49
 70
     1
102
RTVSPost2010Prop50
 90
       50
102
RTVSPost2010PropOp50
 70
     1
102
RTVSPost2010Prop51ColorIndex
 90
      256
102
RTVSPost2010Prop51ColorRGB
 90
-16777216
102
RTVSPost2010PropOp51
 70
     0
102
RTVSPost2010Prop52
140
1.0
102
RTVSPost2010PropOp52
 70
     0
102
RTVSPost2010Prop53
 90
        2
102
RTVSPost2010PropOp53
 70
     1
102
RTVSPost2010Prop54
  1
strokes_ogs.tif
102
RTVSPost2010PropOp54
 70
     1
102
RTVSPost2010Prop55
280
     0
102
RTVSPost2010PropOp55
 70
     1
102
RTVSPost2010Prop56
140
1.0
102
RTVSPost2010PropOp56
 70
     1
102
RTVSPost2010Prop57
140
1.0
102
RTVSPost2010PropOp57
 70
     1
  0
XRECORD
  5
84A
102
{ACAD_REACTORS
330
849
102
}
330
849
100
AcDbXrecord
280
     1
102
RTVSPost2010Prop28
280
     0
102
RTVSPost2010PropOp28
 70
     1
102
RTVSPost2010Prop29
280
     1
102
RTVSPost2010PropOp29
 70
     1
102
RTVSPost2010Prop30
280
     1
102
RTVSPost2010PropOp30
 70
     1
102
RTVSPost2010Prop31
280
     0
102
RTVSPost2010PropOp31
 70
     1
102
RTVSPost2010Prop32
280
     0
102
RTVSPost2010PropOp32
 70
     1
102
RTVSPost2010Prop33
280
     0
102
RTVSPost2010PropOp33
 70
     1
102
RTVSPost2010Prop34
280
     0
102
RTVSPost2010PropOp34
 70
     1
102
RTVSPost2010Prop35
280
     0
102
RTVSPost2010PropOp35
 70
     1
102
RTVSPost2010Prop36
280
     0
102
RTVSPost2010PropOp36
 70
     1
102
RTVSPost2010Prop37
 90
       50
102
RTVSPost2010PropOp37
 70
     1
102
RTVSPost2010Prop38
140
0.0
102
RTVSPost2010PropOp38
 70
     1
102
RTVSPost2010Prop39
140
1.0
102
RTVSPost2010PropOp39
 70
     1
102
RTVSPost2010Prop40
 90
        0
102
RTVSPost2010PropOp40
 70
     1
102
RTVSPost2010Prop41ColorIndex
 90
       18
102
RTVSPost2010Prop41ColorRGB
 90
        0
102
RTVSPost2010PropOp41
 70
     1
102
RTVSPost2010Prop42
 90
       50
102
RTVSPost2010PropOp42
 70
     1
102
RTVSPost2010Prop43
 90
        3
102
RTVSPost2010PropOp43
 70
     1
102
RTVSPost2010Prop44ColorIndex
 90
        5
102
RTVSPost2010Prop44ColorRGB
 90
      255
102
RTVSPost2010PropOp44
 70
     1
102
RTVSPost2010Prop45
280
     0
102
RTVSPost2010PropOp45
 70
     1
102
RTVSPost2010Prop46
 90
       50
102
RTVSPost2010PropOp46
 70
     1
102
RTVSPost2010Prop47
 90
       50
102
RTVSPost2010PropOp47
 70
     1
102
RTVSPost2010Prop48
 90
       50
102
RTVSPost2010PropOp48
 70
     1
102
RTVSPost2010Prop49
280
     0
102
RTVSPost2010PropOp49
 70
     1
102
RTVSPost2010Prop50
 90
       50
102
RTVSPost2010PropOp50
 70
     1
102
RTVSPost2010Prop51ColorIndex
 90
      256
102
RTVSPost2010Prop51ColorRGB
 90
-16777216
102
RTVSPost2010PropOp51
 70
     0
102
RTVSPost2010Prop52
140
1.0
102
RTVSPost2010PropOp52
 70
     0
102
RTVSPost2010Prop53
 90
        2
102
RTVSPost2010PropOp53
 70
     1
102
RTVSPost2010Prop54
  1
strokes_ogs.tif
102
RTVSPost2010PropOp54
 70
     1
102
RTVSPost2010Prop55
280
     0
102
RTVSPost2010PropOp55
 70
     1
102
RTVSPost2010Prop56
140
1.0
102
RTVSPost2010PropOp56
 70
     1
102
RTVSPost2010Prop57
140
1.0
102
RTVSPost2010PropOp57
 70
     1
  0
ENDSEC
  0
EOF
