  0
SECTION
  2
HEADER
  9
$ACADVER
  1
AC1015
  9
$ACADMAINTVER
 70
    20
  9
$DWGCODEPAGE
  3
ANSI_1252
  9
$INSBASE
 10
0.0
 20
0.0
 30
0.0
  9
$EXTMIN
 10
-12.84005865567058
 20
-0.3167335912525682
 30
0.0
  9
$EXTMAX
 10
520.6120284773799
 20
277.0082187688438
 30
0.0
  9
$LIMMIN
 10
-9.5
 20
-4.0
  9
$LIMMAX
 10
195.0
 20
285.0
  9
$ORTHOMODE
 70
     1
  9
$REGENMODE
 70
     1
  9
$FILLMODE
 70
     1
  9
$QTEXTMODE
 70
     0
  9
$MIRRTEXT
 70
     1
  9
$LTSCALE
 40
8.0
  9
$ATTMODE
 70
     1
  9
$TEXTSIZE
 40
8.5
  9
$TRACEWID
 40
0.05
  9
$TEXTSTYLE
  7
ROMANS
  9
$CLAYER
  8
UMRISS05
  9
$CELTYPE
  6
CONTINUOUS
  9
$CECOLOR
 62
   256
  9
$CELTSCALE
 40
1.0
  9
$DISPSILH
 70
     0
  9
$DIMSCALE
 40
1.5
  9
$DIMASZ
 40
3.5
  9
$DIMEXO
 40
0.5
  9
$DIMDLI
 40
8.0
  9
$DIMRND
 40
0.0
  9
$DIMDLE
 40
0.0
  9
$DIMEXE
 40
1.0
  9
$DIMTP
 40
0.3
  9
$DIMTM
 40
0.0
  9
$DIMTXT
 40
3.5
  9
$DIMCEN
 40
1.5
  9
$DIMTSZ
 40
0.0
  9
$DIMTOL
 70
     1
  9
$DIMLIM
 70
     0
  9
$DIMTIH
 70
     0
  9
$DIMTOH
 70
     0
  9
$DIMSE1
 70
     0
  9
$DIMSE2
 70
     0
  9
$DIMTAD
 70
     1
  9
$DIMZIN
 70
     8
  9
$DIMBLK
  1

  9
$DIMASO
 70
     1
  9
$DIMSHO
 70
     1
  9
$DIMPOST
  1

  9
$DIMAPOST
  1

  9
$DIMALT
 70
     0
  9
$DIMALTD
 70
     2
  9
$DIMALTF
 40
25.39999999999999
  9
$DIMLFAC
 40
1.0
  9
$DIMTOFL
 70
     1
  9
$DIMTVP
 40
0.0
  9
$DIMTIX
 70
     1
  9
$DIMSOXD
 70
     0
  9
$DIMSAH
 70
     0
  9
$DIMBLK1
  1

  9
$DIMBLK2
  1

  9
$DIMSTYLE
  2
PROSPEKT
  9
$DIMCLRD
 70
     2
  9
$DIMCLRE
 70
     2
  9
$DIMCLRT
 70
     3
  9
$DIMTFAC
 40
0.5
  9
$DIMGAP
 40
1.0
  9
$DIMJUST
 70
     0
  9
$DIMSD1
 70
     0
  9
$DIMSD2
 70
     0
  9
$DIMTOLJ
 70
     1
  9
$DIMTZIN
 70
     8
  9
$DIMALTZ
 70
     8
  9
$DIMALTTZ
 70
     8
  9
$DIMUPT
 70
     0
  9
$DIMDEC
 70
     2
  9
$DIMTDEC
 70
     2
  9
$DIMALTU
 70
     2
  9
$DIMALTTD
 70
     2
  9
$DIMTXSTY
  7
NORM
  9
$DIMAUNIT
 70
     1
  9
$DIMADEC
 70
     0
  9
$DIMALTRND
 40
0.0
  9
$DIMAZIN
 70
     0
  9
$DIMDSEP
 70
    46
  9
$DIMATFIT
 70
     3
  9
$DIMFRAC
 70
     0
  9
$DIMLDRBLK
  1

  9
$DIMLUNIT
 70
     2
  9
$DIMLWD
 70
    -2
  9
$DIMLWE
 70
    -2
  9
$DIMTMOVE
 70
     2
  9
$LUNITS
 70
     2
  9
$LUPREC
 70
     2
  9
$SKETCHINC
 40
0.1
  9
$FILLETRAD
 40
0.5
  9
$AUNITS
 70
     0
  9
$AUPREC
 70
     0
  9
$MENU
  1
ACAD
  9
$ELEVATION
 40
0.0
  9
$PELEVATION
 40
0.0
  9
$THICKNESS
 40
0.0
  9
$LIMCHECK
 70
     0
  9
$CHAMFERA
 40
0.0
  9
$CHAMFERB
 40
0.0
  9
$CHAMFERC
 40
0.0
  9
$CHAMFERD
 40
0.0
  9
$SKPOLY
 70
     0
  9
$TDCREATE
 40
2449994.578927315
  9
$TDUCREATE
 40
2449994.495593982
  9
$TDUPDATE
 40
2454649.428105834
  9
$TDUUPDATE
 40
2454649.344772500
  9
$TDINDWG
 40
0.6128762384
  9
$TDUSRTIMER
 40
0.6128762384
  9
$USRTIMER
 70
     1
  9
$ANGBASE
 50
0.0
  9
$ANGDIR
 70
     0
  9
$PDMODE
 70
     0
  9
$PDSIZE
 40
0.0
  9
$PLINEWID
 40
0.0
  9
$SPLFRAME
 70
     0
  9
$SPLINETYPE
 70
     6
  9
$SPLINESEGS
 70
     8
  9
$HANDSEED
  5
1D8
  9
$SURFTAB1
 70
     6
  9
$SURFTAB2
 70
     6
  9
$SURFTYPE
 70
     6
  9
$SURFU
 70
     6
  9
$SURFV
 70
     6
  9
$UCSBASE
  2

  9
$UCSNAME
  2

  9
$UCSORG
 10
0.0
 20
0.0
 30
0.0
  9
$UCSXDIR
 10
1.0
 20
0.0
 30
0.0
  9
$UCSYDIR
 10
0.0
 20
1.0
 30
0.0
  9
$UCSORTHOREF
  2

  9
$UCSORTHOVIEW
 70
     0
  9
$UCSORGTOP
 10
0.0
 20
0.0
 30
0.0
  9
$UCSORGBOTTOM
 10
0.0
 20
0.0
 30
0.0
  9
$UCSORGLEFT
 10
0.0
 20
0.0
 30
0.0
  9
$UCSORGRIGHT
 10
0.0
 20
0.0
 30
0.0
  9
$UCSORGFRONT
 10
0.0
 20
0.0
 30
0.0
  9
$UCSORGBACK
 10
0.0
 20
0.0
 30
0.0
  9
$PUCSBASE
  2

  9
$PUCSNAME
  2

  9
$PUCSORG
 10
0.0
 20
0.0
 30
0.0
  9
$PUCSXDIR
 10
1.0
 20
0.0
 30
0.0
  9
$PUCSYDIR
 10
0.0
 20
1.0
 30
0.0
  9
$PUCSORTHOREF
  2

  9
$PUCSORTHOVIEW
 70
     0
  9
$PUCSORGTOP
 10
0.0
 20
0.0
 30
0.0
  9
$PUCSORGBOTTOM
 10
0.0
 20
0.0
 30
0.0
  9
$PUCSORGLEFT
 10
0.0
 20
0.0
 30
0.0
  9
$PUCSORGRIGHT
 10
0.0
 20
0.0
 30
0.0
  9
$PUCSORGFRONT
 10
0.0
 20
0.0
 30
0.0
  9
$PUCSORGBACK
 10
0.0
 20
0.0
 30
0.0
  9
$USERI1
 70
     0
  9
$USERI2
 70
     0
  9
$USERI3
 70
     0
  9
$USERI4
 70
     0
  9
$USERI5
 70
     0
  9
$USERR1
 40
0.0
  9
$USERR2
 40
0.0
  9
$USERR3
 40
0.0
  9
$USERR4
 40
0.0
  9
$USERR5
 40
0.0
  9
$WORLDVIEW
 70
     1
  9
$SHADEDGE
 70
     3
  9
$SHADEDIF
 70
    70
  9
$TILEMODE
 70
     1
  9
$MAXACTVP
 70
    16
  9
$PINSBASE
 10
0.0
 20
0.0
 30
0.0
  9
$PLIMCHECK
 70
     0
  9
$PEXTMIN
 10
1.000000000000000E+20
 20
1.000000000000000E+20
 30
1.000000000000000E+20
  9
$PEXTMAX
 10
-1.000000000000000E+20
 20
-1.000000000000000E+20
 30
-1.000000000000000E+20
  9
$PLIMMIN
 10
0.0
 20
0.0
  9
$PLIMMAX
 10
12.0
 20
9.0
  9
$UNITMODE
 70
     0
  9
$VISRETAIN
 70
     0
  9
$PLINEGEN
 70
     0
  9
$PSLTSCALE
 70
     1
  9
$TREEDEPTH
 70
  3020
  9
$CMLSTYLE
  2
STANDARD
  9
$CMLJUST
 70
     0
  9
$CMLSCALE
 40
1.0
  9
$PROXYGRAPHICS
 70
     1
  9
$MEASUREMENT
 70
     1
  9
$CELWEIGHT
370
    -1
  9
$ENDCAPS
280
     0
  9
$JOINSTYLE
280
     0
  9
$LWDISPLAY
290
     0
  9
$INSUNITS
 70
     4
  9
$HYPERLINKBASE
  1

  9
$STYLESHEET
  1

  9
$XEDIT
290
     1
  9
$CEPSNTYPE
380
     0
  9
$PSTYLEMODE
290
     1
  9
$FINGERPRINTGUID
  2
{3CD34783-8468-44CC-92FB-54526DB1EDEA}
  9
$VERSIONGUID
  2
{EC98CB4C-8DCD-4C3B-AD1D-CA42AD226C82}
  9
$EXTNAMES
290
     1
  9
$PSVPSCALE
 40
0.0
  9
$OLESTARTUP
290
     0
  0
ENDSEC
  0
SECTION
  2
CLASSES
  0
CLASS
  1
DICTIONARYVAR
  2
AcDbDictionaryVar
  3
ObjectDBX Classes
 90
        0
280
     0
281
     0
  0
CLASS
  1
ACDBDICTIONARYWDFLT
  2
AcDbDictionaryWithDefault
  3
ObjectDBX Classes
 90
        0
280
     0
281
     0
  0
CLASS
  1
ACDBPLACEHOLDER
  2
AcDbPlaceHolder
  3
ObjectDBX Classes
 90
        0
280
     0
281
     0
  0
CLASS
  1
LAYOUT
  2
AcDbLayout
  3
ObjectDBX Classes
 90
        0
280
     0
281
     0
  0
CLASS
  1
ACME_DOCUMENT
  2
AcMeDbDoc
  3
AcMeServices
 90
    33792
280
     0
281
     0
  0
CLASS
  1
AMGSETTINGSOBJ
  2
AmgSettingsObj
  3
"AcadM|Product Description: AutoCAD Mechanical|Company: Autodesk, Inc."
 90
     1024
280
     0
281
     0
  0
CLASS
  1
ACMESCOPE
  2
AcMeScope
  3
AcMeServices
 90
     1024
280
     0
281
     0
  0
CLASS
  1
ACMECOMMANDHISTORY
  2
AcMeCommandHistory
  3
AcMeServices
 90
    33792
280
     0
281
     0
  0
CLASS
  1
ACIMSYSVARMAN
  2
AcImSysVarManager
  3
AcMeServices
 90
     1024
280
     0
281
     0
  0
CLASS
  1
ACIMREALSYSVAR
  2
AcImRealSysVar
  3
AcMeServices
 90
     1024
280
     0
281
     0
  0
CLASS
  1
ACIMINTSYSVAR
  2
AcImIntSysVar
  3
AcMeServices
 90
     1024
280
     0
281
     0
  0
CLASS
  1
ACMEDRAWINGMAN
  2
AcMeDrawingMan
  3
AcMeServices
 90
    33792
280
     0
281
     0
  0
CLASS
  1
ACMEVIEW
  2
AcMeView
  3
AcMeServices
 90
    33792
280
     0
281
     0
  0
CLASS
  1
ACDBENTITYCACHE
  2
AcMeEntityCache
  3
AcMeServices
 90
    33792
280
     0
281
     0
  0
CLASS
  1
GSMANAGER
  2
AcMeGSManager
  3
AcMeServices
 90
    32768
280
     1
281
     0
  0
CLASS
  1
AMDTINTERNALREACTOR
  2
AmdtInternalReactor
  3
AcMeServices
 90
     1024
280
     0
281
     0
  0
CLASS
  1
ACMESTATEMGR
  2
AcMeStateMgr
  3
AcMeServices
 90
     1024
280
     0
281
     0
  0
CLASS
  1
ACGREFMASTER
  2
AcGrefMaster
  3
AcAttribServices
 90
     1024
280
     0
281
     0
  0
CLASS
  1
ACME_DATABASE
  2
AcMeDbDatabase
  3
AcMeServices
 90
    33792
280
     0
281
     0
  0
CLASS
  1
ACRFINSADJUSTERMGR
  2
AcRfInsAdjusterMgr
  3
AcMeServices
 90
    33792
280
     0
281
     0
  0
CLASS
  1
ACGREFACADMASTER
  2
AcGrefacadMaster
  3
AcGrefServices
 90
    33792
280
     0
281
     0
  0
CLASS
  1
AMIMASTER
  2
AmiMaster
  3
AmiServices
 90
    33792
280
     0
281
     0
  0
CLASS
  1
ACMDATADICTIONARY
  2
AcmDataDictionary
  3
"AcmSymBB|Product Description: AutoCAD Mechanical|Company: Autodesk, Inc."
 90
    33792
280
     0
281
     0
  0
CLASS
  1
ACMDATAENTRYBLOCK
  2
AcmDataEntryBlock
  3
AcmSymBB|Product Description: AutoCAD Mechanical|Company: Autodesk, Inc.
 90
    33792
280
     0
281
     0
  0
CLASS
  1
ACIMSTRSYSVAR
  2
AcImStrSysVar
  3
AcMeServices
 90
     1024
280
     0
281
     0
  0
CLASS
  1
ACMSTANDARDDIN
  2
AcmStandardDIN
  3
"Amdt_StdImp|Product Description: AutoCAD Mechanical|Company: Autodesk, Inc."
 90
     1024
280
     0
281
     0
  0
CLASS
  1
AMGOBJPROPCFG
  2
AmgObjPropCfg
  3
"AmgLay|Product Description: AutoCAD Mechanical|Company: Autodesk, Inc."
 90
     1024
280
     0
281
     0
  0
CLASS
  1
AMDTEDGESTANDARDDIN
  2
AmdtEdgeStdDIN
  3
"Amdt_StdImp|Product Description: AutoCAD Mechanical|Company: Autodesk, Inc."
 90
    33792
280
     0
281
     0
  0
CLASS
  1
ACMSURFSTANDARDDIN
  2
AcmSurfTextStdDIN
  3
"Amdt_StdImp|Product Description: AutoCAD Mechanical|Company: Autodesk, Inc."
 90
     1024
280
     0
281
     0
  0
CLASS
  1
ACMFCFSTANDARDDIN
  2
AcmFCFStdDIN
  3
"Amdt_StdImp|Product Description: AutoCAD Mechanical|Company: Autodesk, Inc."
 90
     1024
280
     0
281
     0
  0
CLASS
  1
ACMWELDSTANDARDDIN
  2
AcmWeldingStdDIN
  3
"Amdt_StdImp|Product Description: AutoCAD Mechanical|Company: Autodesk, Inc."
 90
     1024
280
     0
281
     0
  0
CLASS
  1
ACMIDSTANDARDDIN
  2
AcmIdStdDIN
  3
"Amdt_StdImp|Product Description: AutoCAD Mechanical|Company: Autodesk, Inc."
 90
     1024
280
     0
281
     0
  0
CLASS
  1
ACMDATUMSTANDARDDIN
  2
AcmDatumStdDIN
  3
"Amdt_StdImp|Product Description: AutoCAD Mechanical|Company: Autodesk, Inc."
 90
     1024
280
     0
281
     0
  0
CLASS
  1
ACMBOMSTANDARDDIN
  2
AcmBOMStdDIN
  3
"Amdt_StdImp|Product Description: AutoCAD Mechanical|Company: Autodesk, Inc."
 90
     1024
280
     0
281
     0
  0
CLASS
  1
ACMDETAILSTANDARDDIN
  2
AmdtDetailSymStdDIN
  3
"Amdt_StdImp|Product Description: AutoCAD Mechanical|Company: Autodesk, Inc."
 90
     1024
280
     0
281
     0
  0
CLASS
  1
ACMSECTIONSTANDARDDIN
  2
AmdtSectionSymStdDIN
  3
"Amdt_StdImp|Product Description: AutoCAD Mechanical|Company: Autodesk, Inc."
 90
     1024
280
     0
281
     0
  0
CLASS
  1
ACMCENTERLINESTANDARDDIN
  2
AmdtCenterLineStdDIN
  3
"Amdt_StdImp|Product Description: AutoCAD Mechanical|Company: Autodesk, Inc."
 90
     1024
280
     0
281
     0
  0
CLASS
  1
ACMNOTESTANDARDDIN
  2
AmdtNoteStdDIN
  3
"Amdt_StdImp|Product Description: AutoCAD Mechanical|Company: Autodesk, Inc."
 90
     1024
280
     0
281
     0
  0
CLASS
  1
ACAMGLAYSTD
  2
AcAmgLayStd
  3
"AmgLay|Product Description: AutoCAD Mechanical|Company: Autodesk, Inc."
 90
     1024
280
     0
281
     0
  0
CLASS
  1
ACAMGDIMSTD
  2
AcAmgDimStd
  3
"AmgDim|Product Description: AutoCAD Mechanical|Company: Autodesk, Inc."
 90
     1024
280
     0
281
     0
  0
CLASS
  1
ACAMGHOLECHARTSTDDIN
  2
AcAmgHoleChartStdDIN
  3
AmgDim|Product Description: AutoCAD Mechanical|Company: Autodesk, Inc.
 90
     1024
280
     0
281
     0
  0
CLASS
  1
ACAMGTITLESTD
  2
AcAmgTitleStd
  3
"AmgTitle|Product Description: AutoCAD Mechanical|Company: Autodesk, Inc."
 90
     1024
280
     0
281
     0
  0
CLASS
  1
LAYER_INDEX
  2
AcDbLayerIndex
  3
ObjectDBX Classes
 90
    32768
280
     0
281
     0
  0
CLASS
  1
IDBUFFER
  2
AcDbIdBuffer
  3
ObjectDBX Classes
 90
    32768
280
     0
281
     0
  0
CLASS
  1
PLOTSETTINGS
  2
AcDbPlotSettings
  3
ObjectDBX Classes
 90
    32768
280
     0
281
     0
  0
CLASS
  1
ACAMGFILTERDAT
  2
AcAmgFilterDat
  3
"AcadM|Product Description: AutoCAD Mechanical|Company: Autodesk, Inc."
 90
    33792
280
     0
281
     0
  0
CLASS
  1
TABLESTYLE
  2
AcDbTableStyle
  3
ObjectDBX Classes
 90
     4095
280
     0
281
     0
  0
CLASS
  1
AM_DRAWING_MGR
  2
AcDmDwgMgr
  3
AcMechDwgViewMgmt
 90
     1024
280
     0
281
     0
  0
CLASS
  1
AM_DWG_DOCUMENT
  2
AcDmDwgDocument
  3
AcMechDwgViewMgmt
 90
     1024
280
     0
281
     0
  0
CLASS
  1
AM_DWG_SHEET
  2
AcDmSheet
  3
AcMechDwgViewMgmt
 90
     1024
280
     0
281
     0
  0
CLASS
  1
AM_VIEWDIMPARMAP
  2
AcDmViewDimParMap
  3
AcMechDwgViewMgmt
 90
     1024
280
     0
281
     0
  0
CLASS
  1
AM_DWGMGR_NAME
  2
AcDmDwgMgrName
  3
AcMechDwgViewMgmt
 90
     1024
280
     0
281
     0
  0
CLASS
  1
AMDTMENUSTATEMGR
  2
AmdtMenuStateMgr
  3
McadcomServices
 90
    33792
280
     0
281
     0
  0
CLASS
  1
AMDTMCOMMENUSTATE
  2
AmdtMcomMenuState
  3
McadcomServices
 90
    33792
280
     0
281
     0
  0
CLASS
  1
MAPIAMMOUDLE
  2
MApiAmModule
  3
MApiAmServices
 90
    33792
280
     0
281
     0
  0
CLASS
  1
AMDTADMENUSTATE
  2
AmdtAdMenuState
  3
DesignerServices
 90
    32768
280
     1
281
     0
  0
CLASS
  1
ADAPPL
  2
AcAdAppl
  3
DesignerAssemblies
 90
    33792
280
     0
281
     0
  0
CLASS
  1
DEPMGR
  2
AcAdDepMgr
  3
DesignerAssemblies
 90
    33792
280
     0
281
     0
  0
CLASS
  1
PARAMMGR
  2
AcAdParamMgr
  3
DesignerAssemblies
 90
    33792
280
     0
281
     0
  0
CLASS
  1
PARAMSCOPE
  2
AcAdParamScope
  3
DesignerAssemblies
 90
    33792
280
     0
281
     0
  0
CLASS
  1
NAMEDAPPL
  2
AcAdNamedAppl
  3
DesignerAssemblies
 90
    33792
280
     0
281
     0
  0
CLASS
  1
AMDTDMMENUSTATE
  2
AmdtDmMenuState
  3
AcMechDwgViewMgmt
 90
    32768
280
     1
281
     0
  0
CLASS
  1
AMDTAMMENUSTATE
  2
AmdtAmMenuState
  3
DesignerAssemblies
 90
    33792
280
     0
281
     0
  0
CLASS
  1
ACAMPROJECT
  2
AcAmProject
  3
DesignerAssemblies
 90
    33792
280
     0
281
     0
  0
CLASS
  1
ACAMGRCOMPDEF
  2
AcAmGrCompDef
  3
DesignerAssemblies
 90
    33792
280
     0
281
     0
  0
CLASS
  1
ACCMCONTEXT
  2
AcCmContext
  3
DesignerAssemblies
 90
    33792
280
     0
281
     0
  0
CLASS
  1
ACAMCOMPDEF
  2
AcAmCompDef
  3
DesignerAssemblies
 90
    33792
280
     0
281
     0
  0
CLASS
  1
ACAMCOMPDEFMGR
  2
AcAmCompDefMgr
  3
DesignerAssemblies
 90
    33792
280
     0
281
     0
  0
CLASS
  1
AMCONTEXTMGR
  2
AcAmContextMgr
  3
DesignerAssemblies
 90
    33792
280
     0
281
     0
  0
CLASS
  1
ACAMCONTEXTMODELER
  2
AcAmContextModeler
  3
DesignerAssemblies
 90
    33792
280
     0
281
     0
  0
CLASS
  1
ACRFATTGENMGR
  2
AcRfAttGeneralMgr
  3
AcAttribServices
 90
    33792
280
     0
281
     0
  0
CLASS
  1
ACRFOBJATTMGR
  2
AcRfObjAttGroupMgr
  3
AcAttribServices
 90
    33792
280
     0
281
     0
  0
CLASS
  1
ACRFMCADAPIATTHOLDER
  2
AcRfMCADAPIAttHolder
  3
AcAttribServices
 90
    33792
280
     0
281
     0
  0
CLASS
  1
AMDTSYSATTR
  2
AmdtSystemAttribute
  3
AcAttribServices
 90
    33792
280
     0
281
     0
  0
CLASS
  1
ACMTHREADLINESTANDARDDIN
  2
AmdtThreadLineStdDIN
  3
"Amdt_StdImp|Product Description: AutoCAD Mechanical|Company: Autodesk, Inc."
 90
     1024
280
     0
281
     0
  0
CLASS
  1
CATALOGSTATE
  2
AcAmCatalogState
  3
DesignerAssemblies
 90
    33792
280
     0
281
     0
  0
CLASS
  1
ACAMGRCOMPDEFSET
  2
AcAmGrCompDefSet
  3
DesignerAssemblies
 90
    33792
280
     0
281
     0
  0
CLASS
  1
AMDTBROWSERDBTAB
  2
AmdtBrowserDbTab
  3
McadcomServices
 90
    33792
280
     0
281
     0
  0
CLASS
  1
CBROWSERAPPOBJECT
  2
CBrowserAppObject
  3
McadcomServices
 90
    33792
280
     0
281
     0
  0
CLASS
  1
DM_PLACEHOLDER
  2
AcDmSelsetPlaceholder
  3
McadcomServices
 90
    33792
280
     0
281
     0
  0
CLASS
  1
SORTENTSTABLE
  2
AcDbSortentsTable
  3
ObjectDBX Classes
 90
        0
280
     0
281
     0
  0
CLASS
  1
VLO-VL
  2
vlo_VL
  3
VL|AutoLISP based application
 90
    32897
280
     0
281
     0
  0
CLASS
  1
AMDTEDGESTANDARDDIN13715
  2
AmdtEdgeStdDIN13715
  3
"Amdt_StdImp|Product Description: AutoCAD Mechanical|Company: Autodesk, Inc."
 90
     1024
280
     0
281
     0
  0
CLASS
  1
AMDTNOTETEMPLATEDB
  2
AmdtNoteTemplateDB
  3
AcmSymBB|Product Description: AutoCAD Mechanical|Company: Autodesk, Inc.
 90
     1024
280
     0
281
     0
  0
CLASS
  1
MATERIAL
  2
AcDbMaterial
  3
ObjectDBX Classes
 90
     1153
280
     0
281
     0
  0
CLASS
  1
VISUALSTYLE
  2
AcDbVisualStyle
  3
ObjectDBX Classes
 90
     4095
280
     0
281
     0
  0
CLASS
  1
SCALE
  2
AcDbScale
  3
ObjectDBX Classes
 90
     1153
280
     0
281
     0
  0
CLASS
  1
MLEADERSTYLE
  2
AcDbMLeaderStyle
  3
ACDB_MLEADERSTYLE_CLASS
 90
    36863
280
     0
281
     0
  0
CLASS
  1
ACDBSECTIONVIEWSTYLE
  2
AcDbSectionViewStyle
  3
ObjectDBX Classes
 90
     1025
280
     0
281
     0
  0
CLASS
  1
ACDBDETAILVIEWSTYLE
  2
AcDbDetailViewStyle
  3
ObjectDBX Classes
 90
     1025
280
     0
281
     0
  0
CLASS
  1
ACMTAPERSTANDARDDIN
  2
AcmTaperStdDIN
  3
"Amdt_StdImp|Product Description: AutoCAD Mechanical|Company: Autodesk, Inc."
 90
     1024
280
     0
281
     0
  0
CLASS
  1
ACMANOOTATIONVIEWSTANDARDDIN
  2
AmdtAnViewStdDIN
  3
"Amdt_StdImp|Product Description: AutoCAD Mechanical|Company: Autodesk, Inc."
 90
     1024
280
     0
281
     0
  0
CLASS
  1
ACMSECTIONSTANDARDCUSTOM
  2
AmdtSectionSymStdCustom
  3
"Amdt_StdImp|Product Description: AutoCAD Mechanical|Company: Autodesk, Inc."
 90
     1024
280
     0
281
     0
  0
CLASS
  1
ACMDETAILTANDARDCUSTOM
  2
AmdtDetailSymStdCustom
  3
"Amdt_StdImp|Product Description: AutoCAD Mechanical|Company: Autodesk, Inc."
 90
     1024
280
     0
281
     0
  0
CLASS
  1
FIELD
  2
AcDbField
  3
ObjectDBX Classes
 90
     1152
280
     0
281
     0
  0
CLASS
  1
FIELDLIST
  2
AcDbFieldList
  3
ObjectDBX Classes
 90
     1152
280
     0
281
     0
  0
CLASS
  1
CELLSTYLEMAP
  2
AcDbCellStyleMap
  3
ObjectDBX Classes
 90
     1152
280
     0
281
     0
  0
ENDSEC
  0
SECTION
  2
TABLES
  0
TABLE
  2
VPORT
  5
28
330
0
100
AcDbSymbolTable
 70
     1
  0
VPORT
  5
29
330
28
100
AcDbSymbolTableRecord
100
AcDbViewportTableRecord
  2
*Active
 70
     0
 10
0.0
 20
0.0
 11
1.0
 21
1.0
 12
204.4394106642605
 22
85.91789263694876
 13
0.0
 23
0.0
 14
2.0
 24
2.0
 15
10.0
 25
10.0
 16
0.0
 26
0.0
 36
1.0
 17
0.0
 27
0.0
 37
0.0
 40
584.1606422092791
 41
2.129565217391304
 42
50.0
 43
0.0
 44
0.0
 50
0.0
 51
0.0
 71
     0
 72
  5000
 73
     1
 74
     0
 75
     0
 76
     0
 77
     0
 78
     0
281
     0
 65
     1
110
0.0
120
0.0
130
0.0
111
1.0
121
0.0
131
0.0
112
0.0
122
1.0
132
0.0
 79
     0
146
0.0
1001
ACAD_NAV_VCDISPLAY
1070
     3
  0
ENDTAB
  0
TABLE
  2
LTYPE
  5
23
330
0
100
AcDbSymbolTable
 70
    12
  0
LTYPE
  5
24
330
23
100
AcDbSymbolTableRecord
100
AcDbLinetypeTableRecord
  2
BYBLOCK
 70
     0
  3

 72
    65
 73
     0
 40
0.0
  0
LTYPE
  5
25
330
23
100
AcDbSymbolTableRecord
100
AcDbLinetypeTableRecord
  2
BYLAYER
 70
     0
  3

 72
    65
 73
     0
 40
0.0
  0
LTYPE
  5
13
330
23
100
AcDbSymbolTableRecord
100
AcDbLinetypeTableRecord
  2
CONTINUOUS
 70
     0
  3
Durchgezogene Linie
 72
    65
 73
     0
 40
0.0
  0
LTYPE
  5
117
330
23
100
AcDbSymbolTableRecord
100
AcDbLinetypeTableRecord
  2
STRICHPUNKT
 70
     0
  3
__ . __ . __ . __ . __ . __ . __ . __ . __ . __
 72
    65
 73
     4
 40
1.0
 49
0.5
 74
     0
 49
-0.25
 74
     0
 49
0.0
 74
     0
 49
-0.25
 74
     0
  0
LTYPE
  5
13B
330
23
100
AcDbSymbolTableRecord
100
AcDbLinetypeTableRecord
  2
Amconstr
 70
     0
  3
_______________________
 72
    65
 73
     2
 40
9999.0
 49
9999.0
 74
     0
 49
0.0
 74
     0
  0
LTYPE
  5
13E
330
23
100
AcDbSymbolTableRecord
100
AcDbLinetypeTableRecord
  2
Amzigzag
 70
     0
  3
/\/-/\/-/\/-/\/-/\/-/\/
 72
    65
 73
     2
 40
11.0001
 49
0.0001
 74
     4
 75
   135
340
13F
 46
0.04
 50
0.0
 44
0.0
 45
0.0
 49
-11.0
 74
     0
  0
LTYPE
  5
138
330
23
100
AcDbSymbolTableRecord
100
AcDbLinetypeTableRecord
  2
AM_DIN_F_W050
 70
     0
  3
__ __ __ __ __ __ __ __ __ __ __ __ __ __ __
 72
    65
 73
     2
 40
6.25
 49
4.75
 74
     0
 49
-1.5
 74
     0
  0
LTYPE
  5
139
330
23
100
AcDbSymbolTableRecord
100
AcDbLinetypeTableRecord
  2
AM_DIN_G_W050
 70
     0
  3
____ . ____ . ____ . ____ . ____ . ____ . ____
 72
    65
 73
     4
 40
13.75
 49
9.75
 74
     0
 49
-1.5
 74
     0
 49
1.0
 74
     0
 49
-1.5
 74
     0
  0
LTYPE
  5
13A
330
23
100
AcDbSymbolTableRecord
100
AcDbLinetypeTableRecord
  2
AM_DIN_K_W050
 70
     0
  3
_____ . . _____ . . _____ . . ____ .. ____
 72
    65
 73
     6
 40
16.25
 49
9.75
 74
     0
 49
-1.5
 74
     0
 49
1.0
 74
     0
 49
-1.5
 74
     0
 49
1.0
 74
     0
 49
-1.5
 74
     0
  0
LTYPE
  5
13C
330
23
100
AcDbSymbolTableRecord
100
AcDbLinetypeTableRecord
  2
AM_DIN_G_W050x2
 70
     0
  3
__ . __ . __ . __ . __ . __
 72
    65
 73
     4
 40
6.875
 49
4.75
 74
     0
 49
-0.875
 74
     0
 49
0.375
 74
     0
 49
-0.875
 74
     0
  0
LTYPE
  5
13D
330
23
100
AcDbSymbolTableRecord
100
AcDbLinetypeTableRecord
  2
AM_DIN_F_W050x2
 70
     0
  3
 _ _ _ _ _ _ _ _ _ _ _ _
 72
    65
 73
     2
 40
3.125
 49
2.25
 74
     0
 49
-0.875
 74
     0
  0
LTYPE
  5
14F
330
23
100
AcDbSymbolTableRecord
100
AcDbLinetypeTableRecord
  2
ACDINWELD
 70
     0
  3
_ _ _ _ _
 72
    65
 73
     2
 40
2.0
 49
2.0
 74
     0
 49
-1.0
 74
     0
  0
LTYPE
  5
152
330
23
100
AcDbSymbolTableRecord
100
AcDbLinetypeTableRecord
  2
ACDINTGB
 70
     0
  3
__ . . __ . .
 72
    65
 73
     6
 40
9.0
 49
4.0
 74
     0
 49
-1.0
 74
     0
 49
1.0
 74
     0
 49
-1.0
 74
     0
 49
1.0
 74
     0
 49
-1.0
 74
     0
  0
LTYPE
  5
153
330
23
100
AcDbSymbolTableRecord
100
AcDbLinetypeTableRecord
  2
ACDINTGL
 70
     0
  3
_ _ _ _ _
 72
    65
 73
     2
 40
3.0
 49
2.0
 74
     0
 49
-1.0
 74
     0
  0
ENDTAB
  0
TABLE
  2
LAYER
  5
1B
102
{ACAD_XDICTIONARY
360
1C
102
}
330
0
100
AcDbSymbolTable
 70
     7
  0
LAYER
  5
6
330
1B
100
AcDbSymbolTableRecord
100
AcDbLayerTableRecord
  2
0
 70
     0
 62
     7
  6
CONTINUOUS
370
    -3
390
7
  0
LAYER
  5
6D
330
1B
100
AcDbSymbolTableRecord
100
AcDbLayerTableRecord
  2
DEFPOINTS
 70
     0
 62
     7
  6
CONTINUOUS
290
     0
370
    -3
390
7
  0
LAYER
  5
4B
330
1B
100
AcDbSymbolTableRecord
100
AcDbLayerTableRecord
  2
UMRISS05
 70
     0
 62
     4
  6
CONTINUOUS
370
    -3
390
7
  0
LAYER
  5
63
330
1B
100
AcDbSymbolTableRecord
100
AcDbLayerTableRecord
  2
BEMASSUNG
 70
     0
 62
     2
  6
CONTINUOUS
370
    -3
390
7
  0
LAYER
  5
116
330
1B
100
AcDbSymbolTableRecord
100
AcDbLayerTableRecord
  2
ACHSEN
 70
     0
 62
     1
  6
STRICHPUNKT
370
    -3
390
7
  0
LAYER
  5
8E
330
1B
100
AcDbSymbolTableRecord
100
AcDbLayerTableRecord
  2
UMRISS07
 70
     0
 62
     6
  6
CONTINUOUS
370
    -3
390
7
  0
LAYER
  5
134
330
1B
100
AcDbSymbolTableRecord
100
AcDbLayerTableRecord
  2
SCHRAFFUR
 70
     0
 62
     8
  6
CONTINUOUS
370
    -3
390
7
  0
ENDTAB
  0
TABLE
  2
STYLE
  5
20
330
0
100
AcDbSymbolTable
 70
     7
  0
STYLE
  5
21
330
20
100
AcDbSymbolTableRecord
100
AcDbTextStyleTableRecord
  2
STANDARD
 70
     0
 40
0.0
 41
1.0
 50
0.0
 71
     0
 42
0.2
  3
txt
  4

  0
STYLE
  5
4C
330
20
100
AcDbSymbolTableRecord
100
AcDbTextStyleTableRecord
  2
ROMANS
 70
     0
 40
8.5
 41
0.7
 50
0.0
 71
     0
 42
8.5
  3
ROMANS.shx
  4

  0
STYLE
  5
30
330
20
100
AcDbSymbolTableRecord
100
AcDbTextStyleTableRecord
  2
NORM
 70
     0
 40
0.0
 41
0.9
 50
0.0
 71
     0
 42
3.5
  3
SIMPLEX.shx
  4

  0
STYLE
  5
13F
330
20
100
AcDbSymbolTableRecord
100
AcDbTextStyleTableRecord
  2

 70
     1
 40
0.0
 41
1.0
 50
0.0
 71
     0
 42
8.5
  3
ltypeshp.shx
  4

  0
STYLE
  5
149
330
20
100
AcDbSymbolTableRecord
100
AcDbTextStyleTableRecord
  2
ACDINTS
 70
     0
 40
1.0
 41
1.0
 50
0.0
 71
     0
 42
8.5
  3
isocp.shx
  4

  0
STYLE
  5
14D
330
20
100
AcDbSymbolTableRecord
100
AcDbTextStyleTableRecord
  2
ACDINGDT
 70
     0
 40
0.0
 41
1.0
 50
0.0
 71
     0
 42
8.5
  3
AMGDT
  4

  0
STYLE
  5
32
330
20
100
AcDbSymbolTableRecord
100
AcDbTextStyleTableRecord
  2
WMF
 70
     0
 40
0.0
 41
1.0
 50
0.0
 71
     0
 42
6.5
  3
arial.ttf
  4

1001
ACAD
1000
Arial
1071
       34
  0
ENDTAB
  0
TABLE
  2
VIEW
  5
26
330
0
100
AcDbSymbolTable
 70
     0
  0
ENDTAB
  0
TABLE
  2
UCS
  5
27
330
0
100
AcDbSymbolTable
 70
     0
  0
ENDTAB
  0
TABLE
  2
APPID
  5
2D
330
0
100
AcDbSymbolTable
 70
     8
  0
APPID
  5
1F
330
2D
100
AcDbSymbolTableRecord
100
AcDbRegAppTableRecord
  2
ACAD
 70
     0
  0
APPID
  5
17D
330
2D
100
AcDbSymbolTableRecord
100
AcDbRegAppTableRecord
  2
ACAD_DSTYLE_DIMJOGGED_JOGANGLE_SYMBOL
 70
     0
  0
APPID
  5
2C
330
2D
100
AcDbSymbolTableRecord
100
AcDbRegAppTableRecord
  2
ACAD_NAV_VCDISPLAY
 70
     0
  0
APPID
  5
18D
330
2D
100
AcDbSymbolTableRecord
100
AcDbRegAppTableRecord
  2
AD_DRAW
 70
     0
  0
APPID
  5
18E
330
2D
100
AcDbSymbolTableRecord
100
AcDbRegAppTableRecord
  2
MCAD_NO_VIS
 70
     0
  0
APPID
  5
18F
330
2D
100
AcDbSymbolTableRecord
100
AcDbRegAppTableRecord
  2
ACADM_DIM_EDIT
 70
     0
  0
APPID
  5
190
330
2D
100
AcDbSymbolTableRecord
100
AcDbRegAppTableRecord
  2
AMDT_DM_ADJ
 70
     0
  0
APPID
  5
1B2
330
2D
100
AcDbSymbolTableRecord
100
AcDbRegAppTableRecord
  2
ACATTRIBSERVICES
 70
     0
  0
ENDTAB
  0
TABLE
  2
DIMSTYLE
  5
2E
330
0
100
AcDbSymbolTable
 70
     9
100
AcDbDimStyleTable
 71
     2
340
2F
340
31
  0
DIMSTYLE
105
2F
102
{ACAD_REACTORS
330
E9
330
F6
330
103
330
CB
330
BC
330
AD
330
DA
330
9E
330
92
330
80
330
71
330
62
102
}
330
2E
100
AcDbSymbolTableRecord
100
AcDbDimStyleTableRecord
  2
PROSPEKT
 70
     0
 40
1.5
 41
3.5
 42
0.5
 43
8.0
 44
1.0
 73
     0
 74
     0
 77
     1
 78
     8
140
3.5
141
1.5
143
25.39999999999999
146
0.5
147
1.0
172
     1
174
     1
176
     2
177
     2
178
     3
271
     2
272
     2
275
     1
279
     2
284
     8
285
     8
286
     8
340
30
  0
DIMSTYLE
105
17C
330
2E
100
AcDbSymbolTableRecord
100
AcDbDimStyleTableRecord
  2
AM_DIN
 70
     0
  4
"
 41
2.5
 42
1.0
 43
10.0
 44
1.0
 47
0.1
 48
0.1
 73
     0
 74
     0
 77
     1
 78
     8
 79
     2
140
3.5
141
0.0
143
0.0393701
146
0.71
147
1.5
172
     1
176
   256
177
   256
178
     2
271
     2
272
     3
274
     4
283
     0
284
     8
340
21
371
    -1
372
    -1
1001
ACAD_DSTYLE_DIMJOGGED_JOGANGLE_SYMBOL
1070
   384
1040
1.570796326794896
  0
DIMSTYLE
105
17E
330
2E
100
AcDbSymbolTableRecord
100
AcDbDimStyleTableRecord
  2
AM_DIN$3
 70
     0
  4
"
 41
2.5
 42
1.0
 43
10.0
 44
1.0
 47
0.1
 48
0.1
 73
     0
 77
     1
 78
     8
 79
     2
140
3.5
141
0.0
143
0.0393701
146
0.71
147
1.5
176
   256
177
   256
178
     2
271
     2
272
     3
274
     4
283
     0
284
     8
288
     1
289
     0
340
21
371
    -1
372
    -1
1001
ACAD_DSTYLE_DIMJOGGED_JOGANGLE_SYMBOL
1070
   384
1040
1.570796326794896
  0
DIMSTYLE
105
17F
330
2E
100
AcDbSymbolTableRecord
100
AcDbDimStyleTableRecord
  2
AM_DIN$4
 70
     0
  4
"
 41
2.5
 42
1.0
 43
10.0
 44
1.0
 47
0.1
 48
0.1
 73
     0
 77
     1
 78
     8
 79
     2
140
3.5
141
0.0
143
0.0393701
146
0.71
147
1.5
176
   256
177
   256
178
     2
271
     2
272
     3
274
     4
283
     0
284
     8
288
     1
289
     0
340
21
371
    -1
372
    -1
1001
ACAD_DSTYLE_DIMJOGGED_JOGANGLE_SYMBOL
1070
   384
1040
1.570796326794896
  0
DIMSTYLE
105
180
330
2E
100
AcDbSymbolTableRecord
100
AcDbDimStyleTableRecord
  2
AM_DIN$6
 70
     0
  4
"
 41
2.5
 42
1.0
 43
10.0
 44
1.0
 47
0.1
 48
0.1
 73
     0
 74
     0
 78
     8
 79
     2
140
3.5
141
0.0
143
0.0393701
146
0.71
147
1.5
172
     1
176
   256
177
   256
178
     2
271
     2
272
     3
274
     4
283
     0
284
     8
340
21
371
    -1
372
    -1
1001
ACAD_DSTYLE_DIMJOGGED_JOGANGLE_SYMBOL
1070
   384
1040
1.570796326794896
  0
DIMSTYLE
105
181
330
2E
100
AcDbSymbolTableRecord
100
AcDbDimStyleTableRecord
  2
AM_DIN$7
 70
     0
  4
"
 41
2.5
 42
1.0
 43
10.0
 44
1.0
 47
0.1
 48
0.1
 73
     0
 74
     0
 77
     1
 78
     8
 79
     2
140
5.0
141
0.0
143
0.0393701
146
0.71
147
1.5
172
     1
176
   256
177
   256
178
     2
271
     2
272
     3
274
     4
283
     0
284
     8
340
21
371
    -1
372
    -1
1001
ACAD_DSTYLE_DIMJOGGED_JOGANGLE_SYMBOL
1070
   384
1040
1.570796326794896
  0
DIMSTYLE
105
182
330
2E
100
AcDbSymbolTableRecord
100
AcDbDimStyleTableRecord
  2
AM_DIN$SF
 70
     0
  4
"
 41
2.5
 42
1.0
 43
10.0
 44
1.0
 47
0.1
 48
0.1
 73
     0
 74
     0
 75
     1
 76
     1
 77
     1
 78
     8
 79
     2
140
3.5
141
0.0
143
0.0393701
146
0.71
147
1.5
172
     1
176
   256
177
   256
178
     2
271
     2
272
     3
274
     4
283
     0
284
     8
340
21
371
    -1
372
    -1
1001
ACAD_DSTYLE_DIMJOGGED_JOGANGLE_SYMBOL
1070
   384
1040
1.570796326794896
  0
DIMSTYLE
105
183
330
2E
100
AcDbSymbolTableRecord
100
AcDbDimStyleTableRecord
  2
AM_DIN$SH
 70
     0
  4
"
 41
2.5
 42
1.0
 43
10.0
 44
1.0
 47
0.1
 48
0.1
 73
     0
 74
     0
 75
     1
 76
     1
 77
     1
 78
     8
 79
     2
140
3.5
141
0.0
143
0.0393701
144
2.0
146
0.71
147
1.5
172
     1
173
     1
176
   256
177
   256
178
     2
271
     2
272
     3
274
     4
283
     0
284
     8
340
21
343
184
371
    -1
372
    -1
1001
ACAD_DSTYLE_DIMJOGGED_JOGANGLE_SYMBOL
1070
   384
1040
1.570796326794896
  0
DIMSTYLE
105
31
330
2E
100
AcDbSymbolTableRecord
100
AcDbDimStyleTableRecord
  2
WMF
 70
     0
 40
1.9
 41
2.799999999999999
 42
1.0
 43
0.0
 44
1.0
 73
     0
 74
     0
 77
     1
 78
     8
140
3.399999999999999
141
1.5
146
0.5
147
1.0
172
     1
174
     1
176
   256
177
   256
178
   256
271
     2
272
     2
279
     2
284
     8
285
     8
286
     8
340
32
  0
ENDTAB
  0
TABLE
  2
BLOCK_RECORD
  5
1
330
0
100
AcDbSymbolTable
 70
    15
  0
BLOCK_RECORD
  5
2
102
{ACAD_XDICTIONARY
360
3
102
}
330
1
100
AcDbSymbolTableRecord
100
AcDbBlockTableRecord
  2
*MODEL_SPACE
340
15
  0
BLOCK_RECORD
  5
17
330
1
100
AcDbSymbolTableRecord
100
AcDbBlockTableRecord
  2
*PAPER_SPACE
340
1A
  0
BLOCK_RECORD
  5
184
330
1
100
AcDbSymbolTableRecord
100
AcDbBlockTableRecord
  2
GENAXEH
340
0
  0
BLOCK_RECORD
  5
EA
330
1
100
AcDbSymbolTableRecord
100
AcDbBlockTableRecord
  2
*D1
340
0
  0
BLOCK_RECORD
  5
104
330
1
100
AcDbSymbolTableRecord
100
AcDbBlockTableRecord
  2
*D2
340
0
  0
BLOCK_RECORD
  5
F7
330
1
100
AcDbSymbolTableRecord
100
AcDbBlockTableRecord
  2
*D3
340
0
  0
BLOCK_RECORD
  5
CC
330
1
100
AcDbSymbolTableRecord
100
AcDbBlockTableRecord
  2
*D4
340
0
  0
BLOCK_RECORD
  5
BD
330
1
100
AcDbSymbolTableRecord
100
AcDbBlockTableRecord
  2
*D5
340
0
  0
BLOCK_RECORD
  5
AE
330
1
100
AcDbSymbolTableRecord
100
AcDbBlockTableRecord
  2
*D6
340
0
  0
BLOCK_RECORD
  5
DB
330
1
100
AcDbSymbolTableRecord
100
AcDbBlockTableRecord
  2
*D7
340
0
  0
BLOCK_RECORD
  5
9F
330
1
100
AcDbSymbolTableRecord
100
AcDbBlockTableRecord
  2
*D8
340
0
  0
BLOCK_RECORD
  5
93
330
1
100
AcDbSymbolTableRecord
100
AcDbBlockTableRecord
  2
*D9
340
0
  0
BLOCK_RECORD
  5
81
330
1
100
AcDbSymbolTableRecord
100
AcDbBlockTableRecord
  2
*D10
340
0
  0
BLOCK_RECORD
  5
72
330
1
100
AcDbSymbolTableRecord
100
AcDbBlockTableRecord
  2
*D11
340
0
  0
BLOCK_RECORD
  5
64
330
1
100
AcDbSymbolTableRecord
100
AcDbBlockTableRecord
  2
*D12
340
0
  0
BLOCK_RECORD
  5
15D
330
1
100
AcDbSymbolTableRecord
100
AcDbBlockTableRecord
  2
_ACMFILLED15
340
0
  0
BLOCK_RECORD
  5
16B
330
1
100
AcDbSymbolTableRecord
100
AcDbBlockTableRecord
  2
_ACMFILLED30
340
0
  0
ENDTAB
  0
ENDSEC
  0
SECTION
  2
BLOCKS
  0
BLOCK
  5
5
330
2
100
AcDbEntity
  8
0
100
AcDbBlockBegin
  2
*MODEL_SPACE
 70
     0
 10
0.0
 20
0.0
 30
0.0
  3
*MODEL_SPACE
  1

  0
ENDBLK
  5
14
330
2
100
AcDbEntity
  8
0
100
AcDbBlockEnd
  0
BLOCK
  5
18
330
17
100
AcDbEntity
 67
     1
  8
0
100
AcDbBlockBegin
  2
*PAPER_SPACE
 70
     0
 10
0.0
 20
0.0
 30
0.0
  3
*PAPER_SPACE
  1

  0
ENDBLK
  5
19
330
17
100
AcDbEntity
 67
     1
  8
0
100
AcDbBlockEnd
  0
BLOCK
  5
185
330
184
100
AcDbEntity
  8
0
100
AcDbBlockBegin
  2
GENAXEH
 70
     0
 10
0.0
 20
0.0
 30
0.0
  3
GENAXEH
  1

  0
LINE
  5
186
330
184
100
AcDbEntity
  8
0
100
AcDbLine
 10
-1.0
 20
0.0
 30
0.0
 11
1.0
 21
0.0
 31
0.0
  0
ENDBLK
  5
187
330
184
100
AcDbEntity
  8
0
100
AcDbBlockEnd
  0
BLOCK
  5
EB
330
EA
100
AcDbEntity
  8
0
100
AcDbBlockBegin
  2
*D1
 70
     1
 10
0.0
 20
0.0
 30
0.0
  3
*D1
  1

  0
LINE
  5
EC
330
EA
100
AcDbEntity
  8
BEMASSUNG
  6
Continuous
 62
     2
370
    -2
100
AcDbLine
 10
61.91655286655578
 20
195.1342465670958
 30
0.0
 11
61.91655286655578
 21
234.5573590168698
 31
0.0
  0
LINE
  5
ED
330
EA
100
AcDbEntity
  8
BEMASSUNG
  6
Continuous
 62
     2
370
    -2
100
AcDbLine
 10
121.9165528665558
 20
195.1342465670958
 30
0.0
 11
121.9165528665558
 21
234.5573590168698
 31
0.0
  0
LINE
  5
EE
330
EA
100
AcDbEntity
  8
BEMASSUNG
  6
Continuous
 62
     2
370
    -2
100
AcDbLine
 10
67.16655286655577
 20
233.0573590168698
 30
0.0
 11
116.6665528665558
 21
233.0573590168698
 31
0.0
  0
SOLID
  5
EF
330
EA
100
AcDbEntity
  8
BEMASSUNG
  6
Continuous
 62
     2
100
AcDbTrace
 10
67.16655286655577
 20
233.9323590168698
 30
0.0
 11
67.16655286655577
 21
232.1823590168698
 31
0.0
 12
61.91655286655578
 22
233.0573590168698
 32
0.0
 13
61.91655286655578
 23
233.0573590168698
 33
0.0
  0
SOLID
  5
F0
330
EA
100
AcDbEntity
  8
BEMASSUNG
  6
Continuous
 62
     2
100
AcDbTrace
 10
116.6665528665558
 20
233.9323590168698
 30
0.0
 11
116.6665528665558
 21
232.1823590168698
 31
0.0
 12
121.9165528665558
 22
233.0573590168698
 32
0.0
 13
121.9165528665558
 23
233.0573590168698
 33
0.0
  0
MTEXT
  5
F1
330
EA
100
AcDbEntity
  8
BEMASSUNG
  6
Continuous
 62
     3
100
AcDbMText
 10
91.91655286655578
 20
237.1823590168698
 30
0.0
 40
5.25
 41
0.0
 71
     5
 72
     1
  1
\A1;60
  7
NORM
 73
     1
 44
1.0
1001
ACAD
1000
MTEXTBEGIN
1070
    73
1070
     1
1070
    44
1040
1.0
1070
    74
1070
     0
1000
MTEXTEND
  0
POINT
  5
F2
330
EA
100
AcDbEntity
  8
DEFPOINTS
  6
Continuous
 62
     0
100
AcDbPoint
 10
61.91655286655578
 20
194.3842465670958
 30
0.0
  0
POINT
  5
F3
330
EA
100
AcDbEntity
  8
DEFPOINTS
  6
Continuous
 62
     0
100
AcDbPoint
 10
121.9165528665558
 20
194.3842465670958
 30
0.0
  0
POINT
  5
F4
330
EA
100
AcDbEntity
  8
DEFPOINTS
  6
Continuous
 62
     0
100
AcDbPoint
 10
121.9165528665558
 20
233.0573590168698
 30
0.0
  0
ENDBLK
  5
F5
330
EA
100
AcDbEntity
  8
0
100
AcDbBlockEnd
  0
BLOCK
  5
105
330
104
100
AcDbEntity
  8
0
100
AcDbBlockBegin
  2
*D2
 70
     1
 10
0.0
 20
0.0
 30
0.0
  3
*D2
  1

  0
LINE
  5
106
330
104
100
AcDbEntity
  8
BEMASSUNG
  6
Continuous
 62
     2
370
    -2
100
AcDbLine
 10
71.91655286655578
 20
208.1360584628274
 30
0.0
 11
71.91655286655578
 21
219.7673590168698
 31
0.0
  0
LINE
  5
107
330
104
100
AcDbEntity
  8
BEMASSUNG
  6
Continuous
 62
     2
370
    -2
100
AcDbLine
 10
91.91655286655578
 20
208.1360584628274
 30
0.0
 11
91.91655286655578
 21
219.7673590168698
 31
0.0
  0
LINE
  5
108
330
104
100
AcDbEntity
  8
BEMASSUNG
  6
Continuous
 62
     2
370
    -2
100
AcDbLine
 10
77.16655286655577
 20
218.2673590168698
 30
0.0
 11
86.66655286655577
 21
218.2673590168698
 31
0.0
  0
SOLID
  5
109
330
104
100
AcDbEntity
  8
BEMASSUNG
  6
Continuous
 62
     2
100
AcDbTrace
 10
77.16655286655577
 20
219.1423590168698
 30
0.0
 11
77.16655286655577
 21
217.3923590168698
 31
0.0
 12
71.91655286655578
 22
218.2673590168698
 32
0.0
 13
71.91655286655578
 23
218.2673590168698
 33
0.0
  0
SOLID
  5
10A
330
104
100
AcDbEntity
  8
BEMASSUNG
  6
Continuous
 62
     2
100
AcDbTrace
 10
86.66655286655577
 20
219.1423590168698
 30
0.0
 11
86.66655286655577
 21
217.3923590168698
 31
0.0
 12
91.91655286655578
 22
218.2673590168698
 32
0.0
 13
91.91655286655578
 23
218.2673590168698
 33
0.0
  0
MTEXT
  5
10B
330
104
100
AcDbEntity
  8
BEMASSUNG
  6
Continuous
 62
     3
100
AcDbMText
 10
81.91655286655578
 20
222.3923590168698
 30
0.0
 40
5.25
 41
0.0
 71
     5
 72
     1
  1
\A1;20
  7
NORM
 73
     1
 44
1.0
1001
ACAD
1000
MTEXTBEGIN
1070
    73
1070
     1
1070
    44
1040
1.0
1070
    74
1070
     0
1000
MTEXTEND
  0
POINT
  5
10C
330
104
100
AcDbEntity
  8
DEFPOINTS
  6
Continuous
 62
     0
100
AcDbPoint
 10
71.91655286655578
 20
207.3860584628274
 30
0.0
  0
POINT
  5
10D
330
104
100
AcDbEntity
  8
DEFPOINTS
  6
Continuous
 62
     0
100
AcDbPoint
 10
91.91655286655578
 20
207.3860584628274
 30
0.0
  0
POINT
  5
10E
330
104
100
AcDbEntity
  8
DEFPOINTS
  6
Continuous
 62
     0
100
AcDbPoint
 10
91.91655286655578
 20
218.2673590168698
 30
0.0
  0
ENDBLK
  5
10F
330
104
100
AcDbEntity
  8
0
100
AcDbBlockEnd
  0
BLOCK
  5
F8
330
F7
100
AcDbEntity
  8
0
100
AcDbBlockBegin
  2
*D3
 70
     1
 10
0.0
 20
0.0
 30
0.0
  3
*D3
  1

  0
LINE
  5
F9
330
F7
100
AcDbEntity
  8
BEMASSUNG
  6
Continuous
 62
     2
370
    -2
100
AcDbLine
 10
91.91655286655578
 20
208.1360584628274
 30
0.0
 11
91.91655286655578
 21
219.7673590168698
 31
0.0
  0
LINE
  5
FA
330
F7
100
AcDbEntity
  8
BEMASSUNG
  6
Continuous
 62
     2
370
    -2
100
AcDbLine
 10
111.9165528665557
 20
208.1360584628274
 30
0.0
 11
111.9165528665557
 21
219.7673590168698
 31
0.0
  0
LINE
  5
FB
330
F7
100
AcDbEntity
  8
BEMASSUNG
  6
Continuous
 62
     2
370
    -2
100
AcDbLine
 10
97.16655286655578
 20
218.2673590168698
 30
0.0
 11
106.6665528665557
 21
218.2673590168698
 31
0.0
  0
SOLID
  5
FC
330
F7
100
AcDbEntity
  8
BEMASSUNG
  6
Continuous
 62
     2
100
AcDbTrace
 10
97.16655286655578
 20
219.1423590168698
 30
0.0
 11
97.16655286655578
 21
217.3923590168698
 31
0.0
 12
91.91655286655578
 22
218.2673590168698
 32
0.0
 13
91.91655286655578
 23
218.2673590168698
 33
0.0
  0
SOLID
  5
FD
330
F7
100
AcDbEntity
  8
BEMASSUNG
  6
Continuous
 62
     2
100
AcDbTrace
 10
106.6665528665557
 20
219.1423590168698
 30
0.0
 11
106.6665528665557
 21
217.3923590168698
 31
0.0
 12
111.9165528665557
 22
218.2673590168698
 32
0.0
 13
111.9165528665557
 23
218.2673590168698
 33
0.0
  0
MTEXT
  5
FE
330
F7
100
AcDbEntity
  8
BEMASSUNG
  6
Continuous
 62
     3
100
AcDbMText
 10
101.9165528665558
 20
222.3923590168698
 30
0.0
 40
5.25
 41
0.0
 71
     5
 72
     1
  1
\A1;20
  7
NORM
 73
     1
 44
1.0
1001
ACAD
1000
MTEXTBEGIN
1070
    73
1070
     1
1070
    44
1040
1.0
1070
    74
1070
     0
1000
MTEXTEND
  0
POINT
  5
FF
330
F7
100
AcDbEntity
  8
DEFPOINTS
  6
Continuous
 62
     0
100
AcDbPoint
 10
91.91655286655578
 20
207.3860584628274
 30
0.0
  0
POINT
  5
100
330
F7
100
AcDbEntity
  8
DEFPOINTS
  6
Continuous
 62
     0
100
AcDbPoint
 10
111.9165528665557
 20
207.3860584628274
 30
0.0
  0
POINT
  5
101
330
F7
100
AcDbEntity
  8
DEFPOINTS
  6
Continuous
 62
     0
100
AcDbPoint
 10
111.9165528665557
 20
218.2673590168698
 30
0.0
  0
ENDBLK
  5
102
330
F7
100
AcDbEntity
  8
0
100
AcDbBlockEnd
  0
BLOCK
  5
CD
330
CC
100
AcDbEntity
  8
0
100
AcDbBlockBegin
  2
*D4
 70
     1
 10
0.0
 20
0.0
 30
0.0
  3
*D4
  1

  0
LINE
  5
CE
330
CC
100
AcDbEntity
  8
BEMASSUNG
  6
Continuous
 62
     2
370
    -2
100
AcDbLine
 10
111.9165528665557
 20
208.1342465670958
 30
0.0
 11
111.9165528665557
 21
219.7673590168698
 31
0.0
  0
LINE
  5
CF
330
CC
100
AcDbEntity
  8
BEMASSUNG
  6
Continuous
 62
     2
370
    -2
100
AcDbLine
 10
121.9165528665558
 20
198.6342465670958
 30
0.0
 11
121.9165528665558
 21
219.7673590168698
 31
0.0
  0
LINE
  5
D0
330
CC
100
AcDbEntity
  8
BEMASSUNG
  6
Continuous
 62
     2
370
    -2
100
AcDbLine
 10
106.6665528665557
 20
218.2673590168698
 30
0.0
 11
101.4165528665557
 21
218.2673590168698
 31
0.0
  0
LINE
  5
D1
330
CC
100
AcDbEntity
  8
BEMASSUNG
  6
Continuous
 62
     2
370
    -2
100
AcDbLine
 10
127.1665528665558
 20
218.2673590168698
 30
0.0
 11
132.4165528665558
 21
218.2673590168698
 31
0.0
  0
LINE
  5
D2
330
CC
100
AcDbEntity
  8
BEMASSUNG
  6
Continuous
 62
     2
370
    -2
100
AcDbLine
 10
111.9165528665557
 20
218.2673590168698
 30
0.0
 11
121.9165528665558
 21
218.2673590168698
 31
0.0
  0
SOLID
  5
D3
330
CC
100
AcDbEntity
  8
BEMASSUNG
  6
Continuous
 62
     2
100
AcDbTrace
 10
106.6665528665557
 20
219.1423590168698
 30
0.0
 11
106.6665528665557
 21
217.3923590168698
 31
0.0
 12
111.9165528665557
 22
218.2673590168698
 32
0.0
 13
111.9165528665557
 23
218.2673590168698
 33
0.0
  0
SOLID
  5
D4
330
CC
100
AcDbEntity
  8
BEMASSUNG
  6
Continuous
 62
     2
100
AcDbTrace
 10
127.1665528665558
 20
219.1423590168698
 30
0.0
 11
127.1665528665558
 21
217.3923590168698
 31
0.0
 12
121.9165528665558
 22
218.2673590168698
 32
0.0
 13
121.9165528665558
 23
218.2673590168698
 33
0.0
  0
MTEXT
  5
D5
330
CC
100
AcDbEntity
  8
BEMASSUNG
  6
Continuous
 62
     3
100
AcDbMText
 10
116.9165528665558
 20
222.3923590168698
 30
0.0
 40
5.25
 41
0.0
 71
     5
 72
     1
  1
\A1;10
  7
NORM
 73
     1
 44
1.0
1001
ACAD
1000
MTEXTBEGIN
1070
    73
1070
     1
1070
    44
1040
1.0
1070
    74
1070
     0
1000
MTEXTEND
  0
POINT
  5
D6
330
CC
100
AcDbEntity
  8
DEFPOINTS
  6
Continuous
 62
     0
100
AcDbPoint
 10
111.9165528665557
 20
207.3842465670958
 30
0.0
  0
POINT
  5
D7
330
CC
100
AcDbEntity
  8
DEFPOINTS
  6
Continuous
 62
     0
100
AcDbPoint
 10
121.9165528665558
 20
197.8842465670958
 30
0.0
  0
POINT
  5
D8
330
CC
100
AcDbEntity
  8
DEFPOINTS
  6
Continuous
 62
     0
100
AcDbPoint
 10
121.9165528665558
 20
218.2673590168698
 30
0.0
  0
ENDBLK
  5
D9
330
CC
100
AcDbEntity
  8
0
100
AcDbBlockEnd
  0
BLOCK
  5
BE
330
BD
100
AcDbEntity
  8
0
100
AcDbBlockBegin
  2
*D5
 70
     1
 10
0.0
 20
0.0
 30
0.0
  3
*D5
  1

  0
LINE
  5
BF
330
BD
100
AcDbEntity
  8
BEMASSUNG
  6
Continuous
 62
     2
370
    -2
100
AcDbLine
 10
71.91655286655576
 20
208.1342465670958
 30
0.0
 11
71.91655286655576
 21
219.7673590168698
 31
0.0
  0
LINE
  5
C0
330
BD
100
AcDbEntity
  8
BEMASSUNG
  6
Continuous
 62
     2
370
    -2
100
AcDbLine
 10
61.91655286655578
 20
198.6342465670958
 30
0.0
 11
61.91655286655578
 21
219.7673590168698
 31
0.0
  0
LINE
  5
C1
330
BD
100
AcDbEntity
  8
BEMASSUNG
  6
Continuous
 62
     2
370
    -2
100
AcDbLine
 10
77.16655286655576
 20
218.2673590168698
 30
0.0
 11
82.41655286655577
 21
218.2673590168698
 31
0.0
  0
LINE
  5
C2
330
BD
100
AcDbEntity
  8
BEMASSUNG
  6
Continuous
 62
     2
370
    -2
100
AcDbLine
 10
56.66655286655577
 20
218.2673590168698
 30
0.0
 11
51.41655286655577
 21
218.2673590168698
 31
0.0
  0
LINE
  5
C3
330
BD
100
AcDbEntity
  8
BEMASSUNG
  6
Continuous
 62
     2
370
    -2
100
AcDbLine
 10
71.91655286655576
 20
218.2673590168698
 30
0.0
 11
61.91655286655578
 21
218.2673590168698
 31
0.0
  0
SOLID
  5
C4
330
BD
100
AcDbEntity
  8
BEMASSUNG
  6
Continuous
 62
     2
100
AcDbTrace
 10
77.16655286655576
 20
219.1423590168698
 30
0.0
 11
77.16655286655576
 21
217.3923590168698
 31
0.0
 12
71.91655286655576
 22
218.2673590168698
 32
0.0
 13
71.91655286655576
 23
218.2673590168698
 33
0.0
  0
SOLID
  5
C5
330
BD
100
AcDbEntity
  8
BEMASSUNG
  6
Continuous
 62
     2
100
AcDbTrace
 10
56.66655286655577
 20
219.1423590168698
 30
0.0
 11
56.66655286655577
 21
217.3923590168698
 31
0.0
 12
61.91655286655578
 22
218.2673590168698
 32
0.0
 13
61.91655286655578
 23
218.2673590168698
 33
0.0
  0
MTEXT
  5
C6
330
BD
100
AcDbEntity
  8
BEMASSUNG
  6
Continuous
 62
     3
100
AcDbMText
 10
66.91655286655578
 20
222.3923590168698
 30
0.0
 40
5.25
 41
0.0
 71
     5
 72
     1
  1
\A1;10
  7
NORM
 73
     1
 44
1.0
1001
ACAD
1000
MTEXTBEGIN
1070
    73
1070
     1
1070
    44
1040
1.0
1070
    74
1070
     0
1000
MTEXTEND
  0
POINT
  5
C7
330
BD
100
AcDbEntity
  8
DEFPOINTS
  6
Continuous
 62
     0
100
AcDbPoint
 10
71.91655286655576
 20
207.3842465670958
 30
0.0
  0
POINT
  5
C8
330
BD
100
AcDbEntity
  8
DEFPOINTS
  6
Continuous
 62
     0
100
AcDbPoint
 10
61.91655286655578
 20
197.8842465670958
 30
0.0
  0
POINT
  5
C9
330
BD
100
AcDbEntity
  8
DEFPOINTS
  6
Continuous
 62
     0
100
AcDbPoint
 10
61.91655286655578
 20
218.2673590168698
 30
0.0
  0
ENDBLK
  5
CA
330
BD
100
AcDbEntity
  8
0
100
AcDbBlockEnd
  0
BLOCK
  5
AF
330
AE
100
AcDbEntity
  8
0
100
AcDbBlockBegin
  2
*D6
 70
     1
 10
0.0
 20
0.0
 30
0.0
  3
*D6
  1

  0
LINE
  5
B0
330
AE
100
AcDbEntity
  8
BEMASSUNG
  6
Continuous
 62
     2
370
    -2
100
AcDbLine
 10
67.16655286652394
 20
131.4574460264026
 30
0.0
 11
67.16655286652394
 21
114.4878011361868
 31
0.0
  0
LINE
  5
B1
330
AE
100
AcDbEntity
  8
BEMASSUNG
  6
Continuous
 62
     2
370
    -2
100
AcDbLine
 10
76.66655286652394
 20
131.4574460264026
 30
0.0
 11
76.66655286652394
 21
114.4878011361868
 31
0.0
  0
LINE
  5
B2
330
AE
100
AcDbEntity
  8
BEMASSUNG
  6
Continuous
 62
     2
370
    -2
100
AcDbLine
 10
61.91655286652395
 20
115.9878011361868
 30
0.0
 11
56.66655286652394
 21
115.9878011361868
 31
0.0
  0
LINE
  5
B3
330
AE
100
AcDbEntity
  8
BEMASSUNG
  6
Continuous
 62
     2
370
    -2
100
AcDbLine
 10
81.91655286652395
 20
115.9878011361868
 30
0.0
 11
87.16655286652395
 21
115.9878011361868
 31
0.0
  0
MTEXT
  5
B4
330
AE
100
AcDbEntity
  8
BEMASSUNG
  6
Continuous
 62
     3
100
AcDbMText
 10
92.24266244272849
 20
120.8459559631146
 30
0.0
 40
5.25
 41
0.0
 71
     5
 72
     1
  1
\A1;%%c9.5x90%%d
  7
NORM
 73
     1
 44
1.0
1001
ACAD
1000
MTEXTBEGIN
1070
    73
1070
     1
1070
    44
1040
1.0
1070
    74
1070
     0
1000
MTEXTEND
  0
LINE
  5
B5
330
AE
100
AcDbEntity
  8
BEMASSUNG
  6
Continuous
 62
     2
370
    -2
100
AcDbLine
 10
67.16655286652394
 20
115.9878011361868
 30
0.0
 11
76.66655286652394
 21
115.9878011361868
 31
0.0
  0
SOLID
  5
B6
330
AE
100
AcDbEntity
  8
BEMASSUNG
  6
Continuous
 62
     2
100
AcDbTrace
 10
61.91655286652395
 20
116.8628011361868
 30
0.0
 11
61.91655286652395
 21
115.1128011361868
 31
0.0
 12
67.16655286652394
 22
115.9878011361868
 32
0.0
 13
67.16655286652394
 23
115.9878011361868
 33
0.0
  0
SOLID
  5
B7
330
AE
100
AcDbEntity
  8
BEMASSUNG
  6
Continuous
 62
     2
100
AcDbTrace
 10
81.91655286652395
 20
116.8628011361868
 30
0.0
 11
81.91655286652395
 21
115.1128011361868
 31
0.0
 12
76.66655286652394
 22
115.9878011361868
 32
0.0
 13
76.66655286652394
 23
115.9878011361868
 33
0.0
  0
POINT
  5
B8
330
AE
100
AcDbEntity
  8
DEFPOINTS
  6
Continuous
 62
     0
100
AcDbPoint
 10
67.16655286652394
 20
132.2074460264026
 30
0.0
  0
POINT
  5
B9
330
AE
100
AcDbEntity
  8
DEFPOINTS
  6
Continuous
 62
     0
100
AcDbPoint
 10
76.66655286652394
 20
132.2074460264026
 30
0.0
  0
POINT
  5
BA
330
AE
100
AcDbEntity
  8
DEFPOINTS
  6
Continuous
 62
     0
100
AcDbPoint
 10
76.66655286652394
 20
115.9878011361868
 30
0.0
  0
ENDBLK
  5
BB
330
AE
100
AcDbEntity
  8
0
100
AcDbBlockEnd
  0
BLOCK
  5
DC
330
DB
100
AcDbEntity
  8
0
100
AcDbBlockBegin
  2
*D7
 70
     1
 10
0.0
 20
0.0
 30
0.0
  3
*D7
  1

  0
LINE
  5
DD
330
DB
100
AcDbEntity
  8
BEMASSUNG
  6
Continuous
 62
     2
370
    -2
100
AcDbLine
 10
69.31655286652392
 20
135.9574460264026
 30
0.0
 11
69.31655286652392
 21
150.3620384613325
 31
0.0
  0
LINE
  5
DE
330
DB
100
AcDbEntity
  8
BEMASSUNG
  6
Continuous
 62
     2
370
    -2
100
AcDbLine
 10
74.51655286652385
 20
135.9574460264026
 30
0.0
 11
74.51655286652385
 21
150.3620384613325
 31
0.0
  0
LINE
  5
DF
330
DB
100
AcDbEntity
  8
BEMASSUNG
  6
Continuous
 62
     2
370
    -2
100
AcDbLine
 10
64.06655286652392
 20
148.8620384613325
 30
0.0
 11
58.81655286652392
 21
148.8620384613325
 31
0.0
  0
LINE
  5
E0
330
DB
100
AcDbEntity
  8
BEMASSUNG
  6
Continuous
 62
     2
370
    -2
100
AcDbLine
 10
79.76655286652385
 20
148.8620384613325
 30
0.0
 11
85.01655286652384
 21
148.8620384613325
 31
0.0
  0
MTEXT
  5
E1
330
DB
100
AcDbEntity
  8
BEMASSUNG
  6
Continuous
 62
     3
100
AcDbMText
 10
88.78200498463479
 20
153.6135330388273
 30
0.0
 40
5.25
 41
0.0
 71
     5
 72
     1
  1
\A1;%%c5.2
  7
NORM
 73
     1
 44
1.0
1001
ACAD
1000
MTEXTBEGIN
1070
    73
1070
     1
1070
    44
1040
1.0
1070
    74
1070
     0
1000
MTEXTEND
  0
LINE
  5
E2
330
DB
100
AcDbEntity
  8
BEMASSUNG
  6
Continuous
 62
     2
370
    -2
100
AcDbLine
 10
69.31655286652392
 20
148.8620384613325
 30
0.0
 11
74.51655286652385
 21
148.8620384613325
 31
0.0
  0
SOLID
  5
E3
330
DB
100
AcDbEntity
  8
BEMASSUNG
  6
Continuous
 62
     2
100
AcDbTrace
 10
64.06655286652392
 20
149.7370384613325
 30
0.0
 11
64.06655286652392
 21
147.9870384613325
 31
0.0
 12
69.31655286652392
 22
148.8620384613325
 32
0.0
 13
69.31655286652392
 23
148.8620384613325
 33
0.0
  0
SOLID
  5
E4
330
DB
100
AcDbEntity
  8
BEMASSUNG
  6
Continuous
 62
     2
100
AcDbTrace
 10
79.76655286652385
 20
149.7370384613325
 30
0.0
 11
79.76655286652385
 21
147.9870384613325
 31
0.0
 12
74.51655286652385
 22
148.8620384613325
 32
0.0
 13
74.51655286652385
 23
148.8620384613325
 33
0.0
  0
POINT
  5
E5
330
DB
100
AcDbEntity
  8
DEFPOINTS
  6
Continuous
 62
     0
100
AcDbPoint
 10
69.31655286652392
 20
135.2074460264026
 30
0.0
  0
POINT
  5
E6
330
DB
100
AcDbEntity
  8
DEFPOINTS
  6
Continuous
 62
     0
100
AcDbPoint
 10
74.51655286652385
 20
135.2074460264026
 30
0.0
  0
POINT
  5
E7
330
DB
100
AcDbEntity
  8
DEFPOINTS
  6
Continuous
 62
     0
100
AcDbPoint
 10
74.51655286652385
 20
148.8620384613325
 30
0.0
  0
ENDBLK
  5
E8
330
DB
100
AcDbEntity
  8
0
100
AcDbBlockEnd
  0
BLOCK
  5
A0
330
9F
100
AcDbEntity
  8
0
100
AcDbBlockBegin
  2
*D8
 70
     1
 10
0.0
 20
0.0
 30
0.0
  3
*D8
  1

  0
LINE
  5
A1
330
9F
100
AcDbEntity
  8
BEMASSUNG
  6
Continuous
 62
     2
370
    -2
100
AcDbLine
 10
61.16655286652393
 20
135.2074460264026
 30
0.0
 11
49.39708036390491
 21
135.2074460264026
 31
0.0
  0
LINE
  5
A2
330
9F
100
AcDbEntity
  8
BEMASSUNG
  6
Continuous
 62
     2
370
    -2
100
AcDbLine
 10
61.16655286652394
 20
132.2074460264026
 30
0.0
 11
49.39708036390491
 21
132.2074460264026
 31
0.0
  0
LINE
  5
A3
330
9F
100
AcDbEntity
  8
BEMASSUNG
  6
Continuous
 62
     2
370
    -2
100
AcDbLine
 10
50.89708036390492
 20
140.4574460264026
 30
0.0
 11
50.89708036390493
 21
145.7074460264026
 31
0.0
  0
LINE
  5
A4
330
9F
100
AcDbEntity
  8
BEMASSUNG
  6
Continuous
 62
     2
370
    -2
100
AcDbLine
 10
50.89708036390492
 20
126.9574460264026
 30
0.0
 11
50.89708036390492
 21
121.7074460264026
 31
0.0
  0
LINE
  5
A5
330
9F
100
AcDbEntity
  8
BEMASSUNG
  6
Continuous
 62
     2
370
    -2
100
AcDbLine
 10
50.89708036390492
 20
135.2074460264026
 30
0.0
 11
50.89708036390492
 21
132.2074460264026
 31
0.0
  0
SOLID
  5
A6
330
9F
100
AcDbEntity
  8
BEMASSUNG
  6
Continuous
 62
     2
100
AcDbTrace
 10
50.02208036390491
 20
140.4574460264026
 30
0.0
 11
51.77208036390492
 21
140.4574460264026
 31
0.0
 12
50.89708036390492
 22
135.2074460264026
 32
0.0
 13
50.89708036390492
 23
135.2074460264026
 33
0.0
  0
SOLID
  5
A7
330
9F
100
AcDbEntity
  8
BEMASSUNG
  6
Continuous
 62
     2
100
AcDbTrace
 10
50.02208036390491
 20
126.9574460264026
 30
0.0
 11
51.77208036390492
 21
126.9574460264026
 31
0.0
 12
50.89708036390492
 22
132.2074460264026
 32
0.0
 13
50.89708036390492
 23
132.2074460264026
 33
0.0
  0
MTEXT
  5
A8
330
9F
100
AcDbEntity
  8
BEMASSUNG
  6
Continuous
 62
     3
100
AcDbMText
 10
46.77208036390489
 20
133.7074460264026
 30
0.0
 40
5.25
 41
0.0
 71
     5
 72
     1
  1
\A1;3
  7
NORM
 11
0.0000000000000001
 21
1.0
 31
0.0
 73
     1
 44
1.0
1001
ACAD
1000
MTEXTBEGIN
1070
    73
1070
     1
1070
    44
1040
1.0
1070
    74
1070
     0
1000
MTEXTEND
  0
POINT
  5
A9
330
9F
100
AcDbEntity
  8
DEFPOINTS
  6
Continuous
 62
     0
100
AcDbPoint
 10
61.91655286652394
 20
135.2074460264026
 30
0.0
  0
POINT
  5
AA
330
9F
100
AcDbEntity
  8
DEFPOINTS
  6
Continuous
 62
     0
100
AcDbPoint
 10
61.91655286652395
 20
132.2074460264026
 30
0.0
  0
POINT
  5
AB
330
9F
100
AcDbEntity
  8
DEFPOINTS
  6
Continuous
 62
     0
100
AcDbPoint
 10
50.89708036390492
 20
132.2074460264026
 30
0.0
  0
ENDBLK
  5
AC
330
9F
100
AcDbEntity
  8
0
100
AcDbBlockEnd
  0
BLOCK
  5
94
330
93
100
AcDbEntity
  8
0
100
AcDbBlockBegin
  2
*D9
 70
     1
 10
0.0
 20
0.0
 30
0.0
  3
*D9
  1

  0
LINE
  5
95
330
93
100
AcDbEntity
  8
BEMASSUNG
  6
Continuous
 62
     2
370
    -2
100
AcDbLine
 10
142.3765148612993
 20
211.9073721546456
 30
0.0
 11
123.0296893371155
 21
199.7022106589179
 31
0.0
  0
MTEXT
  5
96
330
93
100
AcDbEntity
  8
BEMASSUNG
  6
Continuous
 62
     3
100
AcDbMText
 10
132.7222988568514
 20
210.6941555254066
 30
0.0
 40
5.25
 41
0.0
 71
     5
 72
     1
  1
\A1;R0.5
  7
NORM
 11
0.8457628644451936
 21
0.5335589724908214
 31
0.0
 73
     1
 44
1.0
1001
ACAD
1000
MTEXTBEGIN
1070
    73
1070
     1
1070
    44
1040
1.0
1070
    74
1070
     0
1000
MTEXTEND
  0
LINE
  5
97
330
93
100
AcDbEntity
  8
BEMASSUNG
  6
Continuous
 62
     2
370
    -2
100
AcDbLine
 10
118.1665528665557
 20
196.6342465670958
 30
0.0
 11
118.5894342987783
 21
196.9010260533412
 31
0.0
  0
SOLID
  5
98
330
93
100
AcDbEntity
  8
BEMASSUNG
  6
Continuous
 62
     2
100
AcDbTrace
 10
122.5628252361861
 20
200.4422531653075
 30
0.0
 11
123.496553438045
 21
198.9621681525284
 31
0.0
 12
118.5894342987783
 22
196.9010260533412
 32
0.0
 13
118.5894342987783
 23
196.9010260533412
 33
0.0
  0
POINT
  5
99
330
93
100
AcDbEntity
  8
DEFPOINTS
  6
Continuous
 62
     0
100
AcDbPoint
 10
118.5894342987783
 20
196.9010260533412
 30
0.0
  0
POINT
  5
9A
330
93
100
AcDbEntity
  8
DEFPOINTS
  6
Continuous
 62
     0
100
AcDbPoint
 10
118.1665528665557
 20
196.6342465670958
 30
0.0
  0
ENDBLK
  5
9B
330
93
100
AcDbEntity
  8
0
100
AcDbBlockEnd
  0
BLOCK
  5
82
330
81
100
AcDbEntity
  8
0
100
AcDbBlockBegin
  2
*D10
 70
     1
 10
0.0
 20
0.0
 30
0.0
  3
*D10
  1

  0
LINE
  5
83
330
81
100
AcDbEntity
  8
BEMASSUNG
  6
Continuous
 62
     2
370
    -2
100
AcDbLine
 10
71.16655286655578
 20
204.3842465670965
 30
0.0
 11
49.39708036390493
 21
204.3842465670965
 31
0.0
  0
LINE
  5
84
330
81
100
AcDbEntity
  8
BEMASSUNG
  6
Continuous
 62
     2
370
    -2
100
AcDbLine
 10
71.16655286655578
 20
184.3842465670965
 30
0.0
 11
49.39708036390493
 21
184.3842465670965
 31
0.0
  0
LINE
  5
85
330
81
100
AcDbEntity
  8
BEMASSUNG
  6
Continuous
 62
     2
370
    -2
100
AcDbLine
 10
50.89708036390494
 20
199.1342465670965
 30
0.0
 11
50.89708036390494
 21
189.6342465670965
 31
0.0
  0
SOLID
  5
86
330
81
100
AcDbEntity
  8
BEMASSUNG
  6
Continuous
 62
     2
100
AcDbTrace
 10
50.02208036390493
 20
199.1342465670965
 30
0.0
 11
51.77208036390493
 21
199.1342465670965
 31
0.0
 12
50.89708036390494
 22
204.3842465670965
 32
0.0
 13
50.89708036390494
 23
204.3842465670965
 33
0.0
  0
SOLID
  5
87
330
81
100
AcDbEntity
  8
BEMASSUNG
  6
Continuous
 62
     2
100
AcDbTrace
 10
50.02208036390493
 20
189.6342465670965
 30
0.0
 11
51.77208036390493
 21
189.6342465670965
 31
0.0
 12
50.89708036390494
 22
184.3842465670965
 32
0.0
 13
50.89708036390494
 23
184.3842465670965
 33
0.0
  0
MTEXT
  5
88
330
81
100
AcDbEntity
  8
BEMASSUNG
  6
Continuous
 62
     3
100
AcDbMText
 10
46.7720803639049
 20
194.3842465670965
 30
0.0
 40
5.25
 41
0.0
 71
     5
 72
     1
  1
\A1;20
  7
NORM
 11
0.0000000000000001
 21
1.0
 31
0.0
 73
     1
 44
1.0
1001
ACAD
1000
MTEXTBEGIN
1070
    73
1070
     1
1070
    44
1040
1.0
1070
    74
1070
     0
1000
MTEXTEND
  0
POINT
  5
89
330
81
100
AcDbEntity
  8
DEFPOINTS
  6
Continuous
 62
     0
100
AcDbPoint
 10
71.91655286655578
 20
204.3842465670965
 30
0.0
  0
POINT
  5
8A
330
81
100
AcDbEntity
  8
DEFPOINTS
  6
Continuous
 62
     0
100
AcDbPoint
 10
71.91655286655578
 20
184.3842465670965
 30
0.0
  0
POINT
  5
8B
330
81
100
AcDbEntity
  8
DEFPOINTS
  6
Continuous
 62
     0
100
AcDbPoint
 10
50.89708036390494
 20
184.3842465670965
 30
0.0
  0
ENDBLK
  5
8C
330
81
100
AcDbEntity
  8
0
100
AcDbBlockEnd
  0
BLOCK
  5
73
330
72
100
AcDbEntity
  8
0
100
AcDbBlockBegin
  2
*D11
 70
     1
 10
0.0
 20
0.0
 30
0.0
  3
*D11
  1

  0
LINE
  5
74
330
72
100
AcDbEntity
  8
BEMASSUNG
  6
Continuous
 62
     2
370
    -2
100
AcDbLine
 10
118.9165528665557
 20
191.6342465670958
 30
0.0
 11
141.2925952570526
 21
191.6342465670958
 31
0.0
  0
LINE
  5
75
330
72
100
AcDbEntity
  8
BEMASSUNG
  6
Continuous
 62
     2
370
    -2
100
AcDbLine
 10
118.9165528665557
 20
197.1342465670958
 30
0.0
 11
141.2925952570527
 21
197.1342465670958
 31
0.0
  0
LINE
  5
76
330
72
100
AcDbEntity
  8
BEMASSUNG
  6
Continuous
 62
     2
370
    -2
100
AcDbLine
 10
139.7925952570526
 20
186.3842465670958
 30
0.0
 11
139.7925952570526
 21
181.1342465670958
 31
0.0
  0
LINE
  5
77
330
72
100
AcDbEntity
  8
BEMASSUNG
  6
Continuous
 62
     2
370
    -2
100
AcDbLine
 10
139.7925952570526
 20
202.3842465670958
 30
0.0
 11
139.7925952570526
 21
207.6342465670958
 31
0.0
  0
MTEXT
  5
78
330
72
100
AcDbEntity
  8
BEMASSUNG
  6
Continuous
 62
     3
100
AcDbMText
 10
135.6481860337546
 20
180.1149987860325
 30
0.0
 40
5.25
 41
0.0
 71
     5
 72
     1
  1
\A1;5.5{\H2.625000;\S+0.2^  0;}
  7
NORM
 11
0.0000000000000001
 21
1.0
 31
0.0
 73
     1
 44
1.0
1001
ACAD
1000
MTEXTBEGIN
1070
    73
1070
     1
1070
    44
1040
1.0
1070
    74
1070
     0
1000
MTEXTEND
  0
LINE
  5
79
330
72
100
AcDbEntity
  8
BEMASSUNG
  6
Continuous
 62
     2
370
    -2
100
AcDbLine
 10
139.7925952570526
 20
191.6342465670958
 30
0.0
 11
139.7925952570526
 21
197.1342465670958
 31
0.0
  0
SOLID
  5
7A
330
72
100
AcDbEntity
  8
BEMASSUNG
  6
Continuous
 62
     2
100
AcDbTrace
 10
138.9175952570526
 20
186.3842465670958
 30
0.0
 11
140.6675952570526
 21
186.3842465670958
 31
0.0
 12
139.7925952570526
 22
191.6342465670958
 32
0.0
 13
139.7925952570526
 23
191.6342465670958
 33
0.0
  0
SOLID
  5
7B
330
72
100
AcDbEntity
  8
BEMASSUNG
  6
Continuous
 62
     2
100
AcDbTrace
 10
138.9175952570527
 20
202.3842465670958
 30
0.0
 11
140.6675952570527
 21
202.3842465670958
 31
0.0
 12
139.7925952570526
 22
197.1342465670958
 32
0.0
 13
139.7925952570526
 23
197.1342465670958
 33
0.0
  0
POINT
  5
7C
330
72
100
AcDbEntity
  8
DEFPOINTS
  6
Continuous
 62
     0
100
AcDbPoint
 10
118.1665528665557
 20
191.6342465670958
 30
0.0
  0
POINT
  5
7D
330
72
100
AcDbEntity
  8
DEFPOINTS
  6
Continuous
 62
     0
100
AcDbPoint
 10
118.1665528665557
 20
197.1342465670958
 30
0.0
  0
POINT
  5
7E
330
72
100
AcDbEntity
  8
DEFPOINTS
  6
Continuous
 62
     0
100
AcDbPoint
 10
139.7925952570526
 20
197.1342465670958
 30
0.0
  0
ENDBLK
  5
7F
330
72
100
AcDbEntity
  8
0
100
AcDbBlockEnd
  0
BLOCK
  5
65
330
64
100
AcDbEntity
  8
0
100
AcDbBlockBegin
  2
*D12
 70
     1
 10
0.0
 20
0.0
 30
0.0
  3
*D12
  1

  0
LINE
  5
66
330
64
100
AcDbEntity
  8
BEMASSUNG
  6
Continuous
 62
     2
370
    -2
100
AcDbLine
 10
105.1665528665557
 20
191.3842465670958
 30
0.0
 11
105.1665528665557
 21
167.6415724875831
 31
0.0
  0
LINE
  5
67
330
64
100
AcDbEntity
  8
BEMASSUNG
  6
Continuous
 62
     2
370
    -2
100
AcDbLine
 10
118.6665528665557
 20
191.3842465670958
 30
0.0
 11
118.6665528665557
 21
167.6415724875831
 31
0.0
  0
LINE
  5
68
330
64
100
AcDbEntity
  8
BEMASSUNG
  6
Continuous
 62
     2
370
    -2
100
AcDbLine
 10
110.4165528665557
 20
169.1415724875831
 30
0.0
 11
113.4165528665557
 21
169.1415724875831
 31
0.0
  0
MTEXT
  5
69
330
64
100
AcDbEntity
  8
BEMASSUNG
  6
Continuous
 62
     3
100
AcDbMText
 10
101.7873143911933
 20
173.9797518157884
 30
0.0
 40
5.25
 41
0.0
 71
     5
 72
     1
  1
\A1;13.5{\H2.625000;\S+0.3^  0;}
  7
NORM
 73
     1
 44
1.0
1001
ACAD
1000
MTEXTBEGIN
1070
    73
1070
     1
1070
    44
1040
1.0
1070
    74
1070
     0
1000
MTEXTEND
  0
SOLID
  5
6A
330
64
100
AcDbEntity
  8
BEMASSUNG
  6
Continuous
 62
     2
100
AcDbTrace
 10
110.4165528665557
 20
170.0165724875831
 30
0.0
 11
110.4165528665557
 21
168.2665724875832
 31
0.0
 12
105.1665528665557
 22
169.1415724875831
 32
0.0
 13
105.1665528665557
 23
169.1415724875831
 33
0.0
  0
SOLID
  5
6B
330
64
100
AcDbEntity
  8
BEMASSUNG
  6
Continuous
 62
     2
100
AcDbTrace
 10
113.4165528665557
 20
170.0165724875831
 30
0.0
 11
113.4165528665557
 21
168.2665724875832
 31
0.0
 12
118.6665528665557
 22
169.1415724875831
 32
0.0
 13
118.6665528665557
 23
169.1415724875831
 33
0.0
  0
POINT
  5
6C
330
64
100
AcDbEntity
  8
DEFPOINTS
  6
Continuous
 62
     0
100
AcDbPoint
 10
105.1665528665557
 20
192.1342465670958
 30
0.0
  0
POINT
  5
6E
330
64
100
AcDbEntity
  8
DEFPOINTS
  6
Continuous
 62
     0
100
AcDbPoint
 10
118.6665528665557
 20
192.1342465670958
 30
0.0
  0
POINT
  5
6F
330
64
100
AcDbEntity
  8
DEFPOINTS
  6
Continuous
 62
     0
100
AcDbPoint
 10
118.6665528665557
 20
169.1415724875831
 30
0.0
  0
ENDBLK
  5
70
330
64
100
AcDbEntity
  8
0
100
AcDbBlockEnd
  0
BLOCK
  5
15E
330
15D
100
AcDbEntity
  8
0
100
AcDbBlockBegin
  2
_ACMFILLED15
 70
     0
 10
0.0
 20
0.0
 30
0.0
  3
_ACMFILLED15
  1

  0
TRACE
  5
15F
330
15D
100
AcDbEntity
  8
UMRISS05
  6
Continuous
 62
     0
100
AcDbTrace
 10
-1.0
 20
-0.131652497
 30
0.0
 11
-1.0
 21
0.131652497
 31
0.0
 12
0.0
 22
0.0
 32
0.0
 13
0.0
 23
0.0
 33
0.0
  0
ENDBLK
  5
160
330
15D
100
AcDbEntity
  8
0
100
AcDbBlockEnd
  0
BLOCK
  5
16C
330
16B
100
AcDbEntity
  8
0
100
AcDbBlockBegin
  2
_ACMFILLED30
 70
     0
 10
0.0
 20
0.0
 30
0.0
  3
_ACMFILLED30
  1

  0
TRACE
  5
16D
330
16B
100
AcDbEntity
  8
UMRISS05
  6
Continuous
 62
     0
100
AcDbTrace
 10
-1.0
 20
-0.26794919
 30
0.0
 11
-1.0
 21
0.26794919
 31
0.0
 12
0.0
 22
0.0
 32
0.0
 13
0.0
 23
0.0
 33
0.0
  0
ENDBLK
  5
16E
330
16B
100
AcDbEntity
  8
0
100
AcDbBlockEnd
  0
ENDSEC
  0
SECTION
  2
ENTITIES
  0
DIMENSION
  5
62
330
2
100
AcDbEntity
  8
BEMASSUNG
  6
Continuous
100
AcDbDimension
  2
*D12
 10
118.6665528665557
 20
169.1415724875831
 30
0.0
 11
101.7873143911933
 21
173.9797518157884
 31
0.0
 70
   128
 71
     5
 42
13.5
  3
PROSPEKT
100
AcDbAlignedDimension
 13
105.1665528665557
 23
192.1342465670958
 33
0.0
 14
118.6665528665557
 24
192.1342465670958
 34
0.0
100
AcDbRotatedDimension
1001
ACAD
1000
DSTYLE
1002
{
1070
    47
1040
0.3
1070
    71
1070
     1
1002
}
  0
DIMENSION
  5
71
330
2
100
AcDbEntity
  8
BEMASSUNG
  6
Continuous
100
AcDbDimension
  2
*D11
 10
139.7925952570526
 20
197.1342465670958
 30
0.0
 11
135.6481860337546
 21
180.1149987860325
 31
0.0
 70
   128
 71
     5
 42
5.5
  3
PROSPEKT
100
AcDbAlignedDimension
 13
118.1665528665557
 23
191.6342465670958
 33
0.0
 14
118.1665528665557
 24
197.1342465670958
 34
0.0
 50
90.0
100
AcDbRotatedDimension
1001
ACAD
1000
DSTYLE
1002
{
1070
    47
1040
0.2
1070
    71
1070
     1
1002
}
  0
DIMENSION
  5
80
330
2
100
AcDbEntity
  8
BEMASSUNG
  6
Continuous
100
AcDbDimension
  2
*D10
 10
50.89708036390494
 20
184.3842465670965
 30
0.0
 11
46.7720803639049
 21
194.3842465670965
 31
0.0
 71
     5
 42
20.0
  3
PROSPEKT
100
AcDbAlignedDimension
 13
71.91655286655578
 23
204.3842465670965
 33
0.0
 14
71.91655286655578
 24
184.3842465670965
 34
0.0
 50
90.0
100
AcDbRotatedDimension
  0
LINE
  5
8D
330
2
100
AcDbEntity
  8
UMRISS07
  6
Continuous
100
AcDbLine
 10
71.91655286655578
 20
184.3842465670965
 30
0.0
 11
111.9165528665557
 21
184.3842465670958
 31
0.0
  0
LINE
  5
8F
330
2
100
AcDbEntity
  8
UMRISS07
  6
Continuous
100
AcDbLine
 10
71.91655286655578
 20
204.3842465670965
 30
0.0
 11
111.9165528665557
 21
204.3842465670958
 31
0.0
  0
ARC
  5
90
330
2
100
AcDbEntity
  8
UMRISS07
  6
Continuous
100
AcDbCircle
 10
111.9165528665557
 20
194.3842465670958
 30
0.0
 40
10.0
100
AcDbArc
 50
269.999999999999
 51
89.99999999999902
  0
ARC
  5
91
330
2
100
AcDbEntity
  8
UMRISS07
  6
Continuous
100
AcDbCircle
 10
71.91655286655578
 20
194.3842465670965
 30
0.0
 40
10.0
100
AcDbArc
 50
89.99999999999902
 51
269.999999999999
  0
DIMENSION
  5
92
330
2
100
AcDbEntity
  8
BEMASSUNG
  6
Continuous
100
AcDbDimension
  2
*D9
 10
118.1665528665557
 20
196.6342465670958
 30
0.0
 11
132.7222988568514
 21
210.6941555254066
 31
0.0
 70
     4
 71
     5
 42
0.4999999999999716
  3
PROSPEKT
100
AcDbRadialDimension
 15
118.5894342987783
 25
196.9010260533412
 35
0.0
 40
0.0
  0
LINE
  5
9C
102
{ACAD_REACTORS
330
133
102
}
330
2
100
AcDbEntity
  8
UMRISS07
  6
Continuous
100
AcDbLine
 10
118.6665528665557
 20
135.2074460264026
 30
0.0
 11
118.6665528665558
 21
132.2074460264026
 31
0.0
  0
LINE
  5
9D
102
{ACAD_REACTORS
330
133
102
}
330
2
100
AcDbEntity
  8
UMRISS07
  6
Continuous
100
AcDbLine
 10
105.1665528665557
 20
135.2074460264027
 30
0.0
 11
105.1665528665558
 21
132.2074460264026
 31
0.0
  0
DIMENSION
  5
9E
330
2
100
AcDbEntity
  8
BEMASSUNG
  6
Continuous
100
AcDbDimension
  2
*D8
 10
50.89708036390492
 20
132.2074460264026
 30
0.0
 11
46.77208036390489
 21
133.7074460264026
 31
0.0
 71
     5
 42
3.0
  3
PROSPEKT
100
AcDbAlignedDimension
 13
61.91655286652394
 23
135.2074460264026
 33
0.0
 14
61.91655286652395
 24
132.2074460264026
 34
0.0
 50
90.0
100
AcDbRotatedDimension
  0
DIMENSION
  5
AD
330
2
100
AcDbEntity
  8
BEMASSUNG
  6
Continuous
100
AcDbDimension
  2
*D6
 10
76.66655286652394
 20
115.9878011361868
 30
0.0
 11
92.24266244272849
 21
120.8459559631146
 31
0.0
 70
   128
  1
%%c<>x90%%d
 71
     5
 42
9.5
  3
PROSPEKT
100
AcDbAlignedDimension
 13
67.16655286652394
 23
132.2074460264026
 33
0.0
 14
76.66655286652394
 24
132.2074460264026
 34
0.0
100
AcDbRotatedDimension
  0
DIMENSION
  5
BC
330
2
100
AcDbEntity
  8
BEMASSUNG
  6
Continuous
100
AcDbDimension
  2
*D5
 10
61.91655286655578
 20
218.2673590168698
 30
0.0
 11
66.91655286655578
 21
222.3923590168698
 31
0.0
 71
     5
 42
9.999999999999985
  3
PROSPEKT
100
AcDbAlignedDimension
 13
71.91655286655576
 23
207.3842465670958
 33
0.0
 14
61.91655286655578
 24
197.8842465670958
 34
0.0
100
AcDbRotatedDimension
  0
DIMENSION
  5
CB
330
2
100
AcDbEntity
  8
BEMASSUNG
  6
Continuous
100
AcDbDimension
  2
*D4
 10
121.9165528665558
 20
218.2673590168698
 30
0.0
 11
116.9165528665558
 21
222.3923590168698
 31
0.0
 71
     5
 42
10.00000000000001
  3
PROSPEKT
100
AcDbAlignedDimension
 13
111.9165528665557
 23
207.3842465670958
 33
0.0
 14
121.9165528665558
 24
197.8842465670958
 34
0.0
100
AcDbRotatedDimension
  0
DIMENSION
  5
DA
330
2
100
AcDbEntity
  8
BEMASSUNG
  6
Continuous
100
AcDbDimension
  2
*D7
 10
74.51655286652385
 20
148.8620384613325
 30
0.0
 11
88.78200498463479
 21
153.6135330388273
 31
0.0
 70
   128
  1
%%c<>
 71
     5
 42
5.199999999999931
  3
PROSPEKT
100
AcDbAlignedDimension
 13
69.31655286652392
 23
135.2074460264026
 33
0.0
 14
74.51655286652385
 24
135.2074460264026
 34
0.0
100
AcDbRotatedDimension
  0
DIMENSION
  5
E9
330
2
100
AcDbEntity
  8
BEMASSUNG
  6
Continuous
100
AcDbDimension
  2
*D1
 10
121.9165528665558
 20
233.0573590168698
 30
0.0
 11
91.91655286655578
 21
237.1823590168698
 31
0.0
 71
     5
 42
60.0
  3
PROSPEKT
100
AcDbAlignedDimension
 13
61.91655286655578
 23
194.3842465670958
 33
0.0
 14
121.9165528665558
 24
194.3842465670958
 34
0.0
100
AcDbRotatedDimension
  0
DIMENSION
  5
F6
330
2
100
AcDbEntity
  8
BEMASSUNG
  6
Continuous
100
AcDbDimension
  2
*D3
 10
111.9165528665557
 20
218.2673590168698
 30
0.0
 11
101.9165528665558
 21
222.3923590168698
 31
0.0
 71
     5
 42
20.0
  3
PROSPEKT
100
AcDbAlignedDimension
 13
91.91655286655578
 23
207.3860584628274
 33
0.0
 14
111.9165528665557
 24
207.3860584628274
 34
0.0
100
AcDbRotatedDimension
  0
DIMENSION
  5
103
330
2
100
AcDbEntity
  8
BEMASSUNG
  6
Continuous
100
AcDbDimension
  2
*D2
 10
91.91655286655578
 20
218.2673590168698
 30
0.0
 11
81.91655286655578
 21
222.3923590168698
 31
0.0
 71
     5
 42
20.0
  3
PROSPEKT
100
AcDbAlignedDimension
 13
71.91655286655578
 23
207.3860584628274
 33
0.0
 14
91.91655286655578
 24
207.3860584628274
 34
0.0
100
AcDbRotatedDimension
  0
ARC
  5
110
330
2
100
AcDbEntity
  8
UMRISS07
  6
Continuous
100
AcDbCircle
 10
105.6665528665557
 20
196.6342465670958
 30
0.0
 40
0.5
100
AcDbArc
 50
90.0
 51
180.0
  0
LINE
  5
111
330
2
100
AcDbEntity
  8
UMRISS07
  6
Continuous
100
AcDbLine
 10
105.1665528665557
 20
196.6342465670958
 30
0.0
 11
105.1665528665557
 21
192.1342465670958
 31
0.0
  0
ARC
  5
112
330
2
100
AcDbEntity
  8
UMRISS07
  6
Continuous
100
AcDbCircle
 10
118.1665528665557
 20
192.1342465670958
 30
0.0
 40
0.5
100
AcDbArc
 50
270.0000000000001
 51
0.0
  0
ARC
  5
113
330
2
100
AcDbEntity
  8
UMRISS07
  6
Continuous
100
AcDbCircle
 10
118.1665528665557
 20
196.6342465670958
 30
0.0
 40
0.5
100
AcDbArc
 50
0.0
 51
90.0
  0
LINE
  5
114
330
2
100
AcDbEntity
  8
UMRISS07
  6
Continuous
100
AcDbLine
 10
118.6665528665557
 20
196.6342465670958
 30
0.0
 11
118.6665528665557
 21
192.1342465670958
 31
0.0
  0
LINE
  5
115
330
2
100
AcDbEntity
  8
ACHSEN
  6
STRICHPUNKT
100
AcDbLine
 10
111.9165528665557
 20
207.3842465670958
 30
0.0
 11
111.9165528665557
 21
181.3842465670958
 31
0.0
  0
LINE
  5
118
330
2
100
AcDbEntity
  8
UMRISS07
  6
Continuous
100
AcDbLine
 10
105.6665528665557
 20
197.1342465670958
 30
0.0
 11
118.1665528665557
 21
197.1342465670958
 31
0.0
  0
ARC
  5
119
330
2
100
AcDbEntity
  8
UMRISS07
  6
Continuous
100
AcDbCircle
 10
105.6665528665557
 20
192.1342465670958
 30
0.0
 40
0.5
100
AcDbArc
 50
180.0
 51
270.0
  0
LINE
  5
11A
330
2
100
AcDbEntity
  8
UMRISS07
  6
Continuous
100
AcDbLine
 10
105.6665528665557
 20
191.6342465670958
 30
0.0
 11
118.1665528665557
 21
191.6342465670958
 31
0.0
  0
LINE
  5
11B
330
2
100
AcDbEntity
  8
ACHSEN
  6
STRICHPUNKT
100
AcDbLine
 10
58.91655286655577
 20
194.3842465670958
 30
0.0
 11
124.9165528665558
 21
194.3842465670958
 31
0.0
  0
LINE
  5
11C
330
2
100
AcDbEntity
  8
ACHSEN
  6
STRICHPUNKT
100
AcDbLine
 10
71.91655286655576
 20
207.3842465670965
 30
0.0
 11
71.91655286655578
 21
181.3842465670965
 31
0.0
  0
LINE
  5
11D
330
2
100
AcDbEntity
  8
ACHSEN
  6
STRICHPUNKT
100
AcDbLine
 10
91.91655286655572
 20
207.3842465670961
 30
0.0
 11
91.9165528665558
 21
181.3842465670962
 31
0.0
  0
LINE
  5
11E
330
2
100
AcDbEntity
  8
ACHSEN
  6
STRICHPUNKT
100
AcDbLine
 10
111.9165528665239
 20
138.2074460264026
 30
0.0
 11
111.9165528665239
 21
129.2074460264026
 31
0.0
  0
LINE
  5
11F
330
2
100
AcDbEntity
  8
ACHSEN
  6
STRICHPUNKT
100
AcDbLine
 10
91.91655286652393
 20
138.2074460264026
 30
0.0
 11
91.91655286652395
 21
129.2074460264026
 31
0.0
  0
LINE
  5
120
330
2
100
AcDbEntity
  8
ACHSEN
  6
STRICHPUNKT
100
AcDbLine
 10
71.91655286652395
 20
138.2074460264026
 30
0.0
 11
71.91655286652393
 21
129.2074460264026
 31
0.0
  0
CIRCLE
  5
121
330
2
100
AcDbEntity
  8
UMRISS07
  6
Continuous
100
AcDbCircle
 10
91.91655286655578
 20
194.3842465670965
 30
0.0
 40
2.6
  0
CIRCLE
  5
122
330
2
100
AcDbEntity
  8
UMRISS07
  6
Continuous
100
AcDbCircle
 10
71.91655286655578
 20
194.3842465670965
 30
0.0
 40
2.6
  0
CIRCLE
  5
123
330
2
100
AcDbEntity
  8
UMRISS07
  6
Continuous
100
AcDbCircle
 10
71.91655286655578
 20
194.3842465670958
 30
0.0
 40
4.75
  0
CIRCLE
  5
124
330
2
100
AcDbEntity
  8
UMRISS07
  6
Continuous
100
AcDbCircle
 10
91.91655286655578
 20
194.3842465670958
 30
0.0
 40
4.75
  0
LINE
  5
125
330
2
100
AcDbEntity
  8
UMRISS07
  6
Continuous
100
AcDbLine
 10
69.31655286652392
 20
134.3574460264027
 30
0.0
 11
74.51655286652385
 21
134.3574460264027
 31
0.0
  0
LINE
  5
126
330
2
100
AcDbEntity
  8
UMRISS07
  6
Continuous
100
AcDbLine
 10
89.31655286652391
 20
134.3574460264027
 30
0.0
 11
94.51655286652385
 21
134.3574460264027
 31
0.0
  0
LINE
  5
127
102
{ACAD_REACTORS
330
133
102
}
330
2
100
AcDbEntity
  8
UMRISS07
  6
Continuous
100
AcDbLine
 10
96.66655286652394
 20
132.2074460264026
 30
0.0
 11
94.51655286652385
 21
134.3574460264027
 31
0.0
  0
LINE
  5
128
102
{ACAD_REACTORS
330
133
102
}
330
2
100
AcDbEntity
  8
UMRISS07
  6
Continuous
100
AcDbLine
 10
94.51655286652385
 20
134.3574460264027
 30
0.0
 11
94.51655286652384
 21
135.2074460264026
 31
0.0
  0
LINE
  5
129
102
{ACAD_REACTORS
330
133
102
}
330
2
100
AcDbEntity
  8
UMRISS07
  6
Continuous
100
AcDbLine
 10
61.91655286652394
 20
135.2074460264026
 30
0.0
 11
121.9165528665239
 21
135.2074460264026
 31
0.0
  0
LINE
  5
12A
102
{ACAD_REACTORS
330
133
102
}
330
2
100
AcDbEntity
  8
UMRISS07
  6
Continuous
100
AcDbLine
 10
121.9165528665239
 20
135.2074460264026
 30
0.0
 11
121.9165528665239
 21
132.2074460264026
 31
0.0
  0
LINE
  5
12B
102
{ACAD_REACTORS
330
133
102
}
330
2
100
AcDbEntity
  8
UMRISS07
  6
Continuous
100
AcDbLine
 10
76.66655286652394
 20
132.2074460264026
 30
0.0
 11
74.51655286652385
 21
134.3574460264027
 31
0.0
  0
LINE
  5
12C
102
{ACAD_REACTORS
330
133
102
}
330
2
100
AcDbEntity
  8
UMRISS07
  6
Continuous
100
AcDbLine
 10
74.51655286652385
 20
134.3574460264027
 30
0.0
 11
74.51655286652385
 21
135.2074460264026
 31
0.0
  0
LINE
  5
12D
102
{ACAD_REACTORS
330
133
102
}
330
2
100
AcDbEntity
  8
UMRISS07
  6
Continuous
100
AcDbLine
 10
89.31655286652391
 20
135.2074460264026
 30
0.0
 11
89.31655286652391
 21
134.3574460264027
 31
0.0
  0
LINE
  5
12E
102
{ACAD_REACTORS
330
133
102
}
330
2
100
AcDbEntity
  8
UMRISS07
  6
Continuous
100
AcDbLine
 10
89.31655286652391
 20
134.3574460264027
 30
0.0
 11
87.16655286652395
 21
132.2074460264026
 31
0.0
  0
LINE
  5
12F
102
{ACAD_REACTORS
330
133
102
}
330
2
100
AcDbEntity
  8
UMRISS07
  6
Continuous
100
AcDbLine
 10
61.91655286652395
 20
132.2074460264026
 30
0.0
 11
61.91655286652394
 21
135.2074460264026
 31
0.0
  0
LINE
  5
130
102
{ACAD_REACTORS
330
133
102
}
330
2
100
AcDbEntity
  8
UMRISS07
  6
Continuous
100
AcDbLine
 10
69.31655286652392
 20
135.2074460264026
 30
0.0
 11
69.31655286652392
 21
134.3574460264027
 31
0.0
  0
LINE
  5
131
102
{ACAD_REACTORS
330
133
102
}
330
2
100
AcDbEntity
  8
UMRISS07
  6
Continuous
100
AcDbLine
 10
69.31655286652392
 20
134.3574460264027
 30
0.0
 11
67.16655286652394
 21
132.2074460264026
 31
0.0
  0
LINE
  5
132
102
{ACAD_REACTORS
330
133
102
}
330
2
100
AcDbEntity
  8
UMRISS07
  6
Continuous
100
AcDbLine
 10
121.9165528665239
 20
132.2074460264026
 30
0.0
 11
61.91655286652395
 21
132.2074460264026
 31
0.0
  0
HATCH
  5
133
330
2
100
AcDbEntity
  8
SCHRAFFUR
  6
Continuous
100
AcDbHatch
 10
0.0
 20
0.0
 30
0.0
210
0.0
220
0.0
230
1.0
  2
ANSI31
 70
     0
 71
     1
 91
        4
 92
        7
 72
     0
 73
     1
 93
        5
 10
67.16655286652397
 20
132.2074460264027
 10
69.31655286652392
 20
134.3574460264027
 10
69.31655286652392
 20
135.2074460264026
 10
61.91655286652394
 20
135.2074460264026
 10
61.91655286652395
 20
132.2074460264026
 97
        5
330
130
330
129
330
12F
330
132
330
131
 92
        7
 72
     0
 73
     1
 93
        6
 10
74.51655286652385
 20
135.2074460264026
 10
74.51655286652386
 20
134.3574460264027
 10
76.66655286652392
 20
132.2074460264026
 10
87.16655286652395
 20
132.2074460264026
 10
89.31655286652391
 20
134.3574460264027
 10
89.31655286652393
 20
135.2074460264026
 97
        6
330
12D
330
129
330
12C
330
12B
330
132
330
12E
 92
        7
 72
     0
 73
     1
 93
        5
 10
94.51655286652382
 20
135.2074460264026
 10
94.51655286652385
 20
134.3574460264027
 10
96.66655286652396
 20
132.2074460264026
 10
105.1665528665558
 20
132.2074460264027
 10
105.1665528665558
 20
135.2074460264026
 97
        5
330
129
330
128
330
127
330
132
330
9D
 92
        7
 72
     0
 73
     1
 93
        4
 10
118.6665528665557
 20
135.2074460264026
 10
118.6665528665558
 20
132.2074460264026
 10
121.9165528665239
 20
132.2074460264026
 10
121.9165528665239
 20
135.2074460264026
 97
        4
330
129
330
9C
330
132
330
12A
 75
     0
 76
     1
 52
0.0
 41
0.5
 77
     0
 78
     1
 53
45.0
 43
0.0
 44
16.62733174177037
 45
-1.122532015133643
 46
1.122532015133644
 79
     0
 47
0.0709142120898061
 98
        4
 10
64.02533633523603
 20
133.3581077419612
 10
82.68376521043547
 20
133.7126787700899
 10
101.2003056161088
 20
134.0672497982185
 10
119.7877902565451
 20
134.2799925505476
1001
ACAD
1010
0.0
1020
0.0
1030
0.0
  0
ENDSEC
  0
SECTION
  2
OBJECTS
  0
DICTIONARY
  5
9
330
0
100
AcDbDictionary
281
     1
  3
ACAD_2007HEADERVARS_RT
350
1C4
  3
ACAD_COLOR
350
47
  3
ACAD_DETAILVIEWSTYLE
350
157
  3
ACAD_FIELDLIST
350
18C
  3
ACAD_GROUP
350
34
  3
ACAD_LAYOUT
350
16
  3
ACAD_MATERIAL
350
B
  3
ACAD_MLEADERSTYLE
350
4A
  3
ACAD_MLINESTYLE
350
35
  3
ACAD_PLOTSETTINGS
350
36
  3
ACAD_PLOTSTYLENAME
350
8
  3
ACAD_SCALELIST
350
48
  3
ACAD_SECTIONVIEWSTYLE
350
165
  3
ACAD_TABLESTYLE
350
49
  3
ACAD_VISUALSTYLE
350
2B
  3
ACDB_RECOMPOSE_DATA
350
1C3
  3
AcDbVariableDictionary
350
1B5
  3
AcmDictionary
350
146
  3
AMG
350
137
  0
DICTIONARY
  5
1C
330
1B
100
AcDbDictionary
280
     1
281
     1
  3
ACAD_LAYERFILTERS
360
1D
  3
ACLYDICTIONARY
360
1E
  0
DICTIONARY
  5
3
330
2
100
AcDbDictionary
280
     1
281
     1
  3
ACAD_SORTENTS
360
135
  0
DICTIONARY
  5
1C4
102
{ACAD_REACTORS
330
9
102
}
330
9
100
AcDbDictionary
281
     1
  3
DIMJOGANG
350
1C5
  0
DICTIONARY
  5
47
102
{ACAD_REACTORS
330
9
102
}
330
9
100
AcDbDictionary
281
     1
  0
DICTIONARY
  5
157
102
{ACAD_REACTORS
330
9
102
}
330
9
100
AcDbDictionary
281
     1
  3
Metric50
350
162
  0
FIELDLIST
  5
18C
102
{ACAD_REACTORS
330
9
102
}
330
9
100
AcDbIdSet
 90
        6
330
15A
330
15B
330
15C
330
168
330
169
330
16A
100
AcDbFieldList
  0
DICTIONARY
  5
34
102
{ACAD_REACTORS
330
9
102
}
330
9
100
AcDbDictionary
281
     1
  0
DICTIONARY
  5
16
102
{ACAD_REACTORS
330
9
102
}
330
9
100
AcDbDictionary
281
     1
  3
Layout1
350
1A
  3
Model
350
15
  0
DICTIONARY
  5
B
102
{ACAD_REACTORS
330
9
102
}
330
9
100
AcDbDictionary
281
     1
  3
ByBlock
350
3F
  3
ByLayer
350
37
  3
Global
350
A
  0
DICTIONARY
  5
4A
102
{ACAD_REACTORS
330
9
102
}
330
9
100
AcDbDictionary
281
     1
  0
DICTIONARY
  5
35
102
{ACAD_REACTORS
330
9
102
}
330
9
100
AcDbDictionary
281
     1
  3
STANDARD
350
4D
  0
DICTIONARY
  5
36
102
{ACAD_REACTORS
330
9
102
}
330
9
100
AcDbDictionary
281
     1
  0
ACDBDICTIONARYWDFLT
  5
8
102
{ACAD_REACTORS
330
9
102
}
330
9
100
AcDbDictionary
281
     1
  3
Normal
350
7
100
AcDbDictionaryWithDefault
340
7
  0
DICTIONARY
  5
48
102
{ACAD_REACTORS
330
9
102
}
330
9
100
AcDbDictionary
281
     1
  3
A0
350
51
  3
A1
350
52
  3
A2
350
53
  3
A3
350
54
  3
A4
350
55
  3
A5
350
56
  3
A6
350
57
  3
A7
350
58
  3
A8
350
59
  3
A9
350
5A
  3
B0
350
5B
  3
B1
350
5C
  3
B2
350
5D
  3
B3
350
5E
  3
B4
350
5F
  3
B5
350
60
  3
B6
350
61
  0
DICTIONARY
  5
165
102
{ACAD_REACTORS
330
9
102
}
330
9
100
AcDbDictionary
281
     1
  3
Metric50
350
170
  0
DICTIONARY
  5
49
102
{ACAD_REACTORS
330
9
102
}
330
9
100
AcDbDictionary
281
     1
  3
Standard
350
4E
  0
DICTIONARY
  5
2B
102
{ACAD_REACTORS
330
9
102
}
330
9
100
AcDbDictionary
281
     1
  3
2dWireframe
350
2A
  3
Realistic
350
4F
  3
Wireframe
350
50
  0
XRECORD
  5
1C3
102
{ACAD_REACTORS
330
9
102
}
330
9
100
AcDbXrecord
280
     1
 90
        1
330
4E
  0
DICTIONARY
  5
1B5
102
{ACAD_REACTORS
330
9
102
}
330
9
100
AcDbDictionary
281
     1
  3
CANNOSCALE
350
1BA
  3
CMLEADERSTYLE
350
1B7
  3
CTABLESTYLE
350
1B6
  3
CVIEWDETAILSTYLE
350
1B8
  3
CVIEWSECTIONSTYLE
350
1B9
  3
DIMASSOC
350
1BF
  3
HIDETEXT
350
1BD
  3
INDEXCTL
350
1BC
  3
SORTENTS
350
1BB
  3
XCLIPFRAME
350
1BE
  0
DICTIONARY
  5
146
102
{ACAD_REACTORS
330
9
102
}
330
9
100
AcDbDictionary
281
     1
  3
AcmStdDictionary
350
147
  0
DICTIONARY
  5
137
102
{ACAD_REACTORS
330
9
102
}
330
9
100
AcDbDictionary
281
     1
  3
AcMgSettings
350
141
  0
DICTIONARY
  5
1D
102
{ACAD_REACTORS
330
1C
102
}
330
1C
100
AcDbDictionary
281
     1
  0
DICTIONARY
  5
1E
102
{ACAD_REACTORS
330
1C
102
}
330
1C
100
AcDbDictionary
281
     1
1001
ACAD
1000
<All
  0
SORTENTSTABLE
  5
135
102
{ACAD_REACTORS
330
3
102
}
330
3
100
AcDbSortentsTable
330
2
331
103
  5
122
331
112
  5
11F
331
90
  5
12E
331
121
  5
110
331
130
  5
8D
331
11F
  5
112
331
12E
  5
90
331
115
  5
11C
331
124
  5
E9
331
133
  5
62
331
127
  5
BC
331
118
  5
11B
331
11B
  5
118
331
12A
  5
9D
331
71
  5
132
331
E9
  5
124
331
111
  5
120
331
120
  5
111
331
DA
  5
125
331
80
  5
131
331
8F
  5
12F
331
9E
  5
129
331
AD
  5
128
331
11E
  5
113
331
12D
  5
91
331
BC
  5
127
331
CB
  5
126
331
62
  5
133
331
114
  5
11D
331
123
  5
F6
331
132
  5
71
331
92
  5
12C
331
F6
  5
123
331
126
  5
CB
331
11A
  5
119
331
129
  5
9E
331
110
  5
121
331
9D
  5
12A
331
11D
  5
114
331
12C
  5
92
331
113
  5
11E
331
91
  5
12D
331
122
  5
103
331
131
  5
80
331
12F
  5
8F
331
125
  5
DA
331
128
  5
AD
331
119
  5
11A
331
8D
  5
130
331
9C
  5
12B
331
11C
  5
115
331
12B
  5
9C
  0
XRECORD
  5
1C5
102
{ACAD_REACTORS
330
1C4
102
}
330
1C4
100
AcDbXrecord
280
     1
 40
1.570796326794896
  0
ACDBDETAILVIEWSTYLE
  5
162
102
{ACAD_XDICTIONARY
360
1D4
102
}
102
{ACAD_REACTORS
330
157
330
161
102
}
330
157
100
AcDbModelDocViewStyle
 70
     0
  3
Metric50
290
     0
100
AcDbDetailViewStyle
 70
     0
 71
     0
 90
        3
 71
     1
340
21
 40
5.0
340
0
 40
5.0
300

 40
0.0
280
     1
 71
     2
340
13
 90
       25
 71
     3
340
21
 40
5.0
 90
        0
 40
15.0
 90
        1
300
%<\AcVar ViewDetailId>% (%<\AcVar ViewScale \f "%sn">%)
 71
     4
340
13
 90
       25
340
13
 90
       25
280
     0
  0
LAYOUT
  5
1A
102
{ACAD_XDICTIONARY
360
1C9
102
}
102
{ACAD_REACTORS
330
16
102
}
330
16
100
AcDbPlotSettings
  1

  2
G:\VORLAGEN\AutoCAD2002\Plotten\A3hoch-MSL.pc3
  4

  6

 40
0.0
 41
0.0
 42
0.0
 43
0.0
 44
0.0
 45
0.0
 46
0.0
 47
0.0
 48
0.0
 49
0.0
140
0.0
141
0.0
142
1.0
143
1.0
 70
   688
 72
     0
 73
     0
 74
     5
  7
monochrome.ctb
 75
    16
147
1.0
148
0.0
149
0.0
100
AcDbLayout
  1
Layout1
 70
     1
 71
     1
 10
0.0
 20
0.0
 11
12.0
 21
9.0
 12
0.0
 22
0.0
 32
0.0
 14
1.000000000000000E+20
 24
1.000000000000000E+20
 34
1.000000000000000E+20
 15
-1.000000000000000E+20
 25
-1.000000000000000E+20
 35
-1.000000000000000E+20
146
0.0
 13
0.0
 23
0.0
 33
0.0
 16
1.0
 26
0.0
 36
0.0
 17
0.0
 27
1.0
 37
0.0
 76
     0
330
17
  0
LAYOUT
  5
15
102
{ACAD_XDICTIONARY
360
1C7
102
}
102
{ACAD_REACTORS
330
16
102
}
330
16
100
AcDbPlotSettings
  1

  2
G:\VORLAGEN\AutoCAD2002\Plotten\A3hoch-MSL.pc3
  4
A3
  6

 40
6.085416793823242
 41
6.12772798538208
 42
5.662078857421875
 43
5.53509521484375
 44
296.9683227539062
 45
419.9889831542968
 46
0.0
 47
0.0
 48
0.0
 49
0.0
140
0.0
141
0.0
142
1.0
143
1.0
 70
 11952
 72
     1
 73
     1
 74
     0
  7
monochrome.ctb
 75
     0
147
1.0
148
296.6297214794804
149
231.2694884505802
100
AcDbLayout
  1
Model
 70
     1
 71
     0
 10
0.0
 20
0.0
 11
12.0
 21
9.0
 12
0.0
 22
0.0
 32
0.0
 14
0.0
 24
0.0
 34
0.0
 15
0.0
 25
0.0
 35
0.0
146
0.0
 13
0.0
 23
0.0
 33
0.0
 16
1.0
 26
0.0
 36
0.0
 17
0.0
 27
1.0
 37
0.0
 76
     0
330
2
  0
MATERIAL
  5
3F
102
{ACAD_XDICTIONARY
360
40
102
}
102
{ACAD_REACTORS
330
B
102
}
330
B
100
AcDbMaterial
  1
ByBlock
 72
     0
 43
0.0008202099737533
 43
0.0
 43
0.0
 43
0.0
 43
0.0
 43
0.0008202099737533
 43
0.0
 43
0.0
 43
0.0
 43
0.0
 43
1.0
 43
0.0
 43
0.0
 43
0.0
 43
0.0
 43
1.0
 77
     0
 47
0.0008202099737533
 47
0.0
 47
0.0
 47
0.0
 47
0.0
 47
0.0008202099737533
 47
0.0
 47
0.0
 47
0.0
 47
0.0
 47
1.0
 47
0.0
 47
0.0
 47
0.0
 47
0.0
 47
1.0
171
     0
 49
0.0008202099737533
 49
0.0
 49
0.0
 49
0.0
 49
0.0
 49
0.0008202099737533
 49
0.0
 49
0.0
 49
0.0
 49
0.0
 49
1.0
 49
0.0
 49
0.0
 49
0.0
 49
0.0
 49
1.0
175
     0
142
0.0008202099737533
142
0.0
142
0.0
142
0.0
142
0.0
142
0.0008202099737533
142
0.0
142
0.0
142
0.0
142
0.0
142
1.0
142
0.0
142
0.0
142
0.0
142
0.0
142
1.0
179
     0
144
0.0008202099737533
144
0.0
144
0.0
144
0.0
144
0.0
144
0.0008202099737533
144
0.0
144
0.0
144
0.0
144
0.0
144
1.0
144
0.0
144
0.0
144
0.0
144
0.0
144
1.0
147
0.0008202099737533
147
0.0
147
0.0
147
0.0
147
0.0
147
0.0008202099737533
147
0.0
147
0.0
147
0.0
147
0.0
147
1.0
147
0.0
147
0.0
147
0.0
147
0.0
147
1.0
  0
MATERIAL
  5
37
102
{ACAD_XDICTIONARY
360
38
102
}
102
{ACAD_REACTORS
330
B
102
}
330
B
100
AcDbMaterial
  1
ByLayer
 72
     0
 43
0.0008202099737533
 43
0.0
 43
0.0
 43
0.0
 43
0.0
 43
0.0008202099737533
 43
0.0
 43
0.0
 43
0.0
 43
0.0
 43
1.0
 43
0.0
 43
0.0
 43
0.0
 43
0.0
 43
1.0
 77
     0
 47
0.0008202099737533
 47
0.0
 47
0.0
 47
0.0
 47
0.0
 47
0.0008202099737533
 47
0.0
 47
0.0
 47
0.0
 47
0.0
 47
1.0
 47
0.0
 47
0.0
 47
0.0
 47
0.0
 47
1.0
171
     0
 49
0.0008202099737533
 49
0.0
 49
0.0
 49
0.0
 49
0.0
 49
0.0008202099737533
 49
0.0
 49
0.0
 49
0.0
 49
0.0
 49
1.0
 49
0.0
 49
0.0
 49
0.0
 49
0.0
 49
1.0
175
     0
142
0.0008202099737533
142
0.0
142
0.0
142
0.0
142
0.0
142
0.0008202099737533
142
0.0
142
0.0
142
0.0
142
0.0
142
1.0
142
0.0
142
0.0
142
0.0
142
0.0
142
1.0
179
     0
144
0.0008202099737533
144
0.0
144
0.0
144
0.0
144
0.0
144
0.0008202099737533
144
0.0
144
0.0
144
0.0
144
0.0
144
1.0
144
0.0
144
0.0
144
0.0
144
0.0
144
1.0
147
0.0008202099737533
147
0.0
147
0.0
147
0.0
147
0.0
147
0.0008202099737533
147
0.0
147
0.0
147
0.0
147
0.0
147
1.0
147
0.0
147
0.0
147
0.0
147
0.0
147
1.0
  0
MATERIAL
  5
A
102
{ACAD_XDICTIONARY
360
C
102
}
102
{ACAD_REACTORS
330
B
102
}
330
B
100
AcDbMaterial
  1
Global
 72
     0
 43
0.0008202099737533
 43
0.0
 43
0.0
 43
0.0
 43
0.0
 43
0.0008202099737533
 43
0.0
 43
0.0
 43
0.0
 43
0.0
 43
1.0
 43
0.0
 43
0.0
 43
0.0
 43
0.0
 43
1.0
 77
     0
 47
0.0008202099737533
 47
0.0
 47
0.0
 47
0.0
 47
0.0
 47
0.0008202099737533
 47
0.0
 47
0.0
 47
0.0
 47
0.0
 47
1.0
 47
0.0
 47
0.0
 47
0.0
 47
0.0
 47
1.0
171
     0
 49
0.0008202099737533
 49
0.0
 49
0.0
 49
0.0
 49
0.0
 49
0.0008202099737533
 49
0.0
 49
0.0
 49
0.0
 49
0.0
 49
1.0
 49
0.0
 49
0.0
 49
0.0
 49
0.0
 49
1.0
175
     0
142
0.0008202099737533
142
0.0
142
0.0
142
0.0
142
0.0
142
0.0008202099737533
142
0.0
142
0.0
142
0.0
142
0.0
142
1.0
142
0.0
142
0.0
142
0.0
142
0.0
142
1.0
179
     0
144
0.0008202099737533
144
0.0
144
0.0
144
0.0
144
0.0
144
0.0008202099737533
144
0.0
144
0.0
144
0.0
144
0.0
144
1.0
144
0.0
144
0.0
144
0.0
144
0.0
144
1.0
147
0.0008202099737533
147
0.0
147
0.0
147
0.0
147
0.0
147
0.0008202099737533
147
0.0
147
0.0
147
0.0
147
0.0
147
1.0
147
0.0
147
0.0
147
0.0
147
0.0
147
1.0
  0
MLINESTYLE
  5
4D
102
{ACAD_REACTORS
330
35
102
}
330
35
100
AcDbMlineStyle
  2
STANDARD
 70
     0
  3

 62
   256
 51
90.0
 52
90.0
 71
     2
 49
0.5
 62
   256
  6
BYLAYER
 49
-0.5
 62
   256
  6
BYLAYER
  0
ACDBPLACEHOLDER
  5
7
102
{ACAD_REACTORS
330
8
102
}
330
8
  0
SCALE
  5
51
102
{ACAD_REACTORS
330
48
102
}
330
48
100
AcDbScale
 70
     0
300
1:1
140
1.0
141
1.0
290
     1
  0
SCALE
  5
52
102
{ACAD_REACTORS
330
48
102
}
330
48
100
AcDbScale
 70
     0
300
1:2
140
1.0
141
2.0
290
     0
  0
SCALE
  5
53
102
{ACAD_REACTORS
330
48
102
}
330
48
100
AcDbScale
 70
     0
300
1:4
140
1.0
141
4.0
290
     0
  0
SCALE
  5
54
102
{ACAD_REACTORS
330
48
102
}
330
48
100
AcDbScale
 70
     0
300
1:5
140
1.0
141
5.0
290
     0
  0
SCALE
  5
55
102
{ACAD_REACTORS
330
48
102
}
330
48
100
AcDbScale
 70
     0
300
1:8
140
1.0
141
8.0
290
     0
  0
SCALE
  5
56
102
{ACAD_REACTORS
330
48
102
}
330
48
100
AcDbScale
 70
     0
300
1:10
140
1.0
141
10.0
290
     0
  0
SCALE
  5
57
102
{ACAD_REACTORS
330
48
102
}
330
48
100
AcDbScale
 70
     0
300
1:16
140
1.0
141
16.0
290
     0
  0
SCALE
  5
58
102
{ACAD_REACTORS
330
48
102
}
330
48
100
AcDbScale
 70
     0
300
1:20
140
1.0
141
20.0
290
     0
  0
SCALE
  5
59
102
{ACAD_REACTORS
330
48
102
}
330
48
100
AcDbScale
 70
     0
300
1:30
140
1.0
141
30.0
290
     0
  0
SCALE
  5
5A
102
{ACAD_REACTORS
330
48
102
}
330
48
100
AcDbScale
 70
     0
300
1:40
140
1.0
141
40.0
290
     0
  0
SCALE
  5
5B
102
{ACAD_REACTORS
330
48
102
}
330
48
100
AcDbScale
 70
     0
300
1:50
140
1.0
141
50.0
290
     0
  0
SCALE
  5
5C
102
{ACAD_REACTORS
330
48
102
}
330
48
100
AcDbScale
 70
     0
300
1:100
140
1.0
141
100.0
290
     0
  0
SCALE
  5
5D
102
{ACAD_REACTORS
330
48
102
}
330
48
100
AcDbScale
 70
     0
300
2:1
140
2.0
141
1.0
290
     0
  0
SCALE
  5
5E
102
{ACAD_REACTORS
330
48
102
}
330
48
100
AcDbScale
 70
     0
300
4:1
140
4.0
141
1.0
290
     0
  0
SCALE
  5
5F
102
{ACAD_REACTORS
330
48
102
}
330
48
100
AcDbScale
 70
     0
300
8:1
140
8.0
141
1.0
290
     0
  0
SCALE
  5
60
102
{ACAD_REACTORS
330
48
102
}
330
48
100
AcDbScale
 70
     0
300
10:1
140
10.0
141
1.0
290
     0
  0
SCALE
  5
61
102
{ACAD_REACTORS
330
48
102
}
330
48
100
AcDbScale
 70
     0
300
100:1
140
100.0
141
1.0
290
     0
  0
ACDBSECTIONVIEWSTYLE
  5
170
102
{ACAD_XDICTIONARY
360
1D6
102
}
102
{ACAD_REACTORS
330
165
330
16F
102
}
330
165
100
AcDbModelDocViewStyle
 70
     0
  3
Metric50
290
     0
100
AcDbSectionViewStyle
 70
     0
 71
     0
 90
      102
 71
     1
340
21
 40
5.0
340
0
340
0
 40
5.0
300
I, O, Q, S, X, Z
 40
10.0
 90
        0
 40
2.5
 90
        0
 71
     2
340
13
 90
       25
340
13
 90
       50
 40
5.0
 40
2.5
 40
5.0
 71
     3
340
21
 40
5.0
 90
        0
 40
15.0
 90
        1
300
%<\AcVar ViewSectionStartId>%-%<\AcVar ViewSectionEndId>% (%<\AcVar ViewScale \f "%sn">%)
 71
     4
300
ANSI31
 40
1.0
 90
        0
290
     0
290
     0
 90
        6
 40
0.0
 40
1.570796326794896
 40
0.2617993877991494
 40
1.308996938995747
 40
-0.2617993877991494
 40
1.832595714594046
  0
TABLESTYLE
  5
4E
102
{ACAD_XDICTIONARY
360
1C0
102
}
102
{ACAD_REACTORS
330
49
102
}
330
49
100
AcDbTableStyle
  3
Standard
 70
     0
 71
     0
 40
1.5
 41
1.5
280
     0
281
     0
  7
STANDARD
140
4.5
170
     2
 62
     0
 63
     7
283
     0
274
    -2
284
     1
 64
     0
275
    -2
285
     1
 65
     0
276
    -2
286
     1
 66
     0
277
    -2
287
     1
 67
     0
278
    -2
288
     1
 68
     0
279
    -2
289
     1
 69
     0
  7
STANDARD
140
6.0
170
     5
 62
     0
 63
     7
283
     0
274
    -2
284
     1
 64
     0
275
    -2
285
     1
 65
     0
276
    -2
286
     1
 66
     0
277
    -2
287
     1
 67
     0
278
    -2
288
     1
 68
     0
279
    -2
289
     1
 69
     0
  7
STANDARD
140
4.5
170
     5
 62
     0
 63
     7
283
     0
274
    -2
284
     1
 64
     0
275
    -2
285
     1
 65
     0
276
    -2
286
     1
 66
     0
277
    -2
287
     1
 67
     0
278
    -2
288
     1
 68
     0
279
    -2
289
     1
 69
     0
  0
VISUALSTYLE
  5
2A
102
{ACAD_XDICTIONARY
360
1CB
102
}
102
{ACAD_REACTORS
330
2B
102
}
330
2B
100
AcDbVisualStyle
  2
2dWireframe
 70
     4
 71
     0
 72
     2
 73
     0
 90
        0
 40
-0.6
 41
-30.0
 62
     5
 63
     7
 74
     1
 91
        4
 64
     7
 65
   257
 75
     1
175
     1
 42
1.0
 92
        0
 66
   257
 43
1.0
 76
     1
 77
     6
 78
     2
 67
     7
 79
     5
170
     0
171
     0
290
     0
174
     0
 93
        1
 44
0.0
173
     0
291
     0
 45
0.0
1001
ACAD
1000
AcDbSavedByObjectVersion
1070
     0
  0
VISUALSTYLE
  5
4F
102
{ACAD_XDICTIONARY
360
1D0
102
}
102
{ACAD_REACTORS
330
2B
102
}
330
2B
100
AcDbVisualStyle
  2
Realistic
 70
     8
 71
     2
 72
     3
 73
     0
 90
        2
 40
-0.6
 41
30.0
 62
     5
 63
     7
 74
     0
 91
        0
 64
     7
 65
   257
 75
     1
175
     1
 42
1.0
 92
        8
 66
   257
 43
1.0
 76
     1
 77
     6
 78
     2
 67
     7
 79
     3
170
     0
171
     0
290
     0
174
     0
 93
       13
 44
0.0
173
     0
291
     0
 45
0.0
1001
ACAD
1000
AcDbSavedByObjectVersion
1070
     0
  0
VISUALSTYLE
  5
50
102
{ACAD_XDICTIONARY
360
1D2
102
}
102
{ACAD_REACTORS
330
2B
102
}
330
2B
100
AcDbVisualStyle
  2
Wireframe
 70
     5
 71
     0
 72
     2
 73
     0
 90
        0
 40
-0.6
 41
-30.0
 62
     5
 63
     7
 74
     1
 91
        4
 64
     7
 65
   257
 75
     1
175
     1
 42
1.0
 92
        0
 66
   257
 43
1.0
 76
     1
 77
     6
 78
     2
 67
     7
 79
     3
170
     0
171
     0
290
     0
174
     0
 93
        1
 44
0.0
173
     0
291
     0
 45
0.0
1001
ACAD
1000
AcDbSavedByObjectVersion
1070
     0
  0
DICTIONARYVAR
  5
1BA
102
{ACAD_REACTORS
330
1B5
102
}
330
1B5
100
DictionaryVariables
280
     0
  1
1:1
  0
DICTIONARYVAR
  5
1B7
102
{ACAD_REACTORS
330
1B5
102
}
330
1B5
100
DictionaryVariables
280
     0
  1
STANDARD
  0
DICTIONARYVAR
  5
1B6
102
{ACAD_REACTORS
330
1B5
102
}
330
1B5
100
DictionaryVariables
280
     0
  1
STANDARD
  0
DICTIONARYVAR
  5
1B8
102
{ACAD_REACTORS
330
1B5
102
}
330
1B5
100
DictionaryVariables
280
     0
  1

  0
DICTIONARYVAR
  5
1B9
102
{ACAD_REACTORS
330
1B5
102
}
330
1B5
100
DictionaryVariables
280
     0
  1

  0
DICTIONARYVAR
  5
1BF
102
{ACAD_REACTORS
330
1B5
102
}
330
1B5
100
DictionaryVariables
280
     0
  1
1
  0
DICTIONARYVAR
  5
1BD
102
{ACAD_REACTORS
330
1B5
102
}
330
1B5
100
DictionaryVariables
280
     0
  1
1
  0
DICTIONARYVAR
  5
1BC
102
{ACAD_REACTORS
330
1B5
102
}
330
1B5
100
DictionaryVariables
280
     0
  1
0
  0
DICTIONARYVAR
  5
1BB
102
{ACAD_REACTORS
330
1B5
102
}
330
1B5
100
DictionaryVariables
280
     0
  1
127
  0
DICTIONARYVAR
  5
1BE
102
{ACAD_REACTORS
330
1B5
102
}
330
1B5
100
DictionaryVariables
280
     0
  1
0
  0
DICTIONARY
  5
147
102
{ACAD_REACTORS
330
146
102
}
330
146
100
AcDbDictionary
281
     1
  0
DICTIONARY
  5
141
102
{ACAD_REACTORS
330
137
102
}
330
137
100
AcDbDictionary
281
     1
  3
DWGSETTINGS
350
140
  3
TRANSSETTINGS
350
142
  0
DICTIONARY
  5
1D4
330
162
100
AcDbDictionary
280
     1
281
     1
  3
ACAD_XREC_ROUNDTRIP
360
1D5
  0
DICTIONARY
  5
1C9
330
1A
100
AcDbDictionary
280
     1
281
     1
  3
ACAD_XREC_ROUNDTRIP
360
1CA
  0
DICTIONARY
  5
1C7
330
15
100
AcDbDictionary
280
     1
281
     1
  3
ACAD_XREC_ROUNDTRIP
360
1C8
  0
DICTIONARY
  5
40
330
3F
100
AcDbDictionary
280
     1
281
     1
  3
ACAD_XREC_ROUNDTRIP
360
1CE
  3
BUMPTILE
360
41
  3
DIFFUSETILE
360
42
  3
OPACITYTILE
360
43
  3
REFLECTIONTILE
360
44
  3
REFRACTIONTILE
360
45
  3
SPECULARTILE
360
46
  0
DICTIONARY
  5
38
330
37
100
AcDbDictionary
280
     1
281
     1
  3
ACAD_XREC_ROUNDTRIP
360
1CD
  3
BUMPTILE
360
39
  3
DIFFUSETILE
360
3A
  3
OPACITYTILE
360
3B
  3
REFLECTIONTILE
360
3C
  3
REFRACTIONTILE
360
3D
  3
SPECULARTILE
360
3E
  0
DICTIONARY
  5
C
330
A
100
AcDbDictionary
280
     1
281
     1
  3
ACAD_XREC_ROUNDTRIP
360
1C6
  3
BUMPTILE
360
D
  3
DIFFUSETILE
360
E
  3
OPACITYTILE
360
F
  3
REFLECTIONTILE
360
10
  3
REFRACTIONTILE
360
11
  3
SPECULARTILE
360
12
  0
DICTIONARY
  5
1D6
330
170
100
AcDbDictionary
280
     1
281
     1
  3
ACAD_XREC_ROUNDTRIP
360
1D7
  0
DICTIONARY
  5
1C0
330
4E
100
AcDbDictionary
280
     1
281
     1
  3
ACAD_ROUNDTRIP_2008_TABLESTYLE_CELLSTYLEMAP
360
1C1
  3
ACAD_XREC_ROUNDTRIP
360
1CF
  0
DICTIONARY
  5
1CB
330
2A
100
AcDbDictionary
280
     1
281
     1
  3
ACAD_XREC_ROUNDTRIP
360
1CC
  0
DICTIONARY
  5
1D0
330
4F
100
AcDbDictionary
280
     1
281
     1
  3
ACAD_XREC_ROUNDTRIP
360
1D1
  0
DICTIONARY
  5
1D2
330
50
100
AcDbDictionary
280
     1
281
     1
  3
ACAD_XREC_ROUNDTRIP
360
1D3
  0
XRECORD
  5
1D5
102
{ACAD_REACTORS
330
1D4
102
}
330
1D4
100
AcDbXrecord
280
     1
102
DISPLAYNAME
  1
Metric50
102
FLAGS
 90
        0
  0
XRECORD
  5
1CA
102
{ACAD_REACTORS
330
1C9
102
}
330
1C9
100
AcDbXrecord
280
     1
102
SHADEPLOT
 70
     0
102
SHADEPLOTRESLEVEL
 70
     2
102
SHADEPLOTCUSTOMDPI
 70
   300
  0
XRECORD
  5
1C8
102
{ACAD_REACTORS
330
1C7
102
}
330
1C7
100
AcDbXrecord
280
     1
102
SHADEPLOT
 70
     0
102
SHADEPLOTRESLEVEL
 70
     2
102
SHADEPLOTCUSTOMDPI
 70
   300
  0
XRECORD
  5
1CE
102
{ACAD_REACTORS
330
40
102
}
330
40
100
AcDbXrecord
280
     1
102
MATERIAL
148
0.0
149
0.0
149
0.0
 93
        0
 94
      127
282
     0
 72
     0
 77
     0
171
     0
175
     0
179
     0
273
     0
  0
XRECORD
  5
41
102
{ACAD_REACTORS
330
40
102
}
330
40
100
AcDbXrecord
280
     1
270
     1
271
     1
  0
XRECORD
  5
42
102
{ACAD_REACTORS
330
40
102
}
330
40
100
AcDbXrecord
280
     1
270
     1
271
     1
  0
XRECORD
  5
43
102
{ACAD_REACTORS
330
40
102
}
330
40
100
AcDbXrecord
280
     1
270
     1
271
     1
  0
XRECORD
  5
44
102
{ACAD_REACTORS
330
40
102
}
330
40
100
AcDbXrecord
280
     1
270
     1
271
     1
  0
XRECORD
  5
45
102
{ACAD_REACTORS
330
40
102
}
330
40
100
AcDbXrecord
280
     1
270
     1
271
     1
  0
XRECORD
  5
46
102
{ACAD_REACTORS
330
40
102
}
330
40
100
AcDbXrecord
280
     1
270
     1
271
     1
  0
XRECORD
  5
1CD
102
{ACAD_REACTORS
330
38
102
}
330
38
100
AcDbXrecord
280
     1
102
MATERIAL
148
0.0
149
0.0
149
0.0
 93
        0
 94
      127
282
     0
 72
     0
 77
     0
171
     0
175
     0
179
     0
273
     0
  0
XRECORD
  5
39
102
{ACAD_REACTORS
330
38
102
}
330
38
100
AcDbXrecord
280
     1
270
     1
271
     1
  0
XRECORD
  5
3A
102
{ACAD_REACTORS
330
38
102
}
330
38
100
AcDbXrecord
280
     1
270
     1
271
     1
  0
XRECORD
  5
3B
102
{ACAD_REACTORS
330
38
102
}
330
38
100
AcDbXrecord
280
     1
270
     1
271
     1
  0
XRECORD
  5
3C
102
{ACAD_REACTORS
330
38
102
}
330
38
100
AcDbXrecord
280
     1
270
     1
271
     1
  0
XRECORD
  5
3D
102
{ACAD_REACTORS
330
38
102
}
330
38
100
AcDbXrecord
280
     1
270
     1
271
     1
  0
XRECORD
  5
3E
102
{ACAD_REACTORS
330
38
102
}
330
38
100
AcDbXrecord
280
     1
270
     1
271
     1
  0
XRECORD
  5
1C6
102
{ACAD_REACTORS
330
C
102
}
330
C
100
AcDbXrecord
280
     1
102
MATERIAL
148
0.0
149
0.0
149
0.0
 93
        0
 94
      127
282
     0
 72
     0
 77
     0
171
     0
175
     0
179
     0
273
     0
  0
XRECORD
  5
D
102
{ACAD_REACTORS
330
C
102
}
330
C
100
AcDbXrecord
280
     1
270
     1
271
     1
  0
XRECORD
  5
E
102
{ACAD_REACTORS
330
C
102
}
330
C
100
AcDbXrecord
280
     1
270
     1
271
     1
  0
XRECORD
  5
F
102
{ACAD_REACTORS
330
C
102
}
330
C
100
AcDbXrecord
280
     1
270
     1
271
     1
  0
XRECORD
  5
10
102
{ACAD_REACTORS
330
C
102
}
330
C
100
AcDbXrecord
280
     1
270
     1
271
     1
  0
XRECORD
  5
11
102
{ACAD_REACTORS
330
C
102
}
330
C
100
AcDbXrecord
280
     1
270
     1
271
     1
  0
XRECORD
  5
12
102
{ACAD_REACTORS
330
C
102
}
330
C
100
AcDbXrecord
280
     1
270
     1
271
     1
  0
XRECORD
  5
1D7
102
{ACAD_REACTORS
330
1D6
102
}
330
1D6
100
AcDbXrecord
280
     1
102
DISPLAYNAME
  1
Metric50
102
FLAGS
 90
        0
  0
CELLSTYLEMAP
  5
1C1
102
{ACAD_REACTORS
330
1C0
102
}
330
1C0
100
AcDbCellStyleMap
 90
        3
300
CELLSTYLE
  1
TABLEFORMAT_BEGIN
 90
        5
170
     1
 91
        0
 92
    32768
 62
   257
 93
        1
300
CONTENTFORMAT
  1
CONTENTFORMAT_BEGIN
 90
        0
 91
        0
 92
        4
 93
        0
300

 40
0.0
140
1.0
 94
        5
 62
     0
340
21
144
6.0
309
CONTENTFORMAT_END
171
     1
301
MARGIN
  1
CELLMARGIN_BEGIN
 40
1.5
 40
1.5
 40
1.5
 40
1.5
 40
0.18
 40
0.18
309
CELLMARGIN_END
 94
        6
 95
        1
302
GRIDFORMAT
  1
GRIDFORMAT_BEGIN
 90
        0
 91
        1
 62
     0
 92
       -2
340
0
 93
        0
 40
0.045
309
GRIDFORMAT_END
 95
        2
302
GRIDFORMAT
  1
GRIDFORMAT_BEGIN
 90
        0
 91
        1
 62
     0
 92
       -2
340
0
 93
        0
 40
0.045
309
GRIDFORMAT_END
 95
        4
302
GRIDFORMAT
  1
GRIDFORMAT_BEGIN
 90
        0
 91
        1
 62
     0
 92
       -2
340
0
 93
        0
 40
0.045
309
GRIDFORMAT_END
 95
        8
302
GRIDFORMAT
  1
GRIDFORMAT_BEGIN
 90
        0
 91
        1
 62
     0
 92
       -2
340
0
 93
        0
 40
0.045
309
GRIDFORMAT_END
 95
       16
302
GRIDFORMAT
  1
GRIDFORMAT_BEGIN
 90
        0
 91
        1
 62
     0
 92
       -2
340
0
 93
        0
 40
0.045
309
GRIDFORMAT_END
 95
       32
302
GRIDFORMAT
  1
GRIDFORMAT_BEGIN
 90
        0
 91
        1
 62
     0
 92
       -2
340
0
 93
        0
 40
0.045
309
GRIDFORMAT_END
309
TABLEFORMAT_END
  1
CELLSTYLE_BEGIN
 90
        1
 91
        1
300
_TITLE
309
CELLSTYLE_END
300
CELLSTYLE
  1
TABLEFORMAT_BEGIN
 90
        5
170
     1
 91
        0
 92
        0
 62
   257
 93
        1
300
CONTENTFORMAT
  1
CONTENTFORMAT_BEGIN
 90
        0
 91
        0
 92
        4
 93
        0
300

 40
0.0
140
1.0
 94
        5
 62
     0
340
21
144
4.5
309
CONTENTFORMAT_END
171
     1
301
MARGIN
  1
CELLMARGIN_BEGIN
 40
1.5
 40
1.5
 40
1.5
 40
1.5
 40
0.18
 40
0.18
309
CELLMARGIN_END
 94
        6
 95
        1
302
GRIDFORMAT
  1
GRIDFORMAT_BEGIN
 90
        0
 91
        1
 62
     0
 92
       -2
340
0
 93
        0
 40
0.045
309
GRIDFORMAT_END
 95
        2
302
GRIDFORMAT
  1
GRIDFORMAT_BEGIN
 90
        0
 91
        1
 62
     0
 92
       -2
340
0
 93
        0
 40
0.045
309
GRIDFORMAT_END
 95
        4
302
GRIDFORMAT
  1
GRIDFORMAT_BEGIN
 90
        0
 91
        1
 62
     0
 92
       -2
340
0
 93
        0
 40
0.045
309
GRIDFORMAT_END
 95
        8
302
GRIDFORMAT
  1
GRIDFORMAT_BEGIN
 90
        0
 91
        1
 62
     0
 92
       -2
340
0
 93
        0
 40
0.045
309
GRIDFORMAT_END
 95
       16
302
GRIDFORMAT
  1
GRIDFORMAT_BEGIN
 90
        0
 91
        1
 62
     0
 92
       -2
340
0
 93
        0
 40
0.045
309
GRIDFORMAT_END
 95
       32
302
GRIDFORMAT
  1
GRIDFORMAT_BEGIN
 90
        0
 91
        1
 62
     0
 92
       -2
340
0
 93
        0
 40
0.045
309
GRIDFORMAT_END
309
TABLEFORMAT_END
  1
CELLSTYLE_BEGIN
 90
        2
 91
        1
300
_HEADER
309
CELLSTYLE_END
300
CELLSTYLE
  1
TABLEFORMAT_BEGIN
 90
        5
170
     1
 91
        0
 92
        0
 62
   257
 93
        1
300
CONTENTFORMAT
  1
CONTENTFORMAT_BEGIN
 90
        0
 91
        0
 92
        4
 93
        0
300

 40
0.0
140
1.0
 94
        2
 62
     0
340
21
144
4.5
309
CONTENTFORMAT_END
171
     1
301
MARGIN
  1
CELLMARGIN_BEGIN
 40
1.5
 40
1.5
 40
1.5
 40
1.5
 40
0.18
 40
0.18
309
CELLMARGIN_END
 94
        6
 95
        1
302
GRIDFORMAT
  1
GRIDFORMAT_BEGIN
 90
        0
 91
        1
 62
     0
 92
       -2
340
0
 93
        0
 40
0.045
309
GRIDFORMAT_END
 95
        2
302
GRIDFORMAT
  1
GRIDFORMAT_BEGIN
 90
        0
 91
        1
 62
     0
 92
       -2
340
0
 93
        0
 40
0.045
309
GRIDFORMAT_END
 95
        4
302
GRIDFORMAT
  1
GRIDFORMAT_BEGIN
 90
        0
 91
        1
 62
     0
 92
       -2
340
0
 93
        0
 40
0.045
309
GRIDFORMAT_END
 95
        8
302
GRIDFORMAT
  1
GRIDFORMAT_BEGIN
 90
        0
 91
        1
 62
     0
 92
       -2
340
0
 93
        0
 40
0.045
309
GRIDFORMAT_END
 95
       16
302
GRIDFORMAT
  1
GRIDFORMAT_BEGIN
 90
        0
 91
        1
 62
     0
 92
       -2
340
0
 93
        0
 40
0.045
309
GRIDFORMAT_END
 95
       32
302
GRIDFORMAT
  1
GRIDFORMAT_BEGIN
 90
        0
 91
        1
 62
     0
 92
       -2
340
0
 93
        0
 40
0.045
309
GRIDFORMAT_END
309
TABLEFORMAT_END
  1
CELLSTYLE_BEGIN
 90
        3
 91
        2
300
_DATA
309
CELLSTYLE_END
  0
XRECORD
  5
1CF
102
{ACAD_REACTORS
330
1C0
102
}
330
1C0
100
AcDbXrecord
280
     1
102
ACAD_ROUNDTRIP_PRE2007_TABLESTYLE
 90
        4
 91
        0
  1

 92
        4
 93
        0
  2

 94
        4
 95
        0
  3

  0
XRECORD
  5
1CC
102
{ACAD_REACTORS
330
1CB
102
}
330
1CB
100
AcDbXrecord
280
     1
102
RTVSPost2010Prop28
280
     1
102
RTVSPost2010PropOp28
 70
     1
102
RTVSPost2010Prop29
280
     1
102
RTVSPost2010PropOp29
 70
     1
102
RTVSPost2010Prop30
280
     0
102
RTVSPost2010PropOp30
 70
     1
102
RTVSPost2010Prop31
280
     0
102
RTVSPost2010PropOp31
 70
     1
102
RTVSPost2010Prop32
280
     0
102
RTVSPost2010PropOp32
 70
     1
102
RTVSPost2010Prop33
280
     0
102
RTVSPost2010PropOp33
 70
     1
102
RTVSPost2010Prop34
280
     0
102
RTVSPost2010PropOp34
 70
     1
102
RTVSPost2010Prop35
280
     0
102
RTVSPost2010PropOp35
 70
     1
102
RTVSPost2010Prop36
280
     0
102
RTVSPost2010PropOp36
 70
     1
102
RTVSPost2010Prop37
 90
       50
102
RTVSPost2010PropOp37
 70
     1
102
RTVSPost2010Prop38
140
0.0
102
RTVSPost2010PropOp38
 70
     1
102
RTVSPost2010Prop39
140
1.0
102
RTVSPost2010PropOp39
 70
     1
102
RTVSPost2010Prop40
 90
        0
102
RTVSPost2010PropOp40
 70
     1
102
RTVSPost2010Prop41ColorIndex
 90
       18
102
RTVSPost2010Prop41ColorRGB
 90
        0
102
RTVSPost2010PropOp41
 70
     1
102
RTVSPost2010Prop42
 90
       50
102
RTVSPost2010PropOp42
 70
     1
102
RTVSPost2010Prop43
 90
        3
102
RTVSPost2010PropOp43
 70
     1
102
RTVSPost2010Prop44ColorIndex
 90
        5
102
RTVSPost2010Prop44ColorRGB
 90
      255
102
RTVSPost2010PropOp44
 70
     1
102
RTVSPost2010Prop45
280
     0
102
RTVSPost2010PropOp45
 70
     1
102
RTVSPost2010Prop46
 90
       50
102
RTVSPost2010PropOp46
 70
     1
102
RTVSPost2010Prop47
 90
       50
102
RTVSPost2010PropOp47
 70
     1
102
RTVSPost2010Prop48
 90
       50
102
RTVSPost2010PropOp48
 70
     1
102
RTVSPost2010Prop49
280
     0
102
RTVSPost2010PropOp49
 70
     1
102
RTVSPost2010Prop50
 90
       50
102
RTVSPost2010PropOp50
 70
     1
102
RTVSPost2010Prop51ColorIndex
 90
      256
102
RTVSPost2010Prop51ColorRGB
 90
-16777216
102
RTVSPost2010PropOp51
 70
     0
102
RTVSPost2010Prop52
140
1.0
102
RTVSPost2010PropOp52
 70
     0
102
RTVSPost2010Prop53
 90
        2
102
RTVSPost2010PropOp53
 70
     1
102
RTVSPost2010Prop54
  1
strokes_ogs.tif
102
RTVSPost2010PropOp54
 70
     1
102
RTVSPost2010Prop55
280
     0
102
RTVSPost2010PropOp55
 70
     1
102
RTVSPost2010Prop56
140
1.0
102
RTVSPost2010PropOp56
 70
     1
102
RTVSPost2010Prop57
140
1.0
102
RTVSPost2010PropOp57
 70
     1
102
RTVSPropertyOp0
 70
     1
102
RTVSPropertyOp1
 70
     1
102
RTVSPropertyOp2
 70
     1
102
RTVSPropertyOp3
 70
     1
102
RTVSPropertyOp4
 70
     1
102
RTVSPropertyOp5
 70
     1
102
RTVSPropertyOp6
 70
     1
102
RTVSPropertyOp7
 70
     1
102
RTVSPropertyOp8
 70
     1
102
RTVSPropertyOp9
 70
     1
102
RTVSPropertyOp10
 70
     1
102
RTVSPropertyOp11
 70
     1
102
RTVSPropertyOp12
 70
     1
102
RTVSPropertyOp13
 70
     1
102
RTVSPropertyOp14
 70
     1
102
RTVSPropertyOp15
 70
     1
102
RTVSPropertyOp16
 70
     1
102
RTVSPropertyOp17
 70
     1
102
RTVSPropertyOp18
 70
     1
102
RTVSPropertyOp19
 70
     1
102
RTVSPropertyOp20
 70
     1
102
RTVSPropertyOp21
 70
     1
102
RTVSPropertyOp22
 70
     1
102
RTVSPropertyOp23
 70
     1
102
RTVSPropertyOp24
 70
     1
102
RTVSPropertyOp25
 70
     1
102
RTVSPropertyOp26
 70
     1
102
RTVSPropertyOp27
 70
     1
102
RTVSPropertyOp28
 70
     1
102
RTVSPropertyOp29
 70
     1
102
RTVSPropertyOp30
 70
     1
102
RTVSPropertyOp31
 70
     1
102
RTVSPropertyOp32
 70
     1
102
RTVSPropertyOp33
 70
     1
102
RTVSPropertyOp34
 70
     1
102
RTVSPropertyOp35
 70
     1
102
RTVSPropertyOp36
 70
     1
102
RTVSPropertyOp37
 70
     1
102
RTVSPropertyOp38
 70
     1
102
RTVSPropertyOp39
 70
     1
102
RTVSPropertyOp40
 70
     1
102
RTVSPropertyOp41
 70
     1
102
RTVSPropertyOp42
 70
     1
102
RTVSPropertyOp43
 70
     1
102
RTVSPropertyOp44
 70
     1
102
RTVSPropertyOp45
 70
     1
102
RTVSPropertyOp46
 70
     1
102
RTVSPropertyOp47
 70
     1
102
RTVSPropertyOp48
 70
     1
102
RTVSPropertyOp49
 70
     1
102
RTVSPropertyOp50
 70
     1
102
RTVSPropertyOp51
 70
     0
102
RTVSPropertyOp52
 70
     0
102
RTVSPropertyOp53
 70
     1
102
RTVSPropertyOp54
 70
     1
102
RTVSPropertyOp55
 70
     1
102
RTVSPropertyOp56
 70
     1
102
RTVSPropertyOp57
 70
     1
102
RTVSPropertyOp58
 70
     1
102
RTVSPropertyOp59
 70
     1
102
RTVSPropertyOp60
 70
     1
102
RTVSPropertyOp61
 70
     1
102
RTVSPropertyOp62
 70
     1
  0
XRECORD
  5
1D1
102
{ACAD_REACTORS
330
1D0
102
}
330
1D0
100
AcDbXrecord
280
     1
102
RTVSPost2010Prop28
280
     0
102
RTVSPost2010PropOp28
 70
     1
102
RTVSPost2010Prop29
280
     1
102
RTVSPost2010PropOp29
 70
     1
102
RTVSPost2010Prop30
280
     1
102
RTVSPost2010PropOp30
 70
     1
102
RTVSPost2010Prop31
280
     0
102
RTVSPost2010PropOp31
 70
     1
102
RTVSPost2010Prop32
280
     0
102
RTVSPost2010PropOp32
 70
     1
102
RTVSPost2010Prop33
280
     0
102
RTVSPost2010PropOp33
 70
     1
102
RTVSPost2010Prop34
280
     0
102
RTVSPost2010PropOp34
 70
     1
102
RTVSPost2010Prop35
280
     0
102
RTVSPost2010PropOp35
 70
     1
102
RTVSPost2010Prop36
280
     0
102
RTVSPost2010PropOp36
 70
     1
102
RTVSPost2010Prop37
 90
       50
102
RTVSPost2010PropOp37
 70
     1
102
RTVSPost2010Prop38
140
0.0
102
RTVSPost2010PropOp38
 70
     1
102
RTVSPost2010Prop39
140
1.0
102
RTVSPost2010PropOp39
 70
     1
102
RTVSPost2010Prop40
 90
        0
102
RTVSPost2010PropOp40
 70
     1
102
RTVSPost2010Prop41ColorIndex
 90
       18
102
RTVSPost2010Prop41ColorRGB
 90
        0
102
RTVSPost2010PropOp41
 70
     1
102
RTVSPost2010Prop42
 90
       50
102
RTVSPost2010PropOp42
 70
     1
102
RTVSPost2010Prop43
 90
        3
102
RTVSPost2010PropOp43
 70
     1
102
RTVSPost2010Prop44ColorIndex
 90
        5
102
RTVSPost2010Prop44ColorRGB
 90
      255
102
RTVSPost2010PropOp44
 70
     1
102
RTVSPost2010Prop45
280
     0
102
RTVSPost2010PropOp45
 70
     1
102
RTVSPost2010Prop46
 90
       50
102
RTVSPost2010PropOp46
 70
     1
102
RTVSPost2010Prop47
 90
       50
102
RTVSPost2010PropOp47
 70
     1
102
RTVSPost2010Prop48
 90
       50
102
RTVSPost2010PropOp48
 70
     1
102
RTVSPost2010Prop49
280
     0
102
RTVSPost2010PropOp49
 70
     1
102
RTVSPost2010Prop50
 90
       50
102
RTVSPost2010PropOp50
 70
     1
102
RTVSPost2010Prop51ColorIndex
 90
      256
102
RTVSPost2010Prop51ColorRGB
 90
-16777216
102
RTVSPost2010PropOp51
 70
     0
102
RTVSPost2010Prop52
140
1.0
102
RTVSPost2010PropOp52
 70
     0
102
RTVSPost2010Prop53
 90
        2
102
RTVSPost2010PropOp53
 70
     1
102
RTVSPost2010Prop54
  1
strokes_ogs.tif
102
RTVSPost2010PropOp54
 70
     1
102
RTVSPost2010Prop55
280
     0
102
RTVSPost2010PropOp55
 70
     1
102
RTVSPost2010Prop56
140
1.0
102
RTVSPost2010PropOp56
 70
     1
102
RTVSPost2010Prop57
140
1.0
102
RTVSPost2010PropOp57
 70
     1
102
RTVSPropertyOp0
 70
     1
102
RTVSPropertyOp1
 70
     1
102
RTVSPropertyOp2
 70
     1
102
RTVSPropertyOp3
 70
     1
102
RTVSPropertyOp4
 70
     1
102
RTVSPropertyOp5
 70
     1
102
RTVSPropertyOp6
 70
     1
102
RTVSPropertyOp7
 70
     1
102
RTVSPropertyOp8
 70
     1
102
RTVSPropertyOp9
 70
     1
102
RTVSPropertyOp10
 70
     1
102
RTVSPropertyOp11
 70
     1
102
RTVSPropertyOp12
 70
     1
102
RTVSPropertyOp13
 70
     1
102
RTVSPropertyOp14
 70
     1
102
RTVSPropertyOp15
 70
     1
102
RTVSPropertyOp16
 70
     1
102
RTVSPropertyOp17
 70
     1
102
RTVSPropertyOp18
 70
     1
102
RTVSPropertyOp19
 70
     1
102
RTVSPropertyOp20
 70
     1
102
RTVSPropertyOp21
 70
     1
102
RTVSPropertyOp22
 70
     1
102
RTVSPropertyOp23
 70
     1
102
RTVSPropertyOp24
 70
     1
102
RTVSPropertyOp25
 70
     1
102
RTVSPropertyOp26
 70
     1
102
RTVSPropertyOp27
 70
     1
102
RTVSPropertyOp28
 70
     1
102
RTVSPropertyOp29
 70
     1
102
RTVSPropertyOp30
 70
     1
102
RTVSPropertyOp31
 70
     1
102
RTVSPropertyOp32
 70
     1
102
RTVSPropertyOp33
 70
     1
102
RTVSPropertyOp34
 70
     1
102
RTVSPropertyOp35
 70
     1
102
RTVSPropertyOp36
 70
     1
102
RTVSPropertyOp37
 70
     1
102
RTVSPropertyOp38
 70
     1
102
RTVSPropertyOp39
 70
     1
102
RTVSPropertyOp40
 70
     1
102
RTVSPropertyOp41
 70
     1
102
RTVSPropertyOp42
 70
     1
102
RTVSPropertyOp43
 70
     1
102
RTVSPropertyOp44
 70
     1
102
RTVSPropertyOp45
 70
     1
102
RTVSPropertyOp46
 70
     1
102
RTVSPropertyOp47
 70
     1
102
RTVSPropertyOp48
 70
     1
102
RTVSPropertyOp49
 70
     1
102
RTVSPropertyOp50
 70
     1
102
RTVSPropertyOp51
 70
     0
102
RTVSPropertyOp52
 70
     0
102
RTVSPropertyOp53
 70
     1
102
RTVSPropertyOp54
 70
     1
102
RTVSPropertyOp55
 70
     1
102
RTVSPropertyOp56
 70
     1
102
RTVSPropertyOp57
 70
     1
102
RTVSPropertyOp58
 70
     1
102
RTVSPropertyOp59
 70
     1
102
RTVSPropertyOp60
 70
     1
102
RTVSPropertyOp61
 70
     1
102
RTVSPropertyOp62
 70
     1
  0
XRECORD
  5
1D3
102
{ACAD_REACTORS
330
1D2
102
}
330
1D2
100
AcDbXrecord
280
     1
102
RTVSPost2010Prop28
280
     0
102
RTVSPost2010PropOp28
 70
     1
102
RTVSPost2010Prop29
280
     1
102
RTVSPost2010PropOp29
 70
     1
102
RTVSPost2010Prop30
280
     1
102
RTVSPost2010PropOp30
 70
     1
102
RTVSPost2010Prop31
280
     0
102
RTVSPost2010PropOp31
 70
     1
102
RTVSPost2010Prop32
280
     0
102
RTVSPost2010PropOp32
 70
     1
102
RTVSPost2010Prop33
280
     0
102
RTVSPost2010PropOp33
 70
     1
102
RTVSPost2010Prop34
280
     0
102
RTVSPost2010PropOp34
 70
     1
102
RTVSPost2010Prop35
280
     0
102
RTVSPost2010PropOp35
 70
     1
102
RTVSPost2010Prop36
280
     0
102
RTVSPost2010PropOp36
 70
     1
102
RTVSPost2010Prop37
 90
       50
102
RTVSPost2010PropOp37
 70
     1
102
RTVSPost2010Prop38
140
0.0
102
RTVSPost2010PropOp38
 70
     1
102
RTVSPost2010Prop39
140
1.0
102
RTVSPost2010PropOp39
 70
     1
102
RTVSPost2010Prop40
 90
        0
102
RTVSPost2010PropOp40
 70
     1
102
RTVSPost2010Prop41ColorIndex
 90
       18
102
RTVSPost2010Prop41ColorRGB
 90
        0
102
RTVSPost2010PropOp41
 70
     1
102
RTVSPost2010Prop42
 90
       50
102
RTVSPost2010PropOp42
 70
     1
102
RTVSPost2010Prop43
 90
        3
102
RTVSPost2010PropOp43
 70
     1
102
RTVSPost2010Prop44ColorIndex
 90
        5
102
RTVSPost2010Prop44ColorRGB
 90
      255
102
RTVSPost2010PropOp44
 70
     1
102
RTVSPost2010Prop45
280
     0
102
RTVSPost2010PropOp45
 70
     1
102
RTVSPost2010Prop46
 90
       50
102
RTVSPost2010PropOp46
 70
     1
102
RTVSPost2010Prop47
 90
       50
102
RTVSPost2010PropOp47
 70
     1
102
RTVSPost2010Prop48
 90
       50
102
RTVSPost2010PropOp48
 70
     1
102
RTVSPost2010Prop49
280
     0
102
RTVSPost2010PropOp49
 70
     1
102
RTVSPost2010Prop50
 90
       50
102
RTVSPost2010PropOp50
 70
     1
102
RTVSPost2010Prop51ColorIndex
 90
      256
102
RTVSPost2010Prop51ColorRGB
 90
-16777216
102
RTVSPost2010PropOp51
 70
     0
102
RTVSPost2010Prop52
140
1.0
102
RTVSPost2010PropOp52
 70
     0
102
RTVSPost2010Prop53
 90
        2
102
RTVSPost2010PropOp53
 70
     1
102
RTVSPost2010Prop54
  1
strokes_ogs.tif
102
RTVSPost2010PropOp54
 70
     1
102
RTVSPost2010Prop55
280
     0
102
RTVSPost2010PropOp55
 70
     1
102
RTVSPost2010Prop56
140
1.0
102
RTVSPost2010PropOp56
 70
     1
102
RTVSPost2010Prop57
140
1.0
102
RTVSPost2010PropOp57
 70
     1
102
RTVSPropertyOp0
 70
     1
102
RTVSPropertyOp1
 70
     1
102
RTVSPropertyOp2
 70
     1
102
RTVSPropertyOp3
 70
     1
102
RTVSPropertyOp4
 70
     1
102
RTVSPropertyOp5
 70
     1
102
RTVSPropertyOp6
 70
     1
102
RTVSPropertyOp7
 70
     1
102
RTVSPropertyOp8
 70
     1
102
RTVSPropertyOp9
 70
     1
102
RTVSPropertyOp10
 70
     1
102
RTVSPropertyOp11
 70
     1
102
RTVSPropertyOp12
 70
     1
102
RTVSPropertyOp13
 70
     1
102
RTVSPropertyOp14
 70
     1
102
RTVSPropertyOp15
 70
     1
102
RTVSPropertyOp16
 70
     1
102
RTVSPropertyOp17
 70
     1
102
RTVSPropertyOp18
 70
     1
102
RTVSPropertyOp19
 70
     1
102
RTVSPropertyOp20
 70
     1
102
RTVSPropertyOp21
 70
     1
102
RTVSPropertyOp22
 70
     1
102
RTVSPropertyOp23
 70
     1
102
RTVSPropertyOp24
 70
     1
102
RTVSPropertyOp25
 70
     1
102
RTVSPropertyOp26
 70
     1
102
RTVSPropertyOp27
 70
     1
102
RTVSPropertyOp28
 70
     1
102
RTVSPropertyOp29
 70
     1
102
RTVSPropertyOp30
 70
     1
102
RTVSPropertyOp31
 70
     1
102
RTVSPropertyOp32
 70
     1
102
RTVSPropertyOp33
 70
     1
102
RTVSPropertyOp34
 70
     1
102
RTVSPropertyOp35
 70
     1
102
RTVSPropertyOp36
 70
     1
102
RTVSPropertyOp37
 70
     1
102
RTVSPropertyOp38
 70
     1
102
RTVSPropertyOp39
 70
     1
102
RTVSPropertyOp40
 70
     1
102
RTVSPropertyOp41
 70
     1
102
RTVSPropertyOp42
 70
     1
102
RTVSPropertyOp43
 70
     1
102
RTVSPropertyOp44
 70
     1
102
RTVSPropertyOp45
 70
     1
102
RTVSPropertyOp46
 70
     1
102
RTVSPropertyOp47
 70
     1
102
RTVSPropertyOp48
 70
     1
102
RTVSPropertyOp49
 70
     1
102
RTVSPropertyOp50
 70
     1
102
RTVSPropertyOp51
 70
     0
102
RTVSPropertyOp52
 70
     0
102
RTVSPropertyOp53
 70
     1
102
RTVSPropertyOp54
 70
     1
102
RTVSPropertyOp55
 70
     1
102
RTVSPropertyOp56
 70
     1
102
RTVSPropertyOp57
 70
     1
102
RTVSPropertyOp58
 70
     1
102
RTVSPropertyOp59
 70
     1
102
RTVSPropertyOp60
 70
     1
102
RTVSPropertyOp61
 70
     1
102
RTVSPropertyOp62
 70
     1
  0
ENDSEC
  0
EOF
