  0
SECTION
  2
HEADER
  9
$ACADVER
  1
AC1018
  9
$ACADMAINTVER
 70
    77
  9
$DWGCODEPAGE
  3
ANSI_1252
  9
$INSBASE
 10
0.0
 20
0.0
 30
0.0
  9
$EXTMIN
 10
37.5
 20
-14.79825648053125
 30
0.0
  9
$EXTMAX
 10
1009.25385249777
 20
652.5
 30
0.0
  9
$LIMMIN
 10
0.0
 20
0.0
  9
$LIMMAX
 10
580.3767898393416
 20
668.3700814132223
  9
$ORTHOMODE
 70
     1
  9
$REGENMODE
 70
     1
  9
$FILLMODE
 70
     1
  9
$QTEXTMODE
 70
     0
  9
$MIRRTEXT
 70
     1
  9
$LTSCALE
 40
15.0
  9
$ATTMODE
 70
     1
  9
$TEXTSIZE
 40
8.5
  9
$TRACEWID
 40
0.05
  9
$TEXTSTYLE
  7
ROMANS
  9
$CLAYER
  8
BEMASSUNG
  9
$CELTYPE
  6
CONTINUOUS
  9
$CECOLOR
 62
   256
  9
$CELTSCALE
 40
1.0
  9
$DISPSILH
 70
     0
  9
$DIMSCALE
 40
1.5
  9
$DIMASZ
 40
3.5
  9
$DIMEXO
 40
0.5
  9
$DIMDLI
 40
8.0
  9
$DIMRND
 40
0.0
  9
$DIMDLE
 40
0.0
  9
$DIMEXE
 40
1.0
  9
$DIMTP
 40
0.0
  9
$DIMTM
 40
0.0
  9
$DIMTXT
 40
3.5
  9
$DIMCEN
 40
1.5
  9
$DIMTSZ
 40
0.0
  9
$DIMTOL
 70
     0
  9
$DIMLIM
 70
     0
  9
$DIMTIH
 70
     0
  9
$DIMTOH
 70
     0
  9
$DIMSE1
 70
     0
  9
$DIMSE2
 70
     0
  9
$DIMTAD
 70
     1
  9
$DIMZIN
 70
     8
  9
$DIMBLK
  1

  9
$DIMASO
 70
     1
  9
$DIMSHO
 70
     1
  9
$DIMPOST
  1

  9
$DIMAPOST
  1

  9
$DIMALT
 70
     0
  9
$DIMALTD
 70
     2
  9
$DIMALTF
 40
25.39999999999999
  9
$DIMLFAC
 40
1.0
  9
$DIMTOFL
 70
     1
  9
$DIMTVP
 40
0.0
  9
$DIMTIX
 70
     1
  9
$DIMSOXD
 70
     0
  9
$DIMSAH
 70
     0
  9
$DIMBLK1
  1

  9
$DIMBLK2
  1

  9
$DIMSTYLE
  2
PROSPEKT
  9
$DIMCLRD
 70
     2
  9
$DIMCLRE
 70
     2
  9
$DIMCLRT
 70
     3
  9
$DIMTFAC
 40
0.5
  9
$DIMGAP
 40
1.0
  9
$DIMJUST
 70
     0
  9
$DIMSD1
 70
     0
  9
$DIMSD2
 70
     0
  9
$DIMTOLJ
 70
     1
  9
$DIMTZIN
 70
     8
  9
$DIMALTZ
 70
     8
  9
$DIMALTTZ
 70
     8
  9
$DIMUPT
 70
     0
  9
$DIMDEC
 70
     2
  9
$DIMTDEC
 70
     2
  9
$DIMALTU
 70
     2
  9
$DIMALTTD
 70
     2
  9
$DIMTXSTY
  7
NORM
  9
$DIMAUNIT
 70
     1
  9
$DIMADEC
 70
     0
  9
$DIMALTRND
 40
0.0
  9
$DIMAZIN
 70
     0
  9
$DIMDSEP
 70
    46
  9
$DIMATFIT
 70
     3
  9
$DIMFRAC
 70
     0
  9
$DIMLDRBLK
  1

  9
$DIMLUNIT
 70
     2
  9
$DIMLWD
 70
    -2
  9
$DIMLWE
 70
    -2
  9
$DIMTMOVE
 70
     2
  9
$LUNITS
 70
     2
  9
$LUPREC
 70
     2
  9
$SKETCHINC
 40
0.1
  9
$FILLETRAD
 40
0.0
  9
$AUNITS
 70
     0
  9
$AUPREC
 70
     0
  9
$MENU
  1
ACAD
  9
$ELEVATION
 40
0.0
  9
$PELEVATION
 40
0.0
  9
$THICKNESS
 40
0.0
  9
$LIMCHECK
 70
     0
  9
$CHAMFERA
 40
0.0
  9
$CHAMFERB
 40
0.0
  9
$CHAMFERC
 40
0.0
  9
$CHAMFERD
 40
0.0
  9
$SKPOLY
 70
     0
  9
$TDCREATE
 40
2449994.578927315
  9
$TDUCREATE
 40
2449994.495593982
  9
$TDUPDATE
 40
2453322.708608623
  9
$TDUUPDATE
 40
2453322.625275289
  9
$TDINDWG
 40
0.2239523264
  9
$TDUSRTIMER
 40
0.2239523264
  9
$USRTIMER
 70
     1
  9
$ANGBASE
 50
0.0
  9
$ANGDIR
 70
     0
  9
$PDMODE
 70
     0
  9
$PDSIZE
 40
0.0
  9
$PLINEWID
 40
0.0
  9
$SPLFRAME
 70
     0
  9
$SPLINETYPE
 70
     6
  9
$SPLINESEGS
 70
     8
  9
$HANDSEED
  5
146
  9
$SURFTAB1
 70
     6
  9
$SURFTAB2
 70
     6
  9
$SURFTYPE
 70
     6
  9
$SURFU
 70
     6
  9
$SURFV
 70
     6
  9
$UCSBASE
  2

  9
$UCSNAME
  2

  9
$UCSORG
 10
0.0
 20
0.0
 30
0.0
  9
$UCSXDIR
 10
1.0
 20
0.0
 30
0.0
  9
$UCSYDIR
 10
0.0
 20
1.0
 30
0.0
  9
$UCSORTHOREF
  2

  9
$UCSORTHOVIEW
 70
     0
  9
$UCSORGTOP
 10
0.0
 20
0.0
 30
0.0
  9
$UCSORGBOTTOM
 10
0.0
 20
0.0
 30
0.0
  9
$UCSORGLEFT
 10
0.0
 20
0.0
 30
0.0
  9
$UCSORGRIGHT
 10
0.0
 20
0.0
 30
0.0
  9
$UCSORGFRONT
 10
0.0
 20
0.0
 30
0.0
  9
$UCSORGBACK
 10
0.0
 20
0.0
 30
0.0
  9
$PUCSBASE
  2

  9
$PUCSNAME
  2

  9
$PUCSORG
 10
0.0
 20
0.0
 30
0.0
  9
$PUCSXDIR
 10
1.0
 20
0.0
 30
0.0
  9
$PUCSYDIR
 10
0.0
 20
1.0
 30
0.0
  9
$PUCSORTHOREF
  2

  9
$PUCSORTHOVIEW
 70
     0
  9
$PUCSORGTOP
 10
0.0
 20
0.0
 30
0.0
  9
$PUCSORGBOTTOM
 10
0.0
 20
0.0
 30
0.0
  9
$PUCSORGLEFT
 10
0.0
 20
0.0
 30
0.0
  9
$PUCSORGRIGHT
 10
0.0
 20
0.0
 30
0.0
  9
$PUCSORGFRONT
 10
0.0
 20
0.0
 30
0.0
  9
$PUCSORGBACK
 10
0.0
 20
0.0
 30
0.0
  9
$USERI1
 70
     0
  9
$USERI2
 70
     0
  9
$USERI3
 70
     0
  9
$USERI4
 70
     0
  9
$USERI5
 70
     0
  9
$USERR1
 40
0.0
  9
$USERR2
 40
0.0
  9
$USERR3
 40
0.0
  9
$USERR4
 40
0.0
  9
$USERR5
 40
0.0
  9
$WORLDVIEW
 70
     1
  9
$SHADEDGE
 70
     3
  9
$SHADEDIF
 70
    70
  9
$TILEMODE
 70
     1
  9
$MAXACTVP
 70
    16
  9
$PINSBASE
 10
0.0
 20
0.0
 30
0.0
  9
$PLIMCHECK
 70
     0
  9
$PEXTMIN
 10
1.000000000000000E+20
 20
1.000000000000000E+20
 30
1.000000000000000E+20
  9
$PEXTMAX
 10
-1.000000000000000E+20
 20
-1.000000000000000E+20
 30
-1.000000000000000E+20
  9
$PLIMMIN
 10
0.0
 20
0.0
  9
$PLIMMAX
 10
12.0
 20
9.0
  9
$UNITMODE
 70
     0
  9
$VISRETAIN
 70
     0
  9
$PLINEGEN
 70
     0
  9
$PSLTSCALE
 70
     1
  9
$TREEDEPTH
 70
  3020
  9
$CMLSTYLE
  2
STANDARD
  9
$CMLJUST
 70
     0
  9
$CMLSCALE
 40
1.0
  9
$PROXYGRAPHICS
 70
     1
  9
$MEASUREMENT
 70
     1
  9
$CELWEIGHT
370
    -1
  9
$ENDCAPS
280
     0
  9
$JOINSTYLE
280
     0
  9
$LWDISPLAY
290
     0
  9
$INSUNITS
 70
     4
  9
$HYPERLINKBASE
  1

  9
$STYLESHEET
  1

  9
$XEDIT
290
     1
  9
$CEPSNTYPE
380
     0
  9
$PSTYLEMODE
290
     1
  9
$FINGERPRINTGUID
  2
{499E3B0A-97BC-400F-A74D-1189C6C7AC8B}
  9
$VERSIONGUID
  2
{6AA16DC4-5FA4-42D3-B763-BA45D4651060}
  9
$EXTNAMES
290
     1
  9
$PSVPSCALE
 40
0.0
  9
$OLESTARTUP
290
     0
  9
$SORTENTS
280
   127
  9
$INDEXCTL
280
     0
  9
$HIDETEXT
280
     1
  9
$XCLIPFRAME
290
     0
  9
$HALOGAP
280
     0
  9
$OBSCOLOR
 70
   257
  9
$OBSLTYPE
280
     0
  9
$INTERSECTIONDISPLAY
280
     0
  9
$INTERSECTIONCOLOR
 70
   257
  9
$DIMASSOC
280
     1
  9
$PROJECTNAME
  1

  0
ENDSEC
  0
SECTION
  2
CLASSES
  0
CLASS
  1
DICTIONARYVAR
  2
AcDbDictionaryVar
  3
ObjectDBX Classes
 90
        0
 91
        1
280
     0
281
     0
  0
CLASS
  1
ACDBDICTIONARYWDFLT
  2
AcDbDictionaryWithDefault
  3
ObjectDBX Classes
 90
        0
 91
        1
280
     0
281
     0
  0
CLASS
  1
ACME_DOCUMENT
  2
AcMeDbDoc
  3
AcMeServices
 90
        0
 91
        0
280
     0
281
     0
  0
CLASS
  1
AMGSETTINGSOBJ
  2
AmgSettingsObj
  3
"AcadM|Product Description: AutoCAD Mechanical 2000|Company: Autodesk"
 90
        0
 91
        2
280
     0
281
     0
  0
CLASS
  1
ACMESCOPE
  2
AcMeScope
  3
AcMeServices
 90
        0
 91
        1
280
     0
281
     0
  0
CLASS
  1
ACMECOMMANDHISTORY
  2
AcMeCommandHistory
  3
AcMeServices
 90
        0
 91
        0
280
     0
281
     0
  0
CLASS
  1
ACIMSYSVARMAN
  2
AcImSysVarManager
  3
AcMeServices
 90
        0
 91
        3
280
     0
281
     0
  0
CLASS
  1
ACIMREALSYSVAR
  2
AcImRealSysVar
  3
AcMeServices
 90
        0
 91
        1
280
     0
281
     0
  0
CLASS
  1
ACIMINTSYSVAR
  2
AcImIntSysVar
  3
AcMeServices
 90
        0
 91
       25
280
     0
281
     0
  0
CLASS
  1
ACMEDRAWINGMAN
  2
AcMeDrawingMan
  3
AcMeServices
 90
        0
 91
        0
280
     0
281
     0
  0
CLASS
  1
ACMEVIEW
  2
AcMeView
  3
AcMeServices
 90
        0
 91
        0
280
     0
281
     0
  0
CLASS
  1
ACDBENTITYCACHE
  2
AcMeEntityCache
  3
AcMeServices
 90
        0
 91
        0
280
     0
281
     0
  0
CLASS
  1
GSMANAGER
  2
AcMeGSManager
  3
AcMeServices
 90
        0
 91
        0
280
     0
281
     0
  0
CLASS
  1
AMDTINTERNALREACTOR
  2
AmdtInternalReactor
  3
AcMeServices
 90
        0
 91
        1
280
     0
281
     0
  0
CLASS
  1
ACMESTATEMGR
  2
AcMeStateMgr
  3
AcMeServices
 90
        0
 91
        1
280
     0
281
     0
  0
CLASS
  1
ACGREFMASTER
  2
AcGrefMaster
  3
AcAttribServices
 90
        0
 91
        1
280
     0
281
     0
  0
CLASS
  1
ACME_DATABASE
  2
AcMeDbDatabase
  3
AcMeServices
 90
        0
 91
        0
280
     0
281
     0
  0
CLASS
  1
ACRFINSADJUSTERMGR
  2
AcRfInsAdjusterMgr
  3
AcMeServices
 90
        0
 91
        0
280
     0
281
     0
  0
CLASS
  1
ACGREFACADMASTER
  2
AcGrefacadMaster
  3
AcGrefServices
 90
        0
 91
        0
280
     0
281
     0
  0
CLASS
  1
AMIMASTER
  2
AmiMaster
  3
AmiServices
 90
        0
 91
        0
280
     0
281
     0
  0
CLASS
  1
ACMDATADICTIONARY
  2
AcmDataDictionary
  3
"AcmSymBB|Product Description: AutoCAD Mechanical 2004 DX|Company: Autodesk"
 90
        0
 91
        0
280
     0
281
     0
  0
CLASS
  1
ACMDATAENTRYBLOCK
  2
AcmDataEntryBlock
  3
"AcmSymBB|Product Description: AutoCAD Mechanical 2004 DX|Company: Autodesk"
 90
        0
 91
        0
280
     0
281
     0
  0
CLASS
  1
ACIMSTRSYSVAR
  2
AcImStrSysVar
  3
AcMeServices
 90
        0
 91
        1
280
     0
281
     0
  0
CLASS
  1
ACMSTANDARDDIN
  2
AcmStandardDIN
  3
"Amdt_StdImp|Product Description: AutoCAD Mechanical 2004 DX|Company: Autodesk"
 90
        0
 91
        1
280
     0
281
     0
  0
CLASS
  1
AMGOBJPROPCFG
  2
AmgObjPropCfg
  3
"AmgLay|Product Description: AutoCAD Mechanical 2000|Company: Autodesk"
 90
        1
 91
        1
280
     0
281
     0
  0
CLASS
  1
AMDTEDGESTANDARDDIN
  2
AmdtEdgeStdDIN
  3
"Amdt_StdImp|Product Description: AutoCAD Mechanical 2004 DX|Company: Autodesk"
 90
        0
 91
        1
280
     0
281
     0
  0
CLASS
  1
ACMSURFSTANDARDDIN
  2
AcmSurfTextStdDIN
  3
"Amdt_StdImp|Product Description: AutoCAD Mechanical 2004 DX|Company: Autodesk"
 90
        0
 91
        1
280
     0
281
     0
  0
CLASS
  1
ACMFCFSTANDARDDIN
  2
AcmFCFStdDIN
  3
"Amdt_StdImp|Product Description: AutoCAD Mechanical 2004 DX|Company: Autodesk"
 90
        0
 91
        1
280
     0
281
     0
  0
CLASS
  1
ACMWELDSTANDARDDIN
  2
AcmWeldingStdDIN
  3
"Amdt_StdImp|Product Description: AutoCAD Mechanical 2004 DX|Company: Autodesk"
 90
        0
 91
        1
280
     0
281
     0
  0
CLASS
  1
ACMIDSTANDARDDIN
  2
AcmIdStdDIN
  3
"Amdt_StdImp|Product Description: AutoCAD Mechanical 2004 DX|Company: Autodesk"
 90
        0
 91
        1
280
     0
281
     0
  0
CLASS
  1
ACMDATUMSTANDARDDIN
  2
AcmDatumStdDIN
  3
"Amdt_StdImp|Product Description: AutoCAD Mechanical 2004 DX|Company: Autodesk"
 90
        0
 91
        1
280
     0
281
     0
  0
CLASS
  1
ACMBOMSTANDARDDIN
  2
AcmBOMStdDIN
  3
"Amdt_StdImp|Product Description: AutoCAD Mechanical 2004 DX|Company: Autodesk"
 90
        0
 91
        1
280
     0
281
     0
  0
CLASS
  1
ACMDETAILSTANDARDDIN
  2
AmdtDetailSymStdDIN
  3
"Amdt_StdImp|Product Description: AutoCAD Mechanical 2004 DX|Company: Autodesk"
 90
        0
 91
        1
280
     0
281
     0
  0
CLASS
  1
ACMSECTIONSTANDARDDIN
  2
AmdtSectionSymStdDIN
  3
"Amdt_StdImp|Product Description: AutoCAD Mechanical 2004 DX|Company: Autodesk"
 90
        0
 91
        1
280
     0
281
     0
  0
CLASS
  1
ACMCENTERLINESTANDARDDIN
  2
AmdtCenterLineStdDIN
  3
"Amdt_StdImp|Product Description: AutoCAD Mechanical 2004 DX|Company: Autodesk"
 90
        0
 91
        1
280
     0
281
     0
  0
CLASS
  1
ACMNOTESTANDARDDIN
  2
AmdtNoteStdDIN
  3
"Amdt_StdImp|Product Description: AutoCAD Mechanical 2004 DX|Company: Autodesk"
 90
        0
 91
        1
280
     0
281
     0
  0
CLASS
  1
ACAMGLAYSTD
  2
AcAmgLayStd
  3
"AcAmgLayStd|Product Description: AutoCAD Mechanical 2000|Company: Autodesk"
 90
        0
 91
        1
280
     0
281
     0
  0
CLASS
  1
ACAMGDIMSTD
  2
AcAmgDimStd
  3
"AcAmgDimStd|Product Description: AutoCAD Mechanical 2000|Company: Autodesk"
 90
        0
 91
        1
280
     0
281
     0
  0
CLASS
  1
ACAMGHOLECHARTSTDDIN
  2
AcAmgHoleChartStdDIN
  3
ACMSYMBB_MODULE_NAME
 90
        0
 91
        1
280
     0
281
     0
  0
CLASS
  1
ACAMGTITLESTD
  2
AcAmgTitleStd
  3
"TITLEAPP"
 90
        0
 91
        1
280
     0
281
     0
  0
CLASS
  1
LAYER_INDEX
  2
AcDbLayerIndex
  3
ObjectDBX Classes
 90
        0
 91
        0
280
     0
281
     0
  0
CLASS
  1
IDBUFFER
  2
AcDbIdBuffer
  3
ObjectDBX Classes
 90
        0
 91
        0
280
     0
281
     0
  0
CLASS
  1
PLOTSETTINGS
  2
AcDbPlotSettings
  3
ObjectDBX Classes
 90
        0
 91
        0
280
     0
281
     0
  0
CLASS
  1
ACAMGFILTERDAT
  2
AcAmgFilterDat
  3
"AcadM|Product Description: AutoCAD Mechanical 2000|Company: Autodesk"
 90
        0
 91
        0
280
     0
281
     0
  0
CLASS
  1
TABLESTYLE
  2
AcDbTableStyle
  3
ObjectDBX Classes
 90
     2047
 91
        1
280
     0
281
     0
  0
CLASS
  1
AM_DRAWING_MGR
  2
AcDmDwgMgr
  3
AcMechDwgViewMgmt
 90
        0
 91
        1
280
     0
281
     0
  0
CLASS
  1
AM_DWG_DOCUMENT
  2
AcDmDwgDocument
  3
AcMechDwgViewMgmt
 90
        0
 91
        1
280
     0
281
     0
  0
CLASS
  1
AM_DWG_SHEET
  2
AcDmSheet
  3
AcMechDwgViewMgmt
 90
        0
 91
        1
280
     0
281
     0
  0
CLASS
  1
AM_VIEWDIMPARMAP
  2
AcDmViewDimParMap
  3
AcMechDwgViewMgmt
 90
        0
 91
        1
280
     0
281
     0
  0
CLASS
  1
AM_DWGMGR_NAME
  2
AcDmDwgMgrName
  3
AcMechDwgViewMgmt
 90
        0
 91
        1
280
     0
281
     0
  0
CLASS
  1
AMDTMENUSTATEMGR
  2
AmdtMenuStateMgr
  3
McadcomServices
 90
        0
 91
        0
280
     0
281
     0
  0
CLASS
  1
AMDTMCOMMENUSTATE
  2
AmdtMcomMenuState
  3
McadcomServices
 90
        0
 91
        0
280
     0
281
     0
  0
CLASS
  1
MAPIAMMOUDLE
  2
MApiAmModule
  3
MApiAmServices
 90
        0
 91
        0
280
     0
281
     0
  0
CLASS
  1
AMDTADMENUSTATE
  2
AmdtAdMenuState
  3
DesignerServices
 90
        0
 91
        0
280
     0
281
     0
  0
CLASS
  1
ADAPPL
  2
AcAdAppl
  3
DesignerServices
 90
        0
 91
        1
280
     0
281
     0
  0
CLASS
  1
DEPMGR
  2
AcAdDepMgr
  3
DesignerServices
 90
        0
 91
        1
280
     0
281
     0
  0
CLASS
  1
PARAMMGR
  2
AcAdParamMgr
  3
DesignerServices
 90
        0
 91
        1
280
     0
281
     0
  0
CLASS
  1
PARAMSCOPE
  2
AcAdParamScope
  3
DesignerServices
 90
        0
 91
        1
280
     0
281
     0
  0
CLASS
  1
NAMEDAPPL
  2
AcAdNamedAppl
  3
DesignerServices
 90
        0
 91
        1
280
     0
281
     0
  0
CLASS
  1
AMDTDMMENUSTATE
  2
AmdtDmMenuState
  3
AcMechDwgViewMgmt
 90
        0
 91
        0
280
     0
281
     0
  0
CLASS
  1
AMDTAMMENUSTATE
  2
AmdtAmMenuState
  3
DesignerAssemblies
 90
        0
 91
        0
280
     0
281
     0
  0
CLASS
  1
ACAMPROJECT
  2
AcAmProject
  3
DesignerAssemblies
 90
        0
 91
        0
280
     0
281
     0
  0
CLASS
  1
ACAMGRCOMPDEF
  2
AcAmGrCompDef
  3
DesignerAssemblies
 90
        0
 91
        0
280
     0
281
     0
  0
CLASS
  1
ACCMCONTEXT
  2
AcCmContext
  3
DesignerAssemblies
 90
        0
 91
        0
280
     0
281
     0
  0
CLASS
  1
ACAMCOMPDEF
  2
AcAmCompDef
  3
DesignerAssemblies
 90
        0
 91
        0
280
     0
281
     0
  0
CLASS
  1
ACAMCOMPDEFMGR
  2
AcAmCompDefMgr
  3
DesignerAssemblies
 90
        0
 91
        0
280
     0
281
     0
  0
CLASS
  1
AMCONTEXTMGR
  2
AcAmContextMgr
  3
DesignerAssemblies
 90
        0
 91
        0
280
     0
281
     0
  0
CLASS
  1
ACAMCONTEXTMODELER
  2
AcAmContextModeler
  3
DesignerAssemblies
 90
        0
 91
        0
280
     0
281
     0
  0
CLASS
  1
ACRFATTGENMGR
  2
AcRfAttGeneralMgr
  3
AcAttribServices
 90
        0
 91
        0
280
     0
281
     0
  0
CLASS
  1
ACRFOBJATTMGR
  2
AcRfObjAttGroupMgr
  3
AcAttribServices
 90
        0
 91
        0
280
     0
281
     0
  0
CLASS
  1
ACRFMCADAPIATTHOLDER
  2
AcRfMCADAPIAttHolder
  3
AcAttribServices
 90
        0
 91
        0
280
     0
281
     0
  0
CLASS
  1
AMDTSYSATTR
  2
AmdtSystemAttribute
  3
AcAttribServices
 90
        0
 91
        0
280
     0
281
     0
  0
CLASS
  1
ACMTHREADLINESTANDARDDIN
  2
AmdtThreadLineStdDIN
  3
"Amdt_StdImp|Product Description: AutoCAD Mechanical 2004 DX|Company: Autodesk"
 90
        0
 91
        1
280
     0
281
     0
  0
CLASS
  1
CATALOGSTATE
  2
AcAmCatalogState
  3
DesignerAssemblies
 90
        0
 91
        0
280
     0
281
     0
  0
CLASS
  1
ACAMGRCOMPDEFSET
  2
AcAmGrCompDefSet
  3
DesignerAssemblies
 90
        0
 91
        0
280
     0
281
     0
  0
CLASS
  1
AMDTBROWSERDBTAB
  2
AmdtBrowserDbTab
  3
McadcomServices
 90
        0
 91
        0
280
     0
281
     0
  0
CLASS
  1
CBROWSERAPPOBJECT
  2
CBrowserAppObject
  3
McadcomServices
 90
        0
 91
        0
280
     0
281
     0
  0
CLASS
  1
DM_PLACEHOLDER
  2
AcDmSelsetPlaceholder
  3
AcMechDwgViewMgmt
 90
        0
 91
        0
280
     0
281
     0
  0
CLASS
  1
SORTENTSTABLE
  2
AcDbSortentsTable
  3
ObjectDBX Classes
 90
        0
 91
        2
280
     0
281
     0
  0
ENDSEC
  0
SECTION
  2
TABLES
  0
TABLE
  2
VPORT
  5
1F
330
0
100
AcDbSymbolTable
 70
     1
  0
VPORT
  5
20
330
1F
100
AcDbSymbolTableRecord
100
AcDbViewportTableRecord
  2
*Active
 70
     0
 10
0.0
 20
0.0
 11
1.0
 21
1.0
 12
776.5880094390151
 22
239.9060261446523
 13
0.0
 23
0.0
 14
2.0
 24
2.0
 15
10.0
 25
10.0
 16
0.0
 26
0.0
 36
1.0
 17
0.0
 27
0.0
 37
0.0
 40
323.1747214742331
 41
1.571127502634351
 42
50.0
 43
0.0
 44
0.0
 50
0.0
 51
0.0
 71
     0
 72
  5000
 73
     1
 74
     0
 75
     0
 76
     0
 77
     0
 78
     0
281
     0
 65
     1
110
0.0
120
0.0
130
0.0
111
1.0
121
0.0
131
0.0
112
0.0
122
1.0
132
0.0
 79
     0
146
0.0
  0
ENDTAB
  0
TABLE
  2
LTYPE
  5
1A
330
0
100
AcDbSymbolTable
 70
    15
  0
LTYPE
  5
1B
330
1A
100
AcDbSymbolTableRecord
100
AcDbLinetypeTableRecord
  2
BYBLOCK
 70
     0
  3

 72
    65
 73
     0
 40
0.0
  0
LTYPE
  5
1C
330
1A
100
AcDbSymbolTableRecord
100
AcDbLinetypeTableRecord
  2
BYLAYER
 70
     0
  3

 72
    65
 73
     0
 40
0.0
  0
LTYPE
  5
A
330
1A
100
AcDbSymbolTableRecord
100
AcDbLinetypeTableRecord
  2
CONTINUOUS
 70
     0
  3
Durchgezogene Linie
 72
    65
 73
     0
 40
0.0
  0
LTYPE
  5
BE
330
1A
100
AcDbSymbolTableRecord
100
AcDbLinetypeTableRecord
  2
STRICHPUNKT
 70
     0
  3
__ . __ . __ . __ . __ . __ . __ . __ . __ . __
 72
    65
 73
     4
 40
1.0
 49
0.5
 74
     0
 49
-0.25
 74
     0
 49
0.0
 74
     0
 49
-0.25
 74
     0
  0
LTYPE
  5
F7
330
1A
100
AcDbSymbolTableRecord
100
AcDbLinetypeTableRecord
  2
AM_ISO02W050
 70
     0
  3
__ __ __ __ __ __ __ __ __ __ __ __ __ __ __
 72
    65
 73
     2
 40
7.5
 49
6.0
 74
     0
 49
-1.5
 74
     0
  0
LTYPE
  5
109
330
1A
100
AcDbSymbolTableRecord
100
AcDbLinetypeTableRecord
  2
ACDINWELD
 70
     0
  3
_ _ _ _ _
 72
    65
 73
     2
 40
2.0
 49
2.0
 74
     0
 49
-1.0
 74
     0
  0
LTYPE
  5
10C
330
1A
100
AcDbSymbolTableRecord
100
AcDbLinetypeTableRecord
  2
ACDINTGB
 70
     0
  3
__ . . __ . .
 72
    65
 73
     6
 40
9.0
 49
4.0
 74
     0
 49
-1.0
 74
     0
 49
1.0
 74
     0
 49
-1.0
 74
     0
 49
1.0
 74
     0
 49
-1.0
 74
     0
  0
LTYPE
  5
10D
330
1A
100
AcDbSymbolTableRecord
100
AcDbLinetypeTableRecord
  2
ACDINTGL
 70
     0
  3
_ _ _ _ _
 72
    65
 73
     2
 40
3.0
 49
2.0
 74
     0
 49
-1.0
 74
     0
  0
LTYPE
  5
111
330
1A
100
AcDbSymbolTableRecord
100
AcDbLinetypeTableRecord
  2
CENTER
 70
     0
  3
__ . __
 72
    65
 73
     4
 40
7.0
 49
4.0
 74
     0
 49
-1.0
 74
     0
 49
1.0
 74
     0
 49
-1.0
 74
     0
  0
LTYPE
  5
F2
330
1A
100
AcDbSymbolTableRecord
100
AcDbLinetypeTableRecord
  2
gen3
 70
     0
  3
-- -- -- -- -- -- -- -- -- -- -- -- -- -- --
 72
    65
 73
     2
 40
6.25
 49
4.75
 74
     0
 49
-1.5
 74
     0
  0
LTYPE
  5
F3
330
1A
100
AcDbSymbolTableRecord
100
AcDbLinetypeTableRecord
  2
gen7
 70
     0
  3
____ . ____ . ____ . ____ . ____ . ____ . ____
 72
    65
 73
     4
 40
13.75
 49
9.75
 74
     0
 49
-1.5
 74
     0
 49
1.0
 74
     0
 49
-1.5
 74
     0
  0
LTYPE
  5
F4
330
1A
100
AcDbSymbolTableRecord
100
AcDbLinetypeTableRecord
  2
gen3a
 70
     0
  3
 - - - - -
 72
    65
 73
     2
 40
3.125
 49
2.25
 74
     0
 49
-0.875
 74
     0
  0
LTYPE
  5
F5
330
1A
100
AcDbSymbolTableRecord
100
AcDbLinetypeTableRecord
  2
gen7a
 70
     0
  3
__ . __ . __
 72
    65
 73
     4
 40
6.875
 49
4.75
 74
     0
 49
-0.875
 74
     0
 49
0.375
 74
     0
 49
-0.875
 74
     0
  0
LTYPE
  5
F6
330
1A
100
AcDbSymbolTableRecord
100
AcDbLinetypeTableRecord
  2
gen4a
 70
     0
  3
_____ . . _____ . . _____ . . ____ .. ____
 72
    65
 73
     6
 40
16.25
 49
9.75
 74
     0
 49
-1.5
 74
     0
 49
1.0
 74
     0
 49
-1.5
 74
     0
 49
1.0
 74
     0
 49
-1.5
 74
     0
  0
LTYPE
  5
F8
330
1A
100
AcDbSymbolTableRecord
100
AcDbLinetypeTableRecord
  2
genzigzag
 70
     0
  3
/\/-/\/-/\/-/\/-/\/-/\/
 72
    65
 73
     2
 40
12.0001
 49
0.0001
 74
     4
 75
   135
340
F9
 46
2.0
 50
0.0
 44
0.0
 45
0.0
 49
-12.0
 74
     0
  0
LTYPE
  5
13F
330
1A
100
AcDbSymbolTableRecord
100
AcDbLinetypeTableRecord
  2
HIDDEN
 70
     0
  3
Verdeckt
 72
    65
 73
     2
 40
9.525
 49
6.349999999999999
 74
     0
 49
-3.174999999999999
 74
     0
  0
LTYPE
  5
140
330
1A
100
AcDbSymbolTableRecord
100
AcDbLinetypeTableRecord
  2
PHANTOM2
 70
     0
  3
Phantom (.5x) ___ _ _ ___ _ _ ___ _ _ ___ _ _
 72
    65
 73
     6
 40
31.75
 49
15.875
 74
     0
 49
-3.174999999999999
 74
     0
 49
3.174999999999999
 74
     0
 49
-3.174999999999999
 74
     0
 49
3.174999999999999
 74
     0
 49
-3.174999999999999
 74
     0
  0
ENDTAB
  0
TABLE
  2
LAYER
  5
12
102
{ACAD_XDICTIONARY
360
13
102
}
330
0
100
AcDbSymbolTable
 70
     7
  0
LAYER
  5
6
330
12
100
AcDbSymbolTableRecord
100
AcDbLayerTableRecord
  2
0
 70
     0
 62
     7
  6
CONTINUOUS
370
    -3
390
7
  0
LAYER
  5
3E
330
12
100
AcDbSymbolTableRecord
100
AcDbLayerTableRecord
  2
DEFPOINTS
 70
     0
 62
     7
  6
CONTINUOUS
290
     0
370
    -3
390
7
  0
LAYER
  5
C6
330
12
100
AcDbSymbolTableRecord
100
AcDbLayerTableRecord
  2
UMRISS05
 70
     0
 62
     4
  6
CONTINUOUS
370
    -3
390
7
  0
LAYER
  5
2E
330
12
100
AcDbSymbolTableRecord
100
AcDbLayerTableRecord
  2
BEMASSUNG
 70
     0
 62
     2
  6
CONTINUOUS
370
    -3
390
7
  0
LAYER
  5
BD
330
12
100
AcDbSymbolTableRecord
100
AcDbLayerTableRecord
  2
ACHSEN
 70
     0
 62
     1
  6
STRICHPUNKT
370
    -3
390
7
  0
LAYER
  5
E0
330
12
100
AcDbSymbolTableRecord
100
AcDbLayerTableRecord
  2
UMRISS03
 70
     0
 62
     3
  6
CONTINUOUS
370
    -3
390
7
  0
LAYER
  5
B3
330
12
100
AcDbSymbolTableRecord
100
AcDbLayerTableRecord
  2
8
 70
     0
 62
     1
  6
CONTINUOUS
370
    -3
390
7
  0
ENDTAB
  0
TABLE
  2
STYLE
  5
17
330
0
100
AcDbSymbolTable
 70
     7
  0
STYLE
  5
18
330
17
100
AcDbSymbolTableRecord
100
AcDbTextStyleTableRecord
  2
STANDARD
 70
     0
 40
0.0
 41
1.0
 50
0.0
 71
     0
 42
0.2
  3
txt
  4

  0
STYLE
  5
2F
330
17
100
AcDbSymbolTableRecord
100
AcDbTextStyleTableRecord
  2
ROMANS
 70
     0
 40
8.5
 41
0.7
 50
0.0
 71
     0
 42
8.5
  3
ROMANS.shx
  4

  0
STYLE
  5
24
330
17
100
AcDbSymbolTableRecord
100
AcDbTextStyleTableRecord
  2
NORM
 70
     0
 40
0.0
 41
0.9
 50
0.0
 71
     0
 42
3.5
  3
SIMPLEX.shx
  4

  0
STYLE
  5
103
330
17
100
AcDbSymbolTableRecord
100
AcDbTextStyleTableRecord
  2
ACDINTS
 70
     0
 40
1.0
 41
1.0
 50
0.0
 71
     0
 42
8.5
  3
isocp.shx
  4

  0
STYLE
  5
107
330
17
100
AcDbSymbolTableRecord
100
AcDbTextStyleTableRecord
  2
ACDINGDT
 70
     0
 40
0.0
 41
1.0
 50
0.0
 71
     0
 42
8.5
  3
amgdt.shx
  4

  0
STYLE
  5
F9
330
17
100
AcDbSymbolTableRecord
100
AcDbTextStyleTableRecord
  2

 70
     1
 40
0.0
 41
1.0
 50
0.0
 71
     0
 42
8.5
  3
genltshp.shx
  4

  0
STYLE
  5
26
330
17
100
AcDbSymbolTableRecord
100
AcDbTextStyleTableRecord
  2
WMF
 70
     0
 40
0.0
 41
1.0
 50
0.0
 71
     0
 42
6.5
  3
ARIAL.TTF
  4

1001
ACAD
1000
Arial
1071
       34
  0
ENDTAB
  0
TABLE
  2
VIEW
  5
1D
330
0
100
AcDbSymbolTable
 70
     0
  0
ENDTAB
  0
TABLE
  2
UCS
  5
1E
330
0
100
AcDbSymbolTable
 70
     0
  0
ENDTAB
  0
TABLE
  2
APPID
  5
21
330
0
100
AcDbSymbolTable
 70
     4
  0
APPID
  5
16
330
21
100
AcDbSymbolTableRecord
100
AcDbRegAppTableRecord
  2
ACAD
 70
     0
  0
APPID
  5
B5
330
21
100
AcDbSymbolTableRecord
100
AcDbRegAppTableRecord
  2
GENIUS_GENODEF_13
 70
     0
  0
APPID
  5
B4
330
21
100
AcDbSymbolTableRecord
100
AcDbRegAppTableRecord
  2
GENIUS_GENOBJ-N-HTC_13
 70
     0
  0
APPID
  5
B6
330
21
100
AcDbSymbolTableRecord
100
AcDbRegAppTableRecord
  2
GENIUS_GENHATCH_13
 70
     0
  0
ENDTAB
  0
TABLE
  2
DIMSTYLE
  5
22
330
0
100
AcDbSymbolTable
 70
     2
100
AcDbDimStyleTable
 71
     2
340
23
340
25
  0
DIMSTYLE
105
23
102
{ACAD_REACTORS
330
7C
330
89
330
98
330
A5
330
6F
330
32
330
42
330
60
330
51
102
}
330
22
100
AcDbSymbolTableRecord
100
AcDbDimStyleTableRecord
  2
PROSPEKT
 70
     0
 40
1.5
 41
3.5
 42
0.5
 43
8.0
 44
1.0
 73
     0
 74
     0
 77
     1
 78
     8
140
3.5
141
1.5
143
25.39999999999999
146
0.5
147
1.0
172
     1
174
     1
176
     2
177
     2
178
     3
271
     2
272
     2
275
     1
279
     2
284
     8
285
     8
286
     8
340
24
  0
DIMSTYLE
105
25
330
22
100
AcDbSymbolTableRecord
100
AcDbDimStyleTableRecord
  2
WMF
 70
     0
 40
1.9
 41
2.799999999999999
 42
1.0
 43
0.0
 44
1.0
 73
     0
 74
     0
 77
     1
 78
     8
140
3.399999999999999
141
1.5
146
0.5
147
1.0
172
     1
174
     1
176
   256
177
   256
178
   256
271
     2
272
     2
279
     2
284
     8
285
     8
286
     8
340
26
  0
ENDTAB
  0
TABLE
  2
BLOCK_RECORD
  5
1
330
0
100
AcDbSymbolTable
 70
     9
  0
BLOCK_RECORD
  5
2
102
{ACAD_XDICTIONARY
360
3
102
}
330
1
100
AcDbSymbolTableRecord
100
AcDbBlockTableRecord
  2
*MODEL_SPACE
340
C
  0
BLOCK_RECORD
  5
E
330
1
100
AcDbSymbolTableRecord
100
AcDbBlockTableRecord
  2
*PAPER_SPACE
340
11
  0
BLOCK_RECORD
  5
8A
330
1
100
AcDbSymbolTableRecord
100
AcDbBlockTableRecord
  2
*D0
340
0
  0
BLOCK_RECORD
  5
7D
330
1
100
AcDbSymbolTableRecord
100
AcDbBlockTableRecord
  2
*D1
340
0
  0
BLOCK_RECORD
  5
70
330
1
100
AcDbSymbolTableRecord
100
AcDbBlockTableRecord
  2
*D2
340
0
  0
BLOCK_RECORD
  5
61
330
1
100
AcDbSymbolTableRecord
100
AcDbBlockTableRecord
  2
*D3
340
0
  0
BLOCK_RECORD
  5
52
330
1
100
AcDbSymbolTableRecord
100
AcDbBlockTableRecord
  2
*D4
340
0
  0
BLOCK_RECORD
  5
43
330
1
100
AcDbSymbolTableRecord
100
AcDbBlockTableRecord
  2
*D5
340
0
  0
BLOCK_RECORD
  5
33
330
1
100
AcDbSymbolTableRecord
100
AcDbBlockTableRecord
  2
*D6
340
0
  0
BLOCK_RECORD
  5
A6
330
1
100
AcDbSymbolTableRecord
100
AcDbBlockTableRecord
  2
*D7
340
0
  0
BLOCK_RECORD
  5
99
330
1
100
AcDbSymbolTableRecord
100
AcDbBlockTableRecord
  2
*D8
340
0
  0
ENDTAB
  0
ENDSEC
  0
SECTION
  2
BLOCKS
  0
BLOCK
  5
5
330
2
100
AcDbEntity
  8
0
100
AcDbBlockBegin
  2
*MODEL_SPACE
 70
     0
 10
0.0
 20
0.0
 30
0.0
  3
*MODEL_SPACE
  1

  0
ENDBLK
  5
B
330
2
100
AcDbEntity
  8
0
100
AcDbBlockEnd
  0
BLOCK
  5
F
330
E
100
AcDbEntity
 67
     1
  8
0
100
AcDbBlockBegin
  2
*PAPER_SPACE
 70
     0
 10
0.0
 20
0.0
 30
0.0
  3
*PAPER_SPACE
  1

  0
ENDBLK
  5
10
330
E
100
AcDbEntity
 67
     1
  8
0
100
AcDbBlockEnd
  0
BLOCK
  5
8B
330
8A
100
AcDbEntity
  8
0
100
AcDbBlockBegin
  2
*D0
 70
     1
 10
0.0
 20
0.0
 30
0.0
  3
*D0
  1

  0
LINE
  5
8C
330
8A
100
AcDbEntity
  8
BEMASSUNG
  6
Continuous
 62
     2
370
    -2
100
AcDbLine
 10
752.4307466385239
 20
330.0384373198897
 30
0.0
 11
752.4307466385239
 21
341.5
 31
0.0
  0
LINE
  5
8D
330
8A
100
AcDbEntity
  8
BEMASSUNG
  6
Continuous
 62
     2
370
    -2
100
AcDbLine
 10
762.4307466385239
 20
316.0768875502261
 30
0.0
 11
762.4307466385239
 21
341.5
 31
0.0
  0
LINE
  5
8E
330
8A
100
AcDbEntity
  8
BEMASSUNG
  6
Continuous
 62
     2
370
    -2
100
AcDbLine
 10
747.1807466385239
 20
340.0
 30
0.0
 11
741.9307466385239
 21
340.0
 31
0.0
  0
LINE
  5
8F
330
8A
100
AcDbEntity
  8
BEMASSUNG
  6
Continuous
 62
     2
370
    -2
100
AcDbLine
 10
767.6807466385239
 20
340.0
 30
0.0
 11
772.9307466385239
 21
340.0
 31
0.0
  0
LINE
  5
90
330
8A
100
AcDbEntity
  8
BEMASSUNG
  6
Continuous
 62
     2
370
    -2
100
AcDbLine
 10
752.4307466385239
 20
340.0
 30
0.0
 11
762.4307466385239
 21
340.0
 31
0.0
  0
SOLID
  5
91
330
8A
100
AcDbEntity
  8
BEMASSUNG
  6
Continuous
 62
     2
100
AcDbTrace
 10
747.1807466385239
 20
340.875
 30
0.0
 11
747.1807466385239
 21
339.125
 31
0.0
 12
752.4307466385239
 22
340.0
 32
0.0
 13
752.4307466385239
 23
340.0
 33
0.0
  0
SOLID
  5
92
330
8A
100
AcDbEntity
  8
BEMASSUNG
  6
Continuous
 62
     2
100
AcDbTrace
 10
767.6807466385239
 20
340.875
 30
0.0
 11
767.6807466385239
 21
339.125
 31
0.0
 12
762.4307466385239
 22
340.0
 32
0.0
 13
762.4307466385239
 23
340.0
 33
0.0
  0
MTEXT
  5
93
330
8A
100
AcDbEntity
  8
BEMASSUNG
  6
Continuous
 62
     3
100
AcDbMText
 10
757.4307466385239
 20
344.125
 30
0.0
 40
5.25
 41
0.0
 71
     5
 72
     1
  1
\A1;10
  7
NORM
 73
     1
 44
1.0
  0
POINT
  5
94
330
8A
100
AcDbEntity
  8
DEFPOINTS
  6
Continuous
 62
     0
100
AcDbPoint
 10
752.4307466385239
 20
329.2884373198897
 30
0.0
  0
POINT
  5
95
330
8A
100
AcDbEntity
  8
DEFPOINTS
  6
Continuous
 62
     0
100
AcDbPoint
 10
762.4307466385239
 20
315.3268875502261
 30
0.0
  0
POINT
  5
96
330
8A
100
AcDbEntity
  8
DEFPOINTS
  6
Continuous
 62
     0
100
AcDbPoint
 10
762.4307466385239
 20
340.0
 30
0.0
  0
ENDBLK
  5
97
330
8A
100
AcDbEntity
  8
0
100
AcDbBlockEnd
  0
BLOCK
  5
7E
330
7D
100
AcDbEntity
  8
0
100
AcDbBlockBegin
  2
*D1
 70
     1
 10
0.0
 20
0.0
 30
0.0
  3
*D1
  1

  0
LINE
  5
7F
330
7D
100
AcDbEntity
  8
BEMASSUNG
  6
Continuous
 62
     2
370
    -2
100
AcDbLine
 10
702.4307466385239
 20
316.0768875502261
 30
0.0
 11
702.4307466385239
 21
355.5
 31
0.0
  0
LINE
  5
80
330
7D
100
AcDbEntity
  8
BEMASSUNG
  6
Continuous
 62
     2
370
    -2
100
AcDbLine
 10
762.4307466385239
 20
316.0768875502261
 30
0.0
 11
762.4307466385239
 21
355.5
 31
0.0
  0
LINE
  5
81
330
7D
100
AcDbEntity
  8
BEMASSUNG
  6
Continuous
 62
     2
370
    -2
100
AcDbLine
 10
707.6807466385239
 20
354.0
 30
0.0
 11
757.1807466385239
 21
354.0
 31
0.0
  0
SOLID
  5
82
330
7D
100
AcDbEntity
  8
BEMASSUNG
  6
Continuous
 62
     2
100
AcDbTrace
 10
707.6807466385239
 20
354.875
 30
0.0
 11
707.6807466385239
 21
353.125
 31
0.0
 12
702.4307466385239
 22
354.0
 32
0.0
 13
702.4307466385239
 23
354.0
 33
0.0
  0
SOLID
  5
83
330
7D
100
AcDbEntity
  8
BEMASSUNG
  6
Continuous
 62
     2
100
AcDbTrace
 10
757.1807466385239
 20
354.875
 30
0.0
 11
757.1807466385239
 21
353.125
 31
0.0
 12
762.4307466385239
 22
354.0
 32
0.0
 13
762.4307466385239
 23
354.0
 33
0.0
  0
MTEXT
  5
84
330
7D
100
AcDbEntity
  8
BEMASSUNG
  6
Continuous
 62
     3
100
AcDbMText
 10
732.4307466385239
 20
358.125
 30
0.0
 40
5.25
 41
0.0
 71
     5
 72
     1
  1
\A1;60
  7
NORM
 73
     1
 44
1.0
  0
POINT
  5
85
330
7D
100
AcDbEntity
  8
DEFPOINTS
  6
Continuous
 62
     0
100
AcDbPoint
 10
702.4307466385239
 20
315.3268875502261
 30
0.0
  0
POINT
  5
86
330
7D
100
AcDbEntity
  8
DEFPOINTS
  6
Continuous
 62
     0
100
AcDbPoint
 10
762.4307466385239
 20
315.3268875502261
 30
0.0
  0
POINT
  5
87
330
7D
100
AcDbEntity
  8
DEFPOINTS
  6
Continuous
 62
     0
100
AcDbPoint
 10
762.4307466385239
 20
354.0
 30
0.0
  0
ENDBLK
  5
88
330
7D
100
AcDbEntity
  8
0
100
AcDbBlockEnd
  0
BLOCK
  5
71
330
70
100
AcDbEntity
  8
0
100
AcDbBlockBegin
  2
*D2
 70
     1
 10
0.0
 20
0.0
 30
0.0
  3
*D2
  1

  0
LINE
  5
72
330
70
100
AcDbEntity
  8
BEMASSUNG
  6
Continuous
 62
     2
370
    -2
100
AcDbLine
 10
711.6807466385239
 20
325.3268875502261
 30
0.0
 11
689.9112741358731
 21
325.3268875502261
 31
0.0
  0
LINE
  5
73
330
70
100
AcDbEntity
  8
BEMASSUNG
  6
Continuous
 62
     2
370
    -2
100
AcDbLine
 10
711.6807466385239
 20
305.3268875502261
 30
0.0
 11
689.9112741358731
 21
305.3268875502261
 31
0.0
  0
LINE
  5
74
330
70
100
AcDbEntity
  8
BEMASSUNG
  6
Continuous
 62
     2
370
    -2
100
AcDbLine
 10
691.4112741358731
 20
320.0768875502261
 30
0.0
 11
691.4112741358731
 21
310.5768875502261
 31
0.0
  0
SOLID
  5
75
330
70
100
AcDbEntity
  8
BEMASSUNG
  6
Continuous
 62
     2
100
AcDbTrace
 10
690.5362741358731
 20
320.0768875502261
 30
0.0
 11
692.2862741358731
 21
320.0768875502261
 31
0.0
 12
691.4112741358731
 22
325.3268875502261
 32
0.0
 13
691.4112741358731
 23
325.3268875502261
 33
0.0
  0
SOLID
  5
76
330
70
100
AcDbEntity
  8
BEMASSUNG
  6
Continuous
 62
     2
100
AcDbTrace
 10
690.5362741358731
 20
310.5768875502261
 30
0.0
 11
692.2862741358731
 21
310.5768875502261
 31
0.0
 12
691.4112741358731
 22
305.3268875502261
 32
0.0
 13
691.4112741358731
 23
305.3268875502261
 33
0.0
  0
MTEXT
  5
77
330
70
100
AcDbEntity
  8
BEMASSUNG
  6
Continuous
 62
     3
100
AcDbMText
 10
687.286274135873
 20
315.3268875502262
 30
0.0
 40
5.25
 41
0.0
 71
     5
 72
     1
  1
\A1;20
  7
NORM
 11
0.0000000000000001
 21
1.0
 31
0.0
 73
     1
 44
1.0
  0
POINT
  5
78
330
70
100
AcDbEntity
  8
DEFPOINTS
  6
Continuous
 62
     0
100
AcDbPoint
 10
712.4307466385239
 20
325.3268875502261
 30
0.0
  0
POINT
  5
79
330
70
100
AcDbEntity
  8
DEFPOINTS
  6
Continuous
 62
     0
100
AcDbPoint
 10
712.4307466385239
 20
305.3268875502261
 30
0.0
  0
POINT
  5
7A
330
70
100
AcDbEntity
  8
DEFPOINTS
  6
Continuous
 62
     0
100
AcDbPoint
 10
691.4112741358731
 20
305.3268875502261
 30
0.0
  0
ENDBLK
  5
7B
330
70
100
AcDbEntity
  8
0
100
AcDbBlockEnd
  0
BLOCK
  5
62
330
61
100
AcDbEntity
  8
0
100
AcDbBlockBegin
  2
*D3
 70
     1
 10
0.0
 20
0.0
 30
0.0
  3
*D3
  1

  0
LINE
  5
63
330
61
100
AcDbEntity
  8
BEMASSUNG
  6
Continuous
 62
     2
370
    -2
100
AcDbLine
 10
760.6807466384921
 20
269.2875336299964
 30
0.0
 11
778.9112741358731
 21
269.2875336299964
 31
0.0
  0
LINE
  5
64
330
61
100
AcDbEntity
  8
BEMASSUNG
  6
Continuous
 62
     2
370
    -2
100
AcDbLine
 10
763.1807466384921
 20
256.2875336299964
 30
0.0
 11
778.9112741358731
 21
256.2875336299964
 31
0.0
  0
LINE
  5
65
330
61
100
AcDbEntity
  8
BEMASSUNG
  6
Continuous
 62
     2
370
    -2
100
AcDbLine
 10
777.4112741358731
 20
274.5375336299964
 30
0.0
 11
777.4112741358731
 21
279.7875336299964
 31
0.0
  0
LINE
  5
66
330
61
100
AcDbEntity
  8
BEMASSUNG
  6
Continuous
 62
     2
370
    -2
100
AcDbLine
 10
777.4112741358729
 20
251.0375336299964
 30
0.0
 11
777.4112741358729
 21
245.7875336299964
 31
0.0
  0
LINE
  5
67
330
61
100
AcDbEntity
  8
BEMASSUNG
  6
Continuous
 62
     2
370
    -2
100
AcDbLine
 10
777.4112741358731
 20
269.2875336299964
 30
0.0
 11
777.4112741358731
 21
256.2875336299964
 31
0.0
  0
SOLID
  5
68
330
61
100
AcDbEntity
  8
BEMASSUNG
  6
Continuous
 62
     2
100
AcDbTrace
 10
776.5362741358731
 20
274.5375336299964
 30
0.0
 11
778.2862741358731
 21
274.5375336299964
 31
0.0
 12
777.4112741358731
 22
269.2875336299964
 32
0.0
 13
777.4112741358731
 23
269.2875336299964
 33
0.0
  0
SOLID
  5
69
330
61
100
AcDbEntity
  8
BEMASSUNG
  6
Continuous
 62
     2
100
AcDbTrace
 10
776.5362741358729
 20
251.0375336299964
 30
0.0
 11
778.2862741358729
 21
251.0375336299964
 31
0.0
 12
777.4112741358731
 22
256.2875336299964
 32
0.0
 13
777.4112741358731
 23
256.2875336299964
 33
0.0
  0
MTEXT
  5
6A
330
61
100
AcDbEntity
  8
BEMASSUNG
  6
Continuous
 62
     3
100
AcDbMText
 10
773.2862741358729
 20
262.7875336299965
 30
0.0
 40
5.25
 41
0.0
 71
     5
 72
     1
  1
\A1;13
  7
NORM
 11
0.0000000000000001
 21
1.0
 31
0.0
 73
     1
 44
1.0
  0
POINT
  5
6B
330
61
100
AcDbEntity
  8
DEFPOINTS
  6
Continuous
 62
     0
100
AcDbPoint
 10
759.9307466384921
 20
269.2875336299964
 30
0.0
  0
POINT
  5
6C
330
61
100
AcDbEntity
  8
DEFPOINTS
  6
Continuous
 62
     0
100
AcDbPoint
 10
762.430746638492
 20
256.2875336299964
 30
0.0
  0
POINT
  5
6D
330
61
100
AcDbEntity
  8
DEFPOINTS
  6
Continuous
 62
     0
100
AcDbPoint
 10
777.4112741358731
 20
256.2875336299964
 30
0.0
  0
ENDBLK
  5
6E
330
61
100
AcDbEntity
  8
0
100
AcDbBlockEnd
  0
BLOCK
  5
53
330
52
100
AcDbEntity
  8
0
100
AcDbBlockBegin
  2
*D4
 70
     1
 10
0.0
 20
0.0
 30
0.0
  3
*D4
  1

  0
LINE
  5
54
330
52
100
AcDbEntity
  8
BEMASSUNG
  6
Continuous
 62
     2
370
    -2
100
AcDbLine
 10
701.680746638492
 20
259.2875336299964
 30
0.0
 11
687.911274135873
 21
259.2875336299964
 31
0.0
  0
LINE
  5
55
330
52
100
AcDbEntity
  8
BEMASSUNG
  6
Continuous
 62
     2
370
    -2
100
AcDbLine
 10
701.680746638492
 20
256.2875336299964
 30
0.0
 11
687.911274135873
 21
256.2875336299964
 31
0.0
  0
LINE
  5
56
330
52
100
AcDbEntity
  8
BEMASSUNG
  6
Continuous
 62
     2
370
    -2
100
AcDbLine
 10
689.4112741358731
 20
264.5375336299964
 30
0.0
 11
689.4112741358731
 21
269.7875336299964
 31
0.0
  0
LINE
  5
57
330
52
100
AcDbEntity
  8
BEMASSUNG
  6
Continuous
 62
     2
370
    -2
100
AcDbLine
 10
689.4112741358729
 20
251.0375336299965
 30
0.0
 11
689.4112741358729
 21
245.7875336299964
 31
0.0
  0
LINE
  5
58
330
52
100
AcDbEntity
  8
BEMASSUNG
  6
Continuous
 62
     2
370
    -2
100
AcDbLine
 10
689.4112741358731
 20
259.2875336299964
 30
0.0
 11
689.4112741358731
 21
256.2875336299964
 31
0.0
  0
SOLID
  5
59
330
52
100
AcDbEntity
  8
BEMASSUNG
  6
Continuous
 62
     2
100
AcDbTrace
 10
688.5362741358731
 20
264.5375336299964
 30
0.0
 11
690.2862741358731
 21
264.5375336299964
 31
0.0
 12
689.4112741358731
 22
259.2875336299964
 32
0.0
 13
689.4112741358731
 23
259.2875336299964
 33
0.0
  0
SOLID
  5
5A
330
52
100
AcDbEntity
  8
BEMASSUNG
  6
Continuous
 62
     2
100
AcDbTrace
 10
688.5362741358729
 20
251.0375336299965
 30
0.0
 11
690.2862741358729
 21
251.0375336299965
 31
0.0
 12
689.4112741358731
 22
256.2875336299964
 32
0.0
 13
689.4112741358731
 23
256.2875336299964
 33
0.0
  0
MTEXT
  5
5B
330
52
100
AcDbEntity
  8
BEMASSUNG
  6
Continuous
 62
     3
100
AcDbMText
 10
685.2862741358729
 20
257.7875336299965
 30
0.0
 40
5.25
 41
0.0
 71
     5
 72
     1
  1
\A1;3
  7
NORM
 11
0.0000000000000001
 21
1.0
 31
0.0
 73
     1
 44
1.0
  0
POINT
  5
5C
330
52
100
AcDbEntity
  8
DEFPOINTS
  6
Continuous
 62
     0
100
AcDbPoint
 10
702.4307466384921
 20
259.2875336299964
 30
0.0
  0
POINT
  5
5D
330
52
100
AcDbEntity
  8
DEFPOINTS
  6
Continuous
 62
     0
100
AcDbPoint
 10
702.4307466384921
 20
256.2875336299964
 30
0.0
  0
POINT
  5
5E
330
52
100
AcDbEntity
  8
DEFPOINTS
  6
Continuous
 62
     0
100
AcDbPoint
 10
689.4112741358731
 20
256.2875336299964
 30
0.0
  0
ENDBLK
  5
5F
330
52
100
AcDbEntity
  8
0
100
AcDbBlockEnd
  0
BLOCK
  5
44
330
43
100
AcDbEntity
  8
0
100
AcDbBlockBegin
  2
*D5
 70
     1
 10
0.0
 20
0.0
 30
0.0
  3
*D5
  1

  0
LINE
  5
45
330
43
100
AcDbEntity
  8
BEMASSUNG
  6
Continuous
 62
     2
370
    -2
100
AcDbLine
 10
747.180746638492
 20
270.0375336299964
 30
0.0
 11
747.180746638492
 21
281.5
 31
0.0
  0
LINE
  5
46
330
43
100
AcDbEntity
  8
BEMASSUNG
  6
Continuous
 62
     2
370
    -2
100
AcDbLine
 10
757.6807466384921
 20
270.0375336299964
 30
0.0
 11
757.6807466384921
 21
281.5
 31
0.0
  0
LINE
  5
47
330
43
100
AcDbEntity
  8
BEMASSUNG
  6
Continuous
 62
     2
370
    -2
100
AcDbLine
 10
741.9307466384921
 20
280.0
 30
0.0
 11
736.6807466384921
 21
280.0
 31
0.0
  0
LINE
  5
48
330
43
100
AcDbEntity
  8
BEMASSUNG
  6
Continuous
 62
     2
370
    -2
100
AcDbLine
 10
762.9307466384921
 20
280.0
 30
0.0
 11
768.180746638492
 21
280.0
 31
0.0
  0
LINE
  5
49
330
43
100
AcDbEntity
  8
BEMASSUNG
  6
Continuous
 62
     2
370
    -2
100
AcDbLine
 10
747.180746638492
 20
280.0
 30
0.0
 11
757.6807466384921
 21
280.0
 31
0.0
  0
SOLID
  5
4A
330
43
100
AcDbEntity
  8
BEMASSUNG
  6
Continuous
 62
     2
100
AcDbTrace
 10
741.9307466384921
 20
280.875
 30
0.0
 11
741.9307466384921
 21
279.125
 31
0.0
 12
747.180746638492
 22
280.0
 32
0.0
 13
747.180746638492
 23
280.0
 33
0.0
  0
SOLID
  5
4B
330
43
100
AcDbEntity
  8
BEMASSUNG
  6
Continuous
 62
     2
100
AcDbTrace
 10
762.9307466384921
 20
280.875
 30
0.0
 11
762.9307466384921
 21
279.125
 31
0.0
 12
757.6807466384921
 22
280.0
 32
0.0
 13
757.6807466384921
 23
280.0
 33
0.0
  0
MTEXT
  5
4C
330
43
100
AcDbEntity
  8
BEMASSUNG
  6
Continuous
 62
     3
100
AcDbMText
 10
752.4307466384921
 20
284.125
 30
0.0
 40
5.25
 41
0.0
 71
     5
 72
     1
  1
\A1;%%c10.5
  7
NORM
 73
     1
 44
1.0
  0
POINT
  5
4D
330
43
100
AcDbEntity
  8
DEFPOINTS
  6
Continuous
 62
     0
100
AcDbPoint
 10
747.180746638492
 20
269.2875336299964
 30
0.0
  0
POINT
  5
4E
330
43
100
AcDbEntity
  8
DEFPOINTS
  6
Continuous
 62
     0
100
AcDbPoint
 10
757.6807466384921
 20
269.2875336299964
 30
0.0
  0
POINT
  5
4F
330
43
100
AcDbEntity
  8
DEFPOINTS
  6
Continuous
 62
     0
100
AcDbPoint
 10
757.6807466384921
 20
280.0
 30
0.0
  0
ENDBLK
  5
50
330
43
100
AcDbEntity
  8
0
100
AcDbBlockEnd
  0
BLOCK
  5
34
330
33
100
AcDbEntity
  8
0
100
AcDbBlockBegin
  2
*D6
 70
     1
 10
0.0
 20
0.0
 30
0.0
  3
*D6
  1

  0
LINE
  5
35
330
33
100
AcDbEntity
  8
BEMASSUNG
  6
Continuous
 62
     2
370
    -2
100
AcDbLine
 10
709.8307466384921
 20
260.0375336299964
 30
0.0
 11
709.8307466384921
 21
281.5
 31
0.0
  0
LINE
  5
36
330
33
100
AcDbEntity
  8
BEMASSUNG
  6
Continuous
 62
     2
370
    -2
100
AcDbLine
 10
715.030746638492
 20
260.0375336299964
 30
0.0
 11
715.030746638492
 21
281.5
 31
0.0
  0
LINE
  5
37
330
33
100
AcDbEntity
  8
BEMASSUNG
  6
Continuous
 62
     2
370
    -2
100
AcDbLine
 10
704.580746638492
 20
280.0
 30
0.0
 11
699.330746638492
 21
280.0
 31
0.0
  0
LINE
  5
38
330
33
100
AcDbEntity
  8
BEMASSUNG
  6
Continuous
 62
     2
370
    -2
100
AcDbLine
 10
720.2807466384919
 20
280.0
 30
0.0
 11
725.530746638492
 21
280.0
 31
0.0
  0
LINE
  5
39
330
33
100
AcDbEntity
  8
BEMASSUNG
  6
Continuous
 62
     2
370
    -2
100
AcDbLine
 10
709.8307466384921
 20
280.0
 30
0.0
 11
715.030746638492
 21
280.0
 31
0.0
  0
SOLID
  5
3A
330
33
100
AcDbEntity
  8
BEMASSUNG
  6
Continuous
 62
     2
100
AcDbTrace
 10
704.580746638492
 20
280.875
 30
0.0
 11
704.580746638492
 21
279.125
 31
0.0
 12
709.8307466384921
 22
280.0
 32
0.0
 13
709.8307466384921
 23
280.0
 33
0.0
  0
SOLID
  5
3B
330
33
100
AcDbEntity
  8
BEMASSUNG
  6
Continuous
 62
     2
100
AcDbTrace
 10
720.2807466384919
 20
280.875
 30
0.0
 11
720.2807466384919
 21
279.125
 31
0.0
 12
715.030746638492
 22
280.0
 32
0.0
 13
715.030746638492
 23
280.0
 33
0.0
  0
MTEXT
  5
3C
330
33
100
AcDbEntity
  8
BEMASSUNG
  6
Continuous
 62
     3
100
AcDbMText
 10
712.430746638492
 20
284.125
 30
0.0
 40
5.25
 41
0.0
 71
     5
 72
     1
  1
\A1;%%c5.2
  7
NORM
 73
     1
 44
1.0
  0
POINT
  5
3D
330
33
100
AcDbEntity
  8
DEFPOINTS
  6
Continuous
 62
     0
100
AcDbPoint
 10
709.8307466384921
 20
259.2875336299964
 30
0.0
  0
POINT
  5
3F
330
33
100
AcDbEntity
  8
DEFPOINTS
  6
Continuous
 62
     0
100
AcDbPoint
 10
715.030746638492
 20
259.2875336299964
 30
0.0
  0
POINT
  5
40
330
33
100
AcDbEntity
  8
DEFPOINTS
  6
Continuous
 62
     0
100
AcDbPoint
 10
715.030746638492
 20
280.0
 30
0.0
  0
ENDBLK
  5
41
330
33
100
AcDbEntity
  8
0
100
AcDbBlockEnd
  0
BLOCK
  5
A7
330
A6
100
AcDbEntity
  8
0
100
AcDbBlockBegin
  2
*D7
 70
     1
 10
0.0
 20
0.0
 30
0.0
  3
*D7
  1

  0
LINE
  5
A8
330
A6
100
AcDbEntity
  8
BEMASSUNG
  6
Continuous
 62
     2
370
    -2
100
AcDbLine
 10
712.4307466385239
 20
329.8686994459576
 30
0.0
 11
712.4307466385239
 21
341.5
 31
0.0
  0
LINE
  5
A9
330
A6
100
AcDbEntity
  8
BEMASSUNG
  6
Continuous
 62
     2
370
    -2
100
AcDbLine
 10
732.4307466385239
 20
329.8686994459576
 30
0.0
 11
732.4307466385239
 21
341.5
 31
0.0
  0
LINE
  5
AA
330
A6
100
AcDbEntity
  8
BEMASSUNG
  6
Continuous
 62
     2
370
    -2
100
AcDbLine
 10
717.6807466385239
 20
340.0
 30
0.0
 11
727.1807466385239
 21
340.0
 31
0.0
  0
SOLID
  5
AB
330
A6
100
AcDbEntity
  8
BEMASSUNG
  6
Continuous
 62
     2
100
AcDbTrace
 10
717.6807466385239
 20
340.875
 30
0.0
 11
717.6807466385239
 21
339.125
 31
0.0
 12
712.4307466385239
 22
340.0
 32
0.0
 13
712.4307466385239
 23
340.0
 33
0.0
  0
SOLID
  5
AC
330
A6
100
AcDbEntity
  8
BEMASSUNG
  6
Continuous
 62
     2
100
AcDbTrace
 10
727.1807466385239
 20
340.875
 30
0.0
 11
727.1807466385239
 21
339.125
 31
0.0
 12
732.4307466385239
 22
340.0
 32
0.0
 13
732.4307466385239
 23
340.0
 33
0.0
  0
MTEXT
  5
AD
330
A6
100
AcDbEntity
  8
BEMASSUNG
  6
Continuous
 62
     3
100
AcDbMText
 10
722.4307466385239
 20
344.125
 30
0.0
 40
5.25
 41
0.0
 71
     5
 72
     1
  1
\A1;20
  7
NORM
 73
     1
 44
1.0
  0
POINT
  5
AE
330
A6
100
AcDbEntity
  8
DEFPOINTS
  6
Continuous
 62
     0
100
AcDbPoint
 10
712.4307466385239
 20
329.1186994459577
 30
0.0
  0
POINT
  5
AF
330
A6
100
AcDbEntity
  8
DEFPOINTS
  6
Continuous
 62
     0
100
AcDbPoint
 10
732.4307466385239
 20
329.1186994459577
 30
0.0
  0
POINT
  5
B0
330
A6
100
AcDbEntity
  8
DEFPOINTS
  6
Continuous
 62
     0
100
AcDbPoint
 10
732.4307466385239
 20
340.0
 30
0.0
  0
ENDBLK
  5
B1
330
A6
100
AcDbEntity
  8
0
100
AcDbBlockEnd
  0
BLOCK
  5
9A
330
99
100
AcDbEntity
  8
0
100
AcDbBlockBegin
  2
*D8
 70
     1
 10
0.0
 20
0.0
 30
0.0
  3
*D8
  1

  0
LINE
  5
9B
330
99
100
AcDbEntity
  8
BEMASSUNG
  6
Continuous
 62
     2
370
    -2
100
AcDbLine
 10
732.4307466385239
 20
329.8686994459576
 30
0.0
 11
732.4307466385239
 21
341.5
 31
0.0
  0
LINE
  5
9C
330
99
100
AcDbEntity
  8
BEMASSUNG
  6
Continuous
 62
     2
370
    -2
100
AcDbLine
 10
752.4307466385239
 20
329.8686994459576
 30
0.0
 11
752.4307466385239
 21
341.5
 31
0.0
  0
LINE
  5
9D
330
99
100
AcDbEntity
  8
BEMASSUNG
  6
Continuous
 62
     2
370
    -2
100
AcDbLine
 10
737.6807466385239
 20
340.0
 30
0.0
 11
747.1807466385239
 21
340.0
 31
0.0
  0
SOLID
  5
9E
330
99
100
AcDbEntity
  8
BEMASSUNG
  6
Continuous
 62
     2
100
AcDbTrace
 10
737.6807466385239
 20
340.875
 30
0.0
 11
737.6807466385239
 21
339.125
 31
0.0
 12
732.4307466385239
 22
340.0
 32
0.0
 13
732.4307466385239
 23
340.0
 33
0.0
  0
SOLID
  5
9F
330
99
100
AcDbEntity
  8
BEMASSUNG
  6
Continuous
 62
     2
100
AcDbTrace
 10
747.1807466385239
 20
340.875
 30
0.0
 11
747.1807466385239
 21
339.125
 31
0.0
 12
752.4307466385239
 22
340.0
 32
0.0
 13
752.4307466385239
 23
340.0
 33
0.0
  0
MTEXT
  5
A0
330
99
100
AcDbEntity
  8
BEMASSUNG
  6
Continuous
 62
     3
100
AcDbMText
 10
742.4307466385239
 20
344.125
 30
0.0
 40
5.25
 41
0.0
 71
     5
 72
     1
  1
\A1;20
  7
NORM
 73
     1
 44
1.0
  0
POINT
  5
A1
330
99
100
AcDbEntity
  8
DEFPOINTS
  6
Continuous
 62
     0
100
AcDbPoint
 10
732.4307466385239
 20
329.1186994459577
 30
0.0
  0
POINT
  5
A2
330
99
100
AcDbEntity
  8
DEFPOINTS
  6
Continuous
 62
     0
100
AcDbPoint
 10
752.4307466385239
 20
329.1186994459577
 30
0.0
  0
POINT
  5
A3
330
99
100
AcDbEntity
  8
DEFPOINTS
  6
Continuous
 62
     0
100
AcDbPoint
 10
752.4307466385239
 20
340.0
 30
0.0
  0
ENDBLK
  5
A4
330
99
100
AcDbEntity
  8
0
100
AcDbBlockEnd
  0
ENDSEC
  0
SECTION
  2
ENTITIES
  0
DIMENSION
  5
32
330
2
100
AcDbEntity
  8
BEMASSUNG
  6
Continuous
100
AcDbDimension
  2
*D6
 10
715.030746638492
 20
280.0
 30
0.0
 11
712.430746638492
 21
284.125
 31
0.0
  1
%%c<>
 71
     5
 42
5.199999999999931
  3
PROSPEKT
100
AcDbAlignedDimension
 13
709.8307466384921
 23
259.2875336299964
 33
0.0
 14
715.030746638492
 24
259.2875336299964
 34
0.0
100
AcDbRotatedDimension
  0
DIMENSION
  5
42
330
2
100
AcDbEntity
  8
BEMASSUNG
  6
Continuous
100
AcDbDimension
  2
*D5
 10
757.6807466384921
 20
280.0
 30
0.0
 11
752.4307466384921
 21
284.125
 31
0.0
  1
%%c<>
 71
     5
 42
10.5
  3
PROSPEKT
100
AcDbAlignedDimension
 13
747.180746638492
 23
269.2875336299964
 33
0.0
 14
757.6807466384921
 24
269.2875336299964
 34
0.0
100
AcDbRotatedDimension
  0
DIMENSION
  5
51
330
2
100
AcDbEntity
  8
BEMASSUNG
  6
Continuous
100
AcDbDimension
  2
*D4
 10
689.4112741358731
 20
256.2875336299964
 30
0.0
 11
685.2862741358729
 21
257.7875336299965
 31
0.0
 71
     5
 42
3.0
  3
PROSPEKT
100
AcDbAlignedDimension
 13
702.4307466384921
 23
259.2875336299964
 33
0.0
 14
702.4307466384921
 24
256.2875336299964
 34
0.0
 50
90.0
100
AcDbRotatedDimension
  0
DIMENSION
  5
60
330
2
100
AcDbEntity
  8
BEMASSUNG
  6
Continuous
100
AcDbDimension
  2
*D3
 10
777.4112741358731
 20
256.2875336299964
 30
0.0
 11
773.2862741358729
 21
262.7875336299965
 31
0.0
 71
     5
 42
13.0
  3
PROSPEKT
100
AcDbAlignedDimension
 13
759.9307466384921
 23
269.2875336299964
 33
0.0
 14
762.430746638492
 24
256.2875336299964
 34
0.0
 50
90.0
100
AcDbRotatedDimension
  0
DIMENSION
  5
6F
330
2
100
AcDbEntity
  8
BEMASSUNG
  6
Continuous
100
AcDbDimension
  2
*D2
 10
691.4112741358731
 20
305.3268875502261
 30
0.0
 11
687.286274135873
 21
315.3268875502262
 31
0.0
 71
     5
 42
20.0
  3
PROSPEKT
100
AcDbAlignedDimension
 13
712.4307466385239
 23
325.3268875502261
 33
0.0
 14
712.4307466385239
 24
305.3268875502261
 34
0.0
 50
90.0
100
AcDbRotatedDimension
  0
DIMENSION
  5
7C
330
2
100
AcDbEntity
  8
BEMASSUNG
  6
Continuous
100
AcDbDimension
  2
*D1
 10
762.4307466385239
 20
354.0
 30
0.0
 11
732.4307466385239
 21
358.125
 31
0.0
 71
     5
 42
60.0
  3
PROSPEKT
100
AcDbAlignedDimension
 13
702.4307466385239
 23
315.3268875502261
 33
0.0
 14
762.4307466385239
 24
315.3268875502261
 34
0.0
100
AcDbRotatedDimension
  0
DIMENSION
  5
89
330
2
100
AcDbEntity
  8
BEMASSUNG
  6
Continuous
100
AcDbDimension
  2
*D0
 10
762.4307466385239
 20
340.0
 30
0.0
 11
757.4307466385239
 21
344.125
 31
0.0
 71
     5
 42
10.0
  3
PROSPEKT
100
AcDbAlignedDimension
 13
752.4307466385239
 23
329.2884373198897
 33
0.0
 14
762.4307466385239
 24
315.3268875502261
 34
0.0
100
AcDbRotatedDimension
  0
DIMENSION
  5
98
330
2
100
AcDbEntity
  8
BEMASSUNG
  6
Continuous
100
AcDbDimension
  2
*D8
 10
752.4307466385239
 20
340.0
 30
0.0
 11
742.4307466385239
 21
344.125
 31
0.0
 71
     5
 42
20.0
  3
PROSPEKT
100
AcDbAlignedDimension
 13
732.4307466385239
 23
329.1186994459577
 33
0.0
 14
752.4307466385239
 24
329.1186994459577
 34
0.0
100
AcDbRotatedDimension
  0
DIMENSION
  5
A5
330
2
100
AcDbEntity
  8
BEMASSUNG
  6
Continuous
100
AcDbDimension
  2
*D7
 10
732.4307466385239
 20
340.0
 30
0.0
 11
722.4307466385239
 21
344.125
 31
0.0
 71
     5
 42
20.0
  3
PROSPEKT
100
AcDbAlignedDimension
 13
712.4307466385239
 23
329.1186994459577
 33
0.0
 14
732.4307466385239
 24
329.1186994459577
 34
0.0
100
AcDbRotatedDimension
  0
HATCH
  5
B2
330
2
100
AcDbEntity
  8
8
100
AcDbHatch
 10
0.0
 20
0.0
 30
0.0
210
0.0
220
0.0
230
1.0
  2
_U
 70
     0
 71
     0
 91
        1
 92
        1
 93
        5
 72
     1
 10
759.4307466384921
 20
258.2875336299964
 11
761.4307466384921
 21
256.2875336299964
 72
     1
 10
761.4307466384921
 20
256.2875336299964
 11
762.430746638492
 21
256.2875336299964
 72
     1
 10
762.430746638492
 20
256.2875336299964
 11
762.430746638492
 21
259.2875336299964
 72
     1
 10
762.430746638492
 20
259.2875336299964
 11
759.4307466384921
 21
259.2875336299964
 72
     1
 10
759.4307466384921
 20
259.2875336299964
 11
759.4307466384921
 21
258.2875336299964
 97
        0
 75
     0
 76
     0
 52
315.0
 41
2.0
 77
     0
 78
     1
 53
315.0
 43
517.411274135873
 44
0.0
 45
1.414213562373095
 46
1.414213562373094
 79
     0
 98
        1
 10
517.411274135873
 20
0.0
1001
GENIUS_GENOBJ-N-HTC_13
1002
{
1000
OWNER
1000
GEN
1002
}
1001
GENIUS_GENODEF_13
1002
{
1000
HIER
1070
     0
1002
}
1002
{
1000
MANEDIT
1070
     0
1002
}
1002
{
1000
NOSEL
1070
     0
1002
}
1002
{
1000
BEHIND
1070
     0
1002
}
1002
{
1000
OTHER
1070
     0
1002
}
1002
{
1000
REACTOR
1002
}
1001
GENIUS_GENHATCH_13
1002
{
1000
DATA
1040
45.0
1042
2.5
1000
_U
1070
     0
1011
761.331266070104
1021
258.2454551771532
1031
0.0
1002
}
1002
{
1000
UCS
1010
0.0
1020
0.0
1030
0.0
1010
1.0
1020
0.0
1030
0.0
1010
0.0
1020
1.0
1030
0.0
1002
}
  0
HATCH
  5
B7
330
2
100
AcDbEntity
  8
8
100
AcDbHatch
 10
0.0
 20
0.0
 30
0.0
210
0.0
220
0.0
230
1.0
  2
_U
 70
     0
 71
     0
 91
        1
 92
        1
 93
        6
 72
     1
 10
745.430746638492
 20
258.2875336299965
 11
745.430746638492
 21
259.2875336299964
 72
     1
 10
745.430746638492
 20
259.2875336299964
 11
735.0307466384921
 21
259.2875336299964
 72
     1
 10
735.0307466384919
 20
259.2875336299964
 11
735.0307466384919
 21
258.4375336299964
 72
     1
 10
735.0307466384919
 20
258.4375336299964
 11
737.180746638492
 21
256.2875336299964
 72
     1
 10
737.1807466384921
 20
256.2875336299964
 11
743.4307466384921
 21
256.2875336299964
 72
     1
 10
743.4307466384921
 20
256.2875336299964
 11
745.430746638492
 21
258.2875336299965
 97
        0
 75
     0
 76
     0
 52
315.0
 41
2.0
 77
     0
 78
     1
 53
315.0
 43
517.411274135873
 44
0.0
 45
1.414213562373095
 46
1.414213562373094
 79
     0
 98
        1
 10
517.411274135873
 20
0.0
1001
GENIUS_GENODEF_13
1002
{
1000
HIER
1070
     0
1002
}
1002
{
1000
MANEDIT
1070
     0
1002
}
1002
{
1000
NOSEL
1070
     0
1002
}
1002
{
1000
BEHIND
1070
     0
1002
}
1002
{
1000
OTHER
1070
     0
1002
}
1002
{
1000
REACTOR
1002
}
1001
GENIUS_GENOBJ-N-HTC_13
1002
{
1000
OWNER
1000
GEN
1002
}
1001
GENIUS_GENHATCH_13
1002
{
1000
DATA
1040
45.0
1042
2.5
1000
_U
1070
     0
1011
740.2110756614292
1021
257.165827917647
1031
0.0
1002
}
1002
{
1000
UCS
1010
0.0
1020
0.0
1030
0.0
1010
1.0
1020
0.0
1030
0.0
1010
0.0
1020
1.0
1030
0.0
1002
}
  0
HATCH
  5
B8
330
2
100
AcDbEntity
  8
8
100
AcDbHatch
 10
0.0
 20
0.0
 30
0.0
210
0.0
220
0.0
230
1.0
  2
_U
 70
     0
 71
     0
 91
        1
 92
        1
 93
        5
 72
     1
 10
702.4307466384921
 20
256.2875336299964
 11
707.6807466384921
 21
256.2875336299964
 72
     1
 10
707.6807466384921
 20
256.2875336299964
 11
709.8307466384921
 21
258.4375336299964
 72
     1
 10
709.8307466384921
 20
258.4375336299964
 11
709.8307466384921
 21
259.2875336299964
 72
     1
 10
709.8307466384921
 20
259.2875336299964
 11
702.4307466384921
 21
259.2875336299964
 72
     1
 10
702.4307466384921
 20
259.2875336299964
 11
702.4307466384921
 21
256.2875336299964
 97
        0
 75
     0
 76
     0
 52
315.0
 41
2.0
 77
     0
 78
     1
 53
315.0
 43
517.411274135873
 44
0.0
 45
1.414213562373095
 46
1.414213562373094
 79
     0
 98
        1
 10
517.411274135873
 20
0.0
1001
GENIUS_GENODEF_13
1002
{
1000
HIER
1070
     0
1002
}
1002
{
1000
MANEDIT
1070
     0
1002
}
1002
{
1000
NOSEL
1070
     0
1002
}
1002
{
1000
BEHIND
1070
     0
1002
}
1002
{
1000
OTHER
1070
     0
1002
}
1002
{
1000
REACTOR
1002
}
1001
GENIUS_GENOBJ-N-HTC_13
1002
{
1000
OWNER
1000
GEN
1002
}
1001
GENIUS_GENHATCH_13
1002
{
1000
DATA
1040
45.0
1042
2.5
1000
_U
1070
     0
1011
706.1874334838153
1021
258.2773000410373
1031
0.0
1002
}
1002
{
1000
UCS
1010
0.0
1020
0.0
1030
0.0
1010
1.0
1020
0.0
1030
0.0
1010
0.0
1020
1.0
1030
0.0
1002
}
  0
HATCH
  5
B9
330
2
100
AcDbEntity
  8
8
100
AcDbHatch
 10
0.0
 20
0.0
 30
0.0
210
0.0
220
0.0
230
1.0
  2
_U
 70
     0
 71
     0
 91
        1
 92
        1
 93
        6
 72
     1
 10
729.8307466384921
 20
258.4375336299964
 11
729.8307466384921
 21
259.2875336299964
 72
     1
 10
729.8307466384921
 20
259.2875336299964
 11
715.030746638492
 21
259.2875336299964
 72
     1
 10
715.030746638492
 20
259.2875336299964
 11
715.030746638492
 21
258.4375336299964
 72
     1
 10
715.030746638492
 20
258.4375336299964
 11
717.180746638492
 21
256.2875336299964
 72
     1
 10
717.1807466384921
 20
256.2875336299964
 11
727.6807466384921
 21
256.2875336299964
 72
     1
 10
727.6807466384921
 20
256.2875336299964
 11
729.8307466384921
 21
258.4375336299964
 97
        0
 75
     0
 76
     0
 52
315.0
 41
2.0
 77
     0
 78
     1
 53
315.0
 43
517.411274135873
 44
0.0
 45
1.414213562373095
 46
1.414213562373094
 79
     0
 98
        1
 10
517.411274135873
 20
0.0
1001
GENIUS_GENODEF_13
1002
{
1000
HIER
1070
     0
1002
}
1002
{
1000
MANEDIT
1070
     0
1002
}
1002
{
1000
NOSEL
1070
     0
1002
}
1002
{
1000
BEHIND
1070
     0
1002
}
1002
{
1000
OTHER
1070
     0
1002
}
1002
{
1000
REACTOR
1002
}
1001
GENIUS_GENOBJ-N-HTC_13
1002
{
1000
OWNER
1000
GEN
1002
}
1001
GENIUS_GENHATCH_13
1002
{
1000
DATA
1040
-45.0
1042
2.0
1000
_U
1070
     0
1011
721.5005212655805
1021
257.6164706216578
1031
0.0
1002
}
1002
{
1000
UCS
1010
0.0
1020
0.0
1030
0.0
1010
1.0
1020
0.0
1030
0.0
1010
0.0
1020
1.0
1030
0.0
1002
}
  0
HATCH
  5
BA
330
2
100
AcDbEntity
  8
8
100
AcDbHatch
 10
0.0
 20
0.0
 30
0.0
210
0.0
220
0.0
230
1.0
  2
_U
 70
     0
 71
     0
 91
        1
 92
        1
 93
        6
 72
     1
 10
757.6807466384921
 20
269.2875336299964
 11
757.6807466384921
 21
256.1875336299964
 72
     1
 10
757.6807466384921
 20
256.1875336299964
 11
759.4307466384921
 21
256.1875336299964
 72
     1
 10
759.4307466384921
 20
256.1875336299964
 11
759.4307466384921
 21
259.2875336299964
 72
     1
 10
759.4307466384921
 20
259.2875336299964
 11
759.9307466384921
 21
259.2875336299964
 72
     1
 10
759.9307466384921
 20
259.2875336299964
 11
759.9307466384921
 21
269.2875336299964
 72
     1
 10
759.9307466384921
 20
269.2875336299964
 11
757.6807466384921
 21
269.2875336299964
 97
        0
 75
     0
 76
     0
 52
45.0
 41
1.199999999999999
 77
     0
 78
     1
 53
45.0
 43
517.411274135873
 44
0.0
 45
-0.8485281374238569
 46
0.8485281374238569
 79
     0
 98
        1
 10
517.411274135873
 20
0.0
1001
GENIUS_GENODEF_13
1002
{
1000
HIER
1070
     0
1002
}
1002
{
1000
MANEDIT
1070
     0
1002
}
1002
{
1000
NOSEL
1070
     0
1002
}
1002
{
1000
BEHIND
1070
     0
1002
}
1002
{
1000
OTHER
1070
     0
1002
}
1002
{
1000
REACTOR
1002
}
1001
GENIUS_GENOBJ-N-HTC_13
1002
{
1000
OWNER
1000
GEN
1002
}
1001
GENIUS_GENHATCH_13
1002
{
1000
DATA
1040
45.0
1042
2.5
1000
_U
1070
     0
1011
758.8216047796354
1021
262.4964974618354
1031
0.0
1002
}
1002
{
1000
UCS
1010
0.0
1020
0.0
1030
0.0
1010
1.0
1020
0.0
1030
0.0
1010
0.0
1020
1.0
1030
0.0
1002
}
  0
HATCH
  5
BB
330
2
100
AcDbEntity
  8
8
100
AcDbHatch
 10
0.0
 20
0.0
 30
0.0
210
0.0
220
0.0
230
1.0
  2
_U
 70
     0
 71
     0
 91
        1
 92
        1
 93
        8
 72
     1
 10
745.430746638492
 20
259.2875336299964
 11
745.430746638492
 21
258.2875336299965
 72
     1
 10
745.430746638492
 20
258.2875336299965
 11
743.4307466384921
 21
256.2875336299964
 72
     1
 10
743.4307466384921
 20
256.2875336299964
 11
745.4106456258143
 21
256.2875336299964
 72
     1
 10
745.4106456258143
 20
256.2875336299964
 11
747.180746638492
 21
258.0576346426742
 72
     1
 10
747.180746638492
 20
258.0576346426742
 11
747.180746638492
 21
269.2875336299964
 72
     1
 10
747.180746638492
 20
269.2875336299964
 11
744.9307466384921
 21
269.2875336299964
 72
     1
 10
744.9307466384921
 20
269.2875336299964
 11
744.9307466384921
 21
259.2875336299964
 72
     1
 10
744.9307466384921
 20
259.2875336299964
 11
745.430746638492
 21
259.2875336299964
 97
        0
 75
     0
 76
     0
 52
45.0
 41
1.199999999999999
 77
     0
 78
     1
 53
45.0
 43
517.411274135873
 44
0.0
 45
-0.8485281374238569
 46
0.8485281374238569
 79
     0
 98
        1
 10
517.411274135873
 20
0.0
1001
GENIUS_GENODEF_13
1002
{
1000
HIER
1070
     0
1002
}
1002
{
1000
MANEDIT
1070
     0
1002
}
1002
{
1000
NOSEL
1070
     0
1002
}
1002
{
1000
BEHIND
1070
     0
1002
}
1002
{
1000
OTHER
1070
     0
1002
}
1002
{
1000
REACTOR
1002
}
1001
GENIUS_GENOBJ-N-HTC_13
1002
{
1000
OWNER
1000
GEN
1002
}
1001
GENIUS_GENHATCH_13
1002
{
1000
DATA
1040
45.0
1042
2.5
1000
_U
1070
     0
1011
745.8686348037713
1021
263.1151958444834
1031
0.0
1002
}
1002
{
1000
UCS
1010
0.0
1020
0.0
1030
0.0
1010
1.0
1020
0.0
1030
0.0
1010
0.0
1020
1.0
1030
0.0
1002
}
  0
LINE
  5
BC
330
2
100
AcDbEntity
  8
ACHSEN
  6
STRICHPUNKT
100
AcDbLine
 10
752.4307466385239
 20
329.2884373198897
 30
0.0
 11
752.4307466385239
 21
302.8268875502261
 31
0.0
  0
LINE
  5
BF
330
2
100
AcDbEntity
  8
ACHSEN
  6
STRICHPUNKT
100
AcDbLine
 10
699.7066993763318
 20
315.3268875502261
 30
0.0
 11
764.9307466385239
 21
315.3268875502261
 31
0.0
  0
LINE
  5
C0
330
2
100
AcDbEntity
  8
ACHSEN
  6
STRICHPUNKT
100
AcDbLine
 10
712.4307466385239
 20
329.1186994459577
 30
0.0
 11
712.4307466385239
 21
302.8268875502261
 31
0.0
  0
LINE
  5
C1
330
2
100
AcDbEntity
  8
ACHSEN
  6
STRICHPUNKT
100
AcDbLine
 10
732.4307466385239
 20
329.1186994459577
 30
0.0
 11
732.4307466385239
 21
302.8825048853112
 31
0.0
  0
LINE
  5
C2
330
2
100
AcDbEntity
  8
ACHSEN
  6
STRICHPUNKT
100
AcDbLine
 10
752.4307466384921
 20
272.5326011292045
 30
0.0
 11
752.4307466384921
 21
252.5774917441133
 31
0.0
  0
LINE
  5
C3
330
2
100
AcDbEntity
  8
ACHSEN
  6
STRICHPUNKT
100
AcDbLine
 10
732.4307466384921
 20
262.0088779667987
 30
0.0
 11
732.4307466384921
 21
254.2887640494543
 31
0.0
  0
LINE
  5
C4
330
2
100
AcDbEntity
  8
ACHSEN
  6
STRICHPUNKT
100
AcDbLine
 10
712.430746638492
 20
261.329928258312
 30
0.0
 11
712.430746638492
 21
253.8609459731191
 31
0.0
  0
CIRCLE
  5
C5
330
2
100
AcDbEntity
  8
UMRISS05
100
AcDbCircle
 10
752.4307466385239
 20
315.3268875502261
 30
0.0
 40
7.0
  0
CIRCLE
  5
C7
330
2
100
AcDbEntity
  8
UMRISS05
100
AcDbCircle
 10
752.4307466385239
 20
315.3268875502261
 30
0.0
 40
5.25
  0
CIRCLE
  5
C8
330
2
100
AcDbEntity
  8
UMRISS05
100
AcDbCircle
 10
732.4307466385239
 20
315.3268875502267
 30
0.0
 40
2.6
  0
CIRCLE
  5
C9
330
2
100
AcDbEntity
  8
UMRISS05
100
AcDbCircle
 10
712.4307466385239
 20
315.3268875502267
 30
0.0
 40
2.6
  0
CIRCLE
  5
CA
330
2
100
AcDbEntity
  8
UMRISS05
100
AcDbCircle
 10
712.4307466385239
 20
315.3268875502261
 30
0.0
 40
4.75
  0
CIRCLE
  5
CB
330
2
100
AcDbEntity
  8
UMRISS05
100
AcDbCircle
 10
732.4307466385239
 20
315.3268875502261
 30
0.0
 40
4.75
  0
LINE
  5
CC
330
2
100
AcDbEntity
  8
UMRISS05
100
AcDbLine
 10
752.4307466385239
 20
305.3268875502261
 30
0.0
 11
712.4307466385239
 21
305.3268875502261
 31
0.0
  0
ARC
  5
CD
330
2
100
AcDbEntity
  8
UMRISS05
100
AcDbCircle
 10
712.4307466385239
 20
315.3268875502261
 30
0.0
 40
10.0
100
AcDbArc
 50
90.0
 51
270.0
  0
LINE
  5
CE
330
2
100
AcDbEntity
  8
UMRISS05
100
AcDbLine
 10
712.4307466385239
 20
325.3268875502261
 30
0.0
 11
752.4307466385239
 21
325.3268875502261
 31
0.0
  0
ARC
  5
CF
330
2
100
AcDbEntity
  8
UMRISS05
100
AcDbCircle
 10
752.4307466385239
 20
315.3268875502261
 30
0.0
 40
10.0
100
AcDbArc
 50
270.0
 51
90.0
  0
CIRCLE
  5
D0
330
2
100
AcDbEntity
  8
UMRISS05
100
AcDbCircle
 10
752.4307466385239
 20
315.3268875502261
 30
0.0
 40
9.0
  0
LINE
  5
D1
330
2
100
AcDbEntity
  8
UMRISS05
100
AcDbLine
 10
747.180746638492
 20
256.1875336299964
 30
0.0
 11
759.4307466384921
 21
256.1875336299964
 31
0.0
  0
LINE
  5
D2
330
2
100
AcDbEntity
  8
UMRISS05
100
AcDbLine
 10
744.9307466384921
 20
269.2875336299964
 30
0.0
 11
759.9307466384921
 21
269.2875336299964
 31
0.0
  0
LINE
  5
D3
330
2
100
AcDbEntity
  8
UMRISS05
100
AcDbLine
 10
745.430746638492
 20
258.2875336299965
 30
0.0
 11
745.430746638492
 21
259.2875336299964
 31
0.0
  0
LINE
  5
D4
330
2
100
AcDbEntity
  8
UMRISS05
100
AcDbLine
 10
744.9307466384921
 20
259.2875336299964
 30
0.0
 11
744.9307466384921
 21
269.2875336299964
 31
0.0
  0
LINE
  5
D5
330
2
100
AcDbEntity
  8
UMRISS05
100
AcDbLine
 10
747.180746638492
 20
269.2875336299964
 30
0.0
 11
747.180746638492
 21
256.1875336299964
 31
0.0
  0
LINE
  5
D6
330
2
100
AcDbEntity
  8
UMRISS05
100
AcDbLine
 10
759.9307466384921
 20
269.2875336299964
 30
0.0
 11
759.9307466384921
 21
259.2875336299964
 31
0.0
  0
LINE
  5
D7
330
2
100
AcDbEntity
  8
UMRISS05
100
AcDbLine
 10
759.4307466384921
 20
259.2875336299964
 30
0.0
 11
759.4307466384921
 21
256.1875336299964
 31
0.0
  0
LINE
  5
D8
330
2
100
AcDbEntity
  8
UMRISS05
100
AcDbLine
 10
757.6807466384921
 20
256.1875336299964
 30
0.0
 11
757.6807466384921
 21
269.2875336299964
 31
0.0
  0
LINE
  5
D9
330
2
100
AcDbEntity
  8
UMRISS05
100
AcDbLine
 10
759.4307466384921
 20
256.2875336299964
 30
0.0
 11
762.430746638492
 21
256.2875336299964
 31
0.0
  0
LINE
  5
DA
330
2
100
AcDbEntity
  8
UMRISS05
100
AcDbLine
 10
709.8307466384921
 20
258.4375336299964
 30
0.0
 11
715.030746638492
 21
258.4375336299964
 31
0.0
  0
LINE
  5
DB
330
2
100
AcDbEntity
  8
UMRISS05
100
AcDbLine
 10
729.8307466384921
 20
258.4375336299964
 30
0.0
 11
735.0307466384919
 21
258.4375336299964
 31
0.0
  0
LINE
  5
DC
330
2
100
AcDbEntity
  8
UMRISS05
100
AcDbLine
 10
737.1807466384921
 20
256.2875336299964
 30
0.0
 11
735.0307466384919
 21
258.4375336299964
 31
0.0
  0
LINE
  5
DD
330
2
100
AcDbEntity
  8
UMRISS05
100
AcDbLine
 10
735.0307466384919
 20
258.4375336299964
 30
0.0
 11
735.0307466384919
 21
259.2875336299964
 31
0.0
  0
LINE
  5
DE
330
2
100
AcDbEntity
  8
UMRISS05
100
AcDbLine
 10
702.4307466384921
 20
259.2875336299964
 30
0.0
 11
745.430746638492
 21
259.2875336299964
 31
0.0
  0
LINE
  5
DF
330
2
100
AcDbEntity
  8
UMRISS03
100
AcDbLine
 10
745.430746638492
 20
259.2875336299964
 30
0.0
 11
745.430746638492
 21
258.2875336299965
 31
0.0
  0
LINE
  5
E1
330
2
100
AcDbEntity
  8
UMRISS05
100
AcDbLine
 10
747.180746638492
 20
258.0576346426742
 30
0.0
 11
745.4106456258143
 21
256.2875336299964
 31
0.0
  0
LINE
  5
E2
330
2
100
AcDbEntity
  8
UMRISS05
100
AcDbLine
 10
745.430746638492
 20
258.2875336299965
 30
0.0
 11
743.4307466384921
 21
256.2875336299964
 31
0.0
  0
LINE
  5
E3
330
2
100
AcDbEntity
  8
UMRISS03
100
AcDbLine
 10
759.4307466384921
 20
258.2875336299964
 30
0.0
 11
759.4307466384921
 21
259.2875336299964
 31
0.0
  0
LINE
  5
E4
330
2
100
AcDbEntity
  8
UMRISS05
100
AcDbLine
 10
759.4307466384921
 20
259.2875336299964
 30
0.0
 11
762.430746638492
 21
259.2875336299964
 31
0.0
  0
LINE
  5
E5
330
2
100
AcDbEntity
  8
UMRISS05
100
AcDbLine
 10
762.430746638492
 20
259.2875336299964
 30
0.0
 11
762.430746638492
 21
256.2875336299964
 31
0.0
  0
LINE
  5
E6
330
2
100
AcDbEntity
  8
UMRISS05
100
AcDbLine
 10
761.4307466384921
 20
256.2875336299964
 30
0.0
 11
759.4307466384921
 21
258.2875336299964
 31
0.0
  0
LINE
  5
E7
330
2
100
AcDbEntity
  8
UMRISS05
100
AcDbLine
 10
717.1807466384921
 20
256.2875336299964
 30
0.0
 11
715.030746638492
 21
258.4375336299964
 31
0.0
  0
LINE
  5
E8
330
2
100
AcDbEntity
  8
UMRISS05
100
AcDbLine
 10
715.030746638492
 20
258.4375336299964
 30
0.0
 11
715.030746638492
 21
259.2875336299964
 31
0.0
  0
LINE
  5
E9
330
2
100
AcDbEntity
  8
UMRISS05
100
AcDbLine
 10
729.8307466384921
 20
259.2875336299964
 30
0.0
 11
729.8307466384921
 21
258.4375336299964
 31
0.0
  0
LINE
  5
EA
330
2
100
AcDbEntity
  8
UMRISS05
100
AcDbLine
 10
729.8307466384921
 20
258.4375336299964
 30
0.0
 11
727.6807466384921
 21
256.2875336299964
 31
0.0
  0
LINE
  5
EB
330
2
100
AcDbEntity
  8
UMRISS05
100
AcDbLine
 10
702.4307466384921
 20
256.2875336299964
 30
0.0
 11
702.4307466384921
 21
259.2875336299964
 31
0.0
  0
LINE
  5
EC
330
2
100
AcDbEntity
  8
UMRISS05
100
AcDbLine
 10
709.8307466384921
 20
259.2875336299964
 30
0.0
 11
709.8307466384921
 21
258.4375336299964
 31
0.0
  0
LINE
  5
ED
330
2
100
AcDbEntity
  8
UMRISS05
100
AcDbLine
 10
709.8307466384921
 20
258.4375336299964
 30
0.0
 11
707.6807466384921
 21
256.2875336299964
 31
0.0
  0
LINE
  5
EE
330
2
100
AcDbEntity
  8
UMRISS05
100
AcDbLine
 10
747.180746638492
 20
256.2875336299964
 30
0.0
 11
702.4307466384921
 21
256.2875336299964
 31
0.0
  0
ENDSEC
  0
SECTION
  2
OBJECTS
  0
DICTIONARY
  5
9
330
0
100
AcDbDictionary
281
     1
  3
ACAD_COLOR
350
2C
  3
ACAD_GROUP
350
28
  3
ACAD_LAYOUT
350
D
  3
ACAD_MATERIAL
350
2B
  3
ACAD_MLINESTYLE
350
29
  3
ACAD_PLOTSETTINGS
350
2A
  3
ACAD_PLOTSTYLENAME
350
8
  3
ACAD_TABLESTYLE
350
2D
  3
AcDbVariableDictionary
350
144
  3
AcmDictionary
350
100
  3
AMG
350
F1
  0
DICTIONARY
  5
13
330
12
100
AcDbDictionary
280
     1
281
     1
  3
ACAD_LAYERFILTERS
360
14
  3
ACLYDICTIONARY
360
15
  0
DICTIONARY
  5
3
330
2
100
AcDbDictionary
280
     1
281
     1
  3
ACAD_SORTENTS
360
EF
  0
DICTIONARY
  5
2C
102
{ACAD_REACTORS
330
9
102
}
330
9
100
AcDbDictionary
281
     1
  0
DICTIONARY
  5
28
102
{ACAD_REACTORS
330
9
102
}
330
9
100
AcDbDictionary
281
     1
  0
DICTIONARY
  5
D
102
{ACAD_REACTORS
330
9
102
}
330
9
100
AcDbDictionary
281
     1
  3
Layout1
350
11
  3
Model
350
C
  0
DICTIONARY
  5
2B
102
{ACAD_REACTORS
330
9
102
}
330
9
100
AcDbDictionary
281
     1
  0
DICTIONARY
  5
29
102
{ACAD_REACTORS
330
9
102
}
330
9
100
AcDbDictionary
281
     1
  3
STANDARD
350
30
  0
DICTIONARY
  5
2A
102
{ACAD_REACTORS
330
9
102
}
330
9
100
AcDbDictionary
281
     1
  0
ACDBDICTIONARYWDFLT
  5
8
102
{ACAD_REACTORS
330
9
102
}
330
9
100
AcDbDictionary
281
     1
  3
Normal
350
7
100
AcDbDictionaryWithDefault
340
7
  0
DICTIONARY
  5
2D
102
{ACAD_REACTORS
330
9
102
}
330
9
100
AcDbDictionary
281
     1
  3
Standard
350
31
  0
DICTIONARY
  5
144
102
{ACAD_REACTORS
330
9
102
}
330
9
100
AcDbDictionary
281
     1
  3
CTABLESTYLE
350
145
  0
DICTIONARY
  5
100
102
{ACAD_REACTORS
330
9
102
}
330
9
100
AcDbDictionary
281
     1
  3
AcmStdDictionary
350
101
  0
DICTIONARY
  5
F1
102
{ACAD_REACTORS
330
9
102
}
330
9
100
AcDbDictionary
281
     1
  3
AcMgSettings
350
FB
  3
AMGLAYCFG
350
F0
  0
DICTIONARY
  5
14
102
{ACAD_REACTORS
330
13
102
}
330
13
100
AcDbDictionary
281
     1
  0
DICTIONARY
  5
15
102
{ACAD_REACTORS
330
13
102
}
330
13
100
AcDbDictionary
281
     1
1001
ACAD
1000
<All
  0
SORTENTSTABLE
  5
EF
102
{ACAD_REACTORS
330
3
102
}
330
3
100
AcDbSortentsTable
330
2
331
E9
  5
7C
331
BA
  5
E1
331
CA
  5
D3
331
DA
  5
C2
331
7C
  5
E9
331
EA
  5
6F
331
BB
  5
DF
331
DB
  5
C1
331
CB
  5
D2
331
6F
  5
EA
331
EB
  5
60
331
BC
  5
DE
331
60
  5
EB
331
CC
  5
D1
331
DC
  5
C0
331
51
  5
EC
331
EC
  5
51
331
42
  5
ED
331
DD
  5
BF
331
32
  5
EE
331
CD
  5
D0
331
ED
  5
42
331
CE
  5
CF
331
DE
  5
BC
331
EE
  5
32
331
BF
  5
DD
331
DF
  5
BB
331
CF
  5
CE
331
C0
  5
DC
331
D0
  5
CD
331
C1
  5
DB
331
D1
  5
CC
331
E1
  5
BA
331
C2
  5
DA
331
B2
  5
E5
331
E2
  5
B9
331
D2
  5
CB
331
C3
  5
D9
331
D3
  5
CA
331
E3
  5
B8
331
C4
  5
D8
331
E4
  5
B7
331
D4
  5
C9
331
A5
  5
E6
331
C5
  5
D7
331
D5
  5
C8
331
E5
  5
B2
331
E6
  5
A5
331
D6
  5
C7
331
B7
  5
E4
331
C7
  5
D6
331
98
  5
E7
331
D7
  5
C5
331
E7
  5
98
331
B8
  5
E3
331
C8
  5
D5
331
D8
  5
C4
331
89
  5
E8
331
E8
  5
89
331
B9
  5
E2
331
D9
  5
C3
331
C9
  5
D4
  0
LAYOUT
  5
11
102
{ACAD_REACTORS
330
D
102
}
330
D
100
AcDbPlotSettings
  1

  2
G:\VORLAGEN\AutoCAD2002\Plotten\A3hoch-MSL.pc3
  4

  6

 40
0.0
 41
0.0
 42
0.0
 43
0.0
 44
0.0
 45
0.0
 46
0.0
 47
0.0
 48
0.0
 49
0.0
140
0.0
141
0.0
142
1.0
143
1.0
 70
   688
 72
     0
 73
     0
 74
     5
  7
monochrome.ctb
 75
    16
147
1.0
 76
     0
 77
     2
 78
   300
148
0.0
149
0.0
100
AcDbLayout
  1
Layout1
 70
     1
 71
     1
 10
0.0
 20
0.0
 11
12.0
 21
9.0
 12
0.0
 22
0.0
 32
0.0
 14
1.000000000000000E+20
 24
1.000000000000000E+20
 34
1.000000000000000E+20
 15
-1.000000000000000E+20
 25
-1.000000000000000E+20
 35
-1.000000000000000E+20
146
0.0
 13
0.0
 23
0.0
 33
0.0
 16
1.0
 26
0.0
 36
0.0
 17
0.0
 27
1.0
 37
0.0
 76
     0
330
E
  0
LAYOUT
  5
C
102
{ACAD_REACTORS
330
D
102
}
330
D
100
AcDbPlotSettings
  1

  2
G:\VORLAGEN\AutoCAD2002\Plotten\A3hoch-MSL.pc3
  4
A3
  6

 40
6.085416793823242
 41
6.12772798538208
 42
5.662078857421875
 43
5.53509521484375
 44
296.9683227539062
 45
419.9889831542968
 46
0.0
 47
0.0
 48
0.0
 49
0.0
140
0.0
141
0.0
142
1.0
143
1.0
 70
 11952
 72
     1
 73
     1
 74
     0
  7
monochrome.ctb
 75
     0
147
1.0
 76
     0
 77
     2
 78
   300
148
296.6297214794804
149
231.2694884505802
100
AcDbLayout
  1
Model
 70
     1
 71
     0
 10
0.0
 20
0.0
 11
12.0
 21
9.0
 12
0.0
 22
0.0
 32
0.0
 14
0.0
 24
0.0
 34
0.0
 15
0.0
 25
0.0
 35
0.0
146
0.0
 13
0.0
 23
0.0
 33
0.0
 16
1.0
 26
0.0
 36
0.0
 17
0.0
 27
1.0
 37
0.0
 76
     0
330
2
  0
MLINESTYLE
  5
30
102
{ACAD_REACTORS
330
29
102
}
330
29
100
AcDbMlineStyle
  2
STANDARD
 70
     0
  3

 62
   256
 51
90.0
 52
90.0
 71
     2
 49
0.5
 62
   256
  6
BYLAYER
 49
-0.5
 62
   256
  6
BYLAYER
  0
ACDBPLACEHOLDER
  5
7
102
{ACAD_REACTORS
330
8
102
}
330
8
  0
TABLESTYLE
  5
31
102
{ACAD_REACTORS
330
2D
102
}
330
2D
100
AcDbTableStyle
  3
Standard
 70
     0
 71
     0
 40
1.5
 41
1.5
280
     0
281
     0
  7
STANDARD
140
4.5
170
     2
 62
     0
 63
     7
283
     0
274
    -2
284
     1
 64
     0
275
    -2
285
     1
 65
     0
276
    -2
286
     1
 66
     0
277
    -2
287
     1
 67
     0
278
    -2
288
     1
 68
     0
279
    -2
289
     1
 69
     0
  7
STANDARD
140
6.0
170
     5
 62
     0
 63
     7
283
     0
274
    -2
284
     1
 64
     0
275
    -2
285
     1
 65
     0
276
    -2
286
     1
 66
     0
277
    -2
287
     1
 67
     0
278
    -2
288
     1
 68
     0
279
    -2
289
     1
 69
     0
  7
STANDARD
140
4.5
170
     5
 62
     0
 63
     7
283
     0
274
    -2
284
     1
 64
     0
275
    -2
285
     1
 65
     0
276
    -2
286
     1
 66
     0
277
    -2
287
     1
 67
     0
278
    -2
288
     1
 68
     0
279
    -2
289
     1
 69
     0
  0
DICTIONARYVAR
  5
145
102
{ACAD_REACTORS
330
144
102
}
330
144
100
DictionaryVariables
280
     0
  1
STANDARD
  0
DICTIONARY
  5
101
102
{ACAD_REACTORS
330
100
102
}
330
100
100
AcDbDictionary
281
     1
  3
DIN
350
102
  0
DICTIONARY
  5
FB
102
{ACAD_REACTORS
330
F1
102
}
330
F1
100
AcDbDictionary
281
     1
  3
DWGSETTINGS
350
FA
  3
TRANSSETTINGS
350
FC
  0
ENDSEC
  0
EOF
