  0
SECTION
  2
HEADER
  9
$ACADVER
  1
AC1009
  9
$INSBASE
 10
0.0
 20
0.0
 30
0.0
  9
$EXTMIN
 10
-51.32708969681412
 20
-60.997269299365151
 30
-57.565945480493554
  9
$EXTMAX
 10
70.872084241339081
 20
26.462748160509761
 30
98.136319065461834
  9
$LIMMIN
 10
0.0
 20
0.0
  9
$LIMMAX
 10
420.0
 20
297.0
  9
$ORTHOMODE
 70
     1
  9
$REGENMODE
 70
     1
  9
$FILLMODE
 70
     1
  9
$QTEXTMODE
 70
     0
  9
$MIRRTEXT
 70
     1
  9
$DRAGMODE
 70
     2
  9
$LTSCALE
 40
15.0
  9
$OSMODE
 70
   183
  9
$ATTMODE
 70
     1
  9
$TEXTSIZE
 40
5.0999999999999988
  9
$TRACEWID
 40
0.05
  9
$TEXTSTYLE
  7
ROMANS
  9
$CLAYER
  8
0
  9
$CELTYPE
  6
BYLAYER
  9
$CECOLOR
 62
     7
  9
$DIMSCALE
 40
1.45
  9
$DIMASZ
 40
3.5
  9
$DIMEXO
 40
0.5
  9
$DIMDLI
 40
0.0
  9
$DIMRND
 40
0.0
  9
$DIMDLE
 40
1.25
  9
$DIMEXE
 40
1.8
  9
$DIMTP
 40
0.0
  9
$DIMTM
 40
0.0
  9
$DIMTXT
 40
3.399999999999999
  9
$DIMCEN
 40
1.5
  9
$DIMTSZ
 40
0.0
  9
$DIMTOL
 70
     0
  9
$DIMLIM
 70
     0
  9
$DIMTIH
 70
     0
  9
$DIMTOH
 70
     0
  9
$DIMSE1
 70
     0
  9
$DIMSE2
 70
     0
  9
$DIMTAD
 70
     1
  9
$DIMZIN
 70
     8
  9
$DIMBLK
  1

  9
$DIMASO
 70
     1
  9
$DIMSHO
 70
     0
  9
$DIMPOST
  1

  9
$DIMAPOST
  1

  9
$DIMALT
 70
     0
  9
$DIMALTD
 70
     2
  9
$DIMALTF
 40
0.039
  9
$DIMLFAC
 40
1.0
  9
$DIMTOFL
 70
     1
  9
$DIMTVP
 40
1.323529411764705
  9
$DIMTIX
 70
     1
  9
$DIMSOXD
 70
     0
  9
$DIMSAH
 70
     0
  9
$DIMBLK1
  1

  9
$DIMBLK2
  1

  9
$DIMSTYLE
  2
STANDARD
  9
$DIMCLRD
 70
     2
  9
$DIMCLRE
 70
     2
  9
$DIMCLRT
 70
     3
  9
$DIMTFAC
 40
0.5
  9
$DIMGAP
 40
1.0
  9
$LUNITS
 70
     2
  9
$LUPREC
 70
     2
  9
$SKETCHINC
 40
1.0
  9
$FILLETRAD
 40
0.0
  9
$AUNITS
 70
     0
  9
$AUPREC
 70
     1
  9
$MENU
  1
acad
  9
$ELEVATION
 40
0.0
  9
$PELEVATION
 40
0.0
  9
$THICKNESS
 40
0.0
  9
$LIMCHECK
 70
     0
  9
$BLIPMODE
 70
     0
  9
$CHAMFERA
 40
0.0
  9
$CHAMFERB
 40
0.0
  9
$SKPOLY
 70
     0
  9
$TDCREATE
 40
2450000.6259572911
  9
$TDUPDATE
 40
2453228.5621684021
  9
$TDINDWG
 40
0.0043324884
  9
$TDUSRTIMER
 40
0.0043324884
  9
$USRTIMER
 70
     1
  9
$ANGBASE
 50
0.0
  9
$ANGDIR
 70
     0
  9
$PDMODE
 70
     3
  9
$PDSIZE
 40
0.0
  9
$PLINEWID
 40
0.0
  9
$COORDS
 70
     0
  9
$SPLFRAME
 70
     0
  9
$SPLINETYPE
 70
     6
  9
$SPLINESEGS
 70
     6
  9
$ATTDIA
 70
     1
  9
$ATTREQ
 70
     0
  9
$HANDLING
 70
     1
  9
$HANDSEED
  5
3AD
  9
$SURFTAB1
 70
    18
  9
$SURFTAB2
 70
    18
  9
$SURFTYPE
 70
     6
  9
$SURFU
 70
    18
  9
$SURFV
 70
    18
  9
$UCSNAME
  2

  9
$UCSORG
 10
0.0
 20
0.0
 30
0.0
  9
$UCSXDIR
 10
1.0
 20
0.0
 30
0.0
  9
$UCSYDIR
 10
0.0
 20
1.0
 30
0.0
  9
$PUCSNAME
  2

  9
$PUCSORG
 10
0.0
 20
0.0
 30
0.0
  9
$PUCSXDIR
 10
1.0
 20
0.0
 30
0.0
  9
$PUCSYDIR
 10
0.0
 20
1.0
 30
0.0
  9
$USERI1
 70
     0
  9
$USERI2
 70
     0
  9
$USERI3
 70
     0
  9
$USERI4
 70
     0
  9
$USERI5
 70
     0
  9
$USERR1
 40
0.0
  9
$USERR2
 40
0.0
  9
$USERR3
 40
0.0
  9
$USERR4
 40
0.0
  9
$USERR5
 40
0.0
  9
$WORLDVIEW
 70
     1
  9
$SHADEDGE
 70
     1
  9
$SHADEDIF
 70
    70
  9
$TILEMODE
 70
     1
  9
$MAXACTVP
 70
    16
  9
$PLIMCHECK
 70
     0
  9
$PEXTMIN
 10
1.0000000000000000E+020
 20
1.0000000000000000E+020
 30
1.0000000000000000E+020
  9
$PEXTMAX
 10
-1.0000000000000000E+020
 20
-1.0000000000000000E+020
 30
-1.0000000000000000E+020
  9
$PLIMMIN
 10
0.0
 20
0.0
  9
$PLIMMAX
 10
12.0
 20
9.0
  9
$UNITMODE
 70
     0
  9
$VISRETAIN
 70
     0
  9
$PLINEGEN
 70
     0
  9
$PSLTSCALE
 70
     1
  0
ENDSEC
  0
SECTION
  2
TABLES
  0
TABLE
  2
VPORT
 70
     1
  0
VPORT
  2
*ACTIVE
 70
     0
 10
0.0
 20
0.0
 11
1.0
 21
1.0
 12
-5.2996610799545456
 22
8.0081394797541776
 13
0.0
 23
0.0
 14
5.0
 24
5.0
 15
10.0
 25
10.0
 16
0.6123724356957946
 26
-0.6123724356957946
 36
0.5
 17
0.0
 27
0.0
 37
0.0
 40
211.34654801190459
 41
1.712406015037593
 42
50.0
 43
0.0
 44
0.0
 50
0.0
 51
0.0
 71
     0
 72
   100
 73
     1
 74
     1
 75
     0
 76
     0
 77
     0
 78
     0
  0
ENDTAB
  0
TABLE
  2
LTYPE
 70
    10
  0
LTYPE
  2
CONTINUOUS
 70
     0
  3
Solid line
 72
    65
 73
     0
 40
0.0
  0
LTYPE
  2
AMCONSTR
 70
     0
  3
_______________________
 72
    65
 73
     2
 40
9999.0
 49
9999.0
 49
0.0
  0
LTYPE
  2
HIDDEN
 70
     0
  3
Hidden __ __ __ __ __ __ __ __ __ __ __ __ __ _
 72
    65
 73
     2
 40
0.375
 49
0.25
 49
-0.125
  0
LTYPE
  2
CENTER
 70
     0
  3
Center ____ _ ____ _ ____ _ ____ _ ____ _ ____
 72
    65
 73
     4
 40
2.0
 49
1.25
 49
-0.25
 49
0.25
 49
-0.25
  0
LTYPE
  2
PHANTOM2
 70
     0
  3
Phantom (.5x) ___ _ _ ___ _ _ ___ _ _ ___ _ _
 72
    65
 73
     6
 40
1.25
 49
0.625
 49
-0.125
 49
0.125
 49
-0.125
 49
0.125
 49
-0.125
  0
LTYPE
  2
CENTER2
 70
     0
  3
Center (.5x) ___ _ ___ _ ___ _ ___ _ ___ _ ___
 72
    65
 73
     4
 40
1.125
 49
0.75
 49
-0.125
 49
0.125
 49
-0.125
  0
LTYPE
  2
HIDDEN2
 70
     0
  3
Hidden (.5x) _ _ _ _ _ _ _ _ _ _ _ _ _ _ _ _ _
 72
    65
 73
     2
 40
0.1875
 49
0.125
 49
-0.0625
  0
LTYPE
  2
AMZIGZAG2
 70
     0
  3
/\/-/\/-/\/-/\/-/\/-/\/
 72
    65
 73
     2
 40
0.4401
 49
0.0001
 49
-0.4400000000000001
  0
LTYPE
  2
ACANSTGB
 70
     0
  3
__ . . __ . .
 72
    65
 73
     6
 40
0.35433070866
 49
0.15748031496
 49
-0.03937007874
 49
0.03937007874
 49
-0.03937007874
 49
0.03937007874
 49
-0.03937007874
  0
LTYPE
  2
ACANSTGL
 70
     0
  3
_ _ _ _ _
 72
    65
 73
     2
 40
0.11811023622
 49
0.07874015748
 49
-0.03937007874
  0
ENDTAB
  0
TABLE
  2
LAYER
 70
     4
  0
LAYER
  2
0
 70
     0
 62
     7
  6
CONTINUOUS
  0
LAYER
  2
LAYER1
 70
     0
 62
     3
  6
CONTINUOUS
  0
LAYER
  2
LAYER3
 70
     0
 62
     4
  6
CONTINUOUS
  0
LAYER
  2
DEFPOINTS
 70
     0
 62
     7
  6
CONTINUOUS
  0
ENDTAB
  0
TABLE
  2
STYLE
 70
     5
  0
STYLE
  2
STANDARD
 70
     0
 40
0.0
 41
1.0
 50
0.0
 71
     0
 42
3.0
  3
TXT
  4

  0
STYLE
  2
ROMANS
 70
     0
 40
5.0999999999999988
 41
0.7
 50
0.0
 71
     0
 42
5.0999999999999988
  3
ROMANS.shx
  4

  0
STYLE
  2

 70
     1
 40
0.0
 41
1.0
 50
0.0
 71
     0
 42
5.0999999999999988
  3
ltypeshp.shx
  4

  0
STYLE
  2
ACANSTS
 70
     0
 40
1.0
 41
1.0
 50
0.0
 71
     0
 42
5.0999999999999988
  3
romans.shx
  4

  0
STYLE
  2
ACANSGDT
 70
     0
 40
0.0
 41
1.0
 50
0.0
 71
     0
 42
5.0999999999999988
  3
amgdtans.shx
  4

  0
ENDTAB
  0
TABLE
  2
VIEW
 70
     0
  0
ENDTAB
  0
TABLE
  2
UCS
 70
     0
  0
ENDTAB
  0
TABLE
  2
APPID
 70
     1
  0
APPID
  2
ACAD
 70
     0
  0
ENDTAB
  0
TABLE
  2
DIMSTYLE
 70
     7
  0
DIMSTYLE
  2
STANDARD
 70
     0
  3

  4

  5

  6

  7

 40
1.45
 41
3.5
 42
0.5
 43
0.0
 44
1.8
 45
0.0
 46
1.25
 47
0.0
 48
0.0
140
3.399999999999999
141
1.5
142
0.0
143
0.039
144
1.0
145
1.323529411764705
146
0.5
147
1.0
 71
     0
 72
     0
 73
     0
 74
     0
 75
     0
 76
     0
 77
     1
 78
     8
170
     0
171
     2
172
     1
173
     0
174
     1
175
     0
176
     2
177
     2
178
     3
  0
DIMSTYLE
  2
AM_ANSI
 70
     0
  3

  4
mm
  5

  6

  7

 40
1.0
 41
0.1
 42
0.05
 43
0.5
 44
0.1
 45
0.0
 46
0.0
 47
0.1
 48
0.1
140
0.12
141
0.0
142
0.0
143
25.399999999999999
144
1.0
145
0.0
146
0.71
147
0.06
 71
     0
 72
     0
 73
     1
 74
     1
 75
     0
 76
     0
 77
     0
 78
     7
170
     0
171
     2
172
     0
173
     0
174
     0
175
     0
176
   256
177
   256
178
     2
  0
DIMSTYLE
  2
AM_ANSI$3
 70
     0
  3

  4
mm
  5

  6

  7

 40
1.0
 41
0.1
 42
0.05
 43
0.5
 44
0.1
 45
0.0
 46
0.0
 47
0.1
 48
0.1
140
0.12
141
0.0
142
0.0
143
25.399999999999999
144
1.0
145
0.0
146
0.71
147
0.06
 71
     0
 72
     0
 73
     1
 74
     1
 75
     0
 76
     0
 77
     0
 78
     7
170
     0
171
     2
172
     0
173
     0
174
     0
175
     0
176
   256
177
   256
178
     2
  0
DIMSTYLE
  2
AM_ANSI$4
 70
     0
  3

  4
mm
  5

  6

  7

 40
1.0
 41
0.1
 42
0.05
 43
0.5
 44
0.1
 45
0.0
 46
0.0
 47
0.1
 48
0.1
140
0.12
141
0.0
142
0.0
143
25.399999999999999
144
1.0
145
0.0
146
0.71
147
0.06
 71
     0
 72
     0
 73
     1
 74
     1
 75
     0
 76
     0
 77
     0
 78
     7
170
     0
171
     2
172
     0
173
     0
174
     0
175
     0
176
   256
177
   256
178
     2
  0
DIMSTYLE
  2
AM_ANSI$7
 70
     0
  3

  4
mm
  5

  6

  7

 40
1.0
 41
0.1
 42
0.05
 43
0.5
 44
0.1
 45
0.0
 46
0.0
 47
0.1
 48
0.1
140
0.24
141
0.0
142
0.0
143
25.399999999999999
144
1.0
145
0.0
146
0.71
147
0.06
 71
     0
 72
     0
 73
     1
 74
     1
 75
     0
 76
     0
 77
     0
 78
     7
170
     0
171
     2
172
     0
173
     0
174
     0
175
     0
176
   256
177
   256
178
     2
  0
DIMSTYLE
  2
AM_ANSI$SF
 70
     0
  3

  4
mm
  5

  6

  7

 40
1.0
 41
0.1
 42
0.05
 43
0.5
 44
0.1
 45
0.0
 46
0.0
 47
0.1
 48
0.1
140
0.12
141
0.0
142
0.0
143
25.399999999999999
144
1.0
145
0.0
146
0.71
147
0.06
 71
     0
 72
     0
 73
     1
 74
     1
 75
     1
 76
     1
 77
     0
 78
     7
170
     0
171
     2
172
     0
173
     0
174
     0
175
     0
176
   256
177
   256
178
     2
  0
DIMSTYLE
  2
AM_ANSI$SH
 70
     0
  3

  4
mm
  5

  6
GENAXEH
  7

 40
1.0
 41
0.1
 42
0.05
 43
0.5
 44
0.1
 45
0.0
 46
0.0
 47
0.1
 48
0.1
140
0.12
141
0.0
142
0.0
143
25.399999999999999
144
1.0
145
0.0
146
0.71
147
0.06
 71
     0
 72
     0
 73
     1
 74
     1
 75
     1
 76
     1
 77
     0
 78
     7
170
     0
171
     2
172
     0
173
     1
174
     0
175
     0
176
   256
177
   256
178
     2
  0
ENDTAB
  0
ENDSEC
  0
SECTION
  2
BLOCKS
  0
BLOCK
  8
0
 62
     7
  2
$MODEL_SPACE
 70
     0
 10
0.0
 20
0.0
 30
0.0
  3
$MODEL_SPACE
  1

  0
ENDBLK
  5
A
  8
0
 62
     7
  0
BLOCK
 67
     1
  8
0
 62
     7
  2
$PAPER_SPACE
 70
     0
 10
0.0
 20
0.0
 30
0.0
  3
$PAPER_SPACE
  1

  0
ENDBLK
  5
F
 67
     1
  8
0
 62
     7
  0
BLOCK
  8
0
  2
*D0
 70
     1
 10
0.0
 20
0.0
 30
0.0
  3
*D0
  1
*U
  0
LINE
  5
121
  8
0
  6
BYBLOCK
 62
     2
 10
0.0000000000001257
 20
-0.7250000000000628
 30
0.0
 11
0.0000000000001257
 21
-16.995621148781421
 31
0.0
  0
LINE
  5
122
  8
0
  6
BYBLOCK
 62
     2
 10
12.0
 20
-0.725
 30
0.0
 11
12.0
 21
-16.995621148781421
 31
0.0
  0
LINE
  5
123
  8
0
  6
BYBLOCK
 62
     2
 10
-5.0749999999998741
 20
-14.385621148781411
 30
0.0
 11
-10.149999999999871
 21
-14.385621148781411
 31
0.0
  0
LINE
  5
124
  8
0
  6
BYBLOCK
 62
     2
 10
17.074999999999999
 20
-14.385621148781411
 30
0.0
 11
22.149999999999991
 21
-14.385621148781411
 31
0.0
  0
SOLID
  5
125
  8
0
  6
BYBLOCK
 62
     2
 10
-5.0749999999998741
 20
-13.539787815448079
 30
0.0
 11
-5.0749999999998741
 21
-15.231454482114749
 31
0.0
 12
0.0000000000001257
 22
-14.385621148781411
 32
0.0
 13
0.0000000000001257
 23
-14.385621148781411
 33
0.0
  0
SOLID
  5
126
  8
0
  6
BYBLOCK
 62
     2
 10
17.074999999999999
 20
-13.539787815448079
 30
0.0
 11
17.074999999999999
 21
-15.231454482114749
 31
0.0
 12
12.0
 22
-14.385621148781411
 32
0.0
 13
12.0
 23
-14.385621148781411
 33
0.0
  0
LINE
  5
127
  8
0
  6
BYBLOCK
 62
     2
 10
0.0000000000001257
 20
-14.385621148781411
 30
0.0
 11
12.0
 21
-14.385621148781411
 31
0.0
  0
TEXT
  5
128
  8
0
  6
BYBLOCK
 62
     3
 10
2.3450000000000628
 20
-12.005621148781421
 30
0.0
 40
5.0999999999999988
  1
12
 41
0.7
  7
ROMANS
 72
     1
 11
6.0000000000000631
 21
-9.4556211487814181
 31
0.0
 73
     2
  0
POINT
  5
129
  8
DEFPOINTS
  6
BYBLOCK
 62
     0
 10
0.0000000000001257
 20
-0.0000000000000628
 30
0.0
  0
POINT
  5
12A
  8
DEFPOINTS
  6
BYBLOCK
 62
     0
 10
12.0
 20
0.0
 30
0.0
  0
POINT
  5
12B
  8
DEFPOINTS
  6
BYBLOCK
 62
     0
 10
12.0
 20
-14.385621148781411
 30
0.0
  0
ENDBLK
  5
12D
  8
0
  0
BLOCK
  8
0
  2
*D1
 70
     1
 10
0.0
 20
0.0
 30
0.0
  3
*D1
  1
*U
  0
LINE
  5
108
  8
0
  6
BYBLOCK
 62
     2
 10
-4.7249999999999988
 20
0.0
 30
0.0
 11
-45.457089696814108
 21
0.0
 31
0.0
  0
LINE
  5
109
  8
0
  6
BYBLOCK
 62
     2
 10
-3.7249999999999912
 20
78.0
 30
0.0
 11
-45.457089696814108
 21
78.0
 31
0.0
  0
LINE
  5
10A
  8
0
  6
BYBLOCK
 62
     2
 10
-42.847089696814109
 20
5.0750000000000002
 30
0.0
 11
-42.847089696814109
 21
72.924999999999997
 31
0.0
  0
SOLID
  5
10B
  8
0
  6
BYBLOCK
 62
     2
 10
-43.69292303014744
 20
5.0750000000000002
 30
0.0
 11
-42.001256363480792
 21
5.0750000000000002
 31
0.0
 12
-42.847089696814109
 22
0.0
 32
0.0
 13
-42.847089696814109
 23
0.0
 33
0.0
  0
SOLID
  5
10C
  8
0
  6
BYBLOCK
 62
     2
 10
-43.69292303014744
 20
72.924999999999997
 30
0.0
 11
-42.001256363480792
 21
72.924999999999997
 31
0.0
 12
-42.847089696814109
 22
78.0
 32
0.0
 13
-42.847089696814109
 23
78.0
 33
0.0
  0
TEXT
  5
10D
  8
0
  6
BYBLOCK
 62
     3
 10
-45.227089696814119
 20
35.600000000000001
 30
0.0
 40
5.0999999999999988
  1
78
 50
90.0
 41
0.7
  7
ROMANS
 72
     1
 11
-47.777089696814123
 21
39.0
 31
0.0
 73
     2
  0
POINT
  5
10E
  8
DEFPOINTS
  6
BYBLOCK
 62
     0
 10
-4.0
 20
0.0
 30
0.0
  0
POINT
  5
10F
  8
DEFPOINTS
  6
BYBLOCK
 62
     0
 10
-2.9999999999999911
 20
78.0
 30
0.0
  0
POINT
  5
110
  8
DEFPOINTS
  6
BYBLOCK
 62
     0
 10
-42.847089696814109
 20
78.0
 30
0.0
  0
ENDBLK
  5
112
  8
0
  0
BLOCK
  8
0
  2
*D2
 70
     1
 10
0.0
 20
0.0
 30
0.0
  3
*D2
  1
*U
  0
LINE
  5
FA
  8
0
  6
BYBLOCK
 62
     2
 10
-4.7250000000000032
 20
0.0
 30
0.0
 11
-33.395966637046271
 21
0.0
 31
0.0
  0
LINE
  5
FB
  8
0
  6
BYBLOCK
 62
     2
 10
-0.7250000000000071
 20
21.0
 30
0.0
 11
-33.395966637046271
 21
21.0
 31
0.0
  0
LINE
  5
FC
  8
0
  6
BYBLOCK
 62
     2
 10
-30.785966637046268
 20
5.0750000000000002
 30
0.0
 11
-30.785966637046268
 21
15.925000000000001
 31
0.0
  0
SOLID
  5
FD
  8
0
  6
BYBLOCK
 62
     2
 10
-31.63179997037961
 20
5.0750000000000002
 30
0.0
 11
-29.94013330371293
 21
5.0750000000000002
 31
0.0
 12
-30.785966637046268
 22
0.0
 32
0.0
 13
-30.785966637046268
 23
0.0
 33
0.0
  0
SOLID
  5
FE
  8
0
  6
BYBLOCK
 62
     2
 10
-31.63179997037961
 20
15.925000000000001
 30
0.0
 11
-29.94013330371293
 21
15.925000000000001
 31
0.0
 12
-30.785966637046268
 22
21.0
 32
0.0
 13
-30.785966637046268
 23
21.0
 33
0.0
  0
TEXT
  5
FF
  8
0
  6
BYBLOCK
 62
     3
 10
-33.165966637046267
 20
7.6100000000000012
 30
0.0
 40
5.0999999999999988
  1
21
 50
90.0
 41
0.7
  7
ROMANS
 72
     1
 11
-35.715966637046272
 21
10.5
 31
0.0
 73
     2
  0
POINT
  5
100
  8
DEFPOINTS
  6
BYBLOCK
 62
     0
 10
-4.0000000000000027
 20
0.0
 30
-0.0000000000000013
  0
POINT
  5
102
  8
DEFPOINTS
  6
BYBLOCK
 62
     0
 10
-0.0000000000000071
 20
21.0
 30
0.0
  0
POINT
  5
103
  8
DEFPOINTS
  6
BYBLOCK
 62
     0
 10
-30.785966637046268
 20
21.0
 30
0.0
  0
ENDBLK
  5
105
  8
0
  0
BLOCK
  8
0
  2
*D3
 70
     1
 10
0.0
 20
0.0
 30
0.0
  3
*D3
  1
*U
  0
LINE
  5
130
  8
0
  6
BYBLOCK
 62
     2
 10
17.999999999999979
 20
-0.7250000000000347
 30
0.0
 11
17.999999999999979
 21
-13.726156119871611
 31
0.0
  0
LINE
  5
131
  8
0
  6
BYBLOCK
 62
     2
 10
-4.0000000000000009
 20
-0.7250000000000052
 30
0.0
 11
-4.0000000000000009
 21
-13.726156119871611
 31
0.0
  0
LINE
  5
132
  8
0
  6
BYBLOCK
 62
     2
 10
12.92499999999999
 20
-11.11615611987161
 30
0.0
 11
1.074999999999998
 21
-11.11615611987161
 31
0.0
  0
SOLID
  5
133
  8
0
  6
BYBLOCK
 62
     2
 10
12.92499999999999
 20
-10.27032278653828
 30
0.0
 11
12.92499999999999
 21
-11.961989453204939
 31
0.0
 12
17.999999999999979
 22
-11.11615611987161
 32
0.0
 13
17.999999999999979
 23
-11.11615611987161
 33
0.0
  0
SOLID
  5
134
  8
0
  6
BYBLOCK
 62
     2
 10
1.074999999999998
 20
-10.27032278653828
 30
0.0
 11
1.074999999999998
 21
-11.961989453204939
 31
0.0
 12
-4.0000000000000009
 22
-11.11615611987161
 32
0.0
 13
-4.0000000000000009
 23
-11.11615611987161
 33
0.0
  0
TEXT
  5
135
  8
0
  6
BYBLOCK
 62
     3
 10
3.5999999999999939
 20
-8.7361561198716142
 30
0.0
 40
5.0999999999999988
  1
22
 41
0.7
  7
ROMANS
 72
     1
 11
6.9999999999999929
 21
-6.1861561198716153
 31
0.0
 73
     2
  0
POINT
  5
136
  8
DEFPOINTS
  6
BYBLOCK
 62
     0
 10
17.999999999999979
 20
-0.0000000000000346
 30
0.0
  0
POINT
  5
137
  8
DEFPOINTS
  6
BYBLOCK
 62
     0
 10
-4.0000000000000009
 20
-0.0000000000000052
 30
0.0
  0
POINT
  5
138
  8
DEFPOINTS
  6
BYBLOCK
 62
     0
 10
-4.0000000000000009
 20
-11.11615611987161
 30
0.0
  0
ENDBLK
  5
13A
  8
0
  0
BLOCK
  8
0
  2
*D4
 70
     1
 10
0.0
 20
0.0
 30
0.0
  3
*D4
  1
*U
  0
LINE
  5
300
  8
0
  6
BYBLOCK
 62
     2
 10
-0.7250000000000071
 20
57.0
 30
0.0
 11
-33.395966637046271
 21
57.0
 31
0.0
  0
LINE
  5
301
  8
0
  6
BYBLOCK
 62
     2
 10
-4.7249999999999899
 20
78.0
 30
0.0
 11
-33.395966637046271
 21
78.0
 31
0.0
  0
LINE
  5
302
  8
0
  6
BYBLOCK
 62
     2
 10
-30.785966637046268
 20
62.075000000000003
 30
0.0
 11
-30.785966637046268
 21
72.924999999999997
 31
0.0
  0
SOLID
  5
303
  8
0
  6
BYBLOCK
 62
     2
 10
-31.63179997037961
 20
62.075000000000003
 30
0.0
 11
-29.94013330371293
 21
62.075000000000003
 31
0.0
 12
-30.785966637046268
 22
57.0
 32
0.0
 13
-30.785966637046268
 23
57.0
 33
0.0
  0
SOLID
  5
304
  8
0
  6
BYBLOCK
 62
     2
 10
-31.63179997037961
 20
72.924999999999997
 30
0.0
 11
-29.94013330371293
 21
72.924999999999997
 31
0.0
 12
-30.785966637046268
 22
78.0
 32
0.0
 13
-30.785966637046268
 23
78.0
 33
0.0
  0
TEXT
  5
305
  8
0
  6
BYBLOCK
 62
     3
 10
-33.165966637046267
 20
64.609999999999999
 30
0.0
 40
5.0999999999999988
  1
21
 50
90.0
 41
0.7
  7
ROMANS
 72
     1
 11
-35.715966637046272
 21
67.5
 31
0.0
 73
     2
  0
POINT
  5
306
  8
DEFPOINTS
  6
BYBLOCK
 62
     0
 10
-0.0000000000000071
 20
57.0
 30
0.0
  0
POINT
  5
307
  8
DEFPOINTS
  6
BYBLOCK
 62
     0
 10
-3.9999999999999911
 20
78.0
 30
0.0
  0
POINT
  5
308
  8
DEFPOINTS
  6
BYBLOCK
 62
     0
 10
-30.785966637046268
 20
78.0
 30
0.0
  0
ENDBLK
  5
30A
  8
0
  0
BLOCK
  8
0
  2
*D5
 70
     1
 10
0.0
 20
0.0
 30
0.0
  3
*D5
  1
*U
  0
LINE
  5
32B
  8
0
  6
BYBLOCK
 62
     2
 10
-0.7250000000000071
 20
21.0
 30
0.0
 11
-33.395966637046271
 21
21.0
 31
0.0
  0
LINE
  5
32C
  8
0
  6
BYBLOCK
 62
     2
 10
-0.7250000000000071
 20
57.0
 30
0.0
 11
-33.395966637046271
 21
57.0
 31
0.0
  0
LINE
  5
32D
  8
0
  6
BYBLOCK
 62
     2
 10
-30.785966637046268
 20
26.074999999999989
 30
0.0
 11
-30.785966637046268
 21
51.92499999999999
 31
0.0
  0
SOLID
  5
32E
  8
0
  6
BYBLOCK
 62
     2
 10
-31.63179997037961
 20
26.074999999999989
 30
0.0
 11
-29.94013330371293
 21
26.074999999999989
 31
0.0
 12
-30.785966637046268
 22
21.0
 32
0.0
 13
-30.785966637046268
 23
21.0
 33
0.0
  0
SOLID
  5
32F
  8
0
  6
BYBLOCK
 62
     2
 10
-31.63179997037961
 20
51.92499999999999
 30
0.0
 11
-29.94013330371293
 21
51.92499999999999
 31
0.0
 12
-30.785966637046268
 22
57.0
 32
0.0
 13
-30.785966637046268
 23
57.0
 33
0.0
  0
TEXT
  5
330
  8
0
  6
BYBLOCK
 62
     3
 10
-33.165966637046267
 20
35.600000000000001
 30
0.0
 40
5.0999999999999988
  1
36
 50
90.0
 41
0.7
  7
ROMANS
 72
     1
 11
-35.715966637046272
 21
39.0
 31
0.0
 73
     2
  0
POINT
  5
331
  8
DEFPOINTS
  6
BYBLOCK
 62
     0
 10
-0.0000000000000071
 20
21.0
 30
0.0
  0
POINT
  5
332
  8
DEFPOINTS
  6
BYBLOCK
 62
     0
 10
-0.0000000000000071
 20
57.0
 30
0.0
  0
POINT
  5
333
  8
DEFPOINTS
  6
BYBLOCK
 62
     0
 10
-30.785966637046268
 20
57.0
 30
0.0
  0
ENDBLK
  5
335
  8
0
  0
BLOCK
  8
0
  2
*D6
 70
     1
 10
0.0
 20
0.0
 30
0.0
  3
*D6
  1
*U
  0
LINE
  5
31C
  8
0
  6
BYBLOCK
 62
     2
 10
5.2750000000000004
 20
70.0
 30
0.0
 11
-20.149506412886328
 21
70.0
 31
0.0
  0
LINE
  5
31D
  8
0
  6
BYBLOCK
 62
     2
 10
-4.7249999999999899
 20
78.0
 30
0.0
 11
-20.149506412886328
 21
78.0
 31
0.0
  0
LINE
  5
31E
  8
0
  6
BYBLOCK
 62
     2
 10
-17.53950641288634
 20
64.924999999999983
 30
0.0
 11
-17.53950641288634
 21
59.850000000000001
 31
0.0
  0
LINE
  5
31F
  8
0
  6
BYBLOCK
 62
     2
 10
-17.53950641288634
 20
83.075000000000003
 30
0.0
 11
-17.53950641288634
 21
88.150000000000006
 31
0.0
  0
SOLID
  5
320
  8
0
  6
BYBLOCK
 62
     2
 10
-18.385339746219671
 20
64.924999999999983
 30
0.0
 11
-16.693673079553001
 21
64.924999999999983
 31
0.0
 12
-17.53950641288634
 22
70.0
 32
0.0
 13
-17.53950641288634
 23
70.0
 33
0.0
  0
SOLID
  5
321
  8
0
  6
BYBLOCK
 62
     2
 10
-18.385339746219671
 20
83.075000000000003
 30
0.0
 11
-16.693673079553001
 21
83.075000000000003
 31
0.0
 12
-17.53950641288634
 22
78.0
 32
0.0
 13
-17.53950641288634
 23
78.0
 33
0.0
  0
LINE
  5
322
  8
0
  6
BYBLOCK
 62
     2
 10
-17.53950641288634
 20
70.0
 30
0.0
 11
-17.53950641288634
 21
78.0
 31
0.0
  0
TEXT
  5
323
  8
0
  6
BYBLOCK
 62
     3
 10
-19.919506412886332
 20
72.299999999999997
 30
0.0
 40
5.0999999999999988
  1
8
 50
90.0
 41
0.7
  7
ROMANS
 72
     1
 11
-22.469506412886339
 21
74.0
 31
0.0
 73
     2
  0
POINT
  5
324
  8
DEFPOINTS
  6
BYBLOCK
 62
     0
 10
6.0
 20
70.0
 30
-0.0000000000000009
  0
POINT
  5
325
  8
DEFPOINTS
  6
BYBLOCK
 62
     0
 10
-3.9999999999999911
 20
78.0
 30
0.0
  0
POINT
  5
326
  8
DEFPOINTS
  6
BYBLOCK
 62
     0
 10
-17.53950641288634
 20
78.0
 30
0.0
  0
ENDBLK
  5
328
  8
0
  0
BLOCK
  8
0
  2
*D7
 70
     1
 10
0.0
 20
0.0
 30
0.0
  3
*D7
  1
*U
  0
LINE
  5
13D
  8
0
  6
BYBLOCK
 62
     2
 10
-5.7249999999999988
 20
0.0
 30
0.0
 11
-20.149506412886328
 21
0.0
 31
0.0
  0
LINE
  5
13E
  8
0
  6
BYBLOCK
 62
     2
 10
5.2750000000000004
 20
8.0000000000000018
 30
0.0
 11
-20.149506412886328
 21
8.0000000000000018
 31
0.0
  0
LINE
  5
13F
  8
0
  6
BYBLOCK
 62
     2
 10
-17.53950641288634
 20
-5.0750000000000002
 30
0.0
 11
-17.53950641288634
 21
-10.15
 31
0.0
  0
LINE
  5
140
  8
0
  6
BYBLOCK
 62
     2
 10
-17.53950641288634
 20
13.074999999999999
 30
0.0
 11
-17.53950641288634
 21
18.149999999999999
 31
0.0
  0
SOLID
  5
141
  8
0
  6
BYBLOCK
 62
     2
 10
-18.385339746219671
 20
-5.0750000000000002
 30
0.0
 11
-16.693673079553001
 21
-5.0750000000000002
 31
0.0
 12
-17.53950641288634
 22
0.0
 32
0.0
 13
-17.53950641288634
 23
0.0
 33
0.0
  0
SOLID
  5
142
  8
0
  6
BYBLOCK
 62
     2
 10
-18.385339746219671
 20
13.074999999999999
 30
0.0
 11
-16.693673079553001
 21
13.074999999999999
 31
0.0
 12
-17.53950641288634
 22
8.0000000000000018
 32
0.0
 13
-17.53950641288634
 23
8.0000000000000018
 33
0.0
  0
LINE
  5
143
  8
0
  6
BYBLOCK
 62
     2
 10
-17.53950641288634
 20
0.0
 30
0.0
 11
-17.53950641288634
 21
8.0000000000000018
 31
0.0
  0
TEXT
  5
144
  8
0
  6
BYBLOCK
 62
     3
 10
-19.919506412886332
 20
2.2999999999999998
 30
0.0
 40
5.0999999999999988
  1
8
 50
90.0
 41
0.7
  7
ROMANS
 72
     1
 11
-22.469506412886339
 21
4.0
 31
0.0
 73
     2
  0
POINT
  5
145
  8
DEFPOINTS
  6
BYBLOCK
 62
     0
 10
-5.0
 20
0.0
 30
0.0
  0
POINT
  5
146
  8
DEFPOINTS
  6
BYBLOCK
 62
     0
 10
6.0
 20
8.0000000000000018
 30
-0.0000000000000009
  0
POINT
  5
147
  8
DEFPOINTS
  6
BYBLOCK
 62
     0
 10
-17.53950641288634
 20
8.0000000000000018
 30
0.0
  0
ENDBLK
  5
149
  8
0
  0
BLOCK
  8
0
  2
*D8
 70
     1
 10
0.0
 20
0.0
 30
0.0
  3
*D8
  1
*U
  0
LINE
  5
350
  8
0
  6
BYBLOCK
 62
     2
 10
-0.0000000000000071
 20
21.725000000000001
 30
0.0
 11
-0.0000000000000071
 21
34.020583509561718
 31
0.0
  0
LINE
  5
351
  8
0
  6
BYBLOCK
 62
     2
 10
13.999999999999989
 20
21.725000000000001
 30
0.0
 11
13.999999999999989
 21
34.020583509561718
 31
0.0
  0
LINE
  5
352
  8
0
  6
BYBLOCK
 62
     2
 10
5.0749999999999931
 20
31.410583509561722
 30
0.0
 11
8.9249999999999936
 21
31.410583509561722
 31
0.0
  0
SOLID
  5
353
  8
0
  6
BYBLOCK
 62
     2
 10
5.0749999999999931
 20
32.25641684289505
 30
0.0
 11
5.0749999999999931
 21
30.56475017622839
 31
0.0
 12
-0.0000000000000071
 22
31.410583509561722
 32
0.0
 13
-0.0000000000000071
 23
31.410583509561722
 33
0.0
  0
SOLID
  5
354
  8
0
  6
BYBLOCK
 62
     2
 10
8.9249999999999936
 20
32.25641684289505
 30
0.0
 11
8.9249999999999936
 21
30.56475017622839
 31
0.0
 12
13.999999999999989
 22
31.410583509561722
 32
0.0
 13
13.999999999999989
 23
31.410583509561722
 33
0.0
  0
TEXT
  5
355
  8
0
  6
BYBLOCK
 62
     3
 10
3.2599999999999931
 20
34.928451103951517
 30
0.0
 40
5.0999999999999988
  1
14
 41
0.7
  7
ROMANS
 72
     1
 11
6.999999999999992
 21
37.478451103951521
 31
0.0
 73
     2
  0
POINT
  5
356
  8
DEFPOINTS
  6
BYBLOCK
 62
     0
 10
-0.0000000000000071
 20
21.0
 30
0.0
  0
POINT
  5
357
  8
DEFPOINTS
  6
BYBLOCK
 62
     0
 10
13.999999999999989
 20
21.0
 30
0.0
  0
POINT
  5
358
  8
DEFPOINTS
  6
BYBLOCK
 62
     0
 10
13.999999999999989
 20
31.410583509561722
 30
0.0
  0
ENDBLK
  5
35A
  8
0
  0
BLOCK
  8
0
  2
*D9
 70
     1
 10
0.0
 20
0.0
 30
0.0
  3
*D9
  1
*U
  0
LINE
  5
368
  8
0
  6
BYBLOCK
 62
     2
 10
15.499999999999989
 20
78.72499999999998
 30
0.0
 11
15.499999999999989
 21
91.587365249515457
 31
0.0
  0
LINE
  5
369
  8
0
  6
BYBLOCK
 62
     2
 10
17.999999999999989
 20
78.72499999999998
 30
0.0
 11
17.999999999999989
 21
91.587365249515457
 31
0.0
  0
LINE
  5
36A
  8
0
  6
BYBLOCK
 62
     2
 10
10.42499999999999
 20
88.977365249515444
 30
0.0
 11
5.3499999999999917
 21
88.977365249515444
 31
0.0
  0
LINE
  5
36B
  8
0
  6
BYBLOCK
 62
     2
 10
23.074999999999989
 20
88.977365249515444
 30
0.0
 11
28.149999999999991
 21
88.977365249515444
 31
0.0
  0
SOLID
  5
36C
  8
0
  6
BYBLOCK
 62
     2
 10
10.42499999999999
 20
89.823198582848789
 30
0.0
 11
10.42499999999999
 21
88.131531916182126
 31
0.0
 12
15.499999999999989
 22
88.977365249515444
 32
0.0
 13
15.499999999999989
 23
88.977365249515444
 33
0.0
  0
SOLID
  5
36D
  8
0
  6
BYBLOCK
 62
     2
 10
23.074999999999989
 20
89.823198582848789
 30
0.0
 11
23.074999999999989
 21
88.131531916182126
 31
0.0
 12
17.999999999999989
 22
88.977365249515444
 32
0.0
 13
17.999999999999989
 23
88.977365249515444
 33
0.0
  0
LINE
  5
36E
  8
0
  6
BYBLOCK
 62
     2
 10
15.499999999999989
 20
88.977365249515444
 30
0.0
 11
17.999999999999989
 21
88.977365249515444
 31
0.0
  0
TEXT
  5
36F
  8
0
  6
BYBLOCK
 62
     3
 10
12.499999999999989
 20
93.036319065461839
 30
0.0
 40
5.0999999999999988
  1
2.5
 41
0.7
  7
ROMANS
 72
     1
 11
16.749999999999989
 21
95.586319065461836
 31
0.0
 73
     2
  0
POINT
  5
370
  8
DEFPOINTS
  6
BYBLOCK
 62
     0
 10
15.499999999999989
 20
77.999999999999986
 30
0.0
  0
POINT
  5
371
  8
DEFPOINTS
  6
BYBLOCK
 62
     0
 10
17.999999999999989
 20
77.999999999999986
 30
-0.0000000000000107
  0
POINT
  5
372
  8
DEFPOINTS
  6
BYBLOCK
 62
     0
 10
17.999999999999989
 20
88.977365249515444
 30
0.0
  0
ENDBLK
  5
374
  8
0
  0
BLOCK
  8
0
  2
*D10
 70
     1
 10
0.0
 20
0.0
 30
0.0
  3
*D10
  1
*U
  0
LINE
  5
2F1
  8
0
  6
BYBLOCK
 62
     2
 10
13.999999999999989
 20
56.274999999999999
 30
0.0
 11
13.999999999999989
 21
47.604405125291031
 31
0.0
  0
LINE
  5
2F2
  8
0
  6
BYBLOCK
 62
     2
 10
17.999999999999989
 20
77.274999999999991
 30
0.0
 11
17.999999999999989
 21
47.604405125291031
 31
0.0
  0
LINE
  5
2F3
  8
0
  6
BYBLOCK
 62
     2
 10
8.9249999999999936
 20
50.21440512529103
 30
0.0
 11
3.8499999999999921
 21
50.21440512529103
 31
0.0
  0
LINE
  5
2F4
  8
0
  6
BYBLOCK
 62
     2
 10
23.074999999999989
 20
50.21440512529103
 30
0.0
 11
28.149999999999991
 21
50.21440512529103
 31
0.0
  0
SOLID
  5
2F5
  8
0
  6
BYBLOCK
 62
     2
 10
8.9249999999999936
 20
51.060238458624369
 30
0.0
 11
8.9249999999999936
 21
49.368571791957699
 31
0.0
 12
13.999999999999989
 22
50.21440512529103
 32
0.0
 13
13.999999999999989
 23
50.21440512529103
 33
0.0
  0
SOLID
  5
2F6
  8
0
  6
BYBLOCK
 62
     2
 10
23.074999999999989
 20
51.060238458624369
 30
0.0
 11
23.074999999999989
 21
49.368571791957699
 31
0.0
 12
17.999999999999989
 22
50.21440512529103
 32
0.0
 13
17.999999999999989
 23
50.21440512529103
 33
0.0
  0
LINE
  5
2F7
  8
0
  6
BYBLOCK
 62
     2
 10
13.999999999999989
 20
50.21440512529103
 30
0.0
 11
17.999999999999989
 21
50.21440512529103
 31
0.0
  0
TEXT
  5
2F8
  8
0
  6
BYBLOCK
 62
     3
 10
20.465178068631939
 20
52.59440512529104
 30
0.0
 40
5.0999999999999988
  1
4
 41
0.7
  7
ROMANS
 72
     1
 11
22.250178068631939
 21
55.144405125291037
 31
0.0
 73
     2
  0
POINT
  5
2F9
  8
DEFPOINTS
  6
BYBLOCK
 62
     0
 10
13.999999999999989
 20
57.0
 30
0.0
  0
POINT
  5
2FA
  8
DEFPOINTS
  6
BYBLOCK
 62
     0
 10
17.999999999999989
 20
77.999999999999986
 30
0.0
  0
POINT
  5
2FB
  8
DEFPOINTS
  6
BYBLOCK
 62
     0
 10
17.999999999999989
 20
50.21440512529103
 30
0.0
  0
ENDBLK
  5
2FD
  8
0
  0
BLOCK
  8
0
  2
*D11
 70
     1
 10
0.0
 20
0.0
 30
0.0
  3
*D11
  1
*U
  0
LINE
  5
30D
  8
0
  6
BYBLOCK
 62
     2
 10
-3.9999999999999911
 20
77.275000000000006
 30
0.0
 11
-3.9999999999999911
 21
57.138757245477422
 31
0.0
  0
LINE
  5
30E
  8
0
  6
BYBLOCK
 62
     2
 10
6.9999999999999583
 20
69.275000000000006
 30
0.0
 11
6.9999999999999583
 21
57.138757245477422
 31
0.0
  0
LINE
  5
30F
  8
0
  6
BYBLOCK
 62
     2
 10
-9.0749999999999922
 20
59.748757245477421
 30
0.0
 11
-14.14999999999999
 21
59.748757245477421
 31
0.0
  0
LINE
  5
310
  8
0
  6
BYBLOCK
 62
     2
 10
12.07499999999996
 20
59.748757245477421
 30
0.0
 11
17.149999999999959
 21
59.748757245477421
 31
0.0
  0
SOLID
  5
311
  8
0
  6
BYBLOCK
 62
     2
 10
-9.0749999999999922
 20
60.594590578810752
 30
0.0
 11
-9.0749999999999922
 21
58.902923912144082
 31
0.0
 12
-3.9999999999999911
 22
59.748757245477421
 32
0.0
 13
-3.9999999999999911
 23
59.748757245477421
 33
0.0
  0
SOLID
  5
312
  8
0
  6
BYBLOCK
 62
     2
 10
12.07499999999996
 20
60.594590578810752
 30
0.0
 11
12.07499999999996
 21
58.902923912144082
 31
0.0
 12
6.9999999999999583
 22
59.748757245477421
 32
0.0
 13
6.9999999999999583
 23
59.748757245477421
 33
0.0
  0
LINE
  5
313
  8
0
  6
BYBLOCK
 62
     2
 10
-3.9999999999999911
 20
59.748757245477421
 30
0.0
 11
6.9999999999999583
 21
59.748757245477421
 31
0.0
  0
TEXT
  5
314
  8
0
  6
BYBLOCK
 62
     3
 10
-14.31244816585628
 20
62.128757245477424
 30
0.0
 40
5.0999999999999988
  1
11
 41
0.7
  7
ROMANS
 72
     1
 11
-11.16744816585628
 21
64.678757245477414
 31
0.0
 73
     2
  0
POINT
  5
315
  8
DEFPOINTS
  6
BYBLOCK
 62
     0
 10
-3.9999999999999911
 20
78.0
 30
0.0
  0
POINT
  5
316
  8
DEFPOINTS
  6
BYBLOCK
 62
     0
 10
6.9999999999999583
 20
70.0
 30
-0.0000000000000009
  0
POINT
  5
317
  8
DEFPOINTS
  6
BYBLOCK
 62
     0
 10
6.9999999999999583
 20
59.748757245477421
 30
0.0
  0
ENDBLK
  5
319
  8
0
  0
BLOCK
  8
0
 62
     7
  2
GENAXEH
 70
     0
 10
0.0
 20
0.0
 30
0.0
  3
GENAXEH
  1

  0
LINE
  5
39F
  8
0
 10
-1.0
 20
0.0
 30
0.0
 11
1.0
 21
0.0
 31
0.0
  0
ENDBLK
  5
3A1
  8
0
 62
     7
  0
ENDSEC
  0
SECTION
  2
ENTITIES
  0
POLYLINE
  5
26
  8
LAYER3
 66
     1
 10
0.0
 20
0.0
 30
0.0
 70
    64
  0
VERTEX
  5
27
  8
LAYER3
 10
15.499999999999989
 20
3.0
 30
-0.0000000000000157
 70
   192
  0
VERTEX
  5
28
  8
LAYER3
 10
15.49999999999998
 20
12.0
 30
78.0
 70
   192
  0
VERTEX
  5
29
  8
LAYER3
 10
15.49999999999998
 20
3.0
 30
77.999999999999972
 70
   192
  0
VERTEX
  5
2A
  8
LAYER3
 10
15.499999999999989
 20
12.0
 30
0.0
 70
   192
  0
VERTEX
  5
2B
  8
LAYER3
 10
0.0
 20
0.0
 30
0.0
 70
   128
 71
     1
 72
     3
 73
    -2
  0
VERTEX
  5
2C
  8
LAYER3
 10
0.0
 20
0.0
 30
0.0
 70
   128
 71
    -1
 72
     2
 73
     4
  0
SEQEND
  5
2E
  8
LAYER3
  0
POLYLINE
  5
2F
  8
LAYER3
 66
     1
 10
0.0
 20
0.0
 30
0.0
 70
    64
  0
VERTEX
  5
30
  8
LAYER3
 10
4.597913215470661
 20
3.000000000000004
 30
70.994976924149242
 70
   192
  0
VERTEX
  5
31
  8
LAYER3
 10
5.1615223689149916
 20
3.000000000000004
 30
71.838477631085041
 70
   192
  0
VERTEX
  5
32
  8
LAYER3
 10
-4.0
 20
3.0000000000000062
 30
77.999999999999957
 70
   192
  0
VERTEX
  5
33
  8
LAYER3
 10
6.0050230758507901
 20
3.000000000000004
 30
72.402086784529359
 70
   192
  0
VERTEX
  5
34
  8
LAYER3
 10
6.9999999999999911
 20
3.000000000000004
 30
72.600000000000009
 70
   192
  0
VERTEX
  5
35
  8
LAYER3
 10
4.4000000000000012
 20
3.000000000000004
 30
70.0
 70
   192
  0
VERTEX
  5
36
  8
LAYER3
 10
15.499999999999989
 20
3.000000000000004
 30
78.0
 70
   192
  0
VERTEX
  5
37
  8
LAYER3
 10
7.9949769241492268
 20
3.000000000000004
 30
72.402086784529345
 70
   192
  0
VERTEX
  5
38
  8
LAYER3
 10
8.8384776310850182
 20
3.000000000000004
 30
71.838477631085027
 70
   192
  0
VERTEX
  5
39
  8
LAYER3
 10
9.4020867845293434
 20
3.000000000000004
 30
70.994976924149242
 70
   192
  0
VERTEX
  5
3A
  8
LAYER3
 10
13.999999999999989
 20
3.0000000000000031
 30
57.0
 70
   192
  0
VERTEX
  5
3B
  8
LAYER3
 10
4.5979132154706459
 20
3.000000000000004
 30
69.005023075850787
 70
   192
  0
VERTEX
  5
3C
  8
LAYER3
 10
-0.0000000000000085
 20
3.000000000000004
 30
57.0
 70
   192
  0
VERTEX
  5
3D
  8
LAYER3
 10
15.499999999999989
 20
3.0
 30
0.0
 70
   192
  0
VERTEX
  5
3E
  8
LAYER3
 10
13.999999999999989
 20
3.0000000000000009
 30
21.0
 70
   192
  0
VERTEX
  5
3F
  8
LAYER3
 10
9.4020867845293434
 20
3.0
 30
8.9949769241492366
 70
   192
  0
VERTEX
  5
40
  8
LAYER3
 10
8.8384776310850182
 20
3.0
 30
9.838477631085027
 70
   192
  0
VERTEX
  5
41
  8
LAYER3
 10
7.9949769241492268
 20
3.0
 30
10.40208678452934
 70
   192
  0
VERTEX
  5
42
  8
LAYER3
 10
6.9999999999999911
 20
3.0
 30
10.6
 70
   192
  0
VERTEX
  5
43
  8
LAYER3
 10
6.0050230758507901
 20
3.0
 30
10.402086784529351
 70
   192
  0
VERTEX
  5
44
  8
LAYER3
 10
5.1615223689149916
 20
3.0
 30
9.8384776310850413
 70
   192
  0
VERTEX
  5
45
  8
LAYER3
 10
-4.0
 20
3.0
 30
-0.0000000000000323
 70
   192
  0
VERTEX
  5
46
  8
LAYER3
 10
5.1615223689149659
 20
3.000000000000004
 30
68.161522368914987
 70
   192
  0
VERTEX
  5
47
  8
LAYER3
 10
-0.0000000000000085
 20
3.0000000000000022
 30
21.0
 70
   192
  0
VERTEX
  5
48
  8
LAYER3
 10
9.5999999999999996
 20
3.0
 30
8.0000000000000018
 70
   192
  0
VERTEX
  5
49
  8
LAYER3
 10
9.4020867845293434
 20
3.0
 30
7.0050230758507661
 70
   192
  0
VERTEX
  5
4A
  8
LAYER3
 10
8.8384776310850182
 20
3.0
 30
6.1615223689149738
 70
   192
  0
VERTEX
  5
4B
  8
LAYER3
 10
7.9949769241492268
 20
3.0
 30
5.597913215470653
 70
   192
  0
VERTEX
  5
4C
  8
LAYER3
 10
6.9999999999999911
 20
3.0
 30
5.4000000000000012
 70
   192
  0
VERTEX
  5
4D
  8
LAYER3
 10
4.597913215470661
 20
3.0
 30
8.9949769241492543
 70
   192
  0
VERTEX
  5
4E
  8
LAYER3
 10
4.4000000000000012
 20
3.0
 30
8.0000000000000018
 70
   192
  0
VERTEX
  5
4F
  8
LAYER3
 10
4.5979132154706459
 20
3.0
 30
7.0050230758507812
 70
   192
  0
VERTEX
  5
50
  8
LAYER3
 10
5.1615223689149659
 20
3.0
 30
6.1615223689149872
 70
   192
  0
VERTEX
  5
51
  8
LAYER3
 10
6.0050230758507563
 20
3.0
 30
5.5979132154706601
 70
   192
  0
VERTEX
  5
52
  8
LAYER3
 10
9.5999999999999996
 20
3.000000000000004
 30
70.0
 70
   192
  0
VERTEX
  5
53
  8
LAYER3
 10
9.4020867845293434
 20
3.000000000000004
 30
69.005023075850744
 70
   192
  0
VERTEX
  5
54
  8
LAYER3
 10
8.8384776310850182
 20
3.000000000000004
 30
68.161522368914973
 70
   192
  0
VERTEX
  5
55
  8
LAYER3
 10
7.9949769241492268
 20
3.000000000000004
 30
67.597913215470655
 70
   192
  0
VERTEX
  5
56
  8
LAYER3
 10
6.9999999999999911
 20
3.000000000000004
 30
67.399999999999991
 70
   192
  0
VERTEX
  5
57
  8
LAYER3
 10
6.0050230758507563
 20
3.000000000000004
 30
67.597913215470655
 70
   192
  0
VERTEX
  5
58
  8
LAYER3
 10
0.0
 20
0.0
 30
0.0
 70
   128
 71
    -1
 72
    -3
 73
     2
  0
VERTEX
  5
59
  8
LAYER3
 10
0.0
 20
0.0
 30
0.0
 70
   128
 71
    -2
 72
    -3
 73
     4
  0
VERTEX
  5
5A
  8
LAYER3
 10
0.0
 20
0.0
 30
0.0
 70
   128
 71
    -4
 72
    -3
 73
     5
  0
VERTEX
  5
5B
  8
LAYER3
 10
0.0
 20
0.0
 30
0.0
 70
   128
 71
    -3
 72
     1
 73
    -6
  0
VERTEX
  5
5C
  8
LAYER3
 10
0.0
 20
0.0
 30
0.0
 70
   128
 71
    -5
 72
     3
 73
    -7
  0
VERTEX
  5
5D
  8
LAYER3
 10
0.0
 20
0.0
 30
0.0
 70
   128
 71
    -5
 72
    -7
 73
     8
  0
VERTEX
  5
5E
  8
LAYER3
 10
0.0
 20
0.0
 30
0.0
 70
   128
 71
    -8
 72
    -7
 73
     9
  0
VERTEX
  5
5F
  8
LAYER3
 10
0.0
 20
0.0
 30
0.0
 70
   128
 71
    -9
 72
    -7
 73
    10
  0
VERTEX
  5
60
  8
LAYER3
 10
0.0
 20
0.0
 30
0.0
 70
   128
 71
   -10
 72
    -7
 73
   -11
  0
VERTEX
  5
61
  8
LAYER3
 10
0.0
 20
0.0
 30
0.0
 70
   128
 71
    -3
 72
     6
 73
   -12
  0
VERTEX
  5
62
  8
LAYER3
 10
0.0
 20
0.0
 30
0.0
 70
   128
 71
    -3
 72
   -12
 73
   -13
  0
VERTEX
  5
63
  8
LAYER3
 10
0.0
 20
0.0
 30
0.0
 70
   128
 71
   -11
 72
     7
 73
   -14
  0
VERTEX
  5
64
  8
LAYER3
 10
0.0
 20
0.0
 30
0.0
 70
   128
 71
   -11
 72
   -14
 73
    15
  0
VERTEX
  5
65
  8
LAYER3
 10
0.0
 20
0.0
 30
0.0
 70
   128
 71
   -15
 72
   -14
 73
   -16
  0
VERTEX
  5
66
  8
LAYER3
 10
0.0
 20
0.0
 30
0.0
 70
   128
 71
   -15
 72
    16
 73
   -17
  0
VERTEX
  5
67
  8
LAYER3
 10
0.0
 20
0.0
 30
0.0
 70
   128
 71
   -15
 72
    17
 73
   -18
  0
VERTEX
  5
68
  8
LAYER3
 10
0.0
 20
0.0
 30
0.0
 70
   128
 71
   -15
 72
    18
 73
   -19
  0
VERTEX
  5
69
  8
LAYER3
 10
0.0
 20
0.0
 30
0.0
 70
   128
 71
   -15
 72
    19
 73
   -20
  0
VERTEX
  5
6A
  8
LAYER3
 10
0.0
 20
0.0
 30
0.0
 70
   128
 71
   -15
 72
    20
 73
   -21
  0
VERTEX
  5
6B
  8
LAYER3
 10
0.0
 20
0.0
 30
0.0
 70
   128
 71
   -15
 72
   -21
 73
   -22
  0
VERTEX
  5
6C
  8
LAYER3
 10
0.0
 20
0.0
 30
0.0
 70
   128
 71
   -13
 72
    12
 73
   -23
  0
VERTEX
  5
6D
  8
LAYER3
 10
0.0
 20
0.0
 30
0.0
 70
   128
 71
    -3
 72
    13
 73
   -24
  0
VERTEX
  5
6E
  8
LAYER3
 10
0.0
 20
0.0
 30
0.0
 70
   128
 71
    -3
 72
   -24
 73
    22
  0
VERTEX
  5
6F
  8
LAYER3
 10
0.0
 20
0.0
 30
0.0
 70
   128
 71
   -16
 72
   -14
 73
    25
  0
VERTEX
  5
70
  8
LAYER3
 10
0.0
 20
0.0
 30
0.0
 70
   128
 71
   -25
 72
   -14
 73
    26
  0
VERTEX
  5
71
  8
LAYER3
 10
0.0
 20
0.0
 30
0.0
 70
   128
 71
   -26
 72
   -14
 73
    27
  0
VERTEX
  5
72
  8
LAYER3
 10
0.0
 20
0.0
 30
0.0
 70
   128
 71
   -27
 72
   -14
 73
    28
  0
VERTEX
  5
73
  8
LAYER3
 10
0.0
 20
0.0
 30
0.0
 70
   128
 71
   -28
 72
    14
 73
   -22
  0
VERTEX
  5
74
  8
LAYER3
 10
0.0
 20
0.0
 30
0.0
 70
   128
 71
   -28
 72
   -22
 73
    29
  0
VERTEX
  5
75
  8
LAYER3
 10
0.0
 20
0.0
 30
0.0
 70
   128
 71
   -22
 72
    21
 73
   -30
  0
VERTEX
  5
76
  8
LAYER3
 10
0.0
 20
0.0
 30
0.0
 70
   128
 71
   -22
 72
    30
 73
   -31
  0
VERTEX
  5
77
  8
LAYER3
 10
0.0
 20
0.0
 30
0.0
 70
   128
 71
   -22
 72
    31
 73
   -32
  0
VERTEX
  5
78
  8
LAYER3
 10
0.0
 20
0.0
 30
0.0
 70
   128
 71
   -22
 72
    32
 73
   -33
  0
VERTEX
  5
79
  8
LAYER3
 10
0.0
 20
0.0
 30
0.0
 70
   128
 71
   -22
 72
    33
 73
   -34
  0
VERTEX
  5
7A
  8
LAYER3
 10
0.0
 20
0.0
 30
0.0
 70
   128
 71
   -22
 72
    34
 73
   -29
  0
VERTEX
  5
7B
  8
LAYER3
 10
0.0
 20
0.0
 30
0.0
 70
   128
 71
   -15
 72
   -22
 73
    24
  0
VERTEX
  5
7C
  8
LAYER3
 10
0.0
 20
0.0
 30
0.0
 70
   128
 71
   -10
 72
   -11
 73
    35
  0
VERTEX
  5
7D
  8
LAYER3
 10
0.0
 20
0.0
 30
0.0
 70
   128
 71
   -35
 72
   -11
 73
    36
  0
VERTEX
  5
7E
  8
LAYER3
 10
0.0
 20
0.0
 30
0.0
 70
   128
 71
   -36
 72
   -11
 73
    37
  0
VERTEX
  5
7F
  8
LAYER3
 10
0.0
 20
0.0
 30
0.0
 70
   128
 71
   -37
 72
    11
 73
   -13
  0
VERTEX
  5
80
  8
LAYER3
 10
0.0
 20
0.0
 30
0.0
 70
   128
 71
   -37
 72
   -13
 73
    38
  0
VERTEX
  5
81
  8
LAYER3
 10
0.0
 20
0.0
 30
0.0
 70
   128
 71
   -38
 72
   -13
 73
    39
  0
VERTEX
  5
82
  8
LAYER3
 10
0.0
 20
0.0
 30
0.0
 70
   128
 71
   -13
 72
    23
 73
   -40
  0
VERTEX
  5
83
  8
LAYER3
 10
0.0
 20
0.0
 30
0.0
 70
   128
 71
   -13
 72
    40
 73
   -39
  0
SEQEND
  5
84
  8
LAYER3
  0
POLYLINE
  5
85
  8
LAYER3
 66
     1
 10
0.0
 20
0.0
 30
0.0
 70
    64
  0
VERTEX
  5
86
  8
LAYER3
 10
-4.0000000000000009
 20
0.0
 30
-0.0000000000000052
 70
   192
  0
VERTEX
  5
87
  8
LAYER3
 10
-3.9999999999999969
 20
0.0
 30
78.0
 70
   192
  0
VERTEX
  5
88
  8
LAYER3
 10
-3.9999999999999969
 20
3.0
 30
78.0
 70
   192
  0
VERTEX
  5
89
  8
LAYER3
 10
-4.0000000000000009
 20
3.0
 30
0.0
 70
   192
  0
VERTEX
  5
8A
  8
LAYER3
 10
0.0
 20
0.0
 30
0.0
 70
   128
 71
     1
 72
     2
 73
    -3
  0
VERTEX
  5
8B
  8
LAYER3
 10
0.0
 20
0.0
 30
0.0
 70
   128
 71
     3
 72
     4
 73
    -1
  0
SEQEND
  5
8C
  8
LAYER3
  0
POLYLINE
  5
8D
  8
LAYER3
 66
     1
 10
0.0
 20
0.0
 30
0.0
 70
    64
  0
VERTEX
  5
8E
  8
LAYER3
 10
15.49999999999998
 20
11.999999999999989
 30
78.0
 70
   192
  0
VERTEX
  5
8F
  8
LAYER3
 10
17.999999999999979
 20
11.999999999999989
 30
78.0
 70
   192
  0
VERTEX
  5
90
  8
LAYER3
 10
17.999999999999979
 20
12.0
 30
0.0
 70
   192
  0
VERTEX
  5
91
  8
LAYER3
 10
15.49999999999998
 20
12.0
 30
-0.0000000000000044
 70
   192
  0
VERTEX
  5
92
  8
LAYER3
 10
0.0
 20
0.0
 30
0.0
 70
   128
 71
     1
 72
     2
 73
    -3
  0
VERTEX
  5
93
  8
LAYER3
 10
0.0
 20
0.0
 30
0.0
 70
   128
 71
     3
 72
     4
 73
    -1
  0
SEQEND
  5
94
  8
LAYER3
  0
POLYLINE
  5
95
  8
LAYER3
 66
     1
 10
0.0
 20
0.0
 30
0.0
 70
    64
  0
VERTEX
  5
96
  8
LAYER3
 10
17.999999999999979
 20
12.0
 30
-0.0000000000000209
 70
   192
  0
VERTEX
  5
97
  8
LAYER3
 10
17.999999999999979
 20
0.0
 30
78.0
 70
   192
  0
VERTEX
  5
98
  8
LAYER3
 10
17.999999999999979
 20
0.0
 30
0.0
 70
   192
  0
VERTEX
  5
99
  8
LAYER3
 10
17.999999999999979
 20
12.0
 30
77.999999999999972
 70
   192
  0
VERTEX
  5
9A
  8
LAYER3
 10
0.0
 20
0.0
 30
0.0
 70
   128
 71
    -1
 72
     2
 73
     3
  0
VERTEX
  5
9B
  8
LAYER3
 10
0.0
 20
0.0
 30
0.0
 70
   128
 71
     1
 72
     4
 73
    -2
  0
SEQEND
  5
9C
  8
LAYER3
  0
POLYLINE
  5
9D
  8
LAYER3
 66
     1
 10
0.0
 20
0.0
 30
0.0
 70
    64
  0
VERTEX
  5
9E
  8
LAYER3
 10
-0.0000000000000085
 20
0.0000000000000024
 30
21.0
 70
   192
  0
VERTEX
  5
9F
  8
LAYER3
 10
-0.0000000000000085
 20
0.0000000000000046
 30
57.0
 70
   192
  0
VERTEX
  5
A0
  8
LAYER3
 10
-4.0000000000000027
 20
0.0000000000000013
 30
0.0
 70
   192
  0
VERTEX
  5
A1
  8
LAYER3
 10
-4.0000000000000027
 20
0.0000000000000061
 30
78.0
 70
   192
  0
VERTEX
  5
A2
  8
LAYER3
 10
2.5018137769706339
 20
0.0000000000000053
 30
71.526047411763074
 70
   192
  0
VERTEX
  5
A3
  8
LAYER3
 10
2.2602247536335591
 20
0.0000000000000014
 30
7.6885026261234968
 70
   192
  0
VERTEX
  5
A4
  8
LAYER3
 10
2.740223545386177
 20
0.0000000000000012
 30
5.8983804919258818
 70
   192
  0
VERTEX
  5
A5
  8
LAYER3
 10
3.4282108766042811
 20
0.0000000000000053
 30
73.13126531261598
 70
   192
  0
VERTEX
  5
A6
  8
LAYER3
 10
4.8983804919258951
 20
0.0000000000000053
 30
74.259776454613828
 70
   192
  0
VERTEX
  5
A7
  8
LAYER3
 10
6.688502626123511
 20
0.0000000000000052
 30
74.739775246366435
 70
   192
  0
VERTEX
  5
A8
  8
LAYER3
 10
8.5260474117630967
 20
0.0000000000000051
 30
74.498186223029364
 70
   192
  0
VERTEX
  5
A9
  8
LAYER3
 10
2.7918996040151458
 20
0.0000000000000012
 30
5.7967317327860206
 70
   192
  0
VERTEX
  5
AA
  8
LAYER3
 10
3.868734687384034
 20
0.0000000000000011
 30
4.42821087660427
 70
   192
  0
VERTEX
  5
AB
  8
LAYER3
 10
17.999999999999979
 20
0.0000000000000048
 30
77.999999999999957
 70
   192
  0
VERTEX
  5
AC
  8
LAYER3
 10
10.13126531261598
 20
0.0000000000000049
 30
73.571789123395703
 70
   192
  0
VERTEX
  5
AD
  8
LAYER3
 10
11.25977645461383
 20
0.0000000000000048
 30
72.101619508074094
 70
   192
  0
VERTEX
  5
AE
  8
LAYER3
 10
11.739775246366429
 20
0.0000000000000046
 30
70.311497373876463
 70
   192
  0
VERTEX
  5
AF
  8
LAYER3
 10
13.999999999999989
 20
0.0000000000000037
 30
57.0
 70
   192
  0
VERTEX
  5
B0
  8
LAYER3
 10
17.999999999999979
 20
0.0
 30
-0.0000000000000367
 70
   192
  0
VERTEX
  5
B1
  8
LAYER3
 10
13.999999999999989
 20
0.0000000000000015
 30
21.0
 70
   192
  0
VERTEX
  5
B2
  8
LAYER3
 10
11.739775246366429
 20
0.0000000000000008
 30
8.3114973738764721
 70
   192
  0
VERTEX
  5
B3
  8
LAYER3
 10
11.49818622302935
 20
0.0000000000000007
 30
6.4739525882368838
 70
   192
  0
VERTEX
  5
B4
  8
LAYER3
 10
11.25977645461383
 20
0.000000000000001
 30
10.101619508074091
 70
   192
  0
VERTEX
  5
B5
  8
LAYER3
 10
10.13126531261598
 20
0.0000000000000011
 30
11.57178912339571
 70
   192
  0
VERTEX
  5
B6
  8
LAYER3
 10
5.4739525882369291
 20
0.0000000000000009
 30
3.5018137769706299
 70
   192
  0
VERTEX
  5
B7
  8
LAYER3
 10
7.3114973738765201
 20
0.0000000000000008
 30
3.2602247536335631
 70
   192
  0
VERTEX
  5
B8
  8
LAYER3
 10
10.57178912339573
 20
0.0000000000000007
 30
4.86873468738405
 70
   192
  0
VERTEX
  5
B9
  8
LAYER3
 10
9.1016195080741333
 20
0.0000000000000007
 30
3.7402235453861872
 70
   192
  0
VERTEX
  5
BA
  8
LAYER3
 10
8.5260474117630984
 20
0.0000000000000013
 30
12.498186223029361
 70
   192
  0
VERTEX
  5
BB
  8
LAYER3
 10
6.688502626123511
 20
0.0000000000000014
 30
12.73977524636644
 70
   192
  0
VERTEX
  5
BC
  8
LAYER3
 10
4.8983804919258933
 20
0.0000000000000015
 30
12.259776454613821
 70
   192
  0
VERTEX
  5
BD
  8
LAYER3
 10
3.428210876604278
 20
0.0000000000000015
 30
11.13126531261597
 70
   192
  0
VERTEX
  5
BE
  8
LAYER3
 10
2.5018137769706308
 20
0.0000000000000015
 30
9.526047411763086
 70
   192
  0
VERTEX
  5
BF
  8
LAYER3
 10
11.49818622302935
 20
0.0000000000000045
 30
68.473952588236884
 70
   192
  0
VERTEX
  5
C0
  8
LAYER3
 10
10.57178912339573
 20
0.0000000000000045
 30
66.868734687384034
 70
   192
  0
VERTEX
  5
C1
  8
LAYER3
 10
9.1016195080741316
 20
0.0000000000000045
 30
65.740223545386186
 70
   192
  0
VERTEX
  5
C2
  8
LAYER3
 10
7.3114973738765201
 20
0.0000000000000046
 30
65.260224753633565
 70
   192
  0
VERTEX
  5
C3
  8
LAYER3
 10
2.2602247536335591
 20
0.0000000000000052
 30
69.688502626123494
 70
   192
  0
VERTEX
  5
C4
  8
LAYER3
 10
2.740223545386177
 20
0.000000000000005
 30
67.898380491925877
 70
   192
  0
VERTEX
  5
C5
  8
LAYER3
 10
2.7918996040151458
 20
0.000000000000005
 30
67.796731732786014
 70
   192
  0
VERTEX
  5
C6
  8
LAYER3
 10
3.868734687384034
 20
0.0000000000000049
 30
66.428210876604268
 70
   192
  0
VERTEX
  5
C7
  8
LAYER3
 10
5.47395258823693
 20
0.0000000000000047
 30
65.501813776970621
 70
   192
  0
VERTEX
  5
C8
  8
LAYER3
 10
0.0
 20
0.0
 30
0.0
 70
   128
 71
     1
 72
    -2
 73
    -3
  0
VERTEX
  5
C9
  8
LAYER3
 10
0.0
 20
0.0
 30
0.0
 70
   128
 71
    -2
 72
     4
 73
    -3
  0
VERTEX
  5
CA
  8
LAYER3
 10
0.0
 20
0.0
 30
0.0
 70
   128
 71
    -2
 72
    -5
 73
    -4
  0
VERTEX
  5
CB
  8
LAYER3
 10
0.0
 20
0.0
 30
0.0
 70
   128
 71
    -3
 72
    -6
 73
    -1
  0
VERTEX
  5
CC
  8
LAYER3
 10
0.0
 20
0.0
 30
0.0
 70
   128
 71
    -3
 72
     7
 73
    -6
  0
VERTEX
  5
CD
  8
LAYER3
 10
0.0
 20
0.0
 30
0.0
 70
   128
 71
     5
 72
    -8
 73
    -4
  0
VERTEX
  5
CE
  8
LAYER3
 10
0.0
 20
0.0
 30
0.0
 70
   128
 71
     8
 72
    -9
 73
    -4
  0
VERTEX
  5
CF
  8
LAYER3
 10
0.0
 20
0.0
 30
0.0
 70
   128
 71
     9
 72
   -10
 73
    -4
  0
VERTEX
  5
D0
  8
LAYER3
 10
0.0
 20
0.0
 30
0.0
 70
   128
 71
    10
 72
   -11
 73
    -4
  0
VERTEX
  5
D1
  8
LAYER3
 10
0.0
 20
0.0
 30
0.0
 70
   128
 71
    -3
 72
    12
 73
    -7
  0
VERTEX
  5
D2
  8
LAYER3
 10
0.0
 20
0.0
 30
0.0
 70
   128
 71
    -3
 72
    13
 73
   -12
  0
VERTEX
  5
D3
  8
LAYER3
 10
0.0
 20
0.0
 30
0.0
 70
   128
 71
   -11
 72
    14
 73
    -4
  0
VERTEX
  5
D4
  8
LAYER3
 10
0.0
 20
0.0
 30
0.0
 70
   128
 71
    11
 72
   -15
 73
   -14
  0
VERTEX
  5
D5
  8
LAYER3
 10
0.0
 20
0.0
 30
0.0
 70
   128
 71
    15
 72
   -16
 73
   -14
  0
VERTEX
  5
D6
  8
LAYER3
 10
0.0
 20
0.0
 30
0.0
 70
   128
 71
    16
 72
   -17
 73
   -14
  0
VERTEX
  5
D7
  8
LAYER3
 10
0.0
 20
0.0
 30
0.0
 70
   128
 71
   -17
 72
   -18
 73
   -14
  0
VERTEX
  5
D8
  8
LAYER3
 10
0.0
 20
0.0
 30
0.0
 70
   128
 71
   -18
 72
    19
 73
   -14
  0
VERTEX
  5
D9
  8
LAYER3
 10
0.0
 20
0.0
 30
0.0
 70
   128
 71
    18
 72
   -20
 73
   -19
  0
VERTEX
  5
DA
  8
LAYER3
 10
0.0
 20
0.0
 30
0.0
 70
   128
 71
   -20
 72
   -21
 73
   -19
  0
VERTEX
  5
DB
  8
LAYER3
 10
0.0
 20
0.0
 30
0.0
 70
   128
 71
    21
 72
   -22
 73
   -19
  0
VERTEX
  5
DC
  8
LAYER3
 10
0.0
 20
0.0
 30
0.0
 70
   128
 71
   -20
 72
    23
 73
   -21
  0
VERTEX
  5
DD
  8
LAYER3
 10
0.0
 20
0.0
 30
0.0
 70
   128
 71
   -20
 72
    24
 73
   -23
  0
VERTEX
  5
DE
  8
LAYER3
 10
0.0
 20
0.0
 30
0.0
 70
   128
 71
    -3
 72
    25
 73
   -13
  0
VERTEX
  5
DF
  8
LAYER3
 10
0.0
 20
0.0
 30
0.0
 70
   128
 71
    -3
 72
    26
 73
   -25
  0
VERTEX
  5
E0
  8
LAYER3
 10
0.0
 20
0.0
 30
0.0
 70
   128
 71
     3
 72
   -19
 73
   -26
  0
VERTEX
  5
E1
  8
LAYER3
 10
0.0
 20
0.0
 30
0.0
 70
   128
 71
    22
 72
   -27
 73
   -19
  0
VERTEX
  5
E2
  8
LAYER3
 10
0.0
 20
0.0
 30
0.0
 70
   128
 71
    27
 72
   -28
 73
   -19
  0
VERTEX
  5
E3
  8
LAYER3
 10
0.0
 20
0.0
 30
0.0
 70
   128
 71
    28
 72
   -26
 73
   -19
  0
VERTEX
  5
E4
  8
LAYER3
 10
0.0
 20
0.0
 30
0.0
 70
   128
 71
   -20
 72
    29
 73
   -24
  0
VERTEX
  5
E5
  8
LAYER3
 10
0.0
 20
0.0
 30
0.0
 70
   128
 71
   -20
 72
    30
 73
   -29
  0
VERTEX
  5
E6
  8
LAYER3
 10
0.0
 20
0.0
 30
0.0
 70
   128
 71
   -20
 72
    31
 73
   -30
  0
VERTEX
  5
E7
  8
LAYER3
 10
0.0
 20
0.0
 30
0.0
 70
   128
 71
   -20
 72
    32
 73
   -31
  0
VERTEX
  5
E8
  8
LAYER3
 10
0.0
 20
0.0
 30
0.0
 70
   128
 71
    20
 72
    -1
 73
   -32
  0
VERTEX
  5
E9
  8
LAYER3
 10
0.0
 20
0.0
 30
0.0
 70
   128
 71
    -1
 72
    33
 73
   -32
  0
VERTEX
  5
EA
  8
LAYER3
 10
0.0
 20
0.0
 30
0.0
 70
   128
 71
    -1
 72
     6
 73
   -33
  0
VERTEX
  5
EB
  8
LAYER3
 10
0.0
 20
0.0
 30
0.0
 70
   128
 71
    17
 72
   -34
 73
   -18
  0
VERTEX
  5
EC
  8
LAYER3
 10
0.0
 20
0.0
 30
0.0
 70
   128
 71
    34
 72
   -35
 73
   -18
  0
VERTEX
  5
ED
  8
LAYER3
 10
0.0
 20
0.0
 30
0.0
 70
   128
 71
   -35
 72
     2
 73
   -18
  0
VERTEX
  5
EE
  8
LAYER3
 10
0.0
 20
0.0
 30
0.0
 70
   128
 71
    35
 72
   -36
 73
    -2
  0
VERTEX
  5
EF
  8
LAYER3
 10
0.0
 20
0.0
 30
0.0
 70
   128
 71
    36
 72
   -37
 73
    -2
  0
VERTEX
  5
F0
  8
LAYER3
 10
0.0
 20
0.0
 30
0.0
 70
   128
 71
    -2
 72
    38
 73
    -5
  0
VERTEX
  5
F1
  8
LAYER3
 10
0.0
 20
0.0
 30
0.0
 70
   128
 71
    -2
 72
    39
 73
   -38
  0
VERTEX
  5
F2
  8
LAYER3
 10
0.0
 20
0.0
 30
0.0
 70
   128
 71
    -2
 72
    40
 73
   -39
  0
VERTEX
  5
F3
  8
LAYER3
 10
0.0
 20
0.0
 30
0.0
 70
   128
 71
    -2
 72
    41
 73
   -40
  0
VERTEX
  5
F4
  8
LAYER3
 10
0.0
 20
0.0
 30
0.0
 70
   128
 71
    -2
 72
    42
 73
   -41
  0
VERTEX
  5
F5
  8
LAYER3
 10
0.0
 20
0.0
 30
0.0
 70
   128
 71
    -2
 72
    37
 73
   -42
  0
SEQEND
  5
F6
  8
LAYER3
  0
DIMENSION
  5
F7
  8
LAYER1
  2
*D2
 10
-30.785966637046268
 20
0.0
 30
21.0
 11
-35.715966637046272
 21
10.5
 31
0.0
210
0.0
220
-1.0
230
0.0
 13
-4.0000000000000027
 23
0.0000000000000013
 33
0.0
 14
-0.0000000000000071
 24
0.0
 34
21.0
 50
90.0
  0
DIMENSION
  5
106
  8
LAYER1
  2
*D1
 10
-43.847089696814109
 20
0.0
 30
78.0
 11
-47.777089696814123
 21
39.0
 31
0.0
 12
-1.0
 22
0.0
 32
0.0
210
0.0
220
-1.0
230
0.0
 13
-5.0
 23
0.0
 33
0.0
 14
-3.9999999999999911
 24
0.0
 34
78.0
 50
90.0
  0
POLYLINE
  5
113
  8
LAYER3
 66
     1
 10
0.0
 20
0.0
 30
0.0
 70
    64
  0
VERTEX
  5
114
  8
LAYER3
 10
17.999999999999979
 20
0.0000000000000733
 30
0.0
 70
   192
  0
VERTEX
  5
115
  8
LAYER3
 10
15.49999999999998
 20
11.999999999999989
 30
0.0
 70
   192
  0
VERTEX
  5
116
  8
LAYER3
 10
15.50000000000002
 20
3.0
 30
0.0
 70
   192
  0
VERTEX
  5
117
  8
LAYER3
 10
-4.0
 20
2.9999999999999361
 30
0.0
 70
   192
  0
VERTEX
  5
118
  8
LAYER3
 10
17.99999999999994
 20
12.0
 30
0.0
 70
   192
  0
VERTEX
  5
119
  8
LAYER3
 10
-3.9999999999999911
 20
0.0
 30
0.0
 70
   192
  0
VERTEX
  5
11A
  8
LAYER3
 10
0.0
 20
0.0
 30
0.0
 70
   128
 71
    -1
 72
     3
 73
    -2
  0
VERTEX
  5
11B
  8
LAYER3
 10
0.0
 20
0.0
 30
0.0
 70
   128
 71
    -3
 72
    -1
 73
     4
  0
VERTEX
  5
11C
  8
LAYER3
 10
0.0
 20
0.0
 30
0.0
 70
   128
 71
    -1
 72
     2
 73
     5
  0
VERTEX
  5
11D
  8
LAYER3
 10
0.0
 20
0.0
 30
0.0
 70
   128
 71
    -4
 72
     1
 73
     6
  0
SEQEND
  5
11E
  8
LAYER3
  0
DIMENSION
  5
11F
  8
LAYER1
  2
*D0
 10
17.999999999999989
 20
12.0
 30
-14.385621148781411
 11
6.0000000000000631
 21
-9.4556211487814181
 31
17.999999999999989
210
1.0
220
0.0
230
0.0
 13
17.999999999999989
 23
0.0000000000001257
 33
-0.0000000000000628
 14
17.999999999999989
 24
12.0
 34
0.0
  0
DIMENSION
  5
12E
  8
LAYER1
  2
*D3
 10
-4.0000000000000009
 20
0.0
 30
-11.11615611987161
 11
6.9999999999999929
 21
-6.1861561198716153
 31
0.0
210
0.0
220
-1.0
230
0.0
 13
17.999999999999979
 23
0.0
 33
-0.0000000000000346
 14
-4.0000000000000009
 24
0.0
 34
-0.0000000000000052
  0
DIMENSION
  5
13B
  8
LAYER1
  2
*D7
 10
-17.53950641288634
 20
0.0
 30
8.0000000000000018
 11
-22.469506412886339
 21
4.0
 31
0.0
210
0.0
220
-1.0
230
0.0
 13
-5.0
 23
0.0
 33
0.0
 14
6.0
 24
0.0000000000000009
 34
8.0000000000000018
 50
90.0
  0
POLYLINE
  5
14A
  8
LAYER3
 66
     1
 10
0.0
 20
0.0
 30
0.0
 70
    64
  0
VERTEX
  5
14B
  8
LAYER3
 10
4.4000000000000004
 20
2.171184251226614
 30
8.0000000000000107
 70
   192
  0
VERTEX
  5
14C
  8
LAYER3
 10
4.5979132154706486
 20
3.0
 30
7.0050230758507812
 70
   192
  0
VERTEX
  5
14D
  8
LAYER3
 10
4.4055967072520543
 20
2.1711842512266131
 30
7.8294961742991793
 70
   192
  0
VERTEX
  5
14E
  8
LAYER3
 10
4.5979132154706486
 20
2.1711842512266122
 30
7.0050230758507812
 70
   192
  0
VERTEX
  5
14F
  8
LAYER3
 10
4.4000000000000004
 20
3.0
 30
8.0000000000000107
 70
   192
  0
VERTEX
  5
150
  8
LAYER3
 10
5.1615223689149667
 20
3.0
 30
6.1615223689149881
 70
   192
  0
VERTEX
  5
151
  8
LAYER3
 10
4.6966187306188161
 20
2.1711842512266122
 30
6.7940005274197146
 70
   192
  0
VERTEX
  5
152
  8
LAYER3
 10
4.6683328880008554
 20
2.1711842512266131
 30
6.8496398482120631
 70
   192
  0
VERTEX
  5
153
  8
LAYER3
 10
5.1615223689149667
 20
2.1711842512266122
 30
6.1615223689149881
 70
   192
  0
VERTEX
  5
154
  8
LAYER3
 10
6.0050230758507563
 20
3.0
 30
5.597913215470661
 70
   192
  0
VERTEX
  5
155
  8
LAYER3
 10
5.2860442499365243
 20
2.1711842512266109
 30
6.0449154271939181
 70
   192
  0
VERTEX
  5
156
  8
LAYER3
 10
6.0050230758507563
 20
2.1711842512266109
 30
5.597913215470661
 70
   192
  0
VERTEX
  5
157
  8
LAYER3
 10
6.9999999999999911
 20
3.0
 30
5.4000000000000021
 70
   192
  0
VERTEX
  5
158
  8
LAYER3
 10
6.1646898377717934
 20
2.1711842512266109
 30
5.5378349094997139
 70
   192
  0
VERTEX
  5
159
  8
LAYER3
 10
6.9999999999999911
 20
2.1711842512266122
 30
5.4000000000000021
 70
   192
  0
VERTEX
  5
15A
  8
LAYER3
 10
7.9949769241492268
 20
3.0
 30
5.597913215470653
 70
   192
  0
VERTEX
  5
15B
  8
LAYER3
 10
7.1705038257008296
 20
2.1711842512266109
 30
5.4055967072520561
 70
   192
  0
VERTEX
  5
15C
  8
LAYER3
 10
7.9949769241492268
 20
2.1711842512266109
 30
5.597913215470653
 70
   192
  0
VERTEX
  5
15D
  8
LAYER3
 10
8.8384776310850182
 20
3.0
 30
6.1615223689149738
 70
   192
  0
VERTEX
  5
15E
  8
LAYER3
 10
8.1503601517879467
 20
2.17118425122661
 30
5.6683328880008608
 70
   192
  0
VERTEX
  5
15F
  8
LAYER3
 10
8.8384776310850182
 20
2.1711842512266091
 30
6.1615223689149738
 70
   192
  0
VERTEX
  5
160
  8
LAYER3
 10
9.4020867845293452
 20
3.0
 30
7.0050230758507661
 70
   192
  0
VERTEX
  5
161
  8
LAYER3
 10
8.9550845728060882
 20
2.1711842512266091
 30
6.2860442499365332
 70
   192
  0
VERTEX
  5
162
  8
LAYER3
 10
9.4020867845293452
 20
2.1711842512266091
 30
7.0050230758507661
 70
   192
  0
VERTEX
  5
163
  8
LAYER3
 10
9.5999999999999996
 20
3.0
 30
8.0000000000000018
 70
   192
  0
VERTEX
  5
164
  8
LAYER3
 10
9.4621650905002781
 20
2.17118425122661
 30
7.1646898377717676
 70
   192
  0
VERTEX
  5
165
  8
LAYER3
 10
9.5999999999999996
 20
2.1711842512266082
 30
8.0000000000000018
 70
   192
  0
VERTEX
  5
166
  8
LAYER3
 10
9.4020867845293452
 20
3.0
 30
8.9949769241492366
 70
   192
  0
VERTEX
  5
167
  8
LAYER3
 10
9.5944032927479466
 20
2.1711842512266091
 30
8.1705038257008074
 70
   192
  0
VERTEX
  5
168
  8
LAYER3
 10
9.4020867845293452
 20
2.1711842512266091
 30
8.9949769241492366
 70
   192
  0
VERTEX
  5
169
  8
LAYER3
 10
8.8384776310850182
 20
3.0
 30
9.838477631085027
 70
   192
  0
VERTEX
  5
16A
  8
LAYER3
 10
9.3316671119991508
 20
2.1711842512266091
 30
9.1503601517879254
 70
   192
  0
VERTEX
  5
16B
  8
LAYER3
 10
8.8384776310850182
 20
2.1711842512266091
 30
9.838477631085027
 70
   192
  0
VERTEX
  5
16C
  8
LAYER3
 10
7.9949769241492268
 20
3.0
 30
10.40208678452934
 70
   192
  0
VERTEX
  5
16D
  8
LAYER3
 10
8.7139557500634872
 20
2.17118425122661
 30
9.9550845728060722
 70
   192
  0
VERTEX
  5
16E
  8
LAYER3
 10
7.9949769241492268
 20
2.1711842512266109
 30
10.40208678452934
 70
   192
  0
VERTEX
  5
16F
  8
LAYER3
 10
6.9999999999999911
 20
3.0
 30
10.6
 70
   192
  0
VERTEX
  5
170
  8
LAYER3
 10
7.8353101622282209
 20
2.17118425122661
 30
10.46216509050028
 70
   192
  0
VERTEX
  5
171
  8
LAYER3
 10
6.9999999999999911
 20
2.1711842512266122
 30
10.6
 70
   192
  0
VERTEX
  5
172
  8
LAYER3
 10
6.0050230758507901
 20
3.0000000000000009
 30
10.402086784529351
 70
   192
  0
VERTEX
  5
173
  8
LAYER3
 10
6.8294961742991838
 20
2.17118425122661
 30
10.594403292747939
 70
   192
  0
VERTEX
  5
174
  8
LAYER3
 10
6.0050230758507901
 20
2.1711842512266109
 30
10.402086784529351
 70
   192
  0
VERTEX
  5
175
  8
LAYER3
 10
5.1615223689149943
 20
3.0000000000000009
 30
9.8384776310850413
 70
   192
  0
VERTEX
  5
176
  8
LAYER3
 10
5.8496398482120666
 20
2.1711842512266109
 30
10.33166711199914
 70
   192
  0
VERTEX
  5
177
  8
LAYER3
 10
5.1615223689149943
 20
2.1711842512266109
 30
9.8384776310850413
 70
   192
  0
VERTEX
  5
178
  8
LAYER3
 10
4.5979132154706619
 20
3.0000000000000009
 30
8.9949769241492543
 70
   192
  0
VERTEX
  5
179
  8
LAYER3
 10
5.0449154271939207
 20
2.1711842512266122
 30
9.7139557500634837
 70
   192
  0
VERTEX
  5
17A
  8
LAYER3
 10
4.5979132154706619
 20
2.1711842512266109
 30
8.9949769241492543
 70
   192
  0
VERTEX
  5
17B
  8
LAYER3
 10
4.5378349094997148
 20
2.1711842512266131
 30
8.8353101622282146
 70
   192
  0
VERTEX
  5
17C
  8
LAYER3
 10
0.0
 20
0.0
 30
0.0
 70
   128
 71
     1
 72
    -3
 73
    -2
  0
VERTEX
  5
17D
  8
LAYER3
 10
0.0
 20
0.0
 30
0.0
 70
   128
 71
    -2
 72
     3
 73
     4
  0
VERTEX
  5
17E
  8
LAYER3
 10
0.0
 20
0.0
 30
0.0
 70
   128
 71
    -1
 72
     2
 73
     5
  0
VERTEX
  5
17F
  8
LAYER3
 10
0.0
 20
0.0
 30
0.0
 70
   128
 71
    -6
 72
     8
 73
    -7
  0
VERTEX
  5
180
  8
LAYER3
 10
0.0
 20
0.0
 30
0.0
 70
   128
 71
    -8
 72
     6
 73
    -2
  0
VERTEX
  5
181
  8
LAYER3
 10
0.0
 20
0.0
 30
0.0
 70
   128
 71
    -8
 72
     2
 73
     4
  0
VERTEX
  5
182
  8
LAYER3
 10
0.0
 20
0.0
 30
0.0
 70
   128
 71
    -6
 72
     7
 73
     9
  0
VERTEX
  5
183
  8
LAYER3
 10
0.0
 20
0.0
 30
0.0
 70
   128
 71
     9
 72
   -11
 73
   -10
  0
VERTEX
  5
184
  8
LAYER3
 10
0.0
 20
0.0
 30
0.0
 70
   128
 71
   -10
 72
    11
 73
    12
  0
VERTEX
  5
185
  8
LAYER3
 10
0.0
 20
0.0
 30
0.0
 70
   128
 71
    -9
 72
    10
 73
     6
  0
VERTEX
  5
186
  8
LAYER3
 10
0.0
 20
0.0
 30
0.0
 70
   128
 71
   -10
 72
   -14
 73
    13
  0
VERTEX
  5
187
  8
LAYER3
 10
0.0
 20
0.0
 30
0.0
 70
   128
 71
   -14
 72
    10
 73
    12
  0
VERTEX
  5
188
  8
LAYER3
 10
0.0
 20
0.0
 30
0.0
 70
   128
 71
   -13
 72
    14
 73
    15
  0
VERTEX
  5
189
  8
LAYER3
 10
0.0
 20
0.0
 30
0.0
 70
   128
 71
    15
 72
   -17
 73
   -16
  0
VERTEX
  5
18A
  8
LAYER3
 10
0.0
 20
0.0
 30
0.0
 70
   128
 71
   -16
 72
    17
 73
    18
  0
VERTEX
  5
18B
  8
LAYER3
 10
0.0
 20
0.0
 30
0.0
 70
   128
 71
   -15
 72
    16
 73
    13
  0
VERTEX
  5
18C
  8
LAYER3
 10
0.0
 20
0.0
 30
0.0
 70
   128
 71
   -16
 72
   -20
 73
    19
  0
VERTEX
  5
18D
  8
LAYER3
 10
0.0
 20
0.0
 30
0.0
 70
   128
 71
   -20
 72
    16
 73
    18
  0
VERTEX
  5
18E
  8
LAYER3
 10
0.0
 20
0.0
 30
0.0
 70
   128
 71
   -19
 72
    20
 73
    21
  0
VERTEX
  5
18F
  8
LAYER3
 10
0.0
 20
0.0
 30
0.0
 70
   128
 71
    21
 72
   -23
 73
   -22
  0
VERTEX
  5
190
  8
LAYER3
 10
0.0
 20
0.0
 30
0.0
 70
   128
 71
   -22
 72
    23
 73
    24
  0
VERTEX
  5
191
  8
LAYER3
 10
0.0
 20
0.0
 30
0.0
 70
   128
 71
   -21
 72
    22
 73
    19
  0
VERTEX
  5
192
  8
LAYER3
 10
0.0
 20
0.0
 30
0.0
 70
   128
 71
   -22
 72
   -26
 73
    25
  0
VERTEX
  5
193
  8
LAYER3
 10
0.0
 20
0.0
 30
0.0
 70
   128
 71
   -26
 72
    22
 73
    24
  0
VERTEX
  5
194
  8
LAYER3
 10
0.0
 20
0.0
 30
0.0
 70
   128
 71
   -25
 72
    26
 73
    27
  0
VERTEX
  5
195
  8
LAYER3
 10
0.0
 20
0.0
 30
0.0
 70
   128
 71
    27
 72
   -29
 73
   -28
  0
VERTEX
  5
196
  8
LAYER3
 10
0.0
 20
0.0
 30
0.0
 70
   128
 71
   -28
 72
    29
 73
    30
  0
VERTEX
  5
197
  8
LAYER3
 10
0.0
 20
0.0
 30
0.0
 70
   128
 71
   -27
 72
    28
 73
    25
  0
VERTEX
  5
198
  8
LAYER3
 10
0.0
 20
0.0
 30
0.0
 70
   128
 71
   -28
 72
   -32
 73
    31
  0
VERTEX
  5
199
  8
LAYER3
 10
0.0
 20
0.0
 30
0.0
 70
   128
 71
   -32
 72
    28
 73
    30
  0
VERTEX
  5
19A
  8
LAYER3
 10
0.0
 20
0.0
 30
0.0
 70
   128
 71
   -31
 72
    32
 73
    33
  0
VERTEX
  5
19B
  8
LAYER3
 10
0.0
 20
0.0
 30
0.0
 70
   128
 71
    33
 72
   -35
 73
   -34
  0
VERTEX
  5
19C
  8
LAYER3
 10
0.0
 20
0.0
 30
0.0
 70
   128
 71
   -34
 72
    35
 73
    36
  0
VERTEX
  5
19D
  8
LAYER3
 10
0.0
 20
0.0
 30
0.0
 70
   128
 71
   -33
 72
    34
 73
    31
  0
VERTEX
  5
19E
  8
LAYER3
 10
0.0
 20
0.0
 30
0.0
 70
   128
 71
   -34
 72
   -38
 73
    37
  0
VERTEX
  5
19F
  8
LAYER3
 10
0.0
 20
0.0
 30
0.0
 70
   128
 71
   -38
 72
    34
 73
    36
  0
VERTEX
  5
1A0
  8
LAYER3
 10
0.0
 20
0.0
 30
0.0
 70
   128
 71
   -37
 72
    38
 73
    39
  0
VERTEX
  5
1A1
  8
LAYER3
 10
0.0
 20
0.0
 30
0.0
 70
   128
 71
    39
 72
   -41
 73
   -40
  0
VERTEX
  5
1A2
  8
LAYER3
 10
0.0
 20
0.0
 30
0.0
 70
   128
 71
   -40
 72
    41
 73
    42
  0
VERTEX
  5
1A3
  8
LAYER3
 10
0.0
 20
0.0
 30
0.0
 70
   128
 71
   -39
 72
    40
 73
    37
  0
VERTEX
  5
1A4
  8
LAYER3
 10
0.0
 20
0.0
 30
0.0
 70
   128
 71
   -40
 72
   -44
 73
    43
  0
VERTEX
  5
1A5
  8
LAYER3
 10
0.0
 20
0.0
 30
0.0
 70
   128
 71
   -44
 72
    40
 73
    42
  0
VERTEX
  5
1A6
  8
LAYER3
 10
0.0
 20
0.0
 30
0.0
 70
   128
 71
   -43
 72
    44
 73
    45
  0
VERTEX
  5
1A7
  8
LAYER3
 10
0.0
 20
0.0
 30
0.0
 70
   128
 71
    45
 72
   -47
 73
   -46
  0
VERTEX
  5
1A8
  8
LAYER3
 10
0.0
 20
0.0
 30
0.0
 70
   128
 71
   -46
 72
    47
 73
    48
  0
VERTEX
  5
1A9
  8
LAYER3
 10
0.0
 20
0.0
 30
0.0
 70
   128
 71
   -45
 72
    46
 73
    43
  0
VERTEX
  5
1AA
  8
LAYER3
 10
0.0
 20
0.0
 30
0.0
 70
   128
 71
   -46
 72
   -49
 73
     5
  0
VERTEX
  5
1AB
  8
LAYER3
 10
0.0
 20
0.0
 30
0.0
 70
   128
 71
   -49
 72
    46
 73
    48
  0
VERTEX
  5
1AC
  8
LAYER3
 10
0.0
 20
0.0
 30
0.0
 70
   128
 71
    -5
 72
    49
 73
     1
  0
SEQEND
  5
1AD
  8
LAYER3
  0
POLYLINE
  5
1AE
  8
LAYER3
 66
     1
 10
0.0
 20
0.0
 30
0.0
 70
    64
  0
VERTEX
  5
1AF
  8
LAYER3
 10
10.13126531261597
 20
0.0
 30
11.571789123395719
 70
   192
  0
VERTEX
  5
1B0
  8
LAYER3
 10
7.994976924149225
 20
2.1711842512266109
 30
10.402086784529351
 70
   192
  0
VERTEX
  5
1B1
  8
LAYER3
 10
8.5260474117630984
 20
0.0
 30
12.498186223029361
 70
   192
  0
VERTEX
  5
1B2
  8
LAYER3
 10
7.8353101622282226
 20
2.17118425122661
 30
10.46216509050028
 70
   192
  0
VERTEX
  5
1B3
  8
LAYER3
 10
8.7139557500634819
 20
2.17118425122661
 30
9.9550845728060793
 70
   192
  0
VERTEX
  5
1B4
  8
LAYER3
 10
6.999999999999992
 20
2.1711842512266122
 30
10.6
 70
   192
  0
VERTEX
  5
1B5
  8
LAYER3
 10
6.688502626123511
 20
0.0
 30
12.73977524636644
 70
   192
  0
VERTEX
  5
1B6
  8
LAYER3
 10
6.8294961742991847
 20
2.17118425122661
 30
10.594403292747939
 70
   192
  0
VERTEX
  5
1B7
  8
LAYER3
 10
6.0050230758507919
 20
2.1711842512266109
 30
10.402086784529351
 70
   192
  0
VERTEX
  5
1B8
  8
LAYER3
 10
4.8983804919258942
 20
0.0000000000000014
 30
12.25977645461383
 70
   192
  0
VERTEX
  5
1B9
  8
LAYER3
 10
5.8496398482120666
 20
2.1711842512266109
 30
10.33166711199914
 70
   192
  0
VERTEX
  5
1BA
  8
LAYER3
 10
5.1615223689149916
 20
2.1711842512266109
 30
9.8384776310850413
 70
   192
  0
VERTEX
  5
1BB
  8
LAYER3
 10
3.4282108766042789
 20
0.0000000000000014
 30
11.13126531261597
 70
   192
  0
VERTEX
  5
1BC
  8
LAYER3
 10
5.0449154271939207
 20
2.1711842512266122
 30
9.7139557500634837
 70
   192
  0
VERTEX
  5
1BD
  8
LAYER3
 10
4.597913215470661
 20
2.1711842512266109
 30
8.9949769241492543
 70
   192
  0
VERTEX
  5
1BE
  8
LAYER3
 10
2.501813776970633
 20
0.0
 30
9.526047411763086
 70
   192
  0
VERTEX
  5
1BF
  8
LAYER3
 10
4.5378349094997157
 20
2.1711842512266131
 30
8.8353101622282146
 70
   192
  0
VERTEX
  5
1C0
  8
LAYER3
 10
4.4000000000000021
 20
2.171184251226614
 30
8.0000000000000195
 70
   192
  0
VERTEX
  5
1C1
  8
LAYER3
 10
2.2602247536335591
 20
0.0
 30
7.6885026261234968
 70
   192
  0
VERTEX
  5
1C2
  8
LAYER3
 10
4.4055967072520543
 20
2.1711842512266131
 30
7.8294961742991793
 70
   192
  0
VERTEX
  5
1C3
  8
LAYER3
 10
4.5979132154706477
 20
2.1711842512266122
 30
7.0050230758507812
 70
   192
  0
VERTEX
  5
1C4
  8
LAYER3
 10
2.740223545386177
 20
0.0
 30
5.8983804919258809
 70
   192
  0
VERTEX
  5
1C5
  8
LAYER3
 10
4.6683328880008554
 20
2.1711842512266131
 30
6.8496398482120631
 70
   192
  0
VERTEX
  5
1C6
  8
LAYER3
 10
4.6966187306188161
 20
2.1711842512266122
 30
6.7940005274197146
 70
   192
  0
VERTEX
  5
1C7
  8
LAYER3
 10
2.7918996040151431
 20
0.0000000000000014
 30
5.7967317327860206
 70
   192
  0
VERTEX
  5
1C8
  8
LAYER3
 10
5.1615223689149667
 20
2.1711842512266122
 30
6.1615223689149881
 70
   192
  0
VERTEX
  5
1C9
  8
LAYER3
 10
3.868734687384034
 20
0.0000000000000007
 30
4.42821087660427
 70
   192
  0
VERTEX
  5
1CA
  8
LAYER3
 10
5.2860442499365243
 20
2.1711842512266109
 30
6.0449154271939181
 70
   192
  0
VERTEX
  5
1CB
  8
LAYER3
 10
6.0050230758507563
 20
2.1711842512266109
 30
5.5979132154706601
 70
   192
  0
VERTEX
  5
1CC
  8
LAYER3
 10
5.4739525882369291
 20
0.0
 30
3.5018137769706299
 70
   192
  0
VERTEX
  5
1CD
  8
LAYER3
 10
6.1646898377717934
 20
2.1711842512266109
 30
5.537834909499713
 70
   192
  0
VERTEX
  5
1CE
  8
LAYER3
 10
6.9999999999999911
 20
2.1711842512266122
 30
5.400000000000003
 70
   192
  0
VERTEX
  5
1CF
  8
LAYER3
 10
7.1705038257008296
 20
2.1711842512266109
 30
5.4055967072520561
 70
   192
  0
VERTEX
  5
1D0
  8
LAYER3
 10
7.3114973738765201
 20
0.0000000000000007
 30
3.2602247536335631
 70
   192
  0
VERTEX
  5
1D1
  8
LAYER3
 10
7.9949769241492268
 20
2.1711842512266109
 30
5.597913215470653
 70
   192
  0
VERTEX
  5
1D2
  8
LAYER3
 10
9.1016195080741333
 20
0.0
 30
3.7402235453861872
 70
   192
  0
VERTEX
  5
1D3
  8
LAYER3
 10
8.1503601517879467
 20
2.17118425122661
 30
5.6683328880008599
 70
   192
  0
VERTEX
  5
1D4
  8
LAYER3
 10
8.8384776310850182
 20
2.1711842512266091
 30
6.161522368914973
 70
   192
  0
VERTEX
  5
1D5
  8
LAYER3
 10
10.57178912339573
 20
0.0
 30
4.8687346873840491
 70
   192
  0
VERTEX
  5
1D6
  8
LAYER3
 10
8.9550845728060882
 20
2.1711842512266091
 30
6.2860442499365332
 70
   192
  0
VERTEX
  5
1D7
  8
LAYER3
 10
9.4020867845293452
 20
2.1711842512266091
 30
7.0050230758507661
 70
   192
  0
VERTEX
  5
1D8
  8
LAYER3
 10
11.49818622302935
 20
0.0
 30
6.4739525882368838
 70
   192
  0
VERTEX
  5
1D9
  8
LAYER3
 10
9.4621650905002781
 20
2.17118425122661
 30
7.1646898377717676
 70
   192
  0
VERTEX
  5
1DA
  8
LAYER3
 10
9.6000000000000014
 20
2.1711842512266082
 30
8.0000000000000036
 70
   192
  0
VERTEX
  5
1DB
  8
LAYER3
 10
11.739775246366429
 20
0.0000000000000014
 30
8.3114973738764721
 70
   192
  0
VERTEX
  5
1DC
  8
LAYER3
 10
9.5944032927479483
 20
2.1711842512266091
 30
8.1705038257008074
 70
   192
  0
VERTEX
  5
1DD
  8
LAYER3
 10
9.4020867845293452
 20
2.1711842512266091
 30
8.9949769241492366
 70
   192
  0
VERTEX
  5
1DE
  8
LAYER3
 10
11.25977645461383
 20
0.0000000000000007
 30
10.10161950807408
 70
   192
  0
VERTEX
  5
1DF
  8
LAYER3
 10
9.3316671119991526
 20
2.1711842512266091
 30
9.1503601517879254
 70
   192
  0
VERTEX
  5
1E0
  8
LAYER3
 10
8.8384776310850182
 20
2.1711842512266091
 30
9.838477631085027
 70
   192
  0
VERTEX
  5
1E1
  8
LAYER3
 10
0.0
 20
0.0
 30
0.0
 70
   128
 71
     1
 72
    -3
 73
    -2
  0
VERTEX
  5
1E2
  8
LAYER3
 10
0.0
 20
0.0
 30
0.0
 70
   128
 71
    -2
 72
     3
 73
     4
  0
VERTEX
  5
1E3
  8
LAYER3
 10
0.0
 20
0.0
 30
0.0
 70
   128
 71
    -1
 72
     2
 73
     5
  0
VERTEX
  5
1E4
  8
LAYER3
 10
0.0
 20
0.0
 30
0.0
 70
   128
 71
    -4
 72
    -7
 73
     6
  0
VERTEX
  5
1E5
  8
LAYER3
 10
0.0
 20
0.0
 30
0.0
 70
   128
 71
    -7
 72
     4
 73
     3
  0
VERTEX
  5
1E6
  8
LAYER3
 10
0.0
 20
0.0
 30
0.0
 70
   128
 71
    -6
 72
     7
 73
     8
  0
VERTEX
  5
1E7
  8
LAYER3
 10
0.0
 20
0.0
 30
0.0
 70
   128
 71
     7
 72
   -10
 73
    -9
  0
VERTEX
  5
1E8
  8
LAYER3
 10
0.0
 20
0.0
 30
0.0
 70
   128
 71
    -9
 72
    10
 73
    11
  0
VERTEX
  5
1E9
  8
LAYER3
 10
0.0
 20
0.0
 30
0.0
 70
   128
 71
    -7
 72
     9
 73
     8
  0
VERTEX
  5
1EA
  8
LAYER3
 10
0.0
 20
0.0
 30
0.0
 70
   128
 71
   -11
 72
   -13
 73
    12
  0
VERTEX
  5
1EB
  8
LAYER3
 10
0.0
 20
0.0
 30
0.0
 70
   128
 71
   -13
 72
    11
 73
    10
  0
VERTEX
  5
1EC
  8
LAYER3
 10
0.0
 20
0.0
 30
0.0
 70
   128
 71
   -12
 72
    13
 73
    14
  0
VERTEX
  5
1ED
  8
LAYER3
 10
0.0
 20
0.0
 30
0.0
 70
   128
 71
    13
 72
   -16
 73
   -15
  0
VERTEX
  5
1EE
  8
LAYER3
 10
0.0
 20
0.0
 30
0.0
 70
   128
 71
   -15
 72
    16
 73
    17
  0
VERTEX
  5
1EF
  8
LAYER3
 10
0.0
 20
0.0
 30
0.0
 70
   128
 71
   -13
 72
    15
 73
    14
  0
VERTEX
  5
1F0
  8
LAYER3
 10
0.0
 20
0.0
 30
0.0
 70
   128
 71
   -17
 72
   -19
 73
    18
  0
VERTEX
  5
1F1
  8
LAYER3
 10
0.0
 20
0.0
 30
0.0
 70
   128
 71
   -19
 72
    17
 73
    16
  0
VERTEX
  5
1F2
  8
LAYER3
 10
0.0
 20
0.0
 30
0.0
 70
   128
 71
   -18
 72
    19
 73
    20
  0
VERTEX
  5
1F3
  8
LAYER3
 10
0.0
 20
0.0
 30
0.0
 70
   128
 71
    19
 72
   -22
 73
   -21
  0
VERTEX
  5
1F4
  8
LAYER3
 10
0.0
 20
0.0
 30
0.0
 70
   128
 71
   -21
 72
    22
 73
    23
  0
VERTEX
  5
1F5
  8
LAYER3
 10
0.0
 20
0.0
 30
0.0
 70
   128
 71
   -19
 72
    21
 73
    20
  0
VERTEX
  5
1F6
  8
LAYER3
 10
0.0
 20
0.0
 30
0.0
 70
   128
 71
   -23
 72
   -25
 73
    24
  0
VERTEX
  5
1F7
  8
LAYER3
 10
0.0
 20
0.0
 30
0.0
 70
   128
 71
   -24
 72
   -25
 73
    26
  0
VERTEX
  5
1F8
  8
LAYER3
 10
0.0
 20
0.0
 30
0.0
 70
   128
 71
   -25
 72
    23
 73
    22
  0
VERTEX
  5
1F9
  8
LAYER3
 10
0.0
 20
0.0
 30
0.0
 70
   128
 71
   -26
 72
    25
 73
   -27
  0
VERTEX
  5
1FA
  8
LAYER3
 10
0.0
 20
0.0
 30
0.0
 70
   128
 71
   -26
 72
    27
 73
    28
  0
VERTEX
  5
1FB
  8
LAYER3
 10
0.0
 20
0.0
 30
0.0
 70
   128
 71
   -27
 72
    29
 73
    28
  0
VERTEX
  5
1FC
  8
LAYER3
 10
0.0
 20
0.0
 30
0.0
 70
   128
 71
   -29
 72
    27
 73
   -30
  0
VERTEX
  5
1FD
  8
LAYER3
 10
0.0
 20
0.0
 30
0.0
 70
   128
 71
   -29
 72
    30
 73
    31
  0
VERTEX
  5
1FE
  8
LAYER3
 10
0.0
 20
0.0
 30
0.0
 70
   128
 71
   -30
 72
    33
 73
   -32
  0
VERTEX
  5
1FF
  8
LAYER3
 10
0.0
 20
0.0
 30
0.0
 70
   128
 71
   -30
 72
    32
 73
    31
  0
VERTEX
  5
200
  8
LAYER3
 10
0.0
 20
0.0
 30
0.0
 70
   128
 71
   -33
 72
    30
 73
    34
  0
VERTEX
  5
201
  8
LAYER3
 10
0.0
 20
0.0
 30
0.0
 70
   128
 71
    34
 72
   -36
 73
   -35
  0
VERTEX
  5
202
  8
LAYER3
 10
0.0
 20
0.0
 30
0.0
 70
   128
 71
   -35
 72
    36
 73
    37
  0
VERTEX
  5
203
  8
LAYER3
 10
0.0
 20
0.0
 30
0.0
 70
   128
 71
   -34
 72
    35
 73
    33
  0
VERTEX
  5
204
  8
LAYER3
 10
0.0
 20
0.0
 30
0.0
 70
   128
 71
   -37
 72
   -39
 73
    38
  0
VERTEX
  5
205
  8
LAYER3
 10
0.0
 20
0.0
 30
0.0
 70
   128
 71
   -39
 72
    37
 73
    36
  0
VERTEX
  5
206
  8
LAYER3
 10
0.0
 20
0.0
 30
0.0
 70
   128
 71
   -38
 72
    39
 73
    40
  0
VERTEX
  5
207
  8
LAYER3
 10
0.0
 20
0.0
 30
0.0
 70
   128
 71
    39
 72
   -42
 73
   -41
  0
VERTEX
  5
208
  8
LAYER3
 10
0.0
 20
0.0
 30
0.0
 70
   128
 71
   -41
 72
    42
 73
    43
  0
VERTEX
  5
209
  8
LAYER3
 10
0.0
 20
0.0
 30
0.0
 70
   128
 71
   -39
 72
    41
 73
    40
  0
VERTEX
  5
20A
  8
LAYER3
 10
0.0
 20
0.0
 30
0.0
 70
   128
 71
   -43
 72
   -45
 73
    44
  0
VERTEX
  5
20B
  8
LAYER3
 10
0.0
 20
0.0
 30
0.0
 70
   128
 71
   -45
 72
    43
 73
    42
  0
VERTEX
  5
20C
  8
LAYER3
 10
0.0
 20
0.0
 30
0.0
 70
   128
 71
   -44
 72
    45
 73
    46
  0
VERTEX
  5
20D
  8
LAYER3
 10
0.0
 20
0.0
 30
0.0
 70
   128
 71
    45
 72
   -48
 73
   -47
  0
VERTEX
  5
20E
  8
LAYER3
 10
0.0
 20
0.0
 30
0.0
 70
   128
 71
   -47
 72
    48
 73
    49
  0
VERTEX
  5
20F
  8
LAYER3
 10
0.0
 20
0.0
 30
0.0
 70
   128
 71
   -45
 72
    47
 73
    46
  0
VERTEX
  5
210
  8
LAYER3
 10
0.0
 20
0.0
 30
0.0
 70
   128
 71
   -49
 72
    -1
 73
    50
  0
VERTEX
  5
211
  8
LAYER3
 10
0.0
 20
0.0
 30
0.0
 70
   128
 71
    -1
 72
    49
 73
    48
  0
VERTEX
  5
212
  8
LAYER3
 10
0.0
 20
0.0
 30
0.0
 70
   128
 71
   -50
 72
     1
 73
     5
  0
SEQEND
  5
213
  8
LAYER3
  0
LINE
  5
214
  8
LAYER1
 62
     2
 10
7.0000000000000053
 20
0.0000000000000009
 30
7.0000000000000009
 11
7.0000000000000053
 21
0.0000000000000009
 31
1.5415907686158841
210
0.0
220
-1.0
230
0.0
  0
LINE
  5
215
  8
LAYER1
 62
     2
 10
8.0000000000000036
 20
0.0000000000000009
 30
8.0000000000000018
 11
13.45840923138412
 21
0.0000000000000009
 31
8.0000000000000018
210
0.0
220
-1.0
230
0.0
  0
LINE
  5
216
  8
LAYER1
 62
     2
 10
6.0000000000000027
 20
0.0000000000000009
 30
8.0000000000000018
 11
0.5415907686158868
 21
0.0000000000000009
 31
8.0000000000000018
210
0.0
220
-1.0
230
0.0
  0
LINE
  5
217
  8
LAYER1
 62
     2
 10
7.0000000000000053
 20
0.0000000000000009
 30
9.0000000000000018
 11
7.0000000000000053
 21
0.0000000000000009
 31
14.45840923138411
210
0.0
220
-1.0
230
0.0
  0
POLYLINE
  5
218
  8
LAYER3
 66
     1
 10
0.0
 20
0.0
 30
0.0
 70
    64
  0
VERTEX
  5
219
  8
LAYER3
 10
17.999999999999979
 20
0.0000000000000733
 30
78.0
 70
   192
  0
VERTEX
  5
21A
  8
LAYER3
 10
15.49999999999998
 20
11.999999999999989
 30
78.0
 70
   192
  0
VERTEX
  5
21B
  8
LAYER3
 10
15.50000000000002
 20
3.0
 30
78.0
 70
   192
  0
VERTEX
  5
21C
  8
LAYER3
 10
-3.9999999999999911
 20
0.0
 30
78.0
 70
   192
  0
VERTEX
  5
21D
  8
LAYER3
 10
-4.0
 20
2.9999999999999361
 30
78.0
 70
   192
  0
VERTEX
  5
21E
  8
LAYER3
 10
17.99999999999994
 20
12.0
 30
78.0
 70
   192
  0
VERTEX
  5
21F
  8
LAYER3
 10
0.0
 20
0.0
 30
0.0
 70
   128
 71
    -1
 72
     2
 73
    -3
  0
VERTEX
  5
220
  8
LAYER3
 10
0.0
 20
0.0
 30
0.0
 70
   128
 71
    -3
 72
     4
 73
    -1
  0
VERTEX
  5
221
  8
LAYER3
 10
0.0
 20
0.0
 30
0.0
 70
   128
 71
     3
 72
     5
 73
    -4
  0
VERTEX
  5
222
  8
LAYER3
 10
0.0
 20
0.0
 30
0.0
 70
   128
 71
     1
 72
     6
 73
    -2
  0
SEQEND
  5
223
  8
LAYER3
  0
POLYLINE
  5
224
  8
LAYER3
 66
     1
 10
0.0
 20
0.0
 30
0.0
 70
    64
  0
VERTEX
  5
225
  8
LAYER3
 10
10.13126531261597
 20
0.0000000000000028
 30
73.571789123395718
 70
   192
  0
VERTEX
  5
226
  8
LAYER3
 10
7.9949769241492268
 20
2.171184251226614
 30
72.402086784529345
 70
   192
  0
VERTEX
  5
227
  8
LAYER3
 10
7.8353101622282191
 20
2.1711842512266109
 30
72.462165090500278
 70
   192
  0
VERTEX
  5
228
  8
LAYER3
 10
8.7139557500634819
 20
2.1711842512266109
 30
71.955084572806086
 70
   192
  0
VERTEX
  5
229
  8
LAYER3
 10
8.5260474117630949
 20
0.0000000000000028
 30
74.498186223029364
 70
   192
  0
VERTEX
  5
22A
  8
LAYER3
 10
6.999999999999992
 20
2.1711842512266082
 30
72.600000000000009
 70
   192
  0
VERTEX
  5
22B
  8
LAYER3
 10
6.688502626123511
 20
0.0000000000000028
 30
74.739775246366435
 70
   192
  0
VERTEX
  5
22C
  8
LAYER3
 10
6.829496174299182
 20
2.1711842512266109
 30
72.594403292747955
 70
   192
  0
VERTEX
  5
22D
  8
LAYER3
 10
6.0050230758507901
 20
2.1711842512266109
 30
72.402086784529359
 70
   192
  0
VERTEX
  5
22E
  8
LAYER3
 10
4.8983804919258933
 20
0.0000000000000035
 30
74.259776454613828
 70
   192
  0
VERTEX
  5
22F
  8
LAYER3
 10
5.8496398482120666
 20
2.1711842512266122
 30
72.331667111999153
 70
   192
  0
VERTEX
  5
230
  8
LAYER3
 10
5.1615223689149898
 20
2.1711842512266109
 30
71.838477631085041
 70
   192
  0
VERTEX
  5
231
  8
LAYER3
 10
3.4282108766042798
 20
0.0000000000000035
 30
73.13126531261598
 70
   192
  0
VERTEX
  5
232
  8
LAYER3
 10
5.0449154271939189
 20
2.1711842512266131
 30
71.713955750063477
 70
   192
  0
VERTEX
  5
233
  8
LAYER3
 10
4.5979132154706548
 20
2.1711842512266109
 30
70.994976924149242
 70
   192
  0
VERTEX
  5
234
  8
LAYER3
 10
2.5018137769706339
 20
0.0000000000000028
 30
71.526047411763074
 70
   192
  0
VERTEX
  5
235
  8
LAYER3
 10
4.5378349094997139
 20
2.171184251226614
 30
70.835310162228211
 70
   192
  0
VERTEX
  5
236
  8
LAYER3
 10
4.4000000000000039
 20
2.171184251226618
 30
70.000000000000014
 70
   192
  0
VERTEX
  5
237
  8
LAYER3
 10
2.26022475363356
 20
0.0000000000000028
 30
69.688502626123494
 70
   192
  0
VERTEX
  5
238
  8
LAYER3
 10
4.4055967072520543
 20
2.171184251226614
 30
69.82949617429918
 70
   192
  0
VERTEX
  5
239
  8
LAYER3
 10
4.5979132154706468
 20
2.171184251226614
 30
69.005023075850787
 70
   192
  0
VERTEX
  5
23A
  8
LAYER3
 10
2.740223545386177
 20
0.0000000000000028
 30
67.898380491925877
 70
   192
  0
VERTEX
  5
23B
  8
LAYER3
 10
4.6683328880008581
 20
2.171184251226614
 30
68.849639848212064
 70
   192
  0
VERTEX
  5
23C
  8
LAYER3
 10
4.6966187306188161
 20
2.1711842512266122
 30
68.794000527419712
 70
   192
  0
VERTEX
  5
23D
  8
LAYER3
 10
5.1615223689149659
 20
2.1711842512266109
 30
68.161522368914987
 70
   192
  0
VERTEX
  5
23E
  8
LAYER3
 10
2.791899604015148
 20
0.000000000000005
 30
67.796731732786014
 70
   192
  0
VERTEX
  5
23F
  8
LAYER3
 10
3.868734687384034
 20
0.0000000000000021
 30
66.428210876604268
 70
   192
  0
VERTEX
  5
240
  8
LAYER3
 10
5.2860442499365243
 20
2.1711842512266131
 30
68.044915427193914
 70
   192
  0
VERTEX
  5
241
  8
LAYER3
 10
6.0050230758507563
 20
2.1711842512266091
 30
67.597913215470655
 70
   192
  0
VERTEX
  5
242
  8
LAYER3
 10
5.4739525882369318
 20
0.0000000000000028
 30
65.501813776970621
 70
   192
  0
VERTEX
  5
243
  8
LAYER3
 10
6.1646898377717916
 20
2.1711842512266131
 30
67.537834909499722
 70
   192
  0
VERTEX
  5
244
  8
LAYER3
 10
6.9999999999999911
 20
2.1711842512266131
 30
67.399999999999991
 70
   192
  0
VERTEX
  5
245
  8
LAYER3
 10
7.3114973738765201
 20
0.0000000000000021
 30
65.260224753633565
 70
   192
  0
VERTEX
  5
246
  8
LAYER3
 10
7.1705038257008296
 20
2.1711842512266122
 30
67.405596707252045
 70
   192
  0
VERTEX
  5
247
  8
LAYER3
 10
7.9949769241492268
 20
2.171184251226614
 30
67.597913215470655
 70
   192
  0
VERTEX
  5
248
  8
LAYER3
 10
9.1016195080741316
 20
0.0000000000000028
 30
65.740223545386186
 70
   192
  0
VERTEX
  5
249
  8
LAYER3
 10
8.1503601517879485
 20
2.1711842512266122
 30
67.668332888000862
 70
   192
  0
VERTEX
  5
24A
  8
LAYER3
 10
8.8384776310850182
 20
2.1711842512266091
 30
68.161522368914973
 70
   192
  0
VERTEX
  5
24B
  8
LAYER3
 10
10.57178912339573
 20
0.0000000000000028
 30
66.868734687384034
 70
   192
  0
VERTEX
  5
24C
  8
LAYER3
 10
8.9550845728060917
 20
2.1711842512266109
 30
68.286044249936523
 70
   192
  0
VERTEX
  5
24D
  8
LAYER3
 10
9.4020867845293452
 20
2.1711842512266091
 30
69.005023075850744
 70
   192
  0
VERTEX
  5
24E
  8
LAYER3
 10
11.49818622302935
 20
0.0000000000000028
 30
68.473952588236884
 70
   192
  0
VERTEX
  5
24F
  8
LAYER3
 10
9.4621650905002781
 20
2.1711842512266109
 30
69.16468983777176
 70
   192
  0
VERTEX
  5
250
  8
LAYER3
 10
9.6000000000000014
 20
2.1711842512266082
 30
70.0
 70
   192
  0
VERTEX
  5
251
  8
LAYER3
 10
11.739775246366429
 20
0.0000000000000028
 30
70.311497373876463
 70
   192
  0
VERTEX
  5
252
  8
LAYER3
 10
9.5944032927479483
 20
2.17118425122661
 30
70.170503825700806
 70
   192
  0
VERTEX
  5
253
  8
LAYER3
 10
9.4020867845293452
 20
2.1711842512266091
 30
70.994976924149242
 70
   192
  0
VERTEX
  5
254
  8
LAYER3
 10
11.25977645461383
 20
0.0000000000000021
 30
72.101619508074094
 70
   192
  0
VERTEX
  5
255
  8
LAYER3
 10
9.3316671119991543
 20
2.17118425122661
 30
71.150360151787922
 70
   192
  0
VERTEX
  5
256
  8
LAYER3
 10
8.8384776310850182
 20
2.1711842512266091
 30
71.838477631085027
 70
   192
  0
VERTEX
  5
257
  8
LAYER3
 10
0.0
 20
0.0
 30
0.0
 70
   128
 71
    -1
 72
     3
 73
    -2
  0
VERTEX
  5
258
  8
LAYER3
 10
0.0
 20
0.0
 30
0.0
 70
   128
 71
    -1
 72
     2
 73
     4
  0
VERTEX
  5
259
  8
LAYER3
 10
0.0
 20
0.0
 30
0.0
 70
   128
 71
    -3
 72
     1
 73
     5
  0
VERTEX
  5
25A
  8
LAYER3
 10
0.0
 20
0.0
 30
0.0
 70
   128
 71
     5
 72
    -7
 73
    -6
  0
VERTEX
  5
25B
  8
LAYER3
 10
0.0
 20
0.0
 30
0.0
 70
   128
 71
    -6
 72
     7
 73
     8
  0
VERTEX
  5
25C
  8
LAYER3
 10
0.0
 20
0.0
 30
0.0
 70
   128
 71
    -5
 72
     6
 73
     3
  0
VERTEX
  5
25D
  8
LAYER3
 10
0.0
 20
0.0
 30
0.0
 70
   128
 71
    -8
 72
   -10
 73
     9
  0
VERTEX
  5
25E
  8
LAYER3
 10
0.0
 20
0.0
 30
0.0
 70
   128
 71
   -10
 72
     8
 73
     7
  0
VERTEX
  5
25F
  8
LAYER3
 10
0.0
 20
0.0
 30
0.0
 70
   128
 71
    -9
 72
    10
 73
    11
  0
VERTEX
  5
260
  8
LAYER3
 10
0.0
 20
0.0
 30
0.0
 70
   128
 71
    10
 72
   -13
 73
   -12
  0
VERTEX
  5
261
  8
LAYER3
 10
0.0
 20
0.0
 30
0.0
 70
   128
 71
   -12
 72
    13
 73
    14
  0
VERTEX
  5
262
  8
LAYER3
 10
0.0
 20
0.0
 30
0.0
 70
   128
 71
   -10
 72
    12
 73
    11
  0
VERTEX
  5
263
  8
LAYER3
 10
0.0
 20
0.0
 30
0.0
 70
   128
 71
   -14
 72
   -16
 73
    15
  0
VERTEX
  5
264
  8
LAYER3
 10
0.0
 20
0.0
 30
0.0
 70
   128
 71
   -16
 72
    14
 73
    13
  0
VERTEX
  5
265
  8
LAYER3
 10
0.0
 20
0.0
 30
0.0
 70
   128
 71
   -15
 72
    16
 73
    17
  0
VERTEX
  5
266
  8
LAYER3
 10
0.0
 20
0.0
 30
0.0
 70
   128
 71
    16
 72
   -19
 73
   -18
  0
VERTEX
  5
267
  8
LAYER3
 10
0.0
 20
0.0
 30
0.0
 70
   128
 71
   -18
 72
    19
 73
    20
  0
VERTEX
  5
268
  8
LAYER3
 10
0.0
 20
0.0
 30
0.0
 70
   128
 71
   -16
 72
    18
 73
    17
  0
VERTEX
  5
269
  8
LAYER3
 10
0.0
 20
0.0
 30
0.0
 70
   128
 71
   -20
 72
   -22
 73
    21
  0
VERTEX
  5
26A
  8
LAYER3
 10
0.0
 20
0.0
 30
0.0
 70
   128
 71
   -22
 72
    20
 73
    19
  0
VERTEX
  5
26B
  8
LAYER3
 10
0.0
 20
0.0
 30
0.0
 70
   128
 71
   -21
 72
    22
 73
    23
  0
VERTEX
  5
26C
  8
LAYER3
 10
0.0
 20
0.0
 30
0.0
 70
   128
 71
   -24
 72
   -26
 73
    25
  0
VERTEX
  5
26D
  8
LAYER3
 10
0.0
 20
0.0
 30
0.0
 70
   128
 71
   -26
 72
   -24
 73
    22
  0
VERTEX
  5
26E
  8
LAYER3
 10
0.0
 20
0.0
 30
0.0
 70
   128
 71
   -25
 72
    26
 73
   -27
  0
VERTEX
  5
26F
  8
LAYER3
 10
0.0
 20
0.0
 30
0.0
 70
   128
 71
   -25
 72
    27
 73
    28
  0
VERTEX
  5
270
  8
LAYER3
 10
0.0
 20
0.0
 30
0.0
 70
   128
 71
   -22
 72
    24
 73
    23
  0
VERTEX
  5
271
  8
LAYER3
 10
0.0
 20
0.0
 30
0.0
 70
   128
 71
    27
 72
   -30
 73
   -29
  0
VERTEX
  5
272
  8
LAYER3
 10
0.0
 20
0.0
 30
0.0
 70
   128
 71
   -29
 72
    30
 73
    31
  0
VERTEX
  5
273
  8
LAYER3
 10
0.0
 20
0.0
 30
0.0
 70
   128
 71
   -27
 72
    29
 73
    28
  0
VERTEX
  5
274
  8
LAYER3
 10
0.0
 20
0.0
 30
0.0
 70
   128
 71
   -31
 72
   -33
 73
    32
  0
VERTEX
  5
275
  8
LAYER3
 10
0.0
 20
0.0
 30
0.0
 70
   128
 71
   -33
 72
    31
 73
    30
  0
VERTEX
  5
276
  8
LAYER3
 10
0.0
 20
0.0
 30
0.0
 70
   128
 71
   -32
 72
    33
 73
    34
  0
VERTEX
  5
277
  8
LAYER3
 10
0.0
 20
0.0
 30
0.0
 70
   128
 71
    33
 72
   -36
 73
   -35
  0
VERTEX
  5
278
  8
LAYER3
 10
0.0
 20
0.0
 30
0.0
 70
   128
 71
   -35
 72
    36
 73
    37
  0
VERTEX
  5
279
  8
LAYER3
 10
0.0
 20
0.0
 30
0.0
 70
   128
 71
   -33
 72
    35
 73
    34
  0
VERTEX
  5
27A
  8
LAYER3
 10
0.0
 20
0.0
 30
0.0
 70
   128
 71
   -37
 72
   -39
 73
    38
  0
VERTEX
  5
27B
  8
LAYER3
 10
0.0
 20
0.0
 30
0.0
 70
   128
 71
   -39
 72
    37
 73
    36
  0
VERTEX
  5
27C
  8
LAYER3
 10
0.0
 20
0.0
 30
0.0
 70
   128
 71
   -38
 72
    39
 73
    40
  0
VERTEX
  5
27D
  8
LAYER3
 10
0.0
 20
0.0
 30
0.0
 70
   128
 71
    39
 72
   -42
 73
   -41
  0
VERTEX
  5
27E
  8
LAYER3
 10
0.0
 20
0.0
 30
0.0
 70
   128
 71
   -41
 72
    42
 73
    43
  0
VERTEX
  5
27F
  8
LAYER3
 10
0.0
 20
0.0
 30
0.0
 70
   128
 71
   -39
 72
    41
 73
    40
  0
VERTEX
  5
280
  8
LAYER3
 10
0.0
 20
0.0
 30
0.0
 70
   128
 71
   -43
 72
   -45
 73
    44
  0
VERTEX
  5
281
  8
LAYER3
 10
0.0
 20
0.0
 30
0.0
 70
   128
 71
   -45
 72
    43
 73
    42
  0
VERTEX
  5
282
  8
LAYER3
 10
0.0
 20
0.0
 30
0.0
 70
   128
 71
   -44
 72
    45
 73
    46
  0
VERTEX
  5
283
  8
LAYER3
 10
0.0
 20
0.0
 30
0.0
 70
   128
 71
    45
 72
   -48
 73
   -47
  0
VERTEX
  5
284
  8
LAYER3
 10
0.0
 20
0.0
 30
0.0
 70
   128
 71
   -47
 72
    48
 73
    49
  0
VERTEX
  5
285
  8
LAYER3
 10
0.0
 20
0.0
 30
0.0
 70
   128
 71
   -45
 72
    47
 73
    46
  0
VERTEX
  5
286
  8
LAYER3
 10
0.0
 20
0.0
 30
0.0
 70
   128
 71
   -49
 72
    -1
 73
    50
  0
VERTEX
  5
287
  8
LAYER3
 10
0.0
 20
0.0
 30
0.0
 70
   128
 71
    -1
 72
    49
 73
    48
  0
VERTEX
  5
288
  8
LAYER3
 10
0.0
 20
0.0
 30
0.0
 70
   128
 71
   -50
 72
     1
 73
     4
  0
SEQEND
  5
289
  8
LAYER3
  0
POLYLINE
  5
28A
  8
LAYER3
 66
     1
 10
0.0
 20
0.0
 30
0.0
 70
    64
  0
VERTEX
  5
28B
  8
LAYER3
 10
4.4000000000000004
 20
2.171184251226618
 30
70.000000000000014
 70
   192
  0
VERTEX
  5
28C
  8
LAYER3
 10
4.5979132154706468
 20
3.0000000000000031
 30
69.005023075850787
 70
   192
  0
VERTEX
  5
28D
  8
LAYER3
 10
4.4055967072520543
 20
2.171184251226614
 30
69.82949617429918
 70
   192
  0
VERTEX
  5
28E
  8
LAYER3
 10
4.5979132154706468
 20
2.171184251226614
 30
69.005023075850787
 70
   192
  0
VERTEX
  5
28F
  8
LAYER3
 10
4.4000000000000004
 20
3.000000000000004
 30
70.000000000000014
 70
   192
  0
VERTEX
  5
290
  8
LAYER3
 10
5.1615223689149667
 20
3.0000000000000031
 30
68.161522368914987
 70
   192
  0
VERTEX
  5
291
  8
LAYER3
 10
4.6966187306188178
 20
2.1711842512266122
 30
68.794000527419712
 70
   192
  0
VERTEX
  5
292
  8
LAYER3
 10
4.6683328880008581
 20
2.171184251226614
 30
68.849639848212064
 70
   192
  0
VERTEX
  5
293
  8
LAYER3
 10
5.1615223689149667
 20
2.1711842512266109
 30
68.161522368914987
 70
   192
  0
VERTEX
  5
294
  8
LAYER3
 10
6.0050230758507572
 20
3.0000000000000031
 30
67.597913215470655
 70
   192
  0
VERTEX
  5
295
  8
LAYER3
 10
5.2860442499365243
 20
2.1711842512266131
 30
68.044915427193914
 70
   192
  0
VERTEX
  5
296
  8
LAYER3
 10
6.0050230758507572
 20
2.1711842512266091
 30
67.597913215470655
 70
   192
  0
VERTEX
  5
297
  8
LAYER3
 10
6.9999999999999911
 20
3.0000000000000031
 30
67.399999999999991
 70
   192
  0
VERTEX
  5
298
  8
LAYER3
 10
6.1646898377717916
 20
2.1711842512266131
 30
67.537834909499722
 70
   192
  0
VERTEX
  5
299
  8
LAYER3
 10
6.9999999999999911
 20
2.1711842512266131
 30
67.399999999999991
 70
   192
  0
VERTEX
  5
29A
  8
LAYER3
 10
7.9949769241492268
 20
3.0000000000000031
 30
67.597913215470655
 70
   192
  0
VERTEX
  5
29B
  8
LAYER3
 10
7.1705038257008296
 20
2.1711842512266122
 30
67.405596707252045
 70
   192
  0
VERTEX
  5
29C
  8
LAYER3
 10
7.9949769241492268
 20
2.171184251226614
 30
67.597913215470655
 70
   192
  0
VERTEX
  5
29D
  8
LAYER3
 10
8.8384776310850182
 20
3.0000000000000031
 30
68.161522368914973
 70
   192
  0
VERTEX
  5
29E
  8
LAYER3
 10
8.1503601517879485
 20
2.1711842512266122
 30
67.668332888000862
 70
   192
  0
VERTEX
  5
29F
  8
LAYER3
 10
8.8384776310850182
 20
2.1711842512266091
 30
68.161522368914973
 70
   192
  0
VERTEX
  5
2A0
  8
LAYER3
 10
9.4020867845293434
 20
3.0000000000000031
 30
69.005023075850744
 70
   192
  0
VERTEX
  5
2A1
  8
LAYER3
 10
8.9550845728060882
 20
2.1711842512266109
 30
68.286044249936523
 70
   192
  0
VERTEX
  5
2A2
  8
LAYER3
 10
9.4020867845293434
 20
2.1711842512266091
 30
69.005023075850744
 70
   192
  0
VERTEX
  5
2A3
  8
LAYER3
 10
9.5999999999999996
 20
3.0000000000000031
 30
70.0
 70
   192
  0
VERTEX
  5
2A4
  8
LAYER3
 10
9.4621650905002781
 20
2.1711842512266109
 30
69.16468983777176
 70
   192
  0
VERTEX
  5
2A5
  8
LAYER3
 10
9.5999999999999996
 20
2.1711842512266082
 30
70.0
 70
   192
  0
VERTEX
  5
2A6
  8
LAYER3
 10
9.4020867845293434
 20
3.0000000000000031
 30
70.994976924149242
 70
   192
  0
VERTEX
  5
2A7
  8
LAYER3
 10
9.5944032927479466
 20
2.17118425122661
 30
70.170503825700806
 70
   192
  0
VERTEX
  5
2A8
  8
LAYER3
 10
9.4020867845293434
 20
2.1711842512266091
 30
70.994976924149242
 70
   192
  0
VERTEX
  5
2A9
  8
LAYER3
 10
8.8384776310850182
 20
3.0000000000000031
 30
71.838477631085027
 70
   192
  0
VERTEX
  5
2AA
  8
LAYER3
 10
9.3316671119991526
 20
2.17118425122661
 30
71.150360151787922
 70
   192
  0
VERTEX
  5
2AB
  8
LAYER3
 10
8.8384776310850182
 20
2.1711842512266091
 30
71.838477631085027
 70
   192
  0
VERTEX
  5
2AC
  8
LAYER3
 10
7.9949769241492268
 20
3.0000000000000031
 30
72.402086784529345
 70
   192
  0
VERTEX
  5
2AD
  8
LAYER3
 10
8.7139557500634872
 20
2.1711842512266109
 30
71.955084572806072
 70
   192
  0
VERTEX
  5
2AE
  8
LAYER3
 10
7.9949769241492268
 20
2.171184251226614
 30
72.402086784529345
 70
   192
  0
VERTEX
  5
2AF
  8
LAYER3
 10
6.9999999999999911
 20
3.0000000000000031
 30
72.600000000000009
 70
   192
  0
VERTEX
  5
2B0
  8
LAYER3
 10
7.8353101622282209
 20
2.1711842512266109
 30
72.462165090500278
 70
   192
  0
VERTEX
  5
2B1
  8
LAYER3
 10
6.9999999999999911
 20
2.1711842512266082
 30
72.600000000000009
 70
   192
  0
VERTEX
  5
2B2
  8
LAYER3
 10
6.0050230758507901
 20
3.0000000000000031
 30
72.402086784529359
 70
   192
  0
VERTEX
  5
2B3
  8
LAYER3
 10
6.8294961742991838
 20
2.1711842512266109
 30
72.594403292747955
 70
   192
  0
VERTEX
  5
2B4
  8
LAYER3
 10
6.0050230758507901
 20
2.1711842512266109
 30
72.402086784529359
 70
   192
  0
VERTEX
  5
2B5
  8
LAYER3
 10
5.1615223689149916
 20
3.0000000000000031
 30
71.838477631085041
 70
   192
  0
VERTEX
  5
2B6
  8
LAYER3
 10
5.8496398482120666
 20
2.1711842512266122
 30
72.331667111999153
 70
   192
  0
VERTEX
  5
2B7
  8
LAYER3
 10
5.1615223689149916
 20
2.1711842512266109
 30
71.838477631085041
 70
   192
  0
VERTEX
  5
2B8
  8
LAYER3
 10
4.5979132154706566
 20
3.0000000000000031
 30
70.994976924149242
 70
   192
  0
VERTEX
  5
2B9
  8
LAYER3
 10
5.0449154271939189
 20
2.1711842512266131
 30
71.713955750063477
 70
   192
  0
VERTEX
  5
2BA
  8
LAYER3
 10
4.5979132154706566
 20
2.1711842512266109
 30
70.994976924149242
 70
   192
  0
VERTEX
  5
2BB
  8
LAYER3
 10
4.5378349094997139
 20
2.171184251226614
 30
70.835310162228211
 70
   192
  0
VERTEX
  5
2BC
  8
LAYER3
 10
0.0
 20
0.0
 30
0.0
 70
   128
 71
     1
 72
    -3
 73
    -2
  0
VERTEX
  5
2BD
  8
LAYER3
 10
0.0
 20
0.0
 30
0.0
 70
   128
 71
    -2
 72
     3
 73
     4
  0
VERTEX
  5
2BE
  8
LAYER3
 10
0.0
 20
0.0
 30
0.0
 70
   128
 71
    -1
 72
     2
 73
     5
  0
VERTEX
  5
2BF
  8
LAYER3
 10
0.0
 20
0.0
 30
0.0
 70
   128
 71
    -6
 72
     8
 73
    -7
  0
VERTEX
  5
2C0
  8
LAYER3
 10
0.0
 20
0.0
 30
0.0
 70
   128
 71
    -8
 72
     6
 73
    -2
  0
VERTEX
  5
2C1
  8
LAYER3
 10
0.0
 20
0.0
 30
0.0
 70
   128
 71
    -8
 72
     2
 73
     4
  0
VERTEX
  5
2C2
  8
LAYER3
 10
0.0
 20
0.0
 30
0.0
 70
   128
 71
    -6
 72
     7
 73
     9
  0
VERTEX
  5
2C3
  8
LAYER3
 10
0.0
 20
0.0
 30
0.0
 70
   128
 71
     9
 72
   -11
 73
   -10
  0
VERTEX
  5
2C4
  8
LAYER3
 10
0.0
 20
0.0
 30
0.0
 70
   128
 71
   -10
 72
    11
 73
    12
  0
VERTEX
  5
2C5
  8
LAYER3
 10
0.0
 20
0.0
 30
0.0
 70
   128
 71
    -9
 72
    10
 73
     6
  0
VERTEX
  5
2C6
  8
LAYER3
 10
0.0
 20
0.0
 30
0.0
 70
   128
 71
   -10
 72
   -14
 73
    13
  0
VERTEX
  5
2C7
  8
LAYER3
 10
0.0
 20
0.0
 30
0.0
 70
   128
 71
   -14
 72
    10
 73
    12
  0
VERTEX
  5
2C8
  8
LAYER3
 10
0.0
 20
0.0
 30
0.0
 70
   128
 71
   -13
 72
    14
 73
    15
  0
VERTEX
  5
2C9
  8
LAYER3
 10
0.0
 20
0.0
 30
0.0
 70
   128
 71
    15
 72
   -17
 73
   -16
  0
VERTEX
  5
2CA
  8
LAYER3
 10
0.0
 20
0.0
 30
0.0
 70
   128
 71
   -16
 72
    17
 73
    18
  0
VERTEX
  5
2CB
  8
LAYER3
 10
0.0
 20
0.0
 30
0.0
 70
   128
 71
   -15
 72
    16
 73
    13
  0
VERTEX
  5
2CC
  8
LAYER3
 10
0.0
 20
0.0
 30
0.0
 70
   128
 71
   -16
 72
   -20
 73
    19
  0
VERTEX
  5
2CD
  8
LAYER3
 10
0.0
 20
0.0
 30
0.0
 70
   128
 71
   -20
 72
    16
 73
    18
  0
VERTEX
  5
2CE
  8
LAYER3
 10
0.0
 20
0.0
 30
0.0
 70
   128
 71
   -19
 72
    20
 73
    21
  0
VERTEX
  5
2CF
  8
LAYER3
 10
0.0
 20
0.0
 30
0.0
 70
   128
 71
    21
 72
   -23
 73
   -22
  0
VERTEX
  5
2D0
  8
LAYER3
 10
0.0
 20
0.0
 30
0.0
 70
   128
 71
   -22
 72
    23
 73
    24
  0
VERTEX
  5
2D1
  8
LAYER3
 10
0.0
 20
0.0
 30
0.0
 70
   128
 71
   -21
 72
    22
 73
    19
  0
VERTEX
  5
2D2
  8
LAYER3
 10
0.0
 20
0.0
 30
0.0
 70
   128
 71
   -22
 72
   -26
 73
    25
  0
VERTEX
  5
2D3
  8
LAYER3
 10
0.0
 20
0.0
 30
0.0
 70
   128
 71
   -26
 72
    22
 73
    24
  0
VERTEX
  5
2D4
  8
LAYER3
 10
0.0
 20
0.0
 30
0.0
 70
   128
 71
   -25
 72
    26
 73
    27
  0
VERTEX
  5
2D5
  8
LAYER3
 10
0.0
 20
0.0
 30
0.0
 70
   128
 71
    27
 72
   -29
 73
   -28
  0
VERTEX
  5
2D6
  8
LAYER3
 10
0.0
 20
0.0
 30
0.0
 70
   128
 71
   -28
 72
    29
 73
    30
  0
VERTEX
  5
2D7
  8
LAYER3
 10
0.0
 20
0.0
 30
0.0
 70
   128
 71
   -27
 72
    28
 73
    25
  0
VERTEX
  5
2D8
  8
LAYER3
 10
0.0
 20
0.0
 30
0.0
 70
   128
 71
   -28
 72
   -32
 73
    31
  0
VERTEX
  5
2D9
  8
LAYER3
 10
0.0
 20
0.0
 30
0.0
 70
   128
 71
   -32
 72
    28
 73
    30
  0
VERTEX
  5
2DA
  8
LAYER3
 10
0.0
 20
0.0
 30
0.0
 70
   128
 71
   -31
 72
    32
 73
    33
  0
VERTEX
  5
2DB
  8
LAYER3
 10
0.0
 20
0.0
 30
0.0
 70
   128
 71
    33
 72
   -35
 73
   -34
  0
VERTEX
  5
2DC
  8
LAYER3
 10
0.0
 20
0.0
 30
0.0
 70
   128
 71
   -34
 72
    35
 73
    36
  0
VERTEX
  5
2DD
  8
LAYER3
 10
0.0
 20
0.0
 30
0.0
 70
   128
 71
   -33
 72
    34
 73
    31
  0
VERTEX
  5
2DE
  8
LAYER3
 10
0.0
 20
0.0
 30
0.0
 70
   128
 71
   -34
 72
   -38
 73
    37
  0
VERTEX
  5
2DF
  8
LAYER3
 10
0.0
 20
0.0
 30
0.0
 70
   128
 71
   -38
 72
    34
 73
    36
  0
VERTEX
  5
2E0
  8
LAYER3
 10
0.0
 20
0.0
 30
0.0
 70
   128
 71
   -37
 72
    38
 73
    39
  0
VERTEX
  5
2E1
  8
LAYER3
 10
0.0
 20
0.0
 30
0.0
 70
   128
 71
    39
 72
   -41
 73
   -40
  0
VERTEX
  5
2E2
  8
LAYER3
 10
0.0
 20
0.0
 30
0.0
 70
   128
 71
   -40
 72
    41
 73
    42
  0
VERTEX
  5
2E3
  8
LAYER3
 10
0.0
 20
0.0
 30
0.0
 70
   128
 71
   -39
 72
    40
 73
    37
  0
VERTEX
  5
2E4
  8
LAYER3
 10
0.0
 20
0.0
 30
0.0
 70
   128
 71
   -40
 72
   -44
 73
    43
  0
VERTEX
  5
2E5
  8
LAYER3
 10
0.0
 20
0.0
 30
0.0
 70
   128
 71
   -44
 72
    40
 73
    42
  0
VERTEX
  5
2E6
  8
LAYER3
 10
0.0
 20
0.0
 30
0.0
 70
   128
 71
   -43
 72
    44
 73
    45
  0
VERTEX
  5
2E7
  8
LAYER3
 10
0.0
 20
0.0
 30
0.0
 70
   128
 71
    45
 72
   -47
 73
   -46
  0
VERTEX
  5
2E8
  8
LAYER3
 10
0.0
 20
0.0
 30
0.0
 70
   128
 71
   -46
 72
    47
 73
    48
  0
VERTEX
  5
2E9
  8
LAYER3
 10
0.0
 20
0.0
 30
0.0
 70
   128
 71
   -45
 72
    46
 73
    43
  0
VERTEX
  5
2EA
  8
LAYER3
 10
0.0
 20
0.0
 30
0.0
 70
   128
 71
   -46
 72
   -49
 73
     5
  0
VERTEX
  5
2EB
  8
LAYER3
 10
0.0
 20
0.0
 30
0.0
 70
   128
 71
   -49
 72
    46
 73
    48
  0
VERTEX
  5
2EC
  8
LAYER3
 10
0.0
 20
0.0
 30
0.0
 70
   128
 71
    -5
 72
    49
 73
     1
  0
SEQEND
  5
2ED
  8
LAYER3
  0
LINE
  5
2EE
  8
LAYER1
 62
     2
 10
6.9999999999999583
 20
0.0000000000000009
 30
69.0
 11
6.9999999999999583
 21
0.0000000000000009
 31
63.54159076861589
210
0.0
220
-1.0
230
0.0
  0
DIMENSION
  5
2EF
  8
LAYER1
  2
*D10
 10
17.999999999999989
 20
0.0
 30
50.21440512529103
 11
22.250178068631939
 21
55.144405125291037
 31
0.0
 70
   128
210
0.0
220
-1.0
230
0.0
 13
13.999999999999989
 23
0.0
 33
57.0
 14
17.999999999999989
 24
0.0
 34
77.999999999999986
  0
DIMENSION
  5
2FE
  8
LAYER1
  2
*D4
 10
-30.785966637046268
 20
0.0
 30
78.0
 11
-35.715966637046272
 21
67.5
 31
0.0
210
0.0
220
-1.0
230
0.0
 13
-0.0000000000000071
 23
0.0
 33
57.0
 14
-3.9999999999999911
 24
0.0
 34
78.0
 50
90.0
  0
DIMENSION
  5
30B
  8
LAYER1
  2
*D11
 10
6.9999999999999583
 20
0.0
 30
59.748757245477421
 11
-11.16744816585628
 21
64.678757245477414
 31
0.0
 70
   128
210
0.0
220
-1.0
230
0.0
 13
-3.9999999999999911
 23
0.0
 33
78.0
 14
6.9999999999999583
 24
0.0000000000000009
 34
70.0
  0
DIMENSION
  5
31A
  8
LAYER1
  2
*D6
 10
-17.53950641288634
 20
0.0
 30
78.0
 11
-22.469506412886339
 21
74.0
 31
0.0
210
0.0
220
-1.0
230
0.0
 13
6.0
 23
0.0000000000000009
 33
70.0
 14
-3.9999999999999911
 24
0.0
 34
78.0
 50
90.0
  0
DIMENSION
  5
329
  8
LAYER1
  2
*D5
 10
-30.785966637046268
 20
0.0
 30
57.0
 11
-35.715966637046272
 21
39.0
 31
0.0
210
0.0
220
-1.0
230
0.0
 13
-0.0000000000000071
 23
0.0
 33
21.0
 14
-0.0000000000000071
 24
0.0
 34
57.0
 50
90.0
  0
POLYLINE
  5
336
  8
LAYER3
 66
     1
 10
0.0
 20
0.0
 30
0.0
 70
    64
  0
VERTEX
  5
337
  8
LAYER3
 10
-0.0000000000000071
 20
3.0000000000000022
 30
21.0
 70
   192
  0
VERTEX
  5
338
  8
LAYER3
 10
-0.0000000000000071
 20
0.0000000000000024
 30
21.0
 70
   192
  0
VERTEX
  5
339
  8
LAYER3
 10
-0.0000000000000071
 20
3.000000000000004
 30
57.0
 70
   192
  0
VERTEX
  5
33A
  8
LAYER3
 10
-0.0000000000000071
 20
0.0000000000000046
 30
57.0
 70
   192
  0
VERTEX
  5
33B
  8
LAYER3
 10
0.0
 20
0.0
 30
0.0
 70
   128
 71
     1
 72
    -3
 73
     2
  0
VERTEX
  5
33C
  8
LAYER3
 10
0.0
 20
0.0
 30
0.0
 70
   128
 71
    -2
 72
     3
 73
     4
  0
SEQEND
  5
33D
  8
LAYER3
  0
POLYLINE
  5
33E
  8
LAYER3
 66
     1
 10
0.0
 20
0.0
 30
0.0
 70
    64
  0
VERTEX
  5
33F
  8
LAYER3
 10
13.999999999999989
 20
0.0000000000000039
 30
57.0
 70
   192
  0
VERTEX
  5
340
  8
LAYER3
 10
13.999999999999989
 20
0.0000000000000014
 30
21.0
 70
   192
  0
VERTEX
  5
341
  8
LAYER3
 10
13.999999999999989
 20
3.0000000000000009
 30
21.0
 70
   192
  0
VERTEX
  5
342
  8
LAYER3
 10
13.999999999999989
 20
3.0000000000000031
 30
57.0
 70
   192
  0
VERTEX
  5
343
  8
LAYER3
 10
0.0
 20
0.0
 30
0.0
 70
   128
 71
    -1
 72
     3
 73
     2
  0
VERTEX
  5
344
  8
LAYER3
 10
0.0
 20
0.0
 30
0.0
 70
   128
 71
    -3
 72
     1
 73
     4
  0
SEQEND
  5
345
  8
LAYER3
  0
POLYLINE
  5
346
  8
LAYER3
 66
     1
 10
0.0
 20
0.0
 30
0.0
 70
    64
  0
VERTEX
  5
347
  8
LAYER3
 10
13.999999999999989
 20
0.0000000000000015
 30
21.0
 70
   192
  0
VERTEX
  5
348
  8
LAYER3
 10
-0.0000000000000071
 20
3.0000000000000022
 30
21.0
 70
   192
  0
VERTEX
  5
349
  8
LAYER3
 10
13.999999999999989
 20
3.0000000000000009
 30
21.0
 70
   192
  0
VERTEX
  5
34A
  8
LAYER3
 10
-0.0000000000000071
 20
0.0000000000000024
 30
21.0
 70
   192
  0
VERTEX
  5
34B
  8
LAYER3
 10
0.0
 20
0.0
 30
0.0
 70
   128
 71
     1
 72
     3
 73
    -2
  0
VERTEX
  5
34C
  8
LAYER3
 10
0.0
 20
0.0
 30
0.0
 70
   128
 71
    -1
 72
     2
 73
     4
  0
SEQEND
  5
34D
  8
LAYER3
  0
DIMENSION
  5
34E
  8
LAYER1
  2
*D8
 10
13.999999999999989
 20
0.0
 30
31.410583509561722
 11
6.999999999999992
 21
37.478451103951521
 31
0.0
 70
   128
210
0.0
220
-1.0
230
0.0
 13
-0.0000000000000071
 23
0.0
 33
21.0
 14
13.999999999999989
 24
0.0
 34
21.0
  0
POLYLINE
  5
35B
  8
LAYER3
 66
     1
 10
0.0
 20
0.0
 30
0.0
 70
    64
  0
VERTEX
  5
35C
  8
LAYER3
 10
13.999999999999989
 20
3.0000000000000031
 30
57.0
 70
   192
  0
VERTEX
  5
35D
  8
LAYER3
 10
-0.0000000000000085
 20
3.000000000000004
 30
57.0
 70
   192
  0
VERTEX
  5
35E
  8
LAYER3
 10
-0.0000000000000085
 20
0.0000000000000046
 30
57.0
 70
   192
  0
VERTEX
  5
35F
  8
LAYER3
 10
13.999999999999989
 20
0.0000000000000039
 30
57.0
 70
   192
  0
VERTEX
  5
360
  8
LAYER3
 10
0.0
 20
0.0
 30
0.0
 70
   128
 71
    -1
 72
     3
 73
     2
  0
VERTEX
  5
361
  8
LAYER3
 10
0.0
 20
0.0
 30
0.0
 70
   128
 71
    -3
 72
     1
 73
     4
  0
SEQEND
  5
362
  8
LAYER3
  0
LINE
  5
363
  8
LAYER1
 62
     2
 10
6.9999999999999583
 20
0.0000000000000009
 30
71.0
 11
6.9999999999999583
 21
0.0000000000000009
 31
76.458409231384124
210
0.0
220
-1.0
230
0.0
  0
LINE
  5
364
  8
LAYER1
 62
     2
 10
7.9999999999999574
 20
0.0000000000000009
 30
70.0
 11
13.458409231384071
 21
0.0000000000000009
 31
70.0
210
0.0
220
-1.0
230
0.0
  0
LINE
  5
365
  8
LAYER1
 62
     2
 10
5.9999999999999583
 20
0.0000000000000009
 30
70.0
 11
0.5415907686158415
 21
0.0000000000000009
 31
70.0
210
0.0
220
-1.0
230
0.0
  0
DIMENSION
  5
366
  8
LAYER1
  2
*D9
 10
17.999999999999989
 20
11.999999999999989
 30
88.977365249515444
 11
16.749999999999989
 21
95.586319065461836
 31
-11.999999999999989
 70
   128
210
0.0
220
-1.0
230
0.0
 13
15.499999999999989
 23
11.999999999999989
 33
77.999999999999986
 14
17.999999999999989
 24
12.0
 34
77.999999999999986
  0
ENDSEC
  0
EOF
