  0
SECTION
  2
HEADER
  9
$ACADVER
  1
AC1027
  9
$ACADMAINTVER
 70
    57
  9
$DWGCODEPAGE
  3
ANSI_1252
  9
$LASTSAVEDBY
  1
davsta
  9
$REQUIREDVERSIONS
160
                 0
  9
$INSBASE
 10
0.0
 20
0.0
 30
0.0
  9
$EXTMIN
 10
3195.064537929213
 20
157.9332383615262
 30
0.0
  9
$EXTMAX
 10
3456.989371429187
 20
576.4426887255978
 30
0.0
  9
$LIMMIN
 10
-19.95
 20
-7.599999999999998
  9
$LIMMAX
 10
370.5
 20
541.5
  9
$ORTHOMODE
 70
     1
  9
$REGENMODE
 70
     1
  9
$FILLMODE
 70
     1
  9
$QTEXTMODE
 70
     0
  9
$MIRRTEXT
 70
     1
  9
$LTSCALE
 40
1.0
  9
$ATTMODE
 70
     1
  9
$TEXTSIZE
 40
20.0
  9
$TRACEWID
 40
0.05
  9
$TEXTSTYLE
  7
ARIAL-STANDARD
  9
$CLAYER
  8
UMRISS07
  9
$CELTYPE
  6
BYLAYER
  9
$CECOLOR
 62
   256
  9
$CELTSCALE
 40
1.0
  9
$DISPSILH
 70
     0
  9
$DIMSCALE
 40
1.0
  9
$DIMASZ
 40
3.5
  9
$DIMEXO
 40
1.0
  9
$DIMDLI
 40
10.0
  9
$DIMRND
 40
0.0
  9
$DIMDLE
 40
0.0
  9
$DIMEXE
 40
1.0
  9
$DIMTP
 40
0.1
  9
$DIMTM
 40
0.1
  9
$DIMTXT
 40
3.5
  9
$DIMCEN
 40
0.0
  9
$DIMTSZ
 40
0.0
  9
$DIMTOL
 70
     0
  9
$DIMLIM
 70
     0
  9
$DIMTIH
 70
     0
  9
$DIMTOH
 70
     0
  9
$DIMSE1
 70
     0
  9
$DIMSE2
 70
     0
  9
$DIMTAD
 70
     1
  9
$DIMZIN
 70
     8
  9
$DIMBLK
  1

  9
$DIMASO
 70
     1
  9
$DIMSHO
 70
     1
  9
$DIMPOST
  1

  9
$DIMAPOST
  1
"
  9
$DIMALT
 70
     0
  9
$DIMALTD
 70
     2
  9
$DIMALTF
 40
0.0393701
  9
$DIMLFAC
 40
1.0
  9
$DIMTOFL
 70
     1
  9
$DIMTVP
 40
0.0
  9
$DIMTIX
 70
     0
  9
$DIMSOXD
 70
     0
  9
$DIMSAH
 70
     0
  9
$DIMBLK1
  1

  9
$DIMBLK2
  1

  9
$DIMSTYLE
  2
AM_DIN
  9
$DIMCLRD
 70
   256
  9
$DIMCLRE
 70
   256
  9
$DIMCLRT
 70
     2
  9
$DIMTFAC
 40
0.71
  9
$DIMGAP
 40
1.5
  9
$DIMJUST
 70
     0
  9
$DIMSD1
 70
     0
  9
$DIMSD2
 70
     0
  9
$DIMTOLJ
 70
     0
  9
$DIMTZIN
 70
     8
  9
$DIMALTZ
 70
     0
  9
$DIMALTTZ
 70
     0
  9
$DIMUPT
 70
     0
  9
$DIMDEC
 70
     2
  9
$DIMTDEC
 70
     3
  9
$DIMALTU
 70
     2
  9
$DIMALTTD
 70
     4
  9
$DIMTXSTY
  7
STANDARD
  9
$DIMAUNIT
 70
     0
  9
$DIMADEC
 70
     0
  9
$DIMALTRND
 40
0.0
  9
$DIMAZIN
 70
     2
  9
$DIMDSEP
 70
    46
  9
$DIMATFIT
 70
     3
  9
$DIMFRAC
 70
     0
  9
$DIMLDRBLK
  1

  9
$DIMLUNIT
 70
     2
  9
$DIMLWD
 70
    -1
  9
$DIMLWE
 70
    -1
  9
$DIMTMOVE
 70
     0
  9
$DIMFXL
 40
1.0
  9
$DIMFXLON
 70
     0
  9
$DIMJOGANG
 40
1.570796326794896
  9
$DIMTFILL
 70
     0
  9
$DIMTFILLCLR
 70
     0
  9
$DIMARCSYM
 70
     0
  9
$DIMLTYPE
  6
BYBLOCK
  9
$DIMLTEX1
  6
BYBLOCK
  9
$DIMLTEX2
  6
BYBLOCK
  9
$DIMTXTDIRECTION
 70
     0
  9
$LUNITS
 70
     2
  9
$LUPREC
 70
     2
  9
$SKETCHINC
 40
0.1
  9
$FILLETRAD
 40
0.0
  9
$AUNITS
 70
     0
  9
$AUPREC
 70
     0
  9
$MENU
  1
.
  9
$ELEVATION
 40
0.0
  9
$PELEVATION
 40
0.0
  9
$THICKNESS
 40
0.0
  9
$LIMCHECK
 70
     0
  9
$CHAMFERA
 40
0.5
  9
$CHAMFERB
 40
0.5
  9
$CHAMFERC
 40
1.0
  9
$CHAMFERD
 40
0.0
  9
$SKPOLY
 70
     0
  9
$TDCREATE
 40
2451242.649441551
  9
$TDUCREATE
 40
2451242.566108218
  9
$TDUPDATE
 40
2458340.423326701
  9
$TDUUPDATE
 40
2458340.339993368
  9
$TDINDWG
 40
4.2252004861
  9
$TDUSRTIMER
 40
4.2252004167
  9
$USRTIMER
 70
     1
  9
$ANGBASE
 50
0.0
  9
$ANGDIR
 70
     0
  9
$PDMODE
 70
     0
  9
$PDSIZE
 40
0.0
  9
$PLINEWID
 40
4.388747664574713
  9
$SPLFRAME
 70
     0
  9
$SPLINETYPE
 70
     6
  9
$SPLINESEGS
 70
     8
  9
$HANDSEED
  5
43B
  9
$SURFTAB1
 70
     6
  9
$SURFTAB2
 70
     6
  9
$SURFTYPE
 70
     6
  9
$SURFU
 70
     6
  9
$SURFV
 70
     6
  9
$UCSBASE
  2

  9
$UCSNAME
  2

  9
$UCSORG
 10
0.0
 20
0.0
 30
0.0
  9
$UCSXDIR
 10
1.0
 20
0.0
 30
0.0
  9
$UCSYDIR
 10
0.0
 20
1.0
 30
0.0
  9
$UCSORTHOREF
  2

  9
$UCSORTHOVIEW
 70
     0
  9
$UCSORGTOP
 10
0.0
 20
0.0
 30
0.0
  9
$UCSORGBOTTOM
 10
0.0
 20
0.0
 30
0.0
  9
$UCSORGLEFT
 10
0.0
 20
0.0
 30
0.0
  9
$UCSORGRIGHT
 10
0.0
 20
0.0
 30
0.0
  9
$UCSORGFRONT
 10
0.0
 20
0.0
 30
0.0
  9
$UCSORGBACK
 10
0.0
 20
0.0
 30
0.0
  9
$PUCSBASE
  2

  9
$PUCSNAME
  2

  9
$PUCSORG
 10
0.0
 20
0.0
 30
0.0
  9
$PUCSXDIR
 10
1.0
 20
0.0
 30
0.0
  9
$PUCSYDIR
 10
0.0
 20
1.0
 30
0.0
  9
$PUCSORTHOREF
  2

  9
$PUCSORTHOVIEW
 70
     0
  9
$PUCSORGTOP
 10
0.0
 20
0.0
 30
0.0
  9
$PUCSORGBOTTOM
 10
0.0
 20
0.0
 30
0.0
  9
$PUCSORGLEFT
 10
0.0
 20
0.0
 30
0.0
  9
$PUCSORGRIGHT
 10
0.0
 20
0.0
 30
0.0
  9
$PUCSORGFRONT
 10
0.0
 20
0.0
 30
0.0
  9
$PUCSORGBACK
 10
0.0
 20
0.0
 30
0.0
  9
$USERI1
 70
     0
  9
$USERI2
 70
     0
  9
$USERI3
 70
     0
  9
$USERI4
 70
     0
  9
$USERI5
 70
     0
  9
$USERR1
 40
0.0
  9
$USERR2
 40
0.0
  9
$USERR3
 40
0.0
  9
$USERR4
 40
0.0
  9
$USERR5
 40
0.0
  9
$WORLDVIEW
 70
     1
  9
$SHADEDGE
 70
     3
  9
$SHADEDIF
 70
    70
  9
$TILEMODE
 70
     1
  9
$MAXACTVP
 70
    48
  9
$PINSBASE
 10
0.0
 20
0.0
 30
0.0
  9
$PLIMCHECK
 70
     0
  9
$PEXTMIN
 10
1.000000000000000E+20
 20
1.000000000000000E+20
 30
1.000000000000000E+20
  9
$PEXTMAX
 10
-1.000000000000000E+20
 20
-1.000000000000000E+20
 30
-1.000000000000000E+20
  9
$PLIMMIN
 10
0.0
 20
0.0
  9
$PLIMMAX
 10
12.0
 20
9.0
  9
$UNITMODE
 70
     0
  9
$VISRETAIN
 70
     1
  9
$PLINEGEN
 70
     0
  9
$PSLTSCALE
 70
     1
  9
$TREEDEPTH
 70
  3020
  9
$CMLSTYLE
  2
STANDARD
  9
$CMLJUST
 70
     0
  9
$CMLSCALE
 40
1.0
  9
$PROXYGRAPHICS
 70
     1
  9
$MEASUREMENT
 70
     1
  9
$CELWEIGHT
370
    -1
  9
$ENDCAPS
280
     0
  9
$JOINSTYLE
280
     0
  9
$LWDISPLAY
290
     0
  9
$INSUNITS
 70
     4
  9
$HYPERLINKBASE
  1

  9
$STYLESHEET
  1

  9
$XEDIT
290
     1
  9
$CEPSNTYPE
380
     0
  9
$PSTYLEMODE
290
     1
  9
$FINGERPRINTGUID
  2
{0EDEAE80-68D0-48FE-8817-94FC38BF0033}
  9
$VERSIONGUID
  2
{6CF9EE7C-B546-411E-BA61-A5C88005109C}
  9
$EXTNAMES
290
     1
  9
$PSVPSCALE
 40
0.0
  9
$OLESTARTUP
290
     0
  9
$SORTENTS
280
   127
  9
$INDEXCTL
280
     0
  9
$HIDETEXT
280
     1
  9
$XCLIPFRAME
280
     0
  9
$HALOGAP
280
     0
  9
$OBSCOLOR
 70
   257
  9
$OBSLTYPE
280
     0
  9
$INTERSECTIONDISPLAY
280
     0
  9
$INTERSECTIONCOLOR
 70
   257
  9
$DIMASSOC
280
     1
  9
$PROJECTNAME
  1

  9
$CAMERADISPLAY
290
     0
  9
$LENSLENGTH
 40
50.0
  9
$CAMERAHEIGHT
 40
0.0
  9
$STEPSPERSEC
 40
2.0
  9
$STEPSIZE
 40
6.0
  9
$3DDWFPREC
 40
2.0
  9
$PSOLWIDTH
 40
0.25
  9
$PSOLHEIGHT
 40
4.0
  9
$LOFTANG1
 40
1.570796326794896
  9
$LOFTANG2
 40
1.570796326794896
  9
$LOFTMAG1
 40
0.0
  9
$LOFTMAG2
 40
0.0
  9
$LOFTPARAM
 70
     7
  9
$LOFTNORMALS
280
     1
  9
$LATITUDE
 40
37.795
  9
$LONGITUDE
 40
-122.394
  9
$NORTHDIRECTION
 40
0.0
  9
$TIMEZONE
 70
 -8000
  9
$LIGHTGLYPHDISPLAY
280
     1
  9
$TILEMODELIGHTSYNCH
280
     1
  9
$CMATERIAL
347
2F7
  9
$SOLIDHIST
280
     0
  9
$SHOWHIST
280
     1
  9
$DWFFRAME
280
     2
  9
$DGNFRAME
280
     0
  9
$REALWORLDSCALE
290
     1
  9
$INTERFERECOLOR
 62
     1
  9
$INTERFEREOBJVS
345
319
  9
$INTERFEREVPVS
346
316
  9
$CSHADOW
280
     0
  9
$SHADOWPLANELOCATION
 40
0.0
  0
ENDSEC
  0
SECTION
  2
CLASSES
  0
CLASS
  1
ACDBDICTIONARYWDFLT
  2
AcDbDictionaryWithDefault
  3
ObjectDBX Classes
 90
        0
 91
        1
280
     0
281
     0
  0
CLASS
  1
DICTIONARYVAR
  2
AcDbDictionaryVar
  3
ObjectDBX Classes
 90
        0
 91
        9
280
     0
281
     0
  0
CLASS
  1
ACME_DOCUMENT
  2
AcMeDbDoc
  3
AcMeServices
 90
     1024
 91
        1
280
     0
281
     0
  0
CLASS
  1
AMGSETTINGSOBJ
  2
AmgSettingsObj
  3
"AcadM|Product Description: AutoCAD Mechanical|Company: Autodesk, Inc."
 90
     1024
 91
        2
280
     0
281
     0
  0
CLASS
  1
ACMESCOPE
  2
AcMeScope
  3
AcMeServices
 90
     1024
 91
        1
280
     0
281
     0
  0
CLASS
  1
ACMECOMMANDHISTORY
  2
AcMeCommandHistory
  3
AcMeServices
 90
     1024
 91
        1
280
     0
281
     0
  0
CLASS
  1
ACIMSYSVARMAN
  2
AcImSysVarManager
  3
AcMeServices
 90
     1024
 91
        3
280
     0
281
     0
  0
CLASS
  1
ACIMREALSYSVAR
  2
AcImRealSysVar
  3
AcMeServices
 90
     1024
 91
        0
280
     0
281
     0
  0
CLASS
  1
ACIMINTSYSVAR
  2
AcImIntSysVar
  3
AcMeServices
 90
     1024
 91
        3
280
     0
281
     0
  0
CLASS
  1
ACMEDRAWINGMAN
  2
AcMeDrawingMan
  3
AcMeServices
 90
     1024
 91
        0
280
     0
281
     0
  0
CLASS
  1
ACMEVIEW
  2
AcMeView
  3
AcMeServices
 90
     1024
 91
        0
280
     0
281
     0
  0
CLASS
  1
ACDBENTITYCACHE
  2
AcMeEntityCache
  3
AcMeServices
 90
     1024
 91
        1
280
     0
281
     0
  0
CLASS
  1
GSMANAGER
  2
AcMeGSManager
  3
AcMeServices
 90
        0
 91
        0
280
     0
281
     0
  0
CLASS
  1
AMDTINTERNALREACTOR
  2
AmdtInternalReactor
  3
AcMeServices
 90
     1024
 91
        0
280
     0
281
     0
  0
CLASS
  1
ACMESTATEMGR
  2
AcMeStateMgr
  3
AcMeServices
 90
     1024
 91
        1
280
     0
281
     0
  0
CLASS
  1
ACGREFMASTER
  2
AcGrefMaster
  3
AcAttribServices
 90
     1024
 91
        1
280
     0
281
     0
  0
CLASS
  1
ACME_DATABASE
  2
AcMeDbDatabase
  3
AcMeServices
 90
     1024
 91
        1
280
     0
281
     0
  0
CLASS
  1
ACRFINSADJUSTERMGR
  2
AcRfInsAdjusterMgr
  3
AcMeServices
 90
     1024
 91
        1
280
     0
281
     0
  0
CLASS
  1
ACGREFACADMASTER
  2
AcGrefacadMaster
  3
AcGrefServices
 90
     1024
 91
        1
280
     0
281
     0
  0
CLASS
  1
AMIMASTER
  2
AmiMaster
  3
AmiServices
 90
     1024
 91
        1
280
     0
281
     0
  0
CLASS
  1
ACMDATADICTIONARY
  2
AcmDataDictionary
  3
"AcmSymBB|Product Description: AutoCAD Mechanical|Company: Autodesk, Inc."
 90
     1024
 91
        1
280
     0
281
     0
  0
CLASS
  1
ACMDATAENTRYBLOCK
  2
AcmDataEntryBlock
  3
AcmSymBB|Product Description: AutoCAD Mechanical|Company: Autodesk, Inc.
 90
     1024
 91
        0
280
     0
281
     0
  0
CLASS
  1
ACIMSTRSYSVAR
  2
AcImStrSysVar
  3
AcMeServices
 90
     1024
 91
        5
280
     0
281
     0
  0
CLASS
  1
ACMSTANDARDDIN
  2
AcmStandardDIN
  3
"Amdt_StdImp|Product Description: AutoCAD Mechanical|Company: Autodesk, Inc."
 90
     1024
 91
        1
280
     0
281
     0
  0
CLASS
  1
AMGOBJPROPCFG
  2
AmgObjPropCfg
  3
"AmgLay|Product Description: AutoCAD Mechanical|Company: Autodesk, Inc."
 90
     1024
 91
        1
280
     0
281
     0
  0
CLASS
  1
AMDTEDGESTANDARDDIN
  2
AmdtEdgeStdDIN
  3
"Amdt_StdImp|Product Description: AutoCAD Mechanical|Company: Autodesk, Inc."
 90
     1024
 91
        0
280
     0
281
     0
  0
CLASS
  1
ACMSURFSTANDARDDIN
  2
AcmSurfTextStdDIN
  3
"Amdt_StdImp|Product Description: AutoCAD Mechanical|Company: Autodesk, Inc."
 90
     1024
 91
        0
280
     0
281
     0
  0
CLASS
  1
ACMFCFSTANDARDDIN
  2
AcmFCFStdDIN
  3
"Amdt_StdImp|Product Description: AutoCAD Mechanical|Company: Autodesk, Inc."
 90
     1024
 91
        0
280
     0
281
     0
  0
CLASS
  1
ACMWELDSTANDARDDIN
  2
AcmWeldingStdDIN
  3
"Amdt_StdImp|Product Description: AutoCAD Mechanical|Company: Autodesk, Inc."
 90
     1024
 91
        1
280
     0
281
     0
  0
CLASS
  1
ACMIDSTANDARDDIN
  2
AcmIdStdDIN
  3
"Amdt_StdImp|Product Description: AutoCAD Mechanical|Company: Autodesk, Inc."
 90
     1024
 91
        0
280
     0
281
     0
  0
CLASS
  1
ACMDATUMSTANDARDDIN
  2
AcmDatumStdDIN
  3
"Amdt_StdImp|Product Description: AutoCAD Mechanical|Company: Autodesk, Inc."
 90
     1024
 91
        1
280
     0
281
     0
  0
CLASS
  1
ACMBOMSTANDARDDIN
  2
AcmBOMStdDIN
  3
"Amdt_StdImp|Product Description: AutoCAD Mechanical|Company: Autodesk, Inc."
 90
     1024
 91
        1
280
     0
281
     0
  0
CLASS
  1
ACMDETAILSTANDARDDIN
  2
AmdtDetailSymStdDIN
  3
"Amdt_StdImp|Product Description: AutoCAD Mechanical|Company: Autodesk, Inc."
 90
     1024
 91
        1
280
     0
281
     0
  0
CLASS
  1
ACMSECTIONSTANDARDDIN
  2
AmdtSectionSymStdDIN
  3
"Amdt_StdImp|Product Description: AutoCAD Mechanical|Company: Autodesk, Inc."
 90
     1024
 91
        1
280
     0
281
     0
  0
CLASS
  1
ACMCENTERLINESTANDARDDIN
  2
AmdtCenterLineStdDIN
  3
"Amdt_StdImp|Product Description: AutoCAD Mechanical|Company: Autodesk, Inc."
 90
     1024
 91
        1
280
     0
281
     0
  0
CLASS
  1
ACMNOTESTANDARDDIN
  2
AmdtNoteStdDIN
  3
"Amdt_StdImp|Product Description: AutoCAD Mechanical|Company: Autodesk, Inc."
 90
     1024
 91
        1
280
     0
281
     0
  0
CLASS
  1
ACAMGLAYSTD
  2
AcAmgLayStd
  3
"AmgLay|Product Description: AutoCAD Mechanical|Company: Autodesk, Inc."
 90
     1024
 91
        1
280
     0
281
     0
  0
CLASS
  1
ACAMGDIMSTD
  2
AcAmgDimStd
  3
"AmgDim|Product Description: AutoCAD Mechanical|Company: Autodesk, Inc."
 90
     1024
 91
        1
280
     0
281
     0
  0
CLASS
  1
ACAMGHOLECHARTSTDDIN
  2
AcAmgHoleChartStdDIN
  3
AmgDim|Product Description: AutoCAD Mechanical|Company: Autodesk, Inc.
 90
     1024
 91
        1
280
     0
281
     0
  0
CLASS
  1
ACAMGTITLESTD
  2
AcAmgTitleStd
  3
"AmgTitle|Product Description: AutoCAD Mechanical|Company: Autodesk, Inc."
 90
     1024
 91
        1
280
     0
281
     0
  0
CLASS
  1
ACAMGFILTERDAT
  2
AcAmgFilterDat
  3
"AcadM|Product Description: AutoCAD Mechanical|Company: Autodesk, Inc."
 90
     1024
 91
        6
280
     0
281
     0
  0
CLASS
  1
LAYER_INDEX
  2
AcDbLayerIndex
  3
ObjectDBX Classes
 90
        0
 91
        0
280
     0
281
     0
  0
CLASS
  1
IDBUFFER
  2
AcDbIdBuffer
  3
ObjectDBX Classes
 90
        0
 91
        0
280
     0
281
     0
  0
CLASS
  1
TABLESTYLE
  2
AcDbTableStyle
  3
ObjectDBX Classes
 90
     4095
 91
        1
280
     0
281
     0
  0
CLASS
  1
AM_DRAWING_MGR
  2
AcDmDwgMgr
  3
AcMechDwgViewMgmt
 90
     1024
 91
        0
280
     0
281
     0
  0
CLASS
  1
AM_DWG_DOCUMENT
  2
AcDmDwgDocument
  3
AcMechDwgViewMgmt
 90
     1024
 91
        0
280
     0
281
     0
  0
CLASS
  1
AM_DWG_SHEET
  2
AcDmSheet
  3
AcMechDwgViewMgmt
 90
     1024
 91
        0
280
     0
281
     0
  0
CLASS
  1
AM_VIEWDIMPARMAP
  2
AcDmViewDimParMap
  3
AcMechDwgViewMgmt
 90
     1024
 91
        0
280
     0
281
     0
  0
CLASS
  1
AM_DWGMGR_NAME
  2
AcDmDwgMgrName
  3
AcMechDwgViewMgmt
 90
     1024
 91
        0
280
     0
281
     0
  0
CLASS
  1
AMDTMENUSTATEMGR
  2
AmdtMenuStateMgr
  3
McadcomServices
 90
     1024
 91
        1
280
     0
281
     0
  0
CLASS
  1
AMDTMCOMMENUSTATE
  2
AmdtMcomMenuState
  3
McadcomServices
 90
     1024
 91
        1
280
     0
281
     0
  0
CLASS
  1
MAPIAMMOUDLE
  2
MApiAmModule
  3
MApiAmServices
 90
     1024
 91
        1
280
     0
281
     0
  0
CLASS
  1
AMDTADMENUSTATE
  2
AmdtAdMenuState
  3
DesignerServices
 90
        0
 91
        0
280
     0
281
     0
  0
CLASS
  1
ADAPPL
  2
AcAdAppl
  3
DesignerAssemblies
 90
     1024
 91
        0
280
     0
281
     0
  0
CLASS
  1
DEPMGR
  2
AcAdDepMgr
  3
DesignerAssemblies
 90
     1024
 91
        0
280
     0
281
     0
  0
CLASS
  1
PARAMMGR
  2
AcAdParamMgr
  3
DesignerAssemblies
 90
     1024
 91
        0
280
     0
281
     0
  0
CLASS
  1
PARAMSCOPE
  2
AcAdParamScope
  3
DesignerAssemblies
 90
     1024
 91
        0
280
     0
281
     0
  0
CLASS
  1
NAMEDAPPL
  2
AcAdNamedAppl
  3
DesignerAssemblies
 90
     1024
 91
        0
280
     0
281
     0
  0
CLASS
  1
AMDTDMMENUSTATE
  2
AmdtDmMenuState
  3
AcMechDwgViewMgmt
 90
        0
 91
        0
280
     0
281
     0
  0
CLASS
  1
AMDTAMMENUSTATE
  2
AmdtAmMenuState
  3
DesignerAssemblies
 90
     1024
 91
        1
280
     0
281
     0
  0
CLASS
  1
ACAMPROJECT
  2
AcAmProject
  3
DesignerAssemblies
 90
     1024
 91
        1
280
     0
281
     0
  0
CLASS
  1
ACAMGRCOMPDEF
  2
AcAmGrCompDef
  3
DesignerAssemblies
 90
     1024
 91
        1
280
     0
281
     0
  0
CLASS
  1
ACCMCONTEXT
  2
AcCmContext
  3
DesignerAssemblies
 90
     1024
 91
        0
280
     0
281
     0
  0
CLASS
  1
ACAMCOMPDEF
  2
AcAmCompDef
  3
DesignerAssemblies
 90
     1024
 91
        1
280
     0
281
     0
  0
CLASS
  1
ACAMCOMPDEFMGR
  2
AcAmCompDefMgr
  3
DesignerAssemblies
 90
     1024
 91
        1
280
     0
281
     0
  0
CLASS
  1
AMCONTEXTMGR
  2
AcAmContextMgr
  3
DesignerAssemblies
 90
     1024
 91
        1
280
     0
281
     0
  0
CLASS
  1
ACAMCONTEXTMODELER
  2
AcAmContextModeler
  3
DesignerAssemblies
 90
     1024
 91
        1
280
     0
281
     0
  0
CLASS
  1
ACRFATTGENMGR
  2
AcRfAttGeneralMgr
  3
AcAttribServices
 90
     1024
 91
        0
280
     0
281
     0
  0
CLASS
  1
ACRFOBJATTMGR
  2
AcRfObjAttGroupMgr
  3
AcAttribServices
 90
     1024
 91
        0
280
     0
281
     0
  0
CLASS
  1
ACRFMCADAPIATTHOLDER
  2
AcRfMCADAPIAttHolder
  3
AcAttribServices
 90
     1024
 91
        0
280
     0
281
     0
  0
CLASS
  1
AMDTSYSATTR
  2
AmdtSystemAttribute
  3
AcAttribServices
 90
     1024
 91
        0
280
     0
281
     0
  0
CLASS
  1
ACMTHREADLINESTANDARDDIN
  2
AmdtThreadLineStdDIN
  3
"Amdt_StdImp|Product Description: AutoCAD Mechanical|Company: Autodesk, Inc."
 90
     1024
 91
        1
280
     0
281
     0
  0
CLASS
  1
CATALOGSTATE
  2
AcAmCatalogState
  3
DesignerAssemblies
 90
     1024
 91
        0
280
     0
281
     0
  0
CLASS
  1
ACAMGRCOMPDEFSET
  2
AcAmGrCompDefSet
  3
DesignerAssemblies
 90
     1024
 91
        1
280
     0
281
     0
  0
CLASS
  1
AMDTBROWSERDBTAB
  2
AmdtBrowserDbTab
  3
McadcomServices
 90
     1024
 91
        1
280
     0
281
     0
  0
CLASS
  1
CBROWSERAPPOBJECT
  2
CBrowserAppObject
  3
McadcomServices
 90
     1024
 91
        2
280
     0
281
     0
  0
CLASS
  1
DM_PLACEHOLDER
  2
AcDmSelsetPlaceholder
  3
McadcomServices
 90
     1024
 91
        1
280
     0
281
     0
  0
CLASS
  1
SORTENTSTABLE
  2
AcDbSortentsTable
  3
ObjectDBX Classes
 90
        0
 91
        1
280
     0
281
     0
  0
CLASS
  1
ACMSTANDARDANSI
  2
AcmStandardANSI
  3
"Amdt_StdImp|Product Description: AutoCAD Mechanical|Company: Autodesk, Inc."
 90
     1024
 91
        0
280
     0
281
     0
  0
CLASS
  1
ACMSURFSTANDARDANSI
  2
AcmSurfTextStdANSI
  3
"Amdt_StdImp|Product Description: AutoCAD Mechanical|Company: Autodesk, Inc."
 90
     1024
 91
        0
280
     0
281
     0
  0
CLASS
  1
ACMFCFSTANDARDANSI
  2
AcmFCFStdANSI
  3
"Amdt_StdImp|Product Description: AutoCAD Mechanical|Company: Autodesk, Inc."
 90
     1024
 91
        0
280
     0
281
     0
  0
CLASS
  1
ACMWELDSTANDARDANSI
  2
AcmWeldingStdANSI
  3
"Amdt_StdImp|Product Description: AutoCAD Mechanical|Company: Autodesk, Inc."
 90
     1024
 91
        0
280
     0
281
     0
  0
CLASS
  1
ACMIDSTANDARDANSI
  2
AcmIdStdANSI
  3
"Amdt_StdImp|Product Description: AutoCAD Mechanical|Company: Autodesk, Inc."
 90
     1024
 91
        0
280
     0
281
     0
  0
CLASS
  1
ACMDATUMSTANDARDANSI
  2
AcmDatumStdANSI
  3
"Amdt_StdImp|Product Description: AutoCAD Mechanical|Company: Autodesk, Inc."
 90
     1024
 91
        0
280
     0
281
     0
  0
CLASS
  1
ACMBOMSTANDARDANSI
  2
AcmBOMStdANSI
  3
"Amdt_StdImp|Product Description: AutoCAD Mechanical|Company: Autodesk, Inc."
 90
     1024
 91
        0
280
     0
281
     0
  0
CLASS
  1
ACMDETAILSTANDARDANSI
  2
AmdtDetailSymStdANSI
  3
"Amdt_StdImp|Product Description: AutoCAD Mechanical|Company: Autodesk, Inc."
 90
     1024
 91
        0
280
     0
281
     0
  0
CLASS
  1
ACMSECTIONSTANDARDANSI
  2
AmdtSectionSymStdANSI
  3
"Amdt_StdImp|Product Description: AutoCAD Mechanical|Company: Autodesk, Inc."
 90
     1024
 91
        0
280
     0
281
     0
  0
CLASS
  1
ACMCENTERLINESTANDARDANSI
  2
AmdtCenterLineStdANSI
  3
"Amdt_StdImp|Product Description: AutoCAD Mechanical|Company: Autodesk, Inc."
 90
     1024
 91
        0
280
     0
281
     0
  0
CLASS
  1
ACMNOTESTANDARDANSI
  2
AmdtNoteStdANSI
  3
"Amdt_StdImp|Product Description: AutoCAD Mechanical|Company: Autodesk, Inc."
 90
     1024
 91
        0
280
     0
281
     0
  0
CLASS
  1
ACAMGHOLECHARTSTDANSI
  2
AcAmgHoleChartStdANSI
  3
AmgDim|Product Description: AutoCAD Mechanical|Company: Autodesk, Inc.
 90
     1024
 91
        0
280
     0
281
     0
  0
CLASS
  1
ACMTHREADLINESTANDARDANSI
  2
AmdtThreadLineStdANSI
  3
"Amdt_StdImp|Product Description: AutoCAD Mechanical|Company: Autodesk, Inc."
 90
     1024
 91
        0
280
     0
281
     0
  0
CLASS
  1
MATERIAL
  2
AcDbMaterial
  3
ObjectDBX Classes
 90
     1153
 91
        3
280
     0
281
     0
  0
CLASS
  1
VISUALSTYLE
  2
AcDbVisualStyle
  3
ObjectDBX Classes
 90
     4095
 91
       24
280
     0
281
     0
  0
CLASS
  1
SCALE
  2
AcDbScale
  3
ObjectDBX Classes
 90
     1153
 91
       17
280
     0
281
     0
  0
CLASS
  1
MLEADERSTYLE
  2
AcDbMLeaderStyle
  3
ACDB_MLEADERSTYLE_CLASS
 90
     4095
 91
        1
280
     0
281
     0
  0
CLASS
  1
ACDBSECTIONVIEWSTYLE
  2
AcDbSectionViewStyle
  3
ObjectDBX Classes
 90
     1025
 91
        2
280
     0
281
     0
  0
CLASS
  1
ACDBDETAILVIEWSTYLE
  2
AcDbDetailViewStyle
  3
ObjectDBX Classes
 90
     1025
 91
        2
280
     0
281
     0
  0
CLASS
  1
AMDTEDGESTANDARDDIN13715
  2
AmdtEdgeStdDIN13715
  3
"Amdt_StdImp|Product Description: AutoCAD Mechanical|Company: Autodesk, Inc."
 90
     1024
 91
        1
280
     0
281
     0
  0
CLASS
  1
ACMSURFSTANDARDDIN2002
  2
AcmSurfTextStdDIN2002
  3
"Amdt_StdImp|Product Description: AutoCAD Mechanical|Company: Autodesk, Inc."
 90
     1024
 91
        1
280
     0
281
     0
  0
CLASS
  1
ACMFCFSTANDARDDIN2008
  2
AcmFCFStdDIN2008
  3
"Amdt_StdImp|Product Description: AutoCAD Mechanical|Company: Autodesk, Inc."
 90
     1024
 91
        1
280
     0
281
     0
  0
CLASS
  1
ACMIDSTANDARDDIN2008
  2
AcmIdStdDIN2008
  3
"Amdt_StdImp|Product Description: AutoCAD Mechanical|Company: Autodesk, Inc."
 90
     1024
 91
        1
280
     0
281
     0
  0
CLASS
  1
ACMTAPERSTANDARDDIN
  2
AcmTaperStdDIN
  3
"Amdt_StdImp|Product Description: AutoCAD Mechanical|Company: Autodesk, Inc."
 90
     1024
 91
        1
280
     0
281
     0
  0
CLASS
  1
ACMANOOTATIONVIEWSTANDARDDIN
  2
AmdtAnViewStdDIN
  3
"Amdt_StdImp|Product Description: AutoCAD Mechanical|Company: Autodesk, Inc."
 90
     1024
 91
        1
280
     0
281
     0
  0
CLASS
  1
ACMSECTIONSTANDARDCUSTOM
  2
AmdtSectionSymStdCustom
  3
"Amdt_StdImp|Product Description: AutoCAD Mechanical|Company: Autodesk, Inc."
 90
     1024
 91
        1
280
     0
281
     0
  0
CLASS
  1
ACMDETAILTANDARDCUSTOM
  2
AmdtDetailSymStdCustom
  3
"Amdt_StdImp|Product Description: AutoCAD Mechanical|Company: Autodesk, Inc."
 90
     1024
 91
        1
280
     0
281
     0
  0
CLASS
  1
FIELD
  2
AcDbField
  3
ObjectDBX Classes
 90
     1152
 91
        6
280
     0
281
     0
  0
CLASS
  1
FIELDLIST
  2
AcDbFieldList
  3
ObjectDBX Classes
 90
     1152
 91
        1
280
     0
281
     0
  0
CLASS
  1
AMDTNOTETEMPLATEDB
  2
AmdtNoteTemplateDB
  3
AcmSymBB|Product Description: AutoCAD Mechanical|Company: Autodesk, Inc.
 90
     1024
 91
        7
280
     0
281
     0
  0
CLASS
  1
CELLSTYLEMAP
  2
AcDbCellStyleMap
  3
ObjectDBX Classes
 90
     1152
 91
        1
280
     0
281
     0
  0
ENDSEC
  0
SECTION
  2
TABLES
  0
TABLE
  2
VPORT
  5
20
330
0
100
AcDbSymbolTable
 70
     1
  0
VPORT
  5
21
330
20
100
AcDbSymbolTableRecord
100
AcDbViewportTableRecord
  2
*Active
 70
     0
 10
0.0
 20
0.0
 11
1.0
 21
1.0
 12
3336.302278896267
 22
261.1065831894293
 13
0.0
 23
0.0
 14
10.0
 24
10.0
 15
20.0
 25
20.0
 16
0.0
 26
0.0
 36
1.0
 17
0.0
 27
0.0
 37
0.0
 40
185.859397194361
 41
1.989317995069844
 42
50.0
 43
0.0
 44
0.0
 50
0.0
 51
0.0
 71
     0
 72
  5000
 73
     1
 74
     0
 75
     0
 76
     0
 77
     0
 78
     0
281
     0
 65
     0
110
0.0
120
0.0
130
0.0
111
1.0
121
0.0
131
0.0
112
0.0
122
1.0
132
0.0
 79
     0
146
0.0
348
315
 60
     3
 61
     5
292
     1
282
     1
141
0.0
142
0.0
 63
   250
421
  3355443
1001
ACAD_NAV_VCDISPLAY
1070
     3
  0
ENDTAB
  0
TABLE
  2
LTYPE
  5
1B
330
0
100
AcDbSymbolTable
 70
    15
  0
LTYPE
  5
1C
330
1B
100
AcDbSymbolTableRecord
100
AcDbLinetypeTableRecord
  2
BYBLOCK
 70
     0
  3

 72
    65
 73
     0
 40
0.0
  0
LTYPE
  5
1D
330
1B
100
AcDbSymbolTableRecord
100
AcDbLinetypeTableRecord
  2
BYLAYER
 70
     0
  3

 72
    65
 73
     0
 40
0.0
  0
LTYPE
  5
A
330
1B
100
AcDbSymbolTableRecord
100
AcDbLinetypeTableRecord
  2
CONTINUOUS
 70
     0
  3
Solid line
 72
    65
 73
     0
 40
0.0
  0
LTYPE
  5
B4
330
1B
100
AcDbSymbolTableRecord
100
AcDbLinetypeTableRecord
  2
STRICHPUNKT2
 70
     0
  3
Strichpunkt (.5x) _._._._._._._._._._._._._._._
 72
    65
 73
     4
 40
12.7
 49
6.349999999999998
 74
     0
 49
-3.174999999999998
 74
     0
 49
0.0
 74
     0
 49
-3.174999999999998
 74
     0
  0
LTYPE
  5
2A6
330
1B
100
AcDbSymbolTableRecord
100
AcDbLinetypeTableRecord
  2
AM_ISO02W050
 70
     0
  3
__ __ __ __ __ __ __ __ __ __ __ __ __ __ __
 72
    65
 73
     2
 40
7.5
 49
6.0
 74
     0
 49
-1.5
 74
     0
  0
LTYPE
  5
2B8
330
1B
100
AcDbSymbolTableRecord
100
AcDbLinetypeTableRecord
  2
ACDINWELD
 70
     0
  3
_ _ _ _ _
 72
    65
 73
     2
 40
2.0
 49
2.0
 74
     0
 49
-1.0
 74
     0
  0
LTYPE
  5
2BB
330
1B
100
AcDbSymbolTableRecord
100
AcDbLinetypeTableRecord
  2
ACDINTGB
 70
     0
  3
__ . . __ . .
 72
    65
 73
     6
 40
9.0
 49
4.0
 74
     0
 49
-1.0
 74
     0
 49
1.0
 74
     0
 49
-1.0
 74
     0
 49
1.0
 74
     0
 49
-1.0
 74
     0
  0
LTYPE
  5
2BC
330
1B
100
AcDbSymbolTableRecord
100
AcDbLinetypeTableRecord
  2
ACDINTGL
 70
     0
  3
_ _ _ _ _
 72
    65
 73
     2
 40
3.0
 49
2.0
 74
     0
 49
-1.0
 74
     0
  0
LTYPE
  5
2C0
330
1B
100
AcDbSymbolTableRecord
100
AcDbLinetypeTableRecord
  2
CENTER
 70
     0
  3
__ . __
 72
    65
 73
     4
 40
7.0
 49
4.0
 74
     0
 49
-1.0
 74
     0
 49
1.0
 74
     0
 49
-1.0
 74
     0
  0
LTYPE
  5
2A1
330
1B
100
AcDbSymbolTableRecord
100
AcDbLinetypeTableRecord
  2
gen3
 70
     0
  3
-- -- -- -- -- -- -- -- -- -- -- -- -- -- --
 72
    65
 73
     2
 40
6.25
 49
4.75
 74
     0
 49
-1.5
 74
     0
  0
LTYPE
  5
2A2
330
1B
100
AcDbSymbolTableRecord
100
AcDbLinetypeTableRecord
  2
gen7
 70
     0
  3
____ . ____ . ____ . ____ . ____ . ____ . ____
 72
    65
 73
     4
 40
13.75
 49
9.75
 74
     0
 49
-1.5
 74
     0
 49
1.0
 74
     0
 49
-1.5
 74
     0
  0
LTYPE
  5
2A3
330
1B
100
AcDbSymbolTableRecord
100
AcDbLinetypeTableRecord
  2
gen3a
 70
     0
  3
 - - - - -
 72
    65
 73
     2
 40
3.125
 49
2.25
 74
     0
 49
-0.875
 74
     0
  0
LTYPE
  5
2A4
330
1B
100
AcDbSymbolTableRecord
100
AcDbLinetypeTableRecord
  2
gen7a
 70
     0
  3
__ . __ . __
 72
    65
 73
     4
 40
6.875
 49
4.75
 74
     0
 49
-0.875
 74
     0
 49
0.375
 74
     0
 49
-0.875
 74
     0
  0
LTYPE
  5
2A5
330
1B
100
AcDbSymbolTableRecord
100
AcDbLinetypeTableRecord
  2
gen4a
 70
     0
  3
_____ . . _____ . . _____ . . ____ .. ____
 72
    65
 73
     6
 40
16.25
 49
9.75
 74
     0
 49
-1.5
 74
     0
 49
1.0
 74
     0
 49
-1.5
 74
     0
 49
1.0
 74
     0
 49
-1.5
 74
     0
  0
LTYPE
  5
2A7
330
1B
100
AcDbSymbolTableRecord
100
AcDbLinetypeTableRecord
  2
genzigzag
 70
     0
  3
/\/-/\/-/\/-/\/-/\/-/\/
 72
    65
 73
     2
 40
12.0001
 49
0.0001
 74
     4
 75
   135
340
2A8
 46
2.0
 50
0.0
 44
0.0
 45
0.0
 49
-12.0
 74
     0
  0
LTYPE
  5
2EE
330
1B
100
AcDbSymbolTableRecord
100
AcDbLinetypeTableRecord
  2
HIDDEN
 70
     0
  3
Verdeckt
 72
    65
 73
     2
 40
9.525
 49
6.349999999999998
 74
     0
 49
-3.174999999999998
 74
     0
  0
LTYPE
  5
2EF
330
1B
100
AcDbSymbolTableRecord
100
AcDbLinetypeTableRecord
  2
PHANTOM2
 70
     0
  3
Phantom (.5x) ___ _ _ ___ _ _ ___ _ _ ___ _ _
 72
    65
 73
     6
 40
31.75
 49
15.875
 74
     0
 49
-3.174999999999998
 74
     0
 49
3.174999999999998
 74
     0
 49
-3.174999999999998
 74
     0
 49
3.174999999999998
 74
     0
 49
-3.174999999999998
 74
     0
  0
ENDTAB
  0
TABLE
  2
LAYER
  5
12
102
{ACAD_XDICTIONARY
360
13
102
}
330
0
100
AcDbSymbolTable
 70
     9
  0
LAYER
  5
6
102
{ACAD_XDICTIONARY
360
41C
102
}
330
12
100
AcDbSymbolTableRecord
100
AcDbLayerTableRecord
  2
0
 70
     0
 62
     7
  6
CONTINUOUS
370
    -3
390
7
347
307
348
0
  0
LAYER
  5
D9
102
{ACAD_XDICTIONARY
360
41E
102
}
330
12
100
AcDbSymbolTableRecord
100
AcDbLayerTableRecord
  2
UMRISS03
 70
     0
 62
     3
  6
CONTINUOUS
370
    -3
390
7
347
307
348
0
  0
LAYER
  5
68
102
{ACAD_XDICTIONARY
360
420
102
}
330
12
100
AcDbSymbolTableRecord
100
AcDbLayerTableRecord
  2
UMRISS05
 70
     0
 62
     4
  6
CONTINUOUS
370
    -3
390
7
347
307
348
0
  0
LAYER
  5
35
102
{ACAD_XDICTIONARY
360
422
102
}
330
12
100
AcDbSymbolTableRecord
100
AcDbLayerTableRecord
  2
UMRISS07
 70
     0
 62
     6
  6
CONTINUOUS
370
    -3
390
7
347
307
348
0
  0
LAYER
  5
1DF
102
{ACAD_XDICTIONARY
360
424
102
}
330
12
100
AcDbSymbolTableRecord
100
AcDbLayerTableRecord
  2
UMRISS10
 70
     0
 62
     7
  6
CONTINUOUS
370
    -3
390
7
347
307
348
0
  0
LAYER
  5
39
102
{ACAD_XDICTIONARY
360
426
102
}
330
12
100
AcDbSymbolTableRecord
100
AcDbLayerTableRecord
  2
BEMASSUNG
 70
     0
 62
     2
  6
CONTINUOUS
370
    -3
390
7
347
307
348
0
  0
LAYER
  5
B3
102
{ACAD_XDICTIONARY
360
428
102
}
330
12
100
AcDbSymbolTableRecord
100
AcDbLayerTableRecord
  2
ACHSEN
 70
     0
 62
     1
  6
STRICHPUNKT2
370
    -3
390
7
347
307
348
0
  0
LAYER
  5
45
330
12
100
AcDbSymbolTableRecord
100
AcDbLayerTableRecord
  2
DEFPOINTS
 70
     0
 62
     7
  6
CONTINUOUS
290
     0
370
    -3
390
7
347
307
348
0
  0
LAYER
  5
3B1
102
{ACAD_XDICTIONARY
360
42A
102
}
330
12
100
AcDbSymbolTableRecord
100
AcDbLayerTableRecord
  2
AM_5
 70
     0
 62
     3
  6
CONTINUOUS
370
    25
390
7
347
307
348
0
1001
AcAecLayerStandard
1000

1000

  0
ENDTAB
  0
TABLE
  2
STYLE
  5
18
330
0
100
AcDbSymbolTable
 70
     7
  0
STYLE
  5
19
330
18
100
AcDbSymbolTableRecord
100
AcDbTextStyleTableRecord
  2
STANDARD
 70
     0
 40
0.0
 41
1.0
 50
0.0
 71
     0
 42
10.0
  3
txt
  4

  0
STYLE
  5
25
330
18
100
AcDbSymbolTableRecord
100
AcDbTextStyleTableRecord
  2
ARIAL-STANDARD
 70
     0
 40
0.0
 41
1.0
 50
0.0
 71
     0
 42
20.0
  3
ARIAL.TTF
  4

1001
ACAD
1000
Arial
1071
       34
  0
STYLE
  5
2D
330
18
100
AcDbSymbolTableRecord
100
AcDbTextStyleTableRecord
  2
NORM
 70
     0
 40
0.0
 41
1.0
 50
0.0
 71
     0
 42
2.399999999999999
  3
SIMPLEX
  4

  0
STYLE
  5
2B
330
18
100
AcDbSymbolTableRecord
100
AcDbTextStyleTableRecord
  2
WMF
 70
     0
 40
6.5
 41
1.0
 50
0.0
 71
     0
 42
6.5
  3
ARIAL.TTF
  4

1001
ACAD
1000
Arial
1071
       34
  0
STYLE
  5
2B2
330
18
100
AcDbSymbolTableRecord
100
AcDbTextStyleTableRecord
  2
ACDINTS
 70
     0
 40
1.0
 41
1.0
 50
0.0
 71
     0
 42
20.0
  3
isocp.shx
  4

  0
STYLE
  5
2B6
330
18
100
AcDbSymbolTableRecord
100
AcDbTextStyleTableRecord
  2
ACDINGDT
 70
     0
 40
0.0
 41
1.0
 50
0.0
 71
     0
 42
20.0
  3
amgdt.shx
  4

  0
STYLE
  5
2A8
330
18
100
AcDbSymbolTableRecord
100
AcDbTextStyleTableRecord
  2

 70
     1
 40
0.0
 41
1.0
 50
0.0
 71
     0
 42
20.0
  3
genltshp.shx
  4

  0
ENDTAB
  0
TABLE
  2
VIEW
  5
1E
330
0
100
AcDbSymbolTable
 70
     0
  0
ENDTAB
  0
TABLE
  2
UCS
  5
1F
330
0
100
AcDbSymbolTable
 70
     0
  0
ENDTAB
  0
TABLE
  2
APPID
  5
22
330
0
100
AcDbSymbolTable
 70
    15
  0
APPID
  5
17
330
22
100
AcDbSymbolTableRecord
100
AcDbRegAppTableRecord
  2
ACAD
 70
     0
  0
APPID
  5
28
330
22
100
AcDbSymbolTableRecord
100
AcDbRegAppTableRecord
  2
ACAD_DSTYLE_DIMARC_LENGTH_SYMBOL
 70
     0
  0
APPID
  5
29
330
22
100
AcDbSymbolTableRecord
100
AcDbRegAppTableRecord
  2
ACAD_DSTYLE_DIMJOGGED_JOGANGLE_SYMBOL
 70
     0
  0
APPID
  5
26
330
22
100
AcDbSymbolTableRecord
100
AcDbRegAppTableRecord
  2
ACAD_DSTYLE_DIMEXT_LENGTH
 70
     0
  0
APPID
  5
27
330
22
100
AcDbSymbolTableRecord
100
AcDbRegAppTableRecord
  2
ACAD_DSTYLE_DIMEXT_ENABLED
 70
     0
  0
APPID
  5
34B
330
22
100
AcDbSymbolTableRecord
100
AcDbRegAppTableRecord
  2
MCAD_NO_VIS
 70
     0
  0
APPID
  5
34C
330
22
100
AcDbSymbolTableRecord
100
AcDbRegAppTableRecord
  2
ACAD_TEMP_GRAPHIC
 70
     0
  0
APPID
  5
356
330
22
100
AcDbSymbolTableRecord
100
AcDbRegAppTableRecord
  2
ACATTRIBSERVICES
 70
     0
  0
APPID
  5
36E
330
22
100
AcDbSymbolTableRecord
100
AcDbRegAppTableRecord
  2
DESIGNERASSEMBLIES
 70
     0
  0
APPID
  5
387
330
22
100
AcDbSymbolTableRecord
100
AcDbRegAppTableRecord
  2
ACAD_DSTYLE_DIMJAG
 70
     0
  0
APPID
  5
388
330
22
100
AcDbSymbolTableRecord
100
AcDbRegAppTableRecord
  2
ACAD_DSTYLE_DIMBREAK
 70
     0
  0
APPID
  5
3B0
330
22
100
AcDbSymbolTableRecord
100
AcDbRegAppTableRecord
  2
ACAD_NAV_VCDISPLAY
 70
     0
  0
APPID
  5
3B2
330
22
100
AcDbSymbolTableRecord
100
AcDbRegAppTableRecord
  2
AcAecLayerStandard
 70
     0
  0
APPID
  5
3D8
330
22
100
AcDbSymbolTableRecord
100
AcDbRegAppTableRecord
  2
GENIUS_GENDTOL_13
 70
     0
  0
APPID
  5
3D9
330
22
100
AcDbSymbolTableRecord
100
AcDbRegAppTableRecord
  2
ACAD_DSTYLE_DIMINSPECT
 70
     0
  0
ENDTAB
  0
TABLE
  2
DIMSTYLE
  5
23
330
0
100
AcDbSymbolTable
 70
    11
100
AcDbDimStyleTable
 71
     4
340
24
340
386
340
2A
340
2C
  0
DIMSTYLE
105
24
102
{ACAD_REACTORS
330
69
330
261
330
38
330
49
330
58
330
C5
330
130
330
146
330
1C0
330
20C
330
23A
330
1EB
330
1FA
330
252
330
277
330
77
330
18A
330
290
330
173
330
153
330
1A2
330
1AF
330
B6
330
3BE
102
}
330
23
100
AcDbSymbolTableRecord
100
AcDbDimStyleTableRecord
  2
NORMAL
 70
     0
 40
1.7
 41
3.5
 42
0.0
 43
0.0
 44
1.0
 50
89.99999999999998
 73
     0
 74
     0
 77
     1
 78
     8
140
3.5
141
1.5
147
1.0
172
     1
176
   256
177
   256
178
     3
271
     2
272
     2
284
     8
340
25
1001
ACAD_DSTYLE_DIMJOGGED_JOGANGLE_SYMBOL
1070
   384
1040
1.570796326794896
  0
DIMSTYLE
105
2A
330
23
100
AcDbSymbolTableRecord
100
AcDbDimStyleTableRecord
  2
WMF
 70
     0
 40
1.9
 41
2.799999999999998
 42
1.0
 43
0.0
 44
1.0
 50
89.99999999999998
 73
     0
 74
     0
 77
     1
 78
     8
140
3.5
141
1.5
146
0.5
147
1.0
172
     1
174
     1
176
     7
177
     7
178
     7
271
     2
272
     2
284
     8
285
     8
286
     8
340
2B
1001
ACAD_DSTYLE_DIMJOGGED_JOGANGLE_SYMBOL
1070
   384
1040
1.570796326794896
  0
DIMSTYLE
105
2C
330
23
100
AcDbSymbolTableRecord
100
AcDbDimStyleTableRecord
  2
PROSPEKT3-7N
 70
     0
 40
2.1
 41
3.5
 42
0.0
 43
8.0
 44
1.0
 73
     0
 74
     0
 77
     1
 78
     8
140
3.5
141
1.5
143
25.39999999999999
146
0.4285714285714287
147
1.0
172
     1
174
     1
176
     2
177
     2
178
     3
271
     2
272
     2
279
     2
284
     8
285
     8
286
     8
340
2D
  0
DIMSTYLE
105
386
102
{ACAD_REACTORS
330
375
102
}
330
23
100
AcDbSymbolTableRecord
100
AcDbDimStyleTableRecord
  2
AM_DIN
 70
     0
  4
"
 41
3.5
 42
1.0
 43
10.0
 44
1.0
 47
0.1
 48
0.1
 50
90.0
 73
     0
 74
     0
 77
     1
 78
     8
 79
     2
140
3.5
141
0.0
143
0.0393701
146
0.71
147
1.5
172
     1
176
   256
177
   256
178
     2
271
     2
272
     3
274
     4
283
     0
284
     8
340
19
345
1C
346
1C
347
1C
371
    -1
372
    -1
1001
ACAD_DSTYLE_DIMJAG
1070
   388
1040
1.5
1001
ACAD_DSTYLE_DIMBREAK
1070
   391
1040
3.75
  0
DIMSTYLE
105
38A
330
23
100
AcDbSymbolTableRecord
100
AcDbDimStyleTableRecord
  2
AM_DIN$3
 70
     0
  4
"
 41
3.5
 42
1.0
 43
10.0
 44
1.0
 47
0.1
 48
0.1
 50
90.0
 73
     0
 77
     1
 78
     8
 79
     2
140
3.5
141
0.0
143
0.0393701
146
0.71
147
1.5
176
   256
177
   256
178
     2
271
     2
272
     3
274
     4
283
     0
284
     8
288
     1
289
     0
340
19
345
1C
346
1C
347
1C
371
    -1
372
    -1
1001
ACAD_DSTYLE_DIMBREAK
1070
   391
1040
3.75
1001
ACAD_DSTYLE_DIMJAG
1070
   388
1040
1.5
  0
DIMSTYLE
105
38B
330
23
100
AcDbSymbolTableRecord
100
AcDbDimStyleTableRecord
  2
AM_DIN$4
 70
     0
  4
"
 41
3.5
 42
1.0
 43
10.0
 44
1.0
 47
0.1
 48
0.1
 50
90.0
 73
     0
 74
     0
 77
     1
 78
     8
 79
     2
140
3.5
141
0.0
143
0.0393701
146
0.71
147
1.5
172
     1
176
   256
177
   256
178
     2
271
     2
272
     3
274
     4
283
     0
284
     8
340
19
345
1C
346
1C
347
1C
371
    -1
372
    -1
1001
ACAD_DSTYLE_DIMBREAK
1070
   391
1040
3.75
1001
ACAD_DSTYLE_DIMJAG
1070
   388
1040
1.5
  0
DIMSTYLE
105
38C
330
23
100
AcDbSymbolTableRecord
100
AcDbDimStyleTableRecord
  2
AM_DIN$6
 70
     0
  4
"
 41
3.5
 42
1.0
 43
10.0
 44
1.0
 47
0.1
 48
0.1
 50
90.0
 73
     0
 74
     0
 78
     8
 79
     2
140
3.5
141
0.0
143
0.0393701
146
0.71
147
1.5
172
     1
176
   256
177
   256
178
     2
271
     2
272
     3
274
     4
283
     0
284
     8
340
19
345
1C
346
1C
347
1C
371
    -1
372
    -1
1001
ACAD_DSTYLE_DIMBREAK
1070
   391
1040
3.75
1001
ACAD_DSTYLE_DIMJAG
1070
   388
1040
1.5
  0
DIMSTYLE
105
38D
330
23
100
AcDbSymbolTableRecord
100
AcDbDimStyleTableRecord
  2
AM_DIN$7
 70
     0
  4
"
 41
3.5
 42
1.0
 43
10.0
 44
1.0
 47
0.1
 48
0.1
 50
90.0
 73
     0
 74
     0
 77
     1
 78
     8
 79
     2
140
3.5
141
0.0
143
0.0393701
146
0.71
147
1.5
172
     1
176
   256
177
   256
178
     2
271
     2
272
     3
274
     4
283
     0
284
     8
340
19
345
1C
346
1C
347
1C
371
    -1
372
    -1
1001
ACAD_DSTYLE_DIMBREAK
1070
   391
1040
3.75
1001
ACAD_DSTYLE_DIMJAG
1070
   388
1040
1.5
  0
DIMSTYLE
105
38E
330
23
100
AcDbSymbolTableRecord
100
AcDbDimStyleTableRecord
  2
AM_DIN$SF
 70
     0
  4
"
 41
3.5
 42
1.0
 43
10.0
 44
1.0
 47
0.1
 48
0.1
 50
90.0
 73
     0
 74
     0
 75
     1
 76
     1
 77
     1
 78
     8
 79
     2
140
3.5
141
0.0
143
0.0393701
146
0.71
147
1.5
172
     1
176
   256
177
   256
178
     2
271
     2
272
     3
274
     4
283
     0
284
     8
340
19
345
1C
346
1C
347
1C
371
    -1
372
    -1
1001
ACAD_DSTYLE_DIMBREAK
1070
   391
1040
3.75
1001
ACAD_DSTYLE_DIMJAG
1070
   388
1040
1.5
  0
DIMSTYLE
105
393
330
23
100
AcDbSymbolTableRecord
100
AcDbDimStyleTableRecord
  2
AM_DIN$SH
 70
     0
  4
"
 41
3.5
 42
1.0
 43
10.0
 44
1.0
 47
0.1
 48
0.1
 50
90.0
 73
     0
 74
     0
 75
     1
 76
     1
 77
     1
 78
     8
 79
     2
140
3.5
141
0.0
143
0.0393701
144
2.0
146
0.71
147
1.5
172
     1
173
     1
176
   256
177
   256
178
     2
271
     2
272
     3
274
     4
283
     0
284
     8
340
19
343
38F
345
1C
346
1C
347
1C
371
    -1
372
    -1
1001
ACAD_DSTYLE_DIMBREAK
1070
   391
1040
3.75
1001
ACAD_DSTYLE_DIMJAG
1070
   388
1040
1.5
  0
DIMSTYLE
105
3BC
330
23
100
AcDbSymbolTableRecord
100
AcDbDimStyleTableRecord
  2
AM_DIN$0
 70
     0
  4
"
 41
3.5
 42
1.0
 43
10.0
 44
1.0
 47
0.1
 48
0.1
 50
90.0
 73
     0
 74
     0
 77
     1
 78
     8
 79
     2
140
3.5
141
0.0
143
0.0393701
146
0.71
147
1.5
172
     1
176
   256
177
   256
178
     2
271
     2
272
     3
274
     4
283
     0
284
     8
340
19
345
1C
346
1C
347
1C
371
    -1
372
    -1
1001
ACAD_DSTYLE_DIMBREAK
1070
   391
1040
3.75
1001
ACAD_DSTYLE_DIMJAG
1070
   388
1040
1.5
  0
ENDTAB
  0
TABLE
  2
BLOCK_RECORD
  5
1
330
0
100
AcDbSymbolTable
 70
    27
  0
BLOCK_RECORD
  5
2
102
{ACAD_XDICTIONARY
360
3
102
}
330
1
100
AcDbSymbolTableRecord
100
AcDbBlockTableRecord
  2
*MODEL_SPACE
340
C
 70
     0
280
     1
281
     0
  0
BLOCK_RECORD
  5
E
330
1
100
AcDbSymbolTableRecord
100
AcDbBlockTableRecord
  2
*PAPER_SPACE
340
11
 70
     0
280
     1
281
     0
  0
BLOCK_RECORD
  5
291
330
1
100
AcDbSymbolTableRecord
100
AcDbBlockTableRecord
  2
*D0
340
0
 70
     0
280
     1
281
     0
  0
BLOCK_RECORD
  5
278
330
1
100
AcDbSymbolTableRecord
100
AcDbBlockTableRecord
  2
*D1
340
0
 70
     0
280
     1
281
     0
  0
BLOCK_RECORD
  5
262
330
1
100
AcDbSymbolTableRecord
100
AcDbBlockTableRecord
  2
*D2
340
0
 70
     0
280
     1
281
     0
  0
BLOCK_RECORD
  5
253
330
1
100
AcDbSymbolTableRecord
100
AcDbBlockTableRecord
  2
*D3
340
0
 70
     0
280
     1
281
     0
  0
BLOCK_RECORD
  5
23B
330
1
100
AcDbSymbolTableRecord
100
AcDbBlockTableRecord
  2
*D4
340
0
 70
     0
280
     1
281
     0
  0
BLOCK_RECORD
  5
20D
330
1
100
AcDbSymbolTableRecord
100
AcDbBlockTableRecord
  2
*D5
340
0
 70
     0
280
     1
281
     0
  0
BLOCK_RECORD
  5
1FB
330
1
100
AcDbSymbolTableRecord
100
AcDbBlockTableRecord
  2
*D6
340
0
 70
     0
280
     1
281
     0
  0
BLOCK_RECORD
  5
1EC
330
1
100
AcDbSymbolTableRecord
100
AcDbBlockTableRecord
  2
*D7
340
0
 70
     0
280
     1
281
     0
  0
BLOCK_RECORD
  5
1C1
330
1
100
AcDbSymbolTableRecord
100
AcDbBlockTableRecord
  2
*D8
340
0
 70
     0
280
     1
281
     0
  0
BLOCK_RECORD
  5
1B0
330
1
100
AcDbSymbolTableRecord
100
AcDbBlockTableRecord
  2
*D9
340
0
 70
     0
280
     1
281
     0
  0
BLOCK_RECORD
  5
1A3
330
1
100
AcDbSymbolTableRecord
100
AcDbBlockTableRecord
  2
*D10
340
0
 70
     0
280
     1
281
     0
  0
BLOCK_RECORD
  5
18B
330
1
100
AcDbSymbolTableRecord
100
AcDbBlockTableRecord
  2
*D11
340
0
 70
     0
280
     1
281
     0
  0
BLOCK_RECORD
  5
174
330
1
100
AcDbSymbolTableRecord
100
AcDbBlockTableRecord
  2
*D12
340
0
 70
     0
280
     1
281
     0
  0
BLOCK_RECORD
  5
154
330
1
100
AcDbSymbolTableRecord
100
AcDbBlockTableRecord
  2
*D13
340
0
 70
     0
280
     1
281
     0
  0
BLOCK_RECORD
  5
147
330
1
100
AcDbSymbolTableRecord
100
AcDbBlockTableRecord
  2
*D14
340
0
 70
     0
280
     1
281
     0
  0
BLOCK_RECORD
  5
131
330
1
100
AcDbSymbolTableRecord
100
AcDbBlockTableRecord
  2
*D15
340
0
 70
     0
280
     1
281
     0
  0
BLOCK_RECORD
  5
C6
330
1
100
AcDbSymbolTableRecord
100
AcDbBlockTableRecord
  2
*D16
340
0
 70
     0
280
     1
281
     0
  0
BLOCK_RECORD
  5
B7
330
1
100
AcDbSymbolTableRecord
100
AcDbBlockTableRecord
  2
*D17
340
0
 70
     0
280
     1
281
     0
  0
BLOCK_RECORD
  5
78
330
1
100
AcDbSymbolTableRecord
100
AcDbBlockTableRecord
  2
*D18
340
0
 70
     0
280
     1
281
     0
  0
BLOCK_RECORD
  5
6A
330
1
100
AcDbSymbolTableRecord
100
AcDbBlockTableRecord
  2
*D19
340
0
 70
     0
280
     1
281
     0
  0
BLOCK_RECORD
  5
59
330
1
100
AcDbSymbolTableRecord
100
AcDbBlockTableRecord
  2
*D20
340
0
 70
     0
280
     1
281
     0
  0
BLOCK_RECORD
  5
4A
330
1
100
AcDbSymbolTableRecord
100
AcDbBlockTableRecord
  2
*D21
340
0
 70
     0
280
     1
281
     0
  0
BLOCK_RECORD
  5
3A
330
1
100
AcDbSymbolTableRecord
100
AcDbBlockTableRecord
  2
*D22
340
0
 70
     0
280
     1
281
     0
  0
BLOCK_RECORD
  5
38F
330
1
100
AcDbSymbolTableRecord
100
AcDbBlockTableRecord
  2
GENAXEH
340
0
 70
     0
280
     1
281
     0
  0
BLOCK_RECORD
  5
3A0
330
1
100
AcDbSymbolTableRecord
100
AcDbBlockTableRecord
  2
_ACMFILLED30
340
0
 70
     0
280
     1
281
     0
  0
BLOCK_RECORD
  5
3BF
330
1
100
AcDbSymbolTableRecord
100
AcDbBlockTableRecord
  2
*D26
340
0
 70
     0
280
     1
281
     0
  0
ENDTAB
  0
ENDSEC
  0
SECTION
  2
BLOCKS
  0
BLOCK
  5
5
330
2
100
AcDbEntity
  8
0
100
AcDbBlockBegin
  2
*MODEL_SPACE
 70
     0
 10
0.0
 20
0.0
 30
0.0
  3
*MODEL_SPACE
  1

  0
ENDBLK
  5
B
330
2
100
AcDbEntity
  8
0
100
AcDbBlockEnd
  0
BLOCK
  5
F
330
E
100
AcDbEntity
 67
     1
  8
0
100
AcDbBlockBegin
  2
*PAPER_SPACE
 70
     0
 10
0.0
 20
0.0
 30
0.0
  3
*PAPER_SPACE
  1

  0
ENDBLK
  5
10
330
E
100
AcDbEntity
 67
     1
  8
0
100
AcDbBlockEnd
  0
BLOCK
  5
292
330
291
100
AcDbEntity
  8
0
100
AcDbBlockBegin
  2
*D0
 70
     1
 10
0.0
 20
0.0
 30
0.0
  3
*D0
  1

  0
LINE
  5
293
330
291
100
AcDbEntity
  8
BEMASSUNG
440
 16777216
370
    -2
100
AcDbLine
 10
3211.1048298256
 20
432.4426793704907
 30
0.0
 11
3202.702941749131
 21
432.4426793704907
 31
0.0
  0
LINE
  5
294
330
291
100
AcDbEntity
  8
BEMASSUNG
440
 16777216
370
    -2
100
AcDbLine
 10
3245.243028964846
 20
576.4426887255973
 30
0.0
 11
3202.702941749131
 21
576.4426887255973
 31
0.0
  0
LINE
  5
295
330
291
100
AcDbEntity
  8
BEMASSUNG
440
 16777216
370
    -2
100
AcDbLine
 10
3204.40294174913
 20
438.3926793704907
 30
0.0
 11
3204.40294174913
 21
570.4926887255972
 31
0.0
  0
SOLID
  5
296
330
291
100
AcDbEntity
  8
BEMASSUNG
440
 16777216
100
AcDbTrace
 10
3203.411275082463
 20
438.3926793704907
 30
0.0
 11
3205.394608415797
 21
438.3926793704907
 31
0.0
 12
3204.40294174913
 22
432.4426793704907
 32
0.0
 13
3204.40294174913
 23
432.4426793704907
 33
0.0
  0
SOLID
  5
297
330
291
100
AcDbEntity
  8
BEMASSUNG
440
 16777216
100
AcDbTrace
 10
3203.411275082463
 20
570.4926887255972
 30
0.0
 11
3205.394608415797
 21
570.4926887255972
 31
0.0
 12
3204.40294174913
 22
576.4426887255973
 32
0.0
 13
3204.40294174913
 23
576.4426887255973
 33
0.0
  0
MTEXT
  5
298
330
291
100
AcDbEntity
  8
BEMASSUNG
 62
     3
440
 16777216
100
AcDbMText
 10
3199.715765760045
 20
504.4426840480446
 30
0.0
 40
5.95
 41
0.0
 46
0.0
 71
     5
 72
     1
  1
\A1;144
  7
ARIAL-STANDARD
 11
0.0000000000000001
 21
1.0
 31
0.0
 73
     1
 44
1.0
  0
POINT
  5
299
330
291
100
AcDbEntity
  8
DEFPOINTS
 62
     0
440
 16777216
100
AcDbPoint
 10
3211.1048298256
 20
432.4426793704907
 30
0.0
  0
POINT
  5
29A
330
291
100
AcDbEntity
  8
DEFPOINTS
 62
     0
440
 16777216
100
AcDbPoint
 10
3245.243028964846
 20
576.4426887255973
 30
0.0
  0
POINT
  5
29B
330
291
100
AcDbEntity
  8
DEFPOINTS
 62
     0
440
 16777216
100
AcDbPoint
 10
3204.40294174913
 20
576.4426887255973
 30
0.0
  0
ENDBLK
  5
29C
330
291
100
AcDbEntity
  8
0
100
AcDbBlockEnd
  0
BLOCK
  5
279
330
278
100
AcDbEntity
  8
0
100
AcDbBlockBegin
  2
*D1
 70
     1
 10
0.0
 20
0.0
 30
0.0
  3
*D1
  1

  0
LINE
  5
27A
330
278
100
AcDbEntity
  8
BEMASSUNG
440
 16777216
370
    -2
100
AcDbLine
 10
3248.243028964846
 20
185.0332383615265
 30
0.0
 11
3267.00103474203
 21
185.0332383615265
 31
0.0
  0
LINE
  5
27B
330
278
100
AcDbEntity
  8
BEMASSUNG
440
 16777216
370
    -2
100
AcDbLine
 10
3270.243711549651
 20
184.0332383615264
 30
0.0
 11
3263.601034742031
 21
184.0332383615264
 31
0.0
  0
LINE
  5
27C
330
278
100
AcDbEntity
  8
BEMASSUNG
440
 16777216
370
    -2
100
AcDbLine
 10
3265.301034742031
 20
178.0832383615264
 30
0.0
 11
3265.301034742031
 21
172.1332383615264
 31
0.0
  0
LINE
  5
27D
330
278
100
AcDbEntity
  8
BEMASSUNG
440
 16777216
370
    -2
100
AcDbLine
 10
3265.301034742031
 20
190.9832383615265
 30
0.0
 11
3265.301034742031
 21
210.5448345416083
 31
0.0
  0
LINE
  5
27E
330
278
100
AcDbEntity
  8
BEMASSUNG
440
 16777216
370
    -2
100
AcDbLine
 10
3265.301034742031
 20
184.0332383615264
 30
0.0
 11
3265.301034742031
 21
185.0332383615265
 31
0.0
  0
SOLID
  5
27F
330
278
100
AcDbEntity
  8
BEMASSUNG
440
 16777216
100
AcDbTrace
 10
3264.309368075364
 20
178.0832383615264
 30
0.0
 11
3266.292701408698
 21
178.0832383615264
 31
0.0
 12
3265.301034742031
 22
184.0332383615264
 32
0.0
 13
3265.301034742031
 23
184.0332383615264
 33
0.0
  0
SOLID
  5
280
330
278
100
AcDbEntity
  8
BEMASSUNG
440
 16777216
100
AcDbTrace
 10
3264.309368075364
 20
190.9832383615265
 30
0.0
 11
3266.292701408698
 21
190.9832383615265
 31
0.0
 12
3265.301034742031
 22
185.0332383615265
 32
0.0
 13
3265.301034742031
 23
185.0332383615265
 33
0.0
  0
MTEXT
  5
281
330
278
100
AcDbEntity
  8
BEMASSUNG
 62
     3
440
 16777216
100
AcDbMText
 10
3260.524568166314
 20
203.739036451568
 30
0.0
 40
5.95
 41
0.0
 46
0.0
 71
     5
 72
     1
  1
\A1;1/2
  7
ARIAL-STANDARD
 11
0.0000000000000001
 21
1.0
 31
0.0
 73
     1
 44
1.0
  0
POINT
  5
282
330
278
100
AcDbEntity
  8
DEFPOINTS
 62
     0
440
 16777216
100
AcDbPoint
 10
3248.243028964846
 20
185.0332383615265
 30
0.0
  0
POINT
  5
283
330
278
100
AcDbEntity
  8
DEFPOINTS
 62
     0
440
 16777216
100
AcDbPoint
 10
3270.243711549651
 20
184.0332383615264
 30
0.0
  0
POINT
  5
284
330
278
100
AcDbEntity
  8
DEFPOINTS
 62
     0
440
 16777216
100
AcDbPoint
 10
3265.301034742031
 20
184.0332383615264
 30
0.0
  0
ENDBLK
  5
285
330
278
100
AcDbEntity
  8
0
100
AcDbBlockEnd
  0
BLOCK
  5
263
330
262
100
AcDbEntity
  8
0
100
AcDbBlockBegin
  2
*D2
 70
     1
 10
0.0
 20
0.0
 30
0.0
  3
*D2
  1

  0
LINE
  5
264
330
262
100
AcDbEntity
  8
BEMASSUNG
440
 16777216
370
    -2
100
AcDbLine
 10
3432.656430736024
 20
256.4426887255978
 30
0.0
 11
3432.656430736024
 21
229.3617217536201
 31
0.0
  0
LINE
  5
265
330
262
100
AcDbEntity
  8
BEMASSUNG
440
 16777216
370
    -2
100
AcDbLine
 10
3414.656430736022
 20
256.4426887255975
 30
0.0
 11
3414.656430736022
 21
229.3617217536201
 31
0.0
  0
LINE
  5
266
330
262
100
AcDbEntity
  8
BEMASSUNG
440
 16777216
370
    -2
100
AcDbLine
 10
3426.706430736024
 20
231.0617217536201
 30
0.0
 11
3420.606430736022
 21
231.0617217536201
 31
0.0
  0
SOLID
  5
267
330
262
100
AcDbEntity
  8
BEMASSUNG
440
 16777216
100
AcDbTrace
 10
3426.706430736024
 20
232.0533884202867
 30
0.0
 11
3426.706430736024
 21
230.0700550869534
 31
0.0
 12
3432.656430736024
 22
231.0617217536201
 32
0.0
 13
3432.656430736024
 23
231.0617217536201
 33
0.0
  0
SOLID
  5
268
330
262
100
AcDbEntity
  8
BEMASSUNG
440
 16777216
100
AcDbTrace
 10
3420.606430736022
 20
232.0533884202867
 30
0.0
 11
3420.606430736022
 21
230.0700550869534
 31
0.0
 12
3414.656430736022
 22
231.0617217536201
 32
0.0
 13
3414.656430736022
 23
231.0617217536201
 33
0.0
  0
MTEXT
  5
269
330
262
100
AcDbEntity
  8
BEMASSUNG
 62
     3
440
 16777216
100
AcDbMText
 10
3423.656430736023
 20
235.8381883293363
 30
0.0
 40
5.95
 41
0.0
 46
0.0
 71
     5
 72
     1
  1
\A1;18/20
  7
ARIAL-STANDARD
 73
     1
 44
1.0
  0
POINT
  5
26A
330
262
100
AcDbEntity
  8
DEFPOINTS
 62
     0
440
 16777216
100
AcDbPoint
 10
3432.656430736024
 20
256.4426887255978
 30
0.0
  0
POINT
  5
26B
330
262
100
AcDbEntity
  8
DEFPOINTS
 62
     0
440
 16777216
100
AcDbPoint
 10
3414.656430736022
 20
256.4426887255975
 30
0.0
  0
POINT
  5
26C
330
262
100
AcDbEntity
  8
DEFPOINTS
 62
     0
440
 16777216
100
AcDbPoint
 10
3414.656430736022
 20
231.0617217536201
 30
0.0
  0
ENDBLK
  5
26D
330
262
100
AcDbEntity
  8
0
100
AcDbBlockEnd
  0
BLOCK
  5
254
330
253
100
AcDbEntity
  8
0
100
AcDbBlockBegin
  2
*D3
 70
     1
 10
0.0
 20
0.0
 30
0.0
  3
*D3
  1

  0
LINE
  5
255
330
253
100
AcDbEntity
  8
BEMASSUNG
440
 16777216
370
    -2
100
AcDbLine
 10
3334.243028964845
 20
169.8332383615262
 30
0.0
 11
3346.511415429089
 21
169.8332383615262
 31
0.0
  0
LINE
  5
256
330
253
100
AcDbEntity
  8
BEMASSUNG
440
 16777216
370
    -2
100
AcDbLine
 10
3332.743028964845
 20
184.0332383615262
 30
0.0
 11
3346.511415429089
 21
184.0332383615262
 31
0.0
  0
LINE
  5
257
330
253
100
AcDbEntity
  8
BEMASSUNG
440
 16777216
370
    -2
100
AcDbLine
 10
3344.811415429089
 20
163.8832383615262
 30
0.0
 11
3344.811415429089
 21
157.9332383615262
 31
0.0
  0
LINE
  5
258
330
253
100
AcDbEntity
  8
BEMASSUNG
440
 16777216
370
    -2
100
AcDbLine
 10
3344.811415429089
 20
189.9832383615262
 30
0.0
 11
3344.811415429089
 21
195.9332383615262
 31
0.0
  0
LINE
  5
259
330
253
100
AcDbEntity
  8
BEMASSUNG
440
 16777216
370
    -2
100
AcDbLine
 10
3344.811415429089
 20
169.8332383615262
 30
0.0
 11
3344.811415429089
 21
184.0332383615262
 31
0.0
  0
SOLID
  5
25A
330
253
100
AcDbEntity
  8
BEMASSUNG
440
 16777216
100
AcDbTrace
 10
3343.819748762423
 20
163.8832383615262
 30
0.0
 11
3345.803082095756
 21
163.8832383615262
 31
0.0
 12
3344.811415429089
 22
169.8332383615262
 32
0.0
 13
3344.811415429089
 23
169.8332383615262
 33
0.0
  0
SOLID
  5
25B
330
253
100
AcDbEntity
  8
BEMASSUNG
440
 16777216
100
AcDbTrace
 10
3343.819748762423
 20
189.9832383615262
 30
0.0
 11
3345.803082095756
 21
189.9832383615262
 31
0.0
 12
3344.811415429089
 22
184.0332383615262
 32
0.0
 13
3344.811415429089
 23
184.0332383615262
 33
0.0
  0
MTEXT
  5
25C
330
253
100
AcDbEntity
  8
BEMASSUNG
 62
     3
440
 16777216
100
AcDbMText
 10
3340.124239440003
 20
176.9332383615267
 30
0.0
 40
5.95
 41
0.0
 46
0.0
 71
     5
 72
     1
  1
\A1;14.2
  7
ARIAL-STANDARD
 11
0.0000000000000001
 21
1.0
 31
0.0
 73
     1
 44
1.0
  0
POINT
  5
25D
330
253
100
AcDbEntity
  8
DEFPOINTS
 62
     0
440
 16777216
100
AcDbPoint
 10
3334.243028964845
 20
169.8332383615262
 30
0.0
  0
POINT
  5
25E
330
253
100
AcDbEntity
  8
DEFPOINTS
 62
     0
440
 16777216
100
AcDbPoint
 10
3332.743028964845
 20
184.0332383615262
 30
0.0
  0
POINT
  5
25F
330
253
100
AcDbEntity
  8
DEFPOINTS
 62
     0
440
 16777216
100
AcDbPoint
 10
3344.811415429089
 20
184.0332383615262
 30
0.0
  0
ENDBLK
  5
260
330
253
100
AcDbEntity
  8
0
100
AcDbBlockEnd
  0
BLOCK
  5
23C
330
23B
100
AcDbEntity
  8
0
100
AcDbBlockBegin
  2
*D4
 70
     1
 10
0.0
 20
0.0
 30
0.0
  3
*D4
  1

  0
LINE
  5
23D
330
23B
100
AcDbEntity
  8
BEMASSUNG
440
 16777216
370
    -2
100
AcDbLine
 10
3273.243028964845
 20
504.4426793704903
 30
0.0
 11
3366.954185038971
 21
504.4426793704903
 31
0.0
  0
LINE
  5
23E
330
23B
100
AcDbEntity
  8
BEMASSUNG
440
 16777216
370
    -2
100
AcDbLine
 10
3273.243028964845
 20
304.4426793704903
 30
0.0
 11
3366.954185038971
 21
304.4426793704903
 31
0.0
  0
LINE
  5
23F
330
23B
100
AcDbEntity
  8
BEMASSUNG
440
 16777216
370
    -2
100
AcDbLine
 10
3365.254185038971
 20
498.4926793704903
 30
0.0
 11
3365.254185038971
 21
310.3926793704903
 31
0.0
  0
SOLID
  5
240
330
23B
100
AcDbEntity
  8
BEMASSUNG
440
 16777216
100
AcDbTrace
 10
3364.262518372304
 20
498.4926793704903
 30
0.0
 11
3366.245851705638
 21
498.4926793704903
 31
0.0
 12
3365.254185038971
 22
504.4426793704903
 32
0.0
 13
3365.254185038971
 23
504.4426793704903
 33
0.0
  0
SOLID
  5
241
330
23B
100
AcDbEntity
  8
BEMASSUNG
440
 16777216
100
AcDbTrace
 10
3364.262518372304
 20
310.3926793704903
 30
0.0
 11
3366.245851705638
 21
310.3926793704903
 31
0.0
 12
3365.254185038971
 22
304.4426793704903
 32
0.0
 13
3365.254185038971
 23
304.4426793704903
 33
0.0
  0
MTEXT
  5
242
330
23B
100
AcDbEntity
  8
BEMASSUNG
 62
     3
440
 16777216
100
AcDbMText
 10
3360.516275762027
 20
404.4426793704907
 30
0.0
 40
5.95
 41
0.0
 46
0.0
 71
     5
 72
     1
  1
\A1;200
  7
ARIAL-STANDARD
 11
0.0000000000000001
 21
1.0
 31
0.0
 73
     1
 44
1.0
  0
POINT
  5
243
330
23B
100
AcDbEntity
  8
DEFPOINTS
 62
     0
440
 16777216
100
AcDbPoint
 10
3273.243028964845
 20
504.4426793704903
 30
0.0
  0
POINT
  5
244
330
23B
100
AcDbEntity
  8
DEFPOINTS
 62
     0
440
 16777216
100
AcDbPoint
 10
3273.243028964845
 20
304.4426793704903
 30
0.0
  0
POINT
  5
245
330
23B
100
AcDbEntity
  8
DEFPOINTS
 62
     0
440
 16777216
100
AcDbPoint
 10
3365.254185038971
 20
304.4426793704903
 30
0.0
  0
ENDBLK
  5
246
330
23B
100
AcDbEntity
  8
0
100
AcDbBlockEnd
  0
BLOCK
  5
20E
330
20D
100
AcDbEntity
  8
0
100
AcDbBlockBegin
  2
*D5
 70
     1
 10
0.0
 20
0.0
 30
0.0
  3
*D5
  1

  0
LINE
  5
20F
330
20D
100
AcDbEntity
  8
BEMASSUNG
440
 16777216
370
    -2
100
AcDbLine
 10
3273.243028964845
 20
304.4426793704903
 30
0.0
 11
3350.973682735567
 21
304.4426793704903
 31
0.0
  0
LINE
  5
210
330
20D
100
AcDbEntity
  8
BEMASSUNG
440
 16777216
370
    -2
100
AcDbLine
 10
3316.443028964845
 20
324.9426793704907
 30
0.0
 11
3350.973682735567
 21
324.9426793704907
 31
0.0
  0
LINE
  5
211
330
20D
100
AcDbEntity
  8
BEMASSUNG
440
 16777216
370
    -2
100
AcDbLine
 10
3349.273682735566
 20
310.3926793704903
 30
0.0
 11
3349.273682735566
 21
318.9926793704907
 31
0.0
  0
SOLID
  5
212
330
20D
100
AcDbEntity
  8
BEMASSUNG
440
 16777216
100
AcDbTrace
 10
3348.2820160689
 20
310.3926793704903
 30
0.0
 11
3350.265349402234
 21
310.3926793704903
 31
0.0
 12
3349.273682735566
 22
304.4426793704903
 32
0.0
 13
3349.273682735566
 23
304.4426793704903
 33
0.0
  0
SOLID
  5
213
330
20D
100
AcDbEntity
  8
BEMASSUNG
440
 16777216
100
AcDbTrace
 10
3348.2820160689
 20
318.9926793704907
 30
0.0
 11
3350.265349402234
 21
318.9926793704907
 31
0.0
 12
3349.273682735566
 22
324.9426793704907
 32
0.0
 13
3349.273682735566
 23
324.9426793704907
 33
0.0
  0
MTEXT
  5
214
330
20D
100
AcDbEntity
  8
BEMASSUNG
 62
     3
440
 16777216
100
AcDbMText
 10
3344.535773458622
 20
314.692679370491
 30
0.0
 40
5.95
 41
0.0
 46
0.0
 71
     5
 72
     1
  1
\A1;20.5
  7
ARIAL-STANDARD
 11
0.0000000000000001
 21
1.0
 31
0.0
 73
     1
 44
1.0
  0
POINT
  5
215
330
20D
100
AcDbEntity
  8
DEFPOINTS
 62
     0
440
 16777216
100
AcDbPoint
 10
3273.243028964845
 20
304.4426793704903
 30
0.0
  0
POINT
  5
216
330
20D
100
AcDbEntity
  8
DEFPOINTS
 62
     0
440
 16777216
100
AcDbPoint
 10
3316.443028964845
 20
324.9426793704907
 30
0.0
  0
POINT
  5
217
330
20D
100
AcDbEntity
  8
DEFPOINTS
 62
     0
440
 16777216
100
AcDbPoint
 10
3349.273682735566
 20
324.9426793704907
 30
0.0
  0
ENDBLK
  5
218
330
20D
100
AcDbEntity
  8
0
100
AcDbBlockEnd
  0
BLOCK
  5
1FC
330
1FB
100
AcDbEntity
  8
0
100
AcDbBlockBegin
  2
*D6
 70
     1
 10
0.0
 20
0.0
 30
0.0
  3
*D6
  1

  0
LINE
  5
1FD
330
1FB
100
AcDbEntity
  8
BEMASSUNG
440
 16777216
370
    -2
100
AcDbLine
 10
3305.243028964846
 20
324.9426793704906
 30
0.0
 11
3305.243028964846
 21
272.3802131089437
 31
0.0
  0
LINE
  5
1FE
330
1FB
100
AcDbEntity
  8
BEMASSUNG
440
 16777216
370
    -2
100
AcDbLine
 10
3245.243028964846
 20
293.6668798343315
 30
0.0
 11
3245.243028964846
 21
272.3802131089437
 31
0.0
  0
LINE
  5
1FF
330
1FB
100
AcDbEntity
  8
BEMASSUNG
440
 16777216
370
    -2
100
AcDbLine
 10
3299.293028964846
 20
274.0802131089437
 30
0.0
 11
3251.193028964846
 21
274.0802131089437
 31
0.0
  0
SOLID
  5
200
330
1FB
100
AcDbEntity
  8
BEMASSUNG
440
 16777216
100
AcDbTrace
 10
3299.293028964846
 20
275.0718797756103
 30
0.0
 11
3299.293028964846
 21
273.088546442277
 31
0.0
 12
3305.243028964846
 22
274.0802131089437
 32
0.0
 13
3305.243028964846
 23
274.0802131089437
 33
0.0
  0
SOLID
  5
201
330
1FB
100
AcDbEntity
  8
BEMASSUNG
440
 16777216
100
AcDbTrace
 10
3251.193028964846
 20
275.0718797756103
 30
0.0
 11
3251.193028964846
 21
273.088546442277
 31
0.0
 12
3245.243028964846
 22
274.0802131089437
 32
0.0
 13
3245.243028964846
 23
274.0802131089437
 33
0.0
  0
MTEXT
  5
202
330
1FB
100
AcDbEntity
  8
BEMASSUNG
 62
     3
440
 16777216
100
AcDbMText
 10
3279.534818231841
 20
278.7552131089437
 30
0.0
 40
5.95
 41
0.0
 46
0.0
 71
     5
 72
     1
  1
\A1;DM
  7
ARIAL-STANDARD
 73
     1
 44
1.0
  0
POINT
  5
203
330
1FB
100
AcDbEntity
  8
DEFPOINTS
 62
     0
440
 16777216
100
AcDbPoint
 10
3305.243028964846
 20
324.9426793704906
 30
0.0
  0
POINT
  5
204
330
1FB
100
AcDbEntity
  8
DEFPOINTS
 62
     0
440
 16777216
100
AcDbPoint
 10
3245.243028964846
 20
293.6668798343315
 30
0.0
  0
POINT
  5
205
330
1FB
100
AcDbEntity
  8
DEFPOINTS
 62
     0
440
 16777216
100
AcDbPoint
 10
3245.243028964846
 20
274.0802131089437
 30
0.0
  0
ENDBLK
  5
206
330
1FB
100
AcDbEntity
  8
0
100
AcDbBlockEnd
  0
BLOCK
  5
1ED
330
1EC
100
AcDbEntity
  8
0
100
AcDbBlockBegin
  2
*D7
 70
     1
 10
0.0
 20
0.0
 30
0.0
  3
*D7
  1

  0
LINE
  5
1EE
330
1EC
100
AcDbEntity
  8
BEMASSUNG
440
 16777216
370
    -2
100
AcDbLine
 10
3305.243028964846
 20
328.1426793704901
 30
0.0
 11
3305.243028964846
 21
272.3802131089437
 31
0.0
  0
LINE
  5
1EF
330
1EC
100
AcDbEntity
  8
BEMASSUNG
440
 16777216
370
    -2
100
AcDbLine
 10
3334.243028964845
 20
344.0639997140505
 30
0.0
 11
3334.243028964845
 21
272.3802131089437
 31
0.0
  0
LINE
  5
1F0
330
1EC
100
AcDbEntity
  8
BEMASSUNG
440
 16777216
370
    -2
100
AcDbLine
 10
3311.193028964846
 20
274.0802131089437
 30
0.0
 11
3328.293028964846
 21
274.0802131089437
 31
0.0
  0
SOLID
  5
1F1
330
1EC
100
AcDbEntity
  8
BEMASSUNG
440
 16777216
100
AcDbTrace
 10
3311.193028964846
 20
275.0718797756103
 30
0.0
 11
3311.193028964846
 21
273.088546442277
 31
0.0
 12
3305.243028964846
 22
274.0802131089437
 32
0.0
 13
3305.243028964846
 23
274.0802131089437
 33
0.0
  0
SOLID
  5
1F2
330
1EC
100
AcDbEntity
  8
BEMASSUNG
440
 16777216
100
AcDbTrace
 10
3328.293028964846
 20
275.0718797756103
 30
0.0
 11
3328.293028964846
 21
273.088546442277
 31
0.0
 12
3334.243028964845
 22
274.0802131089437
 32
0.0
 13
3334.243028964845
 23
274.0802131089437
 33
0.0
  0
MTEXT
  5
1F3
330
1EC
100
AcDbEntity
  8
BEMASSUNG
 62
     3
440
 16777216
100
AcDbMText
 10
3319.743028964847
 20
278.8181223858877
 30
0.0
 40
5.95
 41
0.0
 46
0.0
 71
     5
 72
     1
  1
\A1;29
  7
ARIAL-STANDARD
 73
     1
 44
1.0
  0
POINT
  5
1F4
330
1EC
100
AcDbEntity
  8
DEFPOINTS
 62
     0
440
 16777216
100
AcDbPoint
 10
3305.243028964846
 20
328.1426793704901
 30
0.0
  0
POINT
  5
1F5
330
1EC
100
AcDbEntity
  8
DEFPOINTS
 62
     0
440
 16777216
100
AcDbPoint
 10
3334.243028964845
 20
344.0639997140505
 30
0.0
  0
POINT
  5
1F6
330
1EC
100
AcDbEntity
  8
DEFPOINTS
 62
     0
440
 16777216
100
AcDbPoint
 10
3334.243028964845
 20
274.0802131089437
 30
0.0
  0
ENDBLK
  5
1F7
330
1EC
100
AcDbEntity
  8
0
100
AcDbBlockEnd
  0
BLOCK
  5
1C2
330
1C1
100
AcDbEntity
  8
0
100
AcDbBlockBegin
  2
*D8
 70
     1
 10
0.0
 20
0.0
 30
0.0
  3
*D8
  1

  0
LINE
  5
1C3
330
1C1
100
AcDbEntity
  8
BEMASSUNG
440
 16777216
370
    -2
100
AcDbLine
 10
3316.443028964845
 20
483.9426793704907
 30
0.0
 11
3350.973682735567
 21
483.9426793704907
 31
0.0
  0
LINE
  5
1C4
330
1C1
100
AcDbEntity
  8
BEMASSUNG
440
 16777216
370
    -2
100
AcDbLine
 10
3273.243028964845
 20
504.4426793704903
 30
0.0
 11
3350.973682735567
 21
504.4426793704903
 31
0.0
  0
LINE
  5
1C5
330
1C1
100
AcDbEntity
  8
BEMASSUNG
440
 16777216
370
    -2
100
AcDbLine
 10
3349.273682735566
 20
489.8926793704907
 30
0.0
 11
3349.273682735566
 21
498.4926793704903
 31
0.0
  0
SOLID
  5
1C6
330
1C1
100
AcDbEntity
  8
BEMASSUNG
440
 16777216
100
AcDbTrace
 10
3348.2820160689
 20
489.8926793704907
 30
0.0
 11
3350.265349402234
 21
489.8926793704907
 31
0.0
 12
3349.273682735566
 22
483.9426793704907
 32
0.0
 13
3349.273682735566
 23
483.9426793704907
 33
0.0
  0
SOLID
  5
1C7
330
1C1
100
AcDbEntity
  8
BEMASSUNG
440
 16777216
100
AcDbTrace
 10
3348.2820160689
 20
498.4926793704903
 30
0.0
 11
3350.265349402234
 21
498.4926793704903
 31
0.0
 12
3349.273682735566
 22
504.4426793704903
 32
0.0
 13
3349.273682735566
 23
504.4426793704903
 33
0.0
  0
MTEXT
  5
1C8
330
1C1
100
AcDbEntity
  8
BEMASSUNG
 62
     3
440
 16777216
100
AcDbMText
 10
3344.535773458622
 20
494.192679370491
 30
0.0
 40
5.95
 41
0.0
 46
0.0
 71
     5
 72
     1
  1
\A1;20.5
  7
ARIAL-STANDARD
 11
0.0000000000000001
 21
1.0
 31
0.0
 73
     1
 44
1.0
  0
POINT
  5
1C9
330
1C1
100
AcDbEntity
  8
DEFPOINTS
 62
     0
440
 16777216
100
AcDbPoint
 10
3316.443028964845
 20
483.9426793704907
 30
0.0
  0
POINT
  5
1CA
330
1C1
100
AcDbEntity
  8
DEFPOINTS
 62
     0
440
 16777216
100
AcDbPoint
 10
3273.243028964845
 20
504.4426793704903
 30
0.0
  0
POINT
  5
1CB
330
1C1
100
AcDbEntity
  8
DEFPOINTS
 62
     0
440
 16777216
100
AcDbPoint
 10
3349.273682735566
 20
504.4426793704903
 30
0.0
  0
ENDBLK
  5
1CC
330
1C1
100
AcDbEntity
  8
0
100
AcDbBlockEnd
  0
BLOCK
  5
1B1
330
1B0
100
AcDbEntity
  8
0
100
AcDbBlockBegin
  2
*D9
 70
     1
 10
0.0
 20
0.0
 30
0.0
  3
*D9
  1

  0
LINE
  5
1B2
330
1B0
100
AcDbEntity
  8
BEMASSUNG
440
 16777216
370
    -2
100
AcDbLine
 10
3281.643028964846
 20
432.4426793704907
 30
0.0
 11
3275.616270438501
 21
432.4426793704907
 31
0.0
  0
LINE
  5
1B3
330
1B0
100
AcDbEntity
  8
BEMASSUNG
440
 16777216
370
    -2
100
AcDbLine
 10
3245.243028964846
 20
376.4426700153815
 30
0.0
 11
3279.0162704385
 21
376.4426700153815
 31
0.0
  0
LINE
  5
1B4
330
1B0
100
AcDbEntity
  8
BEMASSUNG
440
 16777216
370
    -2
100
AcDbLine
 10
3277.3162704385
 20
426.4926793704907
 30
0.0
 11
3277.3162704385
 21
382.3926700153815
 31
0.0
  0
SOLID
  5
1B5
330
1B0
100
AcDbEntity
  8
BEMASSUNG
440
 16777216
100
AcDbTrace
 10
3276.324603771834
 20
426.4926793704907
 30
0.0
 11
3278.307937105167
 21
426.4926793704907
 31
0.0
 12
3277.3162704385
 22
432.4426793704907
 32
0.0
 13
3277.3162704385
 23
432.4426793704907
 33
0.0
  0
SOLID
  5
1B6
330
1B0
100
AcDbEntity
  8
BEMASSUNG
440
 16777216
100
AcDbTrace
 10
3276.324603771834
 20
382.3926700153815
 30
0.0
 11
3278.307937105167
 21
382.3926700153815
 31
0.0
 12
3277.3162704385
 22
376.4426700153815
 32
0.0
 13
3277.3162704385
 23
376.4426700153815
 33
0.0
  0
MTEXT
  5
1B7
330
1B0
100
AcDbEntity
  8
BEMASSUNG
 62
     3
440
 16777216
100
AcDbMText
 10
3272.578361161555
 20
404.4426746929365
 30
0.0
 40
5.95
 41
0.0
 46
0.0
 71
     5
 72
     1
  1
\A1;56
  7
ARIAL-STANDARD
 11
0.0000000000000001
 21
1.0
 31
0.0
 73
     1
 44
1.0
  0
POINT
  5
1B8
330
1B0
100
AcDbEntity
  8
DEFPOINTS
 62
     0
440
 16777216
100
AcDbPoint
 10
3281.643028964846
 20
432.4426793704907
 30
0.0
  0
POINT
  5
1B9
330
1B0
100
AcDbEntity
  8
DEFPOINTS
 62
     0
440
 16777216
100
AcDbPoint
 10
3245.243028964846
 20
376.4426700153815
 30
0.0
  0
POINT
  5
1BA
330
1B0
100
AcDbEntity
  8
DEFPOINTS
 62
     0
440
 16777216
100
AcDbPoint
 10
3277.3162704385
 20
376.4426700153815
 30
0.0
  0
ENDBLK
  5
1BB
330
1B0
100
AcDbEntity
  8
0
100
AcDbBlockEnd
  0
BLOCK
  5
1A4
330
1A3
100
AcDbEntity
  8
0
100
AcDbBlockBegin
  2
*D10
 70
     1
 10
0.0
 20
0.0
 30
0.0
  3
*D10
  1

  0
LINE
  5
1A5
330
1A3
100
AcDbEntity
  8
BEMASSUNG
440
 16777216
370
    -2
100
AcDbLine
 10
3249.243046396618
 20
454.4426700153818
 30
0.0
 11
3279.0162704385
 21
454.4426700153818
 31
0.0
  0
LINE
  5
1A6
330
1A3
100
AcDbEntity
  8
BEMASSUNG
440
 16777216
370
    -2
100
AcDbLine
 10
3281.643028964846
 20
432.4426793704907
 30
0.0
 11
3275.616270438501
 21
432.4426793704907
 31
0.0
  0
LINE
  5
1A7
330
1A3
100
AcDbEntity
  8
BEMASSUNG
440
 16777216
370
    -2
100
AcDbLine
 10
3277.3162704385
 20
448.492670015382
 30
0.0
 11
3277.3162704385
 21
438.3926793704907
 31
0.0
  0
SOLID
  5
1A8
330
1A3
100
AcDbEntity
  8
BEMASSUNG
440
 16777216
100
AcDbTrace
 10
3276.324603771834
 20
448.492670015382
 30
0.0
 11
3278.307937105167
 21
448.492670015382
 31
0.0
 12
3277.3162704385
 22
454.4426700153818
 32
0.0
 13
3277.3162704385
 23
454.4426700153818
 33
0.0
  0
SOLID
  5
1A9
330
1A3
100
AcDbEntity
  8
BEMASSUNG
440
 16777216
100
AcDbTrace
 10
3276.324603771834
 20
438.3926793704907
 30
0.0
 11
3278.307937105167
 21
438.3926793704907
 31
0.0
 12
3277.3162704385
 22
432.4426793704907
 32
0.0
 13
3277.3162704385
 23
432.4426793704907
 33
0.0
  0
MTEXT
  5
1AA
330
1A3
100
AcDbEntity
  8
BEMASSUNG
 62
     3
440
 16777216
100
AcDbMText
 10
3272.629094449416
 20
443.4426746929368
 30
0.0
 40
5.95
 41
0.0
 46
0.0
 71
     5
 72
     1
  1
\A1;22
  7
ARIAL-STANDARD
 11
0.0000000000000001
 21
1.0
 31
0.0
 73
     1
 44
1.0
  0
POINT
  5
1AB
330
1A3
100
AcDbEntity
  8
DEFPOINTS
 62
     0
440
 16777216
100
AcDbPoint
 10
3249.243046396618
 20
454.4426700153818
 30
0.0
  0
POINT
  5
1AC
330
1A3
100
AcDbEntity
  8
DEFPOINTS
 62
     0
440
 16777216
100
AcDbPoint
 10
3281.643028964846
 20
432.4426793704907
 30
0.0
  0
POINT
  5
1AD
330
1A3
100
AcDbEntity
  8
DEFPOINTS
 62
     0
440
 16777216
100
AcDbPoint
 10
3277.3162704385
 20
432.4426793704907
 30
0.0
  0
ENDBLK
  5
1AE
330
1A3
100
AcDbEntity
  8
0
100
AcDbBlockEnd
  0
BLOCK
  5
18C
330
18B
100
AcDbEntity
  8
0
100
AcDbBlockBegin
  2
*D11
 70
     1
 10
0.0
 20
0.0
 30
0.0
  3
*D11
  1

  0
LINE
  5
18D
330
18B
100
AcDbEntity
  8
BEMASSUNG
440
 16777216
370
    -2
100
AcDbLine
 10
3225.243028964847
 20
391.4426700153815
 30
0.0
 11
3225.243028964847
 21
404.9143312134468
 31
0.0
  0
LINE
  5
18E
330
18B
100
AcDbEntity
  8
BEMASSUNG
440
 16777216
370
    -2
100
AcDbLine
 10
3245.243028964846
 20
403.8849915393839
 30
0.0
 11
3245.243028964846
 21
401.5143312134467
 31
0.0
  0
LINE
  5
18F
330
18B
100
AcDbEntity
  8
BEMASSUNG
440
 16777216
370
    -2
100
AcDbLine
 10
3231.193028964847
 20
403.2143312134468
 30
0.0
 11
3239.293028964846
 21
403.2143312134468
 31
0.0
  0
SOLID
  5
190
330
18B
100
AcDbEntity
  8
BEMASSUNG
440
 16777216
100
AcDbTrace
 10
3231.193028964847
 20
404.2059978801135
 30
0.0
 11
3231.193028964847
 21
402.22266454678
 31
0.0
 12
3225.243028964847
 22
403.2143312134468
 32
0.0
 13
3225.243028964847
 23
403.2143312134468
 33
0.0
  0
SOLID
  5
191
330
18B
100
AcDbEntity
  8
BEMASSUNG
440
 16777216
100
AcDbTrace
 10
3239.293028964846
 20
404.2059978801135
 30
0.0
 11
3239.293028964846
 21
402.22266454678
 31
0.0
 12
3245.243028964846
 22
403.2143312134468
 32
0.0
 13
3245.243028964846
 23
403.2143312134468
 33
0.0
  0
MTEXT
  5
192
330
18B
100
AcDbEntity
  8
BEMASSUNG
 62
     3
440
 16777216
100
AcDbMText
 10
3235.243028964847
 20
407.9522404903907
 30
0.0
 40
5.95
 41
0.0
 46
0.0
 71
     5
 72
     1
  1
\A1;20
  7
ARIAL-STANDARD
 73
     1
 44
1.0
  0
POINT
  5
193
330
18B
100
AcDbEntity
  8
DEFPOINTS
 62
     0
440
 16777216
100
AcDbPoint
 10
3225.243028964847
 20
391.4426700153815
 30
0.0
  0
POINT
  5
194
330
18B
100
AcDbEntity
  8
DEFPOINTS
 62
     0
440
 16777216
100
AcDbPoint
 10
3245.243028964846
 20
403.8849915393839
 30
0.0
  0
POINT
  5
195
330
18B
100
AcDbEntity
  8
DEFPOINTS
 62
     0
440
 16777216
100
AcDbPoint
 10
3245.243028964846
 20
403.2143312134468
 30
0.0
  0
ENDBLK
  5
196
330
18B
100
AcDbEntity
  8
0
100
AcDbBlockEnd
  0
BLOCK
  5
175
330
174
100
AcDbEntity
  8
0
100
AcDbBlockBegin
  2
*D12
 70
     1
 10
0.0
 20
0.0
 30
0.0
  3
*D12
  1

  0
LINE
  5
176
330
174
100
AcDbEntity
  8
BEMASSUNG
440
 16777216
370
    -2
100
AcDbLine
 10
3235.243046396618
 20
469.4426700153821
 30
0.0
 11
3235.243046396618
 21
479.69295948373
 31
0.0
  0
LINE
  5
177
330
174
100
AcDbEntity
  8
BEMASSUNG
440
 16777216
370
    -2
100
AcDbLine
 10
3245.243028964846
 20
480.6756007874802
 30
0.0
 11
3245.243028964846
 21
476.29295948373
 31
0.0
  0
LINE
  5
178
330
174
100
AcDbEntity
  8
BEMASSUNG
440
 16777216
370
    -2
100
AcDbLine
 10
3229.293046396618
 20
477.99295948373
 30
0.0
 11
3223.343046396618
 21
477.99295948373
 31
0.0
  0
LINE
  5
179
330
174
100
AcDbEntity
  8
BEMASSUNG
440
 16777216
370
    -2
100
AcDbLine
 10
3251.193028964846
 20
477.99295948373
 30
0.0
 11
3268.485832511913
 21
477.99295948373
 31
0.0
  0
LINE
  5
17A
330
174
100
AcDbEntity
  8
BEMASSUNG
440
 16777216
370
    -2
100
AcDbLine
 10
3235.243046396618
 20
477.99295948373
 30
0.0
 11
3245.243028964846
 21
477.99295948373
 31
0.0
  0
SOLID
  5
17B
330
174
100
AcDbEntity
  8
BEMASSUNG
440
 16777216
100
AcDbTrace
 10
3229.293046396618
 20
478.9846261503966
 30
0.0
 11
3229.293046396618
 21
477.0012928170634
 31
0.0
 12
3235.243046396618
 22
477.99295948373
 32
0.0
 13
3235.243046396618
 23
477.99295948373
 33
0.0
  0
SOLID
  5
17C
330
174
100
AcDbEntity
  8
BEMASSUNG
440
 16777216
100
AcDbTrace
 10
3251.193028964846
 20
478.9846261503966
 30
0.0
 11
3251.193028964846
 21
477.0012928170634
 31
0.0
 12
3245.243028964846
 22
477.99295948373
 32
0.0
 13
3245.243028964846
 23
477.99295948373
 33
0.0
  0
MTEXT
  5
17D
330
174
100
AcDbEntity
  8
BEMASSUNG
 62
     3
440
 16777216
100
AcDbMText
 10
3262.81443073838
 20
482.7308687606739
 30
0.0
 40
5.95
 41
0.0
 46
0.0
 71
     5
 72
     1
  1
\A1;10
  7
ARIAL-STANDARD
 73
     1
 44
1.0
  0
POINT
  5
17E
330
174
100
AcDbEntity
  8
DEFPOINTS
 62
     0
440
 16777216
100
AcDbPoint
 10
3235.243046396618
 20
469.4426700153821
 30
0.0
  0
POINT
  5
17F
330
174
100
AcDbEntity
  8
DEFPOINTS
 62
     0
440
 16777216
100
AcDbPoint
 10
3245.243028964846
 20
480.6756007874802
 30
0.0
  0
POINT
  5
180
330
174
100
AcDbEntity
  8
DEFPOINTS
 62
     0
440
 16777216
100
AcDbPoint
 10
3245.243028964846
 20
477.99295948373
 30
0.0
  0
ENDBLK
  5
181
330
174
100
AcDbEntity
  8
0
100
AcDbBlockEnd
  0
BLOCK
  5
155
330
154
100
AcDbEntity
  8
0
100
AcDbBlockBegin
  2
*D13
 70
     1
 10
0.0
 20
0.0
 30
0.0
  3
*D13
  1

  0
LINE
  5
156
330
154
100
AcDbEntity
  8
BEMASSUNG
440
 16777216
370
    -2
100
AcDbLine
 10
3309.243028964846
 20
436.4426793704907
 30
0.0
 11
3309.243028964846
 21
458.4937915233251
 31
0.0
  0
LINE
  5
157
330
154
100
AcDbEntity
  8
BEMASSUNG
440
 16777216
370
    -2
100
AcDbLine
 10
3301.243028964846
 20
436.4426793704903
 30
0.0
 11
3301.243028964846
 21
458.4937915233251
 31
0.0
  0
LINE
  5
158
330
154
100
AcDbEntity
  8
BEMASSUNG
440
 16777216
370
    -2
100
AcDbLine
 10
3315.193028964846
 20
456.7937915233251
 30
0.0
 11
3321.143028964846
 21
456.7937915233251
 31
0.0
  0
LINE
  5
159
330
154
100
AcDbEntity
  8
BEMASSUNG
440
 16777216
370
    -2
100
AcDbLine
 10
3295.293028964846
 20
456.7937915233251
 30
0.0
 11
3275.090164026237
 21
456.7937915233251
 31
0.0
  0
LINE
  5
15A
330
154
100
AcDbEntity
  8
BEMASSUNG
440
 16777216
370
    -2
100
AcDbLine
 10
3309.243028964846
 20
456.7937915233251
 30
0.0
 11
3301.243028964846
 21
456.7937915233251
 31
0.0
  0
SOLID
  5
15B
330
154
100
AcDbEntity
  8
BEMASSUNG
440
 16777216
100
AcDbTrace
 10
3315.193028964846
 20
457.7854581899917
 30
0.0
 11
3315.193028964846
 21
455.8021248566584
 31
0.0
 12
3309.243028964846
 22
456.7937915233251
 32
0.0
 13
3309.243028964846
 23
456.7937915233251
 33
0.0
  0
SOLID
  5
15C
330
154
100
AcDbEntity
  8
BEMASSUNG
440
 16777216
100
AcDbTrace
 10
3295.293028964846
 20
457.7854581899917
 30
0.0
 11
3295.293028964846
 21
455.8021248566584
 31
0.0
 12
3301.243028964846
 22
456.7937915233251
 32
0.0
 13
3301.243028964846
 23
456.7937915233251
 33
0.0
  0
MTEXT
  5
15D
330
154
100
AcDbEntity
  8
BEMASSUNG
 62
     3
440
 16777216
100
AcDbMText
 10
3282.216596495541
 20
461.5702580990412
 30
0.0
 40
5.95
 41
0.0
 46
0.0
 71
     5
 72
     1
  1
\A1;8/9
  7
ARIAL-STANDARD
 73
     1
 44
1.0
  0
POINT
  5
15E
330
154
100
AcDbEntity
  8
DEFPOINTS
 62
     0
440
 16777216
100
AcDbPoint
 10
3309.243028964846
 20
436.4426793704907
 30
0.0
  0
POINT
  5
15F
330
154
100
AcDbEntity
  8
DEFPOINTS
 62
     0
440
 16777216
100
AcDbPoint
 10
3301.243028964846
 20
436.4426793704903
 30
0.0
  0
POINT
  5
160
330
154
100
AcDbEntity
  8
DEFPOINTS
 62
     0
440
 16777216
100
AcDbPoint
 10
3301.243028964846
 20
456.7937915233251
 30
0.0
  0
ENDBLK
  5
161
330
154
100
AcDbEntity
  8
0
100
AcDbBlockEnd
  0
BLOCK
  5
148
330
147
100
AcDbEntity
  8
0
100
AcDbBlockBegin
  2
*D14
 70
     1
 10
0.0
 20
0.0
 30
0.0
  3
*D14
  1

  0
LINE
  5
149
330
147
100
AcDbEntity
  8
BEMASSUNG
440
 16777216
370
    -2
100
AcDbLine
 10
3316.443028964845
 20
483.9426793704907
 30
0.0
 11
3350.973682735567
 21
483.9426793704907
 31
0.0
  0
LINE
  5
14A
330
147
100
AcDbEntity
  8
BEMASSUNG
440
 16777216
370
    -2
100
AcDbLine
 10
3328.843028964847
 20
432.4426793704905
 30
0.0
 11
3350.973682735567
 21
432.4426793704905
 31
0.0
  0
LINE
  5
14B
330
147
100
AcDbEntity
  8
BEMASSUNG
440
 16777216
370
    -2
100
AcDbLine
 10
3349.273682735566
 20
477.9926793704907
 30
0.0
 11
3349.273682735566
 21
438.3926793704905
 31
0.0
  0
SOLID
  5
14C
330
147
100
AcDbEntity
  8
BEMASSUNG
440
 16777216
100
AcDbTrace
 10
3348.2820160689
 20
477.9926793704907
 30
0.0
 11
3350.265349402234
 21
477.9926793704907
 31
0.0
 12
3349.273682735566
 22
483.9426793704907
 32
0.0
 13
3349.273682735566
 23
483.9426793704907
 33
0.0
  0
SOLID
  5
14D
330
147
100
AcDbEntity
  8
BEMASSUNG
440
 16777216
100
AcDbTrace
 10
3348.2820160689
 20
438.3926793704905
 30
0.0
 11
3350.265349402234
 21
438.3926793704905
 31
0.0
 12
3349.273682735566
 22
432.4426793704905
 32
0.0
 13
3349.273682735566
 23
432.4426793704905
 33
0.0
  0
MTEXT
  5
14E
330
147
100
AcDbEntity
  8
BEMASSUNG
 62
     3
440
 16777216
100
AcDbMText
 10
3344.535773458622
 20
458.192679370491
 30
0.0
 40
5.95
 41
0.0
 46
0.0
 71
     5
 72
     1
  1
\A1;51.5
  7
ARIAL-STANDARD
 11
0.0000000000000001
 21
1.0
 31
0.0
 73
     1
 44
1.0
  0
POINT
  5
14F
330
147
100
AcDbEntity
  8
DEFPOINTS
 62
     0
440
 16777216
100
AcDbPoint
 10
3316.443028964845
 20
483.9426793704907
 30
0.0
  0
POINT
  5
150
330
147
100
AcDbEntity
  8
DEFPOINTS
 62
     0
440
 16777216
100
AcDbPoint
 10
3328.843028964847
 20
432.4426793704905
 30
0.0
  0
POINT
  5
151
330
147
100
AcDbEntity
  8
DEFPOINTS
 62
     0
440
 16777216
100
AcDbPoint
 10
3349.273682735566
 20
432.4426793704905
 30
0.0
  0
ENDBLK
  5
152
330
147
100
AcDbEntity
  8
0
100
AcDbBlockEnd
  0
BLOCK
  5
132
330
131
100
AcDbEntity
  8
0
100
AcDbBlockBegin
  2
*D15
 70
     1
 10
0.0
 20
0.0
 30
0.0
  3
*D15
  1

  0
LINE
  5
133
330
131
100
AcDbEntity
  8
BEMASSUNG
440
 16777216
370
    -2
100
AcDbLine
 10
3328.843028964847
 20
432.4426793704905
 30
0.0
 11
3350.973682735567
 21
432.4426793704905
 31
0.0
  0
LINE
  5
134
330
131
100
AcDbEntity
  8
BEMASSUNG
440
 16777216
370
    -2
100
AcDbLine
 10
3318.343028964847
 20
354.4426793704904
 30
0.0
 11
3350.973682735567
 21
354.4426793704904
 31
0.0
  0
LINE
  5
135
330
131
100
AcDbEntity
  8
BEMASSUNG
440
 16777216
370
    -2
100
AcDbLine
 10
3349.273682735566
 20
426.4926793704905
 30
0.0
 11
3349.273682735566
 21
360.3926793704903
 31
0.0
  0
SOLID
  5
136
330
131
100
AcDbEntity
  8
BEMASSUNG
440
 16777216
100
AcDbTrace
 10
3348.2820160689
 20
426.4926793704905
 30
0.0
 11
3350.265349402234
 21
426.4926793704905
 31
0.0
 12
3349.273682735566
 22
432.4426793704905
 32
0.0
 13
3349.273682735566
 23
432.4426793704905
 33
0.0
  0
SOLID
  5
137
330
131
100
AcDbEntity
  8
BEMASSUNG
440
 16777216
100
AcDbTrace
 10
3348.2820160689
 20
360.3926793704903
 30
0.0
 11
3350.265349402234
 21
360.3926793704903
 31
0.0
 12
3349.273682735566
 22
354.4426793704904
 32
0.0
 13
3349.273682735566
 23
354.4426793704904
 33
0.0
  0
MTEXT
  5
138
330
131
100
AcDbEntity
  8
BEMASSUNG
 62
     3
440
 16777216
100
AcDbMText
 10
3344.535773458622
 20
393.4426793704909
 30
0.0
 40
5.95
 41
0.0
 46
0.0
 71
     5
 72
     1
  1
\A1;78
  7
ARIAL-STANDARD
 11
0.0000000000000001
 21
1.0
 31
0.0
 73
     1
 44
1.0
  0
POINT
  5
139
330
131
100
AcDbEntity
  8
DEFPOINTS
 62
     0
440
 16777216
100
AcDbPoint
 10
3328.843028964847
 20
432.4426793704905
 30
0.0
  0
POINT
  5
13A
330
131
100
AcDbEntity
  8
DEFPOINTS
 62
     0
440
 16777216
100
AcDbPoint
 10
3318.343028964847
 20
354.4426793704904
 30
0.0
  0
POINT
  5
13B
330
131
100
AcDbEntity
  8
DEFPOINTS
 62
     0
440
 16777216
100
AcDbPoint
 10
3349.273682735566
 20
354.4426793704904
 30
0.0
  0
ENDBLK
  5
13C
330
131
100
AcDbEntity
  8
0
100
AcDbBlockEnd
  0
BLOCK
  5
C7
330
C6
100
AcDbEntity
  8
0
100
AcDbBlockBegin
  2
*D16
 70
     1
 10
0.0
 20
0.0
 30
0.0
  3
*D16
  1

  0
LINE
  5
C8
330
C6
100
AcDbEntity
  8
BEMASSUNG
440
 16777216
370
    -2
100
AcDbLine
 10
3320.243028964846
 20
354.4426793704904
 30
0.0
 11
3350.973682735567
 21
354.4426793704904
 31
0.0
  0
LINE
  5
C9
330
C6
100
AcDbEntity
  8
BEMASSUNG
440
 16777216
370
    -2
100
AcDbLine
 10
3320.243028964846
 20
324.9426793704907
 30
0.0
 11
3350.973682735567
 21
324.9426793704907
 31
0.0
  0
LINE
  5
CA
330
C6
100
AcDbEntity
  8
BEMASSUNG
440
 16777216
370
    -2
100
AcDbLine
 10
3349.273682735566
 20
348.4926793704904
 30
0.0
 11
3349.273682735566
 21
330.8926793704907
 31
0.0
  0
SOLID
  5
CB
330
C6
100
AcDbEntity
  8
BEMASSUNG
440
 16777216
100
AcDbTrace
 10
3348.2820160689
 20
348.4926793704904
 30
0.0
 11
3350.265349402234
 21
348.4926793704904
 31
0.0
 12
3349.273682735566
 22
354.4426793704904
 32
0.0
 13
3349.273682735566
 23
354.4426793704904
 33
0.0
  0
SOLID
  5
CC
330
C6
100
AcDbEntity
  8
BEMASSUNG
440
 16777216
100
AcDbTrace
 10
3348.2820160689
 20
330.8926793704907
 30
0.0
 11
3350.265349402234
 21
330.8926793704907
 31
0.0
 12
3349.273682735566
 22
324.9426793704907
 32
0.0
 13
3349.273682735566
 23
324.9426793704907
 33
0.0
  0
MTEXT
  5
CD
330
C6
100
AcDbEntity
  8
BEMASSUNG
 62
     3
440
 16777216
100
AcDbMText
 10
3344.535773458622
 20
339.692679370491
 30
0.0
 40
5.95
 41
0.0
 46
0.0
 71
     5
 72
     1
  1
\A1;29.5
  7
ARIAL-STANDARD
 11
0.0000000000000001
 21
1.0
 31
0.0
 73
     1
 44
1.0
  0
POINT
  5
CE
330
C6
100
AcDbEntity
  8
DEFPOINTS
 62
     0
440
 16777216
100
AcDbPoint
 10
3320.243028964846
 20
354.4426793704904
 30
0.0
  0
POINT
  5
CF
330
C6
100
AcDbEntity
  8
DEFPOINTS
 62
     0
440
 16777216
100
AcDbPoint
 10
3320.243028964846
 20
324.9426793704907
 30
0.0
  0
POINT
  5
D0
330
C6
100
AcDbEntity
  8
DEFPOINTS
 62
     0
440
 16777216
100
AcDbPoint
 10
3349.273682735566
 20
324.9426793704907
 30
0.0
  0
ENDBLK
  5
D1
330
C6
100
AcDbEntity
  8
0
100
AcDbBlockEnd
  0
BLOCK
  5
B8
330
B7
100
AcDbEntity
  8
0
100
AcDbBlockBegin
  2
*D17
 70
     1
 10
0.0
 20
0.0
 30
0.0
  3
*D17
  1

  0
LINE
  5
B9
330
B7
100
AcDbEntity
  8
BEMASSUNG
440
 16777216
370
    -2
100
AcDbLine
 10
3428.656430736023
 20
441.8426793704896
 30
0.0
 11
3428.656430736023
 21
419.1323742528036
 31
0.0
  0
LINE
  5
BA
330
B7
100
AcDbEntity
  8
BEMASSUNG
440
 16777216
370
    -2
100
AcDbLine
 10
3417.656430736023
 20
439.3426793704893
 30
0.0
 11
3417.656430736023
 21
419.1323742528036
 31
0.0
  0
LINE
  5
BB
330
B7
100
AcDbEntity
  8
BEMASSUNG
440
 16777216
370
    -2
100
AcDbLine
 10
3434.606430736022
 20
420.8323742528036
 30
0.0
 11
3440.556430736023
 21
420.8323742528036
 31
0.0
  0
LINE
  5
BC
330
B7
100
AcDbEntity
  8
BEMASSUNG
440
 16777216
370
    -2
100
AcDbLine
 10
3411.706430736023
 20
420.8323742528036
 30
0.0
 11
3405.756430736023
 21
420.8323742528036
 31
0.0
  0
LINE
  5
BD
330
B7
100
AcDbEntity
  8
BEMASSUNG
440
 16777216
370
    -2
100
AcDbLine
 10
3428.656430736023
 20
420.8323742528036
 30
0.0
 11
3417.656430736023
 21
420.8323742528036
 31
0.0
  0
SOLID
  5
BE
330
B7
100
AcDbEntity
  8
BEMASSUNG
440
 16777216
100
AcDbTrace
 10
3434.606430736022
 20
421.8240409194702
 30
0.0
 11
3434.606430736022
 21
419.840707586137
 31
0.0
 12
3428.656430736023
 22
420.8323742528036
 32
0.0
 13
3428.656430736023
 23
420.8323742528036
 33
0.0
  0
SOLID
  5
BF
330
B7
100
AcDbEntity
  8
BEMASSUNG
440
 16777216
100
AcDbTrace
 10
3411.706430736023
 20
421.8240409194702
 30
0.0
 11
3411.706430736023
 21
419.840707586137
 31
0.0
 12
3417.656430736023
 22
420.8323742528036
 32
0.0
 13
3417.656430736023
 23
420.8323742528036
 33
0.0
  0
MTEXT
  5
C0
330
B7
100
AcDbEntity
  8
BEMASSUNG
 62
     3
440
 16777216
100
AcDbMText
 10
3423.156430736023
 20
425.5195502418896
 30
0.0
 40
5.95
 41
0.0
 46
0.0
 71
     5
 72
     1
  1
\A1;11
  7
ARIAL-STANDARD
 73
     1
 44
1.0
  0
POINT
  5
C1
330
B7
100
AcDbEntity
  8
DEFPOINTS
 62
     0
440
 16777216
100
AcDbPoint
 10
3428.656430736023
 20
441.8426793704896
 30
0.0
  0
POINT
  5
C2
330
B7
100
AcDbEntity
  8
DEFPOINTS
 62
     0
440
 16777216
100
AcDbPoint
 10
3417.656430736023
 20
439.3426793704893
 30
0.0
  0
POINT
  5
C3
330
B7
100
AcDbEntity
  8
DEFPOINTS
 62
     0
440
 16777216
100
AcDbPoint
 10
3417.656430736023
 20
420.8323742528036
 30
0.0
  0
ENDBLK
  5
C4
330
B7
100
AcDbEntity
  8
0
100
AcDbBlockEnd
  0
BLOCK
  5
79
330
78
100
AcDbEntity
  8
0
100
AcDbBlockBegin
  2
*D18
 70
     1
 10
0.0
 20
0.0
 30
0.0
  3
*D18
  1

  0
LINE
  5
7A
330
78
100
AcDbEntity
  8
BEMASSUNG
440
 16777216
370
    -2
100
AcDbLine
 10
3281.643028964846
 20
432.4426793704907
 30
0.0
 11
3202.702941749131
 21
432.4426793704907
 31
0.0
  0
LINE
  5
7B
330
78
100
AcDbEntity
  8
BEMASSUNG
440
 16777216
370
    -2
100
AcDbLine
 10
3245.243028964845
 20
256.4426887255975
 30
0.0
 11
3202.702941749131
 21
256.4426887255975
 31
0.0
  0
LINE
  5
7C
330
78
100
AcDbEntity
  8
BEMASSUNG
440
 16777216
370
    -2
100
AcDbLine
 10
3204.40294174913
 20
426.4926793704907
 30
0.0
 11
3204.40294174913
 21
262.3926887255975
 31
0.0
  0
SOLID
  5
7D
330
78
100
AcDbEntity
  8
BEMASSUNG
440
 16777216
100
AcDbTrace
 10
3203.411275082463
 20
426.4926793704907
 30
0.0
 11
3205.394608415797
 21
426.4926793704907
 31
0.0
 12
3204.40294174913
 22
432.4426793704907
 32
0.0
 13
3204.40294174913
 23
432.4426793704907
 33
0.0
  0
SOLID
  5
7E
330
78
100
AcDbEntity
  8
BEMASSUNG
440
 16777216
100
AcDbTrace
 10
3203.411275082463
 20
262.3926887255975
 30
0.0
 11
3205.394608415797
 21
262.3926887255975
 31
0.0
 12
3204.40294174913
 22
256.4426887255975
 32
0.0
 13
3204.40294174913
 23
256.4426887255975
 33
0.0
  0
MTEXT
  5
7F
330
78
100
AcDbEntity
  8
BEMASSUNG
 62
     3
440
 16777216
100
AcDbMText
 10
3199.665032472186
 20
344.4426840480447
 30
0.0
 40
5.95
 41
0.0
 46
0.0
 71
     5
 72
     1
  1
\A1;176
  7
ARIAL-STANDARD
 11
0.0000000000000001
 21
1.0
 31
0.0
 73
     1
 44
1.0
  0
POINT
  5
80
330
78
100
AcDbEntity
  8
DEFPOINTS
 62
     0
440
 16777216
100
AcDbPoint
 10
3281.643028964846
 20
432.4426793704907
 30
0.0
  0
POINT
  5
81
330
78
100
AcDbEntity
  8
DEFPOINTS
 62
     0
440
 16777216
100
AcDbPoint
 10
3245.243028964845
 20
256.4426887255975
 30
0.0
  0
POINT
  5
82
330
78
100
AcDbEntity
  8
DEFPOINTS
 62
     0
440
 16777216
100
AcDbPoint
 10
3204.40294174913
 20
256.4426887255975
 30
0.0
  0
ENDBLK
  5
83
330
78
100
AcDbEntity
  8
0
100
AcDbBlockEnd
  0
BLOCK
  5
6B
330
6A
100
AcDbEntity
  8
0
100
AcDbBlockBegin
  2
*D19
 70
     1
 10
0.0
 20
0.0
 30
0.0
  3
*D19
  1

  0
LINE
  5
6C
330
6A
100
AcDbEntity
  8
BEMASSUNG
440
 16777216
370
    -2
100
AcDbLine
 10
3431.756430736023
 20
576.4426793704907
 30
0.0
 11
3456.989371429187
 21
576.4426793704907
 31
0.0
  0
LINE
  5
6D
330
6A
100
AcDbEntity
  8
BEMASSUNG
440
 16777216
370
    -2
100
AcDbLine
 10
3431.756430736023
 20
256.4426793704907
 30
0.0
 11
3456.989371429187
 21
256.4426793704907
 31
0.0
  0
LINE
  5
6E
330
6A
100
AcDbEntity
  8
BEMASSUNG
440
 16777216
370
    -2
100
AcDbLine
 10
3455.289371429188
 20
570.4926793704906
 30
0.0
 11
3455.289371429188
 21
262.3926793704907
 31
0.0
  0
SOLID
  5
6F
330
6A
100
AcDbEntity
  8
BEMASSUNG
440
 16777216
100
AcDbTrace
 10
3454.297704762521
 20
570.4926793704906
 30
0.0
 11
3456.281038095855
 21
570.4926793704906
 31
0.0
 12
3455.289371429188
 22
576.4426793704907
 32
0.0
 13
3455.289371429188
 23
576.4426793704907
 33
0.0
  0
SOLID
  5
70
330
6A
100
AcDbEntity
  8
BEMASSUNG
440
 16777216
100
AcDbTrace
 10
3454.297704762521
 20
262.3926793704907
 30
0.0
 11
3456.281038095855
 21
262.3926793704907
 31
0.0
 12
3455.289371429188
 22
256.4426793704907
 32
0.0
 13
3455.289371429188
 23
256.4426793704907
 33
0.0
  0
MTEXT
  5
71
330
6A
100
AcDbEntity
  8
BEMASSUNG
 62
     3
440
 16777216
100
AcDbMText
 10
3450.549432820729
 20
416.4426793704905
 30
0.0
 40
5.95
 41
0.0
 46
0.0
 71
     5
 72
     1
  1
\A1;320
  7
ARIAL-STANDARD
 11
0.0000000000000001
 21
1.0
 31
0.0
 73
     1
 44
1.0
  0
POINT
  5
72
330
6A
100
AcDbEntity
  8
DEFPOINTS
 62
     0
440
 16777216
100
AcDbPoint
 10
3431.756430736023
 20
576.4426793704907
 30
0.0
  0
POINT
  5
73
330
6A
100
AcDbEntity
  8
DEFPOINTS
 62
     0
440
 16777216
100
AcDbPoint
 10
3431.756430736023
 20
256.4426793704907
 30
0.0
  0
POINT
  5
74
330
6A
100
AcDbEntity
  8
DEFPOINTS
 62
     0
440
 16777216
100
AcDbPoint
 10
3455.289371429188
 20
256.4426793704907
 30
0.0
  0
ENDBLK
  5
75
330
6A
100
AcDbEntity
  8
0
100
AcDbBlockEnd
  0
BLOCK
  5
5A
330
59
100
AcDbEntity
  8
0
100
AcDbBlockBegin
  2
*D20
 70
     1
 10
0.0
 20
0.0
 30
0.0
  3
*D20
  1

  0
LINE
  5
5B
330
59
100
AcDbEntity
  8
BEMASSUNG
440
 16777216
370
    -2
100
AcDbLine
 10
3417.656430736023
 20
469.5426793704896
 30
0.0
 11
3417.656430736023
 21
485.1835256976471
 31
0.0
  0
LINE
  5
5C
330
59
100
AcDbEntity
  8
BEMASSUNG
440
 16777216
370
    -2
100
AcDbLine
 10
3414.656430736024
 20
480.6458495270286
 30
0.0
 11
3414.656430736024
 21
485.1835256976471
 31
0.0
  0
LINE
  5
5D
330
59
100
AcDbEntity
  8
BEMASSUNG
440
 16777216
370
    -2
100
AcDbLine
 10
3423.606430736022
 20
483.4835256976472
 30
0.0
 11
3429.556430736023
 21
483.4835256976472
 31
0.0
  0
LINE
  5
5E
330
59
100
AcDbEntity
  8
BEMASSUNG
440
 16777216
370
    -2
100
AcDbLine
 10
3408.706430736025
 20
483.4835256976472
 30
0.0
 11
3388.552269753759
 21
483.4835256976472
 31
0.0
  0
LINE
  5
5F
330
59
100
AcDbEntity
  8
BEMASSUNG
440
 16777216
370
    -2
100
AcDbLine
 10
3417.656430736023
 20
483.4835256976472
 30
0.0
 11
3414.656430736024
 21
483.4835256976472
 31
0.0
  0
SOLID
  5
60
330
59
100
AcDbEntity
  8
BEMASSUNG
440
 16777216
100
AcDbTrace
 10
3423.606430736022
 20
484.4751923643139
 30
0.0
 11
3423.606430736022
 21
482.4918590309805
 31
0.0
 12
3417.656430736023
 22
483.4835256976472
 32
0.0
 13
3417.656430736023
 23
483.4835256976472
 33
0.0
  0
SOLID
  5
61
330
59
100
AcDbEntity
  8
BEMASSUNG
440
 16777216
100
AcDbTrace
 10
3408.706430736025
 20
484.4751923643139
 30
0.0
 11
3408.706430736025
 21
482.4918590309805
 31
0.0
 12
3414.656430736024
 22
483.4835256976472
 32
0.0
 13
3414.656430736024
 23
483.4835256976472
 33
0.0
  0
MTEXT
  5
62
330
59
100
AcDbEntity
  8
BEMASSUNG
 62
     3
440
 16777216
100
AcDbMText
 10
3395.654350244893
 20
488.2620216048777
 30
0.0
 40
5.95
 41
0.0
 46
0.0
 71
     5
 72
     1
  1
\A1;3/4
  7
ARIAL-STANDARD
 73
     1
 44
1.0
  0
POINT
  5
63
330
59
100
AcDbEntity
  8
DEFPOINTS
 62
     0
440
 16777216
100
AcDbPoint
 10
3417.656430736023
 20
469.5426793704896
 30
0.0
  0
POINT
  5
64
330
59
100
AcDbEntity
  8
DEFPOINTS
 62
     0
440
 16777216
100
AcDbPoint
 10
3414.656430736024
 20
480.6458495270286
 30
0.0
  0
POINT
  5
65
330
59
100
AcDbEntity
  8
DEFPOINTS
 62
     0
440
 16777216
100
AcDbPoint
 10
3414.656430736024
 20
483.4835256976472
 30
0.0
  0
ENDBLK
  5
66
330
59
100
AcDbEntity
  8
0
100
AcDbBlockEnd
  0
BLOCK
  5
4B
330
4A
100
AcDbEntity
  8
0
100
AcDbBlockBegin
  2
*D21
 70
     1
 10
0.0
 20
0.0
 30
0.0
  3
*D21
  1

  0
LINE
  5
4C
330
4A
100
AcDbEntity
  8
BEMASSUNG
440
 16777216
370
    -2
100
AcDbLine
 10
3418.156430736023
 20
362.1426793704896
 30
0.0
 11
3418.156430736023
 21
349.7550250181653
 31
0.0
  0
LINE
  5
4D
330
4A
100
AcDbEntity
  8
BEMASSUNG
440
 16777216
370
    -2
100
AcDbLine
 10
3425.656430736023
 20
362.1426793704896
 30
0.0
 11
3425.656430736023
 21
349.7550250181653
 31
0.0
  0
LINE
  5
4E
330
4A
100
AcDbEntity
  8
BEMASSUNG
440
 16777216
370
    -2
100
AcDbLine
 10
3431.606430736023
 20
351.4550250181653
 30
0.0
 11
3437.556430736023
 21
351.4550250181653
 31
0.0
  0
LINE
  5
4F
330
4A
100
AcDbEntity
  8
BEMASSUNG
440
 16777216
370
    -2
100
AcDbLine
 10
3412.206430736023
 20
351.4550250181653
 30
0.0
 11
3392.027917775588
 21
351.4550250181653
 31
0.0
  0
LINE
  5
50
330
4A
100
AcDbEntity
  8
BEMASSUNG
440
 16777216
370
    -2
100
AcDbLine
 10
3425.656430736023
 20
351.4550250181653
 30
0.0
 11
3418.156430736023
 21
351.4550250181653
 31
0.0
  0
SOLID
  5
51
330
4A
100
AcDbEntity
  8
BEMASSUNG
440
 16777216
100
AcDbTrace
 10
3431.606430736023
 20
352.446691684832
 30
0.0
 11
3431.606430736023
 21
350.4633583514987
 31
0.0
 12
3425.656430736023
 22
351.4550250181653
 32
0.0
 13
3425.656430736023
 23
351.4550250181653
 33
0.0
  0
SOLID
  5
52
330
4A
100
AcDbEntity
  8
BEMASSUNG
440
 16777216
100
AcDbTrace
 10
3412.206430736023
 20
352.446691684832
 30
0.0
 11
3412.206430736023
 21
350.4633583514987
 31
0.0
 12
3418.156430736023
 22
351.4550250181653
 32
0.0
 13
3418.156430736023
 23
351.4550250181653
 33
0.0
  0
MTEXT
  5
53
330
4A
100
AcDbEntity
  8
BEMASSUNG
 62
     3
440
 16777216
100
AcDbMText
 10
3399.142174255806
 20
356.1807583060235
 30
0.0
 40
5.95
 41
0.0
 46
0.0
 71
     5
 72
     1
  1
\A1;7.5
  7
ARIAL-STANDARD
 73
     1
 44
1.0
  0
POINT
  5
54
330
4A
100
AcDbEntity
  8
DEFPOINTS
 62
     0
440
 16777216
100
AcDbPoint
 10
3418.156430736023
 20
362.1426793704896
 30
0.0
  0
POINT
  5
55
330
4A
100
AcDbEntity
  8
DEFPOINTS
 62
     0
440
 16777216
100
AcDbPoint
 10
3425.656430736023
 20
362.1426793704896
 30
0.0
  0
POINT
  5
56
330
4A
100
AcDbEntity
  8
DEFPOINTS
 62
     0
440
 16777216
100
AcDbPoint
 10
3425.656430736023
 20
351.4550250181653
 30
0.0
  0
ENDBLK
  5
57
330
4A
100
AcDbEntity
  8
0
100
AcDbBlockEnd
  0
BLOCK
  5
3B
330
3A
100
AcDbEntity
  8
0
100
AcDbBlockBegin
  2
*D22
 70
     1
 10
0.0
 20
0.0
 30
0.0
  3
*D22
  1

  0
LINE
  5
3C
330
3A
100
AcDbEntity
  8
BEMASSUNG
440
 16777216
370
    -2
100
AcDbLine
 10
3414.656430736024
 20
397.5140734951525
 30
0.0
 11
3414.656430736024
 21
408.5211481162262
 31
0.0
  0
LINE
  5
3D
330
3A
100
AcDbEntity
  8
BEMASSUNG
440
 16777216
370
    -2
100
AcDbLine
 10
3418.156430736024
 20
390.7426793704893
 30
0.0
 11
3418.156430736024
 21
408.5211481162262
 31
0.0
  0
LINE
  5
3E
330
3A
100
AcDbEntity
  8
BEMASSUNG
440
 16777216
370
    -2
100
AcDbLine
 10
3424.106430736023
 20
406.8211481162261
 30
0.0
 11
3430.056430736024
 21
406.8211481162261
 31
0.0
  0
LINE
  5
3F
330
3A
100
AcDbEntity
  8
BEMASSUNG
440
 16777216
370
    -2
100
AcDbLine
 10
3408.706430736025
 20
406.8211481162261
 30
0.0
 11
3374.535547379954
 21
406.8211481162261
 31
0.0
  0
LINE
  5
40
330
3A
100
AcDbEntity
  8
BEMASSUNG
440
 16777216
370
    -2
100
AcDbLine
 10
3418.156430736024
 20
406.8211481162261
 30
0.0
 11
3414.656430736024
 21
406.8211481162261
 31
0.0
  0
SOLID
  5
41
330
3A
100
AcDbEntity
  8
BEMASSUNG
440
 16777216
100
AcDbTrace
 10
3424.106430736023
 20
407.8128147828928
 30
0.0
 11
3424.106430736023
 21
405.8294814495594
 31
0.0
 12
3418.156430736024
 22
406.8211481162261
 32
0.0
 13
3418.156430736024
 23
406.8211481162261
 33
0.0
  0
SOLID
  5
42
330
3A
100
AcDbEntity
  8
BEMASSUNG
440
 16777216
100
AcDbTrace
 10
3408.706430736025
 20
407.8128147828928
 30
0.0
 11
3408.706430736025
 21
405.8294814495594
 31
0.0
 12
3414.656430736024
 22
406.8211481162261
 32
0.0
 13
3414.656430736024
 23
406.8211481162261
 33
0.0
  0
MTEXT
  5
43
330
3A
100
AcDbEntity
  8
BEMASSUNG
 62
     3
440
 16777216
100
AcDbMText
 10
3388.604322959763
 20
411.5996440234567
 30
0.0
 40
5.95
 41
0.0
 46
0.0
 71
     5
 72
     1
  1
\A1;3.5/4.5
  7
ARIAL-STANDARD
 73
     1
 44
1.0
  0
POINT
  5
44
330
3A
100
AcDbEntity
  8
DEFPOINTS
 62
     0
440
 16777216
100
AcDbPoint
 10
3414.656430736024
 20
397.5140734951525
 30
0.0
  0
POINT
  5
46
330
3A
100
AcDbEntity
  8
DEFPOINTS
 62
     0
440
 16777216
100
AcDbPoint
 10
3418.156430736024
 20
390.7426793704893
 30
0.0
  0
POINT
  5
47
330
3A
100
AcDbEntity
  8
DEFPOINTS
 62
     0
440
 16777216
100
AcDbPoint
 10
3418.156430736024
 20
406.8211481162261
 30
0.0
  0
ENDBLK
  5
48
330
3A
100
AcDbEntity
  8
0
100
AcDbBlockEnd
  0
BLOCK
  5
391
330
38F
100
AcDbEntity
  8
0
100
AcDbBlockBegin
  2
GENAXEH
 70
     0
 10
0.0
 20
0.0
 30
0.0
  3
GENAXEH
  1

  0
LINE
  5
390
330
38F
100
AcDbEntity
  8
0
100
AcDbLine
 10
-1.0
 20
0.0
 30
0.0
 11
1.0
 21
0.0
 31
0.0
  0
ENDBLK
  5
392
330
38F
100
AcDbEntity
  8
0
100
AcDbBlockEnd
  0
BLOCK
  5
3A1
330
3A0
100
AcDbEntity
  8
0
100
AcDbBlockBegin
  2
_ACMFILLED30
 70
     0
 10
0.0
 20
0.0
 30
0.0
  3
_ACMFILLED30
  1

  0
TRACE
  5
3A3
330
3A0
100
AcDbEntity
  8
UMRISS07
 62
     0
100
AcDbTrace
 10
-1.0
 20
-0.26794919
 30
0.0
 11
-1.0
 21
0.26794919
 31
0.0
 12
0.0
 22
0.0
 32
0.0
 13
0.0
 23
0.0
 33
0.0
  0
ENDBLK
  5
3A2
330
3A0
100
AcDbEntity
  8
0
100
AcDbBlockEnd
  0
BLOCK
  5
3C0
330
3BF
100
AcDbEntity
  8
0
100
AcDbBlockBegin
  2
*D26
 70
     1
 10
0.0
 20
0.0
 30
0.0
  3
*D26
  1

  0
LINE
  5
411
330
3BF
100
AcDbEntity
  8
BEMASSUNG
440
 16777216
370
    -2
100
AcDbLine
 10
3245.243028964845
 20
256.4426887255975
 30
0.0
 11
3245.243028964845
 21
229.4218733969845
 31
0.0
  0
LINE
  5
412
330
3BF
100
AcDbEntity
  8
BEMASSUNG
440
 16777216
370
    -2
100
AcDbLine
 10
3248.243028964846
 20
256.4426887255975
 30
0.0
 11
3248.243028964846
 21
229.4218733969845
 31
0.0
  0
LINE
  5
413
330
3BF
100
AcDbEntity
  8
BEMASSUNG
440
 16777216
370
    -2
100
AcDbLine
 10
3239.293028964846
 20
231.1218733969845
 30
0.0
 11
3233.343028964845
 21
231.1218733969845
 31
0.0
  0
LINE
  5
414
330
3BF
100
AcDbEntity
  8
BEMASSUNG
440
 16777216
370
    -2
100
AcDbLine
 10
3254.193028964846
 20
231.1218733969845
 30
0.0
 11
3267.43934547235
 21
231.1218733969845
 31
0.0
  0
LINE
  5
415
330
3BF
100
AcDbEntity
  8
BEMASSUNG
440
 16777216
370
    -2
100
AcDbLine
 10
3245.243028964845
 20
231.1218733969845
 30
0.0
 11
3248.243028964846
 21
231.1218733969845
 31
0.0
  0
SOLID
  5
416
330
3BF
100
AcDbEntity
  8
BEMASSUNG
440
 16777216
100
AcDbTrace
 10
3239.293028964846
 20
232.1135400636511
 30
0.0
 11
3239.293028964846
 21
230.1302067303178
 31
0.0
 12
3245.243028964845
 22
231.1218733969845
 32
0.0
 13
3245.243028964845
 23
231.1218733969845
 33
0.0
  0
SOLID
  5
417
330
3BF
100
AcDbEntity
  8
BEMASSUNG
440
 16777216
100
AcDbTrace
 10
3254.193028964846
 20
232.1135400636511
 30
0.0
 11
3254.193028964846
 21
230.1302067303178
 31
0.0
 12
3248.243028964846
 22
231.1218733969845
 32
0.0
 13
3248.243028964846
 23
231.1218733969845
 33
0.0
  0
MTEXT
  5
418
330
3BF
100
AcDbEntity
  8
BEMASSUNG
 62
     3
440
 16777216
100
AcDbMText
 10
3263.791187218598
 20
235.8618120054429
 30
0.0
 40
5.95
 41
0.0
 46
0.0
 71
     5
 72
     1
  1
\A1;3
  7
ARIAL-STANDARD
 73
     1
 44
1.0
  0
POINT
  5
419
330
3BF
100
AcDbEntity
  8
DEFPOINTS
 62
     0
440
 16777216
100
AcDbPoint
 10
3245.243028964845
 20
256.4426887255975
 30
0.0
  0
POINT
  5
41A
330
3BF
100
AcDbEntity
  8
DEFPOINTS
 62
     0
440
 16777216
100
AcDbPoint
 10
3248.243028964846
 20
256.4426887255975
 30
0.0
  0
POINT
  5
41B
330
3BF
100
AcDbEntity
  8
DEFPOINTS
 62
     0
440
 16777216
100
AcDbPoint
 10
3248.243028964846
 20
231.1218733969845
 30
0.0
  0
ENDBLK
  5
3C1
330
3BF
100
AcDbEntity
  8
0
100
AcDbBlockEnd
  0
ENDSEC
  0
SECTION
  2
ENTITIES
  0
DIMENSION
  5
38
330
2
100
AcDbEntity
  8
BEMASSUNG
100
AcDbDimension
280
     0
  2
*D22
 10
3418.156430736024
 20
406.8211481162261
 30
0.0
 11
3388.604322959763
 21
406.8211481162261
 31
0.0
 70
   128
  1
<>/4.5
 71
     5
 42
3.5
 73
     0
 74
     0
 75
     0
  3
NORMAL
100
AcDbAlignedDimension
 13
3414.656430736024
 23
397.5140734951525
 33
0.0
 14
3418.156430736024
 24
390.7426793704893
 34
0.0
100
AcDbRotatedDimension
  0
DIMENSION
  5
49
330
2
100
AcDbEntity
  8
BEMASSUNG
100
AcDbDimension
280
     0
  2
*D21
 10
3425.656430736023
 20
351.4550250181653
 30
0.0
 11
3399.142174255806
 21
351.4550250181653
 31
0.0
 70
   128
 71
     5
 42
7.5
 73
     0
 74
     0
 75
     0
  3
NORMAL
100
AcDbAlignedDimension
 13
3418.156430736023
 23
362.1426793704896
 33
0.0
 14
3425.656430736023
 24
362.1426793704896
 34
0.0
100
AcDbRotatedDimension
  0
DIMENSION
  5
58
330
2
100
AcDbEntity
  8
BEMASSUNG
100
AcDbDimension
280
     0
  2
*D20
 10
3414.656430736024
 20
483.4835256976472
 30
0.0
 11
3395.654350244893
 21
483.4835256976472
 31
0.0
 70
   128
  1
<>/4
 71
     5
 42
2.999999999999089
 73
     0
 74
     0
 75
     0
  3
NORMAL
100
AcDbAlignedDimension
 13
3417.656430736023
 23
469.5426793704896
 33
0.0
 14
3414.656430736024
 24
480.6458495270286
 34
0.0
100
AcDbRotatedDimension
  0
LINE
  5
67
330
2
100
AcDbEntity
  8
UMRISS05
100
AcDbLine
 10
3414.656430736023
 20
576.4426887255978
 30
0.0
 11
3432.656430736023
 21
576.4426887255978
 31
0.0
  0
DIMENSION
  5
69
330
2
100
AcDbEntity
  8
BEMASSUNG
100
AcDbDimension
280
     0
  2
*D19
 10
3455.289371429188
 20
256.4426793704907
 30
0.0
 11
3455.289371429188
 21
416.4426793704905
 31
0.0
 70
   128
 71
     5
 42
320.0000000000001
 73
     0
 74
     0
 75
     0
  3
NORMAL
100
AcDbAlignedDimension
 13
3431.756430736023
 23
576.4426793704907
 33
0.0
 14
3431.756430736023
 24
256.4426793704907
 34
0.0
 50
90.0
100
AcDbRotatedDimension
  0
LINE
  5
76
330
2
100
AcDbEntity
  8
UMRISS05
100
AcDbLine
 10
3432.656430736024
 20
256.4426887255978
 30
0.0
 11
3414.656430736022
 21
256.4426887255975
 31
0.0
  0
DIMENSION
  5
77
330
2
100
AcDbEntity
  8
BEMASSUNG
100
AcDbDimension
280
     0
  2
*D18
 10
3204.40294174913
 20
256.4426887255975
 30
0.0
 11
3199.665032472186
 21
344.4426840480447
 31
0.0
 71
     5
 42
175.9999906448932
 73
     0
 74
     0
 75
     0
  3
NORMAL
100
AcDbAlignedDimension
 13
3281.643028964846
 23
432.4426793704907
 33
0.0
 14
3245.243028964845
 24
256.4426887255975
 34
0.0
 50
90.0
100
AcDbRotatedDimension
  0
LINE
  5
84
330
2
100
AcDbEntity
  8
UMRISS05
100
AcDbLine
 10
3225.243028964851
 20
174.383238361527
 30
0.0
 11
3239.805991927813
 21
174.3832383615271
 31
0.0
  0
LINE
  5
85
330
2
100
AcDbEntity
  8
UMRISS05
100
AcDbLine
 10
3238.243028964849
 20
181.8832383615268
 30
0.0
 11
3245.243028964845
 21
181.8832383615266
 31
0.0
  0
LINE
  5
86
330
2
100
AcDbEntity
  8
UMRISS05
100
AcDbLine
 10
3243.643028964851
 20
170.6832383615269
 30
0.0
 11
3245.243028964845
 21
170.6832383615269
 31
0.0
  0
LINE
  5
87
330
2
100
AcDbEntity
  8
UMRISS05
100
AcDbLine
 10
3225.243028964851
 20
181.5832383615269
 30
0.0
 11
3237.343028964851
 21
181.5832383615269
 31
0.0
  0
LINE
  5
88
330
2
100
AcDbEntity
  8
UMRISS05
100
AcDbLine
 10
3225.243028964851
 20
181.5832383615269
 30
0.0
 11
3225.243028964851
 21
174.383238361527
 31
0.0
  0
LINE
  5
89
330
2
100
AcDbEntity
  8
UMRISS05
100
AcDbLine
 10
3235.243028964851
 20
180.8832383615268
 30
0.0
 11
3235.243028964851
 21
178.7832383615271
 31
0.0
  0
LINE
  5
8A
330
2
100
AcDbEntity
  8
UMRISS05
100
AcDbLine
 10
3238.243028964849
 20
181.8832383615269
 30
0.0
 11
3235.243028964851
 21
180.8832383615266
 31
0.0
  0
LINE
  5
8B
330
2
100
AcDbEntity
  8
UMRISS05
100
AcDbLine
 10
3235.243028964851
 20
178.7832383615269
 30
0.0
 11
3243.64302896485
 21
170.6832383615269
 31
0.0
  0
LINE
  5
8C
330
2
100
AcDbEntity
  8
UMRISS05
100
AcDbLine
 10
3235.243028964851
 20
178.7832383615269
 30
0.0
 11
3245.243028964845
 21
178.7832383615269
 31
0.0
  0
LINE
  5
8D
330
2
100
AcDbEntity
  8
UMRISS05
100
AcDbLine
 10
3260.243028964847
 20
318.5926793704909
 30
0.0
 11
3248.743028964843
 21
318.5926793704909
 31
0.0
  0
ARC
  5
8E
330
2
100
AcDbEntity
  8
UMRISS05
100
AcDbCircle
 10
3260.243028964844
 20
315.5926793704904
 30
0.0
 40
3.000000000000909
100
AcDbArc
 50
359.9999999999827
 51
89.99999999999131
  0
LINE
  5
8F
330
2
100
AcDbEntity
  8
UMRISS05
100
AcDbLine
 10
3263.243028964847
 20
307.2387520455732
 30
0.0
 11
3263.243028964847
 21
315.5926793704895
 31
0.0
  0
LINE
  5
90
330
2
100
AcDbEntity
  8
UMRISS05
100
AcDbLine
 10
3248.743028964842
 20
318.5926793704904
 30
0.0
 11
3248.743028964842
 21
304.442688725598
 31
0.0
  0
LINE
  5
91
330
2
100
AcDbEntity
  8
UMRISS05
100
AcDbLine
 10
3248.743028964844
 20
548.7426887255976
 30
0.0
 11
3248.743028964844
 21
504.4426793704901
 31
0.0
  0
ARC
  5
92
330
2
100
AcDbEntity
  8
UMRISS05
100
AcDbCircle
 10
3250.743028964846
 20
548.7426887255976
 30
0.0
 40
2.0
100
AcDbArc
 50
90.0
 51
180.0
  0
LINE
  5
93
330
2
100
AcDbEntity
  8
UMRISS05
100
AcDbLine
 10
3260.514601840099
 20
550.7426887255974
 30
0.0
 11
3250.743028964846
 21
550.7426887255976
 31
0.0
  0
ARC
  5
94
330
2
100
AcDbEntity
  8
UMRISS05
100
AcDbCircle
 10
3260.514601840099
 20
548.742688725597
 30
0.0
 40
2.000000000000497
100
AcDbArc
 50
45.0000000000046
 51
90.0
  0
LINE
  5
95
330
2
100
AcDbEntity
  8
UMRISS05
100
AcDbLine
 10
3262.757242527218
 20
549.3284751632245
 30
0.0
 11
3261.928815402472
 21
550.1569022879705
 31
0.0
  0
ARC
  5
96
330
2
100
AcDbEntity
  8
UMRISS05
100
AcDbCircle
 10
3261.343028964843
 20
547.9142616008516
 30
0.0
 40
2.0
100
AcDbArc
 50
359.9999999999968
 51
44.99999999998848
  0
LINE
  5
97
330
2
100
AcDbEntity
  8
UMRISS05
100
AcDbLine
 10
3263.343028964845
 20
546.5711158503428
 30
0.0
 11
3263.343028964845
 21
547.9142616008515
 31
0.0
  0
ARC
  5
98
330
2
100
AcDbEntity
  8
UMRISS05
100
AcDbCircle
 10
3261.343028964843
 20
546.5711158503437
 30
0.0
 40
2.000000000000497
100
AcDbArc
 50
314.9999999999768
 51
359.999999999974
  0
LINE
  5
99
330
2
100
AcDbEntity
  8
UMRISS05
100
AcDbLine
 10
3261.928815402472
 20
544.3284751632242
 30
0.0
 11
3262.757242527217
 21
545.1569022879698
 31
0.0
  0
ARC
  5
9A
330
2
100
AcDbEntity
  8
UMRISS05
100
AcDbCircle
 10
3260.514601840099
 20
545.7426887255983
 30
0.0
 40
2.000000000000681
100
AcDbArc
 50
270.0
 51
314.9999999999862
  0
LINE
  5
9B
330
2
100
AcDbEntity
  8
UMRISS05
100
AcDbLine
 10
3254.743028964844
 20
543.7426887255976
 30
0.0
 11
3260.514601840099
 21
543.7426887255976
 31
0.0
  0
ARC
  5
9C
330
2
100
AcDbEntity
  8
UMRISS05
100
AcDbCircle
 10
3254.743028964844
 20
542.7426887255976
 30
0.0
 40
1.0
100
AcDbArc
 50
90.0
 51
180.0
  0
LINE
  5
9D
330
2
100
AcDbEntity
  8
UMRISS05
100
AcDbLine
 10
3253.743028964844
 20
538.7426887255976
 30
0.0
 11
3253.743028964844
 21
542.7426887255976
 31
0.0
  0
ARC
  5
9E
330
2
100
AcDbEntity
  8
UMRISS05
100
AcDbCircle
 10
3254.743028964844
 20
538.7426887255976
 30
0.0
 40
1.0
100
AcDbArc
 50
180.0
 51
270.0
  0
LINE
  5
9F
330
2
100
AcDbEntity
  8
UMRISS05
100
AcDbLine
 10
3267.823209010082
 20
537.7426887255976
 30
0.0
 11
3254.743028964844
 21
537.7426887255976
 31
0.0
  0
ARC
  5
A0
330
2
100
AcDbEntity
  8
UMRISS05
100
AcDbCircle
 10
3267.823209010082
 20
535.7426887255976
 30
0.0
 40
2.0
100
AcDbArc
 50
0.0
 51
90.0
  0
LINE
  5
A1
330
2
100
AcDbEntity
  8
UMRISS05
100
AcDbLine
 10
3269.823209010082
 20
505.5628578837434
 30
0.0
 11
3269.823209010082
 21
535.7426887255976
 31
0.0
  0
ARC
  5
A2
330
2
100
AcDbEntity
  8
UMRISS05
100
AcDbCircle
 10
3271.823209010083
 20
505.5628578837448
 30
0.0
 40
2.000000000000451
100
AcDbArc
 50
180.0000000000391
 51
210.0000000000377
  0
LINE
  5
A3
330
2
100
AcDbEntity
  8
UMRISS05
100
AcDbLine
 10
3270.160543299491
 20
504.4426793704903
 30
0.0
 11
3270.091158202514
 21
504.5628578837433
 31
0.0
  0
LINE
  5
A4
330
2
100
AcDbEntity
  8
UMRISS05
100
AcDbLine
 10
3255.743028964841
 20
318.4426887255977
 30
0.0
 11
3261.179750201822
 21
318.4426887255976
 31
0.0
  0
ARC
  5
A5
330
2
100
AcDbEntity
  8
UMRISS05
100
AcDbCircle
 10
3255.743028964841
 20
316.4426887255978
 30
0.0
 40
2.0
100
AcDbArc
 50
90.0
 51
180.0
  0
LINE
  5
A6
330
2
100
AcDbEntity
  8
UMRISS05
100
AcDbLine
 10
3253.743028964841
 20
310.4426793704886
 30
0.0
 11
3253.743028964841
 21
316.4426887255978
 31
0.0
  0
ARC
  5
A7
330
2
100
AcDbEntity
  8
UMRISS05
100
AcDbCircle
 10
3254.743028964841
 20
310.4426793704886
 30
0.0
 40
1.0
100
AcDbArc
 50
180.0
 51
270.0
  0
LINE
  5
A8
330
2
100
AcDbEntity
  8
UMRISS05
100
AcDbLine
 10
3260.514601840096
 20
309.4426793704887
 30
0.0
 11
3254.743028964841
 21
309.4426793704887
 31
0.0
  0
ARC
  5
A9
330
2
100
AcDbEntity
  8
UMRISS05
100
AcDbCircle
 10
3260.514601840095
 20
307.4426793704877
 30
0.0
 40
2.00000000000094
100
AcDbArc
 50
45.00000000003568
 51
89.99999999998697
  0
LINE
  5
AA
330
2
100
AcDbEntity
  8
UMRISS05
100
AcDbLine
 10
3262.757242527213
 20
308.0284658081164
 30
0.0
 11
3261.928815402469
 21
308.8568929328623
 31
0.0
  0
ARC
  5
AB
330
2
100
AcDbEntity
  8
UMRISS05
100
AcDbCircle
 10
3261.343028964841
 20
306.6142522457425
 30
0.0
 40
2.000000000000454
100
AcDbArc
 50
0.0000000000162844
 51
45.00000000002073
  0
LINE
  5
AC
330
2
100
AcDbEntity
  8
UMRISS05
100
AcDbLine
 10
3263.343028964842
 20
305.2711064952346
 30
0.0
 11
3263.343028964842
 21
306.6142522457432
 31
0.0
  0
ARC
  5
AD
330
2
100
AcDbEntity
  8
UMRISS05
100
AcDbCircle
 10
3261.343028964841
 20
305.2711064952347
 30
0.0
 40
1.999999999999934
100
AcDbArc
 50
315.0000000000115
 51
359.9999999999968
  0
LINE
  5
AE
330
2
100
AcDbEntity
  8
UMRISS05
100
AcDbLine
 10
3261.928815402469
 20
303.0284658081157
 30
0.0
 11
3262.757242527215
 21
303.8568929328619
 31
0.0
  0
ARC
  5
AF
330
2
100
AcDbEntity
  8
UMRISS05
100
AcDbCircle
 10
3260.514601840096
 20
304.4426793704887
 30
0.0
 40
2.000000000000055
100
AcDbArc
 50
270.0
 51
315.000000000008
  0
LINE
  5
B0
330
2
100
AcDbEntity
  8
UMRISS05
100
AcDbLine
 10
3250.743028964842
 20
302.4426793704886
 30
0.0
 11
3260.514601840096
 21
302.4426793704886
 31
0.0
  0
ARC
  5
B1
330
2
100
AcDbEntity
  8
UMRISS05
100
AcDbCircle
 10
3250.743028964842
 20
304.4426793704886
 30
0.0
 40
2.0
100
AcDbArc
 50
180.0
 51
270.0
  0
LINE
  5
B2
330
2
100
AcDbEntity
  8
ACHSEN
100
AcDbLine
 10
3250.243028964844
 20
264.4426887255978
 30
0.0
 11
3243.243028964844
 21
264.4426887255978
 31
0.0
  0
LINE
  5
B5
330
2
100
AcDbEntity
  8
ACHSEN
100
AcDbLine
 10
3250.243028964844
 20
568.4426887255978
 30
0.0
 11
3243.243028964844
 21
568.4426887255978
 31
0.0
  0
DIMENSION
  5
B6
330
2
100
AcDbEntity
  8
BEMASSUNG
100
AcDbDimension
280
     0
  2
*D17
 10
3417.656430736023
 20
420.8323742528036
 30
0.0
 11
3423.156430736023
 21
425.5195502418896
 31
0.0
 71
     5
 42
11.0
 73
     0
 74
     0
 75
     0
  3
NORMAL
100
AcDbAlignedDimension
 13
3428.656430736023
 23
441.8426793704896
 33
0.0
 14
3417.656430736023
 24
439.3426793704893
 34
0.0
100
AcDbRotatedDimension
  0
DIMENSION
  5
C5
330
2
100
AcDbEntity
  8
BEMASSUNG
100
AcDbDimension
280
     0
  2
*D16
 10
3349.273682735566
 20
324.9426793704907
 30
0.0
 11
3344.535773458622
 21
339.692679370491
 31
0.0
 71
     5
 42
29.49999999999955
 73
     0
 74
     0
 75
     0
  3
NORMAL
100
AcDbAlignedDimension
 13
3320.243028964846
 23
354.4426793704904
 33
0.0
 14
3320.243028964846
 24
324.9426793704907
 34
0.0
 50
90.0
100
AcDbRotatedDimension
  0
LINE
  5
D2
330
2
100
AcDbEntity
  8
ACHSEN
100
AcDbLine
 10
3423.656430736023
 20
568.4426793704907
 30
0.0
 11
3429.756430736023
 21
568.4426793704907
 31
0.0
  0
ARC
  5
D3
330
2
100
AcDbEntity
  8
UMRISS05
100
AcDbCircle
 10
3423.656430736023
 20
568.4426793704907
 30
0.0
 40
2.15000000000009
100
AcDbArc
 50
0.0
 51
180.0
  0
ARC
  5
D4
330
2
100
AcDbEntity
  8
UMRISS05
100
AcDbCircle
 10
3423.656430736023
 20
568.4426793704907
 30
0.0
 40
2.15000000000009
100
AcDbArc
 50
180.0
 51
0.0
  0
LINE
  5
D5
330
2
100
AcDbEntity
  8
ACHSEN
100
AcDbLine
 10
3423.656430736023
 20
568.4426793704907
 30
0.0
 11
3417.556430736023
 21
568.4426793704907
 31
0.0
  0
ARC
  5
D6
330
2
100
AcDbEntity
  8
UMRISS05
100
AcDbCircle
 10
3283.94399085917
 20
483.44267937049
 30
0.0
 40
1.0
100
AcDbArc
 50
180.0
 51
270.0
  0
LINE
  5
D7
330
2
100
AcDbEntity
  8
UMRISS05
100
AcDbLine
 10
3282.94399085917
 20
484.6401204872323
 30
0.0
 11
3282.94399085917
 21
483.44267937049
 31
0.0
  0
LINE
  5
D8
330
2
100
AcDbEntity
  8
UMRISS03
100
AcDbLine
 10
3280.691362915006
 20
473.8943454203299
 30
0.0
 11
3285.194695014685
 21
476.4943454203299
 31
0.0
  0
ARC
  5
DA
330
2
100
AcDbEntity
  8
UMRISS05
100
AcDbCircle
 10
3305.243028964846
 20
478.4426793704905
 30
0.0
 40
4.625
100
AcDbArc
 50
0.0
 51
180.0
  0
ARC
  5
DB
330
2
100
AcDbEntity
  8
UMRISS05
100
AcDbCircle
 10
3305.243028964846
 20
478.4426793704905
 30
0.0
 40
4.625
100
AcDbArc
 50
180.0
 51
0.0
  0
LINE
  5
DC
330
2
100
AcDbEntity
  8
UMRISS05
100
AcDbLine
 10
3307.543028964846
 20
483.9426793704904
 30
0.0
 11
3302.943028964846
 21
483.9426793704907
 31
0.0
  0
ARC
  5
DD
330
2
100
AcDbEntity
  8
UMRISS05
100
AcDbCircle
 10
3307.543028964846
 20
483.6426793704903
 30
0.0
 40
0.3000000000001819
100
AcDbArc
 50
90.0
 51
179.9999999999783
  0
LINE
  5
DE
330
2
100
AcDbEntity
  8
UMRISS05
100
AcDbLine
 10
3307.243028964847
 20
483.2176139250154
 30
0.0
 11
3307.243028964847
 21
483.6426793704904
 31
0.0
  0
ARC
  5
DF
330
2
100
AcDbEntity
  8
UMRISS05
100
AcDbCircle
 10
3307.543028964845
 20
483.2176139250157
 30
0.0
 40
0.2999999999997659
100
AcDbArc
 50
180.0000000000651
 51
244.2807204978895
  0
ARC
  5
E0
330
2
100
AcDbEntity
  8
UMRISS05
100
AcDbCircle
 10
3305.243028964846
 20
478.4426793704906
 30
0.0
 40
4.999999999999539
100
AcDbArc
 50
115.7192795021878
 51
64.28072049781883
  0
ARC
  5
E1
330
2
100
AcDbEntity
  8
UMRISS05
100
AcDbCircle
 10
3302.943028964846
 20
483.217613925015
 30
0.0
 40
0.3000000000001819
100
AcDbArc
 50
295.7192795022811
 51
0.0000000000434252
  0
LINE
  5
E2
330
2
100
AcDbEntity
  8
UMRISS05
100
AcDbLine
 10
3303.243028964847
 20
483.6426793704904
 30
0.0
 11
3303.243028964845
 21
483.2176139250154
 31
0.0
  0
ARC
  5
E3
330
2
100
AcDbEntity
  8
UMRISS05
100
AcDbCircle
 10
3302.943028964846
 20
483.6426793704904
 30
0.0
 40
0.3000000000001819
100
AcDbArc
 50
0.0
 51
90.0
  0
LINE
  5
E4
330
2
100
AcDbEntity
  8
UMRISS05
100
AcDbLine
 10
3284.45191456399
 20
483.9426793704907
 30
0.0
 11
3302.943028964846
 21
483.9426793704907
 31
0.0
  0
LINE
  5
E5
330
2
100
AcDbEntity
  8
UMRISS05
100
AcDbLine
 10
3284.45191456399
 20
482.44267937049
 30
0.0
 11
3284.45191456399
 21
483.9426793704907
 31
0.0
  0
LINE
  5
E6
330
2
100
AcDbEntity
  8
UMRISS05
100
AcDbLine
 10
3280.45191456399
 20
482.4426793704908
 30
0.0
 11
3284.45191456399
 21
482.44267937049
 31
0.0
  0
LINE
  5
E7
330
2
100
AcDbEntity
  8
UMRISS05
100
AcDbLine
 10
3280.45191456399
 20
491.9565232468193
 30
0.0
 11
3280.45191456399
 21
482.4426793704908
 31
0.0
  0
LINE
  5
E8
330
2
100
AcDbEntity
  8
ACHSEN
100
AcDbLine
 10
3312.243028964847
 20
478.4426793704905
 30
0.0
 11
3298.243028964846
 21
478.4426793704905
 31
0.0
  0
LINE
  5
E9
330
2
100
AcDbEntity
  8
UMRISS03
100
AcDbLine
 10
3320.843028964846
 20
465.3426793704903
 30
0.0
 11
3320.843028964845
 21
470.5426793704901
 31
0.0
  0
LINE
  5
EA
330
2
100
AcDbEntity
  8
UMRISS03
100
AcDbLine
 10
3315.643028964846
 20
465.3426793704901
 30
0.0
 11
3315.643028964846
 21
470.5426793704901
 31
0.0
  0
LINE
  5
EB
330
2
100
AcDbEntity
  8
UMRISS03
100
AcDbLine
 10
3315.643028964846
 20
465.3426793704901
 30
0.0
 11
3320.843028964846
 21
465.3426793704903
 31
0.0
  0
LINE
  5
EC
330
2
100
AcDbEntity
  8
UMRISS03
100
AcDbLine
 10
3315.643028964846
 20
470.5426793704901
 30
0.0
 11
3320.843028964845
 21
470.5426793704901
 31
0.0
  0
LINE
  5
ED
330
2
100
AcDbEntity
  8
UMRISS03
100
AcDbLine
 10
3283.291362915007
 20
469.391013320651
 30
0.0
 11
3287.794695014685
 21
471.9910133206513
 31
0.0
  0
LWPOLYLINE
  5
EE
330
2
100
AcDbEntity
  8
UMRISS03
100
AcDbPolyline
 90
       24
 70
     1
 43
0.0
 10
3307.943028964846
 20
452.4426793704901
 10
3307.543028964846
 20
452.4426793704907
 42
0.4142135623733172
 10
3307.243028964847
 20
452.1426793704907
 10
3307.243028964847
 20
451.0426793704906
 42
-0.4142135623732059
 10
3307.143028964846
 20
450.9426793704907
 10
3306.043028964847
 20
450.942679370491
 42
0.4142135623731427
 10
3305.743028964847
 20
450.642679370491
 10
3305.743028964847
 20
450.2426793704911
 42
0.4142135623731427
 10
3306.043028964847
 20
449.9426793704912
 10
3307.143028964846
 20
449.9426793704916
 42
-0.4142135623731298
 10
3307.243028964847
 20
449.8426793704917
 10
3307.243028964847
 20
448.7426793704903
 42
0.4142135623730774
 10
3307.543028964846
 20
448.4426793704905
 10
3307.943028964846
 20
448.4426793704907
 42
0.4142135623731189
 10
3308.243028964847
 20
448.7426793704907
 10
3308.243028964847
 20
449.842679370491
 42
-0.414213562373123
 10
3308.343028964845
 20
449.9426793704908
 10
3309.443028964846
 20
449.9426793704912
 42
0.4142135623730951
 10
3309.743028964847
 20
450.2426793704911
 10
3309.743028964847
 20
450.6426793704904
 42
0.4142135623730475
 10
3309.443028964846
 20
450.9426793704903
 10
3308.343028964845
 20
450.942679370491
 42
-0.4142135623729705
 10
3308.243028964847
 20
451.0426793704907
 10
3308.243028964847
 20
452.1426793704903
 42
0.4142135623730831
  0
LINE
  5
EF
330
2
100
AcDbEntity
  8
UMRISS03
100
AcDbLine
 10
3283.291362915007
 20
469.391013320651
 30
0.0
 11
3280.691362915006
 21
473.8943454203299
 31
0.0
  0
LINE
  5
F0
330
2
100
AcDbEntity
  8
UMRISS03
100
AcDbLine
 10
3287.794695014685
 20
471.9910133206513
 30
0.0
 11
3285.194695014685
 21
476.4943454203299
 31
0.0
  0
LINE
  5
F1
330
2
100
AcDbEntity
  8
ACHSEN
100
AcDbLine
 10
3410.147601768315
 20
432.4426793704907
 30
0.0
 11
3437.435262149883
 21
432.4426793704905
 31
0.0
  0
LINE
  5
F2
330
2
100
AcDbEntity
  8
UMRISS05
100
AcDbLine
 10
3418.156430736023
 20
362.1426793704896
 30
0.0
 11
3418.156430736023
 21
390.7426793704893
 31
0.0
  0
ARC
  5
F3
330
2
100
AcDbEntity
  8
UMRISS05
100
AcDbCircle
 10
3418.956430736023
 20
362.1426793704898
 30
0.0
 40
0.8000000000000682
100
AcDbArc
 50
180.0000000000081
 51
270.0
  0
LINE
  5
F4
330
2
100
AcDbEntity
  8
UMRISS05
100
AcDbLine
 10
3424.856430736023
 20
361.3426793704896
 30
0.0
 11
3418.956430736023
 21
361.3426793704896
 31
0.0
  0
ARC
  5
F5
330
2
100
AcDbEntity
  8
UMRISS05
100
AcDbCircle
 10
3424.856430736023
 20
362.1426793704898
 30
0.0
 40
0.8000000000001817
100
AcDbArc
 50
270.0
 51
359.9999999999919
  0
LINE
  5
F6
330
2
100
AcDbEntity
  8
UMRISS05
100
AcDbLine
 10
3425.656430736023
 20
390.7426793704893
 30
0.0
 11
3425.656430736023
 21
362.1426793704896
 31
0.0
  0
ARC
  5
F7
330
2
100
AcDbEntity
  8
UMRISS05
100
AcDbCircle
 10
3424.856430736023
 20
390.7426793704892
 30
0.0
 40
0.800000000000125
100
AcDbArc
 50
0.0000000000081422
 51
90.0
  0
LINE
  5
F8
330
2
100
AcDbEntity
  8
UMRISS05
100
AcDbLine
 10
3418.956430736023
 20
391.5426793704893
 30
0.0
 11
3424.856430736023
 21
391.5426793704893
 31
0.0
  0
ARC
  5
F9
330
2
100
AcDbEntity
  8
UMRISS05
100
AcDbCircle
 10
3418.956430736023
 20
390.7426793704892
 30
0.0
 40
0.8000000000001817
100
AcDbArc
 50
90.0
 51
179.9999999999918
  0
ARC
  5
FA
330
2
100
AcDbEntity
  8
UMRISS05
100
AcDbCircle
 10
3324.243028964847
 20
432.4426793704903
 30
0.0
 40
2.6
100
AcDbArc
 50
0.0000151622278522
 51
179.9999848377721
  0
ARC
  5
FB
330
2
100
AcDbEntity
  8
UMRISS05
100
AcDbCircle
 10
3324.243028964847
 20
432.4426807465704
 30
0.0
 40
2.6
100
AcDbArc
 50
180.0000151622278
 51
359.9999848377722
  0
LINE
  5
FC
330
2
100
AcDbEntity
  8
ACHSEN
100
AcDbLine
 10
3324.243028964847
 20
437.0426793704906
 30
0.0
 11
3324.243028964847
 21
427.8426793704903
 31
0.0
  0
ARC
  5
FD
330
2
100
AcDbEntity
  8
UMRISS05
100
AcDbCircle
 10
3286.243028964847
 20
432.4426793704906
 30
0.0
 40
2.6
100
AcDbArc
 50
0.0000151622278522
 51
179.9999848377721
  0
ARC
  5
FE
330
2
100
AcDbEntity
  8
UMRISS05
100
AcDbCircle
 10
3286.243028964847
 20
432.4426807465706
 30
0.0
 40
2.6
100
AcDbArc
 50
180.0000151622278
 51
359.9999848377722
  0
LINE
  5
FF
330
2
100
AcDbEntity
  8
ACHSEN
100
AcDbLine
 10
3286.243028964847
 20
437.0426793704906
 30
0.0
 11
3286.243028964847
 21
427.8426793704907
 31
0.0
  0
LINE
  5
100
330
2
100
AcDbEntity
  8
UMRISS05
100
AcDbLine
 10
3309.243028964846
 20
436.4426793704907
 30
0.0
 11
3301.243028964846
 21
436.4426793704903
 31
0.0
  0
LINE
  5
101
330
2
100
AcDbEntity
  8
UMRISS05
100
AcDbLine
 10
3309.243028964846
 20
428.4426793704906
 30
0.0
 11
3309.243028964846
 21
436.4426793704907
 31
0.0
  0
LINE
  5
102
330
2
100
AcDbEntity
  8
UMRISS05
100
AcDbLine
 10
3301.243028964846
 20
428.4426793704906
 30
0.0
 11
3309.243028964846
 21
428.4426793704906
 31
0.0
  0
LINE
  5
103
330
2
100
AcDbEntity
  8
UMRISS05
100
AcDbLine
 10
3301.243028964846
 20
436.4426793704903
 30
0.0
 11
3301.243028964846
 21
428.4426793704906
 31
0.0
  0
LWPOLYLINE
  5
104
330
2
100
AcDbEntity
  8
UMRISS05
100
AcDbPolyline
 90
        2
 70
     1
 43
0.3000000000000007
 10
3297.243028964846
 20
432.4426793704907
 42
1.0
 10
3313.243028964847
 20
432.4426793704907
 42
1.0
  0
LINE
  5
105
330
2
100
AcDbEntity
  8
ACHSEN
100
AcDbLine
 10
3328.843028964847
 20
432.4426793704905
 30
0.0
 11
3281.643028964846
 21
432.4426793704907
 31
0.0
  0
LWPOLYLINE
  5
106
330
2
100
AcDbEntity
  8
UMRISS03
100
AcDbPolyline
 90
       24
 70
     1
 43
0.0
 10
3287.443028964847
 20
418.4426793704899
 10
3287.043028964846
 20
418.4426793704905
 42
0.4142135623733172
 10
3286.743028964847
 20
418.1426793704905
 10
3286.743028964847
 20
417.0426793704903
 42
-0.4142135623732059
 10
3286.643028964846
 20
416.9426793704903
 10
3285.543028964846
 20
416.9426793704907
 42
0.4142135623731427
 10
3285.243028964845
 20
416.6426793704907
 10
3285.243028964845
 20
416.2426793704907
 42
0.4142135623731427
 10
3285.543028964846
 20
415.9426793704908
 10
3286.643028964846
 20
415.9426793704914
 42
-0.4142135623731298
 10
3286.743028964847
 20
415.8426793704915
 10
3286.743028964847
 20
414.7426793704902
 42
0.4142135623730774
 10
3287.043028964846
 20
414.4426793704901
 10
3287.443028964847
 20
414.4426793704905
 42
0.4142135623731189
 10
3287.743028964847
 20
414.7426793704903
 10
3287.743028964847
 20
415.8426793704907
 42
-0.414213562373123
 10
3287.843028964847
 20
415.9426793704907
 10
3288.943028964847
 20
415.9426793704908
 42
0.4142135623730951
 10
3289.243028964847
 20
416.2426793704907
 10
3289.243028964847
 20
416.6426793704903
 42
0.4142135623730475
 10
3288.943028964847
 20
416.9426793704903
 10
3287.843028964847
 20
416.9426793704907
 42
-0.4142135623729705
 10
3287.743028964847
 20
417.0426793704906
 10
3287.743028964847
 20
418.1426793704901
 42
0.4142135623730831
  0
CIRCLE
  5
107
330
2
100
AcDbEntity
  8
UMRISS03
100
AcDbCircle
 10
3287.243028964847
 20
416.4426793704907
 30
0.0
 40
3.5
  0
ARC
  5
108
330
2
100
AcDbEntity
  8
UMRISS05
100
AcDbCircle
 10
3305.243028964846
 20
410.942679370494
 30
0.0
 40
5.0
100
AcDbArc
 50
0.0
 51
180.0
  0
ARC
  5
109
330
2
100
AcDbEntity
  8
UMRISS05
100
AcDbCircle
 10
3305.243028964846
 20
410.942679370494
 30
0.0
 40
5.0
100
AcDbArc
 50
180.0
 51
0.0
  0
LINE
  5
10A
330
2
100
AcDbEntity
  8
ACHSEN
100
AcDbLine
 10
3312.243028964847
 20
410.9426793704941
 30
0.0
 11
3298.243028964846
 21
410.9426793704941
 31
0.0
  0
CIRCLE
  5
10B
330
2
100
AcDbEntity
  8
UMRISS03
100
AcDbCircle
 10
3325.743028964847
 20
393.9426793704905
 30
0.0
 40
2.049999999999998
  0
ARC
  5
10C
330
2
100
AcDbEntity
  8
UMRISS05
100
AcDbCircle
 10
3289.443028964845
 20
373.2426793704903
 30
0.0
 40
0.2999999999998408
100
AcDbArc
 50
270.0000000000868
 51
0.0000000000217126
  0
LINE
  5
10D
330
2
100
AcDbEntity
  8
UMRISS05
100
AcDbLine
 10
3287.543028964846
 20
372.9426793704902
 30
0.0
 11
3289.443028964845
 21
372.9426793704905
 31
0.0
  0
ARC
  5
10E
330
2
100
AcDbEntity
  8
UMRISS05
100
AcDbCircle
 10
3287.543028964846
 20
373.2426793704903
 30
0.0
 40
0.3000000000001819
100
AcDbArc
 50
180.0
 51
270.0
  0
LINE
  5
10F
330
2
100
AcDbEntity
  8
UMRISS05
100
AcDbLine
 10
3287.243028964845
 20
387.6426793704903
 30
0.0
 11
3287.243028964845
 21
373.2426793704903
 31
0.0
  0
ARC
  5
110
330
2
100
AcDbEntity
  8
UMRISS05
100
AcDbCircle
 10
3287.543028964845
 20
387.6426793704902
 30
0.0
 40
0.3000000000000682
100
AcDbArc
 50
90.0
 51
179.9999999999783
  0
LINE
  5
111
330
2
100
AcDbEntity
  8
UMRISS05
100
AcDbLine
 10
3289.443028964845
 20
387.9426793704902
 30
0.0
 11
3287.543028964845
 21
387.9426793704902
 31
0.0
  0
ARC
  5
112
330
2
100
AcDbEntity
  8
UMRISS05
100
AcDbCircle
 10
3289.443028964845
 20
387.6426793704902
 30
0.0
 40
0.3000000000001819
100
AcDbArc
 50
0.0000000000217126
 51
90.0
  0
LINE
  5
113
330
2
100
AcDbEntity
  8
UMRISS05
100
AcDbLine
 10
3289.743028964846
 20
373.2426793704903
 30
0.0
 11
3289.743028964846
 21
387.6426793704903
 31
0.0
  0
ARC
  5
114
330
2
100
AcDbEntity
  8
UMRISS05
100
AcDbCircle
 10
3289.443028964845
 20
373.2426793704903
 30
0.0
 40
0.2999999999998408
100
AcDbArc
 50
270.0000000000868
 51
0.0000000000217126
  0
LINE
  5
115
330
2
100
AcDbEntity
  8
UMRISS05
100
AcDbLine
 10
3287.543028964846
 20
372.9426793704903
 30
0.0
 11
3289.443028964845
 21
372.9426793704905
 31
0.0
  0
ARC
  5
116
330
2
100
AcDbEntity
  8
UMRISS05
100
AcDbCircle
 10
3287.543028964846
 20
373.2426793704905
 30
0.0
 40
0.3000000000001819
100
AcDbArc
 50
180.0
 51
270.0
  0
LINE
  5
117
330
2
100
AcDbEntity
  8
UMRISS05
100
AcDbLine
 10
3287.243028964845
 20
387.6426793704903
 30
0.0
 11
3287.243028964845
 21
373.2426793704905
 31
0.0
  0
ARC
  5
118
330
2
100
AcDbEntity
  8
UMRISS05
100
AcDbCircle
 10
3287.543028964845
 20
387.6426793704902
 30
0.0
 40
0.3000000000000682
100
AcDbArc
 50
90.0
 51
179.9999999999783
  0
LINE
  5
119
330
2
100
AcDbEntity
  8
UMRISS05
100
AcDbLine
 10
3289.443028964845
 20
387.9426793704904
 30
0.0
 11
3287.543028964845
 21
387.9426793704904
 31
0.0
  0
ARC
  5
11A
330
2
100
AcDbEntity
  8
UMRISS05
100
AcDbCircle
 10
3289.443028964845
 20
387.6426793704902
 30
0.0
 40
0.3000000000001819
100
AcDbArc
 50
0.0000000000217126
 51
90.0
  0
LINE
  5
11B
330
2
100
AcDbEntity
  8
UMRISS05
100
AcDbLine
 10
3289.743028964846
 20
373.2426793704905
 30
0.0
 11
3289.743028964846
 21
387.6426793704903
 31
0.0
  0
LWPOLYLINE
  5
11C
330
2
100
AcDbEntity
  8
UMRISS03
100
AcDbPolyline
 90
       24
 70
     1
 43
0.0
 10
3326.443028964847
 20
364.4426793704898
 10
3326.043028964845
 20
364.4426793704903
 42
0.4142135623733172
 10
3325.743028964847
 20
364.1426793704903
 10
3325.743028964847
 20
363.0426793704902
 42
-0.4142135623732059
 10
3325.643028964846
 20
362.9426793704904
 10
3324.543028964846
 20
362.9426793704905
 42
0.4142135623731427
 10
3324.243028964847
 20
362.6426793704907
 10
3324.243028964847
 20
362.2426793704907
 42
0.4142135623731427
 10
3324.543028964846
 20
361.9426793704907
 10
3325.643028964846
 20
361.9426793704912
 42
-0.4142135623731298
 10
3325.743028964847
 20
361.8426793704913
 10
3325.743028964847
 20
360.7426793704899
 42
0.4142135623730774
 10
3326.043028964845
 20
360.4426793704901
 10
3326.443028964847
 20
360.4426793704903
 42
0.4142135623731189
 10
3326.743028964847
 20
360.7426793704902
 10
3326.743028964847
 20
361.8426793704907
 42
-0.414213562373123
 10
3326.843028964847
 20
361.9426793704905
 10
3327.943028964846
 20
361.9426793704907
 42
0.4142135623730951
 10
3328.243028964845
 20
362.2426793704907
 10
3328.243028964845
 20
362.6426793704901
 42
0.4142135623730475
 10
3327.943028964846
 20
362.94267937049
 10
3326.843028964847
 20
362.9426793704905
 42
-0.4142135623729705
 10
3326.743028964847
 20
363.0426793704903
 10
3326.743028964847
 20
364.1426793704899
 42
0.4142135623730831
  0
CIRCLE
  5
11D
330
2
100
AcDbEntity
  8
UMRISS03
100
AcDbCircle
 10
3326.243028964846
 20
362.4426793704905
 30
0.0
 40
3.5
  0
CIRCLE
  5
11E
330
2
100
AcDbEntity
  8
UMRISS03
100
AcDbCircle
 10
3285.243028964845
 20
366.4426793704901
 30
0.0
 40
2.0
  0
ARC
  5
11F
330
2
100
AcDbEntity
  8
UMRISS05
100
AcDbCircle
 10
3287.386152573641
 20
371.44267937049
 30
0.0
 40
7.0
100
AcDbArc
 50
269.9999999999935
 51
315.0000000000012
  0
LINE
  5
120
330
2
100
AcDbEntity
  8
ACHSEN
100
AcDbLine
 10
3318.343028964847
 20
354.4426793704904
 30
0.0
 11
3292.143028964846
 21
354.4426793704904
 31
0.0
  0
ARC
  5
121
330
2
100
AcDbEntity
  8
UMRISS05
100
AcDbCircle
 10
3287.386152573642
 20
371.4426793704904
 30
0.0
 40
2.999999999999903
100
AcDbArc
 50
254.3255346997002
 51
314.9999999999993
  0
LINE
  5
122
330
2
100
AcDbEntity
  8
UMRISS05
100
AcDbLine
 10
3292.507728906085
 20
372.3216150158149
 30
0.0
 11
3289.507472917201
 21
369.3213590269307
 31
0.0
  0
ARC
  5
123
330
2
100
AcDbEntity
  8
UMRISS05
100
AcDbCircle
 10
3300.993010280323
 20
363.836333641576
 30
0.0
 40
11.99999999999977
100
AcDbArc
 50
89.99999999999785
 51
134.9999999999961
  0
LINE
  5
124
330
2
100
AcDbEntity
  8
UMRISS05
100
AcDbLine
 10
3305.243028964846
 20
375.836333641576
 30
0.0
 11
3300.993010280323
 21
375.8363336415758
 31
0.0
  0
ARC
  5
125
330
2
100
AcDbEntity
  8
UMRISS05
100
AcDbCircle
 10
3305.243028964846
 20
373.836333641576
 30
0.0
 40
2.0
100
AcDbArc
 50
270.0
 51
90.0
  0
LINE
  5
126
330
2
100
AcDbEntity
  8
UMRISS05
100
AcDbLine
 10
3300.993010280324
 20
371.8363336415762
 30
0.0
 11
3305.243028964846
 21
371.836333641576
 31
0.0
  0
ARC
  5
127
330
2
100
AcDbEntity
  8
UMRISS05
100
AcDbCircle
 10
3300.993010280324
 20
363.8363336415758
 30
0.0
 40
8.000000000000305
100
AcDbArc
 50
90.0
 51
134.9999999999982
  0
LINE
  5
128
330
2
100
AcDbEntity
  8
UMRISS05
100
AcDbLine
 10
3292.335900041948
 20
366.4929319021845
 30
0.0
 11
3295.336156030832
 21
369.4931878910687
 31
0.0
  0
ARC
  5
129
330
2
100
AcDbEntity
  8
UMRISS05
100
AcDbCircle
 10
3287.386152573641
 20
371.44267937049
 30
0.0
 40
6.999999999999943
100
AcDbArc
 50
269.9999999999926
 51
315.0000000000042
  0
LINE
  5
12A
330
2
100
AcDbEntity
  8
UMRISS05
100
AcDbLine
 10
3283.743028964845
 20
364.4426793704905
 30
0.0
 11
3287.38615257364
 21
364.4426793704899
 31
0.0
  0
ARC
  5
12B
330
2
100
AcDbEntity
  8
UMRISS05
100
AcDbCircle
 10
3283.743028964845
 20
365.9426793704906
 30
0.0
 40
1.5
100
AcDbArc
 50
180.0000000000043
 51
270.0
  0
LINE
  5
12C
330
2
100
AcDbEntity
  8
UMRISS05
100
AcDbLine
 10
3282.243028964847
 20
367.7426793704904
 30
0.0
 11
3282.243028964847
 21
365.9426793704905
 31
0.0
  0
ARC
  5
12D
330
2
100
AcDbEntity
  8
UMRISS05
100
AcDbCircle
 10
3283.743028964845
 20
367.7426793704904
 30
0.0
 40
1.5
100
AcDbArc
 50
90.0
 51
180.0
  0
LINE
  5
12E
330
2
100
AcDbEntity
  8
UMRISS05
100
AcDbLine
 10
3284.005554434823
 20
369.2426793704906
 30
0.0
 11
3283.743028964845
 21
369.2426793704904
 31
0.0
  0
LINE
  5
12F
330
2
100
AcDbEntity
  8
UMRISS05
100
AcDbLine
 10
3286.609695438334
 20
368.544901891623
 30
0.0
 11
3284.005554434823
 21
369.2426793704906
 31
0.0
  0
DIMENSION
  5
130
330
2
100
AcDbEntity
  8
BEMASSUNG
100
AcDbDimension
280
     0
  2
*D15
 10
3349.273682735566
 20
354.4426793704904
 30
0.0
 11
3344.535773458622
 21
393.4426793704909
 31
0.0
 71
     5
 42
78.00000000000022
 73
     0
 74
     0
 75
     0
  3
NORMAL
100
AcDbAlignedDimension
 13
3328.843028964847
 23
432.4426793704905
 33
0.0
 14
3318.343028964847
 24
354.4426793704904
 34
0.0
 50
90.0
100
AcDbRotatedDimension
  0
CIRCLE
  5
13D
330
2
100
AcDbEntity
  8
UMRISS03
100
AcDbCircle
 10
3307.743028964845
 20
450.4426793704908
 30
0.0
 40
3.5
  0
LINE
  5
13E
330
2
100
AcDbEntity
  8
UMRISS05
100
AcDbLine
 10
3428.656430736023
 20
441.8426793704896
 30
0.0
 11
3420.756430736023
 21
441.8426793704896
 31
0.0
  0
LINE
  5
13F
330
2
100
AcDbEntity
  8
UMRISS05
100
AcDbLine
 10
3428.656430736023
 20
467.0426793704897
 30
0.0
 11
3428.656430736023
 21
441.8426793704896
 31
0.0
  0
LINE
  5
140
330
2
100
AcDbEntity
  8
UMRISS05
100
AcDbLine
 10
3420.756430736023
 20
467.0426793704897
 30
0.0
 11
3428.656430736023
 21
467.0426793704897
 31
0.0
  0
ARC
  5
141
330
2
100
AcDbEntity
  8
UMRISS05
100
AcDbCircle
 10
3341.876430736023
 20
454.4426793704896
 30
0.0
 40
79.88000000000011
100
AcDbArc
 50
350.9244549841867
 51
9.075545015813306
  0
LINE
  5
142
330
2
100
AcDbEntity
  8
UMRISS05
100
AcDbLine
 10
3420.756430736023
 20
469.5426793704896
 30
0.0
 11
3420.756430736023
 21
439.3426793704893
 31
0.0
  0
LINE
  5
143
330
2
100
AcDbEntity
  8
UMRISS05
100
AcDbLine
 10
3417.656430736023
 20
469.5426793704896
 30
0.0
 11
3420.756430736023
 21
469.5426793704896
 31
0.0
  0
LINE
  5
144
330
2
100
AcDbEntity
  8
UMRISS05
100
AcDbLine
 10
3417.656430736023
 20
439.3426793704893
 30
0.0
 11
3417.656430736023
 21
469.5426793704896
 31
0.0
  0
LINE
  5
145
330
2
100
AcDbEntity
  8
UMRISS05
100
AcDbLine
 10
3420.756430736023
 20
439.3426793704893
 30
0.0
 11
3417.656430736023
 21
439.3426793704893
 31
0.0
  0
DIMENSION
  5
146
330
2
100
AcDbEntity
  8
BEMASSUNG
100
AcDbDimension
280
     0
  2
*D14
 10
3349.273682735566
 20
432.4426793704905
 30
0.0
 11
3344.535773458622
 21
458.192679370491
 31
0.0
 71
     5
 42
51.50000000000023
 73
     0
 74
     0
 75
     0
  3
NORMAL
100
AcDbAlignedDimension
 13
3316.443028964845
 23
483.9426793704907
 33
0.0
 14
3328.843028964847
 24
432.4426793704905
 34
0.0
 50
90.0
100
AcDbRotatedDimension
  0
DIMENSION
  5
153
330
2
100
AcDbEntity
  8
BEMASSUNG
100
AcDbDimension
280
     0
  2
*D13
 10
3301.243028964846
 20
456.7937915233251
 30
0.0
 11
3282.216596495541
 21
456.7937915233251
 31
0.0
 70
   128
  1
8/9
 71
     5
 42
8.000000000000454
 73
     0
 74
     0
 75
     0
  3
NORMAL
100
AcDbAlignedDimension
 13
3309.243028964846
 23
436.4426793704907
 33
0.0
 14
3301.243028964846
 24
436.4426793704903
 34
0.0
100
AcDbRotatedDimension
  0
LWPOLYLINE
  5
162
330
2
100
AcDbEntity
  8
UMRISS03
100
AcDbPolyline
 90
       24
 70
     1
 43
0.0
 10
3268.443028964846
 20
456.4426793704898
 10
3268.043028964846
 20
456.4426793704901
 42
0.4142135623733172
 10
3267.743028964846
 20
456.1426793704903
 10
3267.743028964846
 20
455.0426793704901
 42
-0.4142135623732059
 10
3267.643028964846
 20
454.9426793704903
 10
3266.543028964846
 20
454.9426793704903
 42
0.4142135623731427
 10
3266.243028964846
 20
454.6426793704904
 10
3266.243028964846
 20
454.2426793704906
 42
0.4142135623731427
 10
3266.543028964846
 20
453.9426793704907
 10
3267.643028964846
 20
453.9426793704912
 42
-0.4142135623731298
 10
3267.743028964846
 20
453.8426793704911
 10
3267.743028964846
 20
452.74267937049
 42
0.4142135623730774
 10
3268.043028964846
 20
452.44267937049
 10
3268.443028964846
 20
452.4426793704901
 42
0.4142135623731189
 10
3268.743028964845
 20
452.7426793704901
 10
3268.743028964845
 20
453.8426793704906
 42
-0.414213562373123
 10
3268.843028964845
 20
453.9426793704905
 10
3269.943028964846
 20
453.9426793704907
 42
0.4142135623730951
 10
3270.243028964845
 20
454.2426793704906
 10
3270.243028964845
 20
454.6426793704901
 42
0.4142135623730475
 10
3269.943028964846
 20
454.94267937049
 10
3268.843028964845
 20
454.9426793704903
 42
-0.4142135623729705
 10
3268.743028964845
 20
455.0426793704903
 10
3268.743028964845
 20
456.1426793704899
 42
0.4142135623730831
  0
CIRCLE
  5
163
330
2
100
AcDbEntity
  8
UMRISS03
100
AcDbCircle
 10
3268.243028964846
 20
454.4426793704903
 30
0.0
 40
3.5
  0
LINE
  5
164
330
2
100
AcDbEntity
  8
UMRISS05
100
AcDbLine
 10
3255.243046396618
 20
457.4426700153818
 30
0.0
 11
3259.743028964847
 21
457.4426700153818
 31
0.0
  0
LINE
  5
165
330
2
100
AcDbEntity
  8
UMRISS05
100
AcDbLine
 10
3255.243046396618
 20
451.4426700153817
 30
0.0
 11
3259.743028964847
 21
451.4426700153816
 31
0.0
  0
LINE
  5
166
330
2
100
AcDbEntity
  8
ACHSEN
100
AcDbLine
 10
3251.24304639662
 20
454.4426700153818
 30
0.0
 11
3233.243046396618
 21
454.4426700153818
 31
0.0
  0
LINE
  5
167
330
2
100
AcDbEntity
  8
UMRISS05
100
AcDbLine
 10
3245.243028964846
 20
466.4426700153819
 30
0.0
 11
3235.243046396618
 21
466.4426700153818
 31
0.0
  0
LINE
  5
168
330
2
100
AcDbEntity
  8
UMRISS05
100
AcDbLine
 10
3248.243028964846
 20
469.4426700153821
 30
0.0
 11
3253.243028964845
 21
469.4426700153821
 31
0.0
  0
ARC
  5
169
330
2
100
AcDbEntity
  8
UMRISS05
100
AcDbCircle
 10
3253.692831626977
 20
467.490435465736
 30
0.0
 40
5.500000000000087
100
AcDbArc
 50
317.4999999999991
 51
20.79059068362726
  0
LINE
  5
16A
330
2
100
AcDbEntity
  8
UMRISS05
100
AcDbLine
 10
3250.378636275065
 20
455.7325961229172
 30
0.0
 11
3257.747856979432
 21
463.7746893238498
 31
0.0
  0
ARC
  5
16B
330
2
100
AcDbEntity
  8
UMRISS05
100
AcDbCircle
 10
3251.853190948685
 20
454.3814157076861
 30
0.0
 40
1.999999999999911
100
AcDbArc
 50
137.500000000006
 51
227.4999999999991
  0
LINE
  5
16C
330
2
100
AcDbEntity
  8
UMRISS05
100
AcDbLine
 10
3251.976565207075
 20
451.5556806188345
 30
0.0
 11
3250.502010533454
 21
452.9068610340658
 31
0.0
  0
LINE
  5
16D
330
2
100
AcDbEntity
  8
UMRISS05
100
AcDbLine
 10
3251.638770103266
 20
451.1870419504296
 30
0.0
 11
3251.976565207075
 21
451.5556806188345
 31
0.0
  0
LINE
  5
16E
330
2
100
AcDbEntity
  8
UMRISS05
100
AcDbLine
 10
3250.164215429645
 20
452.538222365661
 30
0.0
 11
3251.638770103266
 21
451.1870419504296
 31
0.0
  0
ARC
  5
16F
330
2
100
AcDbEntity
  8
UMRISS05
100
AcDbCircle
 10
3251.853190948685
 20
454.3814157076861
 30
0.0
 40
2.499999999999877
100
AcDbArc
 50
137.4999999999989
 51
227.4999999999989
  0
LINE
  5
170
330
2
100
AcDbEntity
  8
UMRISS05
100
AcDbLine
 10
3257.379218311027
 20
464.1124844276574
 30
0.0
 11
3250.009997606659
 21
456.0703912267253
 31
0.0
  0
ARC
  5
171
330
2
100
AcDbEntity
  8
UMRISS05
100
AcDbCircle
 10
3253.692831626977
 20
467.4904354657356
 30
0.0
 40
5.000000000000136
100
AcDbArc
 50
317.5000000000025
 51
22.98242674170797
  0
ARC
  5
172
330
2
100
AcDbEntity
  8
UMRISS05
100
AcDbCircle
 10
3255.243046396618
 20
454.4426700153818
 30
0.0
 40
3.0
100
AcDbArc
 50
90.0
 51
270.0
  0
DIMENSION
  5
173
330
2
100
AcDbEntity
  8
BEMASSUNG
100
AcDbDimension
280
     0
  2
*D12
 10
3245.243028964846
 20
477.99295948373
 30
0.0
 11
3262.81443073838
 21
482.7308687606739
 31
0.0
 71
     5
 42
9.999982568228006
 73
     0
 74
     0
 75
     0
  3
NORMAL
100
AcDbAlignedDimension
 13
3235.243046396618
 23
469.4426700153821
 33
0.0
 14
3245.243028964846
 24
480.6756007874802
 34
0.0
100
AcDbRotatedDimension
  0
LINE
  5
182
330
2
100
AcDbEntity
  8
UMRISS05
100
AcDbLine
 10
3254.243775005207
 20
444.9428133784171
 30
0.0
 11
3259.743028964847
 21
444.9428133784171
 31
0.0
  0
LINE
  5
183
330
2
100
AcDbEntity
  8
UMRISS05
100
AcDbLine
 10
3245.243028964846
 20
442.4426700153818
 30
0.0
 11
3235.243046396618
 21
442.4426700153818
 31
0.0
  0
LINE
  5
184
330
2
100
AcDbEntity
  8
UMRISS05
100
AcDbLine
 10
3252.243775005207
 20
442.942813378417
 30
0.0
 11
3252.243775005207
 21
440.4426793704903
 31
0.0
  0
ARC
  5
185
330
2
100
AcDbEntity
  8
UMRISS05
100
AcDbCircle
 10
3254.243775005207
 20
442.942813378417
 30
0.0
 40
2.0
100
AcDbArc
 50
90.0
 51
180.0
  0
LINE
  5
186
330
2
100
AcDbEntity
  8
UMRISS05
100
AcDbLine
 10
3225.243028964847
 20
391.4426700153815
 30
0.0
 11
3245.243028964846
 21
391.4426700153815
 31
0.0
  0
LINE
  5
187
330
2
100
AcDbEntity
  8
UMRISS05
100
AcDbLine
 10
3225.243028964847
 20
361.4426700153814
 30
0.0
 11
3225.243028964847
 21
391.4426700153815
 31
0.0
  0
LINE
  5
188
330
2
100
AcDbEntity
  8
UMRISS05
100
AcDbLine
 10
3245.243028964846
 20
361.4426700153814
 30
0.0
 11
3225.243028964847
 21
361.4426700153814
 31
0.0
  0
LINE
  5
189
330
2
100
AcDbEntity
  8
ACHSEN
100
AcDbLine
 10
3247.243028964847
 20
376.4426700153815
 30
0.0
 11
3223.243028964847
 21
376.4426700153815
 31
0.0
  0
DIMENSION
  5
18A
330
2
100
AcDbEntity
  8
BEMASSUNG
100
AcDbDimension
280
     0
  2
*D11
 10
3245.243028964846
 20
403.2143312134468
 30
0.0
 11
3235.243028964847
 21
407.9522404903907
 31
0.0
 71
     5
 42
20.0
 73
     0
 74
     0
 75
     0
  3
NORMAL
100
AcDbAlignedDimension
 13
3225.243028964847
 23
391.4426700153815
 33
0.0
 14
3245.243028964846
 24
403.8849915393839
 34
0.0
100
AcDbRotatedDimension
  0
LINE
  5
197
330
2
100
AcDbEntity
  8
UMRISS05
100
AcDbLine
 10
3259.743028964847
 20
469.4426793704907
 30
0.0
 11
3253.243028964845
 21
469.4426793704907
 31
0.0
  0
LINE
  5
198
330
2
100
AcDbEntity
  8
UMRISS05
100
AcDbLine
 10
3259.743028964847
 20
440.4426793704901
 30
0.0
 11
3259.743028964847
 21
469.4426793704907
 31
0.0
  0
LINE
  5
199
330
2
100
AcDbEntity
  8
UMRISS05
100
AcDbLine
 10
3248.243028964846
 20
440.4426793704905
 30
0.0
 11
3259.743028964847
 21
440.4426793704901
 31
0.0
  0
LINE
  5
19A
330
2
100
AcDbEntity
  8
UMRISS05
100
AcDbLine
 10
3248.243028964846
 20
468.4426793704896
 30
0.0
 11
3248.243028964846
 21
440.4426793704905
 31
0.0
  0
LINE
  5
19B
330
2
100
AcDbEntity
  8
UMRISS05
100
AcDbLine
 10
3249.243046396618
 20
466.4426700153818
 30
0.0
 11
3248.243028964846
 21
466.4426700153818
 31
0.0
  0
LINE
  5
19C
330
2
100
AcDbEntity
  8
UMRISS05
100
AcDbLine
 10
3249.243046396618
 20
442.4426700153818
 30
0.0
 11
3249.243046396618
 21
466.4426700153818
 31
0.0
  0
LINE
  5
19D
330
2
100
AcDbEntity
  8
UMRISS05
100
AcDbLine
 10
3248.243028964846
 20
442.4426700153818
 30
0.0
 11
3249.243046396618
 21
442.4426700153818
 31
0.0
  0
LINE
  5
19E
330
2
100
AcDbEntity
  8
UMRISS05
100
AcDbLine
 10
3244.243046396618
 20
442.4426700153818
 30
0.0
 11
3244.243046396618
 21
466.4426700153818
 31
0.0
  0
LINE
  5
19F
330
2
100
AcDbEntity
  8
UMRISS05
100
AcDbLine
 10
3235.243046396618
 20
439.4426700153817
 30
0.0
 11
3245.243028964846
 21
439.4426700153817
 31
0.0
  0
LINE
  5
1A0
330
2
100
AcDbEntity
  8
UMRISS05
100
AcDbLine
 10
3235.243046396618
 20
469.4426700153821
 30
0.0
 11
3235.243046396618
 21
439.4426700153817
 31
0.0
  0
LINE
  5
1A1
330
2
100
AcDbEntity
  8
UMRISS05
100
AcDbLine
 10
3245.243028964846
 20
469.4426700153821
 30
0.0
 11
3235.243046396618
 21
469.4426700153821
 31
0.0
  0
DIMENSION
  5
1A2
330
2
100
AcDbEntity
  8
BEMASSUNG
100
AcDbDimension
280
     0
  2
*D10
 10
3277.3162704385
 20
432.4426793704907
 30
0.0
 11
3272.629094449416
 21
443.4426746929368
 31
0.0
 71
     5
 42
21.99999064489123
 73
     0
 74
     0
 75
     0
  3
NORMAL
100
AcDbAlignedDimension
 13
3249.243046396618
 23
454.4426700153818
 33
0.0
 14
3281.643028964846
 24
432.4426793704907
 34
0.0
 50
90.0
100
AcDbRotatedDimension
  0
DIMENSION
  5
1AF
330
2
100
AcDbEntity
  8
BEMASSUNG
100
AcDbDimension
280
     0
  2
*D9
 10
3277.3162704385
 20
376.4426700153815
 30
0.0
 11
3272.578361161555
 21
404.4426746929365
 31
0.0
 71
     5
 42
56.00000935510928
 73
     0
 74
     0
 75
     0
  3
NORMAL
100
AcDbAlignedDimension
 13
3281.643028964846
 23
432.4426793704907
 33
0.0
 14
3245.243028964846
 24
376.4426700153815
 34
0.0
 50
90.0
100
AcDbRotatedDimension
  0
LINE
  5
1BC
330
2
100
AcDbEntity
  8
UMRISS05
100
AcDbLine
 10
3273.243028964845
 20
504.4426793704903
 30
0.0
 11
3248.243028964846
 21
504.4426793704903
 31
0.0
  0
LINE
  5
1BD
330
2
100
AcDbEntity
  8
UMRISS05
100
AcDbLine
 10
3284.243028964846
 20
485.3901204872319
 30
0.0
 11
3273.243028964845
 21
504.4426793704903
 31
0.0
  0
LINE
  5
1BE
330
2
100
AcDbEntity
  8
UMRISS05
100
AcDbLine
 10
3282.94399085917
 20
484.6401204872323
 30
0.0
 11
3284.243028964846
 21
485.3901204872319
 31
0.0
  0
LINE
  5
1BF
330
2
100
AcDbEntity
  8
UMRISS05
100
AcDbLine
 10
3280.45191456399
 20
488.9565232468217
 30
0.0
 11
3282.94399085917
 21
484.6401204872323
 31
0.0
  0
DIMENSION
  5
1C0
330
2
100
AcDbEntity
  8
BEMASSUNG
100
AcDbDimension
280
     0
  2
*D8
 10
3349.273682735566
 20
504.4426793704903
 30
0.0
 11
3344.535773458622
 21
494.192679370491
 31
0.0
 71
     5
 42
20.49999999999954
 73
     0
 74
     0
 75
     0
  3
NORMAL
100
AcDbAlignedDimension
 13
3316.443028964845
 23
483.9426793704907
 33
0.0
 14
3273.243028964845
 24
504.4426793704903
 34
0.0
 50
90.0
100
AcDbRotatedDimension
  0
LINE
  5
1CD
330
2
100
AcDbEntity
  8
ACHSEN
100
AcDbLine
 10
3422.756430736023
 20
329.2926793704838
 30
0.0
 11
3422.756430736023
 21
342.7926793704838
 31
0.0
  0
ARC
  5
1CE
330
2
100
AcDbEntity
  8
UMRISS05
100
AcDbCircle
 10
3422.756430736023
 20
336.0426793704838
 30
0.0
 40
4.099999999999909
100
AcDbArc
 50
0.0
 51
180.0
  0
ARC
  5
1CF
330
2
100
AcDbEntity
  8
UMRISS05
100
AcDbCircle
 10
3422.756430736023
 20
336.0426793704838
 30
0.0
 40
4.099999999999909
100
AcDbArc
 50
180.0
 51
0.0
  0
LINE
  5
1D0
330
2
100
AcDbEntity
  8
ACHSEN
100
AcDbLine
 10
3429.506430736023
 20
336.0426793704838
 30
0.0
 11
3416.006430736023
 21
336.0426793704838
 31
0.0
  0
ARC
  5
1D1
330
2
100
AcDbEntity
  8
UMRISS05
100
AcDbCircle
 10
3422.756430736023
 20
336.0426793704838
 30
0.0
 40
2.15000000000009
100
AcDbArc
 50
0.0
 51
180.0
  0
ARC
  5
1D2
330
2
100
AcDbEntity
  8
UMRISS05
100
AcDbCircle
 10
3422.756430736023
 20
336.0426793704838
 30
0.0
 40
2.15000000000009
100
AcDbArc
 50
180.0
 51
0.0
  0
LINE
  5
1D3
330
2
100
AcDbEntity
  8
ACHSEN
100
AcDbLine
 10
3423.656430736023
 20
270.5426793704904
 30
0.0
 11
3423.656430736023
 21
258.3426793704906
 31
0.0
  0
LINE
  5
1D4
330
2
100
AcDbEntity
  8
ACHSEN
100
AcDbLine
 10
3417.556430736023
 20
264.4426793704905
 30
0.0
 11
3429.756430736023
 21
264.4426793704905
 31
0.0
  0
ARC
  5
1D5
330
2
100
AcDbEntity
  8
UMRISS05
100
AcDbCircle
 10
3423.656430736023
 20
264.4426793704905
 30
0.0
 40
4.099999999999909
100
AcDbArc
 50
0.0
 51
180.0
  0
ARC
  5
1D6
330
2
100
AcDbEntity
  8
UMRISS05
100
AcDbCircle
 10
3423.656430736023
 20
264.4426793704905
 30
0.0
 40
4.099999999999909
100
AcDbArc
 50
180.0
 51
0.0
  0
ARC
  5
1D7
330
2
100
AcDbEntity
  8
UMRISS05
100
AcDbCircle
 10
3423.656430736023
 20
264.4426793704905
 30
0.0
 40
2.15000000000009
100
AcDbArc
 50
0.0
 51
180.0
  0
ARC
  5
1D8
330
2
100
AcDbEntity
  8
UMRISS05
100
AcDbCircle
 10
3423.656430736023
 20
264.4426793704905
 30
0.0
 40
2.15000000000009
100
AcDbArc
 50
180.0
 51
0.0
  0
ARC
  5
1D9
330
2
100
AcDbEntity
  8
UMRISS05
100
AcDbCircle
 10
3315.243028964847
 20
339.9426793704904
 30
0.0
 40
2.599999999999909
100
AcDbArc
 50
0.0
 51
180.0
  0
ARC
  5
1DA
330
2
100
AcDbEntity
  8
UMRISS05
100
AcDbCircle
 10
3315.243028964847
 20
339.9426793704904
 30
0.0
 40
2.599999999999909
100
AcDbArc
 50
180.0
 51
0.0
  0
LINE
  5
1DB
330
2
100
AcDbEntity
  8
ACHSEN
100
AcDbLine
 10
3315.243028964847
 20
344.5426793704907
 30
0.0
 11
3315.243028964847
 21
335.3426793704904
 31
0.0
  0
LINE
  5
1DC
330
2
100
AcDbEntity
  8
ACHSEN
100
AcDbLine
 10
3319.843028964847
 20
339.9426793704905
 30
0.0
 11
3310.643028964846
 21
339.9426793704905
 31
0.0
  0
LINE
  5
1DD
330
2
100
AcDbEntity
  8
ACHSEN
100
AcDbLine
 10
3329.743028964845
 20
347.0426793704909
 30
0.0
 11
3318.743028964847
 21
347.0426793704909
 31
0.0
  0
LINE
  5
1DE
330
2
100
AcDbEntity
  8
UMRISS10
100
AcDbLine
 10
3334.243028964845
 20
341.9426793704912
 30
0.0
 11
3333.182368793066
 21
343.003339542271
 31
0.0
  0
ARC
  5
1E0
330
2
100
AcDbEntity
  8
UMRISS05
100
AcDbCircle
 10
3295.243028964846
 20
339.9426793704904
 30
0.0
 40
2.599999999999909
100
AcDbArc
 50
0.0
 51
180.0
  0
ARC
  5
1E1
330
2
100
AcDbEntity
  8
UMRISS05
100
AcDbCircle
 10
3295.243028964846
 20
339.9426793704904
 30
0.0
 40
2.599999999999909
100
AcDbArc
 50
180.0
 51
0.0
  0
LINE
  5
1E2
330
2
100
AcDbEntity
  8
ACHSEN
100
AcDbLine
 10
3295.243028964846
 20
344.5426793704907
 30
0.0
 11
3295.243028964846
 21
335.3426793704904
 31
0.0
  0
LINE
  5
1E3
330
2
100
AcDbEntity
  8
UMRISS03
100
AcDbLine
 10
3288.68805169593
 20
338.8711064952364
 30
0.0
 11
3283.798006233762
 21
338.8711064952364
 31
0.0
  0
LINE
  5
1E4
330
2
100
AcDbEntity
  8
UMRISS03
100
AcDbLine
 10
3288.68805169593
 20
333.2142522457441
 30
0.0
 11
3283.798006233762
 21
333.2142522457441
 31
0.0
  0
ARC
  5
1E5
330
2
100
AcDbEntity
  8
UMRISS03
100
AcDbCircle
 10
3290.743028964847
 20
336.0426793704902
 30
0.0
 40
7.498889300106986
100
AcDbArc
 50
157.8409181306087
 51
202.159081869391
  0
ARC
  5
1E6
330
2
100
AcDbEntity
  8
UMRISS03
100
AcDbCircle
 10
3281.743028964847
 20
336.0426793704902
 30
0.0
 40
7.498889300106986
100
AcDbArc
 50
337.8409181306083
 51
22.15908186939195
  0
LINE
  5
1E7
330
2
100
AcDbEntity
  8
ACHSEN
100
AcDbLine
 10
3291.743028964847
 20
347.0426793704909
 30
0.0
 11
3280.743028964847
 21
347.0426793704909
 31
0.0
  0
LINE
  5
1E8
330
2
100
AcDbEntity
  8
ACHSEN
100
AcDbLine
 10
3299.843028964846
 20
339.9426793704905
 30
0.0
 11
3290.643028964846
 21
339.9426793704905
 31
0.0
  0
LINE
  5
1E9
330
2
100
AcDbEntity
  8
ACHSEN
100
AcDbLine
 10
3311.543028964847
 20
334.4426793704903
 30
0.0
 11
3298.943028964846
 21
334.4426793704903
 31
0.0
  0
LINE
  5
1EA
330
2
100
AcDbEntity
  8
UMRISS05
100
AcDbLine
 10
3280.45191456399
 20
319.9288354941588
 30
0.0
 11
3282.94399085917
 21
324.2452382537477
 31
0.0
  0
DIMENSION
  5
1EB
330
2
100
AcDbEntity
  8
BEMASSUNG
100
AcDbDimension
280
     0
  2
*D7
 10
3334.243028964845
 20
274.0802131089437
 30
0.0
 11
3319.743028964847
 21
278.8181223858877
 31
0.0
 71
     5
 42
28.99999999999955
 73
     0
 74
     0
 75
     0
  3
NORMAL
100
AcDbAlignedDimension
 13
3305.243028964846
 23
328.1426793704901
 33
0.0
 14
3334.243028964845
 24
344.0639997140505
 34
0.0
100
AcDbRotatedDimension
  0
LWPOLYLINE
  5
1F8
330
2
100
AcDbEntity
  8
UMRISS03
100
AcDbPolyline
 90
       24
 70
     1
 43
0.0
 10
3261.943028964847
 20
343.9426793704898
 10
3261.543028964847
 20
343.9426793704904
 42
0.4142135623733172
 10
3261.243028964847
 20
343.6426793704904
 10
3261.243028964847
 20
342.5426793704902
 42
-0.4142135623732059
 10
3261.143028964845
 20
342.4426793704903
 10
3260.043028964846
 20
342.4426793704905
 42
0.4142135623731427
 10
3259.743028964847
 20
342.1426793704906
 10
3259.743028964847
 20
341.7426793704907
 42
0.4142135623731427
 10
3260.043028964846
 20
341.4426793704907
 10
3261.143028964845
 20
341.4426793704912
 42
-0.4142135623731298
 10
3261.243028964847
 20
341.3426793704913
 10
3261.243028964847
 20
340.24267937049
 42
0.4142135623730774
 10
3261.543028964847
 20
339.94267937049
 10
3261.943028964847
 20
339.9426793704903
 42
0.4142135623731189
 10
3262.243028964846
 20
340.2426793704902
 10
3262.243028964846
 20
341.3426793704906
 42
-0.414213562373123
 10
3262.343028964846
 20
341.4426793704905
 10
3263.443028964847
 20
341.4426793704907
 42
0.4142135623730951
 10
3263.743028964846
 20
341.7426793704907
 10
3263.743028964846
 20
342.1426793704901
 42
0.4142135623730475
 10
3263.443028964847
 20
342.44267937049
 10
3262.343028964846
 20
342.4426793704905
 42
-0.4142135623729705
 10
3262.243028964846
 20
342.5426793704904
 10
3262.243028964846
 20
343.6426793704899
 42
0.4142135623730831
  0
CIRCLE
  5
1F9
330
2
100
AcDbEntity
  8
UMRISS03
100
AcDbCircle
 10
3261.743028964847
 20
341.9426793704905
 30
0.0
 40
3.5
  0
DIMENSION
  5
1FA
330
2
100
AcDbEntity
  8
BEMASSUNG
100
AcDbDimension
280
     0
  2
*D6
 10
3245.243028964846
 20
274.0802131089437
 30
0.0
 11
3279.534818231841
 21
274.0802131089437
 31
0.0
 70
   128
  1
DM
 71
     5
 42
59.99999999999954
 73
     0
 74
     0
 75
     0
  3
NORMAL
100
AcDbAlignedDimension
 13
3305.243028964846
 23
324.9426793704906
 33
0.0
 14
3245.243028964846
 24
293.6668798343315
 34
0.0
100
AcDbRotatedDimension
  0
LINE
  5
207
330
2
100
AcDbEntity
  8
UMRISS05
100
AcDbLine
 10
3273.243028964845
 20
304.4426793704903
 30
0.0
 11
3263.163388407092
 21
304.4426793704904
 31
0.0
  0
LINE
  5
208
330
2
100
AcDbEntity
  8
UMRISS05
100
AcDbLine
 10
3284.243028964846
 20
323.4952382537486
 30
0.0
 11
3273.243028964845
 21
304.4426793704903
 31
0.0
  0
LINE
  5
209
330
2
100
AcDbEntity
  8
UMRISS05
100
AcDbLine
 10
3282.94399085917
 20
324.2452382537477
 30
0.0
 11
3284.243028964846
 21
323.4952382537486
 31
0.0
  0
LINE
  5
20A
330
2
100
AcDbEntity
  8
UMRISS05
100
AcDbLine
 10
3282.94399085917
 20
325.4426793704903
 30
0.0
 11
3282.94399085917
 21
324.2452382537477
 31
0.0
  0
ARC
  5
20B
330
2
100
AcDbEntity
  8
UMRISS05
100
AcDbCircle
 10
3283.94399085917
 20
325.4426793704903
 30
0.0
 40
1.0
100
AcDbArc
 50
90.0
 51
180.0
  0
DIMENSION
  5
20C
330
2
100
AcDbEntity
  8
BEMASSUNG
100
AcDbDimension
280
     0
  2
*D5
 10
3349.273682735566
 20
324.9426793704907
 30
0.0
 11
3344.535773458622
 21
314.692679370491
 31
0.0
 71
     5
 42
20.50000000000046
 73
     0
 74
     0
 75
     0
  3
NORMAL
100
AcDbAlignedDimension
 13
3273.243028964845
 23
304.4426793704903
 33
0.0
 14
3316.443028964845
 24
324.9426793704907
 34
0.0
 50
90.0
100
AcDbRotatedDimension
  0
ARC
  5
219
330
2
100
AcDbEntity
  8
UMRISS05
100
AcDbCircle
 10
3286.243028964847
 20
347.0426793704908
 30
0.0
 40
3.5
100
AcDbArc
 50
0.0
 51
180.0
  0
ARC
  5
21A
330
2
100
AcDbEntity
  8
UMRISS05
100
AcDbCircle
 10
3286.243028964847
 20
347.0426793704908
 30
0.0
 40
3.5
100
AcDbArc
 50
180.0
 51
0.0
  0
ARC
  5
21B
330
2
100
AcDbEntity
  8
UMRISS05
100
AcDbCircle
 10
3324.243028964847
 20
347.0426793704908
 30
0.0
 40
3.5
100
AcDbArc
 50
0.0
 51
180.0
  0
ARC
  5
21C
330
2
100
AcDbEntity
  8
UMRISS05
100
AcDbCircle
 10
3324.243028964847
 20
347.0426793704908
 30
0.0
 40
3.5
100
AcDbArc
 50
180.0
 51
0.0
  0
ARC
  5
21D
330
2
100
AcDbEntity
  8
UMRISS05
100
AcDbCircle
 10
3305.243028964846
 20
335.2426793704902
 30
0.0
 40
5.099999999999909
100
AcDbArc
 50
180.0
 51
0.0
  0
LINE
  5
21E
330
2
100
AcDbEntity
  8
UMRISS05
100
AcDbLine
 10
3300.143028964845
 20
344.5836733353973
 30
0.0
 11
3300.143028964845
 21
335.2426793704902
 31
0.0
  0
ARC
  5
21F
330
2
100
AcDbEntity
  8
UMRISS05
100
AcDbCircle
 10
3305.243028964846
 20
354.44267937049
 30
0.0
 40
11.0999999999998
100
AcDbArc
 50
297.3522329091287
 51
242.6477670908714
  0
LINE
  5
220
330
2
100
AcDbEntity
  8
UMRISS05
100
AcDbLine
 10
3310.343028964847
 20
335.2426793704902
 30
0.0
 11
3310.343028964847
 21
344.5836733353973
 31
0.0
  0
LINE
  5
221
330
2
100
AcDbEntity
  8
UMRISS05
100
AcDbLine
 10
3280.45191456399
 20
326.4426793704896
 30
0.0
 11
3280.45191456399
 21
316.928835494161
 31
0.0
  0
LINE
  5
222
330
2
100
AcDbEntity
  8
UMRISS05
100
AcDbLine
 10
3284.45191456399
 20
326.4426793704912
 30
0.0
 11
3280.45191456399
 21
326.4426793704896
 31
0.0
  0
LINE
  5
223
330
2
100
AcDbEntity
  8
UMRISS05
100
AcDbLine
 10
3284.45191456399
 20
324.9426793704905
 30
0.0
 11
3284.45191456399
 21
326.4426793704912
 31
0.0
  0
LINE
  5
224
330
2
100
AcDbEntity
  8
UMRISS05
100
AcDbLine
 10
3316.443028964845
 20
324.9426793704907
 30
0.0
 11
3284.45191456399
 21
324.9426793704905
 31
0.0
  0
LINE
  5
225
330
2
100
AcDbEntity
  8
UMRISS05
100
AcDbLine
 10
3316.443028964845
 20
326.4426793704912
 30
0.0
 11
3316.443028964845
 21
324.9426793704907
 31
0.0
  0
LINE
  5
226
330
2
100
AcDbEntity
  8
UMRISS05
100
AcDbLine
 10
3316.748054218014
 20
326.5690249672197
 30
0.0
 11
3316.443028964845
 21
326.4426793704912
 31
0.0
  0
LINE
  5
227
330
2
100
AcDbEntity
  8
UMRISS05
100
AcDbLine
 10
3317.808714389796
 20
325.5083647954399
 30
0.0
 11
3316.748054218014
 21
326.5690249672197
 31
0.0
  0
LINE
  5
228
330
2
100
AcDbEntity
  8
UMRISS05
100
AcDbLine
 10
3334.243028964845
 20
341.9426793704912
 30
0.0
 11
3317.808714389796
 21
325.5083647954399
 31
0.0
  0
LINE
  5
229
330
2
100
AcDbEntity
  8
UMRISS05
100
AcDbLine
 10
3333.182368793066
 20
343.003339542271
 30
0.0
 11
3334.243028964845
 21
341.9426793704912
 31
0.0
  0
LINE
  5
22A
330
2
100
AcDbEntity
  8
UMRISS05
100
AcDbLine
 10
3334.243028964845
 20
344.0639997140505
 30
0.0
 11
3333.182368793066
 21
343.003339542271
 31
0.0
  0
LINE
  5
22B
330
2
100
AcDbEntity
  8
UMRISS05
100
AcDbLine
 10
3334.243028964845
 20
464.8213590269304
 30
0.0
 11
3334.243028964845
 21
344.0639997140505
 31
0.0
  0
LINE
  5
22C
330
2
100
AcDbEntity
  8
UMRISS05
100
AcDbLine
 10
3333.182368793066
 20
465.8820191987103
 30
0.0
 11
3334.243028964845
 21
464.8213590269304
 31
0.0
  0
LINE
  5
22D
330
2
100
AcDbEntity
  8
UMRISS05
100
AcDbLine
 10
3334.243028964845
 20
466.94267937049
 30
0.0
 11
3333.182368793066
 21
465.8820191987103
 31
0.0
  0
LINE
  5
22E
330
2
100
AcDbEntity
  8
UMRISS05
100
AcDbLine
 10
3317.808714389796
 20
483.3769939455414
 30
0.0
 11
3334.243028964845
 21
466.94267937049
 31
0.0
  0
LINE
  5
22F
330
2
100
AcDbEntity
  8
UMRISS05
100
AcDbLine
 10
3316.748054218014
 20
482.3163337737615
 30
0.0
 11
3317.808714389796
 21
483.3769939455414
 31
0.0
  0
LINE
  5
230
330
2
100
AcDbEntity
  8
UMRISS05
100
AcDbLine
 10
3316.443028964845
 20
482.44267937049
 30
0.0
 11
3316.748054218014
 21
482.3163337737615
 31
0.0
  0
LINE
  5
231
330
2
100
AcDbEntity
  8
UMRISS05
100
AcDbLine
 10
3316.443028964845
 20
483.9426793704907
 30
0.0
 11
3316.443028964845
 21
482.44267937049
 31
0.0
  0
LINE
  5
232
330
2
100
AcDbEntity
  8
UMRISS05
100
AcDbLine
 10
3307.543028964846
 20
483.9426793704907
 30
0.0
 11
3316.443028964845
 21
483.9426793704907
 31
0.0
  0
LINE
  5
233
330
2
100
AcDbEntity
  8
UMRISS05
100
AcDbLine
 10
3248.243028964845
 20
337.9426793704905
 30
0.0
 11
3248.243028964846
 21
440.4426793704905
 31
0.0
  0
LWPOLYLINE
  5
234
330
2
100
AcDbEntity
  8
ACHSEN
100
AcDbPolyline
 90
        4
 70
     1
 43
0.0
 10
3300.143028964845
 20
334.4426793704903
 10
3300.143028964845
 20
347.5180855195848
 42
-3.044038009981496
 10
3310.343028964847
 20
347.5180855195848
 10
3310.343028964847
 20
334.4426793704903
 42
-0.9999999999999998
  0
LINE
  5
235
330
2
100
AcDbEntity
  8
ACHSEN
100
AcDbLine
 10
3286.243028964847
 20
352.5426793704909
 30
0.0
 11
3286.243028964847
 21
341.5426793704909
 31
0.0
  0
LINE
  5
236
330
2
100
AcDbEntity
  8
ACHSEN
100
AcDbLine
 10
3324.243028964847
 20
352.5426793704909
 30
0.0
 11
3324.243028964847
 21
341.5426793704909
 31
0.0
  0
LINE
  5
237
330
2
100
AcDbEntity
  8
ACHSEN
100
AcDbLine
 10
3305.243028964846
 20
485.4426793704905
 30
0.0
 11
3305.243028964846
 21
328.1426793704901
 31
0.0
  0
LINE
  5
238
330
2
100
AcDbEntity
  8
UMRISS05
100
AcDbLine
 10
3414.656430736024
 20
576.4426887255978
 30
0.0
 11
3414.656430736022
 21
256.4426887255975
 31
0.0
  0
LINE
  5
239
330
2
100
AcDbEntity
  8
UMRISS05
100
AcDbLine
 10
3432.656430736024
 20
256.4426887255978
 30
0.0
 11
3432.656430736023
 21
576.4426887255978
 31
0.0
  0
DIMENSION
  5
23A
330
2
100
AcDbEntity
  8
BEMASSUNG
100
AcDbDimension
280
     0
  2
*D4
 10
3365.254185038971
 20
304.4426793704903
 30
0.0
 11
3360.516275762027
 21
404.4426793704907
 31
0.0
 71
     5
 42
200.0
 73
     0
 74
     0
 75
     0
  3
NORMAL
100
AcDbAlignedDimension
 13
3273.243028964845
 23
504.4426793704903
 33
0.0
 14
3273.243028964845
 24
304.4426793704903
 34
0.0
 50
90.0
100
AcDbRotatedDimension
  0
LINE
  5
247
330
2
100
AcDbEntity
  8
UMRISS05
100
AcDbLine
 10
3303.243028964847
 20
182.5332383615263
 30
0.0
 11
3303.243028964847
 21
184.0332383615263
 31
0.0
  0
LINE
  5
248
330
2
100
AcDbEntity
  8
UMRISS05
100
AcDbLine
 10
3300.743028964845
 20
172.2332383615263
 30
0.0
 11
3309.743028964847
 21
172.2332383615263
 31
0.0
  0
LINE
  5
249
330
2
100
AcDbEntity
  8
UMRISS05
100
AcDbLine
 10
3307.243028964847
 20
182.5332383615263
 30
0.0
 11
3307.243028964847
 21
184.0332383615263
 31
0.0
  0
LINE
  5
24A
330
2
100
AcDbEntity
  8
UMRISS05
100
AcDbLine
 10
3300.743028964845
 20
171.3332383615262
 30
0.0
 11
3309.743028964847
 21
171.3332383615262
 31
0.0
  0
LINE
  5
24B
330
2
100
AcDbEntity
  8
UMRISS05
100
AcDbLine
 10
3303.243028964844
 20
169.8332383615262
 30
0.0
 11
3303.243028964844
 21
171.3332383615262
 31
0.0
  0
LINE
  5
24C
330
2
100
AcDbEntity
  8
UMRISS05
100
AcDbLine
 10
3300.743028964845
 20
169.8332383615262
 30
0.0
 11
3300.743028964845
 21
182.5332383615263
 31
0.0
  0
LINE
  5
24D
330
2
100
AcDbEntity
  8
UMRISS05
100
AcDbLine
 10
3307.243028964844
 20
169.8332383615262
 30
0.0
 11
3307.243028964844
 21
171.3332383615262
 31
0.0
  0
LINE
  5
24E
330
2
100
AcDbEntity
  8
UMRISS05
100
AcDbLine
 10
3309.743028964847
 20
169.8332383615262
 30
0.0
 11
3309.743028964847
 21
182.5332383615263
 31
0.0
  0
LINE
  5
24F
330
2
100
AcDbEntity
  8
UMRISS05
100
AcDbLine
 10
3316.621708621286
 20
182.5332383615263
 30
0.0
 11
3316.621708621286
 21
169.8332383615262
 31
0.0
  0
LINE
  5
250
330
2
100
AcDbEntity
  8
UMRISS05
100
AcDbLine
 10
3317.682368793066
 20
182.5332383615263
 30
0.0
 11
3317.682368793066
 21
169.8332383615262
 31
0.0
  0
LINE
  5
251
330
2
100
AcDbEntity
  8
ACHSEN
100
AcDbLine
 10
3305.243028964846
 20
187.0332383615263
 30
0.0
 11
3305.243028964846
 21
166.8332383615262
 31
0.0
  0
DIMENSION
  5
252
330
2
100
AcDbEntity
  8
BEMASSUNG
100
AcDbDimension
280
     0
  2
*D3
 10
3344.811415429089
 20
184.0332383615262
 30
0.0
 11
3344.811415429089
 21
176.9332383615267
 31
0.0
 70
   128
 71
     5
 42
14.19999999999993
 73
     0
 74
     0
 75
     0
  3
NORMAL
100
AcDbAlignedDimension
 13
3334.243028964845
 23
169.8332383615262
 33
0.0
 14
3332.743028964845
 24
184.0332383615262
 34
0.0
 50
90.0
100
AcDbRotatedDimension
  0
DIMENSION
  5
261
330
2
100
AcDbEntity
  8
BEMASSUNG
100
AcDbDimension
280
     0
  2
*D2
 10
3414.656430736022
 20
231.0617217536201
 30
0.0
 11
3423.656430736023
 21
231.0617217536201
 31
0.0
 70
   128
  1
18/20
 71
     5
 42
18.00000000000182
 73
     0
 74
     0
 75
     0
  3
NORMAL
100
AcDbAlignedDimension
 13
3432.656430736024
 23
256.4426887255978
 33
0.0
 14
3414.656430736022
 24
256.4426887255975
 34
0.0
100
AcDbRotatedDimension
  0
LINE
  5
26E
330
2
100
AcDbEntity
  8
UMRISS05
100
AcDbLine
 10
3248.243028964846
 20
256.4426887255975
 30
0.0
 11
3245.243028964845
 21
256.4426887255975
 31
0.0
  0
LINE
  5
26F
330
2
100
AcDbEntity
  8
UMRISS05
100
AcDbLine
 10
3248.243028964846
 20
576.4426887255978
 30
0.0
 11
3248.243028964846
 21
256.4426887255975
 31
0.0
  0
LINE
  5
270
330
2
100
AcDbEntity
  8
UMRISS05
100
AcDbLine
 10
3245.243028964846
 20
576.4426887255973
 30
0.0
 11
3248.243028964846
 21
576.4426887255978
 31
0.0
  0
LINE
  5
271
330
2
100
AcDbEntity
  8
UMRISS05
100
AcDbLine
 10
3245.243028964845
 20
256.4426887255975
 30
0.0
 11
3245.243028964846
 21
576.4426887255973
 31
0.0
  0
LINE
  5
272
330
2
100
AcDbEntity
  8
ACHSEN
100
AcDbLine
 10
3253.998469317195
 20
177.5332383615265
 30
0.0
 11
3235.358674281032
 21
177.5332383615265
 31
0.0
  0
LINE
  5
273
330
2
100
AcDbEntity
  8
UMRISS05
100
AcDbLine
 10
3245.243028964846
 20
167.0332383615265
 30
0.0
 11
3245.243028964846
 21
185.0332383615265
 31
0.0
  0
LINE
  5
274
330
2
100
AcDbEntity
  8
UMRISS05
100
AcDbLine
 10
3248.243028964846
 20
167.0332383615265
 30
0.0
 11
3245.243028964846
 21
167.0332383615265
 31
0.0
  0
LINE
  5
275
330
2
100
AcDbEntity
  8
UMRISS05
100
AcDbLine
 10
3248.243028964846
 20
185.0332383615265
 30
0.0
 11
3248.243028964846
 21
167.0332383615265
 31
0.0
  0
LINE
  5
276
330
2
100
AcDbEntity
  8
UMRISS05
100
AcDbLine
 10
3245.243028964846
 20
185.0332383615265
 30
0.0
 11
3248.243028964846
 21
185.0332383615265
 31
0.0
  0
DIMENSION
  5
277
330
2
100
AcDbEntity
  8
BEMASSUNG
100
AcDbDimension
280
     0
  2
*D1
 10
3265.301034742031
 20
184.0332383615264
 30
0.0
 11
3265.301034742031
 21
203.739036451568
 31
0.0
 70
   128
  1
<>/2
 71
     5
 42
1.000000000000085
 73
     0
 74
     0
 75
     0
  3
NORMAL
100
AcDbAlignedDimension
 13
3248.243028964846
 23
185.0332383615265
 33
0.0
 14
3270.243711549651
 24
184.0332383615264
 34
0.0
 50
90.0
100
AcDbRotatedDimension
  0
ARC
  5
286
330
2
100
AcDbEntity
  8
UMRISS05
100
AcDbCircle
 10
3249.743028964845
 20
182.5332383615265
 30
0.0
 40
1.5
100
AcDbArc
 50
90.0
 51
180.0
  0
LINE
  5
287
330
2
100
AcDbEntity
  8
UMRISS05
100
AcDbLine
 10
3332.743028964845
 20
184.0332383615263
 30
0.0
 11
3249.743028964845
 21
184.0332383615265
 31
0.0
  0
ARC
  5
288
330
2
100
AcDbEntity
  8
UMRISS05
100
AcDbCircle
 10
3332.743028964845
 20
182.5332383615263
 30
0.0
 40
1.5
100
AcDbArc
 50
0.0
 51
90.0
  0
LINE
  5
289
330
2
100
AcDbEntity
  8
UMRISS05
100
AcDbLine
 10
3334.243028964845
 20
169.8332383615262
 30
0.0
 11
3248.243028964846
 21
169.8332383615264
 31
0.0
  0
LINE
  5
28A
330
2
100
AcDbEntity
  8
UMRISS05
100
AcDbLine
 10
3334.243028964845
 20
182.5332383615263
 30
0.0
 11
3334.243028964845
 21
169.8332383615262
 31
0.0
  0
LINE
  5
28B
330
2
100
AcDbEntity
  8
UMRISS05
100
AcDbLine
 10
3288.943028964847
 20
182.5332383615263
 30
0.0
 11
3334.243028964845
 21
182.5332383615263
 31
0.0
  0
LINE
  5
28C
330
2
100
AcDbEntity
  8
UMRISS05
100
AcDbLine
 10
3288.943028964847
 20
170.8332383615263
 30
0.0
 11
3288.943028964847
 21
182.5332383615263
 31
0.0
  0
LINE
  5
28D
330
2
100
AcDbEntity
  8
UMRISS05
100
AcDbLine
 10
3248.243028964846
 20
170.8332383615263
 30
0.0
 11
3288.943028964847
 21
170.8332383615263
 31
0.0
  0
ARC
  5
28E
330
2
100
AcDbEntity
  8
UMRISS05
100
AcDbCircle
 10
3423.656430736023
 20
568.4426793704907
 30
0.0
 40
4.099999999999909
100
AcDbArc
 50
0.0
 51
180.0
  0
ARC
  5
28F
330
2
100
AcDbEntity
  8
UMRISS05
100
AcDbCircle
 10
3423.656430736023
 20
568.4426793704907
 30
0.0
 40
4.099999999999909
100
AcDbArc
 50
180.0
 51
0.0
  0
DIMENSION
  5
290
330
2
100
AcDbEntity
  8
BEMASSUNG
100
AcDbDimension
280
     0
  2
*D0
 10
3204.40294174913
 20
576.4426887255973
 30
0.0
 11
3199.715765760045
 21
504.4426840480446
 31
0.0
  1
144
 71
     5
 42
144.0000093551066
 73
     0
 74
     0
 75
     0
  3
NORMAL
100
AcDbAlignedDimension
 13
3211.1048298256
 23
432.4426793704907
 33
0.0
 14
3245.243028964846
 24
576.4426887255973
 34
0.0
 50
90.0
100
AcDbRotatedDimension
  0
LINE
  5
29D
330
2
100
AcDbEntity
  8
ACHSEN
100
AcDbLine
 10
3423.656430736023
 20
574.5426793704907
 30
0.0
 11
3423.656430736023
 21
562.3426793704908
 31
0.0
  0
DIMENSION
  5
3BE
330
2
100
AcDbEntity
  8
BEMASSUNG
100
AcDbDimension
280
     0
  2
*D26
 10
3248.243028964846
 20
231.1218733969845
 30
0.0
 11
3263.791187218598
 21
235.8618120054429
 31
0.0
 70
    32
 71
     5
 42
3.000000000001364
 73
     0
 74
     0
 75
     0
  3
NORMAL
100
AcDbAlignedDimension
 13
3245.243028964845
 23
256.4426887255975
 33
0.0
 14
3248.243028964846
 24
256.4426887255975
 34
0.0
 50
0.0000000000001132
100
AcDbRotatedDimension
1001
ACAD_DSTYLE_DIMINSPECT
1070
   396
1000
100%
1070
   395
1000

1070
   394
1070
    33
1070
   393
1070
     0
  0
ENDSEC
  0
SECTION
  2
OBJECTS
  0
DICTIONARY
  5
9
330
0
100
AcDbDictionary
281
     1
  3
ACAD_CIP_PREVIOUS_PRODUCT_INFO
350
346
  3
ACAD_COLOR
350
33
  3
ACAD_DETAILVIEWSTYLE
350
33E
  3
ACAD_FIELDLIST
350
39D
  3
ACAD_GROUP
350
2F
  3
ACAD_LAYOUT
350
D
  3
ACAD_MATERIAL
350
32
  3
ACAD_MLEADERSTYLE
350
33A
  3
ACAD_MLINESTYLE
350
30
  3
ACAD_PLOTSETTINGS
350
31
  3
ACAD_PLOTSTYLENAME
350
8
  3
ACAD_SCALELIST
350
328
  3
ACAD_SECTIONVIEWSTYLE
350
33C
  3
ACAD_TABLESTYLE
350
34
  3
ACAD_VISUALSTYLE
350
30F
  3
ACDB_RECOMPOSE_DATA
350
43A
  3
AcDbVariableDictionary
350
2F3
  3
AcmDictionary
350
2AF
  3
AMG
350
2A0
  3
AMGSNAPSETTINGS
350
3B5
  0
DICTIONARY
  5
13
330
12
100
AcDbDictionary
280
     1
281
     1
  3
ACAD_LAYERFILTERS
360
14
  3
ACAD_LAYERSTATES
360
15
  3
ACLYDICTIONARY
360
16
  0
DICTIONARY
  5
41C
330
6
100
AcDbDictionary
280
     1
281
     1
  3
ADSK_XREC_LAYER_RECONCILED
360
41D
  0
DICTIONARY
  5
41E
330
D9
100
AcDbDictionary
280
     1
281
     1
  3
ADSK_XREC_LAYER_RECONCILED
360
41F
  0
DICTIONARY
  5
420
330
68
100
AcDbDictionary
280
     1
281
     1
  3
ADSK_XREC_LAYER_RECONCILED
360
421
  0
DICTIONARY
  5
422
330
35
100
AcDbDictionary
280
     1
281
     1
  3
ADSK_XREC_LAYER_RECONCILED
360
423
  0
DICTIONARY
  5
424
330
1DF
100
AcDbDictionary
280
     1
281
     1
  3
ADSK_XREC_LAYER_RECONCILED
360
425
  0
DICTIONARY
  5
426
330
39
100
AcDbDictionary
280
     1
281
     1
  3
ADSK_XREC_LAYER_RECONCILED
360
427
  0
DICTIONARY
  5
428
330
B3
100
AcDbDictionary
280
     1
281
     1
  3
ADSK_XREC_LAYER_RECONCILED
360
429
  0
DICTIONARY
  5
42A
330
3B1
100
AcDbDictionary
280
     1
281
     1
  3
ADSK_XREC_LAYER_RECONCILED
360
42B
  0
DICTIONARY
  5
3
330
2
100
AcDbDictionary
280
     1
281
     1
  3
ACAD_SORTENTS
360
29E
  0
XRECORD
  5
346
102
{ACAD_REACTORS
330
9
102
}
330
9
100
AcDbXrecord
280
     1
300
AMECH_PP
300
2014
300
PDSU_F_S
  0
DICTIONARY
  5
33
102
{ACAD_REACTORS
330
9
102
}
330
9
100
AcDbDictionary
281
     1
  0
DICTIONARY
  5
33E
102
{ACAD_REACTORS
330
9
102
}
330
9
100
AcDbDictionary
281
     1
  3
Metric50
350
33F
  0
FIELDLIST
  5
39D
102
{ACAD_REACTORS
330
9
102
}
330
9
100
AcDbIdSet
 90
        6
330
39B
330
39C
330
39E
330
3A6
330
3A7
330
3A8
100
AcDbFieldList
  0
DICTIONARY
  5
2F
102
{ACAD_REACTORS
330
9
102
}
330
9
100
AcDbDictionary
281
     1
  0
DICTIONARY
  5
D
102
{ACAD_REACTORS
330
9
102
}
330
9
100
AcDbDictionary
281
     1
  3
Layout1
350
11
  3
Model
350
C
  0
DICTIONARY
  5
32
102
{ACAD_REACTORS
330
9
102
}
330
9
100
AcDbDictionary
281
     1
  3
ByBlock
350
2FF
  3
ByLayer
350
2F7
  3
Global
350
307
  0
DICTIONARY
  5
33A
102
{ACAD_REACTORS
330
9
102
}
330
9
100
AcDbDictionary
281
     1
  3
Standard
350
33B
  0
DICTIONARY
  5
30
102
{ACAD_REACTORS
330
9
102
}
330
9
100
AcDbDictionary
281
     1
  3
STANDARD
350
36
  0
DICTIONARY
  5
31
102
{ACAD_REACTORS
330
9
102
}
330
9
100
AcDbDictionary
281
     1
  0
ACDBDICTIONARYWDFLT
  5
8
102
{ACAD_REACTORS
330
9
102
}
330
9
100
AcDbDictionary
281
     1
  3
Normal
350
7
100
AcDbDictionaryWithDefault
340
7
  0
DICTIONARY
  5
328
102
{ACAD_REACTORS
330
9
102
}
330
9
100
AcDbDictionary
281
     1
  3
A0
350
329
  3
A1
350
32A
  3
A2
350
32B
  3
A3
350
32C
  3
A4
350
32D
  3
A5
350
32E
  3
A6
350
32F
  3
A7
350
330
  3
A8
350
331
  3
A9
350
332
  3
B0
350
333
  3
B1
350
334
  3
B2
350
335
  3
B3
350
336
  3
B4
350
337
  3
B5
350
338
  3
B6
350
339
  0
DICTIONARY
  5
33C
102
{ACAD_REACTORS
330
9
102
}
330
9
100
AcDbDictionary
281
     1
  3
Metric50
350
33D
  0
DICTIONARY
  5
34
102
{ACAD_REACTORS
330
9
102
}
330
9
100
AcDbDictionary
281
     1
  3
Standard
350
37
  0
DICTIONARY
  5
30F
102
{ACAD_REACTORS
330
9
102
}
330
9
100
AcDbDictionary
281
     1
  3
2dWireframe
350
315
  3
Basic
350
314
  3
Brighten
350
31B
  3
ColorChange
350
31F
  3
Conceptual
350
318
  3
Dim
350
31A
  3
EdgeColorOff
350
327
  3
Facepattern
350
31E
  3
Flat
350
310
  3
FlatWithEdges
350
311
  3
Gouraud
350
312
  3
GouraudWithEdges
350
313
  3
Hidden
350
317
  3
JitterOff
350
325
  3
Linepattern
350
31D
  3
OverhangOff
350
326
  3
Realistic
350
319
  3
Shaded
350
324
  3
Shaded with edges
350
323
  3
Shades of Gray
350
320
  3
Sketchy
350
321
  3
Thicken
350
31C
  3
Wireframe
350
316
  3
X-Ray
350
322
  0
XRECORD
  5
43A
102
{ACAD_REACTORS
330
9
102
}
330
9
100
AcDbXrecord
280
     1
 90
        1
330
37
330
33D
330
33F
  0
DICTIONARY
  5
2F3
102
{ACAD_REACTORS
330
9
102
}
330
9
100
AcDbDictionary
281
     1
  3
CANNOSCALE
350
430
  3
CMLEADERSTYLE
350
42C
  3
CTABLESTYLE
350
2F4
  3
CVIEWDETAILSTYLE
350
42D
  3
CVIEWSECTIONSTYLE
350
42E
  3
LAYEREVAL
350
432
  3
LAYERNOTIFY
350
433
  3
LIGHTINGUNITS
350
431
  3
MSLTSCALE
350
42F
  0
DICTIONARY
  5
2AF
102
{ACAD_REACTORS
330
9
102
}
330
9
100
AcDbDictionary
281
     1
  3
AcmStdDictionary
350
2B0
  0
DICTIONARY
  5
2A0
102
{ACAD_REACTORS
330
9
102
}
330
9
100
AcDbDictionary
281
     1
  0
DICTIONARY
  5
3B5
102
{ACAD_REACTORS
330
9
102
}
330
9
100
AcDbDictionary
281
     1
  0
DICTIONARY
  5
14
102
{ACAD_REACTORS
330
13
102
}
330
13
100
AcDbDictionary
281
     1
  0
DICTIONARY
  5
15
102
{ACAD_REACTORS
330
13
102
}
330
13
100
AcDbDictionary
281
     1
  0
DICTIONARY
  5
16
102
{ACAD_REACTORS
330
13
102
}
330
13
100
AcDbDictionary
281
     1
1001
ACAD
1000
<All
  0
XRECORD
  5
41D
102
{ACAD_REACTORS
330
41C
102
}
330
41C
100
AcDbXrecord
280
     1
290
     1
  0
XRECORD
  5
41F
102
{ACAD_REACTORS
330
41E
102
}
330
41E
100
AcDbXrecord
280
     1
290
     1
  0
XRECORD
  5
421
102
{ACAD_REACTORS
330
420
102
}
330
420
100
AcDbXrecord
280
     1
290
     1
  0
XRECORD
  5
423
102
{ACAD_REACTORS
330
422
102
}
330
422
100
AcDbXrecord
280
     1
290
     1
  0
XRECORD
  5
425
102
{ACAD_REACTORS
330
424
102
}
330
424
100
AcDbXrecord
280
     1
290
     1
  0
XRECORD
  5
427
102
{ACAD_REACTORS
330
426
102
}
330
426
100
AcDbXrecord
280
     1
290
     1
  0
XRECORD
  5
429
102
{ACAD_REACTORS
330
428
102
}
330
428
100
AcDbXrecord
280
     1
290
     1
  0
XRECORD
  5
42B
102
{ACAD_REACTORS
330
42A
102
}
330
42A
100
AcDbXrecord
280
     1
290
     1
  0
SORTENTSTABLE
  5
29E
102
{ACAD_REACTORS
330
3
102
}
330
3
100
AcDbSortentsTable
330
2
331
22C
  5
AE
331
228
  5
B2
331
224
  5
D2
331
220
  5
D6
331
EE
  5
1E5
331
EA
  5
1E9
331
E6
  5
1F9
331
125
  5
16F
331
E2
  5
209
331
121
  5
173
331
145
  5
141
331
1BC
  5
10A
331
141
  5
145
331
13F
  5
153
331
1A2
  5
10C
331
1E4
  5
EF
331
1E0
  5
F3
331
1D4
  5
FE
331
1D0
  5
102
331
11D
  5
185
331
AE
  5
22C
331
AA
  5
230
331
119
  5
189
331
A6
  5
234
331
115
  5
199
331
A2
  5
238
331
111
  5
19D
331
274
  5
8C
331
270
  5
90
331
C5
  5
225
331
250
  5
96
331
167
  5
12D
331
163
  5
13D
331
172
  5
122
331
19C
  5
112
331
198
  5
116
331
28F
  5
58
331
16C
  5
128
331
28B
  5
77
331
168
  5
12C
331
10D
  5
1A1
331
9E
  5
248
331
109
  5
1BD
331
9A
  5
24C
331
96
  5
250
331
105
  5
1CD
331
92
  5
26E
331
101
  5
1D1
331
1DE
  5
F4
331
1F8
  5
E7
331
1DA
  5
F8
331
29D
  5
38
331
21C
  5
DB
331
49
  5
290
331
1E8
  5
EB
331
187
  5
11B
331
183
  5
11F
331
18A
  5
118
331
24F
  5
97
331
24B
  5
9B
331
12C
  5
168
331
128
  5
16C
331
237
  5
A3
331
86
  5
288
331
233
  5
A7
331
D6
  5
220
331
D2
  5
224
331
8E
  5
272
331
FD
  5
1D5
331
F9
  5
1D9
331
8A
  5
276
331
F5
  5
1DD
331
F1
  5
1E2
331
238
  5
A2
331
261
  5
93
331
20C
  5
DF
331
DE
  5
219
331
DA
  5
21D
331
208
  5
E3
331
197
  5
117
331
22F
  5
AB
331
22B
  5
AF
331
227
  5
B5
331
223
  5
D3
331
ED
  5
1E6
331
E9
  5
1EA
331
E5
  5
1FA
331
124
  5
170
331
E1
  5
20A
331
120
  5
182
331
1C0
  5
106
331
1BF
  5
107
331
77
  5
28B
331
144
  5
142
331
13E
  5
162
331
140
  5
146
331
1CF
  5
103
331
1A1
  5
10D
331
1E7
  5
EC
331
1E3
  5
F0
331
1D7
  5
FB
331
1D3
  5
FF
331
11C
  5
186
331
AD
  5
22D
331
A9
  5
231
331
118
  5
18A
331
A5
  5
235
331
114
  5
19A
331
A1
  5
239
331
110
  5
19E
331
277
  5
89
331
273
  5
8D
331
130
  5
164
331
207
  5
E4
331
166
  5
12E
331
162
  5
13E
331
171
  5
123
331
19F
  5
10F
331
19B
  5
113
331
16F
  5
125
331
28E
  5
67
331
16B
  5
129
331
28A
  5
84
331
10C
  5
1A2
331
9D
  5
249
331
99
  5
24D
331
108
  5
1BE
331
95
  5
251
331
104
  5
1CE
331
91
  5
26F
331
100
  5
1D2
331
B6
  5
226
331
1DD
  5
F5
331
58
  5
28F
331
21F
  5
D7
331
B2
  5
228
331
1D9
  5
F9
331
21B
  5
DC
331
1EB
  5
E8
331
186
  5
11C
331
182
  5
120
331
189
  5
119
331
24E
  5
98
331
12F
  5
165
331
24A
  5
9C
331
12B
  5
169
331
67
  5
28E
331
236
  5
A4
331
85
  5
289
331
232
  5
A8
331
D5
  5
221
331
FC
  5
1D6
331
8D
  5
273
331
F8
  5
1DA
331
89
  5
277
331
F4
  5
1DE
331
F0
  5
1E3
331
247
  5
9F
331
69
  5
28D
331
20B
  5
E0
331
DD
  5
21A
331
22E
  5
AC
331
22A
  5
B0
331
226
  5
B6
331
222
  5
D4
331
EC
  5
1E7
331
E8
  5
1EB
331
127
  5
16D
331
E4
  5
207
331
123
  5
171
331
E0
  5
20B
331
1BE
  5
108
331
76
  5
28C
331
13D
  5
163
331
1CE
  5
104
331
1A0
  5
10E
331
1E6
  5
ED
331
1E2
  5
F1
331
1D6
  5
FC
331
1D2
  5
100
331
11F
  5
183
331
11B
  5
187
331
AC
  5
22E
331
A8
  5
232
331
117
  5
197
331
A4
  5
236
331
113
  5
19B
331
276
  5
8A
331
A0
  5
23A
331
272
  5
8E
331
26F
  5
91
331
252
  5
94
331
165
  5
12F
331
38
  5
29D
331
287
  5
87
331
170
  5
124
331
19E
  5
110
331
19A
  5
114
331
16E
  5
126
331
28D
  5
69
331
16A
  5
12A
331
289
  5
85
331
10F
  5
19F
331
10B
  5
1AF
331
9C
  5
24A
331
98
  5
24E
331
107
  5
1BF
331
94
  5
252
331
103
  5
1CF
331
90
  5
270
331
1FA
  5
E5
331
B5
  5
227
331
1DC
  5
F6
331
21E
  5
D8
331
B1
  5
229
331
1D8
  5
FA
331
21A
  5
DD
331
1EA
  5
E9
331
290
  5
49
331
185
  5
11D
331
188
  5
11A
331
24D
  5
99
331
12E
  5
166
331
12A
  5
16A
331
249
  5
9D
331
235
  5
A5
331
84
  5
28A
331
231
  5
A9
331
D4
  5
222
331
FF
  5
1D3
331
FB
  5
1D7
331
8C
  5
274
331
88
  5
286
331
F7
  5
1DB
331
F3
  5
1E0
331
23A
  5
A0
331
DC
  5
21B
331
20A
  5
E1
331
D8
  5
21E
331
22D
  5
AD
331
229
  5
B1
331
225
  5
C5
331
221
  5
D5
331
EF
  5
1E4
331
EB
  5
1E8
331
E7
  5
1F8
331
126
  5
16E
331
E3
  5
208
331
122
  5
172
331
146
  5
140
331
1BD
  5
109
331
1AF
  5
10B
331
142
  5
144
331
1CD
  5
105
331
1E5
  5
EE
331
1E1
  5
F2
331
1D5
  5
FD
331
1D1
  5
101
331
11E
  5
184
331
AF
  5
22B
331
11A
  5
188
331
AB
  5
22F
331
A7
  5
233
331
116
  5
198
331
A3
  5
237
331
112
  5
19C
331
275
  5
8B
331
271
  5
8F
331
26E
  5
92
331
251
  5
95
331
153
  5
13F
331
164
  5
130
331
286
  5
88
331
173
  5
121
331
19D
  5
111
331
199
  5
115
331
16D
  5
127
331
28C
  5
76
331
169
  5
12B
331
288
  5
86
331
9F
  5
247
331
10E
  5
1A0
331
10A
  5
1BC
331
9B
  5
24B
331
97
  5
24F
331
106
  5
1C0
331
93
  5
261
331
102
  5
1D0
331
1F9
  5
E6
331
1DB
  5
F7
331
21D
  5
DA
331
B0
  5
22A
331
219
  5
DE
331
1E9
  5
EA
331
184
  5
11E
331
24C
  5
9A
331
12D
  5
167
331
129
  5
16B
331
248
  5
9E
331
87
  5
287
331
234
  5
A6
331
D7
  5
21F
331
230
  5
AA
331
D3
  5
223
331
8F
  5
271
331
FE
  5
1D4
331
FA
  5
1D8
331
8B
  5
275
331
F6
  5
1DC
331
F2
  5
1E1
331
239
  5
A1
331
DF
  5
20C
331
DB
  5
21C
331
209
  5
E2
  0
ACDBDETAILVIEWSTYLE
  5
33F
102
{ACAD_XDICTIONARY
360
438
102
}
102
{ACAD_REACTORS
330
33E
330
397
102
}
330
33E
100
AcDbModelDocViewStyle
 70
     0
  3
Metric50
290
     0
100
AcDbDetailViewStyle
 70
     0
 71
     0
 90
        3
 71
     1
340
19
 62
   256
 40
5.0
340
0
 62
   256
 40
5.0
300

 40
0.0
280
     1
 71
     2
340
A
 90
       25
 62
   256
 71
     3
340
19
 62
   256
 40
5.0
 90
        0
 40
15.0
 90
        1
300
%<\AcVar ViewDetailId>% (%<\AcVar ViewScale \f "%sn">%)
 71
     4
340
A
 90
       25
 62
   256
340
A
 90
       25
 62
   256
280
     0
  0
LAYOUT
  5
11
102
{ACAD_REACTORS
330
D
102
}
330
D
100
AcDbPlotSettings
  1

  2
G:\VORLAGEN\AutoCAD2002\Plotten\A3hoch-MSL.pc3
  4

  6

 40
0.0
 41
0.0
 42
0.0
 43
0.0
 44
0.0
 45
0.0
 46
0.0
 47
0.0
 48
0.0
 49
0.0
140
0.0
141
0.0
142
1.0
143
1.0
 70
   688
 72
     0
 73
     0
 74
     5
  7
monochrome.ctb
 75
    16
147
1.0
 76
     0
 77
     2
 78
   300
148
0.0
149
0.0
100
AcDbLayout
  1
Layout1
 70
     1
 71
     1
 10
0.0
 20
0.0
 11
12.0
 21
9.0
 12
0.0
 22
0.0
 32
0.0
 14
1.000000000000000E+20
 24
1.000000000000000E+20
 34
1.000000000000000E+20
 15
-1.000000000000000E+20
 25
-1.000000000000000E+20
 35
-1.000000000000000E+20
146
0.0
 13
0.0
 23
0.0
 33
0.0
 16
1.0
 26
0.0
 36
0.0
 17
0.0
 27
1.0
 37
0.0
 76
     0
330
E
  0
LAYOUT
  5
C
102
{ACAD_REACTORS
330
D
102
}
330
D
100
AcDbPlotSettings
  1

  2
HP LaserJet 5000 Series PS
  4
A4
  6

 40
5.873749732971191
 41
5.408092021942137
 42
5.577407836914061
 43
5.069427490234375
 44
209.9733276367186
 45
296.9683227539062
 46
32.92
 47
73.76999999999998
 48
-450.2587022795414
 49
14.58016701603446
140
213.1555513028707
141
709.3106044882179
142
1.0
143
5.0
 70
 11940
 72
     1
 73
     0
 74
     4
  7
monochrome.ctb
 75
     0
147
0.2
 76
     0
 77
     2
 78
   300
148
450.2587022795414
149
-14.58016701603446
100
AcDbLayout
  1
Model
 70
     1
 71
     0
 10
0.0
 20
0.0
 11
12.0
 21
9.0
 12
0.0
 22
0.0
 32
0.0
 14
0.0
 24
0.0
 34
0.0
 15
0.0
 25
0.0
 35
0.0
146
0.0
 13
0.0
 23
0.0
 33
0.0
 16
1.0
 26
0.0
 36
0.0
 17
0.0
 27
1.0
 37
0.0
 76
     0
330
2
331
21
  0
MATERIAL
  5
2FF
102
{ACAD_XDICTIONARY
360
300
102
}
102
{ACAD_REACTORS
330
32
102
}
330
32
100
AcDbMaterial
  1
ByBlock
 72
     0
 43
0.0008202099737533
 43
0.0
 43
0.0
 43
0.0
 43
0.0
 43
0.0008202099737533
 43
0.0
 43
0.0
 43
0.0
 43
0.0
 43
1.0
 43
0.0
 43
0.0
 43
0.0
 43
0.0
 43
1.0
 77
     0
 47
0.0008202099737533
 47
0.0
 47
0.0
 47
0.0
 47
0.0
 47
0.0008202099737533
 47
0.0
 47
0.0
 47
0.0
 47
0.0
 47
1.0
 47
0.0
 47
0.0
 47
0.0
 47
0.0
 47
1.0
171
     0
 49
0.0008202099737533
 49
0.0
 49
0.0
 49
0.0
 49
0.0
 49
0.0008202099737533
 49
0.0
 49
0.0
 49
0.0
 49
0.0
 49
1.0
 49
0.0
 49
0.0
 49
0.0
 49
0.0
 49
1.0
175
     0
142
0.0008202099737533
142
0.0
142
0.0
142
0.0
142
0.0
142
0.0008202099737533
142
0.0
142
0.0
142
0.0
142
0.0
142
1.0
142
0.0
142
0.0
142
0.0
142
0.0
142
1.0
179
     0
144
0.0008202099737533
144
0.0
144
0.0
144
0.0
144
0.0
144
0.0008202099737533
144
0.0
144
0.0
144
0.0
144
0.0
144
1.0
144
0.0
144
0.0
144
0.0
144
0.0
144
1.0
147
0.0008202099737533
147
0.0
147
0.0
147
0.0
147
0.0
147
0.0008202099737533
147
0.0
147
0.0
147
0.0
147
0.0
147
1.0
147
0.0
147
0.0
147
0.0
147
0.0
147
1.0
  0
MATERIAL
  5
2F7
102
{ACAD_XDICTIONARY
360
2F8
102
}
102
{ACAD_REACTORS
330
32
102
}
330
32
100
AcDbMaterial
  1
ByLayer
 72
     0
 43
0.0008202099737533
 43
0.0
 43
0.0
 43
0.0
 43
0.0
 43
0.0008202099737533
 43
0.0
 43
0.0
 43
0.0
 43
0.0
 43
1.0
 43
0.0
 43
0.0
 43
0.0
 43
0.0
 43
1.0
 77
     0
 47
0.0008202099737533
 47
0.0
 47
0.0
 47
0.0
 47
0.0
 47
0.0008202099737533
 47
0.0
 47
0.0
 47
0.0
 47
0.0
 47
1.0
 47
0.0
 47
0.0
 47
0.0
 47
0.0
 47
1.0
171
     0
 49
0.0008202099737533
 49
0.0
 49
0.0
 49
0.0
 49
0.0
 49
0.0008202099737533
 49
0.0
 49
0.0
 49
0.0
 49
0.0
 49
1.0
 49
0.0
 49
0.0
 49
0.0
 49
0.0
 49
1.0
175
     0
142
0.0008202099737533
142
0.0
142
0.0
142
0.0
142
0.0
142
0.0008202099737533
142
0.0
142
0.0
142
0.0
142
0.0
142
1.0
142
0.0
142
0.0
142
0.0
142
0.0
142
1.0
179
     0
144
0.0008202099737533
144
0.0
144
0.0
144
0.0
144
0.0
144
0.0008202099737533
144
0.0
144
0.0
144
0.0
144
0.0
144
1.0
144
0.0
144
0.0
144
0.0
144
0.0
144
1.0
147
0.0008202099737533
147
0.0
147
0.0
147
0.0
147
0.0
147
0.0008202099737533
147
0.0
147
0.0
147
0.0
147
0.0
147
1.0
147
0.0
147
0.0
147
0.0
147
0.0
147
1.0
  0
MATERIAL
  5
307
102
{ACAD_XDICTIONARY
360
308
102
}
102
{ACAD_REACTORS
330
32
102
}
330
32
100
AcDbMaterial
  1
Global
 72
     0
 43
0.0008202099737533
 43
0.0
 43
0.0
 43
0.0
 43
0.0
 43
0.0008202099737533
 43
0.0
 43
0.0
 43
0.0
 43
0.0
 43
1.0
 43
0.0
 43
0.0
 43
0.0
 43
0.0
 43
1.0
 77
     0
 47
0.0008202099737533
 47
0.0
 47
0.0
 47
0.0
 47
0.0
 47
0.0008202099737533
 47
0.0
 47
0.0
 47
0.0
 47
0.0
 47
1.0
 47
0.0
 47
0.0
 47
0.0
 47
0.0
 47
1.0
171
     0
 49
0.0008202099737533
 49
0.0
 49
0.0
 49
0.0
 49
0.0
 49
0.0008202099737533
 49
0.0
 49
0.0
 49
0.0
 49
0.0
 49
1.0
 49
0.0
 49
0.0
 49
0.0
 49
0.0
 49
1.0
175
     0
142
0.0008202099737533
142
0.0
142
0.0
142
0.0
142
0.0
142
0.0008202099737533
142
0.0
142
0.0
142
0.0
142
0.0
142
1.0
142
0.0
142
0.0
142
0.0
142
0.0
142
1.0
179
     0
144
0.0008202099737533
144
0.0
144
0.0
144
0.0
144
0.0
144
0.0008202099737533
144
0.0
144
0.0
144
0.0
144
0.0
144
1.0
144
0.0
144
0.0
144
0.0
144
0.0
144
1.0
147
0.0008202099737533
147
0.0
147
0.0
147
0.0
147
0.0
147
0.0008202099737533
147
0.0
147
0.0
147
0.0
147
0.0
147
1.0
147
0.0
147
0.0
147
0.0
147
0.0
147
1.0
  0
MLEADERSTYLE
  5
33B
102
{ACAD_REACTORS
330
33A
102
}
330
33A
100
AcDbMLeaderStyle
179
     2
170
     2
171
     1
172
     0
 90
        2
 40
0.0
 41
0.0
173
     1
 91
-1056964608
340
1C
 92
       -2
290
     1
 42
2.0
291
     1
 43
0.36
  3
Standard
 44
4.0
300

342
19
174
     1
178
     6
175
     1
176
     0
 93
-1056964608
 45
4.0
292
     0
297
     0
 46
4.0
 94
-1056964608
 47
1.0
 49
1.0
140
1.0
293
     1
141
0.0
294
     1
177
     0
142
1.0
295
     0
296
     0
143
0.125
271
     0
272
     9
273
     9
298
     0
  0
MLINESTYLE
  5
36
102
{ACAD_REACTORS
330
30
102
}
330
30
100
AcDbMlineStyle
  2
STANDARD
 70
     0
  3

 62
     0
 51
90.0
 52
90.0
 71
     2
 49
0.5
 62
   256
  6
BYLAYER
 49
-0.5
 62
   256
  6
BYLAYER
  0
ACDBPLACEHOLDER
  5
7
102
{ACAD_REACTORS
330
8
102
}
330
8
  0
SCALE
  5
329
102
{ACAD_REACTORS
330
328
102
}
330
328
100
AcDbScale
 70
     0
300
1:1
140
1.0
141
1.0
290
     1
  0
SCALE
  5
32A
102
{ACAD_REACTORS
330
328
102
}
330
328
100
AcDbScale
 70
     0
300
1:2
140
1.0
141
2.0
290
     0
  0
SCALE
  5
32B
102
{ACAD_REACTORS
330
328
102
}
330
328
100
AcDbScale
 70
     0
300
1:4
140
1.0
141
4.0
290
     0
  0
SCALE
  5
32C
102
{ACAD_REACTORS
330
328
102
}
330
328
100
AcDbScale
 70
     0
300
1:5
140
1.0
141
5.0
290
     0
  0
SCALE
  5
32D
102
{ACAD_REACTORS
330
328
102
}
330
328
100
AcDbScale
 70
     0
300
1:8
140
1.0
141
8.0
290
     0
  0
SCALE
  5
32E
102
{ACAD_REACTORS
330
328
102
}
330
328
100
AcDbScale
 70
     0
300
1:10
140
1.0
141
10.0
290
     0
  0
SCALE
  5
32F
102
{ACAD_REACTORS
330
328
102
}
330
328
100
AcDbScale
 70
     0
300
1:16
140
1.0
141
16.0
290
     0
  0
SCALE
  5
330
102
{ACAD_REACTORS
330
328
102
}
330
328
100
AcDbScale
 70
     0
300
1:20
140
1.0
141
20.0
290
     0
  0
SCALE
  5
331
102
{ACAD_REACTORS
330
328
102
}
330
328
100
AcDbScale
 70
     0
300
1:30
140
1.0
141
30.0
290
     0
  0
SCALE
  5
332
102
{ACAD_REACTORS
330
328
102
}
330
328
100
AcDbScale
 70
     0
300
1:40
140
1.0
141
40.0
290
     0
  0
SCALE
  5
333
102
{ACAD_REACTORS
330
328
102
}
330
328
100
AcDbScale
 70
     0
300
1:50
140
1.0
141
50.0
290
     0
  0
SCALE
  5
334
102
{ACAD_REACTORS
330
328
102
}
330
328
100
AcDbScale
 70
     0
300
1:100
140
1.0
141
100.0
290
     0
  0
SCALE
  5
335
102
{ACAD_REACTORS
330
328
102
}
330
328
100
AcDbScale
 70
     0
300
2:1
140
2.0
141
1.0
290
     0
  0
SCALE
  5
336
102
{ACAD_REACTORS
330
328
102
}
330
328
100
AcDbScale
 70
     0
300
4:1
140
4.0
141
1.0
290
     0
  0
SCALE
  5
337
102
{ACAD_REACTORS
330
328
102
}
330
328
100
AcDbScale
 70
     0
300
8:1
140
8.0
141
1.0
290
     0
  0
SCALE
  5
338
102
{ACAD_REACTORS
330
328
102
}
330
328
100
AcDbScale
 70
     0
300
10:1
140
10.0
141
1.0
290
     0
  0
SCALE
  5
339
102
{ACAD_REACTORS
330
328
102
}
330
328
100
AcDbScale
 70
     0
300
100:1
140
100.0
141
1.0
290
     0
  0
ACDBSECTIONVIEWSTYLE
  5
33D
102
{ACAD_XDICTIONARY
360
436
102
}
102
{ACAD_REACTORS
330
33C
330
396
102
}
330
33C
100
AcDbModelDocViewStyle
 70
     0
  3
Metric50
290
     0
100
AcDbSectionViewStyle
 70
     0
 71
     0
 90
      102
 71
     1
340
19
 62
   256
 40
5.0
340
0
340
0
 62
   256
 40
5.0
300
I, O, Q, S, X, Z
 40
10.0
 90
        0
 40
2.5
 90
        0
 71
     2
340
A
 90
       25
 62
   256
340
A
 90
       50
 62
   256
 40
5.0
 40
2.5
 40
5.0
 71
     3
340
19
 62
   256
 40
5.0
 90
        0
 40
15.0
 90
        1
300
%<\AcVar ViewSectionStartId>%-%<\AcVar ViewSectionEndId>% (%<\AcVar ViewScale \f "%sn">%)
 71
     4
 62
   256
 62
   257
300
ANSI31
 40
1.0
 90
        0
290
     0
290
     0
 90
        6
 40
0.0
 40
1.570796326794896
 40
0.2617993877991494
 40
1.308996938995747
 40
-0.2617993877991494
 40
1.832595714594046
  0
TABLESTYLE
  5
37
102
{ACAD_XDICTIONARY
360
434
102
}
102
{ACAD_REACTORS
330
34
102
}
330
34
100
AcDbTableStyle
280
     0
  3
Standard
 70
     0
 71
     0
 40
1.5
 41
1.5
280
     0
281
     0
  7
STANDARD
140
4.5
170
     2
 62
     0
 63
     7
283
     0
 90
        4
 91
        0
  1

274
    -2
284
     1
 64
     0
275
    -2
285
     1
 65
     0
276
    -2
286
     1
 66
     0
277
    -2
287
     1
 67
     0
278
    -2
288
     1
 68
     0
279
    -2
289
     1
 69
     0
  7
STANDARD
140
6.0
170
     5
 62
     0
 63
     7
283
     0
 90
        4
 91
        0
  1

274
    -2
284
     1
 64
     0
275
    -2
285
     1
 65
     0
276
    -2
286
     1
 66
     0
277
    -2
287
     1
 67
     0
278
    -2
288
     1
 68
     0
279
    -2
289
     1
 69
     0
  7
STANDARD
140
4.5
170
     5
 62
     0
 63
     7
283
     0
 90
        4
 91
        0
  1

274
    -2
284
     1
 64
     0
275
    -2
285
     1
 65
     0
276
    -2
286
     1
 66
     0
277
    -2
287
     1
 67
     0
278
    -2
288
     1
 68
     0
279
    -2
289
     1
 69
     0
  0
VISUALSTYLE
  5
315
102
{ACAD_REACTORS
330
30F
102
}
330
30F
100
AcDbVisualStyle
  2
2dWireframe
 70
     4
177
     3
291
     0
 70
    58
 90
        0
176
     1
 90
        2
176
     1
 90
        0
176
     1
 90
        0
176
     1
 40
0.6
176
     1
 40
30.0
176
     1
 62
     7
420
 16777215
176
     1
 90
        1
176
     1
 90
        4
176
     1
 62
     7
176
     1
 62
   257
176
     1
 90
        1
176
     1
 90
        1
176
     1
 40
1.0
176
     1
 90
        0
176
     1
 62
   257
176
     1
 40
1.0
176
     1
 90
        1
176
     1
 90
        6
176
     1
 90
        2
176
     1
 62
     7
176
     1
 90
        5
176
     1
 90
        0
176
     1
 90
        0
176
     1
290
     0
176
     1
 90
        1
176
     1
 40
0.0
176
     1
 90
        0
176
     1
290
     1
176
     1
290
     1
176
     1
290
     0
176
     1
290
     0
176
     1
290
     0
176
     1
290
     0
176
     1
290
     0
176
     1
290
     0
176
     1
290
     0
176
     1
 90
       50
176
     1
 40
0.0
176
     1
 40
1.0
176
     1
 90
        0
176
     1
 62
    18
420
        0
176
     1
 90
       50
176
     1
 90
        3
176
     1
 62
     5
420
      255
176
     1
290
     0
176
     1
 90
       50
176
     1
 90
       50
176
     1
 90
       50
176
     1
290
     0
176
     1
 90
       50
176
     1
 62
   256
176
     0
 40
1.0
176
     0
 90
        2
176
     1
  1
strokes_ogs.tif
176
     1
290
     0
176
     1
 40
1.0
176
     1
 40
1.0
176
     1
  0
VISUALSTYLE
  5
314
102
{ACAD_REACTORS
330
30F
102
}
330
30F
100
AcDbVisualStyle
  2
Basic
 70
     7
177
     3
291
     1
 70
    58
 90
        1
176
     1
 90
        0
176
     1
 90
        1
176
     1
 90
        0
176
     1
 40
0.6
176
     1
 40
30.0
176
     1
 62
     7
420
 16777215
176
     1
 90
        0
176
     1
 90
        4
176
     1
 62
     7
176
     1
 62
   257
176
     1
 90
        1
176
     1
 90
        1
176
     1
 40
1.0
176
     1
 90
        8
176
     1
 62
     7
176
     1
 40
1.0
176
     1
 90
        1
176
     1
 90
        6
176
     1
 90
        2
176
     1
 62
     7
176
     1
 90
        5
176
     1
 90
        0
176
     1
 90
        0
176
     1
290
     0
176
     1
 90
        1
176
     1
 40
0.0
176
     1
 90
        0
176
     1
290
     0
176
     1
290
     1
176
     1
290
     1
176
     1
290
     0
176
     1
290
     0
176
     1
290
     0
176
     1
290
     0
176
     1
290
     0
176
     1
290
     0
176
     1
 90
       50
176
     1
 40
0.0
176
     1
 40
1.0
176
     1
 90
        0
176
     1
 62
    18
420
        0
176
     1
 90
       50
176
     1
 90
        3
176
     1
 62
     5
420
      255
176
     1
290
     0
176
     1
 90
       50
176
     1
 90
       50
176
     1
 90
       50
176
     1
290
     0
176
     1
 90
       50
176
     1
 62
   256
176
     0
 40
1.0
176
     0
 90
        2
176
     1
  1
strokes_ogs.tif
176
     1
290
     0
176
     1
 40
1.0
176
     1
 40
1.0
176
     1
  0
VISUALSTYLE
  5
31B
102
{ACAD_REACTORS
330
30F
102
}
330
30F
100
AcDbVisualStyle
  2
Brighten
 70
    12
177
     3
291
     1
 70
    58
 90
        2
176
     1
 90
        2
176
     1
 90
        0
176
     1
 90
        0
176
     1
 40
0.6
176
     1
 40
30.0
176
     1
 62
     7
420
 16777215
176
     1
 90
        1
176
     1
 90
        4
176
     1
 62
     7
176
     1
 62
   257
176
     1
 90
        1
176
     1
 90
        1
176
     1
 40
1.0
176
     1
 90
        8
176
     1
 62
     7
176
     1
 40
1.0
176
     1
 90
        1
176
     1
 90
        6
176
     1
 90
        2
176
     1
 62
     7
176
     1
 90
        5
176
     1
 90
        0
176
     1
 90
        0
176
     1
290
     0
176
     1
 90
        1
176
     1
 40
50.0
176
     1
 90
        0
176
     1
290
     0
176
     1
290
     1
176
     1
290
     1
176
     1
290
     0
176
     1
290
     0
176
     1
290
     0
176
     1
290
     0
176
     1
290
     0
176
     1
290
     0
176
     1
 90
       50
176
     1
 40
0.0
176
     1
 40
1.0
176
     1
 90
        0
176
     1
 62
    18
420
        0
176
     1
 90
       50
176
     1
 90
        3
176
     1
 62
     5
420
      255
176
     1
290
     0
176
     1
 90
       50
176
     1
 90
       50
176
     1
 90
       50
176
     1
290
     0
176
     1
 90
       50
176
     1
 62
   256
176
     0
 40
1.0
176
     0
 90
        2
176
     1
  1
strokes_ogs.tif
176
     1
290
     0
176
     1
 40
1.0
176
     1
 40
1.0
176
     1
  0
VISUALSTYLE
  5
31F
102
{ACAD_REACTORS
330
30F
102
}
330
30F
100
AcDbVisualStyle
  2
ColorChange
 70
    16
177
     3
291
     1
 70
    58
 90
        2
176
     1
 90
        2
176
     1
 90
        3
176
     1
 90
        0
176
     1
 40
0.6
176
     1
 40
30.0
176
     1
 62
     8
420
  8421504
176
     1
 90
        1
176
     1
 90
        4
176
     1
 62
     7
176
     1
 62
   257
176
     1
 90
        1
176
     1
 90
        1
176
     1
 40
1.0
176
     1
 90
        8
176
     1
 62
     8
420
  8421504
176
     1
 40
1.0
176
     1
 90
        1
176
     1
 90
        6
176
     1
 90
        2
176
     1
 62
     7
176
     1
 90
        5
176
     1
 90
        0
176
     1
 90
        0
176
     1
290
     0
176
     1
 90
        1
176
     1
 40
0.0
176
     1
 90
        0
176
     1
290
     0
176
     1
290
     1
176
     1
290
     1
176
     1
290
     0
176
     1
290
     0
176
     1
290
     0
176
     1
290
     0
176
     1
290
     0
176
     1
290
     0
176
     1
 90
       50
176
     1
 40
0.0
176
     1
 40
1.0
176
     1
 90
        0
176
     1
 62
    18
420
        0
176
     1
 90
       50
176
     1
 90
        3
176
     1
 62
     5
420
      255
176
     1
290
     0
176
     1
 90
       50
176
     1
 90
       50
176
     1
 90
       50
176
     1
290
     0
176
     1
 90
       50
176
     1
 62
   256
176
     0
 40
1.0
176
     0
 90
        2
176
     1
  1
strokes_ogs.tif
176
     1
290
     0
176
     1
 40
1.0
176
     1
 40
1.0
176
     1
  0
VISUALSTYLE
  5
318
102
{ACAD_REACTORS
330
30F
102
}
330
30F
100
AcDbVisualStyle
  2
Conceptual
 70
     9
177
     3
291
     0
 70
    58
 90
        3
176
     1
 90
        2
176
     1
 90
        0
176
     1
 90
        0
176
     1
 40
0.6
176
     1
 40
30.0
176
     1
 62
     7
420
 16777215
176
     1
 90
        2
176
     1
 90
        2
176
     1
 62
     7
176
     1
 62
   257
176
     1
 90
        1
176
     1
 90
        1
176
     1
 40
179.0
176
     1
 90
        8
176
     1
 62
     7
176
     1
 40
1.0
176
     1
 90
        1
176
     1
 90
        6
176
     1
 90
        2
176
     1
 62
     7
176
     1
 90
        3
176
     1
 90
        0
176
     1
 90
        0
176
     1
290
     0
176
     1
 90
        1
176
     1
 40
0.0
176
     1
 90
        0
176
     1
290
     0
176
     1
290
     1
176
     1
290
     1
176
     1
290
     0
176
     1
290
     0
176
     1
290
     0
176
     1
290
     0
176
     1
290
     0
176
     1
290
     0
176
     1
 90
       50
176
     1
 40
0.0
176
     1
 40
1.0
176
     1
 90
        0
176
     1
 62
    18
420
        0
176
     1
 90
       50
176
     1
 90
        3
176
     1
 62
     5
420
      255
176
     1
290
     0
176
     1
 90
       50
176
     1
 90
       50
176
     1
 90
       50
176
     1
290
     0
176
     1
 90
       50
176
     1
 62
   256
176
     0
 40
1.0
176
     0
 90
        2
176
     1
  1
strokes_ogs.tif
176
     1
290
     0
176
     1
 40
1.0
176
     1
 40
1.0
176
     1
  0
VISUALSTYLE
  5
31A
102
{ACAD_REACTORS
330
30F
102
}
330
30F
100
AcDbVisualStyle
  2
Dim
 70
    11
177
     3
291
     1
 70
    58
 90
        2
176
     1
 90
        2
176
     1
 90
        0
176
     1
 90
        0
176
     1
 40
0.6
176
     1
 40
30.0
176
     1
 62
     7
420
 16777215
176
     1
 90
        1
176
     1
 90
        4
176
     1
 62
     7
176
     1
 62
   257
176
     1
 90
        1
176
     1
 90
        1
176
     1
 40
1.0
176
     1
 90
        8
176
     1
 62
     7
176
     1
 40
1.0
176
     1
 90
        1
176
     1
 90
        6
176
     1
 90
        2
176
     1
 62
     7
176
     1
 90
        5
176
     1
 90
        0
176
     1
 90
        0
176
     1
290
     0
176
     1
 90
        1
176
     1
 40
-50.0
176
     1
 90
        0
176
     1
290
     0
176
     1
290
     1
176
     1
290
     1
176
     1
290
     0
176
     1
290
     0
176
     1
290
     0
176
     1
290
     0
176
     1
290
     0
176
     1
290
     0
176
     1
 90
       50
176
     1
 40
0.0
176
     1
 40
1.0
176
     1
 90
        0
176
     1
 62
    18
420
        0
176
     1
 90
       50
176
     1
 90
        3
176
     1
 62
     5
420
      255
176
     1
290
     0
176
     1
 90
       50
176
     1
 90
       50
176
     1
 90
       50
176
     1
290
     0
176
     1
 90
       50
176
     1
 62
   256
176
     0
 40
1.0
176
     0
 90
        2
176
     1
  1
strokes_ogs.tif
176
     1
290
     0
176
     1
 40
1.0
176
     1
 40
1.0
176
     1
  0
VISUALSTYLE
  5
327
102
{ACAD_REACTORS
330
30F
102
}
330
30F
100
AcDbVisualStyle
  2
EdgeColorOff
 70
    22
177
     3
291
     1
 70
    58
 90
        2
176
     0
 90
        2
176
     0
 90
        0
176
     0
 90
        0
176
     0
 40
0.6
176
     0
 40
30.0
176
     0
 62
     7
420
 16777215
176
     0
 90
        1
176
     0
 90
        4
176
     0
 62
     7
176
     0
 62
   257
176
     0
 90
        1
176
     0
 90
        1
176
     0
 40
1.0
176
     0
 90
        8
176
     2
 62
     7
176
     0
 40
1.0
176
     0
 90
        1
176
     0
 90
        6
176
     0
 90
        2
176
     0
 62
     7
176
     0
 90
        5
176
     0
 90
        0
176
     0
 90
        0
176
     0
290
     0
176
     0
 90
        1
176
     0
 40
0.0
176
     0
 90
        0
176
     0
290
     0
176
     1
290
     1
176
     1
290
     1
176
     1
290
     0
176
     1
290
     0
176
     1
290
     0
176
     1
290
     0
176
     1
290
     0
176
     1
290
     0
176
     1
 90
       50
176
     0
 40
0.0
176
     0
 40
1.0
176
     0
 90
        0
176
     0
 62
    18
420
        0
176
     0
 90
       50
176
     0
 90
        3
176
     0
 62
     5
420
      255
176
     0
290
     0
176
     1
 90
       50
176
     0
 90
       50
176
     0
 90
       50
176
     0
290
     0
176
     1
 90
       50
176
     0
 62
   256
176
     0
 40
1.0
176
     0
 90
        2
176
     0
  1
strokes_ogs.tif
176
     0
290
     0
176
     1
 40
1.0
176
     0
 40
1.0
176
     0
  0
VISUALSTYLE
  5
31E
102
{ACAD_REACTORS
330
30F
102
}
330
30F
100
AcDbVisualStyle
  2
Facepattern
 70
    15
177
     3
291
     1
 70
    58
 90
        2
176
     1
 90
        2
176
     1
 90
        0
176
     1
 90
        0
176
     1
 40
0.6
176
     1
 40
30.0
176
     1
 62
     7
420
 16777215
176
     1
 90
        1
176
     1
 90
        4
176
     1
 62
     7
176
     1
 62
   257
176
     1
 90
        1
176
     1
 90
        1
176
     1
 40
1.0
176
     1
 90
        8
176
     1
 62
     7
176
     1
 40
1.0
176
     1
 90
        1
176
     1
 90
        6
176
     1
 90
        2
176
     1
 62
     7
176
     1
 90
        5
176
     1
 90
        0
176
     1
 90
        0
176
     1
290
     0
176
     1
 90
        1
176
     1
 40
0.0
176
     1
 90
        0
176
     1
290
     0
176
     1
290
     1
176
     1
290
     1
176
     1
290
     0
176
     1
290
     0
176
     1
290
     0
176
     1
290
     0
176
     1
290
     0
176
     1
290
     0
176
     1
 90
       50
176
     1
 40
0.0
176
     1
 40
1.0
176
     1
 90
        0
176
     1
 62
    18
420
        0
176
     1
 90
       50
176
     1
 90
        3
176
     1
 62
     5
420
      255
176
     1
290
     0
176
     1
 90
       50
176
     1
 90
       50
176
     1
 90
       50
176
     1
290
     0
176
     1
 90
       50
176
     1
 62
   256
176
     0
 40
1.0
176
     0
 90
        2
176
     1
  1
strokes_ogs.tif
176
     1
290
     0
176
     1
 40
1.0
176
     1
 40
1.0
176
     1
  0
VISUALSTYLE
  5
310
102
{ACAD_REACTORS
330
30F
102
}
330
30F
100
AcDbVisualStyle
  2
Flat
 70
     0
177
     3
291
     1
 70
    58
 90
        2
176
     1
 90
        1
176
     1
 90
        1
176
     1
 90
        2
176
     1
 40
0.6
176
     1
 40
30.0
176
     1
 62
     7
420
 16777215
176
     1
 90
        0
176
     1
 90
        0
176
     1
 62
     7
176
     1
 62
   257
176
     1
 90
        1
176
     1
 90
        1
176
     1
 40
1.0
176
     1
 90
        8
176
     1
 62
     7
176
     1
 40
1.0
176
     1
 90
        1
176
     1
 90
        6
176
     1
 90
        2
176
     1
 62
     7
176
     1
 90
        5
176
     1
 90
        0
176
     1
 90
        0
176
     1
290
     0
176
     1
 90
       13
176
     1
 40
0.0
176
     1
 90
        0
176
     1
290
     0
176
     1
290
     1
176
     1
290
     1
176
     1
290
     0
176
     1
290
     0
176
     1
290
     0
176
     1
290
     0
176
     1
290
     0
176
     1
290
     0
176
     1
 90
       50
176
     1
 40
0.0
176
     1
 40
1.0
176
     1
 90
        0
176
     1
 62
    18
420
        0
176
     1
 90
       50
176
     1
 90
        3
176
     1
 62
     5
420
      255
176
     1
290
     0
176
     1
 90
       50
176
     1
 90
       50
176
     1
 90
       50
176
     1
290
     0
176
     1
 90
       50
176
     1
 62
   256
176
     0
 40
1.0
176
     0
 90
        2
176
     1
  1
strokes_ogs.tif
176
     1
290
     0
176
     1
 40
1.0
176
     1
 40
1.0
176
     1
  0
VISUALSTYLE
  5
311
102
{ACAD_REACTORS
330
30F
102
}
330
30F
100
AcDbVisualStyle
  2
FlatWithEdges
 70
     1
177
     3
291
     1
 70
    58
 90
        2
176
     1
 90
        1
176
     1
 90
        1
176
     1
 90
        2
176
     1
 40
0.6
176
     1
 40
30.0
176
     1
 62
     7
420
 16777215
176
     1
 90
        1
176
     1
 90
        0
176
     1
 62
     7
176
     1
 62
   257
176
     1
 90
        1
176
     1
 90
        1
176
     1
 40
1.0
176
     1
 90
        0
176
     1
 62
   257
176
     1
 40
1.0
176
     1
 90
        1
176
     1
 90
        6
176
     1
 90
        2
176
     1
 62
     7
176
     1
 90
        5
176
     1
 90
        0
176
     1
 90
        0
176
     1
290
     0
176
     1
 90
       13
176
     1
 40
0.0
176
     1
 90
        0
176
     1
290
     0
176
     1
290
     1
176
     1
290
     1
176
     1
290
     0
176
     1
290
     0
176
     1
290
     0
176
     1
290
     0
176
     1
290
     0
176
     1
290
     0
176
     1
 90
       50
176
     1
 40
0.0
176
     1
 40
1.0
176
     1
 90
        0
176
     1
 62
    18
420
        0
176
     1
 90
       50
176
     1
 90
        3
176
     1
 62
     5
420
      255
176
     1
290
     0
176
     1
 90
       50
176
     1
 90
       50
176
     1
 90
       50
176
     1
290
     0
176
     1
 90
       50
176
     1
 62
   256
176
     0
 40
1.0
176
     0
 90
        2
176
     1
  1
strokes_ogs.tif
176
     1
290
     0
176
     1
 40
1.0
176
     1
 40
1.0
176
     1
  0
VISUALSTYLE
  5
312
102
{ACAD_REACTORS
330
30F
102
}
330
30F
100
AcDbVisualStyle
  2
Gouraud
 70
     2
177
     3
291
     1
 70
    58
 90
        2
176
     1
 90
        2
176
     1
 90
        1
176
     1
 90
        2
176
     1
 40
0.6
176
     1
 40
30.0
176
     1
 62
     7
420
 16777215
176
     1
 90
        0
176
     1
 90
        0
176
     1
 62
     7
176
     1
 62
   257
176
     1
 90
        1
176
     1
 90
        1
176
     1
 40
1.0
176
     1
 90
        0
176
     1
 62
     7
176
     1
 40
1.0
176
     1
 90
        1
176
     1
 90
        6
176
     1
 90
        2
176
     1
 62
     7
176
     1
 90
        5
176
     1
 90
        0
176
     1
 90
        0
176
     1
290
     0
176
     1
 90
       13
176
     1
 40
0.0
176
     1
 90
        0
176
     1
290
     0
176
     1
290
     1
176
     1
290
     1
176
     1
290
     0
176
     1
290
     0
176
     1
290
     0
176
     1
290
     0
176
     1
290
     0
176
     1
290
     0
176
     1
 90
       50
176
     1
 40
0.0
176
     1
 40
1.0
176
     1
 90
        0
176
     1
 62
    18
420
        0
176
     1
 90
       50
176
     1
 90
        3
176
     1
 62
     5
420
      255
176
     1
290
     0
176
     1
 90
       50
176
     1
 90
       50
176
     1
 90
       50
176
     1
290
     0
176
     1
 90
       50
176
     1
 62
   256
176
     0
 40
1.0
176
     0
 90
        2
176
     1
  1
strokes_ogs.tif
176
     1
290
     0
176
     1
 40
1.0
176
     1
 40
1.0
176
     1
  0
VISUALSTYLE
  5
313
102
{ACAD_REACTORS
330
30F
102
}
330
30F
100
AcDbVisualStyle
  2
GouraudWithEdges
 70
     3
177
     3
291
     1
 70
    58
 90
        2
176
     1
 90
        2
176
     1
 90
        1
176
     1
 90
        2
176
     1
 40
0.6
176
     1
 40
30.0
176
     1
 62
     7
420
 16777215
176
     1
 90
        1
176
     1
 90
        0
176
     1
 62
     7
176
     1
 62
   257
176
     1
 90
        1
176
     1
 90
        1
176
     1
 40
1.0
176
     1
 90
        0
176
     1
 62
   257
176
     1
 40
1.0
176
     1
 90
        1
176
     1
 90
        6
176
     1
 90
        2
176
     1
 62
     7
176
     1
 90
        5
176
     1
 90
        0
176
     1
 90
        0
176
     1
290
     0
176
     1
 90
       13
176
     1
 40
0.0
176
     1
 90
        0
176
     1
290
     0
176
     1
290
     1
176
     1
290
     1
176
     1
290
     0
176
     1
290
     0
176
     1
290
     0
176
     1
290
     0
176
     1
290
     0
176
     1
290
     0
176
     1
 90
       50
176
     1
 40
0.0
176
     1
 40
1.0
176
     1
 90
        0
176
     1
 62
    18
420
        0
176
     1
 90
       50
176
     1
 90
        3
176
     1
 62
     5
420
      255
176
     1
290
     0
176
     1
 90
       50
176
     1
 90
       50
176
     1
 90
       50
176
     1
290
     0
176
     1
 90
       50
176
     1
 62
   256
176
     0
 40
1.0
176
     0
 90
        2
176
     1
  1
strokes_ogs.tif
176
     1
290
     0
176
     1
 40
1.0
176
     1
 40
1.0
176
     1
  0
VISUALSTYLE
  5
317
102
{ACAD_REACTORS
330
30F
102
}
330
30F
100
AcDbVisualStyle
  2
Hidden
 70
     6
177
     3
291
     0
 70
    58
 90
        1
176
     1
 90
        2
176
     1
 90
        2
176
     1
 90
        0
176
     1
 40
0.6
176
     1
 40
30.0
176
     1
 62
     7
420
 16777215
176
     1
 90
        2
176
     1
 90
        2
176
     1
 62
     7
176
     1
 62
   257
176
     1
 90
        2
176
     1
 90
        1
176
     1
 40
40.0
176
     1
 90
        0
176
     1
 62
   257
176
     1
 40
1.0
176
     1
 90
        1
176
     1
 90
        6
176
     1
 90
        2
176
     1
 62
     7
176
     1
 90
        3
176
     1
 90
        0
176
     1
 90
        0
176
     1
290
     0
176
     1
 90
        1
176
     1
 40
0.0
176
     1
 90
        0
176
     1
290
     0
176
     1
290
     1
176
     1
290
     1
176
     1
290
     0
176
     1
290
     0
176
     1
290
     0
176
     1
290
     0
176
     1
290
     0
176
     1
290
     0
176
     1
 90
       50
176
     1
 40
0.0
176
     1
 40
1.0
176
     1
 90
        0
176
     1
 62
    18
420
        0
176
     1
 90
       50
176
     1
 90
        3
176
     1
 62
     5
420
      255
176
     1
290
     0
176
     1
 90
       50
176
     1
 90
       50
176
     1
 90
       50
176
     1
290
     0
176
     1
 90
       50
176
     1
 62
   256
176
     0
 40
1.0
176
     0
 90
        2
176
     1
  1
strokes_ogs.tif
176
     1
290
     0
176
     1
 40
1.0
176
     1
 40
1.0
176
     1
  0
VISUALSTYLE
  5
325
102
{ACAD_REACTORS
330
30F
102
}
330
30F
100
AcDbVisualStyle
  2
JitterOff
 70
    20
177
     3
291
     1
 70
    58
 90
        2
176
     0
 90
        2
176
     0
 90
        0
176
     0
 90
        0
176
     0
 40
0.6
176
     0
 40
30.0
176
     0
 62
     7
420
 16777215
176
     0
 90
        1
176
     0
 90
        4
176
     0
 62
     7
176
     0
 62
   257
176
     0
 90
        1
176
     0
 90
        1
176
     0
 40
1.0
176
     0
 90
       10
176
     2
 62
     7
176
     0
 40
1.0
176
     0
 90
        1
176
     0
 90
        6
176
     0
 90
        2
176
     0
 62
     7
176
     0
 90
        5
176
     0
 90
        0
176
     0
 90
        0
176
     0
290
     0
176
     0
 90
        1
176
     0
 40
0.0
176
     0
 90
        0
176
     0
290
     0
176
     1
290
     1
176
     1
290
     1
176
     1
290
     0
176
     1
290
     0
176
     1
290
     0
176
     1
290
     0
176
     1
290
     0
176
     1
290
     0
176
     1
 90
       50
176
     0
 40
0.0
176
     0
 40
1.0
176
     0
 90
        0
176
     0
 62
    18
420
        0
176
     0
 90
       50
176
     0
 90
        3
176
     0
 62
     5
420
      255
176
     0
290
     0
176
     1
 90
       50
176
     0
 90
       50
176
     0
 90
       50
176
     0
290
     0
176
     1
 90
       50
176
     0
 62
   256
176
     0
 40
1.0
176
     0
 90
        2
176
     0
  1
strokes_ogs.tif
176
     0
290
     0
176
     1
 40
1.0
176
     0
 40
1.0
176
     0
  0
VISUALSTYLE
  5
31D
102
{ACAD_REACTORS
330
30F
102
}
330
30F
100
AcDbVisualStyle
  2
Linepattern
 70
    14
177
     3
291
     1
 70
    58
 90
        2
176
     1
 90
        2
176
     1
 90
        0
176
     1
 90
        0
176
     1
 40
0.6
176
     1
 40
30.0
176
     1
 62
     7
420
 16777215
176
     1
 90
        1
176
     1
 90
        4
176
     1
 62
     7
176
     1
 62
   257
176
     1
 90
        7
176
     1
 90
        7
176
     1
 40
1.0
176
     1
 90
        8
176
     1
 62
     7
176
     1
 40
1.0
176
     1
 90
        1
176
     1
 90
        6
176
     1
 90
        2
176
     1
 62
     7
176
     1
 90
        5
176
     1
 90
        0
176
     1
 90
        0
176
     1
290
     0
176
     1
 90
        1
176
     1
 40
0.0
176
     1
 90
        0
176
     1
290
     0
176
     1
290
     1
176
     1
290
     1
176
     1
290
     0
176
     1
290
     0
176
     1
290
     0
176
     1
290
     0
176
     1
290
     0
176
     1
290
     0
176
     1
 90
       50
176
     1
 40
0.0
176
     1
 40
1.0
176
     1
 90
        0
176
     1
 62
    18
420
        0
176
     1
 90
       50
176
     1
 90
        3
176
     1
 62
     5
420
      255
176
     1
290
     0
176
     1
 90
       50
176
     1
 90
       50
176
     1
 90
       50
176
     1
290
     0
176
     1
 90
       50
176
     1
 62
   256
176
     0
 40
1.0
176
     0
 90
        2
176
     1
  1
strokes_ogs.tif
176
     1
290
     0
176
     1
 40
1.0
176
     1
 40
1.0
176
     1
  0
VISUALSTYLE
  5
326
102
{ACAD_REACTORS
330
30F
102
}
330
30F
100
AcDbVisualStyle
  2
OverhangOff
 70
    21
177
     3
291
     1
 70
    58
 90
        2
176
     0
 90
        2
176
     0
 90
        0
176
     0
 90
        0
176
     0
 40
0.6
176
     0
 40
30.0
176
     0
 62
     7
420
 16777215
176
     0
 90
        1
176
     0
 90
        4
176
     0
 62
     7
176
     0
 62
   257
176
     0
 90
        1
176
     0
 90
        1
176
     0
 40
1.0
176
     0
 90
        9
176
     2
 62
     7
176
     0
 40
1.0
176
     0
 90
        1
176
     0
 90
        6
176
     0
 90
        2
176
     0
 62
     7
176
     0
 90
        5
176
     0
 90
        0
176
     0
 90
        0
176
     0
290
     0
176
     0
 90
        1
176
     0
 40
0.0
176
     0
 90
        0
176
     0
290
     0
176
     1
290
     1
176
     1
290
     1
176
     1
290
     0
176
     1
290
     0
176
     1
290
     0
176
     1
290
     0
176
     1
290
     0
176
     1
290
     0
176
     1
 90
       50
176
     0
 40
0.0
176
     0
 40
1.0
176
     0
 90
        0
176
     0
 62
    18
420
        0
176
     0
 90
       50
176
     0
 90
        3
176
     0
 62
     5
420
      255
176
     0
290
     0
176
     1
 90
       50
176
     0
 90
       50
176
     0
 90
       50
176
     0
290
     0
176
     1
 90
       50
176
     0
 62
   256
176
     0
 40
1.0
176
     0
 90
        2
176
     0
  1
strokes_ogs.tif
176
     0
290
     0
176
     1
 40
1.0
176
     0
 40
1.0
176
     0
  0
VISUALSTYLE
  5
319
102
{ACAD_REACTORS
330
30F
102
}
330
30F
100
AcDbVisualStyle
  2
Realistic
 70
     8
177
     3
291
     0
 70
    58
 90
        2
176
     1
 90
        3
176
     1
 90
        0
176
     1
 90
        2
176
     1
 40
0.6
176
     1
 40
30.0
176
     1
 62
     7
420
 16777215
176
     1
 90
        0
176
     1
 90
        0
176
     1
 62
     7
176
     1
 62
   257
176
     1
 90
        1
176
     1
 90
        1
176
     1
 40
1.0
176
     1
 90
        8
176
     1
 62
   257
176
     1
 40
1.0
176
     1
 90
        1
176
     1
 90
        6
176
     1
 90
        2
176
     1
 62
     7
176
     1
 90
        3
176
     1
 90
        0
176
     1
 90
        0
176
     1
290
     0
176
     1
 90
       13
176
     1
 40
0.0
176
     1
 90
        0
176
     1
290
     0
176
     1
290
     1
176
     1
290
     1
176
     1
290
     0
176
     1
290
     0
176
     1
290
     0
176
     1
290
     0
176
     1
290
     0
176
     1
290
     0
176
     1
 90
       50
176
     1
 40
0.0
176
     1
 40
1.0
176
     1
 90
        0
176
     1
 62
    18
420
        0
176
     1
 90
       50
176
     1
 90
        3
176
     1
 62
     5
420
      255
176
     1
290
     0
176
     1
 90
       50
176
     1
 90
       50
176
     1
 90
       50
176
     1
290
     0
176
     1
 90
       50
176
     1
 62
   256
176
     0
 40
1.0
176
     0
 90
        2
176
     1
  1
strokes_ogs.tif
176
     1
290
     0
176
     1
 40
1.0
176
     1
 40
1.0
176
     1
  0
VISUALSTYLE
  5
324
102
{ACAD_REACTORS
330
30F
102
}
330
30F
100
AcDbVisualStyle
  2
Shaded
 70
    27
177
     3
291
     0
 70
    58
 90
        2
176
     1
 90
        2
176
     1
 90
        1
176
     1
 90
        2
176
     1
 40
0.6
176
     1
 40
30.0
176
     1
 62
     7
420
 16777215
176
     1
 90
        0
176
     1
 90
        4
176
     1
 62
     7
176
     1
 62
   257
176
     1
 90
        1
176
     1
 90
        1
176
     1
 40
1.0
176
     1
 90
        8
176
     1
 62
   257
176
     1
 40
1.0
176
     1
 90
        1
176
     1
 90
        6
176
     1
 90
        2
176
     1
 62
     8
420
  7895160
176
     1
 90
        3
176
     1
 90
        0
176
     1
 90
        0
176
     1
290
     0
176
     1
 90
        5
176
     1
 40
0.0
176
     1
 90
        0
176
     1
290
     0
176
     1
290
     1
176
     1
290
     1
176
     1
290
     0
176
     1
290
     0
176
     1
290
     0
176
     1
290
     0
176
     1
290
     0
176
     1
290
     0
176
     1
 90
       50
176
     1
 40
0.0
176
     1
 40
1.0
176
     1
 90
        0
176
     1
 62
    18
420
        0
176
     1
 90
       50
176
     1
 90
        3
176
     1
 62
     5
420
      255
176
     1
290
     0
176
     1
 90
       50
176
     1
 90
       50
176
     1
 90
       50
176
     1
290
     0
176
     1
 90
       50
176
     1
 62
   256
176
     0
 40
1.0
176
     0
 90
        2
176
     1
  1
strokes_ogs.tif
176
     1
290
     0
176
     1
 40
1.0
176
     1
 40
1.0
176
     1
  0
VISUALSTYLE
  5
323
102
{ACAD_REACTORS
330
30F
102
}
330
30F
100
AcDbVisualStyle
  2
Shaded with edges
 70
    26
177
     3
291
     0
 70
    58
 90
        2
176
     1
 90
        2
176
     1
 90
        1
176
     1
 90
        2
176
     1
 40
0.6
176
     1
 40
30.0
176
     1
 62
     7
420
 16777215
176
     1
 90
        1
176
     1
 90
       10
176
     1
 62
     7
176
     1
 62
   257
176
     1
 90
        2
176
     1
 90
        1
176
     1
 40
1.0
176
     1
 90
        8
176
     1
 62
   257
176
     1
 40
1.0
176
     1
 90
        1
176
     1
 90
        6
176
     1
 90
        2
176
     1
 62
     7
176
     1
 90
        3
176
     1
 90
        0
176
     1
 90
        0
176
     1
290
     0
176
     1
 90
        5
176
     1
 40
0.0
176
     1
 90
        0
176
     1
290
     0
176
     1
290
     1
176
     1
290
     1
176
     1
290
     0
176
     1
290
     0
176
     1
290
     0
176
     1
290
     0
176
     1
290
     0
176
     1
290
     0
176
     1
 90
       50
176
     1
 40
0.0
176
     1
 40
1.0
176
     1
 90
        0
176
     1
 62
    18
420
        0
176
     1
 90
       50
176
     1
 90
        3
176
     1
 62
     5
420
      255
176
     1
290
     0
176
     1
 90
       50
176
     1
 90
       50
176
     1
 90
       50
176
     1
290
     0
176
     1
 90
       50
176
     1
 62
   256
176
     0
 40
1.0
176
     0
 90
        2
176
     1
  1
strokes_ogs.tif
176
     1
290
     0
176
     1
 40
1.0
176
     1
 40
1.0
176
     1
  0
VISUALSTYLE
  5
320
102
{ACAD_REACTORS
330
30F
102
}
330
30F
100
AcDbVisualStyle
  2
Shades of Gray
 70
    23
177
     3
291
     0
 70
    58
 90
        2
176
     1
 90
        2
176
     1
 90
        3
176
     1
 90
        0
176
     1
 40
0.6
176
     1
 40
30.0
176
     1
 62
     7
420
 16777215
176
     1
 90
        2
176
     1
 90
        2
176
     1
 62
     7
176
     1
 62
     7
176
     1
 90
        1
176
     1
 90
        1
176
     1
 40
40.0
176
     1
 90
        8
176
     1
 62
     7
176
     1
 40
1.0
176
     1
 90
        1
176
     1
 90
        6
176
     1
 90
        2
176
     1
 62
     7
176
     1
 90
        3
176
     1
 90
        0
176
     1
 90
        0
176
     1
290
     0
176
     1
 90
        1
176
     1
 40
0.0
176
     1
 90
        0
176
     1
290
     0
176
     1
290
     1
176
     1
290
     1
176
     1
290
     0
176
     1
290
     0
176
     1
290
     0
176
     1
290
     0
176
     1
290
     0
176
     1
290
     0
176
     1
 90
       50
176
     1
 40
0.0
176
     1
 40
1.0
176
     1
 90
        0
176
     1
 62
    18
420
        0
176
     1
 90
       50
176
     1
 90
        3
176
     1
 62
     5
420
      255
176
     1
290
     0
176
     1
 90
       50
176
     1
 90
       50
176
     1
 90
       50
176
     1
290
     0
176
     1
 90
       50
176
     1
 62
   256
176
     0
 40
1.0
176
     0
 90
        2
176
     1
  1
strokes_ogs.tif
176
     1
290
     0
176
     1
 40
1.0
176
     1
 40
1.0
176
     1
  0
VISUALSTYLE
  5
321
102
{ACAD_REACTORS
330
30F
102
}
330
30F
100
AcDbVisualStyle
  2
Sketchy
 70
    24
177
     3
291
     0
 70
    58
 90
        1
176
     1
 90
        2
176
     1
 90
        2
176
     1
 90
        0
176
     1
 40
0.6
176
     1
 40
30.0
176
     1
 62
     7
420
 16777215
176
     1
 90
        2
176
     1
 90
        2
176
     1
 62
     7
176
     1
 62
     7
176
     1
 90
        1
176
     1
 90
        1
176
     1
 40
40.0
176
     1
 90
       11
176
     1
 62
     7
176
     1
 40
1.0
176
     1
 90
        1
176
     1
 90
        6
176
     1
 90
        2
176
     1
 62
     7
176
     1
 90
        6
176
     1
 90
        0
176
     1
 90
        0
176
     1
290
     0
176
     1
 90
        1
176
     1
 40
0.0
176
     1
 90
        0
176
     1
290
     0
176
     1
290
     1
176
     1
290
     1
176
     1
290
     0
176
     1
290
     0
176
     1
290
     0
176
     1
290
     0
176
     1
290
     0
176
     1
290
     0
176
     1
 90
       50
176
     1
 40
0.0
176
     1
 40
1.0
176
     1
 90
        0
176
     1
 62
    18
420
        0
176
     1
 90
       50
176
     1
 90
        3
176
     1
 62
     5
420
      255
176
     1
290
     0
176
     1
 90
       50
176
     1
 90
       50
176
     1
 90
       50
176
     1
290
     0
176
     1
 90
       50
176
     1
 62
   256
176
     0
 40
1.0
176
     0
 90
        2
176
     1
  1
strokes_ogs.tif
176
     1
290
     0
176
     1
 40
1.0
176
     1
 40
1.0
176
     1
  0
VISUALSTYLE
  5
31C
102
{ACAD_REACTORS
330
30F
102
}
330
30F
100
AcDbVisualStyle
  2
Thicken
 70
    13
177
     3
291
     1
 70
    58
 90
        2
176
     1
 90
        2
176
     1
 90
        0
176
     1
 90
        0
176
     1
 40
0.6
176
     1
 40
30.0
176
     1
 62
     7
420
 16777215
176
     1
 90
        1
176
     1
 90
        4
176
     1
 62
     7
176
     1
 62
   257
176
     1
 90
        1
176
     1
 90
        1
176
     1
 40
1.0
176
     1
 90
       12
176
     1
 62
     7
176
     1
 40
1.0
176
     1
 90
        1
176
     1
 90
        6
176
     1
 90
        2
176
     1
 62
     7
176
     1
 90
        5
176
     1
 90
        0
176
     1
 90
        0
176
     1
290
     0
176
     1
 90
        1
176
     1
 40
0.0
176
     1
 90
        0
176
     1
290
     0
176
     1
290
     1
176
     1
290
     1
176
     1
290
     0
176
     1
290
     0
176
     1
290
     0
176
     1
290
     0
176
     1
290
     0
176
     1
290
     0
176
     1
 90
       50
176
     1
 40
0.0
176
     1
 40
1.0
176
     1
 90
        0
176
     1
 62
    18
420
        0
176
     1
 90
       50
176
     1
 90
        3
176
     1
 62
     5
420
      255
176
     1
290
     0
176
     1
 90
       50
176
     1
 90
       50
176
     1
 90
       50
176
     1
290
     0
176
     1
 90
       50
176
     1
 62
   256
176
     0
 40
1.0
176
     0
 90
        2
176
     1
  1
strokes_ogs.tif
176
     1
290
     0
176
     1
 40
1.0
176
     1
 40
1.0
176
     1
  0
VISUALSTYLE
  5
316
102
{ACAD_REACTORS
330
30F
102
}
330
30F
100
AcDbVisualStyle
  2
Wireframe
 70
     5
177
     3
291
     0
 70
    58
 90
        0
176
     1
 90
        2
176
     1
 90
        0
176
     1
 90
        0
176
     1
 40
0.6
176
     1
 40
30.0
176
     1
 62
     7
420
 16777215
176
     1
 90
        1
176
     1
 90
        4
176
     1
 62
     7
176
     1
 62
   257
176
     1
 90
        1
176
     1
 90
        1
176
     1
 40
1.0
176
     1
 90
        0
176
     1
 62
   257
176
     1
 40
1.0
176
     1
 90
        1
176
     1
 90
        6
176
     1
 90
        2
176
     1
 62
     7
176
     1
 90
        3
176
     1
 90
        0
176
     1
 90
        0
176
     1
290
     0
176
     1
 90
        1
176
     1
 40
0.0
176
     1
 90
        0
176
     1
290
     0
176
     1
290
     1
176
     1
290
     1
176
     1
290
     0
176
     1
290
     0
176
     1
290
     0
176
     1
290
     0
176
     1
290
     0
176
     1
290
     0
176
     1
 90
       50
176
     1
 40
0.0
176
     1
 40
1.0
176
     1
 90
        0
176
     1
 62
    18
420
        0
176
     1
 90
       50
176
     1
 90
        3
176
     1
 62
     5
420
      255
176
     1
290
     0
176
     1
 90
       50
176
     1
 90
       50
176
     1
 90
       50
176
     1
290
     0
176
     1
 90
       50
176
     1
 62
   256
176
     0
 40
1.0
176
     0
 90
        2
176
     1
  1
strokes_ogs.tif
176
     1
290
     0
176
     1
 40
1.0
176
     1
 40
1.0
176
     1
  0
VISUALSTYLE
  5
322
102
{ACAD_REACTORS
330
30F
102
}
330
30F
100
AcDbVisualStyle
  2
X-Ray
 70
    25
177
     3
291
     0
 70
    58
 90
        2
176
     1
 90
        2
176
     1
 90
        1
176
     1
 90
        1
176
     1
 40
0.5
176
     1
 40
30.0
176
     1
 62
     7
420
 16777215
176
     1
 90
        1
176
     1
 90
        0
176
     1
 62
     7
176
     1
 62
   257
176
     1
 90
        1
176
     1
 90
        1
176
     1
 40
1.0
176
     1
 90
        8
176
     1
 62
     7
176
     1
 40
1.0
176
     1
 90
        1
176
     1
 90
        6
176
     1
 90
        2
176
     1
 62
     7
176
     1
 90
        3
176
     1
 90
        0
176
     1
 90
        0
176
     1
290
     0
176
     1
 90
       13
176
     1
 40
0.0
176
     1
 90
        0
176
     1
290
     0
176
     1
290
     1
176
     1
290
     1
176
     1
290
     0
176
     1
290
     0
176
     1
290
     0
176
     1
290
     0
176
     1
290
     0
176
     1
290
     0
176
     1
 90
       50
176
     1
 40
0.0
176
     1
 40
1.0
176
     1
 90
        0
176
     1
 62
    18
420
        0
176
     1
 90
       50
176
     1
 90
        3
176
     1
 62
     5
420
      255
176
     1
290
     0
176
     1
 90
       50
176
     1
 90
       50
176
     1
 90
       50
176
     1
290
     0
176
     1
 90
       50
176
     1
 62
   256
176
     0
 40
1.0
176
     0
 90
        2
176
     1
  1
strokes_ogs.tif
176
     1
290
     0
176
     1
 40
1.0
176
     1
 40
1.0
176
     1
  0
DICTIONARYVAR
  5
430
102
{ACAD_REACTORS
330
2F3
102
}
330
2F3
100
DictionaryVariables
280
     0
  1
1:1
  0
DICTIONARYVAR
  5
42C
102
{ACAD_REACTORS
330
2F3
102
}
330
2F3
100
DictionaryVariables
280
     0
  1
STANDARD
  0
DICTIONARYVAR
  5
2F4
102
{ACAD_REACTORS
330
2F3
102
}
330
2F3
100
DictionaryVariables
280
     0
  1
STANDARD
  0
DICTIONARYVAR
  5
42D
102
{ACAD_REACTORS
330
2F3
102
}
330
2F3
100
DictionaryVariables
280
     0
  1
Metric50
  0
DICTIONARYVAR
  5
42E
102
{ACAD_REACTORS
330
2F3
102
}
330
2F3
100
DictionaryVariables
280
     0
  1
Metric50
  0
DICTIONARYVAR
  5
432
102
{ACAD_REACTORS
330
2F3
102
}
330
2F3
100
DictionaryVariables
280
     0
  1
1
  0
DICTIONARYVAR
  5
433
102
{ACAD_REACTORS
330
2F3
102
}
330
2F3
100
DictionaryVariables
280
     0
  1
15
  0
DICTIONARYVAR
  5
431
102
{ACAD_REACTORS
330
2F3
102
}
330
2F3
100
DictionaryVariables
280
     0
  1
0
  0
DICTIONARYVAR
  5
42F
102
{ACAD_REACTORS
330
2F3
102
}
330
2F3
100
DictionaryVariables
280
     0
  1
0
  0
DICTIONARY
  5
2B0
102
{ACAD_REACTORS
330
2AF
102
}
330
2AF
100
AcDbDictionary
281
     1
  0
DICTIONARY
  5
438
330
33F
100
AcDbDictionary
280
     1
281
     1
  3
ACAD_XREC_ROUNDTRIP
360
439
  0
DICTIONARY
  5
300
330
2FF
100
AcDbDictionary
280
     1
281
     1
  3
BUMPTILE
360
302
  3
DIFFUSETILE
360
301
  3
OPACITYTILE
360
305
  3
REFLECTIONTILE
360
304
  3
REFRACTIONTILE
360
306
  3
SPECULARTILE
360
303
  0
DICTIONARY
  5
2F8
330
2F7
100
AcDbDictionary
280
     1
281
     1
  3
BUMPTILE
360
2FA
  3
DIFFUSETILE
360
2F9
  3
OPACITYTILE
360
2FD
  3
REFLECTIONTILE
360
2FC
  3
REFRACTIONTILE
360
2FE
  3
SPECULARTILE
360
2FB
  0
DICTIONARY
  5
308
330
307
100
AcDbDictionary
280
     1
281
     1
  3
BUMPTILE
360
30A
  3
DIFFUSETILE
360
309
  3
OPACITYTILE
360
30D
  3
REFLECTIONTILE
360
30C
  3
REFRACTIONTILE
360
30E
  3
SPECULARTILE
360
30B
  0
DICTIONARY
  5
436
330
33D
100
AcDbDictionary
280
     1
281
     1
  3
ACAD_XREC_ROUNDTRIP
360
437
  0
DICTIONARY
  5
434
330
37
100
AcDbDictionary
280
     1
281
     1
  3
ACAD_ROUNDTRIP_2008_TABLESTYLE_CELLSTYLEMAP
360
435
  0
XRECORD
  5
439
102
{ACAD_REACTORS
330
438
102
}
330
438
100
AcDbXrecord
280
     1
102
DISPLAYNAME
  1
Metric50
102
FLAGS
 90
        0
  0
XRECORD
  5
302
102
{ACAD_REACTORS
330
300
102
}
330
300
100
AcDbXrecord
280
     1
270
     1
271
     1
  0
XRECORD
  5
301
102
{ACAD_REACTORS
330
300
102
}
330
300
100
AcDbXrecord
280
     1
270
     1
271
     1
  0
XRECORD
  5
305
102
{ACAD_REACTORS
330
300
102
}
330
300
100
AcDbXrecord
280
     1
270
     1
271
     1
  0
XRECORD
  5
304
102
{ACAD_REACTORS
330
300
102
}
330
300
100
AcDbXrecord
280
     1
270
     1
271
     1
  0
XRECORD
  5
306
102
{ACAD_REACTORS
330
300
102
}
330
300
100
AcDbXrecord
280
     1
270
     1
271
     1
  0
XRECORD
  5
303
102
{ACAD_REACTORS
330
300
102
}
330
300
100
AcDbXrecord
280
     1
270
     1
271
     1
  0
XRECORD
  5
2FA
102
{ACAD_REACTORS
330
2F8
102
}
330
2F8
100
AcDbXrecord
280
     1
270
     1
271
     1
  0
XRECORD
  5
2F9
102
{ACAD_REACTORS
330
2F8
102
}
330
2F8
100
AcDbXrecord
280
     1
270
     1
271
     1
  0
XRECORD
  5
2FD
102
{ACAD_REACTORS
330
2F8
102
}
330
2F8
100
AcDbXrecord
280
     1
270
     1
271
     1
  0
XRECORD
  5
2FC
102
{ACAD_REACTORS
330
2F8
102
}
330
2F8
100
AcDbXrecord
280
     1
270
     1
271
     1
  0
XRECORD
  5
2FE
102
{ACAD_REACTORS
330
2F8
102
}
330
2F8
100
AcDbXrecord
280
     1
270
     1
271
     1
  0
XRECORD
  5
2FB
102
{ACAD_REACTORS
330
2F8
102
}
330
2F8
100
AcDbXrecord
280
     1
270
     1
271
     1
  0
XRECORD
  5
30A
102
{ACAD_REACTORS
330
308
102
}
330
308
100
AcDbXrecord
280
     1
270
     1
271
     1
  0
XRECORD
  5
309
102
{ACAD_REACTORS
330
308
102
}
330
308
100
AcDbXrecord
280
     1
270
     1
271
     1
  0
XRECORD
  5
30D
102
{ACAD_REACTORS
330
308
102
}
330
308
100
AcDbXrecord
280
     1
270
     1
271
     1
  0
XRECORD
  5
30C
102
{ACAD_REACTORS
330
308
102
}
330
308
100
AcDbXrecord
280
     1
270
     1
271
     1
  0
XRECORD
  5
30E
102
{ACAD_REACTORS
330
308
102
}
330
308
100
AcDbXrecord
280
     1
270
     1
271
     1
  0
XRECORD
  5
30B
102
{ACAD_REACTORS
330
308
102
}
330
308
100
AcDbXrecord
280
     1
270
     1
271
     1
  0
XRECORD
  5
437
102
{ACAD_REACTORS
330
436
102
}
330
436
100
AcDbXrecord
280
     1
102
DISPLAYNAME
  1
Metric50
102
FLAGS
 90
        0
  0
CELLSTYLEMAP
  5
435
102
{ACAD_REACTORS
330
434
102
}
330
434
100
AcDbCellStyleMap
 90
        3
300
CELLSTYLE
  1
TABLEFORMAT_BEGIN
 90
        5
170
     1
 91
        0
 92
    32768
 62
   257
 93
        1
300
CONTENTFORMAT
  1
CONTENTFORMAT_BEGIN
 90
        0
 91
        0
 92
        4
 93
        0
300

 40
0.0
140
1.0
 94
        5
 62
     0
340
19
144
6.0
309
CONTENTFORMAT_END
171
     1
301
MARGIN
  1
CELLMARGIN_BEGIN
 40
1.5
 40
1.5
 40
1.5
 40
1.5
 40
0.18
 40
0.18
309
CELLMARGIN_END
 94
        6
 95
        1
302
GRIDFORMAT
  1
GRIDFORMAT_BEGIN
 90
        0
 91
        1
 62
     0
 92
       -2
340
0
 93
        0
 40
0.045
309
GRIDFORMAT_END
 95
        2
302
GRIDFORMAT
  1
GRIDFORMAT_BEGIN
 90
        0
 91
        1
 62
     0
 92
       -2
340
0
 93
        0
 40
0.045
309
GRIDFORMAT_END
 95
        4
302
GRIDFORMAT
  1
GRIDFORMAT_BEGIN
 90
        0
 91
        1
 62
     0
 92
       -2
340
0
 93
        0
 40
0.045
309
GRIDFORMAT_END
 95
        8
302
GRIDFORMAT
  1
GRIDFORMAT_BEGIN
 90
        0
 91
        1
 62
     0
 92
       -2
340
0
 93
        0
 40
0.045
309
GRIDFORMAT_END
 95
       16
302
GRIDFORMAT
  1
GRIDFORMAT_BEGIN
 90
        0
 91
        1
 62
     0
 92
       -2
340
0
 93
        0
 40
0.045
309
GRIDFORMAT_END
 95
       32
302
GRIDFORMAT
  1
GRIDFORMAT_BEGIN
 90
        0
 91
        1
 62
     0
 92
       -2
340
0
 93
        0
 40
0.045
309
GRIDFORMAT_END
309
TABLEFORMAT_END
  1
CELLSTYLE_BEGIN
 90
        1
 91
        1
300
_TITLE
309
CELLSTYLE_END
300
CELLSTYLE
  1
TABLEFORMAT_BEGIN
 90
        5
170
     1
 91
        0
 92
        0
 62
   257
 93
        1
300
CONTENTFORMAT
  1
CONTENTFORMAT_BEGIN
 90
        0
 91
        0
 92
        4
 93
        0
300

 40
0.0
140
1.0
 94
        5
 62
     0
340
19
144
4.5
309
CONTENTFORMAT_END
171
     1
301
MARGIN
  1
CELLMARGIN_BEGIN
 40
1.5
 40
1.5
 40
1.5
 40
1.5
 40
0.18
 40
0.18
309
CELLMARGIN_END
 94
        6
 95
        1
302
GRIDFORMAT
  1
GRIDFORMAT_BEGIN
 90
        0
 91
        1
 62
     0
 92
       -2
340
0
 93
        0
 40
0.045
309
GRIDFORMAT_END
 95
        2
302
GRIDFORMAT
  1
GRIDFORMAT_BEGIN
 90
        0
 91
        1
 62
     0
 92
       -2
340
0
 93
        0
 40
0.045
309
GRIDFORMAT_END
 95
        4
302
GRIDFORMAT
  1
GRIDFORMAT_BEGIN
 90
        0
 91
        1
 62
     0
 92
       -2
340
0
 93
        0
 40
0.045
309
GRIDFORMAT_END
 95
        8
302
GRIDFORMAT
  1
GRIDFORMAT_BEGIN
 90
        0
 91
        1
 62
     0
 92
       -2
340
0
 93
        0
 40
0.045
309
GRIDFORMAT_END
 95
       16
302
GRIDFORMAT
  1
GRIDFORMAT_BEGIN
 90
        0
 91
        1
 62
     0
 92
       -2
340
0
 93
        0
 40
0.045
309
GRIDFORMAT_END
 95
       32
302
GRIDFORMAT
  1
GRIDFORMAT_BEGIN
 90
        0
 91
        1
 62
     0
 92
       -2
340
0
 93
        0
 40
0.045
309
GRIDFORMAT_END
309
TABLEFORMAT_END
  1
CELLSTYLE_BEGIN
 90
        2
 91
        1
300
_HEADER
309
CELLSTYLE_END
300
CELLSTYLE
  1
TABLEFORMAT_BEGIN
 90
        5
170
     1
 91
        0
 92
        0
 62
   257
 93
        1
300
CONTENTFORMAT
  1
CONTENTFORMAT_BEGIN
 90
        0
 91
        0
 92
        4
 93
        0
300

 40
0.0
140
1.0
 94
        2
 62
     0
340
19
144
4.5
309
CONTENTFORMAT_END
171
     1
301
MARGIN
  1
CELLMARGIN_BEGIN
 40
1.5
 40
1.5
 40
1.5
 40
1.5
 40
0.18
 40
0.18
309
CELLMARGIN_END
 94
        6
 95
        1
302
GRIDFORMAT
  1
GRIDFORMAT_BEGIN
 90
        0
 91
        1
 62
     0
 92
       -2
340
0
 93
        0
 40
0.045
309
GRIDFORMAT_END
 95
        2
302
GRIDFORMAT
  1
GRIDFORMAT_BEGIN
 90
        0
 91
        1
 62
     0
 92
       -2
340
0
 93
        0
 40
0.045
309
GRIDFORMAT_END
 95
        4
302
GRIDFORMAT
  1
GRIDFORMAT_BEGIN
 90
        0
 91
        1
 62
     0
 92
       -2
340
0
 93
        0
 40
0.045
309
GRIDFORMAT_END
 95
        8
302
GRIDFORMAT
  1
GRIDFORMAT_BEGIN
 90
        0
 91
        1
 62
     0
 92
       -2
340
0
 93
        0
 40
0.045
309
GRIDFORMAT_END
 95
       16
302
GRIDFORMAT
  1
GRIDFORMAT_BEGIN
 90
        0
 91
        1
 62
     0
 92
       -2
340
0
 93
        0
 40
0.045
309
GRIDFORMAT_END
 95
       32
302
GRIDFORMAT
  1
GRIDFORMAT_BEGIN
 90
        0
 91
        1
 62
     0
 92
       -2
340
0
 93
        0
 40
0.045
309
GRIDFORMAT_END
309
TABLEFORMAT_END
  1
CELLSTYLE_BEGIN
 90
        3
 91
        2
300
_DATA
309
CELLSTYLE_END
  0
ENDSEC
  0
EOF
