  0
SECTION
  2
HEADER
  9
$ACADVER
  1
AC1015
  9
$ACADMAINTVER
 70
    20
  9
$DWGCODEPAGE
  3
ANSI_1252
  9
$INSBASE
 10
0.0
 20
0.0
 30
0.0
  9
$EXTMIN
 10
609.7307825753823
 20
151.037319067701
 30
-0.0015258207003583
  9
$EXTMAX
 10
863.7539350150577
 20
491.6262441698413
 30
0.0000000349246037
  9
$LIMMIN
 10
0.0
 20
0.0
  9
$LIMMAX
 10
566.4069975479701
 20
669.6985897720049
  9
$ORTHOMODE
 70
     1
  9
$REGENMODE
 70
     1
  9
$FILLMODE
 70
     1
  9
$QTEXTMODE
 70
     0
  9
$MIRRTEXT
 70
     0
  9
$LTSCALE
 40
1.0
  9
$ATTMODE
 70
     1
  9
$TEXTSIZE
 40
3.5
  9
$TRACEWID
 40
0.05
  9
$TEXTSTYLE
  7
ARIAL-STANDARD
  9
$CLAYER
  8
BEMASSUNG
  9
$CELTYPE
  6
BYLAYER
  9
$CECOLOR
 62
   256
  9
$CELTSCALE
 40
1.0
  9
$DISPSILH
 70
     0
  9
$DIMSCALE
 40
1.0
  9
$DIMASZ
 40
3.5
  9
$DIMEXO
 40
1.0
  9
$DIMDLI
 40
10.0
  9
$DIMRND
 40
0.0
  9
$DIMDLE
 40
0.0
  9
$DIMEXE
 40
1.0
  9
$DIMTP
 40
0.1
  9
$DIMTM
 40
0.1
  9
$DIMTXT
 40
3.5
  9
$DIMCEN
 40
0.0
  9
$DIMTSZ
 40
0.0
  9
$DIMTOL
 70
     0
  9
$DIMLIM
 70
     0
  9
$DIMTIH
 70
     0
  9
$DIMTOH
 70
     0
  9
$DIMSE1
 70
     0
  9
$DIMSE2
 70
     0
  9
$DIMTAD
 70
     1
  9
$DIMZIN
 70
     8
  9
$DIMBLK
  1

  9
$DIMASO
 70
     1
  9
$DIMSHO
 70
     1
  9
$DIMPOST
  1

  9
$DIMAPOST
  1
"
  9
$DIMALT
 70
     0
  9
$DIMALTD
 70
     2
  9
$DIMALTF
 40
0.0393701
  9
$DIMLFAC
 40
1.0
  9
$DIMTOFL
 70
     1
  9
$DIMTVP
 40
0.0
  9
$DIMTIX
 70
     0
  9
$DIMSOXD
 70
     0
  9
$DIMSAH
 70
     0
  9
$DIMBLK1
  1

  9
$DIMBLK2
  1

  9
$DIMSTYLE
  2
AM_DIN
  9
$DIMCLRD
 70
   256
  9
$DIMCLRE
 70
   256
  9
$DIMCLRT
 70
     2
  9
$DIMTFAC
 40
0.71
  9
$DIMGAP
 40
1.5
  9
$DIMJUST
 70
     0
  9
$DIMSD1
 70
     0
  9
$DIMSD2
 70
     0
  9
$DIMTOLJ
 70
     0
  9
$DIMTZIN
 70
     8
  9
$DIMALTZ
 70
     0
  9
$DIMALTTZ
 70
     0
  9
$DIMUPT
 70
     0
  9
$DIMDEC
 70
     2
  9
$DIMTDEC
 70
     3
  9
$DIMALTU
 70
     2
  9
$DIMALTTD
 70
     4
  9
$DIMTXSTY
  7
STANDARD
  9
$DIMAUNIT
 70
     0
  9
$DIMADEC
 70
     0
  9
$DIMALTRND
 40
0.0
  9
$DIMAZIN
 70
     2
  9
$DIMDSEP
 70
    46
  9
$DIMATFIT
 70
     3
  9
$DIMFRAC
 70
     0
  9
$DIMLDRBLK
  1

  9
$DIMLUNIT
 70
     2
  9
$DIMLWD
 70
    -1
  9
$DIMLWE
 70
    -1
  9
$DIMTMOVE
 70
     0
  9
$LUNITS
 70
     2
  9
$LUPREC
 70
     2
  9
$SKETCHINC
 40
0.1
  9
$FILLETRAD
 40
0.0
  9
$AUNITS
 70
     0
  9
$AUPREC
 70
     0
  9
$MENU
  1
.
  9
$ELEVATION
 40
0.0
  9
$PELEVATION
 40
0.0
  9
$THICKNESS
 40
0.0
  9
$LIMCHECK
 70
     0
  9
$CHAMFERA
 40
0.0
  9
$CHAMFERB
 40
0.0
  9
$CHAMFERC
 40
1.0
  9
$CHAMFERD
 40
0.0
  9
$SKPOLY
 70
     0
  9
$TDCREATE
 40
2451554.405552790
  9
$TDUCREATE
 40
2451554.363886123
  9
$TDUPDATE
 40
2458432.328601736
  9
$TDUUPDATE
 40
2458432.286935070
  9
$TDINDWG
 40
1.0989788889
  9
$TDUSRTIMER
 40
1.0989788657
  9
$USRTIMER
 70
     1
  9
$ANGBASE
 50
0.0
  9
$ANGDIR
 70
     0
  9
$PDMODE
 70
     0
  9
$PDSIZE
 40
0.0
  9
$PLINEWID
 40
0.0
  9
$SPLFRAME
 70
     0
  9
$SPLINETYPE
 70
     6
  9
$SPLINESEGS
 70
     8
  9
$HANDSEED
  5
482
  9
$SURFTAB1
 70
     6
  9
$SURFTAB2
 70
     6
  9
$SURFTYPE
 70
     6
  9
$SURFU
 70
     6
  9
$SURFV
 70
     6
  9
$UCSBASE
  2

  9
$UCSNAME
  2

  9
$UCSORG
 10
0.0
 20
0.0
 30
0.0
  9
$UCSXDIR
 10
1.0
 20
0.0
 30
0.0
  9
$UCSYDIR
 10
0.0
 20
1.0
 30
0.0
  9
$UCSORTHOREF
  2

  9
$UCSORTHOVIEW
 70
     0
  9
$UCSORGTOP
 10
0.0
 20
0.0
 30
0.0
  9
$UCSORGBOTTOM
 10
0.0
 20
0.0
 30
0.0
  9
$UCSORGLEFT
 10
0.0
 20
0.0
 30
0.0
  9
$UCSORGRIGHT
 10
0.0
 20
0.0
 30
0.0
  9
$UCSORGFRONT
 10
0.0
 20
0.0
 30
0.0
  9
$UCSORGBACK
 10
0.0
 20
0.0
 30
0.0
  9
$PUCSBASE
  2

  9
$PUCSNAME
  2

  9
$PUCSORG
 10
0.0
 20
0.0
 30
0.0
  9
$PUCSXDIR
 10
1.0
 20
0.0
 30
0.0
  9
$PUCSYDIR
 10
0.0
 20
1.0
 30
0.0
  9
$PUCSORTHOREF
  2

  9
$PUCSORTHOVIEW
 70
     0
  9
$PUCSORGTOP
 10
0.0
 20
0.0
 30
0.0
  9
$PUCSORGBOTTOM
 10
0.0
 20
0.0
 30
0.0
  9
$PUCSORGLEFT
 10
0.0
 20
0.0
 30
0.0
  9
$PUCSORGRIGHT
 10
0.0
 20
0.0
 30
0.0
  9
$PUCSORGFRONT
 10
0.0
 20
0.0
 30
0.0
  9
$PUCSORGBACK
 10
0.0
 20
0.0
 30
0.0
  9
$USERI1
 70
     0
  9
$USERI2
 70
     0
  9
$USERI3
 70
     0
  9
$USERI4
 70
     0
  9
$USERI5
 70
     0
  9
$USERR1
 40
0.0
  9
$USERR2
 40
0.0
  9
$USERR3
 40
0.0
  9
$USERR4
 40
0.0
  9
$USERR5
 40
0.0
  9
$WORLDVIEW
 70
     1
  9
$SHADEDGE
 70
     3
  9
$SHADEDIF
 70
    70
  9
$TILEMODE
 70
     1
  9
$MAXACTVP
 70
    48
  9
$PINSBASE
 10
0.0
 20
0.0
 30
0.0
  9
$PLIMCHECK
 70
     0
  9
$PEXTMIN
 10
1.000000000000000E+20
 20
1.000000000000000E+20
 30
1.000000000000000E+20
  9
$PEXTMAX
 10
-1.000000000000000E+20
 20
-1.000000000000000E+20
 30
-1.000000000000000E+20
  9
$PLIMMIN
 10
0.0
 20
0.0
  9
$PLIMMAX
 10
12.0
 20
9.0
  9
$UNITMODE
 70
     0
  9
$VISRETAIN
 70
     1
  9
$PLINEGEN
 70
     0
  9
$PSLTSCALE
 70
     1
  9
$TREEDEPTH
 70
  3020
  9
$CMLSTYLE
  2
STANDARD
  9
$CMLJUST
 70
     0
  9
$CMLSCALE
 40
1.0
  9
$PROXYGRAPHICS
 70
     1
  9
$MEASUREMENT
 70
     1
  9
$CELWEIGHT
370
    -1
  9
$ENDCAPS
280
     0
  9
$JOINSTYLE
280
     0
  9
$LWDISPLAY
290
     0
  9
$INSUNITS
 70
     0
  9
$HYPERLINKBASE
  1

  9
$STYLESHEET
  1

  9
$XEDIT
290
     1
  9
$CEPSNTYPE
380
     0
  9
$PSTYLEMODE
290
     1
  9
$FINGERPRINTGUID
  2
{413F6775-9AFC-4028-9547-B1136978DEFE}
  9
$VERSIONGUID
  2
{5DBEB07F-4A6D-461D-A1BA-9D8FE7D71619}
  9
$EXTNAMES
290
     1
  9
$PSVPSCALE
 40
0.0
  9
$OLESTARTUP
290
     0
  0
ENDSEC
  0
SECTION
  2
CLASSES
  0
CLASS
  1
ACDBDICTIONARYWDFLT
  2
AcDbDictionaryWithDefault
  3
ObjectDBX Classes
 90
        0
280
     0
281
     0
  0
CLASS
  1
ACME_DOCUMENT
  2
AcMeDbDoc
  3
AcMeServices
 90
     1024
280
     0
281
     0
  0
CLASS
  1
AMGSETTINGSOBJ
  2
AmgSettingsObj
  3
"AcadM|Product Description: AutoCAD Mechanical|Company: Autodesk, Inc."
 90
     1024
280
     0
281
     0
  0
CLASS
  1
ACMESCOPE
  2
AcMeScope
  3
AcMeServices
 90
     1024
280
     0
281
     0
  0
CLASS
  1
ACMECOMMANDHISTORY
  2
AcMeCommandHistory
  3
AcMeServices
 90
     1024
280
     0
281
     0
  0
CLASS
  1
ACIMSYSVARMAN
  2
AcImSysVarManager
  3
AcMeServices
 90
     1024
280
     0
281
     0
  0
CLASS
  1
ACIMREALSYSVAR
  2
AcImRealSysVar
  3
AcMeServices
 90
    33792
280
     0
281
     0
  0
CLASS
  1
ACIMINTSYSVAR
  2
AcImIntSysVar
  3
AcMeServices
 90
     1024
280
     0
281
     0
  0
CLASS
  1
ACMEDRAWINGMAN
  2
AcMeDrawingMan
  3
AcMeServices
 90
    33792
280
     0
281
     0
  0
CLASS
  1
ACMEVIEW
  2
AcMeView
  3
AcMeServices
 90
    33792
280
     0
281
     0
  0
CLASS
  1
ACDBENTITYCACHE
  2
AcMeEntityCache
  3
AcMeServices
 90
     1024
280
     0
281
     0
  0
CLASS
  1
GSMANAGER
  2
AcMeGSManager
  3
AcMeServices
 90
    32768
280
     0
281
     0
  0
CLASS
  1
AMDTINTERNALREACTOR
  2
AmdtInternalReactor
  3
AcMeServices
 90
    33792
280
     0
281
     0
  0
CLASS
  1
ACMESTATEMGR
  2
AcMeStateMgr
  3
AcMeServices
 90
     1024
280
     0
281
     0
  0
CLASS
  1
ACGREFMASTER
  2
AcGrefMaster
  3
AcAttribServices
 90
     1024
280
     0
281
     0
  0
CLASS
  1
ACME_DATABASE
  2
AcMeDbDatabase
  3
AcMeServices
 90
     1024
280
     0
281
     0
  0
CLASS
  1
ACRFINSADJUSTERMGR
  2
AcRfInsAdjusterMgr
  3
AcMeServices
 90
     1024
280
     0
281
     0
  0
CLASS
  1
ACGREFACADMASTER
  2
AcGrefacadMaster
  3
AcGrefServices
 90
     1024
280
     0
281
     0
  0
CLASS
  1
AMIMASTER
  2
AmiMaster
  3
AmiServices
 90
     1024
280
     0
281
     0
  0
CLASS
  1
ACMDATADICTIONARY
  2
AcmDataDictionary
  3
"AcmSymBB|Product Description: AutoCAD Mechanical|Company: Autodesk, Inc."
 90
     1024
280
     0
281
     0
  0
CLASS
  1
ACMDATAENTRYBLOCK
  2
AcmDataEntryBlock
  3
AcmSymBB|Product Description: AutoCAD Mechanical|Company: Autodesk, Inc.
 90
    33792
280
     0
281
     0
  0
CLASS
  1
ACIMSTRSYSVAR
  2
AcImStrSysVar
  3
AcMeServices
 90
     1024
280
     0
281
     0
  0
CLASS
  1
ACMSTANDARDDIN
  2
AcmStandardDIN
  3
"Amdt_StdImp|Product Description: AutoCAD Mechanical|Company: Autodesk, Inc."
 90
     1024
280
     0
281
     0
  0
CLASS
  1
AMGOBJPROPCFG
  2
AmgObjPropCfg
  3
"AmgLay|Product Description: AutoCAD Mechanical|Company: Autodesk, Inc."
 90
     1024
280
     0
281
     0
  0
CLASS
  1
AMDTEDGESTANDARDDIN
  2
AmdtEdgeStdDIN
  3
"Amdt_StdImp|Product Description: AutoCAD Mechanical|Company: Autodesk, Inc."
 90
    33792
280
     0
281
     0
  0
CLASS
  1
ACMSURFSTANDARDDIN
  2
AcmSurfTextStdDIN
  3
"Amdt_StdImp|Product Description: AutoCAD Mechanical|Company: Autodesk, Inc."
 90
    33792
280
     0
281
     0
  0
CLASS
  1
ACMFCFSTANDARDDIN
  2
AcmFCFStdDIN
  3
"Amdt_StdImp|Product Description: AutoCAD Mechanical|Company: Autodesk, Inc."
 90
    33792
280
     0
281
     0
  0
CLASS
  1
ACMWELDSTANDARDDIN
  2
AcmWeldingStdDIN
  3
"Amdt_StdImp|Product Description: AutoCAD Mechanical|Company: Autodesk, Inc."
 90
     1024
280
     0
281
     0
  0
CLASS
  1
ACMIDSTANDARDDIN
  2
AcmIdStdDIN
  3
"Amdt_StdImp|Product Description: AutoCAD Mechanical|Company: Autodesk, Inc."
 90
    33792
280
     0
281
     0
  0
CLASS
  1
ACMDATUMSTANDARDDIN
  2
AcmDatumStdDIN
  3
"Amdt_StdImp|Product Description: AutoCAD Mechanical|Company: Autodesk, Inc."
 90
     1024
280
     0
281
     0
  0
CLASS
  1
ACMBOMSTANDARDDIN
  2
AcmBOMStdDIN
  3
"Amdt_StdImp|Product Description: AutoCAD Mechanical|Company: Autodesk, Inc."
 90
     1024
280
     0
281
     0
  0
CLASS
  1
ACMDETAILSTANDARDDIN
  2
AmdtDetailSymStdDIN
  3
"Amdt_StdImp|Product Description: AutoCAD Mechanical|Company: Autodesk, Inc."
 90
     1024
280
     0
281
     0
  0
CLASS
  1
ACMSECTIONSTANDARDDIN
  2
AmdtSectionSymStdDIN
  3
"Amdt_StdImp|Product Description: AutoCAD Mechanical|Company: Autodesk, Inc."
 90
     1024
280
     0
281
     0
  0
CLASS
  1
ACMCENTERLINESTANDARDDIN
  2
AmdtCenterLineStdDIN
  3
"Amdt_StdImp|Product Description: AutoCAD Mechanical|Company: Autodesk, Inc."
 90
     1024
280
     0
281
     0
  0
CLASS
  1
ACMNOTESTANDARDDIN
  2
AmdtNoteStdDIN
  3
"Amdt_StdImp|Product Description: AutoCAD Mechanical|Company: Autodesk, Inc."
 90
     1024
280
     0
281
     0
  0
CLASS
  1
ACAMGLAYSTD
  2
AcAmgLayStd
  3
"AmgLay|Product Description: AutoCAD Mechanical|Company: Autodesk, Inc."
 90
     1024
280
     0
281
     0
  0
CLASS
  1
ACAMGDIMSTD
  2
AcAmgDimStd
  3
"AmgDim|Product Description: AutoCAD Mechanical|Company: Autodesk, Inc."
 90
     1024
280
     0
281
     0
  0
CLASS
  1
ACAMGHOLECHARTSTDDIN
  2
AcAmgHoleChartStdDIN
  3
AmgDim|Product Description: AutoCAD Mechanical|Company: Autodesk, Inc.
 90
     1024
280
     0
281
     0
  0
CLASS
  1
ACAMGTITLESTD
  2
AcAmgTitleStd
  3
"AmgTitle|Product Description: AutoCAD Mechanical|Company: Autodesk, Inc."
 90
     1024
280
     0
281
     0
  0
CLASS
  1
ACAMGFILTERDAT
  2
AcAmgFilterDat
  3
"AcadM|Product Description: AutoCAD Mechanical|Company: Autodesk, Inc."
 90
     1024
280
     0
281
     0
  0
CLASS
  1
LAYER_INDEX
  2
AcDbLayerIndex
  3
ObjectDBX Classes
 90
    32768
280
     0
281
     0
  0
CLASS
  1
IDBUFFER
  2
AcDbIdBuffer
  3
ObjectDBX Classes
 90
    32768
280
     0
281
     0
  0
CLASS
  1
DICTIONARYVAR
  2
AcDbDictionaryVar
  3
ObjectDBX Classes
 90
        0
280
     0
281
     0
  0
CLASS
  1
ACMDIMBREAKPERSREACTOR
  2
AcmDimBreakPersReactor
  3
AmgDim|Product Description: AutoCAD Mechanical|Company: Autodesk, Inc.
 90
    33792
280
     0
281
     0
  0
CLASS
  1
AMDTNOTE
  2
AmdtNote
  3
"AcmSymBB|Product Description: AutoCAD Mechanical|Company: Autodesk, Inc."
 90
    33792
280
     0
281
     1
  0
CLASS
  1
AMDTFORMULAUPDATEDISPATCHER
  2
AmdtFormulaUpdateDispatcher
  3
AcMeServices
 90
    33792
280
     0
281
     0
  0
CLASS
  1
PLOTSETTINGS
  2
AcDbPlotSettings
  3
ObjectDBX Classes
 90
    32768
280
     0
281
     0
  0
CLASS
  1
TABLESTYLE
  2
AcDbTableStyle
  3
ObjectDBX Classes
 90
     4095
280
     0
281
     0
  0
CLASS
  1
AM_DRAWING_MGR
  2
AcDmDwgMgr
  3
AcMechDwgViewMgmt
 90
    33792
280
     0
281
     0
  0
CLASS
  1
AM_DWG_DOCUMENT
  2
AcDmDwgDocument
  3
AcMechDwgViewMgmt
 90
    33792
280
     0
281
     0
  0
CLASS
  1
AM_DWG_SHEET
  2
AcDmSheet
  3
AcMechDwgViewMgmt
 90
    33792
280
     0
281
     0
  0
CLASS
  1
AM_VIEWDIMPARMAP
  2
AcDmViewDimParMap
  3
AcMechDwgViewMgmt
 90
    33792
280
     0
281
     0
  0
CLASS
  1
AM_DWGMGR_NAME
  2
AcDmDwgMgrName
  3
AcMechDwgViewMgmt
 90
    33792
280
     0
281
     0
  0
CLASS
  1
AMDTMENUSTATEMGR
  2
AmdtMenuStateMgr
  3
McadcomServices
 90
     1024
280
     0
281
     0
  0
CLASS
  1
AMDTMCOMMENUSTATE
  2
AmdtMcomMenuState
  3
McadcomServices
 90
     1024
280
     0
281
     0
  0
CLASS
  1
MAPIAMMOUDLE
  2
MApiAmModule
  3
MApiAmServices
 90
     1024
280
     0
281
     0
  0
CLASS
  1
AMDTADMENUSTATE
  2
AmdtAdMenuState
  3
DesignerServices
 90
    32768
280
     0
281
     0
  0
CLASS
  1
ADAPPL
  2
AcAdAppl
  3
DesignerAssemblies
 90
    33792
280
     0
281
     0
  0
CLASS
  1
DEPMGR
  2
AcAdDepMgr
  3
DesignerAssemblies
 90
    33792
280
     0
281
     0
  0
CLASS
  1
PARAMMGR
  2
AcAdParamMgr
  3
DesignerAssemblies
 90
    33792
280
     0
281
     0
  0
CLASS
  1
PARAMSCOPE
  2
AcAdParamScope
  3
DesignerAssemblies
 90
    33792
280
     0
281
     0
  0
CLASS
  1
NAMEDAPPL
  2
AcAdNamedAppl
  3
DesignerAssemblies
 90
    33792
280
     0
281
     0
  0
CLASS
  1
AMDTDMMENUSTATE
  2
AmdtDmMenuState
  3
AcMechDwgViewMgmt
 90
    32768
280
     0
281
     0
  0
CLASS
  1
AMDTAMMENUSTATE
  2
AmdtAmMenuState
  3
DesignerAssemblies
 90
     1024
280
     0
281
     0
  0
CLASS
  1
ACAMPROJECT
  2
AcAmProject
  3
DesignerAssemblies
 90
     1024
280
     0
281
     0
  0
CLASS
  1
ACAMGRCOMPDEF
  2
AcAmGrCompDef
  3
DesignerAssemblies
 90
     1024
280
     0
281
     0
  0
CLASS
  1
ACCMCONTEXT
  2
AcCmContext
  3
DesignerAssemblies
 90
    33792
280
     0
281
     0
  0
CLASS
  1
ACAMCOMPDEF
  2
AcAmCompDef
  3
DesignerAssemblies
 90
     1024
280
     0
281
     0
  0
CLASS
  1
ACAMCOMPDEFMGR
  2
AcAmCompDefMgr
  3
DesignerAssemblies
 90
     1024
280
     0
281
     0
  0
CLASS
  1
AMCONTEXTMGR
  2
AcAmContextMgr
  3
DesignerAssemblies
 90
     1024
280
     0
281
     0
  0
CLASS
  1
ACAMCONTEXTMODELER
  2
AcAmContextModeler
  3
DesignerAssemblies
 90
     1024
280
     0
281
     0
  0
CLASS
  1
ACRFATTGENMGR
  2
AcRfAttGeneralMgr
  3
AcAttribServices
 90
    33792
280
     0
281
     0
  0
CLASS
  1
ACRFOBJATTMGR
  2
AcRfObjAttGroupMgr
  3
AcAttribServices
 90
    33792
280
     0
281
     0
  0
CLASS
  1
ACRFMCADAPIATTHOLDER
  2
AcRfMCADAPIAttHolder
  3
AcAttribServices
 90
    33792
280
     0
281
     0
  0
CLASS
  1
AMDTSYSATTR
  2
AmdtSystemAttribute
  3
AcAttribServices
 90
    33792
280
     0
281
     0
  0
CLASS
  1
ACMTHREADLINESTANDARDDIN
  2
AmdtThreadLineStdDIN
  3
"Amdt_StdImp|Product Description: AutoCAD Mechanical|Company: Autodesk, Inc."
 90
     1024
280
     0
281
     0
  0
CLASS
  1
CATALOGSTATE
  2
AcAmCatalogState
  3
DesignerAssemblies
 90
    33792
280
     0
281
     0
  0
CLASS
  1
ACAMGRCOMPDEFSET
  2
AcAmGrCompDefSet
  3
DesignerAssemblies
 90
     1024
280
     0
281
     0
  0
CLASS
  1
AMDTBROWSERDBTAB
  2
AmdtBrowserDbTab
  3
McadcomServices
 90
     1024
280
     0
281
     0
  0
CLASS
  1
CBROWSERAPPOBJECT
  2
CBrowserAppObject
  3
McadcomServices
 90
     1024
280
     0
281
     0
  0
CLASS
  1
DM_PLACEHOLDER
  2
AcDmSelsetPlaceholder
  3
McadcomServices
 90
     1024
280
     0
281
     0
  0
CLASS
  1
SORTENTSTABLE
  2
AcDbSortentsTable
  3
ObjectDBX Classes
 90
        0
280
     0
281
     0
  0
CLASS
  1
AMDTEDGESTANDARDDIN13715
  2
AmdtEdgeStdDIN13715
  3
"Amdt_StdImp|Product Description: AutoCAD Mechanical|Company: Autodesk, Inc."
 90
     1024
280
     0
281
     0
  0
CLASS
  1
AMDTNOTETEMPLATEDB
  2
AmdtNoteTemplateDB
  3
AcmSymBB|Product Description: AutoCAD Mechanical|Company: Autodesk, Inc.
 90
     1024
280
     0
281
     0
  0
CLASS
  1
MATERIAL
  2
AcDbMaterial
  3
ObjectDBX Classes
 90
     1153
280
     0
281
     0
  0
CLASS
  1
VISUALSTYLE
  2
AcDbVisualStyle
  3
ObjectDBX Classes
 90
     4095
280
     0
281
     0
  0
CLASS
  1
SCALE
  2
AcDbScale
  3
ObjectDBX Classes
 90
     1153
280
     0
281
     0
  0
CLASS
  1
MLEADERSTYLE
  2
AcDbMLeaderStyle
  3
ACDB_MLEADERSTYLE_CLASS
 90
     4095
280
     0
281
     0
  0
CLASS
  1
ACDBSECTIONVIEWSTYLE
  2
AcDbSectionViewStyle
  3
ObjectDBX Classes
 90
     1025
280
     0
281
     0
  0
CLASS
  1
ACDBDETAILVIEWSTYLE
  2
AcDbDetailViewStyle
  3
ObjectDBX Classes
 90
     1025
280
     0
281
     0
  0
CLASS
  1
ACMSURFSTANDARDDIN2002
  2
AcmSurfTextStdDIN2002
  3
"Amdt_StdImp|Product Description: AutoCAD Mechanical|Company: Autodesk, Inc."
 90
     1024
280
     0
281
     0
  0
CLASS
  1
ACMFCFSTANDARDDIN2008
  2
AcmFCFStdDIN2008
  3
"Amdt_StdImp|Product Description: AutoCAD Mechanical|Company: Autodesk, Inc."
 90
     1024
280
     0
281
     0
  0
CLASS
  1
ACMIDSTANDARDDIN2008
  2
AcmIdStdDIN2008
  3
"Amdt_StdImp|Product Description: AutoCAD Mechanical|Company: Autodesk, Inc."
 90
     1024
280
     0
281
     0
  0
CLASS
  1
ACMTAPERSTANDARDDIN
  2
AcmTaperStdDIN
  3
"Amdt_StdImp|Product Description: AutoCAD Mechanical|Company: Autodesk, Inc."
 90
     1024
280
     0
281
     0
  0
CLASS
  1
ACMANOOTATIONVIEWSTANDARDDIN
  2
AmdtAnViewStdDIN
  3
"Amdt_StdImp|Product Description: AutoCAD Mechanical|Company: Autodesk, Inc."
 90
     1024
280
     0
281
     0
  0
CLASS
  1
ACMSECTIONSTANDARDCUSTOM
  2
AmdtSectionSymStdCustom
  3
"Amdt_StdImp|Product Description: AutoCAD Mechanical|Company: Autodesk, Inc."
 90
     1024
280
     0
281
     0
  0
CLASS
  1
ACMDETAILTANDARDCUSTOM
  2
AmdtDetailSymStdCustom
  3
"Amdt_StdImp|Product Description: AutoCAD Mechanical|Company: Autodesk, Inc."
 90
     1024
280
     0
281
     0
  0
CLASS
  1
FIELD
  2
AcDbField
  3
ObjectDBX Classes
 90
     1152
280
     0
281
     0
  0
CLASS
  1
FIELDLIST
  2
AcDbFieldList
  3
ObjectDBX Classes
 90
     1152
280
     0
281
     0
  0
CLASS
  1
CELLSTYLEMAP
  2
AcDbCellStyleMap
  3
ObjectDBX Classes
 90
     1152
280
     0
281
     0
  0
CLASS
  1
ACDBPLACEHOLDER
  2
AcDbPlaceHolder
  3
ObjectDBX Classes
 90
        0
280
     0
281
     0
  0
CLASS
  1
LAYOUT
  2
AcDbLayout
  3
ObjectDBX Classes
 90
        0
280
     0
281
     0
  0
ENDSEC
  0
SECTION
  2
TABLES
  0
TABLE
  2
VPORT
  5
1B
330
0
100
AcDbSymbolTable
 70
     1
  0
VPORT
  5
1C
330
1B
100
AcDbSymbolTableRecord
100
AcDbViewportTableRecord
  2
*Active
 70
     0
 10
0.0
 20
0.0
 11
1.0
 21
1.0
 12
736.7423587952199
 22
321.3317816187712
 13
0.0
 23
0.0
 14
10.0
 24
10.0
 15
10.0
 25
10.0
 16
0.0
 26
0.0
 36
1.0
 17
0.0
 27
0.0
 37
0.0
 40
342.7628969644944
 41
1.896698615548455
 42
50.0
 43
0.0
 44
0.0
 50
0.0
 51
0.0
 71
     0
 72
  5000
 73
     1
 74
     0
 75
     0
 76
     0
 77
     0
 78
     0
281
     0
 65
     0
110
0.0
120
0.0
130
0.0
111
1.0
121
0.0
131
0.0
112
0.0
122
1.0
132
0.0
 79
     0
146
0.0
1001
ACAD_NAV_VCDISPLAY
1070
     3
  0
ENDTAB
  0
TABLE
  2
LTYPE
  5
16
330
0
100
AcDbSymbolTable
 70
    20
  0
LTYPE
  5
17
330
16
100
AcDbSymbolTableRecord
100
AcDbLinetypeTableRecord
  2
BYBLOCK
 70
     0
  3

 72
    65
 73
     0
 40
0.0
  0
LTYPE
  5
18
330
16
100
AcDbSymbolTableRecord
100
AcDbLinetypeTableRecord
  2
BYLAYER
 70
     0
  3

 72
    65
 73
     0
 40
0.0
  0
LTYPE
  5
A
330
16
100
AcDbSymbolTableRecord
100
AcDbLinetypeTableRecord
  2
CONTINUOUS
 70
     0
  3
Solid line
 72
    65
 73
     0
 40
0.0
  0
LTYPE
  5
AC
330
16
100
AcDbSymbolTableRecord
100
AcDbLinetypeTableRecord
  2
STRICHPUNKT2
 70
     0
  3
Strichpunkt (.5x) _._._._._._._._._._._._._._._
 72
    65
 73
     4
 40
12.7
 49
6.349999999999998
 74
     0
 49
-3.174999999999998
 74
     0
 49
0.0
 74
     0
 49
-3.174999999999998
 74
     0
  0
LTYPE
  5
2EC
330
16
100
AcDbSymbolTableRecord
100
AcDbLinetypeTableRecord
  2
Amconstr
 70
     0
  3
_______________________
 72
    65
 73
     2
 40
9999.0
 49
9999.0
 74
     0
 49
0.0
 74
     0
  0
LTYPE
  5
2EF
330
16
100
AcDbSymbolTableRecord
100
AcDbLinetypeTableRecord
  2
Amzigzag
 70
     0
  3
/\/-/\/-/\/-/\/-/\/-/\/
 72
    65
 73
     2
 40
11.0001
 49
0.0001
 74
     4
 75
   135
340
2F0
 46
0.04
 50
0.0
 44
0.0
 45
0.0
 49
-11.0
 74
     0
  0
LTYPE
  5
2E9
330
16
100
AcDbSymbolTableRecord
100
AcDbLinetypeTableRecord
  2
AM_DIN_F_W050
 70
     0
  3
__ __ __ __ __ __ __ __ __ __ __ __ __ __ __
 72
    65
 73
     2
 40
6.25
 49
4.75
 74
     0
 49
-1.5
 74
     0
  0
LTYPE
  5
2EA
330
16
100
AcDbSymbolTableRecord
100
AcDbLinetypeTableRecord
  2
AM_DIN_G_W050
 70
     0
  3
____ . ____ . ____ . ____ . ____ . ____ . ____
 72
    65
 73
     4
 40
13.75
 49
9.75
 74
     0
 49
-1.5
 74
     0
 49
1.0
 74
     0
 49
-1.5
 74
     0
  0
LTYPE
  5
2EB
330
16
100
AcDbSymbolTableRecord
100
AcDbLinetypeTableRecord
  2
AM_DIN_K_W050
 70
     0
  3
_____ . . _____ . . _____ . . ____ .. ____
 72
    65
 73
     6
 40
16.25
 49
9.75
 74
     0
 49
-1.5
 74
     0
 49
1.0
 74
     0
 49
-1.5
 74
     0
 49
1.0
 74
     0
 49
-1.5
 74
     0
  0
LTYPE
  5
2ED
330
16
100
AcDbSymbolTableRecord
100
AcDbLinetypeTableRecord
  2
AM_DIN_G_W050x2
 70
     0
  3
__ . __ . __ . __ . __ . __
 72
    65
 73
     4
 40
6.875
 49
4.75
 74
     0
 49
-0.875
 74
     0
 49
0.375
 74
     0
 49
-0.875
 74
     0
  0
LTYPE
  5
2EE
330
16
100
AcDbSymbolTableRecord
100
AcDbLinetypeTableRecord
  2
AM_DIN_F_W050x2
 70
     0
  3
 _ _ _ _ _ _ _ _ _ _ _ _
 72
    65
 73
     2
 40
3.125
 49
2.25
 74
     0
 49
-0.875
 74
     0
  0
LTYPE
  5
300
330
16
100
AcDbSymbolTableRecord
100
AcDbLinetypeTableRecord
  2
ACDINWELD
 70
     0
  3
_ _ _ _ _
 72
    65
 73
     2
 40
2.0
 49
2.0
 74
     0
 49
-1.0
 74
     0
  0
LTYPE
  5
303
330
16
100
AcDbSymbolTableRecord
100
AcDbLinetypeTableRecord
  2
ACDINTGB
 70
     0
  3
__ . . __ . .
 72
    65
 73
     6
 40
9.0
 49
4.0
 74
     0
 49
-1.0
 74
     0
 49
1.0
 74
     0
 49
-1.0
 74
     0
 49
1.0
 74
     0
 49
-1.0
 74
     0
  0
LTYPE
  5
304
330
16
100
AcDbSymbolTableRecord
100
AcDbLinetypeTableRecord
  2
ACDINTGL
 70
     0
  3
_ _ _ _ _
 72
    65
 73
     2
 40
3.0
 49
2.0
 74
     0
 49
-1.0
 74
     0
  0
LTYPE
  5
348
330
16
100
AcDbSymbolTableRecord
100
AcDbLinetypeTableRecord
  2
HIDDEN
 70
     0
  3
Verdeckt
 72
    65
 73
     2
 40
9.525
 49
6.349999999999998
 74
     0
 49
-3.174999999999998
 74
     0
  0
LTYPE
  5
349
330
16
100
AcDbSymbolTableRecord
100
AcDbLinetypeTableRecord
  2
PHANTOM2
 70
     0
  3
Phantom (.5x) ___ _ _ ___ _ _ ___ _ _ ___ _ _
 72
    65
 73
     6
 40
31.75
 49
15.875
 74
     0
 49
-3.174999999999998
 74
     0
 49
3.174999999999998
 74
     0
 49
-3.174999999999998
 74
     0
 49
3.174999999999998
 74
     0
 49
-3.174999999999998
 74
     0
  0
LTYPE
  5
34A
330
16
100
AcDbSymbolTableRecord
100
AcDbLinetypeTableRecord
  2
CENTER
 70
     0
  3
Mitte ____ _ ____ _ ____ _ ____ _ ____ _ ____
 72
    65
 73
     4
 40
50.8
 49
31.75
 74
     0
 49
-6.349999999999998
 74
     0
 49
6.349999999999998
 74
     0
 49
-6.349999999999998
 74
     0
  0
LTYPE
  5
3E4
330
16
100
AcDbSymbolTableRecord
100
AcDbLinetypeTableRecord
  2
AM_ISO02W050
 70
     0
  3
__ __ __ __ __ __ __ __ __ __ __ __ __ __ __
 72
    65
 73
     2
 40
7.5
 49
6.0
 74
     0
 49
-1.5
 74
     0
  0
LTYPE
  5
3E5
330
16
100
AcDbSymbolTableRecord
100
AcDbLinetypeTableRecord
  2
AM_ISO08W050
 70
     0
  3
____ . ____ . ____ . ____ . ____ . ____ . ____
 72
    65
 73
     4
 40
18.0
 49
12.0
 74
     0
 49
-1.5
 74
     0
 49
3.0
 74
     0
 49
-1.5
 74
     0
  0
LTYPE
  5
3E6
330
16
100
AcDbSymbolTableRecord
100
AcDbLinetypeTableRecord
  2
AM_ISO09W050
 70
     0
  3
_____ . . _____ . . _____ . . ____ .. ____
 72
    65
 73
     6
 40
22.5
 49
12.0
 74
     0
 49
-1.5
 74
     0
 49
3.0
 74
     0
 49
-1.5
 74
     0
 49
3.0
 74
     0
 49
-1.5
 74
     0
  0
LTYPE
  5
3E7
330
16
100
AcDbSymbolTableRecord
100
AcDbLinetypeTableRecord
  2
AM_ISO08W050x2
 70
     0
  3
__ . __ . __ . __ . __ . __
 72
    65
 73
     4
 40
9.0
 49
6.0
 74
     0
 49
-0.75
 74
     0
 49
1.5
 74
     0
 49
-0.75
 74
     0
  0
LTYPE
  5
3E8
330
16
100
AcDbSymbolTableRecord
100
AcDbLinetypeTableRecord
  2
AM_ISO02W050x2
 70
     0
  3
 _ _ _ _ _ _ _ _ _ _ _ _
 72
    65
 73
     2
 40
3.75
 49
3.0
 74
     0
 49
-0.75
 74
     0
  0
ENDTAB
  0
TABLE
  2
LAYER
  5
12
330
0
100
AcDbSymbolTable
 70
     7
  0
LAYER
  5
6
102
{ACAD_XDICTIONARY
360
424
102
}
330
12
100
AcDbSymbolTableRecord
100
AcDbLayerTableRecord
  2
0
 70
     0
 62
     7
  6
CONTINUOUS
370
    -3
390
7
  0
LAYER
  5
5D
102
{ACAD_XDICTIONARY
360
426
102
}
330
12
100
AcDbSymbolTableRecord
100
AcDbLayerTableRecord
  2
UMRISS03
 70
     0
 62
     3
  6
CONTINUOUS
370
    -3
390
7
  0
LAYER
  5
93
102
{ACAD_XDICTIONARY
360
428
102
}
330
12
100
AcDbSymbolTableRecord
100
AcDbLayerTableRecord
  2
UMRISS05
 70
     0
 62
     4
  6
CONTINUOUS
370
    -3
390
7
  0
LAYER
  5
2D
102
{ACAD_XDICTIONARY
360
42A
102
}
330
12
100
AcDbSymbolTableRecord
100
AcDbLayerTableRecord
  2
BEMASSUNG
 70
     0
 62
     2
  6
CONTINUOUS
370
    -3
390
7
  0
LAYER
  5
AB
102
{ACAD_XDICTIONARY
360
42C
102
}
330
12
100
AcDbSymbolTableRecord
100
AcDbLayerTableRecord
  2
ACHSEN
 70
     0
 62
     1
  6
STRICHPUNKT2
370
    -3
390
7
  0
LAYER
  5
3A
330
12
100
AcDbSymbolTableRecord
100
AcDbLayerTableRecord
  2
DEFPOINTS
 70
     0
 62
     7
  6
CONTINUOUS
290
     0
370
    -3
390
7
  0
LAYER
  5
5B
102
{ACAD_XDICTIONARY
360
42E
102
}
330
12
100
AcDbSymbolTableRecord
100
AcDbLayerTableRecord
  2
1855
 70
     0
 62
     4
  6
CONTINUOUS
370
    -3
390
7
  0
ENDTAB
  0
TABLE
  2
STYLE
  5
13
330
0
100
AcDbSymbolTable
 70
     7
  0
STYLE
  5
14
330
13
100
AcDbSymbolTableRecord
100
AcDbTextStyleTableRecord
  2
STANDARD
 70
     0
 40
0.0
 41
1.0
 50
0.0
 71
     0
 42
10.0
  3
txt
  4

  0
STYLE
  5
25
330
13
100
AcDbSymbolTableRecord
100
AcDbTextStyleTableRecord
  2
ARIAL-STANDARD
 70
     0
 40
0.0
 41
1.0
 50
0.0
 71
     0
 42
3.5
  3
ARIAL.TTF
  4

1001
ACAD
1000
Arial
1071
       34
  0
STYLE
  5
21
330
13
100
AcDbSymbolTableRecord
100
AcDbTextStyleTableRecord
  2
NORM
 70
     0
 40
0.0
 41
1.0
 50
0.0
 71
     0
 42
2.399999999999999
  3
SIMPLEX
  4

  0
STYLE
  5
23
330
13
100
AcDbSymbolTableRecord
100
AcDbTextStyleTableRecord
  2
WMF
 70
     0
 40
0.0
 41
1.0
 50
0.0
 71
     0
 42
6.5
  3
ARIAL.TTF
  4

1001
ACAD
1000
Arial
1071
       34
  0
STYLE
  5
2F0
330
13
100
AcDbSymbolTableRecord
100
AcDbTextStyleTableRecord
  2

 70
     1
 40
0.0
 41
1.0
 50
0.0
 71
     0
 42
3.5
  3
ltypeshp.shx
  4

  0
STYLE
  5
2FA
330
13
100
AcDbSymbolTableRecord
100
AcDbTextStyleTableRecord
  2
ACDINTS
 70
     0
 40
1.0
 41
1.0
 50
0.0
 71
     0
 42
3.5
  3
isocp.shx
  4

  0
STYLE
  5
2FE
330
13
100
AcDbSymbolTableRecord
100
AcDbTextStyleTableRecord
  2
ACDINGDT
 70
     0
 40
0.0
 41
1.0
 50
0.0
 71
     0
 42
3.5
  3
amgdt.shx
  4

  0
ENDTAB
  0
TABLE
  2
VIEW
  5
19
330
0
100
AcDbSymbolTable
 70
     0
  0
ENDTAB
  0
TABLE
  2
UCS
  5
1A
330
0
100
AcDbSymbolTable
 70
     0
  0
ENDTAB
  0
TABLE
  2
APPID
  5
1D
330
0
100
AcDbSymbolTable
 70
    15
  0
APPID
  5
1E
330
1D
100
AcDbSymbolTableRecord
100
AcDbRegAppTableRecord
  2
ACAD
 70
     0
  0
APPID
  5
314
330
1D
100
AcDbSymbolTableRecord
100
AcDbRegAppTableRecord
  2
ACAD_DSTYLE_DIMARC_LENGTH_SYMBOL
 70
     0
  0
APPID
  5
315
330
1D
100
AcDbSymbolTableRecord
100
AcDbRegAppTableRecord
  2
ACAD_DSTYLE_DIMJOGGED_JOGANGLE_SYMBOL
 70
     0
  0
APPID
  5
3A5
330
1D
100
AcDbSymbolTableRecord
100
AcDbRegAppTableRecord
  2
MCAD_NO_VIS
 70
     0
  0
APPID
  5
3A6
330
1D
100
AcDbSymbolTableRecord
100
AcDbRegAppTableRecord
  2
ACAD_TEMP_GRAPHIC
 70
     0
  0
APPID
  5
3B0
330
1D
100
AcDbSymbolTableRecord
100
AcDbRegAppTableRecord
  2
ACATTRIBSERVICES
 70
     0
  0
APPID
  5
3C8
330
1D
100
AcDbSymbolTableRecord
100
AcDbRegAppTableRecord
  2
DESIGNERASSEMBLIES
 70
     0
  0
APPID
  5
3E0
330
1D
100
AcDbSymbolTableRecord
100
AcDbRegAppTableRecord
  2
ACAD_DSTYLE_DIMBREAK
 70
     0
  0
APPID
  5
3E1
330
1D
100
AcDbSymbolTableRecord
100
AcDbRegAppTableRecord
  2
ACAD_DSTYLE_DIMJAG
 70
     0
  0
APPID
  5
404
330
1D
100
AcDbSymbolTableRecord
100
AcDbRegAppTableRecord
  2
ACAD_NAV_VCDISPLAY
 70
     0
  0
APPID
  5
405
330
1D
100
AcDbSymbolTableRecord
100
AcDbRegAppTableRecord
  2
ACAD_DSTYLE_DIMINSPECT
 70
     0
  0
APPID
  5
447
330
1D
100
AcDbSymbolTableRecord
100
AcDbRegAppTableRecord
  2
ACAD_DSTYLE_DIM_LINETYPE
 70
     0
  0
APPID
  5
448
330
1D
100
AcDbSymbolTableRecord
100
AcDbRegAppTableRecord
  2
ACAD_DSTYLE_DIM_EXT1_LINETYPE
 70
     0
  0
APPID
  5
449
330
1D
100
AcDbSymbolTableRecord
100
AcDbRegAppTableRecord
  2
ACAD_DSTYLE_DIM_EXT2_LINETYPE
 70
     0
  0
APPID
  5
47D
330
1D
100
AcDbSymbolTableRecord
100
AcDbRegAppTableRecord
  2
ACAD_MLEADERVER
 70
     0
  0
ENDTAB
  0
TABLE
  2
DIMSTYLE
  5
1F
330
0
100
AcDbSymbolTable
 70
    10
100
AcDbDimStyleTable
 71
     4
340
313
340
20
340
22
340
24
  0
DIMSTYLE
105
24
330
1F
100
AcDbSymbolTableRecord
100
AcDbDimStyleTableRecord
  2
NORMAL
 70
     0
 41
3.5
 42
0.0
 43
8.0
 44
0.5
 73
     0
 74
     0
 77
     1
 78
     8
140
3.5
141
1.5
146
0.5
147
1.0
172
     1
174
     1
176
   256
177
   256
178
     3
271
     2
272
     2
279
     2
284
     8
340
25
  0
DIMSTYLE
105
22
330
1F
100
AcDbSymbolTableRecord
100
AcDbDimStyleTableRecord
  2
WMF
 70
     0
 40
1.9
 41
2.799999999999998
 42
1.0
 43
0.0
 44
1.0
 73
     0
 74
     0
 77
     1
 78
     8
140
3.399999999999999
141
1.5
146
0.5
147
1.0
172
     1
174
     1
176
   256
177
   256
178
   256
271
     2
272
     2
279
     2
284
     8
285
     8
286
     8
340
23
  0
DIMSTYLE
105
20
102
{ACAD_REACTORS
330
2D9
330
2CC
330
2BF
330
2B2
330
2A5
330
293
330
282
330
273
330
253
330
244
330
233
330
21F
330
20A
330
1F4
330
1E4
330
1A1
330
190
330
181
330
172
330
165
330
13D
330
12C
330
11D
330
10E
330
101
330
F1
330
DF
330
B5
330
62
330
9B
330
80
330
71
330
4B
330
30
330
3E
102
}
330
1F
100
AcDbSymbolTableRecord
100
AcDbDimStyleTableRecord
  2
PROSPEKT
 70
     0
 40
1.6
 41
3.5
 42
0.5
 43
0.0
 44
0.5
 73
     0
 74
     0
 77
     1
 78
     8
140
3.5
141
1.5
147
1.0
172
     1
174
     1
176
   256
177
   256
178
     3
271
     2
272
     2
279
     2
284
     8
340
21
  0
DIMSTYLE
105
313
102
{ACAD_REACTORS
330
3CF
102
}
330
1F
100
AcDbSymbolTableRecord
100
AcDbDimStyleTableRecord
  2
AM_DIN
 70
     0
  4
"
 41
3.5
 42
1.0
 43
10.0
 44
1.0
 47
0.1
 48
0.1
 73
     0
 74
     0
 77
     1
 78
     8
 79
     2
140
3.5
141
0.0
143
0.0393701
146
0.71
147
1.5
172
     1
176
   256
177
   256
178
     2
271
     2
272
     3
274
     4
283
     0
284
     8
340
14
371
    -1
372
    -1
1001
ACAD_DSTYLE_DIMJAG
1070
   388
1040
1.5
1001
ACAD_DSTYLE_DIMBREAK
1070
   391
1040
3.75
1001
ACAD_DSTYLE_DIMJOGGED_JOGANGLE_SYMBOL
1070
   384
1040
1.570796326794896
1001
ACAD_DSTYLE_DIM_LINETYPE
1070
   380
1005
17
1001
ACAD_DSTYLE_DIM_EXT1_LINETYPE
1070
   381
1005
17
1001
ACAD_DSTYLE_DIM_EXT2_LINETYPE
1070
   382
1005
17
  0
DIMSTYLE
105
316
330
1F
100
AcDbSymbolTableRecord
100
AcDbDimStyleTableRecord
  2
AM_DIN$3
 70
     0
  4
"
 41
3.5
 42
1.0
 43
10.0
 44
1.0
 47
0.1
 48
0.1
 73
     0
 77
     1
 78
     8
 79
     2
140
3.5
141
0.0
143
0.0393701
146
0.71
147
1.5
176
   256
177
   256
178
     2
271
     2
272
     3
274
     4
283
     0
284
     8
288
     1
289
     0
340
14
371
    -1
372
    -1
1001
ACAD_DSTYLE_DIMBREAK
1070
   391
1040
3.75
1001
ACAD_DSTYLE_DIMJAG
1070
   388
1040
1.5
1001
ACAD_DSTYLE_DIMJOGGED_JOGANGLE_SYMBOL
1070
   384
1040
1.570796326794896
1001
ACAD_DSTYLE_DIM_LINETYPE
1070
   380
1005
17
1001
ACAD_DSTYLE_DIM_EXT1_LINETYPE
1070
   381
1005
17
1001
ACAD_DSTYLE_DIM_EXT2_LINETYPE
1070
   382
1005
17
  0
DIMSTYLE
105
317
330
1F
100
AcDbSymbolTableRecord
100
AcDbDimStyleTableRecord
  2
AM_DIN$4
 70
     0
  4
"
 41
3.5
 42
1.0
 43
10.0
 44
1.0
 47
0.1
 48
0.1
 73
     0
 74
     0
 77
     1
 78
     8
 79
     2
140
3.5
141
0.0
143
0.0393701
146
0.71
147
1.5
172
     1
176
   256
177
   256
178
     2
271
     2
272
     3
274
     4
283
     0
284
     8
340
14
371
    -1
372
    -1
1001
ACAD_DSTYLE_DIMBREAK
1070
   391
1040
3.75
1001
ACAD_DSTYLE_DIMJAG
1070
   388
1040
1.5
1001
ACAD_DSTYLE_DIMJOGGED_JOGANGLE_SYMBOL
1070
   384
1040
1.570796326794896
1001
ACAD_DSTYLE_DIM_LINETYPE
1070
   380
1005
17
1001
ACAD_DSTYLE_DIM_EXT1_LINETYPE
1070
   381
1005
17
1001
ACAD_DSTYLE_DIM_EXT2_LINETYPE
1070
   382
1005
17
  0
DIMSTYLE
105
318
330
1F
100
AcDbSymbolTableRecord
100
AcDbDimStyleTableRecord
  2
AM_DIN$6
 70
     0
  4
"
 41
3.5
 42
1.0
 43
10.0
 44
1.0
 47
0.1
 48
0.1
 73
     0
 74
     0
 78
     8
 79
     2
140
3.5
141
0.0
143
0.0393701
146
0.71
147
1.5
172
     1
176
   256
177
   256
178
     2
271
     2
272
     3
274
     4
283
     0
284
     8
340
14
371
    -1
372
    -1
1001
ACAD_DSTYLE_DIMBREAK
1070
   391
1040
3.75
1001
ACAD_DSTYLE_DIMJAG
1070
   388
1040
1.5
1001
ACAD_DSTYLE_DIMJOGGED_JOGANGLE_SYMBOL
1070
   384
1040
1.570796326794896
1001
ACAD_DSTYLE_DIM_LINETYPE
1070
   380
1005
17
1001
ACAD_DSTYLE_DIM_EXT1_LINETYPE
1070
   381
1005
17
1001
ACAD_DSTYLE_DIM_EXT2_LINETYPE
1070
   382
1005
17
  0
DIMSTYLE
105
319
330
1F
100
AcDbSymbolTableRecord
100
AcDbDimStyleTableRecord
  2
AM_DIN$7
 70
     0
  4
"
 41
3.5
 42
1.0
 43
10.0
 44
1.0
 47
0.1
 48
0.1
 73
     0
 74
     0
 77
     1
 78
     8
 79
     2
140
3.5
141
0.0
143
0.0393701
146
0.71
147
1.5
172
     1
176
   256
177
   256
178
     2
271
     2
272
     3
274
     4
283
     0
284
     8
340
14
371
    -1
372
    -1
1001
ACAD_DSTYLE_DIMBREAK
1070
   391
1040
3.75
1001
ACAD_DSTYLE_DIMJAG
1070
   388
1040
1.5
1001
ACAD_DSTYLE_DIMJOGGED_JOGANGLE_SYMBOL
1070
   384
1040
1.570796326794896
1001
ACAD_DSTYLE_DIM_LINETYPE
1070
   380
1005
17
1001
ACAD_DSTYLE_DIM_EXT1_LINETYPE
1070
   381
1005
17
1001
ACAD_DSTYLE_DIM_EXT2_LINETYPE
1070
   382
1005
17
  0
DIMSTYLE
105
31A
330
1F
100
AcDbSymbolTableRecord
100
AcDbDimStyleTableRecord
  2
AM_DIN$SF
 70
     0
  4
"
 41
3.5
 42
1.0
 43
10.0
 44
1.0
 47
0.1
 48
0.1
 73
     0
 74
     0
 75
     1
 76
     1
 77
     1
 78
     8
 79
     2
140
3.5
141
0.0
143
0.0393701
146
0.71
147
1.5
172
     1
176
   256
177
   256
178
     2
271
     2
272
     3
274
     4
283
     0
284
     8
340
14
371
    -1
372
    -1
1001
ACAD_DSTYLE_DIMBREAK
1070
   391
1040
3.75
1001
ACAD_DSTYLE_DIMJAG
1070
   388
1040
1.5
1001
ACAD_DSTYLE_DIMJOGGED_JOGANGLE_SYMBOL
1070
   384
1040
1.570796326794896
1001
ACAD_DSTYLE_DIM_LINETYPE
1070
   380
1005
17
1001
ACAD_DSTYLE_DIM_EXT1_LINETYPE
1070
   381
1005
17
1001
ACAD_DSTYLE_DIM_EXT2_LINETYPE
1070
   382
1005
17
  0
DIMSTYLE
105
31B
330
1F
100
AcDbSymbolTableRecord
100
AcDbDimStyleTableRecord
  2
AM_DIN$SH
 70
     0
  4
"
 41
3.5
 42
1.0
 43
10.0
 44
1.0
 47
0.1
 48
0.1
 73
     0
 74
     0
 75
     1
 76
     1
 77
     1
 78
     8
 79
     2
140
3.5
141
0.0
143
0.0393701
144
2.0
146
0.71
147
1.5
172
     1
173
     1
176
   256
177
   256
178
     2
271
     2
272
     3
274
     4
283
     0
284
     8
340
14
343
31C
371
    -1
372
    -1
1001
ACAD_DSTYLE_DIMBREAK
1070
   391
1040
3.75
1001
ACAD_DSTYLE_DIMJAG
1070
   388
1040
1.5
1001
ACAD_DSTYLE_DIMJOGGED_JOGANGLE_SYMBOL
1070
   384
1040
1.570796326794896
1001
ACAD_DSTYLE_DIM_LINETYPE
1070
   380
1005
17
1001
ACAD_DSTYLE_DIM_EXT1_LINETYPE
1070
   381
1005
17
1001
ACAD_DSTYLE_DIM_EXT2_LINETYPE
1070
   382
1005
17
  0
ENDTAB
  0
TABLE
  2
BLOCK_RECORD
  5
1
330
0
100
AcDbSymbolTable
 70
    39
  0
BLOCK_RECORD
  5
2
102
{ACAD_XDICTIONARY
360
3
102
}
330
1
100
AcDbSymbolTableRecord
100
AcDbBlockTableRecord
  2
*MODEL_SPACE
340
C
  0
BLOCK_RECORD
  5
E
330
1
100
AcDbSymbolTableRecord
100
AcDbBlockTableRecord
  2
*PAPER_SPACE
340
11
  0
BLOCK_RECORD
  5
31C
330
1
100
AcDbSymbolTableRecord
100
AcDbBlockTableRecord
  2
GENAXEH
340
0
  0
BLOCK_RECORD
  5
2DA
330
1
100
AcDbSymbolTableRecord
100
AcDbBlockTableRecord
  2
*D1
340
0
  0
BLOCK_RECORD
  5
2CD
330
1
100
AcDbSymbolTableRecord
100
AcDbBlockTableRecord
  2
*D2
340
0
  0
BLOCK_RECORD
  5
2C0
330
1
100
AcDbSymbolTableRecord
100
AcDbBlockTableRecord
  2
*D3
340
0
  0
BLOCK_RECORD
  5
2B3
330
1
100
AcDbSymbolTableRecord
100
AcDbBlockTableRecord
  2
*D4
340
0
  0
BLOCK_RECORD
  5
2A6
330
1
100
AcDbSymbolTableRecord
100
AcDbBlockTableRecord
  2
*D5
340
0
  0
BLOCK_RECORD
  5
294
330
1
100
AcDbSymbolTableRecord
100
AcDbBlockTableRecord
  2
*D6
340
0
  0
BLOCK_RECORD
  5
283
330
1
100
AcDbSymbolTableRecord
100
AcDbBlockTableRecord
  2
*D7
340
0
  0
BLOCK_RECORD
  5
274
330
1
100
AcDbSymbolTableRecord
100
AcDbBlockTableRecord
  2
*D8
340
0
  0
BLOCK_RECORD
  5
254
330
1
100
AcDbSymbolTableRecord
100
AcDbBlockTableRecord
  2
*D9
340
0
  0
BLOCK_RECORD
  5
245
330
1
100
AcDbSymbolTableRecord
100
AcDbBlockTableRecord
  2
*D10
340
0
  0
BLOCK_RECORD
  5
234
330
1
100
AcDbSymbolTableRecord
100
AcDbBlockTableRecord
  2
*D11
340
0
  0
BLOCK_RECORD
  5
220
330
1
100
AcDbSymbolTableRecord
100
AcDbBlockTableRecord
  2
*D12
340
0
  0
BLOCK_RECORD
  5
20B
330
1
100
AcDbSymbolTableRecord
100
AcDbBlockTableRecord
  2
*D13
340
0
  0
BLOCK_RECORD
  5
1F5
330
1
100
AcDbSymbolTableRecord
100
AcDbBlockTableRecord
  2
*D14
340
0
  0
BLOCK_RECORD
  5
1E5
330
1
100
AcDbSymbolTableRecord
100
AcDbBlockTableRecord
  2
*D15
340
0
  0
BLOCK_RECORD
  5
1A2
330
1
100
AcDbSymbolTableRecord
100
AcDbBlockTableRecord
  2
*D16
340
0
  0
BLOCK_RECORD
  5
191
330
1
100
AcDbSymbolTableRecord
100
AcDbBlockTableRecord
  2
*D17
340
0
  0
BLOCK_RECORD
  5
182
330
1
100
AcDbSymbolTableRecord
100
AcDbBlockTableRecord
  2
*D18
340
0
  0
BLOCK_RECORD
  5
173
330
1
100
AcDbSymbolTableRecord
100
AcDbBlockTableRecord
  2
*D19
340
0
  0
BLOCK_RECORD
  5
166
330
1
100
AcDbSymbolTableRecord
100
AcDbBlockTableRecord
  2
*D20
340
0
  0
BLOCK_RECORD
  5
13E
330
1
100
AcDbSymbolTableRecord
100
AcDbBlockTableRecord
  2
*D21
340
0
  0
BLOCK_RECORD
  5
12D
330
1
100
AcDbSymbolTableRecord
100
AcDbBlockTableRecord
  2
*D22
340
0
  0
BLOCK_RECORD
  5
11E
330
1
100
AcDbSymbolTableRecord
100
AcDbBlockTableRecord
  2
*D23
340
0
  0
BLOCK_RECORD
  5
10F
330
1
100
AcDbSymbolTableRecord
100
AcDbBlockTableRecord
  2
*D24
340
0
  0
BLOCK_RECORD
  5
102
330
1
100
AcDbSymbolTableRecord
100
AcDbBlockTableRecord
  2
*D25
340
0
  0
BLOCK_RECORD
  5
F2
330
1
100
AcDbSymbolTableRecord
100
AcDbBlockTableRecord
  2
*D26
340
0
  0
BLOCK_RECORD
  5
E0
330
1
100
AcDbSymbolTableRecord
100
AcDbBlockTableRecord
  2
*D27
340
0
  0
BLOCK_RECORD
  5
B6
330
1
100
AcDbSymbolTableRecord
100
AcDbBlockTableRecord
  2
*D28
340
0
  0
BLOCK_RECORD
  5
63
330
1
100
AcDbSymbolTableRecord
100
AcDbBlockTableRecord
  2
*D29
340
0
  0
BLOCK_RECORD
  5
9C
330
1
100
AcDbSymbolTableRecord
100
AcDbBlockTableRecord
  2
*D30
340
0
  0
BLOCK_RECORD
  5
81
330
1
100
AcDbSymbolTableRecord
100
AcDbBlockTableRecord
  2
*D31
340
0
  0
BLOCK_RECORD
  5
72
330
1
100
AcDbSymbolTableRecord
100
AcDbBlockTableRecord
  2
*D32
340
0
  0
BLOCK_RECORD
  5
4C
330
1
100
AcDbSymbolTableRecord
100
AcDbBlockTableRecord
  2
*D33
340
0
  0
BLOCK_RECORD
  5
3F
330
1
100
AcDbSymbolTableRecord
100
AcDbBlockTableRecord
  2
*D34
340
0
  0
BLOCK_RECORD
  5
31
330
1
100
AcDbSymbolTableRecord
100
AcDbBlockTableRecord
  2
*D35
340
0
  0
BLOCK_RECORD
  5
3F4
330
1
100
AcDbSymbolTableRecord
100
AcDbBlockTableRecord
  2
_ACMFILLED30
340
0
  0
BLOCK_RECORD
  5
406
330
1
100
AcDbSymbolTableRecord
100
AcDbBlockTableRecord
  2
*D38
340
0
  0
ENDTAB
  0
ENDSEC
  0
SECTION
  2
BLOCKS
  0
BLOCK
  5
5
330
2
100
AcDbEntity
  8
0
100
AcDbBlockBegin
  2
*MODEL_SPACE
 70
     0
 10
0.0
 20
0.0
 30
0.0
  3
*MODEL_SPACE
  1

  0
ENDBLK
  5
B
330
2
100
AcDbEntity
  8
0
100
AcDbBlockEnd
  0
BLOCK
  5
F
330
E
100
AcDbEntity
 67
     1
  8
0
100
AcDbBlockBegin
  2
*PAPER_SPACE
 70
     0
 10
0.0
 20
0.0
 30
0.0
  3
*PAPER_SPACE
  1

  0
ENDBLK
  5
10
330
E
100
AcDbEntity
 67
     1
  8
0
100
AcDbBlockEnd
  0
BLOCK
  5
31D
330
31C
100
AcDbEntity
  8
0
100
AcDbBlockBegin
  2
GENAXEH
 70
     0
 10
0.0
 20
0.0
 30
0.0
  3
GENAXEH
  1

  0
LINE
  5
31E
330
31C
100
AcDbEntity
  8
0
100
AcDbLine
 10
-1.0
 20
0.0
 30
0.0
 11
1.0
 21
0.0
 31
0.0
  0
ENDBLK
  5
31F
330
31C
100
AcDbEntity
  8
0
100
AcDbBlockEnd
  0
BLOCK
  5
2DB
330
2DA
100
AcDbEntity
  8
0
100
AcDbBlockBegin
  2
*D1
 70
     1
 10
0.0
 20
0.0
 30
0.0
  3
*D1
  1

  0
LINE
  5
2DC
330
2DA
100
AcDbEntity
  8
BEMASSUNG
  6
Continuous
370
    -2
100
AcDbLine
 10
743.7177682580432
 20
432.3257031729501
 30
0.0
 11
799.4113214115616
 21
432.3257031729501
 31
0.0
  0
LINE
  5
2DD
330
2DA
100
AcDbEntity
  8
BEMASSUNG
  6
Continuous
370
    -2
100
AcDbLine
 10
743.7177682580432
 20
273.3257031729502
 30
0.0
 11
799.4113214115616
 21
273.3257031729502
 31
0.0
  0
LINE
  5
2DE
330
2DA
100
AcDbEntity
  8
BEMASSUNG
  6
Continuous
370
    -2
100
AcDbLine
 10
798.6113214115618
 20
426.7257031729501
 30
0.0
 11
798.6113214115618
 21
278.9257031729502
 31
0.0
  0
MTEXT
  5
2DF
330
2DA
100
AcDbEntity
  8
BEMASSUNG
  6
Continuous
 62
     3
100
AcDbMText
 10
793.8384402812235
 20
351.9621067843052
 30
0.0
 40
5.599999999999999
 41
0.0
 71
     5
 72
     1
  1
\A1;159
  7
NORM
 11
0.0000000000000001
 21
1.0
 31
0.0
 73
     1
 44
1.0
1001
ACAD
1000
MTEXTBEGIN
1070
    73
1070
     1
1070
    44
1040
1.0
1070
    74
1070
     0
1000
MTEXTEND
  0
SOLID
  5
2E0
330
2DA
100
AcDbEntity
  8
BEMASSUNG
  6
Continuous
100
AcDbTrace
 10
797.6779880782283
 20
426.7257031729501
 30
0.0
 11
799.5446547448948
 21
426.7257031729501
 31
0.0
 12
798.6113214115618
 22
432.3257031729501
 32
0.0
 13
798.6113214115618
 23
432.3257031729501
 33
0.0
  0
SOLID
  5
2E1
330
2DA
100
AcDbEntity
  8
BEMASSUNG
  6
Continuous
100
AcDbTrace
 10
797.6779880782283
 20
278.9257031729502
 30
0.0
 11
799.5446547448948
 21
278.9257031729502
 31
0.0
 12
798.6113214115618
 22
273.3257031729502
 32
0.0
 13
798.6113214115618
 23
273.3257031729502
 33
0.0
  0
POINT
  5
2E2
330
2DA
100
AcDbEntity
  8
DEFPOINTS
  6
Continuous
 62
     0
100
AcDbPoint
 10
742.9177682580432
 20
432.3257031729501
 30
0.0
  0
POINT
  5
2E3
330
2DA
100
AcDbEntity
  8
DEFPOINTS
  6
Continuous
 62
     0
100
AcDbPoint
 10
742.9177682580432
 20
273.3257031729502
 30
0.0
  0
POINT
  5
2E4
330
2DA
100
AcDbEntity
  8
DEFPOINTS
  6
Continuous
 62
     0
100
AcDbPoint
 10
798.6113214115618
 20
273.3257031729502
 30
0.0
  0
ENDBLK
  5
2E5
330
2DA
100
AcDbEntity
  8
0
100
AcDbBlockEnd
  0
BLOCK
  5
2CE
330
2CD
100
AcDbEntity
  8
0
100
AcDbBlockBegin
  2
*D2
 70
     1
 10
0.0
 20
0.0
 30
0.0
  3
*D2
  1

  0
LINE
  5
2CF
330
2CD
100
AcDbEntity
  8
BEMASSUNG
  6
Continuous
370
    -2
100
AcDbLine
 10
666.9007134780112
 20
467.8257031729489
 30
0.0
 11
616.9731559094688
 21
467.8257031729491
 31
0.0
  0
LINE
  5
2D0
330
2CD
100
AcDbEntity
  8
BEMASSUNG
  6
Continuous
370
    -2
100
AcDbLine
 10
666.9007134780107
 20
237.8257031729494
 30
0.0
 11
616.9731559094685
 21
237.8257031729494
 31
0.0
  0
LINE
  5
2D1
330
2CD
100
AcDbEntity
  8
BEMASSUNG
  6
Continuous
370
    -2
100
AcDbLine
 10
617.7731559094687
 20
462.225703172949
 30
0.0
 11
617.7731559094686
 21
243.4257031729494
 31
0.0
  0
MTEXT
  5
2D2
330
2CD
100
AcDbEntity
  8
BEMASSUNG
  6
Continuous
 62
     3
100
AcDbMText
 10
612.5942391312478
 20
355.5075255216018
 30
0.0
 40
5.599999999999999
 41
0.0
 71
     5
 72
     1
  1
\A1;230
  7
NORM
 11
0.0000000000000001
 21
1.0
 31
0.0
 73
     1
 44
1.0
1001
ACAD
1000
MTEXTBEGIN
1070
    73
1070
     1
1070
    44
1040
1.0
1070
    74
1070
     0
1000
MTEXTEND
  0
SOLID
  5
2D3
330
2CD
100
AcDbEntity
  8
BEMASSUNG
  6
Continuous
100
AcDbTrace
 10
616.8398225761355
 20
462.225703172949
 30
0.0
 11
618.7064892428018
 21
462.225703172949
 31
0.0
 12
617.7731559094687
 22
467.8257031729491
 32
0.0
 13
617.7731559094687
 23
467.8257031729491
 33
0.0
  0
SOLID
  5
2D4
330
2CD
100
AcDbEntity
  8
BEMASSUNG
  6
Continuous
100
AcDbTrace
 10
616.8398225761352
 20
243.4257031729494
 30
0.0
 11
618.7064892428017
 21
243.4257031729494
 31
0.0
 12
617.7731559094686
 22
237.8257031729494
 32
0.0
 13
617.7731559094686
 23
237.8257031729494
 33
0.0
  0
POINT
  5
2D5
330
2CD
100
AcDbEntity
  8
DEFPOINTS
  6
Continuous
 62
     0
100
AcDbPoint
 10
667.7007134780112
 20
467.8257031729489
 30
0.0
  0
POINT
  5
2D6
330
2CD
100
AcDbEntity
  8
DEFPOINTS
  6
Continuous
 62
     0
100
AcDbPoint
 10
667.7007134780108
 20
237.8257031729494
 30
0.0
  0
POINT
  5
2D7
330
2CD
100
AcDbEntity
  8
DEFPOINTS
  6
Continuous
 62
     0
100
AcDbPoint
 10
617.7731559094686
 20
237.8257031729494
 30
0.0
  0
ENDBLK
  5
2D8
330
2CD
100
AcDbEntity
  8
0
100
AcDbBlockEnd
  0
BLOCK
  5
2C1
330
2C0
100
AcDbEntity
  8
0
100
AcDbBlockBegin
  2
*D3
 70
     1
 10
0.0
 20
0.0
 30
0.0
  3
*D3
  1

  0
LINE
  5
2C2
330
2C0
100
AcDbEntity
  8
BEMASSUNG
  6
Continuous
370
    -2
100
AcDbLine
 10
646.9007134780118
 20
339.825693817841
 30
0.0
 11
628.6886086062926
 21
339.825693817841
 31
0.0
  0
LINE
  5
2C3
330
2C0
100
AcDbEntity
  8
BEMASSUNG
  6
Continuous
370
    -2
100
AcDbLine
 10
660.9177856898159
 20
387.8256938178413
 30
0.0
 11
628.6886086062926
 21
387.8256938178413
 31
0.0
  0
LINE
  5
2C4
330
2C0
100
AcDbEntity
  8
BEMASSUNG
  6
Continuous
370
    -2
100
AcDbLine
 10
629.4886086062924
 20
345.425693817841
 30
0.0
 11
629.4886086062924
 21
382.2256938178413
 31
0.0
  0
SOLID
  5
2C5
330
2C0
100
AcDbEntity
  8
BEMASSUNG
  6
Continuous
100
AcDbTrace
 10
628.5552752729592
 20
345.425693817841
 30
0.0
 11
630.4219419396257
 21
345.425693817841
 31
0.0
 12
629.4886086062924
 22
339.825693817841
 32
0.0
 13
629.4886086062924
 23
339.825693817841
 33
0.0
  0
SOLID
  5
2C6
330
2C0
100
AcDbEntity
  8
BEMASSUNG
  6
Continuous
100
AcDbTrace
 10
628.5552752729592
 20
382.2256938178413
 30
0.0
 11
630.4219419396257
 21
382.2256938178413
 31
0.0
 12
629.4886086062924
 22
387.8256938178413
 32
0.0
 13
629.4886086062924
 23
387.8256938178413
 33
0.0
  0
MTEXT
  5
2C7
330
2C0
100
AcDbEntity
  8
BEMASSUNG
  6
Continuous
 62
     3
100
AcDbMText
 10
625.0886086062925
 20
363.8256938178412
 30
0.0
 40
5.599999999999999
 41
0.0
 71
     5
 72
     1
  1
\A1;48
  7
NORM
 11
0.0000000000000001
 21
1.0
 31
0.0
 73
     1
 44
1.0
1001
ACAD
1000
MTEXTBEGIN
1070
    73
1070
     1
1070
    44
1040
1.0
1070
    74
1070
     0
1000
MTEXTEND
  0
POINT
  5
2C8
330
2C0
100
AcDbEntity
  8
DEFPOINTS
  6
Continuous
 62
     0
100
AcDbPoint
 10
647.7007134780118
 20
339.825693817841
 30
0.0
  0
POINT
  5
2C9
330
2C0
100
AcDbEntity
  8
DEFPOINTS
  6
Continuous
 62
     0
100
AcDbPoint
 10
661.7177856898157
 20
387.8256938178413
 30
0.0
  0
POINT
  5
2CA
330
2C0
100
AcDbEntity
  8
DEFPOINTS
  6
Continuous
 62
     0
100
AcDbPoint
 10
629.4886086062924
 20
387.8256938178413
 30
0.0
  0
ENDBLK
  5
2CB
330
2C0
100
AcDbEntity
  8
0
100
AcDbBlockEnd
  0
BLOCK
  5
2B4
330
2B3
100
AcDbEntity
  8
0
100
AcDbBlockBegin
  2
*D4
 70
     1
 10
0.0
 20
0.0
 30
0.0
  3
*D4
  1

  0
LINE
  5
2B5
330
2B3
100
AcDbEntity
  8
BEMASSUNG
  6
Continuous
370
    -2
100
AcDbLine
 10
756.1177682580431
 20
380.82570317295
 30
0.0
 11
776.5484220287642
 21
380.82570317295
 31
0.0
  0
LINE
  5
2B6
330
2B3
100
AcDbEntity
  8
BEMASSUNG
  6
Continuous
370
    -2
100
AcDbLine
 10
739.5177682580432
 20
359.3257031729536
 30
0.0
 11
776.5484220287642
 21
359.3257031729536
 31
0.0
  0
LINE
  5
2B7
330
2B3
100
AcDbEntity
  8
BEMASSUNG
  6
Continuous
370
    -2
100
AcDbLine
 10
775.7484220287641
 20
375.2257031729499
 30
0.0
 11
775.7484220287641
 21
364.9257031729537
 31
0.0
  0
SOLID
  5
2B8
330
2B3
100
AcDbEntity
  8
BEMASSUNG
  6
Continuous
100
AcDbTrace
 10
774.815088695431
 20
375.2257031729499
 30
0.0
 11
776.6817553620976
 21
375.2257031729499
 31
0.0
 12
775.7484220287641
 22
380.82570317295
 32
0.0
 13
775.7484220287641
 23
380.82570317295
 33
0.0
  0
SOLID
  5
2B9
330
2B3
100
AcDbEntity
  8
BEMASSUNG
  6
Continuous
100
AcDbTrace
 10
774.815088695431
 20
364.9257031729537
 30
0.0
 11
776.6817553620976
 21
364.9257031729537
 31
0.0
 12
775.7484220287641
 22
359.3257031729536
 32
0.0
 13
775.7484220287641
 23
359.3257031729536
 33
0.0
  0
MTEXT
  5
2BA
330
2B3
100
AcDbEntity
  8
BEMASSUNG
  6
Continuous
 62
     3
100
AcDbMText
 10
771.3484220287641
 20
370.0757031729519
 30
0.0
 40
5.599999999999999
 41
0.0
 71
     5
 72
     1
  1
\A1;21.5
  7
NORM
 11
0.0000000000000001
 21
1.0
 31
0.0
 73
     1
 44
1.0
1001
ACAD
1000
MTEXTBEGIN
1070
    73
1070
     1
1070
    44
1040
1.0
1070
    74
1070
     0
1000
MTEXTEND
  0
POINT
  5
2BB
330
2B3
100
AcDbEntity
  8
DEFPOINTS
  6
Continuous
 62
     0
100
AcDbPoint
 10
755.3177682580431
 20
380.82570317295
 30
0.0
  0
POINT
  5
2BC
330
2B3
100
AcDbEntity
  8
DEFPOINTS
  6
Continuous
 62
     0
100
AcDbPoint
 10
738.7177682580434
 20
359.3257031729536
 30
0.0
  0
POINT
  5
2BD
330
2B3
100
AcDbEntity
  8
DEFPOINTS
  6
Continuous
 62
     0
100
AcDbPoint
 10
775.7484220287641
 20
359.3257031729536
 30
0.0
  0
ENDBLK
  5
2BE
330
2B3
100
AcDbEntity
  8
0
100
AcDbBlockEnd
  0
BLOCK
  5
2A7
330
2A6
100
AcDbEntity
  8
0
100
AcDbBlockBegin
  2
*D5
 70
     1
 10
0.0
 20
0.0
 30
0.0
  3
*D5
  1

  0
LINE
  5
2A8
330
2A6
100
AcDbEntity
  8
BEMASSUNG
  6
Continuous
370
    -2
100
AcDbLine
 10
756.1177682580431
 20
380.82570317295
 30
0.0
 11
787.7883710516447
 21
380.82570317295
 31
0.0
  0
LINE
  5
2A9
330
2A6
100
AcDbEntity
  8
BEMASSUNG
  6
Continuous
370
    -2
100
AcDbLine
 10
745.6177682580431
 20
302.8257031729497
 30
0.0
 11
787.7883710516447
 21
302.8257031729497
 31
0.0
  0
LINE
  5
2AA
330
2A6
100
AcDbEntity
  8
BEMASSUNG
  6
Continuous
370
    -2
100
AcDbLine
 10
786.9883710516448
 20
375.2257031729499
 30
0.0
 11
786.9883710516448
 21
308.4257031729497
 31
0.0
  0
SOLID
  5
2AB
330
2A6
100
AcDbEntity
  8
BEMASSUNG
  6
Continuous
100
AcDbTrace
 10
786.0550377183113
 20
375.2257031729499
 30
0.0
 11
787.921704384978
 21
375.2257031729499
 31
0.0
 12
786.9883710516448
 22
380.82570317295
 32
0.0
 13
786.9883710516448
 23
380.82570317295
 33
0.0
  0
SOLID
  5
2AC
330
2A6
100
AcDbEntity
  8
BEMASSUNG
  6
Continuous
100
AcDbTrace
 10
786.0550377183113
 20
308.4257031729497
 30
0.0
 11
787.921704384978
 21
308.4257031729497
 31
0.0
 12
786.9883710516448
 22
302.8257031729497
 32
0.0
 13
786.9883710516448
 23
302.8257031729497
 33
0.0
  0
MTEXT
  5
2AD
330
2A6
100
AcDbEntity
  8
BEMASSUNG
  6
Continuous
 62
     3
100
AcDbMText
 10
782.5883710516445
 20
341.82570317295
 30
0.0
 40
5.599999999999999
 41
0.0
 71
     5
 72
     1
  1
\A1;78
  7
NORM
 11
0.0000000000000001
 21
1.0
 31
0.0
 73
     1
 44
1.0
1001
ACAD
1000
MTEXTBEGIN
1070
    73
1070
     1
1070
    44
1040
1.0
1070
    74
1070
     0
1000
MTEXTEND
  0
POINT
  5
2AE
330
2A6
100
AcDbEntity
  8
DEFPOINTS
  6
Continuous
 62
     0
100
AcDbPoint
 10
755.3177682580431
 20
380.82570317295
 30
0.0
  0
POINT
  5
2AF
330
2A6
100
AcDbEntity
  8
DEFPOINTS
  6
Continuous
 62
     0
100
AcDbPoint
 10
744.8177682580432
 20
302.8257031729497
 30
0.0
  0
POINT
  5
2B0
330
2A6
100
AcDbEntity
  8
DEFPOINTS
  6
Continuous
 62
     0
100
AcDbPoint
 10
786.9883710516448
 20
302.8257031729497
 30
0.0
  0
ENDBLK
  5
2B1
330
2A6
100
AcDbEntity
  8
0
100
AcDbBlockEnd
  0
BLOCK
  5
295
330
294
100
AcDbEntity
  8
0
100
AcDbBlockBegin
  2
*D6
 70
     1
 10
0.0
 20
0.0
 30
0.0
  3
*D6
  1

  0
LINE
  5
296
330
294
100
AcDbEntity
  8
BEMASSUNG
  6
Continuous
370
    -2
100
AcDbLine
 10
720.9177682580433
 20
380.8257031729502
 30
0.0
 11
702.9910097316983
 21
380.8257031729502
 31
0.0
  0
LINE
  5
297
330
294
100
AcDbEntity
  8
BEMASSUNG
  6
Continuous
370
    -2
100
AcDbLine
 10
672.5177682580437
 20
324.825693817841
 30
0.0
 11
704.5910097316981
 21
324.825693817841
 31
0.0
  0
LINE
  5
298
330
294
100
AcDbEntity
  8
BEMASSUNG
  6
Continuous
370
    -2
100
AcDbLine
 10
703.7910097316983
 20
375.2257031729501
 30
0.0
 11
703.7910097316983
 21
330.425693817841
 31
0.0
  0
SOLID
  5
299
330
294
100
AcDbEntity
  8
BEMASSUNG
  6
Continuous
100
AcDbTrace
 10
702.8576763983647
 20
375.2257031729501
 30
0.0
 11
704.7243430650314
 21
375.2257031729501
 31
0.0
 12
703.7910097316983
 22
380.8257031729502
 32
0.0
 13
703.7910097316983
 23
380.8257031729502
 33
0.0
  0
SOLID
  5
29A
330
294
100
AcDbEntity
  8
BEMASSUNG
  6
Continuous
100
AcDbTrace
 10
702.8576763983647
 20
330.425693817841
 30
0.0
 11
704.7243430650314
 21
330.425693817841
 31
0.0
 12
703.7910097316983
 22
324.825693817841
 32
0.0
 13
703.7910097316983
 23
324.825693817841
 33
0.0
  0
MTEXT
  5
29B
330
294
100
AcDbEntity
  8
BEMASSUNG
  6
Continuous
 62
     3
100
AcDbMText
 10
699.3910097316979
 20
352.8256984953957
 30
0.0
 40
5.599999999999999
 41
0.0
 71
     5
 72
     1
  1
\A1;56
  7
NORM
 11
0.0000000000000001
 21
1.0
 31
0.0
 73
     1
 44
1.0
1001
ACAD
1000
MTEXTBEGIN
1070
    73
1070
     1
1070
    44
1040
1.0
1070
    74
1070
     0
1000
MTEXTEND
  0
POINT
  5
29C
330
294
100
AcDbEntity
  8
DEFPOINTS
  6
Continuous
 62
     0
100
AcDbPoint
 10
721.7177682580434
 20
380.8257031729502
 30
0.0
  0
POINT
  5
29D
330
294
100
AcDbEntity
  8
DEFPOINTS
  6
Continuous
 62
     0
100
AcDbPoint
 10
671.7177682580437
 20
324.825693817841
 30
0.0
  0
POINT
  5
29E
330
294
100
AcDbEntity
  8
DEFPOINTS
  6
Continuous
 62
     0
100
AcDbPoint
 10
703.7910097316983
 20
324.825693817841
 30
0.0
  0
ENDBLK
  5
29F
330
294
100
AcDbEntity
  8
0
100
AcDbBlockEnd
  0
BLOCK
  5
284
330
283
100
AcDbEntity
  8
0
100
AcDbBlockBegin
  2
*D7
 70
     1
 10
0.0
 20
0.0
 30
0.0
  3
*D7
  1

  0
LINE
  5
285
330
283
100
AcDbEntity
  8
BEMASSUNG
  6
Continuous
370
    -2
100
AcDbLine
 10
675.5177682580388
 20
187.3455282659033
 30
0.0
 11
697.0618509308393
 21
187.3455282659033
 31
0.0
  0
LINE
  5
286
330
283
100
AcDbEntity
  8
BEMASSUNG
  6
Continuous
370
    -2
100
AcDbLine
 10
693.5250533988644
 20
186.3455282659033
 30
0.0
 11
697.0618509308393
 21
186.3455282659033
 31
0.0
  0
LINE
  5
287
330
283
100
AcDbEntity
  8
BEMASSUNG
  6
Continuous
370
    -2
100
AcDbLine
 10
696.2618509308395
 20
192.9455282659033
 30
0.0
 11
696.2618509308395
 21
198.5455282659033
 31
0.0
  0
LINE
  5
288
330
283
100
AcDbEntity
  8
BEMASSUNG
  6
Continuous
370
    -2
100
AcDbLine
 10
696.2618509308395
 20
180.7455282659033
 30
0.0
 11
696.2618509308395
 21
175.1455282659033
 31
0.0
  0
MTEXT
  5
289
330
283
100
AcDbEntity
  8
BEMASSUNG
  6
Continuous
 62
     3
100
AcDbMText
 10
691.2636484683247
 20
195.4428088474785
 30
0.0
 40
5.599999999999999
 41
0.0
 71
     5
 72
     1
  1
\A1;1
  7
NORM
 11
0.0000000000000001
 21
1.0
 31
0.0
 73
     1
 44
1.0
1001
ACAD
1000
MTEXTBEGIN
1070
    73
1070
     1
1070
    44
1040
1.0
1070
    74
1070
     0
1000
MTEXTEND
  0
LINE
  5
28A
330
283
100
AcDbEntity
  8
BEMASSUNG
  6
Continuous
370
    -2
100
AcDbLine
 10
696.2618509308395
 20
187.3455282659033
 30
0.0
 11
696.2618509308395
 21
186.3455282659033
 31
0.0
  0
SOLID
  5
28B
330
283
100
AcDbEntity
  8
BEMASSUNG
  6
Continuous
100
AcDbTrace
 10
695.3285175975062
 20
192.9455282659033
 30
0.0
 11
697.1951842641727
 21
192.9455282659033
 31
0.0
 12
696.2618509308395
 22
187.3455282659033
 32
0.0
 13
696.2618509308395
 23
187.3455282659033
 33
0.0
  0
SOLID
  5
28C
330
283
100
AcDbEntity
  8
BEMASSUNG
  6
Continuous
100
AcDbTrace
 10
695.3285175975062
 20
180.7455282659033
 30
0.0
 11
697.1951842641727
 21
180.7455282659033
 31
0.0
 12
696.2618509308395
 22
186.3455282659033
 32
0.0
 13
696.2618509308395
 23
186.3455282659033
 33
0.0
  0
POINT
  5
28D
330
283
100
AcDbEntity
  8
DEFPOINTS
  6
Continuous
 62
     0
100
AcDbPoint
 10
674.7177682580387
 20
187.3455282659033
 30
0.0
  0
POINT
  5
28E
330
283
100
AcDbEntity
  8
DEFPOINTS
  6
Continuous
 62
     0
100
AcDbPoint
 10
692.7250533988645
 20
186.3455282659033
 30
0.0
  0
POINT
  5
28F
330
283
100
AcDbEntity
  8
DEFPOINTS
  6
Continuous
 62
     0
100
AcDbPoint
 10
696.2618509308395
 20
186.3455282659033
 30
0.0
  0
ENDBLK
  5
290
330
283
100
AcDbEntity
  8
0
100
AcDbBlockEnd
  0
BLOCK
  5
275
330
274
100
AcDbEntity
  8
0
100
AcDbBlockBegin
  2
*D8
 70
     1
 10
0.0
 20
0.0
 30
0.0
  3
*D8
  1

  0
LINE
  5
276
330
274
100
AcDbEntity
  8
BEMASSUNG
  6
Continuous
370
    -2
100
AcDbLine
 10
673.917768258043
 20
273.3257031729494
 30
0.0
 11
628.6469138597748
 21
273.3257031729494
 31
0.0
  0
LINE
  5
277
330
274
100
AcDbEntity
  8
BEMASSUNG
  6
Continuous
370
    -2
100
AcDbLine
 10
670.9177682580429
 20
237.8257031729493
 30
0.0
 11
628.6469138597746
 21
237.8257031729493
 31
0.0
  0
LINE
  5
278
330
274
100
AcDbEntity
  8
BEMASSUNG
  6
Continuous
370
    -2
100
AcDbLine
 10
629.4469138597747
 20
267.7257031729494
 30
0.0
 11
629.4469138597746
 21
243.4257031729493
 31
0.0
  0
SOLID
  5
279
330
274
100
AcDbEntity
  8
BEMASSUNG
  6
Continuous
100
AcDbTrace
 10
628.5135805264415
 20
267.7257031729494
 30
0.0
 11
630.3802471931081
 21
267.7257031729494
 31
0.0
 12
629.4469138597747
 22
273.3257031729494
 32
0.0
 13
629.4469138597747
 23
273.3257031729494
 33
0.0
  0
SOLID
  5
27A
330
274
100
AcDbEntity
  8
BEMASSUNG
  6
Continuous
100
AcDbTrace
 10
628.5135805264412
 20
243.4257031729493
 30
0.0
 11
630.3802471931079
 21
243.4257031729493
 31
0.0
 12
629.4469138597746
 22
237.8257031729493
 32
0.0
 13
629.4469138597746
 23
237.8257031729493
 33
0.0
  0
MTEXT
  5
27B
330
274
100
AcDbEntity
  8
BEMASSUNG
  6
Continuous
 62
     3
100
AcDbMText
 10
625.0469138597748
 20
255.5757031729495
 30
0.0
 40
5.599999999999999
 41
0.0
 71
     5
 72
     1
  1
\A1;35.5
  7
NORM
 11
0.0000000000000001
 21
1.0
 31
0.0
 73
     1
 44
1.0
1001
ACAD
1000
MTEXTBEGIN
1070
    73
1070
     1
1070
    44
1040
1.0
1070
    74
1070
     0
1000
MTEXTEND
  0
POINT
  5
27C
330
274
100
AcDbEntity
  8
DEFPOINTS
  6
Continuous
 62
     0
100
AcDbPoint
 10
674.7177682580429
 20
273.3257031729494
 30
0.0
  0
POINT
  5
27D
330
274
100
AcDbEntity
  8
DEFPOINTS
  6
Continuous
 62
     0
100
AcDbPoint
 10
671.7177682580429
 20
237.8257031729493
 30
0.0
  0
POINT
  5
27E
330
274
100
AcDbEntity
  8
DEFPOINTS
  6
Continuous
 62
     0
100
AcDbPoint
 10
629.4469138597746
 20
237.8257031729493
 30
0.0
  0
ENDBLK
  5
27F
330
274
100
AcDbEntity
  8
0
100
AcDbBlockEnd
  0
BLOCK
  5
255
330
254
100
AcDbEntity
  8
0
100
AcDbBlockBegin
  2
*D9
 70
     1
 10
0.0
 20
0.0
 30
0.0
  3
*D9
  1

  0
LINE
  5
256
330
254
100
AcDbEntity
  8
BEMASSUNG
  6
Continuous
370
    -2
100
AcDbLine
 10
646.9007134780118
 20
309.8256938178408
 30
0.0
 11
628.7449827587891
 21
309.8256938178409
 31
0.0
  0
LINE
  5
257
330
254
100
AcDbEntity
  8
BEMASSUNG
  6
Continuous
370
    -2
100
AcDbLine
 10
650.9177682580439
 20
339.825693817841
 30
0.0
 11
628.7449827587891
 21
339.825693817841
 31
0.0
  0
LINE
  5
258
330
254
100
AcDbEntity
  8
BEMASSUNG
  6
Continuous
370
    -2
100
AcDbLine
 10
629.5449827587889
 20
315.4256938178409
 30
0.0
 11
629.5449827587889
 21
334.225693817841
 31
0.0
  0
MTEXT
  5
259
330
254
100
AcDbEntity
  8
BEMASSUNG
  6
Continuous
 62
     3
100
AcDbMText
 10
624.3684682836843
 20
324.8336632971279
 30
0.0
 40
5.599999999999999
 41
0.0
 71
     5
 72
     1
  1
\A1;30
  7
NORM
 11
0.0000000000000001
 21
1.0
 31
0.0
 73
     1
 44
1.0
1001
ACAD
1000
MTEXTBEGIN
1070
    73
1070
     1
1070
    44
1040
1.0
1070
    74
1070
     0
1000
MTEXTEND
  0
SOLID
  5
25A
330
254
100
AcDbEntity
  8
BEMASSUNG
  6
Continuous
100
AcDbTrace
 10
628.6116494254557
 20
315.4256938178409
 30
0.0
 11
630.4783160921222
 21
315.4256938178409
 31
0.0
 12
629.5449827587889
 22
309.8256938178409
 32
0.0
 13
629.5449827587889
 23
309.8256938178409
 33
0.0
  0
SOLID
  5
25B
330
254
100
AcDbEntity
  8
BEMASSUNG
  6
Continuous
100
AcDbTrace
 10
628.6116494254557
 20
334.225693817841
 30
0.0
 11
630.4783160921222
 21
334.225693817841
 31
0.0
 12
629.5449827587889
 22
339.825693817841
 32
0.0
 13
629.5449827587889
 23
339.825693817841
 33
0.0
  0
POINT
  5
25C
330
254
100
AcDbEntity
  8
DEFPOINTS
  6
Continuous
 62
     0
100
AcDbPoint
 10
647.7007134780118
 20
309.8256938178408
 30
0.0
  0
POINT
  5
25D
330
254
100
AcDbEntity
  8
DEFPOINTS
  6
Continuous
 62
     0
100
AcDbPoint
 10
651.7177682580437
 20
339.825693817841
 30
0.0
  0
POINT
  5
25E
330
254
100
AcDbEntity
  8
DEFPOINTS
  6
Continuous
 62
     0
100
AcDbPoint
 10
629.5449827587889
 20
339.825693817841
 30
0.0
  0
ENDBLK
  5
25F
330
254
100
AcDbEntity
  8
0
100
AcDbBlockEnd
  0
BLOCK
  5
246
330
245
100
AcDbEntity
  8
0
100
AcDbBlockBegin
  2
*D10
 70
     1
 10
0.0
 20
0.0
 30
0.0
  3
*D10
  1

  0
LINE
  5
247
330
245
100
AcDbEntity
  8
BEMASSUNG
  6
Continuous
370
    -2
100
AcDbLine
 10
673.917768258043
 20
273.3257031729494
 30
0.0
 11
628.6886086062926
 21
273.3257031729494
 31
0.0
  0
LINE
  5
248
330
245
100
AcDbEntity
  8
BEMASSUNG
  6
Continuous
370
    -2
100
AcDbLine
 10
650.9177682580439
 20
309.8256938178408
 30
0.0
 11
628.6886086062926
 21
309.8256938178409
 31
0.0
  0
LINE
  5
249
330
245
100
AcDbEntity
  8
BEMASSUNG
  6
Continuous
370
    -2
100
AcDbLine
 10
629.4886086062924
 20
278.9257031729495
 30
0.0
 11
629.4886086062924
 21
304.2256938178409
 31
0.0
  0
SOLID
  5
24A
330
245
100
AcDbEntity
  8
BEMASSUNG
  6
Continuous
100
AcDbTrace
 10
628.5552752729592
 20
278.9257031729495
 30
0.0
 11
630.4219419396257
 21
278.9257031729495
 31
0.0
 12
629.4886086062924
 22
273.3257031729494
 32
0.0
 13
629.4886086062924
 23
273.3257031729494
 33
0.0
  0
SOLID
  5
24B
330
245
100
AcDbEntity
  8
BEMASSUNG
  6
Continuous
100
AcDbTrace
 10
628.5552752729592
 20
304.2256938178409
 30
0.0
 11
630.4219419396257
 21
304.2256938178409
 31
0.0
 12
629.4886086062924
 22
309.8256938178409
 32
0.0
 13
629.4886086062924
 23
309.8256938178409
 33
0.0
  0
MTEXT
  5
24C
330
245
100
AcDbEntity
  8
BEMASSUNG
  6
Continuous
 62
     3
100
AcDbMText
 10
625.0886086062925
 20
291.5756984953952
 30
0.0
 40
5.599999999999999
 41
0.0
 71
     5
 72
     1
  1
\A1;36.5
  7
NORM
 11
0.0000000000000001
 21
1.0
 31
0.0
 73
     1
 44
1.0
1001
ACAD
1000
MTEXTBEGIN
1070
    73
1070
     1
1070
    44
1040
1.0
1070
    74
1070
     0
1000
MTEXTEND
  0
POINT
  5
24D
330
245
100
AcDbEntity
  8
DEFPOINTS
  6
Continuous
 62
     0
100
AcDbPoint
 10
674.7177682580429
 20
273.3257031729494
 30
0.0
  0
POINT
  5
24E
330
245
100
AcDbEntity
  8
DEFPOINTS
  6
Continuous
 62
     0
100
AcDbPoint
 10
651.7177682580437
 20
309.8256938178408
 30
0.0
  0
POINT
  5
24F
330
245
100
AcDbEntity
  8
DEFPOINTS
  6
Continuous
 62
     0
100
AcDbPoint
 10
629.4886086062924
 20
309.8256938178409
 30
0.0
  0
ENDBLK
  5
250
330
245
100
AcDbEntity
  8
0
100
AcDbBlockEnd
  0
BLOCK
  5
235
330
234
100
AcDbEntity
  8
0
100
AcDbBlockBegin
  2
*D11
 70
     1
 10
0.0
 20
0.0
 30
0.0
  3
*D11
  1

  0
LINE
  5
236
330
234
100
AcDbEntity
  8
BEMASSUNG
  6
Continuous
370
    -2
100
AcDbLine
 10
651.7177682580437
 20
340.625693817841
 30
0.0
 11
651.7177682580437
 21
352.3973550159063
 31
0.0
  0
LINE
  5
237
330
234
100
AcDbEntity
  8
BEMASSUNG
  6
Continuous
370
    -2
100
AcDbLine
 10
671.7177682580437
 20
351.4680153418435
 30
0.0
 11
671.7177682580437
 21
350.7973550159062
 31
0.0
  0
LINE
  5
238
330
234
100
AcDbEntity
  8
BEMASSUNG
  6
Continuous
370
    -2
100
AcDbLine
 10
657.3177682580437
 20
351.5973550159062
 30
0.0
 11
666.1177682580436
 21
351.5973550159062
 31
0.0
  0
SOLID
  5
239
330
234
100
AcDbEntity
  8
BEMASSUNG
  6
Continuous
100
AcDbTrace
 10
657.3177682580437
 20
352.5306883492397
 30
0.0
 11
657.3177682580437
 21
350.6640216825729
 31
0.0
 12
651.7177682580437
 22
351.5973550159062
 32
0.0
 13
651.7177682580437
 23
351.5973550159062
 33
0.0
  0
SOLID
  5
23A
330
234
100
AcDbEntity
  8
BEMASSUNG
  6
Continuous
100
AcDbTrace
 10
666.1177682580436
 20
352.5306883492397
 30
0.0
 11
666.1177682580436
 21
350.6640216825729
 31
0.0
 12
671.7177682580437
 22
351.5973550159062
 32
0.0
 13
671.7177682580437
 23
351.5973550159062
 33
0.0
  0
MTEXT
  5
23B
330
234
100
AcDbEntity
  8
BEMASSUNG
  6
Continuous
 62
     3
100
AcDbMText
 10
661.7177682580439
 20
355.9973550159063
 30
0.0
 40
5.599999999999999
 41
0.0
 71
     5
 72
     1
  1
\A1;20
  7
NORM
 73
     1
 44
1.0
1001
ACAD
1000
MTEXTBEGIN
1070
    73
1070
     1
1070
    44
1040
1.0
1070
    74
1070
     0
1000
MTEXTEND
  0
POINT
  5
23C
330
234
100
AcDbEntity
  8
DEFPOINTS
  6
Continuous
 62
     0
100
AcDbPoint
 10
651.7177682580437
 20
339.825693817841
 30
0.0
  0
POINT
  5
23D
330
234
100
AcDbEntity
  8
DEFPOINTS
  6
Continuous
 62
     0
100
AcDbPoint
 10
671.7177682580437
 20
352.2680153418435
 30
0.0
  0
POINT
  5
23E
330
234
100
AcDbEntity
  8
DEFPOINTS
  6
Continuous
 62
     0
100
AcDbPoint
 10
671.7177682580437
 20
351.5973550159062
 30
0.0
  0
ENDBLK
  5
23F
330
234
100
AcDbEntity
  8
0
100
AcDbBlockEnd
  0
BLOCK
  5
221
330
220
100
AcDbEntity
  8
0
100
AcDbBlockBegin
  2
*D12
 70
     1
 10
0.0
 20
0.0
 30
0.0
  3
*D12
  1

  0
LINE
  5
222
330
220
100
AcDbEntity
  8
BEMASSUNG
  6
Continuous
370
    -2
100
AcDbLine
 10
840.5495986363435
 20
246.8257031729495
 30
0.0
 11
823.5261967821431
 21
246.8257031729495
 31
0.0
  0
LINE
  5
223
330
220
100
AcDbEntity
  8
BEMASSUNG
  6
Continuous
370
    -2
100
AcDbLine
 10
847.2995986363434
 20
237.8257031729495
 30
0.0
 11
823.5261967821431
 21
237.8257031729495
 31
0.0
  0
LINE
  5
224
330
220
100
AcDbEntity
  8
BEMASSUNG
  6
Continuous
370
    -2
100
AcDbLine
 10
824.3261967821432
 20
252.4257031729495
 30
0.0
 11
824.3261967821432
 21
258.0257031729495
 31
0.0
  0
LINE
  5
225
330
220
100
AcDbEntity
  8
BEMASSUNG
  6
Continuous
370
    -2
100
AcDbLine
 10
824.3261967821432
 20
232.2257031729495
 30
0.0
 11
824.3261967821432
 21
226.6257031729495
 31
0.0
  0
MTEXT
  5
226
330
220
100
AcDbEntity
  8
BEMASSUNG
  6
Continuous
 62
     3
100
AcDbMText
 10
819.7757549939305
 20
242.5512227246621
 30
0.0
 40
5.599999999999999
 41
0.0
 71
     5
 72
     1
  1
\A1;9
  7
NORM
 11
0.0000000000000001
 21
1.0
 31
0.0
 73
     1
 44
1.0
1001
ACAD
1000
MTEXTBEGIN
1070
    73
1070
     1
1070
    44
1040
1.0
1070
    74
1070
     0
1000
MTEXTEND
  0
LINE
  5
227
330
220
100
AcDbEntity
  8
BEMASSUNG
  6
Continuous
370
    -2
100
AcDbLine
 10
824.3261967821432
 20
246.8257031729495
 30
0.0
 11
824.3261967821432
 21
237.8257031729495
 31
0.0
  0
SOLID
  5
228
330
220
100
AcDbEntity
  8
BEMASSUNG
  6
Continuous
100
AcDbTrace
 10
823.3928634488098
 20
252.4257031729495
 30
0.0
 11
825.2595301154764
 21
252.4257031729495
 31
0.0
 12
824.3261967821432
 22
246.8257031729495
 32
0.0
 13
824.3261967821432
 23
246.8257031729495
 33
0.0
  0
SOLID
  5
229
330
220
100
AcDbEntity
  8
BEMASSUNG
  6
Continuous
100
AcDbTrace
 10
823.3928634488098
 20
232.2257031729495
 30
0.0
 11
825.2595301154764
 21
232.2257031729495
 31
0.0
 12
824.3261967821432
 22
237.8257031729495
 32
0.0
 13
824.3261967821432
 23
237.8257031729495
 33
0.0
  0
POINT
  5
22A
330
220
100
AcDbEntity
  8
DEFPOINTS
  6
Continuous
 62
     0
100
AcDbPoint
 10
841.3495986363432
 20
246.8257031729495
 30
0.0
  0
POINT
  5
22B
330
220
100
AcDbEntity
  8
DEFPOINTS
  6
Continuous
 62
     0
100
AcDbPoint
 10
848.0995986363435
 20
237.8257031729495
 30
0.0
  0
POINT
  5
22C
330
220
100
AcDbEntity
  8
DEFPOINTS
  6
Continuous
 62
     0
100
AcDbPoint
 10
824.3261967821432
 20
237.8257031729495
 30
0.0
  0
ENDBLK
  5
22D
330
220
100
AcDbEntity
  8
0
100
AcDbBlockEnd
  0
BLOCK
  5
20C
330
20B
100
AcDbEntity
  8
0
100
AcDbBlockBegin
  2
*D13
 70
     1
 10
0.0
 20
0.0
 30
0.0
  3
*D13
  1

  0
LINE
  5
20D
330
20B
100
AcDbEntity
  8
BEMASSUNG
  6
Continuous
370
    -2
100
AcDbLine
 10
761.5177682580387
 20
186.3455282659028
 30
0.0
 11
788.4822426111584
 21
186.3455282659028
 31
0.0
  0
LINE
  5
20E
330
20B
100
AcDbEntity
  8
BEMASSUNG
  6
Continuous
370
    -2
100
AcDbLine
 10
761.5177682580387
 20
173.145528265903
 30
0.0
 11
788.4822426111584
 21
173.145528265903
 31
0.0
  0
LINE
  5
20F
330
20B
100
AcDbEntity
  8
BEMASSUNG
  6
Continuous
370
    -2
100
AcDbLine
 10
787.6822426111584
 20
191.9455282659028
 30
0.0
 11
787.6822426111584
 21
197.5455282659028
 31
0.0
  0
LINE
  5
210
330
20B
100
AcDbEntity
  8
BEMASSUNG
  6
Continuous
370
    -2
100
AcDbLine
 10
787.6822426111584
 20
167.545528265903
 30
0.0
 11
787.6822426111584
 21
161.945528265903
 31
0.0
  0
MTEXT
  5
211
330
20B
100
AcDbEntity
  8
BEMASSUNG
  6
Continuous
 62
     3
100
AcDbMText
 10
783.0442811680485
 20
159.0862364379065
 30
0.0
 40
5.599999999999999
 41
0.0
 71
     5
 72
     1
  1
\A1;13.2
  7
NORM
 11
0.0000000000000001
 21
1.0
 31
0.0
 73
     1
 44
1.0
1001
ACAD
1000
MTEXTBEGIN
1070
    73
1070
     1
1070
    44
1040
1.0
1070
    74
1070
     0
1000
MTEXTEND
  0
LINE
  5
212
330
20B
100
AcDbEntity
  8
BEMASSUNG
  6
Continuous
370
    -2
100
AcDbLine
 10
787.6822426111584
 20
186.3455282659028
 30
0.0
 11
787.6822426111584
 21
173.145528265903
 31
0.0
  0
SOLID
  5
213
330
20B
100
AcDbEntity
  8
BEMASSUNG
  6
Continuous
100
AcDbTrace
 10
786.7489092778251
 20
191.9455282659028
 30
0.0
 11
788.6155759444918
 21
191.9455282659028
 31
0.0
 12
787.6822426111584
 22
186.3455282659028
 32
0.0
 13
787.6822426111584
 23
186.3455282659028
 33
0.0
  0
SOLID
  5
214
330
20B
100
AcDbEntity
  8
BEMASSUNG
  6
Continuous
100
AcDbTrace
 10
786.7489092778251
 20
167.545528265903
 30
0.0
 11
788.6155759444918
 21
167.545528265903
 31
0.0
 12
787.6822426111584
 22
173.145528265903
 32
0.0
 13
787.6822426111584
 23
173.145528265903
 33
0.0
  0
POINT
  5
215
330
20B
100
AcDbEntity
  8
DEFPOINTS
  6
Continuous
 62
     0
100
AcDbPoint
 10
760.7177682580387
 20
186.3455282659028
 30
0.0
  0
POINT
  5
216
330
20B
100
AcDbEntity
  8
DEFPOINTS
  6
Continuous
 62
     0
100
AcDbPoint
 10
760.7177682580387
 20
173.145528265903
 30
0.0
  0
POINT
  5
217
330
20B
100
AcDbEntity
  8
DEFPOINTS
  6
Continuous
 62
     0
100
AcDbPoint
 10
787.6822426111584
 20
173.145528265903
 30
0.0
  0
ENDBLK
  5
218
330
20B
100
AcDbEntity
  8
0
100
AcDbBlockEnd
  0
BLOCK
  5
1F6
330
1F5
100
AcDbEntity
  8
0
100
AcDbBlockBegin
  2
*D14
 70
     1
 10
0.0
 20
0.0
 30
0.0
  3
*D14
  1

  0
LINE
  5
1F7
330
1F5
100
AcDbEntity
  8
BEMASSUNG
  6
Continuous
370
    -2
100
AcDbLine
 10
838.0995986363434
 20
333.0080261281289
 30
0.0
 11
838.0995986363434
 21
334.6098527546962
 31
0.0
  0
LINE
  5
1F8
330
1F5
100
AcDbEntity
  8
BEMASSUNG
  6
Continuous
370
    -2
100
AcDbLine
 10
841.7995986363436
 20
333.8287434423565
 30
0.0
 11
841.7995986363436
 21
333.0098527546962
 31
0.0
  0
LINE
  5
1F9
330
1F5
100
AcDbEntity
  8
BEMASSUNG
  6
Continuous
370
    -2
100
AcDbLine
 10
832.4995986363434
 20
333.8098527546962
 30
0.0
 11
826.8995986363432
 21
333.8098527546962
 31
0.0
  0
LINE
  5
1FA
330
1F5
100
AcDbEntity
  8
BEMASSUNG
  6
Continuous
370
    -2
100
AcDbLine
 10
847.3995986363437
 20
333.8098527546962
 30
0.0
 11
852.9995986363436
 21
333.8098527546962
 31
0.0
  0
MTEXT
  5
1FB
330
1F5
100
AcDbEntity
  8
BEMASSUNG
  6
Continuous
 62
     3
100
AcDbMText
 10
827.876750497499
 20
338.0322285700748
 30
0.0
 40
5.599999999999999
 41
0.0
 71
     5
 72
     1
  1
\A1;3.7
  7
NORM
 73
     1
 44
1.0
1001
ACAD
1000
MTEXTBEGIN
1070
    73
1070
     1
1070
    44
1040
1.0
1070
    74
1070
     0
1000
MTEXTEND
  0
LINE
  5
1FC
330
1F5
100
AcDbEntity
  8
BEMASSUNG
  6
Continuous
370
    -2
100
AcDbLine
 10
838.0995986363434
 20
333.8098527546962
 30
0.0
 11
841.7995986363436
 21
333.8098527546962
 31
0.0
  0
SOLID
  5
1FD
330
1F5
100
AcDbEntity
  8
BEMASSUNG
  6
Continuous
100
AcDbTrace
 10
832.4995986363434
 20
334.7431860880295
 30
0.0
 11
832.4995986363434
 21
332.8765194213628
 31
0.0
 12
838.0995986363434
 22
333.8098527546962
 32
0.0
 13
838.0995986363434
 23
333.8098527546962
 33
0.0
  0
SOLID
  5
1FE
330
1F5
100
AcDbEntity
  8
BEMASSUNG
  6
Continuous
100
AcDbTrace
 10
847.3995986363437
 20
334.7431860880295
 30
0.0
 11
847.3995986363437
 21
332.8765194213628
 31
0.0
 12
841.7995986363436
 22
333.8098527546962
 32
0.0
 13
841.7995986363436
 23
333.8098527546962
 33
0.0
  0
POINT
  5
1FF
330
1F5
100
AcDbEntity
  8
DEFPOINTS
  6
Continuous
 62
     0
100
AcDbPoint
 10
838.0995986363434
 20
332.2080261281288
 30
0.0
  0
POINT
  5
200
330
1F5
100
AcDbEntity
  8
DEFPOINTS
  6
Continuous
 62
     0
100
AcDbPoint
 10
841.7995986363436
 20
334.6287434423567
 30
0.0
  0
POINT
  5
201
330
1F5
100
AcDbEntity
  8
DEFPOINTS
  6
Continuous
 62
     0
100
AcDbPoint
 10
841.7995986363436
 20
333.8098527546962
 30
0.0
  0
ENDBLK
  5
202
330
1F5
100
AcDbEntity
  8
0
100
AcDbBlockEnd
  0
BLOCK
  5
1E6
330
1E5
100
AcDbEntity
  8
0
100
AcDbBlockBegin
  2
*D15
 70
     1
 10
0.0
 20
0.0
 30
0.0
  3
*D15
  1

  0
LINE
  5
1E7
330
1E5
100
AcDbEntity
  8
BEMASSUNG
  6
Continuous
370
    -2
100
AcDbLine
 10
745.3929975253227
 20
302.8257031729497
 30
0.0
 11
787.7252966284373
 21
302.8257031729497
 31
0.0
  0
LINE
  5
1E8
330
1E5
100
AcDbEntity
  8
BEMASSUNG
  6
Continuous
370
    -2
100
AcDbLine
 10
743.7177682580432
 20
273.3257031729494
 30
0.0
 11
787.7252966284373
 21
273.3257031729494
 31
0.0
  0
LINE
  5
1E9
330
1E5
100
AcDbEntity
  8
BEMASSUNG
  6
Continuous
370
    -2
100
AcDbLine
 10
786.9252966284375
 20
297.2257031729496
 30
0.0
 11
786.9252966284375
 21
278.9257031729494
 31
0.0
  0
SOLID
  5
1EA
330
1E5
100
AcDbEntity
  8
BEMASSUNG
  6
Continuous
100
AcDbTrace
 10
785.9919632951042
 20
297.2257031729496
 30
0.0
 11
787.8586299617708
 21
297.2257031729496
 31
0.0
 12
786.9252966284375
 22
302.8257031729497
 32
0.0
 13
786.9252966284375
 23
302.8257031729497
 33
0.0
  0
SOLID
  5
1EB
330
1E5
100
AcDbEntity
  8
BEMASSUNG
  6
Continuous
100
AcDbTrace
 10
785.9919632951042
 20
278.9257031729494
 30
0.0
 11
787.8586299617708
 21
278.9257031729494
 31
0.0
 12
786.9252966284375
 22
273.3257031729494
 32
0.0
 13
786.9252966284375
 23
273.3257031729494
 33
0.0
  0
MTEXT
  5
1EC
330
1E5
100
AcDbEntity
  8
BEMASSUNG
  6
Continuous
 62
     3
100
AcDbMText
 10
782.5252966284375
 20
288.0757031729497
 30
0.0
 40
5.599999999999999
 41
0.0
 71
     5
 72
     1
  1
\A1;29.5
  7
NORM
 11
0.0000000000000001
 21
1.0
 31
0.0
 73
     1
 44
1.0
1001
ACAD
1000
MTEXTBEGIN
1070
    73
1070
     1
1070
    44
1040
1.0
1070
    74
1070
     0
1000
MTEXTEND
  0
POINT
  5
1ED
330
1E5
100
AcDbEntity
  8
DEFPOINTS
  6
Continuous
 62
     0
100
AcDbPoint
 10
744.5929975253227
 20
302.8257031729497
 30
0.0
  0
POINT
  5
1EE
330
1E5
100
AcDbEntity
  8
DEFPOINTS
  6
Continuous
 62
     0
100
AcDbPoint
 10
742.9177682580432
 20
273.3257031729494
 30
0.0
  0
POINT
  5
1EF
330
1E5
100
AcDbEntity
  8
DEFPOINTS
  6
Continuous
 62
     0
100
AcDbPoint
 10
786.9252966284375
 20
273.3257031729494
 30
0.0
  0
ENDBLK
  5
1F0
330
1E5
100
AcDbEntity
  8
0
100
AcDbBlockEnd
  0
BLOCK
  5
1A3
330
1A2
100
AcDbEntity
  8
0
100
AcDbBlockBegin
  2
*D16
 70
     1
 10
0.0
 20
0.0
 30
0.0
  3
*D16
  1

  0
LINE
  5
1A4
330
1A2
100
AcDbEntity
  8
BEMASSUNG
  6
Continuous
370
    -2
100
AcDbLine
 10
841.7995986363436
 20
308.9257031729498
 30
0.0
 11
841.7995986363436
 21
298.2902232710945
 31
0.0
  0
LINE
  5
1A5
330
1A2
100
AcDbEntity
  8
BEMASSUNG
  6
Continuous
370
    -2
100
AcDbLine
 10
849.2995986363435
 20
308.9257031729498
 30
0.0
 11
849.2995986363435
 21
298.2902232710945
 31
0.0
  0
LINE
  5
1A6
330
1A2
100
AcDbEntity
  8
BEMASSUNG
  6
Continuous
370
    -2
100
AcDbLine
 10
836.1995986363437
 20
299.0902232710945
 30
0.0
 11
830.5995986363436
 21
299.0902232710945
 31
0.0
  0
LINE
  5
1A7
330
1A2
100
AcDbEntity
  8
BEMASSUNG
  6
Continuous
370
    -2
100
AcDbLine
 10
854.8995986363435
 20
299.0902232710945
 30
0.0
 11
860.4995986363435
 21
299.0902232710945
 31
0.0
  0
MTEXT
  5
1A8
330
1A2
100
AcDbEntity
  8
BEMASSUNG
  6
Continuous
 62
     3
100
AcDbMText
 10
828.9264176951437
 20
306.9242233716364
 30
0.0
 40
5.599999999999999
 41
0.0
 71
     5
 72
     1
  1
\A1;7.5
  7
NORM
 73
     1
 44
1.0
1001
ACAD
1000
MTEXTBEGIN
1070
    73
1070
     1
1070
    44
1040
1.0
1070
    74
1070
     0
1000
MTEXTEND
  0
LINE
  5
1A9
330
1A2
100
AcDbEntity
  8
BEMASSUNG
  6
Continuous
370
    -2
100
AcDbLine
 10
841.7995986363436
 20
299.0902232710945
 30
0.0
 11
849.2995986363435
 21
299.0902232710945
 31
0.0
  0
SOLID
  5
1AA
330
1A2
100
AcDbEntity
  8
BEMASSUNG
  6
Continuous
100
AcDbTrace
 10
836.1995986363437
 20
300.0235566044278
 30
0.0
 11
836.1995986363437
 21
298.1568899377612
 31
0.0
 12
841.7995986363436
 22
299.0902232710945
 32
0.0
 13
841.7995986363436
 23
299.0902232710945
 33
0.0
  0
SOLID
  5
1AB
330
1A2
100
AcDbEntity
  8
BEMASSUNG
  6
Continuous
100
AcDbTrace
 10
854.8995986363435
 20
300.0235566044278
 30
0.0
 11
854.8995986363435
 21
298.1568899377612
 31
0.0
 12
849.2995986363435
 22
299.0902232710945
 32
0.0
 13
849.2995986363435
 23
299.0902232710945
 33
0.0
  0
POINT
  5
1AC
330
1A2
100
AcDbEntity
  8
DEFPOINTS
  6
Continuous
 62
     0
100
AcDbPoint
 10
841.7995986363436
 20
309.7257031729498
 30
0.0
  0
POINT
  5
1AD
330
1A2
100
AcDbEntity
  8
DEFPOINTS
  6
Continuous
 62
     0
100
AcDbPoint
 10
849.2995986363435
 20
309.7257031729498
 30
0.0
  0
POINT
  5
1AE
330
1A2
100
AcDbEntity
  8
DEFPOINTS
  6
Continuous
 62
     0
100
AcDbPoint
 10
849.2995986363435
 20
299.0902232710945
 30
0.0
  0
ENDBLK
  5
1AF
330
1A2
100
AcDbEntity
  8
0
100
AcDbBlockEnd
  0
BLOCK
  5
192
330
191
100
AcDbEntity
  8
0
100
AcDbBlockBegin
  2
*D17
 70
     1
 10
0.0
 20
0.0
 30
0.0
  3
*D17
  1

  0
LINE
  5
193
330
191
100
AcDbEntity
  8
BEMASSUNG
  6
Continuous
370
    -2
100
AcDbLine
 10
676.5177856898157
 20
402.8256938178413
 30
0.0
 11
704.5910097316981
 21
402.8256938178413
 31
0.0
  0
LINE
  5
194
330
191
100
AcDbEntity
  8
BEMASSUNG
  6
Continuous
370
    -2
100
AcDbLine
 10
707.3177682580435
 20
380.8257031729502
 30
0.0
 11
702.9910097316983
 21
380.8257031729502
 31
0.0
  0
LINE
  5
195
330
191
100
AcDbEntity
  8
BEMASSUNG
  6
Continuous
370
    -2
100
AcDbLine
 10
703.7910097316983
 20
397.2256938178413
 30
0.0
 11
703.7910097316983
 21
386.4257031729502
 31
0.0
  0
SOLID
  5
196
330
191
100
AcDbEntity
  8
BEMASSUNG
  6
Continuous
100
AcDbTrace
 10
702.8576763983647
 20
397.2256938178413
 30
0.0
 11
704.7243430650314
 21
397.2256938178413
 31
0.0
 12
703.7910097316983
 22
402.8256938178413
 32
0.0
 13
703.7910097316983
 23
402.8256938178413
 33
0.0
  0
SOLID
  5
197
330
191
100
AcDbEntity
  8
BEMASSUNG
  6
Continuous
100
AcDbTrace
 10
702.8576763983647
 20
386.4257031729502
 30
0.0
 11
704.7243430650314
 21
386.4257031729502
 31
0.0
 12
703.7910097316983
 22
380.8257031729502
 32
0.0
 13
703.7910097316983
 23
380.8257031729502
 33
0.0
  0
MTEXT
  5
198
330
191
100
AcDbEntity
  8
BEMASSUNG
  6
Continuous
 62
     3
100
AcDbMText
 10
699.3910097316979
 20
391.8256984953959
 30
0.0
 40
5.599999999999999
 41
0.0
 71
     5
 72
     1
  1
\A1;22
  7
NORM
 11
0.0000000000000001
 21
1.0
 31
0.0
 73
     1
 44
1.0
1001
ACAD
1000
MTEXTBEGIN
1070
    73
1070
     1
1070
    44
1040
1.0
1070
    74
1070
     0
1000
MTEXTEND
  0
POINT
  5
199
330
191
100
AcDbEntity
  8
DEFPOINTS
  6
Continuous
 62
     0
100
AcDbPoint
 10
675.7177856898159
 20
402.8256938178413
 30
0.0
  0
POINT
  5
19A
330
191
100
AcDbEntity
  8
DEFPOINTS
  6
Continuous
 62
     0
100
AcDbPoint
 10
708.1177682580435
 20
380.8257031729502
 30
0.0
  0
POINT
  5
19B
330
191
100
AcDbEntity
  8
DEFPOINTS
  6
Continuous
 62
     0
100
AcDbPoint
 10
703.7910097316983
 20
380.8257031729502
 30
0.0
  0
ENDBLK
  5
19C
330
191
100
AcDbEntity
  8
0
100
AcDbBlockEnd
  0
BLOCK
  5
183
330
182
100
AcDbEntity
  8
0
100
AcDbBlockBegin
  2
*D18
 70
     1
 10
0.0
 20
0.0
 30
0.0
  3
*D18
  1

  0
LINE
  5
184
330
182
100
AcDbEntity
  8
BEMASSUNG
  6
Continuous
370
    -2
100
AcDbLine
 10
661.7177856898157
 20
418.6256938178415
 30
0.0
 11
661.7177856898157
 21
423.7024932998393
 31
0.0
  0
LINE
  5
185
330
182
100
AcDbEntity
  8
BEMASSUNG
  6
Continuous
370
    -2
100
AcDbLine
 10
671.7177682580438
 20
424.7851346035893
 30
0.0
 11
671.7177682580438
 21
422.1024932998393
 31
0.0
  0
LINE
  5
186
330
182
100
AcDbEntity
  8
BEMASSUNG
  6
Continuous
370
    -2
100
AcDbLine
 10
656.1177856898157
 20
422.9024932998393
 30
0.0
 11
650.5177856898157
 21
422.9024932998393
 31
0.0
  0
LINE
  5
187
330
182
100
AcDbEntity
  8
BEMASSUNG
  6
Continuous
370
    -2
100
AcDbLine
 10
677.3177682580438
 20
422.9024932998393
 30
0.0
 11
682.917768258044
 21
422.9024932998393
 31
0.0
  0
LINE
  5
188
330
182
100
AcDbEntity
  8
BEMASSUNG
  6
Continuous
370
    -2
100
AcDbLine
 10
661.7177856898157
 20
422.9024932998393
 30
0.0
 11
671.7177682580438
 21
422.9024932998393
 31
0.0
  0
SOLID
  5
189
330
182
100
AcDbEntity
  8
BEMASSUNG
  6
Continuous
100
AcDbTrace
 10
656.1177856898157
 20
423.8358266331726
 30
0.0
 11
656.1177856898157
 21
421.9691599665059
 31
0.0
 12
661.7177856898157
 22
422.9024932998393
 32
0.0
 13
661.7177856898157
 23
422.9024932998393
 33
0.0
  0
SOLID
  5
18A
330
182
100
AcDbEntity
  8
BEMASSUNG
  6
Continuous
100
AcDbTrace
 10
677.3177682580438
 20
423.8358266331726
 30
0.0
 11
677.3177682580438
 21
421.9691599665059
 31
0.0
 12
671.7177682580438
 22
422.9024932998393
 32
0.0
 13
671.7177682580438
 23
422.9024932998393
 33
0.0
  0
MTEXT
  5
18B
330
182
100
AcDbEntity
  8
BEMASSUNG
  6
Continuous
 62
     3
100
AcDbMText
 10
666.7177769739297
 20
427.3024932998391
 30
0.0
 40
5.599999999999999
 41
0.0
 71
     5
 72
     1
  1
\A1;10
  7
NORM
 73
     1
 44
1.0
1001
ACAD
1000
MTEXTBEGIN
1070
    73
1070
     1
1070
    44
1040
1.0
1070
    74
1070
     0
1000
MTEXTEND
  0
POINT
  5
18C
330
182
100
AcDbEntity
  8
DEFPOINTS
  6
Continuous
 62
     0
100
AcDbPoint
 10
661.7177856898157
 20
417.8256938178415
 30
0.0
  0
POINT
  5
18D
330
182
100
AcDbEntity
  8
DEFPOINTS
  6
Continuous
 62
     0
100
AcDbPoint
 10
671.7177682580438
 20
425.5851346035893
 30
0.0
  0
POINT
  5
18E
330
182
100
AcDbEntity
  8
DEFPOINTS
  6
Continuous
 62
     0
100
AcDbPoint
 10
671.7177682580438
 20
422.9024932998393
 30
0.0
  0
ENDBLK
  5
18F
330
182
100
AcDbEntity
  8
0
100
AcDbBlockEnd
  0
BLOCK
  5
174
330
173
100
AcDbEntity
  8
0
100
AcDbBlockBegin
  2
*D19
 70
     1
 10
0.0
 20
0.0
 30
0.0
  3
*D19
  1

  0
LINE
  5
175
330
173
100
AcDbEntity
  8
BEMASSUNG
  6
Continuous
370
    -2
100
AcDbLine
 10
656.9007309097838
 20
417.8256938178415
 30
0.0
 11
628.750577195039
 21
417.8256938178416
 31
0.0
  0
LINE
  5
176
330
173
100
AcDbEntity
  8
BEMASSUNG
  6
Continuous
370
    -2
100
AcDbLine
 10
669.9007134780095
 20
432.3257031729491
 30
0.0
 11
628.750577195039
 21
432.3257031729491
 31
0.0
  0
LINE
  5
177
330
173
100
AcDbEntity
  8
BEMASSUNG
  6
Continuous
370
    -2
100
AcDbLine
 10
629.5505771950389
 20
412.2256938178415
 30
0.0
 11
629.5505771950389
 21
406.6256938178415
 31
0.0
  0
LINE
  5
178
330
173
100
AcDbEntity
  8
BEMASSUNG
  6
Continuous
370
    -2
100
AcDbLine
 10
629.5505771950389
 20
437.9257031729492
 30
0.0
 11
629.5505771950389
 21
443.5257031729491
 31
0.0
  0
LINE
  5
179
330
173
100
AcDbEntity
  8
BEMASSUNG
  6
Continuous
370
    -2
100
AcDbLine
 10
629.5505771950389
 20
417.8256938178416
 30
0.0
 11
629.5505771950389
 21
432.3257031729491
 31
0.0
  0
SOLID
  5
17A
330
173
100
AcDbEntity
  8
BEMASSUNG
  6
Continuous
100
AcDbTrace
 10
628.6172438617056
 20
412.2256938178415
 30
0.0
 11
630.4839105283722
 21
412.2256938178415
 31
0.0
 12
629.5505771950389
 22
417.8256938178416
 32
0.0
 13
629.5505771950389
 23
417.8256938178416
 33
0.0
  0
SOLID
  5
17B
330
173
100
AcDbEntity
  8
BEMASSUNG
  6
Continuous
100
AcDbTrace
 10
628.6172438617056
 20
437.9257031729492
 30
0.0
 11
630.4839105283722
 21
437.9257031729492
 31
0.0
 12
629.5505771950389
 22
432.3257031729491
 32
0.0
 13
629.5505771950389
 23
432.3257031729491
 33
0.0
  0
MTEXT
  5
17C
330
173
100
AcDbEntity
  8
BEMASSUNG
  6
Continuous
 62
     3
100
AcDbMText
 10
625.1505771950387
 20
425.0756984953953
 30
0.0
 40
5.599999999999999
 41
0.0
 71
     5
 72
     1
  1
\A1;14.5
  7
NORM
 11
0.0000000000000001
 21
1.0
 31
0.0
 73
     1
 44
1.0
1001
ACAD
1000
MTEXTBEGIN
1070
    73
1070
     1
1070
    44
1040
1.0
1070
    74
1070
     0
1000
MTEXTEND
  0
POINT
  5
17D
330
173
100
AcDbEntity
  8
DEFPOINTS
  6
Continuous
 62
     0
100
AcDbPoint
 10
657.7007309097838
 20
417.8256938178415
 30
0.0
  0
POINT
  5
17E
330
173
100
AcDbEntity
  8
DEFPOINTS
  6
Continuous
 62
     0
100
AcDbPoint
 10
670.7007134780093
 20
432.3257031729491
 30
0.0
  0
POINT
  5
17F
330
173
100
AcDbEntity
  8
DEFPOINTS
  6
Continuous
 62
     0
100
AcDbPoint
 10
629.5505771950389
 20
432.3257031729491
 30
0.0
  0
ENDBLK
  5
180
330
173
100
AcDbEntity
  8
0
100
AcDbBlockEnd
  0
BLOCK
  5
167
330
166
100
AcDbEntity
  8
0
100
AcDbBlockBegin
  2
*D20
 70
     1
 10
0.0
 20
0.0
 30
0.0
  3
*D20
  1

  0
LINE
  5
168
330
166
100
AcDbEntity
  8
BEMASSUNG
  6
Continuous
370
    -2
100
AcDbLine
 10
660.9177856898159
 20
387.8256938178413
 30
0.0
 11
628.754170310963
 21
387.8256938178413
 31
0.0
  0
LINE
  5
169
330
166
100
AcDbEntity
  8
BEMASSUNG
  6
Continuous
370
    -2
100
AcDbLine
 10
660.9177856898159
 20
417.8256938178413
 30
0.0
 11
628.754170310963
 21
417.8256938178415
 31
0.0
  0
LINE
  5
16A
330
166
100
AcDbEntity
  8
BEMASSUNG
  6
Continuous
370
    -2
100
AcDbLine
 10
629.5541703109629
 20
393.4256938178414
 30
0.0
 11
629.5541703109629
 21
412.2256938178415
 31
0.0
  0
MTEXT
  5
16B
330
166
100
AcDbEntity
  8
BEMASSUNG
  6
Continuous
 62
     3
100
AcDbMText
 10
624.3768318574942
 20
402.2373330204517
 30
0.0
 40
5.599999999999999
 41
0.0
 71
     5
 72
     1
  1
\A1;30
  7
NORM
 11
0.0000000000000001
 21
1.0
 31
0.0
 73
     1
 44
1.0
1001
ACAD
1000
MTEXTBEGIN
1070
    73
1070
     1
1070
    44
1040
1.0
1070
    74
1070
     0
1000
MTEXTEND
  0
SOLID
  5
16C
330
166
100
AcDbEntity
  8
BEMASSUNG
  6
Continuous
100
AcDbTrace
 10
628.6208369776296
 20
393.4256938178414
 30
0.0
 11
630.4875036442962
 21
393.4256938178414
 31
0.0
 12
629.5541703109629
 22
387.8256938178413
 32
0.0
 13
629.5541703109629
 23
387.8256938178413
 33
0.0
  0
SOLID
  5
16D
330
166
100
AcDbEntity
  8
BEMASSUNG
  6
Continuous
100
AcDbTrace
 10
628.6208369776296
 20
412.2256938178415
 30
0.0
 11
630.4875036442962
 21
412.2256938178415
 31
0.0
 12
629.5541703109629
 22
417.8256938178415
 32
0.0
 13
629.5541703109629
 23
417.8256938178415
 33
0.0
  0
POINT
  5
16E
330
166
100
AcDbEntity
  8
DEFPOINTS
  6
Continuous
 62
     0
100
AcDbPoint
 10
661.7177856898157
 20
387.8256938178413
 30
0.0
  0
POINT
  5
16F
330
166
100
AcDbEntity
  8
DEFPOINTS
  6
Continuous
 62
     0
100
AcDbPoint
 10
661.7177856898157
 20
417.8256938178413
 30
0.0
  0
POINT
  5
170
330
166
100
AcDbEntity
  8
DEFPOINTS
  6
Continuous
 62
     0
100
AcDbPoint
 10
629.5541703109629
 20
417.8256938178415
 30
0.0
  0
ENDBLK
  5
171
330
166
100
AcDbEntity
  8
0
100
AcDbBlockEnd
  0
BLOCK
  5
13F
330
13E
100
AcDbEntity
  8
0
100
AcDbBlockBegin
  2
*D21
 70
     1
 10
0.0
 20
0.0
 30
0.0
  3
*D21
  1

  0
LINE
  5
140
330
13E
100
AcDbEntity
  8
BEMASSUNG
  6
Continuous
370
    -2
100
AcDbLine
 10
670.9177682580433
 20
467.8257031729489
 30
0.0
 11
628.6752269942422
 21
467.8257031729491
 31
0.0
  0
LINE
  5
141
330
13E
100
AcDbEntity
  8
BEMASSUNG
  6
Continuous
370
    -2
100
AcDbLine
 10
673.9177682580416
 20
432.3257031729491
 30
0.0
 11
628.6752269942422
 21
432.3257031729491
 31
0.0
  0
LINE
  5
142
330
13E
100
AcDbEntity
  8
BEMASSUNG
  6
Continuous
370
    -2
100
AcDbLine
 10
629.4752269942422
 20
462.225703172949
 30
0.0
 11
629.4752269942422
 21
437.9257031729492
 31
0.0
  0
SOLID
  5
143
330
13E
100
AcDbEntity
  8
BEMASSUNG
  6
Continuous
100
AcDbTrace
 10
628.5418936609089
 20
462.225703172949
 30
0.0
 11
630.4085603275756
 21
462.225703172949
 31
0.0
 12
629.4752269942422
 22
467.8257031729491
 32
0.0
 13
629.4752269942422
 23
467.8257031729491
 33
0.0
  0
SOLID
  5
144
330
13E
100
AcDbEntity
  8
BEMASSUNG
  6
Continuous
100
AcDbTrace
 10
628.5418936609089
 20
437.9257031729492
 30
0.0
 11
630.4085603275756
 21
437.9257031729492
 31
0.0
 12
629.4752269942422
 22
432.3257031729491
 32
0.0
 13
629.4752269942422
 23
432.3257031729491
 33
0.0
  0
MTEXT
  5
145
330
13E
100
AcDbEntity
  8
BEMASSUNG
  6
Continuous
 62
     3
100
AcDbMText
 10
625.0752269942422
 20
450.0757031729492
 30
0.0
 40
5.599999999999999
 41
0.0
 71
     5
 72
     1
  1
\A1;35.5
  7
NORM
 11
0.0000000000000001
 21
1.0
 31
0.0
 73
     1
 44
1.0
1001
ACAD
1000
MTEXTBEGIN
1070
    73
1070
     1
1070
    44
1040
1.0
1070
    74
1070
     0
1000
MTEXTEND
  0
POINT
  5
146
330
13E
100
AcDbEntity
  8
DEFPOINTS
  6
Continuous
 62
     0
100
AcDbPoint
 10
671.7177682580434
 20
467.8257031729489
 30
0.0
  0
POINT
  5
147
330
13E
100
AcDbEntity
  8
DEFPOINTS
  6
Continuous
 62
     0
100
AcDbPoint
 10
674.7177682580415
 20
432.3257031729491
 30
0.0
  0
POINT
  5
148
330
13E
100
AcDbEntity
  8
DEFPOINTS
  6
Continuous
 62
     0
100
AcDbPoint
 10
629.4752269942422
 20
432.3257031729491
 30
0.0
  0
ENDBLK
  5
149
330
13E
100
AcDbEntity
  8
0
100
AcDbBlockEnd
  0
BLOCK
  5
12E
330
12D
100
AcDbEntity
  8
0
100
AcDbBlockBegin
  2
*D22
 70
     1
 10
0.0
 20
0.0
 30
0.0
  3
*D22
  1

  0
LINE
  5
12F
330
12D
100
AcDbEntity
  8
BEMASSUNG
  6
Continuous
370
    -2
100
AcDbLine
 10
840.5495986363435
 20
458.8257031729491
 30
0.0
 11
823.536328234414
 21
458.8257031729491
 31
0.0
  0
LINE
  5
130
330
12D
100
AcDbEntity
  8
BEMASSUNG
  6
Continuous
370
    -2
100
AcDbLine
 10
847.2995986363434
 20
467.8257031729491
 30
0.0
 11
823.536328234414
 21
467.8257031729491
 31
0.0
  0
LINE
  5
131
330
12D
100
AcDbEntity
  8
BEMASSUNG
  6
Continuous
370
    -2
100
AcDbLine
 10
824.3363282344141
 20
453.2257031729491
 30
0.0
 11
824.3363282344141
 21
447.6257031729491
 31
0.0
  0
LINE
  5
132
330
12D
100
AcDbEntity
  8
BEMASSUNG
  6
Continuous
370
    -2
100
AcDbLine
 10
824.3363282344141
 20
473.4257031729491
 30
0.0
 11
824.3363282344141
 21
479.0257031729491
 31
0.0
  0
MTEXT
  5
133
330
12D
100
AcDbEntity
  8
BEMASSUNG
  6
Continuous
 62
     3
100
AcDbMText
 10
819.8989455619207
 20
463.6151188980691
 30
0.0
 40
5.599999999999999
 41
0.0
 71
     5
 72
     1
  1
\A1;9
  7
NORM
 11
0.0000000000000001
 21
1.0
 31
0.0
 73
     1
 44
1.0
1001
ACAD
1000
MTEXTBEGIN
1070
    73
1070
     1
1070
    44
1040
1.0
1070
    74
1070
     0
1000
MTEXTEND
  0
LINE
  5
134
330
12D
100
AcDbEntity
  8
BEMASSUNG
  6
Continuous
370
    -2
100
AcDbLine
 10
824.3363282344141
 20
458.8257031729491
 30
0.0
 11
824.3363282344141
 21
467.8257031729491
 31
0.0
  0
SOLID
  5
135
330
12D
100
AcDbEntity
  8
BEMASSUNG
  6
Continuous
100
AcDbTrace
 10
823.4029949010807
 20
453.2257031729491
 30
0.0
 11
825.2696615677471
 21
453.2257031729491
 31
0.0
 12
824.3363282344141
 22
458.8257031729491
 32
0.0
 13
824.3363282344141
 23
458.8257031729491
 33
0.0
  0
SOLID
  5
136
330
12D
100
AcDbEntity
  8
BEMASSUNG
  6
Continuous
100
AcDbTrace
 10
823.4029949010807
 20
473.4257031729491
 30
0.0
 11
825.2696615677471
 21
473.4257031729491
 31
0.0
 12
824.3363282344141
 22
467.8257031729491
 32
0.0
 13
824.3363282344141
 23
467.8257031729491
 33
0.0
  0
POINT
  5
137
330
12D
100
AcDbEntity
  8
DEFPOINTS
  6
Continuous
 62
     0
100
AcDbPoint
 10
841.3495986363432
 20
458.8257031729491
 30
0.0
  0
POINT
  5
138
330
12D
100
AcDbEntity
  8
DEFPOINTS
  6
Continuous
 62
     0
100
AcDbPoint
 10
848.0995986363435
 20
467.8257031729491
 30
0.0
  0
POINT
  5
139
330
12D
100
AcDbEntity
  8
DEFPOINTS
  6
Continuous
 62
     0
100
AcDbPoint
 10
824.3363282344141
 20
467.8257031729491
 30
0.0
  0
ENDBLK
  5
13A
330
12D
100
AcDbEntity
  8
0
100
AcDbBlockEnd
  0
BLOCK
  5
11F
330
11E
100
AcDbEntity
  8
0
100
AcDbBlockBegin
  2
*D23
 70
     1
 10
0.0
 20
0.0
 30
0.0
  3
*D23
  1

  0
LINE
  5
120
330
11E
100
AcDbEntity
  8
BEMASSUNG
  6
Continuous
370
    -2
100
AcDbLine
 10
841.4995986363434
 20
404.6930903967479
 30
0.0
 11
841.4995986363434
 21
404.8947077700042
 31
0.0
  0
LINE
  5
121
330
11E
100
AcDbEntity
  8
BEMASSUNG
  6
Continuous
370
    -2
100
AcDbLine
 10
838.0995986363434
 20
403.3955164566318
 30
0.0
 11
838.0995986363434
 21
403.2947077700042
 31
0.0
  0
LINE
  5
122
330
11E
100
AcDbEntity
  8
BEMASSUNG
  6
Continuous
370
    -2
100
AcDbLine
 10
847.0995986363435
 20
404.0947077700042
 30
0.0
 11
852.6995986363436
 21
404.0947077700042
 31
0.0
  0
LINE
  5
123
330
11E
100
AcDbEntity
  8
BEMASSUNG
  6
Continuous
370
    -2
100
AcDbLine
 10
832.4995986363434
 20
404.0947077700042
 30
0.0
 11
826.8995986363432
 21
404.0947077700042
 31
0.0
  0
MTEXT
  5
124
330
11E
100
AcDbEntity
  8
BEMASSUNG
  6
Continuous
 62
     3
100
AcDbMText
 10
826.6887361721092
 20
408.465339494251
 30
0.0
 40
5.599999999999999
 41
0.0
 71
     5
 72
     1
  1
\A1;3.4
  7
NORM
 73
     1
 44
1.0
1001
ACAD
1000
MTEXTBEGIN
1070
    73
1070
     1
1070
    44
1040
1.0
1070
    74
1070
     0
1000
MTEXTEND
  0
LINE
  5
125
330
11E
100
AcDbEntity
  8
BEMASSUNG
  6
Continuous
370
    -2
100
AcDbLine
 10
841.4995986363434
 20
404.0947077700042
 30
0.0
 11
838.0995986363434
 21
404.0947077700042
 31
0.0
  0
SOLID
  5
126
330
11E
100
AcDbEntity
  8
BEMASSUNG
  6
Continuous
100
AcDbTrace
 10
847.0995986363435
 20
405.0280411033375
 30
0.0
 11
847.0995986363435
 21
403.1613744366707
 31
0.0
 12
841.4995986363434
 22
404.0947077700042
 32
0.0
 13
841.4995986363434
 23
404.0947077700042
 33
0.0
  0
SOLID
  5
127
330
11E
100
AcDbEntity
  8
BEMASSUNG
  6
Continuous
100
AcDbTrace
 10
832.4995986363434
 20
405.0280411033375
 30
0.0
 11
832.4995986363434
 21
403.1613744366707
 31
0.0
 12
838.0995986363434
 22
404.0947077700042
 32
0.0
 13
838.0995986363434
 23
404.0947077700042
 33
0.0
  0
POINT
  5
128
330
11E
100
AcDbEntity
  8
DEFPOINTS
  6
Continuous
 62
     0
100
AcDbPoint
 10
841.4995986363434
 20
403.8930903967479
 30
0.0
  0
POINT
  5
129
330
11E
100
AcDbEntity
  8
DEFPOINTS
  6
Continuous
 62
     0
100
AcDbPoint
 10
838.0995986363434
 20
404.1955164566318
 30
0.0
  0
POINT
  5
12A
330
11E
100
AcDbEntity
  8
DEFPOINTS
  6
Continuous
 62
     0
100
AcDbPoint
 10
838.0995986363434
 20
404.0947077700042
 30
0.0
  0
ENDBLK
  5
12B
330
11E
100
AcDbEntity
  8
0
100
AcDbBlockEnd
  0
BLOCK
  5
110
330
10F
100
AcDbEntity
  8
0
100
AcDbBlockBegin
  2
*D24
 70
     1
 10
0.0
 20
0.0
 30
0.0
  3
*D24
  1

  0
LINE
  5
111
330
10F
100
AcDbEntity
  8
BEMASSUNG
  6
Continuous
370
    -2
100
AcDbLine
 10
727.2177682580434
 20
427.6257031729499
 30
0.0
 11
727.2177682580434
 21
443.7890593462162
 31
0.0
  0
LINE
  5
112
330
10F
100
AcDbEntity
  8
BEMASSUNG
  6
Continuous
370
    -2
100
AcDbLine
 10
736.2177682580432
 20
427.6257031729499
 30
0.0
 11
736.2177682580432
 21
443.7890593462162
 31
0.0
  0
LINE
  5
113
330
10F
100
AcDbEntity
  8
BEMASSUNG
  6
Continuous
370
    -2
100
AcDbLine
 10
721.6177682580434
 20
442.9890593462162
 30
0.0
 11
716.0177682580432
 21
442.9890593462162
 31
0.0
  0
LINE
  5
114
330
10F
100
AcDbEntity
  8
BEMASSUNG
  6
Continuous
370
    -2
100
AcDbLine
 10
741.8177682580433
 20
442.9890593462162
 30
0.0
 11
747.4177682580433
 21
442.9890593462162
 31
0.0
  0
MTEXT
  5
115
330
10F
100
AcDbEntity
  8
BEMASSUNG
  6
Continuous
 62
     3
100
AcDbMText
 10
731.4249496397763
 20
447.9759718193474
 30
0.0
 40
5.599999999999999
 41
0.0
 71
     5
 72
     1
  1
\A1;9
  7
NORM
 73
     1
 44
1.0
1001
ACAD
1000
MTEXTBEGIN
1070
    73
1070
     1
1070
    44
1040
1.0
1070
    74
1070
     0
1000
MTEXTEND
  0
LINE
  5
116
330
10F
100
AcDbEntity
  8
BEMASSUNG
  6
Continuous
370
    -2
100
AcDbLine
 10
727.2177682580434
 20
442.9890593462162
 30
0.0
 11
736.2177682580432
 21
442.9890593462162
 31
0.0
  0
SOLID
  5
117
330
10F
100
AcDbEntity
  8
BEMASSUNG
  6
Continuous
100
AcDbTrace
 10
721.6177682580434
 20
443.9223926795494
 30
0.0
 11
721.6177682580434
 21
442.0557260128828
 31
0.0
 12
727.2177682580434
 22
442.9890593462162
 32
0.0
 13
727.2177682580434
 23
442.9890593462162
 33
0.0
  0
SOLID
  5
118
330
10F
100
AcDbEntity
  8
BEMASSUNG
  6
Continuous
100
AcDbTrace
 10
741.8177682580433
 20
443.9223926795494
 30
0.0
 11
741.8177682580433
 21
442.0557260128828
 31
0.0
 12
736.2177682580432
 22
442.9890593462162
 32
0.0
 13
736.2177682580432
 23
442.9890593462162
 33
0.0
  0
POINT
  5
119
330
10F
100
AcDbEntity
  8
DEFPOINTS
  6
Continuous
 62
     0
100
AcDbPoint
 10
727.2177682580434
 20
426.8257031729499
 30
0.0
  0
POINT
  5
11A
330
10F
100
AcDbEntity
  8
DEFPOINTS
  6
Continuous
 62
     0
100
AcDbPoint
 10
736.2177682580432
 20
426.8257031729499
 30
0.0
  0
POINT
  5
11B
330
10F
100
AcDbEntity
  8
DEFPOINTS
  6
Continuous
 62
     0
100
AcDbPoint
 10
736.2177682580432
 20
442.9890593462162
 30
0.0
  0
ENDBLK
  5
11C
330
10F
100
AcDbEntity
  8
0
100
AcDbBlockEnd
  0
BLOCK
  5
103
330
102
100
AcDbEntity
  8
0
100
AcDbBlockBegin
  2
*D25
 70
     1
 10
0.0
 20
0.0
 30
0.0
  3
*D25
  1

  0
LINE
  5
104
330
102
100
AcDbEntity
  8
BEMASSUNG
  6
Continuous
370
    -2
100
AcDbLine
 10
743.7177682580432
 20
432.3257031729501
 30
0.0
 11
787.7883710516447
 21
432.3257031729501
 31
0.0
  0
LINE
  5
105
330
102
100
AcDbEntity
  8
BEMASSUNG
  6
Continuous
370
    -2
100
AcDbLine
 10
756.1177682580431
 20
380.82570317295
 30
0.0
 11
787.7883710516447
 21
380.82570317295
 31
0.0
  0
LINE
  5
106
330
102
100
AcDbEntity
  8
BEMASSUNG
  6
Continuous
370
    -2
100
AcDbLine
 10
786.9883710516448
 20
426.7257031729501
 30
0.0
 11
786.9883710516448
 21
386.42570317295
 31
0.0
  0
SOLID
  5
107
330
102
100
AcDbEntity
  8
BEMASSUNG
  6
Continuous
100
AcDbTrace
 10
786.0550377183113
 20
426.7257031729501
 30
0.0
 11
787.921704384978
 21
426.7257031729501
 31
0.0
 12
786.9883710516448
 22
432.3257031729501
 32
0.0
 13
786.9883710516448
 23
432.3257031729501
 33
0.0
  0
SOLID
  5
108
330
102
100
AcDbEntity
  8
BEMASSUNG
  6
Continuous
100
AcDbTrace
 10
786.0550377183113
 20
386.42570317295
 30
0.0
 11
787.921704384978
 21
386.42570317295
 31
0.0
 12
786.9883710516448
 22
380.82570317295
 32
0.0
 13
786.9883710516448
 23
380.82570317295
 33
0.0
  0
MTEXT
  5
109
330
102
100
AcDbEntity
  8
BEMASSUNG
  6
Continuous
 62
     3
100
AcDbMText
 10
782.5883710516445
 20
406.5757031729502
 30
0.0
 40
5.599999999999999
 41
0.0
 71
     5
 72
     1
  1
\A1;51.5
  7
NORM
 11
0.0000000000000001
 21
1.0
 31
0.0
 73
     1
 44
1.0
1001
ACAD
1000
MTEXTBEGIN
1070
    73
1070
     1
1070
    44
1040
1.0
1070
    74
1070
     0
1000
MTEXTEND
  0
POINT
  5
10A
330
102
100
AcDbEntity
  8
DEFPOINTS
  6
Continuous
 62
     0
100
AcDbPoint
 10
742.9177682580432
 20
432.3257031729501
 30
0.0
  0
POINT
  5
10B
330
102
100
AcDbEntity
  8
DEFPOINTS
  6
Continuous
 62
     0
100
AcDbPoint
 10
755.3177682580431
 20
380.82570317295
 30
0.0
  0
POINT
  5
10C
330
102
100
AcDbEntity
  8
DEFPOINTS
  6
Continuous
 62
     0
100
AcDbPoint
 10
786.9883710516448
 20
380.82570317295
 30
0.0
  0
ENDBLK
  5
10D
330
102
100
AcDbEntity
  8
0
100
AcDbBlockEnd
  0
BLOCK
  5
F3
330
F2
100
AcDbEntity
  8
0
100
AcDbBlockBegin
  2
*D26
 70
     1
 10
0.0
 20
0.0
 30
0.0
  3
*D26
  1

  0
LINE
  5
F4
330
F2
100
AcDbEntity
  8
BEMASSUNG
  6
Continuous
370
    -2
100
AcDbLine
 10
743.3761190233838
 20
380.82570317295
 30
0.0
 11
776.5484220287642
 21
380.82570317295
 31
0.0
  0
LINE
  5
F5
330
F2
100
AcDbEntity
  8
BEMASSUNG
  6
Continuous
370
    -2
100
AcDbLine
 10
739.5177682580432
 20
426.8257031729499
 30
0.0
 11
776.5484220287642
 21
426.8257031729499
 31
0.0
  0
LINE
  5
F6
330
F2
100
AcDbEntity
  8
BEMASSUNG
  6
Continuous
370
    -2
100
AcDbLine
 10
775.7484220287641
 20
386.42570317295
 30
0.0
 11
775.7484220287641
 21
421.2257031729499
 31
0.0
  0
SOLID
  5
F7
330
F2
100
AcDbEntity
  8
BEMASSUNG
  6
Continuous
100
AcDbTrace
 10
774.815088695431
 20
386.42570317295
 30
0.0
 11
776.6817553620976
 21
386.42570317295
 31
0.0
 12
775.7484220287641
 22
380.82570317295
 32
0.0
 13
775.7484220287641
 23
380.82570317295
 33
0.0
  0
SOLID
  5
F8
330
F2
100
AcDbEntity
  8
BEMASSUNG
  6
Continuous
100
AcDbTrace
 10
774.815088695431
 20
421.2257031729499
 30
0.0
 11
776.6817553620976
 21
421.2257031729499
 31
0.0
 12
775.7484220287641
 22
426.8257031729499
 32
0.0
 13
775.7484220287641
 23
426.8257031729499
 33
0.0
  0
MTEXT
  5
F9
330
F2
100
AcDbEntity
  8
BEMASSUNG
  6
Continuous
 62
     3
100
AcDbMText
 10
771.3484220287641
 20
403.8257031729499
 30
0.0
 40
5.599999999999999
 41
0.0
 71
     5
 72
     1
  1
\A1;46
  7
NORM
 11
0.0000000000000001
 21
1.0
 31
0.0
 73
     1
 44
1.0
1001
ACAD
1000
MTEXTBEGIN
1070
    73
1070
     1
1070
    44
1040
1.0
1070
    74
1070
     0
1000
MTEXTEND
  0
POINT
  5
FA
330
F2
100
AcDbEntity
  8
DEFPOINTS
  6
Continuous
 62
     0
100
AcDbPoint
 10
742.5761190233837
 20
380.82570317295
 30
0.0
  0
POINT
  5
FB
330
F2
100
AcDbEntity
  8
DEFPOINTS
  6
Continuous
 62
     0
100
AcDbPoint
 10
738.7177682580434
 20
426.8257031729499
 30
0.0
  0
POINT
  5
FC
330
F2
100
AcDbEntity
  8
DEFPOINTS
  6
Continuous
 62
     0
100
AcDbPoint
 10
775.7484220287641
 20
426.8257031729499
 30
0.0
  0
ENDBLK
  5
FD
330
F2
100
AcDbEntity
  8
0
100
AcDbBlockEnd
  0
BLOCK
  5
E1
330
E0
100
AcDbEntity
  8
0
100
AcDbBlockBegin
  2
*D27
 70
     1
 10
0.0
 20
0.0
 30
0.0
  3
*D27
  1

  0
LINE
  5
E2
330
E0
100
AcDbEntity
  8
BEMASSUNG
  6
Continuous
370
    -2
100
AcDbLine
 10
736.2177682580438
 20
385.6257031729505
 30
0.0
 11
736.2177682580438
 21
391.4186259306899
 31
0.0
  0
LINE
  5
E3
330
E0
100
AcDbEntity
  8
BEMASSUNG
  6
Continuous
370
    -2
100
AcDbLine
 10
727.2177682580432
 20
385.6257031729503
 30
0.0
 11
727.2177682580432
 21
391.4186259306899
 31
0.0
  0
LINE
  5
E4
330
E0
100
AcDbEntity
  8
BEMASSUNG
  6
Continuous
370
    -2
100
AcDbLine
 10
741.8177682580437
 20
390.6186259306899
 30
0.0
 11
747.4177682580438
 21
390.6186259306899
 31
0.0
  0
LINE
  5
E5
330
E0
100
AcDbEntity
  8
BEMASSUNG
  6
Continuous
370
    -2
100
AcDbLine
 10
721.617768258043
 20
390.6186259306899
 30
0.0
 11
716.017768258043
 21
390.6186259306899
 31
0.0
  0
MTEXT
  5
E6
330
E0
100
AcDbEntity
  8
BEMASSUNG
  6
Continuous
 62
     3
100
AcDbMText
 10
720.0022573795664
 20
395.4117212561178
 30
0.0
 40
5.599999999999999
 41
0.0
 71
     5
 72
     1
  1
\A1;9
  7
NORM
 73
     1
 44
1.0
1001
ACAD
1000
MTEXTBEGIN
1070
    73
1070
     1
1070
    44
1040
1.0
1070
    74
1070
     0
1000
MTEXTEND
  0
LINE
  5
E7
330
E0
100
AcDbEntity
  8
BEMASSUNG
  6
Continuous
370
    -2
100
AcDbLine
 10
736.2177682580438
 20
390.6186259306899
 30
0.0
 11
727.2177682580432
 21
390.6186259306899
 31
0.0
  0
SOLID
  5
E8
330
E0
100
AcDbEntity
  8
BEMASSUNG
  6
Continuous
100
AcDbTrace
 10
741.8177682580437
 20
391.5519592640232
 30
0.0
 11
741.8177682580437
 21
389.6852925973565
 31
0.0
 12
736.2177682580438
 22
390.6186259306899
 32
0.0
 13
736.2177682580438
 23
390.6186259306899
 33
0.0
  0
SOLID
  5
E9
330
E0
100
AcDbEntity
  8
BEMASSUNG
  6
Continuous
100
AcDbTrace
 10
721.617768258043
 20
391.5519592640232
 30
0.0
 11
721.617768258043
 21
389.6852925973565
 31
0.0
 12
727.2177682580432
 22
390.6186259306899
 32
0.0
 13
727.2177682580432
 23
390.6186259306899
 33
0.0
  0
POINT
  5
EA
330
E0
100
AcDbEntity
  8
DEFPOINTS
  6
Continuous
 62
     0
100
AcDbPoint
 10
736.2177682580438
 20
384.8257031729503
 30
0.0
  0
POINT
  5
EB
330
E0
100
AcDbEntity
  8
DEFPOINTS
  6
Continuous
 62
     0
100
AcDbPoint
 10
727.2177682580432
 20
384.8257031729503
 30
0.0
  0
POINT
  5
EC
330
E0
100
AcDbEntity
  8
DEFPOINTS
  6
Continuous
 62
     0
100
AcDbPoint
 10
727.2177682580432
 20
390.6186259306899
 30
0.0
  0
ENDBLK
  5
ED
330
E0
100
AcDbEntity
  8
0
100
AcDbBlockEnd
  0
BLOCK
  5
B7
330
B6
100
AcDbEntity
  8
0
100
AcDbBlockBegin
  2
*D28
 70
     1
 10
0.0
 20
0.0
 30
0.0
  3
*D28
  1

  0
LINE
  5
B8
330
B6
100
AcDbEntity
  8
BEMASSUNG
  6
Continuous
370
    -2
100
AcDbLine
 10
841.4995986363434
 20
386.9257031729499
 30
0.0
 11
841.4995986363434
 21
372.4918346438639
 31
0.0
  0
LINE
  5
B9
330
B6
100
AcDbEntity
  8
BEMASSUNG
  6
Continuous
370
    -2
100
AcDbLine
 10
852.4995986363435
 20
389.4257031729499
 30
0.0
 11
852.4995986363435
 21
372.4918346438639
 31
0.0
  0
LINE
  5
BA
330
B6
100
AcDbEntity
  8
BEMASSUNG
  6
Continuous
370
    -2
100
AcDbLine
 10
835.8995986363435
 20
373.2918346438639
 30
0.0
 11
830.2995986363434
 21
373.2918346438639
 31
0.0
  0
LINE
  5
BB
330
B6
100
AcDbEntity
  8
BEMASSUNG
  6
Continuous
370
    -2
100
AcDbLine
 10
858.0995986363436
 20
373.2918346438639
 30
0.0
 11
863.6995986363437
 21
373.2918346438639
 31
0.0
  0
MTEXT
  5
BC
330
B6
100
AcDbEntity
  8
BEMASSUNG
  6
Continuous
 62
     3
100
AcDbMText
 10
846.2655181859627
 20
377.8020564890197
 30
0.0
 40
5.599999999999999
 41
0.0
 71
     5
 72
     1
  1
\A1;11
  7
NORM
 73
     1
 44
1.0
1001
ACAD
1000
MTEXTBEGIN
1070
    73
1070
     1
1070
    44
1040
1.0
1070
    74
1070
     0
1000
MTEXTEND
  0
LINE
  5
BD
330
B6
100
AcDbEntity
  8
BEMASSUNG
  6
Continuous
370
    -2
100
AcDbLine
 10
841.4995986363434
 20
373.2918346438639
 30
0.0
 11
852.4995986363435
 21
373.2918346438639
 31
0.0
  0
SOLID
  5
BE
330
B6
100
AcDbEntity
  8
BEMASSUNG
  6
Continuous
100
AcDbTrace
 10
835.8995986363435
 20
374.2251679771972
 30
0.0
 11
835.8995986363435
 21
372.3585013105306
 31
0.0
 12
841.4995986363434
 22
373.2918346438639
 32
0.0
 13
841.4995986363434
 23
373.2918346438639
 33
0.0
  0
SOLID
  5
BF
330
B6
100
AcDbEntity
  8
BEMASSUNG
  6
Continuous
100
AcDbTrace
 10
858.0995986363436
 20
374.2251679771972
 30
0.0
 11
858.0995986363436
 21
372.3585013105306
 31
0.0
 12
852.4995986363435
 22
373.2918346438639
 32
0.0
 13
852.4995986363435
 23
373.2918346438639
 33
0.0
  0
POINT
  5
C0
330
B6
100
AcDbEntity
  8
DEFPOINTS
  6
Continuous
 62
     0
100
AcDbPoint
 10
841.4995986363434
 20
387.7257031729499
 30
0.0
  0
POINT
  5
C1
330
B6
100
AcDbEntity
  8
DEFPOINTS
  6
Continuous
 62
     0
100
AcDbPoint
 10
852.4995986363435
 20
390.2257031729498
 30
0.0
  0
POINT
  5
C2
330
B6
100
AcDbEntity
  8
DEFPOINTS
  6
Continuous
 62
     0
100
AcDbPoint
 10
852.4995986363435
 20
373.2918346438639
 30
0.0
  0
ENDBLK
  5
C3
330
B6
100
AcDbEntity
  8
0
100
AcDbBlockEnd
  0
BLOCK
  5
64
330
63
100
AcDbEntity
  8
0
100
AcDbBlockBegin
  2
*D29
 70
     1
 10
0.0
 20
0.0
 30
0.0
  3
*D29
  1

  0
LINE
  5
65
330
63
100
AcDbEntity
  8
BEMASSUNG
  6
Continuous
370
    -2
100
AcDbLine
 10
647.2177682580443
 20
178.9955282659038
 30
0.0
 11
638.3141581554503
 21
178.9955282659038
 31
0.0
  0
LINE
  5
66
330
63
100
AcDbEntity
  8
BEMASSUNG
  6
Continuous
370
    -2
100
AcDbLine
 10
647.2177682580443
 20
177.4955282659037
 30
0.0
 11
638.3141581554503
 21
177.4955282659037
 31
0.0
  0
LINE
  5
67
330
63
100
AcDbEntity
  8
BEMASSUNG
  6
Continuous
370
    -2
100
AcDbLine
 10
639.1141581554502
 20
184.5955282659038
 30
0.0
 11
639.1141581554502
 21
190.1955282659038
 31
0.0
  0
LINE
  5
68
330
63
100
AcDbEntity
  8
BEMASSUNG
  6
Continuous
370
    -2
100
AcDbLine
 10
639.1141581554502
 20
171.8955282659037
 30
0.0
 11
639.1141581554502
 21
166.2955282659036
 31
0.0
  0
MTEXT
  5
69
330
63
100
AcDbEntity
  8
BEMASSUNG
  6
Continuous
 62
     3
100
AcDbMText
 10
634.7141581554502
 20
178.9696305261991
 30
0.0
 40
5.599999999999999
 41
0.0
 71
     5
 72
     1
  1
\A1;1.25
  7
NORM
 11
0.0000000000000001
 21
1.0
 31
0.0
 73
     1
 44
1.0
1001
ACAD
1000
MTEXTBEGIN
1070
    73
1070
     1
1070
    44
1040
1.0
1070
    74
1070
     0
1000
MTEXTEND
  0
LINE
  5
6A
330
63
100
AcDbEntity
  8
BEMASSUNG
  6
Continuous
370
    -2
100
AcDbLine
 10
639.1141581554502
 20
178.9955282659038
 30
0.0
 11
639.1141581554502
 21
177.4955282659037
 31
0.0
  0
SOLID
  5
6B
330
63
100
AcDbEntity
  8
BEMASSUNG
  6
Continuous
100
AcDbTrace
 10
638.1808248221168
 20
184.5955282659038
 30
0.0
 11
640.0474914887835
 21
184.5955282659038
 31
0.0
 12
639.1141581554502
 22
178.9955282659038
 32
0.0
 13
639.1141581554502
 23
178.9955282659038
 33
0.0
  0
SOLID
  5
6C
330
63
100
AcDbEntity
  8
BEMASSUNG
  6
Continuous
100
AcDbTrace
 10
638.1808248221168
 20
171.8955282659037
 30
0.0
 11
640.0474914887835
 21
171.8955282659037
 31
0.0
 12
639.1141581554502
 22
177.4955282659037
 32
0.0
 13
639.1141581554502
 23
177.4955282659037
 33
0.0
  0
POINT
  5
6D
330
63
100
AcDbEntity
  8
DEFPOINTS
  6
Continuous
 62
     0
100
AcDbPoint
 10
648.0177682580443
 20
178.9955282659038
 30
0.0
  0
POINT
  5
6E
330
63
100
AcDbEntity
  8
DEFPOINTS
  6
Continuous
 62
     0
100
AcDbPoint
 10
648.0177682580443
 20
177.4955282659037
 30
0.0
  0
POINT
  5
6F
330
63
100
AcDbEntity
  8
DEFPOINTS
  6
Continuous
 62
     0
100
AcDbPoint
 10
639.1141581554502
 20
177.4955282659037
 30
0.0
  0
ENDBLK
  5
70
330
63
100
AcDbEntity
  8
0
100
AcDbBlockEnd
  0
BLOCK
  5
9D
330
9C
100
AcDbEntity
  8
0
100
AcDbBlockBegin
  2
*D30
 70
     1
 10
0.0
 20
0.0
 30
0.0
  3
*D30
  1

  0
LINE
  5
9E
330
9C
100
AcDbEntity
  8
BEMASSUNG
  6
Continuous
370
    -2
100
AcDbLine
 10
671.7177682580434
 20
468.6257031729489
 30
0.0
 11
671.7177682580434
 21
485.1981634006766
 31
0.0
  0
LINE
  5
9F
330
9C
100
AcDbEntity
  8
BEMASSUNG
  6
Continuous
370
    -2
100
AcDbLine
 10
674.7177682580434
 20
468.6257031729489
 30
0.0
 11
674.7177682580434
 21
485.1981634006766
 31
0.0
  0
LINE
  5
A0
330
9C
100
AcDbEntity
  8
BEMASSUNG
  6
Continuous
370
    -2
100
AcDbLine
 10
666.1177682580434
 20
484.3981634006764
 30
0.0
 11
660.5177682580432
 21
484.3981634006764
 31
0.0
  0
LINE
  5
A1
330
9C
100
AcDbEntity
  8
BEMASSUNG
  6
Continuous
370
    -2
100
AcDbLine
 10
680.3177682580432
 20
484.3981634006764
 30
0.0
 11
685.9177682580433
 21
484.3981634006764
 31
0.0
  0
LINE
  5
A2
330
9C
100
AcDbEntity
  8
BEMASSUNG
  6
Continuous
370
    -2
100
AcDbLine
 10
671.7177682580434
 20
484.3981634006764
 30
0.0
 11
674.7177682580434
 21
484.3981634006764
 31
0.0
  0
SOLID
  5
A3
330
9C
100
AcDbEntity
  8
BEMASSUNG
  6
Continuous
100
AcDbTrace
 10
666.1177682580434
 20
485.3314967340098
 30
0.0
 11
666.1177682580434
 21
483.4648300673432
 31
0.0
 12
671.7177682580434
 22
484.3981634006764
 32
0.0
 13
671.7177682580434
 23
484.3981634006764
 33
0.0
  0
SOLID
  5
A4
330
9C
100
AcDbEntity
  8
BEMASSUNG
  6
Continuous
100
AcDbTrace
 10
680.3177682580432
 20
485.3314967340098
 30
0.0
 11
680.3177682580432
 21
483.4648300673432
 31
0.0
 12
674.7177682580434
 22
484.3981634006764
 32
0.0
 13
674.7177682580434
 23
484.3981634006764
 33
0.0
  0
MTEXT
  5
A5
330
9C
100
AcDbEntity
  8
BEMASSUNG
  6
Continuous
 62
     3
100
AcDbMText
 10
673.2177682580434
 20
488.7981634006766
 30
0.0
 40
5.599999999999999
 41
0.0
 71
     5
 72
     1
  1
\A1;3
  7
NORM
 73
     1
 44
1.0
1001
ACAD
1000
MTEXTBEGIN
1070
    73
1070
     1
1070
    44
1040
1.0
1070
    74
1070
     0
1000
MTEXTEND
  0
POINT
  5
A6
330
9C
100
AcDbEntity
  8
DEFPOINTS
  6
Continuous
 62
     0
100
AcDbPoint
 10
671.7177682580434
 20
467.8257031729489
 30
0.0
  0
POINT
  5
A7
330
9C
100
AcDbEntity
  8
DEFPOINTS
  6
Continuous
 62
     0
100
AcDbPoint
 10
674.7177682580434
 20
467.8257031729489
 30
0.0
  0
POINT
  5
A8
330
9C
100
AcDbEntity
  8
DEFPOINTS
  6
Continuous
 62
     0
100
AcDbPoint
 10
674.7177682580434
 20
484.3981634006764
 30
0.0
  0
ENDBLK
  5
A9
330
9C
100
AcDbEntity
  8
0
100
AcDbBlockEnd
  0
BLOCK
  5
82
330
81
100
AcDbEntity
  8
0
100
AcDbBlockBegin
  2
*D31
 70
     1
 10
0.0
 20
0.0
 30
0.0
  3
*D31
  1

  0
LINE
  5
83
330
81
100
AcDbEntity
  8
BEMASSUNG
  6
Continuous
370
    -2
100
AcDbLine
 10
647.2177682580437
 20
329.725693817841
 30
0.0
 11
638.1853220445224
 21
329.725693817841
 31
0.0
  0
LINE
  5
84
330
81
100
AcDbEntity
  8
BEMASSUNG
  6
Continuous
370
    -2
100
AcDbLine
 10
647.2177682580437
 20
319.9256938178409
 30
0.0
 11
638.1853220445224
 21
319.925693817841
 31
0.0
  0
LINE
  5
85
330
81
100
AcDbEntity
  8
BEMASSUNG
  6
Continuous
370
    -2
100
AcDbLine
 10
638.9853220445225
 20
335.325693817841
 30
0.0
 11
638.9853220445225
 21
340.925693817841
 31
0.0
  0
LINE
  5
86
330
81
100
AcDbEntity
  8
BEMASSUNG
  6
Continuous
370
    -2
100
AcDbLine
 10
638.9853220445225
 20
314.325693817841
 30
0.0
 11
638.9853220445225
 21
308.725693817841
 31
0.0
  0
LINE
  5
87
330
81
100
AcDbEntity
  8
BEMASSUNG
  6
Continuous
370
    -2
100
AcDbLine
 10
638.9853220445225
 20
329.725693817841
 30
0.0
 11
638.9853220445225
 21
319.925693817841
 31
0.0
  0
SOLID
  5
88
330
81
100
AcDbEntity
  8
BEMASSUNG
  6
Continuous
100
AcDbTrace
 10
638.0519887111891
 20
335.325693817841
 30
0.0
 11
639.9186553778557
 21
335.325693817841
 31
0.0
 12
638.9853220445225
 22
329.725693817841
 32
0.0
 13
638.9853220445225
 23
329.725693817841
 33
0.0
  0
SOLID
  5
89
330
81
100
AcDbEntity
  8
BEMASSUNG
  6
Continuous
100
AcDbTrace
 10
638.0519887111891
 20
314.325693817841
 30
0.0
 11
639.9186553778557
 21
314.325693817841
 31
0.0
 12
638.9853220445225
 22
319.925693817841
 32
0.0
 13
638.9853220445225
 23
319.925693817841
 33
0.0
  0
MTEXT
  5
8A
330
81
100
AcDbEntity
  8
BEMASSUNG
  6
Continuous
 62
     3
100
AcDbMText
 10
634.5853220445222
 20
324.825693817841
 30
0.0
 40
5.599999999999999
 41
0.0
 71
     5
 72
     1
  1
\A1;9.8
  7
NORM
 11
0.0000000000000001
 21
1.0
 31
0.0
 73
     1
 44
1.0
1001
ACAD
1000
MTEXTBEGIN
1070
    73
1070
     1
1070
    44
1040
1.0
1070
    74
1070
     0
1000
MTEXTEND
  0
POINT
  5
8B
330
81
100
AcDbEntity
  8
DEFPOINTS
  6
Continuous
 62
     0
100
AcDbPoint
 10
648.0177682580436
 20
329.725693817841
 30
0.0
  0
POINT
  5
8C
330
81
100
AcDbEntity
  8
DEFPOINTS
  6
Continuous
 62
     0
100
AcDbPoint
 10
648.0177682580436
 20
319.9256938178409
 30
0.0
  0
POINT
  5
8D
330
81
100
AcDbEntity
  8
DEFPOINTS
  6
Continuous
 62
     0
100
AcDbPoint
 10
638.9853220445225
 20
319.925693817841
 30
0.0
  0
ENDBLK
  5
8E
330
81
100
AcDbEntity
  8
0
100
AcDbBlockEnd
  0
BLOCK
  5
73
330
72
100
AcDbEntity
  8
0
100
AcDbBlockBegin
  2
*D32
 70
     1
 10
0.0
 20
0.0
 30
0.0
  3
*D32
  1

  0
LINE
  5
74
330
72
100
AcDbEntity
  8
BEMASSUNG
  6
Continuous
370
    -2
100
AcDbLine
 10
648.0177682580436
 20
319.1256938178409
 30
0.0
 11
648.0177682580436
 21
290.2999515268218
 31
0.0
  0
LINE
  5
75
330
72
100
AcDbEntity
  8
BEMASSUNG
  6
Continuous
370
    -2
100
AcDbLine
 10
651.7177682580437
 20
309.0256938178408
 30
0.0
 11
651.7177682580437
 21
290.2999515268218
 31
0.0
  0
LINE
  5
76
330
72
100
AcDbEntity
  8
BEMASSUNG
  6
Continuous
370
    -2
100
AcDbLine
 10
642.4177682580437
 20
291.0999515268218
 30
0.0
 11
636.8177682580437
 21
291.0999515268218
 31
0.0
  0
LINE
  5
77
330
72
100
AcDbEntity
  8
BEMASSUNG
  6
Continuous
370
    -2
100
AcDbLine
 10
657.3177682580437
 20
291.0999515268218
 30
0.0
 11
662.9177682580439
 21
291.0999515268218
 31
0.0
  0
MTEXT
  5
78
330
72
100
AcDbEntity
  8
BEMASSUNG
  6
Continuous
 62
     3
100
AcDbMText
 10
660.5226146034018
 20
295.4999515268217
 30
0.0
 40
5.599999999999999
 41
0.0
 71
     5
 72
     1
  1
\A1;3.7
  7
NORM
 73
     1
 44
1.0
1001
ACAD
1000
MTEXTBEGIN
1070
    73
1070
     1
1070
    44
1040
1.0
1070
    74
1070
     0
1000
MTEXTEND
  0
LINE
  5
79
330
72
100
AcDbEntity
  8
BEMASSUNG
  6
Continuous
370
    -2
100
AcDbLine
 10
648.0177682580436
 20
291.0999515268218
 30
0.0
 11
651.7177682580437
 21
291.0999515268218
 31
0.0
  0
SOLID
  5
7A
330
72
100
AcDbEntity
  8
BEMASSUNG
  6
Continuous
100
AcDbTrace
 10
642.4177682580437
 20
292.0332848601552
 30
0.0
 11
642.4177682580437
 21
290.1666181934885
 31
0.0
 12
648.0177682580436
 22
291.0999515268218
 32
0.0
 13
648.0177682580436
 23
291.0999515268218
 33
0.0
  0
SOLID
  5
7B
330
72
100
AcDbEntity
  8
BEMASSUNG
  6
Continuous
100
AcDbTrace
 10
657.3177682580437
 20
292.0332848601552
 30
0.0
 11
657.3177682580437
 21
290.1666181934885
 31
0.0
 12
651.7177682580437
 22
291.0999515268218
 32
0.0
 13
651.7177682580437
 23
291.0999515268218
 33
0.0
  0
POINT
  5
7C
330
72
100
AcDbEntity
  8
DEFPOINTS
  6
Continuous
 62
     0
100
AcDbPoint
 10
648.0177682580436
 20
319.9256938178409
 30
0.0
  0
POINT
  5
7D
330
72
100
AcDbEntity
  8
DEFPOINTS
  6
Continuous
 62
     0
100
AcDbPoint
 10
651.7177682580437
 20
309.8256938178408
 30
0.0
  0
POINT
  5
7E
330
72
100
AcDbEntity
  8
DEFPOINTS
  6
Continuous
 62
     0
100
AcDbPoint
 10
651.7177682580437
 20
291.0999515268218
 30
0.0
  0
ENDBLK
  5
7F
330
72
100
AcDbEntity
  8
0
100
AcDbBlockEnd
  0
BLOCK
  5
4D
330
4C
100
AcDbEntity
  8
0
100
AcDbBlockBegin
  2
*D33
 70
     1
 10
0.0
 20
0.0
 30
0.0
  3
*D33
  1

  0
LINE
  5
4E
330
4C
100
AcDbEntity
  8
BEMASSUNG
  6
Continuous
370
    -2
100
AcDbLine
 10
838.0995986363434
 20
247.0257031729495
 30
0.0
 11
838.0995986363434
 21
211.356420080036
 31
0.0
  0
LINE
  5
4F
330
4C
100
AcDbEntity
  8
BEMASSUNG
  6
Continuous
370
    -2
100
AcDbLine
 10
858.0995986363435
 20
247.0257031729495
 30
0.0
 11
858.0995986363435
 21
211.356420080036
 31
0.0
  0
LINE
  5
50
330
4C
100
AcDbEntity
  8
BEMASSUNG
  6
Continuous
370
    -2
100
AcDbLine
 10
832.4995986363434
 20
212.156420080036
 30
0.0
 11
826.8995986363432
 21
212.156420080036
 31
0.0
  0
LINE
  5
51
330
4C
100
AcDbEntity
  8
BEMASSUNG
  6
Continuous
370
    -2
100
AcDbLine
 10
863.6995986363434
 20
212.156420080036
 30
0.0
 11
869.2995986363435
 21
212.156420080036
 31
0.0
  0
LINE
  5
52
330
4C
100
AcDbEntity
  8
BEMASSUNG
  6
Continuous
370
    -2
100
AcDbLine
 10
838.0995986363434
 20
212.156420080036
 30
0.0
 11
858.0995986363435
 21
212.156420080036
 31
0.0
  0
SOLID
  5
53
330
4C
100
AcDbEntity
  8
BEMASSUNG
  6
Continuous
100
AcDbTrace
 10
832.4995986363434
 20
213.0897534133694
 30
0.0
 11
832.4995986363434
 21
211.2230867467027
 31
0.0
 12
838.0995986363434
 22
212.156420080036
 32
0.0
 13
838.0995986363434
 23
212.156420080036
 33
0.0
  0
SOLID
  5
54
330
4C
100
AcDbEntity
  8
BEMASSUNG
  6
Continuous
100
AcDbTrace
 10
863.6995986363434
 20
213.0897534133694
 30
0.0
 11
863.6995986363434
 21
211.2230867467027
 31
0.0
 12
858.0995986363435
 22
212.156420080036
 32
0.0
 13
858.0995986363435
 23
212.156420080036
 33
0.0
  0
MTEXT
  5
55
330
4C
100
AcDbEntity
  8
BEMASSUNG
  6
Continuous
 62
     3
100
AcDbMText
 10
848.0995986363435
 20
218.0230867467027
 30
0.0
 40
5.599999999999999
 41
0.0
 71
     5
 72
     1
  1
\A1;18/20
  7
NORM
 73
     1
 44
1.0
1001
ACAD
1000
MTEXTBEGIN
1070
    73
1070
     1
1070
    44
1040
1.0
1070
    74
1070
     0
1000
MTEXTEND
  0
POINT
  5
56
330
4C
100
AcDbEntity
  8
DEFPOINTS
  6
Continuous
 62
     0
100
AcDbPoint
 10
838.0995986363434
 20
247.8257031729495
 30
0.0
  0
POINT
  5
57
330
4C
100
AcDbEntity
  8
DEFPOINTS
  6
Continuous
 62
     0
100
AcDbPoint
 10
858.0995986363435
 20
247.8257031729495
 30
0.0
  0
POINT
  5
58
330
4C
100
AcDbEntity
  8
DEFPOINTS
  6
Continuous
 62
     0
100
AcDbPoint
 10
858.0995986363435
 20
212.156420080036
 30
0.0
  0
ENDBLK
  5
59
330
4C
100
AcDbEntity
  8
0
100
AcDbBlockEnd
  0
BLOCK
  5
40
330
3F
100
AcDbEntity
  8
0
100
AcDbBlockBegin
  2
*D34
 70
     1
 10
0.0
 20
0.0
 30
0.0
  3
*D34
  1

  0
LINE
  5
41
330
3F
100
AcDbEntity
  8
BEMASSUNG
  6
Continuous
370
    -2
100
AcDbLine
 10
671.7177682580429
 20
237.0257031729494
 30
0.0
 11
671.7177682580429
 21
218.6325455585449
 31
0.0
  0
LINE
  5
42
330
3F
100
AcDbEntity
  8
BEMASSUNG
  6
Continuous
370
    -2
100
AcDbLine
 10
731.7177682580432
 20
275.7257031729495
 30
0.0
 11
731.7177682580432
 21
218.6325455585449
 31
0.0
  0
LINE
  5
43
330
3F
100
AcDbEntity
  8
BEMASSUNG
  6
Continuous
370
    -2
100
AcDbLine
 10
677.3177682580429
 20
219.4325455585449
 30
0.0
 11
726.1177682580431
 21
219.4325455585449
 31
0.0
  0
SOLID
  5
44
330
3F
100
AcDbEntity
  8
BEMASSUNG
  6
Continuous
100
AcDbTrace
 10
677.3177682580429
 20
220.3658788918783
 30
0.0
 11
677.3177682580429
 21
218.4992122252116
 31
0.0
 12
671.7177682580429
 22
219.4325455585449
 32
0.0
 13
671.7177682580429
 23
219.4325455585449
 33
0.0
  0
SOLID
  5
45
330
3F
100
AcDbEntity
  8
BEMASSUNG
  6
Continuous
100
AcDbTrace
 10
726.1177682580431
 20
220.3658788918783
 30
0.0
 11
726.1177682580431
 21
218.4992122252116
 31
0.0
 12
731.7177682580432
 22
219.4325455585449
 32
0.0
 13
731.7177682580432
 23
219.4325455585449
 33
0.0
  0
MTEXT
  5
46
330
3F
100
AcDbEntity
  8
BEMASSUNG
  6
Continuous
 62
     3
100
AcDbMText
 10
701.717768258043
 20
223.8325455585449
 30
0.0
 40
5.599999999999999
 41
0.0
 71
     5
 72
     1
  1
\A1;DM
  7
NORM
 73
     1
 44
1.0
1001
ACAD
1000
MTEXTBEGIN
1070
    73
1070
     1
1070
    44
1040
1.0
1070
    74
1070
     0
1000
MTEXTEND
  0
POINT
  5
47
330
3F
100
AcDbEntity
  8
DEFPOINTS
  6
Continuous
 62
     0
100
AcDbPoint
 10
671.7177682580429
 20
237.8257031729494
 30
0.0
  0
POINT
  5
48
330
3F
100
AcDbEntity
  8
DEFPOINTS
  6
Continuous
 62
     0
100
AcDbPoint
 10
731.7177682580432
 20
276.5257031729495
 30
0.0
  0
POINT
  5
49
330
3F
100
AcDbEntity
  8
DEFPOINTS
  6
Continuous
 62
     0
100
AcDbPoint
 10
731.7177682580432
 20
219.4325455585449
 30
0.0
  0
ENDBLK
  5
4A
330
3F
100
AcDbEntity
  8
0
100
AcDbBlockEnd
  0
BLOCK
  5
32
330
31
100
AcDbEntity
  8
0
100
AcDbBlockBegin
  2
*D35
 70
     1
 10
0.0
 20
0.0
 30
0.0
  3
*D35
  1

  0
LINE
  5
33
330
31
100
AcDbEntity
  8
BEMASSUNG
  6
Continuous
370
    -2
100
AcDbLine
 10
731.7177682580432
 20
275.7257031729495
 30
0.0
 11
731.7177682580432
 21
218.6325455585449
 31
0.0
  0
LINE
  5
34
330
31
100
AcDbEntity
  8
BEMASSUNG
  6
Continuous
370
    -2
100
AcDbLine
 10
760.7177682580429
 20
291.6470235165096
 30
0.0
 11
760.7177682580429
 21
218.6325455585449
 31
0.0
  0
LINE
  5
35
330
31
100
AcDbEntity
  8
BEMASSUNG
  6
Continuous
370
    -2
100
AcDbLine
 10
737.3177682580433
 20
219.4325455585449
 30
0.0
 11
755.1177682580429
 21
219.4325455585449
 31
0.0
  0
SOLID
  5
36
330
31
100
AcDbEntity
  8
BEMASSUNG
  6
Continuous
100
AcDbTrace
 10
737.3177682580433
 20
220.3658788918783
 30
0.0
 11
737.3177682580433
 21
218.4992122252116
 31
0.0
 12
731.7177682580432
 22
219.4325455585449
 32
0.0
 13
731.7177682580432
 23
219.4325455585449
 33
0.0
  0
SOLID
  5
37
330
31
100
AcDbEntity
  8
BEMASSUNG
  6
Continuous
100
AcDbTrace
 10
755.1177682580429
 20
220.3658788918783
 30
0.0
 11
755.1177682580429
 21
218.4992122252116
 31
0.0
 12
760.7177682580429
 22
219.4325455585449
 32
0.0
 13
760.7177682580429
 23
219.4325455585449
 33
0.0
  0
MTEXT
  5
38
330
31
100
AcDbEntity
  8
BEMASSUNG
  6
Continuous
 62
     3
100
AcDbMText
 10
746.217768258043
 20
223.8325455585449
 30
0.0
 40
5.599999999999999
 41
0.0
 71
     5
 72
     1
  1
\A1;29
  7
NORM
 73
     1
 44
1.0
1001
ACAD
1000
MTEXTBEGIN
1070
    73
1070
     1
1070
    44
1040
1.0
1070
    74
1070
     0
1000
MTEXTEND
  0
POINT
  5
39
330
31
100
AcDbEntity
  8
DEFPOINTS
  6
Continuous
 62
     0
100
AcDbPoint
 10
731.7177682580432
 20
276.5257031729495
 30
0.0
  0
POINT
  5
3B
330
31
100
AcDbEntity
  8
DEFPOINTS
  6
Continuous
 62
     0
100
AcDbPoint
 10
760.7177682580429
 20
292.4470235165097
 30
0.0
  0
POINT
  5
3C
330
31
100
AcDbEntity
  8
DEFPOINTS
  6
Continuous
 62
     0
100
AcDbPoint
 10
760.7177682580429
 20
219.4325455585449
 30
0.0
  0
ENDBLK
  5
3D
330
31
100
AcDbEntity
  8
0
100
AcDbBlockEnd
  0
BLOCK
  5
3F5
330
3F4
100
AcDbEntity
  8
0
100
AcDbBlockBegin
  2
_ACMFILLED30
 70
     0
 10
0.0
 20
0.0
 30
0.0
  3
_ACMFILLED30
  1

  0
TRACE
  5
3F7
330
3F4
100
AcDbEntity
  8
BEMASSUNG
 62
     0
100
AcDbTrace
 10
-1.0
 20
-0.26794919
 30
0.0
 11
-1.0
 21
0.26794919
 31
0.0
 12
0.0
 22
0.0
 32
0.0
 13
0.0
 23
0.0
 33
0.0
  0
ENDBLK
  5
3F6
330
3F4
100
AcDbEntity
  8
0
100
AcDbBlockEnd
  0
BLOCK
  5
407
330
406
100
AcDbEntity
  8
0
100
AcDbBlockBegin
  2
*D38
 70
     1
 10
0.0
 20
0.0
 30
0.0
  3
*D38
  1

  0
LINE
  5
414
330
406
100
AcDbEntity
  8
BEMASSUNG
  6
Continuous
370
    -2
100
AcDbLine
 10
838.0995986363434
 20
247.0257031729495
 30
0.0
 11
838.0995986363434
 21
211.356420080036
 31
0.0
  0
LINE
  5
415
330
406
100
AcDbEntity
  8
BEMASSUNG
  6
Continuous
370
    -2
100
AcDbLine
 10
858.0995986363435
 20
247.0257031729495
 30
0.0
 11
858.0995986363435
 21
211.356420080036
 31
0.0
  0
LINE
  5
416
330
406
100
AcDbEntity
  8
BEMASSUNG
  6
Continuous
370
    -2
100
AcDbLine
 10
843.6995986363433
 20
212.156420080036
 30
0.0
 11
852.4995986363435
 21
212.156420080036
 31
0.0
  0
SOLID
  5
417
330
406
100
AcDbEntity
  8
BEMASSUNG
  6
Continuous
100
AcDbTrace
 10
843.6995986363433
 20
213.0897534133694
 30
0.0
 11
843.6995986363433
 21
211.2230867467027
 31
0.0
 12
838.0995986363434
 22
212.156420080036
 32
0.0
 13
838.0995986363434
 23
212.156420080036
 33
0.0
  0
SOLID
  5
418
330
406
100
AcDbEntity
  8
BEMASSUNG
  6
Continuous
100
AcDbTrace
 10
852.4995986363435
 20
213.0897534133694
 30
0.0
 11
852.4995986363435
 21
211.2230867467027
 31
0.0
 12
858.0995986363435
 22
212.156420080036
 32
0.0
 13
858.0995986363435
 23
212.156420080036
 33
0.0
  0
MTEXT
  5
419
330
406
100
AcDbEntity
  8
BEMASSUNG
  6
Continuous
 62
     3
100
AcDbMText
 10
848.0995986363435
 20
216.556420080036
 30
0.0
 40
5.6
 41
0.0
 71
     5
 72
     1
  1
\A1;20
  7
NORM
 73
     1
 44
1.0
1001
ACAD
1000
MTEXTBEGIN
1070
    73
1070
     1
1070
    44
1040
1.0
1070
    74
1070
     0
1000
MTEXTEND
  0
POINT
  5
41A
330
406
100
AcDbEntity
  8
DEFPOINTS
  6
Continuous
 62
     0
100
AcDbPoint
 10
838.0995986363434
 20
247.8257031729495
 30
0.0
  0
POINT
  5
41B
330
406
100
AcDbEntity
  8
DEFPOINTS
  6
Continuous
 62
     0
100
AcDbPoint
 10
858.0995986363435
 20
247.8257031729495
 30
0.0
  0
POINT
  5
41C
330
406
100
AcDbEntity
  8
DEFPOINTS
  6
Continuous
 62
     0
100
AcDbPoint
 10
858.0995986363435
 20
212.156420080036
 30
0.0
  0
ENDBLK
  5
408
330
406
100
AcDbEntity
  8
0
100
AcDbBlockEnd
  0
ENDSEC
  0
SECTION
  2
ENTITIES
  0
DIMENSION
  5
30
330
2
100
AcDbEntity
  8
BEMASSUNG
  6
Continuous
100
AcDbDimension
  2
*D35
 10
760.7177682580429
 20
219.4325455585449
 30
0.0
 11
746.217768258043
 21
223.8325455585449
 31
0.0
 71
     5
 42
28.99999999999955
  3
PROSPEKT
100
AcDbAlignedDimension
 13
731.7177682580432
 23
276.5257031729495
 33
0.0
 14
760.7177682580429
 24
292.4470235165097
 34
0.0
100
AcDbRotatedDimension
  0
DIMENSION
  5
3E
330
2
100
AcDbEntity
  8
BEMASSUNG
  6
Continuous
100
AcDbDimension
  2
*D34
 10
731.7177682580432
 20
219.4325455585449
 30
0.0
 11
701.717768258043
 21
223.8325455585449
 31
0.0
  1
DM
 71
     5
 42
60.00000000000046
  3
PROSPEKT
100
AcDbAlignedDimension
 13
671.7177682580429
 23
237.8257031729494
 33
0.0
 14
731.7177682580432
 24
276.5257031729495
 34
0.0
100
AcDbRotatedDimension
  0
DIMENSION
  5
4B
330
2
100
AcDbEntity
  8
BEMASSUNG
  6
Continuous
100
AcDbDimension
  2
*D38
 10
858.0995986363435
 20
212.156420080036
 30
0.0
 11
848.0995986363435
 21
216.556420080036
 31
0.0
 70
    32
  1
<>
 71
     5
 42
20.00000000000023
  3
PROSPEKT
100
AcDbAlignedDimension
 13
838.0995986363434
 23
247.8257031729495
 33
0.0
 14
858.0995986363435
 24
247.8257031729495
 34
0.0
100
AcDbRotatedDimension
1001
ACAD_DSTYLE_DIMINSPECT
1070
   396
1000
100%
1070
   395
1000

1070
   394
1070
    33
1070
   393
1070
     0
  0
CIRCLE
  5
5A
330
2
100
AcDbEntity
  8
1855
100
AcDbCircle
 10
731.7177682580432
 20
380.8257031729502
 30
0.0
 40
3.649999999999998
  0
LINE
  5
5C
330
2
100
AcDbEntity
  8
UMRISS03
100
AcDbLine
 10
724.2677682580429
 20
346.3257031729506
 30
0.0
 11
724.2677682580429
 21
352.8257031729506
 31
0.0
  0
ARC
  5
5E
330
2
100
AcDbEntity
  8
UMRISS03
100
AcDbCircle
 10
726.4177682580431
 20
352.8257031729506
 30
0.0
 40
2.149999999999998
100
AcDbArc
 50
0.0
 51
180.0
  0
LINE
  5
5F
330
2
100
AcDbEntity
  8
UMRISS03
100
AcDbLine
 10
728.5677682580431
 20
352.8257031729506
 30
0.0
 11
728.5677682580431
 21
346.3257031729506
 31
0.0
  0
ARC
  5
60
330
2
100
AcDbEntity
  8
UMRISS03
100
AcDbCircle
 10
726.4177682580431
 20
346.3257031729506
 30
0.0
 40
2.149999999999998
100
AcDbArc
 50
180.0
 51
0.0
  0
CIRCLE
  5
61
330
2
100
AcDbEntity
  8
UMRISS03
100
AcDbCircle
 10
726.4177682580427
 20
346.4772540587885
 30
0.0
 40
1.999999999999996
  0
DIMENSION
  5
62
330
2
100
AcDbEntity
  8
BEMASSUNG
  6
Continuous
100
AcDbDimension
  2
*D29
 10
639.1141581554502
 20
177.4955282659037
 30
0.0
 11
634.7141581554502
 21
178.9696305261991
 31
0.0
 70
   128
  1
1.25
 71
     5
 42
1.500000000000055
  3
PROSPEKT
100
AcDbAlignedDimension
 13
648.0177682580443
 23
178.9955282659038
 33
0.0
 14
648.0177682580443
 24
177.4955282659037
 34
0.0
 50
90.0
100
AcDbRotatedDimension
  0
DIMENSION
  5
71
330
2
100
AcDbEntity
  8
BEMASSUNG
  6
Continuous
100
AcDbDimension
  2
*D32
 10
651.7177682580437
 20
291.0999515268218
 30
0.0
 11
660.5226146034018
 21
295.4999515268217
 31
0.0
 70
   128
 71
     5
 42
3.700000000000044
  3
PROSPEKT
100
AcDbAlignedDimension
 13
648.0177682580436
 23
319.9256938178409
 33
0.0
 14
651.7177682580437
 24
309.8256938178408
 34
0.0
100
AcDbRotatedDimension
  0
DIMENSION
  5
80
330
2
100
AcDbEntity
  8
BEMASSUNG
  6
Continuous
100
AcDbDimension
  2
*D31
 10
638.9853220445225
 20
319.925693817841
 30
0.0
 11
634.5853220445222
 21
324.825693817841
 31
0.0
 71
     5
 42
9.800000000000068
  3
PROSPEKT
100
AcDbAlignedDimension
 13
648.0177682580436
 23
329.725693817841
 33
0.0
 14
648.0177682580436
 24
319.9256938178409
 34
0.0
 50
90.0
100
AcDbRotatedDimension
  0
CIRCLE
  5
8F
330
2
100
AcDbEntity
  8
UMRISS03
100
AcDbCircle
 10
694.7177682580429
 20
402.8257031729499
 30
0.0
 40
3.5
  0
LWPOLYLINE
  5
90
330
2
100
AcDbEntity
  8
UMRISS03
100
AcDbPolyline
 90
       24
 70
     1
 43
0.0
 10
694.9177682580431
 20
404.8257031729492
 10
694.517768258043
 20
404.8257031729495
 42
0.4142135623733172
 10
694.2177682580429
 20
404.5257031729496
 10
694.2177682580429
 20
403.4257031729496
 42
-0.4142135623732059
 10
694.117768258043
 20
403.3257031729496
 10
693.0177682580429
 20
403.3257031729498
 42
0.4142135623731427
 10
692.7177682580429
 20
403.0257031729499
 10
692.7177682580429
 20
402.6257031729501
 42
0.4142135623731427
 10
693.0177682580429
 20
402.32570317295
 10
694.117768258043
 20
402.3257031729505
 42
-0.4142135623731298
 10
694.2177682580429
 20
402.2257031729506
 10
694.2177682580429
 20
401.1257031729494
 42
0.4142135623730774
 10
694.517768258043
 20
400.8257031729494
 10
694.9177682580432
 20
400.8257031729496
 42
0.4142135623731189
 10
695.2177682580429
 20
401.1257031729495
 10
695.2177682580429
 20
402.2257031729499
 42
-0.414213562373123
 10
695.3177682580427
 20
402.3257031729499
 10
696.4177682580428
 20
402.32570317295
 42
0.4142135623730951
 10
696.7177682580429
 20
402.6257031729501
 10
696.7177682580429
 20
403.0257031729495
 42
0.4142135623730475
 10
696.4177682580428
 20
403.3257031729495
 10
695.3177682580427
 20
403.3257031729498
 42
-0.4142135623729705
 10
695.2177682580429
 20
403.4257031729498
 10
695.2177682580429
 20
404.5257031729493
 42
0.4142135623730831
  0
CIRCLE
  5
91
330
2
100
AcDbEntity
  8
UMRISS03
100
AcDbCircle
 10
752.2177682580425
 20
349.0159566677537
 30
0.0
 40
2.049999999999998
  0
LINE
  5
92
330
2
100
AcDbEntity
  8
UMRISS05
100
AcDbLine
 10
846.7495986363431
 20
329.7568947076019
 30
0.0
 11
848.249598636343
 21
329.7568947076019
 31
0.0
  0
LINE
  5
94
330
2
100
AcDbEntity
  8
UMRISS05
100
AcDbLine
 10
846.7495986363431
 20
319.7568947075983
 30
0.0
 11
848.249598636343
 21
319.7568947075983
 31
0.0
  0
LINE
  5
95
330
2
100
AcDbEntity
  8
UMRISS05
100
AcDbLine
 10
848.249598636343
 20
329.7568947076019
 30
0.0
 11
848.249598636343
 21
319.7568947075983
 31
0.0
  0
LINE
  5
96
330
2
100
AcDbEntity
  8
UMRISS05
100
AcDbLine
 10
846.7495986363431
 20
329.7568947076019
 30
0.0
 11
846.7495986363431
 21
319.7568947075983
 31
0.0
  0
LINE
  5
97
330
2
100
AcDbEntity
  8
UMRISS05
100
AcDbLine
 10
846.7495986363431
 20
329.7568947076019
 30
0.0
 11
848.249598636343
 21
329.7568947076019
 31
0.0
  0
LINE
  5
98
330
2
100
AcDbEntity
  8
UMRISS05
100
AcDbLine
 10
846.7495986363431
 20
319.7568947075983
 30
0.0
 11
848.249598636343
 21
319.7568947075983
 31
0.0
  0
LINE
  5
99
330
2
100
AcDbEntity
  8
UMRISS05
100
AcDbLine
 10
848.249598636343
 20
329.7568947076019
 30
0.0
 11
848.249598636343
 21
319.7568947075983
 31
0.0
  0
LINE
  5
9A
330
2
100
AcDbEntity
  8
UMRISS05
100
AcDbLine
 10
846.7495986363431
 20
329.7568947076019
 30
0.0
 11
846.7495986363431
 21
319.7568947075983
 31
0.0
  0
DIMENSION
  5
9B
330
2
100
AcDbEntity
  8
BEMASSUNG
  6
Continuous
100
AcDbDimension
  2
*D30
 10
674.7177682580434
 20
484.3981634006764
 30
0.0
 11
673.2177682580434
 21
488.7981634006766
 31
0.0
 71
     5
 42
3.0
  3
PROSPEKT
100
AcDbAlignedDimension
 13
671.7177682580434
 23
467.8257031729489
 33
0.0
 14
674.7177682580434
 24
467.8257031729489
 34
0.0
100
AcDbRotatedDimension
  0
LINE
  5
AA
330
2
100
AcDbEntity
  8
ACHSEN
100
AcDbLine
 10
841.3495986363432
 20
458.8257031729491
 30
0.0
 11
854.8495986363432
 21
458.8257031729491
 31
0.0
  0
ARC
  5
AD
330
2
100
AcDbEntity
  8
UMRISS05
100
AcDbCircle
 10
848.0995986363435
 20
457.8257031729491
 30
0.0
 40
10.0
100
AcDbArc
 50
0.0
 51
180.0
  0
CIRCLE
  5
AE
330
2
100
AcDbEntity
  8
UMRISS05
100
AcDbCircle
 10
848.0995986363435
 20
458.8257031729491
 30
0.0
 40
2.549999999999998
  0
CIRCLE
  5
AF
330
2
100
AcDbEntity
  8
UMRISS05
100
AcDbCircle
 10
848.0995986363435
 20
458.8257031729491
 30
0.0
 40
4.75
  0
LINE
  5
B0
330
2
100
AcDbEntity
  8
ACHSEN
100
AcDbLine
 10
848.0995986363435
 20
465.5757031729491
 30
0.0
 11
848.0995986363435
 21
452.0757031729491
 31
0.0
  0
LINE
  5
B1
330
2
100
AcDbEntity
  8
UMRISS05
100
AcDbLine
 10
841.4995986363434
 20
417.9257031729498
 30
0.0
 11
844.5995986363437
 21
417.9257031729498
 31
0.0
  0
LINE
  5
B2
330
2
100
AcDbEntity
  8
UMRISS05
100
AcDbLine
 10
844.5995986363437
 20
415.4257031729496
 30
0.0
 11
852.4995986363435
 21
415.4257031729498
 31
0.0
  0
LINE
  5
B3
330
2
100
AcDbEntity
  8
UMRISS05
100
AcDbLine
 10
844.5995986363437
 20
390.2257031729498
 30
0.0
 11
852.4995986363435
 21
390.2257031729498
 31
0.0
  0
LINE
  5
B4
330
2
100
AcDbEntity
  8
UMRISS05
100
AcDbLine
 10
841.4995986363434
 20
387.7257031729499
 30
0.0
 11
844.5995986363437
 21
387.7257031729498
 31
0.0
  0
DIMENSION
  5
B5
330
2
100
AcDbEntity
  8
BEMASSUNG
  6
Continuous
100
AcDbDimension
  2
*D28
 10
852.4995986363435
 20
373.2918346438639
 30
0.0
 11
846.2655181859627
 21
377.8020564890197
 31
0.0
 70
   128
 71
     5
 42
11.00000000000022
  3
PROSPEKT
100
AcDbAlignedDimension
 13
841.4995986363434
 23
387.7257031729499
 33
0.0
 14
852.4995986363435
 24
390.2257031729498
 34
0.0
100
AcDbRotatedDimension
  0
LINE
  5
C4
330
2
100
AcDbEntity
  8
UMRISS05
100
AcDbLine
 10
852.4995986363435
 20
415.4257031729498
 30
0.0
 11
852.4995986363435
 21
390.2257031729498
 31
0.0
  0
ARC
  5
C5
330
2
100
AcDbEntity
  8
UMRISS05
100
AcDbCircle
 10
765.7195986363436
 20
402.8257031729499
 30
0.0
 40
79.88000000000024
100
AcDbArc
 50
350.9244549841865
 51
9.07554501581348
  0
LINE
  5
C6
330
2
100
AcDbEntity
  8
UMRISS05
100
AcDbLine
 10
844.5995986363437
 20
417.9257031729499
 30
0.0
 11
844.5995986363437
 21
387.7257031729498
 31
0.0
  0
LINE
  5
C7
330
2
100
AcDbEntity
  8
UMRISS05
100
AcDbLine
 10
841.4995986363434
 20
417.9257031729498
 30
0.0
 11
841.4995986363434
 21
387.7257031729499
 31
0.0
  0
LINE
  5
C8
330
2
100
AcDbEntity
  8
UMRISS05
100
AcDbLine
 10
742.9177682580432
 20
430.8257031729492
 30
0.0
 11
743.2227935112124
 21
430.6993575762207
 31
0.0
  0
LINE
  5
C9
330
2
100
AcDbEntity
  8
UMRISS05
100
AcDbLine
 10
744.2834536829922
 20
431.7600177480005
 30
0.0
 11
743.2227935112124
 21
430.6993575762207
 31
0.0
  0
LINE
  5
CA
330
2
100
AcDbEntity
  8
UMRISS05
100
AcDbLine
 10
742.9177682580432
 20
432.3257031729491
 30
0.0
 11
742.9177682580432
 21
430.8257031729492
 31
0.0
  0
ARC
  5
CB
330
2
100
AcDbEntity
  8
UMRISS05
100
AcDbCircle
 10
729.5177682580437
 20
431.5373907687046
 30
0.0
 40
0.2
100
AcDbArc
 50
295.0289994876284
 51
0.0
  0
LINE
  5
CC
330
2
100
AcDbEntity
  8
UMRISS05
100
AcDbLine
 10
729.7177682580434
 20
431.5373907687046
 30
0.0
 11
729.7177682580434
 21
432.3257031729491
 31
0.0
  0
ARC
  5
CD
330
2
100
AcDbEntity
  8
UMRISS05
100
AcDbCircle
 10
733.9177682580436
 20
431.5373907687046
 30
0.0
 40
0.2
100
AcDbArc
 50
180.0
 51
244.9710005123717
  0
LINE
  5
CE
330
2
100
AcDbEntity
  8
UMRISS05
100
AcDbLine
 10
733.7177682580434
 20
431.5373907687046
 30
0.0
 11
733.7177682580434
 21
432.3257031729491
 31
0.0
  0
LINE
  5
CF
330
2
100
AcDbEntity
  8
UMRISS05
100
AcDbLine
 10
733.717768258043
 20
432.3257031729491
 30
0.0
 11
742.9177682580432
 21
432.3257031729491
 31
0.0
  0
LINE
  5
D0
330
2
100
AcDbEntity
  8
UMRISS05
100
AcDbLine
 10
760.7177682580434
 20
415.3257031729491
 30
0.0
 11
759.6571080862636
 21
414.2650430011693
 31
0.0
  0
LINE
  5
D1
330
2
100
AcDbEntity
  8
UMRISS05
100
AcDbLine
 10
759.6571080862636
 20
414.2650430011693
 30
0.0
 11
760.7162234823257
 21
413.2059276051071
 31
0.0
  0
LINE
  5
D2
330
2
100
AcDbEntity
  8
UMRISS03
100
AcDbLine
 10
743.1638198166467
 20
419.6581563596395
 30
0.0
 11
748.0502214447331
 21
417.8796516143462
 31
0.0
  0
LINE
  5
D3
330
2
100
AcDbEntity
  8
UMRISS03
100
AcDbLine
 10
741.3853150713532
 20
414.7717547315528
 30
0.0
 11
746.2717166994401
 21
412.9932499862595
 31
0.0
  0
LINE
  5
D4
330
2
100
AcDbEntity
  8
UMRISS03
100
AcDbLine
 10
741.3853150713532
 20
414.7717547315528
 30
0.0
 11
743.1638198166467
 21
419.6581563596395
 31
0.0
  0
LINE
  5
D5
330
2
100
AcDbEntity
  8
UMRISS03
100
AcDbLine
 10
746.2717166994401
 20
412.9932499862595
 30
0.0
 11
748.0502214447331
 21
417.8796516143462
 31
0.0
  0
LINE
  5
D6
330
2
100
AcDbEntity
  8
ACHSEN
100
AcDbLine
 10
745.9898026245824
 20
419.820588871787
 30
0.0
 11
743.4457338915033
 21
412.8308174741112
 31
0.0
  0
LINE
  5
D7
330
2
100
AcDbEntity
  8
ACHSEN
100
AcDbLine
 10
747.7775368358436
 20
415.2120384868868
 30
0.0
 11
741.6579996802422
 21
417.4393678590116
 31
0.0
  0
LINE
  5
D8
330
2
100
AcDbEntity
  8
ACHSEN
100
AcDbLine
 10
724.9624353000768
 20
426.8257031729496
 30
0.0
 11
738.4731012160092
 21
426.8257031729496
 31
0.0
  0
LINE
  5
D9
330
2
100
AcDbEntity
  8
ACHSEN
100
AcDbLine
 10
738.1767948682822
 20
426.8257031729496
 30
0.0
 11
725.2587416478047
 21
426.8257031729496
 31
0.0
  0
LWPOLYLINE
  5
DA
330
2
100
AcDbEntity
  8
UMRISS03
100
AcDbPolyline
 90
       24
 70
     1
 43
0.0
 10
734.4177682580435
 20
400.8257031729496
 10
734.0177682580437
 20
400.8257031729502
 42
0.4142135623733172
 10
733.7177682580434
 20
400.5257031729501
 10
733.7177682580434
 20
399.4257031729501
 42
-0.4142135623732059
 10
733.6177682580435
 20
399.3257031729502
 10
732.5177682580434
 20
399.3257031729503
 42
0.4142135623731427
 10
732.2177682580432
 20
399.0257031729504
 10
732.2177682580432
 20
398.6257031729506
 42
0.4142135623731427
 10
732.5177682580434
 20
398.3257031729506
 10
733.6177682580435
 20
398.3257031729511
 42
-0.4142135623731298
 10
733.7177682580434
 20
398.2257031729512
 10
733.7177682580434
 20
397.1257031729499
 42
0.4142135623730774
 10
734.0177682580437
 20
396.8257031729499
 10
734.4177682580436
 20
396.8257031729502
 42
0.4142135623731189
 10
734.7177682580434
 20
397.1257031729501
 10
734.7177682580434
 20
398.2257031729505
 42
-0.414213562373123
 10
734.8177682580431
 20
398.3257031729504
 10
735.9177682580433
 20
398.3257031729506
 42
0.4142135623730951
 10
736.2177682580432
 20
398.6257031729506
 10
736.2177682580432
 20
399.02570317295
 42
0.4142135623730475
 10
735.9177682580433
 20
399.3257031729499
 10
734.8177682580431
 20
399.3257031729503
 42
-0.4142135623729705
 10
734.7177682580434
 20
399.4257031729503
 10
734.7177682580434
 20
400.5257031729497
 42
0.4142135623730831
  0
LINE
  5
DB
330
2
100
AcDbEntity
  8
1855
100
AcDbLine
 10
736.2177682580438
 20
385.3257031729502
 30
0.0
 11
736.2177682580436
 21
376.3257031729502
 31
0.0
  0
LINE
  5
DC
330
2
100
AcDbEntity
  8
1855
100
AcDbLine
 10
736.2177682580436
 20
385.3257031729502
 30
0.0
 11
727.2177682580432
 21
385.3257031729501
 31
0.0
  0
LINE
  5
DD
330
2
100
AcDbEntity
  8
1855
100
AcDbLine
 10
727.2177682580432
 20
385.32570317295
 30
0.0
 11
727.2177682580434
 21
376.3257031729502
 31
0.0
  0
LINE
  5
DE
330
2
100
AcDbEntity
  8
1855
100
AcDbLine
 10
727.2177682580434
 20
376.3257031729502
 30
0.0
 11
736.2177682580438
 21
376.3257031729502
 31
0.0
  0
DIMENSION
  5
DF
330
2
100
AcDbEntity
  8
BEMASSUNG
  6
Continuous
100
AcDbDimension
  2
*D27
 10
727.2177682580432
 20
390.6186259306899
 30
0.0
 11
720.0022573795664
 21
395.4117212561178
 31
0.0
 70
   128
  1
9
 71
     5
 42
9.000000000000568
  3
PROSPEKT
100
AcDbAlignedDimension
 13
736.2177682580438
 23
384.8257031729503
 33
0.0
 14
727.2177682580432
 24
384.8257031729503
 34
0.0
100
AcDbRotatedDimension
  0
CIRCLE
  5
EE
330
2
100
AcDbEntity
  8
UMRISS05
100
AcDbCircle
 10
731.7177682580432
 20
380.8257031729502
 30
0.0
 40
8.0
  0
LINE
  5
EF
330
2
100
AcDbEntity
  8
ACHSEN
100
AcDbLine
 10
742.5761190233837
 20
380.82570317295
 30
0.0
 11
721.7177682580434
 21
380.8257031729502
 31
0.0
  0
CIRCLE
  5
F0
330
2
100
AcDbEntity
  8
UMRISS03
100
AcDbCircle
 10
734.2177682580434
 20
398.8257031729503
 30
0.0
 40
3.5
  0
DIMENSION
  5
F1
330
2
100
AcDbEntity
  8
BEMASSUNG
  6
Continuous
100
AcDbDimension
  2
*D26
 10
775.7484220287641
 20
426.8257031729499
 30
0.0
 11
771.3484220287641
 21
403.8257031729499
 31
0.0
 71
     5
 42
46.0
  3
PROSPEKT
100
AcDbAlignedDimension
 13
742.5761190233837
 23
380.82570317295
 33
0.0
 14
738.7177682580434
 24
426.8257031729499
 34
0.0
 50
90.0
100
AcDbRotatedDimension
  0
ARC
  5
FE
330
2
100
AcDbEntity
  8
UMRISS05
100
AcDbCircle
 10
731.7177682580432
 20
426.8257031729499
 30
0.0
 40
5.0
100
AcDbArc
 50
115.7192795021853
 51
64.28072049781471
  0
LINE
  5
FF
330
2
100
AcDbEntity
  8
UMRISS05
100
AcDbLine
 10
744.2834536829922
 20
431.7600177480005
 30
0.0
 11
760.7177682580434
 21
415.3257031729491
 31
0.0
  0
CIRCLE
  5
100
330
2
100
AcDbEntity
  8
UMRISS05
100
AcDbCircle
 10
731.7177682580432
 20
426.8257031729499
 30
0.0
 40
4.5
  0
DIMENSION
  5
101
330
2
100
AcDbEntity
  8
BEMASSUNG
  6
Continuous
100
AcDbDimension
  2
*D25
 10
786.9883710516448
 20
380.82570317295
 30
0.0
 11
782.5883710516445
 21
406.5757031729502
 31
0.0
 71
     5
 42
51.50000000000023
  3
PROSPEKT
100
AcDbAlignedDimension
 13
742.9177682580432
 23
432.3257031729501
 33
0.0
 14
755.3177682580431
 24
380.82570317295
 34
0.0
 50
90.0
100
AcDbRotatedDimension
  0
DIMENSION
  5
10E
330
2
100
AcDbEntity
  8
BEMASSUNG
  6
Continuous
100
AcDbDimension
  2
*D24
 10
736.2177682580432
 20
442.9890593462162
 30
0.0
 11
731.4249496397763
 21
447.9759718193474
 31
0.0
 70
   128
 71
     5
 42
9.0
  3
PROSPEKT
100
AcDbAlignedDimension
 13
727.2177682580434
 23
426.8257031729499
 33
0.0
 14
736.2177682580432
 24
426.8257031729499
 34
0.0
100
AcDbRotatedDimension
  0
DIMENSION
  5
11D
330
2
100
AcDbEntity
  8
BEMASSUNG
  6
Continuous
100
AcDbDimension
  2
*D23
 10
838.0995986363434
 20
404.0947077700042
 30
0.0
 11
826.6887361721092
 21
408.465339494251
 31
0.0
 70
   128
 71
     5
 42
3.40000000000009
  3
PROSPEKT
100
AcDbAlignedDimension
 13
841.4995986363434
 23
403.8930903967479
 33
0.0
 14
838.0995986363434
 24
404.1955164566318
 34
0.0
100
AcDbRotatedDimension
  0
DIMENSION
  5
12C
330
2
100
AcDbEntity
  8
BEMASSUNG
  6
Continuous
100
AcDbDimension
  2
*D22
 10
824.3363282344141
 20
467.8257031729491
 30
0.0
 11
819.8989455619207
 21
463.6151188980691
 31
0.0
 70
   128
 71
     5
 42
9.0
  3
PROSPEKT
100
AcDbAlignedDimension
 13
841.3495986363432
 23
458.8257031729491
 33
0.0
 14
848.0995986363435
 24
467.8257031729491
 34
0.0
 50
90.0
100
AcDbRotatedDimension
  0
LINE
  5
13B
330
2
100
AcDbEntity
  8
UMRISS05
100
AcDbLine
 10
671.7177682580434
 20
467.8257031729489
 30
0.0
 11
674.7177682580434
 21
467.8257031729489
 31
0.0
  0
LINE
  5
13C
330
2
100
AcDbEntity
  8
ACHSEN
100
AcDbLine
 10
681.2177682580437
 20
458.8257031729489
 30
0.0
 11
666.7177682580391
 21
458.8257031729489
 31
0.0
  0
DIMENSION
  5
13D
330
2
100
AcDbEntity
  8
BEMASSUNG
  6
Continuous
100
AcDbDimension
  2
*D21
 10
629.4752269942422
 20
432.3257031729491
 30
0.0
 11
625.0752269942422
 21
450.0757031729492
 31
0.0
 71
     5
 42
35.4999999999999
  3
PROSPEKT
100
AcDbAlignedDimension
 13
671.7177682580434
 23
467.8257031729489
 33
0.0
 14
674.7177682580415
 24
432.3257031729491
 34
0.0
 50
90.0
100
AcDbRotatedDimension
  0
LINE
  5
14A
330
2
100
AcDbEntity
  8
UMRISS05
100
AcDbLine
 10
686.2177682580436
 20
417.8257031729502
 30
0.0
 11
679.7177682580429
 21
417.8257031729502
 31
0.0
  0
LINE
  5
14B
330
2
100
AcDbEntity
  8
UMRISS05
100
AcDbLine
 10
674.7177682580436
 20
417.8256938178416
 30
0.0
 11
679.7177682580429
 21
417.8256938178416
 31
0.0
  0
LINE
  5
14C
330
2
100
AcDbEntity
  8
UMRISS05
100
AcDbLine
 10
681.7177856898157
 20
405.8256938178413
 30
0.0
 11
686.2177682580432
 21
405.8256938178413
 31
0.0
  0
LINE
  5
14D
330
2
100
AcDbEntity
  8
UMRISS05
100
AcDbLine
 10
675.7177856898159
 20
414.8256938178413
 30
0.0
 11
674.7177682580436
 21
414.8256938178413
 31
0.0
  0
ARC
  5
14E
330
2
100
AcDbEntity
  8
UMRISS05
100
AcDbCircle
 10
678.3279302418824
 20
412.2663013533446
 30
0.0
 40
2.0
100
AcDbArc
 50
137.5000000000032
 51
227.5000000000006
  0
LINE
  5
14F
330
2
100
AcDbEntity
  8
UMRISS05
100
AcDbLine
 10
676.8533755682621
 20
413.6174817685756
 30
0.0
 11
680.7095000282576
 21
417.8257031729502
 31
0.0
  0
LINE
  5
150
330
2
100
AcDbEntity
  8
UMRISS05
100
AcDbLine
 10
676.4847368998571
 20
413.9552768723838
 30
0.0
 11
680.0313291758032
 21
417.8257031729502
 31
0.0
  0
LINE
  5
151
330
2
100
AcDbEntity
  8
ACHSEN
100
AcDbLine
 10
677.7177856898157
 20
402.8256938178413
 30
0.0
 11
659.7177856898157
 21
402.8256938178413
 31
0.0
  0
LINE
  5
152
330
2
100
AcDbEntity
  8
UMRISS05
100
AcDbLine
 10
671.7177682580437
 20
414.8256938178413
 30
0.0
 11
661.7177856898157
 21
414.8256938178413
 31
0.0
  0
LINE
  5
153
330
2
100
AcDbEntity
  8
UMRISS05
100
AcDbLine
 10
661.7177856898157
 20
417.8256938178415
 30
0.0
 11
671.7177682580436
 21
417.8256938178415
 31
0.0
  0
LINE
  5
154
330
2
100
AcDbEntity
  8
UMRISS05
100
AcDbLine
 10
680.7185142984046
 20
393.3258371808765
 30
0.0
 11
686.2177682580432
 21
393.3258371808765
 31
0.0
  0
LINE
  5
155
330
2
100
AcDbEntity
  8
UMRISS05
100
AcDbLine
 10
681.7177856898157
 20
399.8256938178414
 30
0.0
 11
686.2177682580432
 21
399.8256938178412
 31
0.0
  0
LINE
  5
156
330
2
100
AcDbEntity
  8
UMRISS05
100
AcDbLine
 10
678.7185142984046
 20
391.3258371808765
 30
0.0
 11
678.7185142984046
 21
388.8257031729498
 31
0.0
  0
LINE
  5
157
330
2
100
AcDbEntity
  8
UMRISS05
100
AcDbLine
 10
675.7177856898159
 20
390.8256938178413
 30
0.0
 11
674.7177682580436
 21
390.8256938178413
 31
0.0
  0
LINE
  5
158
330
2
100
AcDbEntity
  8
UMRISS05
100
AcDbLine
 10
678.1135093964634
 20
409.0719275960881
 30
0.0
 11
678.4513045002714
 21
409.440566264493
 31
0.0
  0
LINE
  5
159
330
2
100
AcDbEntity
  8
UMRISS05
100
AcDbLine
 10
676.6389547228434
 20
410.4231080113195
 30
0.0
 11
678.1135093964634
 21
409.0719275960881
 31
0.0
  0
ARC
  5
15A
330
2
100
AcDbEntity
  8
UMRISS05
100
AcDbCircle
 10
680.7185142984046
 20
391.3258371808765
 30
0.0
 40
2.0
100
AcDbArc
 50
90.0
 51
180.0
  0
LINE
  5
15B
330
2
100
AcDbEntity
  8
UMRISS05
100
AcDbLine
 10
674.7177682580434
 20
388.8257031729499
 30
0.0
 11
686.2177682580432
 21
388.8257031729497
 31
0.0
  0
LINE
  5
15C
330
2
100
AcDbEntity
  8
UMRISS05
100
AcDbLine
 10
671.7177682580437
 20
390.8256938178413
 30
0.0
 11
661.7177856898157
 21
390.8256938178413
 31
0.0
  0
LINE
  5
15D
330
2
100
AcDbEntity
  8
UMRISS05
100
AcDbLine
 10
661.7177856898157
 20
387.8256938178413
 30
0.0
 11
671.7177682580437
 21
387.8256938178413
 31
0.0
  0
LINE
  5
15E
330
2
100
AcDbEntity
  8
UMRISS05
100
AcDbLine
 10
661.7177856898157
 20
387.8256938178413
 30
0.0
 11
661.7177856898157
 21
417.8256938178415
 31
0.0
  0
LINE
  5
15F
330
2
100
AcDbEntity
  8
UMRISS05
100
AcDbLine
 10
670.7177856898152
 20
390.8256938178413
 30
0.0
 11
670.7177856898152
 21
414.8256938178413
 31
0.0
  0
LINE
  5
160
330
2
100
AcDbEntity
  8
UMRISS05
100
AcDbLine
 10
686.2177682580432
 20
388.8257031729497
 30
0.0
 11
686.2177682580436
 21
417.8257031729502
 31
0.0
  0
LINE
  5
161
330
2
100
AcDbEntity
  8
UMRISS05
100
AcDbLine
 10
675.7177856898159
 20
390.8256938178413
 30
0.0
 11
675.7177856898159
 21
414.8256938178413
 31
0.0
  0
ARC
  5
162
330
2
100
AcDbEntity
  8
UMRISS05
100
AcDbCircle
 10
681.7177856898157
 20
402.8256938178413
 30
0.0
 40
3.0
100
AcDbArc
 50
90.0
 51
270.0
  0
ARC
  5
163
330
2
100
AcDbEntity
  8
UMRISS05
100
AcDbCircle
 10
678.3279302418824
 20
412.2663013533446
 30
0.0
 40
2.5
100
AcDbArc
 50
137.5000000000026
 51
227.5000000000014
  0
LINE
  5
164
330
2
100
AcDbEntity
  8
UMRISS05
100
AcDbLine
 10
676.9767498266512
 20
410.7917466797243
 30
0.0
 11
678.4513045002714
 21
409.440566264493
 31
0.0
  0
DIMENSION
  5
165
330
2
100
AcDbEntity
  8
BEMASSUNG
  6
Continuous
100
AcDbDimension
  2
*D20
 10
629.5541703109629
 20
417.8256938178415
 30
0.0
 11
624.3768318574942
 21
402.2373330204517
 31
0.0
 70
   128
 71
     5
 42
30.00000000000017
  3
PROSPEKT
100
AcDbAlignedDimension
 13
661.7177856898157
 23
387.8256938178413
 33
0.0
 14
661.7177856898157
 24
417.8256938178413
 34
0.0
 50
90.0
100
AcDbRotatedDimension
  0
DIMENSION
  5
172
330
2
100
AcDbEntity
  8
BEMASSUNG
  6
Continuous
100
AcDbDimension
  2
*D19
 10
629.5505771950389
 20
432.3257031729491
 30
0.0
 11
625.1505771950387
 21
425.0756984953953
 31
0.0
 71
     5
 42
14.50000935510763
  3
PROSPEKT
100
AcDbAlignedDimension
 13
657.7007309097838
 23
417.8256938178415
 33
0.0
 14
670.7007134780093
 24
432.3257031729491
 34
0.0
 50
90.0
100
AcDbRotatedDimension
  0
DIMENSION
  5
181
330
2
100
AcDbEntity
  8
BEMASSUNG
  6
Continuous
100
AcDbDimension
  2
*D18
 10
671.7177682580438
 20
422.9024932998393
 30
0.0
 11
666.7177769739297
 21
427.3024932998391
 31
0.0
 71
     5
 42
9.999982568228119
  3
PROSPEKT
100
AcDbAlignedDimension
 13
661.7177856898157
 23
417.8256938178415
 33
0.0
 14
671.7177682580438
 24
425.5851346035893
 34
0.0
100
AcDbRotatedDimension
  0
DIMENSION
  5
190
330
2
100
AcDbEntity
  8
BEMASSUNG
  6
Continuous
100
AcDbDimension
  2
*D17
 10
703.7910097316983
 20
380.8257031729502
 30
0.0
 11
699.3910097316979
 21
391.8256984953959
 31
0.0
 71
     5
 42
21.99999064489123
  3
PROSPEKT
100
AcDbAlignedDimension
 13
675.7177856898159
 23
402.8256938178413
 33
0.0
 14
708.1177682580435
 24
380.8257031729502
 34
0.0
 50
90.0
100
AcDbRotatedDimension
  0
LINE
  5
19D
330
2
100
AcDbEntity
  8
UMRISS05
100
AcDbLine
 10
674.7177682580415
 20
432.3257031729491
 30
0.0
 11
729.7177682580429
 21
432.3257031729491
 31
0.0
  0
LINE
  5
19E
330
2
100
AcDbEntity
  8
UMRISS05
100
AcDbLine
 10
841.7995986363436
 20
339.9257031729499
 30
0.0
 11
849.2995986363435
 21
339.9257031729499
 31
0.0
  0
LINE
  5
19F
330
2
100
AcDbEntity
  8
UMRISS05
100
AcDbLine
 10
841.7995986363436
 20
309.7257031729498
 30
0.0
 11
849.2995986363435
 21
309.7257031729498
 31
0.0
  0
LINE
  5
1A0
330
2
100
AcDbEntity
  8
ACHSEN
100
AcDbLine
 10
839.3495986363435
 20
284.4257031729498
 30
0.0
 11
852.8495986363433
 21
284.4257031729498
 31
0.0
  0
DIMENSION
  5
1A1
330
2
100
AcDbEntity
  8
BEMASSUNG
  6
Continuous
100
AcDbDimension
  2
*D16
 10
849.2995986363435
 20
299.0902232710945
 30
0.0
 11
828.9264176951437
 21
306.9242233716364
 31
0.0
 70
   128
 71
     5
 42
7.499999999999772
  3
PROSPEKT
100
AcDbAlignedDimension
 13
841.7995986363436
 23
309.7257031729498
 33
0.0
 14
849.2995986363435
 24
309.7257031729498
 34
0.0
100
AcDbRotatedDimension
  0
CIRCLE
  5
1B0
330
2
100
AcDbEntity
  8
UMRISS05
100
AcDbCircle
 10
846.0995986363434
 20
284.4257031729498
 30
0.0
 40
2.75
  0
CIRCLE
  5
1B1
330
2
100
AcDbEntity
  8
UMRISS05
100
AcDbCircle
 10
846.0995986363434
 20
284.4257031729498
 30
0.0
 40
4.75
  0
LINE
  5
1B2
330
2
100
AcDbEntity
  8
ACHSEN
100
AcDbLine
 10
846.0995986363434
 20
291.1757031729499
 30
0.0
 11
846.0995986363434
 21
277.6757031729498
 31
0.0
  0
LINE
  5
1B3
330
2
100
AcDbEntity
  8
UMRISS05
100
AcDbLine
 10
841.7995986363436
 20
339.9257031729499
 30
0.0
 11
841.7995986363436
 21
309.7257031729498
 31
0.0
  0
LINE
  5
1B4
330
2
100
AcDbEntity
  8
UMRISS05
100
AcDbLine
 10
849.2995986363435
 20
339.9257031729499
 30
0.0
 11
849.2995986363435
 21
309.7257031729498
 31
0.0
  0
LWPOLYLINE
  5
1B5
330
2
100
AcDbEntity
  8
UMRISS03
100
AcDbPolyline
 90
       24
 70
     1
 43
0.0
 10
713.9177682580433
 20
366.8257031729496
 10
713.5177682580437
 20
366.82570317295
 42
0.4142135623733172
 10
713.2177682580434
 20
366.52570317295
 10
713.2177682580434
 20
365.4257031729498
 42
-0.4142135623732059
 10
713.1177682580434
 20
365.3257031729499
 10
712.0177682580434
 20
365.3257031729503
 42
0.4142135623731427
 10
711.7177682580432
 20
365.0257031729502
 10
711.7177682580432
 20
364.6257031729504
 42
0.4142135623731427
 10
712.0177682580434
 20
364.3257031729504
 10
713.1177682580434
 20
364.3257031729508
 42
-0.4142135623731298
 10
713.2177682580434
 20
364.2257031729509
 10
713.2177682580434
 20
363.1257031729497
 42
0.4142135623730774
 10
713.5177682580437
 20
362.8257031729497
 10
713.9177682580436
 20
362.8257031729499
 42
0.4142135623731189
 10
714.2177682580434
 20
363.1257031729499
 10
714.2177682580434
 20
364.2257031729503
 42
-0.414213562373123
 10
714.3177682580431
 20
364.3257031729502
 10
715.4177682580433
 20
364.3257031729504
 42
0.4142135623730951
 10
715.7177682580432
 20
364.6257031729504
 10
715.7177682580432
 20
365.0257031729498
 42
0.4142135623730475
 10
715.4177682580433
 20
365.3257031729497
 10
714.3177682580431
 20
365.3257031729503
 42
-0.4142135623729705
 10
714.2177682580434
 20
365.4257031729502
 10
714.2177682580434
 20
366.5257031729495
 42
0.4142135623730831
  0
CIRCLE
  5
1B6
330
2
100
AcDbEntity
  8
UMRISS03
100
AcDbCircle
 10
713.7177682580434
 20
364.8257031729502
 30
0.0
 40
3.5
  0
LINE
  5
1B7
330
2
100
AcDbEntity
  8
ACHSEN
100
AcDbLine
 10
738.0803786579815
 20
359.3257031729534
 30
0.0
 11
725.3551578581054
 21
359.3257031729534
 31
0.0
  0
CIRCLE
  5
1B8
330
2
100
AcDbEntity
  8
UMRISS05
100
AcDbCircle
 10
731.7177682580432
 20
359.3257031729536
 30
0.0
 40
5.0
  0
LINE
  5
1B9
330
2
100
AcDbEntity
  8
ACHSEN
100
AcDbLine
 10
738.7177682580434
 20
359.3257031729536
 30
0.0
 11
724.7177682580434
 21
359.3257031729536
 31
0.0
  0
LINE
  5
1BA
330
2
100
AcDbEntity
  8
UMRISS03
100
AcDbLine
 10
727.4677495735212
 20
320.2193574440357
 30
0.0
 11
731.7177682580432
 21
320.2193574440355
 31
0.0
  0
LINE
  5
1BB
330
2
100
AcDbEntity
  8
UMRISS03
100
AcDbLine
 10
731.7177682580432
 20
324.2193574440355
 30
0.0
 11
727.4677495735211
 21
324.2193574440353
 31
0.0
  0
ARC
  5
1BC
330
2
100
AcDbEntity
  8
UMRISS03
100
AcDbCircle
 10
731.7177682580432
 20
322.2193574440354
 30
0.0
 40
2.0
100
AcDbArc
 50
269.9999999999935
 51
90.0
  0
ARC
  5
1BD
330
2
100
AcDbEntity
  8
UMRISS03
100
AcDbCircle
 10
713.8608918668388
 20
319.8257031729495
 30
0.0
 40
7.0
100
AcDbArc
 50
269.999999999987
 51
315.0000000000014
  0
ARC
  5
1BE
330
2
100
AcDbEntity
  8
UMRISS03
100
AcDbCircle
 10
713.8608918668393
 20
319.8257031729497
 30
0.0
 40
3.0
100
AcDbArc
 50
254.3255346997044
 51
315.0000000000014
  0
LINE
  5
1BF
330
2
100
AcDbEntity
  8
UMRISS03
100
AcDbLine
 10
718.9824681992827
 20
320.7046388182744
 30
0.0
 11
715.982212210399
 21
317.7043828293902
 31
0.0
  0
LINE
  5
1C0
330
2
100
AcDbEntity
  8
UMRISS03
100
AcDbLine
 10
718.8106393351453
 20
314.875955704644
 30
0.0
 11
721.8108953240289
 21
317.8762116935282
 31
0.0
  0
LINE
  5
1C1
330
2
100
AcDbEntity
  8
UMRISS03
100
AcDbLine
 10
710.2177682580434
 20
317.6257031729499
 30
0.0
 11
710.4802937280212
 21
317.6257031729501
 31
0.0
  0
ARC
  5
1C2
330
2
100
AcDbEntity
  8
UMRISS03
100
AcDbCircle
 10
710.2177682580434
 20
314.32570317295
 30
0.0
 40
1.5
100
AcDbArc
 50
179.9999999999992
 51
269.999999999987
  0
ARC
  5
1C3
330
2
100
AcDbEntity
  8
UMRISS03
100
AcDbCircle
 10
710.2177682580434
 20
316.1257031729499
 30
0.0
 40
1.5
100
AcDbArc
 50
90.0
 51
180.0
  0
LINE
  5
1C4
330
2
100
AcDbEntity
  8
UMRISS03
100
AcDbLine
 10
708.7177682580434
 20
316.1257031729499
 30
0.0
 11
708.7177682580434
 21
314.32570317295
 31
0.0
  0
CIRCLE
  5
1C5
330
2
100
AcDbEntity
  8
UMRISS03
100
AcDbCircle
 10
711.7177682580424
 20
314.8257031729496
 30
0.0
 40
2.0
  0
LINE
  5
1C6
330
2
100
AcDbEntity
  8
UMRISS03
100
AcDbLine
 10
713.0844347315317
 20
316.9279256940825
 30
0.0
 11
710.4802937280212
 21
317.6257031729501
 31
0.0
  0
LINE
  5
1C7
330
2
100
AcDbEntity
  8
UMRISS03
100
AcDbLine
 10
710.2177682580432
 20
312.8257031729499
 30
0.0
 11
713.860891866838
 21
312.8257031729495
 31
0.0
  0
ARC
  5
1C8
330
2
100
AcDbEntity
  8
UMRISS03
100
AcDbCircle
 10
727.4677495735212
 20
312.2193574440357
 30
0.0
 40
8.0
100
AcDbArc
 50
90.0
 51
135.0000000000004
  0
ARC
  5
1C9
330
2
100
AcDbEntity
  8
UMRISS03
100
AcDbCircle
 10
727.4677495735208
 20
312.2193574440353
 30
0.0
 40
12.0
100
AcDbArc
 50
90.0
 51
134.9999999999994
  0
LINE
  5
1CA
330
2
100
AcDbEntity
  8
UMRISS05
100
AcDbLine
 10
760.7177682580434
 20
290.3257031729503
 30
0.0
 11
759.6571080862636
 21
291.3863633447301
 31
0.0
  0
LINE
  5
1CB
330
2
100
AcDbEntity
  8
UMRISS05
100
AcDbLine
 10
760.7177682580434
 20
290.3257031729503
 30
0.0
 11
759.6571080862636
 21
291.3863633447301
 31
0.0
  0
LINE
  5
1CC
330
2
100
AcDbEntity
  8
UMRISS05
100
AcDbLine
 10
759.6571080862636
 20
291.3863633447301
 30
0.0
 11
760.7177682580429
 21
292.4470235165097
 31
0.0
  0
LINE
  5
1CD
330
2
100
AcDbEntity
  8
ACHSEN
100
AcDbLine
 10
756.2177682580434
 20
295.4257031729503
 30
0.0
 11
745.2177682580432
 21
295.4257031729503
 31
0.0
  0
LINE
  5
1CE
330
2
100
AcDbEntity
  8
ACHSEN
100
AcDbLine
 10
741.7177682580434
 20
292.9257031729502
 30
0.0
 11
741.7177682580434
 21
283.7257031729498
 31
0.0
  0
LINE
  5
1CF
330
2
100
AcDbEntity
  8
ACHSEN
100
AcDbLine
 10
746.3177682580432
 20
288.3257031729499
 30
0.0
 11
737.1177682580435
 21
288.3257031729499
 31
0.0
  0
CIRCLE
  5
1D0
330
2
100
AcDbEntity
  8
UMRISS05
100
AcDbCircle
 10
741.7177682580434
 20
288.3257031729499
 30
0.0
 40
2.6
  0
LINE
  5
1D1
330
2
100
AcDbEntity
  8
ACHSEN
100
AcDbLine
 10
750.7177682580434
 20
300.9257031729503
 30
0.0
 11
750.7177682580434
 21
289.9257031729503
 31
0.0
  0
CIRCLE
  5
1D2
330
2
100
AcDbEntity
  8
UMRISS05
100
AcDbCircle
 10
750.7177682580434
 20
295.4257031729503
 30
0.0
 40
3.5
  0
LINE
  5
1D3
330
2
100
AcDbEntity
  8
ACHSEN
100
AcDbLine
 10
721.7177682580434
 20
292.9257031729502
 30
0.0
 11
721.7177682580434
 21
283.7257031729498
 31
0.0
  0
CIRCLE
  5
1D4
330
2
100
AcDbEntity
  8
UMRISS05
100
AcDbCircle
 10
721.7177682580434
 20
288.3257031729499
 30
0.0
 40
2.6
  0
LINE
  5
1D5
330
2
100
AcDbEntity
  8
ACHSEN
100
AcDbLine
 10
726.3177682580431
 20
288.3257031729499
 30
0.0
 11
717.1177682580434
 21
288.3257031729499
 31
0.0
  0
LINE
  5
1D6
330
2
100
AcDbEntity
  8
ACHSEN
100
AcDbLine
 10
718.2177682580434
 20
295.4257031729503
 30
0.0
 11
707.2177682580432
 21
295.4257031729503
 31
0.0
  0
LINE
  5
1D7
330
2
100
AcDbEntity
  8
UMRISS03
100
AcDbLine
 10
715.1627909891264
 20
287.2541302976959
 30
0.0
 11
710.2727455269602
 21
287.2541302976959
 31
0.0
  0
CIRCLE
  5
1D8
330
2
100
AcDbEntity
  8
UMRISS05
100
AcDbCircle
 10
712.7177682580434
 20
295.4257031729503
 30
0.0
 40
3.5
  0
LINE
  5
1D9
330
2
100
AcDbEntity
  8
ACHSEN
100
AcDbLine
 10
712.7177682580434
 20
300.9257031729503
 30
0.0
 11
712.7177682580434
 21
289.9257031729503
 31
0.0
  0
LINE
  5
1DA
330
2
100
AcDbEntity
  8
ACHSEN
100
AcDbLine
 10
744.5929975253227
 20
302.8257031729497
 30
0.0
 11
718.842538990764
 21
302.8257031729497
 31
0.0
  0
LINE
  5
1DB
330
2
100
AcDbEntity
  8
ACHSEN
100
AcDbLine
 10
725.7646336478972
 20
283.6257031729494
 30
0.0
 11
737.6709028681895
 21
283.6257031729496
 31
0.0
  0
LINE
  5
1DC
330
2
100
AcDbEntity
  8
UMRISS05
100
AcDbLine
 10
742.9177682580432
 20
274.8257031729504
 30
0.0
 11
743.2227935112124
 21
274.9520487696788
 31
0.0
  0
LINE
  5
1DD
330
2
100
AcDbEntity
  8
UMRISS05
100
AcDbLine
 10
744.2834536829922
 20
273.891388597899
 30
0.0
 11
743.2227935112124
 21
274.9520487696788
 31
0.0
  0
LINE
  5
1DE
330
2
100
AcDbEntity
  8
UMRISS05
100
AcDbLine
 10
742.9177682580432
 20
273.3257031729494
 30
0.0
 11
742.9177682580432
 21
274.8257031729504
 31
0.0
  0
LINE
  5
1DF
330
2
100
AcDbEntity
  8
UMRISS03
100
AcDbLine
 10
715.1627909891264
 20
281.5972760482034
 30
0.0
 11
710.2727455269602
 21
281.5972760482034
 31
0.0
  0
LWPOLYLINE
  5
1E0
330
2
100
AcDbEntity
  8
ACHSEN
100
AcDbPolyline
 90
        4
 70
     1
 43
0.0
 10
726.6177682580433
 20
282.8257031729497
 10
726.6177682580433
 20
295.9011093220443
 42
-3.044038009981496
 10
736.8177682580432
 20
295.9011093220443
 10
736.8177682580432
 20
282.8257031729497
 42
-0.9999999999999998
  0
ARC
  5
1E1
330
2
100
AcDbEntity
  8
UMRISS03
100
AcDbCircle
 10
708.2177682580434
 20
284.4257031729496
 30
0.0
 40
7.498889300106986
100
AcDbArc
 50
337.8409181306079
 51
22.15908186939203
  0
ARC
  5
1E2
330
2
100
AcDbEntity
  8
UMRISS03
100
AcDbCircle
 10
717.2177682580434
 20
284.4257031729496
 30
0.0
 40
7.498889300106986
100
AcDbArc
 50
157.8409181306092
 51
202.1590818693907
  0
LINE
  5
1E3
330
2
100
AcDbEntity
  8
UMRISS05
100
AcDbLine
 10
744.2834536829922
 20
273.891388597899
 30
0.0
 11
760.7177682580434
 21
290.3257031729503
 31
0.0
  0
DIMENSION
  5
1E4
330
2
100
AcDbEntity
  8
BEMASSUNG
  6
Continuous
100
AcDbDimension
  2
*D15
 10
786.9252966284375
 20
273.3257031729494
 30
0.0
 11
782.5252966284375
 21
288.0757031729497
 31
0.0
 71
     5
 42
29.50000000000023
  3
PROSPEKT
100
AcDbAlignedDimension
 13
744.5929975253227
 23
302.8257031729497
 33
0.0
 14
742.9177682580432
 24
273.3257031729494
 34
0.0
 50
90.0
100
AcDbRotatedDimension
  0
LWPOLYLINE
  5
1F1
330
2
100
AcDbEntity
  8
UMRISS05
100
AcDbPolyline
 90
        4
 70
     1
 43
0.0
 10
736.8177682580432
 20
283.6257031729497
 10
736.8177682580432
 20
292.9666971378567
 42
4.109609026488814
 10
726.6177682580433
 20
292.9666971378567
 10
726.6177682580433
 20
283.6257031729497
 42
1.0
  0
CIRCLE
  5
1F2
330
2
100
AcDbEntity
  8
UMRISS03
100
AcDbCircle
 10
752.7177682580432
 20
310.8257031729499
 30
0.0
 40
3.5
  0
LWPOLYLINE
  5
1F3
330
2
100
AcDbEntity
  8
UMRISS03
100
AcDbPolyline
 90
       24
 70
     1
 43
0.0
 10
752.9177682580433
 20
312.8257031729493
 10
752.5177682580435
 20
312.8257031729497
 42
0.4142135623733172
 10
752.2177682580434
 20
312.5257031729498
 10
752.2177682580434
 20
311.4257031729496
 42
-0.4142135623732059
 10
752.1177682580435
 20
311.3257031729497
 10
751.0177682580437
 20
311.3257031729499
 42
0.4142135623731427
 10
750.7177682580434
 20
311.02570317295
 10
750.7177682580434
 20
310.6257031729501
 42
0.4142135623731427
 10
751.0177682580437
 20
310.3257031729502
 10
752.1177682580435
 20
310.3257031729506
 42
-0.4142135623731298
 10
752.2177682580434
 20
310.2257031729507
 10
752.2177682580434
 20
309.1257031729494
 42
0.4142135623730774
 10
752.5177682580435
 20
308.8257031729495
 10
752.9177682580438
 20
308.8257031729497
 42
0.4142135623731189
 10
753.2177682580432
 20
309.1257031729497
 10
753.2177682580432
 20
310.2257031729501
 42
-0.414213562373123
 10
753.3177682580432
 20
310.32570317295
 10
754.4177682580433
 20
310.3257031729502
 42
0.4142135623730951
 10
754.7177682580434
 20
310.6257031729501
 10
754.7177682580434
 20
311.0257031729495
 42
0.4142135623730475
 10
754.4177682580433
 20
311.3257031729495
 10
753.3177682580432
 20
311.3257031729499
 42
-0.4142135623729705
 10
753.2177682580432
 20
311.4257031729498
 10
753.2177682580432
 20
312.5257031729493
 42
0.4142135623730831
  0
DIMENSION
  5
1F4
330
2
100
AcDbEntity
  8
BEMASSUNG
  6
Continuous
100
AcDbDimension
  2
*D14
 10
841.7995986363436
 20
333.8098527546962
 30
0.0
 11
827.876750497499
 21
338.0322285700748
 31
0.0
 70
   128
 71
     5
 42
3.700000000000271
  3
PROSPEKT
100
AcDbAlignedDimension
 13
838.0995986363434
 23
332.2080261281288
 33
0.0
 14
841.7995986363436
 24
334.6287434423567
 34
0.0
100
AcDbRotatedDimension
  0
LINE
  5
203
330
2
100
AcDbEntity
  8
ACHSEN
100
AcDbLine
 10
841.3495986363432
 20
246.8257031729495
 30
0.0
 11
854.8495986363432
 21
246.8257031729495
 31
0.0
  0
CIRCLE
  5
204
330
2
100
AcDbEntity
  8
UMRISS05
100
AcDbCircle
 10
848.0995986363435
 20
246.8257031729495
 30
0.0
 40
2.549999999999998
  0
CIRCLE
  5
205
330
2
100
AcDbEntity
  8
UMRISS05
100
AcDbCircle
 10
848.0995986363435
 20
246.8257031729495
 30
0.0
 40
4.75
  0
ARC
  5
206
330
2
100
AcDbEntity
  8
UMRISS05
100
AcDbCircle
 10
848.0995986363435
 20
247.8257031729495
 30
0.0
 40
10.0
100
AcDbArc
 50
180.0
 51
0.0
  0
LINE
  5
207
330
2
100
AcDbEntity
  8
UMRISS05
100
AcDbLine
 10
727.2177682580387
 20
184.845528265903
 30
0.0
 11
736.2177682580387
 21
184.845528265903
 31
0.0
  0
LINE
  5
208
330
2
100
AcDbEntity
  8
UMRISS05
100
AcDbLine
 10
710.9266538571826
 20
186.3455282659033
 30
0.0
 11
760.7177682580387
 21
186.3455282659028
 31
0.0
  0
LINE
  5
209
330
2
100
AcDbEntity
  8
UMRISS05
100
AcDbLine
 10
727.2177682580387
 20
174.645528265903
 30
0.0
 11
736.2177682580387
 21
174.645528265903
 31
0.0
  0
DIMENSION
  5
20A
330
2
100
AcDbEntity
  8
BEMASSUNG
  6
Continuous
100
AcDbDimension
  2
*D13
 10
787.6822426111584
 20
173.145528265903
 30
0.0
 11
783.0442811680485
 21
159.0862364379065
 31
0.0
 70
   128
 71
     5
 42
13.19999999999982
  3
PROSPEKT
100
AcDbAlignedDimension
 13
760.7177682580387
 23
186.3455282659028
 33
0.0
 14
760.7177682580387
 24
173.145528265903
 34
0.0
 50
90.0
100
AcDbRotatedDimension
  0
LINE
  5
219
330
2
100
AcDbEntity
  8
UMRISS05
100
AcDbLine
 10
760.7177682580438
 20
185.3455282659032
 30
0.0
 11
760.7177682580434
 21
174.1455282659033
 31
0.0
  0
LINE
  5
21A
330
2
100
AcDbEntity
  8
UMRISS05
100
AcDbLine
 10
727.2177682580387
 20
173.145528265903
 30
0.0
 11
727.2177682580392
 21
186.345528265903
 31
0.0
  0
LINE
  5
21B
330
2
100
AcDbEntity
  8
UMRISS05
100
AcDbLine
 10
736.2177682580387
 20
173.145528265903
 30
0.0
 11
736.2177682580392
 21
186.345528265903
 31
0.0
  0
LINE
  5
21C
330
2
100
AcDbEntity
  8
UMRISS05
100
AcDbLine
 10
743.0964479144791
 20
186.345528265903
 30
0.0
 11
743.0964479144791
 21
173.145528265903
 31
0.0
  0
LINE
  5
21D
330
2
100
AcDbEntity
  8
UMRISS05
100
AcDbLine
 10
744.1571080862593
 20
186.345528265903
 30
0.0
 11
744.1571080862593
 21
173.145528265903
 31
0.0
  0
LINE
  5
21E
330
2
100
AcDbEntity
  8
UMRISS05
100
AcDbLine
 10
760.7177682580387
 20
186.3455282659028
 30
0.0
 11
760.7177682580387
 21
173.145528265903
 31
0.0
  0
DIMENSION
  5
21F
330
2
100
AcDbEntity
  8
BEMASSUNG
  6
Continuous
100
AcDbDimension
  2
*D12
 10
824.3261967821432
 20
237.8257031729495
 30
0.0
 11
819.7757549939305
 21
242.5512227246621
 31
0.0
 70
   128
  1
<>
 71
     5
 42
9.0
  3
PROSPEKT
100
AcDbAlignedDimension
 13
841.3495986363432
 23
246.8257031729495
 33
0.0
 14
848.0995986363435
 24
237.8257031729495
 34
0.0
 50
90.0
100
AcDbRotatedDimension
  0
LINE
  5
22E
330
2
100
AcDbEntity
  8
ACHSEN
100
AcDbLine
 10
848.0995986363435
 20
253.5757031729495
 30
0.0
 11
848.0995986363435
 21
240.0757031729495
 31
0.0
  0
LINE
  5
22F
330
2
100
AcDbEntity
  8
UMRISS05
100
AcDbLine
 10
651.7177682580437
 20
329.7256938178409
 30
0.0
 11
648.0177682580436
 21
329.725693817841
 31
0.0
  0
LINE
  5
230
330
2
100
AcDbEntity
  8
UMRISS05
100
AcDbLine
 10
651.7177682580437
 20
319.9256938178409
 30
0.0
 11
648.0177682580436
 21
319.925693817841
 31
0.0
  0
LINE
  5
231
330
2
100
AcDbEntity
  8
ACHSEN
100
AcDbLine
 10
673.7177682580437
 20
324.825693817841
 30
0.0
 11
645.8187543620347
 21
324.825693817841
 31
0.0
  0
LINE
  5
232
330
2
100
AcDbEntity
  8
UMRISS05
100
AcDbLine
 10
651.7177682580437
 20
339.825693817841
 30
0.0
 11
671.7177682580437
 21
339.825693817841
 31
0.0
  0
DIMENSION
  5
233
330
2
100
AcDbEntity
  8
BEMASSUNG
  6
Continuous
100
AcDbDimension
  2
*D11
 10
671.7177682580437
 20
351.5973550159062
 30
0.0
 11
661.7177682580439
 21
355.9973550159063
 31
0.0
 71
     5
 42
19.99999999999988
  3
PROSPEKT
100
AcDbAlignedDimension
 13
651.7177682580437
 23
339.825693817841
 33
0.0
 14
671.7177682580437
 24
352.2680153418435
 34
0.0
100
AcDbRotatedDimension
  0
LINE
  5
240
330
2
100
AcDbEntity
  8
ACHSEN
100
AcDbLine
 10
681.2177682580434
 20
284.4257031729495
 30
0.0
 11
666.7177682580387
 21
284.4257031729495
 31
0.0
  0
LWPOLYLINE
  5
241
330
2
100
AcDbEntity
  8
UMRISS03
100
AcDbPolyline
 90
       24
 70
     1
 43
0.0
 10
688.4177682580435
 20
292.3257031729491
 10
688.0177682580437
 20
292.3257031729495
 42
0.4142135623733172
 10
687.7177682580434
 20
292.0257031729495
 10
687.7177682580434
 20
290.9257031729494
 42
-0.4142135623732059
 10
687.6177682580435
 20
290.8257031729495
 10
686.5177682580434
 20
290.8257031729497
 42
0.4142135623731427
 10
686.2177682580432
 20
290.5257031729497
 10
686.2177682580432
 20
290.1257031729498
 42
0.4142135623731427
 10
686.5177682580434
 20
289.8257031729499
 10
687.6177682580435
 20
289.8257031729503
 42
-0.4142135623731298
 10
687.7177682580434
 20
289.7257031729505
 10
687.7177682580434
 20
288.6257031729492
 42
0.4142135623730774
 10
688.0177682580437
 20
288.3257031729493
 10
688.4177682580436
 20
288.3257031729495
 42
0.4142135623731189
 10
688.7177682580434
 20
288.6257031729495
 10
688.7177682580434
 20
289.7257031729498
 42
-0.414213562373123
 10
688.8177682580431
 20
289.8257031729496
 10
689.9177682580433
 20
289.8257031729499
 42
0.4142135623730951
 10
690.2177682580432
 20
290.1257031729498
 10
690.2177682580432
 20
290.5257031729493
 42
0.4142135623730475
 10
689.9177682580433
 20
290.8257031729493
 10
688.8177682580431
 20
290.8257031729497
 42
-0.4142135623729705
 10
688.7177682580434
 20
290.9257031729496
 10
688.7177682580434
 20
292.0257031729491
 42
0.4142135623730831
  0
CIRCLE
  5
242
330
2
100
AcDbEntity
  8
UMRISS03
100
AcDbCircle
 10
688.2177682580434
 20
290.3257031729497
 30
0.0
 40
3.5
  0
LINE
  5
243
330
2
100
AcDbEntity
  8
UMRISS05
100
AcDbLine
 10
651.7177682580437
 20
309.8256938178408
 30
0.0
 11
671.7177682580437
 21
309.8256938178408
 31
0.0
  0
DIMENSION
  5
244
330
2
100
AcDbEntity
  8
BEMASSUNG
  6
Continuous
100
AcDbDimension
  2
*D10
 10
629.4886086062924
 20
309.8256938178409
 30
0.0
 11
625.0886086062925
 21
291.5756984953952
 31
0.0
 71
     5
 42
36.49999064489146
  3
PROSPEKT
100
AcDbAlignedDimension
 13
674.7177682580429
 23
273.3257031729494
 33
0.0
 14
651.7177682580437
 24
309.8256938178408
 34
0.0
 50
90.0
100
AcDbRotatedDimension
  0
LINE
  5
251
330
2
100
AcDbEntity
  8
UMRISS05
100
AcDbLine
 10
648.0177682580436
 20
319.9256938178409
 30
0.0
 11
648.0177682580436
 21
329.725693817841
 31
0.0
  0
LINE
  5
252
330
2
100
AcDbEntity
  8
UMRISS05
100
AcDbLine
 10
651.7177682580437
 20
309.8256938178408
 30
0.0
 11
651.7177682580437
 21
339.825693817841
 31
0.0
  0
DIMENSION
  5
253
330
2
100
AcDbEntity
  8
BEMASSUNG
  6
Continuous
100
AcDbDimension
  2
*D9
 10
629.5449827587889
 20
339.825693817841
 30
0.0
 11
624.3684682836843
 21
324.8336632971279
 31
0.0
 70
   128
 71
     5
 42
30.00000000000011
  3
PROSPEKT
100
AcDbAlignedDimension
 13
647.7007134780118
 23
309.8256938178408
 33
0.0
 14
651.7177682580437
 24
339.825693817841
 34
0.0
 50
90.0
100
AcDbRotatedDimension
  0
LINE
  5
260
330
2
100
AcDbEntity
  8
UMRISS05
100
AcDbLine
 10
671.7177682580429
 20
237.8257031729494
 30
0.0
 11
674.7177682580429
 21
237.8257031729494
 31
0.0
  0
LINE
  5
261
330
2
100
AcDbEntity
  8
ACHSEN
100
AcDbLine
 10
681.2177682580434
 20
246.8257031729495
 30
0.0
 11
666.7177682580387
 21
246.8257031729495
 31
0.0
  0
LINE
  5
262
330
2
100
AcDbEntity
  8
UMRISS05
100
AcDbLine
 10
671.7177682580429
 20
187.3455282659033
 30
0.0
 11
674.7177682580387
 21
187.3455282659033
 31
0.0
  0
LINE
  5
263
330
2
100
AcDbEntity
  8
UMRISS05
100
AcDbLine
 10
664.7177682580425
 20
183.9455282659035
 30
0.0
 11
671.7177682580389
 21
183.9455282659034
 31
0.0
  0
LINE
  5
264
330
2
100
AcDbEntity
  8
UMRISS05
100
AcDbLine
 10
661.7177682580432
 20
182.9455282659035
 30
0.0
 11
661.7177682580432
 21
180.8455282659038
 31
0.0
  0
LINE
  5
265
330
2
100
AcDbEntity
  8
UMRISS05
100
AcDbLine
 10
648.0177682580443
 20
178.9955282659037
 30
0.0
 11
648.0177682580443
 21
177.4955282659037
 31
0.0
  0
LINE
  5
266
330
2
100
AcDbEntity
  8
UMRISS05
100
AcDbLine
 10
651.7177682580443
 20
183.6455282659037
 30
0.0
 11
651.7177682580443
 21
176.4455282659038
 31
0.0
  0
LINE
  5
267
330
2
100
AcDbEntity
  8
UMRISS05
100
AcDbLine
 10
661.7177682580432
 20
180.8455282659037
 30
0.0
 11
671.7177682580389
 21
180.8455282659037
 31
0.0
  0
LINE
  5
268
330
2
100
AcDbEntity
  8
UMRISS05
100
AcDbLine
 10
664.7177682580429
 20
183.9455282659036
 30
0.0
 11
661.7177682580429
 21
182.9455282659034
 31
0.0
  0
LINE
  5
269
330
2
100
AcDbEntity
  8
UMRISS05
100
AcDbLine
 10
648.0177682580443
 20
178.9955282659038
 30
0.0
 11
651.7177682580443
 21
178.9955282659038
 31
0.0
  0
LINE
  5
26A
330
2
100
AcDbEntity
  8
UMRISS05
100
AcDbLine
 10
648.0177682580443
 20
177.4955282659038
 30
0.0
 11
651.7177682580443
 21
177.4955282659038
 31
0.0
  0
LINE
  5
26B
330
2
100
AcDbEntity
  8
UMRISS05
100
AcDbLine
 10
651.7177682580443
 20
176.4455282659038
 30
0.0
 11
666.2807312210063
 21
176.4455282659039
 31
0.0
  0
LINE
  5
26C
330
2
100
AcDbEntity
  8
UMRISS05
100
AcDbLine
 10
651.7177682580443
 20
183.6455282659037
 30
0.0
 11
663.8177682580431
 21
183.6455282659037
 31
0.0
  0
LINE
  5
26D
330
2
100
AcDbEntity
  8
UMRISS05
100
AcDbLine
 10
671.7177682580429
 20
167.3455282659033
 30
0.0
 11
674.7177682580387
 21
167.3455282659033
 31
0.0
  0
LINE
  5
26E
330
2
100
AcDbEntity
  8
UMRISS05
100
AcDbLine
 10
674.7177682580387
 20
173.1455282659032
 30
0.0
 11
674.7177682580387
 21
174.6455282659032
 31
0.0
  0
LINE
  5
26F
330
2
100
AcDbEntity
  8
UMRISS05
100
AcDbLine
 10
670.1177682580439
 20
172.7455282659037
 30
0.0
 11
671.7177682580389
 21
172.7455282659037
 31
0.0
  0
LINE
  5
270
330
2
100
AcDbEntity
  8
UMRISS05
100
AcDbLine
 10
671.7177682580429
 20
187.3455282659033
 30
0.0
 11
671.7177682580429
 21
167.3455282659033
 31
0.0
  0
LINE
  5
271
330
2
100
AcDbEntity
  8
UMRISS05
100
AcDbLine
 10
674.7177682580387
 20
187.3455282659033
 30
0.0
 11
674.7177682580387
 21
167.3455282659033
 31
0.0
  0
LINE
  5
272
330
2
100
AcDbEntity
  8
UMRISS05
100
AcDbLine
 10
661.7177682580432
 20
180.8455282659037
 30
0.0
 11
670.1177682580435
 21
172.7455282659037
 31
0.0
  0
DIMENSION
  5
273
330
2
100
AcDbEntity
  8
BEMASSUNG
  6
Continuous
100
AcDbDimension
  2
*D8
 10
629.4469138597746
 20
237.8257031729493
 30
0.0
 11
625.0469138597748
 21
255.5757031729495
 31
0.0
 71
     5
 42
35.50000000000006
  3
PROSPEKT
100
AcDbAlignedDimension
 13
674.7177682580429
 23
273.3257031729494
 33
0.0
 14
671.7177682580429
 24
237.8257031729493
 34
0.0
 50
90.0
100
AcDbRotatedDimension
  0
LINE
  5
280
330
2
100
AcDbEntity
  8
UMRISS05
100
AcDbLine
 10
674.7177682580387
 20
186.3455282659033
 30
0.0
 11
759.7177682580438
 21
186.3455282659032
 31
0.0
  0
LINE
  5
281
330
2
100
AcDbEntity
  8
UMRISS05
100
AcDbLine
 10
674.7177682580387
 20
173.1455282659032
 30
0.0
 11
760.7177682580387
 21
173.145528265903
 31
0.0
  0
DIMENSION
  5
282
330
2
100
AcDbEntity
  8
BEMASSUNG
  6
Continuous
100
AcDbDimension
  2
*D7
 10
696.2618509308395
 20
186.3455282659033
 30
0.0
 11
691.2636484683247
 21
195.4428088474785
 31
0.0
 70
   128
 71
     5
 42
1.000000000000055
  3
PROSPEKT
100
AcDbAlignedDimension
 13
674.7177682580387
 23
187.3455282659033
 33
0.0
 14
692.7250533988645
 24
186.3455282659033
 34
0.0
 50
90.0
100
AcDbRotatedDimension
  0
LINE
  5
291
330
2
100
AcDbEntity
  8
UMRISS05
100
AcDbLine
 10
674.7177682580387
 20
273.3257031729494
 30
0.0
 11
742.9177682580432
 21
273.3257031729494
 31
0.0
  0
LINE
  5
292
330
2
100
AcDbEntity
  8
ACHSEN
100
AcDbLine
 10
731.7177682580432
 20
433.5174706437442
 30
0.0
 11
731.7177682580432
 21
276.5257031729495
 31
0.0
  0
DIMENSION
  5
293
330
2
100
AcDbEntity
  8
BEMASSUNG
  6
Continuous
100
AcDbDimension
  2
*D6
 10
703.7910097316983
 20
324.825693817841
 30
0.0
 11
699.3910097316979
 21
352.8256984953957
 31
0.0
 71
     5
 42
56.00000935510923
  3
PROSPEKT
100
AcDbAlignedDimension
 13
721.7177682580434
 23
380.8257031729502
 33
0.0
 14
671.7177682580437
 24
324.825693817841
 34
0.0
 50
90.0
100
AcDbRotatedDimension
  0
LINE
  5
2A0
330
2
100
AcDbEntity
  8
UMRISS05
100
AcDbLine
 10
858.0995986363435
 20
457.8257031729491
 30
0.0
 11
858.0995986363435
 21
247.8257031729495
 31
0.0
  0
LINE
  5
2A1
330
2
100
AcDbEntity
  8
UMRISS05
100
AcDbLine
 10
838.0995986363434
 20
457.8257031729491
 30
0.0
 11
838.0995986363434
 21
247.8257031729495
 31
0.0
  0
LINE
  5
2A2
330
2
100
AcDbEntity
  8
UMRISS05
100
AcDbLine
 10
671.7177682580429
 20
237.8257031729494
 30
0.0
 11
671.7177682580434
 21
467.8257031729489
 31
0.0
  0
LINE
  5
2A3
330
2
100
AcDbEntity
  8
UMRISS05
100
AcDbLine
 10
674.7177682580429
 20
237.8257031729494
 30
0.0
 11
674.7177682580434
 21
467.8257031729489
 31
0.0
  0
LINE
  5
2A4
330
2
100
AcDbEntity
  8
UMRISS05
100
AcDbLine
 10
760.7162234823257
 20
413.2059276051071
 30
0.0
 11
760.7162234823248
 21
292.4454787407917
 31
0.0
  0
DIMENSION
  5
2A5
330
2
100
AcDbEntity
  8
BEMASSUNG
  6
Continuous
100
AcDbDimension
  2
*D5
 10
786.9883710516448
 20
302.8257031729497
 30
0.0
 11
782.5883710516445
 21
341.82570317295
 31
0.0
 71
     5
 42
78.00000000000022
  3
PROSPEKT
100
AcDbAlignedDimension
 13
755.3177682580431
 23
380.82570317295
 33
0.0
 14
744.8177682580432
 24
302.8257031729497
 34
0.0
 50
90.0
100
AcDbRotatedDimension
  0
DIMENSION
  5
2B2
330
2
100
AcDbEntity
  8
BEMASSUNG
  6
Continuous
100
AcDbDimension
  2
*D4
 10
775.7484220287641
 20
359.3257031729536
 30
0.0
 11
771.3484220287641
 21
370.0757031729519
 31
0.0
 71
     5
 42
21.49999999999636
  3
PROSPEKT
100
AcDbAlignedDimension
 13
755.3177682580431
 23
380.82570317295
 33
0.0
 14
738.7177682580434
 24
359.3257031729536
 34
0.0
 50
90.0
100
AcDbRotatedDimension
  0
DIMENSION
  5
2BF
330
2
100
AcDbEntity
  8
BEMASSUNG
  6
Continuous
100
AcDbDimension
  2
*D3
 10
629.4886086062924
 20
387.8256938178413
 30
0.0
 11
625.0886086062925
 21
363.8256938178412
 31
0.0
 71
     5
 42
48.00000000000034
  3
PROSPEKT
100
AcDbAlignedDimension
 13
647.7007134780118
 23
339.825693817841
 33
0.0
 14
661.7177856898157
 24
387.8256938178413
 34
0.0
 50
90.0
100
AcDbRotatedDimension
  0
DIMENSION
  5
2CC
330
2
100
AcDbEntity
  8
BEMASSUNG
  6
Continuous
100
AcDbDimension
  2
*D2
 10
617.7731559094686
 20
237.8257031729494
 30
0.0
 11
612.5942391312478
 21
355.5075255216018
 31
0.0
 70
   128
 71
     5
 42
229.9999999999997
  3
PROSPEKT
100
AcDbAlignedDimension
 13
667.7007134780112
 23
467.8257031729489
 33
0.0
 14
667.7007134780108
 24
237.8257031729494
 34
0.0
 50
90.0
100
AcDbRotatedDimension
  0
DIMENSION
  5
2D9
330
2
100
AcDbEntity
  8
BEMASSUNG
  6
Continuous
100
AcDbDimension
  2
*D1
 10
798.6113214115618
 20
273.3257031729502
 30
0.0
 11
793.8384402812235
 21
351.9621067843052
 31
0.0
 70
   128
 71
     5
 42
159.0
  3
PROSPEKT
100
AcDbAlignedDimension
 13
742.9177682580432
 23
432.3257031729501
 33
0.0
 14
742.9177682580432
 24
273.3257031729502
 34
0.0
 50
90.0
100
AcDbRotatedDimension
  0
ENDSEC
  0
SECTION
  2
OBJECTS
  0
DICTIONARY
  5
9
330
0
100
AcDbDictionary
281
     1
  3
ACAD_2007HEADERVARS_RT
350
43D
  3
ACAD_CIP_PREVIOUS_PRODUCT_INFO
350
3A1
  3
ACAD_COLOR
350
2B
  3
ACAD_DETAILVIEWSTYLE
350
399
  3
ACAD_FIELDLIST
350
3F1
  3
ACAD_GROUP
350
27
  3
ACAD_LAYOUT
350
D
  3
ACAD_MATERIAL
350
2A
  3
ACAD_MLEADERSTYLE
350
395
  3
ACAD_MLINESTYLE
350
28
  3
ACAD_PLOTSETTINGS
350
29
  3
ACAD_PLOTSTYLENAME
350
8
  3
ACAD_SCALELIST
350
383
  3
ACAD_SECTIONVIEWSTYLE
350
397
  3
ACAD_TABLESTYLE
350
2C
  3
ACAD_VISUALSTYLE
350
36A
  3
ACDB_RECOMPOSE_DATA
350
43B
  3
AcDbVariableDictionary
350
34E
  3
AcmDictionary
350
2F7
  3
AMG
350
2E8
  3
AMGSNAPSETTINGS
350
41D
  3
DWGPROPS
350
43C
  0
DICTIONARY
  5
424
330
6
100
AcDbDictionary
280
     1
281
     1
  3
ADSK_XREC_LAYER_RECONCILED
360
425
  0
DICTIONARY
  5
426
330
5D
100
AcDbDictionary
280
     1
281
     1
  3
ADSK_XREC_LAYER_RECONCILED
360
427
  0
DICTIONARY
  5
428
330
93
100
AcDbDictionary
280
     1
281
     1
  3
ADSK_XREC_LAYER_RECONCILED
360
429
  0
DICTIONARY
  5
42A
330
2D
100
AcDbDictionary
280
     1
281
     1
  3
ADSK_XREC_LAYER_RECONCILED
360
42B
  0
DICTIONARY
  5
42C
330
AB
100
AcDbDictionary
280
     1
281
     1
  3
ADSK_XREC_LAYER_RECONCILED
360
42D
  0
DICTIONARY
  5
42E
330
5B
100
AcDbDictionary
280
     1
281
     1
  3
ADSK_XREC_LAYER_RECONCILED
360
42F
  0
DICTIONARY
  5
3
330
2
100
AcDbDictionary
280
     1
281
     1
  3
ACAD_SORTENTS
360
2E6
  0
DICTIONARY
  5
43D
102
{ACAD_REACTORS
330
9
102
}
330
9
100
AcDbDictionary
281
     1
  3
DIMJOGANG
350
43E
  3
DIMLTEX1
350
440
  3
DIMLTEX2
350
441
  3
DIMLTYPE
350
43F
  0
XRECORD
  5
3A1
102
{ACAD_REACTORS
330
9
102
}
330
9
100
AcDbXrecord
280
     1
300
AMECH_PP
300
2014
300
PDSU_F_S
  0
DICTIONARY
  5
2B
102
{ACAD_REACTORS
330
9
102
}
330
9
100
AcDbDictionary
281
     1
  0
DICTIONARY
  5
399
102
{ACAD_REACTORS
330
9
102
}
330
9
100
AcDbDictionary
281
     1
  3
Metric50
350
39A
  0
FIELDLIST
  5
3F1
102
{ACAD_REACTORS
330
9
102
}
330
9
100
AcDbIdSet
 90
        6
330
3EF
330
3F0
330
3F2
330
3FA
330
3FB
330
3FC
100
AcDbFieldList
  0
DICTIONARY
  5
27
102
{ACAD_REACTORS
330
9
102
}
330
9
100
AcDbDictionary
281
     1
  0
DICTIONARY
  5
D
102
{ACAD_REACTORS
330
9
102
}
330
9
100
AcDbDictionary
281
     1
  3
Layout1
350
11
  3
Model
350
C
  0
DICTIONARY
  5
2A
102
{ACAD_REACTORS
330
9
102
}
330
9
100
AcDbDictionary
281
     1
  3
ByBlock
350
35A
  3
ByLayer
350
352
  3
Global
350
362
  0
DICTIONARY
  5
395
102
{ACAD_REACTORS
330
9
102
}
330
9
100
AcDbDictionary
281
     1
  3
Standard
350
396
  0
DICTIONARY
  5
28
102
{ACAD_REACTORS
330
9
102
}
330
9
100
AcDbDictionary
281
     1
  3
STANDARD
350
2E
  0
DICTIONARY
  5
29
102
{ACAD_REACTORS
330
9
102
}
330
9
100
AcDbDictionary
281
     1
  0
ACDBDICTIONARYWDFLT
  5
8
102
{ACAD_REACTORS
330
9
102
}
330
9
100
AcDbDictionary
281
     1
  3
Normal
350
7
100
AcDbDictionaryWithDefault
340
7
  0
DICTIONARY
  5
383
102
{ACAD_REACTORS
330
9
102
}
330
9
100
AcDbDictionary
281
     1
  3
A0
350
384
  3
A1
350
385
  3
A2
350
386
  3
A3
350
387
  3
A4
350
388
  3
A5
350
389
  3
A6
350
38A
  3
A7
350
38B
  3
A8
350
38C
  3
A9
350
38D
  3
B0
350
38E
  3
B1
350
38F
  3
B2
350
390
  3
B3
350
391
  3
B4
350
392
  3
B5
350
393
  3
B6
350
394
  0
DICTIONARY
  5
397
102
{ACAD_REACTORS
330
9
102
}
330
9
100
AcDbDictionary
281
     1
  3
Metric50
350
398
  0
DICTIONARY
  5
2C
102
{ACAD_REACTORS
330
9
102
}
330
9
100
AcDbDictionary
281
     1
  3
Standard
350
2F
  0
DICTIONARY
  5
36A
102
{ACAD_REACTORS
330
9
102
}
330
9
100
AcDbDictionary
281
     1
  3
2dWireframe
350
370
  3
Basic
350
36F
  3
Brighten
350
376
  3
ColorChange
350
37A
  3
Conceptual
350
373
  3
Dim
350
375
  3
EdgeColorOff
350
382
  3
Facepattern
350
379
  3
Flat
350
36B
  3
FlatWithEdges
350
36C
  3
Gouraud
350
36D
  3
GouraudWithEdges
350
36E
  3
Hidden
350
372
  3
JitterOff
350
380
  3
Linepattern
350
378
  3
OverhangOff
350
381
  3
Realistic
350
374
  3
Shaded
350
37F
  3
Shaded with edges
350
37E
  3
Shades of Gray
350
37B
  3
Sketchy
350
37C
  3
Thicken
350
377
  3
Wireframe
350
371
  3
X-Ray
350
37D
  0
XRECORD
  5
43B
102
{ACAD_REACTORS
330
9
102
}
330
9
100
AcDbXrecord
280
     1
 90
        1
330
2F
  0
DICTIONARY
  5
34E
102
{ACAD_REACTORS
330
9
102
}
330
9
100
AcDbDictionary
281
     1
  3
CANNOSCALE
350
433
  3
CMLEADERSTYLE
350
430
  3
CTABLESTYLE
350
34F
  3
CVIEWDETAILSTYLE
350
431
  3
CVIEWSECTIONSTYLE
350
432
  3
DIMASSOC
350
438
  3
HIDETEXT
350
436
  3
INDEXCTL
350
435
  3
SORTENTS
350
434
  3
XCLIPFRAME
350
437
  0
DICTIONARY
  5
2F7
102
{ACAD_REACTORS
330
9
102
}
330
9
100
AcDbDictionary
281
     1
  3
AcmStdDictionary
350
2F8
  0
DICTIONARY
  5
2E8
102
{ACAD_REACTORS
330
9
102
}
330
9
100
AcDbDictionary
281
     1
  0
DICTIONARY
  5
41D
102
{ACAD_REACTORS
330
9
102
}
330
9
100
AcDbDictionary
281
     1
  0
XRECORD
  5
43C
102
{ACAD_REACTORS
330
9
102
}
330
9
100
AcDbXrecord
280
     1
  1
DWGPROPS COOKIE
  2

  3

  4

  6

  7

  8
adrren
  9

300
=
301
=
302
=
303
=
304
=
305
=
306
=
307
=
308
=
309
=
 40
1.098978159722222
 41
2451554.40555279
 42
2458432.328601736
  1

 90
        0
  0
XRECORD
  5
425
102
{ACAD_REACTORS
330
424
102
}
330
424
100
AcDbXrecord
280
     1
290
     1
  0
XRECORD
  5
427
102
{ACAD_REACTORS
330
426
102
}
330
426
100
AcDbXrecord
280
     1
290
     1
  0
XRECORD
  5
429
102
{ACAD_REACTORS
330
428
102
}
330
428
100
AcDbXrecord
280
     1
290
     1
  0
XRECORD
  5
42B
102
{ACAD_REACTORS
330
42A
102
}
330
42A
100
AcDbXrecord
280
     1
290
     1
  0
XRECORD
  5
42D
102
{ACAD_REACTORS
330
42C
102
}
330
42C
100
AcDbXrecord
280
     1
290
     1
  0
XRECORD
  5
42F
102
{ACAD_REACTORS
330
42E
102
}
330
42E
100
AcDbXrecord
280
     1
290
     1
  0
SORTENTSTABLE
  5
2E6
102
{ACAD_REACTORS
330
3
102
}
330
3
100
AcDbSortentsTable
330
2
331
19D
  5
1BE
331
22E
  5
D3
331
270
  5
97
331
61
  5
2A1
331
1C6
  5
161
331
1E3
  5
10E
331
280
  5
92
331
5E
  5
2A4
331
1C2
  5
165
331
5A
  5
2B2
331
1BE
  5
19D
331
1BA
  5
1A1
331
B5
  5
262
331
162
  5
1C5
331
B1
  5
266
331
1F3
  5
FE
331
DD
  5
208
331
D9
  5
21A
331
C5
  5
260
331
2A4
  5
5E
331
1B6
  5
1B3
331
172
  5
1C1
331
2A0
  5
62
331
1B2
  5
1B7
331
2D9
  5
30
331
15E
  5
1C9
331
26D
  5
9A
331
269
  5
AE
331
15A
  5
1CD
331
205
  5
EE
331
14C
  5
1DB
331
21F
  5
D4
331
F1
  5
1F4
331
21B
  5
D8
331
233
  5
CE
331
156
  5
1D1
331
265
  5
B2
331
101
  5
1E4
331
152
  5
1D5
331
261
  5
C4
331
AE
  5
269
331
AA
  5
26B
331
D6
  5
21D
331
1DD
  5
14A
331
1D9
  5
14E
331
D2
  5
22F
331
243
  5
CA
331
11D
  5
1E2
331
253
  5
C6
331
CE
  5
233
331
1D5
  5
152
331
71
  5
293
331
CA
  5
243
331
1D1
  5
156
331
1CD
  5
15A
331
1C9
  5
15E
331
95
  5
272
331
91
  5
281
331
98
  5
26F
331
273
  5
94
331
13D
  5
1DE
331
60
  5
2A2
331
1C5
  5
162
331
1E2
  5
11D
331
1C1
  5
172
331
1BD
  5
19E
331
1B9
  5
1B0
331
2CC
  5
3E
331
165
  5
1C2
331
B4
  5
263
331
1F2
  5
FF
331
161
  5
1C6
331
B0
  5
267
331
293
  5
71
331
DC
  5
209
331
D8
  5
21B
331
C4
  5
261
331
2A3
  5
5F
331
1B5
  5
1B4
331
20A
  5
DB
331
1B1
  5
1B8
331
26C
  5
9B
331
15D
  5
1CA
331
268
  5
AF
331
159
  5
1CE
331
14F
  5
1D8
331
204
  5
EF
331
14B
  5
1DC
331
21E
  5
D5
331
181
  5
1C0
331
F0
  5
203
331
21A
  5
D9
331
2BF
  5
4B
331
100
  5
1F1
331
232
  5
CF
331
155
  5
1D2
331
264
  5
B3
331
151
  5
1D6
331
260
  5
C5
331
AD
  5
26A
331
D5
  5
21E
331
1DC
  5
14B
331
1D8
  5
14F
331
D1
  5
230
331
8F
  5
291
331
1A1
  5
1BA
331
242
  5
CB
331
252
  5
C7
331
CD
  5
240
331
1D4
  5
153
331
C9
  5
244
331
1D0
  5
157
331
1CC
  5
15B
331
1C8
  5
15F
331
94
  5
273
331
9B
  5
26C
331
90
  5
282
331
19F
  5
1BC
331
12C
  5
1E1
331
272
  5
95
331
13C
  5
1DF
331
282
  5
90
331
1C4
  5
163
331
1E1
  5
12C
331
5C
  5
2A5
331
1C0
  5
181
331
1BC
  5
19F
331
1B8
  5
1B1
331
164
  5
1C3
331
B3
  5
264
331
1F1
  5
100
331
160
  5
1C7
331
DF
  5
206
331
292
  5
80
331
C7
  5
252
331
DB
  5
20A
331
2A2
  5
60
331
1B4
  5
1B5
331
209
  5
DC
331
1B0
  5
1B9
331
26F
  5
98
331
26B
  5
AA
331
15C
  5
1CB
331
158
  5
1CF
331
207
  5
DE
331
14E
  5
1D9
331
203
  5
F0
331
14A
  5
1DD
331
21D
  5
D6
331
219
  5
DA
331
2B2
  5
5A
331
267
  5
B0
331
EF
  5
204
331
231
  5
D0
331
154
  5
1D3
331
263
  5
B4
331
190
  5
1BF
331
150
  5
1D7
331
1DF
  5
13C
331
1DB
  5
14C
331
D4
  5
21F
331
D0
  5
231
331
4B
  5
2BF
331
FF
  5
1F2
331
1A0
  5
1BB
331
241
  5
CC
331
1D7
  5
150
331
251
  5
C8
331
CC
  5
241
331
1D3
  5
154
331
C8
  5
251
331
1CF
  5
158
331
97
  5
270
331
1CB
  5
15C
331
9A
  5
26D
331
19E
  5
1BD
331
22F
  5
D2
331
271
  5
96
331
62
  5
2A0
331
1C7
  5
160
331
1E4
  5
101
331
13B
  5
1E0
331
281
  5
91
331
1C3
  5
164
331
1E0
  5
13B
331
5F
  5
2A3
331
1BF
  5
190
331
1BB
  5
1A0
331
163
  5
1C4
331
B2
  5
265
331
1F4
  5
F1
331
DE
  5
207
331
291
  5
8F
331
2A5
  5
5C
331
1B7
  5
1B2
331
C6
  5
253
331
DA
  5
219
331
2A1
  5
61
331
1B3
  5
1B6
331
208
  5
DD
331
15F
  5
1C8
331
26E
  5
99
331
26A
  5
AD
331
15B
  5
1CC
331
206
  5
DF
331
14D
  5
1DA
331
21C
  5
D7
331
157
  5
1D0
331
266
  5
B1
331
EE
  5
205
331
230
  5
D1
331
153
  5
1D4
331
262
  5
B5
331
AF
  5
268
331
D7
  5
21C
331
1DE
  5
13D
331
1DA
  5
14D
331
3E
  5
2CC
331
D3
  5
22E
331
10E
  5
1E3
331
30
  5
2D9
331
FE
  5
1F3
331
244
  5
C9
331
240
  5
CD
331
CF
  5
232
331
1D6
  5
151
331
CB
  5
242
331
1D2
  5
155
331
80
  5
292
331
1CE
  5
159
331
1CA
  5
15D
331
96
  5
271
331
92
  5
280
331
99
  5
26E
  0
XRECORD
  5
43E
102
{ACAD_REACTORS
330
43D
102
}
330
43D
100
AcDbXrecord
280
     1
 40
1.570796326794896
  0
XRECORD
  5
440
102
{ACAD_REACTORS
330
43D
102
}
330
43D
100
AcDbXrecord
280
     1
340
17
  0
XRECORD
  5
441
102
{ACAD_REACTORS
330
43D
102
}
330
43D
100
AcDbXrecord
280
     1
340
17
  0
XRECORD
  5
43F
102
{ACAD_REACTORS
330
43D
102
}
330
43D
100
AcDbXrecord
280
     1
340
17
  0
ACDBDETAILVIEWSTYLE
  5
39A
102
{ACAD_XDICTIONARY
360
480
102
}
102
{ACAD_REACTORS
330
399
330
3EB
102
}
330
399
100
AcDbModelDocViewStyle
 70
     0
  3
Metric50
290
     0
100
AcDbDetailViewStyle
 70
     0
 71
     0
 90
        3
 71
     1
340
14
 40
5.0
340
0
 40
5.0
300

 40
0.0
280
     1
 71
     2
340
A
 90
       25
 71
     3
340
14
 40
5.0
 90
        0
 40
15.0
 90
        1
300
%<\AcVar ViewDetailId>% (%<\AcVar ViewScale \f "%sn">%)
 71
     4
340
A
 90
       25
340
A
 90
       25
280
     0
  0
LAYOUT
  5
11
102
{ACAD_XDICTIONARY
360
444
102
}
102
{ACAD_REACTORS
330
D
102
}
330
D
100
AcDbPlotSettings
  1

  2
G:\VORLAGEN\AutoCAD2002\Plotten\A3hoch-MSL.pc3
  4

  6

 40
0.0
 41
0.0
 42
0.0
 43
0.0
 44
0.0
 45
0.0
 46
0.0
 47
0.0
 48
0.0
 49
0.0
140
0.0
141
0.0
142
1.0
143
1.0
 70
   688
 72
     0
 73
     0
 74
     5
  7
monochrome.ctb
 75
    16
147
1.0
148
0.0
149
0.0
100
AcDbLayout
  1
Layout1
 70
     1
 71
     1
 10
0.0
 20
0.0
 11
12.0
 21
9.0
 12
0.0
 22
0.0
 32
0.0
 14
1.000000000000000E+20
 24
1.000000000000000E+20
 34
1.000000000000000E+20
 15
-1.000000000000000E+20
 25
-1.000000000000000E+20
 35
-1.000000000000000E+20
146
0.0
 13
0.0
 23
0.0
 33
0.0
 16
1.0
 26
0.0
 36
0.0
 17
0.0
 27
1.0
 37
0.0
 76
     0
330
E
  0
LAYOUT
  5
C
102
{ACAD_XDICTIONARY
360
442
102
}
102
{ACAD_REACTORS
330
D
102
}
330
D
100
AcDbPlotSettings
  1

  2
G:\VORLAGEN\AutoCAD2002\Plotten\A3hoch-MSL.pc3
  4
A3
  6

 40
6.085416793823242
 41
6.12772798538208
 42
5.662078857421875
 43
5.53509521484375
 44
296.9683227539062
 45
419.9889831542968
 46
0.0
 47
0.0
 48
0.0
 49
0.0
140
0.0
141
0.0
142
1.0
143
1.0
 70
 11952
 72
     1
 73
     1
 74
     0
  7
monochrome.ctb
 75
     0
147
1.0
148
-492.4807881931483
149
96.58671766390014
100
AcDbLayout
  1
Model
 70
     1
 71
     0
 10
0.0
 20
0.0
 11
12.0
 21
9.0
 12
0.0
 22
0.0
 32
0.0
 14
0.0
 24
0.0
 34
0.0
 15
0.0
 25
0.0
 35
0.0
146
0.0
 13
0.0
 23
0.0
 33
0.0
 16
1.0
 26
0.0
 36
0.0
 17
0.0
 27
1.0
 37
0.0
 76
     0
330
2
331
1C
  0
MATERIAL
  5
35A
102
{ACAD_XDICTIONARY
360
35B
102
}
102
{ACAD_REACTORS
330
2A
102
}
330
2A
100
AcDbMaterial
  1
ByBlock
 72
     0
 43
0.0208333333333333
 43
0.0
 43
0.0
 43
0.0
 43
0.0
 43
0.0208333333333333
 43
0.0
 43
0.0
 43
0.0
 43
0.0
 43
1.0
 43
0.0
 43
0.0
 43
0.0
 43
0.0
 43
1.0
 77
     0
 47
0.0208333333333333
 47
0.0
 47
0.0
 47
0.0
 47
0.0
 47
0.0208333333333333
 47
0.0
 47
0.0
 47
0.0
 47
0.0
 47
1.0
 47
0.0
 47
0.0
 47
0.0
 47
0.0
 47
1.0
171
     0
 49
0.0208333333333333
 49
0.0
 49
0.0
 49
0.0
 49
0.0
 49
0.0208333333333333
 49
0.0
 49
0.0
 49
0.0
 49
0.0
 49
1.0
 49
0.0
 49
0.0
 49
0.0
 49
0.0
 49
1.0
175
     0
142
0.0208333333333333
142
0.0
142
0.0
142
0.0
142
0.0
142
0.0208333333333333
142
0.0
142
0.0
142
0.0
142
0.0
142
1.0
142
0.0
142
0.0
142
0.0
142
0.0
142
1.0
179
     0
144
0.0208333333333333
144
0.0
144
0.0
144
0.0
144
0.0
144
0.0208333333333333
144
0.0
144
0.0
144
0.0
144
0.0
144
1.0
144
0.0
144
0.0
144
0.0
144
0.0
144
1.0
147
0.0208333333333333
147
0.0
147
0.0
147
0.0
147
0.0
147
0.0208333333333333
147
0.0
147
0.0
147
0.0
147
0.0
147
1.0
147
0.0
147
0.0
147
0.0
147
0.0
147
1.0
  0
MATERIAL
  5
352
102
{ACAD_XDICTIONARY
360
353
102
}
102
{ACAD_REACTORS
330
2A
102
}
330
2A
100
AcDbMaterial
  1
ByLayer
 72
     0
 43
0.0208333333333333
 43
0.0
 43
0.0
 43
0.0
 43
0.0
 43
0.0208333333333333
 43
0.0
 43
0.0
 43
0.0
 43
0.0
 43
1.0
 43
0.0
 43
0.0
 43
0.0
 43
0.0
 43
1.0
 77
     0
 47
0.0208333333333333
 47
0.0
 47
0.0
 47
0.0
 47
0.0
 47
0.0208333333333333
 47
0.0
 47
0.0
 47
0.0
 47
0.0
 47
1.0
 47
0.0
 47
0.0
 47
0.0
 47
0.0
 47
1.0
171
     0
 49
0.0208333333333333
 49
0.0
 49
0.0
 49
0.0
 49
0.0
 49
0.0208333333333333
 49
0.0
 49
0.0
 49
0.0
 49
0.0
 49
1.0
 49
0.0
 49
0.0
 49
0.0
 49
0.0
 49
1.0
175
     0
142
0.0208333333333333
142
0.0
142
0.0
142
0.0
142
0.0
142
0.0208333333333333
142
0.0
142
0.0
142
0.0
142
0.0
142
1.0
142
0.0
142
0.0
142
0.0
142
0.0
142
1.0
179
     0
144
0.0208333333333333
144
0.0
144
0.0
144
0.0
144
0.0
144
0.0208333333333333
144
0.0
144
0.0
144
0.0
144
0.0
144
1.0
144
0.0
144
0.0
144
0.0
144
0.0
144
1.0
147
0.0208333333333333
147
0.0
147
0.0
147
0.0
147
0.0
147
0.0208333333333333
147
0.0
147
0.0
147
0.0
147
0.0
147
1.0
147
0.0
147
0.0
147
0.0
147
0.0
147
1.0
  0
MATERIAL
  5
362
102
{ACAD_XDICTIONARY
360
363
102
}
102
{ACAD_REACTORS
330
2A
102
}
330
2A
100
AcDbMaterial
  1
Global
 72
     0
 43
0.0208333333333333
 43
0.0
 43
0.0
 43
0.0
 43
0.0
 43
0.0208333333333333
 43
0.0
 43
0.0
 43
0.0
 43
0.0
 43
1.0
 43
0.0
 43
0.0
 43
0.0
 43
0.0
 43
1.0
 77
     0
 47
0.0208333333333333
 47
0.0
 47
0.0
 47
0.0
 47
0.0
 47
0.0208333333333333
 47
0.0
 47
0.0
 47
0.0
 47
0.0
 47
1.0
 47
0.0
 47
0.0
 47
0.0
 47
0.0
 47
1.0
171
     0
 49
0.0208333333333333
 49
0.0
 49
0.0
 49
0.0
 49
0.0
 49
0.0208333333333333
 49
0.0
 49
0.0
 49
0.0
 49
0.0
 49
1.0
 49
0.0
 49
0.0
 49
0.0
 49
0.0
 49
1.0
175
     0
142
0.0208333333333333
142
0.0
142
0.0
142
0.0
142
0.0
142
0.0208333333333333
142
0.0
142
0.0
142
0.0
142
0.0
142
1.0
142
0.0
142
0.0
142
0.0
142
0.0
142
1.0
179
     0
144
0.0208333333333333
144
0.0
144
0.0
144
0.0
144
0.0
144
0.0208333333333333
144
0.0
144
0.0
144
0.0
144
0.0
144
1.0
144
0.0
144
0.0
144
0.0
144
0.0
144
1.0
147
0.0208333333333333
147
0.0
147
0.0
147
0.0
147
0.0
147
0.0208333333333333
147
0.0
147
0.0
147
0.0
147
0.0
147
1.0
147
0.0
147
0.0
147
0.0
147
0.0
147
1.0
  0
MLEADERSTYLE
  5
396
102
{ACAD_REACTORS
330
395
102
}
330
395
100
AcDbMLeaderStyle
170
     2
171
     1
172
     0
 90
        2
 40
0.0
 41
0.0
173
     1
 91
-1056964608
340
17
 92
       -2
290
     1
 42
2.0
291
     1
 43
0.36
  3
Standard
 44
4.0
300

342
14
174
     1
178
     6
175
     1
176
     0
 93
-1056964608
 45
4.0
292
     0
297
     0
 46
4.0
 94
-1056964608
 47
1.0
 49
1.0
140
1.0
293
     1
141
0.0
294
     1
177
     0
142
1.0
295
     0
296
     0
143
0.125
1001
ACAD_MLEADERVER
1070
     2
  0
MLINESTYLE
  5
2E
102
{ACAD_REACTORS
330
28
102
}
330
28
100
AcDbMlineStyle
  2
STANDARD
 70
     0
  3

 62
     0
 51
90.0
 52
90.0
 71
     2
 49
0.5
 62
   256
  6
BYLAYER
 49
-0.5
 62
   256
  6
BYLAYER
  0
ACDBPLACEHOLDER
  5
7
102
{ACAD_REACTORS
330
8
102
}
330
8
  0
SCALE
  5
384
102
{ACAD_REACTORS
330
383
102
}
330
383
100
AcDbScale
 70
     0
300
1:1
140
1.0
141
1.0
290
     1
  0
SCALE
  5
385
102
{ACAD_REACTORS
330
383
102
}
330
383
100
AcDbScale
 70
     0
300
1:2
140
1.0
141
2.0
290
     0
  0
SCALE
  5
386
102
{ACAD_REACTORS
330
383
102
}
330
383
100
AcDbScale
 70
     0
300
1:4
140
1.0
141
4.0
290
     0
  0
SCALE
  5
387
102
{ACAD_REACTORS
330
383
102
}
330
383
100
AcDbScale
 70
     0
300
1:5
140
1.0
141
5.0
290
     0
  0
SCALE
  5
388
102
{ACAD_REACTORS
330
383
102
}
330
383
100
AcDbScale
 70
     0
300
1:8
140
1.0
141
8.0
290
     0
  0
SCALE
  5
389
102
{ACAD_REACTORS
330
383
102
}
330
383
100
AcDbScale
 70
     0
300
1:10
140
1.0
141
10.0
290
     0
  0
SCALE
  5
38A
102
{ACAD_REACTORS
330
383
102
}
330
383
100
AcDbScale
 70
     0
300
1:16
140
1.0
141
16.0
290
     0
  0
SCALE
  5
38B
102
{ACAD_REACTORS
330
383
102
}
330
383
100
AcDbScale
 70
     0
300
1:20
140
1.0
141
20.0
290
     0
  0
SCALE
  5
38C
102
{ACAD_REACTORS
330
383
102
}
330
383
100
AcDbScale
 70
     0
300
1:30
140
1.0
141
30.0
290
     0
  0
SCALE
  5
38D
102
{ACAD_REACTORS
330
383
102
}
330
383
100
AcDbScale
 70
     0
300
1:40
140
1.0
141
40.0
290
     0
  0
SCALE
  5
38E
102
{ACAD_REACTORS
330
383
102
}
330
383
100
AcDbScale
 70
     0
300
1:50
140
1.0
141
50.0
290
     0
  0
SCALE
  5
38F
102
{ACAD_REACTORS
330
383
102
}
330
383
100
AcDbScale
 70
     0
300
1:100
140
1.0
141
100.0
290
     0
  0
SCALE
  5
390
102
{ACAD_REACTORS
330
383
102
}
330
383
100
AcDbScale
 70
     0
300
2:1
140
2.0
141
1.0
290
     0
  0
SCALE
  5
391
102
{ACAD_REACTORS
330
383
102
}
330
383
100
AcDbScale
 70
     0
300
4:1
140
4.0
141
1.0
290
     0
  0
SCALE
  5
392
102
{ACAD_REACTORS
330
383
102
}
330
383
100
AcDbScale
 70
     0
300
8:1
140
8.0
141
1.0
290
     0
  0
SCALE
  5
393
102
{ACAD_REACTORS
330
383
102
}
330
383
100
AcDbScale
 70
     0
300
10:1
140
10.0
141
1.0
290
     0
  0
SCALE
  5
394
102
{ACAD_REACTORS
330
383
102
}
330
383
100
AcDbScale
 70
     0
300
100:1
140
100.0
141
1.0
290
     0
  0
ACDBSECTIONVIEWSTYLE
  5
398
102
{ACAD_XDICTIONARY
360
47E
102
}
102
{ACAD_REACTORS
330
397
330
3EA
102
}
330
397
100
AcDbModelDocViewStyle
 70
     0
  3
Metric50
290
     0
100
AcDbSectionViewStyle
 70
     0
 71
     0
 90
      102
 71
     1
340
14
 40
5.0
340
0
340
0
 40
5.0
300
I, O, Q, S, X, Z
 40
10.0
 90
        0
 40
2.5
 90
        0
 71
     2
340
A
 90
       25
340
A
 90
       50
 40
5.0
 40
2.5
 40
5.0
 71
     3
340
14
 40
5.0
 90
        0
 40
15.0
 90
        1
300
%<\AcVar ViewSectionStartId>%-%<\AcVar ViewSectionEndId>% (%<\AcVar ViewScale \f "%sn">%)
 71
     4
300
ANSI31
 40
1.0
 90
        0
290
     0
290
     0
 90
        6
 40
0.0
 40
1.570796326794896
 40
0.2617993877991494
 40
1.308996938995747
 40
-0.2617993877991494
 40
1.832595714594046
  0
TABLESTYLE
  5
2F
102
{ACAD_XDICTIONARY
360
439
102
}
102
{ACAD_REACTORS
330
2C
102
}
330
2C
100
AcDbTableStyle
  3
Standard
 70
     0
 71
     0
 40
1.5
 41
1.5
280
     0
281
     0
  7
STANDARD
140
4.5
170
     2
 62
     0
 63
     7
283
     0
274
    -2
284
     1
 64
     0
275
    -2
285
     1
 65
     0
276
    -2
286
     1
 66
     0
277
    -2
287
     1
 67
     0
278
    -2
288
     1
 68
     0
279
    -2
289
     1
 69
     0
  7
STANDARD
140
6.0
170
     5
 62
     0
 63
     7
283
     0
274
    -2
284
     1
 64
     0
275
    -2
285
     1
 65
     0
276
    -2
286
     1
 66
     0
277
    -2
287
     1
 67
     0
278
    -2
288
     1
 68
     0
279
    -2
289
     1
 69
     0
  7
STANDARD
140
4.5
170
     5
 62
     0
 63
     7
283
     0
274
    -2
284
     1
 64
     0
275
    -2
285
     1
 65
     0
276
    -2
286
     1
 66
     0
277
    -2
287
     1
 67
     0
278
    -2
288
     1
 68
     0
279
    -2
289
     1
 69
     0
  0
VISUALSTYLE
  5
370
102
{ACAD_XDICTIONARY
360
457
102
}
102
{ACAD_REACTORS
330
36A
102
}
330
36A
100
AcDbVisualStyle
  2
2dWireframe
 70
     4
 71
     0
 72
     2
 73
     0
 90
        0
 40
-0.6
 41
-30.0
 62
     5
 63
     7
 74
     1
 91
        4
 64
     7
 65
   257
 75
     1
175
     1
 42
1.0
 92
        0
 66
   257
 43
1.0
 76
     1
 77
     6
 78
     2
 67
     7
 79
     5
170
     0
171
     0
290
     0
174
     0
 93
        1
 44
0.0
173
     0
291
     0
 45
0.0
1001
ACAD
1000
AcDbSavedByObjectVersion
1070
     0
  0
VISUALSTYLE
  5
36F
102
{ACAD_XDICTIONARY
360
455
102
}
102
{ACAD_REACTORS
330
36A
102
}
330
36A
100
AcDbVisualStyle
  2
Basic
 70
     7
 71
     1
 72
     0
 73
     1
 90
        0
 40
-0.6
 41
-30.0
 62
     5
 63
     7
 74
     0
 91
        4
 64
     7
 65
   257
 75
     1
175
     1
 42
1.0
 92
        8
 66
     7
 43
1.0
 76
     1
 77
     6
 78
     2
 67
     7
 79
     5
170
     0
171
     0
290
     0
174
     0
 93
        1
 44
0.0
173
     0
291
     1
 45
0.0
1001
ACAD
1000
AcDbSavedByObjectVersion
1070
     0
  0
VISUALSTYLE
  5
376
102
{ACAD_XDICTIONARY
360
463
102
}
102
{ACAD_REACTORS
330
36A
102
}
330
36A
100
AcDbVisualStyle
  2
Brighten
 70
    12
 71
     2
 72
     2
 73
     0
 90
        0
 40
-0.6
 41
-30.0
 62
     5
 63
     7
 74
     1
 91
        4
 64
     7
 65
   257
 75
     1
175
     1
 42
1.0
 92
        8
 66
     7
 43
1.0
 76
     1
 77
     6
 78
     2
 67
     7
 79
     5
170
     0
171
     0
290
     0
174
     0
 93
        1
 44
50.0
173
     0
291
     1
 45
0.0
1001
ACAD
1000
AcDbSavedByObjectVersion
1070
     0
  0
VISUALSTYLE
  5
37A
102
{ACAD_XDICTIONARY
360
46B
102
}
102
{ACAD_REACTORS
330
36A
102
}
330
36A
100
AcDbVisualStyle
  2
ColorChange
 70
    16
 71
     2
 72
     2
 73
     3
 90
        0
 40
-0.6
 41
-30.0
 62
     5
 63
     8
 74
     1
 91
        4
 64
     7
 65
   257
 75
     1
175
     1
 42
1.0
 92
        8
 66
     8
 43
1.0
 76
     1
 77
     6
 78
     2
 67
     7
 79
     5
170
     0
171
     0
290
     0
174
     0
 93
        1
 44
0.0
173
     0
291
     1
 45
0.0
1001
ACAD
1000
AcDbSavedByObjectVersion
1070
     0
  0
VISUALSTYLE
  5
373
102
{ACAD_XDICTIONARY
360
45D
102
}
102
{ACAD_REACTORS
330
36A
102
}
330
36A
100
AcDbVisualStyle
  2
Conceptual
 70
     9
 71
     3
 72
     2
 73
     0
 90
        0
 40
-0.6
 41
-30.0
 62
     5
 63
     7
 74
     2
 91
        2
 64
     7
 65
   257
 75
     1
175
     1
 42
179.0
 92
        8
 66
     7
 43
1.0
 76
     1
 77
     6
 78
     2
 67
     7
 79
     3
170
     0
171
     0
290
     0
174
     0
 93
        1
 44
0.0
173
     0
291
     0
 45
0.0
1001
ACAD
1000
AcDbSavedByObjectVersion
1070
     0
  0
VISUALSTYLE
  5
375
102
{ACAD_XDICTIONARY
360
461
102
}
102
{ACAD_REACTORS
330
36A
102
}
330
36A
100
AcDbVisualStyle
  2
Dim
 70
    11
 71
     2
 72
     2
 73
     0
 90
        0
 40
-0.6
 41
-30.0
 62
     5
 63
     7
 74
     1
 91
        4
 64
     7
 65
   257
 75
     1
175
     1
 42
1.0
 92
        8
 66
     7
 43
1.0
 76
     1
 77
     6
 78
     2
 67
     7
 79
     5
170
     0
171
     0
290
     0
174
     0
 93
        1
 44
-50.0
173
     0
291
     1
 45
0.0
1001
ACAD
1000
AcDbSavedByObjectVersion
1070
     0
  0
VISUALSTYLE
  5
382
102
{ACAD_XDICTIONARY
360
47B
102
}
102
{ACAD_REACTORS
330
36A
102
}
330
36A
100
AcDbVisualStyle
  2
EdgeColorOff
 70
    22
 71
     2
 72
     2
 73
     0
 90
        0
 40
-0.6
 41
-30.0
 62
     5
 63
     7
 74
     1
 91
        4
 64
     7
 65
   257
 75
     1
175
     1
 42
1.0
 92
        8
 66
     7
 43
1.0
 76
     1
 77
     6
 78
     2
 67
     7
 79
     5
170
     0
171
     0
290
     0
174
     0
 93
        1
 44
0.0
173
     0
291
     1
 45
0.0
1001
ACAD
1000
AcDbSavedByObjectVersion
1070
     0
  0
VISUALSTYLE
  5
379
102
{ACAD_XDICTIONARY
360
469
102
}
102
{ACAD_REACTORS
330
36A
102
}
330
36A
100
AcDbVisualStyle
  2
Facepattern
 70
    15
 71
     2
 72
     2
 73
     0
 90
        0
 40
-0.6
 41
-30.0
 62
     5
 63
     7
 74
     1
 91
        4
 64
     7
 65
   257
 75
     1
175
     1
 42
1.0
 92
        8
 66
     7
 43
1.0
 76
     1
 77
     6
 78
     2
 67
     7
 79
     5
170
     0
171
     0
290
     0
174
     0
 93
        1
 44
0.0
173
     0
291
     1
 45
0.0
1001
ACAD
1000
AcDbSavedByObjectVersion
1070
     0
  0
VISUALSTYLE
  5
36B
102
{ACAD_XDICTIONARY
360
44D
102
}
102
{ACAD_REACTORS
330
36A
102
}
330
36A
100
AcDbVisualStyle
  2
Flat
 70
     0
 71
     2
 72
     1
 73
     1
 90
        2
 40
-0.6
 41
30.0
 62
     5
 63
     7
 74
     0
 91
        0
 64
     7
 65
   257
 75
     1
175
     1
 42
1.0
 92
        8
 66
     7
 43
1.0
 76
     1
 77
     6
 78
     2
 67
     7
 79
     5
170
     0
171
     0
290
     0
174
     0
 93
       13
 44
0.0
173
     0
291
     1
 45
0.0
1001
ACAD
1000
AcDbSavedByObjectVersion
1070
     0
  0
VISUALSTYLE
  5
36C
102
{ACAD_XDICTIONARY
360
44F
102
}
102
{ACAD_REACTORS
330
36A
102
}
330
36A
100
AcDbVisualStyle
  2
FlatWithEdges
 70
     1
 71
     2
 72
     1
 73
     1
 90
        2
 40
-0.6
 41
30.0
 62
     5
 63
     7
 74
     1
 91
        0
 64
     7
 65
   257
 75
     1
175
     1
 42
1.0
 92
        0
 66
   257
 43
1.0
 76
     1
 77
     6
 78
     2
 67
     7
 79
     5
170
     0
171
     0
290
     0
174
     0
 93
       13
 44
0.0
173
     0
291
     1
 45
0.0
1001
ACAD
1000
AcDbSavedByObjectVersion
1070
     0
  0
VISUALSTYLE
  5
36D
102
{ACAD_XDICTIONARY
360
451
102
}
102
{ACAD_REACTORS
330
36A
102
}
330
36A
100
AcDbVisualStyle
  2
Gouraud
 70
     2
 71
     2
 72
     2
 73
     1
 90
        2
 40
-0.6
 41
30.0
 62
     5
 63
     7
 74
     0
 91
        0
 64
     7
 65
   257
 75
     1
175
     1
 42
1.0
 92
        0
 66
     7
 43
1.0
 76
     1
 77
     6
 78
     2
 67
     7
 79
     5
170
     0
171
     0
290
     0
174
     0
 93
       13
 44
0.0
173
     0
291
     1
 45
0.0
1001
ACAD
1000
AcDbSavedByObjectVersion
1070
     0
  0
VISUALSTYLE
  5
36E
102
{ACAD_XDICTIONARY
360
453
102
}
102
{ACAD_REACTORS
330
36A
102
}
330
36A
100
AcDbVisualStyle
  2
GouraudWithEdges
 70
     3
 71
     2
 72
     2
 73
     1
 90
        2
 40
-0.6
 41
30.0
 62
     5
 63
     7
 74
     1
 91
        0
 64
     7
 65
   257
 75
     1
175
     1
 42
1.0
 92
        0
 66
   257
 43
1.0
 76
     1
 77
     6
 78
     2
 67
     7
 79
     5
170
     0
171
     0
290
     0
174
     0
 93
       13
 44
0.0
173
     0
291
     1
 45
0.0
1001
ACAD
1000
AcDbSavedByObjectVersion
1070
     0
  0
VISUALSTYLE
  5
372
102
{ACAD_XDICTIONARY
360
45B
102
}
102
{ACAD_REACTORS
330
36A
102
}
330
36A
100
AcDbVisualStyle
  2
Hidden
 70
     6
 71
     1
 72
     2
 73
     2
 90
        0
 40
-0.6
 41
-30.0
 62
     5
 63
     7
 74
     2
 91
        2
 64
     7
 65
   257
 75
     2
175
     1
 42
40.0
 92
        0
 66
   257
 43
1.0
 76
     1
 77
     6
 78
     2
 67
     7
 79
     3
170
     0
171
     0
290
     0
174
     0
 93
        1
 44
0.0
173
     0
291
     0
 45
0.0
1001
ACAD
1000
AcDbSavedByObjectVersion
1070
     0
  0
VISUALSTYLE
  5
380
102
{ACAD_XDICTIONARY
360
477
102
}
102
{ACAD_REACTORS
330
36A
102
}
330
36A
100
AcDbVisualStyle
  2
JitterOff
 70
    20
 71
     2
 72
     2
 73
     0
 90
        0
 40
-0.6
 41
-30.0
 62
     5
 63
     7
 74
     1
 91
        4
 64
     7
 65
   257
 75
     1
175
     1
 42
1.0
 92
       10
 66
     7
 43
1.0
 76
     1
 77
     6
 78
     2
 67
     7
 79
     5
170
     0
171
     0
290
     0
174
     0
 93
        1
 44
0.0
173
     0
291
     1
 45
0.0
1001
ACAD
1000
AcDbSavedByObjectVersion
1070
     0
  0
VISUALSTYLE
  5
378
102
{ACAD_XDICTIONARY
360
467
102
}
102
{ACAD_REACTORS
330
36A
102
}
330
36A
100
AcDbVisualStyle
  2
Linepattern
 70
    14
 71
     2
 72
     2
 73
     0
 90
        0
 40
-0.6
 41
-30.0
 62
     5
 63
     7
 74
     1
 91
        4
 64
     7
 65
   257
 75
     7
175
     7
 42
1.0
 92
        8
 66
     7
 43
1.0
 76
     1
 77
     6
 78
     2
 67
     7
 79
     5
170
     0
171
     0
290
     0
174
     0
 93
        1
 44
0.0
173
     0
291
     1
 45
0.0
1001
ACAD
1000
AcDbSavedByObjectVersion
1070
     0
  0
VISUALSTYLE
  5
381
102
{ACAD_XDICTIONARY
360
479
102
}
102
{ACAD_REACTORS
330
36A
102
}
330
36A
100
AcDbVisualStyle
  2
OverhangOff
 70
    21
 71
     2
 72
     2
 73
     0
 90
        0
 40
-0.6
 41
-30.0
 62
     5
 63
     7
 74
     1
 91
        4
 64
     7
 65
   257
 75
     1
175
     1
 42
1.0
 92
        9
 66
     7
 43
1.0
 76
     1
 77
     6
 78
     2
 67
     7
 79
     5
170
     0
171
     0
290
     0
174
     0
 93
        1
 44
0.0
173
     0
291
     1
 45
0.0
1001
ACAD
1000
AcDbSavedByObjectVersion
1070
     0
  0
VISUALSTYLE
  5
374
102
{ACAD_XDICTIONARY
360
45F
102
}
102
{ACAD_REACTORS
330
36A
102
}
330
36A
100
AcDbVisualStyle
  2
Realistic
 70
     8
 71
     2
 72
     3
 73
     0
 90
        2
 40
-0.6
 41
30.0
 62
     5
 63
     7
 74
     0
 91
        0
 64
     7
 65
   257
 75
     1
175
     1
 42
1.0
 92
        8
 66
   257
 43
1.0
 76
     1
 77
     6
 78
     2
 67
     7
 79
     3
170
     0
171
     0
290
     0
174
     0
 93
       13
 44
0.0
173
     0
291
     0
 45
0.0
1001
ACAD
1000
AcDbSavedByObjectVersion
1070
     0
  0
VISUALSTYLE
  5
37F
102
{ACAD_XDICTIONARY
360
475
102
}
102
{ACAD_REACTORS
330
36A
102
}
330
36A
100
AcDbVisualStyle
  2
Shaded
 70
    27
 71
     2
 72
     2
 73
     1
 90
        2
 40
-0.6
 41
30.0
 62
     5
 63
     7
 74
     0
 91
        4
 64
     7
 65
   257
 75
     1
175
     1
 42
1.0
 92
        8
 66
   257
 43
1.0
 76
     1
 77
     6
 78
     2
 67
     8
 79
     3
170
     0
171
     0
290
     0
174
     0
 93
        5
 44
0.0
173
     0
291
     0
 45
0.0
1001
ACAD
1000
AcDbSavedByObjectVersion
1070
     0
  0
VISUALSTYLE
  5
37E
102
{ACAD_XDICTIONARY
360
473
102
}
102
{ACAD_REACTORS
330
36A
102
}
330
36A
100
AcDbVisualStyle
  2
Shaded with edges
 70
    26
 71
     2
 72
     2
 73
     1
 90
        2
 40
-0.6
 41
30.0
 62
     5
 63
     7
 74
     1
 91
       10
 64
     7
 65
   257
 75
     2
175
     1
 42
1.0
 92
        8
 66
   257
 43
1.0
 76
     1
 77
     6
 78
     2
 67
     7
 79
     3
170
     0
171
     0
290
     0
174
     0
 93
        5
 44
0.0
173
     0
291
     0
 45
0.0
1001
ACAD
1000
AcDbSavedByObjectVersion
1070
     0
  0
VISUALSTYLE
  5
37B
102
{ACAD_XDICTIONARY
360
46D
102
}
102
{ACAD_REACTORS
330
36A
102
}
330
36A
100
AcDbVisualStyle
  2
Shades of Gray
 70
    23
 71
     2
 72
     2
 73
     3
 90
        0
 40
-0.6
 41
-30.0
 62
     5
 63
     7
 74
     2
 91
        2
 64
     7
 65
     7
 75
     1
175
     1
 42
40.0
 92
        8
 66
     7
 43
1.0
 76
     1
 77
     6
 78
     2
 67
     7
 79
     3
170
     0
171
     0
290
     0
174
     0
 93
        1
 44
0.0
173
     0
291
     0
 45
0.0
1001
ACAD
1000
AcDbSavedByObjectVersion
1070
     0
  0
VISUALSTYLE
  5
37C
102
{ACAD_XDICTIONARY
360
46F
102
}
102
{ACAD_REACTORS
330
36A
102
}
330
36A
100
AcDbVisualStyle
  2
Sketchy
 70
    24
 71
     1
 72
     2
 73
     2
 90
        0
 40
-0.6
 41
-30.0
 62
     5
 63
     7
 74
     2
 91
        2
 64
     7
 65
     7
 75
     1
175
     1
 42
40.0
 92
       11
 66
     7
 43
1.0
 76
     1
 77
     6
 78
     2
 67
     7
 79
     6
170
     0
171
     0
290
     0
174
     0
 93
        1
 44
0.0
173
     0
291
     0
 45
0.0
1001
ACAD
1000
AcDbSavedByObjectVersion
1070
     0
  0
VISUALSTYLE
  5
377
102
{ACAD_XDICTIONARY
360
465
102
}
102
{ACAD_REACTORS
330
36A
102
}
330
36A
100
AcDbVisualStyle
  2
Thicken
 70
    13
 71
     2
 72
     2
 73
     0
 90
        0
 40
-0.6
 41
-30.0
 62
     5
 63
     7
 74
     1
 91
        4
 64
     7
 65
   257
 75
     1
175
     1
 42
1.0
 92
       12
 66
     7
 43
1.0
 76
     1
 77
     6
 78
     2
 67
     7
 79
     5
170
     0
171
     0
290
     0
174
     0
 93
        1
 44
0.0
173
     0
291
     1
 45
0.0
1001
ACAD
1000
AcDbSavedByObjectVersion
1070
     0
  0
VISUALSTYLE
  5
371
102
{ACAD_XDICTIONARY
360
459
102
}
102
{ACAD_REACTORS
330
36A
102
}
330
36A
100
AcDbVisualStyle
  2
Wireframe
 70
     5
 71
     0
 72
     2
 73
     0
 90
        0
 40
-0.6
 41
-30.0
 62
     5
 63
     7
 74
     1
 91
        4
 64
     7
 65
   257
 75
     1
175
     1
 42
1.0
 92
        0
 66
   257
 43
1.0
 76
     1
 77
     6
 78
     2
 67
     7
 79
     3
170
     0
171
     0
290
     0
174
     0
 93
        1
 44
0.0
173
     0
291
     0
 45
0.0
1001
ACAD
1000
AcDbSavedByObjectVersion
1070
     0
  0
VISUALSTYLE
  5
37D
102
{ACAD_XDICTIONARY
360
471
102
}
102
{ACAD_REACTORS
330
36A
102
}
330
36A
100
AcDbVisualStyle
  2
X-Ray
 70
    25
 71
     2
 72
     2
 73
     1
 90
        1
 40
0.5
 41
-30.0
 62
     5
 63
     7
 74
     1
 91
        0
 64
     7
 65
   257
 75
     1
175
     1
 42
1.0
 92
        8
 66
     7
 43
1.0
 76
     1
 77
     6
 78
     2
 67
     7
 79
     3
170
     0
171
     0
290
     0
174
     0
 93
       13
 44
0.0
173
     0
291
     0
 45
0.0
1001
ACAD
1000
AcDbSavedByObjectVersion
1070
     0
  0
DICTIONARYVAR
  5
433
102
{ACAD_REACTORS
330
34E
102
}
330
34E
100
DictionaryVariables
280
     0
  1
1:1
  0
DICTIONARYVAR
  5
430
102
{ACAD_REACTORS
330
34E
102
}
330
34E
100
DictionaryVariables
280
     0
  1
STANDARD
  0
DICTIONARYVAR
  5
34F
102
{ACAD_REACTORS
330
34E
102
}
330
34E
100
DictionaryVariables
280
     0
  1
STANDARD
  0
DICTIONARYVAR
  5
431
102
{ACAD_REACTORS
330
34E
102
}
330
34E
100
DictionaryVariables
280
     0
  1
Metric50
  0
DICTIONARYVAR
  5
432
102
{ACAD_REACTORS
330
34E
102
}
330
34E
100
DictionaryVariables
280
     0
  1
Metric50
  0
DICTIONARYVAR
  5
438
102
{ACAD_REACTORS
330
34E
102
}
330
34E
100
DictionaryVariables
280
     0
  1
1
  0
DICTIONARYVAR
  5
436
102
{ACAD_REACTORS
330
34E
102
}
330
34E
100
DictionaryVariables
280
     0
  1
1
  0
DICTIONARYVAR
  5
435
102
{ACAD_REACTORS
330
34E
102
}
330
34E
100
DictionaryVariables
280
     0
  1
0
  0
DICTIONARYVAR
  5
434
102
{ACAD_REACTORS
330
34E
102
}
330
34E
100
DictionaryVariables
280
     0
  1
127
  0
DICTIONARYVAR
  5
437
102
{ACAD_REACTORS
330
34E
102
}
330
34E
100
DictionaryVariables
280
     0
  1
0
  0
DICTIONARY
  5
2F8
102
{ACAD_REACTORS
330
2F7
102
}
330
2F7
100
AcDbDictionary
281
     1
  0
DICTIONARY
  5
480
330
39A
100
AcDbDictionary
280
     1
281
     1
  3
ACAD_XREC_ROUNDTRIP
360
481
  0
DICTIONARY
  5
444
330
11
100
AcDbDictionary
280
     1
281
     1
  3
ACAD_XREC_ROUNDTRIP
360
445
  0
DICTIONARY
  5
442
330
C
100
AcDbDictionary
280
     1
281
     1
  3
ACAD_XREC_ROUNDTRIP
360
443
  0
DICTIONARY
  5
35B
330
35A
100
AcDbDictionary
280
     1
281
     1
  3
ACAD_XREC_ROUNDTRIP
360
44B
  3
BUMPTILE
360
35D
  3
DIFFUSETILE
360
35C
  3
OPACITYTILE
360
360
  3
REFLECTIONTILE
360
35F
  3
REFRACTIONTILE
360
361
  3
SPECULARTILE
360
35E
  0
DICTIONARY
  5
353
330
352
100
AcDbDictionary
280
     1
281
     1
  3
ACAD_XREC_ROUNDTRIP
360
44A
  3
BUMPTILE
360
355
  3
DIFFUSETILE
360
354
  3
OPACITYTILE
360
358
  3
REFLECTIONTILE
360
357
  3
REFRACTIONTILE
360
359
  3
SPECULARTILE
360
356
  0
DICTIONARY
  5
363
330
362
100
AcDbDictionary
280
     1
281
     1
  3
ACAD_XREC_ROUNDTRIP
360
44C
  3
BUMPTILE
360
365
  3
DIFFUSETILE
360
364
  3
OPACITYTILE
360
368
  3
REFLECTIONTILE
360
367
  3
REFRACTIONTILE
360
369
  3
SPECULARTILE
360
366
  0
DICTIONARY
  5
47E
330
398
100
AcDbDictionary
280
     1
281
     1
  3
ACAD_XREC_ROUNDTRIP
360
47F
  0
DICTIONARY
  5
439
330
2F
100
AcDbDictionary
280
     1
281
     1
  3
ACAD_ROUNDTRIP_2008_TABLESTYLE_CELLSTYLEMAP
360
43A
  3
ACAD_XREC_ROUNDTRIP
360
446
  0
DICTIONARY
  5
457
330
370
100
AcDbDictionary
280
     1
281
     1
  3
ACAD_XREC_ROUNDTRIP
360
458
  0
DICTIONARY
  5
455
330
36F
100
AcDbDictionary
280
     1
281
     1
  3
ACAD_XREC_ROUNDTRIP
360
456
  0
DICTIONARY
  5
463
330
376
100
AcDbDictionary
280
     1
281
     1
  3
ACAD_XREC_ROUNDTRIP
360
464
  0
DICTIONARY
  5
46B
330
37A
100
AcDbDictionary
280
     1
281
     1
  3
ACAD_XREC_ROUNDTRIP
360
46C
  0
DICTIONARY
  5
45D
330
373
100
AcDbDictionary
280
     1
281
     1
  3
ACAD_XREC_ROUNDTRIP
360
45E
  0
DICTIONARY
  5
461
330
375
100
AcDbDictionary
280
     1
281
     1
  3
ACAD_XREC_ROUNDTRIP
360
462
  0
DICTIONARY
  5
47B
330
382
100
AcDbDictionary
280
     1
281
     1
  3
ACAD_XREC_ROUNDTRIP
360
47C
  0
DICTIONARY
  5
469
330
379
100
AcDbDictionary
280
     1
281
     1
  3
ACAD_XREC_ROUNDTRIP
360
46A
  0
DICTIONARY
  5
44D
330
36B
100
AcDbDictionary
280
     1
281
     1
  3
ACAD_XREC_ROUNDTRIP
360
44E
  0
DICTIONARY
  5
44F
330
36C
100
AcDbDictionary
280
     1
281
     1
  3
ACAD_XREC_ROUNDTRIP
360
450
  0
DICTIONARY
  5
451
330
36D
100
AcDbDictionary
280
     1
281
     1
  3
ACAD_XREC_ROUNDTRIP
360
452
  0
DICTIONARY
  5
453
330
36E
100
AcDbDictionary
280
     1
281
     1
  3
ACAD_XREC_ROUNDTRIP
360
454
  0
DICTIONARY
  5
45B
330
372
100
AcDbDictionary
280
     1
281
     1
  3
ACAD_XREC_ROUNDTRIP
360
45C
  0
DICTIONARY
  5
477
330
380
100
AcDbDictionary
280
     1
281
     1
  3
ACAD_XREC_ROUNDTRIP
360
478
  0
DICTIONARY
  5
467
330
378
100
AcDbDictionary
280
     1
281
     1
  3
ACAD_XREC_ROUNDTRIP
360
468
  0
DICTIONARY
  5
479
330
381
100
AcDbDictionary
280
     1
281
     1
  3
ACAD_XREC_ROUNDTRIP
360
47A
  0
DICTIONARY
  5
45F
330
374
100
AcDbDictionary
280
     1
281
     1
  3
ACAD_XREC_ROUNDTRIP
360
460
  0
DICTIONARY
  5
475
330
37F
100
AcDbDictionary
280
     1
281
     1
  3
ACAD_XREC_ROUNDTRIP
360
476
  0
DICTIONARY
  5
473
330
37E
100
AcDbDictionary
280
     1
281
     1
  3
ACAD_XREC_ROUNDTRIP
360
474
  0
DICTIONARY
  5
46D
330
37B
100
AcDbDictionary
280
     1
281
     1
  3
ACAD_XREC_ROUNDTRIP
360
46E
  0
DICTIONARY
  5
46F
330
37C
100
AcDbDictionary
280
     1
281
     1
  3
ACAD_XREC_ROUNDTRIP
360
470
  0
DICTIONARY
  5
465
330
377
100
AcDbDictionary
280
     1
281
     1
  3
ACAD_XREC_ROUNDTRIP
360
466
  0
DICTIONARY
  5
459
330
371
100
AcDbDictionary
280
     1
281
     1
  3
ACAD_XREC_ROUNDTRIP
360
45A
  0
DICTIONARY
  5
471
330
37D
100
AcDbDictionary
280
     1
281
     1
  3
ACAD_XREC_ROUNDTRIP
360
472
  0
XRECORD
  5
481
102
{ACAD_REACTORS
330
480
102
}
330
480
100
AcDbXrecord
280
     1
102
DISPLAYNAME
  1
Metric50
102
FLAGS
 90
        0
  0
XRECORD
  5
445
102
{ACAD_REACTORS
330
444
102
}
330
444
100
AcDbXrecord
280
     1
102
SHADEPLOT
 70
     0
102
SHADEPLOTRESLEVEL
 70
     2
102
SHADEPLOTCUSTOMDPI
 70
   300
  0
XRECORD
  5
443
102
{ACAD_REACTORS
330
442
102
}
330
442
100
AcDbXrecord
280
     1
102
SHADEPLOT
 70
     0
102
SHADEPLOTRESLEVEL
 70
     2
102
SHADEPLOTCUSTOMDPI
 70
   300
  0
XRECORD
  5
44B
102
{ACAD_REACTORS
330
35B
102
}
330
35B
100
AcDbXrecord
280
     1
102
MATERIAL
148
0.0
149
0.0
149
0.0
 93
        0
 94
      127
282
     0
 72
     0
 77
     0
171
     0
175
     0
179
     0
273
     0
  0
XRECORD
  5
35D
102
{ACAD_REACTORS
330
35B
102
}
330
35B
100
AcDbXrecord
280
     1
270
     1
271
     1
  0
XRECORD
  5
35C
102
{ACAD_REACTORS
330
35B
102
}
330
35B
100
AcDbXrecord
280
     1
270
     1
271
     1
  0
XRECORD
  5
360
102
{ACAD_REACTORS
330
35B
102
}
330
35B
100
AcDbXrecord
280
     1
270
     1
271
     1
  0
XRECORD
  5
35F
102
{ACAD_REACTORS
330
35B
102
}
330
35B
100
AcDbXrecord
280
     1
270
     1
271
     1
  0
XRECORD
  5
361
102
{ACAD_REACTORS
330
35B
102
}
330
35B
100
AcDbXrecord
280
     1
270
     1
271
     1
  0
XRECORD
  5
35E
102
{ACAD_REACTORS
330
35B
102
}
330
35B
100
AcDbXrecord
280
     1
270
     1
271
     1
  0
XRECORD
  5
44A
102
{ACAD_REACTORS
330
353
102
}
330
353
100
AcDbXrecord
280
     1
102
MATERIAL
148
0.0
149
0.0
149
0.0
 93
        0
 94
      127
282
     0
 72
     0
 77
     0
171
     0
175
     0
179
     0
273
     0
  0
XRECORD
  5
355
102
{ACAD_REACTORS
330
353
102
}
330
353
100
AcDbXrecord
280
     1
270
     1
271
     1
  0
XRECORD
  5
354
102
{ACAD_REACTORS
330
353
102
}
330
353
100
AcDbXrecord
280
     1
270
     1
271
     1
  0
XRECORD
  5
358
102
{ACAD_REACTORS
330
353
102
}
330
353
100
AcDbXrecord
280
     1
270
     1
271
     1
  0
XRECORD
  5
357
102
{ACAD_REACTORS
330
353
102
}
330
353
100
AcDbXrecord
280
     1
270
     1
271
     1
  0
XRECORD
  5
359
102
{ACAD_REACTORS
330
353
102
}
330
353
100
AcDbXrecord
280
     1
270
     1
271
     1
  0
XRECORD
  5
356
102
{ACAD_REACTORS
330
353
102
}
330
353
100
AcDbXrecord
280
     1
270
     1
271
     1
  0
XRECORD
  5
44C
102
{ACAD_REACTORS
330
363
102
}
330
363
100
AcDbXrecord
280
     1
102
MATERIAL
148
0.0
149
0.0
149
0.0
 93
        0
 94
      127
282
     0
 72
     0
 77
     0
171
     0
175
     0
179
     0
273
     0
  0
XRECORD
  5
365
102
{ACAD_REACTORS
330
363
102
}
330
363
100
AcDbXrecord
280
     1
270
     1
271
     1
  0
XRECORD
  5
364
102
{ACAD_REACTORS
330
363
102
}
330
363
100
AcDbXrecord
280
     1
270
     1
271
     1
  0
XRECORD
  5
368
102
{ACAD_REACTORS
330
363
102
}
330
363
100
AcDbXrecord
280
     1
270
     1
271
     1
  0
XRECORD
  5
367
102
{ACAD_REACTORS
330
363
102
}
330
363
100
AcDbXrecord
280
     1
270
     1
271
     1
  0
XRECORD
  5
369
102
{ACAD_REACTORS
330
363
102
}
330
363
100
AcDbXrecord
280
     1
270
     1
271
     1
  0
XRECORD
  5
366
102
{ACAD_REACTORS
330
363
102
}
330
363
100
AcDbXrecord
280
     1
270
     1
271
     1
  0
XRECORD
  5
47F
102
{ACAD_REACTORS
330
47E
102
}
330
47E
100
AcDbXrecord
280
     1
102
DISPLAYNAME
  1
Metric50
102
FLAGS
 90
        0
  0
CELLSTYLEMAP
  5
43A
102
{ACAD_REACTORS
330
439
102
}
330
439
100
AcDbCellStyleMap
 90
        3
300
CELLSTYLE
  1
TABLEFORMAT_BEGIN
 90
        5
170
     1
 91
        0
 92
    32768
 62
   257
 93
        1
300
CONTENTFORMAT
  1
CONTENTFORMAT_BEGIN
 90
        0
 91
        0
 92
        4
 93
        0
300

 40
0.0
140
1.0
 94
        5
 62
     0
340
14
144
6.0
309
CONTENTFORMAT_END
171
     1
301
MARGIN
  1
CELLMARGIN_BEGIN
 40
1.5
 40
1.5
 40
1.5
 40
1.5
 40
0.18
 40
0.18
309
CELLMARGIN_END
 94
        6
 95
        1
302
GRIDFORMAT
  1
GRIDFORMAT_BEGIN
 90
        0
 91
        1
 62
     0
 92
       -2
340
0
 93
        0
 40
0.045
309
GRIDFORMAT_END
 95
        2
302
GRIDFORMAT
  1
GRIDFORMAT_BEGIN
 90
        0
 91
        1
 62
     0
 92
       -2
340
0
 93
        0
 40
0.045
309
GRIDFORMAT_END
 95
        4
302
GRIDFORMAT
  1
GRIDFORMAT_BEGIN
 90
        0
 91
        1
 62
     0
 92
       -2
340
0
 93
        0
 40
0.045
309
GRIDFORMAT_END
 95
        8
302
GRIDFORMAT
  1
GRIDFORMAT_BEGIN
 90
        0
 91
        1
 62
     0
 92
       -2
340
0
 93
        0
 40
0.045
309
GRIDFORMAT_END
 95
       16
302
GRIDFORMAT
  1
GRIDFORMAT_BEGIN
 90
        0
 91
        1
 62
     0
 92
       -2
340
0
 93
        0
 40
0.045
309
GRIDFORMAT_END
 95
       32
302
GRIDFORMAT
  1
GRIDFORMAT_BEGIN
 90
        0
 91
        1
 62
     0
 92
       -2
340
0
 93
        0
 40
0.045
309
GRIDFORMAT_END
309
TABLEFORMAT_END
  1
CELLSTYLE_BEGIN
 90
        1
 91
        1
300
_TITLE
309
CELLSTYLE_END
300
CELLSTYLE
  1
TABLEFORMAT_BEGIN
 90
        5
170
     1
 91
        0
 92
        0
 62
   257
 93
        1
300
CONTENTFORMAT
  1
CONTENTFORMAT_BEGIN
 90
        0
 91
        0
 92
        4
 93
        0
300

 40
0.0
140
1.0
 94
        5
 62
     0
340
14
144
4.5
309
CONTENTFORMAT_END
171
     1
301
MARGIN
  1
CELLMARGIN_BEGIN
 40
1.5
 40
1.5
 40
1.5
 40
1.5
 40
0.18
 40
0.18
309
CELLMARGIN_END
 94
        6
 95
        1
302
GRIDFORMAT
  1
GRIDFORMAT_BEGIN
 90
        0
 91
        1
 62
     0
 92
       -2
340
0
 93
        0
 40
0.045
309
GRIDFORMAT_END
 95
        2
302
GRIDFORMAT
  1
GRIDFORMAT_BEGIN
 90
        0
 91
        1
 62
     0
 92
       -2
340
0
 93
        0
 40
0.045
309
GRIDFORMAT_END
 95
        4
302
GRIDFORMAT
  1
GRIDFORMAT_BEGIN
 90
        0
 91
        1
 62
     0
 92
       -2
340
0
 93
        0
 40
0.045
309
GRIDFORMAT_END
 95
        8
302
GRIDFORMAT
  1
GRIDFORMAT_BEGIN
 90
        0
 91
        1
 62
     0
 92
       -2
340
0
 93
        0
 40
0.045
309
GRIDFORMAT_END
 95
       16
302
GRIDFORMAT
  1
GRIDFORMAT_BEGIN
 90
        0
 91
        1
 62
     0
 92
       -2
340
0
 93
        0
 40
0.045
309
GRIDFORMAT_END
 95
       32
302
GRIDFORMAT
  1
GRIDFORMAT_BEGIN
 90
        0
 91
        1
 62
     0
 92
       -2
340
0
 93
        0
 40
0.045
309
GRIDFORMAT_END
309
TABLEFORMAT_END
  1
CELLSTYLE_BEGIN
 90
        2
 91
        1
300
_HEADER
309
CELLSTYLE_END
300
CELLSTYLE
  1
TABLEFORMAT_BEGIN
 90
        5
170
     1
 91
        0
 92
        0
 62
   257
 93
        1
300
CONTENTFORMAT
  1
CONTENTFORMAT_BEGIN
 90
        0
 91
        0
 92
        4
 93
        0
300

 40
0.0
140
1.0
 94
        2
 62
     0
340
14
144
4.5
309
CONTENTFORMAT_END
171
     1
301
MARGIN
  1
CELLMARGIN_BEGIN
 40
1.5
 40
1.5
 40
1.5
 40
1.5
 40
0.18
 40
0.18
309
CELLMARGIN_END
 94
        6
 95
        1
302
GRIDFORMAT
  1
GRIDFORMAT_BEGIN
 90
        0
 91
        1
 62
     0
 92
       -2
340
0
 93
        0
 40
0.045
309
GRIDFORMAT_END
 95
        2
302
GRIDFORMAT
  1
GRIDFORMAT_BEGIN
 90
        0
 91
        1
 62
     0
 92
       -2
340
0
 93
        0
 40
0.045
309
GRIDFORMAT_END
 95
        4
302
GRIDFORMAT
  1
GRIDFORMAT_BEGIN
 90
        0
 91
        1
 62
     0
 92
       -2
340
0
 93
        0
 40
0.045
309
GRIDFORMAT_END
 95
        8
302
GRIDFORMAT
  1
GRIDFORMAT_BEGIN
 90
        0
 91
        1
 62
     0
 92
       -2
340
0
 93
        0
 40
0.045
309
GRIDFORMAT_END
 95
       16
302
GRIDFORMAT
  1
GRIDFORMAT_BEGIN
 90
        0
 91
        1
 62
     0
 92
       -2
340
0
 93
        0
 40
0.045
309
GRIDFORMAT_END
 95
       32
302
GRIDFORMAT
  1
GRIDFORMAT_BEGIN
 90
        0
 91
        1
 62
     0
 92
       -2
340
0
 93
        0
 40
0.045
309
GRIDFORMAT_END
309
TABLEFORMAT_END
  1
CELLSTYLE_BEGIN
 90
        3
 91
        2
300
_DATA
309
CELLSTYLE_END
  0
XRECORD
  5
446
102
{ACAD_REACTORS
330
439
102
}
330
439
100
AcDbXrecord
280
     1
102
ACAD_ROUNDTRIP_PRE2007_TABLESTYLE
 90
        4
 91
        0
  1

 92
        4
 93
        0
  2

 94
        4
 95
        0
  3

  0
XRECORD
  5
458
102
{ACAD_REACTORS
330
457
102
}
330
457
100
AcDbXrecord
280
     1
102
RTVSPost2010Prop28
280
     1
102
RTVSPost2010PropOp28
 70
     1
102
RTVSPost2010Prop29
280
     1
102
RTVSPost2010PropOp29
 70
     1
102
RTVSPost2010Prop30
280
     0
102
RTVSPost2010PropOp30
 70
     1
102
RTVSPost2010Prop31
280
     0
102
RTVSPost2010PropOp31
 70
     1
102
RTVSPost2010Prop32
280
     0
102
RTVSPost2010PropOp32
 70
     1
102
RTVSPost2010Prop33
280
     0
102
RTVSPost2010PropOp33
 70
     1
102
RTVSPost2010Prop34
280
     0
102
RTVSPost2010PropOp34
 70
     1
102
RTVSPost2010Prop35
280
     0
102
RTVSPost2010PropOp35
 70
     1
102
RTVSPost2010Prop36
280
     0
102
RTVSPost2010PropOp36
 70
     1
102
RTVSPost2010Prop37
 90
       50
102
RTVSPost2010PropOp37
 70
     1
102
RTVSPost2010Prop38
140
0.0
102
RTVSPost2010PropOp38
 70
     1
102
RTVSPost2010Prop39
140
1.0
102
RTVSPost2010PropOp39
 70
     1
102
RTVSPost2010Prop40
 90
        0
102
RTVSPost2010PropOp40
 70
     1
102
RTVSPost2010Prop41ColorIndex
 90
       18
102
RTVSPost2010Prop41ColorRGB
 90
        0
102
RTVSPost2010PropOp41
 70
     1
102
RTVSPost2010Prop42
 90
       50
102
RTVSPost2010PropOp42
 70
     1
102
RTVSPost2010Prop43
 90
        3
102
RTVSPost2010PropOp43
 70
     1
102
RTVSPost2010Prop44ColorIndex
 90
        5
102
RTVSPost2010Prop44ColorRGB
 90
      255
102
RTVSPost2010PropOp44
 70
     1
102
RTVSPost2010Prop45
280
     0
102
RTVSPost2010PropOp45
 70
     1
102
RTVSPost2010Prop46
 90
       50
102
RTVSPost2010PropOp46
 70
     1
102
RTVSPost2010Prop47
 90
       50
102
RTVSPost2010PropOp47
 70
     1
102
RTVSPost2010Prop48
 90
       50
102
RTVSPost2010PropOp48
 70
     1
102
RTVSPost2010Prop49
280
     0
102
RTVSPost2010PropOp49
 70
     1
102
RTVSPost2010Prop50
 90
       50
102
RTVSPost2010PropOp50
 70
     1
102
RTVSPost2010Prop51ColorIndex
 90
      256
102
RTVSPost2010Prop51ColorRGB
 90
-16777216
102
RTVSPost2010PropOp51
 70
     0
102
RTVSPost2010Prop52
140
1.0
102
RTVSPost2010PropOp52
 70
     0
102
RTVSPost2010Prop53
 90
        2
102
RTVSPost2010PropOp53
 70
     1
102
RTVSPost2010Prop54
  1
strokes_ogs.tif
102
RTVSPost2010PropOp54
 70
     1
102
RTVSPost2010Prop55
280
     0
102
RTVSPost2010PropOp55
 70
     1
102
RTVSPost2010Prop56
140
1.0
102
RTVSPost2010PropOp56
 70
     1
102
RTVSPost2010Prop57
140
1.0
102
RTVSPost2010PropOp57
 70
     1
102
RTVSPropertyOp0
 70
     1
102
RTVSPropertyOp1
 70
     1
102
RTVSPropertyOp2
 70
     1
102
RTVSPropertyOp3
 70
     1
102
RTVSPropertyOp4
 70
     1
102
RTVSPropertyOp5
 70
     1
102
RTVSPropertyOp6
 70
     1
102
RTVSPropertyOp7
 70
     1
102
RTVSPropertyOp8
 70
     1
102
RTVSPropertyOp9
 70
     1
102
RTVSPropertyOp10
 70
     1
102
RTVSPropertyOp11
 70
     1
102
RTVSPropertyOp12
 70
     1
102
RTVSPropertyOp13
 70
     1
102
RTVSPropertyOp14
 70
     1
102
RTVSPropertyOp15
 70
     1
102
RTVSPropertyOp16
 70
     1
102
RTVSPropertyOp17
 70
     1
102
RTVSPropertyOp18
 70
     1
102
RTVSPropertyOp19
 70
     1
102
RTVSPropertyOp20
 70
     1
102
RTVSPropertyOp21
 70
     1
102
RTVSPropertyOp22
 70
     1
102
RTVSPropertyOp23
 70
     1
102
RTVSPropertyOp24
 70
     1
102
RTVSPropertyOp25
 70
     1
102
RTVSPropertyOp26
 70
     1
102
RTVSPropertyOp27
 70
     1
102
RTVSPropertyOp28
 70
     1
102
RTVSPropertyOp29
 70
     1
102
RTVSPropertyOp30
 70
     1
102
RTVSPropertyOp31
 70
     1
102
RTVSPropertyOp32
 70
     1
102
RTVSPropertyOp33
 70
     1
102
RTVSPropertyOp34
 70
     1
102
RTVSPropertyOp35
 70
     1
102
RTVSPropertyOp36
 70
     1
102
RTVSPropertyOp37
 70
     1
102
RTVSPropertyOp38
 70
     1
102
RTVSPropertyOp39
 70
     1
102
RTVSPropertyOp40
 70
     1
102
RTVSPropertyOp41
 70
     1
102
RTVSPropertyOp42
 70
     1
102
RTVSPropertyOp43
 70
     1
102
RTVSPropertyOp44
 70
     1
102
RTVSPropertyOp45
 70
     1
102
RTVSPropertyOp46
 70
     1
102
RTVSPropertyOp47
 70
     1
102
RTVSPropertyOp48
 70
     1
102
RTVSPropertyOp49
 70
     1
102
RTVSPropertyOp50
 70
     1
102
RTVSPropertyOp51
 70
     0
102
RTVSPropertyOp52
 70
     0
102
RTVSPropertyOp53
 70
     1
102
RTVSPropertyOp54
 70
     1
102
RTVSPropertyOp55
 70
     1
102
RTVSPropertyOp56
 70
     1
102
RTVSPropertyOp57
 70
     1
102
RTVSPropertyOp58
 70
     1
102
RTVSPropertyOp59
 70
     1
102
RTVSPropertyOp60
 70
     1
102
RTVSPropertyOp61
 70
     1
102
RTVSPropertyOp62
 70
     1
  0
XRECORD
  5
456
102
{ACAD_REACTORS
330
455
102
}
330
455
100
AcDbXrecord
280
     1
102
RTVSPost2010Prop28
280
     0
102
RTVSPost2010PropOp28
 70
     1
102
RTVSPost2010Prop29
280
     1
102
RTVSPost2010PropOp29
 70
     1
102
RTVSPost2010Prop30
280
     1
102
RTVSPost2010PropOp30
 70
     1
102
RTVSPost2010Prop31
280
     0
102
RTVSPost2010PropOp31
 70
     1
102
RTVSPost2010Prop32
280
     0
102
RTVSPost2010PropOp32
 70
     1
102
RTVSPost2010Prop33
280
     0
102
RTVSPost2010PropOp33
 70
     1
102
RTVSPost2010Prop34
280
     0
102
RTVSPost2010PropOp34
 70
     1
102
RTVSPost2010Prop35
280
     0
102
RTVSPost2010PropOp35
 70
     1
102
RTVSPost2010Prop36
280
     0
102
RTVSPost2010PropOp36
 70
     1
102
RTVSPost2010Prop37
 90
       50
102
RTVSPost2010PropOp37
 70
     1
102
RTVSPost2010Prop38
140
0.0
102
RTVSPost2010PropOp38
 70
     1
102
RTVSPost2010Prop39
140
1.0
102
RTVSPost2010PropOp39
 70
     1
102
RTVSPost2010Prop40
 90
        0
102
RTVSPost2010PropOp40
 70
     1
102
RTVSPost2010Prop41ColorIndex
 90
       18
102
RTVSPost2010Prop41ColorRGB
 90
        0
102
RTVSPost2010PropOp41
 70
     1
102
RTVSPost2010Prop42
 90
       50
102
RTVSPost2010PropOp42
 70
     1
102
RTVSPost2010Prop43
 90
        3
102
RTVSPost2010PropOp43
 70
     1
102
RTVSPost2010Prop44ColorIndex
 90
        5
102
RTVSPost2010Prop44ColorRGB
 90
      255
102
RTVSPost2010PropOp44
 70
     1
102
RTVSPost2010Prop45
280
     0
102
RTVSPost2010PropOp45
 70
     1
102
RTVSPost2010Prop46
 90
       50
102
RTVSPost2010PropOp46
 70
     1
102
RTVSPost2010Prop47
 90
       50
102
RTVSPost2010PropOp47
 70
     1
102
RTVSPost2010Prop48
 90
       50
102
RTVSPost2010PropOp48
 70
     1
102
RTVSPost2010Prop49
280
     0
102
RTVSPost2010PropOp49
 70
     1
102
RTVSPost2010Prop50
 90
       50
102
RTVSPost2010PropOp50
 70
     1
102
RTVSPost2010Prop51ColorIndex
 90
      256
102
RTVSPost2010Prop51ColorRGB
 90
-16777216
102
RTVSPost2010PropOp51
 70
     0
102
RTVSPost2010Prop52
140
1.0
102
RTVSPost2010PropOp52
 70
     0
102
RTVSPost2010Prop53
 90
        2
102
RTVSPost2010PropOp53
 70
     1
102
RTVSPost2010Prop54
  1
strokes_ogs.tif
102
RTVSPost2010PropOp54
 70
     1
102
RTVSPost2010Prop55
280
     0
102
RTVSPost2010PropOp55
 70
     1
102
RTVSPost2010Prop56
140
1.0
102
RTVSPost2010PropOp56
 70
     1
102
RTVSPost2010Prop57
140
1.0
102
RTVSPost2010PropOp57
 70
     1
102
RTVSPropertyOp0
 70
     1
102
RTVSPropertyOp1
 70
     1
102
RTVSPropertyOp2
 70
     1
102
RTVSPropertyOp3
 70
     1
102
RTVSPropertyOp4
 70
     1
102
RTVSPropertyOp5
 70
     1
102
RTVSPropertyOp6
 70
     1
102
RTVSPropertyOp7
 70
     1
102
RTVSPropertyOp8
 70
     1
102
RTVSPropertyOp9
 70
     1
102
RTVSPropertyOp10
 70
     1
102
RTVSPropertyOp11
 70
     1
102
RTVSPropertyOp12
 70
     1
102
RTVSPropertyOp13
 70
     1
102
RTVSPropertyOp14
 70
     1
102
RTVSPropertyOp15
 70
     1
102
RTVSPropertyOp16
 70
     1
102
RTVSPropertyOp17
 70
     1
102
RTVSPropertyOp18
 70
     1
102
RTVSPropertyOp19
 70
     1
102
RTVSPropertyOp20
 70
     1
102
RTVSPropertyOp21
 70
     1
102
RTVSPropertyOp22
 70
     1
102
RTVSPropertyOp23
 70
     1
102
RTVSPropertyOp24
 70
     1
102
RTVSPropertyOp25
 70
     1
102
RTVSPropertyOp26
 70
     1
102
RTVSPropertyOp27
 70
     1
102
RTVSPropertyOp28
 70
     1
102
RTVSPropertyOp29
 70
     1
102
RTVSPropertyOp30
 70
     1
102
RTVSPropertyOp31
 70
     1
102
RTVSPropertyOp32
 70
     1
102
RTVSPropertyOp33
 70
     1
102
RTVSPropertyOp34
 70
     1
102
RTVSPropertyOp35
 70
     1
102
RTVSPropertyOp36
 70
     1
102
RTVSPropertyOp37
 70
     1
102
RTVSPropertyOp38
 70
     1
102
RTVSPropertyOp39
 70
     1
102
RTVSPropertyOp40
 70
     1
102
RTVSPropertyOp41
 70
     1
102
RTVSPropertyOp42
 70
     1
102
RTVSPropertyOp43
 70
     1
102
RTVSPropertyOp44
 70
     1
102
RTVSPropertyOp45
 70
     1
102
RTVSPropertyOp46
 70
     1
102
RTVSPropertyOp47
 70
     1
102
RTVSPropertyOp48
 70
     1
102
RTVSPropertyOp49
 70
     1
102
RTVSPropertyOp50
 70
     1
102
RTVSPropertyOp51
 70
     0
102
RTVSPropertyOp52
 70
     0
102
RTVSPropertyOp53
 70
     1
102
RTVSPropertyOp54
 70
     1
102
RTVSPropertyOp55
 70
     1
102
RTVSPropertyOp56
 70
     1
102
RTVSPropertyOp57
 70
     1
102
RTVSPropertyOp58
 70
     1
102
RTVSPropertyOp59
 70
     1
102
RTVSPropertyOp60
 70
     1
102
RTVSPropertyOp61
 70
     1
102
RTVSPropertyOp62
 70
     1
  0
XRECORD
  5
464
102
{ACAD_REACTORS
330
463
102
}
330
463
100
AcDbXrecord
280
     1
102
RTVSPost2010Prop28
280
     0
102
RTVSPost2010PropOp28
 70
     1
102
RTVSPost2010Prop29
280
     1
102
RTVSPost2010PropOp29
 70
     1
102
RTVSPost2010Prop30
280
     1
102
RTVSPost2010PropOp30
 70
     1
102
RTVSPost2010Prop31
280
     0
102
RTVSPost2010PropOp31
 70
     1
102
RTVSPost2010Prop32
280
     0
102
RTVSPost2010PropOp32
 70
     1
102
RTVSPost2010Prop33
280
     0
102
RTVSPost2010PropOp33
 70
     1
102
RTVSPost2010Prop34
280
     0
102
RTVSPost2010PropOp34
 70
     1
102
RTVSPost2010Prop35
280
     0
102
RTVSPost2010PropOp35
 70
     1
102
RTVSPost2010Prop36
280
     0
102
RTVSPost2010PropOp36
 70
     1
102
RTVSPost2010Prop37
 90
       50
102
RTVSPost2010PropOp37
 70
     1
102
RTVSPost2010Prop38
140
0.0
102
RTVSPost2010PropOp38
 70
     1
102
RTVSPost2010Prop39
140
1.0
102
RTVSPost2010PropOp39
 70
     1
102
RTVSPost2010Prop40
 90
        0
102
RTVSPost2010PropOp40
 70
     1
102
RTVSPost2010Prop41ColorIndex
 90
       18
102
RTVSPost2010Prop41ColorRGB
 90
        0
102
RTVSPost2010PropOp41
 70
     1
102
RTVSPost2010Prop42
 90
       50
102
RTVSPost2010PropOp42
 70
     1
102
RTVSPost2010Prop43
 90
        3
102
RTVSPost2010PropOp43
 70
     1
102
RTVSPost2010Prop44ColorIndex
 90
        5
102
RTVSPost2010Prop44ColorRGB
 90
      255
102
RTVSPost2010PropOp44
 70
     1
102
RTVSPost2010Prop45
280
     0
102
RTVSPost2010PropOp45
 70
     1
102
RTVSPost2010Prop46
 90
       50
102
RTVSPost2010PropOp46
 70
     1
102
RTVSPost2010Prop47
 90
       50
102
RTVSPost2010PropOp47
 70
     1
102
RTVSPost2010Prop48
 90
       50
102
RTVSPost2010PropOp48
 70
     1
102
RTVSPost2010Prop49
280
     0
102
RTVSPost2010PropOp49
 70
     1
102
RTVSPost2010Prop50
 90
       50
102
RTVSPost2010PropOp50
 70
     1
102
RTVSPost2010Prop51ColorIndex
 90
      256
102
RTVSPost2010Prop51ColorRGB
 90
-16777216
102
RTVSPost2010PropOp51
 70
     0
102
RTVSPost2010Prop52
140
1.0
102
RTVSPost2010PropOp52
 70
     0
102
RTVSPost2010Prop53
 90
        2
102
RTVSPost2010PropOp53
 70
     1
102
RTVSPost2010Prop54
  1
strokes_ogs.tif
102
RTVSPost2010PropOp54
 70
     1
102
RTVSPost2010Prop55
280
     0
102
RTVSPost2010PropOp55
 70
     1
102
RTVSPost2010Prop56
140
1.0
102
RTVSPost2010PropOp56
 70
     1
102
RTVSPost2010Prop57
140
1.0
102
RTVSPost2010PropOp57
 70
     1
102
RTVSPropertyOp0
 70
     1
102
RTVSPropertyOp1
 70
     1
102
RTVSPropertyOp2
 70
     1
102
RTVSPropertyOp3
 70
     1
102
RTVSPropertyOp4
 70
     1
102
RTVSPropertyOp5
 70
     1
102
RTVSPropertyOp6
 70
     1
102
RTVSPropertyOp7
 70
     1
102
RTVSPropertyOp8
 70
     1
102
RTVSPropertyOp9
 70
     1
102
RTVSPropertyOp10
 70
     1
102
RTVSPropertyOp11
 70
     1
102
RTVSPropertyOp12
 70
     1
102
RTVSPropertyOp13
 70
     1
102
RTVSPropertyOp14
 70
     1
102
RTVSPropertyOp15
 70
     1
102
RTVSPropertyOp16
 70
     1
102
RTVSPropertyOp17
 70
     1
102
RTVSPropertyOp18
 70
     1
102
RTVSPropertyOp19
 70
     1
102
RTVSPropertyOp20
 70
     1
102
RTVSPropertyOp21
 70
     1
102
RTVSPropertyOp22
 70
     1
102
RTVSPropertyOp23
 70
     1
102
RTVSPropertyOp24
 70
     1
102
RTVSPropertyOp25
 70
     1
102
RTVSPropertyOp26
 70
     1
102
RTVSPropertyOp27
 70
     1
102
RTVSPropertyOp28
 70
     1
102
RTVSPropertyOp29
 70
     1
102
RTVSPropertyOp30
 70
     1
102
RTVSPropertyOp31
 70
     1
102
RTVSPropertyOp32
 70
     1
102
RTVSPropertyOp33
 70
     1
102
RTVSPropertyOp34
 70
     1
102
RTVSPropertyOp35
 70
     1
102
RTVSPropertyOp36
 70
     1
102
RTVSPropertyOp37
 70
     1
102
RTVSPropertyOp38
 70
     1
102
RTVSPropertyOp39
 70
     1
102
RTVSPropertyOp40
 70
     1
102
RTVSPropertyOp41
 70
     1
102
RTVSPropertyOp42
 70
     1
102
RTVSPropertyOp43
 70
     1
102
RTVSPropertyOp44
 70
     1
102
RTVSPropertyOp45
 70
     1
102
RTVSPropertyOp46
 70
     1
102
RTVSPropertyOp47
 70
     1
102
RTVSPropertyOp48
 70
     1
102
RTVSPropertyOp49
 70
     1
102
RTVSPropertyOp50
 70
     1
102
RTVSPropertyOp51
 70
     0
102
RTVSPropertyOp52
 70
     0
102
RTVSPropertyOp53
 70
     1
102
RTVSPropertyOp54
 70
     1
102
RTVSPropertyOp55
 70
     1
102
RTVSPropertyOp56
 70
     1
102
RTVSPropertyOp57
 70
     1
102
RTVSPropertyOp58
 70
     1
102
RTVSPropertyOp59
 70
     1
102
RTVSPropertyOp60
 70
     1
102
RTVSPropertyOp61
 70
     1
102
RTVSPropertyOp62
 70
     1
  0
XRECORD
  5
46C
102
{ACAD_REACTORS
330
46B
102
}
330
46B
100
AcDbXrecord
280
     1
102
RTVSPost2010Prop28
280
     0
102
RTVSPost2010PropOp28
 70
     1
102
RTVSPost2010Prop29
280
     1
102
RTVSPost2010PropOp29
 70
     1
102
RTVSPost2010Prop30
280
     1
102
RTVSPost2010PropOp30
 70
     1
102
RTVSPost2010Prop31
280
     0
102
RTVSPost2010PropOp31
 70
     1
102
RTVSPost2010Prop32
280
     0
102
RTVSPost2010PropOp32
 70
     1
102
RTVSPost2010Prop33
280
     0
102
RTVSPost2010PropOp33
 70
     1
102
RTVSPost2010Prop34
280
     0
102
RTVSPost2010PropOp34
 70
     1
102
RTVSPost2010Prop35
280
     0
102
RTVSPost2010PropOp35
 70
     1
102
RTVSPost2010Prop36
280
     0
102
RTVSPost2010PropOp36
 70
     1
102
RTVSPost2010Prop37
 90
       50
102
RTVSPost2010PropOp37
 70
     1
102
RTVSPost2010Prop38
140
0.0
102
RTVSPost2010PropOp38
 70
     1
102
RTVSPost2010Prop39
140
1.0
102
RTVSPost2010PropOp39
 70
     1
102
RTVSPost2010Prop40
 90
        0
102
RTVSPost2010PropOp40
 70
     1
102
RTVSPost2010Prop41ColorIndex
 90
       18
102
RTVSPost2010Prop41ColorRGB
 90
        0
102
RTVSPost2010PropOp41
 70
     1
102
RTVSPost2010Prop42
 90
       50
102
RTVSPost2010PropOp42
 70
     1
102
RTVSPost2010Prop43
 90
        3
102
RTVSPost2010PropOp43
 70
     1
102
RTVSPost2010Prop44ColorIndex
 90
        5
102
RTVSPost2010Prop44ColorRGB
 90
      255
102
RTVSPost2010PropOp44
 70
     1
102
RTVSPost2010Prop45
280
     0
102
RTVSPost2010PropOp45
 70
     1
102
RTVSPost2010Prop46
 90
       50
102
RTVSPost2010PropOp46
 70
     1
102
RTVSPost2010Prop47
 90
       50
102
RTVSPost2010PropOp47
 70
     1
102
RTVSPost2010Prop48
 90
       50
102
RTVSPost2010PropOp48
 70
     1
102
RTVSPost2010Prop49
280
     0
102
RTVSPost2010PropOp49
 70
     1
102
RTVSPost2010Prop50
 90
       50
102
RTVSPost2010PropOp50
 70
     1
102
RTVSPost2010Prop51ColorIndex
 90
      256
102
RTVSPost2010Prop51ColorRGB
 90
-16777216
102
RTVSPost2010PropOp51
 70
     0
102
RTVSPost2010Prop52
140
1.0
102
RTVSPost2010PropOp52
 70
     0
102
RTVSPost2010Prop53
 90
        2
102
RTVSPost2010PropOp53
 70
     1
102
RTVSPost2010Prop54
  1
strokes_ogs.tif
102
RTVSPost2010PropOp54
 70
     1
102
RTVSPost2010Prop55
280
     0
102
RTVSPost2010PropOp55
 70
     1
102
RTVSPost2010Prop56
140
1.0
102
RTVSPost2010PropOp56
 70
     1
102
RTVSPost2010Prop57
140
1.0
102
RTVSPost2010PropOp57
 70
     1
102
RTVSPropertyOp0
 70
     1
102
RTVSPropertyOp1
 70
     1
102
RTVSPropertyOp2
 70
     1
102
RTVSPropertyOp3
 70
     1
102
RTVSPropertyOp4
 70
     1
102
RTVSPropertyOp5
 70
     1
102
RTVSPropertyOp6
 70
     1
102
RTVSPropertyOp7
 70
     1
102
RTVSPropertyOp8
 70
     1
102
RTVSPropertyOp9
 70
     1
102
RTVSPropertyOp10
 70
     1
102
RTVSPropertyOp11
 70
     1
102
RTVSPropertyOp12
 70
     1
102
RTVSPropertyOp13
 70
     1
102
RTVSPropertyOp14
 70
     1
102
RTVSPropertyOp15
 70
     1
102
RTVSPropertyOp16
 70
     1
102
RTVSPropertyOp17
 70
     1
102
RTVSPropertyOp18
 70
     1
102
RTVSPropertyOp19
 70
     1
102
RTVSPropertyOp20
 70
     1
102
RTVSPropertyOp21
 70
     1
102
RTVSPropertyOp22
 70
     1
102
RTVSPropertyOp23
 70
     1
102
RTVSPropertyOp24
 70
     1
102
RTVSPropertyOp25
 70
     1
102
RTVSPropertyOp26
 70
     1
102
RTVSPropertyOp27
 70
     1
102
RTVSPropertyOp28
 70
     1
102
RTVSPropertyOp29
 70
     1
102
RTVSPropertyOp30
 70
     1
102
RTVSPropertyOp31
 70
     1
102
RTVSPropertyOp32
 70
     1
102
RTVSPropertyOp33
 70
     1
102
RTVSPropertyOp34
 70
     1
102
RTVSPropertyOp35
 70
     1
102
RTVSPropertyOp36
 70
     1
102
RTVSPropertyOp37
 70
     1
102
RTVSPropertyOp38
 70
     1
102
RTVSPropertyOp39
 70
     1
102
RTVSPropertyOp40
 70
     1
102
RTVSPropertyOp41
 70
     1
102
RTVSPropertyOp42
 70
     1
102
RTVSPropertyOp43
 70
     1
102
RTVSPropertyOp44
 70
     1
102
RTVSPropertyOp45
 70
     1
102
RTVSPropertyOp46
 70
     1
102
RTVSPropertyOp47
 70
     1
102
RTVSPropertyOp48
 70
     1
102
RTVSPropertyOp49
 70
     1
102
RTVSPropertyOp50
 70
     1
102
RTVSPropertyOp51
 70
     0
102
RTVSPropertyOp52
 70
     0
102
RTVSPropertyOp53
 70
     1
102
RTVSPropertyOp54
 70
     1
102
RTVSPropertyOp55
 70
     1
102
RTVSPropertyOp56
 70
     1
102
RTVSPropertyOp57
 70
     1
102
RTVSPropertyOp58
 70
     1
102
RTVSPropertyOp59
 70
     1
102
RTVSPropertyOp60
 70
     1
102
RTVSPropertyOp61
 70
     1
102
RTVSPropertyOp62
 70
     1
  0
XRECORD
  5
45E
102
{ACAD_REACTORS
330
45D
102
}
330
45D
100
AcDbXrecord
280
     1
102
RTVSPost2010Prop28
280
     0
102
RTVSPost2010PropOp28
 70
     1
102
RTVSPost2010Prop29
280
     1
102
RTVSPost2010PropOp29
 70
     1
102
RTVSPost2010Prop30
280
     1
102
RTVSPost2010PropOp30
 70
     1
102
RTVSPost2010Prop31
280
     0
102
RTVSPost2010PropOp31
 70
     1
102
RTVSPost2010Prop32
280
     0
102
RTVSPost2010PropOp32
 70
     1
102
RTVSPost2010Prop33
280
     0
102
RTVSPost2010PropOp33
 70
     1
102
RTVSPost2010Prop34
280
     0
102
RTVSPost2010PropOp34
 70
     1
102
RTVSPost2010Prop35
280
     0
102
RTVSPost2010PropOp35
 70
     1
102
RTVSPost2010Prop36
280
     0
102
RTVSPost2010PropOp36
 70
     1
102
RTVSPost2010Prop37
 90
       50
102
RTVSPost2010PropOp37
 70
     1
102
RTVSPost2010Prop38
140
0.0
102
RTVSPost2010PropOp38
 70
     1
102
RTVSPost2010Prop39
140
1.0
102
RTVSPost2010PropOp39
 70
     1
102
RTVSPost2010Prop40
 90
        0
102
RTVSPost2010PropOp40
 70
     1
102
RTVSPost2010Prop41ColorIndex
 90
       18
102
RTVSPost2010Prop41ColorRGB
 90
        0
102
RTVSPost2010PropOp41
 70
     1
102
RTVSPost2010Prop42
 90
       50
102
RTVSPost2010PropOp42
 70
     1
102
RTVSPost2010Prop43
 90
        3
102
RTVSPost2010PropOp43
 70
     1
102
RTVSPost2010Prop44ColorIndex
 90
        5
102
RTVSPost2010Prop44ColorRGB
 90
      255
102
RTVSPost2010PropOp44
 70
     1
102
RTVSPost2010Prop45
280
     0
102
RTVSPost2010PropOp45
 70
     1
102
RTVSPost2010Prop46
 90
       50
102
RTVSPost2010PropOp46
 70
     1
102
RTVSPost2010Prop47
 90
       50
102
RTVSPost2010PropOp47
 70
     1
102
RTVSPost2010Prop48
 90
       50
102
RTVSPost2010PropOp48
 70
     1
102
RTVSPost2010Prop49
280
     0
102
RTVSPost2010PropOp49
 70
     1
102
RTVSPost2010Prop50
 90
       50
102
RTVSPost2010PropOp50
 70
     1
102
RTVSPost2010Prop51ColorIndex
 90
      256
102
RTVSPost2010Prop51ColorRGB
 90
-16777216
102
RTVSPost2010PropOp51
 70
     0
102
RTVSPost2010Prop52
140
1.0
102
RTVSPost2010PropOp52
 70
     0
102
RTVSPost2010Prop53
 90
        2
102
RTVSPost2010PropOp53
 70
     1
102
RTVSPost2010Prop54
  1
strokes_ogs.tif
102
RTVSPost2010PropOp54
 70
     1
102
RTVSPost2010Prop55
280
     0
102
RTVSPost2010PropOp55
 70
     1
102
RTVSPost2010Prop56
140
1.0
102
RTVSPost2010PropOp56
 70
     1
102
RTVSPost2010Prop57
140
1.0
102
RTVSPost2010PropOp57
 70
     1
102
RTVSPropertyOp0
 70
     1
102
RTVSPropertyOp1
 70
     1
102
RTVSPropertyOp2
 70
     1
102
RTVSPropertyOp3
 70
     1
102
RTVSPropertyOp4
 70
     1
102
RTVSPropertyOp5
 70
     1
102
RTVSPropertyOp6
 70
     1
102
RTVSPropertyOp7
 70
     1
102
RTVSPropertyOp8
 70
     1
102
RTVSPropertyOp9
 70
     1
102
RTVSPropertyOp10
 70
     1
102
RTVSPropertyOp11
 70
     1
102
RTVSPropertyOp12
 70
     1
102
RTVSPropertyOp13
 70
     1
102
RTVSPropertyOp14
 70
     1
102
RTVSPropertyOp15
 70
     1
102
RTVSPropertyOp16
 70
     1
102
RTVSPropertyOp17
 70
     1
102
RTVSPropertyOp18
 70
     1
102
RTVSPropertyOp19
 70
     1
102
RTVSPropertyOp20
 70
     1
102
RTVSPropertyOp21
 70
     1
102
RTVSPropertyOp22
 70
     1
102
RTVSPropertyOp23
 70
     1
102
RTVSPropertyOp24
 70
     1
102
RTVSPropertyOp25
 70
     1
102
RTVSPropertyOp26
 70
     1
102
RTVSPropertyOp27
 70
     1
102
RTVSPropertyOp28
 70
     1
102
RTVSPropertyOp29
 70
     1
102
RTVSPropertyOp30
 70
     1
102
RTVSPropertyOp31
 70
     1
102
RTVSPropertyOp32
 70
     1
102
RTVSPropertyOp33
 70
     1
102
RTVSPropertyOp34
 70
     1
102
RTVSPropertyOp35
 70
     1
102
RTVSPropertyOp36
 70
     1
102
RTVSPropertyOp37
 70
     1
102
RTVSPropertyOp38
 70
     1
102
RTVSPropertyOp39
 70
     1
102
RTVSPropertyOp40
 70
     1
102
RTVSPropertyOp41
 70
     1
102
RTVSPropertyOp42
 70
     1
102
RTVSPropertyOp43
 70
     1
102
RTVSPropertyOp44
 70
     1
102
RTVSPropertyOp45
 70
     1
102
RTVSPropertyOp46
 70
     1
102
RTVSPropertyOp47
 70
     1
102
RTVSPropertyOp48
 70
     1
102
RTVSPropertyOp49
 70
     1
102
RTVSPropertyOp50
 70
     1
102
RTVSPropertyOp51
 70
     0
102
RTVSPropertyOp52
 70
     0
102
RTVSPropertyOp53
 70
     1
102
RTVSPropertyOp54
 70
     1
102
RTVSPropertyOp55
 70
     1
102
RTVSPropertyOp56
 70
     1
102
RTVSPropertyOp57
 70
     1
102
RTVSPropertyOp58
 70
     1
102
RTVSPropertyOp59
 70
     1
102
RTVSPropertyOp60
 70
     1
102
RTVSPropertyOp61
 70
     1
102
RTVSPropertyOp62
 70
     1
  0
XRECORD
  5
462
102
{ACAD_REACTORS
330
461
102
}
330
461
100
AcDbXrecord
280
     1
102
RTVSPost2010Prop28
280
     0
102
RTVSPost2010PropOp28
 70
     1
102
RTVSPost2010Prop29
280
     1
102
RTVSPost2010PropOp29
 70
     1
102
RTVSPost2010Prop30
280
     1
102
RTVSPost2010PropOp30
 70
     1
102
RTVSPost2010Prop31
280
     0
102
RTVSPost2010PropOp31
 70
     1
102
RTVSPost2010Prop32
280
     0
102
RTVSPost2010PropOp32
 70
     1
102
RTVSPost2010Prop33
280
     0
102
RTVSPost2010PropOp33
 70
     1
102
RTVSPost2010Prop34
280
     0
102
RTVSPost2010PropOp34
 70
     1
102
RTVSPost2010Prop35
280
     0
102
RTVSPost2010PropOp35
 70
     1
102
RTVSPost2010Prop36
280
     0
102
RTVSPost2010PropOp36
 70
     1
102
RTVSPost2010Prop37
 90
       50
102
RTVSPost2010PropOp37
 70
     1
102
RTVSPost2010Prop38
140
0.0
102
RTVSPost2010PropOp38
 70
     1
102
RTVSPost2010Prop39
140
1.0
102
RTVSPost2010PropOp39
 70
     1
102
RTVSPost2010Prop40
 90
        0
102
RTVSPost2010PropOp40
 70
     1
102
RTVSPost2010Prop41ColorIndex
 90
       18
102
RTVSPost2010Prop41ColorRGB
 90
        0
102
RTVSPost2010PropOp41
 70
     1
102
RTVSPost2010Prop42
 90
       50
102
RTVSPost2010PropOp42
 70
     1
102
RTVSPost2010Prop43
 90
        3
102
RTVSPost2010PropOp43
 70
     1
102
RTVSPost2010Prop44ColorIndex
 90
        5
102
RTVSPost2010Prop44ColorRGB
 90
      255
102
RTVSPost2010PropOp44
 70
     1
102
RTVSPost2010Prop45
280
     0
102
RTVSPost2010PropOp45
 70
     1
102
RTVSPost2010Prop46
 90
       50
102
RTVSPost2010PropOp46
 70
     1
102
RTVSPost2010Prop47
 90
       50
102
RTVSPost2010PropOp47
 70
     1
102
RTVSPost2010Prop48
 90
       50
102
RTVSPost2010PropOp48
 70
     1
102
RTVSPost2010Prop49
280
     0
102
RTVSPost2010PropOp49
 70
     1
102
RTVSPost2010Prop50
 90
       50
102
RTVSPost2010PropOp50
 70
     1
102
RTVSPost2010Prop51ColorIndex
 90
      256
102
RTVSPost2010Prop51ColorRGB
 90
-16777216
102
RTVSPost2010PropOp51
 70
     0
102
RTVSPost2010Prop52
140
1.0
102
RTVSPost2010PropOp52
 70
     0
102
RTVSPost2010Prop53
 90
        2
102
RTVSPost2010PropOp53
 70
     1
102
RTVSPost2010Prop54
  1
strokes_ogs.tif
102
RTVSPost2010PropOp54
 70
     1
102
RTVSPost2010Prop55
280
     0
102
RTVSPost2010PropOp55
 70
     1
102
RTVSPost2010Prop56
140
1.0
102
RTVSPost2010PropOp56
 70
     1
102
RTVSPost2010Prop57
140
1.0
102
RTVSPost2010PropOp57
 70
     1
102
RTVSPropertyOp0
 70
     1
102
RTVSPropertyOp1
 70
     1
102
RTVSPropertyOp2
 70
     1
102
RTVSPropertyOp3
 70
     1
102
RTVSPropertyOp4
 70
     1
102
RTVSPropertyOp5
 70
     1
102
RTVSPropertyOp6
 70
     1
102
RTVSPropertyOp7
 70
     1
102
RTVSPropertyOp8
 70
     1
102
RTVSPropertyOp9
 70
     1
102
RTVSPropertyOp10
 70
     1
102
RTVSPropertyOp11
 70
     1
102
RTVSPropertyOp12
 70
     1
102
RTVSPropertyOp13
 70
     1
102
RTVSPropertyOp14
 70
     1
102
RTVSPropertyOp15
 70
     1
102
RTVSPropertyOp16
 70
     1
102
RTVSPropertyOp17
 70
     1
102
RTVSPropertyOp18
 70
     1
102
RTVSPropertyOp19
 70
     1
102
RTVSPropertyOp20
 70
     1
102
RTVSPropertyOp21
 70
     1
102
RTVSPropertyOp22
 70
     1
102
RTVSPropertyOp23
 70
     1
102
RTVSPropertyOp24
 70
     1
102
RTVSPropertyOp25
 70
     1
102
RTVSPropertyOp26
 70
     1
102
RTVSPropertyOp27
 70
     1
102
RTVSPropertyOp28
 70
     1
102
RTVSPropertyOp29
 70
     1
102
RTVSPropertyOp30
 70
     1
102
RTVSPropertyOp31
 70
     1
102
RTVSPropertyOp32
 70
     1
102
RTVSPropertyOp33
 70
     1
102
RTVSPropertyOp34
 70
     1
102
RTVSPropertyOp35
 70
     1
102
RTVSPropertyOp36
 70
     1
102
RTVSPropertyOp37
 70
     1
102
RTVSPropertyOp38
 70
     1
102
RTVSPropertyOp39
 70
     1
102
RTVSPropertyOp40
 70
     1
102
RTVSPropertyOp41
 70
     1
102
RTVSPropertyOp42
 70
     1
102
RTVSPropertyOp43
 70
     1
102
RTVSPropertyOp44
 70
     1
102
RTVSPropertyOp45
 70
     1
102
RTVSPropertyOp46
 70
     1
102
RTVSPropertyOp47
 70
     1
102
RTVSPropertyOp48
 70
     1
102
RTVSPropertyOp49
 70
     1
102
RTVSPropertyOp50
 70
     1
102
RTVSPropertyOp51
 70
     0
102
RTVSPropertyOp52
 70
     0
102
RTVSPropertyOp53
 70
     1
102
RTVSPropertyOp54
 70
     1
102
RTVSPropertyOp55
 70
     1
102
RTVSPropertyOp56
 70
     1
102
RTVSPropertyOp57
 70
     1
102
RTVSPropertyOp58
 70
     1
102
RTVSPropertyOp59
 70
     1
102
RTVSPropertyOp60
 70
     1
102
RTVSPropertyOp61
 70
     1
102
RTVSPropertyOp62
 70
     1
  0
XRECORD
  5
47C
102
{ACAD_REACTORS
330
47B
102
}
330
47B
100
AcDbXrecord
280
     1
102
RTVSPost2010Prop28
280
     0
102
RTVSPost2010PropOp28
 70
     1
102
RTVSPost2010Prop29
280
     1
102
RTVSPost2010PropOp29
 70
     1
102
RTVSPost2010Prop30
280
     1
102
RTVSPost2010PropOp30
 70
     1
102
RTVSPost2010Prop31
280
     0
102
RTVSPost2010PropOp31
 70
     1
102
RTVSPost2010Prop32
280
     0
102
RTVSPost2010PropOp32
 70
     1
102
RTVSPost2010Prop33
280
     0
102
RTVSPost2010PropOp33
 70
     1
102
RTVSPost2010Prop34
280
     0
102
RTVSPost2010PropOp34
 70
     1
102
RTVSPost2010Prop35
280
     0
102
RTVSPost2010PropOp35
 70
     1
102
RTVSPost2010Prop36
280
     0
102
RTVSPost2010PropOp36
 70
     1
102
RTVSPost2010Prop37
 90
       50
102
RTVSPost2010PropOp37
 70
     0
102
RTVSPost2010Prop38
140
0.0
102
RTVSPost2010PropOp38
 70
     0
102
RTVSPost2010Prop39
140
1.0
102
RTVSPost2010PropOp39
 70
     0
102
RTVSPost2010Prop40
 90
        0
102
RTVSPost2010PropOp40
 70
     0
102
RTVSPost2010Prop41ColorIndex
 90
       18
102
RTVSPost2010Prop41ColorRGB
 90
        0
102
RTVSPost2010PropOp41
 70
     0
102
RTVSPost2010Prop42
 90
       50
102
RTVSPost2010PropOp42
 70
     0
102
RTVSPost2010Prop43
 90
        3
102
RTVSPost2010PropOp43
 70
     0
102
RTVSPost2010Prop44ColorIndex
 90
        5
102
RTVSPost2010Prop44ColorRGB
 90
      255
102
RTVSPost2010PropOp44
 70
     0
102
RTVSPost2010Prop45
280
     0
102
RTVSPost2010PropOp45
 70
     1
102
RTVSPost2010Prop46
 90
       50
102
RTVSPost2010PropOp46
 70
     0
102
RTVSPost2010Prop47
 90
       50
102
RTVSPost2010PropOp47
 70
     0
102
RTVSPost2010Prop48
 90
       50
102
RTVSPost2010PropOp48
 70
     0
102
RTVSPost2010Prop49
280
     0
102
RTVSPost2010PropOp49
 70
     1
102
RTVSPost2010Prop50
 90
       50
102
RTVSPost2010PropOp50
 70
     0
102
RTVSPost2010Prop51ColorIndex
 90
      256
102
RTVSPost2010Prop51ColorRGB
 90
-16777216
102
RTVSPost2010PropOp51
 70
     0
102
RTVSPost2010Prop52
140
1.0
102
RTVSPost2010PropOp52
 70
     0
102
RTVSPost2010Prop53
 90
        2
102
RTVSPost2010PropOp53
 70
     0
102
RTVSPost2010Prop54
  1
strokes_ogs.tif
102
RTVSPost2010PropOp54
 70
     0
102
RTVSPost2010Prop55
280
     0
102
RTVSPost2010PropOp55
 70
     1
102
RTVSPost2010Prop56
140
1.0
102
RTVSPost2010PropOp56
 70
     0
102
RTVSPost2010Prop57
140
1.0
102
RTVSPost2010PropOp57
 70
     0
102
RTVSPropertyOp0
 70
     0
102
RTVSPropertyOp1
 70
     0
102
RTVSPropertyOp2
 70
     0
102
RTVSPropertyOp3
 70
     0
102
RTVSPropertyOp4
 70
     0
102
RTVSPropertyOp5
 70
     0
102
RTVSPropertyOp6
 70
     0
102
RTVSPropertyOp7
 70
     0
102
RTVSPropertyOp8
 70
     0
102
RTVSPropertyOp9
 70
     0
102
RTVSPropertyOp10
 70
     0
102
RTVSPropertyOp11
 70
     0
102
RTVSPropertyOp12
 70
     0
102
RTVSPropertyOp13
 70
     0
102
RTVSPropertyOp14
 70
     2
102
RTVSPropertyOp15
 70
     0
102
RTVSPropertyOp16
 70
     0
102
RTVSPropertyOp17
 70
     0
102
RTVSPropertyOp18
 70
     0
102
RTVSPropertyOp19
 70
     0
102
RTVSPropertyOp20
 70
     0
102
RTVSPropertyOp21
 70
     0
102
RTVSPropertyOp22
 70
     0
102
RTVSPropertyOp23
 70
     0
102
RTVSPropertyOp24
 70
     0
102
RTVSPropertyOp25
 70
     0
102
RTVSPropertyOp26
 70
     0
102
RTVSPropertyOp27
 70
     0
102
RTVSPropertyOp28
 70
     1
102
RTVSPropertyOp29
 70
     1
102
RTVSPropertyOp30
 70
     1
102
RTVSPropertyOp31
 70
     1
102
RTVSPropertyOp32
 70
     1
102
RTVSPropertyOp33
 70
     1
102
RTVSPropertyOp34
 70
     1
102
RTVSPropertyOp35
 70
     1
102
RTVSPropertyOp36
 70
     1
102
RTVSPropertyOp37
 70
     0
102
RTVSPropertyOp38
 70
     0
102
RTVSPropertyOp39
 70
     0
102
RTVSPropertyOp40
 70
     0
102
RTVSPropertyOp41
 70
     0
102
RTVSPropertyOp42
 70
     0
102
RTVSPropertyOp43
 70
     0
102
RTVSPropertyOp44
 70
     0
102
RTVSPropertyOp45
 70
     1
102
RTVSPropertyOp46
 70
     0
102
RTVSPropertyOp47
 70
     0
102
RTVSPropertyOp48
 70
     0
102
RTVSPropertyOp49
 70
     1
102
RTVSPropertyOp50
 70
     0
102
RTVSPropertyOp51
 70
     0
102
RTVSPropertyOp52
 70
     0
102
RTVSPropertyOp53
 70
     0
102
RTVSPropertyOp54
 70
     0
102
RTVSPropertyOp55
 70
     1
102
RTVSPropertyOp56
 70
     0
102
RTVSPropertyOp57
 70
     0
102
RTVSPropertyOp58
 70
     0
102
RTVSPropertyOp59
 70
     0
102
RTVSPropertyOp60
 70
     0
102
RTVSPropertyOp61
 70
     0
102
RTVSPropertyOp62
 70
     0
  0
XRECORD
  5
46A
102
{ACAD_REACTORS
330
469
102
}
330
469
100
AcDbXrecord
280
     1
102
RTVSPost2010Prop28
280
     0
102
RTVSPost2010PropOp28
 70
     1
102
RTVSPost2010Prop29
280
     1
102
RTVSPost2010PropOp29
 70
     1
102
RTVSPost2010Prop30
280
     1
102
RTVSPost2010PropOp30
 70
     1
102
RTVSPost2010Prop31
280
     0
102
RTVSPost2010PropOp31
 70
     1
102
RTVSPost2010Prop32
280
     0
102
RTVSPost2010PropOp32
 70
     1
102
RTVSPost2010Prop33
280
     0
102
RTVSPost2010PropOp33
 70
     1
102
RTVSPost2010Prop34
280
     0
102
RTVSPost2010PropOp34
 70
     1
102
RTVSPost2010Prop35
280
     0
102
RTVSPost2010PropOp35
 70
     1
102
RTVSPost2010Prop36
280
     0
102
RTVSPost2010PropOp36
 70
     1
102
RTVSPost2010Prop37
 90
       50
102
RTVSPost2010PropOp37
 70
     1
102
RTVSPost2010Prop38
140
0.0
102
RTVSPost2010PropOp38
 70
     1
102
RTVSPost2010Prop39
140
1.0
102
RTVSPost2010PropOp39
 70
     1
102
RTVSPost2010Prop40
 90
        0
102
RTVSPost2010PropOp40
 70
     1
102
RTVSPost2010Prop41ColorIndex
 90
       18
102
RTVSPost2010Prop41ColorRGB
 90
        0
102
RTVSPost2010PropOp41
 70
     1
102
RTVSPost2010Prop42
 90
       50
102
RTVSPost2010PropOp42
 70
     1
102
RTVSPost2010Prop43
 90
        3
102
RTVSPost2010PropOp43
 70
     1
102
RTVSPost2010Prop44ColorIndex
 90
        5
102
RTVSPost2010Prop44ColorRGB
 90
      255
102
RTVSPost2010PropOp44
 70
     1
102
RTVSPost2010Prop45
280
     0
102
RTVSPost2010PropOp45
 70
     1
102
RTVSPost2010Prop46
 90
       50
102
RTVSPost2010PropOp46
 70
     1
102
RTVSPost2010Prop47
 90
       50
102
RTVSPost2010PropOp47
 70
     1
102
RTVSPost2010Prop48
 90
       50
102
RTVSPost2010PropOp48
 70
     1
102
RTVSPost2010Prop49
280
     0
102
RTVSPost2010PropOp49
 70
     1
102
RTVSPost2010Prop50
 90
       50
102
RTVSPost2010PropOp50
 70
     1
102
RTVSPost2010Prop51ColorIndex
 90
      256
102
RTVSPost2010Prop51ColorRGB
 90
-16777216
102
RTVSPost2010PropOp51
 70
     0
102
RTVSPost2010Prop52
140
1.0
102
RTVSPost2010PropOp52
 70
     0
102
RTVSPost2010Prop53
 90
        2
102
RTVSPost2010PropOp53
 70
     1
102
RTVSPost2010Prop54
  1
strokes_ogs.tif
102
RTVSPost2010PropOp54
 70
     1
102
RTVSPost2010Prop55
280
     0
102
RTVSPost2010PropOp55
 70
     1
102
RTVSPost2010Prop56
140
1.0
102
RTVSPost2010PropOp56
 70
     1
102
RTVSPost2010Prop57
140
1.0
102
RTVSPost2010PropOp57
 70
     1
102
RTVSPropertyOp0
 70
     1
102
RTVSPropertyOp1
 70
     1
102
RTVSPropertyOp2
 70
     1
102
RTVSPropertyOp3
 70
     1
102
RTVSPropertyOp4
 70
     1
102
RTVSPropertyOp5
 70
     1
102
RTVSPropertyOp6
 70
     1
102
RTVSPropertyOp7
 70
     1
102
RTVSPropertyOp8
 70
     1
102
RTVSPropertyOp9
 70
     1
102
RTVSPropertyOp10
 70
     1
102
RTVSPropertyOp11
 70
     1
102
RTVSPropertyOp12
 70
     1
102
RTVSPropertyOp13
 70
     1
102
RTVSPropertyOp14
 70
     1
102
RTVSPropertyOp15
 70
     1
102
RTVSPropertyOp16
 70
     1
102
RTVSPropertyOp17
 70
     1
102
RTVSPropertyOp18
 70
     1
102
RTVSPropertyOp19
 70
     1
102
RTVSPropertyOp20
 70
     1
102
RTVSPropertyOp21
 70
     1
102
RTVSPropertyOp22
 70
     1
102
RTVSPropertyOp23
 70
     1
102
RTVSPropertyOp24
 70
     1
102
RTVSPropertyOp25
 70
     1
102
RTVSPropertyOp26
 70
     1
102
RTVSPropertyOp27
 70
     1
102
RTVSPropertyOp28
 70
     1
102
RTVSPropertyOp29
 70
     1
102
RTVSPropertyOp30
 70
     1
102
RTVSPropertyOp31
 70
     1
102
RTVSPropertyOp32
 70
     1
102
RTVSPropertyOp33
 70
     1
102
RTVSPropertyOp34
 70
     1
102
RTVSPropertyOp35
 70
     1
102
RTVSPropertyOp36
 70
     1
102
RTVSPropertyOp37
 70
     1
102
RTVSPropertyOp38
 70
     1
102
RTVSPropertyOp39
 70
     1
102
RTVSPropertyOp40
 70
     1
102
RTVSPropertyOp41
 70
     1
102
RTVSPropertyOp42
 70
     1
102
RTVSPropertyOp43
 70
     1
102
RTVSPropertyOp44
 70
     1
102
RTVSPropertyOp45
 70
     1
102
RTVSPropertyOp46
 70
     1
102
RTVSPropertyOp47
 70
     1
102
RTVSPropertyOp48
 70
     1
102
RTVSPropertyOp49
 70
     1
102
RTVSPropertyOp50
 70
     1
102
RTVSPropertyOp51
 70
     0
102
RTVSPropertyOp52
 70
     0
102
RTVSPropertyOp53
 70
     1
102
RTVSPropertyOp54
 70
     1
102
RTVSPropertyOp55
 70
     1
102
RTVSPropertyOp56
 70
     1
102
RTVSPropertyOp57
 70
     1
102
RTVSPropertyOp58
 70
     1
102
RTVSPropertyOp59
 70
     1
102
RTVSPropertyOp60
 70
     1
102
RTVSPropertyOp61
 70
     1
102
RTVSPropertyOp62
 70
     1
  0
XRECORD
  5
44E
102
{ACAD_REACTORS
330
44D
102
}
330
44D
100
AcDbXrecord
280
     1
102
RTVSPost2010Prop28
280
     0
102
RTVSPost2010PropOp28
 70
     1
102
RTVSPost2010Prop29
280
     1
102
RTVSPost2010PropOp29
 70
     1
102
RTVSPost2010Prop30
280
     1
102
RTVSPost2010PropOp30
 70
     1
102
RTVSPost2010Prop31
280
     0
102
RTVSPost2010PropOp31
 70
     1
102
RTVSPost2010Prop32
280
     0
102
RTVSPost2010PropOp32
 70
     1
102
RTVSPost2010Prop33
280
     0
102
RTVSPost2010PropOp33
 70
     1
102
RTVSPost2010Prop34
280
     0
102
RTVSPost2010PropOp34
 70
     1
102
RTVSPost2010Prop35
280
     0
102
RTVSPost2010PropOp35
 70
     1
102
RTVSPost2010Prop36
280
     0
102
RTVSPost2010PropOp36
 70
     1
102
RTVSPost2010Prop37
 90
       50
102
RTVSPost2010PropOp37
 70
     1
102
RTVSPost2010Prop38
140
0.0
102
RTVSPost2010PropOp38
 70
     1
102
RTVSPost2010Prop39
140
1.0
102
RTVSPost2010PropOp39
 70
     1
102
RTVSPost2010Prop40
 90
        0
102
RTVSPost2010PropOp40
 70
     1
102
RTVSPost2010Prop41ColorIndex
 90
       18
102
RTVSPost2010Prop41ColorRGB
 90
        0
102
RTVSPost2010PropOp41
 70
     1
102
RTVSPost2010Prop42
 90
       50
102
RTVSPost2010PropOp42
 70
     1
102
RTVSPost2010Prop43
 90
        3
102
RTVSPost2010PropOp43
 70
     1
102
RTVSPost2010Prop44ColorIndex
 90
        5
102
RTVSPost2010Prop44ColorRGB
 90
      255
102
RTVSPost2010PropOp44
 70
     1
102
RTVSPost2010Prop45
280
     0
102
RTVSPost2010PropOp45
 70
     1
102
RTVSPost2010Prop46
 90
       50
102
RTVSPost2010PropOp46
 70
     1
102
RTVSPost2010Prop47
 90
       50
102
RTVSPost2010PropOp47
 70
     1
102
RTVSPost2010Prop48
 90
       50
102
RTVSPost2010PropOp48
 70
     1
102
RTVSPost2010Prop49
280
     0
102
RTVSPost2010PropOp49
 70
     1
102
RTVSPost2010Prop50
 90
       50
102
RTVSPost2010PropOp50
 70
     1
102
RTVSPost2010Prop51ColorIndex
 90
      256
102
RTVSPost2010Prop51ColorRGB
 90
-16777216
102
RTVSPost2010PropOp51
 70
     0
102
RTVSPost2010Prop52
140
1.0
102
RTVSPost2010PropOp52
 70
     0
102
RTVSPost2010Prop53
 90
        2
102
RTVSPost2010PropOp53
 70
     1
102
RTVSPost2010Prop54
  1
strokes_ogs.tif
102
RTVSPost2010PropOp54
 70
     1
102
RTVSPost2010Prop55
280
     0
102
RTVSPost2010PropOp55
 70
     1
102
RTVSPost2010Prop56
140
1.0
102
RTVSPost2010PropOp56
 70
     1
102
RTVSPost2010Prop57
140
1.0
102
RTVSPost2010PropOp57
 70
     1
102
RTVSPropertyOp0
 70
     1
102
RTVSPropertyOp1
 70
     1
102
RTVSPropertyOp2
 70
     1
102
RTVSPropertyOp3
 70
     1
102
RTVSPropertyOp4
 70
     1
102
RTVSPropertyOp5
 70
     1
102
RTVSPropertyOp6
 70
     1
102
RTVSPropertyOp7
 70
     1
102
RTVSPropertyOp8
 70
     1
102
RTVSPropertyOp9
 70
     1
102
RTVSPropertyOp10
 70
     1
102
RTVSPropertyOp11
 70
     1
102
RTVSPropertyOp12
 70
     1
102
RTVSPropertyOp13
 70
     1
102
RTVSPropertyOp14
 70
     1
102
RTVSPropertyOp15
 70
     1
102
RTVSPropertyOp16
 70
     1
102
RTVSPropertyOp17
 70
     1
102
RTVSPropertyOp18
 70
     1
102
RTVSPropertyOp19
 70
     1
102
RTVSPropertyOp20
 70
     1
102
RTVSPropertyOp21
 70
     1
102
RTVSPropertyOp22
 70
     1
102
RTVSPropertyOp23
 70
     1
102
RTVSPropertyOp24
 70
     1
102
RTVSPropertyOp25
 70
     1
102
RTVSPropertyOp26
 70
     1
102
RTVSPropertyOp27
 70
     1
102
RTVSPropertyOp28
 70
     1
102
RTVSPropertyOp29
 70
     1
102
RTVSPropertyOp30
 70
     1
102
RTVSPropertyOp31
 70
     1
102
RTVSPropertyOp32
 70
     1
102
RTVSPropertyOp33
 70
     1
102
RTVSPropertyOp34
 70
     1
102
RTVSPropertyOp35
 70
     1
102
RTVSPropertyOp36
 70
     1
102
RTVSPropertyOp37
 70
     1
102
RTVSPropertyOp38
 70
     1
102
RTVSPropertyOp39
 70
     1
102
RTVSPropertyOp40
 70
     1
102
RTVSPropertyOp41
 70
     1
102
RTVSPropertyOp42
 70
     1
102
RTVSPropertyOp43
 70
     1
102
RTVSPropertyOp44
 70
     1
102
RTVSPropertyOp45
 70
     1
102
RTVSPropertyOp46
 70
     1
102
RTVSPropertyOp47
 70
     1
102
RTVSPropertyOp48
 70
     1
102
RTVSPropertyOp49
 70
     1
102
RTVSPropertyOp50
 70
     1
102
RTVSPropertyOp51
 70
     0
102
RTVSPropertyOp52
 70
     0
102
RTVSPropertyOp53
 70
     1
102
RTVSPropertyOp54
 70
     1
102
RTVSPropertyOp55
 70
     1
102
RTVSPropertyOp56
 70
     1
102
RTVSPropertyOp57
 70
     1
102
RTVSPropertyOp58
 70
     1
102
RTVSPropertyOp59
 70
     1
102
RTVSPropertyOp60
 70
     1
102
RTVSPropertyOp61
 70
     1
102
RTVSPropertyOp62
 70
     1
  0
XRECORD
  5
450
102
{ACAD_REACTORS
330
44F
102
}
330
44F
100
AcDbXrecord
280
     1
102
RTVSPost2010Prop28
280
     0
102
RTVSPost2010PropOp28
 70
     1
102
RTVSPost2010Prop29
280
     1
102
RTVSPost2010PropOp29
 70
     1
102
RTVSPost2010Prop30
280
     1
102
RTVSPost2010PropOp30
 70
     1
102
RTVSPost2010Prop31
280
     0
102
RTVSPost2010PropOp31
 70
     1
102
RTVSPost2010Prop32
280
     0
102
RTVSPost2010PropOp32
 70
     1
102
RTVSPost2010Prop33
280
     0
102
RTVSPost2010PropOp33
 70
     1
102
RTVSPost2010Prop34
280
     0
102
RTVSPost2010PropOp34
 70
     1
102
RTVSPost2010Prop35
280
     0
102
RTVSPost2010PropOp35
 70
     1
102
RTVSPost2010Prop36
280
     0
102
RTVSPost2010PropOp36
 70
     1
102
RTVSPost2010Prop37
 90
       50
102
RTVSPost2010PropOp37
 70
     1
102
RTVSPost2010Prop38
140
0.0
102
RTVSPost2010PropOp38
 70
     1
102
RTVSPost2010Prop39
140
1.0
102
RTVSPost2010PropOp39
 70
     1
102
RTVSPost2010Prop40
 90
        0
102
RTVSPost2010PropOp40
 70
     1
102
RTVSPost2010Prop41ColorIndex
 90
       18
102
RTVSPost2010Prop41ColorRGB
 90
        0
102
RTVSPost2010PropOp41
 70
     1
102
RTVSPost2010Prop42
 90
       50
102
RTVSPost2010PropOp42
 70
     1
102
RTVSPost2010Prop43
 90
        3
102
RTVSPost2010PropOp43
 70
     1
102
RTVSPost2010Prop44ColorIndex
 90
        5
102
RTVSPost2010Prop44ColorRGB
 90
      255
102
RTVSPost2010PropOp44
 70
     1
102
RTVSPost2010Prop45
280
     0
102
RTVSPost2010PropOp45
 70
     1
102
RTVSPost2010Prop46
 90
       50
102
RTVSPost2010PropOp46
 70
     1
102
RTVSPost2010Prop47
 90
       50
102
RTVSPost2010PropOp47
 70
     1
102
RTVSPost2010Prop48
 90
       50
102
RTVSPost2010PropOp48
 70
     1
102
RTVSPost2010Prop49
280
     0
102
RTVSPost2010PropOp49
 70
     1
102
RTVSPost2010Prop50
 90
       50
102
RTVSPost2010PropOp50
 70
     1
102
RTVSPost2010Prop51ColorIndex
 90
      256
102
RTVSPost2010Prop51ColorRGB
 90
-16777216
102
RTVSPost2010PropOp51
 70
     0
102
RTVSPost2010Prop52
140
1.0
102
RTVSPost2010PropOp52
 70
     0
102
RTVSPost2010Prop53
 90
        2
102
RTVSPost2010PropOp53
 70
     1
102
RTVSPost2010Prop54
  1
strokes_ogs.tif
102
RTVSPost2010PropOp54
 70
     1
102
RTVSPost2010Prop55
280
     0
102
RTVSPost2010PropOp55
 70
     1
102
RTVSPost2010Prop56
140
1.0
102
RTVSPost2010PropOp56
 70
     1
102
RTVSPost2010Prop57
140
1.0
102
RTVSPost2010PropOp57
 70
     1
102
RTVSPropertyOp0
 70
     1
102
RTVSPropertyOp1
 70
     1
102
RTVSPropertyOp2
 70
     1
102
RTVSPropertyOp3
 70
     1
102
RTVSPropertyOp4
 70
     1
102
RTVSPropertyOp5
 70
     1
102
RTVSPropertyOp6
 70
     1
102
RTVSPropertyOp7
 70
     1
102
RTVSPropertyOp8
 70
     1
102
RTVSPropertyOp9
 70
     1
102
RTVSPropertyOp10
 70
     1
102
RTVSPropertyOp11
 70
     1
102
RTVSPropertyOp12
 70
     1
102
RTVSPropertyOp13
 70
     1
102
RTVSPropertyOp14
 70
     1
102
RTVSPropertyOp15
 70
     1
102
RTVSPropertyOp16
 70
     1
102
RTVSPropertyOp17
 70
     1
102
RTVSPropertyOp18
 70
     1
102
RTVSPropertyOp19
 70
     1
102
RTVSPropertyOp20
 70
     1
102
RTVSPropertyOp21
 70
     1
102
RTVSPropertyOp22
 70
     1
102
RTVSPropertyOp23
 70
     1
102
RTVSPropertyOp24
 70
     1
102
RTVSPropertyOp25
 70
     1
102
RTVSPropertyOp26
 70
     1
102
RTVSPropertyOp27
 70
     1
102
RTVSPropertyOp28
 70
     1
102
RTVSPropertyOp29
 70
     1
102
RTVSPropertyOp30
 70
     1
102
RTVSPropertyOp31
 70
     1
102
RTVSPropertyOp32
 70
     1
102
RTVSPropertyOp33
 70
     1
102
RTVSPropertyOp34
 70
     1
102
RTVSPropertyOp35
 70
     1
102
RTVSPropertyOp36
 70
     1
102
RTVSPropertyOp37
 70
     1
102
RTVSPropertyOp38
 70
     1
102
RTVSPropertyOp39
 70
     1
102
RTVSPropertyOp40
 70
     1
102
RTVSPropertyOp41
 70
     1
102
RTVSPropertyOp42
 70
     1
102
RTVSPropertyOp43
 70
     1
102
RTVSPropertyOp44
 70
     1
102
RTVSPropertyOp45
 70
     1
102
RTVSPropertyOp46
 70
     1
102
RTVSPropertyOp47
 70
     1
102
RTVSPropertyOp48
 70
     1
102
RTVSPropertyOp49
 70
     1
102
RTVSPropertyOp50
 70
     1
102
RTVSPropertyOp51
 70
     0
102
RTVSPropertyOp52
 70
     0
102
RTVSPropertyOp53
 70
     1
102
RTVSPropertyOp54
 70
     1
102
RTVSPropertyOp55
 70
     1
102
RTVSPropertyOp56
 70
     1
102
RTVSPropertyOp57
 70
     1
102
RTVSPropertyOp58
 70
     1
102
RTVSPropertyOp59
 70
     1
102
RTVSPropertyOp60
 70
     1
102
RTVSPropertyOp61
 70
     1
102
RTVSPropertyOp62
 70
     1
  0
XRECORD
  5
452
102
{ACAD_REACTORS
330
451
102
}
330
451
100
AcDbXrecord
280
     1
102
RTVSPost2010Prop28
280
     0
102
RTVSPost2010PropOp28
 70
     1
102
RTVSPost2010Prop29
280
     1
102
RTVSPost2010PropOp29
 70
     1
102
RTVSPost2010Prop30
280
     1
102
RTVSPost2010PropOp30
 70
     1
102
RTVSPost2010Prop31
280
     0
102
RTVSPost2010PropOp31
 70
     1
102
RTVSPost2010Prop32
280
     0
102
RTVSPost2010PropOp32
 70
     1
102
RTVSPost2010Prop33
280
     0
102
RTVSPost2010PropOp33
 70
     1
102
RTVSPost2010Prop34
280
     0
102
RTVSPost2010PropOp34
 70
     1
102
RTVSPost2010Prop35
280
     0
102
RTVSPost2010PropOp35
 70
     1
102
RTVSPost2010Prop36
280
     0
102
RTVSPost2010PropOp36
 70
     1
102
RTVSPost2010Prop37
 90
       50
102
RTVSPost2010PropOp37
 70
     1
102
RTVSPost2010Prop38
140
0.0
102
RTVSPost2010PropOp38
 70
     1
102
RTVSPost2010Prop39
140
1.0
102
RTVSPost2010PropOp39
 70
     1
102
RTVSPost2010Prop40
 90
        0
102
RTVSPost2010PropOp40
 70
     1
102
RTVSPost2010Prop41ColorIndex
 90
       18
102
RTVSPost2010Prop41ColorRGB
 90
        0
102
RTVSPost2010PropOp41
 70
     1
102
RTVSPost2010Prop42
 90
       50
102
RTVSPost2010PropOp42
 70
     1
102
RTVSPost2010Prop43
 90
        3
102
RTVSPost2010PropOp43
 70
     1
102
RTVSPost2010Prop44ColorIndex
 90
        5
102
RTVSPost2010Prop44ColorRGB
 90
      255
102
RTVSPost2010PropOp44
 70
     1
102
RTVSPost2010Prop45
280
     0
102
RTVSPost2010PropOp45
 70
     1
102
RTVSPost2010Prop46
 90
       50
102
RTVSPost2010PropOp46
 70
     1
102
RTVSPost2010Prop47
 90
       50
102
RTVSPost2010PropOp47
 70
     1
102
RTVSPost2010Prop48
 90
       50
102
RTVSPost2010PropOp48
 70
     1
102
RTVSPost2010Prop49
280
     0
102
RTVSPost2010PropOp49
 70
     1
102
RTVSPost2010Prop50
 90
       50
102
RTVSPost2010PropOp50
 70
     1
102
RTVSPost2010Prop51ColorIndex
 90
      256
102
RTVSPost2010Prop51ColorRGB
 90
-16777216
102
RTVSPost2010PropOp51
 70
     0
102
RTVSPost2010Prop52
140
1.0
102
RTVSPost2010PropOp52
 70
     0
102
RTVSPost2010Prop53
 90
        2
102
RTVSPost2010PropOp53
 70
     1
102
RTVSPost2010Prop54
  1
strokes_ogs.tif
102
RTVSPost2010PropOp54
 70
     1
102
RTVSPost2010Prop55
280
     0
102
RTVSPost2010PropOp55
 70
     1
102
RTVSPost2010Prop56
140
1.0
102
RTVSPost2010PropOp56
 70
     1
102
RTVSPost2010Prop57
140
1.0
102
RTVSPost2010PropOp57
 70
     1
102
RTVSPropertyOp0
 70
     1
102
RTVSPropertyOp1
 70
     1
102
RTVSPropertyOp2
 70
     1
102
RTVSPropertyOp3
 70
     1
102
RTVSPropertyOp4
 70
     1
102
RTVSPropertyOp5
 70
     1
102
RTVSPropertyOp6
 70
     1
102
RTVSPropertyOp7
 70
     1
102
RTVSPropertyOp8
 70
     1
102
RTVSPropertyOp9
 70
     1
102
RTVSPropertyOp10
 70
     1
102
RTVSPropertyOp11
 70
     1
102
RTVSPropertyOp12
 70
     1
102
RTVSPropertyOp13
 70
     1
102
RTVSPropertyOp14
 70
     1
102
RTVSPropertyOp15
 70
     1
102
RTVSPropertyOp16
 70
     1
102
RTVSPropertyOp17
 70
     1
102
RTVSPropertyOp18
 70
     1
102
RTVSPropertyOp19
 70
     1
102
RTVSPropertyOp20
 70
     1
102
RTVSPropertyOp21
 70
     1
102
RTVSPropertyOp22
 70
     1
102
RTVSPropertyOp23
 70
     1
102
RTVSPropertyOp24
 70
     1
102
RTVSPropertyOp25
 70
     1
102
RTVSPropertyOp26
 70
     1
102
RTVSPropertyOp27
 70
     1
102
RTVSPropertyOp28
 70
     1
102
RTVSPropertyOp29
 70
     1
102
RTVSPropertyOp30
 70
     1
102
RTVSPropertyOp31
 70
     1
102
RTVSPropertyOp32
 70
     1
102
RTVSPropertyOp33
 70
     1
102
RTVSPropertyOp34
 70
     1
102
RTVSPropertyOp35
 70
     1
102
RTVSPropertyOp36
 70
     1
102
RTVSPropertyOp37
 70
     1
102
RTVSPropertyOp38
 70
     1
102
RTVSPropertyOp39
 70
     1
102
RTVSPropertyOp40
 70
     1
102
RTVSPropertyOp41
 70
     1
102
RTVSPropertyOp42
 70
     1
102
RTVSPropertyOp43
 70
     1
102
RTVSPropertyOp44
 70
     1
102
RTVSPropertyOp45
 70
     1
102
RTVSPropertyOp46
 70
     1
102
RTVSPropertyOp47
 70
     1
102
RTVSPropertyOp48
 70
     1
102
RTVSPropertyOp49
 70
     1
102
RTVSPropertyOp50
 70
     1
102
RTVSPropertyOp51
 70
     0
102
RTVSPropertyOp52
 70
     0
102
RTVSPropertyOp53
 70
     1
102
RTVSPropertyOp54
 70
     1
102
RTVSPropertyOp55
 70
     1
102
RTVSPropertyOp56
 70
     1
102
RTVSPropertyOp57
 70
     1
102
RTVSPropertyOp58
 70
     1
102
RTVSPropertyOp59
 70
     1
102
RTVSPropertyOp60
 70
     1
102
RTVSPropertyOp61
 70
     1
102
RTVSPropertyOp62
 70
     1
  0
XRECORD
  5
454
102
{ACAD_REACTORS
330
453
102
}
330
453
100
AcDbXrecord
280
     1
102
RTVSPost2010Prop28
280
     0
102
RTVSPost2010PropOp28
 70
     1
102
RTVSPost2010Prop29
280
     1
102
RTVSPost2010PropOp29
 70
     1
102
RTVSPost2010Prop30
280
     1
102
RTVSPost2010PropOp30
 70
     1
102
RTVSPost2010Prop31
280
     0
102
RTVSPost2010PropOp31
 70
     1
102
RTVSPost2010Prop32
280
     0
102
RTVSPost2010PropOp32
 70
     1
102
RTVSPost2010Prop33
280
     0
102
RTVSPost2010PropOp33
 70
     1
102
RTVSPost2010Prop34
280
     0
102
RTVSPost2010PropOp34
 70
     1
102
RTVSPost2010Prop35
280
     0
102
RTVSPost2010PropOp35
 70
     1
102
RTVSPost2010Prop36
280
     0
102
RTVSPost2010PropOp36
 70
     1
102
RTVSPost2010Prop37
 90
       50
102
RTVSPost2010PropOp37
 70
     1
102
RTVSPost2010Prop38
140
0.0
102
RTVSPost2010PropOp38
 70
     1
102
RTVSPost2010Prop39
140
1.0
102
RTVSPost2010PropOp39
 70
     1
102
RTVSPost2010Prop40
 90
        0
102
RTVSPost2010PropOp40
 70
     1
102
RTVSPost2010Prop41ColorIndex
 90
       18
102
RTVSPost2010Prop41ColorRGB
 90
        0
102
RTVSPost2010PropOp41
 70
     1
102
RTVSPost2010Prop42
 90
       50
102
RTVSPost2010PropOp42
 70
     1
102
RTVSPost2010Prop43
 90
        3
102
RTVSPost2010PropOp43
 70
     1
102
RTVSPost2010Prop44ColorIndex
 90
        5
102
RTVSPost2010Prop44ColorRGB
 90
      255
102
RTVSPost2010PropOp44
 70
     1
102
RTVSPost2010Prop45
280
     0
102
RTVSPost2010PropOp45
 70
     1
102
RTVSPost2010Prop46
 90
       50
102
RTVSPost2010PropOp46
 70
     1
102
RTVSPost2010Prop47
 90
       50
102
RTVSPost2010PropOp47
 70
     1
102
RTVSPost2010Prop48
 90
       50
102
RTVSPost2010PropOp48
 70
     1
102
RTVSPost2010Prop49
280
     0
102
RTVSPost2010PropOp49
 70
     1
102
RTVSPost2010Prop50
 90
       50
102
RTVSPost2010PropOp50
 70
     1
102
RTVSPost2010Prop51ColorIndex
 90
      256
102
RTVSPost2010Prop51ColorRGB
 90
-16777216
102
RTVSPost2010PropOp51
 70
     0
102
RTVSPost2010Prop52
140
1.0
102
RTVSPost2010PropOp52
 70
     0
102
RTVSPost2010Prop53
 90
        2
102
RTVSPost2010PropOp53
 70
     1
102
RTVSPost2010Prop54
  1
strokes_ogs.tif
102
RTVSPost2010PropOp54
 70
     1
102
RTVSPost2010Prop55
280
     0
102
RTVSPost2010PropOp55
 70
     1
102
RTVSPost2010Prop56
140
1.0
102
RTVSPost2010PropOp56
 70
     1
102
RTVSPost2010Prop57
140
1.0
102
RTVSPost2010PropOp57
 70
     1
102
RTVSPropertyOp0
 70
     1
102
RTVSPropertyOp1
 70
     1
102
RTVSPropertyOp2
 70
     1
102
RTVSPropertyOp3
 70
     1
102
RTVSPropertyOp4
 70
     1
102
RTVSPropertyOp5
 70
     1
102
RTVSPropertyOp6
 70
     1
102
RTVSPropertyOp7
 70
     1
102
RTVSPropertyOp8
 70
     1
102
RTVSPropertyOp9
 70
     1
102
RTVSPropertyOp10
 70
     1
102
RTVSPropertyOp11
 70
     1
102
RTVSPropertyOp12
 70
     1
102
RTVSPropertyOp13
 70
     1
102
RTVSPropertyOp14
 70
     1
102
RTVSPropertyOp15
 70
     1
102
RTVSPropertyOp16
 70
     1
102
RTVSPropertyOp17
 70
     1
102
RTVSPropertyOp18
 70
     1
102
RTVSPropertyOp19
 70
     1
102
RTVSPropertyOp20
 70
     1
102
RTVSPropertyOp21
 70
     1
102
RTVSPropertyOp22
 70
     1
102
RTVSPropertyOp23
 70
     1
102
RTVSPropertyOp24
 70
     1
102
RTVSPropertyOp25
 70
     1
102
RTVSPropertyOp26
 70
     1
102
RTVSPropertyOp27
 70
     1
102
RTVSPropertyOp28
 70
     1
102
RTVSPropertyOp29
 70
     1
102
RTVSPropertyOp30
 70
     1
102
RTVSPropertyOp31
 70
     1
102
RTVSPropertyOp32
 70
     1
102
RTVSPropertyOp33
 70
     1
102
RTVSPropertyOp34
 70
     1
102
RTVSPropertyOp35
 70
     1
102
RTVSPropertyOp36
 70
     1
102
RTVSPropertyOp37
 70
     1
102
RTVSPropertyOp38
 70
     1
102
RTVSPropertyOp39
 70
     1
102
RTVSPropertyOp40
 70
     1
102
RTVSPropertyOp41
 70
     1
102
RTVSPropertyOp42
 70
     1
102
RTVSPropertyOp43
 70
     1
102
RTVSPropertyOp44
 70
     1
102
RTVSPropertyOp45
 70
     1
102
RTVSPropertyOp46
 70
     1
102
RTVSPropertyOp47
 70
     1
102
RTVSPropertyOp48
 70
     1
102
RTVSPropertyOp49
 70
     1
102
RTVSPropertyOp50
 70
     1
102
RTVSPropertyOp51
 70
     0
102
RTVSPropertyOp52
 70
     0
102
RTVSPropertyOp53
 70
     1
102
RTVSPropertyOp54
 70
     1
102
RTVSPropertyOp55
 70
     1
102
RTVSPropertyOp56
 70
     1
102
RTVSPropertyOp57
 70
     1
102
RTVSPropertyOp58
 70
     1
102
RTVSPropertyOp59
 70
     1
102
RTVSPropertyOp60
 70
     1
102
RTVSPropertyOp61
 70
     1
102
RTVSPropertyOp62
 70
     1
  0
XRECORD
  5
45C
102
{ACAD_REACTORS
330
45B
102
}
330
45B
100
AcDbXrecord
280
     1
102
RTVSPost2010Prop28
280
     0
102
RTVSPost2010PropOp28
 70
     1
102
RTVSPost2010Prop29
280
     1
102
RTVSPost2010PropOp29
 70
     1
102
RTVSPost2010Prop30
280
     1
102
RTVSPost2010PropOp30
 70
     1
102
RTVSPost2010Prop31
280
     0
102
RTVSPost2010PropOp31
 70
     1
102
RTVSPost2010Prop32
280
     0
102
RTVSPost2010PropOp32
 70
     1
102
RTVSPost2010Prop33
280
     0
102
RTVSPost2010PropOp33
 70
     1
102
RTVSPost2010Prop34
280
     0
102
RTVSPost2010PropOp34
 70
     1
102
RTVSPost2010Prop35
280
     0
102
RTVSPost2010PropOp35
 70
     1
102
RTVSPost2010Prop36
280
     0
102
RTVSPost2010PropOp36
 70
     1
102
RTVSPost2010Prop37
 90
       50
102
RTVSPost2010PropOp37
 70
     1
102
RTVSPost2010Prop38
140
0.0
102
RTVSPost2010PropOp38
 70
     1
102
RTVSPost2010Prop39
140
1.0
102
RTVSPost2010PropOp39
 70
     1
102
RTVSPost2010Prop40
 90
        0
102
RTVSPost2010PropOp40
 70
     1
102
RTVSPost2010Prop41ColorIndex
 90
       18
102
RTVSPost2010Prop41ColorRGB
 90
        0
102
RTVSPost2010PropOp41
 70
     1
102
RTVSPost2010Prop42
 90
       50
102
RTVSPost2010PropOp42
 70
     1
102
RTVSPost2010Prop43
 90
        3
102
RTVSPost2010PropOp43
 70
     1
102
RTVSPost2010Prop44ColorIndex
 90
        5
102
RTVSPost2010Prop44ColorRGB
 90
      255
102
RTVSPost2010PropOp44
 70
     1
102
RTVSPost2010Prop45
280
     0
102
RTVSPost2010PropOp45
 70
     1
102
RTVSPost2010Prop46
 90
       50
102
RTVSPost2010PropOp46
 70
     1
102
RTVSPost2010Prop47
 90
       50
102
RTVSPost2010PropOp47
 70
     1
102
RTVSPost2010Prop48
 90
       50
102
RTVSPost2010PropOp48
 70
     1
102
RTVSPost2010Prop49
280
     0
102
RTVSPost2010PropOp49
 70
     1
102
RTVSPost2010Prop50
 90
       50
102
RTVSPost2010PropOp50
 70
     1
102
RTVSPost2010Prop51ColorIndex
 90
      256
102
RTVSPost2010Prop51ColorRGB
 90
-16777216
102
RTVSPost2010PropOp51
 70
     0
102
RTVSPost2010Prop52
140
1.0
102
RTVSPost2010PropOp52
 70
     0
102
RTVSPost2010Prop53
 90
        2
102
RTVSPost2010PropOp53
 70
     1
102
RTVSPost2010Prop54
  1
strokes_ogs.tif
102
RTVSPost2010PropOp54
 70
     1
102
RTVSPost2010Prop55
280
     0
102
RTVSPost2010PropOp55
 70
     1
102
RTVSPost2010Prop56
140
1.0
102
RTVSPost2010PropOp56
 70
     1
102
RTVSPost2010Prop57
140
1.0
102
RTVSPost2010PropOp57
 70
     1
102
RTVSPropertyOp0
 70
     1
102
RTVSPropertyOp1
 70
     1
102
RTVSPropertyOp2
 70
     1
102
RTVSPropertyOp3
 70
     1
102
RTVSPropertyOp4
 70
     1
102
RTVSPropertyOp5
 70
     1
102
RTVSPropertyOp6
 70
     1
102
RTVSPropertyOp7
 70
     1
102
RTVSPropertyOp8
 70
     1
102
RTVSPropertyOp9
 70
     1
102
RTVSPropertyOp10
 70
     1
102
RTVSPropertyOp11
 70
     1
102
RTVSPropertyOp12
 70
     1
102
RTVSPropertyOp13
 70
     1
102
RTVSPropertyOp14
 70
     1
102
RTVSPropertyOp15
 70
     1
102
RTVSPropertyOp16
 70
     1
102
RTVSPropertyOp17
 70
     1
102
RTVSPropertyOp18
 70
     1
102
RTVSPropertyOp19
 70
     1
102
RTVSPropertyOp20
 70
     1
102
RTVSPropertyOp21
 70
     1
102
RTVSPropertyOp22
 70
     1
102
RTVSPropertyOp23
 70
     1
102
RTVSPropertyOp24
 70
     1
102
RTVSPropertyOp25
 70
     1
102
RTVSPropertyOp26
 70
     1
102
RTVSPropertyOp27
 70
     1
102
RTVSPropertyOp28
 70
     1
102
RTVSPropertyOp29
 70
     1
102
RTVSPropertyOp30
 70
     1
102
RTVSPropertyOp31
 70
     1
102
RTVSPropertyOp32
 70
     1
102
RTVSPropertyOp33
 70
     1
102
RTVSPropertyOp34
 70
     1
102
RTVSPropertyOp35
 70
     1
102
RTVSPropertyOp36
 70
     1
102
RTVSPropertyOp37
 70
     1
102
RTVSPropertyOp38
 70
     1
102
RTVSPropertyOp39
 70
     1
102
RTVSPropertyOp40
 70
     1
102
RTVSPropertyOp41
 70
     1
102
RTVSPropertyOp42
 70
     1
102
RTVSPropertyOp43
 70
     1
102
RTVSPropertyOp44
 70
     1
102
RTVSPropertyOp45
 70
     1
102
RTVSPropertyOp46
 70
     1
102
RTVSPropertyOp47
 70
     1
102
RTVSPropertyOp48
 70
     1
102
RTVSPropertyOp49
 70
     1
102
RTVSPropertyOp50
 70
     1
102
RTVSPropertyOp51
 70
     0
102
RTVSPropertyOp52
 70
     0
102
RTVSPropertyOp53
 70
     1
102
RTVSPropertyOp54
 70
     1
102
RTVSPropertyOp55
 70
     1
102
RTVSPropertyOp56
 70
     1
102
RTVSPropertyOp57
 70
     1
102
RTVSPropertyOp58
 70
     1
102
RTVSPropertyOp59
 70
     1
102
RTVSPropertyOp60
 70
     1
102
RTVSPropertyOp61
 70
     1
102
RTVSPropertyOp62
 70
     1
  0
XRECORD
  5
478
102
{ACAD_REACTORS
330
477
102
}
330
477
100
AcDbXrecord
280
     1
102
RTVSPost2010Prop28
280
     0
102
RTVSPost2010PropOp28
 70
     1
102
RTVSPost2010Prop29
280
     1
102
RTVSPost2010PropOp29
 70
     1
102
RTVSPost2010Prop30
280
     1
102
RTVSPost2010PropOp30
 70
     1
102
RTVSPost2010Prop31
280
     0
102
RTVSPost2010PropOp31
 70
     1
102
RTVSPost2010Prop32
280
     0
102
RTVSPost2010PropOp32
 70
     1
102
RTVSPost2010Prop33
280
     0
102
RTVSPost2010PropOp33
 70
     1
102
RTVSPost2010Prop34
280
     0
102
RTVSPost2010PropOp34
 70
     1
102
RTVSPost2010Prop35
280
     0
102
RTVSPost2010PropOp35
 70
     1
102
RTVSPost2010Prop36
280
     0
102
RTVSPost2010PropOp36
 70
     1
102
RTVSPost2010Prop37
 90
       50
102
RTVSPost2010PropOp37
 70
     0
102
RTVSPost2010Prop38
140
0.0
102
RTVSPost2010PropOp38
 70
     0
102
RTVSPost2010Prop39
140
1.0
102
RTVSPost2010PropOp39
 70
     0
102
RTVSPost2010Prop40
 90
        0
102
RTVSPost2010PropOp40
 70
     0
102
RTVSPost2010Prop41ColorIndex
 90
       18
102
RTVSPost2010Prop41ColorRGB
 90
        0
102
RTVSPost2010PropOp41
 70
     0
102
RTVSPost2010Prop42
 90
       50
102
RTVSPost2010PropOp42
 70
     0
102
RTVSPost2010Prop43
 90
        3
102
RTVSPost2010PropOp43
 70
     0
102
RTVSPost2010Prop44ColorIndex
 90
        5
102
RTVSPost2010Prop44ColorRGB
 90
      255
102
RTVSPost2010PropOp44
 70
     0
102
RTVSPost2010Prop45
280
     0
102
RTVSPost2010PropOp45
 70
     1
102
RTVSPost2010Prop46
 90
       50
102
RTVSPost2010PropOp46
 70
     0
102
RTVSPost2010Prop47
 90
       50
102
RTVSPost2010PropOp47
 70
     0
102
RTVSPost2010Prop48
 90
       50
102
RTVSPost2010PropOp48
 70
     0
102
RTVSPost2010Prop49
280
     0
102
RTVSPost2010PropOp49
 70
     1
102
RTVSPost2010Prop50
 90
       50
102
RTVSPost2010PropOp50
 70
     0
102
RTVSPost2010Prop51ColorIndex
 90
      256
102
RTVSPost2010Prop51ColorRGB
 90
-16777216
102
RTVSPost2010PropOp51
 70
     0
102
RTVSPost2010Prop52
140
1.0
102
RTVSPost2010PropOp52
 70
     0
102
RTVSPost2010Prop53
 90
        2
102
RTVSPost2010PropOp53
 70
     0
102
RTVSPost2010Prop54
  1
strokes_ogs.tif
102
RTVSPost2010PropOp54
 70
     0
102
RTVSPost2010Prop55
280
     0
102
RTVSPost2010PropOp55
 70
     1
102
RTVSPost2010Prop56
140
1.0
102
RTVSPost2010PropOp56
 70
     0
102
RTVSPost2010Prop57
140
1.0
102
RTVSPost2010PropOp57
 70
     0
102
RTVSPropertyOp0
 70
     0
102
RTVSPropertyOp1
 70
     0
102
RTVSPropertyOp2
 70
     0
102
RTVSPropertyOp3
 70
     0
102
RTVSPropertyOp4
 70
     0
102
RTVSPropertyOp5
 70
     0
102
RTVSPropertyOp6
 70
     0
102
RTVSPropertyOp7
 70
     0
102
RTVSPropertyOp8
 70
     0
102
RTVSPropertyOp9
 70
     0
102
RTVSPropertyOp10
 70
     0
102
RTVSPropertyOp11
 70
     0
102
RTVSPropertyOp12
 70
     0
102
RTVSPropertyOp13
 70
     0
102
RTVSPropertyOp14
 70
     2
102
RTVSPropertyOp15
 70
     0
102
RTVSPropertyOp16
 70
     0
102
RTVSPropertyOp17
 70
     0
102
RTVSPropertyOp18
 70
     0
102
RTVSPropertyOp19
 70
     0
102
RTVSPropertyOp20
 70
     0
102
RTVSPropertyOp21
 70
     0
102
RTVSPropertyOp22
 70
     0
102
RTVSPropertyOp23
 70
     0
102
RTVSPropertyOp24
 70
     0
102
RTVSPropertyOp25
 70
     0
102
RTVSPropertyOp26
 70
     0
102
RTVSPropertyOp27
 70
     0
102
RTVSPropertyOp28
 70
     1
102
RTVSPropertyOp29
 70
     1
102
RTVSPropertyOp30
 70
     1
102
RTVSPropertyOp31
 70
     1
102
RTVSPropertyOp32
 70
     1
102
RTVSPropertyOp33
 70
     1
102
RTVSPropertyOp34
 70
     1
102
RTVSPropertyOp35
 70
     1
102
RTVSPropertyOp36
 70
     1
102
RTVSPropertyOp37
 70
     0
102
RTVSPropertyOp38
 70
     0
102
RTVSPropertyOp39
 70
     0
102
RTVSPropertyOp40
 70
     0
102
RTVSPropertyOp41
 70
     0
102
RTVSPropertyOp42
 70
     0
102
RTVSPropertyOp43
 70
     0
102
RTVSPropertyOp44
 70
     0
102
RTVSPropertyOp45
 70
     1
102
RTVSPropertyOp46
 70
     0
102
RTVSPropertyOp47
 70
     0
102
RTVSPropertyOp48
 70
     0
102
RTVSPropertyOp49
 70
     1
102
RTVSPropertyOp50
 70
     0
102
RTVSPropertyOp51
 70
     0
102
RTVSPropertyOp52
 70
     0
102
RTVSPropertyOp53
 70
     0
102
RTVSPropertyOp54
 70
     0
102
RTVSPropertyOp55
 70
     1
102
RTVSPropertyOp56
 70
     0
102
RTVSPropertyOp57
 70
     0
102
RTVSPropertyOp58
 70
     0
102
RTVSPropertyOp59
 70
     0
102
RTVSPropertyOp60
 70
     0
102
RTVSPropertyOp61
 70
     0
102
RTVSPropertyOp62
 70
     0
  0
XRECORD
  5
468
102
{ACAD_REACTORS
330
467
102
}
330
467
100
AcDbXrecord
280
     1
102
RTVSPost2010Prop28
280
     0
102
RTVSPost2010PropOp28
 70
     1
102
RTVSPost2010Prop29
280
     1
102
RTVSPost2010PropOp29
 70
     1
102
RTVSPost2010Prop30
280
     1
102
RTVSPost2010PropOp30
 70
     1
102
RTVSPost2010Prop31
280
     0
102
RTVSPost2010PropOp31
 70
     1
102
RTVSPost2010Prop32
280
     0
102
RTVSPost2010PropOp32
 70
     1
102
RTVSPost2010Prop33
280
     0
102
RTVSPost2010PropOp33
 70
     1
102
RTVSPost2010Prop34
280
     0
102
RTVSPost2010PropOp34
 70
     1
102
RTVSPost2010Prop35
280
     0
102
RTVSPost2010PropOp35
 70
     1
102
RTVSPost2010Prop36
280
     0
102
RTVSPost2010PropOp36
 70
     1
102
RTVSPost2010Prop37
 90
       50
102
RTVSPost2010PropOp37
 70
     1
102
RTVSPost2010Prop38
140
0.0
102
RTVSPost2010PropOp38
 70
     1
102
RTVSPost2010Prop39
140
1.0
102
RTVSPost2010PropOp39
 70
     1
102
RTVSPost2010Prop40
 90
        0
102
RTVSPost2010PropOp40
 70
     1
102
RTVSPost2010Prop41ColorIndex
 90
       18
102
RTVSPost2010Prop41ColorRGB
 90
        0
102
RTVSPost2010PropOp41
 70
     1
102
RTVSPost2010Prop42
 90
       50
102
RTVSPost2010PropOp42
 70
     1
102
RTVSPost2010Prop43
 90
        3
102
RTVSPost2010PropOp43
 70
     1
102
RTVSPost2010Prop44ColorIndex
 90
        5
102
RTVSPost2010Prop44ColorRGB
 90
      255
102
RTVSPost2010PropOp44
 70
     1
102
RTVSPost2010Prop45
280
     0
102
RTVSPost2010PropOp45
 70
     1
102
RTVSPost2010Prop46
 90
       50
102
RTVSPost2010PropOp46
 70
     1
102
RTVSPost2010Prop47
 90
       50
102
RTVSPost2010PropOp47
 70
     1
102
RTVSPost2010Prop48
 90
       50
102
RTVSPost2010PropOp48
 70
     1
102
RTVSPost2010Prop49
280
     0
102
RTVSPost2010PropOp49
 70
     1
102
RTVSPost2010Prop50
 90
       50
102
RTVSPost2010PropOp50
 70
     1
102
RTVSPost2010Prop51ColorIndex
 90
      256
102
RTVSPost2010Prop51ColorRGB
 90
-16777216
102
RTVSPost2010PropOp51
 70
     0
102
RTVSPost2010Prop52
140
1.0
102
RTVSPost2010PropOp52
 70
     0
102
RTVSPost2010Prop53
 90
        2
102
RTVSPost2010PropOp53
 70
     1
102
RTVSPost2010Prop54
  1
strokes_ogs.tif
102
RTVSPost2010PropOp54
 70
     1
102
RTVSPost2010Prop55
280
     0
102
RTVSPost2010PropOp55
 70
     1
102
RTVSPost2010Prop56
140
1.0
102
RTVSPost2010PropOp56
 70
     1
102
RTVSPost2010Prop57
140
1.0
102
RTVSPost2010PropOp57
 70
     1
102
RTVSPropertyOp0
 70
     1
102
RTVSPropertyOp1
 70
     1
102
RTVSPropertyOp2
 70
     1
102
RTVSPropertyOp3
 70
     1
102
RTVSPropertyOp4
 70
     1
102
RTVSPropertyOp5
 70
     1
102
RTVSPropertyOp6
 70
     1
102
RTVSPropertyOp7
 70
     1
102
RTVSPropertyOp8
 70
     1
102
RTVSPropertyOp9
 70
     1
102
RTVSPropertyOp10
 70
     1
102
RTVSPropertyOp11
 70
     1
102
RTVSPropertyOp12
 70
     1
102
RTVSPropertyOp13
 70
     1
102
RTVSPropertyOp14
 70
     1
102
RTVSPropertyOp15
 70
     1
102
RTVSPropertyOp16
 70
     1
102
RTVSPropertyOp17
 70
     1
102
RTVSPropertyOp18
 70
     1
102
RTVSPropertyOp19
 70
     1
102
RTVSPropertyOp20
 70
     1
102
RTVSPropertyOp21
 70
     1
102
RTVSPropertyOp22
 70
     1
102
RTVSPropertyOp23
 70
     1
102
RTVSPropertyOp24
 70
     1
102
RTVSPropertyOp25
 70
     1
102
RTVSPropertyOp26
 70
     1
102
RTVSPropertyOp27
 70
     1
102
RTVSPropertyOp28
 70
     1
102
RTVSPropertyOp29
 70
     1
102
RTVSPropertyOp30
 70
     1
102
RTVSPropertyOp31
 70
     1
102
RTVSPropertyOp32
 70
     1
102
RTVSPropertyOp33
 70
     1
102
RTVSPropertyOp34
 70
     1
102
RTVSPropertyOp35
 70
     1
102
RTVSPropertyOp36
 70
     1
102
RTVSPropertyOp37
 70
     1
102
RTVSPropertyOp38
 70
     1
102
RTVSPropertyOp39
 70
     1
102
RTVSPropertyOp40
 70
     1
102
RTVSPropertyOp41
 70
     1
102
RTVSPropertyOp42
 70
     1
102
RTVSPropertyOp43
 70
     1
102
RTVSPropertyOp44
 70
     1
102
RTVSPropertyOp45
 70
     1
102
RTVSPropertyOp46
 70
     1
102
RTVSPropertyOp47
 70
     1
102
RTVSPropertyOp48
 70
     1
102
RTVSPropertyOp49
 70
     1
102
RTVSPropertyOp50
 70
     1
102
RTVSPropertyOp51
 70
     0
102
RTVSPropertyOp52
 70
     0
102
RTVSPropertyOp53
 70
     1
102
RTVSPropertyOp54
 70
     1
102
RTVSPropertyOp55
 70
     1
102
RTVSPropertyOp56
 70
     1
102
RTVSPropertyOp57
 70
     1
102
RTVSPropertyOp58
 70
     1
102
RTVSPropertyOp59
 70
     1
102
RTVSPropertyOp60
 70
     1
102
RTVSPropertyOp61
 70
     1
102
RTVSPropertyOp62
 70
     1
  0
XRECORD
  5
47A
102
{ACAD_REACTORS
330
479
102
}
330
479
100
AcDbXrecord
280
     1
102
RTVSPost2010Prop28
280
     0
102
RTVSPost2010PropOp28
 70
     1
102
RTVSPost2010Prop29
280
     1
102
RTVSPost2010PropOp29
 70
     1
102
RTVSPost2010Prop30
280
     1
102
RTVSPost2010PropOp30
 70
     1
102
RTVSPost2010Prop31
280
     0
102
RTVSPost2010PropOp31
 70
     1
102
RTVSPost2010Prop32
280
     0
102
RTVSPost2010PropOp32
 70
     1
102
RTVSPost2010Prop33
280
     0
102
RTVSPost2010PropOp33
 70
     1
102
RTVSPost2010Prop34
280
     0
102
RTVSPost2010PropOp34
 70
     1
102
RTVSPost2010Prop35
280
     0
102
RTVSPost2010PropOp35
 70
     1
102
RTVSPost2010Prop36
280
     0
102
RTVSPost2010PropOp36
 70
     1
102
RTVSPost2010Prop37
 90
       50
102
RTVSPost2010PropOp37
 70
     0
102
RTVSPost2010Prop38
140
0.0
102
RTVSPost2010PropOp38
 70
     0
102
RTVSPost2010Prop39
140
1.0
102
RTVSPost2010PropOp39
 70
     0
102
RTVSPost2010Prop40
 90
        0
102
RTVSPost2010PropOp40
 70
     0
102
RTVSPost2010Prop41ColorIndex
 90
       18
102
RTVSPost2010Prop41ColorRGB
 90
        0
102
RTVSPost2010PropOp41
 70
     0
102
RTVSPost2010Prop42
 90
       50
102
RTVSPost2010PropOp42
 70
     0
102
RTVSPost2010Prop43
 90
        3
102
RTVSPost2010PropOp43
 70
     0
102
RTVSPost2010Prop44ColorIndex
 90
        5
102
RTVSPost2010Prop44ColorRGB
 90
      255
102
RTVSPost2010PropOp44
 70
     0
102
RTVSPost2010Prop45
280
     0
102
RTVSPost2010PropOp45
 70
     1
102
RTVSPost2010Prop46
 90
       50
102
RTVSPost2010PropOp46
 70
     0
102
RTVSPost2010Prop47
 90
       50
102
RTVSPost2010PropOp47
 70
     0
102
RTVSPost2010Prop48
 90
       50
102
RTVSPost2010PropOp48
 70
     0
102
RTVSPost2010Prop49
280
     0
102
RTVSPost2010PropOp49
 70
     1
102
RTVSPost2010Prop50
 90
       50
102
RTVSPost2010PropOp50
 70
     0
102
RTVSPost2010Prop51ColorIndex
 90
      256
102
RTVSPost2010Prop51ColorRGB
 90
-16777216
102
RTVSPost2010PropOp51
 70
     0
102
RTVSPost2010Prop52
140
1.0
102
RTVSPost2010PropOp52
 70
     0
102
RTVSPost2010Prop53
 90
        2
102
RTVSPost2010PropOp53
 70
     0
102
RTVSPost2010Prop54
  1
strokes_ogs.tif
102
RTVSPost2010PropOp54
 70
     0
102
RTVSPost2010Prop55
280
     0
102
RTVSPost2010PropOp55
 70
     1
102
RTVSPost2010Prop56
140
1.0
102
RTVSPost2010PropOp56
 70
     0
102
RTVSPost2010Prop57
140
1.0
102
RTVSPost2010PropOp57
 70
     0
102
RTVSPropertyOp0
 70
     0
102
RTVSPropertyOp1
 70
     0
102
RTVSPropertyOp2
 70
     0
102
RTVSPropertyOp3
 70
     0
102
RTVSPropertyOp4
 70
     0
102
RTVSPropertyOp5
 70
     0
102
RTVSPropertyOp6
 70
     0
102
RTVSPropertyOp7
 70
     0
102
RTVSPropertyOp8
 70
     0
102
RTVSPropertyOp9
 70
     0
102
RTVSPropertyOp10
 70
     0
102
RTVSPropertyOp11
 70
     0
102
RTVSPropertyOp12
 70
     0
102
RTVSPropertyOp13
 70
     0
102
RTVSPropertyOp14
 70
     2
102
RTVSPropertyOp15
 70
     0
102
RTVSPropertyOp16
 70
     0
102
RTVSPropertyOp17
 70
     0
102
RTVSPropertyOp18
 70
     0
102
RTVSPropertyOp19
 70
     0
102
RTVSPropertyOp20
 70
     0
102
RTVSPropertyOp21
 70
     0
102
RTVSPropertyOp22
 70
     0
102
RTVSPropertyOp23
 70
     0
102
RTVSPropertyOp24
 70
     0
102
RTVSPropertyOp25
 70
     0
102
RTVSPropertyOp26
 70
     0
102
RTVSPropertyOp27
 70
     0
102
RTVSPropertyOp28
 70
     1
102
RTVSPropertyOp29
 70
     1
102
RTVSPropertyOp30
 70
     1
102
RTVSPropertyOp31
 70
     1
102
RTVSPropertyOp32
 70
     1
102
RTVSPropertyOp33
 70
     1
102
RTVSPropertyOp34
 70
     1
102
RTVSPropertyOp35
 70
     1
102
RTVSPropertyOp36
 70
     1
102
RTVSPropertyOp37
 70
     0
102
RTVSPropertyOp38
 70
     0
102
RTVSPropertyOp39
 70
     0
102
RTVSPropertyOp40
 70
     0
102
RTVSPropertyOp41
 70
     0
102
RTVSPropertyOp42
 70
     0
102
RTVSPropertyOp43
 70
     0
102
RTVSPropertyOp44
 70
     0
102
RTVSPropertyOp45
 70
     1
102
RTVSPropertyOp46
 70
     0
102
RTVSPropertyOp47
 70
     0
102
RTVSPropertyOp48
 70
     0
102
RTVSPropertyOp49
 70
     1
102
RTVSPropertyOp50
 70
     0
102
RTVSPropertyOp51
 70
     0
102
RTVSPropertyOp52
 70
     0
102
RTVSPropertyOp53
 70
     0
102
RTVSPropertyOp54
 70
     0
102
RTVSPropertyOp55
 70
     1
102
RTVSPropertyOp56
 70
     0
102
RTVSPropertyOp57
 70
     0
102
RTVSPropertyOp58
 70
     0
102
RTVSPropertyOp59
 70
     0
102
RTVSPropertyOp60
 70
     0
102
RTVSPropertyOp61
 70
     0
102
RTVSPropertyOp62
 70
     0
  0
XRECORD
  5
460
102
{ACAD_REACTORS
330
45F
102
}
330
45F
100
AcDbXrecord
280
     1
102
RTVSPost2010Prop28
280
     0
102
RTVSPost2010PropOp28
 70
     1
102
RTVSPost2010Prop29
280
     1
102
RTVSPost2010PropOp29
 70
     1
102
RTVSPost2010Prop30
280
     1
102
RTVSPost2010PropOp30
 70
     1
102
RTVSPost2010Prop31
280
     0
102
RTVSPost2010PropOp31
 70
     1
102
RTVSPost2010Prop32
280
     0
102
RTVSPost2010PropOp32
 70
     1
102
RTVSPost2010Prop33
280
     0
102
RTVSPost2010PropOp33
 70
     1
102
RTVSPost2010Prop34
280
     0
102
RTVSPost2010PropOp34
 70
     1
102
RTVSPost2010Prop35
280
     0
102
RTVSPost2010PropOp35
 70
     1
102
RTVSPost2010Prop36
280
     0
102
RTVSPost2010PropOp36
 70
     1
102
RTVSPost2010Prop37
 90
       50
102
RTVSPost2010PropOp37
 70
     1
102
RTVSPost2010Prop38
140
0.0
102
RTVSPost2010PropOp38
 70
     1
102
RTVSPost2010Prop39
140
1.0
102
RTVSPost2010PropOp39
 70
     1
102
RTVSPost2010Prop40
 90
        0
102
RTVSPost2010PropOp40
 70
     1
102
RTVSPost2010Prop41ColorIndex
 90
       18
102
RTVSPost2010Prop41ColorRGB
 90
        0
102
RTVSPost2010PropOp41
 70
     1
102
RTVSPost2010Prop42
 90
       50
102
RTVSPost2010PropOp42
 70
     1
102
RTVSPost2010Prop43
 90
        3
102
RTVSPost2010PropOp43
 70
     1
102
RTVSPost2010Prop44ColorIndex
 90
        5
102
RTVSPost2010Prop44ColorRGB
 90
      255
102
RTVSPost2010PropOp44
 70
     1
102
RTVSPost2010Prop45
280
     0
102
RTVSPost2010PropOp45
 70
     1
102
RTVSPost2010Prop46
 90
       50
102
RTVSPost2010PropOp46
 70
     1
102
RTVSPost2010Prop47
 90
       50
102
RTVSPost2010PropOp47
 70
     1
102
RTVSPost2010Prop48
 90
       50
102
RTVSPost2010PropOp48
 70
     1
102
RTVSPost2010Prop49
280
     0
102
RTVSPost2010PropOp49
 70
     1
102
RTVSPost2010Prop50
 90
       50
102
RTVSPost2010PropOp50
 70
     1
102
RTVSPost2010Prop51ColorIndex
 90
      256
102
RTVSPost2010Prop51ColorRGB
 90
-16777216
102
RTVSPost2010PropOp51
 70
     0
102
RTVSPost2010Prop52
140
1.0
102
RTVSPost2010PropOp52
 70
     0
102
RTVSPost2010Prop53
 90
        2
102
RTVSPost2010PropOp53
 70
     1
102
RTVSPost2010Prop54
  1
strokes_ogs.tif
102
RTVSPost2010PropOp54
 70
     1
102
RTVSPost2010Prop55
280
     0
102
RTVSPost2010PropOp55
 70
     1
102
RTVSPost2010Prop56
140
1.0
102
RTVSPost2010PropOp56
 70
     1
102
RTVSPost2010Prop57
140
1.0
102
RTVSPost2010PropOp57
 70
     1
102
RTVSPropertyOp0
 70
     1
102
RTVSPropertyOp1
 70
     1
102
RTVSPropertyOp2
 70
     1
102
RTVSPropertyOp3
 70
     1
102
RTVSPropertyOp4
 70
     1
102
RTVSPropertyOp5
 70
     1
102
RTVSPropertyOp6
 70
     1
102
RTVSPropertyOp7
 70
     1
102
RTVSPropertyOp8
 70
     1
102
RTVSPropertyOp9
 70
     1
102
RTVSPropertyOp10
 70
     1
102
RTVSPropertyOp11
 70
     1
102
RTVSPropertyOp12
 70
     1
102
RTVSPropertyOp13
 70
     1
102
RTVSPropertyOp14
 70
     1
102
RTVSPropertyOp15
 70
     1
102
RTVSPropertyOp16
 70
     1
102
RTVSPropertyOp17
 70
     1
102
RTVSPropertyOp18
 70
     1
102
RTVSPropertyOp19
 70
     1
102
RTVSPropertyOp20
 70
     1
102
RTVSPropertyOp21
 70
     1
102
RTVSPropertyOp22
 70
     1
102
RTVSPropertyOp23
 70
     1
102
RTVSPropertyOp24
 70
     1
102
RTVSPropertyOp25
 70
     1
102
RTVSPropertyOp26
 70
     1
102
RTVSPropertyOp27
 70
     1
102
RTVSPropertyOp28
 70
     1
102
RTVSPropertyOp29
 70
     1
102
RTVSPropertyOp30
 70
     1
102
RTVSPropertyOp31
 70
     1
102
RTVSPropertyOp32
 70
     1
102
RTVSPropertyOp33
 70
     1
102
RTVSPropertyOp34
 70
     1
102
RTVSPropertyOp35
 70
     1
102
RTVSPropertyOp36
 70
     1
102
RTVSPropertyOp37
 70
     1
102
RTVSPropertyOp38
 70
     1
102
RTVSPropertyOp39
 70
     1
102
RTVSPropertyOp40
 70
     1
102
RTVSPropertyOp41
 70
     1
102
RTVSPropertyOp42
 70
     1
102
RTVSPropertyOp43
 70
     1
102
RTVSPropertyOp44
 70
     1
102
RTVSPropertyOp45
 70
     1
102
RTVSPropertyOp46
 70
     1
102
RTVSPropertyOp47
 70
     1
102
RTVSPropertyOp48
 70
     1
102
RTVSPropertyOp49
 70
     1
102
RTVSPropertyOp50
 70
     1
102
RTVSPropertyOp51
 70
     0
102
RTVSPropertyOp52
 70
     0
102
RTVSPropertyOp53
 70
     1
102
RTVSPropertyOp54
 70
     1
102
RTVSPropertyOp55
 70
     1
102
RTVSPropertyOp56
 70
     1
102
RTVSPropertyOp57
 70
     1
102
RTVSPropertyOp58
 70
     1
102
RTVSPropertyOp59
 70
     1
102
RTVSPropertyOp60
 70
     1
102
RTVSPropertyOp61
 70
     1
102
RTVSPropertyOp62
 70
     1
  0
XRECORD
  5
476
102
{ACAD_REACTORS
330
475
102
}
330
475
100
AcDbXrecord
280
     1
102
RTVSPost2010Prop28
280
     0
102
RTVSPost2010PropOp28
 70
     1
102
RTVSPost2010Prop29
280
     1
102
RTVSPost2010PropOp29
 70
     1
102
RTVSPost2010Prop30
280
     1
102
RTVSPost2010PropOp30
 70
     1
102
RTVSPost2010Prop31
280
     0
102
RTVSPost2010PropOp31
 70
     1
102
RTVSPost2010Prop32
280
     0
102
RTVSPost2010PropOp32
 70
     1
102
RTVSPost2010Prop33
280
     0
102
RTVSPost2010PropOp33
 70
     1
102
RTVSPost2010Prop34
280
     0
102
RTVSPost2010PropOp34
 70
     1
102
RTVSPost2010Prop35
280
     0
102
RTVSPost2010PropOp35
 70
     1
102
RTVSPost2010Prop36
280
     0
102
RTVSPost2010PropOp36
 70
     1
102
RTVSPost2010Prop37
 90
       50
102
RTVSPost2010PropOp37
 70
     1
102
RTVSPost2010Prop38
140
0.0
102
RTVSPost2010PropOp38
 70
     1
102
RTVSPost2010Prop39
140
1.0
102
RTVSPost2010PropOp39
 70
     1
102
RTVSPost2010Prop40
 90
        0
102
RTVSPost2010PropOp40
 70
     1
102
RTVSPost2010Prop41ColorIndex
 90
       18
102
RTVSPost2010Prop41ColorRGB
 90
        0
102
RTVSPost2010PropOp41
 70
     1
102
RTVSPost2010Prop42
 90
       50
102
RTVSPost2010PropOp42
 70
     1
102
RTVSPost2010Prop43
 90
        3
102
RTVSPost2010PropOp43
 70
     1
102
RTVSPost2010Prop44ColorIndex
 90
        5
102
RTVSPost2010Prop44ColorRGB
 90
      255
102
RTVSPost2010PropOp44
 70
     1
102
RTVSPost2010Prop45
280
     0
102
RTVSPost2010PropOp45
 70
     1
102
RTVSPost2010Prop46
 90
       50
102
RTVSPost2010PropOp46
 70
     1
102
RTVSPost2010Prop47
 90
       50
102
RTVSPost2010PropOp47
 70
     1
102
RTVSPost2010Prop48
 90
       50
102
RTVSPost2010PropOp48
 70
     1
102
RTVSPost2010Prop49
280
     0
102
RTVSPost2010PropOp49
 70
     1
102
RTVSPost2010Prop50
 90
       50
102
RTVSPost2010PropOp50
 70
     1
102
RTVSPost2010Prop51ColorIndex
 90
      256
102
RTVSPost2010Prop51ColorRGB
 90
-16777216
102
RTVSPost2010PropOp51
 70
     0
102
RTVSPost2010Prop52
140
1.0
102
RTVSPost2010PropOp52
 70
     0
102
RTVSPost2010Prop53
 90
        2
102
RTVSPost2010PropOp53
 70
     1
102
RTVSPost2010Prop54
  1
strokes_ogs.tif
102
RTVSPost2010PropOp54
 70
     1
102
RTVSPost2010Prop55
280
     0
102
RTVSPost2010PropOp55
 70
     1
102
RTVSPost2010Prop56
140
1.0
102
RTVSPost2010PropOp56
 70
     1
102
RTVSPost2010Prop57
140
1.0
102
RTVSPost2010PropOp57
 70
     1
102
RTVSPropertyOp0
 70
     1
102
RTVSPropertyOp1
 70
     1
102
RTVSPropertyOp2
 70
     1
102
RTVSPropertyOp3
 70
     1
102
RTVSPropertyOp4
 70
     1
102
RTVSPropertyOp5
 70
     1
102
RTVSPropertyOp6
 70
     1
102
RTVSPropertyOp7
 70
     1
102
RTVSPropertyOp8
 70
     1
102
RTVSPropertyOp9
 70
     1
102
RTVSPropertyOp10
 70
     1
102
RTVSPropertyOp11
 70
     1
102
RTVSPropertyOp12
 70
     1
102
RTVSPropertyOp13
 70
     1
102
RTVSPropertyOp14
 70
     1
102
RTVSPropertyOp15
 70
     1
102
RTVSPropertyOp16
 70
     1
102
RTVSPropertyOp17
 70
     1
102
RTVSPropertyOp18
 70
     1
102
RTVSPropertyOp19
 70
     1
102
RTVSPropertyOp20
 70
     1
102
RTVSPropertyOp21
 70
     1
102
RTVSPropertyOp22
 70
     1
102
RTVSPropertyOp23
 70
     1
102
RTVSPropertyOp24
 70
     1
102
RTVSPropertyOp25
 70
     1
102
RTVSPropertyOp26
 70
     1
102
RTVSPropertyOp27
 70
     1
102
RTVSPropertyOp28
 70
     1
102
RTVSPropertyOp29
 70
     1
102
RTVSPropertyOp30
 70
     1
102
RTVSPropertyOp31
 70
     1
102
RTVSPropertyOp32
 70
     1
102
RTVSPropertyOp33
 70
     1
102
RTVSPropertyOp34
 70
     1
102
RTVSPropertyOp35
 70
     1
102
RTVSPropertyOp36
 70
     1
102
RTVSPropertyOp37
 70
     1
102
RTVSPropertyOp38
 70
     1
102
RTVSPropertyOp39
 70
     1
102
RTVSPropertyOp40
 70
     1
102
RTVSPropertyOp41
 70
     1
102
RTVSPropertyOp42
 70
     1
102
RTVSPropertyOp43
 70
     1
102
RTVSPropertyOp44
 70
     1
102
RTVSPropertyOp45
 70
     1
102
RTVSPropertyOp46
 70
     1
102
RTVSPropertyOp47
 70
     1
102
RTVSPropertyOp48
 70
     1
102
RTVSPropertyOp49
 70
     1
102
RTVSPropertyOp50
 70
     1
102
RTVSPropertyOp51
 70
     0
102
RTVSPropertyOp52
 70
     0
102
RTVSPropertyOp53
 70
     1
102
RTVSPropertyOp54
 70
     1
102
RTVSPropertyOp55
 70
     1
102
RTVSPropertyOp56
 70
     1
102
RTVSPropertyOp57
 70
     1
102
RTVSPropertyOp58
 70
     1
102
RTVSPropertyOp59
 70
     1
102
RTVSPropertyOp60
 70
     1
102
RTVSPropertyOp61
 70
     1
102
RTVSPropertyOp62
 70
     1
  0
XRECORD
  5
474
102
{ACAD_REACTORS
330
473
102
}
330
473
100
AcDbXrecord
280
     1
102
RTVSPost2010Prop28
280
     0
102
RTVSPost2010PropOp28
 70
     1
102
RTVSPost2010Prop29
280
     1
102
RTVSPost2010PropOp29
 70
     1
102
RTVSPost2010Prop30
280
     1
102
RTVSPost2010PropOp30
 70
     1
102
RTVSPost2010Prop31
280
     0
102
RTVSPost2010PropOp31
 70
     1
102
RTVSPost2010Prop32
280
     0
102
RTVSPost2010PropOp32
 70
     1
102
RTVSPost2010Prop33
280
     0
102
RTVSPost2010PropOp33
 70
     1
102
RTVSPost2010Prop34
280
     0
102
RTVSPost2010PropOp34
 70
     1
102
RTVSPost2010Prop35
280
     0
102
RTVSPost2010PropOp35
 70
     1
102
RTVSPost2010Prop36
280
     0
102
RTVSPost2010PropOp36
 70
     1
102
RTVSPost2010Prop37
 90
       50
102
RTVSPost2010PropOp37
 70
     1
102
RTVSPost2010Prop38
140
0.0
102
RTVSPost2010PropOp38
 70
     1
102
RTVSPost2010Prop39
140
1.0
102
RTVSPost2010PropOp39
 70
     1
102
RTVSPost2010Prop40
 90
        0
102
RTVSPost2010PropOp40
 70
     1
102
RTVSPost2010Prop41ColorIndex
 90
       18
102
RTVSPost2010Prop41ColorRGB
 90
        0
102
RTVSPost2010PropOp41
 70
     1
102
RTVSPost2010Prop42
 90
       50
102
RTVSPost2010PropOp42
 70
     1
102
RTVSPost2010Prop43
 90
        3
102
RTVSPost2010PropOp43
 70
     1
102
RTVSPost2010Prop44ColorIndex
 90
        5
102
RTVSPost2010Prop44ColorRGB
 90
      255
102
RTVSPost2010PropOp44
 70
     1
102
RTVSPost2010Prop45
280
     0
102
RTVSPost2010PropOp45
 70
     1
102
RTVSPost2010Prop46
 90
       50
102
RTVSPost2010PropOp46
 70
     1
102
RTVSPost2010Prop47
 90
       50
102
RTVSPost2010PropOp47
 70
     1
102
RTVSPost2010Prop48
 90
       50
102
RTVSPost2010PropOp48
 70
     1
102
RTVSPost2010Prop49
280
     0
102
RTVSPost2010PropOp49
 70
     1
102
RTVSPost2010Prop50
 90
       50
102
RTVSPost2010PropOp50
 70
     1
102
RTVSPost2010Prop51ColorIndex
 90
      256
102
RTVSPost2010Prop51ColorRGB
 90
-16777216
102
RTVSPost2010PropOp51
 70
     0
102
RTVSPost2010Prop52
140
1.0
102
RTVSPost2010PropOp52
 70
     0
102
RTVSPost2010Prop53
 90
        2
102
RTVSPost2010PropOp53
 70
     1
102
RTVSPost2010Prop54
  1
strokes_ogs.tif
102
RTVSPost2010PropOp54
 70
     1
102
RTVSPost2010Prop55
280
     0
102
RTVSPost2010PropOp55
 70
     1
102
RTVSPost2010Prop56
140
1.0
102
RTVSPost2010PropOp56
 70
     1
102
RTVSPost2010Prop57
140
1.0
102
RTVSPost2010PropOp57
 70
     1
102
RTVSPropertyOp0
 70
     1
102
RTVSPropertyOp1
 70
     1
102
RTVSPropertyOp2
 70
     1
102
RTVSPropertyOp3
 70
     1
102
RTVSPropertyOp4
 70
     1
102
RTVSPropertyOp5
 70
     1
102
RTVSPropertyOp6
 70
     1
102
RTVSPropertyOp7
 70
     1
102
RTVSPropertyOp8
 70
     1
102
RTVSPropertyOp9
 70
     1
102
RTVSPropertyOp10
 70
     1
102
RTVSPropertyOp11
 70
     1
102
RTVSPropertyOp12
 70
     1
102
RTVSPropertyOp13
 70
     1
102
RTVSPropertyOp14
 70
     1
102
RTVSPropertyOp15
 70
     1
102
RTVSPropertyOp16
 70
     1
102
RTVSPropertyOp17
 70
     1
102
RTVSPropertyOp18
 70
     1
102
RTVSPropertyOp19
 70
     1
102
RTVSPropertyOp20
 70
     1
102
RTVSPropertyOp21
 70
     1
102
RTVSPropertyOp22
 70
     1
102
RTVSPropertyOp23
 70
     1
102
RTVSPropertyOp24
 70
     1
102
RTVSPropertyOp25
 70
     1
102
RTVSPropertyOp26
 70
     1
102
RTVSPropertyOp27
 70
     1
102
RTVSPropertyOp28
 70
     1
102
RTVSPropertyOp29
 70
     1
102
RTVSPropertyOp30
 70
     1
102
RTVSPropertyOp31
 70
     1
102
RTVSPropertyOp32
 70
     1
102
RTVSPropertyOp33
 70
     1
102
RTVSPropertyOp34
 70
     1
102
RTVSPropertyOp35
 70
     1
102
RTVSPropertyOp36
 70
     1
102
RTVSPropertyOp37
 70
     1
102
RTVSPropertyOp38
 70
     1
102
RTVSPropertyOp39
 70
     1
102
RTVSPropertyOp40
 70
     1
102
RTVSPropertyOp41
 70
     1
102
RTVSPropertyOp42
 70
     1
102
RTVSPropertyOp43
 70
     1
102
RTVSPropertyOp44
 70
     1
102
RTVSPropertyOp45
 70
     1
102
RTVSPropertyOp46
 70
     1
102
RTVSPropertyOp47
 70
     1
102
RTVSPropertyOp48
 70
     1
102
RTVSPropertyOp49
 70
     1
102
RTVSPropertyOp50
 70
     1
102
RTVSPropertyOp51
 70
     0
102
RTVSPropertyOp52
 70
     0
102
RTVSPropertyOp53
 70
     1
102
RTVSPropertyOp54
 70
     1
102
RTVSPropertyOp55
 70
     1
102
RTVSPropertyOp56
 70
     1
102
RTVSPropertyOp57
 70
     1
102
RTVSPropertyOp58
 70
     1
102
RTVSPropertyOp59
 70
     1
102
RTVSPropertyOp60
 70
     1
102
RTVSPropertyOp61
 70
     1
102
RTVSPropertyOp62
 70
     1
  0
XRECORD
  5
46E
102
{ACAD_REACTORS
330
46D
102
}
330
46D
100
AcDbXrecord
280
     1
102
RTVSPost2010Prop28
280
     0
102
RTVSPost2010PropOp28
 70
     1
102
RTVSPost2010Prop29
280
     1
102
RTVSPost2010PropOp29
 70
     1
102
RTVSPost2010Prop30
280
     1
102
RTVSPost2010PropOp30
 70
     1
102
RTVSPost2010Prop31
280
     0
102
RTVSPost2010PropOp31
 70
     1
102
RTVSPost2010Prop32
280
     0
102
RTVSPost2010PropOp32
 70
     1
102
RTVSPost2010Prop33
280
     0
102
RTVSPost2010PropOp33
 70
     1
102
RTVSPost2010Prop34
280
     0
102
RTVSPost2010PropOp34
 70
     1
102
RTVSPost2010Prop35
280
     0
102
RTVSPost2010PropOp35
 70
     1
102
RTVSPost2010Prop36
280
     0
102
RTVSPost2010PropOp36
 70
     1
102
RTVSPost2010Prop37
 90
       50
102
RTVSPost2010PropOp37
 70
     1
102
RTVSPost2010Prop38
140
0.0
102
RTVSPost2010PropOp38
 70
     1
102
RTVSPost2010Prop39
140
1.0
102
RTVSPost2010PropOp39
 70
     1
102
RTVSPost2010Prop40
 90
        0
102
RTVSPost2010PropOp40
 70
     1
102
RTVSPost2010Prop41ColorIndex
 90
       18
102
RTVSPost2010Prop41ColorRGB
 90
        0
102
RTVSPost2010PropOp41
 70
     1
102
RTVSPost2010Prop42
 90
       50
102
RTVSPost2010PropOp42
 70
     1
102
RTVSPost2010Prop43
 90
        3
102
RTVSPost2010PropOp43
 70
     1
102
RTVSPost2010Prop44ColorIndex
 90
        5
102
RTVSPost2010Prop44ColorRGB
 90
      255
102
RTVSPost2010PropOp44
 70
     1
102
RTVSPost2010Prop45
280
     0
102
RTVSPost2010PropOp45
 70
     1
102
RTVSPost2010Prop46
 90
       50
102
RTVSPost2010PropOp46
 70
     1
102
RTVSPost2010Prop47
 90
       50
102
RTVSPost2010PropOp47
 70
     1
102
RTVSPost2010Prop48
 90
       50
102
RTVSPost2010PropOp48
 70
     1
102
RTVSPost2010Prop49
280
     0
102
RTVSPost2010PropOp49
 70
     1
102
RTVSPost2010Prop50
 90
       50
102
RTVSPost2010PropOp50
 70
     1
102
RTVSPost2010Prop51ColorIndex
 90
      256
102
RTVSPost2010Prop51ColorRGB
 90
-16777216
102
RTVSPost2010PropOp51
 70
     0
102
RTVSPost2010Prop52
140
1.0
102
RTVSPost2010PropOp52
 70
     0
102
RTVSPost2010Prop53
 90
        2
102
RTVSPost2010PropOp53
 70
     1
102
RTVSPost2010Prop54
  1
strokes_ogs.tif
102
RTVSPost2010PropOp54
 70
     1
102
RTVSPost2010Prop55
280
     0
102
RTVSPost2010PropOp55
 70
     1
102
RTVSPost2010Prop56
140
1.0
102
RTVSPost2010PropOp56
 70
     1
102
RTVSPost2010Prop57
140
1.0
102
RTVSPost2010PropOp57
 70
     1
102
RTVSPropertyOp0
 70
     1
102
RTVSPropertyOp1
 70
     1
102
RTVSPropertyOp2
 70
     1
102
RTVSPropertyOp3
 70
     1
102
RTVSPropertyOp4
 70
     1
102
RTVSPropertyOp5
 70
     1
102
RTVSPropertyOp6
 70
     1
102
RTVSPropertyOp7
 70
     1
102
RTVSPropertyOp8
 70
     1
102
RTVSPropertyOp9
 70
     1
102
RTVSPropertyOp10
 70
     1
102
RTVSPropertyOp11
 70
     1
102
RTVSPropertyOp12
 70
     1
102
RTVSPropertyOp13
 70
     1
102
RTVSPropertyOp14
 70
     1
102
RTVSPropertyOp15
 70
     1
102
RTVSPropertyOp16
 70
     1
102
RTVSPropertyOp17
 70
     1
102
RTVSPropertyOp18
 70
     1
102
RTVSPropertyOp19
 70
     1
102
RTVSPropertyOp20
 70
     1
102
RTVSPropertyOp21
 70
     1
102
RTVSPropertyOp22
 70
     1
102
RTVSPropertyOp23
 70
     1
102
RTVSPropertyOp24
 70
     1
102
RTVSPropertyOp25
 70
     1
102
RTVSPropertyOp26
 70
     1
102
RTVSPropertyOp27
 70
     1
102
RTVSPropertyOp28
 70
     1
102
RTVSPropertyOp29
 70
     1
102
RTVSPropertyOp30
 70
     1
102
RTVSPropertyOp31
 70
     1
102
RTVSPropertyOp32
 70
     1
102
RTVSPropertyOp33
 70
     1
102
RTVSPropertyOp34
 70
     1
102
RTVSPropertyOp35
 70
     1
102
RTVSPropertyOp36
 70
     1
102
RTVSPropertyOp37
 70
     1
102
RTVSPropertyOp38
 70
     1
102
RTVSPropertyOp39
 70
     1
102
RTVSPropertyOp40
 70
     1
102
RTVSPropertyOp41
 70
     1
102
RTVSPropertyOp42
 70
     1
102
RTVSPropertyOp43
 70
     1
102
RTVSPropertyOp44
 70
     1
102
RTVSPropertyOp45
 70
     1
102
RTVSPropertyOp46
 70
     1
102
RTVSPropertyOp47
 70
     1
102
RTVSPropertyOp48
 70
     1
102
RTVSPropertyOp49
 70
     1
102
RTVSPropertyOp50
 70
     1
102
RTVSPropertyOp51
 70
     0
102
RTVSPropertyOp52
 70
     0
102
RTVSPropertyOp53
 70
     1
102
RTVSPropertyOp54
 70
     1
102
RTVSPropertyOp55
 70
     1
102
RTVSPropertyOp56
 70
     1
102
RTVSPropertyOp57
 70
     1
102
RTVSPropertyOp58
 70
     1
102
RTVSPropertyOp59
 70
     1
102
RTVSPropertyOp60
 70
     1
102
RTVSPropertyOp61
 70
     1
102
RTVSPropertyOp62
 70
     1
  0
XRECORD
  5
470
102
{ACAD_REACTORS
330
46F
102
}
330
46F
100
AcDbXrecord
280
     1
102
RTVSPost2010Prop28
280
     0
102
RTVSPost2010PropOp28
 70
     1
102
RTVSPost2010Prop29
280
     1
102
RTVSPost2010PropOp29
 70
     1
102
RTVSPost2010Prop30
280
     1
102
RTVSPost2010PropOp30
 70
     1
102
RTVSPost2010Prop31
280
     0
102
RTVSPost2010PropOp31
 70
     1
102
RTVSPost2010Prop32
280
     0
102
RTVSPost2010PropOp32
 70
     1
102
RTVSPost2010Prop33
280
     0
102
RTVSPost2010PropOp33
 70
     1
102
RTVSPost2010Prop34
280
     0
102
RTVSPost2010PropOp34
 70
     1
102
RTVSPost2010Prop35
280
     0
102
RTVSPost2010PropOp35
 70
     1
102
RTVSPost2010Prop36
280
     0
102
RTVSPost2010PropOp36
 70
     1
102
RTVSPost2010Prop37
 90
       50
102
RTVSPost2010PropOp37
 70
     1
102
RTVSPost2010Prop38
140
0.0
102
RTVSPost2010PropOp38
 70
     1
102
RTVSPost2010Prop39
140
1.0
102
RTVSPost2010PropOp39
 70
     1
102
RTVSPost2010Prop40
 90
        0
102
RTVSPost2010PropOp40
 70
     1
102
RTVSPost2010Prop41ColorIndex
 90
       18
102
RTVSPost2010Prop41ColorRGB
 90
        0
102
RTVSPost2010PropOp41
 70
     1
102
RTVSPost2010Prop42
 90
       50
102
RTVSPost2010PropOp42
 70
     1
102
RTVSPost2010Prop43
 90
        3
102
RTVSPost2010PropOp43
 70
     1
102
RTVSPost2010Prop44ColorIndex
 90
        5
102
RTVSPost2010Prop44ColorRGB
 90
      255
102
RTVSPost2010PropOp44
 70
     1
102
RTVSPost2010Prop45
280
     0
102
RTVSPost2010PropOp45
 70
     1
102
RTVSPost2010Prop46
 90
       50
102
RTVSPost2010PropOp46
 70
     1
102
RTVSPost2010Prop47
 90
       50
102
RTVSPost2010PropOp47
 70
     1
102
RTVSPost2010Prop48
 90
       50
102
RTVSPost2010PropOp48
 70
     1
102
RTVSPost2010Prop49
280
     0
102
RTVSPost2010PropOp49
 70
     1
102
RTVSPost2010Prop50
 90
       50
102
RTVSPost2010PropOp50
 70
     1
102
RTVSPost2010Prop51ColorIndex
 90
      256
102
RTVSPost2010Prop51ColorRGB
 90
-16777216
102
RTVSPost2010PropOp51
 70
     0
102
RTVSPost2010Prop52
140
1.0
102
RTVSPost2010PropOp52
 70
     0
102
RTVSPost2010Prop53
 90
        2
102
RTVSPost2010PropOp53
 70
     1
102
RTVSPost2010Prop54
  1
strokes_ogs.tif
102
RTVSPost2010PropOp54
 70
     1
102
RTVSPost2010Prop55
280
     0
102
RTVSPost2010PropOp55
 70
     1
102
RTVSPost2010Prop56
140
1.0
102
RTVSPost2010PropOp56
 70
     1
102
RTVSPost2010Prop57
140
1.0
102
RTVSPost2010PropOp57
 70
     1
102
RTVSPropertyOp0
 70
     1
102
RTVSPropertyOp1
 70
     1
102
RTVSPropertyOp2
 70
     1
102
RTVSPropertyOp3
 70
     1
102
RTVSPropertyOp4
 70
     1
102
RTVSPropertyOp5
 70
     1
102
RTVSPropertyOp6
 70
     1
102
RTVSPropertyOp7
 70
     1
102
RTVSPropertyOp8
 70
     1
102
RTVSPropertyOp9
 70
     1
102
RTVSPropertyOp10
 70
     1
102
RTVSPropertyOp11
 70
     1
102
RTVSPropertyOp12
 70
     1
102
RTVSPropertyOp13
 70
     1
102
RTVSPropertyOp14
 70
     1
102
RTVSPropertyOp15
 70
     1
102
RTVSPropertyOp16
 70
     1
102
RTVSPropertyOp17
 70
     1
102
RTVSPropertyOp18
 70
     1
102
RTVSPropertyOp19
 70
     1
102
RTVSPropertyOp20
 70
     1
102
RTVSPropertyOp21
 70
     1
102
RTVSPropertyOp22
 70
     1
102
RTVSPropertyOp23
 70
     1
102
RTVSPropertyOp24
 70
     1
102
RTVSPropertyOp25
 70
     1
102
RTVSPropertyOp26
 70
     1
102
RTVSPropertyOp27
 70
     1
102
RTVSPropertyOp28
 70
     1
102
RTVSPropertyOp29
 70
     1
102
RTVSPropertyOp30
 70
     1
102
RTVSPropertyOp31
 70
     1
102
RTVSPropertyOp32
 70
     1
102
RTVSPropertyOp33
 70
     1
102
RTVSPropertyOp34
 70
     1
102
RTVSPropertyOp35
 70
     1
102
RTVSPropertyOp36
 70
     1
102
RTVSPropertyOp37
 70
     1
102
RTVSPropertyOp38
 70
     1
102
RTVSPropertyOp39
 70
     1
102
RTVSPropertyOp40
 70
     1
102
RTVSPropertyOp41
 70
     1
102
RTVSPropertyOp42
 70
     1
102
RTVSPropertyOp43
 70
     1
102
RTVSPropertyOp44
 70
     1
102
RTVSPropertyOp45
 70
     1
102
RTVSPropertyOp46
 70
     1
102
RTVSPropertyOp47
 70
     1
102
RTVSPropertyOp48
 70
     1
102
RTVSPropertyOp49
 70
     1
102
RTVSPropertyOp50
 70
     1
102
RTVSPropertyOp51
 70
     0
102
RTVSPropertyOp52
 70
     0
102
RTVSPropertyOp53
 70
     1
102
RTVSPropertyOp54
 70
     1
102
RTVSPropertyOp55
 70
     1
102
RTVSPropertyOp56
 70
     1
102
RTVSPropertyOp57
 70
     1
102
RTVSPropertyOp58
 70
     1
102
RTVSPropertyOp59
 70
     1
102
RTVSPropertyOp60
 70
     1
102
RTVSPropertyOp61
 70
     1
102
RTVSPropertyOp62
 70
     1
  0
XRECORD
  5
466
102
{ACAD_REACTORS
330
465
102
}
330
465
100
AcDbXrecord
280
     1
102
RTVSPost2010Prop28
280
     0
102
RTVSPost2010PropOp28
 70
     1
102
RTVSPost2010Prop29
280
     1
102
RTVSPost2010PropOp29
 70
     1
102
RTVSPost2010Prop30
280
     1
102
RTVSPost2010PropOp30
 70
     1
102
RTVSPost2010Prop31
280
     0
102
RTVSPost2010PropOp31
 70
     1
102
RTVSPost2010Prop32
280
     0
102
RTVSPost2010PropOp32
 70
     1
102
RTVSPost2010Prop33
280
     0
102
RTVSPost2010PropOp33
 70
     1
102
RTVSPost2010Prop34
280
     0
102
RTVSPost2010PropOp34
 70
     1
102
RTVSPost2010Prop35
280
     0
102
RTVSPost2010PropOp35
 70
     1
102
RTVSPost2010Prop36
280
     0
102
RTVSPost2010PropOp36
 70
     1
102
RTVSPost2010Prop37
 90
       50
102
RTVSPost2010PropOp37
 70
     1
102
RTVSPost2010Prop38
140
0.0
102
RTVSPost2010PropOp38
 70
     1
102
RTVSPost2010Prop39
140
1.0
102
RTVSPost2010PropOp39
 70
     1
102
RTVSPost2010Prop40
 90
        0
102
RTVSPost2010PropOp40
 70
     1
102
RTVSPost2010Prop41ColorIndex
 90
       18
102
RTVSPost2010Prop41ColorRGB
 90
        0
102
RTVSPost2010PropOp41
 70
     1
102
RTVSPost2010Prop42
 90
       50
102
RTVSPost2010PropOp42
 70
     1
102
RTVSPost2010Prop43
 90
        3
102
RTVSPost2010PropOp43
 70
     1
102
RTVSPost2010Prop44ColorIndex
 90
        5
102
RTVSPost2010Prop44ColorRGB
 90
      255
102
RTVSPost2010PropOp44
 70
     1
102
RTVSPost2010Prop45
280
     0
102
RTVSPost2010PropOp45
 70
     1
102
RTVSPost2010Prop46
 90
       50
102
RTVSPost2010PropOp46
 70
     1
102
RTVSPost2010Prop47
 90
       50
102
RTVSPost2010PropOp47
 70
     1
102
RTVSPost2010Prop48
 90
       50
102
RTVSPost2010PropOp48
 70
     1
102
RTVSPost2010Prop49
280
     0
102
RTVSPost2010PropOp49
 70
     1
102
RTVSPost2010Prop50
 90
       50
102
RTVSPost2010PropOp50
 70
     1
102
RTVSPost2010Prop51ColorIndex
 90
      256
102
RTVSPost2010Prop51ColorRGB
 90
-16777216
102
RTVSPost2010PropOp51
 70
     0
102
RTVSPost2010Prop52
140
1.0
102
RTVSPost2010PropOp52
 70
     0
102
RTVSPost2010Prop53
 90
        2
102
RTVSPost2010PropOp53
 70
     1
102
RTVSPost2010Prop54
  1
strokes_ogs.tif
102
RTVSPost2010PropOp54
 70
     1
102
RTVSPost2010Prop55
280
     0
102
RTVSPost2010PropOp55
 70
     1
102
RTVSPost2010Prop56
140
1.0
102
RTVSPost2010PropOp56
 70
     1
102
RTVSPost2010Prop57
140
1.0
102
RTVSPost2010PropOp57
 70
     1
102
RTVSPropertyOp0
 70
     1
102
RTVSPropertyOp1
 70
     1
102
RTVSPropertyOp2
 70
     1
102
RTVSPropertyOp3
 70
     1
102
RTVSPropertyOp4
 70
     1
102
RTVSPropertyOp5
 70
     1
102
RTVSPropertyOp6
 70
     1
102
RTVSPropertyOp7
 70
     1
102
RTVSPropertyOp8
 70
     1
102
RTVSPropertyOp9
 70
     1
102
RTVSPropertyOp10
 70
     1
102
RTVSPropertyOp11
 70
     1
102
RTVSPropertyOp12
 70
     1
102
RTVSPropertyOp13
 70
     1
102
RTVSPropertyOp14
 70
     1
102
RTVSPropertyOp15
 70
     1
102
RTVSPropertyOp16
 70
     1
102
RTVSPropertyOp17
 70
     1
102
RTVSPropertyOp18
 70
     1
102
RTVSPropertyOp19
 70
     1
102
RTVSPropertyOp20
 70
     1
102
RTVSPropertyOp21
 70
     1
102
RTVSPropertyOp22
 70
     1
102
RTVSPropertyOp23
 70
     1
102
RTVSPropertyOp24
 70
     1
102
RTVSPropertyOp25
 70
     1
102
RTVSPropertyOp26
 70
     1
102
RTVSPropertyOp27
 70
     1
102
RTVSPropertyOp28
 70
     1
102
RTVSPropertyOp29
 70
     1
102
RTVSPropertyOp30
 70
     1
102
RTVSPropertyOp31
 70
     1
102
RTVSPropertyOp32
 70
     1
102
RTVSPropertyOp33
 70
     1
102
RTVSPropertyOp34
 70
     1
102
RTVSPropertyOp35
 70
     1
102
RTVSPropertyOp36
 70
     1
102
RTVSPropertyOp37
 70
     1
102
RTVSPropertyOp38
 70
     1
102
RTVSPropertyOp39
 70
     1
102
RTVSPropertyOp40
 70
     1
102
RTVSPropertyOp41
 70
     1
102
RTVSPropertyOp42
 70
     1
102
RTVSPropertyOp43
 70
     1
102
RTVSPropertyOp44
 70
     1
102
RTVSPropertyOp45
 70
     1
102
RTVSPropertyOp46
 70
     1
102
RTVSPropertyOp47
 70
     1
102
RTVSPropertyOp48
 70
     1
102
RTVSPropertyOp49
 70
     1
102
RTVSPropertyOp50
 70
     1
102
RTVSPropertyOp51
 70
     0
102
RTVSPropertyOp52
 70
     0
102
RTVSPropertyOp53
 70
     1
102
RTVSPropertyOp54
 70
     1
102
RTVSPropertyOp55
 70
     1
102
RTVSPropertyOp56
 70
     1
102
RTVSPropertyOp57
 70
     1
102
RTVSPropertyOp58
 70
     1
102
RTVSPropertyOp59
 70
     1
102
RTVSPropertyOp60
 70
     1
102
RTVSPropertyOp61
 70
     1
102
RTVSPropertyOp62
 70
     1
  0
XRECORD
  5
45A
102
{ACAD_REACTORS
330
459
102
}
330
459
100
AcDbXrecord
280
     1
102
RTVSPost2010Prop28
280
     0
102
RTVSPost2010PropOp28
 70
     1
102
RTVSPost2010Prop29
280
     1
102
RTVSPost2010PropOp29
 70
     1
102
RTVSPost2010Prop30
280
     1
102
RTVSPost2010PropOp30
 70
     1
102
RTVSPost2010Prop31
280
     0
102
RTVSPost2010PropOp31
 70
     1
102
RTVSPost2010Prop32
280
     0
102
RTVSPost2010PropOp32
 70
     1
102
RTVSPost2010Prop33
280
     0
102
RTVSPost2010PropOp33
 70
     1
102
RTVSPost2010Prop34
280
     0
102
RTVSPost2010PropOp34
 70
     1
102
RTVSPost2010Prop35
280
     0
102
RTVSPost2010PropOp35
 70
     1
102
RTVSPost2010Prop36
280
     0
102
RTVSPost2010PropOp36
 70
     1
102
RTVSPost2010Prop37
 90
       50
102
RTVSPost2010PropOp37
 70
     1
102
RTVSPost2010Prop38
140
0.0
102
RTVSPost2010PropOp38
 70
     1
102
RTVSPost2010Prop39
140
1.0
102
RTVSPost2010PropOp39
 70
     1
102
RTVSPost2010Prop40
 90
        0
102
RTVSPost2010PropOp40
 70
     1
102
RTVSPost2010Prop41ColorIndex
 90
       18
102
RTVSPost2010Prop41ColorRGB
 90
        0
102
RTVSPost2010PropOp41
 70
     1
102
RTVSPost2010Prop42
 90
       50
102
RTVSPost2010PropOp42
 70
     1
102
RTVSPost2010Prop43
 90
        3
102
RTVSPost2010PropOp43
 70
     1
102
RTVSPost2010Prop44ColorIndex
 90
        5
102
RTVSPost2010Prop44ColorRGB
 90
      255
102
RTVSPost2010PropOp44
 70
     1
102
RTVSPost2010Prop45
280
     0
102
RTVSPost2010PropOp45
 70
     1
102
RTVSPost2010Prop46
 90
       50
102
RTVSPost2010PropOp46
 70
     1
102
RTVSPost2010Prop47
 90
       50
102
RTVSPost2010PropOp47
 70
     1
102
RTVSPost2010Prop48
 90
       50
102
RTVSPost2010PropOp48
 70
     1
102
RTVSPost2010Prop49
280
     0
102
RTVSPost2010PropOp49
 70
     1
102
RTVSPost2010Prop50
 90
       50
102
RTVSPost2010PropOp50
 70
     1
102
RTVSPost2010Prop51ColorIndex
 90
      256
102
RTVSPost2010Prop51ColorRGB
 90
-16777216
102
RTVSPost2010PropOp51
 70
     0
102
RTVSPost2010Prop52
140
1.0
102
RTVSPost2010PropOp52
 70
     0
102
RTVSPost2010Prop53
 90
        2
102
RTVSPost2010PropOp53
 70
     1
102
RTVSPost2010Prop54
  1
strokes_ogs.tif
102
RTVSPost2010PropOp54
 70
     1
102
RTVSPost2010Prop55
280
     0
102
RTVSPost2010PropOp55
 70
     1
102
RTVSPost2010Prop56
140
1.0
102
RTVSPost2010PropOp56
 70
     1
102
RTVSPost2010Prop57
140
1.0
102
RTVSPost2010PropOp57
 70
     1
102
RTVSPropertyOp0
 70
     1
102
RTVSPropertyOp1
 70
     1
102
RTVSPropertyOp2
 70
     1
102
RTVSPropertyOp3
 70
     1
102
RTVSPropertyOp4
 70
     1
102
RTVSPropertyOp5
 70
     1
102
RTVSPropertyOp6
 70
     1
102
RTVSPropertyOp7
 70
     1
102
RTVSPropertyOp8
 70
     1
102
RTVSPropertyOp9
 70
     1
102
RTVSPropertyOp10
 70
     1
102
RTVSPropertyOp11
 70
     1
102
RTVSPropertyOp12
 70
     1
102
RTVSPropertyOp13
 70
     1
102
RTVSPropertyOp14
 70
     1
102
RTVSPropertyOp15
 70
     1
102
RTVSPropertyOp16
 70
     1
102
RTVSPropertyOp17
 70
     1
102
RTVSPropertyOp18
 70
     1
102
RTVSPropertyOp19
 70
     1
102
RTVSPropertyOp20
 70
     1
102
RTVSPropertyOp21
 70
     1
102
RTVSPropertyOp22
 70
     1
102
RTVSPropertyOp23
 70
     1
102
RTVSPropertyOp24
 70
     1
102
RTVSPropertyOp25
 70
     1
102
RTVSPropertyOp26
 70
     1
102
RTVSPropertyOp27
 70
     1
102
RTVSPropertyOp28
 70
     1
102
RTVSPropertyOp29
 70
     1
102
RTVSPropertyOp30
 70
     1
102
RTVSPropertyOp31
 70
     1
102
RTVSPropertyOp32
 70
     1
102
RTVSPropertyOp33
 70
     1
102
RTVSPropertyOp34
 70
     1
102
RTVSPropertyOp35
 70
     1
102
RTVSPropertyOp36
 70
     1
102
RTVSPropertyOp37
 70
     1
102
RTVSPropertyOp38
 70
     1
102
RTVSPropertyOp39
 70
     1
102
RTVSPropertyOp40
 70
     1
102
RTVSPropertyOp41
 70
     1
102
RTVSPropertyOp42
 70
     1
102
RTVSPropertyOp43
 70
     1
102
RTVSPropertyOp44
 70
     1
102
RTVSPropertyOp45
 70
     1
102
RTVSPropertyOp46
 70
     1
102
RTVSPropertyOp47
 70
     1
102
RTVSPropertyOp48
 70
     1
102
RTVSPropertyOp49
 70
     1
102
RTVSPropertyOp50
 70
     1
102
RTVSPropertyOp51
 70
     0
102
RTVSPropertyOp52
 70
     0
102
RTVSPropertyOp53
 70
     1
102
RTVSPropertyOp54
 70
     1
102
RTVSPropertyOp55
 70
     1
102
RTVSPropertyOp56
 70
     1
102
RTVSPropertyOp57
 70
     1
102
RTVSPropertyOp58
 70
     1
102
RTVSPropertyOp59
 70
     1
102
RTVSPropertyOp60
 70
     1
102
RTVSPropertyOp61
 70
     1
102
RTVSPropertyOp62
 70
     1
  0
XRECORD
  5
472
102
{ACAD_REACTORS
330
471
102
}
330
471
100
AcDbXrecord
280
     1
102
RTVSPost2010Prop28
280
     0
102
RTVSPost2010PropOp28
 70
     1
102
RTVSPost2010Prop29
280
     1
102
RTVSPost2010PropOp29
 70
     1
102
RTVSPost2010Prop30
280
     1
102
RTVSPost2010PropOp30
 70
     1
102
RTVSPost2010Prop31
280
     0
102
RTVSPost2010PropOp31
 70
     1
102
RTVSPost2010Prop32
280
     0
102
RTVSPost2010PropOp32
 70
     1
102
RTVSPost2010Prop33
280
     0
102
RTVSPost2010PropOp33
 70
     1
102
RTVSPost2010Prop34
280
     0
102
RTVSPost2010PropOp34
 70
     1
102
RTVSPost2010Prop35
280
     0
102
RTVSPost2010PropOp35
 70
     1
102
RTVSPost2010Prop36
280
     0
102
RTVSPost2010PropOp36
 70
     1
102
RTVSPost2010Prop37
 90
       50
102
RTVSPost2010PropOp37
 70
     1
102
RTVSPost2010Prop38
140
0.0
102
RTVSPost2010PropOp38
 70
     1
102
RTVSPost2010Prop39
140
1.0
102
RTVSPost2010PropOp39
 70
     1
102
RTVSPost2010Prop40
 90
        0
102
RTVSPost2010PropOp40
 70
     1
102
RTVSPost2010Prop41ColorIndex
 90
       18
102
RTVSPost2010Prop41ColorRGB
 90
        0
102
RTVSPost2010PropOp41
 70
     1
102
RTVSPost2010Prop42
 90
       50
102
RTVSPost2010PropOp42
 70
     1
102
RTVSPost2010Prop43
 90
        3
102
RTVSPost2010PropOp43
 70
     1
102
RTVSPost2010Prop44ColorIndex
 90
        5
102
RTVSPost2010Prop44ColorRGB
 90
      255
102
RTVSPost2010PropOp44
 70
     1
102
RTVSPost2010Prop45
280
     0
102
RTVSPost2010PropOp45
 70
     1
102
RTVSPost2010Prop46
 90
       50
102
RTVSPost2010PropOp46
 70
     1
102
RTVSPost2010Prop47
 90
       50
102
RTVSPost2010PropOp47
 70
     1
102
RTVSPost2010Prop48
 90
       50
102
RTVSPost2010PropOp48
 70
     1
102
RTVSPost2010Prop49
280
     0
102
RTVSPost2010PropOp49
 70
     1
102
RTVSPost2010Prop50
 90
       50
102
RTVSPost2010PropOp50
 70
     1
102
RTVSPost2010Prop51ColorIndex
 90
      256
102
RTVSPost2010Prop51ColorRGB
 90
-16777216
102
RTVSPost2010PropOp51
 70
     0
102
RTVSPost2010Prop52
140
1.0
102
RTVSPost2010PropOp52
 70
     0
102
RTVSPost2010Prop53
 90
        2
102
RTVSPost2010PropOp53
 70
     1
102
RTVSPost2010Prop54
  1
strokes_ogs.tif
102
RTVSPost2010PropOp54
 70
     1
102
RTVSPost2010Prop55
280
     0
102
RTVSPost2010PropOp55
 70
     1
102
RTVSPost2010Prop56
140
1.0
102
RTVSPost2010PropOp56
 70
     1
102
RTVSPost2010Prop57
140
1.0
102
RTVSPost2010PropOp57
 70
     1
102
RTVSPropertyOp0
 70
     1
102
RTVSPropertyOp1
 70
     1
102
RTVSPropertyOp2
 70
     1
102
RTVSPropertyOp3
 70
     1
102
RTVSPropertyOp4
 70
     1
102
RTVSPropertyOp5
 70
     1
102
RTVSPropertyOp6
 70
     1
102
RTVSPropertyOp7
 70
     1
102
RTVSPropertyOp8
 70
     1
102
RTVSPropertyOp9
 70
     1
102
RTVSPropertyOp10
 70
     1
102
RTVSPropertyOp11
 70
     1
102
RTVSPropertyOp12
 70
     1
102
RTVSPropertyOp13
 70
     1
102
RTVSPropertyOp14
 70
     1
102
RTVSPropertyOp15
 70
     1
102
RTVSPropertyOp16
 70
     1
102
RTVSPropertyOp17
 70
     1
102
RTVSPropertyOp18
 70
     1
102
RTVSPropertyOp19
 70
     1
102
RTVSPropertyOp20
 70
     1
102
RTVSPropertyOp21
 70
     1
102
RTVSPropertyOp22
 70
     1
102
RTVSPropertyOp23
 70
     1
102
RTVSPropertyOp24
 70
     1
102
RTVSPropertyOp25
 70
     1
102
RTVSPropertyOp26
 70
     1
102
RTVSPropertyOp27
 70
     1
102
RTVSPropertyOp28
 70
     1
102
RTVSPropertyOp29
 70
     1
102
RTVSPropertyOp30
 70
     1
102
RTVSPropertyOp31
 70
     1
102
RTVSPropertyOp32
 70
     1
102
RTVSPropertyOp33
 70
     1
102
RTVSPropertyOp34
 70
     1
102
RTVSPropertyOp35
 70
     1
102
RTVSPropertyOp36
 70
     1
102
RTVSPropertyOp37
 70
     1
102
RTVSPropertyOp38
 70
     1
102
RTVSPropertyOp39
 70
     1
102
RTVSPropertyOp40
 70
     1
102
RTVSPropertyOp41
 70
     1
102
RTVSPropertyOp42
 70
     1
102
RTVSPropertyOp43
 70
     1
102
RTVSPropertyOp44
 70
     1
102
RTVSPropertyOp45
 70
     1
102
RTVSPropertyOp46
 70
     1
102
RTVSPropertyOp47
 70
     1
102
RTVSPropertyOp48
 70
     1
102
RTVSPropertyOp49
 70
     1
102
RTVSPropertyOp50
 70
     1
102
RTVSPropertyOp51
 70
     0
102
RTVSPropertyOp52
 70
     0
102
RTVSPropertyOp53
 70
     1
102
RTVSPropertyOp54
 70
     1
102
RTVSPropertyOp55
 70
     1
102
RTVSPropertyOp56
 70
     1
102
RTVSPropertyOp57
 70
     1
102
RTVSPropertyOp58
 70
     1
102
RTVSPropertyOp59
 70
     1
102
RTVSPropertyOp60
 70
     1
102
RTVSPropertyOp61
 70
     1
102
RTVSPropertyOp62
 70
     1
  0
ENDSEC
  0
EOF
