  0
SECTION
  2
HEADER
  9
$ACADVER
  1
AC1018
  9
$ACADMAINTVER
 70
    77
  9
$DWGCODEPAGE
  3
ANSI_1252
  9
$INSBASE
 10
0.0
 20
0.0
 30
0.0
  9
$EXTMIN
 10
37.5
 20
17.52562403154803
 30
0.0
  9
$EXTMAX
 10
1647.266349070831
 20
974.9218538497334
 30
0.0
  9
$LIMMIN
 10
0.0
 20
0.0
  9
$LIMMAX
 10
566.4069975479701
 20
669.6985897720049
  9
$ORTHOMODE
 70
     1
  9
$REGENMODE
 70
     1
  9
$FILLMODE
 70
     1
  9
$QTEXTMODE
 70
     0
  9
$MIRRTEXT
 70
     0
  9
$LTSCALE
 40
1.0
  9
$ATTMODE
 70
     1
  9
$TEXTSIZE
 40
3.5
  9
$TRACEWID
 40
0.05
  9
$TEXTSTYLE
  7
ARIAL-STANDARD
  9
$CLAYER
  8
UMRISS07
  9
$CELTYPE
  6
BYLAYER
  9
$CECOLOR
 62
   256
  9
$CELTSCALE
 40
1.0
  9
$DISPSILH
 70
     0
  9
$DIMSCALE
 40
1.9
  9
$DIMASZ
 40
2.799999999999999
  9
$DIMEXO
 40
1.0
  9
$DIMDLI
 40
0.0
  9
$DIMRND
 40
0.0
  9
$DIMDLE
 40
0.0
  9
$DIMEXE
 40
1.0
  9
$DIMTP
 40
0.0
  9
$DIMTM
 40
0.0
  9
$DIMTXT
 40
3.399999999999999
  9
$DIMCEN
 40
1.5
  9
$DIMTSZ
 40
0.0
  9
$DIMTOL
 70
     0
  9
$DIMLIM
 70
     0
  9
$DIMTIH
 70
     0
  9
$DIMTOH
 70
     0
  9
$DIMSE1
 70
     0
  9
$DIMSE2
 70
     0
  9
$DIMTAD
 70
     1
  9
$DIMZIN
 70
     8
  9
$DIMBLK
  1

  9
$DIMASO
 70
     1
  9
$DIMSHO
 70
     1
  9
$DIMPOST
  1

  9
$DIMAPOST
  1

  9
$DIMALT
 70
     0
  9
$DIMALTD
 70
     2
  9
$DIMALTF
 40
25.4
  9
$DIMLFAC
 40
1.0
  9
$DIMTOFL
 70
     1
  9
$DIMTVP
 40
0.0
  9
$DIMTIX
 70
     1
  9
$DIMSOXD
 70
     0
  9
$DIMSAH
 70
     0
  9
$DIMBLK1
  1

  9
$DIMBLK2
  1

  9
$DIMSTYLE
  2
WMF
  9
$DIMCLRD
 70
   256
  9
$DIMCLRE
 70
   256
  9
$DIMCLRT
 70
   256
  9
$DIMTFAC
 40
0.5
  9
$DIMGAP
 40
1.0
  9
$DIMJUST
 70
     0
  9
$DIMSD1
 70
     0
  9
$DIMSD2
 70
     0
  9
$DIMTOLJ
 70
     1
  9
$DIMTZIN
 70
     8
  9
$DIMALTZ
 70
     8
  9
$DIMALTTZ
 70
     8
  9
$DIMUPT
 70
     0
  9
$DIMDEC
 70
     2
  9
$DIMTDEC
 70
     2
  9
$DIMALTU
 70
     2
  9
$DIMALTTD
 70
     2
  9
$DIMTXSTY
  7
WMF
  9
$DIMAUNIT
 70
     0
  9
$DIMADEC
 70
     0
  9
$DIMALTRND
 40
0.0
  9
$DIMAZIN
 70
     0
  9
$DIMDSEP
 70
    46
  9
$DIMATFIT
 70
     3
  9
$DIMFRAC
 70
     0
  9
$DIMLDRBLK
  1

  9
$DIMLUNIT
 70
     2
  9
$DIMLWD
 70
    -2
  9
$DIMLWE
 70
    -2
  9
$DIMTMOVE
 70
     2
  9
$LUNITS
 70
     2
  9
$LUPREC
 70
     4
  9
$SKETCHINC
 40
0.1
  9
$FILLETRAD
 40
0.0
  9
$AUNITS
 70
     0
  9
$AUPREC
 70
     0
  9
$MENU
  1
.
  9
$ELEVATION
 40
0.0
  9
$PELEVATION
 40
0.0
  9
$THICKNESS
 40
0.0
  9
$LIMCHECK
 70
     0
  9
$CHAMFERA
 40
0.0
  9
$CHAMFERB
 40
0.0
  9
$CHAMFERC
 40
1.0
  9
$CHAMFERD
 40
0.0
  9
$SKPOLY
 70
     0
  9
$TDCREATE
 40
2451554.405552790
  9
$TDUCREATE
 40
2451554.363886123
  9
$TDUPDATE
 40
2454036.449897813
  9
$TDUUPDATE
 40
2454036.408231146
  9
$TDINDWG
 40
0.8656815046
  9
$TDUSRTIMER
 40
0.8656815046
  9
$USRTIMER
 70
     1
  9
$ANGBASE
 50
0.0
  9
$ANGDIR
 70
     0
  9
$PDMODE
 70
     0
  9
$PDSIZE
 40
0.0
  9
$PLINEWID
 40
0.0
  9
$SPLFRAME
 70
     0
  9
$SPLINETYPE
 70
     6
  9
$SPLINESEGS
 70
     8
  9
$HANDSEED
  5
311
  9
$SURFTAB1
 70
     6
  9
$SURFTAB2
 70
     6
  9
$SURFTYPE
 70
     6
  9
$SURFU
 70
     6
  9
$SURFV
 70
     6
  9
$UCSBASE
  2

  9
$UCSNAME
  2

  9
$UCSORG
 10
0.0
 20
0.0
 30
0.0
  9
$UCSXDIR
 10
1.0
 20
0.0
 30
0.0
  9
$UCSYDIR
 10
0.0
 20
1.0
 30
0.0
  9
$UCSORTHOREF
  2

  9
$UCSORTHOVIEW
 70
     0
  9
$UCSORGTOP
 10
0.0
 20
0.0
 30
0.0
  9
$UCSORGBOTTOM
 10
0.0
 20
0.0
 30
0.0
  9
$UCSORGLEFT
 10
0.0
 20
0.0
 30
0.0
  9
$UCSORGRIGHT
 10
0.0
 20
0.0
 30
0.0
  9
$UCSORGFRONT
 10
0.0
 20
0.0
 30
0.0
  9
$UCSORGBACK
 10
0.0
 20
0.0
 30
0.0
  9
$PUCSBASE
  2

  9
$PUCSNAME
  2

  9
$PUCSORG
 10
0.0
 20
0.0
 30
0.0
  9
$PUCSXDIR
 10
1.0
 20
0.0
 30
0.0
  9
$PUCSYDIR
 10
0.0
 20
1.0
 30
0.0
  9
$PUCSORTHOREF
  2

  9
$PUCSORTHOVIEW
 70
     0
  9
$PUCSORGTOP
 10
0.0
 20
0.0
 30
0.0
  9
$PUCSORGBOTTOM
 10
0.0
 20
0.0
 30
0.0
  9
$PUCSORGLEFT
 10
0.0
 20
0.0
 30
0.0
  9
$PUCSORGRIGHT
 10
0.0
 20
0.0
 30
0.0
  9
$PUCSORGFRONT
 10
0.0
 20
0.0
 30
0.0
  9
$PUCSORGBACK
 10
0.0
 20
0.0
 30
0.0
  9
$USERI1
 70
     0
  9
$USERI2
 70
     0
  9
$USERI3
 70
     0
  9
$USERI4
 70
     0
  9
$USERI5
 70
     0
  9
$USERR1
 40
0.0
  9
$USERR2
 40
0.0
  9
$USERR3
 40
0.0
  9
$USERR4
 40
0.0
  9
$USERR5
 40
0.0
  9
$WORLDVIEW
 70
     1
  9
$SHADEDGE
 70
     3
  9
$SHADEDIF
 70
    70
  9
$TILEMODE
 70
     1
  9
$MAXACTVP
 70
    48
  9
$PINSBASE
 10
0.0
 20
0.0
 30
0.0
  9
$PLIMCHECK
 70
     0
  9
$PEXTMIN
 10
1.000000000000000E+20
 20
1.000000000000000E+20
 30
1.000000000000000E+20
  9
$PEXTMAX
 10
-1.000000000000000E+20
 20
-1.000000000000000E+20
 30
-1.000000000000000E+20
  9
$PLIMMIN
 10
0.0
 20
0.0
  9
$PLIMMAX
 10
12.0
 20
9.0
  9
$UNITMODE
 70
     0
  9
$VISRETAIN
 70
     1
  9
$PLINEGEN
 70
     0
  9
$PSLTSCALE
 70
     1
  9
$TREEDEPTH
 70
  3020
  9
$CMLSTYLE
  2
STANDARD
  9
$CMLJUST
 70
     0
  9
$CMLSCALE
 40
1.0
  9
$PROXYGRAPHICS
 70
     1
  9
$MEASUREMENT
 70
     1
  9
$CELWEIGHT
370
    -1
  9
$ENDCAPS
280
     0
  9
$JOINSTYLE
280
     0
  9
$LWDISPLAY
290
     0
  9
$INSUNITS
 70
     0
  9
$HYPERLINKBASE
  1

  9
$STYLESHEET
  1

  9
$XEDIT
290
     1
  9
$CEPSNTYPE
380
     0
  9
$PSTYLEMODE
290
     1
  9
$FINGERPRINTGUID
  2
{C192DBE3-89A5-42B1-95C4-1DDE6C6F0B11}
  9
$VERSIONGUID
  2
{5C638643-8086-438D-9871-D4565CDFE660}
  9
$EXTNAMES
290
     1
  9
$PSVPSCALE
 40
0.0
  9
$OLESTARTUP
290
     0
  9
$SORTENTS
280
   127
  9
$INDEXCTL
280
     0
  9
$HIDETEXT
280
     1
  9
$XCLIPFRAME
290
     0
  9
$HALOGAP
280
     0
  9
$OBSCOLOR
 70
   257
  9
$OBSLTYPE
280
     0
  9
$INTERSECTIONDISPLAY
280
     0
  9
$INTERSECTIONCOLOR
 70
   257
  9
$DIMASSOC
280
     1
  9
$PROJECTNAME
  1

  0
ENDSEC
  0
SECTION
  2
CLASSES
  0
CLASS
  1
ACDBDICTIONARYWDFLT
  2
AcDbDictionaryWithDefault
  3
ObjectDBX Classes
 90
        0
 91
        1
280
     0
281
     0
  0
CLASS
  1
ACME_DOCUMENT
  2
AcMeDbDoc
  3
AcMeServices
 90
        0
 91
        0
280
     0
281
     0
  0
CLASS
  1
AMGSETTINGSOBJ
  2
AmgSettingsObj
  3
"AcadM|Product Description: AutoCAD Mechanical 2000|Company: Autodesk"
 90
        0
 91
        2
280
     0
281
     0
  0
CLASS
  1
ACMESCOPE
  2
AcMeScope
  3
AcMeServices
 90
        0
 91
        1
280
     0
281
     0
  0
CLASS
  1
ACMECOMMANDHISTORY
  2
AcMeCommandHistory
  3
AcMeServices
 90
        0
 91
        0
280
     0
281
     0
  0
CLASS
  1
ACIMSYSVARMAN
  2
AcImSysVarManager
  3
AcMeServices
 90
        0
 91
        3
280
     0
281
     0
  0
CLASS
  1
ACIMREALSYSVAR
  2
AcImRealSysVar
  3
AcMeServices
 90
        0
 91
        1
280
     0
281
     0
  0
CLASS
  1
ACIMINTSYSVAR
  2
AcImIntSysVar
  3
AcMeServices
 90
        0
 91
       25
280
     0
281
     0
  0
CLASS
  1
ACMEDRAWINGMAN
  2
AcMeDrawingMan
  3
AcMeServices
 90
        0
 91
        0
280
     0
281
     0
  0
CLASS
  1
ACMEVIEW
  2
AcMeView
  3
AcMeServices
 90
        0
 91
        0
280
     0
281
     0
  0
CLASS
  1
ACDBENTITYCACHE
  2
AcMeEntityCache
  3
AcMeServices
 90
        0
 91
        0
280
     0
281
     0
  0
CLASS
  1
GSMANAGER
  2
AcMeGSManager
  3
AcMeServices
 90
        0
 91
        0
280
     0
281
     0
  0
CLASS
  1
AMDTINTERNALREACTOR
  2
AmdtInternalReactor
  3
AcMeServices
 90
        0
 91
        1
280
     0
281
     0
  0
CLASS
  1
ACMESTATEMGR
  2
AcMeStateMgr
  3
AcMeServices
 90
        0
 91
        1
280
     0
281
     0
  0
CLASS
  1
ACGREFMASTER
  2
AcGrefMaster
  3
AcAttribServices
 90
        0
 91
        1
280
     0
281
     0
  0
CLASS
  1
ACME_DATABASE
  2
AcMeDbDatabase
  3
AcMeServices
 90
        0
 91
        0
280
     0
281
     0
  0
CLASS
  1
ACRFINSADJUSTERMGR
  2
AcRfInsAdjusterMgr
  3
AcMeServices
 90
        0
 91
        0
280
     0
281
     0
  0
CLASS
  1
ACGREFACADMASTER
  2
AcGrefacadMaster
  3
AcGrefServices
 90
        0
 91
        0
280
     0
281
     0
  0
CLASS
  1
AMIMASTER
  2
AmiMaster
  3
AmiServices
 90
        0
 91
        0
280
     0
281
     0
  0
CLASS
  1
ACMDATADICTIONARY
  2
AcmDataDictionary
  3
"AcmSymBB|Product Description: AutoCAD Mechanical 2004 DX|Company: Autodesk"
 90
        0
 91
        0
280
     0
281
     0
  0
CLASS
  1
ACMDATAENTRYBLOCK
  2
AcmDataEntryBlock
  3
"AcmSymBB|Product Description: AutoCAD Mechanical 2004 DX|Company: Autodesk"
 90
        0
 91
        0
280
     0
281
     0
  0
CLASS
  1
ACIMSTRSYSVAR
  2
AcImStrSysVar
  3
AcMeServices
 90
        0
 91
        1
280
     0
281
     0
  0
CLASS
  1
ACMSTANDARDDIN
  2
AcmStandardDIN
  3
"Amdt_StdImp|Product Description: AutoCAD Mechanical 2004 DX|Company: Autodesk"
 90
        0
 91
        1
280
     0
281
     0
  0
CLASS
  1
AMGOBJPROPCFG
  2
AmgObjPropCfg
  3
"AmgLay|Product Description: AutoCAD Mechanical 2000|Company: Autodesk"
 90
        1
 91
        1
280
     0
281
     0
  0
CLASS
  1
AMDTEDGESTANDARDDIN
  2
AmdtEdgeStdDIN
  3
"Amdt_StdImp|Product Description: AutoCAD Mechanical 2004 DX|Company: Autodesk"
 90
        0
 91
        1
280
     0
281
     0
  0
CLASS
  1
ACMSURFSTANDARDDIN
  2
AcmSurfTextStdDIN
  3
"Amdt_StdImp|Product Description: AutoCAD Mechanical 2004 DX|Company: Autodesk"
 90
        0
 91
        1
280
     0
281
     0
  0
CLASS
  1
ACMFCFSTANDARDDIN
  2
AcmFCFStdDIN
  3
"Amdt_StdImp|Product Description: AutoCAD Mechanical 2004 DX|Company: Autodesk"
 90
        0
 91
        1
280
     0
281
     0
  0
CLASS
  1
ACMWELDSTANDARDDIN
  2
AcmWeldingStdDIN
  3
"Amdt_StdImp|Product Description: AutoCAD Mechanical 2004 DX|Company: Autodesk"
 90
        0
 91
        1
280
     0
281
     0
  0
CLASS
  1
ACMIDSTANDARDDIN
  2
AcmIdStdDIN
  3
"Amdt_StdImp|Product Description: AutoCAD Mechanical 2004 DX|Company: Autodesk"
 90
        0
 91
        1
280
     0
281
     0
  0
CLASS
  1
ACMDATUMSTANDARDDIN
  2
AcmDatumStdDIN
  3
"Amdt_StdImp|Product Description: AutoCAD Mechanical 2004 DX|Company: Autodesk"
 90
        0
 91
        1
280
     0
281
     0
  0
CLASS
  1
ACMBOMSTANDARDDIN
  2
AcmBOMStdDIN
  3
"Amdt_StdImp|Product Description: AutoCAD Mechanical 2004 DX|Company: Autodesk"
 90
        0
 91
        1
280
     0
281
     0
  0
CLASS
  1
ACMDETAILSTANDARDDIN
  2
AmdtDetailSymStdDIN
  3
"Amdt_StdImp|Product Description: AutoCAD Mechanical 2004 DX|Company: Autodesk"
 90
        0
 91
        1
280
     0
281
     0
  0
CLASS
  1
ACMSECTIONSTANDARDDIN
  2
AmdtSectionSymStdDIN
  3
"Amdt_StdImp|Product Description: AutoCAD Mechanical 2004 DX|Company: Autodesk"
 90
        0
 91
        1
280
     0
281
     0
  0
CLASS
  1
ACMCENTERLINESTANDARDDIN
  2
AmdtCenterLineStdDIN
  3
"Amdt_StdImp|Product Description: AutoCAD Mechanical 2004 DX|Company: Autodesk"
 90
        0
 91
        1
280
     0
281
     0
  0
CLASS
  1
ACMNOTESTANDARDDIN
  2
AmdtNoteStdDIN
  3
"Amdt_StdImp|Product Description: AutoCAD Mechanical 2004 DX|Company: Autodesk"
 90
        0
 91
        1
280
     0
281
     0
  0
CLASS
  1
ACAMGLAYSTD
  2
AcAmgLayStd
  3
"AcAmgLayStd|Product Description: AutoCAD Mechanical 2000|Company: Autodesk"
 90
        0
 91
        1
280
     0
281
     0
  0
CLASS
  1
ACAMGDIMSTD
  2
AcAmgDimStd
  3
"AcAmgDimStd|Product Description: AutoCAD Mechanical 2000|Company: Autodesk"
 90
        0
 91
        1
280
     0
281
     0
  0
CLASS
  1
ACAMGHOLECHARTSTDDIN
  2
AcAmgHoleChartStdDIN
  3
ACMSYMBB_MODULE_NAME
 90
        0
 91
        1
280
     0
281
     0
  0
CLASS
  1
ACAMGTITLESTD
  2
AcAmgTitleStd
  3
"TITLEAPP"
 90
        0
 91
        1
280
     0
281
     0
  0
CLASS
  1
ACAMGFILTERDAT
  2
AcAmgFilterDat
  3
"AcadM|Product Description: AutoCAD Mechanical 2000|Company: Autodesk"
 90
        0
 91
        0
280
     0
281
     0
  0
CLASS
  1
LAYER_INDEX
  2
AcDbLayerIndex
  3
ObjectDBX Classes
 90
        0
 91
        0
280
     0
281
     0
  0
CLASS
  1
IDBUFFER
  2
AcDbIdBuffer
  3
ObjectDBX Classes
 90
        0
 91
        0
280
     0
281
     0
  0
CLASS
  1
DICTIONARYVAR
  2
AcDbDictionaryVar
  3
ObjectDBX Classes
 90
        0
 91
        1
280
     0
281
     0
  0
CLASS
  1
ACMDIMBREAKPERSREACTOR
  2
AcmDimBreakPersReactor
  3
amgDimApp().moduleName()
 90
     1023
 91
        0
280
     0
281
     0
  0
CLASS
  1
AMDTNOTE
  2
AmdtNote
  3
"AcmSymBB|Product Description: AutoCAD Mechanical 2004 DX|Company: Autodesk"
 90
     1023
 91
        0
280
     0
281
     1
  0
CLASS
  1
AMDTFORMULAUPDATEDISPATCHER
  2
AmdtFormulaUpdateDispatcher
  3
AcMeServices
 90
        0
 91
        0
280
     0
281
     0
  0
CLASS
  1
PLOTSETTINGS
  2
AcDbPlotSettings
  3
ObjectDBX Classes
 90
        0
 91
        0
280
     0
281
     0
  0
CLASS
  1
TABLESTYLE
  2
AcDbTableStyle
  3
ObjectDBX Classes
 90
     2047
 91
        1
280
     0
281
     0
  0
CLASS
  1
AM_DRAWING_MGR
  2
AcDmDwgMgr
  3
AcMechDwgViewMgmt
 90
        0
 91
        1
280
     0
281
     0
  0
CLASS
  1
AM_DWG_DOCUMENT
  2
AcDmDwgDocument
  3
AcMechDwgViewMgmt
 90
        0
 91
        1
280
     0
281
     0
  0
CLASS
  1
AM_DWG_SHEET
  2
AcDmSheet
  3
AcMechDwgViewMgmt
 90
        0
 91
        1
280
     0
281
     0
  0
CLASS
  1
AM_VIEWDIMPARMAP
  2
AcDmViewDimParMap
  3
AcMechDwgViewMgmt
 90
        0
 91
        1
280
     0
281
     0
  0
CLASS
  1
AM_DWGMGR_NAME
  2
AcDmDwgMgrName
  3
AcMechDwgViewMgmt
 90
        0
 91
        1
280
     0
281
     0
  0
CLASS
  1
AMDTMENUSTATEMGR
  2
AmdtMenuStateMgr
  3
McadcomServices
 90
        0
 91
        0
280
     0
281
     0
  0
CLASS
  1
AMDTMCOMMENUSTATE
  2
AmdtMcomMenuState
  3
McadcomServices
 90
        0
 91
        0
280
     0
281
     0
  0
CLASS
  1
MAPIAMMOUDLE
  2
MApiAmModule
  3
MApiAmServices
 90
        0
 91
        0
280
     0
281
     0
  0
CLASS
  1
AMDTADMENUSTATE
  2
AmdtAdMenuState
  3
DesignerServices
 90
        0
 91
        0
280
     0
281
     0
  0
CLASS
  1
ADAPPL
  2
AcAdAppl
  3
DesignerServices
 90
        0
 91
        1
280
     0
281
     0
  0
CLASS
  1
DEPMGR
  2
AcAdDepMgr
  3
DesignerServices
 90
        0
 91
        1
280
     0
281
     0
  0
CLASS
  1
PARAMMGR
  2
AcAdParamMgr
  3
DesignerServices
 90
        0
 91
        1
280
     0
281
     0
  0
CLASS
  1
PARAMSCOPE
  2
AcAdParamScope
  3
DesignerServices
 90
        0
 91
        1
280
     0
281
     0
  0
CLASS
  1
NAMEDAPPL
  2
AcAdNamedAppl
  3
DesignerServices
 90
        0
 91
        1
280
     0
281
     0
  0
CLASS
  1
AMDTDMMENUSTATE
  2
AmdtDmMenuState
  3
AcMechDwgViewMgmt
 90
        0
 91
        0
280
     0
281
     0
  0
CLASS
  1
AMDTAMMENUSTATE
  2
AmdtAmMenuState
  3
DesignerAssemblies
 90
        0
 91
        0
280
     0
281
     0
  0
CLASS
  1
ACAMPROJECT
  2
AcAmProject
  3
DesignerAssemblies
 90
        0
 91
        0
280
     0
281
     0
  0
CLASS
  1
ACAMGRCOMPDEF
  2
AcAmGrCompDef
  3
DesignerAssemblies
 90
        0
 91
        0
280
     0
281
     0
  0
CLASS
  1
ACCMCONTEXT
  2
AcCmContext
  3
DesignerAssemblies
 90
        0
 91
        0
280
     0
281
     0
  0
CLASS
  1
ACAMCOMPDEF
  2
AcAmCompDef
  3
DesignerAssemblies
 90
        0
 91
        0
280
     0
281
     0
  0
CLASS
  1
ACAMCOMPDEFMGR
  2
AcAmCompDefMgr
  3
DesignerAssemblies
 90
        0
 91
        0
280
     0
281
     0
  0
CLASS
  1
AMCONTEXTMGR
  2
AcAmContextMgr
  3
DesignerAssemblies
 90
        0
 91
        0
280
     0
281
     0
  0
CLASS
  1
ACAMCONTEXTMODELER
  2
AcAmContextModeler
  3
DesignerAssemblies
 90
        0
 91
        0
280
     0
281
     0
  0
CLASS
  1
ACRFATTGENMGR
  2
AcRfAttGeneralMgr
  3
AcAttribServices
 90
        0
 91
        0
280
     0
281
     0
  0
CLASS
  1
ACRFOBJATTMGR
  2
AcRfObjAttGroupMgr
  3
AcAttribServices
 90
        0
 91
        0
280
     0
281
     0
  0
CLASS
  1
ACRFMCADAPIATTHOLDER
  2
AcRfMCADAPIAttHolder
  3
AcAttribServices
 90
        0
 91
        0
280
     0
281
     0
  0
CLASS
  1
AMDTSYSATTR
  2
AmdtSystemAttribute
  3
AcAttribServices
 90
        0
 91
        0
280
     0
281
     0
  0
CLASS
  1
ACMTHREADLINESTANDARDDIN
  2
AmdtThreadLineStdDIN
  3
"Amdt_StdImp|Product Description: AutoCAD Mechanical 2004 DX|Company: Autodesk"
 90
        0
 91
        1
280
     0
281
     0
  0
CLASS
  1
CATALOGSTATE
  2
AcAmCatalogState
  3
DesignerAssemblies
 90
        0
 91
        0
280
     0
281
     0
  0
CLASS
  1
ACAMGRCOMPDEFSET
  2
AcAmGrCompDefSet
  3
DesignerAssemblies
 90
        0
 91
        0
280
     0
281
     0
  0
CLASS
  1
AMDTBROWSERDBTAB
  2
AmdtBrowserDbTab
  3
McadcomServices
 90
        0
 91
        0
280
     0
281
     0
  0
CLASS
  1
CBROWSERAPPOBJECT
  2
CBrowserAppObject
  3
McadcomServices
 90
        0
 91
        0
280
     0
281
     0
  0
CLASS
  1
DM_PLACEHOLDER
  2
AcDmSelsetPlaceholder
  3
AcMechDwgViewMgmt
 90
        0
 91
        0
280
     0
281
     0
  0
ENDSEC
  0
SECTION
  2
TABLES
  0
TABLE
  2
VPORT
  5
1B
330
0
100
AcDbSymbolTable
 70
     1
  0
VPORT
  5
1C
330
1B
100
AcDbSymbolTableRecord
100
AcDbViewportTableRecord
  2
*Active
 70
     0
 10
0.0
 20
0.0
 11
1.0
 21
1.0
 12
796.8548569769882
 22
279.4649119194513
 13
0.0
 23
0.0
 14
10.0
 24
10.0
 15
10.0
 25
10.0
 16
0.0
 26
0.0
 36
1.0
 17
0.0
 27
0.0
 37
0.0
 40
721.0897185152241
 41
1.571127502634351
 42
50.0
 43
0.0
 44
0.0
 50
0.0
 51
0.0
 71
     0
 72
  5000
 73
     1
 74
     0
 75
     0
 76
     0
 77
     0
 78
     0
281
     0
 65
     1
110
0.0
120
0.0
130
0.0
111
1.0
121
0.0
131
0.0
112
0.0
122
1.0
132
0.0
 79
     0
146
0.0
  0
ENDTAB
  0
TABLE
  2
LTYPE
  5
16
330
0
100
AcDbSymbolTable
 70
    15
  0
LTYPE
  5
17
330
16
100
AcDbSymbolTableRecord
100
AcDbLinetypeTableRecord
  2
BYBLOCK
 70
     0
  3

 72
    65
 73
     0
 40
0.0
  0
LTYPE
  5
18
330
16
100
AcDbSymbolTableRecord
100
AcDbLinetypeTableRecord
  2
BYLAYER
 70
     0
  3

 72
    65
 73
     0
 40
0.0
  0
LTYPE
  5
9
330
16
100
AcDbSymbolTableRecord
100
AcDbLinetypeTableRecord
  2
CONTINUOUS
 70
     0
  3
Solid line
 72
    65
 73
     0
 40
0.0
  0
LTYPE
  5
5F
330
16
100
AcDbSymbolTableRecord
100
AcDbLinetypeTableRecord
  2
STRICHPUNKT2
 70
     0
  3
Strichpunkt (.5x) _._._._._._._._._._._._._._._
 72
    65
 73
     4
 40
12.7
 49
6.349999999999999
 74
     0
 49
-3.174999999999999
 74
     0
 49
0.0
 74
     0
 49
-3.174999999999999
 74
     0
  0
LTYPE
  5
2C2
330
16
100
AcDbSymbolTableRecord
100
AcDbLinetypeTableRecord
  2
AM_ISO02W050
 70
     0
  3
__ __ __ __ __ __ __ __ __ __ __ __ __ __ __
 72
    65
 73
     2
 40
7.5
 49
6.0
 74
     0
 49
-1.5
 74
     0
  0
LTYPE
  5
2D4
330
16
100
AcDbSymbolTableRecord
100
AcDbLinetypeTableRecord
  2
ACDINWELD
 70
     0
  3
_ _ _ _ _
 72
    65
 73
     2
 40
2.0
 49
2.0
 74
     0
 49
-1.0
 74
     0
  0
LTYPE
  5
2D7
330
16
100
AcDbSymbolTableRecord
100
AcDbLinetypeTableRecord
  2
ACDINTGB
 70
     0
  3
__ . . __ . .
 72
    65
 73
     6
 40
9.0
 49
4.0
 74
     0
 49
-1.0
 74
     0
 49
1.0
 74
     0
 49
-1.0
 74
     0
 49
1.0
 74
     0
 49
-1.0
 74
     0
  0
LTYPE
  5
2D8
330
16
100
AcDbSymbolTableRecord
100
AcDbLinetypeTableRecord
  2
ACDINTGL
 70
     0
  3
_ _ _ _ _
 72
    65
 73
     2
 40
3.0
 49
2.0
 74
     0
 49
-1.0
 74
     0
  0
LTYPE
  5
2DC
330
16
100
AcDbSymbolTableRecord
100
AcDbLinetypeTableRecord
  2
CENTER
 70
     0
  3
__ . __
 72
    65
 73
     4
 40
7.0
 49
4.0
 74
     0
 49
-1.0
 74
     0
 49
1.0
 74
     0
 49
-1.0
 74
     0
  0
LTYPE
  5
2BD
330
16
100
AcDbSymbolTableRecord
100
AcDbLinetypeTableRecord
  2
gen3
 70
     0
  3
-- -- -- -- -- -- -- -- -- -- -- -- -- -- --
 72
    65
 73
     2
 40
6.25
 49
4.75
 74
     0
 49
-1.5
 74
     0
  0
LTYPE
  5
2BE
330
16
100
AcDbSymbolTableRecord
100
AcDbLinetypeTableRecord
  2
gen7
 70
     0
  3
____ . ____ . ____ . ____ . ____ . ____ . ____
 72
    65
 73
     4
 40
13.75
 49
9.75
 74
     0
 49
-1.5
 74
     0
 49
1.0
 74
     0
 49
-1.5
 74
     0
  0
LTYPE
  5
2BF
330
16
100
AcDbSymbolTableRecord
100
AcDbLinetypeTableRecord
  2
gen3a
 70
     0
  3
 - - - - -
 72
    65
 73
     2
 40
3.125
 49
2.25
 74
     0
 49
-0.875
 74
     0
  0
LTYPE
  5
2C0
330
16
100
AcDbSymbolTableRecord
100
AcDbLinetypeTableRecord
  2
gen7a
 70
     0
  3
__ . __ . __
 72
    65
 73
     4
 40
6.875
 49
4.75
 74
     0
 49
-0.875
 74
     0
 49
0.375
 74
     0
 49
-0.875
 74
     0
  0
LTYPE
  5
2C1
330
16
100
AcDbSymbolTableRecord
100
AcDbLinetypeTableRecord
  2
gen4a
 70
     0
  3
_____ . . _____ . . _____ . . ____ .. ____
 72
    65
 73
     6
 40
16.25
 49
9.75
 74
     0
 49
-1.5
 74
     0
 49
1.0
 74
     0
 49
-1.5
 74
     0
 49
1.0
 74
     0
 49
-1.5
 74
     0
  0
LTYPE
  5
2C3
330
16
100
AcDbSymbolTableRecord
100
AcDbLinetypeTableRecord
  2
genzigzag
 70
     0
  3
/\/-/\/-/\/-/\/-/\/-/\/
 72
    65
 73
     2
 40
12.0001
 49
0.0001
 74
     4
 75
   135
340
2C4
 46
2.0
 50
0.0
 44
0.0
 45
0.0
 49
-12.0
 74
     0
  0
LTYPE
  5
30A
330
16
100
AcDbSymbolTableRecord
100
AcDbLinetypeTableRecord
  2
HIDDEN
 70
     0
  3
Verdeckt
 72
    65
 73
     2
 40
9.525
 49
6.349999999999999
 74
     0
 49
-3.174999999999999
 74
     0
  0
LTYPE
  5
30B
330
16
100
AcDbSymbolTableRecord
100
AcDbLinetypeTableRecord
  2
PHANTOM2
 70
     0
  3
Phantom (.5x) ___ _ _ ___ _ _ ___ _ _ ___ _ _
 72
    65
 73
     6
 40
31.75
 49
15.875
 74
     0
 49
-3.174999999999999
 74
     0
 49
3.174999999999999
 74
     0
 49
-3.174999999999999
 74
     0
 49
3.174999999999999
 74
     0
 49
-3.174999999999999
 74
     0
  0
ENDTAB
  0
TABLE
  2
LAYER
  5
12
330
0
100
AcDbSymbolTable
 70
     8
  0
LAYER
  5
5
330
12
100
AcDbSymbolTableRecord
100
AcDbLayerTableRecord
  2
0
 70
     0
 62
     7
  6
CONTINUOUS
370
    -3
390
6
  0
LAYER
  5
E1
330
12
100
AcDbSymbolTableRecord
100
AcDbLayerTableRecord
  2
UMRISS03
 70
     0
 62
     3
  6
CONTINUOUS
370
    -3
390
6
  0
LAYER
  5
5C
330
12
100
AcDbSymbolTableRecord
100
AcDbLayerTableRecord
  2
UMRISS05
 70
     0
 62
     4
  6
CONTINUOUS
370
    -3
390
6
  0
LAYER
  5
2D
330
12
100
AcDbSymbolTableRecord
100
AcDbLayerTableRecord
  2
UMRISS07
 70
     0
 62
     6
  6
CONTINUOUS
370
    -3
390
6
  0
LAYER
  5
31
330
12
100
AcDbSymbolTableRecord
100
AcDbLayerTableRecord
  2
BEMASSUNG
 70
     0
 62
     2
  6
CONTINUOUS
370
    -3
390
6
  0
LAYER
  5
5E
330
12
100
AcDbSymbolTableRecord
100
AcDbLayerTableRecord
  2
ACHSEN
 70
     0
 62
     1
  6
STRICHPUNKT2
370
    -3
390
6
  0
LAYER
  5
3B
330
12
100
AcDbSymbolTableRecord
100
AcDbLayerTableRecord
  2
DEFPOINTS
 70
     0
 62
     7
  6
CONTINUOUS
290
     0
370
    -3
390
6
  0
LAYER
  5
100
330
12
100
AcDbSymbolTableRecord
100
AcDbLayerTableRecord
  2
1855
 70
     0
 62
     4
  6
CONTINUOUS
370
    -3
390
6
  0
ENDTAB
  0
TABLE
  2
STYLE
  5
13
330
0
100
AcDbSymbolTable
 70
     7
  0
STYLE
  5
14
330
13
100
AcDbSymbolTableRecord
100
AcDbTextStyleTableRecord
  2
STANDARD
 70
     0
 40
0.0
 41
1.0
 50
0.0
 71
     0
 42
10.0
  3
txt
  4

  0
STYLE
  5
25
330
13
100
AcDbSymbolTableRecord
100
AcDbTextStyleTableRecord
  2
ARIAL-STANDARD
 70
     0
 40
0.0
 41
1.0
 50
0.0
 71
     0
 42
3.5
  3
ARIAL.TTF
  4

1001
ACAD
1000
Arial
1071
       34
  0
STYLE
  5
21
330
13
100
AcDbSymbolTableRecord
100
AcDbTextStyleTableRecord
  2
NORM
 70
     0
 40
0.0
 41
1.0
 50
0.0
 71
     0
 42
2.399999999999999
  3
SIMPLEX
  4

  0
STYLE
  5
23
330
13
100
AcDbSymbolTableRecord
100
AcDbTextStyleTableRecord
  2
WMF
 70
     0
 40
0.0
 41
1.0
 50
0.0
 71
     0
 42
6.5
  3
ARIAL.TTF
  4

1001
ACAD
1000
Arial
1071
       34
  0
STYLE
  5
2CE
330
13
100
AcDbSymbolTableRecord
100
AcDbTextStyleTableRecord
  2
ACDINTS
 70
     0
 40
1.0
 41
1.0
 50
0.0
 71
     0
 42
3.5
  3
isocp.shx
  4

  0
STYLE
  5
2D2
330
13
100
AcDbSymbolTableRecord
100
AcDbTextStyleTableRecord
  2
ACDINGDT
 70
     0
 40
0.0
 41
1.0
 50
0.0
 71
     0
 42
3.5
  3
amgdt.shx
  4

  0
STYLE
  5
2C4
330
13
100
AcDbSymbolTableRecord
100
AcDbTextStyleTableRecord
  2

 70
     1
 40
0.0
 41
1.0
 50
0.0
 71
     0
 42
3.5
  3
genltshp.shx
  4

  0
ENDTAB
  0
TABLE
  2
VIEW
  5
19
330
0
100
AcDbSymbolTable
 70
     0
  0
ENDTAB
  0
TABLE
  2
UCS
  5
1A
330
0
100
AcDbSymbolTable
 70
     0
  0
ENDTAB
  0
TABLE
  2
APPID
  5
1D
330
0
100
AcDbSymbolTable
 70
     2
  0
APPID
  5
1E
330
1D
100
AcDbSymbolTableRecord
100
AcDbRegAppTableRecord
  2
ACAD
 70
     0
  0
APPID
  5
D
330
1D
100
AcDbSymbolTableRecord
100
AcDbRegAppTableRecord
  2
ACAD_PSEXT
 70
     0
  0
ENDTAB
  0
TABLE
  2
DIMSTYLE
  5
1F
330
0
100
AcDbSymbolTable
 70
     3
100
AcDbDimStyleTable
 71
     3
340
20
340
22
340
24
  0
DIMSTYLE
105
24
330
1F
100
AcDbSymbolTableRecord
100
AcDbDimStyleTableRecord
  2
NORMAL
 70
     0
 41
3.5
 42
0.0
 43
8.0
 44
0.5
 73
     0
 74
     0
 77
     1
 78
     8
140
3.5
141
1.5
146
0.5
147
1.0
172
     1
174
     1
176
   256
177
   256
178
     3
271
     2
272
     2
279
     2
284
     8
340
25
  0
DIMSTYLE
105
22
330
1F
100
AcDbSymbolTableRecord
100
AcDbDimStyleTableRecord
  2
WMF
 70
     0
 40
1.9
 41
2.799999999999999
 42
1.0
 43
0.0
 44
1.0
 73
     0
 74
     0
 77
     1
 78
     8
140
3.399999999999999
141
1.5
146
0.5
147
1.0
172
     1
174
     1
176
   256
177
   256
178
   256
271
     2
272
     2
279
     2
284
     8
285
     8
286
     8
340
23
  0
DIMSTYLE
105
20
102
{ACAD_REACTORS
330
236
330
243
330
196
330
11D
330
250
330
260
330
284
330
227
330
26E
330
214
330
188
330
C0
330
29B
330
9A
330
1FD
330
AD
330
1C6
330
15C
330
1A3
330
1B2
330
16D
330
64
330
76
330
EB
330
12E
330
13B
330
148
330
108
330
86
330
2AC
330
4C
330
30
330
3F
102
}
330
1F
100
AcDbSymbolTableRecord
100
AcDbDimStyleTableRecord
  2
PROSPEKT
 70
     0
 40
1.6
 41
3.5
 42
0.5
 43
0.0
 44
0.5
 73
     0
 74
     0
 77
     1
 78
     8
140
3.5
141
1.5
147
1.0
172
     1
174
     1
176
   256
177
   256
178
     3
271
     2
272
     2
279
     2
284
     8
340
21
  0
ENDTAB
  0
TABLE
  2
BLOCK_RECORD
  5
1
330
0
100
AcDbSymbolTable
 70
    33
  0
BLOCK_RECORD
  5
2
102
{ACAD_XDICTIONARY
360
3
102
}
330
1
100
AcDbSymbolTableRecord
100
AcDbBlockTableRecord
  2
*MODEL_SPACE
340
B
  0
BLOCK_RECORD
  5
E
330
1
100
AcDbSymbolTableRecord
100
AcDbBlockTableRecord
  2
*PAPER_SPACE
340
11
  0
BLOCK_RECORD
  5
237
330
1
100
AcDbSymbolTableRecord
100
AcDbBlockTableRecord
  2
*D0
340
0
  0
BLOCK_RECORD
  5
244
330
1
100
AcDbSymbolTableRecord
100
AcDbBlockTableRecord
  2
*D1
340
0
  0
BLOCK_RECORD
  5
197
330
1
100
AcDbSymbolTableRecord
100
AcDbBlockTableRecord
  2
*D2
340
0
  0
BLOCK_RECORD
  5
11E
330
1
100
AcDbSymbolTableRecord
100
AcDbBlockTableRecord
  2
*D3
340
0
  0
BLOCK_RECORD
  5
251
330
1
100
AcDbSymbolTableRecord
100
AcDbBlockTableRecord
  2
*D4
340
0
  0
BLOCK_RECORD
  5
261
330
1
100
AcDbSymbolTableRecord
100
AcDbBlockTableRecord
  2
*D5
340
0
  0
BLOCK_RECORD
  5
285
330
1
100
AcDbSymbolTableRecord
100
AcDbBlockTableRecord
  2
*D6
340
0
  0
BLOCK_RECORD
  5
228
330
1
100
AcDbSymbolTableRecord
100
AcDbBlockTableRecord
  2
*D7
340
0
  0
BLOCK_RECORD
  5
26F
330
1
100
AcDbSymbolTableRecord
100
AcDbBlockTableRecord
  2
*D8
340
0
  0
BLOCK_RECORD
  5
215
330
1
100
AcDbSymbolTableRecord
100
AcDbBlockTableRecord
  2
*D9
340
0
  0
BLOCK_RECORD
  5
189
330
1
100
AcDbSymbolTableRecord
100
AcDbBlockTableRecord
  2
*D10
340
0
  0
BLOCK_RECORD
  5
C1
330
1
100
AcDbSymbolTableRecord
100
AcDbBlockTableRecord
  2
*D11
340
0
  0
BLOCK_RECORD
  5
29C
330
1
100
AcDbSymbolTableRecord
100
AcDbBlockTableRecord
  2
*D12
340
0
  0
BLOCK_RECORD
  5
9B
330
1
100
AcDbSymbolTableRecord
100
AcDbBlockTableRecord
  2
*D13
340
0
  0
BLOCK_RECORD
  5
1FE
330
1
100
AcDbSymbolTableRecord
100
AcDbBlockTableRecord
  2
*D14
340
0
  0
BLOCK_RECORD
  5
AE
330
1
100
AcDbSymbolTableRecord
100
AcDbBlockTableRecord
  2
*D15
340
0
  0
BLOCK_RECORD
  5
1C7
330
1
100
AcDbSymbolTableRecord
100
AcDbBlockTableRecord
  2
*D16
340
0
  0
BLOCK_RECORD
  5
15D
330
1
100
AcDbSymbolTableRecord
100
AcDbBlockTableRecord
  2
*D17
340
0
  0
BLOCK_RECORD
  5
1A4
330
1
100
AcDbSymbolTableRecord
100
AcDbBlockTableRecord
  2
*D18
340
0
  0
BLOCK_RECORD
  5
1B3
330
1
100
AcDbSymbolTableRecord
100
AcDbBlockTableRecord
  2
*D19
340
0
  0
BLOCK_RECORD
  5
16E
330
1
100
AcDbSymbolTableRecord
100
AcDbBlockTableRecord
  2
*D20
340
0
  0
BLOCK_RECORD
  5
65
330
1
100
AcDbSymbolTableRecord
100
AcDbBlockTableRecord
  2
*D21
340
0
  0
BLOCK_RECORD
  5
77
330
1
100
AcDbSymbolTableRecord
100
AcDbBlockTableRecord
  2
*D22
340
0
  0
BLOCK_RECORD
  5
EC
330
1
100
AcDbSymbolTableRecord
100
AcDbBlockTableRecord
  2
*D23
340
0
  0
BLOCK_RECORD
  5
12F
330
1
100
AcDbSymbolTableRecord
100
AcDbBlockTableRecord
  2
*D24
340
0
  0
BLOCK_RECORD
  5
13C
330
1
100
AcDbSymbolTableRecord
100
AcDbBlockTableRecord
  2
*D25
340
0
  0
BLOCK_RECORD
  5
149
330
1
100
AcDbSymbolTableRecord
100
AcDbBlockTableRecord
  2
*D26
340
0
  0
BLOCK_RECORD
  5
109
330
1
100
AcDbSymbolTableRecord
100
AcDbBlockTableRecord
  2
*D27
340
0
  0
BLOCK_RECORD
  5
87
330
1
100
AcDbSymbolTableRecord
100
AcDbBlockTableRecord
  2
*D28
340
0
  0
BLOCK_RECORD
  5
2AD
330
1
100
AcDbSymbolTableRecord
100
AcDbBlockTableRecord
  2
*D29
340
0
  0
BLOCK_RECORD
  5
4D
330
1
100
AcDbSymbolTableRecord
100
AcDbBlockTableRecord
  2
*D30
340
0
  0
BLOCK_RECORD
  5
40
330
1
100
AcDbSymbolTableRecord
100
AcDbBlockTableRecord
  2
*D31
340
0
  0
BLOCK_RECORD
  5
32
330
1
100
AcDbSymbolTableRecord
100
AcDbBlockTableRecord
  2
*D32
340
0
  0
ENDTAB
  0
ENDSEC
  0
SECTION
  2
BLOCKS
  0
BLOCK
  5
4
330
2
100
AcDbEntity
  8
0
100
AcDbBlockBegin
  2
*MODEL_SPACE
 70
     0
 10
0.0
 20
0.0
 30
0.0
  3
*MODEL_SPACE
  1

  0
ENDBLK
  5
A
330
2
100
AcDbEntity
  8
0
100
AcDbBlockEnd
  0
BLOCK
  5
F
330
E
100
AcDbEntity
 67
     1
  8
0
100
AcDbBlockBegin
  2
*PAPER_SPACE
 70
     0
 10
0.0
 20
0.0
 30
0.0
  3
*PAPER_SPACE
  1

  0
ENDBLK
  5
10
330
E
100
AcDbEntity
 67
     1
  8
0
100
AcDbBlockEnd
  0
BLOCK
  5
238
330
237
100
AcDbEntity
  8
0
100
AcDbBlockBegin
  2
*D0
 70
     1
 10
0.0
 20
0.0
 30
0.0
  3
*D0
  1

  0
LINE
  5
239
330
237
100
AcDbEntity
  8
BEMASSUNG
  6
Continuous
370
    -2
100
AcDbLine
 10
727.8315101110406
 20
432.3257031729501
 30
0.0
 11
783.5250632645591
 21
432.3257031729501
 31
0.0
  0
LINE
  5
23A
330
237
100
AcDbEntity
  8
BEMASSUNG
  6
Continuous
370
    -2
100
AcDbLine
 10
727.8315101110406
 20
273.3257031729502
 30
0.0
 11
783.5250632645591
 21
273.3257031729502
 31
0.0
  0
LINE
  5
23B
330
237
100
AcDbEntity
  8
BEMASSUNG
  6
Continuous
370
    -2
100
AcDbLine
 10
782.7250632645591
 20
426.7257031729501
 30
0.0
 11
782.7250632645591
 21
278.9257031729502
 31
0.0
  0
MTEXT
  5
23C
330
237
100
AcDbEntity
  8
BEMASSUNG
  6
Continuous
 62
     3
100
AcDbMText
 10
777.9521821342209
 20
351.9621067843052
 30
0.0
 40
5.6
 41
0.0
 71
     5
 72
     1
  1
\A1;159
  7
NORM
 11
0.0000000000000001
 21
1.0
 31
0.0
 73
     1
 44
1.0
  0
SOLID
  5
23D
330
237
100
AcDbEntity
  8
BEMASSUNG
  6
Continuous
100
AcDbTrace
 10
781.7917299312258
 20
426.7257031729501
 30
0.0
 11
783.6583965978924
 21
426.7257031729501
 31
0.0
 12
782.7250632645591
 22
432.3257031729501
 32
0.0
 13
782.7250632645591
 23
432.3257031729501
 33
0.0
  0
SOLID
  5
23E
330
237
100
AcDbEntity
  8
BEMASSUNG
  6
Continuous
100
AcDbTrace
 10
781.7917299312258
 20
278.9257031729502
 30
0.0
 11
783.6583965978924
 21
278.9257031729502
 31
0.0
 12
782.7250632645591
 22
273.3257031729502
 32
0.0
 13
782.7250632645591
 23
273.3257031729502
 33
0.0
  0
POINT
  5
23F
330
237
100
AcDbEntity
  8
DEFPOINTS
  6
Continuous
 62
     0
100
AcDbPoint
 10
727.0315101110407
 20
432.3257031729501
 30
0.0
  0
POINT
  5
240
330
237
100
AcDbEntity
  8
DEFPOINTS
  6
Continuous
 62
     0
100
AcDbPoint
 10
727.0315101110407
 20
273.3257031729502
 30
0.0
  0
POINT
  5
241
330
237
100
AcDbEntity
  8
DEFPOINTS
  6
Continuous
 62
     0
100
AcDbPoint
 10
782.7250632645591
 20
273.3257031729502
 30
0.0
  0
ENDBLK
  5
242
330
237
100
AcDbEntity
  8
0
100
AcDbBlockEnd
  0
BLOCK
  5
245
330
244
100
AcDbEntity
  8
0
100
AcDbBlockBegin
  2
*D1
 70
     1
 10
0.0
 20
0.0
 30
0.0
  3
*D1
  1

  0
LINE
  5
246
330
244
100
AcDbEntity
  8
BEMASSUNG
  6
Continuous
370
    -2
100
AcDbLine
 10
655.0315101110409
 20
467.825703172949
 30
0.0
 11
616.5646907498374
 21
467.8257031729491
 31
0.0
  0
LINE
  5
247
330
244
100
AcDbEntity
  8
BEMASSUNG
  6
Continuous
370
    -2
100
AcDbLine
 10
655.0315101110404
 20
237.8257031729494
 30
0.0
 11
616.5646907498373
 21
237.8257031729494
 31
0.0
  0
LINE
  5
248
330
244
100
AcDbEntity
  8
BEMASSUNG
  6
Continuous
370
    -2
100
AcDbLine
 10
617.3646907498374
 20
462.225703172949
 30
0.0
 11
617.3646907498373
 21
243.4257031729494
 31
0.0
  0
MTEXT
  5
249
330
244
100
AcDbEntity
  8
BEMASSUNG
  6
Continuous
 62
     3
100
AcDbMText
 10
612.1857739716165
 20
355.5075255216018
 30
0.0
 40
5.6
 41
0.0
 71
     5
 72
     1
  1
\A1;230
  7
NORM
 11
0.0000000000000001
 21
1.0
 31
0.0
 73
     1
 44
1.0
  0
SOLID
  5
24A
330
244
100
AcDbEntity
  8
BEMASSUNG
  6
Continuous
100
AcDbTrace
 10
616.4313574165041
 20
462.225703172949
 30
0.0
 11
618.2980240831707
 21
462.225703172949
 31
0.0
 12
617.3646907498374
 22
467.8257031729491
 32
0.0
 13
617.3646907498374
 23
467.8257031729491
 33
0.0
  0
SOLID
  5
24B
330
244
100
AcDbEntity
  8
BEMASSUNG
  6
Continuous
100
AcDbTrace
 10
616.431357416504
 20
243.4257031729494
 30
0.0
 11
618.2980240831706
 21
243.4257031729494
 31
0.0
 12
617.3646907498373
 22
237.8257031729494
 32
0.0
 13
617.3646907498373
 23
237.8257031729494
 33
0.0
  0
POINT
  5
24C
330
244
100
AcDbEntity
  8
DEFPOINTS
  6
Continuous
 62
     0
100
AcDbPoint
 10
655.8315101110409
 20
467.825703172949
 30
0.0
  0
POINT
  5
24D
330
244
100
AcDbEntity
  8
DEFPOINTS
  6
Continuous
 62
     0
100
AcDbPoint
 10
655.8315101110403
 20
237.8257031729494
 30
0.0
  0
POINT
  5
24E
330
244
100
AcDbEntity
  8
DEFPOINTS
  6
Continuous
 62
     0
100
AcDbPoint
 10
617.3646907498373
 20
237.8257031729494
 30
0.0
  0
ENDBLK
  5
24F
330
244
100
AcDbEntity
  8
0
100
AcDbBlockEnd
  0
BLOCK
  5
198
330
197
100
AcDbEntity
  8
0
100
AcDbBlockBegin
  2
*D2
 70
     1
 10
0.0
 20
0.0
 30
0.0
  3
*D2
  1

  0
LINE
  5
199
330
197
100
AcDbEntity
  8
BEMASSUNG
  6
Continuous
370
    -2
100
AcDbLine
 10
635.0315101110413
 20
339.825693817841
 30
0.0
 11
628.2801434466612
 21
339.825693817841
 31
0.0
  0
LINE
  5
19A
330
197
100
AcDbEntity
  8
BEMASSUNG
  6
Continuous
370
    -2
100
AcDbLine
 10
645.0315275428133
 20
387.8256938178413
 30
0.0
 11
628.2801434466612
 21
387.8256938178413
 31
0.0
  0
LINE
  5
19B
330
197
100
AcDbEntity
  8
BEMASSUNG
  6
Continuous
370
    -2
100
AcDbLine
 10
629.0801434466612
 20
345.425693817841
 30
0.0
 11
629.0801434466612
 21
382.2256938178413
 31
0.0
  0
SOLID
  5
19C
330
197
100
AcDbEntity
  8
BEMASSUNG
  6
Continuous
100
AcDbTrace
 10
628.1468101133279
 20
345.425693817841
 30
0.0
 11
630.0134767799946
 21
345.425693817841
 31
0.0
 12
629.0801434466612
 22
339.825693817841
 32
0.0
 13
629.0801434466612
 23
339.825693817841
 33
0.0
  0
SOLID
  5
19D
330
197
100
AcDbEntity
  8
BEMASSUNG
  6
Continuous
100
AcDbTrace
 10
628.1468101133279
 20
382.2256938178413
 30
0.0
 11
630.0134767799946
 21
382.2256938178413
 31
0.0
 12
629.0801434466612
 22
387.8256938178413
 32
0.0
 13
629.0801434466612
 23
387.8256938178413
 33
0.0
  0
MTEXT
  5
19E
330
197
100
AcDbEntity
  8
BEMASSUNG
  6
Continuous
 62
     3
100
AcDbMText
 10
624.6801434466611
 20
363.8256938178412
 30
0.0
 40
5.6
 41
0.0
 71
     5
 72
     1
  1
\A1;48
  7
NORM
 11
0.0000000000000001
 21
1.0
 31
0.0
 73
     1
 44
1.0
  0
POINT
  5
19F
330
197
100
AcDbEntity
  8
DEFPOINTS
  6
Continuous
 62
     0
100
AcDbPoint
 10
635.8315101110413
 20
339.825693817841
 30
0.0
  0
POINT
  5
1A0
330
197
100
AcDbEntity
  8
DEFPOINTS
  6
Continuous
 62
     0
100
AcDbPoint
 10
645.8315275428133
 20
387.8256938178413
 30
0.0
  0
POINT
  5
1A1
330
197
100
AcDbEntity
  8
DEFPOINTS
  6
Continuous
 62
     0
100
AcDbPoint
 10
629.0801434466612
 20
387.8256938178413
 30
0.0
  0
ENDBLK
  5
1A2
330
197
100
AcDbEntity
  8
0
100
AcDbBlockEnd
  0
BLOCK
  5
11F
330
11E
100
AcDbEntity
  8
0
100
AcDbBlockBegin
  2
*D3
 70
     1
 10
0.0
 20
0.0
 30
0.0
  3
*D3
  1

  0
LINE
  5
120
330
11E
100
AcDbEntity
  8
BEMASSUNG
  6
Continuous
370
    -2
100
AcDbLine
 10
740.2315101110407
 20
380.82570317295
 30
0.0
 11
760.6621638817617
 21
380.82570317295
 31
0.0
  0
LINE
  5
121
330
11E
100
AcDbEntity
  8
BEMASSUNG
  6
Continuous
370
    -2
100
AcDbLine
 10
723.6315101110408
 20
359.3257031729536
 30
0.0
 11
760.6621638817617
 21
359.3257031729536
 31
0.0
  0
LINE
  5
122
330
11E
100
AcDbEntity
  8
BEMASSUNG
  6
Continuous
370
    -2
100
AcDbLine
 10
759.8621638817618
 20
375.2257031729499
 30
0.0
 11
759.8621638817618
 21
364.9257031729536
 31
0.0
  0
SOLID
  5
123
330
11E
100
AcDbEntity
  8
BEMASSUNG
  6
Continuous
100
AcDbTrace
 10
758.9288305484285
 20
375.2257031729499
 30
0.0
 11
760.7954972150951
 21
375.2257031729499
 31
0.0
 12
759.8621638817618
 22
380.82570317295
 32
0.0
 13
759.8621638817618
 23
380.82570317295
 33
0.0
  0
SOLID
  5
124
330
11E
100
AcDbEntity
  8
BEMASSUNG
  6
Continuous
100
AcDbTrace
 10
758.9288305484285
 20
364.9257031729536
 30
0.0
 11
760.7954972150951
 21
364.9257031729536
 31
0.0
 12
759.8621638817618
 22
359.3257031729536
 32
0.0
 13
759.8621638817618
 23
359.3257031729536
 33
0.0
  0
MTEXT
  5
125
330
11E
100
AcDbEntity
  8
BEMASSUNG
  6
Continuous
 62
     3
100
AcDbMText
 10
755.4621638817617
 20
370.0757031729519
 30
0.0
 40
5.6
 41
0.0
 71
     5
 72
     1
  1
\A1;21.5
  7
NORM
 11
0.0000000000000001
 21
1.0
 31
0.0
 73
     1
 44
1.0
  0
POINT
  5
126
330
11E
100
AcDbEntity
  8
DEFPOINTS
  6
Continuous
 62
     0
100
AcDbPoint
 10
739.4315101110407
 20
380.82570317295
 30
0.0
  0
POINT
  5
127
330
11E
100
AcDbEntity
  8
DEFPOINTS
  6
Continuous
 62
     0
100
AcDbPoint
 10
722.8315101110409
 20
359.3257031729536
 30
0.0
  0
POINT
  5
128
330
11E
100
AcDbEntity
  8
DEFPOINTS
  6
Continuous
 62
     0
100
AcDbPoint
 10
759.8621638817618
 20
359.3257031729536
 30
0.0
  0
ENDBLK
  5
129
330
11E
100
AcDbEntity
  8
0
100
AcDbBlockEnd
  0
BLOCK
  5
252
330
251
100
AcDbEntity
  8
0
100
AcDbBlockBegin
  2
*D4
 70
     1
 10
0.0
 20
0.0
 30
0.0
  3
*D4
  1

  0
LINE
  5
253
330
251
100
AcDbEntity
  8
BEMASSUNG
  6
Continuous
370
    -2
100
AcDbLine
 10
740.2315101110407
 20
380.82570317295
 30
0.0
 11
771.9021129046422
 21
380.82570317295
 31
0.0
  0
LINE
  5
254
330
251
100
AcDbEntity
  8
BEMASSUNG
  6
Continuous
370
    -2
100
AcDbLine
 10
729.7315101110407
 20
302.8257031729497
 30
0.0
 11
771.9021129046422
 21
302.8257031729497
 31
0.0
  0
LINE
  5
255
330
251
100
AcDbEntity
  8
BEMASSUNG
  6
Continuous
370
    -2
100
AcDbLine
 10
771.1021129046423
 20
375.2257031729499
 30
0.0
 11
771.1021129046423
 21
308.4257031729497
 31
0.0
  0
SOLID
  5
256
330
251
100
AcDbEntity
  8
BEMASSUNG
  6
Continuous
100
AcDbTrace
 10
770.1687795713089
 20
375.2257031729499
 30
0.0
 11
772.0354462379755
 21
375.2257031729499
 31
0.0
 12
771.1021129046423
 22
380.82570317295
 32
0.0
 13
771.1021129046423
 23
380.82570317295
 33
0.0
  0
SOLID
  5
257
330
251
100
AcDbEntity
  8
BEMASSUNG
  6
Continuous
100
AcDbTrace
 10
770.1687795713089
 20
308.4257031729497
 30
0.0
 11
772.0354462379755
 21
308.4257031729497
 31
0.0
 12
771.1021129046423
 22
302.8257031729497
 32
0.0
 13
771.1021129046423
 23
302.8257031729497
 33
0.0
  0
MTEXT
  5
258
330
251
100
AcDbEntity
  8
BEMASSUNG
  6
Continuous
 62
     3
100
AcDbMText
 10
766.7021129046421
 20
341.82570317295
 30
0.0
 40
5.6
 41
0.0
 71
     5
 72
     1
  1
\A1;78
  7
NORM
 11
0.0000000000000001
 21
1.0
 31
0.0
 73
     1
 44
1.0
  0
POINT
  5
259
330
251
100
AcDbEntity
  8
DEFPOINTS
  6
Continuous
 62
     0
100
AcDbPoint
 10
739.4315101110407
 20
380.82570317295
 30
0.0
  0
POINT
  5
25A
330
251
100
AcDbEntity
  8
DEFPOINTS
  6
Continuous
 62
     0
100
AcDbPoint
 10
728.9315101110408
 20
302.8257031729497
 30
0.0
  0
POINT
  5
25B
330
251
100
AcDbEntity
  8
DEFPOINTS
  6
Continuous
 62
     0
100
AcDbPoint
 10
771.1021129046423
 20
302.8257031729497
 30
0.0
  0
ENDBLK
  5
25C
330
251
100
AcDbEntity
  8
0
100
AcDbBlockEnd
  0
BLOCK
  5
262
330
261
100
AcDbEntity
  8
0
100
AcDbBlockBegin
  2
*D5
 70
     1
 10
0.0
 20
0.0
 30
0.0
  3
*D5
  1

  0
LINE
  5
263
330
261
100
AcDbEntity
  8
BEMASSUNG
  6
Continuous
370
    -2
100
AcDbLine
 10
691.431510111041
 20
380.8257031729502
 30
0.0
 11
687.1047515846957
 21
380.8257031729502
 31
0.0
  0
LINE
  5
264
330
261
100
AcDbEntity
  8
BEMASSUNG
  6
Continuous
370
    -2
100
AcDbLine
 10
656.6315101110411
 20
324.825693817841
 30
0.0
 11
688.7047515846956
 21
324.825693817841
 31
0.0
  0
LINE
  5
265
330
261
100
AcDbEntity
  8
BEMASSUNG
  6
Continuous
370
    -2
100
AcDbLine
 10
687.9047515846956
 20
375.2257031729501
 30
0.0
 11
687.9047515846956
 21
330.425693817841
 31
0.0
  0
SOLID
  5
266
330
261
100
AcDbEntity
  8
BEMASSUNG
  6
Continuous
100
AcDbTrace
 10
686.9714182513623
 20
375.2257031729501
 30
0.0
 11
688.8380849180289
 21
375.2257031729501
 31
0.0
 12
687.9047515846956
 22
380.8257031729502
 32
0.0
 13
687.9047515846956
 23
380.8257031729502
 33
0.0
  0
SOLID
  5
267
330
261
100
AcDbEntity
  8
BEMASSUNG
  6
Continuous
100
AcDbTrace
 10
686.9714182513623
 20
330.425693817841
 30
0.0
 11
688.8380849180289
 21
330.425693817841
 31
0.0
 12
687.9047515846956
 22
324.825693817841
 32
0.0
 13
687.9047515846956
 23
324.825693817841
 33
0.0
  0
MTEXT
  5
268
330
261
100
AcDbEntity
  8
BEMASSUNG
  6
Continuous
 62
     3
100
AcDbMText
 10
683.5047515846955
 20
352.8256984953957
 30
0.0
 40
5.6
 41
0.0
 71
     5
 72
     1
  1
\A1;56
  7
NORM
 11
0.0000000000000001
 21
1.0
 31
0.0
 73
     1
 44
1.0
  0
POINT
  5
269
330
261
100
AcDbEntity
  8
DEFPOINTS
  6
Continuous
 62
     0
100
AcDbPoint
 10
692.231510111041
 20
380.8257031729502
 30
0.0
  0
POINT
  5
26A
330
261
100
AcDbEntity
  8
DEFPOINTS
  6
Continuous
 62
     0
100
AcDbPoint
 10
655.8315101110411
 20
324.825693817841
 30
0.0
  0
POINT
  5
26B
330
261
100
AcDbEntity
  8
DEFPOINTS
  6
Continuous
 62
     0
100
AcDbPoint
 10
687.9047515846956
 20
324.825693817841
 30
0.0
  0
ENDBLK
  5
26C
330
261
100
AcDbEntity
  8
0
100
AcDbBlockEnd
  0
BLOCK
  5
286
330
285
100
AcDbEntity
  8
0
100
AcDbBlockBegin
  2
*D6
 70
     1
 10
0.0
 20
0.0
 30
0.0
  3
*D6
  1

  0
LINE
  5
287
330
285
100
AcDbEntity
  8
BEMASSUNG
  6
Continuous
370
    -2
100
AcDbLine
 10
659.6315101110363
 20
187.3455282659033
 30
0.0
 11
681.1755927838369
 21
187.3455282659033
 31
0.0
  0
LINE
  5
288
330
285
100
AcDbEntity
  8
BEMASSUNG
  6
Continuous
370
    -2
100
AcDbLine
 10
677.6387952518619
 20
186.3455282659033
 30
0.0
 11
681.1755927838369
 21
186.3455282659033
 31
0.0
  0
LINE
  5
289
330
285
100
AcDbEntity
  8
BEMASSUNG
  6
Continuous
370
    -2
100
AcDbLine
 10
680.3755927838369
 20
192.9455282659033
 30
0.0
 11
680.3755927838369
 21
198.5455282659033
 31
0.0
  0
LINE
  5
28A
330
285
100
AcDbEntity
  8
BEMASSUNG
  6
Continuous
370
    -2
100
AcDbLine
 10
680.3755927838369
 20
180.7455282659033
 30
0.0
 11
680.3755927838369
 21
175.1455282659033
 31
0.0
  0
MTEXT
  5
28B
330
285
100
AcDbEntity
  8
BEMASSUNG
  6
Continuous
 62
     3
100
AcDbMText
 10
675.3773903213223
 20
195.4428088474785
 30
0.0
 40
5.6
 41
0.0
 71
     5
 72
     1
  1
\A1;1
  7
NORM
 11
0.0000000000000001
 21
1.0
 31
0.0
 73
     1
 44
1.0
  0
LINE
  5
28C
330
285
100
AcDbEntity
  8
BEMASSUNG
  6
Continuous
370
    -2
100
AcDbLine
 10
680.3755927838369
 20
187.3455282659033
 30
0.0
 11
680.3755927838369
 21
186.3455282659033
 31
0.0
  0
SOLID
  5
28D
330
285
100
AcDbEntity
  8
BEMASSUNG
  6
Continuous
100
AcDbTrace
 10
679.4422594505037
 20
192.9455282659033
 30
0.0
 11
681.3089261171702
 21
192.9455282659033
 31
0.0
 12
680.3755927838369
 22
187.3455282659033
 32
0.0
 13
680.3755927838369
 23
187.3455282659033
 33
0.0
  0
SOLID
  5
28E
330
285
100
AcDbEntity
  8
BEMASSUNG
  6
Continuous
100
AcDbTrace
 10
679.4422594505037
 20
180.7455282659033
 30
0.0
 11
681.3089261171702
 21
180.7455282659033
 31
0.0
 12
680.3755927838369
 22
186.3455282659033
 32
0.0
 13
680.3755927838369
 23
186.3455282659033
 33
0.0
  0
POINT
  5
28F
330
285
100
AcDbEntity
  8
DEFPOINTS
  6
Continuous
 62
     0
100
AcDbPoint
 10
658.8315101110363
 20
187.3455282659033
 30
0.0
  0
POINT
  5
290
330
285
100
AcDbEntity
  8
DEFPOINTS
  6
Continuous
 62
     0
100
AcDbPoint
 10
676.8387952518619
 20
186.3455282659033
 30
0.0
  0
POINT
  5
291
330
285
100
AcDbEntity
  8
DEFPOINTS
  6
Continuous
 62
     0
100
AcDbPoint
 10
680.3755927838369
 20
186.3455282659033
 30
0.0
  0
ENDBLK
  5
292
330
285
100
AcDbEntity
  8
0
100
AcDbBlockEnd
  0
BLOCK
  5
229
330
228
100
AcDbEntity
  8
0
100
AcDbBlockBegin
  2
*D7
 70
     1
 10
0.0
 20
0.0
 30
0.0
  3
*D7
  1

  0
LINE
  5
22A
330
228
100
AcDbEntity
  8
BEMASSUNG
  6
Continuous
370
    -2
100
AcDbLine
 10
658.0315101110364
 20
273.3257031729494
 30
0.0
 11
628.2384487001435
 21
273.3257031729494
 31
0.0
  0
LINE
  5
22B
330
228
100
AcDbEntity
  8
BEMASSUNG
  6
Continuous
370
    -2
100
AcDbLine
 10
655.0315101110404
 20
237.8257031729494
 30
0.0
 11
628.2384487001434
 21
237.8257031729494
 31
0.0
  0
LINE
  5
22C
330
228
100
AcDbEntity
  8
BEMASSUNG
  6
Continuous
370
    -2
100
AcDbLine
 10
629.0384487001435
 20
267.7257031729494
 30
0.0
 11
629.0384487001433
 21
243.4257031729494
 31
0.0
  0
SOLID
  5
22D
330
228
100
AcDbEntity
  8
BEMASSUNG
  6
Continuous
100
AcDbTrace
 10
628.1051153668101
 20
267.7257031729494
 30
0.0
 11
629.9717820334767
 21
267.7257031729494
 31
0.0
 12
629.0384487001435
 22
273.3257031729494
 32
0.0
 13
629.0384487001435
 23
273.3257031729494
 33
0.0
  0
SOLID
  5
22E
330
228
100
AcDbEntity
  8
BEMASSUNG
  6
Continuous
100
AcDbTrace
 10
628.1051153668101
 20
243.4257031729494
 30
0.0
 11
629.9717820334766
 21
243.4257031729494
 31
0.0
 12
629.0384487001433
 22
237.8257031729494
 32
0.0
 13
629.0384487001433
 23
237.8257031729494
 33
0.0
  0
MTEXT
  5
22F
330
228
100
AcDbEntity
  8
BEMASSUNG
  6
Continuous
 62
     3
100
AcDbMText
 10
624.6384487001433
 20
255.5757031729495
 30
0.0
 40
5.6
 41
0.0
 71
     5
 72
     1
  1
\A1;35.5
  7
NORM
 11
0.0000000000000001
 21
1.0
 31
0.0
 73
     1
 44
1.0
  0
POINT
  5
230
330
228
100
AcDbEntity
  8
DEFPOINTS
  6
Continuous
 62
     0
100
AcDbPoint
 10
658.8315101110363
 20
273.3257031729494
 30
0.0
  0
POINT
  5
231
330
228
100
AcDbEntity
  8
DEFPOINTS
  6
Continuous
 62
     0
100
AcDbPoint
 10
655.8315101110403
 20
237.8257031729494
 30
0.0
  0
POINT
  5
232
330
228
100
AcDbEntity
  8
DEFPOINTS
  6
Continuous
 62
     0
100
AcDbPoint
 10
629.0384487001433
 20
237.8257031729494
 30
0.0
  0
ENDBLK
  5
233
330
228
100
AcDbEntity
  8
0
100
AcDbBlockEnd
  0
BLOCK
  5
270
330
26F
100
AcDbEntity
  8
0
100
AcDbBlockBegin
  2
*D8
 70
     1
 10
0.0
 20
0.0
 30
0.0
  3
*D8
  1

  0
LINE
  5
271
330
26F
100
AcDbEntity
  8
BEMASSUNG
  6
Continuous
370
    -2
100
AcDbLine
 10
635.0315101110413
 20
309.8256938178408
 30
0.0
 11
628.3365175991577
 21
309.8256938178408
 31
0.0
  0
LINE
  5
272
330
26F
100
AcDbEntity
  8
BEMASSUNG
  6
Continuous
370
    -2
100
AcDbLine
 10
635.0315101110413
 20
339.825693817841
 30
0.0
 11
628.3365175991577
 21
339.825693817841
 31
0.0
  0
LINE
  5
273
330
26F
100
AcDbEntity
  8
BEMASSUNG
  6
Continuous
370
    -2
100
AcDbLine
 10
629.1365175991577
 20
315.4256938178408
 30
0.0
 11
629.1365175991577
 21
334.2256938178409
 31
0.0
  0
MTEXT
  5
274
330
26F
100
AcDbEntity
  8
BEMASSUNG
  6
Continuous
 62
     3
100
AcDbMText
 10
623.9600031240529
 20
324.8336632971279
 30
0.0
 40
5.6
 41
0.0
 71
     5
 72
     1
  1
\A1;30
  7
NORM
 11
0.0000000000000001
 21
1.0
 31
0.0
 73
     1
 44
1.0
  0
SOLID
  5
275
330
26F
100
AcDbEntity
  8
BEMASSUNG
  6
Continuous
100
AcDbTrace
 10
628.2031842658244
 20
315.4256938178408
 30
0.0
 11
630.0698509324909
 21
315.4256938178408
 31
0.0
 12
629.1365175991577
 22
309.8256938178408
 32
0.0
 13
629.1365175991577
 23
309.8256938178408
 33
0.0
  0
SOLID
  5
276
330
26F
100
AcDbEntity
  8
BEMASSUNG
  6
Continuous
100
AcDbTrace
 10
628.2031842658244
 20
334.2256938178409
 30
0.0
 11
630.0698509324909
 21
334.2256938178409
 31
0.0
 12
629.1365175991577
 22
339.825693817841
 32
0.0
 13
629.1365175991577
 23
339.825693817841
 33
0.0
  0
POINT
  5
277
330
26F
100
AcDbEntity
  8
DEFPOINTS
  6
Continuous
 62
     0
100
AcDbPoint
 10
635.8315101110413
 20
309.8256938178408
 30
0.0
  0
POINT
  5
278
330
26F
100
AcDbEntity
  8
DEFPOINTS
  6
Continuous
 62
     0
100
AcDbPoint
 10
635.8315101110413
 20
339.825693817841
 30
0.0
  0
POINT
  5
279
330
26F
100
AcDbEntity
  8
DEFPOINTS
  6
Continuous
 62
     0
100
AcDbPoint
 10
629.1365175991577
 20
339.825693817841
 30
0.0
  0
ENDBLK
  5
27A
330
26F
100
AcDbEntity
  8
0
100
AcDbBlockEnd
  0
BLOCK
  5
216
330
215
100
AcDbEntity
  8
0
100
AcDbBlockBegin
  2
*D9
 70
     1
 10
0.0
 20
0.0
 30
0.0
  3
*D9
  1

  0
LINE
  5
217
330
215
100
AcDbEntity
  8
BEMASSUNG
  6
Continuous
370
    -2
100
AcDbLine
 10
658.0315101110364
 20
273.3257031729494
 30
0.0
 11
628.2801434466612
 21
273.3257031729494
 31
0.0
  0
LINE
  5
218
330
215
100
AcDbEntity
  8
BEMASSUNG
  6
Continuous
370
    -2
100
AcDbLine
 10
635.0315101110413
 20
309.8256938178408
 30
0.0
 11
628.2801434466612
 21
309.8256938178408
 31
0.0
  0
LINE
  5
219
330
215
100
AcDbEntity
  8
BEMASSUNG
  6
Continuous
370
    -2
100
AcDbLine
 10
629.0801434466612
 20
278.9257031729495
 30
0.0
 11
629.0801434466612
 21
304.2256938178408
 31
0.0
  0
SOLID
  5
21A
330
215
100
AcDbEntity
  8
BEMASSUNG
  6
Continuous
100
AcDbTrace
 10
628.1468101133279
 20
278.9257031729495
 30
0.0
 11
630.0134767799946
 21
278.9257031729495
 31
0.0
 12
629.0801434466612
 22
273.3257031729494
 32
0.0
 13
629.0801434466612
 23
273.3257031729494
 33
0.0
  0
SOLID
  5
21B
330
215
100
AcDbEntity
  8
BEMASSUNG
  6
Continuous
100
AcDbTrace
 10
628.1468101133279
 20
304.2256938178408
 30
0.0
 11
630.0134767799946
 21
304.2256938178408
 31
0.0
 12
629.0801434466612
 22
309.8256938178408
 32
0.0
 13
629.0801434466612
 23
309.8256938178408
 33
0.0
  0
MTEXT
  5
21C
330
215
100
AcDbEntity
  8
BEMASSUNG
  6
Continuous
 62
     3
100
AcDbMText
 10
624.6801434466611
 20
291.5756984953952
 30
0.0
 40
5.6
 41
0.0
 71
     5
 72
     1
  1
\A1;36.5
  7
NORM
 11
0.0000000000000001
 21
1.0
 31
0.0
 73
     1
 44
1.0
  0
POINT
  5
21D
330
215
100
AcDbEntity
  8
DEFPOINTS
  6
Continuous
 62
     0
100
AcDbPoint
 10
658.8315101110363
 20
273.3257031729494
 30
0.0
  0
POINT
  5
21E
330
215
100
AcDbEntity
  8
DEFPOINTS
  6
Continuous
 62
     0
100
AcDbPoint
 10
635.8315101110413
 20
309.8256938178408
 30
0.0
  0
POINT
  5
21F
330
215
100
AcDbEntity
  8
DEFPOINTS
  6
Continuous
 62
     0
100
AcDbPoint
 10
629.0801434466612
 20
309.8256938178408
 30
0.0
  0
ENDBLK
  5
220
330
215
100
AcDbEntity
  8
0
100
AcDbBlockEnd
  0
BLOCK
  5
18A
330
189
100
AcDbEntity
  8
0
100
AcDbBlockBegin
  2
*D10
 70
     1
 10
0.0
 20
0.0
 30
0.0
  3
*D10
  1

  0
LINE
  5
18B
330
189
100
AcDbEntity
  8
BEMASSUNG
  6
Continuous
370
    -2
100
AcDbLine
 10
635.8315101110413
 20
340.625693817841
 30
0.0
 11
635.8315101110413
 21
352.3973550159063
 31
0.0
  0
LINE
  5
18C
330
189
100
AcDbEntity
  8
BEMASSUNG
  6
Continuous
370
    -2
100
AcDbLine
 10
655.8315101110411
 20
351.4680153418435
 30
0.0
 11
655.8315101110411
 21
350.7973550159062
 31
0.0
  0
LINE
  5
18D
330
189
100
AcDbEntity
  8
BEMASSUNG
  6
Continuous
370
    -2
100
AcDbLine
 10
641.4315101110413
 20
351.5973550159062
 30
0.0
 11
650.2315101110411
 21
351.5973550159062
 31
0.0
  0
SOLID
  5
18E
330
189
100
AcDbEntity
  8
BEMASSUNG
  6
Continuous
100
AcDbTrace
 10
641.4315101110413
 20
352.5306883492396
 30
0.0
 11
641.4315101110413
 21
350.6640216825729
 31
0.0
 12
635.8315101110413
 22
351.5973550159062
 32
0.0
 13
635.8315101110413
 23
351.5973550159062
 33
0.0
  0
SOLID
  5
18F
330
189
100
AcDbEntity
  8
BEMASSUNG
  6
Continuous
100
AcDbTrace
 10
650.2315101110411
 20
352.5306883492396
 30
0.0
 11
650.2315101110411
 21
350.6640216825729
 31
0.0
 12
655.8315101110411
 22
351.5973550159062
 32
0.0
 13
655.8315101110411
 23
351.5973550159062
 33
0.0
  0
MTEXT
  5
190
330
189
100
AcDbEntity
  8
BEMASSUNG
  6
Continuous
 62
     3
100
AcDbMText
 10
645.8315101110413
 20
355.9973550159063
 30
0.0
 40
5.6
 41
0.0
 71
     5
 72
     1
  1
\A1;20
  7
NORM
 73
     1
 44
1.0
  0
POINT
  5
191
330
189
100
AcDbEntity
  8
DEFPOINTS
  6
Continuous
 62
     0
100
AcDbPoint
 10
635.8315101110413
 20
339.825693817841
 30
0.0
  0
POINT
  5
192
330
189
100
AcDbEntity
  8
DEFPOINTS
  6
Continuous
 62
     0
100
AcDbPoint
 10
655.8315101110411
 20
352.2680153418435
 30
0.0
  0
POINT
  5
193
330
189
100
AcDbEntity
  8
DEFPOINTS
  6
Continuous
 62
     0
100
AcDbPoint
 10
655.8315101110411
 20
351.5973550159062
 30
0.0
  0
ENDBLK
  5
194
330
189
100
AcDbEntity
  8
0
100
AcDbBlockEnd
  0
BLOCK
  5
C2
330
C1
100
AcDbEntity
  8
0
100
AcDbBlockBegin
  2
*D11
 70
     1
 10
0.0
 20
0.0
 30
0.0
  3
*D11
  1

  0
LINE
  5
C3
330
C1
100
AcDbEntity
  8
BEMASSUNG
  6
Continuous
370
    -2
100
AcDbLine
 10
824.663340489341
 20
246.8257031729495
 30
0.0
 11
807.6399386351406
 21
246.8257031729495
 31
0.0
  0
LINE
  5
C4
330
C1
100
AcDbEntity
  8
BEMASSUNG
  6
Continuous
370
    -2
100
AcDbLine
 10
831.4133404893409
 20
237.8257031729495
 30
0.0
 11
807.6399386351406
 21
237.8257031729495
 31
0.0
  0
LINE
  5
C5
330
C1
100
AcDbEntity
  8
BEMASSUNG
  6
Continuous
370
    -2
100
AcDbLine
 10
808.4399386351405
 20
252.4257031729495
 30
0.0
 11
808.4399386351407
 21
258.0257031729495
 31
0.0
  0
LINE
  5
C6
330
C1
100
AcDbEntity
  8
BEMASSUNG
  6
Continuous
370
    -2
100
AcDbLine
 10
808.4399386351405
 20
232.2257031729495
 30
0.0
 11
808.4399386351405
 21
226.6257031729495
 31
0.0
  0
MTEXT
  5
C7
330
C1
100
AcDbEntity
  8
BEMASSUNG
  6
Continuous
 62
     3
100
AcDbMText
 10
803.889496846928
 20
242.5512227246621
 30
0.0
 40
5.6
 41
0.0
 71
     5
 72
     1
  1
\A1;9
  7
NORM
 11
0.0000000000000001
 21
1.0
 31
0.0
 73
     1
 44
1.0
  0
LINE
  5
C8
330
C1
100
AcDbEntity
  8
BEMASSUNG
  6
Continuous
370
    -2
100
AcDbLine
 10
808.4399386351405
 20
246.8257031729495
 30
0.0
 11
808.4399386351405
 21
237.8257031729495
 31
0.0
  0
SOLID
  5
C9
330
C1
100
AcDbEntity
  8
BEMASSUNG
  6
Continuous
100
AcDbTrace
 10
807.5066053018073
 20
252.4257031729495
 30
0.0
 11
809.3732719684739
 21
252.4257031729495
 31
0.0
 12
808.4399386351405
 22
246.8257031729495
 32
0.0
 13
808.4399386351405
 23
246.8257031729495
 33
0.0
  0
SOLID
  5
CA
330
C1
100
AcDbEntity
  8
BEMASSUNG
  6
Continuous
100
AcDbTrace
 10
807.5066053018073
 20
232.2257031729495
 30
0.0
 11
809.3732719684739
 21
232.2257031729495
 31
0.0
 12
808.4399386351405
 22
237.8257031729495
 32
0.0
 13
808.4399386351405
 23
237.8257031729495
 33
0.0
  0
POINT
  5
CB
330
C1
100
AcDbEntity
  8
DEFPOINTS
  6
Continuous
 62
     0
100
AcDbPoint
 10
825.4633404893409
 20
246.8257031729495
 30
0.0
  0
POINT
  5
CC
330
C1
100
AcDbEntity
  8
DEFPOINTS
  6
Continuous
 62
     0
100
AcDbPoint
 10
832.2133404893408
 20
237.8257031729495
 30
0.0
  0
POINT
  5
CD
330
C1
100
AcDbEntity
  8
DEFPOINTS
  6
Continuous
 62
     0
100
AcDbPoint
 10
808.4399386351405
 20
237.8257031729495
 30
0.0
  0
ENDBLK
  5
CE
330
C1
100
AcDbEntity
  8
0
100
AcDbBlockEnd
  0
BLOCK
  5
29D
330
29C
100
AcDbEntity
  8
0
100
AcDbBlockBegin
  2
*D12
 70
     1
 10
0.0
 20
0.0
 30
0.0
  3
*D12
  1

  0
LINE
  5
29E
330
29C
100
AcDbEntity
  8
BEMASSUNG
  6
Continuous
370
    -2
100
AcDbLine
 10
745.6315101110362
 20
186.3455282659028
 30
0.0
 11
772.5959844641558
 21
186.3455282659028
 31
0.0
  0
LINE
  5
29F
330
29C
100
AcDbEntity
  8
BEMASSUNG
  6
Continuous
370
    -2
100
AcDbLine
 10
745.6315101110362
 20
173.145528265903
 30
0.0
 11
772.5959844641558
 21
173.145528265903
 31
0.0
  0
LINE
  5
2A0
330
29C
100
AcDbEntity
  8
BEMASSUNG
  6
Continuous
370
    -2
100
AcDbLine
 10
771.7959844641559
 20
191.9455282659028
 30
0.0
 11
771.7959844641559
 21
197.5455282659028
 31
0.0
  0
LINE
  5
2A1
330
29C
100
AcDbEntity
  8
BEMASSUNG
  6
Continuous
370
    -2
100
AcDbLine
 10
771.7959844641559
 20
167.545528265903
 30
0.0
 11
771.7959844641559
 21
161.945528265903
 31
0.0
  0
MTEXT
  5
2A2
330
29C
100
AcDbEntity
  8
BEMASSUNG
  6
Continuous
 62
     3
100
AcDbMText
 10
767.158023021046
 20
159.0862364379065
 30
0.0
 40
5.6
 41
0.0
 71
     5
 72
     1
  1
\A1;13.2
  7
NORM
 11
0.0000000000000001
 21
1.0
 31
0.0
 73
     1
 44
1.0
  0
LINE
  5
2A3
330
29C
100
AcDbEntity
  8
BEMASSUNG
  6
Continuous
370
    -2
100
AcDbLine
 10
771.7959844641559
 20
186.3455282659028
 30
0.0
 11
771.7959844641559
 21
173.145528265903
 31
0.0
  0
SOLID
  5
2A4
330
29C
100
AcDbEntity
  8
BEMASSUNG
  6
Continuous
100
AcDbTrace
 10
770.8626511308226
 20
191.9455282659028
 30
0.0
 11
772.7293177974892
 21
191.9455282659028
 31
0.0
 12
771.7959844641559
 22
186.3455282659028
 32
0.0
 13
771.7959844641559
 23
186.3455282659028
 33
0.0
  0
SOLID
  5
2A5
330
29C
100
AcDbEntity
  8
BEMASSUNG
  6
Continuous
100
AcDbTrace
 10
770.8626511308226
 20
167.545528265903
 30
0.0
 11
772.7293177974892
 21
167.545528265903
 31
0.0
 12
771.7959844641559
 22
173.145528265903
 32
0.0
 13
771.7959844641559
 23
173.145528265903
 33
0.0
  0
POINT
  5
2A6
330
29C
100
AcDbEntity
  8
DEFPOINTS
  6
Continuous
 62
     0
100
AcDbPoint
 10
744.8315101110363
 20
186.3455282659028
 30
0.0
  0
POINT
  5
2A7
330
29C
100
AcDbEntity
  8
DEFPOINTS
  6
Continuous
 62
     0
100
AcDbPoint
 10
744.8315101110363
 20
173.145528265903
 30
0.0
  0
POINT
  5
2A8
330
29C
100
AcDbEntity
  8
DEFPOINTS
  6
Continuous
 62
     0
100
AcDbPoint
 10
771.7959844641559
 20
173.145528265903
 30
0.0
  0
ENDBLK
  5
2A9
330
29C
100
AcDbEntity
  8
0
100
AcDbBlockEnd
  0
BLOCK
  5
9C
330
9B
100
AcDbEntity
  8
0
100
AcDbBlockBegin
  2
*D13
 70
     1
 10
0.0
 20
0.0
 30
0.0
  3
*D13
  1

  0
LINE
  5
9D
330
9B
100
AcDbEntity
  8
BEMASSUNG
  6
Continuous
370
    -2
100
AcDbLine
 10
822.2133404893408
 20
323.2049858587222
 30
0.0
 11
822.2133404893408
 21
324.8068124852895
 31
0.0
  0
LINE
  5
9E
330
9B
100
AcDbEntity
  8
BEMASSUNG
  6
Continuous
370
    -2
100
AcDbLine
 10
825.9133404893411
 20
324.0257031729499
 30
0.0
 11
825.9133404893411
 21
323.2068124852895
 31
0.0
  0
LINE
  5
9F
330
9B
100
AcDbEntity
  8
BEMASSUNG
  6
Continuous
370
    -2
100
AcDbLine
 10
816.6133404893409
 20
324.0068124852895
 30
0.0
 11
811.0133404893408
 21
324.0068124852895
 31
0.0
  0
LINE
  5
A0
330
9B
100
AcDbEntity
  8
BEMASSUNG
  6
Continuous
370
    -2
100
AcDbLine
 10
831.5133404893412
 20
324.0068124852895
 30
0.0
 11
837.1133404893411
 21
324.0068124852895
 31
0.0
  0
MTEXT
  5
A1
330
9B
100
AcDbEntity
  8
BEMASSUNG
  6
Continuous
 62
     3
100
AcDbMText
 10
811.9904923504964
 20
328.2291883006682
 30
0.0
 40
5.6
 41
0.0
 71
     5
 72
     1
  1
\A1;3.7
  7
NORM
 73
     1
 44
1.0
  0
LINE
  5
A2
330
9B
100
AcDbEntity
  8
BEMASSUNG
  6
Continuous
370
    -2
100
AcDbLine
 10
822.2133404893408
 20
324.0068124852895
 30
0.0
 11
825.9133404893411
 21
324.0068124852895
 31
0.0
  0
SOLID
  5
A3
330
9B
100
AcDbEntity
  8
BEMASSUNG
  6
Continuous
100
AcDbTrace
 10
816.6133404893409
 20
324.9401458186229
 30
0.0
 11
816.6133404893409
 21
323.0734791519562
 31
0.0
 12
822.2133404893408
 22
324.0068124852895
 32
0.0
 13
822.2133404893408
 23
324.0068124852895
 33
0.0
  0
SOLID
  5
A4
330
9B
100
AcDbEntity
  8
BEMASSUNG
  6
Continuous
100
AcDbTrace
 10
831.5133404893412
 20
324.9401458186229
 30
0.0
 11
831.5133404893412
 21
323.0734791519562
 31
0.0
 12
825.9133404893411
 22
324.0068124852895
 32
0.0
 13
825.9133404893411
 23
324.0068124852895
 33
0.0
  0
POINT
  5
A5
330
9B
100
AcDbEntity
  8
DEFPOINTS
  6
Continuous
 62
     0
100
AcDbPoint
 10
822.2133404893408
 20
322.4049858587222
 30
0.0
  0
POINT
  5
A6
330
9B
100
AcDbEntity
  8
DEFPOINTS
  6
Continuous
 62
     0
100
AcDbPoint
 10
825.9133404893411
 20
324.8257031729499
 30
0.0
  0
POINT
  5
A7
330
9B
100
AcDbEntity
  8
DEFPOINTS
  6
Continuous
 62
     0
100
AcDbPoint
 10
825.9133404893411
 20
324.0068124852895
 30
0.0
  0
ENDBLK
  5
A8
330
9B
100
AcDbEntity
  8
0
100
AcDbBlockEnd
  0
BLOCK
  5
1FF
330
1FE
100
AcDbEntity
  8
0
100
AcDbBlockBegin
  2
*D14
 70
     1
 10
0.0
 20
0.0
 30
0.0
  3
*D14
  1

  0
LINE
  5
200
330
1FE
100
AcDbEntity
  8
BEMASSUNG
  6
Continuous
370
    -2
100
AcDbLine
 10
729.5067393783202
 20
302.8257031729496
 30
0.0
 11
771.8390384814349
 21
302.8257031729496
 31
0.0
  0
LINE
  5
201
330
1FE
100
AcDbEntity
  8
BEMASSUNG
  6
Continuous
370
    -2
100
AcDbLine
 10
727.8315101110406
 20
273.3257031729494
 30
0.0
 11
771.8390384814349
 21
273.3257031729494
 31
0.0
  0
LINE
  5
202
330
1FE
100
AcDbEntity
  8
BEMASSUNG
  6
Continuous
370
    -2
100
AcDbLine
 10
771.039038481435
 20
297.2257031729496
 30
0.0
 11
771.039038481435
 21
278.9257031729494
 31
0.0
  0
SOLID
  5
203
330
1FE
100
AcDbEntity
  8
BEMASSUNG
  6
Continuous
100
AcDbTrace
 10
770.1057051481017
 20
297.2257031729496
 30
0.0
 11
771.9723718147682
 21
297.2257031729496
 31
0.0
 12
771.039038481435
 22
302.8257031729496
 32
0.0
 13
771.039038481435
 23
302.8257031729496
 33
0.0
  0
SOLID
  5
204
330
1FE
100
AcDbEntity
  8
BEMASSUNG
  6
Continuous
100
AcDbTrace
 10
770.1057051481017
 20
278.9257031729494
 30
0.0
 11
771.9723718147682
 21
278.9257031729494
 31
0.0
 12
771.039038481435
 22
273.3257031729494
 32
0.0
 13
771.039038481435
 23
273.3257031729494
 33
0.0
  0
MTEXT
  5
205
330
1FE
100
AcDbEntity
  8
BEMASSUNG
  6
Continuous
 62
     3
100
AcDbMText
 10
766.6390384814349
 20
288.0757031729496
 30
0.0
 40
5.6
 41
0.0
 71
     5
 72
     1
  1
\A1;29.5
  7
NORM
 11
0.0000000000000001
 21
1.0
 31
0.0
 73
     1
 44
1.0
  0
POINT
  5
206
330
1FE
100
AcDbEntity
  8
DEFPOINTS
  6
Continuous
 62
     0
100
AcDbPoint
 10
728.7067393783202
 20
302.8257031729496
 30
0.0
  0
POINT
  5
207
330
1FE
100
AcDbEntity
  8
DEFPOINTS
  6
Continuous
 62
     0
100
AcDbPoint
 10
727.0315101110407
 20
273.3257031729494
 30
0.0
  0
POINT
  5
208
330
1FE
100
AcDbEntity
  8
DEFPOINTS
  6
Continuous
 62
     0
100
AcDbPoint
 10
771.039038481435
 20
273.3257031729494
 30
0.0
  0
ENDBLK
  5
209
330
1FE
100
AcDbEntity
  8
0
100
AcDbBlockEnd
  0
BLOCK
  5
AF
330
AE
100
AcDbEntity
  8
0
100
AcDbBlockBegin
  2
*D15
 70
     1
 10
0.0
 20
0.0
 30
0.0
  3
*D15
  1

  0
LINE
  5
B0
330
AE
100
AcDbEntity
  8
BEMASSUNG
  6
Continuous
370
    -2
100
AcDbLine
 10
825.9133404893411
 20
308.9257031729499
 30
0.0
 11
825.9133404893411
 21
298.2902232710945
 31
0.0
  0
LINE
  5
B1
330
AE
100
AcDbEntity
  8
BEMASSUNG
  6
Continuous
370
    -2
100
AcDbLine
 10
833.4133404893409
 20
308.9257031729499
 30
0.0
 11
833.4133404893409
 21
298.2902232710945
 31
0.0
  0
LINE
  5
B2
330
AE
100
AcDbEntity
  8
BEMASSUNG
  6
Continuous
370
    -2
100
AcDbLine
 10
820.3133404893412
 20
299.0902232710945
 30
0.0
 11
814.7133404893411
 21
299.0902232710945
 31
0.0
  0
LINE
  5
B3
330
AE
100
AcDbEntity
  8
BEMASSUNG
  6
Continuous
370
    -2
100
AcDbLine
 10
839.0133404893409
 20
299.0902232710945
 30
0.0
 11
844.613340489341
 21
299.0902232710945
 31
0.0
  0
MTEXT
  5
B4
330
AE
100
AcDbEntity
  8
BEMASSUNG
  6
Continuous
 62
     3
100
AcDbMText
 10
813.0401595481412
 20
303.2316453556263
 30
0.0
 40
5.6
 41
0.0
 71
     5
 72
     1
  1
\A1;7.5
  7
NORM
 73
     1
 44
1.0
  0
LINE
  5
B5
330
AE
100
AcDbEntity
  8
BEMASSUNG
  6
Continuous
370
    -2
100
AcDbLine
 10
825.9133404893411
 20
299.0902232710945
 30
0.0
 11
833.4133404893409
 21
299.0902232710945
 31
0.0
  0
SOLID
  5
B6
330
AE
100
AcDbEntity
  8
BEMASSUNG
  6
Continuous
100
AcDbTrace
 10
820.3133404893412
 20
300.0235566044278
 30
0.0
 11
820.3133404893412
 21
298.1568899377612
 31
0.0
 12
825.9133404893411
 22
299.0902232710945
 32
0.0
 13
825.9133404893411
 23
299.0902232710945
 33
0.0
  0
SOLID
  5
B7
330
AE
100
AcDbEntity
  8
BEMASSUNG
  6
Continuous
100
AcDbTrace
 10
839.0133404893409
 20
300.0235566044278
 30
0.0
 11
839.0133404893409
 21
298.1568899377612
 31
0.0
 12
833.4133404893409
 22
299.0902232710945
 32
0.0
 13
833.4133404893409
 23
299.0902232710945
 33
0.0
  0
POINT
  5
B8
330
AE
100
AcDbEntity
  8
DEFPOINTS
  6
Continuous
 62
     0
100
AcDbPoint
 10
825.9133404893411
 20
309.7257031729499
 30
0.0
  0
POINT
  5
B9
330
AE
100
AcDbEntity
  8
DEFPOINTS
  6
Continuous
 62
     0
100
AcDbPoint
 10
833.4133404893409
 20
309.7257031729499
 30
0.0
  0
POINT
  5
BA
330
AE
100
AcDbEntity
  8
DEFPOINTS
  6
Continuous
 62
     0
100
AcDbPoint
 10
833.4133404893409
 20
299.0902232710945
 30
0.0
  0
ENDBLK
  5
BB
330
AE
100
AcDbEntity
  8
0
100
AcDbBlockEnd
  0
BLOCK
  5
1C8
330
1C7
100
AcDbEntity
  8
0
100
AcDbBlockBegin
  2
*D16
 70
     1
 10
0.0
 20
0.0
 30
0.0
  3
*D16
  1

  0
LINE
  5
1C9
330
1C7
100
AcDbEntity
  8
BEMASSUNG
  6
Continuous
370
    -2
100
AcDbLine
 10
660.6315275428133
 20
402.8256938178413
 30
0.0
 11
688.7047515846956
 21
402.8256938178413
 31
0.0
  0
LINE
  5
1CA
330
1C7
100
AcDbEntity
  8
BEMASSUNG
  6
Continuous
370
    -2
100
AcDbLine
 10
691.431510111041
 20
380.8257031729502
 30
0.0
 11
687.1047515846957
 21
380.8257031729502
 31
0.0
  0
LINE
  5
1CB
330
1C7
100
AcDbEntity
  8
BEMASSUNG
  6
Continuous
370
    -2
100
AcDbLine
 10
687.9047515846956
 20
397.2256938178414
 30
0.0
 11
687.9047515846956
 21
386.4257031729502
 31
0.0
  0
SOLID
  5
1CC
330
1C7
100
AcDbEntity
  8
BEMASSUNG
  6
Continuous
100
AcDbTrace
 10
686.9714182513623
 20
397.2256938178414
 30
0.0
 11
688.8380849180289
 21
397.2256938178414
 31
0.0
 12
687.9047515846956
 22
402.8256938178413
 32
0.0
 13
687.9047515846956
 23
402.8256938178413
 33
0.0
  0
SOLID
  5
1CD
330
1C7
100
AcDbEntity
  8
BEMASSUNG
  6
Continuous
100
AcDbTrace
 10
686.9714182513623
 20
386.4257031729502
 30
0.0
 11
688.8380849180289
 21
386.4257031729502
 31
0.0
 12
687.9047515846956
 22
380.8257031729502
 32
0.0
 13
687.9047515846956
 23
380.8257031729502
 33
0.0
  0
MTEXT
  5
1CE
330
1C7
100
AcDbEntity
  8
BEMASSUNG
  6
Continuous
 62
     3
100
AcDbMText
 10
683.5047515846955
 20
391.8256984953959
 30
0.0
 40
5.6
 41
0.0
 71
     5
 72
     1
  1
\A1;22
  7
NORM
 11
0.0000000000000001
 21
1.0
 31
0.0
 73
     1
 44
1.0
  0
POINT
  5
1CF
330
1C7
100
AcDbEntity
  8
DEFPOINTS
  6
Continuous
 62
     0
100
AcDbPoint
 10
659.8315275428133
 20
402.8256938178413
 30
0.0
  0
POINT
  5
1D0
330
1C7
100
AcDbEntity
  8
DEFPOINTS
  6
Continuous
 62
     0
100
AcDbPoint
 10
692.231510111041
 20
380.8257031729502
 30
0.0
  0
POINT
  5
1D1
330
1C7
100
AcDbEntity
  8
DEFPOINTS
  6
Continuous
 62
     0
100
AcDbPoint
 10
687.9047515846956
 20
380.8257031729502
 30
0.0
  0
ENDBLK
  5
1D2
330
1C7
100
AcDbEntity
  8
0
100
AcDbBlockEnd
  0
BLOCK
  5
15E
330
15D
100
AcDbEntity
  8
0
100
AcDbBlockBegin
  2
*D17
 70
     1
 10
0.0
 20
0.0
 30
0.0
  3
*D17
  1

  0
LINE
  5
15F
330
15D
100
AcDbEntity
  8
BEMASSUNG
  6
Continuous
370
    -2
100
AcDbLine
 10
645.8315275428133
 20
418.6256938178415
 30
0.0
 11
645.8315275428133
 21
423.7024932998393
 31
0.0
  0
LINE
  5
160
330
15D
100
AcDbEntity
  8
BEMASSUNG
  6
Continuous
370
    -2
100
AcDbLine
 10
655.8315101110414
 20
424.7851346035894
 30
0.0
 11
655.8315101110414
 21
422.1024932998393
 31
0.0
  0
LINE
  5
161
330
15D
100
AcDbEntity
  8
BEMASSUNG
  6
Continuous
370
    -2
100
AcDbLine
 10
640.2315275428133
 20
422.9024932998393
 30
0.0
 11
634.6315275428132
 21
422.9024932998393
 31
0.0
  0
LINE
  5
162
330
15D
100
AcDbEntity
  8
BEMASSUNG
  6
Continuous
370
    -2
100
AcDbLine
 10
661.4315101110414
 20
422.9024932998393
 30
0.0
 11
667.0315101110414
 21
422.9024932998393
 31
0.0
  0
LINE
  5
163
330
15D
100
AcDbEntity
  8
BEMASSUNG
  6
Continuous
370
    -2
100
AcDbLine
 10
645.8315275428133
 20
422.9024932998393
 30
0.0
 11
655.8315101110414
 21
422.9024932998393
 31
0.0
  0
SOLID
  5
164
330
15D
100
AcDbEntity
  8
BEMASSUNG
  6
Continuous
100
AcDbTrace
 10
640.2315275428133
 20
423.8358266331726
 30
0.0
 11
640.2315275428133
 21
421.9691599665059
 31
0.0
 12
645.8315275428133
 22
422.9024932998393
 32
0.0
 13
645.8315275428133
 23
422.9024932998393
 33
0.0
  0
SOLID
  5
165
330
15D
100
AcDbEntity
  8
BEMASSUNG
  6
Continuous
100
AcDbTrace
 10
661.4315101110414
 20
423.8358266331726
 30
0.0
 11
661.4315101110414
 21
421.9691599665059
 31
0.0
 12
655.8315101110414
 22
422.9024932998393
 32
0.0
 13
655.8315101110414
 23
422.9024932998393
 33
0.0
  0
MTEXT
  5
166
330
15D
100
AcDbEntity
  8
BEMASSUNG
  6
Continuous
 62
     3
100
AcDbMText
 10
650.8315188269273
 20
427.3024932998392
 30
0.0
 40
5.6
 41
0.0
 71
     5
 72
     1
  1
\A1;10
  7
NORM
 73
     1
 44
1.0
  0
POINT
  5
167
330
15D
100
AcDbEntity
  8
DEFPOINTS
  6
Continuous
 62
     0
100
AcDbPoint
 10
645.8315275428133
 20
417.8256938178415
 30
0.0
  0
POINT
  5
168
330
15D
100
AcDbEntity
  8
DEFPOINTS
  6
Continuous
 62
     0
100
AcDbPoint
 10
655.8315101110414
 20
425.5851346035894
 30
0.0
  0
POINT
  5
169
330
15D
100
AcDbEntity
  8
DEFPOINTS
  6
Continuous
 62
     0
100
AcDbPoint
 10
655.8315101110414
 20
422.9024932998393
 30
0.0
  0
ENDBLK
  5
16A
330
15D
100
AcDbEntity
  8
0
100
AcDbBlockEnd
  0
BLOCK
  5
1A5
330
1A4
100
AcDbEntity
  8
0
100
AcDbBlockBegin
  2
*D18
 70
     1
 10
0.0
 20
0.0
 30
0.0
  3
*D18
  1

  0
LINE
  5
1A6
330
1A4
100
AcDbEntity
  8
BEMASSUNG
  6
Continuous
370
    -2
100
AcDbLine
 10
645.0315275428133
 20
417.8256938178415
 30
0.0
 11
628.3421120354077
 21
417.8256938178416
 31
0.0
  0
LINE
  5
1A7
330
1A4
100
AcDbEntity
  8
BEMASSUNG
  6
Continuous
370
    -2
100
AcDbLine
 10
658.031510111039
 20
432.3257031729491
 30
0.0
 11
628.3421120354077
 21
432.3257031729491
 31
0.0
  0
LINE
  5
1A8
330
1A4
100
AcDbEntity
  8
BEMASSUNG
  6
Continuous
370
    -2
100
AcDbLine
 10
629.1421120354076
 20
412.2256938178415
 30
0.0
 11
629.1421120354076
 21
406.6256938178415
 31
0.0
  0
LINE
  5
1A9
330
1A4
100
AcDbEntity
  8
BEMASSUNG
  6
Continuous
370
    -2
100
AcDbLine
 10
629.1421120354076
 20
437.9257031729492
 30
0.0
 11
629.1421120354076
 21
443.5257031729491
 31
0.0
  0
LINE
  5
1AA
330
1A4
100
AcDbEntity
  8
BEMASSUNG
  6
Continuous
370
    -2
100
AcDbLine
 10
629.1421120354076
 20
417.8256938178416
 30
0.0
 11
629.1421120354076
 21
432.3257031729491
 31
0.0
  0
SOLID
  5
1AB
330
1A4
100
AcDbEntity
  8
BEMASSUNG
  6
Continuous
100
AcDbTrace
 10
628.2087787020743
 20
412.2256938178415
 30
0.0
 11
630.0754453687409
 21
412.2256938178415
 31
0.0
 12
629.1421120354076
 22
417.8256938178416
 32
0.0
 13
629.1421120354076
 23
417.8256938178416
 33
0.0
  0
SOLID
  5
1AC
330
1A4
100
AcDbEntity
  8
BEMASSUNG
  6
Continuous
100
AcDbTrace
 10
628.2087787020743
 20
437.9257031729492
 30
0.0
 11
630.0754453687409
 21
437.9257031729492
 31
0.0
 12
629.1421120354076
 22
432.3257031729491
 32
0.0
 13
629.1421120354076
 23
432.3257031729491
 33
0.0
  0
MTEXT
  5
1AD
330
1A4
100
AcDbEntity
  8
BEMASSUNG
  6
Continuous
 62
     3
100
AcDbMText
 10
624.7421120354076
 20
425.0756984953954
 30
0.0
 40
5.6
 41
0.0
 71
     5
 72
     1
  1
\A1;14.5
  7
NORM
 11
0.0000000000000001
 21
1.0
 31
0.0
 73
     1
 44
1.0
  0
POINT
  5
1AE
330
1A4
100
AcDbEntity
  8
DEFPOINTS
  6
Continuous
 62
     0
100
AcDbPoint
 10
645.8315275428133
 20
417.8256938178415
 30
0.0
  0
POINT
  5
1AF
330
1A4
100
AcDbEntity
  8
DEFPOINTS
  6
Continuous
 62
     0
100
AcDbPoint
 10
658.831510111039
 20
432.3257031729491
 30
0.0
  0
POINT
  5
1B0
330
1A4
100
AcDbEntity
  8
DEFPOINTS
  6
Continuous
 62
     0
100
AcDbPoint
 10
629.1421120354076
 20
432.3257031729491
 30
0.0
  0
ENDBLK
  5
1B1
330
1A4
100
AcDbEntity
  8
0
100
AcDbBlockEnd
  0
BLOCK
  5
1B4
330
1B3
100
AcDbEntity
  8
0
100
AcDbBlockBegin
  2
*D19
 70
     1
 10
0.0
 20
0.0
 30
0.0
  3
*D19
  1

  0
LINE
  5
1B5
330
1B3
100
AcDbEntity
  8
BEMASSUNG
  6
Continuous
370
    -2
100
AcDbLine
 10
645.0315275428133
 20
387.8256938178413
 30
0.0
 11
628.3457051513316
 21
387.8256938178413
 31
0.0
  0
LINE
  5
1B6
330
1B3
100
AcDbEntity
  8
BEMASSUNG
  6
Continuous
370
    -2
100
AcDbLine
 10
645.0315275428133
 20
417.8256938178415
 30
0.0
 11
628.3457051513316
 21
417.8256938178416
 31
0.0
  0
LINE
  5
1B7
330
1B3
100
AcDbEntity
  8
BEMASSUNG
  6
Continuous
370
    -2
100
AcDbLine
 10
629.1457051513316
 20
393.4256938178414
 30
0.0
 11
629.1457051513316
 21
412.2256938178415
 31
0.0
  0
MTEXT
  5
1B8
330
1B3
100
AcDbEntity
  8
BEMASSUNG
  6
Continuous
 62
     3
100
AcDbMText
 10
623.968366697863
 20
402.2373330204516
 30
0.0
 40
5.6
 41
0.0
 71
     5
 72
     1
  1
\A1;30
  7
NORM
 11
0.0000000000000001
 21
1.0
 31
0.0
 73
     1
 44
1.0
  0
SOLID
  5
1B9
330
1B3
100
AcDbEntity
  8
BEMASSUNG
  6
Continuous
100
AcDbTrace
 10
628.2123718179983
 20
393.4256938178414
 30
0.0
 11
630.0790384846649
 21
393.4256938178414
 31
0.0
 12
629.1457051513316
 22
387.8256938178413
 32
0.0
 13
629.1457051513316
 23
387.8256938178413
 33
0.0
  0
SOLID
  5
1BA
330
1B3
100
AcDbEntity
  8
BEMASSUNG
  6
Continuous
100
AcDbTrace
 10
628.2123718179983
 20
412.2256938178415
 30
0.0
 11
630.0790384846649
 21
412.2256938178415
 31
0.0
 12
629.1457051513316
 22
417.8256938178416
 32
0.0
 13
629.1457051513316
 23
417.8256938178416
 33
0.0
  0
POINT
  5
1BB
330
1B3
100
AcDbEntity
  8
DEFPOINTS
  6
Continuous
 62
     0
100
AcDbPoint
 10
645.8315275428133
 20
387.8256938178413
 30
0.0
  0
POINT
  5
1BC
330
1B3
100
AcDbEntity
  8
DEFPOINTS
  6
Continuous
 62
     0
100
AcDbPoint
 10
645.8315275428133
 20
417.8256938178415
 30
0.0
  0
POINT
  5
1BD
330
1B3
100
AcDbEntity
  8
DEFPOINTS
  6
Continuous
 62
     0
100
AcDbPoint
 10
629.1457051513316
 20
417.8256938178416
 30
0.0
  0
ENDBLK
  5
1BE
330
1B3
100
AcDbEntity
  8
0
100
AcDbBlockEnd
  0
BLOCK
  5
16F
330
16E
100
AcDbEntity
  8
0
100
AcDbBlockBegin
  2
*D20
 70
     1
 10
0.0
 20
0.0
 30
0.0
  3
*D20
  1

  0
LINE
  5
170
330
16E
100
AcDbEntity
  8
BEMASSUNG
  6
Continuous
370
    -2
100
AcDbLine
 10
655.0315101110409
 20
467.825703172949
 30
0.0
 11
628.2667618346111
 21
467.8257031729491
 31
0.0
  0
LINE
  5
171
330
16E
100
AcDbEntity
  8
BEMASSUNG
  6
Continuous
370
    -2
100
AcDbLine
 10
658.031510111039
 20
432.3257031729491
 30
0.0
 11
628.2667618346111
 21
432.3257031729491
 31
0.0
  0
LINE
  5
172
330
16E
100
AcDbEntity
  8
BEMASSUNG
  6
Continuous
370
    -2
100
AcDbLine
 10
629.066761834611
 20
462.225703172949
 30
0.0
 11
629.066761834611
 21
437.9257031729492
 31
0.0
  0
SOLID
  5
173
330
16E
100
AcDbEntity
  8
BEMASSUNG
  6
Continuous
100
AcDbTrace
 10
628.1334285012778
 20
462.225703172949
 30
0.0
 11
630.0000951679443
 21
462.225703172949
 31
0.0
 12
629.066761834611
 22
467.8257031729491
 32
0.0
 13
629.066761834611
 23
467.8257031729491
 33
0.0
  0
SOLID
  5
174
330
16E
100
AcDbEntity
  8
BEMASSUNG
  6
Continuous
100
AcDbTrace
 10
628.1334285012778
 20
437.9257031729492
 30
0.0
 11
630.0000951679443
 21
437.9257031729492
 31
0.0
 12
629.066761834611
 22
432.3257031729491
 32
0.0
 13
629.066761834611
 23
432.3257031729491
 33
0.0
  0
MTEXT
  5
175
330
16E
100
AcDbEntity
  8
BEMASSUNG
  6
Continuous
 62
     3
100
AcDbMText
 10
624.6667618346109
 20
450.0757031729492
 30
0.0
 40
5.6
 41
0.0
 71
     5
 72
     1
  1
\A1;35.5
  7
NORM
 11
0.0000000000000001
 21
1.0
 31
0.0
 73
     1
 44
1.0
  0
POINT
  5
176
330
16E
100
AcDbEntity
  8
DEFPOINTS
  6
Continuous
 62
     0
100
AcDbPoint
 10
655.8315101110409
 20
467.825703172949
 30
0.0
  0
POINT
  5
177
330
16E
100
AcDbEntity
  8
DEFPOINTS
  6
Continuous
 62
     0
100
AcDbPoint
 10
658.831510111039
 20
432.3257031729491
 30
0.0
  0
POINT
  5
178
330
16E
100
AcDbEntity
  8
DEFPOINTS
  6
Continuous
 62
     0
100
AcDbPoint
 10
629.066761834611
 20
432.3257031729491
 30
0.0
  0
ENDBLK
  5
179
330
16E
100
AcDbEntity
  8
0
100
AcDbBlockEnd
  0
BLOCK
  5
66
330
65
100
AcDbEntity
  8
0
100
AcDbBlockBegin
  2
*D21
 70
     1
 10
0.0
 20
0.0
 30
0.0
  3
*D21
  1

  0
LINE
  5
67
330
65
100
AcDbEntity
  8
BEMASSUNG
  6
Continuous
370
    -2
100
AcDbLine
 10
824.663340489341
 20
458.8257031729491
 30
0.0
 11
807.6500700874115
 21
458.8257031729491
 31
0.0
  0
LINE
  5
68
330
65
100
AcDbEntity
  8
BEMASSUNG
  6
Continuous
370
    -2
100
AcDbLine
 10
831.4133404893409
 20
467.8257031729491
 30
0.0
 11
807.6500700874115
 21
467.8257031729491
 31
0.0
  0
LINE
  5
69
330
65
100
AcDbEntity
  8
BEMASSUNG
  6
Continuous
370
    -2
100
AcDbLine
 10
808.4500700874114
 20
453.2257031729491
 30
0.0
 11
808.4500700874114
 21
447.6257031729491
 31
0.0
  0
LINE
  5
6A
330
65
100
AcDbEntity
  8
BEMASSUNG
  6
Continuous
370
    -2
100
AcDbLine
 10
808.4500700874114
 20
473.4257031729491
 30
0.0
 11
808.4500700874114
 21
479.0257031729491
 31
0.0
  0
MTEXT
  5
6B
330
65
100
AcDbEntity
  8
BEMASSUNG
  6
Continuous
 62
     3
100
AcDbMText
 10
804.0126874149182
 20
463.6151188980692
 30
0.0
 40
5.6
 41
0.0
 71
     5
 72
     1
  1
\A1;9
  7
NORM
 11
0.0000000000000001
 21
1.0
 31
0.0
 73
     1
 44
1.0
  0
LINE
  5
6C
330
65
100
AcDbEntity
  8
BEMASSUNG
  6
Continuous
370
    -2
100
AcDbLine
 10
808.4500700874114
 20
458.8257031729491
 30
0.0
 11
808.4500700874114
 21
467.8257031729491
 31
0.0
  0
SOLID
  5
6D
330
65
100
AcDbEntity
  8
BEMASSUNG
  6
Continuous
100
AcDbTrace
 10
807.5167367540782
 20
453.2257031729491
 30
0.0
 11
809.3834034207448
 21
453.2257031729491
 31
0.0
 12
808.4500700874114
 22
458.8257031729491
 32
0.0
 13
808.4500700874114
 23
458.8257031729491
 33
0.0
  0
SOLID
  5
6E
330
65
100
AcDbEntity
  8
BEMASSUNG
  6
Continuous
100
AcDbTrace
 10
807.5167367540782
 20
473.4257031729491
 30
0.0
 11
809.3834034207448
 21
473.4257031729491
 31
0.0
 12
808.4500700874114
 22
467.8257031729491
 32
0.0
 13
808.4500700874114
 23
467.8257031729491
 33
0.0
  0
POINT
  5
6F
330
65
100
AcDbEntity
  8
DEFPOINTS
  6
Continuous
 62
     0
100
AcDbPoint
 10
825.4633404893409
 20
458.8257031729491
 30
0.0
  0
POINT
  5
70
330
65
100
AcDbEntity
  8
DEFPOINTS
  6
Continuous
 62
     0
100
AcDbPoint
 10
832.2133404893408
 20
467.8257031729491
 30
0.0
  0
POINT
  5
71
330
65
100
AcDbEntity
  8
DEFPOINTS
  6
Continuous
 62
     0
100
AcDbPoint
 10
808.4500700874114
 20
467.8257031729491
 30
0.0
  0
ENDBLK
  5
72
330
65
100
AcDbEntity
  8
0
100
AcDbBlockEnd
  0
BLOCK
  5
78
330
77
100
AcDbEntity
  8
0
100
AcDbBlockBegin
  2
*D22
 70
     1
 10
0.0
 20
0.0
 30
0.0
  3
*D22
  1

  0
LINE
  5
79
330
77
100
AcDbEntity
  8
BEMASSUNG
  6
Continuous
370
    -2
100
AcDbLine
 10
825.6133404893409
 20
404.6930903967479
 30
0.0
 11
825.6133404893409
 21
404.8947077700042
 31
0.0
  0
LINE
  5
7A
330
77
100
AcDbEntity
  8
BEMASSUNG
  6
Continuous
370
    -2
100
AcDbLine
 10
822.2133404893408
 20
403.3955164566319
 30
0.0
 11
822.2133404893408
 21
403.2947077700042
 31
0.0
  0
LINE
  5
7B
330
77
100
AcDbEntity
  8
BEMASSUNG
  6
Continuous
370
    -2
100
AcDbLine
 10
831.213340489341
 20
404.0947077700042
 30
0.0
 11
836.8133404893409
 21
404.0947077700042
 31
0.0
  0
LINE
  5
7C
330
77
100
AcDbEntity
  8
BEMASSUNG
  6
Continuous
370
    -2
100
AcDbLine
 10
816.6133404893409
 20
404.0947077700042
 30
0.0
 11
811.0133404893408
 21
404.0947077700042
 31
0.0
  0
MTEXT
  5
7D
330
77
100
AcDbEntity
  8
BEMASSUNG
  6
Continuous
 62
     3
100
AcDbMText
 10
810.8024780251067
 20
408.465339494251
 30
0.0
 40
5.6
 41
0.0
 71
     5
 72
     1
  1
\A1;3.4
  7
NORM
 73
     1
 44
1.0
  0
LINE
  5
7E
330
77
100
AcDbEntity
  8
BEMASSUNG
  6
Continuous
370
    -2
100
AcDbLine
 10
825.6133404893409
 20
404.0947077700042
 30
0.0
 11
822.2133404893408
 21
404.0947077700042
 31
0.0
  0
SOLID
  5
7F
330
77
100
AcDbEntity
  8
BEMASSUNG
  6
Continuous
100
AcDbTrace
 10
831.213340489341
 20
405.0280411033375
 30
0.0
 11
831.213340489341
 21
403.1613744366708
 31
0.0
 12
825.6133404893409
 22
404.0947077700042
 32
0.0
 13
825.6133404893409
 23
404.0947077700042
 33
0.0
  0
SOLID
  5
80
330
77
100
AcDbEntity
  8
BEMASSUNG
  6
Continuous
100
AcDbTrace
 10
816.6133404893409
 20
405.0280411033375
 30
0.0
 11
816.6133404893409
 21
403.1613744366708
 31
0.0
 12
822.2133404893408
 22
404.0947077700042
 32
0.0
 13
822.2133404893408
 23
404.0947077700042
 33
0.0
  0
POINT
  5
81
330
77
100
AcDbEntity
  8
DEFPOINTS
  6
Continuous
 62
     0
100
AcDbPoint
 10
825.6133404893409
 20
403.8930903967479
 30
0.0
  0
POINT
  5
82
330
77
100
AcDbEntity
  8
DEFPOINTS
  6
Continuous
 62
     0
100
AcDbPoint
 10
822.2133404893408
 20
404.1955164566319
 30
0.0
  0
POINT
  5
83
330
77
100
AcDbEntity
  8
DEFPOINTS
  6
Continuous
 62
     0
100
AcDbPoint
 10
822.2133404893408
 20
404.0947077700042
 30
0.0
  0
ENDBLK
  5
84
330
77
100
AcDbEntity
  8
0
100
AcDbBlockEnd
  0
BLOCK
  5
ED
330
EC
100
AcDbEntity
  8
0
100
AcDbBlockBegin
  2
*D23
 70
     1
 10
0.0
 20
0.0
 30
0.0
  3
*D23
  1

  0
LINE
  5
EE
330
EC
100
AcDbEntity
  8
BEMASSUNG
  6
Continuous
370
    -2
100
AcDbLine
 10
711.3315101110408
 20
427.6257031729499
 30
0.0
 11
711.3315101110408
 21
443.7890593462162
 31
0.0
  0
LINE
  5
EF
330
EC
100
AcDbEntity
  8
BEMASSUNG
  6
Continuous
370
    -2
100
AcDbLine
 10
720.3315101110408
 20
427.6257031729499
 30
0.0
 11
720.3315101110408
 21
443.7890593462162
 31
0.0
  0
LINE
  5
F0
330
EC
100
AcDbEntity
  8
BEMASSUNG
  6
Continuous
370
    -2
100
AcDbLine
 10
705.7315101110408
 20
442.9890593462162
 30
0.0
 11
700.1315101110408
 21
442.9890593462162
 31
0.0
  0
LINE
  5
F1
330
EC
100
AcDbEntity
  8
BEMASSUNG
  6
Continuous
370
    -2
100
AcDbLine
 10
725.9315101110408
 20
442.9890593462162
 30
0.0
 11
731.5315101110408
 21
442.9890593462162
 31
0.0
  0
MTEXT
  5
F2
330
EC
100
AcDbEntity
  8
BEMASSUNG
  6
Continuous
 62
     3
100
AcDbMText
 10
715.5386914927739
 20
447.9759718193474
 30
0.0
 40
5.6
 41
0.0
 71
     5
 72
     1
  1
\A1;9
  7
NORM
 73
     1
 44
1.0
  0
LINE
  5
F3
330
EC
100
AcDbEntity
  8
BEMASSUNG
  6
Continuous
370
    -2
100
AcDbLine
 10
711.3315101110408
 20
442.9890593462162
 30
0.0
 11
720.3315101110408
 21
442.9890593462162
 31
0.0
  0
SOLID
  5
F4
330
EC
100
AcDbEntity
  8
BEMASSUNG
  6
Continuous
100
AcDbTrace
 10
705.7315101110408
 20
443.9223926795495
 30
0.0
 11
705.7315101110408
 21
442.0557260128829
 31
0.0
 12
711.3315101110408
 22
442.9890593462162
 32
0.0
 13
711.3315101110408
 23
442.9890593462162
 33
0.0
  0
SOLID
  5
F5
330
EC
100
AcDbEntity
  8
BEMASSUNG
  6
Continuous
100
AcDbTrace
 10
725.9315101110408
 20
443.9223926795495
 30
0.0
 11
725.9315101110408
 21
442.0557260128829
 31
0.0
 12
720.3315101110408
 22
442.9890593462162
 32
0.0
 13
720.3315101110408
 23
442.9890593462162
 33
0.0
  0
POINT
  5
F6
330
EC
100
AcDbEntity
  8
DEFPOINTS
  6
Continuous
 62
     0
100
AcDbPoint
 10
711.3315101110408
 20
426.8257031729499
 30
0.0
  0
POINT
  5
F7
330
EC
100
AcDbEntity
  8
DEFPOINTS
  6
Continuous
 62
     0
100
AcDbPoint
 10
720.3315101110408
 20
426.8257031729499
 30
0.0
  0
POINT
  5
F8
330
EC
100
AcDbEntity
  8
DEFPOINTS
  6
Continuous
 62
     0
100
AcDbPoint
 10
720.3315101110408
 20
442.9890593462162
 30
0.0
  0
ENDBLK
  5
F9
330
EC
100
AcDbEntity
  8
0
100
AcDbBlockEnd
  0
BLOCK
  5
130
330
12F
100
AcDbEntity
  8
0
100
AcDbBlockBegin
  2
*D24
 70
     1
 10
0.0
 20
0.0
 30
0.0
  3
*D24
  1

  0
LINE
  5
131
330
12F
100
AcDbEntity
  8
BEMASSUNG
  6
Continuous
370
    -2
100
AcDbLine
 10
727.8315101110406
 20
432.3257031729501
 30
0.0
 11
771.9021129046422
 21
432.3257031729501
 31
0.0
  0
LINE
  5
132
330
12F
100
AcDbEntity
  8
BEMASSUNG
  6
Continuous
370
    -2
100
AcDbLine
 10
740.2315101110407
 20
380.82570317295
 30
0.0
 11
771.9021129046422
 21
380.82570317295
 31
0.0
  0
LINE
  5
133
330
12F
100
AcDbEntity
  8
BEMASSUNG
  6
Continuous
370
    -2
100
AcDbLine
 10
771.1021129046423
 20
426.7257031729501
 30
0.0
 11
771.1021129046423
 21
386.42570317295
 31
0.0
  0
SOLID
  5
134
330
12F
100
AcDbEntity
  8
BEMASSUNG
  6
Continuous
100
AcDbTrace
 10
770.1687795713089
 20
426.7257031729501
 30
0.0
 11
772.0354462379755
 21
426.7257031729501
 31
0.0
 12
771.1021129046423
 22
432.3257031729501
 32
0.0
 13
771.1021129046423
 23
432.3257031729501
 33
0.0
  0
SOLID
  5
135
330
12F
100
AcDbEntity
  8
BEMASSUNG
  6
Continuous
100
AcDbTrace
 10
770.1687795713089
 20
386.42570317295
 30
0.0
 11
772.0354462379755
 21
386.42570317295
 31
0.0
 12
771.1021129046423
 22
380.82570317295
 32
0.0
 13
771.1021129046423
 23
380.82570317295
 33
0.0
  0
MTEXT
  5
136
330
12F
100
AcDbEntity
  8
BEMASSUNG
  6
Continuous
 62
     3
100
AcDbMText
 10
766.7021129046421
 20
406.5757031729502
 30
0.0
 40
5.6
 41
0.0
 71
     5
 72
     1
  1
\A1;51.5
  7
NORM
 11
0.0000000000000001
 21
1.0
 31
0.0
 73
     1
 44
1.0
  0
POINT
  5
137
330
12F
100
AcDbEntity
  8
DEFPOINTS
  6
Continuous
 62
     0
100
AcDbPoint
 10
727.0315101110407
 20
432.3257031729501
 30
0.0
  0
POINT
  5
138
330
12F
100
AcDbEntity
  8
DEFPOINTS
  6
Continuous
 62
     0
100
AcDbPoint
 10
739.4315101110407
 20
380.82570317295
 30
0.0
  0
POINT
  5
139
330
12F
100
AcDbEntity
  8
DEFPOINTS
  6
Continuous
 62
     0
100
AcDbPoint
 10
771.1021129046423
 20
380.82570317295
 30
0.0
  0
ENDBLK
  5
13A
330
12F
100
AcDbEntity
  8
0
100
AcDbBlockEnd
  0
BLOCK
  5
13D
330
13C
100
AcDbEntity
  8
0
100
AcDbBlockBegin
  2
*D25
 70
     1
 10
0.0
 20
0.0
 30
0.0
  3
*D25
  1

  0
LINE
  5
13E
330
13C
100
AcDbEntity
  8
BEMASSUNG
  6
Continuous
370
    -2
100
AcDbLine
 10
740.2315101110407
 20
380.82570317295
 30
0.0
 11
760.6621638817617
 21
380.82570317295
 31
0.0
  0
LINE
  5
13F
330
13C
100
AcDbEntity
  8
BEMASSUNG
  6
Continuous
370
    -2
100
AcDbLine
 10
723.6315101110408
 20
426.8257031729499
 30
0.0
 11
760.6621638817617
 21
426.8257031729499
 31
0.0
  0
LINE
  5
140
330
13C
100
AcDbEntity
  8
BEMASSUNG
  6
Continuous
370
    -2
100
AcDbLine
 10
759.8621638817618
 20
386.42570317295
 30
0.0
 11
759.8621638817618
 21
421.2257031729499
 31
0.0
  0
SOLID
  5
141
330
13C
100
AcDbEntity
  8
BEMASSUNG
  6
Continuous
100
AcDbTrace
 10
758.9288305484285
 20
386.42570317295
 30
0.0
 11
760.7954972150951
 21
386.42570317295
 31
0.0
 12
759.8621638817618
 22
380.82570317295
 32
0.0
 13
759.8621638817618
 23
380.82570317295
 33
0.0
  0
SOLID
  5
142
330
13C
100
AcDbEntity
  8
BEMASSUNG
  6
Continuous
100
AcDbTrace
 10
758.9288305484285
 20
421.2257031729499
 30
0.0
 11
760.7954972150951
 21
421.2257031729499
 31
0.0
 12
759.8621638817618
 22
426.8257031729499
 32
0.0
 13
759.8621638817618
 23
426.8257031729499
 33
0.0
  0
MTEXT
  5
143
330
13C
100
AcDbEntity
  8
BEMASSUNG
  6
Continuous
 62
     3
100
AcDbMText
 10
755.4621638817617
 20
403.82570317295
 30
0.0
 40
5.6
 41
0.0
 71
     5
 72
     1
  1
\A1;46
  7
NORM
 11
0.0000000000000001
 21
1.0
 31
0.0
 73
     1
 44
1.0
  0
POINT
  5
144
330
13C
100
AcDbEntity
  8
DEFPOINTS
  6
Continuous
 62
     0
100
AcDbPoint
 10
739.4315101110407
 20
380.82570317295
 30
0.0
  0
POINT
  5
145
330
13C
100
AcDbEntity
  8
DEFPOINTS
  6
Continuous
 62
     0
100
AcDbPoint
 10
722.8315101110409
 20
426.8257031729499
 30
0.0
  0
POINT
  5
146
330
13C
100
AcDbEntity
  8
DEFPOINTS
  6
Continuous
 62
     0
100
AcDbPoint
 10
759.8621638817618
 20
426.8257031729499
 30
0.0
  0
ENDBLK
  5
147
330
13C
100
AcDbEntity
  8
0
100
AcDbBlockEnd
  0
BLOCK
  5
14A
330
149
100
AcDbEntity
  8
0
100
AcDbBlockBegin
  2
*D26
 70
     1
 10
0.0
 20
0.0
 30
0.0
  3
*D26
  1

  0
LINE
  5
14B
330
149
100
AcDbEntity
  8
BEMASSUNG
  6
Continuous
370
    -2
100
AcDbLine
 10
696.8315101110408
 20
386.2257031729501
 30
0.0
 11
696.8315101110408
 21
405.5115768776018
 31
0.0
  0
LINE
  5
14C
330
149
100
AcDbEntity
  8
BEMASSUNG
  6
Continuous
370
    -2
100
AcDbLine
 10
734.8315101110408
 20
386.2257031729501
 30
0.0
 11
734.8315101110408
 21
405.5115768776018
 31
0.0
  0
LINE
  5
14D
330
149
100
AcDbEntity
  8
BEMASSUNG
  6
Continuous
370
    -2
100
AcDbLine
 10
702.4315101110409
 20
404.7115768776018
 30
0.0
 11
729.2315101110408
 21
404.7115768776018
 31
0.0
  0
SOLID
  5
14E
330
149
100
AcDbEntity
  8
BEMASSUNG
  6
Continuous
100
AcDbTrace
 10
702.4315101110409
 20
405.6449102109351
 30
0.0
 11
702.4315101110409
 21
403.7782435442684
 31
0.0
 12
696.8315101110408
 22
404.7115768776018
 32
0.0
 13
696.8315101110408
 23
404.7115768776018
 33
0.0
  0
SOLID
  5
14F
330
149
100
AcDbEntity
  8
BEMASSUNG
  6
Continuous
100
AcDbTrace
 10
729.2315101110408
 20
405.6449102109351
 30
0.0
 11
729.2315101110408
 21
403.7782435442684
 31
0.0
 12
734.8315101110408
 22
404.7115768776018
 32
0.0
 13
734.8315101110408
 23
404.7115768776018
 33
0.0
  0
MTEXT
  5
150
330
149
100
AcDbEntity
  8
BEMASSUNG
  6
Continuous
 62
     3
100
AcDbMText
 10
715.8315101110408
 20
409.1115768776018
 30
0.0
 40
5.6
 41
0.0
 71
     5
 72
     1
  1
\A1;38
  7
NORM
 73
     1
 44
1.0
  0
POINT
  5
151
330
149
100
AcDbEntity
  8
DEFPOINTS
  6
Continuous
 62
     0
100
AcDbPoint
 10
696.8315101110408
 20
385.4257031729501
 30
0.0
  0
POINT
  5
152
330
149
100
AcDbEntity
  8
DEFPOINTS
  6
Continuous
 62
     0
100
AcDbPoint
 10
734.8315101110408
 20
385.4257031729501
 30
0.0
  0
POINT
  5
153
330
149
100
AcDbEntity
  8
DEFPOINTS
  6
Continuous
 62
     0
100
AcDbPoint
 10
734.8315101110408
 20
404.7115768776018
 30
0.0
  0
ENDBLK
  5
154
330
149
100
AcDbEntity
  8
0
100
AcDbBlockEnd
  0
BLOCK
  5
10A
330
109
100
AcDbEntity
  8
0
100
AcDbBlockBegin
  2
*D27
 70
     1
 10
0.0
 20
0.0
 30
0.0
  3
*D27
  1

  0
LINE
  5
10B
330
109
100
AcDbEntity
  8
BEMASSUNG
  6
Continuous
370
    -2
100
AcDbLine
 10
719.8315101110408
 20
385.6257031729505
 30
0.0
 11
719.8315101110408
 21
391.4186259306899
 31
0.0
  0
LINE
  5
10C
330
109
100
AcDbEntity
  8
BEMASSUNG
  6
Continuous
370
    -2
100
AcDbLine
 10
711.8315101110408
 20
385.6257031729503
 30
0.0
 11
711.8315101110408
 21
391.4186259306899
 31
0.0
  0
LINE
  5
10D
330
109
100
AcDbEntity
  8
BEMASSUNG
  6
Continuous
370
    -2
100
AcDbLine
 10
725.4315101110408
 20
390.6186259306899
 30
0.0
 11
731.0315101110408
 21
390.6186259306899
 31
0.0
  0
LINE
  5
10E
330
109
100
AcDbEntity
  8
BEMASSUNG
  6
Continuous
370
    -2
100
AcDbLine
 10
706.2315101110408
 20
390.6186259306899
 30
0.0
 11
700.6315101110408
 21
390.6186259306899
 31
0.0
  0
MTEXT
  5
10F
330
109
100
AcDbEntity
  8
BEMASSUNG
  6
Continuous
 62
     3
100
AcDbMText
 10
704.1159992325638
 20
395.4117212561178
 30
0.0
 40
5.6
 41
0.0
 71
     5
 72
     1
  1
\A1;9
  7
NORM
 73
     1
 44
1.0
  0
LINE
  5
110
330
109
100
AcDbEntity
  8
BEMASSUNG
  6
Continuous
370
    -2
100
AcDbLine
 10
719.8315101110408
 20
390.6186259306899
 30
0.0
 11
711.8315101110408
 21
390.6186259306899
 31
0.0
  0
SOLID
  5
111
330
109
100
AcDbEntity
  8
BEMASSUNG
  6
Continuous
100
AcDbTrace
 10
725.4315101110408
 20
391.5519592640232
 30
0.0
 11
725.4315101110408
 21
389.6852925973565
 31
0.0
 12
719.8315101110408
 22
390.6186259306899
 32
0.0
 13
719.8315101110408
 23
390.6186259306899
 33
0.0
  0
SOLID
  5
112
330
109
100
AcDbEntity
  8
BEMASSUNG
  6
Continuous
100
AcDbTrace
 10
706.2315101110408
 20
391.5519592640232
 30
0.0
 11
706.2315101110408
 21
389.6852925973565
 31
0.0
 12
711.8315101110408
 22
390.6186259306899
 32
0.0
 13
711.8315101110408
 23
390.6186259306899
 33
0.0
  0
POINT
  5
113
330
109
100
AcDbEntity
  8
DEFPOINTS
  6
Continuous
 62
     0
100
AcDbPoint
 10
719.8315101110408
 20
384.8257031729505
 30
0.0
  0
POINT
  5
114
330
109
100
AcDbEntity
  8
DEFPOINTS
  6
Continuous
 62
     0
100
AcDbPoint
 10
711.8315101110408
 20
384.8257031729503
 30
0.0
  0
POINT
  5
115
330
109
100
AcDbEntity
  8
DEFPOINTS
  6
Continuous
 62
     0
100
AcDbPoint
 10
711.8315101110408
 20
390.6186259306899
 30
0.0
  0
ENDBLK
  5
116
330
109
100
AcDbEntity
  8
0
100
AcDbBlockEnd
  0
BLOCK
  5
88
330
87
100
AcDbEntity
  8
0
100
AcDbBlockBegin
  2
*D28
 70
     1
 10
0.0
 20
0.0
 30
0.0
  3
*D28
  1

  0
LINE
  5
89
330
87
100
AcDbEntity
  8
BEMASSUNG
  6
Continuous
370
    -2
100
AcDbLine
 10
825.6133404893409
 20
386.9257031729499
 30
0.0
 11
825.6133404893409
 21
372.4918346438639
 31
0.0
  0
LINE
  5
8A
330
87
100
AcDbEntity
  8
BEMASSUNG
  6
Continuous
370
    -2
100
AcDbLine
 10
836.6133404893412
 20
389.4257031729498
 30
0.0
 11
836.6133404893412
 21
372.4918346438639
 31
0.0
  0
LINE
  5
8B
330
87
100
AcDbEntity
  8
BEMASSUNG
  6
Continuous
370
    -2
100
AcDbLine
 10
820.013340489341
 20
373.2918346438639
 30
0.0
 11
814.4133404893409
 21
373.2918346438639
 31
0.0
  0
LINE
  5
8C
330
87
100
AcDbEntity
  8
BEMASSUNG
  6
Continuous
370
    -2
100
AcDbLine
 10
842.2133404893411
 20
373.2918346438639
 30
0.0
 11
847.8133404893412
 21
373.2918346438639
 31
0.0
  0
MTEXT
  5
8D
330
87
100
AcDbEntity
  8
BEMASSUNG
  6
Continuous
 62
     3
100
AcDbMText
 10
830.3792600389602
 20
377.8020564890197
 30
0.0
 40
5.6
 41
0.0
 71
     5
 72
     1
  1
\A1;11
  7
NORM
 73
     1
 44
1.0
  0
LINE
  5
8E
330
87
100
AcDbEntity
  8
BEMASSUNG
  6
Continuous
370
    -2
100
AcDbLine
 10
825.6133404893409
 20
373.2918346438639
 30
0.0
 11
836.6133404893412
 21
373.2918346438639
 31
0.0
  0
SOLID
  5
8F
330
87
100
AcDbEntity
  8
BEMASSUNG
  6
Continuous
100
AcDbTrace
 10
820.013340489341
 20
374.2251679771972
 30
0.0
 11
820.013340489341
 21
372.3585013105306
 31
0.0
 12
825.6133404893409
 22
373.2918346438639
 32
0.0
 13
825.6133404893409
 23
373.2918346438639
 33
0.0
  0
SOLID
  5
90
330
87
100
AcDbEntity
  8
BEMASSUNG
  6
Continuous
100
AcDbTrace
 10
842.2133404893411
 20
374.2251679771972
 30
0.0
 11
842.2133404893411
 21
372.3585013105306
 31
0.0
 12
836.6133404893412
 22
373.2918346438639
 32
0.0
 13
836.6133404893412
 23
373.2918346438639
 33
0.0
  0
POINT
  5
91
330
87
100
AcDbEntity
  8
DEFPOINTS
  6
Continuous
 62
     0
100
AcDbPoint
 10
825.6133404893409
 20
387.7257031729499
 30
0.0
  0
POINT
  5
92
330
87
100
AcDbEntity
  8
DEFPOINTS
  6
Continuous
 62
     0
100
AcDbPoint
 10
836.6133404893412
 20
390.2257031729498
 30
0.0
  0
POINT
  5
93
330
87
100
AcDbEntity
  8
DEFPOINTS
  6
Continuous
 62
     0
100
AcDbPoint
 10
836.6133404893412
 20
373.2918346438639
 30
0.0
  0
ENDBLK
  5
94
330
87
100
AcDbEntity
  8
0
100
AcDbBlockEnd
  0
BLOCK
  5
2AE
330
2AD
100
AcDbEntity
  8
0
100
AcDbBlockBegin
  2
*D29
 70
     1
 10
0.0
 20
0.0
 30
0.0
  3
*D29
  1

  0
LINE
  5
2AF
330
2AD
100
AcDbEntity
  8
BEMASSUNG
  6
Continuous
370
    -2
100
AcDbLine
 10
655.8315101110409
 20
468.625703172949
 30
0.0
 11
655.8315101110409
 21
485.1981634006766
 31
0.0
  0
LINE
  5
2B0
330
2AD
100
AcDbEntity
  8
BEMASSUNG
  6
Continuous
370
    -2
100
AcDbLine
 10
658.8315101110408
 20
468.625703172949
 30
0.0
 11
658.8315101110408
 21
485.1981634006766
 31
0.0
  0
LINE
  5
2B1
330
2AD
100
AcDbEntity
  8
BEMASSUNG
  6
Continuous
370
    -2
100
AcDbLine
 10
650.2315101110408
 20
484.3981634006765
 30
0.0
 11
644.6315101110408
 21
484.3981634006765
 31
0.0
  0
LINE
  5
2B2
330
2AD
100
AcDbEntity
  8
BEMASSUNG
  6
Continuous
370
    -2
100
AcDbLine
 10
664.4315101110408
 20
484.3981634006765
 30
0.0
 11
670.0315101110409
 21
484.3981634006765
 31
0.0
  0
LINE
  5
2B3
330
2AD
100
AcDbEntity
  8
BEMASSUNG
  6
Continuous
370
    -2
100
AcDbLine
 10
655.8315101110409
 20
484.3981634006765
 30
0.0
 11
658.8315101110408
 21
484.3981634006765
 31
0.0
  0
SOLID
  5
2B4
330
2AD
100
AcDbEntity
  8
BEMASSUNG
  6
Continuous
100
AcDbTrace
 10
650.2315101110408
 20
485.3314967340099
 30
0.0
 11
650.2315101110408
 21
483.4648300673432
 31
0.0
 12
655.8315101110409
 22
484.3981634006765
 32
0.0
 13
655.8315101110409
 23
484.3981634006765
 33
0.0
  0
SOLID
  5
2B5
330
2AD
100
AcDbEntity
  8
BEMASSUNG
  6
Continuous
100
AcDbTrace
 10
664.4315101110408
 20
485.3314967340099
 30
0.0
 11
664.4315101110408
 21
483.4648300673432
 31
0.0
 12
658.8315101110408
 22
484.3981634006765
 32
0.0
 13
658.8315101110408
 23
484.3981634006765
 33
0.0
  0
MTEXT
  5
2B6
330
2AD
100
AcDbEntity
  8
BEMASSUNG
  6
Continuous
 62
     3
100
AcDbMText
 10
657.3315101110408
 20
488.7981634006766
 30
0.0
 40
5.6
 41
0.0
 71
     5
 72
     1
  1
\A1;3
  7
NORM
 73
     1
 44
1.0
  0
POINT
  5
2B7
330
2AD
100
AcDbEntity
  8
DEFPOINTS
  6
Continuous
 62
     0
100
AcDbPoint
 10
655.8315101110409
 20
467.825703172949
 30
0.0
  0
POINT
  5
2B8
330
2AD
100
AcDbEntity
  8
DEFPOINTS
  6
Continuous
 62
     0
100
AcDbPoint
 10
658.8315101110408
 20
467.825703172949
 30
0.0
  0
POINT
  5
2B9
330
2AD
100
AcDbEntity
  8
DEFPOINTS
  6
Continuous
 62
     0
100
AcDbPoint
 10
658.8315101110408
 20
484.3981634006765
 30
0.0
  0
ENDBLK
  5
2BA
330
2AD
100
AcDbEntity
  8
0
100
AcDbBlockEnd
  0
BLOCK
  5
4E
330
4D
100
AcDbEntity
  8
0
100
AcDbBlockBegin
  2
*D30
 70
     1
 10
0.0
 20
0.0
 30
0.0
  3
*D30
  1

  0
LINE
  5
4F
330
4D
100
AcDbEntity
  8
BEMASSUNG
  6
Continuous
370
    -2
100
AcDbLine
 10
822.2133404893408
 20
247.0257031729495
 30
0.0
 11
822.2133404893408
 21
210.6925063694208
 31
0.0
  0
LINE
  5
50
330
4D
100
AcDbEntity
  8
BEMASSUNG
  6
Continuous
370
    -2
100
AcDbLine
 10
842.213340489341
 20
247.0257031729495
 30
0.0
 11
842.213340489341
 21
210.6925063694208
 31
0.0
  0
LINE
  5
51
330
4D
100
AcDbEntity
  8
BEMASSUNG
  6
Continuous
370
    -2
100
AcDbLine
 10
816.6133404893409
 20
211.4925063694209
 30
0.0
 11
811.0133404893408
 21
211.4925063694209
 31
0.0
  0
LINE
  5
52
330
4D
100
AcDbEntity
  8
BEMASSUNG
  6
Continuous
370
    -2
100
AcDbLine
 10
847.8133404893409
 20
211.4925063694209
 30
0.0
 11
853.413340489341
 21
211.4925063694209
 31
0.0
  0
LINE
  5
53
330
4D
100
AcDbEntity
  8
BEMASSUNG
  6
Continuous
370
    -2
100
AcDbLine
 10
822.2133404893408
 20
211.4925063694209
 30
0.0
 11
842.213340489341
 21
211.4925063694209
 31
0.0
  0
SOLID
  5
54
330
4D
100
AcDbEntity
  8
BEMASSUNG
  6
Continuous
100
AcDbTrace
 10
816.6133404893409
 20
212.4258397027542
 30
0.0
 11
816.6133404893409
 21
210.5591730360875
 31
0.0
 12
822.2133404893408
 22
211.4925063694209
 32
0.0
 13
822.2133404893408
 23
211.4925063694209
 33
0.0
  0
SOLID
  5
55
330
4D
100
AcDbEntity
  8
BEMASSUNG
  6
Continuous
100
AcDbTrace
 10
847.8133404893409
 20
212.4258397027542
 30
0.0
 11
847.8133404893409
 21
210.5591730360875
 31
0.0
 12
842.213340489341
 22
211.4925063694209
 32
0.0
 13
842.213340489341
 23
211.4925063694209
 33
0.0
  0
MTEXT
  5
56
330
4D
100
AcDbEntity
  8
BEMASSUNG
  6
Continuous
 62
     3
100
AcDbMText
 10
832.2133404893408
 20
217.3591730360875
 30
0.0
 40
5.6
 41
0.0
 71
     5
 72
     1
  1
\A1;18/20
  7
NORM
 73
     1
 44
1.0
  0
POINT
  5
57
330
4D
100
AcDbEntity
  8
DEFPOINTS
  6
Continuous
 62
     0
100
AcDbPoint
 10
822.2133404893408
 20
247.8257031729495
 30
0.0
  0
POINT
  5
58
330
4D
100
AcDbEntity
  8
DEFPOINTS
  6
Continuous
 62
     0
100
AcDbPoint
 10
842.213340489341
 20
247.8257031729495
 30
0.0
  0
POINT
  5
59
330
4D
100
AcDbEntity
  8
DEFPOINTS
  6
Continuous
 62
     0
100
AcDbPoint
 10
842.213340489341
 20
211.4925063694209
 30
0.0
  0
ENDBLK
  5
5A
330
4D
100
AcDbEntity
  8
0
100
AcDbBlockEnd
  0
BLOCK
  5
41
330
40
100
AcDbEntity
  8
0
100
AcDbBlockBegin
  2
*D31
 70
     1
 10
0.0
 20
0.0
 30
0.0
  3
*D31
  1

  0
LINE
  5
42
330
40
100
AcDbEntity
  8
BEMASSUNG
  6
Continuous
370
    -2
100
AcDbLine
 10
658.8315101110404
 20
237.0257031729494
 30
0.0
 11
658.8315101110404
 21
216.1762589978254
 31
0.0
  0
LINE
  5
43
330
40
100
AcDbEntity
  8
BEMASSUNG
  6
Continuous
370
    -2
100
AcDbLine
 10
715.8315101110408
 20
275.7257031729495
 30
0.0
 11
715.8315101110408
 21
216.1762589978254
 31
0.0
  0
LINE
  5
44
330
40
100
AcDbEntity
  8
BEMASSUNG
  6
Continuous
370
    -2
100
AcDbLine
 10
664.4315101110404
 20
216.9762589978254
 30
0.0
 11
710.2315101110408
 21
216.9762589978254
 31
0.0
  0
SOLID
  5
45
330
40
100
AcDbEntity
  8
BEMASSUNG
  6
Continuous
100
AcDbTrace
 10
664.4315101110404
 20
217.9095923311588
 30
0.0
 11
664.4315101110404
 21
216.0429256644921
 31
0.0
 12
658.8315101110404
 22
216.9762589978254
 32
0.0
 13
658.8315101110404
 23
216.9762589978254
 33
0.0
  0
SOLID
  5
46
330
40
100
AcDbEntity
  8
BEMASSUNG
  6
Continuous
100
AcDbTrace
 10
710.2315101110408
 20
217.9095923311588
 30
0.0
 11
710.2315101110408
 21
216.0429256644921
 31
0.0
 12
715.8315101110408
 22
216.9762589978254
 32
0.0
 13
715.8315101110408
 23
216.9762589978254
 33
0.0
  0
MTEXT
  5
47
330
40
100
AcDbEntity
  8
BEMASSUNG
  6
Continuous
 62
     3
100
AcDbMText
 10
687.3315101110406
 20
221.3762589978254
 30
0.0
 40
5.6
 41
0.0
 71
     5
 72
     1
  1
\A1;DM
  7
NORM
 73
     1
 44
1.0
  0
POINT
  5
48
330
40
100
AcDbEntity
  8
DEFPOINTS
  6
Continuous
 62
     0
100
AcDbPoint
 10
658.8315101110404
 20
237.8257031729494
 30
0.0
  0
POINT
  5
49
330
40
100
AcDbEntity
  8
DEFPOINTS
  6
Continuous
 62
     0
100
AcDbPoint
 10
715.8315101110408
 20
276.5257031729495
 30
0.0
  0
POINT
  5
4A
330
40
100
AcDbEntity
  8
DEFPOINTS
  6
Continuous
 62
     0
100
AcDbPoint
 10
715.8315101110408
 20
216.9762589978254
 30
0.0
  0
ENDBLK
  5
4B
330
40
100
AcDbEntity
  8
0
100
AcDbBlockEnd
  0
BLOCK
  5
33
330
32
100
AcDbEntity
  8
0
100
AcDbBlockBegin
  2
*D32
 70
     1
 10
0.0
 20
0.0
 30
0.0
  3
*D32
  1

  0
LINE
  5
34
330
32
100
AcDbEntity
  8
BEMASSUNG
  6
Continuous
370
    -2
100
AcDbLine
 10
715.8315101110408
 20
275.7257031729495
 30
0.0
 11
715.8315101110408
 21
216.1762589978254
 31
0.0
  0
LINE
  5
35
330
32
100
AcDbEntity
  8
BEMASSUNG
  6
Continuous
370
    -2
100
AcDbLine
 10
744.8299653353224
 20
294.3125580379312
 30
0.0
 11
744.8299653353224
 21
216.1762589978254
 31
0.0
  0
LINE
  5
36
330
32
100
AcDbEntity
  8
BEMASSUNG
  6
Continuous
370
    -2
100
AcDbLine
 10
721.4315101110408
 20
216.9762589978254
 30
0.0
 11
739.2299653353224
 21
216.9762589978254
 31
0.0
  0
SOLID
  5
37
330
32
100
AcDbEntity
  8
BEMASSUNG
  6
Continuous
100
AcDbTrace
 10
721.4315101110408
 20
217.9095923311588
 30
0.0
 11
721.4315101110408
 21
216.0429256644921
 31
0.0
 12
715.8315101110408
 22
216.9762589978254
 32
0.0
 13
715.8315101110408
 23
216.9762589978254
 33
0.0
  0
SOLID
  5
38
330
32
100
AcDbEntity
  8
BEMASSUNG
  6
Continuous
100
AcDbTrace
 10
739.2299653353224
 20
217.9095923311588
 30
0.0
 11
739.2299653353224
 21
216.0429256644921
 31
0.0
 12
744.8299653353224
 22
216.9762589978254
 32
0.0
 13
744.8299653353224
 23
216.9762589978254
 33
0.0
  0
MTEXT
  5
39
330
32
100
AcDbEntity
  8
BEMASSUNG
  6
Continuous
 62
     3
100
AcDbMText
 10
730.3307377231816
 20
221.3762589978254
 30
0.0
 40
5.6
 41
0.0
 71
     5
 72
     1
  1
\A1;29
  7
NORM
 73
     1
 44
1.0
  0
POINT
  5
3A
330
32
100
AcDbEntity
  8
DEFPOINTS
  6
Continuous
 62
     0
100
AcDbPoint
 10
715.8315101110408
 20
276.5257031729495
 30
0.0
  0
POINT
  5
3C
330
32
100
AcDbEntity
  8
DEFPOINTS
  6
Continuous
 62
     0
100
AcDbPoint
 10
744.8299653353224
 20
295.1125580379312
 30
0.0
  0
POINT
  5
3D
330
32
100
AcDbEntity
  8
DEFPOINTS
  6
Continuous
 62
     0
100
AcDbPoint
 10
744.8299653353224
 20
216.9762589978254
 30
0.0
  0
ENDBLK
  5
3E
330
32
100
AcDbEntity
  8
0
100
AcDbBlockEnd
  0
ENDSEC
  0
SECTION
  2
ENTITIES
  0
DIMENSION
  5
30
330
2
100
AcDbEntity
  8
BEMASSUNG
  6
Continuous
100
AcDbDimension
  2
*D32
 10
744.8299653353224
 20
216.9762589978254
 30
0.0
 11
730.3307377231816
 21
221.3762589978254
 31
0.0
 71
     5
 42
28.99845522428154
  3
PROSPEKT
100
AcDbAlignedDimension
 13
715.8315101110408
 23
276.5257031729495
 33
0.0
 14
744.8299653353224
 24
295.1125580379312
 34
0.0
100
AcDbRotatedDimension
  0
DIMENSION
  5
3F
330
2
100
AcDbEntity
  8
BEMASSUNG
  6
Continuous
100
AcDbDimension
  2
*D31
 10
715.8315101110408
 20
216.9762589978254
 30
0.0
 11
687.3315101110406
 21
221.3762589978254
 31
0.0
  1
DM
 71
     5
 42
57.00000000000045
  3
PROSPEKT
100
AcDbAlignedDimension
 13
658.8315101110404
 23
237.8257031729494
 33
0.0
 14
715.8315101110408
 24
276.5257031729495
 34
0.0
100
AcDbRotatedDimension
  0
DIMENSION
  5
4C
330
2
100
AcDbEntity
  8
BEMASSUNG
  6
Continuous
100
AcDbDimension
  2
*D30
 10
842.213340489341
 20
211.4925063694209
 30
0.0
 11
832.2133404893408
 21
217.3591730360875
 31
0.0
  1
18/<>
 71
     5
 42
20.0
  3
PROSPEKT
100
AcDbAlignedDimension
 13
822.2133404893408
 23
247.8257031729495
 33
0.0
 14
842.213340489341
 24
247.8257031729495
 34
0.0
100
AcDbRotatedDimension
  0
CIRCLE
  5
5B
330
2
100
AcDbEntity
  8
UMRISS05
100
AcDbCircle
 10
832.2133404893408
 20
458.8257031729491
 30
0.0
 40
2.549999999999999
  0
LINE
  5
5D
330
2
100
AcDbEntity
  8
ACHSEN
100
AcDbLine
 10
832.2133404893408
 20
465.5757031729491
 30
0.0
 11
832.2133404893408
 21
452.0757031729491
 31
0.0
  0
LINE
  5
60
330
2
100
AcDbEntity
  8
ACHSEN
100
AcDbLine
 10
825.4633404893409
 20
458.8257031729491
 30
0.0
 11
838.9633404893409
 21
458.8257031729491
 31
0.0
  0
CIRCLE
  5
61
330
2
100
AcDbEntity
  8
UMRISS05
100
AcDbCircle
 10
832.2133404893408
 20
458.8257031729491
 30
0.0
 40
4.75
  0
LINE
  5
62
330
2
100
AcDbEntity
  8
UMRISS05
100
AcDbLine
 10
828.7133404893411
 20
415.4257031729497
 30
0.0
 11
836.6133404893412
 21
415.4257031729498
 31
0.0
  0
LINE
  5
63
330
2
100
AcDbEntity
  8
UMRISS05
100
AcDbLine
 10
825.6133404893409
 20
417.9257031729499
 30
0.0
 11
828.7133404893411
 21
417.9257031729498
 31
0.0
  0
DIMENSION
  5
64
330
2
100
AcDbEntity
  8
BEMASSUNG
  6
Continuous
100
AcDbDimension
  2
*D21
 10
808.4500700874114
 20
467.8257031729491
 30
0.0
 11
804.0126874149182
 21
463.6151188980692
 31
0.0
 70
   128
 71
     5
 42
9.0
  3
PROSPEKT
100
AcDbAlignedDimension
 13
825.4633404893409
 23
458.8257031729491
 33
0.0
 14
832.2133404893408
 24
467.8257031729491
 34
0.0
 50
90.0
100
AcDbRotatedDimension
  0
ARC
  5
73
330
2
100
AcDbEntity
  8
UMRISS05
100
AcDbCircle
 10
832.2133404893408
 20
457.8257031729491
 30
0.0
 40
10.0
100
AcDbArc
 50
0.0
 51
180.0
  0
LINE
  5
74
330
2
100
AcDbEntity
  8
UMRISS05
100
AcDbLine
 10
828.7133404893411
 20
390.2257031729498
 30
0.0
 11
836.6133404893412
 21
390.2257031729498
 31
0.0
  0
LINE
  5
75
330
2
100
AcDbEntity
  8
UMRISS05
100
AcDbLine
 10
825.6133404893409
 20
387.7257031729499
 30
0.0
 11
828.7133404893411
 21
387.7257031729498
 31
0.0
  0
DIMENSION
  5
76
330
2
100
AcDbEntity
  8
BEMASSUNG
  6
Continuous
100
AcDbDimension
  2
*D22
 10
822.2133404893408
 20
404.0947077700042
 30
0.0
 11
810.8024780251067
 21
408.465339494251
 31
0.0
 70
   128
 71
     5
 42
3.40000000000009
  3
PROSPEKT
100
AcDbAlignedDimension
 13
825.6133404893409
 23
403.8930903967479
 33
0.0
 14
822.2133404893408
 24
404.1955164566319
 34
0.0
100
AcDbRotatedDimension
  0
LINE
  5
85
330
2
100
AcDbEntity
  8
UMRISS05
100
AcDbLine
 10
825.9133404893411
 20
339.9257031729499
 30
0.0
 11
833.4133404893409
 21
339.9257031729499
 31
0.0
  0
DIMENSION
  5
86
330
2
100
AcDbEntity
  8
BEMASSUNG
  6
Continuous
100
AcDbDimension
  2
*D28
 10
836.6133404893412
 20
373.2918346438639
 30
0.0
 11
830.3792600389602
 21
377.8020564890197
 31
0.0
 70
   128
 71
     5
 42
11.00000000000022
  3
PROSPEKT
100
AcDbAlignedDimension
 13
825.6133404893409
 23
387.7257031729499
 33
0.0
 14
836.6133404893412
 24
390.2257031729498
 34
0.0
100
AcDbRotatedDimension
  0
LINE
  5
95
330
2
100
AcDbEntity
  8
UMRISS05
100
AcDbLine
 10
836.6133404893412
 20
415.4257031729498
 30
0.0
 11
836.6133404893412
 21
390.2257031729498
 31
0.0
  0
ARC
  5
96
330
2
100
AcDbEntity
  8
UMRISS05
100
AcDbCircle
 10
749.833340489341
 20
402.8257031729499
 30
0.0
 40
79.88000000000024
100
AcDbArc
 50
350.9244549841865
 51
9.07554501581351
  0
LINE
  5
97
330
2
100
AcDbEntity
  8
UMRISS05
100
AcDbLine
 10
828.7133404893411
 20
417.92570317295
 30
0.0
 11
828.7133404893411
 21
387.7257031729498
 31
0.0
  0
LINE
  5
98
330
2
100
AcDbEntity
  8
UMRISS05
100
AcDbLine
 10
825.6133404893409
 20
417.9257031729499
 30
0.0
 11
825.6133404893409
 21
387.7257031729499
 31
0.0
  0
LINE
  5
99
330
2
100
AcDbEntity
  8
UMRISS05
100
AcDbLine
 10
825.9133404893411
 20
309.7257031729499
 30
0.0
 11
833.4133404893409
 21
309.7257031729499
 31
0.0
  0
DIMENSION
  5
9A
330
2
100
AcDbEntity
  8
BEMASSUNG
  6
Continuous
100
AcDbDimension
  2
*D13
 10
825.9133404893411
 20
324.0068124852895
 30
0.0
 11
811.9904923504964
 21
328.2291883006682
 31
0.0
 70
   128
 71
     5
 42
3.700000000000272
  3
PROSPEKT
100
AcDbAlignedDimension
 13
822.2133404893408
 23
322.4049858587222
 33
0.0
 14
825.9133404893411
 24
324.8257031729499
 34
0.0
100
AcDbRotatedDimension
  0
LINE
  5
A9
330
2
100
AcDbEntity
  8
ACHSEN
100
AcDbLine
 10
823.463340489341
 20
284.4257031729498
 30
0.0
 11
836.9633404893409
 21
284.4257031729498
 31
0.0
  0
CIRCLE
  5
AA
330
2
100
AcDbEntity
  8
UMRISS05
100
AcDbCircle
 10
830.2133404893409
 20
284.4257031729498
 30
0.0
 40
2.75
  0
CIRCLE
  5
AB
330
2
100
AcDbEntity
  8
UMRISS05
100
AcDbCircle
 10
830.2133404893409
 20
284.4257031729498
 30
0.0
 40
4.75
  0
LINE
  5
AC
330
2
100
AcDbEntity
  8
ACHSEN
100
AcDbLine
 10
830.2133404893409
 20
291.1757031729499
 30
0.0
 11
830.2133404893409
 21
277.6757031729498
 31
0.0
  0
DIMENSION
  5
AD
330
2
100
AcDbEntity
  8
BEMASSUNG
  6
Continuous
100
AcDbDimension
  2
*D15
 10
833.4133404893409
 20
299.0902232710945
 30
0.0
 11
813.0401595481412
 21
303.2316453556263
 31
0.0
 70
   128
 71
     5
 42
7.499999999999772
  3
PROSPEKT
100
AcDbAlignedDimension
 13
825.9133404893411
 23
309.7257031729499
 33
0.0
 14
833.4133404893409
 24
309.7257031729499
 34
0.0
100
AcDbRotatedDimension
  0
LINE
  5
BC
330
2
100
AcDbEntity
  8
ACHSEN
100
AcDbLine
 10
832.2133404893408
 20
253.5757031729495
 30
0.0
 11
832.2133404893408
 21
240.0757031729495
 31
0.0
  0
CIRCLE
  5
BD
330
2
100
AcDbEntity
  8
UMRISS05
100
AcDbCircle
 10
832.2133404893408
 20
246.8257031729495
 30
0.0
 40
2.549999999999999
  0
LINE
  5
BE
330
2
100
AcDbEntity
  8
ACHSEN
100
AcDbLine
 10
825.4633404893409
 20
246.8257031729495
 30
0.0
 11
838.9633404893409
 21
246.8257031729495
 31
0.0
  0
CIRCLE
  5
BF
330
2
100
AcDbEntity
  8
UMRISS05
100
AcDbCircle
 10
832.2133404893408
 20
246.8257031729495
 30
0.0
 40
4.75
  0
DIMENSION
  5
C0
330
2
100
AcDbEntity
  8
BEMASSUNG
  6
Continuous
100
AcDbDimension
  2
*D11
 10
808.4399386351405
 20
237.8257031729495
 30
0.0
 11
803.889496846928
 21
242.5512227246621
 31
0.0
 70
   128
  1
<>
 71
     5
 42
8.999999999999971
  3
PROSPEKT
100
AcDbAlignedDimension
 13
825.4633404893409
 23
246.8257031729495
 33
0.0
 14
832.2133404893408
 24
237.8257031729495
 34
0.0
 50
90.0
100
AcDbRotatedDimension
  0
ARC
  5
CF
330
2
100
AcDbEntity
  8
UMRISS05
100
AcDbCircle
 10
832.2133404893408
 20
247.8257031729495
 30
0.0
 40
10.0
100
AcDbArc
 50
180.0
 51
0.0
  0
LINE
  5
D0
330
2
100
AcDbEntity
  8
UMRISS05
100
AcDbLine
 10
825.9133404893411
 20
339.9257031729499
 30
0.0
 11
825.9133404893411
 21
309.7257031729499
 31
0.0
  0
LINE
  5
D1
330
2
100
AcDbEntity
  8
UMRISS05
100
AcDbLine
 10
833.4133404893409
 20
339.9257031729499
 30
0.0
 11
833.4133404893409
 21
309.7257031729499
 31
0.0
  0
LINE
  5
D2
330
2
100
AcDbEntity
  8
UMRISS05
100
AcDbLine
 10
842.213340489341
 20
457.8257031729491
 30
0.0
 11
842.213340489341
 21
247.8257031729495
 31
0.0
  0
LINE
  5
D3
330
2
100
AcDbEntity
  8
UMRISS05
100
AcDbLine
 10
822.2133404893408
 20
457.8257031729491
 30
0.0
 11
822.2133404893408
 21
247.8257031729495
 31
0.0
  0
LINE
  5
D4
330
2
100
AcDbEntity
  8
UMRISS05
100
AcDbLine
 10
743.7708499392611
 20
414.2650430011694
 30
0.0
 11
744.8299653353233
 21
413.2059276051072
 31
0.0
  0
LINE
  5
D5
330
2
100
AcDbEntity
  8
UMRISS05
100
AcDbLine
 10
744.8315101110408
 20
415.3257031729491
 30
0.0
 11
743.7708499392611
 21
414.2650430011694
 31
0.0
  0
LINE
  5
D6
330
2
100
AcDbEntity
  8
UMRISS05
100
AcDbLine
 10
727.0315101110407
 20
432.3257031729491
 30
0.0
 11
727.0315101110407
 21
430.8257031729492
 31
0.0
  0
LINE
  5
D7
330
2
100
AcDbEntity
  8
UMRISS05
100
AcDbLine
 10
728.3971955359898
 20
431.7600177480005
 30
0.0
 11
727.33653536421
 21
430.6993575762207
 31
0.0
  0
LINE
  5
D8
330
2
100
AcDbEntity
  8
UMRISS05
100
AcDbLine
 10
727.0315101110407
 20
430.8257031729492
 30
0.0
 11
727.33653536421
 21
430.6993575762207
 31
0.0
  0
LINE
  5
D9
330
2
100
AcDbEntity
  8
UMRISS05
100
AcDbLine
 10
717.8315101110408
 20
431.5373907687047
 30
0.0
 11
717.8315101110408
 21
432.3257031729491
 31
0.0
  0
ARC
  5
DA
330
2
100
AcDbEntity
  8
UMRISS05
100
AcDbCircle
 10
718.0315101110411
 20
431.5373907687047
 30
0.0
 40
0.2
100
AcDbArc
 50
180.0
 51
244.9710005123719
  0
LINE
  5
DB
330
2
100
AcDbEntity
  8
UMRISS05
100
AcDbLine
 10
713.8315101110408
 20
431.5373907687047
 30
0.0
 11
713.8315101110408
 21
432.3257031729491
 31
0.0
  0
ARC
  5
DC
330
2
100
AcDbEntity
  8
UMRISS05
100
AcDbCircle
 10
713.631510111041
 20
431.5373907687047
 30
0.0
 40
0.2
100
AcDbArc
 50
295.0289994876282
 51
0.0
  0
LINE
  5
DD
330
2
100
AcDbEntity
  8
UMRISS05
100
AcDbLine
 10
717.8315101110404
 20
432.3257031729492
 30
0.0
 11
727.0315101110407
 21
432.3257031729491
 31
0.0
  0
LINE
  5
DE
330
2
100
AcDbEntity
  8
ACHSEN
100
AcDbLine
 10
731.8912786888411
 20
415.2120384868868
 30
0.0
 11
725.7717415332397
 21
417.4393678590117
 31
0.0
  0
LINE
  5
DF
330
2
100
AcDbEntity
  8
ACHSEN
100
AcDbLine
 10
730.10354447758
 20
419.8205888717871
 30
0.0
 11
727.5594757445007
 21
412.8308174741113
 31
0.0
  0
LINE
  5
E0
330
2
100
AcDbEntity
  8
UMRISS03
100
AcDbLine
 10
730.3854585524375
 20
412.9932499862595
 30
0.0
 11
732.1639632977305
 21
417.8796516143462
 31
0.0
  0
LINE
  5
E2
330
2
100
AcDbEntity
  8
UMRISS03
100
AcDbLine
 10
725.4990569243507
 20
414.7717547315528
 30
0.0
 11
727.2775616696442
 21
419.6581563596395
 31
0.0
  0
LINE
  5
E3
330
2
100
AcDbEntity
  8
UMRISS03
100
AcDbLine
 10
725.4990569243507
 20
414.7717547315528
 30
0.0
 11
730.3854585524375
 21
412.9932499862595
 31
0.0
  0
LINE
  5
E4
330
2
100
AcDbEntity
  8
UMRISS03
100
AcDbLine
 10
727.2775616696442
 20
419.6581563596395
 30
0.0
 11
732.1639632977305
 21
417.8796516143462
 31
0.0
  0
LINE
  5
E5
330
2
100
AcDbEntity
  8
ACHSEN
100
AcDbLine
 10
722.2905367212795
 20
426.8257031729496
 30
0.0
 11
709.3724835008022
 21
426.8257031729496
 31
0.0
  0
LINE
  5
E6
330
2
100
AcDbEntity
  8
ACHSEN
100
AcDbLine
 10
709.0761771530744
 20
426.8257031729496
 30
0.0
 11
722.5868430690068
 21
426.8257031729496
 31
0.0
  0
CIRCLE
  5
E7
330
2
100
AcDbEntity
  8
UMRISS05
100
AcDbCircle
 10
715.8315101110408
 20
426.8257031729499
 30
0.0
 40
4.5
  0
ARC
  5
E8
330
2
100
AcDbEntity
  8
UMRISS05
100
AcDbCircle
 10
715.8315101110408
 20
426.8257031729499
 30
0.0
 40
5.0
100
AcDbArc
 50
115.7192795021851
 51
64.28072049781484
  0
CIRCLE
  5
E9
330
2
100
AcDbEntity
  8
UMRISS03
100
AcDbCircle
 10
669.831510111039
 20
423.3257031729501
 30
0.0
 40
3.5
  0
LWPOLYLINE
  5
EA
330
2
100
AcDbEntity
  8
UMRISS03
100
AcDbPolyline
 90
       24
 70
     1
 43
0.0
 10
670.031510111039
 20
425.3257031729495
 10
669.6315101110392
 20
425.3257031729499
 42
0.4142135623733172
 10
669.331510111039
 20
425.02570317295
 10
669.331510111039
 20
423.9257031729498
 42
-0.4142135623732059
 10
669.2315101110391
 20
423.8257031729499
 10
668.1315101110392
 20
423.8257031729501
 42
0.4142135623731427
 10
667.831510111039
 20
423.5257031729502
 10
667.831510111039
 20
423.1257031729503
 42
0.4142135623731427
 10
668.1315101110392
 20
422.8257031729503
 10
669.2315101110391
 20
422.8257031729508
 42
-0.4142135623731298
 10
669.331510111039
 20
422.7257031729509
 10
669.331510111039
 20
421.6257031729496
 42
0.4142135623730773
 10
669.6315101110392
 20
421.3257031729496
 10
670.0315101110393
 20
421.3257031729499
 42
0.4142135623731189
 10
670.3315101110391
 20
421.6257031729498
 10
670.3315101110391
 20
422.7257031729502
 42
-0.414213562373123
 10
670.4315101110389
 20
422.8257031729501
 10
671.5315101110391
 20
422.8257031729503
 42
0.4142135623730951
 10
671.831510111039
 20
423.1257031729503
 10
671.831510111039
 20
423.5257031729497
 42
0.4142135623730475
 10
671.5315101110391
 20
423.8257031729497
 10
670.4315101110389
 20
423.8257031729501
 42
-0.4142135623729705
 10
670.3315101110391
 20
423.9257031729501
 10
670.3315101110391
 20
425.0257031729494
 42
0.4142135623730831
  0
DIMENSION
  5
EB
330
2
100
AcDbEntity
  8
BEMASSUNG
  6
Continuous
100
AcDbDimension
  2
*D23
 10
720.3315101110408
 20
442.9890593462162
 30
0.0
 11
715.5386914927739
 21
447.9759718193474
 31
0.0
 70
   128
 71
     5
 42
9.0
  3
PROSPEKT
100
AcDbAlignedDimension
 13
711.3315101110408
 23
426.8257031729499
 33
0.0
 14
720.3315101110408
 24
426.8257031729499
 34
0.0
100
AcDbRotatedDimension
  0
LINE
  5
FA
330
2
100
AcDbEntity
  8
UMRISS05
100
AcDbLine
 10
728.3971955359898
 20
431.7600177480005
 30
0.0
 11
744.8315101110408
 21
415.3257031729491
 31
0.0
  0
LINE
  5
FB
330
2
100
AcDbEntity
  8
ACHSEN
100
AcDbLine
 10
734.8315101110408
 20
385.4257031729501
 30
0.0
 11
734.8315101110408
 21
376.2257031729498
 31
0.0
  0
LINE
  5
FC
330
2
100
AcDbEntity
  8
ACHSEN
100
AcDbLine
 10
734.8315101110399
 20
384.8143697099753
 30
0.0
 11
734.8315101110399
 21
376.8370366359243
 31
0.0
  0
LWPOLYLINE
  5
FD
330
2
100
AcDbEntity
  8
UMRISS03
100
AcDbPolyline
 90
       24
 70
     1
 43
0.0
 10
718.5315101110409
 20
400.8257031729497
 10
718.131510111041
 20
400.8257031729502
 42
0.4142135623733172
 10
717.8315101110408
 20
400.5257031729501
 10
717.8315101110408
 20
399.4257031729501
 42
-0.4142135623732059
 10
717.7315101110409
 20
399.3257031729502
 10
716.631510111041
 20
399.3257031729504
 42
0.4142135623731427
 10
716.3315101110408
 20
399.0257031729504
 10
716.3315101110408
 20
398.6257031729506
 42
0.4142135623731427
 10
716.631510111041
 20
398.3257031729506
 10
717.7315101110409
 20
398.3257031729511
 42
-0.4142135623731298
 10
717.8315101110408
 20
398.2257031729512
 10
717.8315101110408
 20
397.1257031729499
 42
0.4142135623730773
 10
718.131510111041
 20
396.8257031729499
 10
718.5315101110411
 20
396.8257031729502
 42
0.4142135623731189
 10
718.8315101110409
 20
397.1257031729501
 10
718.8315101110409
 20
398.2257031729505
 42
-0.414213562373123
 10
718.9315101110407
 20
398.3257031729504
 10
720.0315101110409
 20
398.3257031729506
 42
0.4142135623730951
 10
720.3315101110408
 20
398.6257031729506
 10
720.3315101110408
 20
399.02570317295
 42
0.4142135623730475
 10
720.0315101110409
 20
399.3257031729499
 10
718.9315101110407
 20
399.3257031729504
 42
-0.4142135623729705
 10
718.8315101110409
 20
399.4257031729503
 10
718.8315101110409
 20
400.5257031729497
 42
0.4142135623730831
  0
CIRCLE
  5
FE
330
2
100
AcDbEntity
  8
UMRISS03
100
AcDbCircle
 10
718.3315101110409
 20
398.8257031729504
 30
0.0
 40
3.5
  0
LINE
  5
FF
330
2
100
AcDbEntity
  8
1855
100
AcDbLine
 10
711.8315101110408
 20
376.8257031729502
 30
0.0
 11
719.831510111041
 21
376.8257031729502
 31
0.0
  0
LINE
  5
101
330
2
100
AcDbEntity
  8
1855
100
AcDbLine
 10
711.8315101110406
 20
384.8257031729501
 30
0.0
 11
711.8315101110408
 21
376.8257031729502
 31
0.0
  0
LINE
  5
102
330
2
100
AcDbEntity
  8
1855
100
AcDbLine
 10
719.831510111041
 20
384.8257031729502
 30
0.0
 11
711.8315101110406
 21
384.8257031729501
 31
0.0
  0
LINE
  5
103
330
2
100
AcDbEntity
  8
1855
100
AcDbLine
 10
719.831510111041
 20
384.8257031729502
 30
0.0
 11
719.831510111041
 21
376.8257031729502
 31
0.0
  0
CIRCLE
  5
104
330
2
100
AcDbEntity
  8
1855
100
AcDbCircle
 10
715.8315101110408
 20
380.8257031729502
 30
0.0
 40
3.0
  0
LINE
  5
105
330
2
100
AcDbEntity
  8
ACHSEN
100
AcDbLine
 10
696.8315101110408
 20
385.4257031729501
 30
0.0
 11
696.8315101110408
 21
376.2257031729502
 31
0.0
  0
LINE
  5
106
330
2
100
AcDbEntity
  8
ACHSEN
100
AcDbLine
 10
696.8315101110399
 20
376.1664979591468
 30
0.0
 11
696.8315101110399
 21
385.4849083867529
 31
0.0
  0
CIRCLE
  5
107
330
2
100
AcDbEntity
  8
UMRISS05
100
AcDbCircle
 10
696.8315101110399
 20
380.8257031729498
 30
0.0
 40
2.6
  0
DIMENSION
  5
108
330
2
100
AcDbEntity
  8
BEMASSUNG
  6
Continuous
100
AcDbDimension
  2
*D27
 10
711.8315101110408
 20
390.6186259306899
 30
0.0
 11
704.1159992325638
 21
395.4117212561178
 31
0.0
 70
   128
  1
9
 71
     5
 42
7.999999999999886
  3
PROSPEKT
100
AcDbAlignedDimension
 13
719.8315101110408
 23
384.8257031729505
 33
0.0
 14
711.8315101110408
 24
384.8257031729503
 34
0.0
100
AcDbRotatedDimension
  0
CIRCLE
  5
117
330
2
100
AcDbEntity
  8
UMRISS05
100
AcDbCircle
 10
715.8315101110408
 20
359.3257031729536
 30
0.0
 40
5.0
  0
LINE
  5
118
330
2
100
AcDbEntity
  8
ACHSEN
100
AcDbLine
 10
722.8315101110409
 20
359.3257031729536
 30
0.0
 11
708.8315101110408
 21
359.3257031729536
 31
0.0
  0
LINE
  5
119
330
2
100
AcDbEntity
  8
ACHSEN
100
AcDbLine
 10
722.194120510979
 20
359.3257031729534
 30
0.0
 11
709.4688997111027
 21
359.3257031729534
 31
0.0
  0
LWPOLYLINE
  5
11A
330
2
100
AcDbEntity
  8
UMRISS03
100
AcDbPolyline
 90
       24
 70
     1
 43
0.0
 10
698.0315101110408
 20
366.8257031729495
 10
697.631510111041
 20
366.82570317295
 42
0.4142135623733172
 10
697.3315101110408
 20
366.52570317295
 10
697.3315101110408
 20
365.4257031729498
 42
-0.4142135623732059
 10
697.2315101110409
 20
365.3257031729499
 10
696.131510111041
 20
365.3257031729502
 42
0.4142135623731427
 10
695.8315101110408
 20
365.0257031729502
 10
695.8315101110408
 20
364.6257031729504
 42
0.4142135623731427
 10
696.131510111041
 20
364.3257031729504
 10
697.2315101110409
 20
364.3257031729508
 42
-0.4142135623731298
 10
697.3315101110408
 20
364.2257031729509
 10
697.3315101110408
 20
363.1257031729497
 42
0.4142135623730773
 10
697.631510111041
 20
362.8257031729497
 10
698.0315101110411
 20
362.8257031729499
 42
0.4142135623731189
 10
698.3315101110409
 20
363.1257031729499
 10
698.3315101110409
 20
364.2257031729503
 42
-0.414213562373123
 10
698.4315101110407
 20
364.3257031729502
 10
699.5315101110409
 20
364.3257031729504
 42
0.4142135623730951
 10
699.8315101110408
 20
364.6257031729504
 10
699.8315101110408
 20
365.0257031729498
 42
0.4142135623730475
 10
699.5315101110409
 20
365.3257031729497
 10
698.4315101110407
 20
365.3257031729502
 42
-0.4142135623729705
 10
698.3315101110409
 20
365.4257031729501
 10
698.3315101110409
 20
366.5257031729495
 42
0.4142135623730831
  0
CIRCLE
  5
11B
330
2
100
AcDbEntity
  8
UMRISS03
100
AcDbCircle
 10
697.8315101110409
 20
364.8257031729502
 30
0.0
 40
3.5
  0
CIRCLE
  5
11C
330
2
100
AcDbEntity
  8
UMRISS05
100
AcDbCircle
 10
715.8315101110408
 20
380.8257031729502
 30
0.0
 40
8.0
  0
DIMENSION
  5
11D
330
2
100
AcDbEntity
  8
BEMASSUNG
  6
Continuous
100
AcDbDimension
  2
*D3
 10
759.8621638817618
 20
359.3257031729536
 30
0.0
 11
755.4621638817617
 21
370.0757031729519
 31
0.0
 71
     5
 42
21.49999999999636
  3
PROSPEKT
100
AcDbAlignedDimension
 13
739.4315101110407
 23
380.82570317295
 33
0.0
 14
722.8315101110409
 24
359.3257031729536
 34
0.0
 50
90.0
100
AcDbRotatedDimension
  0
CIRCLE
  5
12A
330
2
100
AcDbEntity
  8
UMRISS03
100
AcDbCircle
 10
736.3315101110408
 20
342.3257031729499
 30
0.0
 40
2.049999999999999
  0
LINE
  5
12B
330
2
100
AcDbEntity
  8
ACHSEN
100
AcDbLine
 10
739.4315101110407
 20
380.82570317295
 30
0.0
 11
692.231510111041
 21
380.8257031729502
 31
0.0
  0
LINE
  5
12C
330
2
100
AcDbEntity
  8
ACHSEN
100
AcDbLine
 10
739.045399797156
 20
380.8257031729498
 30
0.0
 11
692.5027318477866
 21
380.8257031729498
 31
0.0
  0
CIRCLE
  5
12D
330
2
100
AcDbEntity
  8
UMRISS05
100
AcDbCircle
 10
734.8315101110399
 20
380.8257031729498
 30
0.0
 40
2.6
  0
DIMENSION
  5
12E
330
2
100
AcDbEntity
  8
BEMASSUNG
  6
Continuous
100
AcDbDimension
  2
*D24
 10
771.1021129046423
 20
380.82570317295
 30
0.0
 11
766.7021129046421
 21
406.5757031729502
 31
0.0
 71
     5
 42
51.50000000000023
  3
PROSPEKT
100
AcDbAlignedDimension
 13
727.0315101110407
 23
432.3257031729501
 33
0.0
 14
739.4315101110407
 24
380.82570317295
 34
0.0
 50
90.0
100
AcDbRotatedDimension
  0
DIMENSION
  5
13B
330
2
100
AcDbEntity
  8
BEMASSUNG
  6
Continuous
100
AcDbDimension
  2
*D25
 10
759.8621638817618
 20
426.8257031729499
 30
0.0
 11
755.4621638817617
 21
403.82570317295
 31
0.0
 71
     5
 42
46.0
  3
PROSPEKT
100
AcDbAlignedDimension
 13
739.4315101110407
 23
380.82570317295
 33
0.0
 14
722.8315101110409
 24
426.8257031729499
 34
0.0
 50
90.0
100
AcDbRotatedDimension
  0
DIMENSION
  5
148
330
2
100
AcDbEntity
  8
BEMASSUNG
  6
Continuous
100
AcDbDimension
  2
*D26
 10
734.8315101110408
 20
404.7115768776018
 30
0.0
 11
715.8315101110408
 21
409.1115768776018
 31
0.0
 71
     5
 42
38.0
  3
PROSPEKT
100
AcDbAlignedDimension
 13
696.8315101110408
 23
385.4257031729501
 33
0.0
 14
734.8315101110408
 24
385.4257031729501
 34
0.0
100
AcDbRotatedDimension
  0
LINE
  5
155
330
2
100
AcDbEntity
  8
UMRISS05
100
AcDbLine
 10
655.8315101110409
 20
467.825703172949
 30
0.0
 11
658.8315101110408
 21
467.825703172949
 31
0.0
  0
LINE
  5
156
330
2
100
AcDbEntity
  8
ACHSEN
100
AcDbLine
 10
665.3315101110413
 20
458.825703172949
 30
0.0
 11
650.8315101110367
 21
458.825703172949
 31
0.0
  0
LINE
  5
157
330
2
100
AcDbEntity
  8
UMRISS05
100
AcDbLine
 10
660.5984787528545
 20
413.3404838770462
 30
0.0
 11
664.7084250159961
 21
417.8257031729502
 31
0.0
  0
LINE
  5
158
330
2
100
AcDbEntity
  8
UMRISS05
100
AcDbLine
 10
660.9671174212596
 20
413.002688773238
 30
0.0
 11
665.3865958684506
 21
417.8257031729502
 31
0.0
  0
LINE
  5
159
330
2
100
AcDbEntity
  8
UMRISS05
100
AcDbLine
 10
659.8315275428133
 20
414.8256938178414
 30
0.0
 11
658.8315101110411
 21
414.8256938178414
 31
0.0
  0
LINE
  5
15A
330
2
100
AcDbEntity
  8
UMRISS05
100
AcDbLine
 10
658.8315101110411
 20
417.8256938178416
 30
0.0
 11
663.8315101110404
 21
417.8256938178416
 31
0.0
  0
LINE
  5
15B
330
2
100
AcDbEntity
  8
UMRISS05
100
AcDbLine
 10
670.3315101110411
 20
417.8257031729502
 30
0.0
 11
663.8315101110404
 21
417.8257031729502
 31
0.0
  0
DIMENSION
  5
15C
330
2
100
AcDbEntity
  8
BEMASSUNG
  6
Continuous
100
AcDbDimension
  2
*D17
 10
655.8315101110414
 20
422.9024932998393
 30
0.0
 11
650.8315188269273
 21
427.3024932998392
 31
0.0
 71
     5
 42
9.999982568228119
  3
PROSPEKT
100
AcDbAlignedDimension
 13
645.8315275428133
 23
417.8256938178415
 33
0.0
 14
655.8315101110414
 24
425.5851346035894
 34
0.0
100
AcDbRotatedDimension
  0
LINE
  5
16B
330
2
100
AcDbEntity
  8
UMRISS05
100
AcDbLine
 10
645.8315275428133
 20
417.8256938178415
 30
0.0
 11
655.8315101110411
 21
417.8256938178415
 31
0.0
  0
LINE
  5
16C
330
2
100
AcDbEntity
  8
UMRISS05
100
AcDbLine
 10
655.8315101110413
 20
414.8256938178414
 30
0.0
 11
645.8315275428133
 21
414.8256938178414
 31
0.0
  0
DIMENSION
  5
16D
330
2
100
AcDbEntity
  8
BEMASSUNG
  6
Continuous
100
AcDbDimension
  2
*D20
 10
629.066761834611
 20
432.3257031729491
 30
0.0
 11
624.6667618346109
 21
450.0757031729492
 31
0.0
 71
     5
 42
35.49999999999989
  3
PROSPEKT
100
AcDbAlignedDimension
 13
655.8315101110409
 23
467.825703172949
 33
0.0
 14
658.831510111039
 24
432.3257031729491
 34
0.0
 50
90.0
100
AcDbRotatedDimension
  0
LINE
  5
17A
330
2
100
AcDbEntity
  8
UMRISS05
100
AcDbLine
 10
661.0904916796487
 20
410.1769536843867
 30
0.0
 11
662.5650463532688
 21
408.8257732691554
 31
0.0
  0
ARC
  5
17B
330
2
100
AcDbEntity
  8
UMRISS05
100
AcDbCircle
 10
665.8315275428133
 20
402.8256938178413
 30
0.0
 40
3.0
100
AcDbArc
 50
90.0
 51
270.0
  0
LINE
  5
17C
330
2
100
AcDbEntity
  8
UMRISS05
100
AcDbLine
 10
660.7526965758409
 20
409.8083150159818
 30
0.0
 11
662.227251249461
 21
408.4571346007504
 31
0.0
  0
LINE
  5
17D
330
2
100
AcDbEntity
  8
UMRISS05
100
AcDbLine
 10
662.227251249461
 20
408.4571346007504
 30
0.0
 11
662.5650463532688
 21
408.8257732691554
 31
0.0
  0
LINE
  5
17E
330
2
100
AcDbEntity
  8
UMRISS05
100
AcDbLine
 10
665.8315275428133
 20
399.8256938178413
 30
0.0
 11
670.3315101110408
 21
399.8256938178412
 31
0.0
  0
LINE
  5
17F
330
2
100
AcDbEntity
  8
UMRISS05
100
AcDbLine
 10
664.8322561514021
 20
393.3258371808765
 30
0.0
 11
670.3315101110408
 21
393.3258371808765
 31
0.0
  0
LINE
  5
180
330
2
100
AcDbEntity
  8
UMRISS05
100
AcDbLine
 10
665.8315275428133
 20
405.8256938178413
 30
0.0
 11
670.3315101110408
 21
405.8256938178413
 31
0.0
  0
LINE
  5
181
330
2
100
AcDbEntity
  8
UMRISS05
100
AcDbLine
 10
659.8315275428133
 20
390.8256938178413
 30
0.0
 11
658.8315101110411
 21
390.8256938178413
 31
0.0
  0
LINE
  5
182
330
2
100
AcDbEntity
  8
UMRISS05
100
AcDbLine
 10
662.8322561514021
 20
391.3258371808765
 30
0.0
 11
662.8322561514021
 21
388.8257031729498
 31
0.0
  0
LINE
  5
183
330
2
100
AcDbEntity
  8
UMRISS05
100
AcDbLine
 10
658.8315101110408
 20
388.8257031729499
 30
0.0
 11
670.3315101110406
 21
388.8257031729497
 31
0.0
  0
ARC
  5
184
330
2
100
AcDbEntity
  8
UMRISS05
100
AcDbCircle
 10
664.8322561514021
 20
391.3258371808765
 30
0.0
 40
2.0
100
AcDbArc
 50
90.0
 51
180.0
  0
LINE
  5
185
330
2
100
AcDbEntity
  8
UMRISS05
100
AcDbLine
 10
645.8315275428133
 20
387.8256938178413
 30
0.0
 11
655.8315101110413
 21
387.8256938178413
 31
0.0
  0
LINE
  5
186
330
2
100
AcDbEntity
  8
UMRISS05
100
AcDbLine
 10
655.8315101110413
 20
390.8256938178414
 30
0.0
 11
645.8315275428133
 21
390.8256938178413
 31
0.0
  0
LINE
  5
187
330
2
100
AcDbEntity
  8
ACHSEN
100
AcDbLine
 10
661.8315275428133
 20
402.8256938178413
 30
0.0
 11
643.8315275428132
 21
402.8256938178413
 31
0.0
  0
DIMENSION
  5
188
330
2
100
AcDbEntity
  8
BEMASSUNG
  6
Continuous
100
AcDbDimension
  2
*D10
 10
655.8315101110411
 20
351.5973550159062
 30
0.0
 11
645.8315101110413
 21
355.9973550159063
 31
0.0
 71
     5
 42
19.99999999999988
  3
PROSPEKT
100
AcDbAlignedDimension
 13
635.8315101110413
 23
339.825693817841
 33
0.0
 14
655.8315101110411
 24
352.2680153418435
 34
0.0
100
AcDbRotatedDimension
  0
LINE
  5
195
330
2
100
AcDbEntity
  8
UMRISS05
100
AcDbLine
 10
635.8315101110413
 20
339.825693817841
 30
0.0
 11
655.8315101110413
 21
339.825693817841
 31
0.0
  0
DIMENSION
  5
196
330
2
100
AcDbEntity
  8
BEMASSUNG
  6
Continuous
100
AcDbDimension
  2
*D2
 10
629.0801434466612
 20
387.8256938178413
 30
0.0
 11
624.6801434466611
 21
363.8256938178412
 31
0.0
 71
     5
 42
48.00000000000039
  3
PROSPEKT
100
AcDbAlignedDimension
 13
635.8315101110413
 23
339.825693817841
 33
0.0
 14
645.8315275428133
 24
387.8256938178413
 34
0.0
 50
90.0
100
AcDbRotatedDimension
  0
DIMENSION
  5
1A3
330
2
100
AcDbEntity
  8
BEMASSUNG
  6
Continuous
100
AcDbDimension
  2
*D18
 10
629.1421120354076
 20
432.3257031729491
 30
0.0
 11
624.7421120354076
 21
425.0756984953954
 31
0.0
 71
     5
 42
14.50000935510763
  3
PROSPEKT
100
AcDbAlignedDimension
 13
645.8315275428133
 23
417.8256938178415
 33
0.0
 14
658.831510111039
 24
432.3257031729491
 34
0.0
 50
90.0
100
AcDbRotatedDimension
  0
DIMENSION
  5
1B2
330
2
100
AcDbEntity
  8
BEMASSUNG
  6
Continuous
100
AcDbDimension
  2
*D19
 10
629.1457051513316
 20
417.8256938178416
 30
0.0
 11
623.968366697863
 21
402.2373330204516
 31
0.0
 70
   128
 71
     5
 42
30.00000000000023
  3
PROSPEKT
100
AcDbAlignedDimension
 13
645.8315275428133
 23
387.8256938178413
 33
0.0
 14
645.8315275428133
 24
417.8256938178415
 34
0.0
 50
90.0
100
AcDbRotatedDimension
  0
ARC
  5
1BF
330
2
100
AcDbEntity
  8
UMRISS05
100
AcDbCircle
 10
662.44167209488
 20
411.651508358007
 30
0.0
 40
2.5
100
AcDbArc
 50
137.5000000000018
 51
227.5000000000013
  0
LINE
  5
1C0
330
2
100
AcDbEntity
  8
UMRISS05
100
AcDbLine
 10
659.8315275428133
 20
390.8256938178413
 30
0.0
 11
659.8315275428133
 21
414.8256938178414
 31
0.0
  0
LINE
  5
1C1
330
2
100
AcDbEntity
  8
UMRISS05
100
AcDbLine
 10
670.3315101110406
 20
388.8257031729497
 30
0.0
 11
670.3315101110411
 21
417.8257031729502
 31
0.0
  0
LINE
  5
1C2
330
2
100
AcDbEntity
  8
UMRISS05
100
AcDbLine
 10
654.8315275428128
 20
390.8256938178413
 30
0.0
 11
654.8315275428128
 21
414.8256938178414
 31
0.0
  0
LINE
  5
1C3
330
2
100
AcDbEntity
  8
UMRISS05
100
AcDbLine
 10
645.8315275428133
 20
387.8256938178413
 30
0.0
 11
645.8315275428133
 21
417.8256938178415
 31
0.0
  0
ARC
  5
1C4
330
2
100
AcDbEntity
  8
UMRISS05
100
AcDbCircle
 10
662.44167209488
 20
411.651508358007
 30
0.0
 40
2.0
100
AcDbArc
 50
137.500000000003
 51
227.4999999999997
  0
LINE
  5
1C5
330
2
100
AcDbEntity
  8
UMRISS05
100
AcDbLine
 10
658.831510111039
 20
432.3257031729491
 30
0.0
 11
713.8315101110404
 21
432.3257031729492
 31
0.0
  0
DIMENSION
  5
1C6
330
2
100
AcDbEntity
  8
BEMASSUNG
  6
Continuous
100
AcDbDimension
  2
*D16
 10
687.9047515846956
 20
380.8257031729502
 30
0.0
 11
683.5047515846955
 21
391.8256984953959
 31
0.0
 71
     5
 42
21.99999064489123
  3
PROSPEKT
100
AcDbAlignedDimension
 13
659.8315275428133
 23
402.8256938178413
 33
0.0
 14
692.231510111041
 24
380.8257031729502
 34
0.0
 50
90.0
100
AcDbRotatedDimension
  0
LWPOLYLINE
  5
1D3
330
2
100
AcDbEntity
  8
UMRISS03
100
AcDbPolyline
 90
       24
 70
     1
 43
0.0
 10
737.0315101110409
 20
312.8257031729493
 10
736.631510111041
 20
312.8257031729497
 42
0.4142135623733172
 10
736.3315101110408
 20
312.5257031729498
 10
736.3315101110408
 20
311.4257031729496
 42
-0.4142135623732059
 10
736.2315101110409
 20
311.3257031729497
 10
735.131510111041
 20
311.3257031729499
 42
0.4142135623731427
 10
734.8315101110408
 20
311.02570317295
 10
734.8315101110408
 20
310.6257031729501
 42
0.4142135623731427
 10
735.131510111041
 20
310.3257031729502
 10
736.2315101110409
 20
310.3257031729506
 42
-0.4142135623731298
 10
736.3315101110408
 20
310.2257031729507
 10
736.3315101110408
 20
309.1257031729494
 42
0.4142135623730773
 10
736.631510111041
 20
308.8257031729495
 10
737.0315101110411
 20
308.8257031729497
 42
0.4142135623731189
 10
737.3315101110408
 20
309.1257031729497
 10
737.3315101110408
 20
310.2257031729501
 42
-0.414213562373123
 10
737.4315101110408
 20
310.32570317295
 10
738.5315101110409
 20
310.3257031729502
 42
0.4142135623730951
 10
738.8315101110408
 20
310.6257031729501
 10
738.8315101110408
 20
311.0257031729495
 42
0.4142135623730475
 10
738.5315101110409
 20
311.3257031729495
 10
737.4315101110408
 20
311.3257031729499
 42
-0.4142135623729705
 10
737.3315101110408
 20
311.4257031729498
 10
737.3315101110408
 20
312.5257031729493
 42
0.4142135623730831
  0
LINE
  5
1D4
330
2
100
AcDbEntity
  8
UMRISS05
100
AcDbLine
 10
743.7708499392611
 20
291.3863633447301
 30
0.0
 11
744.8315101110404
 21
292.4470235165097
 31
0.0
  0
LINE
  5
1D5
330
2
100
AcDbEntity
  8
UMRISS05
100
AcDbLine
 10
744.8315101110408
 20
290.3257031729503
 30
0.0
 11
743.7708499392611
 21
291.3863633447301
 31
0.0
  0
LINE
  5
1D6
330
2
100
AcDbEntity
  8
UMRISS05
100
AcDbLine
 10
744.8315101110408
 20
290.3257031729503
 30
0.0
 11
743.7708499392611
 21
291.3863633447301
 31
0.0
  0
LINE
  5
1D7
330
2
100
AcDbEntity
  8
ACHSEN
100
AcDbLine
 10
734.8315101110408
 20
300.9257031729503
 30
0.0
 11
734.8315101110408
 21
289.9257031729503
 31
0.0
  0
ARC
  5
1D8
330
2
100
AcDbEntity
  8
UMRISS03
100
AcDbCircle
 10
715.8315101110408
 20
322.2193574440354
 30
0.0
 40
2.0
100
AcDbArc
 50
269.9999999999935
 51
90.0
  0
LINE
  5
1D9
330
2
100
AcDbEntity
  8
UMRISS03
100
AcDbLine
 10
715.8315101110408
 20
324.2193574440355
 30
0.0
 11
711.5814914265186
 21
324.2193574440353
 31
0.0
  0
LINE
  5
1DA
330
2
100
AcDbEntity
  8
UMRISS03
100
AcDbLine
 10
711.5814914265188
 20
320.2193574440357
 30
0.0
 11
715.8315101110408
 21
320.2193574440355
 31
0.0
  0
LINE
  5
1DB
330
2
100
AcDbEntity
  8
UMRISS03
100
AcDbLine
 10
697.1981765845291
 20
316.9279256940825
 30
0.0
 11
694.5940355810186
 21
317.6257031729501
 31
0.0
  0
LINE
  5
1DC
330
2
100
AcDbEntity
  8
UMRISS03
100
AcDbLine
 10
703.0962100522802
 20
320.7046388182744
 30
0.0
 11
700.0959540633964
 21
317.7043828293902
 31
0.0
  0
ARC
  5
1DD
330
2
100
AcDbEntity
  8
UMRISS03
100
AcDbCircle
 10
697.9746337198366
 20
319.8257031729497
 30
0.0
 40
3.0
100
AcDbArc
 50
254.3255346997044
 51
315.0000000000023
  0
ARC
  5
1DE
330
2
100
AcDbEntity
  8
UMRISS03
100
AcDbCircle
 10
694.3315101110409
 20
316.1257031729499
 30
0.0
 40
1.5
100
AcDbArc
 50
90.0
 51
180.0
  0
LINE
  5
1DF
330
2
100
AcDbEntity
  8
UMRISS03
100
AcDbLine
 10
694.3315101110409
 20
317.6257031729499
 30
0.0
 11
694.5940355810186
 21
317.6257031729501
 31
0.0
  0
ARC
  5
1E0
330
2
100
AcDbEntity
  8
UMRISS03
100
AcDbCircle
 10
697.9746337198364
 20
319.8257031729495
 30
0.0
 40
7.0
100
AcDbArc
 50
269.999999999987
 51
315.0000000000023
  0
ARC
  5
1E1
330
2
100
AcDbEntity
  8
UMRISS03
100
AcDbCircle
 10
694.3315101110409
 20
314.32570317295
 30
0.0
 40
1.5
100
AcDbArc
 50
179.9999999999992
 51
269.999999999987
  0
LINE
  5
1E2
330
2
100
AcDbEntity
  8
UMRISS03
100
AcDbLine
 10
694.3315101110406
 20
312.8257031729499
 30
0.0
 11
697.9746337198355
 21
312.8257031729495
 31
0.0
  0
CIRCLE
  5
1E3
330
2
100
AcDbEntity
  8
UMRISS03
100
AcDbCircle
 10
695.8315101110399
 20
314.8257031729497
 30
0.0
 40
2.0
  0
LINE
  5
1E4
330
2
100
AcDbEntity
  8
UMRISS03
100
AcDbLine
 10
692.8315101110408
 20
316.1257031729499
 30
0.0
 11
692.8315101110408
 21
314.32570317295
 31
0.0
  0
LINE
  5
1E5
330
2
100
AcDbEntity
  8
UMRISS03
100
AcDbLine
 10
702.9243811881427
 20
314.875955704644
 30
0.0
 11
705.9246371770264
 21
317.8762116935282
 31
0.0
  0
LINE
  5
1E6
330
2
100
AcDbEntity
  8
ACHSEN
100
AcDbLine
 10
728.7067393783202
 20
302.8257031729496
 30
0.0
 11
702.9562808437615
 21
302.8257031729496
 31
0.0
  0
ARC
  5
1E7
330
2
100
AcDbEntity
  8
UMRISS03
100
AcDbCircle
 10
711.5814914265183
 20
312.2193574440353
 30
0.0
 40
12.0
100
AcDbArc
 50
90.0
 51
134.9999999999982
  0
ARC
  5
1E8
330
2
100
AcDbEntity
  8
UMRISS03
100
AcDbCircle
 10
711.5814914265188
 20
312.2193574440357
 30
0.0
 40
8.0
100
AcDbArc
 50
90.0
 51
135.0000000000006
  0
CIRCLE
  5
1E9
330
2
100
AcDbEntity
  8
UMRISS05
100
AcDbCircle
 10
725.8315101110408
 20
288.3257031729499
 30
0.0
 40
2.6
  0
LINE
  5
1EA
330
2
100
AcDbEntity
  8
ACHSEN
100
AcDbLine
 10
730.4315101110407
 20
288.3257031729499
 30
0.0
 11
721.231510111041
 21
288.3257031729499
 31
0.0
  0
LINE
  5
1EB
330
2
100
AcDbEntity
  8
ACHSEN
100
AcDbLine
 10
725.8315101110408
 20
292.9257031729501
 30
0.0
 11
725.8315101110408
 21
283.7257031729498
 31
0.0
  0
LINE
  5
1EC
330
2
100
AcDbEntity
  8
ACHSEN
100
AcDbLine
 10
709.8783755008946
 20
283.6257031729494
 30
0.0
 11
721.784644721187
 21
283.6257031729496
 31
0.0
  0
LINE
  5
1ED
330
2
100
AcDbEntity
  8
UMRISS05
100
AcDbLine
 10
727.0315101110407
 20
273.3257031729494
 30
0.0
 11
727.0315101110407
 21
274.8257031729504
 31
0.0
  0
LINE
  5
1EE
330
2
100
AcDbEntity
  8
UMRISS05
100
AcDbLine
 10
728.3971955359898
 20
273.891388597899
 30
0.0
 11
727.33653536421
 21
274.9520487696788
 31
0.0
  0
LINE
  5
1EF
330
2
100
AcDbEntity
  8
UMRISS05
100
AcDbLine
 10
727.0315101110407
 20
274.8257031729504
 30
0.0
 11
727.33653536421
 21
274.9520487696788
 31
0.0
  0
ARC
  5
1F0
330
2
100
AcDbEntity
  8
UMRISS03
100
AcDbCircle
 10
692.3315101110408
 20
284.4257031729496
 30
0.0
 40
7.498889300106988
100
AcDbArc
 50
337.8409181306084
 51
22.15908186939163
  0
LINE
  5
1F1
330
2
100
AcDbEntity
  8
ACHSEN
100
AcDbLine
 10
705.8315101110409
 20
292.9257031729501
 30
0.0
 11
705.8315101110409
 21
283.7257031729498
 31
0.0
  0
ARC
  5
1F2
330
2
100
AcDbEntity
  8
UMRISS03
100
AcDbCircle
 10
701.3315101110408
 20
284.4257031729496
 30
0.0
 40
7.498889300106988
100
AcDbArc
 50
157.8409181306098
 51
202.1590818693901
  0
LINE
  5
1F3
330
2
100
AcDbEntity
  8
UMRISS03
100
AcDbLine
 10
699.2765328421239
 20
281.5972760482034
 30
0.0
 11
694.3864873799575
 21
281.5972760482034
 31
0.0
  0
LINE
  5
1F4
330
2
100
AcDbEntity
  8
UMRISS03
100
AcDbLine
 10
699.2765328421239
 20
287.2541302976959
 30
0.0
 11
694.3864873799575
 21
287.2541302976959
 31
0.0
  0
LINE
  5
1F5
330
2
100
AcDbEntity
  8
ACHSEN
100
AcDbLine
 10
702.3315101110409
 20
295.4257031729503
 30
0.0
 11
691.3315101110408
 21
295.4257031729503
 31
0.0
  0
LINE
  5
1F6
330
2
100
AcDbEntity
  8
ACHSEN
100
AcDbLine
 10
710.4315101110407
 20
288.3257031729499
 30
0.0
 11
701.2315101110409
 21
288.3257031729499
 31
0.0
  0
CIRCLE
  5
1F7
330
2
100
AcDbEntity
  8
UMRISS05
100
AcDbCircle
 10
705.8315101110409
 20
288.3257031729499
 30
0.0
 40
2.6
  0
LWPOLYLINE
  5
1F8
330
2
100
AcDbEntity
  8
UMRISS05
100
AcDbPolyline
 90
        4
 70
     1
 43
0.0
 10
720.9315101110408
 20
283.6257031729497
 10
720.9315101110408
 20
292.9666971378567
 42
4.109609026488815
 10
710.7315101110409
 20
292.9666971378567
 10
710.7315101110409
 20
283.6257031729497
 42
1.0
  0
LWPOLYLINE
  5
1F9
330
2
100
AcDbEntity
  8
ACHSEN
100
AcDbPolyline
 90
        4
 70
     1
 43
0.0
 10
710.7315101110409
 20
282.8257031729497
 10
710.7315101110409
 20
295.9011093220443
 42
-3.044038009981497
 10
720.9315101110408
 20
295.9011093220443
 10
720.9315101110408
 20
282.8257031729497
 42
-0.9999999999999998
  0
LINE
  5
1FA
330
2
100
AcDbEntity
  8
ACHSEN
100
AcDbLine
 10
696.8315101110408
 20
300.9257031729503
 30
0.0
 11
696.8315101110408
 21
289.9257031729503
 31
0.0
  0
CIRCLE
  5
1FB
330
2
100
AcDbEntity
  8
UMRISS05
100
AcDbCircle
 10
696.8315101110408
 20
295.4257031729503
 30
0.0
 40
3.5
  0
CIRCLE
  5
1FC
330
2
100
AcDbEntity
  8
UMRISS03
100
AcDbCircle
 10
736.8315101110408
 20
310.8257031729499
 30
0.0
 40
3.5
  0
DIMENSION
  5
1FD
330
2
100
AcDbEntity
  8
BEMASSUNG
  6
Continuous
100
AcDbDimension
  2
*D14
 10
771.039038481435
 20
273.3257031729494
 30
0.0
 11
766.6390384814349
 21
288.0757031729496
 31
0.0
 71
     5
 42
29.50000000000023
  3
PROSPEKT
100
AcDbAlignedDimension
 13
728.7067393783202
 23
302.8257031729496
 33
0.0
 14
727.0315101110407
 24
273.3257031729494
 34
0.0
 50
90.0
100
AcDbRotatedDimension
  0
LINE
  5
20A
330
2
100
AcDbEntity
  8
UMRISS05
100
AcDbLine
 10
728.3971955359898
 20
273.891388597899
 30
0.0
 11
744.8315101110408
 21
290.3257031729503
 31
0.0
  0
CIRCLE
  5
20B
330
2
100
AcDbEntity
  8
UMRISS05
100
AcDbCircle
 10
734.8315101110408
 20
295.4257031729503
 30
0.0
 40
3.5
  0
LINE
  5
20C
330
2
100
AcDbEntity
  8
ACHSEN
100
AcDbLine
 10
740.3315101110409
 20
295.4257031729503
 30
0.0
 11
729.3315101110408
 21
295.4257031729503
 31
0.0
  0
LINE
  5
20D
330
2
100
AcDbEntity
  8
UMRISS05
100
AcDbLine
 10
711.3315101110363
 20
184.845528265903
 30
0.0
 11
720.3315101110363
 21
184.845528265903
 31
0.0
  0
LINE
  5
20E
330
2
100
AcDbEntity
  8
UMRISS05
100
AcDbLine
 10
695.0403957101801
 20
186.3455282659033
 30
0.0
 11
744.8315101110363
 21
186.3455282659028
 31
0.0
  0
LINE
  5
20F
330
2
100
AcDbEntity
  8
UMRISS05
100
AcDbLine
 10
635.8315101110413
 20
309.8256938178408
 30
0.0
 11
655.8315101110413
 21
309.8256938178408
 31
0.0
  0
LINE
  5
210
330
2
100
AcDbEntity
  8
ACHSEN
100
AcDbLine
 10
657.8315101110412
 20
324.825693817841
 30
0.0
 11
633.8315101110413
 21
324.825693817841
 31
0.0
  0
LINE
  5
211
330
2
100
AcDbEntity
  8
ACHSEN
100
AcDbLine
 10
665.3315101110409
 20
284.4257031729495
 30
0.0
 11
650.8315101110363
 21
284.4257031729495
 31
0.0
  0
CIRCLE
  5
212
330
2
100
AcDbEntity
  8
UMRISS03
100
AcDbCircle
 10
672.3315101110408
 20
298.8257031729495
 30
0.0
 40
3.5
  0
LWPOLYLINE
  5
213
330
2
100
AcDbEntity
  8
UMRISS03
100
AcDbPolyline
 90
       24
 70
     1
 43
0.0
 10
672.5315101110409
 20
300.8257031729488
 10
672.131510111041
 20
300.8257031729493
 42
0.4142135623733172
 10
671.8315101110408
 20
300.5257031729493
 10
671.8315101110408
 20
299.4257031729492
 42
-0.4142135623732059
 10
671.7315101110409
 20
299.3257031729493
 10
670.631510111041
 20
299.3257031729495
 42
0.4142135623731427
 10
670.3315101110408
 20
299.0257031729495
 10
670.3315101110408
 20
298.6257031729497
 42
0.4142135623731427
 10
670.631510111041
 20
298.3257031729497
 10
671.7315101110409
 20
298.3257031729502
 42
-0.4142135623731298
 10
671.8315101110408
 20
298.2257031729503
 10
671.8315101110408
 20
297.125703172949
 42
0.4142135623730773
 10
672.131510111041
 20
296.8257031729491
 10
672.5315101110411
 20
296.8257031729493
 42
0.4142135623731189
 10
672.8315101110409
 20
297.1257031729492
 10
672.8315101110409
 20
298.2257031729496
 42
-0.414213562373123
 10
672.9315101110407
 20
298.3257031729495
 10
674.0315101110409
 20
298.3257031729497
 42
0.4142135623730951
 10
674.3315101110408
 20
298.6257031729497
 10
674.3315101110408
 20
299.0257031729491
 42
0.4142135623730475
 10
674.0315101110409
 20
299.325703172949
 10
672.9315101110407
 20
299.3257031729495
 42
-0.4142135623729705
 10
672.8315101110409
 20
299.4257031729494
 10
672.8315101110409
 20
300.5257031729489
 42
0.4142135623730831
  0
DIMENSION
  5
214
330
2
100
AcDbEntity
  8
BEMASSUNG
  6
Continuous
100
AcDbDimension
  2
*D9
 10
629.0801434466612
 20
309.8256938178408
 30
0.0
 11
624.6801434466611
 21
291.5756984953952
 31
0.0
 71
     5
 42
36.4999906448914
  3
PROSPEKT
100
AcDbAlignedDimension
 13
658.8315101110363
 23
273.3257031729494
 33
0.0
 14
635.8315101110413
 24
309.8256938178408
 34
0.0
 50
90.0
100
AcDbRotatedDimension
  0
LINE
  5
221
330
2
100
AcDbEntity
  8
UMRISS05
100
AcDbLine
 10
655.8315101110403
 20
237.8257031729494
 30
0.0
 11
658.8315101110404
 21
237.8257031729494
 31
0.0
  0
LINE
  5
222
330
2
100
AcDbEntity
  8
ACHSEN
100
AcDbLine
 10
665.3315101110409
 20
246.8257031729495
 30
0.0
 11
650.8315101110363
 21
246.8257031729495
 31
0.0
  0
LINE
  5
223
330
2
100
AcDbEntity
  8
UMRISS05
100
AcDbLine
 10
655.8315101110403
 20
187.3455282659033
 30
0.0
 11
658.8315101110363
 21
187.3455282659033
 31
0.0
  0
LINE
  5
224
330
2
100
AcDbEntity
  8
UMRISS05
100
AcDbLine
 10
648.8315101110404
 20
183.9455282659036
 30
0.0
 11
645.8315101110404
 21
182.9455282659034
 31
0.0
  0
LINE
  5
225
330
2
100
AcDbEntity
  8
UMRISS05
100
AcDbLine
 10
635.8315101110417
 20
183.6455282659037
 30
0.0
 11
647.9315101110407
 21
183.6455282659037
 31
0.0
  0
LINE
  5
226
330
2
100
AcDbEntity
  8
UMRISS05
100
AcDbLine
 10
648.83151011104
 20
183.9455282659035
 30
0.0
 11
655.8315101110363
 21
183.9455282659034
 31
0.0
  0
DIMENSION
  5
227
330
2
100
AcDbEntity
  8
BEMASSUNG
  6
Continuous
100
AcDbDimension
  2
*D7
 10
629.0384487001433
 20
237.8257031729494
 30
0.0
 11
624.6384487001433
 21
255.5757031729495
 31
0.0
 71
     5
 42
35.50000000000003
  3
PROSPEKT
100
AcDbAlignedDimension
 13
658.8315101110363
 23
273.3257031729494
 33
0.0
 14
655.8315101110403
 24
237.8257031729494
 34
0.0
 50
90.0
100
AcDbRotatedDimension
  0
LINE
  5
234
330
2
100
AcDbEntity
  8
UMRISS05
100
AcDbLine
 10
658.8315101110363
 20
273.3257031729494
 30
0.0
 11
727.0315101110407
 21
273.3257031729494
 31
0.0
  0
LINE
  5
235
330
2
100
AcDbEntity
  8
UMRISS05
100
AcDbLine
 10
658.8315101110363
 20
186.3455282659033
 30
0.0
 11
743.8315101110413
 21
186.3455282659032
 31
0.0
  0
DIMENSION
  5
236
330
2
100
AcDbEntity
  8
BEMASSUNG
  6
Continuous
100
AcDbDimension
  2
*D0
 10
782.7250632645591
 20
273.3257031729502
 30
0.0
 11
777.9521821342209
 21
351.9621067843052
 31
0.0
 70
   128
 71
     5
 42
159.0
  3
PROSPEKT
100
AcDbAlignedDimension
 13
727.0315101110407
 23
432.3257031729501
 33
0.0
 14
727.0315101110407
 24
273.3257031729502
 34
0.0
 50
90.0
100
AcDbRotatedDimension
  0
DIMENSION
  5
243
330
2
100
AcDbEntity
  8
BEMASSUNG
  6
Continuous
100
AcDbDimension
  2
*D1
 10
617.3646907498373
 20
237.8257031729494
 30
0.0
 11
612.1857739716165
 21
355.5075255216018
 31
0.0
 70
   128
 71
     5
 42
229.9999999999997
  3
PROSPEKT
100
AcDbAlignedDimension
 13
655.8315101110409
 23
467.825703172949
 33
0.0
 14
655.8315101110403
 24
237.8257031729494
 34
0.0
 50
90.0
100
AcDbRotatedDimension
  0
DIMENSION
  5
250
330
2
100
AcDbEntity
  8
BEMASSUNG
  6
Continuous
100
AcDbDimension
  2
*D4
 10
771.1021129046423
 20
302.8257031729497
 30
0.0
 11
766.7021129046421
 21
341.82570317295
 31
0.0
 71
     5
 42
78.00000000000022
  3
PROSPEKT
100
AcDbAlignedDimension
 13
739.4315101110407
 23
380.82570317295
 33
0.0
 14
728.9315101110408
 24
302.8257031729497
 34
0.0
 50
90.0
100
AcDbRotatedDimension
  0
LINE
  5
25D
330
2
100
AcDbEntity
  8
UMRISS05
100
AcDbLine
 10
744.8299653353233
 20
413.2059276051072
 30
0.0
 11
744.8299653353224
 21
292.4454787407917
 31
0.0
  0
LINE
  5
25E
330
2
100
AcDbEntity
  8
UMRISS05
100
AcDbLine
 10
658.8315101110404
 20
237.8257031729494
 30
0.0
 11
658.8315101110408
 21
467.825703172949
 31
0.0
  0
LINE
  5
25F
330
2
100
AcDbEntity
  8
UMRISS05
100
AcDbLine
 10
655.8315101110403
 20
237.8257031729494
 30
0.0
 11
655.8315101110409
 21
467.825703172949
 31
0.0
  0
DIMENSION
  5
260
330
2
100
AcDbEntity
  8
BEMASSUNG
  6
Continuous
100
AcDbDimension
  2
*D5
 10
687.9047515846956
 20
324.825693817841
 30
0.0
 11
683.5047515846955
 21
352.8256984953957
 31
0.0
 71
     5
 42
56.00000935510923
  3
PROSPEKT
100
AcDbAlignedDimension
 13
692.231510111041
 23
380.8257031729502
 33
0.0
 14
655.8315101110411
 24
324.825693817841
 34
0.0
 50
90.0
100
AcDbRotatedDimension
  0
LINE
  5
26D
330
2
100
AcDbEntity
  8
ACHSEN
100
AcDbLine
 10
715.8315101110408
 20
433.5174706437442
 30
0.0
 11
715.8315101110408
 21
276.5257031729495
 31
0.0
  0
DIMENSION
  5
26E
330
2
100
AcDbEntity
  8
BEMASSUNG
  6
Continuous
100
AcDbDimension
  2
*D8
 10
629.1365175991577
 20
339.825693817841
 30
0.0
 11
623.9600031240529
 21
324.8336632971279
 31
0.0
 70
   128
 71
     5
 42
30.00000000000011
  3
PROSPEKT
100
AcDbAlignedDimension
 13
635.8315101110413
 23
309.8256938178408
 33
0.0
 14
635.8315101110413
 24
339.825693817841
 34
0.0
 50
90.0
100
AcDbRotatedDimension
  0
LINE
  5
27B
330
2
100
AcDbEntity
  8
UMRISS05
100
AcDbLine
 10
635.8315101110413
 20
309.8256938178408
 30
0.0
 11
635.8315101110413
 21
339.825693817841
 31
0.0
  0
LINE
  5
27C
330
2
100
AcDbEntity
  8
UMRISS05
100
AcDbLine
 10
711.3315101110363
 20
174.645528265903
 30
0.0
 11
720.3315101110363
 21
174.645528265903
 31
0.0
  0
LINE
  5
27D
330
2
100
AcDbEntity
  8
UMRISS05
100
AcDbLine
 10
658.8315101110363
 20
173.1455282659032
 30
0.0
 11
658.8315101110363
 21
174.6455282659032
 31
0.0
  0
LINE
  5
27E
330
2
100
AcDbEntity
  8
UMRISS05
100
AcDbLine
 10
655.8315101110403
 20
167.3455282659033
 30
0.0
 11
658.8315101110363
 21
167.3455282659033
 31
0.0
  0
LINE
  5
27F
330
2
100
AcDbEntity
  8
UMRISS05
100
AcDbLine
 10
645.8315101110408
 20
180.8455282659037
 30
0.0
 11
654.231510111041
 21
172.7455282659037
 31
0.0
  0
LINE
  5
280
330
2
100
AcDbEntity
  8
UMRISS05
100
AcDbLine
 10
635.8315101110417
 20
176.4455282659038
 30
0.0
 11
650.3944730740037
 21
176.4455282659039
 31
0.0
  0
LINE
  5
281
330
2
100
AcDbEntity
  8
UMRISS05
100
AcDbLine
 10
654.2315101110414
 20
172.7455282659037
 30
0.0
 11
655.8315101110363
 21
172.7455282659037
 31
0.0
  0
LINE
  5
282
330
2
100
AcDbEntity
  8
UMRISS05
100
AcDbLine
 10
645.8315101110408
 20
180.8455282659037
 30
0.0
 11
655.8315101110363
 21
180.8455282659037
 31
0.0
  0
LINE
  5
283
330
2
100
AcDbEntity
  8
UMRISS05
100
AcDbLine
 10
658.8315101110363
 20
173.1455282659032
 30
0.0
 11
744.8315101110363
 21
173.145528265903
 31
0.0
  0
DIMENSION
  5
284
330
2
100
AcDbEntity
  8
BEMASSUNG
  6
Continuous
100
AcDbDimension
  2
*D6
 10
680.3755927838369
 20
186.3455282659033
 30
0.0
 11
675.3773903213223
 21
195.4428088474785
 31
0.0
 70
   128
 71
     5
 42
1.000000000000056
  3
PROSPEKT
100
AcDbAlignedDimension
 13
658.8315101110363
 23
187.3455282659033
 33
0.0
 14
676.8387952518619
 24
186.3455282659033
 34
0.0
 50
90.0
100
AcDbRotatedDimension
  0
LINE
  5
293
330
2
100
AcDbEntity
  8
UMRISS05
100
AcDbLine
 10
658.8315101110363
 20
187.3455282659033
 30
0.0
 11
658.8315101110363
 21
167.3455282659033
 31
0.0
  0
LINE
  5
294
330
2
100
AcDbEntity
  8
UMRISS05
100
AcDbLine
 10
655.8315101110403
 20
187.3455282659033
 30
0.0
 11
655.8315101110403
 21
167.3455282659033
 31
0.0
  0
LINE
  5
295
330
2
100
AcDbEntity
  8
UMRISS05
100
AcDbLine
 10
744.8315101110363
 20
186.3455282659028
 30
0.0
 11
744.8315101110363
 21
173.145528265903
 31
0.0
  0
LINE
  5
296
330
2
100
AcDbEntity
  8
UMRISS05
100
AcDbLine
 10
728.2708499392567
 20
186.345528265903
 30
0.0
 11
728.2708499392567
 21
173.145528265903
 31
0.0
  0
LINE
  5
297
330
2
100
AcDbEntity
  8
UMRISS05
100
AcDbLine
 10
727.2101897674767
 20
186.345528265903
 30
0.0
 11
727.2101897674767
 21
173.145528265903
 31
0.0
  0
LINE
  5
298
330
2
100
AcDbEntity
  8
UMRISS05
100
AcDbLine
 10
720.3315101110363
 20
173.145528265903
 30
0.0
 11
720.3315101110367
 21
186.345528265903
 31
0.0
  0
LINE
  5
299
330
2
100
AcDbEntity
  8
UMRISS05
100
AcDbLine
 10
711.3315101110363
 20
173.145528265903
 30
0.0
 11
711.3315101110368
 21
186.345528265903
 31
0.0
  0
LINE
  5
29A
330
2
100
AcDbEntity
  8
UMRISS05
100
AcDbLine
 10
744.8315101110413
 20
185.3455282659032
 30
0.0
 11
744.8315101110408
 21
174.1455282659033
 31
0.0
  0
DIMENSION
  5
29B
330
2
100
AcDbEntity
  8
BEMASSUNG
  6
Continuous
100
AcDbDimension
  2
*D12
 10
771.7959844641559
 20
173.145528265903
 30
0.0
 11
767.158023021046
 21
159.0862364379065
 31
0.0
 70
   128
 71
     5
 42
13.19999999999982
  3
PROSPEKT
100
AcDbAlignedDimension
 13
744.8315101110363
 23
186.3455282659028
 33
0.0
 14
744.8315101110363
 24
173.145528265903
 34
0.0
 50
90.0
100
AcDbRotatedDimension
  0
LINE
  5
2AA
330
2
100
AcDbEntity
  8
UMRISS05
100
AcDbLine
 10
635.8315101110417
 20
183.6455282659037
 30
0.0
 11
635.8315101110417
 21
176.4455282659038
 31
0.0
  0
LINE
  5
2AB
330
2
100
AcDbEntity
  8
UMRISS05
100
AcDbLine
 10
645.8315101110408
 20
182.9455282659035
 30
0.0
 11
645.8315101110408
 21
180.8455282659038
 31
0.0
  0
DIMENSION
  5
2AC
330
2
100
AcDbEntity
  8
BEMASSUNG
  6
Continuous
100
AcDbDimension
  2
*D29
 10
658.8315101110408
 20
484.3981634006765
 30
0.0
 11
657.3315101110408
 21
488.7981634006766
 31
0.0
 71
     5
 42
3.0
  3
PROSPEKT
100
AcDbAlignedDimension
 13
655.8315101110409
 23
467.825703172949
 33
0.0
 14
658.8315101110408
 24
467.825703172949
 34
0.0
100
AcDbRotatedDimension
  0
ENDSEC
  0
SECTION
  2
OBJECTS
  0
DICTIONARY
  5
8
330
0
100
AcDbDictionary
281
     1
  3
ACAD_COLOR
350
2B
  3
ACAD_GROUP
350
27
  3
ACAD_LAYOUT
350
C
  3
ACAD_MATERIAL
350
2A
  3
ACAD_MLINESTYLE
350
28
  3
ACAD_PLOTSETTINGS
350
29
  3
ACAD_PLOTSTYLENAME
350
7
  3
ACAD_TABLESTYLE
350
2C
  3
AcDbVariableDictionary
350
30F
  3
AcmDictionary
350
2CB
  3
AMG
350
2BC
  0
DICTIONARY
  5
3
330
2
100
AcDbDictionary
280
     1
281
     1
  0
DICTIONARY
  5
2B
102
{ACAD_REACTORS
330
8
102
}
330
8
100
AcDbDictionary
281
     1
  0
DICTIONARY
  5
27
102
{ACAD_REACTORS
330
8
102
}
330
8
100
AcDbDictionary
281
     1
  0
DICTIONARY
  5
C
102
{ACAD_REACTORS
330
8
102
}
330
8
100
AcDbDictionary
281
     1
  3
Layout1
350
11
  3
Model
350
B
  0
DICTIONARY
  5
2A
102
{ACAD_REACTORS
330
8
102
}
330
8
100
AcDbDictionary
281
     1
  0
DICTIONARY
  5
28
102
{ACAD_REACTORS
330
8
102
}
330
8
100
AcDbDictionary
281
     1
  3
STANDARD
350
2E
  0
DICTIONARY
  5
29
102
{ACAD_REACTORS
330
8
102
}
330
8
100
AcDbDictionary
281
     1
  0
ACDBDICTIONARYWDFLT
  5
7
102
{ACAD_REACTORS
330
8
102
}
330
8
100
AcDbDictionary
281
     1
  3
Normal
350
6
100
AcDbDictionaryWithDefault
340
6
  0
DICTIONARY
  5
2C
102
{ACAD_REACTORS
330
8
102
}
330
8
100
AcDbDictionary
281
     1
  3
Standard
350
2F
  0
DICTIONARY
  5
30F
102
{ACAD_REACTORS
330
8
102
}
330
8
100
AcDbDictionary
281
     1
  3
CTABLESTYLE
350
310
  0
DICTIONARY
  5
2CB
102
{ACAD_REACTORS
330
8
102
}
330
8
100
AcDbDictionary
281
     1
  3
AcmStdDictionary
350
2CC
  0
DICTIONARY
  5
2BC
102
{ACAD_REACTORS
330
8
102
}
330
8
100
AcDbDictionary
281
     1
  3
AcMgSettings
350
2C6
  3
AMGLAYCFG
350
2BB
  0
LAYOUT
  5
11
102
{ACAD_REACTORS
330
C
102
}
330
C
100
AcDbPlotSettings
  1

  2
G:\VORLAGEN\AutoCAD2002\Plotten\A3hoch-MSL.pc3
  4

  6

 40
0.0
 41
0.0
 42
0.0
 43
0.0
 44
0.0
 45
0.0
 46
0.0
 47
0.0
 48
0.0
 49
0.0
140
0.0
141
0.0
142
1.0
143
1.0
 70
   688
 72
     0
 73
     0
 74
     5
  7
monochrome.ctb
 75
    16
147
1.0
 76
     0
 77
     2
 78
   300
148
0.0
149
0.0
100
AcDbLayout
  1
Layout1
 70
     1
 71
     1
 10
0.0
 20
0.0
 11
12.0
 21
9.0
 12
0.0
 22
0.0
 32
0.0
 14
1.000000000000000E+20
 24
1.000000000000000E+20
 34
1.000000000000000E+20
 15
-1.000000000000000E+20
 25
-1.000000000000000E+20
 35
-1.000000000000000E+20
146
0.0
 13
0.0
 23
0.0
 33
0.0
 16
1.0
 26
0.0
 36
0.0
 17
0.0
 27
1.0
 37
0.0
 76
     0
330
E
  0
LAYOUT
  5
B
102
{ACAD_REACTORS
330
C
102
}
330
C
100
AcDbPlotSettings
  1

  2
G:\VORLAGEN\AutoCAD2002\Plotten\A3hoch-MSL.pc3
  4
A3
  6

 40
7.143749713897705
 41
5.746753215789794
 42
7.18609619140625
 43
7.14373779296875
 44
296.9683227539062
 45
419.9889831542968
 46
0.0
 47
0.0
 48
0.0
 49
0.0
140
0.0
141
0.0
142
1.0
143
1.927325868752807
 70
 11952
 72
     1
 73
     1
 74
     0
  7
monochrome.ctb
 75
     0
147
0.5188536179650358
 76
     0
 77
     2
 78
   300
148
-41.49491229363093
149
-95.66781902941057
100
AcDbLayout
  1
Model
 70
     1
 71
     0
 10
0.0
 20
0.0
 11
12.0
 21
9.0
 12
0.0
 22
0.0
 32
0.0
 14
0.0
 24
0.0
 34
0.0
 15
0.0
 25
0.0
 35
0.0
146
0.0
 13
0.0
 23
0.0
 33
0.0
 16
1.0
 26
0.0
 36
0.0
 17
0.0
 27
1.0
 37
0.0
 76
     0
330
2
1001
ACAD_PSEXT
1000
G:\VORLAGEN\AutoCAD2002\Plotten\A3hoch-MSL.pc3
1000
HP LaserJet 5000 Series PCL
1000
CAD
1000
HP LaserJet 5000N
1070
     0
  0
MLINESTYLE
  5
2E
102
{ACAD_REACTORS
330
28
102
}
330
28
100
AcDbMlineStyle
  2
STANDARD
 70
     0
  3

 62
     0
 51
90.0
 52
90.0
 71
     2
 49
0.5
 62
   256
  6
BYLAYER
 49
-0.5
 62
   256
  6
BYLAYER
  0
ACDBPLACEHOLDER
  5
6
102
{ACAD_REACTORS
330
7
102
}
330
7
  0
TABLESTYLE
  5
2F
102
{ACAD_REACTORS
330
2C
102
}
330
2C
100
AcDbTableStyle
  3
Standard
 70
     0
 71
     0
 40
1.5
 41
1.5
280
     0
281
     0
  7
STANDARD
140
4.5
170
     2
 62
     0
 63
     7
283
     0
274
    -2
284
     1
 64
     0
275
    -2
285
     1
 65
     0
276
    -2
286
     1
 66
     0
277
    -2
287
     1
 67
     0
278
    -2
288
     1
 68
     0
279
    -2
289
     1
 69
     0
  7
STANDARD
140
6.0
170
     5
 62
     0
 63
     7
283
     0
274
    -2
284
     1
 64
     0
275
    -2
285
     1
 65
     0
276
    -2
286
     1
 66
     0
277
    -2
287
     1
 67
     0
278
    -2
288
     1
 68
     0
279
    -2
289
     1
 69
     0
  7
STANDARD
140
4.5
170
     5
 62
     0
 63
     7
283
     0
274
    -2
284
     1
 64
     0
275
    -2
285
     1
 65
     0
276
    -2
286
     1
 66
     0
277
    -2
287
     1
 67
     0
278
    -2
288
     1
 68
     0
279
    -2
289
     1
 69
     0
  0
DICTIONARYVAR
  5
310
102
{ACAD_REACTORS
330
30F
102
}
330
30F
100
DictionaryVariables
280
     0
  1
STANDARD
  0
DICTIONARY
  5
2CC
102
{ACAD_REACTORS
330
2CB
102
}
330
2CB
100
AcDbDictionary
281
     1
  3
DIN
350
2CD
  0
DICTIONARY
  5
2C6
102
{ACAD_REACTORS
330
2BC
102
}
330
2BC
100
AcDbDictionary
281
     1
  3
DWGSETTINGS
350
2C5
  3
TRANSSETTINGS
350
2C7
  0
ENDSEC
  0
EOF
