  0
SECTION
  2
HEADER
  9
$ACADVER
  1
AC1027
  9
$ACADMAINTVER
 70
    57
  9
$DWGCODEPAGE
  3
ANSI_1252
  9
$LASTSAVEDBY
  1
wch
  9
$REQUIREDVERSIONS
160
                 0
  9
$INSBASE
 10
0.0
 20
0.0
 30
0.0
  9
$EXTMIN
 10
583.9322463262501
 20
151.037319067701
 30
-0.0015258207003583
  9
$EXTMAX
 10
822.4646788467126
 20
504.6428552402699
 30
0.0000000349246037
  9
$LIMMIN
 10
0.0
 20
0.0
  9
$LIMMAX
 10
566.4069975479701
 20
669.6985897720049
  9
$ORTHOMODE
 70
     1
  9
$REGENMODE
 70
     1
  9
$FILLMODE
 70
     1
  9
$QTEXTMODE
 70
     0
  9
$MIRRTEXT
 70
     0
  9
$LTSCALE
 40
1.0
  9
$ATTMODE
 70
     1
  9
$TEXTSIZE
 40
3.5
  9
$TRACEWID
 40
0.05
  9
$TEXTSTYLE
  7
ARIAL-STANDARD
  9
$CLAYER
  8
UMRISS07
  9
$CELTYPE
  6
BYLAYER
  9
$CECOLOR
 62
   256
  9
$CELTSCALE
 40
1.0
  9
$DISPSILH
 70
     0
  9
$DIMSCALE
 40
1.0
  9
$DIMASZ
 40
3.5
  9
$DIMEXO
 40
1.0
  9
$DIMDLI
 40
10.0
  9
$DIMRND
 40
0.0
  9
$DIMDLE
 40
0.0
  9
$DIMEXE
 40
1.0
  9
$DIMTP
 40
0.1
  9
$DIMTM
 40
0.1
  9
$DIMTXT
 40
3.5
  9
$DIMCEN
 40
0.0
  9
$DIMTSZ
 40
0.0
  9
$DIMTOL
 70
     0
  9
$DIMLIM
 70
     0
  9
$DIMTIH
 70
     0
  9
$DIMTOH
 70
     0
  9
$DIMSE1
 70
     0
  9
$DIMSE2
 70
     0
  9
$DIMTAD
 70
     1
  9
$DIMZIN
 70
     8
  9
$DIMBLK
  1

  9
$DIMASO
 70
     1
  9
$DIMSHO
 70
     1
  9
$DIMPOST
  1

  9
$DIMAPOST
  1
"
  9
$DIMALT
 70
     0
  9
$DIMALTD
 70
     2
  9
$DIMALTF
 40
0.0393701
  9
$DIMLFAC
 40
1.0
  9
$DIMTOFL
 70
     1
  9
$DIMTVP
 40
0.0
  9
$DIMTIX
 70
     0
  9
$DIMSOXD
 70
     0
  9
$DIMSAH
 70
     0
  9
$DIMBLK1
  1

  9
$DIMBLK2
  1

  9
$DIMSTYLE
  2
AM_DIN
  9
$DIMCLRD
 70
   256
  9
$DIMCLRE
 70
   256
  9
$DIMCLRT
 70
     2
  9
$DIMTFAC
 40
0.71
  9
$DIMGAP
 40
1.5
  9
$DIMJUST
 70
     0
  9
$DIMSD1
 70
     0
  9
$DIMSD2
 70
     0
  9
$DIMTOLJ
 70
     0
  9
$DIMTZIN
 70
     8
  9
$DIMALTZ
 70
     0
  9
$DIMALTTZ
 70
     0
  9
$DIMUPT
 70
     0
  9
$DIMDEC
 70
     2
  9
$DIMTDEC
 70
     3
  9
$DIMALTU
 70
     2
  9
$DIMALTTD
 70
     4
  9
$DIMTXSTY
  7
STANDARD
  9
$DIMAUNIT
 70
     0
  9
$DIMADEC
 70
     0
  9
$DIMALTRND
 40
0.0
  9
$DIMAZIN
 70
     2
  9
$DIMDSEP
 70
    46
  9
$DIMATFIT
 70
     3
  9
$DIMFRAC
 70
     0
  9
$DIMLDRBLK
  1

  9
$DIMLUNIT
 70
     2
  9
$DIMLWD
 70
    -1
  9
$DIMLWE
 70
    -1
  9
$DIMTMOVE
 70
     0
  9
$DIMFXL
 40
1.0
  9
$DIMFXLON
 70
     0
  9
$DIMJOGANG
 40
1.570796326794896
  9
$DIMTFILL
 70
     0
  9
$DIMTFILLCLR
 70
     0
  9
$DIMARCSYM
 70
     0
  9
$DIMLTYPE
  6
BYBLOCK
  9
$DIMLTEX1
  6
BYBLOCK
  9
$DIMLTEX2
  6
BYBLOCK
  9
$DIMTXTDIRECTION
 70
     0
  9
$LUNITS
 70
     2
  9
$LUPREC
 70
     2
  9
$SKETCHINC
 40
0.1
  9
$FILLETRAD
 40
0.0
  9
$AUNITS
 70
     0
  9
$AUPREC
 70
     0
  9
$MENU
  1
.
  9
$ELEVATION
 40
0.0
  9
$PELEVATION
 40
0.0
  9
$THICKNESS
 40
0.0
  9
$LIMCHECK
 70
     0
  9
$CHAMFERA
 40
0.0
  9
$CHAMFERB
 40
0.0
  9
$CHAMFERC
 40
1.0
  9
$CHAMFERD
 40
0.0
  9
$SKPOLY
 70
     0
  9
$TDCREATE
 40
2451554.405552790
  9
$TDUCREATE
 40
2451554.363886123
  9
$TDUPDATE
 40
2457732.316775417
  9
$TDUUPDATE
 40
2457732.275108750
  9
$TDINDWG
 40
1.0374691667
  9
$TDUSRTIMER
 40
1.0374691204
  9
$USRTIMER
 70
     1
  9
$ANGBASE
 50
0.0
  9
$ANGDIR
 70
     0
  9
$PDMODE
 70
     0
  9
$PDSIZE
 40
0.0
  9
$PLINEWID
 40
0.0
  9
$SPLFRAME
 70
     0
  9
$SPLINETYPE
 70
     6
  9
$SPLINESEGS
 70
     8
  9
$HANDSEED
  5
4C2
  9
$SURFTAB1
 70
     6
  9
$SURFTAB2
 70
     6
  9
$SURFTYPE
 70
     6
  9
$SURFU
 70
     6
  9
$SURFV
 70
     6
  9
$UCSBASE
  2

  9
$UCSNAME
  2

  9
$UCSORG
 10
0.0
 20
0.0
 30
0.0
  9
$UCSXDIR
 10
1.0
 20
0.0
 30
0.0
  9
$UCSYDIR
 10
0.0
 20
1.0
 30
0.0
  9
$UCSORTHOREF
  2

  9
$UCSORTHOVIEW
 70
     0
  9
$UCSORGTOP
 10
0.0
 20
0.0
 30
0.0
  9
$UCSORGBOTTOM
 10
0.0
 20
0.0
 30
0.0
  9
$UCSORGLEFT
 10
0.0
 20
0.0
 30
0.0
  9
$UCSORGRIGHT
 10
0.0
 20
0.0
 30
0.0
  9
$UCSORGFRONT
 10
0.0
 20
0.0
 30
0.0
  9
$UCSORGBACK
 10
0.0
 20
0.0
 30
0.0
  9
$PUCSBASE
  2

  9
$PUCSNAME
  2

  9
$PUCSORG
 10
0.0
 20
0.0
 30
0.0
  9
$PUCSXDIR
 10
1.0
 20
0.0
 30
0.0
  9
$PUCSYDIR
 10
0.0
 20
1.0
 30
0.0
  9
$PUCSORTHOREF
  2

  9
$PUCSORTHOVIEW
 70
     0
  9
$PUCSORGTOP
 10
0.0
 20
0.0
 30
0.0
  9
$PUCSORGBOTTOM
 10
0.0
 20
0.0
 30
0.0
  9
$PUCSORGLEFT
 10
0.0
 20
0.0
 30
0.0
  9
$PUCSORGRIGHT
 10
0.0
 20
0.0
 30
0.0
  9
$PUCSORGFRONT
 10
0.0
 20
0.0
 30
0.0
  9
$PUCSORGBACK
 10
0.0
 20
0.0
 30
0.0
  9
$USERI1
 70
     0
  9
$USERI2
 70
     0
  9
$USERI3
 70
     0
  9
$USERI4
 70
     0
  9
$USERI5
 70
     0
  9
$USERR1
 40
0.0
  9
$USERR2
 40
0.0
  9
$USERR3
 40
0.0
  9
$USERR4
 40
0.0
  9
$USERR5
 40
0.0
  9
$WORLDVIEW
 70
     1
  9
$SHADEDGE
 70
     3
  9
$SHADEDIF
 70
    70
  9
$TILEMODE
 70
     1
  9
$MAXACTVP
 70
    48
  9
$PINSBASE
 10
0.0
 20
0.0
 30
0.0
  9
$PLIMCHECK
 70
     0
  9
$PEXTMIN
 10
1.000000000000000E+20
 20
1.000000000000000E+20
 30
1.000000000000000E+20
  9
$PEXTMAX
 10
-1.000000000000000E+20
 20
-1.000000000000000E+20
 30
-1.000000000000000E+20
  9
$PLIMMIN
 10
0.0
 20
0.0
  9
$PLIMMAX
 10
12.0
 20
9.0
  9
$UNITMODE
 70
     0
  9
$VISRETAIN
 70
     1
  9
$PLINEGEN
 70
     0
  9
$PSLTSCALE
 70
     1
  9
$TREEDEPTH
 70
  3020
  9
$CMLSTYLE
  2
STANDARD
  9
$CMLJUST
 70
     0
  9
$CMLSCALE
 40
1.0
  9
$PROXYGRAPHICS
 70
     1
  9
$MEASUREMENT
 70
     1
  9
$CELWEIGHT
370
    -1
  9
$ENDCAPS
280
     0
  9
$JOINSTYLE
280
     0
  9
$LWDISPLAY
290
     0
  9
$INSUNITS
 70
     0
  9
$HYPERLINKBASE
  1

  9
$STYLESHEET
  1

  9
$XEDIT
290
     1
  9
$CEPSNTYPE
380
     0
  9
$PSTYLEMODE
290
     1
  9
$FINGERPRINTGUID
  2
{BEC6EAF3-3C67-44E2-8711-2371F8068C5E}
  9
$VERSIONGUID
  2
{A28047E6-3B37-4310-8D5B-24FDFC64E0AB}
  9
$EXTNAMES
290
     1
  9
$PSVPSCALE
 40
0.0
  9
$OLESTARTUP
290
     0
  9
$SORTENTS
280
   127
  9
$INDEXCTL
280
     0
  9
$HIDETEXT
280
     1
  9
$XCLIPFRAME
280
     0
  9
$HALOGAP
280
     0
  9
$OBSCOLOR
 70
   257
  9
$OBSLTYPE
280
     0
  9
$INTERSECTIONDISPLAY
280
     0
  9
$INTERSECTIONCOLOR
 70
   257
  9
$DIMASSOC
280
     1
  9
$PROJECTNAME
  1

  9
$CAMERADISPLAY
290
     0
  9
$LENSLENGTH
 40
50.0
  9
$CAMERAHEIGHT
 40
0.0
  9
$STEPSPERSEC
 40
2.0
  9
$STEPSIZE
 40
6.0
  9
$3DDWFPREC
 40
2.0
  9
$PSOLWIDTH
 40
0.25
  9
$PSOLHEIGHT
 40
4.0
  9
$LOFTANG1
 40
1.570796326794896
  9
$LOFTANG2
 40
1.570796326794896
  9
$LOFTMAG1
 40
0.0
  9
$LOFTMAG2
 40
0.0
  9
$LOFTPARAM
 70
     7
  9
$LOFTNORMALS
280
     1
  9
$LATITUDE
 40
37.795
  9
$LONGITUDE
 40
-122.394
  9
$NORTHDIRECTION
 40
0.0
  9
$TIMEZONE
 70
 -8000
  9
$LIGHTGLYPHDISPLAY
280
     1
  9
$TILEMODELIGHTSYNCH
280
     1
  9
$CMATERIAL
347
315
  9
$SOLIDHIST
280
     0
  9
$SHOWHIST
280
     1
  9
$DWFFRAME
280
     2
  9
$DGNFRAME
280
     0
  9
$REALWORLDSCALE
290
     1
  9
$INTERFERECOLOR
 62
     1
  9
$INTERFEREOBJVS
345
337
  9
$INTERFEREVPVS
346
334
  9
$CSHADOW
280
     0
  9
$SHADOWPLANELOCATION
 40
0.0
  0
ENDSEC
  0
SECTION
  2
CLASSES
  0
CLASS
  1
ACDBDICTIONARYWDFLT
  2
AcDbDictionaryWithDefault
  3
ObjectDBX Classes
 90
        0
 91
        1
280
     0
281
     0
  0
CLASS
  1
ACME_DOCUMENT
  2
AcMeDbDoc
  3
AcMeServices
 90
     1024
 91
        1
280
     0
281
     0
  0
CLASS
  1
AMGSETTINGSOBJ
  2
AmgSettingsObj
  3
"AcadM|Product Description: AutoCAD Mechanical|Company: Autodesk, Inc."
 90
     1024
 91
        2
280
     0
281
     0
  0
CLASS
  1
ACMESCOPE
  2
AcMeScope
  3
AcMeServices
 90
     1024
 91
        1
280
     0
281
     0
  0
CLASS
  1
ACMECOMMANDHISTORY
  2
AcMeCommandHistory
  3
AcMeServices
 90
     1024
 91
        1
280
     0
281
     0
  0
CLASS
  1
ACIMSYSVARMAN
  2
AcImSysVarManager
  3
AcMeServices
 90
     1024
 91
        3
280
     0
281
     0
  0
CLASS
  1
ACIMREALSYSVAR
  2
AcImRealSysVar
  3
AcMeServices
 90
     1024
 91
        0
280
     0
281
     0
  0
CLASS
  1
ACIMINTSYSVAR
  2
AcImIntSysVar
  3
AcMeServices
 90
     1024
 91
        2
280
     0
281
     0
  0
CLASS
  1
ACMEDRAWINGMAN
  2
AcMeDrawingMan
  3
AcMeServices
 90
     1024
 91
        0
280
     0
281
     0
  0
CLASS
  1
ACMEVIEW
  2
AcMeView
  3
AcMeServices
 90
     1024
 91
        0
280
     0
281
     0
  0
CLASS
  1
ACDBENTITYCACHE
  2
AcMeEntityCache
  3
AcMeServices
 90
     1024
 91
        1
280
     0
281
     0
  0
CLASS
  1
GSMANAGER
  2
AcMeGSManager
  3
AcMeServices
 90
        0
 91
        0
280
     0
281
     0
  0
CLASS
  1
AMDTINTERNALREACTOR
  2
AmdtInternalReactor
  3
AcMeServices
 90
     1024
 91
        0
280
     0
281
     0
  0
CLASS
  1
ACMESTATEMGR
  2
AcMeStateMgr
  3
AcMeServices
 90
     1024
 91
        1
280
     0
281
     0
  0
CLASS
  1
ACGREFMASTER
  2
AcGrefMaster
  3
AcAttribServices
 90
     1024
 91
        1
280
     0
281
     0
  0
CLASS
  1
ACME_DATABASE
  2
AcMeDbDatabase
  3
AcMeServices
 90
     1024
 91
        2
280
     0
281
     0
  0
CLASS
  1
ACRFINSADJUSTERMGR
  2
AcRfInsAdjusterMgr
  3
AcMeServices
 90
     1024
 91
        1
280
     0
281
     0
  0
CLASS
  1
ACGREFACADMASTER
  2
AcGrefacadMaster
  3
AcGrefServices
 90
     1024
 91
        1
280
     0
281
     0
  0
CLASS
  1
AMIMASTER
  2
AmiMaster
  3
AmiServices
 90
     1024
 91
        1
280
     0
281
     0
  0
CLASS
  1
ACMDATADICTIONARY
  2
AcmDataDictionary
  3
"AcmSymBB|Product Description: AutoCAD Mechanical|Company: Autodesk, Inc."
 90
     1024
 91
        1
280
     0
281
     0
  0
CLASS
  1
ACMDATAENTRYBLOCK
  2
AcmDataEntryBlock
  3
AcmSymBB|Product Description: AutoCAD Mechanical|Company: Autodesk, Inc.
 90
     1024
 91
        0
280
     0
281
     0
  0
CLASS
  1
ACIMSTRSYSVAR
  2
AcImStrSysVar
  3
AcMeServices
 90
     1024
 91
        5
280
     0
281
     0
  0
CLASS
  1
ACMSTANDARDDIN
  2
AcmStandardDIN
  3
"Amdt_StdImp|Product Description: AutoCAD Mechanical|Company: Autodesk, Inc."
 90
     1024
 91
        1
280
     0
281
     0
  0
CLASS
  1
AMGOBJPROPCFG
  2
AmgObjPropCfg
  3
"AmgLay|Product Description: AutoCAD Mechanical|Company: Autodesk, Inc."
 90
     1024
 91
        1
280
     0
281
     0
  0
CLASS
  1
AMDTEDGESTANDARDDIN
  2
AmdtEdgeStdDIN
  3
"Amdt_StdImp|Product Description: AutoCAD Mechanical|Company: Autodesk, Inc."
 90
     1024
 91
        0
280
     0
281
     0
  0
CLASS
  1
ACMSURFSTANDARDDIN
  2
AcmSurfTextStdDIN
  3
"Amdt_StdImp|Product Description: AutoCAD Mechanical|Company: Autodesk, Inc."
 90
     1024
 91
        0
280
     0
281
     0
  0
CLASS
  1
ACMFCFSTANDARDDIN
  2
AcmFCFStdDIN
  3
"Amdt_StdImp|Product Description: AutoCAD Mechanical|Company: Autodesk, Inc."
 90
     1024
 91
        0
280
     0
281
     0
  0
CLASS
  1
ACMWELDSTANDARDDIN
  2
AcmWeldingStdDIN
  3
"Amdt_StdImp|Product Description: AutoCAD Mechanical|Company: Autodesk, Inc."
 90
     1024
 91
        1
280
     0
281
     0
  0
CLASS
  1
ACMIDSTANDARDDIN
  2
AcmIdStdDIN
  3
"Amdt_StdImp|Product Description: AutoCAD Mechanical|Company: Autodesk, Inc."
 90
     1024
 91
        0
280
     0
281
     0
  0
CLASS
  1
ACMDATUMSTANDARDDIN
  2
AcmDatumStdDIN
  3
"Amdt_StdImp|Product Description: AutoCAD Mechanical|Company: Autodesk, Inc."
 90
     1024
 91
        1
280
     0
281
     0
  0
CLASS
  1
ACMBOMSTANDARDDIN
  2
AcmBOMStdDIN
  3
"Amdt_StdImp|Product Description: AutoCAD Mechanical|Company: Autodesk, Inc."
 90
     1024
 91
        1
280
     0
281
     0
  0
CLASS
  1
ACMDETAILSTANDARDDIN
  2
AmdtDetailSymStdDIN
  3
"Amdt_StdImp|Product Description: AutoCAD Mechanical|Company: Autodesk, Inc."
 90
     1024
 91
        1
280
     0
281
     0
  0
CLASS
  1
ACMSECTIONSTANDARDDIN
  2
AmdtSectionSymStdDIN
  3
"Amdt_StdImp|Product Description: AutoCAD Mechanical|Company: Autodesk, Inc."
 90
     1024
 91
        1
280
     0
281
     0
  0
CLASS
  1
ACMCENTERLINESTANDARDDIN
  2
AmdtCenterLineStdDIN
  3
"Amdt_StdImp|Product Description: AutoCAD Mechanical|Company: Autodesk, Inc."
 90
     1024
 91
        1
280
     0
281
     0
  0
CLASS
  1
ACMNOTESTANDARDDIN
  2
AmdtNoteStdDIN
  3
"Amdt_StdImp|Product Description: AutoCAD Mechanical|Company: Autodesk, Inc."
 90
     1024
 91
        1
280
     0
281
     0
  0
CLASS
  1
ACAMGLAYSTD
  2
AcAmgLayStd
  3
"AmgLay|Product Description: AutoCAD Mechanical|Company: Autodesk, Inc."
 90
     1024
 91
        1
280
     0
281
     0
  0
CLASS
  1
ACAMGDIMSTD
  2
AcAmgDimStd
  3
"AmgDim|Product Description: AutoCAD Mechanical|Company: Autodesk, Inc."
 90
     1024
 91
        1
280
     0
281
     0
  0
CLASS
  1
ACAMGHOLECHARTSTDDIN
  2
AcAmgHoleChartStdDIN
  3
AmgDim|Product Description: AutoCAD Mechanical|Company: Autodesk, Inc.
 90
     1024
 91
        1
280
     0
281
     0
  0
CLASS
  1
ACAMGTITLESTD
  2
AcAmgTitleStd
  3
"AmgTitle|Product Description: AutoCAD Mechanical|Company: Autodesk, Inc."
 90
     1024
 91
        1
280
     0
281
     0
  0
CLASS
  1
ACAMGFILTERDAT
  2
AcAmgFilterDat
  3
"AcadM|Product Description: AutoCAD Mechanical|Company: Autodesk, Inc."
 90
     1024
 91
        6
280
     0
281
     0
  0
CLASS
  1
LAYER_INDEX
  2
AcDbLayerIndex
  3
ObjectDBX Classes
 90
        0
 91
        0
280
     0
281
     0
  0
CLASS
  1
IDBUFFER
  2
AcDbIdBuffer
  3
ObjectDBX Classes
 90
        0
 91
        0
280
     0
281
     0
  0
CLASS
  1
DICTIONARYVAR
  2
AcDbDictionaryVar
  3
ObjectDBX Classes
 90
        0
 91
        9
280
     0
281
     0
  0
CLASS
  1
ACMDIMBREAKPERSREACTOR
  2
AcmDimBreakPersReactor
  3
AmgDim|Product Description: AutoCAD Mechanical|Company: Autodesk, Inc.
 90
     1024
 91
        0
280
     0
281
     0
  0
CLASS
  1
AMDTNOTE
  2
AmdtNote
  3
"AcmSymBB|Product Description: AutoCAD Mechanical|Company: Autodesk, Inc."
 90
     1024
 91
        0
280
     0
281
     1
  0
CLASS
  1
AMDTFORMULAUPDATEDISPATCHER
  2
AmdtFormulaUpdateDispatcher
  3
AcMeServices
 90
     1024
 91
        0
280
     0
281
     0
  0
CLASS
  1
PLOTSETTINGS
  2
AcDbPlotSettings
  3
ObjectDBX Classes
 90
        0
 91
        0
280
     0
281
     0
  0
CLASS
  1
TABLESTYLE
  2
AcDbTableStyle
  3
ObjectDBX Classes
 90
     4095
 91
        1
280
     0
281
     0
  0
CLASS
  1
AM_DRAWING_MGR
  2
AcDmDwgMgr
  3
AcMechDwgViewMgmt
 90
     1024
 91
        0
280
     0
281
     0
  0
CLASS
  1
AM_DWG_DOCUMENT
  2
AcDmDwgDocument
  3
AcMechDwgViewMgmt
 90
     1024
 91
        0
280
     0
281
     0
  0
CLASS
  1
AM_DWG_SHEET
  2
AcDmSheet
  3
AcMechDwgViewMgmt
 90
     1024
 91
        0
280
     0
281
     0
  0
CLASS
  1
AM_VIEWDIMPARMAP
  2
AcDmViewDimParMap
  3
AcMechDwgViewMgmt
 90
     1024
 91
        0
280
     0
281
     0
  0
CLASS
  1
AM_DWGMGR_NAME
  2
AcDmDwgMgrName
  3
AcMechDwgViewMgmt
 90
     1024
 91
        0
280
     0
281
     0
  0
CLASS
  1
AMDTMENUSTATEMGR
  2
AmdtMenuStateMgr
  3
McadcomServices
 90
     1024
 91
        1
280
     0
281
     0
  0
CLASS
  1
AMDTMCOMMENUSTATE
  2
AmdtMcomMenuState
  3
McadcomServices
 90
     1024
 91
        1
280
     0
281
     0
  0
CLASS
  1
MAPIAMMOUDLE
  2
MApiAmModule
  3
MApiAmServices
 90
     1024
 91
        1
280
     0
281
     0
  0
CLASS
  1
AMDTADMENUSTATE
  2
AmdtAdMenuState
  3
DesignerServices
 90
        0
 91
        0
280
     0
281
     0
  0
CLASS
  1
ADAPPL
  2
AcAdAppl
  3
DesignerAssemblies
 90
     1024
 91
        0
280
     0
281
     0
  0
CLASS
  1
DEPMGR
  2
AcAdDepMgr
  3
DesignerAssemblies
 90
     1024
 91
        0
280
     0
281
     0
  0
CLASS
  1
PARAMMGR
  2
AcAdParamMgr
  3
DesignerAssemblies
 90
     1024
 91
        0
280
     0
281
     0
  0
CLASS
  1
PARAMSCOPE
  2
AcAdParamScope
  3
DesignerAssemblies
 90
     1024
 91
        0
280
     0
281
     0
  0
CLASS
  1
NAMEDAPPL
  2
AcAdNamedAppl
  3
DesignerAssemblies
 90
     1024
 91
        0
280
     0
281
     0
  0
CLASS
  1
AMDTDMMENUSTATE
  2
AmdtDmMenuState
  3
AcMechDwgViewMgmt
 90
        0
 91
        0
280
     0
281
     0
  0
CLASS
  1
AMDTAMMENUSTATE
  2
AmdtAmMenuState
  3
DesignerAssemblies
 90
     1024
 91
        1
280
     0
281
     0
  0
CLASS
  1
ACAMPROJECT
  2
AcAmProject
  3
DesignerAssemblies
 90
     1024
 91
        1
280
     0
281
     0
  0
CLASS
  1
ACAMGRCOMPDEF
  2
AcAmGrCompDef
  3
DesignerAssemblies
 90
     1024
 91
        1
280
     0
281
     0
  0
CLASS
  1
ACCMCONTEXT
  2
AcCmContext
  3
DesignerAssemblies
 90
     1024
 91
        0
280
     0
281
     0
  0
CLASS
  1
ACAMCOMPDEF
  2
AcAmCompDef
  3
DesignerAssemblies
 90
     1024
 91
        1
280
     0
281
     0
  0
CLASS
  1
ACAMCOMPDEFMGR
  2
AcAmCompDefMgr
  3
DesignerAssemblies
 90
     1024
 91
        1
280
     0
281
     0
  0
CLASS
  1
AMCONTEXTMGR
  2
AcAmContextMgr
  3
DesignerAssemblies
 90
     1024
 91
        1
280
     0
281
     0
  0
CLASS
  1
ACAMCONTEXTMODELER
  2
AcAmContextModeler
  3
DesignerAssemblies
 90
     1024
 91
        1
280
     0
281
     0
  0
CLASS
  1
ACRFATTGENMGR
  2
AcRfAttGeneralMgr
  3
AcAttribServices
 90
     1024
 91
        0
280
     0
281
     0
  0
CLASS
  1
ACRFOBJATTMGR
  2
AcRfObjAttGroupMgr
  3
AcAttribServices
 90
     1024
 91
        0
280
     0
281
     0
  0
CLASS
  1
ACRFMCADAPIATTHOLDER
  2
AcRfMCADAPIAttHolder
  3
AcAttribServices
 90
     1024
 91
        0
280
     0
281
     0
  0
CLASS
  1
AMDTSYSATTR
  2
AmdtSystemAttribute
  3
AcAttribServices
 90
     1024
 91
        0
280
     0
281
     0
  0
CLASS
  1
ACMTHREADLINESTANDARDDIN
  2
AmdtThreadLineStdDIN
  3
"Amdt_StdImp|Product Description: AutoCAD Mechanical|Company: Autodesk, Inc."
 90
     1024
 91
        1
280
     0
281
     0
  0
CLASS
  1
CATALOGSTATE
  2
AcAmCatalogState
  3
DesignerAssemblies
 90
     1024
 91
        0
280
     0
281
     0
  0
CLASS
  1
ACAMGRCOMPDEFSET
  2
AcAmGrCompDefSet
  3
DesignerAssemblies
 90
     1024
 91
        1
280
     0
281
     0
  0
CLASS
  1
AMDTBROWSERDBTAB
  2
AmdtBrowserDbTab
  3
McadcomServices
 90
     1024
 91
        1
280
     0
281
     0
  0
CLASS
  1
CBROWSERAPPOBJECT
  2
CBrowserAppObject
  3
McadcomServices
 90
     1024
 91
        2
280
     0
281
     0
  0
CLASS
  1
DM_PLACEHOLDER
  2
AcDmSelsetPlaceholder
  3
McadcomServices
 90
     1024
 91
        1
280
     0
281
     0
  0
CLASS
  1
SORTENTSTABLE
  2
AcDbSortentsTable
  3
ObjectDBX Classes
 90
        0
 91
        1
280
     0
281
     0
  0
CLASS
  1
MATERIAL
  2
AcDbMaterial
  3
ObjectDBX Classes
 90
     1153
 91
        3
280
     0
281
     0
  0
CLASS
  1
VISUALSTYLE
  2
AcDbVisualStyle
  3
ObjectDBX Classes
 90
     4095
 91
       24
280
     0
281
     0
  0
CLASS
  1
SCALE
  2
AcDbScale
  3
ObjectDBX Classes
 90
     1153
 91
       17
280
     0
281
     0
  0
CLASS
  1
MLEADERSTYLE
  2
AcDbMLeaderStyle
  3
ACDB_MLEADERSTYLE_CLASS
 90
     4095
 91
        1
280
     0
281
     0
  0
CLASS
  1
ACDBSECTIONVIEWSTYLE
  2
AcDbSectionViewStyle
  3
ObjectDBX Classes
 90
     1025
 91
        2
280
     0
281
     0
  0
CLASS
  1
ACDBDETAILVIEWSTYLE
  2
AcDbDetailViewStyle
  3
ObjectDBX Classes
 90
     1025
 91
        2
280
     0
281
     0
  0
CLASS
  1
AMDTEDGESTANDARDDIN13715
  2
AmdtEdgeStdDIN13715
  3
"Amdt_StdImp|Product Description: AutoCAD Mechanical|Company: Autodesk, Inc."
 90
     1024
 91
        1
280
     0
281
     0
  0
CLASS
  1
ACMSURFSTANDARDDIN2002
  2
AcmSurfTextStdDIN2002
  3
"Amdt_StdImp|Product Description: AutoCAD Mechanical|Company: Autodesk, Inc."
 90
     1024
 91
        1
280
     0
281
     0
  0
CLASS
  1
ACMFCFSTANDARDDIN2008
  2
AcmFCFStdDIN2008
  3
"Amdt_StdImp|Product Description: AutoCAD Mechanical|Company: Autodesk, Inc."
 90
     1024
 91
        1
280
     0
281
     0
  0
CLASS
  1
ACMIDSTANDARDDIN2008
  2
AcmIdStdDIN2008
  3
"Amdt_StdImp|Product Description: AutoCAD Mechanical|Company: Autodesk, Inc."
 90
     1024
 91
        1
280
     0
281
     0
  0
CLASS
  1
ACMTAPERSTANDARDDIN
  2
AcmTaperStdDIN
  3
"Amdt_StdImp|Product Description: AutoCAD Mechanical|Company: Autodesk, Inc."
 90
     1024
 91
        1
280
     0
281
     0
  0
CLASS
  1
ACMANOOTATIONVIEWSTANDARDDIN
  2
AmdtAnViewStdDIN
  3
"Amdt_StdImp|Product Description: AutoCAD Mechanical|Company: Autodesk, Inc."
 90
     1024
 91
        1
280
     0
281
     0
  0
CLASS
  1
ACMSECTIONSTANDARDCUSTOM
  2
AmdtSectionSymStdCustom
  3
"Amdt_StdImp|Product Description: AutoCAD Mechanical|Company: Autodesk, Inc."
 90
     1024
 91
        1
280
     0
281
     0
  0
CLASS
  1
ACMDETAILTANDARDCUSTOM
  2
AmdtDetailSymStdCustom
  3
"Amdt_StdImp|Product Description: AutoCAD Mechanical|Company: Autodesk, Inc."
 90
     1024
 91
        1
280
     0
281
     0
  0
CLASS
  1
FIELD
  2
AcDbField
  3
ObjectDBX Classes
 90
     1152
 91
        6
280
     0
281
     0
  0
CLASS
  1
FIELDLIST
  2
AcDbFieldList
  3
ObjectDBX Classes
 90
     1152
 91
        1
280
     0
281
     0
  0
CLASS
  1
AMDTNOTETEMPLATEDB
  2
AmdtNoteTemplateDB
  3
AcmSymBB|Product Description: AutoCAD Mechanical|Company: Autodesk, Inc.
 90
     1024
 91
        7
280
     0
281
     0
  0
CLASS
  1
DIMASSOC
  2
AcDbDimAssoc
  3
"AcDbDimAssoc|Product Desc:     AcDim ARX App For Dimension|Company:          Autodesk, Inc.|WEB Address:      www.autodesk.com"
 90
        0
 91
        2
280
     0
281
     0
  0
CLASS
  1
CELLSTYLEMAP
  2
AcDbCellStyleMap
  3
ObjectDBX Classes
 90
     1152
 91
        1
280
     0
281
     0
  0
ENDSEC
  0
SECTION
  2
TABLES
  0
TABLE
  2
VPORT
  5
1B
330
0
100
AcDbSymbolTable
 70
     1
  0
VPORT
  5
1C
330
1B
100
AcDbSymbolTableRecord
100
AcDbViewportTableRecord
  2
*Active
 70
     0
 10
0.0
 20
0.0
 11
1.0
 21
1.0
 12
703.1984625864813
 22
327.8400871539854
 13
0.0
 23
0.0
 14
10.0
 24
10.0
 15
10.0
 25
10.0
 16
0.0
 26
0.0
 36
1.0
 17
0.0
 27
0.0
 37
0.0
 40
356.1678951303412
 41
2.153567110036275
 42
50.0
 43
0.0
 44
0.0
 50
0.0
 51
0.0
 71
     0
 72
  5000
 73
     1
 74
     0
 75
     0
 76
     0
 77
     0
 78
     0
281
     0
 65
     0
110
0.0
120
0.0
130
0.0
111
1.0
121
0.0
131
0.0
112
0.0
122
1.0
132
0.0
 79
     0
146
0.0
348
333
 60
     3
 61
     5
292
     1
282
     1
141
0.0
142
0.0
 63
   250
421
  3355443
1001
ACAD_NAV_VCDISPLAY
1070
     3
  0
ENDTAB
  0
TABLE
  2
LTYPE
  5
16
330
0
100
AcDbSymbolTable
 70
    26
  0
LTYPE
  5
17
330
16
100
AcDbSymbolTableRecord
100
AcDbLinetypeTableRecord
  2
BYBLOCK
 70
     0
  3

 72
    65
 73
     0
 40
0.0
  0
LTYPE
  5
18
330
16
100
AcDbSymbolTableRecord
100
AcDbLinetypeTableRecord
  2
BYLAYER
 70
     0
  3

 72
    65
 73
     0
 40
0.0
  0
LTYPE
  5
9
330
16
100
AcDbSymbolTableRecord
100
AcDbLinetypeTableRecord
  2
CONTINUOUS
 70
     0
  3
Solid line
 72
    65
 73
     0
 40
0.0
  0
LTYPE
  5
65
330
16
100
AcDbSymbolTableRecord
100
AcDbLinetypeTableRecord
  2
STRICHPUNKT2
 70
     0
  3
Strichpunkt (.5x) _._._._._._._._._._._._._._._
 72
    65
 73
     4
 40
12.7
 49
6.349999999999998
 74
     0
 49
-3.174999999999998
 74
     0
 49
0.0
 74
     0
 49
-3.174999999999998
 74
     0
  0
LTYPE
  5
2C4
330
16
100
AcDbSymbolTableRecord
100
AcDbLinetypeTableRecord
  2
AM_ISO02W050
 70
     0
  3
__ __ __ __ __ __ __ __ __ __ __ __ __ __ __
 72
    65
 73
     2
 40
7.5
 49
6.0
 74
     0
 49
-1.5
 74
     0
  0
LTYPE
  5
2D6
330
16
100
AcDbSymbolTableRecord
100
AcDbLinetypeTableRecord
  2
ACDINWELD
 70
     0
  3
_ _ _ _ _
 72
    65
 73
     2
 40
2.0
 49
2.0
 74
     0
 49
-1.0
 74
     0
  0
LTYPE
  5
2D9
330
16
100
AcDbSymbolTableRecord
100
AcDbLinetypeTableRecord
  2
ACDINTGB
 70
     0
  3
__ . . __ . .
 72
    65
 73
     6
 40
9.0
 49
4.0
 74
     0
 49
-1.0
 74
     0
 49
1.0
 74
     0
 49
-1.0
 74
     0
 49
1.0
 74
     0
 49
-1.0
 74
     0
  0
LTYPE
  5
2DA
330
16
100
AcDbSymbolTableRecord
100
AcDbLinetypeTableRecord
  2
ACDINTGL
 70
     0
  3
_ _ _ _ _
 72
    65
 73
     2
 40
3.0
 49
2.0
 74
     0
 49
-1.0
 74
     0
  0
LTYPE
  5
2DE
330
16
100
AcDbSymbolTableRecord
100
AcDbLinetypeTableRecord
  2
CENTER
 70
     0
  3
__ . __
 72
    65
 73
     4
 40
7.0
 49
4.0
 74
     0
 49
-1.0
 74
     0
 49
1.0
 74
     0
 49
-1.0
 74
     0
  0
LTYPE
  5
2BF
330
16
100
AcDbSymbolTableRecord
100
AcDbLinetypeTableRecord
  2
gen3
 70
     0
  3
-- -- -- -- -- -- -- -- -- -- -- -- -- -- --
 72
    65
 73
     2
 40
6.25
 49
4.75
 74
     0
 49
-1.5
 74
     0
  0
LTYPE
  5
2C0
330
16
100
AcDbSymbolTableRecord
100
AcDbLinetypeTableRecord
  2
gen7
 70
     0
  3
____ . ____ . ____ . ____ . ____ . ____ . ____
 72
    65
 73
     4
 40
13.75
 49
9.75
 74
     0
 49
-1.5
 74
     0
 49
1.0
 74
     0
 49
-1.5
 74
     0
  0
LTYPE
  5
2C1
330
16
100
AcDbSymbolTableRecord
100
AcDbLinetypeTableRecord
  2
gen3a
 70
     0
  3
 - - - - -
 72
    65
 73
     2
 40
3.125
 49
2.25
 74
     0
 49
-0.875
 74
     0
  0
LTYPE
  5
2C2
330
16
100
AcDbSymbolTableRecord
100
AcDbLinetypeTableRecord
  2
gen7a
 70
     0
  3
__ . __ . __
 72
    65
 73
     4
 40
6.875
 49
4.75
 74
     0
 49
-0.875
 74
     0
 49
0.375
 74
     0
 49
-0.875
 74
     0
  0
LTYPE
  5
2C3
330
16
100
AcDbSymbolTableRecord
100
AcDbLinetypeTableRecord
  2
gen4a
 70
     0
  3
_____ . . _____ . . _____ . . ____ .. ____
 72
    65
 73
     6
 40
16.25
 49
9.75
 74
     0
 49
-1.5
 74
     0
 49
1.0
 74
     0
 49
-1.5
 74
     0
 49
1.0
 74
     0
 49
-1.5
 74
     0
  0
LTYPE
  5
2C5
330
16
100
AcDbSymbolTableRecord
100
AcDbLinetypeTableRecord
  2
genzigzag
 70
     0
  3
/\/-/\/-/\/-/\/-/\/-/\/
 72
    65
 73
     2
 40
12.0001
 49
0.0001
 74
     4
 75
   135
340
2C6
 46
2.0
 50
0.0
 44
0.0
 45
0.0
 49
-12.0
 74
     0
  0
LTYPE
  5
30C
330
16
100
AcDbSymbolTableRecord
100
AcDbLinetypeTableRecord
  2
HIDDEN
 70
     0
  3
Verdeckt
 72
    65
 73
     2
 40
9.525
 49
6.349999999999998
 74
     0
 49
-3.174999999999998
 74
     0
  0
LTYPE
  5
30D
330
16
100
AcDbSymbolTableRecord
100
AcDbLinetypeTableRecord
  2
PHANTOM2
 70
     0
  3
Phantom (.5x) ___ _ _ ___ _ _ ___ _ _ ___ _ _
 72
    65
 73
     6
 40
31.75
 49
15.875
 74
     0
 49
-3.174999999999998
 74
     0
 49
3.174999999999998
 74
     0
 49
-3.174999999999998
 74
     0
 49
3.174999999999998
 74
     0
 49
-3.174999999999998
 74
     0
  0
LTYPE
  5
3A7
330
16
100
AcDbSymbolTableRecord
100
AcDbLinetypeTableRecord
  2
AM_ISO08W050
 70
     0
  3
____ . ____ . ____ . ____ . ____ . ____ . ____
 72
    65
 73
     4
 40
18.0
 49
12.0
 74
     0
 49
-1.5
 74
     0
 49
3.0
 74
     0
 49
-1.5
 74
     0
  0
LTYPE
  5
3A8
330
16
100
AcDbSymbolTableRecord
100
AcDbLinetypeTableRecord
  2
AM_ISO09W050
 70
     0
  3
_____ . . _____ . . _____ . . ____ .. ____
 72
    65
 73
     6
 40
22.5
 49
12.0
 74
     0
 49
-1.5
 74
     0
 49
3.0
 74
     0
 49
-1.5
 74
     0
 49
3.0
 74
     0
 49
-1.5
 74
     0
  0
LTYPE
  5
3A9
330
16
100
AcDbSymbolTableRecord
100
AcDbLinetypeTableRecord
  2
Amconstr
 70
     0
  3
_______________________
 72
    65
 73
     2
 40
9999.0
 49
9999.0
 74
     0
 49
0.0
 74
     0
  0
LTYPE
  5
3AA
330
16
100
AcDbSymbolTableRecord
100
AcDbLinetypeTableRecord
  2
AM_ISO08W050x2
 70
     0
  3
__ . __ . __ . __ . __ . __
 72
    65
 73
     4
 40
9.0
 49
6.0
 74
     0
 49
-0.75
 74
     0
 49
1.5
 74
     0
 49
-0.75
 74
     0
  0
LTYPE
  5
3AB
330
16
100
AcDbSymbolTableRecord
100
AcDbLinetypeTableRecord
  2
AM_ISO02W050x2
 70
     0
  3
 _ _ _ _ _ _ _ _ _ _ _ _
 72
    65
 73
     2
 40
3.75
 49
3.0
 74
     0
 49
-0.75
 74
     0
  0
LTYPE
  5
3AC
330
16
100
AcDbSymbolTableRecord
100
AcDbLinetypeTableRecord
  2
Amzigzag
 70
     0
  3
/\/-/\/-/\/-/\/-/\/-/\/
 72
    65
 73
     2
 40
11.0001
 49
0.0001
 74
     4
 75
   136
340
2C6
 46
0.04
 50
0.0
 44
0.0
 45
0.0
 49
-11.0
 74
     0
  0
LTYPE
  5
3AD
330
16
100
AcDbSymbolTableRecord
100
AcDbLinetypeTableRecord
  2
AM_DIN_F_W050
 70
     0
  3
__ __ __ __ __ __ __ __ __ __ __ __ __ __ __
 72
    65
 73
     2
 40
6.25
 49
4.75
 74
     0
 49
-1.5
 74
     0
  0
LTYPE
  5
3AE
330
16
100
AcDbSymbolTableRecord
100
AcDbLinetypeTableRecord
  2
AM_DIN_G_W050
 70
     0
  3
____ . ____ . ____ . ____ . ____ . ____ . ____
 72
    65
 73
     4
 40
13.75
 49
9.75
 74
     0
 49
-1.5
 74
     0
 49
1.0
 74
     0
 49
-1.5
 74
     0
  0
LTYPE
  5
3AF
330
16
100
AcDbSymbolTableRecord
100
AcDbLinetypeTableRecord
  2
AM_DIN_K_W050
 70
     0
  3
_____ . . _____ . . _____ . . ____ .. ____
 72
    65
 73
     6
 40
16.25
 49
9.75
 74
     0
 49
-1.5
 74
     0
 49
1.0
 74
     0
 49
-1.5
 74
     0
 49
1.0
 74
     0
 49
-1.5
 74
     0
  0
LTYPE
  5
3B0
330
16
100
AcDbSymbolTableRecord
100
AcDbLinetypeTableRecord
  2
AM_DIN_G_W050x2
 70
     0
  3
__ . __ . __ . __ . __ . __
 72
    65
 73
     4
 40
6.875
 49
4.75
 74
     0
 49
-0.875
 74
     0
 49
0.375
 74
     0
 49
-0.875
 74
     0
  0
LTYPE
  5
3B1
330
16
100
AcDbSymbolTableRecord
100
AcDbLinetypeTableRecord
  2
AM_DIN_F_W050x2
 70
     0
  3
 _ _ _ _ _ _ _ _ _ _ _ _
 72
    65
 73
     2
 40
3.125
 49
2.25
 74
     0
 49
-0.875
 74
     0
  0
ENDTAB
  0
TABLE
  2
LAYER
  5
12
102
{ACAD_XDICTIONARY
360
3FD
102
}
330
0
100
AcDbSymbolTable
 70
     8
  0
LAYER
  5
5
102
{ACAD_XDICTIONARY
360
4A5
102
}
330
12
100
AcDbSymbolTableRecord
100
AcDbLayerTableRecord
  2
0
 70
     0
 62
     7
  6
CONTINUOUS
370
    -3
390
6
347
325
348
0
  0
LAYER
  5
5F
102
{ACAD_XDICTIONARY
360
4A7
102
}
330
12
100
AcDbSymbolTableRecord
100
AcDbLayerTableRecord
  2
UMRISS03
 70
     0
 62
     3
  6
CONTINUOUS
370
    -3
390
6
347
325
348
0
  0
LAYER
  5
62
102
{ACAD_XDICTIONARY
360
4A9
102
}
330
12
100
AcDbSymbolTableRecord
100
AcDbLayerTableRecord
  2
UMRISS05
 70
     0
 62
     4
  6
CONTINUOUS
370
    -3
390
6
347
325
348
0
  0
LAYER
  5
2D
102
{ACAD_XDICTIONARY
360
4AB
102
}
330
12
100
AcDbSymbolTableRecord
100
AcDbLayerTableRecord
  2
UMRISS07
 70
     0
 62
     6
  6
CONTINUOUS
370
    -3
390
6
347
325
348
0
  0
LAYER
  5
31
102
{ACAD_XDICTIONARY
360
4AD
102
}
330
12
100
AcDbSymbolTableRecord
100
AcDbLayerTableRecord
  2
BEMASSUNG
 70
     0
 62
     2
  6
CONTINUOUS
370
    -3
390
6
347
325
348
0
  0
LAYER
  5
64
102
{ACAD_XDICTIONARY
360
4AF
102
}
330
12
100
AcDbSymbolTableRecord
100
AcDbLayerTableRecord
  2
ACHSEN
 70
     0
 62
     1
  6
STRICHPUNKT2
370
    -3
390
6
347
325
348
0
  0
LAYER
  5
3B
330
12
100
AcDbSymbolTableRecord
100
AcDbLayerTableRecord
  2
DEFPOINTS
 70
     0
 62
     7
  6
CONTINUOUS
290
     0
370
    -3
390
6
347
325
348
0
  0
LAYER
  5
103
102
{ACAD_XDICTIONARY
360
4B1
102
}
330
12
100
AcDbSymbolTableRecord
100
AcDbLayerTableRecord
  2
1855
 70
     0
 62
     4
  6
CONTINUOUS
370
    -3
390
6
347
325
348
0
  0
ENDTAB
  0
TABLE
  2
STYLE
  5
13
330
0
100
AcDbSymbolTable
 70
     8
  0
STYLE
  5
14
330
13
100
AcDbSymbolTableRecord
100
AcDbTextStyleTableRecord
  2
STANDARD
 70
     0
 40
0.0
 41
1.0
 50
0.0
 71
     0
 42
10.0
  3
txt
  4

  0
STYLE
  5
25
330
13
100
AcDbSymbolTableRecord
100
AcDbTextStyleTableRecord
  2
ARIAL-STANDARD
 70
     0
 40
0.0
 41
1.0
 50
0.0
 71
     0
 42
3.5
  3
ARIAL.TTF
  4

1001
ACAD
1000
Arial
1071
       34
  0
STYLE
  5
21
330
13
100
AcDbSymbolTableRecord
100
AcDbTextStyleTableRecord
  2
NORM
 70
     0
 40
0.0
 41
1.0
 50
0.0
 71
     0
 42
2.399999999999999
  3
SIMPLEX
  4

  0
STYLE
  5
23
330
13
100
AcDbSymbolTableRecord
100
AcDbTextStyleTableRecord
  2
WMF
 70
     0
 40
0.0
 41
1.0
 50
0.0
 71
     0
 42
6.5
  3
ARIAL.TTF
  4

1001
ACAD
1000
Arial
1071
       34
  0
STYLE
  5
2D0
330
13
100
AcDbSymbolTableRecord
100
AcDbTextStyleTableRecord
  2
ACDINTS
 70
     0
 40
1.0
 41
1.0
 50
0.0
 71
     0
 42
3.5
  3
isocp.shx
  4

  0
STYLE
  5
2D4
330
13
100
AcDbSymbolTableRecord
100
AcDbTextStyleTableRecord
  2
ACDINGDT
 70
     0
 40
0.0
 41
1.0
 50
0.0
 71
     0
 42
3.5
  3
amgdt.shx
  4

  0
STYLE
  5
2C6
330
13
100
AcDbSymbolTableRecord
100
AcDbTextStyleTableRecord
  2

 70
     1
 40
0.0
 41
1.0
 50
0.0
 71
     0
 42
3.5
  3
genltshp.shx
  4

  0
STYLE
  5
3F9
330
13
100
AcDbSymbolTableRecord
100
AcDbTextStyleTableRecord
  2

 70
     1
 40
0.0
 41
1.0
 50
0.0
 71
     0
 42
2.5
  3
ltypeshp.shx
  4

  0
ENDTAB
  0
TABLE
  2
VIEW
  5
19
330
0
100
AcDbSymbolTable
 70
     0
  0
ENDTAB
  0
TABLE
  2
UCS
  5
1A
330
0
100
AcDbSymbolTable
 70
     0
  0
ENDTAB
  0
TABLE
  2
APPID
  5
1D
330
0
100
AcDbSymbolTable
 70
    11
  0
APPID
  5
1E
330
1D
100
AcDbSymbolTableRecord
100
AcDbRegAppTableRecord
  2
ACAD
 70
     0
  0
APPID
  5
D
330
1D
100
AcDbSymbolTableRecord
100
AcDbRegAppTableRecord
  2
ACAD_PSEXT
 70
     0
  0
APPID
  5
368
330
1D
100
AcDbSymbolTableRecord
100
AcDbRegAppTableRecord
  2
MCAD_NO_VIS
 70
     0
  0
APPID
  5
369
330
1D
100
AcDbSymbolTableRecord
100
AcDbRegAppTableRecord
  2
ACAD_TEMP_GRAPHIC
 70
     0
  0
APPID
  5
373
330
1D
100
AcDbSymbolTableRecord
100
AcDbRegAppTableRecord
  2
ACATTRIBSERVICES
 70
     0
  0
APPID
  5
38B
330
1D
100
AcDbSymbolTableRecord
100
AcDbRegAppTableRecord
  2
DESIGNERASSEMBLIES
 70
     0
  0
APPID
  5
3A4
330
1D
100
AcDbSymbolTableRecord
100
AcDbRegAppTableRecord
  2
ACAD_DSTYLE_DIMJAG
 70
     0
  0
APPID
  5
3A5
330
1D
100
AcDbSymbolTableRecord
100
AcDbRegAppTableRecord
  2
ACAD_DSTYLE_DIMBREAK
 70
     0
  0
APPID
  5
3D8
330
1D
100
AcDbSymbolTableRecord
100
AcDbRegAppTableRecord
  2
ACAD_NAV_VCDISPLAY
 70
     0
  0
APPID
  5
3FB
330
1D
100
AcDbSymbolTableRecord
100
AcDbRegAppTableRecord
  2
ACAD_DSTYLE_DIMTALN
 70
     0
  0
APPID
  5
3FC
330
1D
100
AcDbSymbolTableRecord
100
AcDbRegAppTableRecord
  2
ACAD_DSTYLE_DIMINSPECT
 70
     0
  0
ENDTAB
  0
TABLE
  2
DIMSTYLE
  5
1F
330
0
100
AcDbSymbolTable
 70
    11
100
AcDbDimStyleTable
 71
     4
340
3A3
340
20
340
22
340
24
  0
DIMSTYLE
105
24
330
1F
100
AcDbSymbolTableRecord
100
AcDbDimStyleTableRecord
  2
NORMAL
 70
     0
 41
3.5
 42
0.0
 43
8.0
 44
0.5
 73
     0
 74
     0
 77
     1
 78
     8
140
3.5
141
1.5
146
0.5
147
1.0
172
     1
174
     1
176
   256
177
   256
178
     3
271
     2
272
     2
279
     2
284
     8
340
25
  0
DIMSTYLE
105
22
330
1F
100
AcDbSymbolTableRecord
100
AcDbDimStyleTableRecord
  2
WMF
 70
     0
 40
1.9
 41
2.799999999999998
 42
1.0
 43
0.0
 44
1.0
 73
     0
 74
     0
 77
     1
 78
     8
140
3.399999999999999
141
1.5
146
0.5
147
1.0
172
     1
174
     1
176
   256
177
   256
178
   256
271
     2
272
     2
279
     2
284
     8
285
     8
286
     8
340
23
  0
DIMSTYLE
105
20
102
{ACAD_REACTORS
330
2AE
330
238
330
245
330
198
330
11F
330
252
330
262
330
286
330
229
330
270
330
216
330
18A
330
29D
330
A0
330
1FF
330
B3
330
1C8
330
15E
330
1A5
330
1B4
330
16F
330
7C
330
EE
330
130
330
13D
330
14A
330
10A
330
8C
330
30
330
3F
102
}
330
1F
100
AcDbSymbolTableRecord
100
AcDbDimStyleTableRecord
  2
PROSPEKT
 70
     0
 40
1.6
 41
3.5
 42
0.5
 43
0.0
 44
0.5
 73
     0
 74
     0
 77
     1
 78
     8
140
3.5
141
1.5
147
1.0
172
     1
174
     1
176
   256
177
   256
178
     3
271
     2
272
     2
279
     2
284
     8
340
21
  0
DIMSTYLE
105
3A3
102
{ACAD_REACTORS
330
392
102
}
330
1F
100
AcDbSymbolTableRecord
100
AcDbDimStyleTableRecord
  2
AM_DIN
 70
     0
  4
"
 41
3.5
 42
1.0
 43
10.0
 44
1.0
 47
0.1
 48
0.1
 50
90.0
 73
     0
 74
     0
 77
     1
 78
     8
 79
     2
140
3.5
141
0.0
143
0.0393701
146
0.71
147
1.5
172
     1
176
   256
177
   256
178
     2
271
     2
272
     3
274
     4
283
     0
284
     8
340
14
345
17
346
17
347
17
371
    -1
372
    -1
1001
ACAD_DSTYLE_DIMJAG
1070
   388
1040
1.5
1001
ACAD_DSTYLE_DIMBREAK
1070
   391
1040
3.75
  0
DIMSTYLE
105
3B2
330
1F
100
AcDbSymbolTableRecord
100
AcDbDimStyleTableRecord
  2
AM_DIN$3
 70
     0
  4
"
 41
3.5
 42
1.0
 43
10.0
 44
1.0
 47
0.1
 48
0.1
 50
90.0
 73
     0
 77
     1
 78
     8
 79
     2
140
3.5
141
0.0
143
0.0393701
146
0.71
147
1.5
176
   256
177
   256
178
     2
271
     2
272
     3
274
     4
283
     0
284
     8
288
     1
289
     0
340
14
345
17
346
17
347
17
371
    -1
372
    -1
1001
ACAD_DSTYLE_DIMBREAK
1070
   391
1040
3.75
1001
ACAD_DSTYLE_DIMJAG
1070
   388
1040
1.5
  0
DIMSTYLE
105
3B3
330
1F
100
AcDbSymbolTableRecord
100
AcDbDimStyleTableRecord
  2
AM_DIN$4
 70
     0
  4
"
 41
3.5
 42
1.0
 43
10.0
 44
1.0
 47
0.1
 48
0.1
 50
90.0
 73
     0
 74
     0
 77
     1
 78
     8
 79
     2
140
3.5
141
0.0
143
0.0393701
146
0.71
147
1.5
172
     1
176
   256
177
   256
178
     2
271
     2
272
     3
274
     4
283
     0
284
     8
340
14
345
17
346
17
347
17
371
    -1
372
    -1
1001
ACAD_DSTYLE_DIMBREAK
1070
   391
1040
3.75
1001
ACAD_DSTYLE_DIMJAG
1070
   388
1040
1.5
  0
DIMSTYLE
105
3B4
330
1F
100
AcDbSymbolTableRecord
100
AcDbDimStyleTableRecord
  2
AM_DIN$6
 70
     0
  4
"
 41
3.5
 42
1.0
 43
10.0
 44
1.0
 47
0.1
 48
0.1
 50
90.0
 73
     0
 74
     0
 78
     8
 79
     2
140
3.5
141
0.0
143
0.0393701
146
0.71
147
1.5
172
     1
176
   256
177
   256
178
     2
271
     2
272
     3
274
     4
283
     0
284
     8
340
14
345
17
346
17
347
17
371
    -1
372
    -1
1001
ACAD_DSTYLE_DIMBREAK
1070
   391
1040
3.75
1001
ACAD_DSTYLE_DIMJAG
1070
   388
1040
1.5
  0
DIMSTYLE
105
3B5
330
1F
100
AcDbSymbolTableRecord
100
AcDbDimStyleTableRecord
  2
AM_DIN$7
 70
     0
  4
"
 41
3.5
 42
1.0
 43
10.0
 44
1.0
 47
0.1
 48
0.1
 50
90.0
 73
     0
 74
     0
 77
     1
 78
     8
 79
     2
140
3.5
141
0.0
143
0.0393701
146
0.71
147
1.5
172
     1
176
   256
177
   256
178
     2
271
     2
272
     3
274
     4
283
     0
284
     8
340
14
345
17
346
17
347
17
371
    -1
372
    -1
1001
ACAD_DSTYLE_DIMBREAK
1070
   391
1040
3.75
1001
ACAD_DSTYLE_DIMJAG
1070
   388
1040
1.5
  0
DIMSTYLE
105
3B6
330
1F
100
AcDbSymbolTableRecord
100
AcDbDimStyleTableRecord
  2
AM_DIN$SF
 70
     0
  4
"
 41
3.5
 42
1.0
 43
10.0
 44
1.0
 47
0.1
 48
0.1
 50
90.0
 73
     0
 74
     0
 75
     1
 76
     1
 77
     1
 78
     8
 79
     2
140
3.5
141
0.0
143
0.0393701
146
0.71
147
1.5
172
     1
176
   256
177
   256
178
     2
271
     2
272
     3
274
     4
283
     0
284
     8
340
14
345
17
346
17
347
17
371
    -1
372
    -1
1001
ACAD_DSTYLE_DIMBREAK
1070
   391
1040
3.75
1001
ACAD_DSTYLE_DIMJAG
1070
   388
1040
1.5
  0
DIMSTYLE
105
3BB
330
1F
100
AcDbSymbolTableRecord
100
AcDbDimStyleTableRecord
  2
AM_DIN$SH
 70
     0
  4
"
 41
3.5
 42
1.0
 43
10.0
 44
1.0
 47
0.1
 48
0.1
 50
90.0
 73
     0
 74
     0
 75
     1
 76
     1
 77
     1
 78
     8
 79
     2
140
3.5
141
0.0
143
0.0393701
144
2.0
146
0.71
147
1.5
172
     1
173
     1
176
   256
177
   256
178
     2
271
     2
272
     3
274
     4
283
     0
284
     8
340
14
343
3B7
345
17
346
17
347
17
371
    -1
372
    -1
1001
ACAD_DSTYLE_DIMBREAK
1070
   391
1040
3.75
1001
ACAD_DSTYLE_DIMJAG
1070
   388
1040
1.5
  0
DIMSTYLE
105
3FA
102
{ACAD_REACTORS
330
403
330
40F
330
41C
330
428
102
}
330
1F
100
AcDbSymbolTableRecord
100
AcDbDimStyleTableRecord
  2
Katalog 09
 70
     0
 41
4.0
 42
0.0
 43
8.0
 44
1.0
 73
     0
 74
     0
 77
     1
 78
     8
140
4.349999999999998
141
1.5
143
25.39999999999999
146
0.4285714285714287
147
1.0
172
     1
174
     1
176
     2
177
     2
178
     3
271
     2
272
     2
284
     8
285
     8
286
     8
340
25
1001
ACAD_DSTYLE_DIMBREAK
1070
   391
1040
3.75
1001
ACAD_DSTYLE_DIMJAG
1070
   388
1040
1.5
1001
ACAD_DSTYLE_DIMTALN
1070
   392
1070
     0
  0
ENDTAB
  0
TABLE
  2
BLOCK_RECORD
  5
1
330
0
100
AcDbSymbolTable
 70
    46
  0
BLOCK_RECORD
  5
2
102
{ACAD_XDICTIONARY
360
3
102
}
330
1
100
AcDbSymbolTableRecord
100
AcDbBlockTableRecord
  2
*MODEL_SPACE
340
B
 70
     0
280
     1
281
     0
  0
BLOCK_RECORD
  5
E
330
1
100
AcDbSymbolTableRecord
100
AcDbBlockTableRecord
  2
*PAPER_SPACE
340
11
 70
     0
280
     1
281
     0
  0
BLOCK_RECORD
  5
2AF
330
1
100
AcDbSymbolTableRecord
100
AcDbBlockTableRecord
  2
*D0
340
0
 70
     0
280
     1
281
     0
  0
BLOCK_RECORD
  5
239
330
1
100
AcDbSymbolTableRecord
100
AcDbBlockTableRecord
  2
*D1
340
0
 70
     0
280
     1
281
     0
  0
BLOCK_RECORD
  5
246
330
1
100
AcDbSymbolTableRecord
100
AcDbBlockTableRecord
  2
*D2
340
0
 70
     0
280
     1
281
     0
  0
BLOCK_RECORD
  5
199
330
1
100
AcDbSymbolTableRecord
100
AcDbBlockTableRecord
  2
*D3
340
0
 70
     0
280
     1
281
     0
  0
BLOCK_RECORD
  5
120
330
1
100
AcDbSymbolTableRecord
100
AcDbBlockTableRecord
  2
*D4
340
0
 70
     0
280
     1
281
     0
  0
BLOCK_RECORD
  5
253
330
1
100
AcDbSymbolTableRecord
100
AcDbBlockTableRecord
  2
*D5
340
0
 70
     0
280
     1
281
     0
  0
BLOCK_RECORD
  5
263
330
1
100
AcDbSymbolTableRecord
100
AcDbBlockTableRecord
  2
*D6
340
0
 70
     0
280
     1
281
     0
  0
BLOCK_RECORD
  5
287
330
1
100
AcDbSymbolTableRecord
100
AcDbBlockTableRecord
  2
*D7
340
0
 70
     0
280
     1
281
     0
  0
BLOCK_RECORD
  5
22A
330
1
100
AcDbSymbolTableRecord
100
AcDbBlockTableRecord
  2
*D8
340
0
 70
     0
280
     1
281
     0
  0
BLOCK_RECORD
  5
271
330
1
100
AcDbSymbolTableRecord
100
AcDbBlockTableRecord
  2
*D9
340
0
 70
     0
280
     1
281
     0
  0
BLOCK_RECORD
  5
217
330
1
100
AcDbSymbolTableRecord
100
AcDbBlockTableRecord
  2
*D10
340
0
 70
     0
280
     1
281
     0
  0
BLOCK_RECORD
  5
18B
330
1
100
AcDbSymbolTableRecord
100
AcDbBlockTableRecord
  2
*D11
340
0
 70
     0
280
     1
281
     0
  0
BLOCK_RECORD
  5
C7
330
1
100
AcDbSymbolTableRecord
100
AcDbBlockTableRecord
  2
*D12
340
0
 70
     0
280
     1
281
     0
  0
BLOCK_RECORD
  5
29E
330
1
100
AcDbSymbolTableRecord
100
AcDbBlockTableRecord
  2
*D13
340
0
 70
     0
280
     1
281
     0
  0
BLOCK_RECORD
  5
A1
330
1
100
AcDbSymbolTableRecord
100
AcDbBlockTableRecord
  2
*D14
340
0
 70
     0
280
     1
281
     0
  0
BLOCK_RECORD
  5
200
330
1
100
AcDbSymbolTableRecord
100
AcDbBlockTableRecord
  2
*D15
340
0
 70
     0
280
     1
281
     0
  0
BLOCK_RECORD
  5
B4
330
1
100
AcDbSymbolTableRecord
100
AcDbBlockTableRecord
  2
*D16
340
0
 70
     0
280
     1
281
     0
  0
BLOCK_RECORD
  5
1C9
330
1
100
AcDbSymbolTableRecord
100
AcDbBlockTableRecord
  2
*D17
340
0
 70
     0
280
     1
281
     0
  0
BLOCK_RECORD
  5
15F
330
1
100
AcDbSymbolTableRecord
100
AcDbBlockTableRecord
  2
*D18
340
0
 70
     0
280
     1
281
     0
  0
BLOCK_RECORD
  5
1A6
330
1
100
AcDbSymbolTableRecord
100
AcDbBlockTableRecord
  2
*D19
340
0
 70
     0
280
     1
281
     0
  0
BLOCK_RECORD
  5
1B5
330
1
100
AcDbSymbolTableRecord
100
AcDbBlockTableRecord
  2
*D20
340
0
 70
     0
280
     1
281
     0
  0
BLOCK_RECORD
  5
170
330
1
100
AcDbSymbolTableRecord
100
AcDbBlockTableRecord
  2
*D21
340
0
 70
     0
280
     1
281
     0
  0
BLOCK_RECORD
  5
6B
330
1
100
AcDbSymbolTableRecord
100
AcDbBlockTableRecord
  2
*D22
340
0
 70
     0
280
     1
281
     0
  0
BLOCK_RECORD
  5
7D
330
1
100
AcDbSymbolTableRecord
100
AcDbBlockTableRecord
  2
*D23
340
0
 70
     0
280
     1
281
     0
  0
BLOCK_RECORD
  5
EF
330
1
100
AcDbSymbolTableRecord
100
AcDbBlockTableRecord
  2
*D24
340
0
 70
     0
280
     1
281
     0
  0
BLOCK_RECORD
  5
131
330
1
100
AcDbSymbolTableRecord
100
AcDbBlockTableRecord
  2
*D25
340
0
 70
     0
280
     1
281
     0
  0
BLOCK_RECORD
  5
13E
330
1
100
AcDbSymbolTableRecord
100
AcDbBlockTableRecord
  2
*D26
340
0
 70
     0
280
     1
281
     0
  0
BLOCK_RECORD
  5
14B
330
1
100
AcDbSymbolTableRecord
100
AcDbBlockTableRecord
  2
*D27
340
0
 70
     0
280
     1
281
     0
  0
BLOCK_RECORD
  5
10B
330
1
100
AcDbSymbolTableRecord
100
AcDbBlockTableRecord
  2
*D28
340
0
 70
     0
280
     1
281
     0
  0
BLOCK_RECORD
  5
8D
330
1
100
AcDbSymbolTableRecord
100
AcDbBlockTableRecord
  2
*D29
340
0
 70
     0
280
     1
281
     0
  0
BLOCK_RECORD
  5
4F
330
1
100
AcDbSymbolTableRecord
100
AcDbBlockTableRecord
  2
*D30
340
0
 70
     0
280
     1
281
     0
  0
BLOCK_RECORD
  5
40
330
1
100
AcDbSymbolTableRecord
100
AcDbBlockTableRecord
  2
*D31
340
0
 70
     0
280
     1
281
     0
  0
BLOCK_RECORD
  5
32
330
1
100
AcDbSymbolTableRecord
100
AcDbBlockTableRecord
  2
*D32
340
0
 70
     0
280
     1
281
     0
  0
BLOCK_RECORD
  5
3B7
330
1
100
AcDbSymbolTableRecord
100
AcDbBlockTableRecord
  2
GENAXEH
340
0
 70
     0
280
     1
281
     0
  0
BLOCK_RECORD
  5
3C8
330
1
100
AcDbSymbolTableRecord
100
AcDbBlockTableRecord
  2
_ACMFILLED30
340
0
 70
     0
280
     1
281
     0
  0
BLOCK_RECORD
  5
3E1
330
1
100
AcDbSymbolTableRecord
100
AcDbBlockTableRecord
  2
*D36
340
0
 70
     0
280
     1
281
     0
  0
BLOCK_RECORD
  5
3ED
330
1
100
AcDbSymbolTableRecord
100
AcDbBlockTableRecord
  2
*D37
340
0
 70
     0
280
     1
281
     0
  0
BLOCK_RECORD
  5
42B
330
1
100
AcDbSymbolTableRecord
100
AcDbBlockTableRecord
  2
*D39
340
0
 70
     0
280
     1
281
     0
  0
BLOCK_RECORD
  5
440
330
1
100
AcDbSymbolTableRecord
100
AcDbBlockTableRecord
  2
*D40
340
0
 70
     0
280
     1
281
     0
  0
BLOCK_RECORD
  5
45E
330
1
100
AcDbSymbolTableRecord
100
AcDbBlockTableRecord
  2
*D41
340
0
 70
     0
280
     1
281
     0
  0
BLOCK_RECORD
  5
46C
330
1
100
AcDbSymbolTableRecord
100
AcDbBlockTableRecord
  2
*D42
340
0
 70
     0
280
     1
281
     0
  0
BLOCK_RECORD
  5
478
330
1
100
AcDbSymbolTableRecord
100
AcDbBlockTableRecord
  2
*D43
340
0
 70
     0
280
     1
281
     0
  0
BLOCK_RECORD
  5
484
330
1
100
AcDbSymbolTableRecord
100
AcDbBlockTableRecord
  2
*D44
340
0
 70
     0
280
     1
281
     0
  0
BLOCK_RECORD
  5
499
330
1
100
AcDbSymbolTableRecord
100
AcDbBlockTableRecord
  2
*D45
340
0
 70
     0
280
     1
281
     0
  0
ENDTAB
  0
ENDSEC
  0
SECTION
  2
BLOCKS
  0
BLOCK
  5
4
330
2
100
AcDbEntity
  8
0
100
AcDbBlockBegin
  2
*MODEL_SPACE
 70
     0
 10
0.0
 20
0.0
 30
0.0
  3
*MODEL_SPACE
  1

  0
ENDBLK
  5
A
330
2
100
AcDbEntity
  8
0
100
AcDbBlockEnd
  0
BLOCK
  5
F
330
E
100
AcDbEntity
 67
     1
  8
0
100
AcDbBlockBegin
  2
*PAPER_SPACE
 70
     0
 10
0.0
 20
0.0
 30
0.0
  3
*PAPER_SPACE
  1

  0
ENDBLK
  5
10
330
E
100
AcDbEntity
 67
     1
  8
0
100
AcDbBlockEnd
  0
BLOCK
  5
2B0
330
2AF
100
AcDbEntity
  8
0
100
AcDbBlockBegin
  2
*D0
 70
     1
 10
0.0
 20
0.0
 30
0.0
  3
*D0
  1

  0
LINE
  5
2B1
330
2AF
100
AcDbEntity
  8
BEMASSUNG
  6
Continuous
440
 16777216
370
    -2
100
AcDbLine
 10
630.4340513530847
 20
468.6257031729489
 30
0.0
 11
630.4340513530847
 21
485.1981634006766
 31
0.0
  0
LINE
  5
2B2
330
2AF
100
AcDbEntity
  8
BEMASSUNG
  6
Continuous
440
 16777216
370
    -2
100
AcDbLine
 10
633.4340513530849
 20
468.6257031729489
 30
0.0
 11
633.4340513530849
 21
485.1981634006766
 31
0.0
  0
LINE
  5
2B3
330
2AF
100
AcDbEntity
  8
BEMASSUNG
  6
Continuous
440
 16777216
370
    -2
100
AcDbLine
 10
624.8340513530847
 20
484.3981634006764
 30
0.0
 11
619.2340513530847
 21
484.3981634006764
 31
0.0
  0
LINE
  5
2B4
330
2AF
100
AcDbEntity
  8
BEMASSUNG
  6
Continuous
440
 16777216
370
    -2
100
AcDbLine
 10
639.0340513530849
 20
484.3981634006764
 30
0.0
 11
644.6340513530848
 21
484.3981634006764
 31
0.0
  0
LINE
  5
2B5
330
2AF
100
AcDbEntity
  8
BEMASSUNG
  6
Continuous
440
 16777216
370
    -2
100
AcDbLine
 10
630.4340513530847
 20
484.3981634006764
 30
0.0
 11
633.4340513530849
 21
484.3981634006764
 31
0.0
  0
SOLID
  5
2B6
330
2AF
100
AcDbEntity
  8
BEMASSUNG
  6
Continuous
440
 16777216
100
AcDbTrace
 10
624.8340513530847
 20
485.3314967340098
 30
0.0
 11
624.8340513530847
 21
483.4648300673432
 31
0.0
 12
630.4340513530847
 22
484.3981634006764
 32
0.0
 13
630.4340513530847
 23
484.3981634006764
 33
0.0
  0
SOLID
  5
2B7
330
2AF
100
AcDbEntity
  8
BEMASSUNG
  6
Continuous
440
 16777216
100
AcDbTrace
 10
639.0340513530849
 20
485.3314967340098
 30
0.0
 11
639.0340513530849
 21
483.4648300673432
 31
0.0
 12
633.4340513530849
 22
484.3981634006764
 32
0.0
 13
633.4340513530849
 23
484.3981634006764
 33
0.0
  0
MTEXT
  5
2B8
330
2AF
100
AcDbEntity
  8
BEMASSUNG
  6
Continuous
 62
     3
440
 16777216
100
AcDbMText
 10
631.9340513530849
 20
488.7981634006766
 30
0.0
 40
5.599999999999999
 41
0.0
 46
0.0
 71
     5
 72
     1
  1
\A1;3
  7
NORM
 73
     1
 44
1.0
  0
POINT
  5
2B9
330
2AF
100
AcDbEntity
  8
DEFPOINTS
  6
Continuous
 62
     0
440
 16777216
100
AcDbPoint
 10
630.4340513530847
 20
467.8257031729489
 30
0.0
  0
POINT
  5
2BA
330
2AF
100
AcDbEntity
  8
DEFPOINTS
  6
Continuous
 62
     0
440
 16777216
100
AcDbPoint
 10
633.4340513530849
 20
467.8257031729489
 30
0.0
  0
POINT
  5
2BB
330
2AF
100
AcDbEntity
  8
DEFPOINTS
  6
Continuous
 62
     0
440
 16777216
100
AcDbPoint
 10
633.4340513530849
 20
484.3981634006764
 30
0.0
  0
ENDBLK
  5
2BC
330
2AF
100
AcDbEntity
  8
0
100
AcDbBlockEnd
  0
BLOCK
  5
23A
330
239
100
AcDbEntity
  8
0
100
AcDbBlockBegin
  2
*D1
 70
     1
 10
0.0
 20
0.0
 30
0.0
  3
*D1
  1

  0
LINE
  5
23B
330
239
100
AcDbEntity
  8
BEMASSUNG
  6
Continuous
440
 16777216
370
    -2
100
AcDbLine
 10
702.4340513530845
 20
432.3257031729501
 30
0.0
 11
758.1276045066031
 21
432.3257031729501
 31
0.0
  0
LINE
  5
23C
330
239
100
AcDbEntity
  8
BEMASSUNG
  6
Continuous
440
 16777216
370
    -2
100
AcDbLine
 10
702.4340513530845
 20
273.3257031729502
 30
0.0
 11
758.1276045066031
 21
273.3257031729502
 31
0.0
  0
LINE
  5
23D
330
239
100
AcDbEntity
  8
BEMASSUNG
  6
Continuous
440
 16777216
370
    -2
100
AcDbLine
 10
757.327604506603
 20
426.7257031729501
 30
0.0
 11
757.327604506603
 21
278.9257031729502
 31
0.0
  0
MTEXT
  5
23E
330
239
100
AcDbEntity
  8
BEMASSUNG
  6
Continuous
 62
     3
440
 16777216
100
AcDbMText
 10
752.5547233762647
 20
351.9621067843052
 30
0.0
 40
5.599999999999999
 41
0.0
 46
0.0
 71
     5
 72
     1
  1
\A1;159
  7
NORM
 11
0.0000000000000001
 21
1.0
 31
0.0
 73
     1
 44
1.0
  0
SOLID
  5
23F
330
239
100
AcDbEntity
  8
BEMASSUNG
  6
Continuous
440
 16777216
100
AcDbTrace
 10
756.3942711732697
 20
426.7257031729501
 30
0.0
 11
758.2609378399363
 21
426.7257031729501
 31
0.0
 12
757.327604506603
 22
432.3257031729501
 32
0.0
 13
757.327604506603
 23
432.3257031729501
 33
0.0
  0
SOLID
  5
240
330
239
100
AcDbEntity
  8
BEMASSUNG
  6
Continuous
440
 16777216
100
AcDbTrace
 10
756.3942711732697
 20
278.9257031729502
 30
0.0
 11
758.2609378399363
 21
278.9257031729502
 31
0.0
 12
757.327604506603
 22
273.3257031729502
 32
0.0
 13
757.327604506603
 23
273.3257031729502
 33
0.0
  0
POINT
  5
241
330
239
100
AcDbEntity
  8
DEFPOINTS
  6
Continuous
 62
     0
440
 16777216
100
AcDbPoint
 10
701.6340513530847
 20
432.3257031729501
 30
0.0
  0
POINT
  5
242
330
239
100
AcDbEntity
  8
DEFPOINTS
  6
Continuous
 62
     0
440
 16777216
100
AcDbPoint
 10
701.6340513530847
 20
273.3257031729502
 30
0.0
  0
POINT
  5
243
330
239
100
AcDbEntity
  8
DEFPOINTS
  6
Continuous
 62
     0
440
 16777216
100
AcDbPoint
 10
757.327604506603
 20
273.3257031729502
 30
0.0
  0
ENDBLK
  5
244
330
239
100
AcDbEntity
  8
0
100
AcDbBlockEnd
  0
BLOCK
  5
247
330
246
100
AcDbEntity
  8
0
100
AcDbBlockBegin
  2
*D2
 70
     1
 10
0.0
 20
0.0
 30
0.0
  3
*D2
  1

  0
LINE
  5
248
330
246
100
AcDbEntity
  8
BEMASSUNG
  6
Continuous
440
 16777216
370
    -2
100
AcDbLine
 10
629.6340513530848
 20
467.8257031729489
 30
0.0
 11
591.1672319918815
 21
467.8257031729489
 31
0.0
  0
LINE
  5
249
330
246
100
AcDbEntity
  8
BEMASSUNG
  6
Continuous
440
 16777216
370
    -2
100
AcDbLine
 10
629.6340513530845
 20
237.8257031729494
 30
0.0
 11
591.1672319918814
 21
237.8257031729494
 31
0.0
  0
LINE
  5
24A
330
246
100
AcDbEntity
  8
BEMASSUNG
  6
Continuous
440
 16777216
370
    -2
100
AcDbLine
 10
591.9672319918815
 20
462.225703172949
 30
0.0
 11
591.9672319918812
 21
243.4257031729494
 31
0.0
  0
MTEXT
  5
24B
330
246
100
AcDbEntity
  8
BEMASSUNG
  6
Continuous
 62
     3
440
 16777216
100
AcDbMText
 10
586.7883152136605
 20
355.5075255216018
 30
0.0
 40
5.599999999999999
 41
0.0
 46
0.0
 71
     5
 72
     1
  1
\A1;230
  7
NORM
 11
0.0000000000000001
 21
1.0
 31
0.0
 73
     1
 44
1.0
  0
SOLID
  5
24C
330
246
100
AcDbEntity
  8
BEMASSUNG
  6
Continuous
440
 16777216
100
AcDbTrace
 10
591.0338986585482
 20
462.225703172949
 30
0.0
 11
592.9005653252147
 21
462.225703172949
 31
0.0
 12
591.9672319918815
 22
467.8257031729489
 32
0.0
 13
591.9672319918815
 23
467.8257031729489
 33
0.0
  0
SOLID
  5
24D
330
246
100
AcDbEntity
  8
BEMASSUNG
  6
Continuous
440
 16777216
100
AcDbTrace
 10
591.0338986585481
 20
243.4257031729494
 30
0.0
 11
592.9005653252146
 21
243.4257031729494
 31
0.0
 12
591.9672319918812
 22
237.8257031729494
 32
0.0
 13
591.9672319918812
 23
237.8257031729494
 33
0.0
  0
POINT
  5
24E
330
246
100
AcDbEntity
  8
DEFPOINTS
  6
Continuous
 62
     0
440
 16777216
100
AcDbPoint
 10
630.4340513530847
 20
467.8257031729489
 30
0.0
  0
POINT
  5
24F
330
246
100
AcDbEntity
  8
DEFPOINTS
  6
Continuous
 62
     0
440
 16777216
100
AcDbPoint
 10
630.4340513530844
 20
237.8257031729494
 30
0.0
  0
POINT
  5
250
330
246
100
AcDbEntity
  8
DEFPOINTS
  6
Continuous
 62
     0
440
 16777216
100
AcDbPoint
 10
591.9672319918812
 20
237.8257031729494
 30
0.0
  0
ENDBLK
  5
251
330
246
100
AcDbEntity
  8
0
100
AcDbBlockEnd
  0
BLOCK
  5
19A
330
199
100
AcDbEntity
  8
0
100
AcDbBlockBegin
  2
*D3
 70
     1
 10
0.0
 20
0.0
 30
0.0
  3
*D3
  1

  0
LINE
  5
19B
330
199
100
AcDbEntity
  8
BEMASSUNG
  6
Continuous
440
 16777216
370
    -2
100
AcDbLine
 10
609.6340513530853
 20
339.825693817841
 30
0.0
 11
602.8826846887052
 21
339.825693817841
 31
0.0
  0
LINE
  5
19C
330
199
100
AcDbEntity
  8
BEMASSUNG
  6
Continuous
440
 16777216
370
    -2
100
AcDbLine
 10
619.6340687848572
 20
387.8256938178413
 30
0.0
 11
602.8826846887052
 21
387.8256938178413
 31
0.0
  0
LINE
  5
19D
330
199
100
AcDbEntity
  8
BEMASSUNG
  6
Continuous
440
 16777216
370
    -2
100
AcDbLine
 10
603.6826846887052
 20
345.425693817841
 30
0.0
 11
603.6826846887052
 21
382.2256938178412
 31
0.0
  0
SOLID
  5
19E
330
199
100
AcDbEntity
  8
BEMASSUNG
  6
Continuous
440
 16777216
100
AcDbTrace
 10
602.749351355372
 20
345.425693817841
 30
0.0
 11
604.6160180220384
 21
345.425693817841
 31
0.0
 12
603.6826846887052
 22
339.825693817841
 32
0.0
 13
603.6826846887052
 23
339.825693817841
 33
0.0
  0
SOLID
  5
19F
330
199
100
AcDbEntity
  8
BEMASSUNG
  6
Continuous
440
 16777216
100
AcDbTrace
 10
602.749351355372
 20
382.2256938178412
 30
0.0
 11
604.6160180220384
 21
382.2256938178412
 31
0.0
 12
603.6826846887052
 22
387.8256938178413
 32
0.0
 13
603.6826846887052
 23
387.8256938178413
 33
0.0
  0
MTEXT
  5
1A0
330
199
100
AcDbEntity
  8
BEMASSUNG
  6
Continuous
 62
     3
440
 16777216
100
AcDbMText
 10
599.2826846887052
 20
363.8256938178412
 30
0.0
 40
5.599999999999999
 41
0.0
 46
0.0
 71
     5
 72
     1
  1
\A1;48
  7
NORM
 11
0.0000000000000001
 21
1.0
 31
0.0
 73
     1
 44
1.0
  0
POINT
  5
1A1
330
199
100
AcDbEntity
  8
DEFPOINTS
  6
Continuous
 62
     0
440
 16777216
100
AcDbPoint
 10
610.4340513530852
 20
339.825693817841
 30
0.0
  0
POINT
  5
1A2
330
199
100
AcDbEntity
  8
DEFPOINTS
  6
Continuous
 62
     0
440
 16777216
100
AcDbPoint
 10
620.4340687848572
 20
387.8256938178413
 30
0.0
  0
POINT
  5
1A3
330
199
100
AcDbEntity
  8
DEFPOINTS
  6
Continuous
 62
     0
440
 16777216
100
AcDbPoint
 10
603.6826846887052
 20
387.8256938178413
 30
0.0
  0
ENDBLK
  5
1A4
330
199
100
AcDbEntity
  8
0
100
AcDbBlockEnd
  0
BLOCK
  5
121
330
120
100
AcDbEntity
  8
0
100
AcDbBlockBegin
  2
*D4
 70
     1
 10
0.0
 20
0.0
 30
0.0
  3
*D4
  1

  0
LINE
  5
122
330
120
100
AcDbEntity
  8
BEMASSUNG
  6
Continuous
440
 16777216
370
    -2
100
AcDbLine
 10
714.8340513530847
 20
380.82570317295
 30
0.0
 11
735.2647051238057
 21
380.82570317295
 31
0.0
  0
LINE
  5
123
330
120
100
AcDbEntity
  8
BEMASSUNG
  6
Continuous
440
 16777216
370
    -2
100
AcDbLine
 10
698.2340513530847
 20
359.3257031729536
 30
0.0
 11
735.2647051238057
 21
359.3257031729536
 31
0.0
  0
LINE
  5
124
330
120
100
AcDbEntity
  8
BEMASSUNG
  6
Continuous
440
 16777216
370
    -2
100
AcDbLine
 10
734.4647051238057
 20
375.2257031729499
 30
0.0
 11
734.4647051238057
 21
364.9257031729537
 31
0.0
  0
SOLID
  5
125
330
120
100
AcDbEntity
  8
BEMASSUNG
  6
Continuous
440
 16777216
100
AcDbTrace
 10
733.5313717904726
 20
375.2257031729499
 30
0.0
 11
735.3980384571391
 21
375.2257031729499
 31
0.0
 12
734.4647051238057
 22
380.82570317295
 32
0.0
 13
734.4647051238057
 23
380.82570317295
 33
0.0
  0
SOLID
  5
126
330
120
100
AcDbEntity
  8
BEMASSUNG
  6
Continuous
440
 16777216
100
AcDbTrace
 10
733.5313717904726
 20
364.9257031729537
 30
0.0
 11
735.3980384571391
 21
364.9257031729537
 31
0.0
 12
734.4647051238057
 22
359.3257031729536
 32
0.0
 13
734.4647051238057
 23
359.3257031729536
 33
0.0
  0
MTEXT
  5
127
330
120
100
AcDbEntity
  8
BEMASSUNG
  6
Continuous
 62
     3
440
 16777216
100
AcDbMText
 10
730.0647051238057
 20
370.0757031729519
 30
0.0
 40
5.599999999999999
 41
0.0
 46
0.0
 71
     5
 72
     1
  1
\A1;21.5
  7
NORM
 11
0.0000000000000001
 21
1.0
 31
0.0
 73
     1
 44
1.0
  0
POINT
  5
128
330
120
100
AcDbEntity
  8
DEFPOINTS
  6
Continuous
 62
     0
440
 16777216
100
AcDbPoint
 10
714.0340513530847
 20
380.82570317295
 30
0.0
  0
POINT
  5
129
330
120
100
AcDbEntity
  8
DEFPOINTS
  6
Continuous
 62
     0
440
 16777216
100
AcDbPoint
 10
697.4340513530846
 20
359.3257031729536
 30
0.0
  0
POINT
  5
12A
330
120
100
AcDbEntity
  8
DEFPOINTS
  6
Continuous
 62
     0
440
 16777216
100
AcDbPoint
 10
734.4647051238057
 20
359.3257031729536
 30
0.0
  0
ENDBLK
  5
12B
330
120
100
AcDbEntity
  8
0
100
AcDbBlockEnd
  0
BLOCK
  5
254
330
253
100
AcDbEntity
  8
0
100
AcDbBlockBegin
  2
*D5
 70
     1
 10
0.0
 20
0.0
 30
0.0
  3
*D5
  1

  0
LINE
  5
255
330
253
100
AcDbEntity
  8
BEMASSUNG
  6
Continuous
440
 16777216
370
    -2
100
AcDbLine
 10
714.8340513530847
 20
380.82570317295
 30
0.0
 11
746.5046541466862
 21
380.82570317295
 31
0.0
  0
LINE
  5
256
330
253
100
AcDbEntity
  8
BEMASSUNG
  6
Continuous
440
 16777216
370
    -2
100
AcDbLine
 10
704.3340513530847
 20
302.8257031729497
 30
0.0
 11
746.5046541466862
 21
302.8257031729497
 31
0.0
  0
LINE
  5
257
330
253
100
AcDbEntity
  8
BEMASSUNG
  6
Continuous
440
 16777216
370
    -2
100
AcDbLine
 10
745.7046541466862
 20
375.2257031729499
 30
0.0
 11
745.7046541466862
 21
308.4257031729497
 31
0.0
  0
SOLID
  5
258
330
253
100
AcDbEntity
  8
BEMASSUNG
  6
Continuous
440
 16777216
100
AcDbTrace
 10
744.771320813353
 20
375.2257031729499
 30
0.0
 11
746.6379874800195
 21
375.2257031729499
 31
0.0
 12
745.7046541466862
 22
380.82570317295
 32
0.0
 13
745.7046541466862
 23
380.82570317295
 33
0.0
  0
SOLID
  5
259
330
253
100
AcDbEntity
  8
BEMASSUNG
  6
Continuous
440
 16777216
100
AcDbTrace
 10
744.771320813353
 20
308.4257031729497
 30
0.0
 11
746.6379874800195
 21
308.4257031729497
 31
0.0
 12
745.7046541466862
 22
302.8257031729497
 32
0.0
 13
745.7046541466862
 23
302.8257031729497
 33
0.0
  0
MTEXT
  5
25A
330
253
100
AcDbEntity
  8
BEMASSUNG
  6
Continuous
 62
     3
440
 16777216
100
AcDbMText
 10
741.3046541466862
 20
341.82570317295
 30
0.0
 40
5.599999999999999
 41
0.0
 46
0.0
 71
     5
 72
     1
  1
\A1;78
  7
NORM
 11
0.0000000000000001
 21
1.0
 31
0.0
 73
     1
 44
1.0
  0
POINT
  5
25B
330
253
100
AcDbEntity
  8
DEFPOINTS
  6
Continuous
 62
     0
440
 16777216
100
AcDbPoint
 10
714.0340513530847
 20
380.82570317295
 30
0.0
  0
POINT
  5
25C
330
253
100
AcDbEntity
  8
DEFPOINTS
  6
Continuous
 62
     0
440
 16777216
100
AcDbPoint
 10
703.5340513530846
 20
302.8257031729497
 30
0.0
  0
POINT
  5
25D
330
253
100
AcDbEntity
  8
DEFPOINTS
  6
Continuous
 62
     0
440
 16777216
100
AcDbPoint
 10
745.7046541466862
 20
302.8257031729497
 30
0.0
  0
ENDBLK
  5
25E
330
253
100
AcDbEntity
  8
0
100
AcDbBlockEnd
  0
BLOCK
  5
264
330
263
100
AcDbEntity
  8
0
100
AcDbBlockBegin
  2
*D6
 70
     1
 10
0.0
 20
0.0
 30
0.0
  3
*D6
  1

  0
LINE
  5
265
330
263
100
AcDbEntity
  8
BEMASSUNG
  6
Continuous
440
 16777216
370
    -2
100
AcDbLine
 10
666.034051353085
 20
380.8257031729502
 30
0.0
 11
661.7072928267397
 21
380.8257031729502
 31
0.0
  0
LINE
  5
266
330
263
100
AcDbEntity
  8
BEMASSUNG
  6
Continuous
440
 16777216
370
    -2
100
AcDbLine
 10
631.2340513530853
 20
324.825693817841
 30
0.0
 11
663.3072928267396
 21
324.8256938178409
 31
0.0
  0
LINE
  5
267
330
263
100
AcDbEntity
  8
BEMASSUNG
  6
Continuous
440
 16777216
370
    -2
100
AcDbLine
 10
662.5072928267396
 20
375.2257031729501
 30
0.0
 11
662.5072928267396
 21
330.4256938178409
 31
0.0
  0
SOLID
  5
268
330
263
100
AcDbEntity
  8
BEMASSUNG
  6
Continuous
440
 16777216
100
AcDbTrace
 10
661.5739594934064
 20
375.2257031729501
 30
0.0
 11
663.4406261600728
 21
375.2257031729501
 31
0.0
 12
662.5072928267396
 22
380.8257031729502
 32
0.0
 13
662.5072928267396
 23
380.8257031729502
 33
0.0
  0
SOLID
  5
269
330
263
100
AcDbEntity
  8
BEMASSUNG
  6
Continuous
440
 16777216
100
AcDbTrace
 10
661.5739594934064
 20
330.4256938178409
 30
0.0
 11
663.4406261600728
 21
330.4256938178409
 31
0.0
 12
662.5072928267396
 22
324.8256938178409
 32
0.0
 13
662.5072928267396
 23
324.8256938178409
 33
0.0
  0
MTEXT
  5
26A
330
263
100
AcDbEntity
  8
BEMASSUNG
  6
Continuous
 62
     3
440
 16777216
100
AcDbMText
 10
658.1072928267396
 20
352.8256984953957
 30
0.0
 40
5.599999999999999
 41
0.0
 46
0.0
 71
     5
 72
     1
  1
\A1;56
  7
NORM
 11
0.0000000000000001
 21
1.0
 31
0.0
 73
     1
 44
1.0
  0
POINT
  5
26B
330
263
100
AcDbEntity
  8
DEFPOINTS
  6
Continuous
 62
     0
440
 16777216
100
AcDbPoint
 10
666.834051353085
 20
380.8257031729502
 30
0.0
  0
POINT
  5
26C
330
263
100
AcDbEntity
  8
DEFPOINTS
  6
Continuous
 62
     0
440
 16777216
100
AcDbPoint
 10
630.4340513530852
 20
324.825693817841
 30
0.0
  0
POINT
  5
26D
330
263
100
AcDbEntity
  8
DEFPOINTS
  6
Continuous
 62
     0
440
 16777216
100
AcDbPoint
 10
662.5072928267396
 20
324.8256938178409
 30
0.0
  0
ENDBLK
  5
26E
330
263
100
AcDbEntity
  8
0
100
AcDbBlockEnd
  0
BLOCK
  5
288
330
287
100
AcDbEntity
  8
0
100
AcDbBlockBegin
  2
*D7
 70
     1
 10
0.0
 20
0.0
 30
0.0
  3
*D7
  1

  0
LINE
  5
289
330
287
100
AcDbEntity
  8
BEMASSUNG
  6
Continuous
440
 16777216
370
    -2
100
AcDbLine
 10
634.2340513530801
 20
187.3455282659033
 30
0.0
 11
655.7781340258809
 21
187.3455282659033
 31
0.0
  0
LINE
  5
28A
330
287
100
AcDbEntity
  8
BEMASSUNG
  6
Continuous
440
 16777216
370
    -2
100
AcDbLine
 10
652.2413364939059
 20
186.3455282659033
 30
0.0
 11
655.7781340258809
 21
186.3455282659033
 31
0.0
  0
LINE
  5
28B
330
287
100
AcDbEntity
  8
BEMASSUNG
  6
Continuous
440
 16777216
370
    -2
100
AcDbLine
 10
654.9781340258808
 20
192.9455282659033
 30
0.0
 11
654.9781340258808
 21
198.5455282659033
 31
0.0
  0
LINE
  5
28C
330
287
100
AcDbEntity
  8
BEMASSUNG
  6
Continuous
440
 16777216
370
    -2
100
AcDbLine
 10
654.9781340258808
 20
180.7455282659033
 30
0.0
 11
654.9781340258808
 21
175.1455282659033
 31
0.0
  0
MTEXT
  5
28D
330
287
100
AcDbEntity
  8
BEMASSUNG
  6
Continuous
 62
     3
440
 16777216
100
AcDbMText
 10
649.9799315633662
 20
195.4428088474785
 30
0.0
 40
5.599999999999999
 41
0.0
 46
0.0
 71
     5
 72
     1
  1
\A1;1
  7
NORM
 11
0.0000000000000001
 21
1.0
 31
0.0
 73
     1
 44
1.0
  0
LINE
  5
28E
330
287
100
AcDbEntity
  8
BEMASSUNG
  6
Continuous
440
 16777216
370
    -2
100
AcDbLine
 10
654.9781340258808
 20
187.3455282659033
 30
0.0
 11
654.9781340258808
 21
186.3455282659033
 31
0.0
  0
SOLID
  5
28F
330
287
100
AcDbEntity
  8
BEMASSUNG
  6
Continuous
440
 16777216
100
AcDbTrace
 10
654.0448006925477
 20
192.9455282659033
 30
0.0
 11
655.9114673592143
 21
192.9455282659033
 31
0.0
 12
654.9781340258808
 22
187.3455282659033
 32
0.0
 13
654.9781340258808
 23
187.3455282659033
 33
0.0
  0
SOLID
  5
290
330
287
100
AcDbEntity
  8
BEMASSUNG
  6
Continuous
440
 16777216
100
AcDbTrace
 10
654.0448006925477
 20
180.7455282659033
 30
0.0
 11
655.9114673592143
 21
180.7455282659033
 31
0.0
 12
654.9781340258808
 22
186.3455282659033
 32
0.0
 13
654.9781340258808
 23
186.3455282659033
 33
0.0
  0
POINT
  5
291
330
287
100
AcDbEntity
  8
DEFPOINTS
  6
Continuous
 62
     0
440
 16777216
100
AcDbPoint
 10
633.4340513530802
 20
187.3455282659033
 30
0.0
  0
POINT
  5
292
330
287
100
AcDbEntity
  8
DEFPOINTS
  6
Continuous
 62
     0
440
 16777216
100
AcDbPoint
 10
651.4413364939058
 20
186.3455282659033
 30
0.0
  0
POINT
  5
293
330
287
100
AcDbEntity
  8
DEFPOINTS
  6
Continuous
 62
     0
440
 16777216
100
AcDbPoint
 10
654.9781340258808
 20
186.3455282659033
 30
0.0
  0
ENDBLK
  5
294
330
287
100
AcDbEntity
  8
0
100
AcDbBlockEnd
  0
BLOCK
  5
22B
330
22A
100
AcDbEntity
  8
0
100
AcDbBlockBegin
  2
*D8
 70
     1
 10
0.0
 20
0.0
 30
0.0
  3
*D8
  1

  0
LINE
  5
22C
330
22A
100
AcDbEntity
  8
BEMASSUNG
  6
Continuous
440
 16777216
370
    -2
100
AcDbLine
 10
632.6340513530801
 20
273.3257031729494
 30
0.0
 11
602.8409899421875
 21
273.3257031729494
 31
0.0
  0
LINE
  5
22D
330
22A
100
AcDbEntity
  8
BEMASSUNG
  6
Continuous
440
 16777216
370
    -2
100
AcDbLine
 10
629.6340513530845
 20
237.8257031729494
 30
0.0
 11
602.8409899421873
 21
237.8257031729494
 31
0.0
  0
LINE
  5
22E
330
22A
100
AcDbEntity
  8
BEMASSUNG
  6
Continuous
440
 16777216
370
    -2
100
AcDbLine
 10
603.6409899421875
 20
267.7257031729494
 30
0.0
 11
603.6409899421872
 21
243.4257031729494
 31
0.0
  0
SOLID
  5
22F
330
22A
100
AcDbEntity
  8
BEMASSUNG
  6
Continuous
440
 16777216
100
AcDbTrace
 10
602.7076566088542
 20
267.7257031729494
 30
0.0
 11
604.5743232755207
 21
267.7257031729494
 31
0.0
 12
603.6409899421875
 22
273.3257031729494
 32
0.0
 13
603.6409899421875
 23
273.3257031729494
 33
0.0
  0
SOLID
  5
230
330
22A
100
AcDbEntity
  8
BEMASSUNG
  6
Continuous
440
 16777216
100
AcDbTrace
 10
602.7076566088541
 20
243.4257031729494
 30
0.0
 11
604.5743232755206
 21
243.4257031729494
 31
0.0
 12
603.6409899421872
 22
237.8257031729494
 32
0.0
 13
603.6409899421872
 23
237.8257031729494
 33
0.0
  0
MTEXT
  5
231
330
22A
100
AcDbEntity
  8
BEMASSUNG
  6
Continuous
 62
     3
440
 16777216
100
AcDbMText
 10
599.2409899421873
 20
255.5757031729495
 30
0.0
 40
5.599999999999999
 41
0.0
 46
0.0
 71
     5
 72
     1
  1
\A1;35.5
  7
NORM
 11
0.0000000000000001
 21
1.0
 31
0.0
 73
     1
 44
1.0
  0
POINT
  5
232
330
22A
100
AcDbEntity
  8
DEFPOINTS
  6
Continuous
 62
     0
440
 16777216
100
AcDbPoint
 10
633.4340513530802
 20
273.3257031729494
 30
0.0
  0
POINT
  5
233
330
22A
100
AcDbEntity
  8
DEFPOINTS
  6
Continuous
 62
     0
440
 16777216
100
AcDbPoint
 10
630.4340513530844
 20
237.8257031729494
 30
0.0
  0
POINT
  5
234
330
22A
100
AcDbEntity
  8
DEFPOINTS
  6
Continuous
 62
     0
440
 16777216
100
AcDbPoint
 10
603.6409899421872
 20
237.8257031729494
 30
0.0
  0
ENDBLK
  5
235
330
22A
100
AcDbEntity
  8
0
100
AcDbBlockEnd
  0
BLOCK
  5
272
330
271
100
AcDbEntity
  8
0
100
AcDbBlockBegin
  2
*D9
 70
     1
 10
0.0
 20
0.0
 30
0.0
  3
*D9
  1

  0
LINE
  5
273
330
271
100
AcDbEntity
  8
BEMASSUNG
  6
Continuous
440
 16777216
370
    -2
100
AcDbLine
 10
609.6340513530853
 20
309.8256938178408
 30
0.0
 11
602.9390588412018
 21
309.8256938178408
 31
0.0
  0
LINE
  5
274
330
271
100
AcDbEntity
  8
BEMASSUNG
  6
Continuous
440
 16777216
370
    -2
100
AcDbLine
 10
609.6340513530853
 20
339.825693817841
 30
0.0
 11
602.9390588412018
 21
339.825693817841
 31
0.0
  0
LINE
  5
275
330
271
100
AcDbEntity
  8
BEMASSUNG
  6
Continuous
440
 16777216
370
    -2
100
AcDbLine
 10
603.7390588412018
 20
315.4256938178408
 30
0.0
 11
603.7390588412018
 21
334.2256938178409
 31
0.0
  0
MTEXT
  5
276
330
271
100
AcDbEntity
  8
BEMASSUNG
  6
Continuous
 62
     3
440
 16777216
100
AcDbMText
 10
598.5625443660969
 20
324.8336632971279
 30
0.0
 40
5.599999999999999
 41
0.0
 46
0.0
 71
     5
 72
     1
  1
\A1;30
  7
NORM
 11
0.0000000000000001
 21
1.0
 31
0.0
 73
     1
 44
1.0
  0
SOLID
  5
277
330
271
100
AcDbEntity
  8
BEMASSUNG
  6
Continuous
440
 16777216
100
AcDbTrace
 10
602.8057255078683
 20
315.4256938178408
 30
0.0
 11
604.6723921745349
 21
315.4256938178408
 31
0.0
 12
603.7390588412018
 22
309.8256938178408
 32
0.0
 13
603.7390588412018
 23
309.8256938178408
 33
0.0
  0
SOLID
  5
278
330
271
100
AcDbEntity
  8
BEMASSUNG
  6
Continuous
440
 16777216
100
AcDbTrace
 10
602.8057255078683
 20
334.2256938178409
 30
0.0
 11
604.6723921745349
 21
334.2256938178409
 31
0.0
 12
603.7390588412018
 22
339.825693817841
 32
0.0
 13
603.7390588412018
 23
339.825693817841
 33
0.0
  0
POINT
  5
279
330
271
100
AcDbEntity
  8
DEFPOINTS
  6
Continuous
 62
     0
440
 16777216
100
AcDbPoint
 10
610.4340513530852
 20
309.8256938178408
 30
0.0
  0
POINT
  5
27A
330
271
100
AcDbEntity
  8
DEFPOINTS
  6
Continuous
 62
     0
440
 16777216
100
AcDbPoint
 10
610.4340513530852
 20
339.825693817841
 30
0.0
  0
POINT
  5
27B
330
271
100
AcDbEntity
  8
DEFPOINTS
  6
Continuous
 62
     0
440
 16777216
100
AcDbPoint
 10
603.7390588412018
 20
339.825693817841
 30
0.0
  0
ENDBLK
  5
27C
330
271
100
AcDbEntity
  8
0
100
AcDbBlockEnd
  0
BLOCK
  5
218
330
217
100
AcDbEntity
  8
0
100
AcDbBlockBegin
  2
*D10
 70
     1
 10
0.0
 20
0.0
 30
0.0
  3
*D10
  1

  0
LINE
  5
219
330
217
100
AcDbEntity
  8
BEMASSUNG
  6
Continuous
440
 16777216
370
    -2
100
AcDbLine
 10
632.6340513530801
 20
273.3257031729494
 30
0.0
 11
602.8826846887052
 21
273.3257031729494
 31
0.0
  0
LINE
  5
21A
330
217
100
AcDbEntity
  8
BEMASSUNG
  6
Continuous
440
 16777216
370
    -2
100
AcDbLine
 10
609.6340513530853
 20
309.8256938178408
 30
0.0
 11
602.8826846887052
 21
309.8256938178408
 31
0.0
  0
LINE
  5
21B
330
217
100
AcDbEntity
  8
BEMASSUNG
  6
Continuous
440
 16777216
370
    -2
100
AcDbLine
 10
603.6826846887052
 20
278.9257031729494
 30
0.0
 11
603.6826846887052
 21
304.2256938178408
 31
0.0
  0
SOLID
  5
21C
330
217
100
AcDbEntity
  8
BEMASSUNG
  6
Continuous
440
 16777216
100
AcDbTrace
 10
602.749351355372
 20
278.9257031729494
 30
0.0
 11
604.6160180220384
 21
278.9257031729494
 31
0.0
 12
603.6826846887052
 22
273.3257031729494
 32
0.0
 13
603.6826846887052
 23
273.3257031729494
 33
0.0
  0
SOLID
  5
21D
330
217
100
AcDbEntity
  8
BEMASSUNG
  6
Continuous
440
 16777216
100
AcDbTrace
 10
602.749351355372
 20
304.2256938178408
 30
0.0
 11
604.6160180220384
 21
304.2256938178408
 31
0.0
 12
603.6826846887052
 22
309.8256938178408
 32
0.0
 13
603.6826846887052
 23
309.8256938178408
 33
0.0
  0
MTEXT
  5
21E
330
217
100
AcDbEntity
  8
BEMASSUNG
  6
Continuous
 62
     3
440
 16777216
100
AcDbMText
 10
599.2826846887052
 20
291.5756984953952
 30
0.0
 40
5.599999999999999
 41
0.0
 46
0.0
 71
     5
 72
     1
  1
\A1;36.5
  7
NORM
 11
0.0000000000000001
 21
1.0
 31
0.0
 73
     1
 44
1.0
  0
POINT
  5
21F
330
217
100
AcDbEntity
  8
DEFPOINTS
  6
Continuous
 62
     0
440
 16777216
100
AcDbPoint
 10
633.4340513530802
 20
273.3257031729494
 30
0.0
  0
POINT
  5
220
330
217
100
AcDbEntity
  8
DEFPOINTS
  6
Continuous
 62
     0
440
 16777216
100
AcDbPoint
 10
610.4340513530852
 20
309.8256938178408
 30
0.0
  0
POINT
  5
221
330
217
100
AcDbEntity
  8
DEFPOINTS
  6
Continuous
 62
     0
440
 16777216
100
AcDbPoint
 10
603.6826846887052
 20
309.8256938178408
 30
0.0
  0
ENDBLK
  5
222
330
217
100
AcDbEntity
  8
0
100
AcDbBlockEnd
  0
BLOCK
  5
18C
330
18B
100
AcDbEntity
  8
0
100
AcDbBlockBegin
  2
*D11
 70
     1
 10
0.0
 20
0.0
 30
0.0
  3
*D11
  1

  0
LINE
  5
18D
330
18B
100
AcDbEntity
  8
BEMASSUNG
  6
Continuous
440
 16777216
370
    -2
100
AcDbLine
 10
610.4340513530852
 20
340.625693817841
 30
0.0
 11
610.4340513530852
 21
352.3973550159063
 31
0.0
  0
LINE
  5
18E
330
18B
100
AcDbEntity
  8
BEMASSUNG
  6
Continuous
440
 16777216
370
    -2
100
AcDbLine
 10
630.4340513530852
 20
351.4680153418435
 30
0.0
 11
630.4340513530852
 21
350.7973550159062
 31
0.0
  0
LINE
  5
18F
330
18B
100
AcDbEntity
  8
BEMASSUNG
  6
Continuous
440
 16777216
370
    -2
100
AcDbLine
 10
616.0340513530853
 20
351.5973550159062
 30
0.0
 11
624.8340513530852
 21
351.5973550159062
 31
0.0
  0
SOLID
  5
190
330
18B
100
AcDbEntity
  8
BEMASSUNG
  6
Continuous
440
 16777216
100
AcDbTrace
 10
616.0340513530853
 20
352.5306883492397
 30
0.0
 11
616.0340513530853
 21
350.6640216825729
 31
0.0
 12
610.4340513530852
 22
351.5973550159062
 32
0.0
 13
610.4340513530852
 23
351.5973550159062
 33
0.0
  0
SOLID
  5
191
330
18B
100
AcDbEntity
  8
BEMASSUNG
  6
Continuous
440
 16777216
100
AcDbTrace
 10
624.8340513530852
 20
352.5306883492397
 30
0.0
 11
624.8340513530852
 21
350.6640216825729
 31
0.0
 12
630.4340513530852
 22
351.5973550159062
 32
0.0
 13
630.4340513530852
 23
351.5973550159062
 33
0.0
  0
MTEXT
  5
192
330
18B
100
AcDbEntity
  8
BEMASSUNG
  6
Continuous
 62
     3
440
 16777216
100
AcDbMText
 10
620.4340513530852
 20
355.9973550159063
 30
0.0
 40
5.599999999999999
 41
0.0
 46
0.0
 71
     5
 72
     1
  1
\A1;20
  7
NORM
 73
     1
 44
1.0
  0
POINT
  5
193
330
18B
100
AcDbEntity
  8
DEFPOINTS
  6
Continuous
 62
     0
440
 16777216
100
AcDbPoint
 10
610.4340513530852
 20
339.825693817841
 30
0.0
  0
POINT
  5
194
330
18B
100
AcDbEntity
  8
DEFPOINTS
  6
Continuous
 62
     0
440
 16777216
100
AcDbPoint
 10
630.4340513530852
 20
352.2680153418435
 30
0.0
  0
POINT
  5
195
330
18B
100
AcDbEntity
  8
DEFPOINTS
  6
Continuous
 62
     0
440
 16777216
100
AcDbPoint
 10
630.4340513530852
 20
351.5973550159062
 30
0.0
  0
ENDBLK
  5
196
330
18B
100
AcDbEntity
  8
0
100
AcDbBlockEnd
  0
BLOCK
  5
C8
330
C7
100
AcDbEntity
  8
0
100
AcDbBlockBegin
  2
*D12
 70
     1
 10
0.0
 20
0.0
 30
0.0
  3
*D12
  1

  0
LINE
  5
C9
330
C7
100
AcDbEntity
  8
BEMASSUNG
  6
Continuous
440
 16777216
370
    -2
100
AcDbLine
 10
799.2658817313849
 20
246.8257031729495
 30
0.0
 11
782.2424798771845
 21
246.8257031729495
 31
0.0
  0
LINE
  5
CA
330
C7
100
AcDbEntity
  8
BEMASSUNG
  6
Continuous
440
 16777216
370
    -2
100
AcDbLine
 10
806.0158817313848
 20
237.8257031729495
 30
0.0
 11
782.2424798771845
 21
237.8257031729495
 31
0.0
  0
LINE
  5
CB
330
C7
100
AcDbEntity
  8
BEMASSUNG
  6
Continuous
440
 16777216
370
    -2
100
AcDbLine
 10
783.0424798771846
 20
252.4257031729495
 30
0.0
 11
783.0424798771847
 21
258.0257031729495
 31
0.0
  0
LINE
  5
CC
330
C7
100
AcDbEntity
  8
BEMASSUNG
  6
Continuous
440
 16777216
370
    -2
100
AcDbLine
 10
783.0424798771846
 20
232.2257031729495
 30
0.0
 11
783.0424798771846
 21
226.6257031729495
 31
0.0
  0
MTEXT
  5
CD
330
C7
100
AcDbEntity
  8
BEMASSUNG
  6
Continuous
 62
     3
440
 16777216
100
AcDbMText
 10
778.4920380889722
 20
242.5512227246621
 30
0.0
 40
5.599999999999999
 41
0.0
 46
0.0
 71
     5
 72
     1
  1
\A1;9
  7
NORM
 11
0.0000000000000001
 21
1.0
 31
0.0
 73
     1
 44
1.0
  0
LINE
  5
CE
330
C7
100
AcDbEntity
  8
BEMASSUNG
  6
Continuous
440
 16777216
370
    -2
100
AcDbLine
 10
783.0424798771846
 20
246.8257031729495
 30
0.0
 11
783.0424798771846
 21
237.8257031729495
 31
0.0
  0
SOLID
  5
CF
330
C7
100
AcDbEntity
  8
BEMASSUNG
  6
Continuous
440
 16777216
100
AcDbTrace
 10
782.1091465438513
 20
252.4257031729495
 30
0.0
 11
783.9758132105179
 21
252.4257031729495
 31
0.0
 12
783.0424798771846
 22
246.8257031729495
 32
0.0
 13
783.0424798771846
 23
246.8257031729495
 33
0.0
  0
SOLID
  5
D0
330
C7
100
AcDbEntity
  8
BEMASSUNG
  6
Continuous
440
 16777216
100
AcDbTrace
 10
782.1091465438513
 20
232.2257031729495
 30
0.0
 11
783.9758132105179
 21
232.2257031729495
 31
0.0
 12
783.0424798771846
 22
237.8257031729495
 32
0.0
 13
783.0424798771846
 23
237.8257031729495
 33
0.0
  0
POINT
  5
D1
330
C7
100
AcDbEntity
  8
DEFPOINTS
  6
Continuous
 62
     0
440
 16777216
100
AcDbPoint
 10
800.0658817313849
 20
246.8257031729495
 30
0.0
  0
POINT
  5
D2
330
C7
100
AcDbEntity
  8
DEFPOINTS
  6
Continuous
 62
     0
440
 16777216
100
AcDbPoint
 10
806.8158817313847
 20
237.8257031729495
 30
0.0
  0
POINT
  5
D3
330
C7
100
AcDbEntity
  8
DEFPOINTS
  6
Continuous
 62
     0
440
 16777216
100
AcDbPoint
 10
783.0424798771846
 20
237.8257031729495
 30
0.0
  0
ENDBLK
  5
D4
330
C7
100
AcDbEntity
  8
0
100
AcDbBlockEnd
  0
BLOCK
  5
29F
330
29E
100
AcDbEntity
  8
0
100
AcDbBlockBegin
  2
*D13
 70
     1
 10
0.0
 20
0.0
 30
0.0
  3
*D13
  1

  0
LINE
  5
2A0
330
29E
100
AcDbEntity
  8
BEMASSUNG
  6
Continuous
440
 16777216
370
    -2
100
AcDbLine
 10
720.2340513530803
 20
186.3455282659028
 30
0.0
 11
747.1985257061999
 21
186.3455282659028
 31
0.0
  0
LINE
  5
2A1
330
29E
100
AcDbEntity
  8
BEMASSUNG
  6
Continuous
440
 16777216
370
    -2
100
AcDbLine
 10
720.2340513530803
 20
173.145528265903
 30
0.0
 11
747.1985257061999
 21
173.145528265903
 31
0.0
  0
LINE
  5
2A2
330
29E
100
AcDbEntity
  8
BEMASSUNG
  6
Continuous
440
 16777216
370
    -2
100
AcDbLine
 10
746.3985257061999
 20
191.9455282659028
 30
0.0
 11
746.3985257061999
 21
197.5455282659028
 31
0.0
  0
LINE
  5
2A3
330
29E
100
AcDbEntity
  8
BEMASSUNG
  6
Continuous
440
 16777216
370
    -2
100
AcDbLine
 10
746.3985257061999
 20
167.545528265903
 30
0.0
 11
746.3985257061999
 21
161.945528265903
 31
0.0
  0
MTEXT
  5
2A4
330
29E
100
AcDbEntity
  8
BEMASSUNG
  6
Continuous
 62
     3
440
 16777216
100
AcDbMText
 10
741.76056426309
 20
159.0862364379065
 30
0.0
 40
5.599999999999999
 41
0.0
 46
0.0
 71
     5
 72
     1
  1
\A1;13.2
  7
NORM
 11
0.0000000000000001
 21
1.0
 31
0.0
 73
     1
 44
1.0
  0
LINE
  5
2A5
330
29E
100
AcDbEntity
  8
BEMASSUNG
  6
Continuous
440
 16777216
370
    -2
100
AcDbLine
 10
746.3985257061999
 20
186.3455282659028
 30
0.0
 11
746.3985257061999
 21
173.145528265903
 31
0.0
  0
SOLID
  5
2A6
330
29E
100
AcDbEntity
  8
BEMASSUNG
  6
Continuous
440
 16777216
100
AcDbTrace
 10
745.4651923728667
 20
191.9455282659028
 30
0.0
 11
747.3318590395332
 21
191.9455282659028
 31
0.0
 12
746.3985257061999
 22
186.3455282659028
 32
0.0
 13
746.3985257061999
 23
186.3455282659028
 33
0.0
  0
SOLID
  5
2A7
330
29E
100
AcDbEntity
  8
BEMASSUNG
  6
Continuous
440
 16777216
100
AcDbTrace
 10
745.4651923728667
 20
167.545528265903
 30
0.0
 11
747.3318590395332
 21
167.545528265903
 31
0.0
 12
746.3985257061999
 22
173.145528265903
 32
0.0
 13
746.3985257061999
 23
173.145528265903
 33
0.0
  0
POINT
  5
2A8
330
29E
100
AcDbEntity
  8
DEFPOINTS
  6
Continuous
 62
     0
440
 16777216
100
AcDbPoint
 10
719.4340513530804
 20
186.3455282659028
 30
0.0
  0
POINT
  5
2A9
330
29E
100
AcDbEntity
  8
DEFPOINTS
  6
Continuous
 62
     0
440
 16777216
100
AcDbPoint
 10
719.4340513530804
 20
173.145528265903
 30
0.0
  0
POINT
  5
2AA
330
29E
100
AcDbEntity
  8
DEFPOINTS
  6
Continuous
 62
     0
440
 16777216
100
AcDbPoint
 10
746.3985257061999
 20
173.145528265903
 30
0.0
  0
ENDBLK
  5
2AB
330
29E
100
AcDbEntity
  8
0
100
AcDbBlockEnd
  0
BLOCK
  5
A2
330
A1
100
AcDbEntity
  8
0
100
AcDbBlockBegin
  2
*D14
 70
     1
 10
0.0
 20
0.0
 30
0.0
  3
*D14
  1

  0
LINE
  5
A3
330
A1
100
AcDbEntity
  8
BEMASSUNG
  6
Continuous
440
 16777216
370
    -2
100
AcDbLine
 10
796.8158817313849
 20
323.2049858587222
 30
0.0
 11
796.8158817313849
 21
324.8068124852895
 31
0.0
  0
LINE
  5
A4
330
A1
100
AcDbEntity
  8
BEMASSUNG
  6
Continuous
440
 16777216
370
    -2
100
AcDbLine
 10
800.5158817313851
 20
324.0257031729499
 30
0.0
 11
800.5158817313851
 21
323.2068124852895
 31
0.0
  0
LINE
  5
A5
330
A1
100
AcDbEntity
  8
BEMASSUNG
  6
Continuous
440
 16777216
370
    -2
100
AcDbLine
 10
791.2158817313849
 20
324.0068124852895
 30
0.0
 11
785.6158817313849
 21
324.0068124852895
 31
0.0
  0
LINE
  5
A6
330
A1
100
AcDbEntity
  8
BEMASSUNG
  6
Continuous
440
 16777216
370
    -2
100
AcDbLine
 10
806.1158817313852
 20
324.0068124852895
 30
0.0
 11
811.7158817313852
 21
324.0068124852895
 31
0.0
  0
MTEXT
  5
A7
330
A1
100
AcDbEntity
  8
BEMASSUNG
  6
Continuous
 62
     3
440
 16777216
100
AcDbMText
 10
786.5930335925404
 20
328.2291883006682
 30
0.0
 40
5.599999999999999
 41
0.0
 46
0.0
 71
     5
 72
     1
  1
\A1;3.7
  7
NORM
 73
     1
 44
1.0
  0
LINE
  5
A8
330
A1
100
AcDbEntity
  8
BEMASSUNG
  6
Continuous
440
 16777216
370
    -2
100
AcDbLine
 10
796.8158817313849
 20
324.0068124852895
 30
0.0
 11
800.5158817313851
 21
324.0068124852895
 31
0.0
  0
SOLID
  5
A9
330
A1
100
AcDbEntity
  8
BEMASSUNG
  6
Continuous
440
 16777216
100
AcDbTrace
 10
791.2158817313849
 20
324.9401458186229
 30
0.0
 11
791.2158817313849
 21
323.0734791519562
 31
0.0
 12
796.8158817313849
 22
324.0068124852895
 32
0.0
 13
796.8158817313849
 23
324.0068124852895
 33
0.0
  0
SOLID
  5
AA
330
A1
100
AcDbEntity
  8
BEMASSUNG
  6
Continuous
440
 16777216
100
AcDbTrace
 10
806.1158817313852
 20
324.9401458186229
 30
0.0
 11
806.1158817313852
 21
323.0734791519562
 31
0.0
 12
800.5158817313851
 22
324.0068124852895
 32
0.0
 13
800.5158817313851
 23
324.0068124852895
 33
0.0
  0
POINT
  5
AB
330
A1
100
AcDbEntity
  8
DEFPOINTS
  6
Continuous
 62
     0
440
 16777216
100
AcDbPoint
 10
796.8158817313849
 20
322.4049858587222
 30
0.0
  0
POINT
  5
AC
330
A1
100
AcDbEntity
  8
DEFPOINTS
  6
Continuous
 62
     0
440
 16777216
100
AcDbPoint
 10
800.5158817313851
 20
324.8257031729499
 30
0.0
  0
POINT
  5
AD
330
A1
100
AcDbEntity
  8
DEFPOINTS
  6
Continuous
 62
     0
440
 16777216
100
AcDbPoint
 10
800.5158817313851
 20
324.0068124852895
 30
0.0
  0
ENDBLK
  5
AE
330
A1
100
AcDbEntity
  8
0
100
AcDbBlockEnd
  0
BLOCK
  5
201
330
200
100
AcDbEntity
  8
0
100
AcDbBlockBegin
  2
*D15
 70
     1
 10
0.0
 20
0.0
 30
0.0
  3
*D15
  1

  0
LINE
  5
202
330
200
100
AcDbEntity
  8
BEMASSUNG
  6
Continuous
440
 16777216
370
    -2
100
AcDbLine
 10
704.1092806203642
 20
302.8257031729497
 30
0.0
 11
746.4415797234789
 21
302.8257031729497
 31
0.0
  0
LINE
  5
203
330
200
100
AcDbEntity
  8
BEMASSUNG
  6
Continuous
440
 16777216
370
    -2
100
AcDbLine
 10
702.4340513530845
 20
273.3257031729494
 30
0.0
 11
746.4415797234789
 21
273.3257031729494
 31
0.0
  0
LINE
  5
204
330
200
100
AcDbEntity
  8
BEMASSUNG
  6
Continuous
440
 16777216
370
    -2
100
AcDbLine
 10
745.6415797234788
 20
297.2257031729496
 30
0.0
 11
745.6415797234788
 21
278.9257031729494
 31
0.0
  0
SOLID
  5
205
330
200
100
AcDbEntity
  8
BEMASSUNG
  6
Continuous
440
 16777216
100
AcDbTrace
 10
744.7082463901457
 20
297.2257031729496
 30
0.0
 11
746.5749130568123
 21
297.2257031729496
 31
0.0
 12
745.6415797234788
 22
302.8257031729497
 32
0.0
 13
745.6415797234788
 23
302.8257031729497
 33
0.0
  0
SOLID
  5
206
330
200
100
AcDbEntity
  8
BEMASSUNG
  6
Continuous
440
 16777216
100
AcDbTrace
 10
744.7082463901457
 20
278.9257031729494
 30
0.0
 11
746.5749130568123
 21
278.9257031729494
 31
0.0
 12
745.6415797234788
 22
273.3257031729494
 32
0.0
 13
745.6415797234788
 23
273.3257031729494
 33
0.0
  0
MTEXT
  5
207
330
200
100
AcDbEntity
  8
BEMASSUNG
  6
Continuous
 62
     3
440
 16777216
100
AcDbMText
 10
741.2415797234788
 20
288.0757031729497
 30
0.0
 40
5.599999999999999
 41
0.0
 46
0.0
 71
     5
 72
     1
  1
\A1;29.5
  7
NORM
 11
0.0000000000000001
 21
1.0
 31
0.0
 73
     1
 44
1.0
  0
POINT
  5
208
330
200
100
AcDbEntity
  8
DEFPOINTS
  6
Continuous
 62
     0
440
 16777216
100
AcDbPoint
 10
703.3092806203642
 20
302.8257031729497
 30
0.0
  0
POINT
  5
209
330
200
100
AcDbEntity
  8
DEFPOINTS
  6
Continuous
 62
     0
440
 16777216
100
AcDbPoint
 10
701.6340513530847
 20
273.3257031729494
 30
0.0
  0
POINT
  5
20A
330
200
100
AcDbEntity
  8
DEFPOINTS
  6
Continuous
 62
     0
440
 16777216
100
AcDbPoint
 10
745.6415797234788
 20
273.3257031729494
 30
0.0
  0
ENDBLK
  5
20B
330
200
100
AcDbEntity
  8
0
100
AcDbBlockEnd
  0
BLOCK
  5
B5
330
B4
100
AcDbEntity
  8
0
100
AcDbBlockBegin
  2
*D16
 70
     1
 10
0.0
 20
0.0
 30
0.0
  3
*D16
  1

  0
LINE
  5
B6
330
B4
100
AcDbEntity
  8
BEMASSUNG
  6
Continuous
440
 16777216
370
    -2
100
AcDbLine
 10
800.5158817313851
 20
308.9257031729498
 30
0.0
 11
800.5158817313851
 21
298.2902232710945
 31
0.0
  0
LINE
  5
B7
330
B4
100
AcDbEntity
  8
BEMASSUNG
  6
Continuous
440
 16777216
370
    -2
100
AcDbLine
 10
808.0158817313849
 20
308.9257031729498
 30
0.0
 11
808.0158817313849
 21
298.2902232710945
 31
0.0
  0
LINE
  5
B8
330
B4
100
AcDbEntity
  8
BEMASSUNG
  6
Continuous
440
 16777216
370
    -2
100
AcDbLine
 10
794.9158817313851
 20
299.0902232710945
 30
0.0
 11
789.3158817313851
 21
299.0902232710945
 31
0.0
  0
LINE
  5
B9
330
B4
100
AcDbEntity
  8
BEMASSUNG
  6
Continuous
440
 16777216
370
    -2
100
AcDbLine
 10
813.615881731385
 20
299.0902232710945
 30
0.0
 11
819.2158817313849
 21
299.0902232710945
 31
0.0
  0
MTEXT
  5
BA
330
B4
100
AcDbEntity
  8
BEMASSUNG
  6
Continuous
 62
     3
440
 16777216
100
AcDbMText
 10
787.6427007901853
 20
303.2316453556263
 30
0.0
 40
5.599999999999999
 41
0.0
 46
0.0
 71
     5
 72
     1
  1
\A1;7.5
  7
NORM
 73
     1
 44
1.0
  0
LINE
  5
BB
330
B4
100
AcDbEntity
  8
BEMASSUNG
  6
Continuous
440
 16777216
370
    -2
100
AcDbLine
 10
800.5158817313851
 20
299.0902232710945
 30
0.0
 11
808.0158817313849
 21
299.0902232710945
 31
0.0
  0
SOLID
  5
BC
330
B4
100
AcDbEntity
  8
BEMASSUNG
  6
Continuous
440
 16777216
100
AcDbTrace
 10
794.9158817313851
 20
300.0235566044278
 30
0.0
 11
794.9158817313851
 21
298.1568899377612
 31
0.0
 12
800.5158817313851
 22
299.0902232710945
 32
0.0
 13
800.5158817313851
 23
299.0902232710945
 33
0.0
  0
SOLID
  5
BD
330
B4
100
AcDbEntity
  8
BEMASSUNG
  6
Continuous
440
 16777216
100
AcDbTrace
 10
813.615881731385
 20
300.0235566044278
 30
0.0
 11
813.615881731385
 21
298.1568899377612
 31
0.0
 12
808.0158817313849
 22
299.0902232710945
 32
0.0
 13
808.0158817313849
 23
299.0902232710945
 33
0.0
  0
POINT
  5
BE
330
B4
100
AcDbEntity
  8
DEFPOINTS
  6
Continuous
 62
     0
440
 16777216
100
AcDbPoint
 10
800.5158817313851
 20
309.7257031729498
 30
0.0
  0
POINT
  5
BF
330
B4
100
AcDbEntity
  8
DEFPOINTS
  6
Continuous
 62
     0
440
 16777216
100
AcDbPoint
 10
808.0158817313849
 20
309.7257031729498
 30
0.0
  0
POINT
  5
C0
330
B4
100
AcDbEntity
  8
DEFPOINTS
  6
Continuous
 62
     0
440
 16777216
100
AcDbPoint
 10
808.0158817313849
 20
299.0902232710945
 30
0.0
  0
ENDBLK
  5
C1
330
B4
100
AcDbEntity
  8
0
100
AcDbBlockEnd
  0
BLOCK
  5
1CA
330
1C9
100
AcDbEntity
  8
0
100
AcDbBlockBegin
  2
*D17
 70
     1
 10
0.0
 20
0.0
 30
0.0
  3
*D17
  1

  0
LINE
  5
1CB
330
1C9
100
AcDbEntity
  8
BEMASSUNG
  6
Continuous
440
 16777216
370
    -2
100
AcDbLine
 10
635.2340687848573
 20
402.8256938178413
 30
0.0
 11
663.3072928267396
 21
402.8256938178413
 31
0.0
  0
LINE
  5
1CC
330
1C9
100
AcDbEntity
  8
BEMASSUNG
  6
Continuous
440
 16777216
370
    -2
100
AcDbLine
 10
666.034051353085
 20
380.8257031729502
 30
0.0
 11
661.7072928267397
 21
380.8257031729502
 31
0.0
  0
LINE
  5
1CD
330
1C9
100
AcDbEntity
  8
BEMASSUNG
  6
Continuous
440
 16777216
370
    -2
100
AcDbLine
 10
662.5072928267396
 20
397.2256938178413
 30
0.0
 11
662.5072928267396
 21
386.4257031729502
 31
0.0
  0
SOLID
  5
1CE
330
1C9
100
AcDbEntity
  8
BEMASSUNG
  6
Continuous
440
 16777216
100
AcDbTrace
 10
661.5739594934064
 20
397.2256938178413
 30
0.0
 11
663.4406261600728
 21
397.2256938178413
 31
0.0
 12
662.5072928267396
 22
402.8256938178413
 32
0.0
 13
662.5072928267396
 23
402.8256938178413
 33
0.0
  0
SOLID
  5
1CF
330
1C9
100
AcDbEntity
  8
BEMASSUNG
  6
Continuous
440
 16777216
100
AcDbTrace
 10
661.5739594934064
 20
386.4257031729502
 30
0.0
 11
663.4406261600728
 21
386.4257031729502
 31
0.0
 12
662.5072928267396
 22
380.8257031729502
 32
0.0
 13
662.5072928267396
 23
380.8257031729502
 33
0.0
  0
MTEXT
  5
1D0
330
1C9
100
AcDbEntity
  8
BEMASSUNG
  6
Continuous
 62
     3
440
 16777216
100
AcDbMText
 10
658.1072928267396
 20
391.8256984953959
 30
0.0
 40
5.599999999999999
 41
0.0
 46
0.0
 71
     5
 72
     1
  1
\A1;22
  7
NORM
 11
0.0000000000000001
 21
1.0
 31
0.0
 73
     1
 44
1.0
  0
POINT
  5
1D1
330
1C9
100
AcDbEntity
  8
DEFPOINTS
  6
Continuous
 62
     0
440
 16777216
100
AcDbPoint
 10
634.4340687848572
 20
402.8256938178413
 30
0.0
  0
POINT
  5
1D2
330
1C9
100
AcDbEntity
  8
DEFPOINTS
  6
Continuous
 62
     0
440
 16777216
100
AcDbPoint
 10
666.834051353085
 20
380.8257031729502
 30
0.0
  0
POINT
  5
1D3
330
1C9
100
AcDbEntity
  8
DEFPOINTS
  6
Continuous
 62
     0
440
 16777216
100
AcDbPoint
 10
662.5072928267396
 20
380.8257031729502
 30
0.0
  0
ENDBLK
  5
1D4
330
1C9
100
AcDbEntity
  8
0
100
AcDbBlockEnd
  0
BLOCK
  5
160
330
15F
100
AcDbEntity
  8
0
100
AcDbBlockBegin
  2
*D18
 70
     1
 10
0.0
 20
0.0
 30
0.0
  3
*D18
  1

  0
LINE
  5
161
330
15F
100
AcDbEntity
  8
BEMASSUNG
  6
Continuous
440
 16777216
370
    -2
100
AcDbLine
 10
620.4340687848572
 20
418.6256938178415
 30
0.0
 11
620.4340687848572
 21
423.7024932998393
 31
0.0
  0
LINE
  5
162
330
15F
100
AcDbEntity
  8
BEMASSUNG
  6
Continuous
440
 16777216
370
    -2
100
AcDbLine
 10
630.4340513530855
 20
424.7851346035893
 30
0.0
 11
630.4340513530855
 21
422.1024932998393
 31
0.0
  0
LINE
  5
163
330
15F
100
AcDbEntity
  8
BEMASSUNG
  6
Continuous
440
 16777216
370
    -2
100
AcDbLine
 10
614.8340687848572
 20
422.9024932998393
 30
0.0
 11
609.2340687848572
 21
422.9024932998393
 31
0.0
  0
LINE
  5
164
330
15F
100
AcDbEntity
  8
BEMASSUNG
  6
Continuous
440
 16777216
370
    -2
100
AcDbLine
 10
636.0340513530855
 20
422.9024932998393
 30
0.0
 11
641.6340513530855
 21
422.9024932998393
 31
0.0
  0
LINE
  5
165
330
15F
100
AcDbEntity
  8
BEMASSUNG
  6
Continuous
440
 16777216
370
    -2
100
AcDbLine
 10
620.4340687848572
 20
422.9024932998393
 30
0.0
 11
630.4340513530855
 21
422.9024932998393
 31
0.0
  0
SOLID
  5
166
330
15F
100
AcDbEntity
  8
BEMASSUNG
  6
Continuous
440
 16777216
100
AcDbTrace
 10
614.8340687848572
 20
423.8358266331726
 30
0.0
 11
614.8340687848572
 21
421.9691599665059
 31
0.0
 12
620.4340687848572
 22
422.9024932998393
 32
0.0
 13
620.4340687848572
 23
422.9024932998393
 33
0.0
  0
SOLID
  5
167
330
15F
100
AcDbEntity
  8
BEMASSUNG
  6
Continuous
440
 16777216
100
AcDbTrace
 10
636.0340513530855
 20
423.8358266331726
 30
0.0
 11
636.0340513530855
 21
421.9691599665059
 31
0.0
 12
630.4340513530855
 22
422.9024932998393
 32
0.0
 13
630.4340513530855
 23
422.9024932998393
 33
0.0
  0
MTEXT
  5
168
330
15F
100
AcDbEntity
  8
BEMASSUNG
  6
Continuous
 62
     3
440
 16777216
100
AcDbMText
 10
625.4340600689712
 20
427.3024932998391
 30
0.0
 40
5.599999999999999
 41
0.0
 46
0.0
 71
     5
 72
     1
  1
\A1;10
  7
NORM
 73
     1
 44
1.0
  0
POINT
  5
169
330
15F
100
AcDbEntity
  8
DEFPOINTS
  6
Continuous
 62
     0
440
 16777216
100
AcDbPoint
 10
620.4340687848572
 20
417.8256938178415
 30
0.0
  0
POINT
  5
16A
330
15F
100
AcDbEntity
  8
DEFPOINTS
  6
Continuous
 62
     0
440
 16777216
100
AcDbPoint
 10
630.4340513530855
 20
425.5851346035893
 30
0.0
  0
POINT
  5
16B
330
15F
100
AcDbEntity
  8
DEFPOINTS
  6
Continuous
 62
     0
440
 16777216
100
AcDbPoint
 10
630.4340513530855
 20
422.9024932998393
 30
0.0
  0
ENDBLK
  5
16C
330
15F
100
AcDbEntity
  8
0
100
AcDbBlockEnd
  0
BLOCK
  5
1A7
330
1A6
100
AcDbEntity
  8
0
100
AcDbBlockBegin
  2
*D19
 70
     1
 10
0.0
 20
0.0
 30
0.0
  3
*D19
  1

  0
LINE
  5
1A8
330
1A6
100
AcDbEntity
  8
BEMASSUNG
  6
Continuous
440
 16777216
370
    -2
100
AcDbLine
 10
619.6340687848572
 20
417.8256938178415
 30
0.0
 11
602.9446532774518
 21
417.8256938178415
 31
0.0
  0
LINE
  5
1A9
330
1A6
100
AcDbEntity
  8
BEMASSUNG
  6
Continuous
440
 16777216
370
    -2
100
AcDbLine
 10
632.6340513530831
 20
432.3257031729491
 30
0.0
 11
602.9446532774518
 21
432.3257031729491
 31
0.0
  0
LINE
  5
1AA
330
1A6
100
AcDbEntity
  8
BEMASSUNG
  6
Continuous
440
 16777216
370
    -2
100
AcDbLine
 10
603.7446532774517
 20
412.2256938178415
 30
0.0
 11
603.7446532774517
 21
406.6256938178415
 31
0.0
  0
LINE
  5
1AB
330
1A6
100
AcDbEntity
  8
BEMASSUNG
  6
Continuous
440
 16777216
370
    -2
100
AcDbLine
 10
603.7446532774517
 20
437.9257031729491
 30
0.0
 11
603.7446532774517
 21
443.5257031729491
 31
0.0
  0
LINE
  5
1AC
330
1A6
100
AcDbEntity
  8
BEMASSUNG
  6
Continuous
440
 16777216
370
    -2
100
AcDbLine
 10
603.7446532774517
 20
417.8256938178415
 30
0.0
 11
603.7446532774517
 21
432.3257031729491
 31
0.0
  0
SOLID
  5
1AD
330
1A6
100
AcDbEntity
  8
BEMASSUNG
  6
Continuous
440
 16777216
100
AcDbTrace
 10
602.8113199441182
 20
412.2256938178415
 30
0.0
 11
604.6779866107849
 21
412.2256938178415
 31
0.0
 12
603.7446532774517
 22
417.8256938178415
 32
0.0
 13
603.7446532774517
 23
417.8256938178415
 33
0.0
  0
SOLID
  5
1AE
330
1A6
100
AcDbEntity
  8
BEMASSUNG
  6
Continuous
440
 16777216
100
AcDbTrace
 10
602.8113199441182
 20
437.9257031729491
 30
0.0
 11
604.6779866107849
 21
437.9257031729491
 31
0.0
 12
603.7446532774517
 22
432.3257031729491
 32
0.0
 13
603.7446532774517
 23
432.3257031729491
 33
0.0
  0
MTEXT
  5
1AF
330
1A6
100
AcDbEntity
  8
BEMASSUNG
  6
Continuous
 62
     3
440
 16777216
100
AcDbMText
 10
599.3446532774514
 20
425.0756984953953
 30
0.0
 40
5.599999999999999
 41
0.0
 46
0.0
 71
     5
 72
     1
  1
\A1;14.5
  7
NORM
 11
0.0000000000000001
 21
1.0
 31
0.0
 73
     1
 44
1.0
  0
POINT
  5
1B0
330
1A6
100
AcDbEntity
  8
DEFPOINTS
  6
Continuous
 62
     0
440
 16777216
100
AcDbPoint
 10
620.4340687848572
 20
417.8256938178415
 30
0.0
  0
POINT
  5
1B1
330
1A6
100
AcDbEntity
  8
DEFPOINTS
  6
Continuous
 62
     0
440
 16777216
100
AcDbPoint
 10
633.4340513530831
 20
432.3257031729491
 30
0.0
  0
POINT
  5
1B2
330
1A6
100
AcDbEntity
  8
DEFPOINTS
  6
Continuous
 62
     0
440
 16777216
100
AcDbPoint
 10
603.7446532774517
 20
432.3257031729491
 30
0.0
  0
ENDBLK
  5
1B3
330
1A6
100
AcDbEntity
  8
0
100
AcDbBlockEnd
  0
BLOCK
  5
1B6
330
1B5
100
AcDbEntity
  8
0
100
AcDbBlockBegin
  2
*D20
 70
     1
 10
0.0
 20
0.0
 30
0.0
  3
*D20
  1

  0
LINE
  5
1B7
330
1B5
100
AcDbEntity
  8
BEMASSUNG
  6
Continuous
440
 16777216
370
    -2
100
AcDbLine
 10
619.6340687848572
 20
387.8256938178413
 30
0.0
 11
602.9482463933756
 21
387.8256938178413
 31
0.0
  0
LINE
  5
1B8
330
1B5
100
AcDbEntity
  8
BEMASSUNG
  6
Continuous
440
 16777216
370
    -2
100
AcDbLine
 10
619.6340687848572
 20
417.8256938178415
 30
0.0
 11
602.9482463933756
 21
417.8256938178415
 31
0.0
  0
LINE
  5
1B9
330
1B5
100
AcDbEntity
  8
BEMASSUNG
  6
Continuous
440
 16777216
370
    -2
100
AcDbLine
 10
603.7482463933756
 20
393.4256938178414
 30
0.0
 11
603.7482463933756
 21
412.2256938178415
 31
0.0
  0
MTEXT
  5
1BA
330
1B5
100
AcDbEntity
  8
BEMASSUNG
  6
Continuous
 62
     3
440
 16777216
100
AcDbMText
 10
598.5709079399071
 20
402.2373330204517
 30
0.0
 40
5.599999999999999
 41
0.0
 46
0.0
 71
     5
 72
     1
  1
\A1;30
  7
NORM
 11
0.0000000000000001
 21
1.0
 31
0.0
 73
     1
 44
1.0
  0
SOLID
  5
1BB
330
1B5
100
AcDbEntity
  8
BEMASSUNG
  6
Continuous
440
 16777216
100
AcDbTrace
 10
602.8149130600422
 20
393.4256938178414
 30
0.0
 11
604.6815797267089
 21
393.4256938178414
 31
0.0
 12
603.7482463933756
 22
387.8256938178413
 32
0.0
 13
603.7482463933756
 23
387.8256938178413
 33
0.0
  0
SOLID
  5
1BC
330
1B5
100
AcDbEntity
  8
BEMASSUNG
  6
Continuous
440
 16777216
100
AcDbTrace
 10
602.8149130600422
 20
412.2256938178415
 30
0.0
 11
604.6815797267089
 21
412.2256938178415
 31
0.0
 12
603.7482463933756
 22
417.8256938178415
 32
0.0
 13
603.7482463933756
 23
417.8256938178415
 33
0.0
  0
POINT
  5
1BD
330
1B5
100
AcDbEntity
  8
DEFPOINTS
  6
Continuous
 62
     0
440
 16777216
100
AcDbPoint
 10
620.4340687848572
 20
387.8256938178413
 30
0.0
  0
POINT
  5
1BE
330
1B5
100
AcDbEntity
  8
DEFPOINTS
  6
Continuous
 62
     0
440
 16777216
100
AcDbPoint
 10
620.4340687848572
 20
417.8256938178415
 30
0.0
  0
POINT
  5
1BF
330
1B5
100
AcDbEntity
  8
DEFPOINTS
  6
Continuous
 62
     0
440
 16777216
100
AcDbPoint
 10
603.7482463933756
 20
417.8256938178415
 30
0.0
  0
ENDBLK
  5
1C0
330
1B5
100
AcDbEntity
  8
0
100
AcDbBlockEnd
  0
BLOCK
  5
171
330
170
100
AcDbEntity
  8
0
100
AcDbBlockBegin
  2
*D21
 70
     1
 10
0.0
 20
0.0
 30
0.0
  3
*D21
  1

  0
LINE
  5
172
330
170
100
AcDbEntity
  8
BEMASSUNG
  6
Continuous
440
 16777216
370
    -2
100
AcDbLine
 10
629.6340513530848
 20
467.8257031729489
 30
0.0
 11
602.8693030766551
 21
467.8257031729489
 31
0.0
  0
LINE
  5
173
330
170
100
AcDbEntity
  8
BEMASSUNG
  6
Continuous
440
 16777216
370
    -2
100
AcDbLine
 10
632.6340513530831
 20
432.3257031729491
 30
0.0
 11
602.8693030766551
 21
432.3257031729491
 31
0.0
  0
LINE
  5
174
330
170
100
AcDbEntity
  8
BEMASSUNG
  6
Continuous
440
 16777216
370
    -2
100
AcDbLine
 10
603.6693030766549
 20
462.225703172949
 30
0.0
 11
603.6693030766549
 21
437.9257031729491
 31
0.0
  0
SOLID
  5
175
330
170
100
AcDbEntity
  8
BEMASSUNG
  6
Continuous
440
 16777216
100
AcDbTrace
 10
602.7359697433218
 20
462.225703172949
 30
0.0
 11
604.6026364099882
 21
462.225703172949
 31
0.0
 12
603.6693030766549
 22
467.8257031729489
 32
0.0
 13
603.6693030766549
 23
467.8257031729489
 33
0.0
  0
SOLID
  5
176
330
170
100
AcDbEntity
  8
BEMASSUNG
  6
Continuous
440
 16777216
100
AcDbTrace
 10
602.7359697433218
 20
437.9257031729491
 30
0.0
 11
604.6026364099882
 21
437.9257031729491
 31
0.0
 12
603.6693030766549
 22
432.3257031729491
 32
0.0
 13
603.6693030766549
 23
432.3257031729491
 33
0.0
  0
MTEXT
  5
177
330
170
100
AcDbEntity
  8
BEMASSUNG
  6
Continuous
 62
     3
440
 16777216
100
AcDbMText
 10
599.269303076655
 20
450.0757031729491
 30
0.0
 40
5.599999999999999
 41
0.0
 46
0.0
 71
     5
 72
     1
  1
\A1;35.5
  7
NORM
 11
0.0000000000000001
 21
1.0
 31
0.0
 73
     1
 44
1.0
  0
POINT
  5
178
330
170
100
AcDbEntity
  8
DEFPOINTS
  6
Continuous
 62
     0
440
 16777216
100
AcDbPoint
 10
630.4340513530847
 20
467.8257031729489
 30
0.0
  0
POINT
  5
179
330
170
100
AcDbEntity
  8
DEFPOINTS
  6
Continuous
 62
     0
440
 16777216
100
AcDbPoint
 10
633.4340513530831
 20
432.3257031729491
 30
0.0
  0
POINT
  5
17A
330
170
100
AcDbEntity
  8
DEFPOINTS
  6
Continuous
 62
     0
440
 16777216
100
AcDbPoint
 10
603.6693030766549
 20
432.3257031729491
 30
0.0
  0
ENDBLK
  5
17B
330
170
100
AcDbEntity
  8
0
100
AcDbBlockEnd
  0
BLOCK
  5
6C
330
6B
100
AcDbEntity
  8
0
100
AcDbBlockBegin
  2
*D22
 70
     1
 10
0.0
 20
0.0
 30
0.0
  3
*D22
  1

  0
LINE
  5
6D
330
6B
100
AcDbEntity
  8
BEMASSUNG
  6
Continuous
440
 16777216
370
    -2
100
AcDbLine
 10
799.2658817313849
 20
458.8257031729491
 30
0.0
 11
782.2526113294555
 21
458.8257031729491
 31
0.0
  0
LINE
  5
6E
330
6B
100
AcDbEntity
  8
BEMASSUNG
  6
Continuous
440
 16777216
370
    -2
100
AcDbLine
 10
806.0158817313848
 20
467.8257031729491
 30
0.0
 11
782.2526113294555
 21
467.8257031729491
 31
0.0
  0
LINE
  5
6F
330
6B
100
AcDbEntity
  8
BEMASSUNG
  6
Continuous
440
 16777216
370
    -2
100
AcDbLine
 10
783.0526113294555
 20
453.2257031729491
 30
0.0
 11
783.0526113294555
 21
447.6257031729491
 31
0.0
  0
LINE
  5
70
330
6B
100
AcDbEntity
  8
BEMASSUNG
  6
Continuous
440
 16777216
370
    -2
100
AcDbLine
 10
783.0526113294555
 20
473.4257031729491
 30
0.0
 11
783.0526113294555
 21
479.0257031729491
 31
0.0
  0
MTEXT
  5
71
330
6B
100
AcDbEntity
  8
BEMASSUNG
  6
Continuous
 62
     3
440
 16777216
100
AcDbMText
 10
778.6152286569622
 20
463.6151188980691
 30
0.0
 40
5.599999999999999
 41
0.0
 46
0.0
 71
     5
 72
     1
  1
\A1;9
  7
NORM
 11
0.0000000000000001
 21
1.0
 31
0.0
 73
     1
 44
1.0
  0
LINE
  5
72
330
6B
100
AcDbEntity
  8
BEMASSUNG
  6
Continuous
440
 16777216
370
    -2
100
AcDbLine
 10
783.0526113294555
 20
458.8257031729491
 30
0.0
 11
783.0526113294555
 21
467.8257031729491
 31
0.0
  0
SOLID
  5
73
330
6B
100
AcDbEntity
  8
BEMASSUNG
  6
Continuous
440
 16777216
100
AcDbTrace
 10
782.1192779961222
 20
453.2257031729491
 30
0.0
 11
783.9859446627887
 21
453.2257031729491
 31
0.0
 12
783.0526113294555
 22
458.8257031729491
 32
0.0
 13
783.0526113294555
 23
458.8257031729491
 33
0.0
  0
SOLID
  5
74
330
6B
100
AcDbEntity
  8
BEMASSUNG
  6
Continuous
440
 16777216
100
AcDbTrace
 10
782.1192779961222
 20
473.4257031729491
 30
0.0
 11
783.9859446627887
 21
473.4257031729491
 31
0.0
 12
783.0526113294555
 22
467.8257031729491
 32
0.0
 13
783.0526113294555
 23
467.8257031729491
 33
0.0
  0
POINT
  5
75
330
6B
100
AcDbEntity
  8
DEFPOINTS
  6
Continuous
 62
     0
440
 16777216
100
AcDbPoint
 10
800.0658817313849
 20
458.8257031729491
 30
0.0
  0
POINT
  5
76
330
6B
100
AcDbEntity
  8
DEFPOINTS
  6
Continuous
 62
     0
440
 16777216
100
AcDbPoint
 10
806.8158817313847
 20
467.8257031729491
 30
0.0
  0
POINT
  5
77
330
6B
100
AcDbEntity
  8
DEFPOINTS
  6
Continuous
 62
     0
440
 16777216
100
AcDbPoint
 10
783.0526113294555
 20
467.8257031729491
 30
0.0
  0
ENDBLK
  5
78
330
6B
100
AcDbEntity
  8
0
100
AcDbBlockEnd
  0
BLOCK
  5
7E
330
7D
100
AcDbEntity
  8
0
100
AcDbBlockBegin
  2
*D23
 70
     1
 10
0.0
 20
0.0
 30
0.0
  3
*D23
  1

  0
LINE
  5
7F
330
7D
100
AcDbEntity
  8
BEMASSUNG
  6
Continuous
440
 16777216
370
    -2
100
AcDbLine
 10
800.215881731385
 20
404.6930903967479
 30
0.0
 11
800.215881731385
 21
404.8947077700042
 31
0.0
  0
LINE
  5
80
330
7D
100
AcDbEntity
  8
BEMASSUNG
  6
Continuous
440
 16777216
370
    -2
100
AcDbLine
 10
796.8158817313849
 20
403.3955164566318
 30
0.0
 11
796.8158817313849
 21
403.2947077700042
 31
0.0
  0
LINE
  5
81
330
7D
100
AcDbEntity
  8
BEMASSUNG
  6
Continuous
440
 16777216
370
    -2
100
AcDbLine
 10
805.815881731385
 20
404.0947077700042
 30
0.0
 11
811.415881731385
 21
404.0947077700042
 31
0.0
  0
LINE
  5
82
330
7D
100
AcDbEntity
  8
BEMASSUNG
  6
Continuous
440
 16777216
370
    -2
100
AcDbLine
 10
791.2158817313849
 20
404.0947077700042
 30
0.0
 11
785.6158817313849
 21
404.0947077700042
 31
0.0
  0
MTEXT
  5
83
330
7D
100
AcDbEntity
  8
BEMASSUNG
  6
Continuous
 62
     3
440
 16777216
100
AcDbMText
 10
785.4050192671507
 20
408.465339494251
 30
0.0
 40
5.599999999999999
 41
0.0
 46
0.0
 71
     5
 72
     1
  1
\A1;3.4
  7
NORM
 73
     1
 44
1.0
  0
LINE
  5
84
330
7D
100
AcDbEntity
  8
BEMASSUNG
  6
Continuous
440
 16777216
370
    -2
100
AcDbLine
 10
800.215881731385
 20
404.0947077700042
 30
0.0
 11
796.8158817313849
 21
404.0947077700042
 31
0.0
  0
SOLID
  5
85
330
7D
100
AcDbEntity
  8
BEMASSUNG
  6
Continuous
440
 16777216
100
AcDbTrace
 10
805.815881731385
 20
405.0280411033375
 30
0.0
 11
805.815881731385
 21
403.1613744366707
 31
0.0
 12
800.215881731385
 22
404.0947077700042
 32
0.0
 13
800.215881731385
 23
404.0947077700042
 33
0.0
  0
SOLID
  5
86
330
7D
100
AcDbEntity
  8
BEMASSUNG
  6
Continuous
440
 16777216
100
AcDbTrace
 10
791.2158817313849
 20
405.0280411033375
 30
0.0
 11
791.2158817313849
 21
403.1613744366707
 31
0.0
 12
796.8158817313849
 22
404.0947077700042
 32
0.0
 13
796.8158817313849
 23
404.0947077700042
 33
0.0
  0
POINT
  5
87
330
7D
100
AcDbEntity
  8
DEFPOINTS
  6
Continuous
 62
     0
440
 16777216
100
AcDbPoint
 10
800.215881731385
 20
403.8930903967479
 30
0.0
  0
POINT
  5
88
330
7D
100
AcDbEntity
  8
DEFPOINTS
  6
Continuous
 62
     0
440
 16777216
100
AcDbPoint
 10
796.8158817313849
 20
404.1955164566318
 30
0.0
  0
POINT
  5
89
330
7D
100
AcDbEntity
  8
DEFPOINTS
  6
Continuous
 62
     0
440
 16777216
100
AcDbPoint
 10
796.8158817313849
 20
404.0947077700042
 30
0.0
  0
ENDBLK
  5
8A
330
7D
100
AcDbEntity
  8
0
100
AcDbBlockEnd
  0
BLOCK
  5
F0
330
EF
100
AcDbEntity
  8
0
100
AcDbBlockBegin
  2
*D24
 70
     1
 10
0.0
 20
0.0
 30
0.0
  3
*D24
  1

  0
LINE
  5
F1
330
EF
100
AcDbEntity
  8
BEMASSUNG
  6
Continuous
440
 16777216
370
    -2
100
AcDbLine
 10
685.9340513530849
 20
427.6257031729499
 30
0.0
 11
685.9340513530849
 21
443.7890593462162
 31
0.0
  0
LINE
  5
F2
330
EF
100
AcDbEntity
  8
BEMASSUNG
  6
Continuous
440
 16777216
370
    -2
100
AcDbLine
 10
694.9340513530849
 20
427.6257031729499
 30
0.0
 11
694.9340513530849
 21
443.7890593462162
 31
0.0
  0
LINE
  5
F3
330
EF
100
AcDbEntity
  8
BEMASSUNG
  6
Continuous
440
 16777216
370
    -2
100
AcDbLine
 10
680.3340513530847
 20
442.9890593462162
 30
0.0
 11
674.7340513530847
 21
442.9890593462162
 31
0.0
  0
LINE
  5
F4
330
EF
100
AcDbEntity
  8
BEMASSUNG
  6
Continuous
440
 16777216
370
    -2
100
AcDbLine
 10
700.5340513530849
 20
442.9890593462162
 30
0.0
 11
706.1340513530848
 21
442.9890593462162
 31
0.0
  0
MTEXT
  5
F5
330
EF
100
AcDbEntity
  8
BEMASSUNG
  6
Continuous
 62
     3
440
 16777216
100
AcDbMText
 10
690.141232734818
 20
447.9759718193474
 30
0.0
 40
5.599999999999999
 41
0.0
 46
0.0
 71
     5
 72
     1
  1
\A1;9
  7
NORM
 73
     1
 44
1.0
  0
LINE
  5
F6
330
EF
100
AcDbEntity
  8
BEMASSUNG
  6
Continuous
440
 16777216
370
    -2
100
AcDbLine
 10
685.9340513530849
 20
442.9890593462162
 30
0.0
 11
694.9340513530849
 21
442.9890593462162
 31
0.0
  0
SOLID
  5
F7
330
EF
100
AcDbEntity
  8
BEMASSUNG
  6
Continuous
440
 16777216
100
AcDbTrace
 10
680.3340513530847
 20
443.9223926795494
 30
0.0
 11
680.3340513530847
 21
442.0557260128828
 31
0.0
 12
685.9340513530849
 22
442.9890593462162
 32
0.0
 13
685.9340513530849
 23
442.9890593462162
 33
0.0
  0
SOLID
  5
F8
330
EF
100
AcDbEntity
  8
BEMASSUNG
  6
Continuous
440
 16777216
100
AcDbTrace
 10
700.5340513530849
 20
443.9223926795494
 30
0.0
 11
700.5340513530849
 21
442.0557260128828
 31
0.0
 12
694.9340513530849
 22
442.9890593462162
 32
0.0
 13
694.9340513530849
 23
442.9890593462162
 33
0.0
  0
POINT
  5
F9
330
EF
100
AcDbEntity
  8
DEFPOINTS
  6
Continuous
 62
     0
440
 16777216
100
AcDbPoint
 10
685.9340513530849
 20
426.8257031729499
 30
0.0
  0
POINT
  5
FA
330
EF
100
AcDbEntity
  8
DEFPOINTS
  6
Continuous
 62
     0
440
 16777216
100
AcDbPoint
 10
694.9340513530849
 20
426.8257031729499
 30
0.0
  0
POINT
  5
FB
330
EF
100
AcDbEntity
  8
DEFPOINTS
  6
Continuous
 62
     0
440
 16777216
100
AcDbPoint
 10
694.9340513530849
 20
442.9890593462162
 30
0.0
  0
ENDBLK
  5
FC
330
EF
100
AcDbEntity
  8
0
100
AcDbBlockEnd
  0
BLOCK
  5
132
330
131
100
AcDbEntity
  8
0
100
AcDbBlockBegin
  2
*D25
 70
     1
 10
0.0
 20
0.0
 30
0.0
  3
*D25
  1

  0
LINE
  5
133
330
131
100
AcDbEntity
  8
BEMASSUNG
  6
Continuous
440
 16777216
370
    -2
100
AcDbLine
 10
702.4340513530845
 20
432.3257031729501
 30
0.0
 11
746.5046541466862
 21
432.3257031729501
 31
0.0
  0
LINE
  5
134
330
131
100
AcDbEntity
  8
BEMASSUNG
  6
Continuous
440
 16777216
370
    -2
100
AcDbLine
 10
714.8340513530847
 20
380.82570317295
 30
0.0
 11
746.5046541466862
 21
380.82570317295
 31
0.0
  0
LINE
  5
135
330
131
100
AcDbEntity
  8
BEMASSUNG
  6
Continuous
440
 16777216
370
    -2
100
AcDbLine
 10
745.7046541466862
 20
426.7257031729501
 30
0.0
 11
745.7046541466862
 21
386.42570317295
 31
0.0
  0
SOLID
  5
136
330
131
100
AcDbEntity
  8
BEMASSUNG
  6
Continuous
440
 16777216
100
AcDbTrace
 10
744.771320813353
 20
426.7257031729501
 30
0.0
 11
746.6379874800195
 21
426.7257031729501
 31
0.0
 12
745.7046541466862
 22
432.3257031729501
 32
0.0
 13
745.7046541466862
 23
432.3257031729501
 33
0.0
  0
SOLID
  5
137
330
131
100
AcDbEntity
  8
BEMASSUNG
  6
Continuous
440
 16777216
100
AcDbTrace
 10
744.771320813353
 20
386.42570317295
 30
0.0
 11
746.6379874800195
 21
386.42570317295
 31
0.0
 12
745.7046541466862
 22
380.82570317295
 32
0.0
 13
745.7046541466862
 23
380.82570317295
 33
0.0
  0
MTEXT
  5
138
330
131
100
AcDbEntity
  8
BEMASSUNG
  6
Continuous
 62
     3
440
 16777216
100
AcDbMText
 10
741.3046541466862
 20
406.5757031729502
 30
0.0
 40
5.599999999999999
 41
0.0
 46
0.0
 71
     5
 72
     1
  1
\A1;51.5
  7
NORM
 11
0.0000000000000001
 21
1.0
 31
0.0
 73
     1
 44
1.0
  0
POINT
  5
139
330
131
100
AcDbEntity
  8
DEFPOINTS
  6
Continuous
 62
     0
440
 16777216
100
AcDbPoint
 10
701.6340513530847
 20
432.3257031729501
 30
0.0
  0
POINT
  5
13A
330
131
100
AcDbEntity
  8
DEFPOINTS
  6
Continuous
 62
     0
440
 16777216
100
AcDbPoint
 10
714.0340513530847
 20
380.82570317295
 30
0.0
  0
POINT
  5
13B
330
131
100
AcDbEntity
  8
DEFPOINTS
  6
Continuous
 62
     0
440
 16777216
100
AcDbPoint
 10
745.7046541466862
 20
380.82570317295
 30
0.0
  0
ENDBLK
  5
13C
330
131
100
AcDbEntity
  8
0
100
AcDbBlockEnd
  0
BLOCK
  5
13F
330
13E
100
AcDbEntity
  8
0
100
AcDbBlockBegin
  2
*D26
 70
     1
 10
0.0
 20
0.0
 30
0.0
  3
*D26
  1

  0
LINE
  5
140
330
13E
100
AcDbEntity
  8
BEMASSUNG
  6
Continuous
440
 16777216
370
    -2
100
AcDbLine
 10
714.8340513530847
 20
380.82570317295
 30
0.0
 11
735.2647051238057
 21
380.82570317295
 31
0.0
  0
LINE
  5
141
330
13E
100
AcDbEntity
  8
BEMASSUNG
  6
Continuous
440
 16777216
370
    -2
100
AcDbLine
 10
698.2340513530847
 20
426.8257031729499
 30
0.0
 11
735.2647051238057
 21
426.8257031729499
 31
0.0
  0
LINE
  5
142
330
13E
100
AcDbEntity
  8
BEMASSUNG
  6
Continuous
440
 16777216
370
    -2
100
AcDbLine
 10
734.4647051238057
 20
386.42570317295
 30
0.0
 11
734.4647051238057
 21
421.2257031729499
 31
0.0
  0
SOLID
  5
143
330
13E
100
AcDbEntity
  8
BEMASSUNG
  6
Continuous
440
 16777216
100
AcDbTrace
 10
733.5313717904726
 20
386.42570317295
 30
0.0
 11
735.3980384571391
 21
386.42570317295
 31
0.0
 12
734.4647051238057
 22
380.82570317295
 32
0.0
 13
734.4647051238057
 23
380.82570317295
 33
0.0
  0
SOLID
  5
144
330
13E
100
AcDbEntity
  8
BEMASSUNG
  6
Continuous
440
 16777216
100
AcDbTrace
 10
733.5313717904726
 20
421.2257031729499
 30
0.0
 11
735.3980384571391
 21
421.2257031729499
 31
0.0
 12
734.4647051238057
 22
426.8257031729499
 32
0.0
 13
734.4647051238057
 23
426.8257031729499
 33
0.0
  0
MTEXT
  5
145
330
13E
100
AcDbEntity
  8
BEMASSUNG
  6
Continuous
 62
     3
440
 16777216
100
AcDbMText
 10
730.0647051238057
 20
403.8257031729499
 30
0.0
 40
5.599999999999999
 41
0.0
 46
0.0
 71
     5
 72
     1
  1
\A1;46
  7
NORM
 11
0.0000000000000001
 21
1.0
 31
0.0
 73
     1
 44
1.0
  0
POINT
  5
146
330
13E
100
AcDbEntity
  8
DEFPOINTS
  6
Continuous
 62
     0
440
 16777216
100
AcDbPoint
 10
714.0340513530847
 20
380.82570317295
 30
0.0
  0
POINT
  5
147
330
13E
100
AcDbEntity
  8
DEFPOINTS
  6
Continuous
 62
     0
440
 16777216
100
AcDbPoint
 10
697.4340513530846
 20
426.8257031729499
 30
0.0
  0
POINT
  5
148
330
13E
100
AcDbEntity
  8
DEFPOINTS
  6
Continuous
 62
     0
440
 16777216
100
AcDbPoint
 10
734.4647051238057
 20
426.8257031729499
 30
0.0
  0
ENDBLK
  5
149
330
13E
100
AcDbEntity
  8
0
100
AcDbBlockEnd
  0
BLOCK
  5
14C
330
14B
100
AcDbEntity
  8
0
100
AcDbBlockBegin
  2
*D27
 70
     1
 10
0.0
 20
0.0
 30
0.0
  3
*D27
  1

  0
LINE
  5
14D
330
14B
100
AcDbEntity
  8
BEMASSUNG
  6
Continuous
440
 16777216
370
    -2
100
AcDbLine
 10
671.4340513530847
 20
386.2257031729502
 30
0.0
 11
671.4340513530847
 21
405.5115768776017
 31
0.0
  0
LINE
  5
14E
330
14B
100
AcDbEntity
  8
BEMASSUNG
  6
Continuous
440
 16777216
370
    -2
100
AcDbLine
 10
709.4340513530847
 20
386.2257031729502
 30
0.0
 11
709.4340513530847
 21
405.5115768776017
 31
0.0
  0
LINE
  5
14F
330
14B
100
AcDbEntity
  8
BEMASSUNG
  6
Continuous
440
 16777216
370
    -2
100
AcDbLine
 10
677.0340513530847
 20
404.7115768776017
 30
0.0
 11
703.8340513530847
 21
404.7115768776017
 31
0.0
  0
SOLID
  5
150
330
14B
100
AcDbEntity
  8
BEMASSUNG
  6
Continuous
440
 16777216
100
AcDbTrace
 10
677.0340513530847
 20
405.644910210935
 30
0.0
 11
677.0340513530847
 21
403.7782435442683
 31
0.0
 12
671.4340513530847
 22
404.7115768776017
 32
0.0
 13
671.4340513530847
 23
404.7115768776017
 33
0.0
  0
SOLID
  5
151
330
14B
100
AcDbEntity
  8
BEMASSUNG
  6
Continuous
440
 16777216
100
AcDbTrace
 10
703.8340513530847
 20
405.644910210935
 30
0.0
 11
703.8340513530847
 21
403.7782435442683
 31
0.0
 12
709.4340513530847
 22
404.7115768776017
 32
0.0
 13
709.4340513530847
 23
404.7115768776017
 33
0.0
  0
MTEXT
  5
152
330
14B
100
AcDbEntity
  8
BEMASSUNG
  6
Continuous
 62
     3
440
 16777216
100
AcDbMText
 10
690.4340513530849
 20
409.1115768776017
 30
0.0
 40
5.599999999999999
 41
0.0
 46
0.0
 71
     5
 72
     1
  1
\A1;38
  7
NORM
 73
     1
 44
1.0
  0
POINT
  5
153
330
14B
100
AcDbEntity
  8
DEFPOINTS
  6
Continuous
 62
     0
440
 16777216
100
AcDbPoint
 10
671.4340513530847
 20
385.4257031729501
 30
0.0
  0
POINT
  5
154
330
14B
100
AcDbEntity
  8
DEFPOINTS
  6
Continuous
 62
     0
440
 16777216
100
AcDbPoint
 10
709.4340513530847
 20
385.4257031729501
 30
0.0
  0
POINT
  5
155
330
14B
100
AcDbEntity
  8
DEFPOINTS
  6
Continuous
 62
     0
440
 16777216
100
AcDbPoint
 10
709.4340513530847
 20
404.7115768776017
 30
0.0
  0
ENDBLK
  5
156
330
14B
100
AcDbEntity
  8
0
100
AcDbBlockEnd
  0
BLOCK
  5
10C
330
10B
100
AcDbEntity
  8
0
100
AcDbBlockBegin
  2
*D28
 70
     1
 10
0.0
 20
0.0
 30
0.0
  3
*D28
  1

  0
LINE
  5
10D
330
10B
100
AcDbEntity
  8
BEMASSUNG
  6
Continuous
440
 16777216
370
    -2
100
AcDbLine
 10
694.4340513530846
 20
385.6257031729505
 30
0.0
 11
694.4340513530846
 21
391.4186259306899
 31
0.0
  0
LINE
  5
10E
330
10B
100
AcDbEntity
  8
BEMASSUNG
  6
Continuous
440
 16777216
370
    -2
100
AcDbLine
 10
686.4340513530849
 20
385.6257031729503
 30
0.0
 11
686.4340513530849
 21
391.4186259306899
 31
0.0
  0
LINE
  5
10F
330
10B
100
AcDbEntity
  8
BEMASSUNG
  6
Continuous
440
 16777216
370
    -2
100
AcDbLine
 10
700.0340513530846
 20
390.6186259306899
 30
0.0
 11
705.6340513530847
 21
390.6186259306899
 31
0.0
  0
LINE
  5
110
330
10B
100
AcDbEntity
  8
BEMASSUNG
  6
Continuous
440
 16777216
370
    -2
100
AcDbLine
 10
680.8340513530849
 20
390.6186259306899
 30
0.0
 11
675.2340513530847
 21
390.6186259306899
 31
0.0
  0
MTEXT
  5
111
330
10B
100
AcDbEntity
  8
BEMASSUNG
  6
Continuous
 62
     3
440
 16777216
100
AcDbMText
 10
678.7185404746078
 20
395.4117212561178
 30
0.0
 40
5.599999999999999
 41
0.0
 46
0.0
 71
     5
 72
     1
  1
\A1;9
  7
NORM
 73
     1
 44
1.0
  0
LINE
  5
112
330
10B
100
AcDbEntity
  8
BEMASSUNG
  6
Continuous
440
 16777216
370
    -2
100
AcDbLine
 10
694.4340513530846
 20
390.6186259306899
 30
0.0
 11
686.4340513530849
 21
390.6186259306899
 31
0.0
  0
SOLID
  5
113
330
10B
100
AcDbEntity
  8
BEMASSUNG
  6
Continuous
440
 16777216
100
AcDbTrace
 10
700.0340513530846
 20
391.5519592640232
 30
0.0
 11
700.0340513530846
 21
389.6852925973565
 31
0.0
 12
694.4340513530846
 22
390.6186259306899
 32
0.0
 13
694.4340513530846
 23
390.6186259306899
 33
0.0
  0
SOLID
  5
114
330
10B
100
AcDbEntity
  8
BEMASSUNG
  6
Continuous
440
 16777216
100
AcDbTrace
 10
680.8340513530849
 20
391.5519592640232
 30
0.0
 11
680.8340513530849
 21
389.6852925973565
 31
0.0
 12
686.4340513530849
 22
390.6186259306899
 32
0.0
 13
686.4340513530849
 23
390.6186259306899
 33
0.0
  0
POINT
  5
115
330
10B
100
AcDbEntity
  8
DEFPOINTS
  6
Continuous
 62
     0
440
 16777216
100
AcDbPoint
 10
694.4340513530846
 20
384.8257031729505
 30
0.0
  0
POINT
  5
116
330
10B
100
AcDbEntity
  8
DEFPOINTS
  6
Continuous
 62
     0
440
 16777216
100
AcDbPoint
 10
686.4340513530849
 20
384.8257031729503
 30
0.0
  0
POINT
  5
117
330
10B
100
AcDbEntity
  8
DEFPOINTS
  6
Continuous
 62
     0
440
 16777216
100
AcDbPoint
 10
686.4340513530849
 20
390.6186259306899
 30
0.0
  0
ENDBLK
  5
118
330
10B
100
AcDbEntity
  8
0
100
AcDbBlockEnd
  0
BLOCK
  5
8E
330
8D
100
AcDbEntity
  8
0
100
AcDbBlockBegin
  2
*D29
 70
     1
 10
0.0
 20
0.0
 30
0.0
  3
*D29
  1

  0
LINE
  5
8F
330
8D
100
AcDbEntity
  8
BEMASSUNG
  6
Continuous
440
 16777216
370
    -2
100
AcDbLine
 10
800.215881731385
 20
386.9257031729499
 30
0.0
 11
800.215881731385
 21
372.4918346438639
 31
0.0
  0
LINE
  5
90
330
8D
100
AcDbEntity
  8
BEMASSUNG
  6
Continuous
440
 16777216
370
    -2
100
AcDbLine
 10
811.2158817313851
 20
389.4257031729499
 30
0.0
 11
811.2158817313851
 21
372.4918346438639
 31
0.0
  0
LINE
  5
91
330
8D
100
AcDbEntity
  8
BEMASSUNG
  6
Continuous
440
 16777216
370
    -2
100
AcDbLine
 10
794.6158817313849
 20
373.2918346438639
 30
0.0
 11
789.0158817313849
 21
373.2918346438639
 31
0.0
  0
LINE
  5
92
330
8D
100
AcDbEntity
  8
BEMASSUNG
  6
Continuous
440
 16777216
370
    -2
100
AcDbLine
 10
816.8158817313852
 20
373.2918346438639
 30
0.0
 11
822.4158817313851
 21
373.2918346438639
 31
0.0
  0
MTEXT
  5
93
330
8D
100
AcDbEntity
  8
BEMASSUNG
  6
Continuous
 62
     3
440
 16777216
100
AcDbMText
 10
804.9818012810042
 20
377.8020564890197
 30
0.0
 40
5.599999999999999
 41
0.0
 46
0.0
 71
     5
 72
     1
  1
\A1;11
  7
NORM
 73
     1
 44
1.0
  0
LINE
  5
94
330
8D
100
AcDbEntity
  8
BEMASSUNG
  6
Continuous
440
 16777216
370
    -2
100
AcDbLine
 10
800.215881731385
 20
373.2918346438639
 30
0.0
 11
811.2158817313851
 21
373.2918346438639
 31
0.0
  0
SOLID
  5
95
330
8D
100
AcDbEntity
  8
BEMASSUNG
  6
Continuous
440
 16777216
100
AcDbTrace
 10
794.6158817313849
 20
374.2251679771972
 30
0.0
 11
794.6158817313849
 21
372.3585013105306
 31
0.0
 12
800.215881731385
 22
373.2918346438639
 32
0.0
 13
800.215881731385
 23
373.2918346438639
 33
0.0
  0
SOLID
  5
96
330
8D
100
AcDbEntity
  8
BEMASSUNG
  6
Continuous
440
 16777216
100
AcDbTrace
 10
816.8158817313852
 20
374.2251679771972
 30
0.0
 11
816.8158817313852
 21
372.3585013105306
 31
0.0
 12
811.2158817313851
 22
373.2918346438639
 32
0.0
 13
811.2158817313851
 23
373.2918346438639
 33
0.0
  0
POINT
  5
97
330
8D
100
AcDbEntity
  8
DEFPOINTS
  6
Continuous
 62
     0
440
 16777216
100
AcDbPoint
 10
800.215881731385
 20
387.7257031729499
 30
0.0
  0
POINT
  5
98
330
8D
100
AcDbEntity
  8
DEFPOINTS
  6
Continuous
 62
     0
440
 16777216
100
AcDbPoint
 10
811.2158817313851
 20
390.2257031729498
 30
0.0
  0
POINT
  5
99
330
8D
100
AcDbEntity
  8
DEFPOINTS
  6
Continuous
 62
     0
440
 16777216
100
AcDbPoint
 10
811.2158817313851
 20
373.2918346438639
 30
0.0
  0
ENDBLK
  5
9A
330
8D
100
AcDbEntity
  8
0
100
AcDbBlockEnd
  0
BLOCK
  5
50
330
4F
100
AcDbEntity
  8
0
100
AcDbBlockBegin
  2
*D30
 70
     1
 10
0.0
 20
0.0
 30
0.0
  3
*D30
  1

  0
LINE
  5
51
330
4F
100
AcDbEntity
  8
BEMASSUNG
  6
Continuous
440
 16777216
370
    -2
100
AcDbLine
 10
796.8158817313849
 20
245.1257031729495
 30
0.0
 11
796.8158817313849
 21
239.5257031729495
 31
0.0
  0
LINE
  5
52
330
4F
100
AcDbEntity
  8
BEMASSUNG
  6
Continuous
440
 16777216
370
    -2
100
AcDbLine
 10
816.8158817313846
 20
247.0257031729495
 30
0.0
 11
816.8158817313846
 21
211.7445514563057
 31
0.0
  0
LINE
  5
53
330
4F
100
AcDbEntity
  8
BEMASSUNG
  6
Continuous
440
 16777216
370
    -2
100
AcDbLine
 10
791.2158817313849
 20
212.5445514563057
 30
0.0
 11
785.6158817313849
 21
212.5445514563057
 31
0.0
  0
LINE
  5
54
330
4F
100
AcDbEntity
  8
BEMASSUNG
  6
Continuous
440
 16777216
370
    -2
100
AcDbLine
 10
822.4158817313847
 20
212.5445514563057
 30
0.0
 11
828.015881731385
 21
212.5445514563057
 31
0.0
  0
LINE
  5
55
330
4F
100
AcDbEntity
  8
BEMASSUNG
  6
Continuous
440
 16777216
370
    -2
100
AcDbLine
 10
796.8158817313849
 20
212.5445514563057
 30
0.0
 11
816.8158817313846
 21
212.5445514563057
 31
0.0
  0
SOLID
  5
56
330
4F
100
AcDbEntity
  8
BEMASSUNG
  6
Continuous
440
 16777216
100
AcDbTrace
 10
791.2158817313849
 20
213.4778847896391
 30
0.0
 11
791.2158817313849
 21
211.6112181229724
 31
0.0
 12
796.8158817313849
 22
212.5445514563057
 32
0.0
 13
796.8158817313849
 23
212.5445514563057
 33
0.0
  0
SOLID
  5
57
330
4F
100
AcDbEntity
  8
BEMASSUNG
  6
Continuous
440
 16777216
100
AcDbTrace
 10
822.4158817313847
 20
213.4778847896391
 30
0.0
 11
822.4158817313847
 21
211.6112181229724
 31
0.0
 12
816.8158817313846
 22
212.5445514563057
 32
0.0
 13
816.8158817313846
 23
212.5445514563057
 33
0.0
  0
MTEXT
  5
58
330
4F
100
AcDbEntity
  8
BEMASSUNG
  6
Continuous
 62
     3
440
 16777216
100
AcDbMText
 10
806.8158817313847
 20
218.4112181229724
 30
0.0
 40
5.599999999999999
 41
0.0
 46
0.0
 71
     5
 72
     1
  1
\A1;18/20
  7
NORM
 73
     1
 44
1.0
  0
POINT
  5
59
330
4F
100
AcDbEntity
  8
DEFPOINTS
  6
Continuous
 62
     0
440
 16777216
100
AcDbPoint
 10
796.8158817313849
 20
247.8257031729495
 30
0.0
  0
POINT
  5
5A
330
4F
100
AcDbEntity
  8
DEFPOINTS
  6
Continuous
 62
     0
440
 16777216
100
AcDbPoint
 10
816.8158817313846
 20
247.8257031729495
 30
0.0
  0
POINT
  5
5B
330
4F
100
AcDbEntity
  8
DEFPOINTS
  6
Continuous
 62
     0
440
 16777216
100
AcDbPoint
 10
816.8158817313846
 20
212.5445514563057
 30
0.0
  0
LINE
  5
5C
330
4F
100
AcDbEntity
  8
BEMASSUNG
  6
Continuous
440
 16777216
370
    -2
100
AcDbLine
 10
796.8158817313849
 20
236.1257031729495
 30
0.0
 11
796.8158817313849
 21
211.7445514563057
 31
0.0
  0
ENDBLK
  5
5D
330
4F
100
AcDbEntity
  8
0
100
AcDbBlockEnd
  0
BLOCK
  5
41
330
40
100
AcDbEntity
  8
0
100
AcDbBlockBegin
  2
*D31
 70
     1
 10
0.0
 20
0.0
 30
0.0
  3
*D31
  1

  0
LINE
  5
42
330
40
100
AcDbEntity
  8
BEMASSUNG
  6
Continuous
440
 16777216
370
    -2
100
AcDbLine
 10
633.4340513530844
 20
237.0257031729494
 30
0.0
 11
633.4340513530844
 21
220.5566791059054
 31
0.0
  0
LINE
  5
43
330
40
100
AcDbEntity
  8
BEMASSUNG
  6
Continuous
440
 16777216
370
    -2
100
AcDbLine
 10
690.4340513530849
 20
275.7257031729495
 30
0.0
 11
690.4340513530849
 21
220.5566791059054
 31
0.0
  0
LINE
  5
44
330
40
100
AcDbEntity
  8
BEMASSUNG
  6
Continuous
440
 16777216
370
    -2
100
AcDbLine
 10
639.0340513530844
 20
221.3566791059054
 30
0.0
 11
684.8340513530849
 21
221.3566791059054
 31
0.0
  0
SOLID
  5
45
330
40
100
AcDbEntity
  8
BEMASSUNG
  6
Continuous
440
 16777216
100
AcDbTrace
 10
639.0340513530844
 20
222.2900124392388
 30
0.0
 11
639.0340513530844
 21
220.4233457725721
 31
0.0
 12
633.4340513530844
 22
221.3566791059054
 32
0.0
 13
633.4340513530844
 23
221.3566791059054
 33
0.0
  0
SOLID
  5
46
330
40
100
AcDbEntity
  8
BEMASSUNG
  6
Continuous
440
 16777216
100
AcDbTrace
 10
684.8340513530849
 20
222.2900124392388
 30
0.0
 11
684.8340513530849
 21
220.4233457725721
 31
0.0
 12
690.4340513530849
 22
221.3566791059054
 32
0.0
 13
690.4340513530849
 23
221.3566791059054
 33
0.0
  0
MTEXT
  5
47
330
40
100
AcDbEntity
  8
BEMASSUNG
  6
Continuous
 62
     3
440
 16777216
100
AcDbMText
 10
661.9340513530846
 20
225.7566791059054
 30
0.0
 40
5.599999999999999
 41
0.0
 46
0.0
 71
     5
 72
     1
  1
\A1;DM
  7
NORM
 73
     1
 44
1.0
  0
POINT
  5
48
330
40
100
AcDbEntity
  8
DEFPOINTS
  6
Continuous
 62
     0
440
 16777216
100
AcDbPoint
 10
633.4340513530844
 20
237.8257031729494
 30
0.0
  0
POINT
  5
49
330
40
100
AcDbEntity
  8
DEFPOINTS
  6
Continuous
 62
     0
440
 16777216
100
AcDbPoint
 10
690.4340513530849
 20
276.5257031729495
 30
0.0
  0
POINT
  5
4A
330
40
100
AcDbEntity
  8
DEFPOINTS
  6
Continuous
 62
     0
440
 16777216
100
AcDbPoint
 10
690.4340513530849
 20
221.3566791059054
 30
0.0
  0
ENDBLK
  5
4B
330
40
100
AcDbEntity
  8
0
100
AcDbBlockEnd
  0
BLOCK
  5
33
330
32
100
AcDbEntity
  8
0
100
AcDbBlockBegin
  2
*D32
 70
     1
 10
0.0
 20
0.0
 30
0.0
  3
*D32
  1

  0
LINE
  5
34
330
32
100
AcDbEntity
  8
BEMASSUNG
  6
Continuous
440
 16777216
370
    -2
100
AcDbLine
 10
690.4340513530849
 20
275.7257031729495
 30
0.0
 11
690.4340513530849
 21
220.5566791059054
 31
0.0
  0
LINE
  5
35
330
32
100
AcDbEntity
  8
BEMASSUNG
  6
Continuous
440
 16777216
370
    -2
100
AcDbLine
 10
719.4340513530844
 20
291.6470235165096
 30
0.0
 11
719.4340513530844
 21
220.5566791059054
 31
0.0
  0
LINE
  5
36
330
32
100
AcDbEntity
  8
BEMASSUNG
  6
Continuous
440
 16777216
370
    -2
100
AcDbLine
 10
696.0340513530849
 20
221.3566791059054
 30
0.0
 11
713.8340513530843
 21
221.3566791059054
 31
0.0
  0
SOLID
  5
37
330
32
100
AcDbEntity
  8
BEMASSUNG
  6
Continuous
440
 16777216
100
AcDbTrace
 10
696.0340513530849
 20
222.2900124392388
 30
0.0
 11
696.0340513530849
 21
220.4233457725721
 31
0.0
 12
690.4340513530849
 22
221.3566791059054
 32
0.0
 13
690.4340513530849
 23
221.3566791059054
 33
0.0
  0
SOLID
  5
38
330
32
100
AcDbEntity
  8
BEMASSUNG
  6
Continuous
440
 16777216
100
AcDbTrace
 10
713.8340513530843
 20
222.2900124392388
 30
0.0
 11
713.8340513530843
 21
220.4233457725721
 31
0.0
 12
719.4340513530844
 22
221.3566791059054
 32
0.0
 13
719.4340513530844
 23
221.3566791059054
 33
0.0
  0
MTEXT
  5
39
330
32
100
AcDbEntity
  8
BEMASSUNG
  6
Continuous
 62
     3
440
 16777216
100
AcDbMText
 10
704.9340513530847
 20
225.7566791059054
 30
0.0
 40
5.599999999999999
 41
0.0
 46
0.0
 71
     5
 72
     1
  1
\A1;29
  7
NORM
 73
     1
 44
1.0
  0
POINT
  5
3A
330
32
100
AcDbEntity
  8
DEFPOINTS
  6
Continuous
 62
     0
440
 16777216
100
AcDbPoint
 10
690.4340513530849
 20
276.5257031729495
 30
0.0
  0
POINT
  5
3C
330
32
100
AcDbEntity
  8
DEFPOINTS
  6
Continuous
 62
     0
440
 16777216
100
AcDbPoint
 10
719.4340513530844
 20
292.4470235165097
 30
0.0
  0
POINT
  5
3D
330
32
100
AcDbEntity
  8
DEFPOINTS
  6
Continuous
 62
     0
440
 16777216
100
AcDbPoint
 10
719.4340513530844
 20
221.3566791059054
 30
0.0
  0
ENDBLK
  5
3E
330
32
100
AcDbEntity
  8
0
100
AcDbBlockEnd
  0
BLOCK
  5
3B9
330
3B7
100
AcDbEntity
  8
0
100
AcDbBlockBegin
  2
GENAXEH
 70
     0
 10
0.0
 20
0.0
 30
0.0
  3
GENAXEH
  1

  0
LINE
  5
3B8
330
3B7
100
AcDbEntity
  8
0
100
AcDbLine
 10
-1.0
 20
0.0
 30
0.0
 11
1.0
 21
0.0
 31
0.0
  0
ENDBLK
  5
3BA
330
3B7
100
AcDbEntity
  8
0
100
AcDbBlockEnd
  0
BLOCK
  5
3C9
330
3C8
100
AcDbEntity
  8
0
100
AcDbBlockBegin
  2
_ACMFILLED30
 70
     0
 10
0.0
 20
0.0
 30
0.0
  3
_ACMFILLED30
  1

  0
TRACE
  5
3CB
330
3C8
100
AcDbEntity
  8
UMRISS07
 62
     0
100
AcDbTrace
 10
-1.0
 20
-0.26794919
 30
0.0
 11
-1.0
 21
0.26794919
 31
0.0
 12
0.0
 22
0.0
 32
0.0
 13
0.0
 23
0.0
 33
0.0
  0
ENDBLK
  5
3CA
330
3C8
100
AcDbEntity
  8
0
100
AcDbBlockEnd
  0
BLOCK
  5
3E2
330
3E1
100
AcDbEntity
  8
0
100
AcDbBlockBegin
  2
*D36
 70
     1
 10
0.0
 20
0.0
 30
0.0
  3
*D36
  1

  0
LINE
  5
3E3
330
3E1
100
AcDbEntity
  8
BEMASSUNG
  6
Continuous
 62
     2
440
 16777216
370
    -2
100
AcDbLine
 10
318.1567173209517
 20
230.7180916187676
 30
0.0
 11
318.1567173209517
 21
218.259279033045
 31
0.0
  0
LINE
  5
3E4
330
3E1
100
AcDbEntity
  8
BEMASSUNG
  6
Continuous
 62
     2
440
 16777216
370
    -2
100
AcDbLine
 10
340.1567173209516
 20
230.7180916187677
 30
0.0
 11
340.1567173209516
 21
218.259279033045
 31
0.0
  0
LINE
  5
3E5
330
3E1
100
AcDbEntity
  8
BEMASSUNG
  6
Continuous
 62
     2
440
 16777216
370
    -2
100
AcDbLine
 10
322.1567173209517
 20
219.259279033045
 30
0.0
 11
336.1567173209516
 21
219.259279033045
 31
0.0
  0
SOLID
  5
3E6
330
3E1
100
AcDbEntity
  8
BEMASSUNG
  6
Continuous
 62
     2
440
 16777216
100
AcDbTrace
 10
322.1567173209517
 20
219.9259456997117
 30
0.0
 11
322.1567173209517
 21
218.5926123663783
 31
0.0
 12
318.1567173209517
 22
219.259279033045
 32
0.0
 13
318.1567173209517
 23
219.259279033045
 33
0.0
  0
SOLID
  5
3E7
330
3E1
100
AcDbEntity
  8
BEMASSUNG
  6
Continuous
 62
     2
440
 16777216
100
AcDbTrace
 10
336.1567173209516
 20
219.9259456997117
 30
0.0
 11
336.1567173209516
 21
218.5926123663783
 31
0.0
 12
340.1567173209516
 22
219.259279033045
 32
0.0
 13
340.1567173209516
 23
219.259279033045
 33
0.0
  0
MTEXT
  5
3E8
330
3E1
100
AcDbEntity
  8
BEMASSUNG
  6
Continuous
 62
     3
440
 16777216
100
AcDbMText
 10
328.9662618747989
 20
222.4431808065784
 30
0.0
 40
4.349999999999998
 41
0.0
 46
0.0
 71
     5
 72
     1
  1
\A1;22
  7
ARIAL-STANDARD
 73
     1
 44
1.0
  0
POINT
  5
3E9
330
3E1
100
AcDbEntity
  8
DEFPOINTS
  6
Continuous
 62
     0
440
 16777216
100
AcDbPoint
 10
318.1567173209517
 20
230.7180916187676
 30
0.0
  0
POINT
  5
3EA
330
3E1
100
AcDbEntity
  8
DEFPOINTS
  6
Continuous
 62
     0
440
 16777216
100
AcDbPoint
 10
340.1567173209516
 20
230.7180916187677
 30
0.0
  0
POINT
  5
3EB
330
3E1
100
AcDbEntity
  8
DEFPOINTS
  6
Continuous
 62
     0
440
 16777216
100
AcDbPoint
 10
340.1567173209516
 20
219.259279033045
 30
0.0
  0
ENDBLK
  5
3EC
330
3E1
100
AcDbEntity
  8
0
100
AcDbBlockEnd
  0
BLOCK
  5
3EE
330
3ED
100
AcDbEntity
  8
0
100
AcDbBlockBegin
  2
*D37
 70
     1
 10
0.0
 20
0.0
 30
0.0
  3
*D37
  1

  0
LINE
  5
3EF
330
3ED
100
AcDbEntity
  8
UMRISS07
  6
ByBlock
 62
     2
440
 16777216
370
    -2
100
AcDbLine
 10
322.4067173209516
 20
458.7180916187673
 30
0.0
 11
300.0499866875462
 21
458.7180916187673
 31
0.0
  0
LINE
  5
3F0
330
3ED
100
AcDbEntity
  8
UMRISS07
  6
ByBlock
 62
     2
440
 16777216
370
    -2
100
AcDbLine
 10
318.1567173209518
 20
478.7180916187674
 30
0.0
 11
300.0499866875462
 21
478.7180916187674
 31
0.0
  0
LINE
  5
3F1
330
3ED
100
AcDbEntity
  8
UMRISS07
  6
ByBlock
 62
     2
440
 16777216
370
    -2
100
AcDbLine
 10
301.0499866875461
 20
462.7180916187673
 30
0.0
 11
301.0499866875461
 21
474.7180916187674
 31
0.0
  0
SOLID
  5
3F2
330
3ED
100
AcDbEntity
  8
UMRISS07
 62
     2
440
 16777216
100
AcDbTrace
 10
300.3833200208795
 20
462.7180916187673
 30
0.0
 11
301.7166533542128
 21
462.7180916187673
 31
0.0
 12
301.0499866875461
 22
458.7180916187673
 32
0.0
 13
301.0499866875461
 23
458.7180916187673
 33
0.0
  0
SOLID
  5
3F3
330
3ED
100
AcDbEntity
  8
UMRISS07
 62
     2
440
 16777216
100
AcDbTrace
 10
300.3833200208795
 20
474.7180916187674
 30
0.0
 11
301.7166533542128
 21
474.7180916187674
 31
0.0
 12
301.0499866875461
 22
478.7180916187674
 32
0.0
 13
301.0499866875461
 23
478.7180916187674
 33
0.0
  0
MTEXT
  5
3F4
330
3ED
100
AcDbEntity
  8
UMRISS07
 62
     3
440
 16777216
100
AcDbMText
 10
297.8289941909567
 20
468.7180916187673
 30
0.0
 40
4.349999999999998
 41
0.0
 46
0.0
 71
     5
 72
     1
  1
\A1;20
  7
ARIAL-STANDARD
 11
0.0000000000000001
 21
1.0
 31
0.0
 73
     1
 44
1.0
  0
POINT
  5
3F5
330
3ED
100
AcDbEntity
  8
DEFPOINTS
 62
     0
440
 16777216
100
AcDbPoint
 10
322.4067173209516
 20
458.7180916187673
 30
0.0
  0
POINT
  5
3F6
330
3ED
100
AcDbEntity
  8
DEFPOINTS
 62
     0
440
 16777216
100
AcDbPoint
 10
318.1567173209518
 20
478.7180916187674
 30
0.0
  0
POINT
  5
3F7
330
3ED
100
AcDbEntity
  8
DEFPOINTS
 62
     0
440
 16777216
100
AcDbPoint
 10
301.0499866875461
 20
478.7180916187674
 30
0.0
  0
ENDBLK
  5
3F8
330
3ED
100
AcDbEntity
  8
0
100
AcDbBlockEnd
  0
BLOCK
  5
42C
330
42B
100
AcDbEntity
  8
0
100
AcDbBlockBegin
  2
*D39
 70
     1
 10
0.0
 20
0.0
 30
0.0
  3
*D39
  1

  0
LINE
  5
44C
330
42B
100
AcDbEntity
  8
BEMASSUNG
  6
Continuous
 62
     2
440
 16777216
370
    -2
100
AcDbLine
 10
796.8158817313849
 20
232.8257031729494
 30
0.0
 11
796.8158817313849
 21
220.3668905872267
 31
0.0
  0
LINE
  5
44D
330
42B
100
AcDbEntity
  8
BEMASSUNG
  6
Continuous
 62
     2
440
 16777216
370
    -2
100
AcDbLine
 10
818.8158817313849
 20
232.8257031729494
 30
0.0
 11
818.8158817313849
 21
220.3668905872267
 31
0.0
  0
LINE
  5
44E
330
42B
100
AcDbEntity
  8
BEMASSUNG
  6
Continuous
 62
     2
440
 16777216
370
    -2
100
AcDbLine
 10
800.815881731385
 20
221.3668905872268
 30
0.0
 11
814.8158817313849
 21
221.3668905872268
 31
0.0
  0
SOLID
  5
44F
330
42B
100
AcDbEntity
  8
BEMASSUNG
  6
Continuous
 62
     2
440
 16777216
100
AcDbTrace
 10
800.815881731385
 20
222.0335572538934
 30
0.0
 11
800.815881731385
 21
220.7002239205601
 31
0.0
 12
796.8158817313849
 22
221.3668905872268
 32
0.0
 13
796.8158817313849
 23
221.3668905872268
 33
0.0
  0
SOLID
  5
450
330
42B
100
AcDbEntity
  8
BEMASSUNG
  6
Continuous
 62
     2
440
 16777216
100
AcDbTrace
 10
814.8158817313849
 20
222.0335572538934
 30
0.0
 11
814.8158817313849
 21
220.7002239205601
 31
0.0
 12
818.8158817313849
 22
221.3668905872268
 32
0.0
 13
818.8158817313849
 23
221.3668905872268
 33
0.0
  0
MTEXT
  5
451
330
42B
100
AcDbEntity
  8
BEMASSUNG
  6
Continuous
 62
     3
440
 16777216
100
AcDbMText
 10
807.6254262852321
 20
224.5507923607602
 30
0.0
 40
4.349999999999998
 41
0.0
 46
0.0
 71
     5
 72
     1
  1
\A1;22
  7
ARIAL-STANDARD
 73
     1
 44
1.0
  0
POINT
  5
452
330
42B
100
AcDbEntity
  8
DEFPOINTS
  6
Continuous
 62
     0
440
 16777216
100
AcDbPoint
 10
796.8158817313849
 20
232.8257031729494
 30
0.0
  0
POINT
  5
453
330
42B
100
AcDbEntity
  8
DEFPOINTS
  6
Continuous
 62
     0
440
 16777216
100
AcDbPoint
 10
818.8158817313849
 20
232.8257031729494
 30
0.0
  0
POINT
  5
454
330
42B
100
AcDbEntity
  8
DEFPOINTS
  6
Continuous
 62
     0
440
 16777216
100
AcDbPoint
 10
818.8158817313849
 20
221.3668905872268
 30
0.0
  0
ENDBLK
  5
42D
330
42B
100
AcDbEntity
  8
0
100
AcDbBlockEnd
  0
BLOCK
  5
441
330
440
100
AcDbEntity
  8
0
100
AcDbBlockBegin
  2
*D40
 70
     1
 10
0.0
 20
0.0
 30
0.0
  3
*D40
  1

  0
LINE
  5
455
330
440
100
AcDbEntity
  8
UMRISS07
  6
ByBlock
 62
     2
440
 16777216
370
    -2
100
AcDbLine
 10
801.0658817313849
 20
460.8257031729491
 30
0.0
 11
778.7091510979794
 21
460.8257031729491
 31
0.0
  0
LINE
  5
456
330
440
100
AcDbEntity
  8
UMRISS07
  6
ByBlock
 62
     2
440
 16777216
370
    -2
100
AcDbLine
 10
796.815881731385
 20
480.8257031729491
 30
0.0
 11
778.7091510979794
 21
480.8257031729491
 31
0.0
  0
LINE
  5
457
330
440
100
AcDbEntity
  8
UMRISS07
  6
ByBlock
 62
     2
440
 16777216
370
    -2
100
AcDbLine
 10
779.7091510979794
 20
464.8257031729491
 30
0.0
 11
779.7091510979794
 21
476.8257031729491
 31
0.0
  0
SOLID
  5
458
330
440
100
AcDbEntity
  8
UMRISS07
 62
     2
440
 16777216
100
AcDbTrace
 10
779.0424844313128
 20
464.8257031729491
 30
0.0
 11
780.375817764646
 21
464.8257031729491
 31
0.0
 12
779.7091510979794
 22
460.8257031729491
 32
0.0
 13
779.7091510979794
 23
460.8257031729491
 33
0.0
  0
SOLID
  5
459
330
440
100
AcDbEntity
  8
UMRISS07
 62
     2
440
 16777216
100
AcDbTrace
 10
779.0424844313128
 20
476.8257031729491
 30
0.0
 11
780.375817764646
 21
476.8257031729491
 31
0.0
 12
779.7091510979794
 22
480.8257031729491
 32
0.0
 13
779.7091510979794
 23
480.8257031729491
 33
0.0
  0
MTEXT
  5
45A
330
440
100
AcDbEntity
  8
UMRISS07
 62
     3
440
 16777216
100
AcDbMText
 10
776.4881586013899
 20
470.8257031729492
 30
0.0
 40
4.349999999999998
 41
0.0
 46
0.0
 71
     5
 72
     1
  1
\A1;20
  7
ARIAL-STANDARD
 11
0.0000000000000001
 21
1.0
 31
0.0
 73
     1
 44
1.0
  0
POINT
  5
45B
330
440
100
AcDbEntity
  8
DEFPOINTS
 62
     0
440
 16777216
100
AcDbPoint
 10
801.0658817313849
 20
460.8257031729491
 30
0.0
  0
POINT
  5
45C
330
440
100
AcDbEntity
  8
DEFPOINTS
 62
     0
440
 16777216
100
AcDbPoint
 10
796.815881731385
 20
480.8257031729491
 30
0.0
  0
POINT
  5
45D
330
440
100
AcDbEntity
  8
DEFPOINTS
 62
     0
440
 16777216
100
AcDbPoint
 10
779.7091510979794
 20
480.8257031729491
 30
0.0
  0
ENDBLK
  5
442
330
440
100
AcDbEntity
  8
0
100
AcDbBlockEnd
  0
BLOCK
  5
45F
330
45E
100
AcDbEntity
  8
0
100
AcDbBlockBegin
  2
*D41
 70
     1
 10
0.0
 20
0.0
 30
0.0
  3
*D41
  1

  0
LINE
  5
461
330
45E
100
AcDbEntity
  8
BEMASSUNG
  6
Continuous
440
 16777216
370
    -2
100
AcDbLine
 10
630.4340513530847
 20
481.625703172949
 30
0.0
 11
630.4340513530847
 21
498.1981634006764
 31
0.0
  0
LINE
  5
462
330
45E
100
AcDbEntity
  8
BEMASSUNG
  6
Continuous
440
 16777216
370
    -2
100
AcDbLine
 10
633.4340513530849
 20
481.625703172949
 30
0.0
 11
633.4340513530849
 21
498.1981634006764
 31
0.0
  0
LINE
  5
463
330
45E
100
AcDbEntity
  8
BEMASSUNG
  6
Continuous
440
 16777216
370
    -2
100
AcDbLine
 10
624.8340513530846
 20
497.3981634006764
 30
0.0
 11
619.2340513530846
 21
497.3981634006764
 31
0.0
  0
LINE
  5
464
330
45E
100
AcDbEntity
  8
BEMASSUNG
  6
Continuous
440
 16777216
370
    -2
100
AcDbLine
 10
639.0340513530849
 20
497.3981634006764
 30
0.0
 11
644.6340513530849
 21
497.3981634006764
 31
0.0
  0
LINE
  5
465
330
45E
100
AcDbEntity
  8
BEMASSUNG
  6
Continuous
440
 16777216
370
    -2
100
AcDbLine
 10
630.4340513530847
 20
497.3981634006764
 30
0.0
 11
633.4340513530849
 21
497.3981634006764
 31
0.0
  0
SOLID
  5
466
330
45E
100
AcDbEntity
  8
BEMASSUNG
  6
Continuous
440
 16777216
100
AcDbTrace
 10
624.8340513530846
 20
498.3314967340098
 30
0.0
 11
624.8340513530846
 21
496.4648300673431
 31
0.0
 12
630.4340513530847
 22
497.3981634006764
 32
0.0
 13
630.4340513530847
 23
497.3981634006764
 33
0.0
  0
SOLID
  5
467
330
45E
100
AcDbEntity
  8
BEMASSUNG
  6
Continuous
440
 16777216
100
AcDbTrace
 10
639.0340513530849
 20
498.3314967340098
 30
0.0
 11
639.0340513530849
 21
496.4648300673431
 31
0.0
 12
633.4340513530849
 22
497.3981634006764
 32
0.0
 13
633.4340513530849
 23
497.3981634006764
 33
0.0
  0
MTEXT
  5
468
330
45E
100
AcDbEntity
  8
BEMASSUNG
  6
Continuous
 62
     3
440
 16777216
100
AcDbMText
 10
631.9340513530847
 20
501.7981634006765
 30
0.0
 40
5.6
 41
0.0
 46
0.0
 71
     5
 72
     1
  1
\A1;3
  7
NORM
 73
     1
 44
1.0
  0
POINT
  5
469
330
45E
100
AcDbEntity
  8
DEFPOINTS
  6
Continuous
 62
     0
440
 16777216
100
AcDbPoint
 10
630.4340513530847
 20
480.8257031729489
 30
0.0
  0
POINT
  5
46A
330
45E
100
AcDbEntity
  8
DEFPOINTS
  6
Continuous
 62
     0
440
 16777216
100
AcDbPoint
 10
633.4340513530849
 20
480.8257031729489
 30
0.0
  0
POINT
  5
46B
330
45E
100
AcDbEntity
  8
DEFPOINTS
  6
Continuous
 62
     0
440
 16777216
100
AcDbPoint
 10
633.4340513530849
 20
497.3981634006764
 30
0.0
  0
ENDBLK
  5
460
330
45E
100
AcDbEntity
  8
0
100
AcDbBlockEnd
  0
BLOCK
  5
46D
330
46C
100
AcDbEntity
  8
0
100
AcDbBlockBegin
  2
*D42
 70
     1
 10
0.0
 20
0.0
 30
0.0
  3
*D42
  1

  0
LINE
  5
46F
330
46C
100
AcDbEntity
  8
BEMASSUNG
  6
Continuous
440
 16777216
370
    -2
100
AcDbLine
 10
629.6340513530847
 20
480.8257031729489
 30
0.0
 11
602.8693030766549
 21
480.8257031729489
 31
0.0
  0
LINE
  5
470
330
46C
100
AcDbEntity
  8
BEMASSUNG
  6
Continuous
440
 16777216
370
    -2
100
AcDbLine
 10
632.6340513530831
 20
432.3257031729491
 30
0.0
 11
602.8693030766549
 21
432.3257031729491
 31
0.0
  0
LINE
  5
471
330
46C
100
AcDbEntity
  8
BEMASSUNG
  6
Continuous
440
 16777216
370
    -2
100
AcDbLine
 10
603.6693030766549
 20
475.2257031729489
 30
0.0
 11
603.6693030766549
 21
437.9257031729491
 31
0.0
  0
SOLID
  5
472
330
46C
100
AcDbEntity
  8
BEMASSUNG
  6
Continuous
440
 16777216
100
AcDbTrace
 10
602.7359697433216
 20
475.2257031729489
 30
0.0
 11
604.6026364099882
 21
475.2257031729489
 31
0.0
 12
603.6693030766549
 22
480.8257031729489
 32
0.0
 13
603.6693030766549
 23
480.8257031729489
 33
0.0
  0
SOLID
  5
473
330
46C
100
AcDbEntity
  8
BEMASSUNG
  6
Continuous
440
 16777216
100
AcDbTrace
 10
602.7359697433216
 20
437.9257031729491
 30
0.0
 11
604.6026364099882
 21
437.9257031729491
 31
0.0
 12
603.6693030766549
 22
432.3257031729491
 32
0.0
 13
603.6693030766549
 23
432.3257031729491
 33
0.0
  0
MTEXT
  5
474
330
46C
100
AcDbEntity
  8
BEMASSUNG
  6
Continuous
 62
     3
440
 16777216
100
AcDbMText
 10
599.2693030766548
 20
456.575703172949
 30
0.0
 40
5.6
 41
0.0
 46
0.0
 71
     5
 72
     1
  1
\A1;48.5
  7
NORM
 11
0.0000000000000001
 21
1.0
 31
0.0
 73
     1
 44
1.0
  0
POINT
  5
475
330
46C
100
AcDbEntity
  8
DEFPOINTS
  6
Continuous
 62
     0
440
 16777216
100
AcDbPoint
 10
630.4340513530847
 20
480.8257031729489
 30
0.0
  0
POINT
  5
476
330
46C
100
AcDbEntity
  8
DEFPOINTS
  6
Continuous
 62
     0
440
 16777216
100
AcDbPoint
 10
633.4340513530831
 20
432.3257031729491
 30
0.0
  0
POINT
  5
477
330
46C
100
AcDbEntity
  8
DEFPOINTS
  6
Continuous
 62
     0
440
 16777216
100
AcDbPoint
 10
603.6693030766549
 20
432.3257031729491
 30
0.0
  0
ENDBLK
  5
46E
330
46C
100
AcDbEntity
  8
0
100
AcDbBlockEnd
  0
BLOCK
  5
479
330
478
100
AcDbEntity
  8
0
100
AcDbBlockBegin
  2
*D43
 70
     1
 10
0.0
 20
0.0
 30
0.0
  3
*D43
  1

  0
LINE
  5
490
330
478
100
AcDbEntity
  8
BEMASSUNG
  6
Continuous
440
 16777216
370
    -2
100
AcDbLine
 10
629.6340513530847
 20
480.8257031729489
 30
0.0
 11
591.1672319918814
 21
480.8257031729489
 31
0.0
  0
LINE
  5
491
330
478
100
AcDbEntity
  8
BEMASSUNG
  6
Continuous
440
 16777216
370
    -2
100
AcDbLine
 10
629.6340513530845
 20
232.8257031729494
 30
0.0
 11
591.1672319918813
 21
232.8257031729494
 31
0.0
  0
LINE
  5
492
330
478
100
AcDbEntity
  8
BEMASSUNG
  6
Continuous
440
 16777216
370
    -2
100
AcDbLine
 10
591.9672319918813
 20
475.2257031729489
 30
0.0
 11
591.9672319918812
 21
238.4257031729494
 31
0.0
  0
MTEXT
  5
493
330
478
100
AcDbEntity
  8
BEMASSUNG
  6
Continuous
 62
     3
440
 16777216
100
AcDbMText
 10
586.7883152136605
 20
355.5075255216018
 30
0.0
 40
5.6
 41
0.0
 46
0.0
 71
     5
 72
     1
  1
\A1;248
  7
NORM
 11
0.0000000000000001
 21
1.0
 31
0.0
 73
     1
 44
1.0
  0
SOLID
  5
494
330
478
100
AcDbEntity
  8
BEMASSUNG
  6
Continuous
440
 16777216
100
AcDbTrace
 10
591.0338986585481
 20
475.2257031729489
 30
0.0
 11
592.9005653252146
 21
475.2257031729489
 31
0.0
 12
591.9672319918813
 22
480.8257031729489
 32
0.0
 13
591.9672319918813
 23
480.8257031729489
 33
0.0
  0
SOLID
  5
495
330
478
100
AcDbEntity
  8
BEMASSUNG
  6
Continuous
440
 16777216
100
AcDbTrace
 10
591.0338986585479
 20
238.4257031729494
 30
0.0
 11
592.9005653252145
 21
238.4257031729494
 31
0.0
 12
591.9672319918812
 22
232.8257031729494
 32
0.0
 13
591.9672319918812
 23
232.8257031729494
 33
0.0
  0
POINT
  5
496
330
478
100
AcDbEntity
  8
DEFPOINTS
  6
Continuous
 62
     0
440
 16777216
100
AcDbPoint
 10
630.4340513530847
 20
480.8257031729489
 30
0.0
  0
POINT
  5
497
330
478
100
AcDbEntity
  8
DEFPOINTS
  6
Continuous
 62
     0
440
 16777216
100
AcDbPoint
 10
630.4340513530844
 20
232.8257031729494
 30
0.0
  0
POINT
  5
498
330
478
100
AcDbEntity
  8
DEFPOINTS
  6
Continuous
 62
     0
440
 16777216
100
AcDbPoint
 10
591.9672319918812
 20
232.8257031729494
 30
0.0
  0
ENDBLK
  5
47A
330
478
100
AcDbEntity
  8
0
100
AcDbBlockEnd
  0
BLOCK
  5
485
330
484
100
AcDbEntity
  8
0
100
AcDbBlockBegin
  2
*D44
 70
     1
 10
0.0
 20
0.0
 30
0.0
  3
*D44
  1

  0
LINE
  5
487
330
484
100
AcDbEntity
  8
BEMASSUNG
  6
Continuous
440
 16777216
370
    -2
100
AcDbLine
 10
633.4340513530844
 20
232.0257031729494
 30
0.0
 11
633.4340513530844
 21
220.5566791059054
 31
0.0
  0
LINE
  5
488
330
484
100
AcDbEntity
  8
BEMASSUNG
  6
Continuous
440
 16777216
370
    -2
100
AcDbLine
 10
690.4340513530849
 20
275.7257031729495
 30
0.0
 11
690.4340513530849
 21
220.5566791059054
 31
0.0
  0
LINE
  5
489
330
484
100
AcDbEntity
  8
BEMASSUNG
  6
Continuous
440
 16777216
370
    -2
100
AcDbLine
 10
639.0340513530844
 20
221.3566791059054
 30
0.0
 11
684.8340513530849
 21
221.3566791059054
 31
0.0
  0
SOLID
  5
48A
330
484
100
AcDbEntity
  8
BEMASSUNG
  6
Continuous
440
 16777216
100
AcDbTrace
 10
639.0340513530844
 20
222.2900124392388
 30
0.0
 11
639.0340513530844
 21
220.4233457725721
 31
0.0
 12
633.4340513530844
 22
221.3566791059054
 32
0.0
 13
633.4340513530844
 23
221.3566791059054
 33
0.0
  0
SOLID
  5
48B
330
484
100
AcDbEntity
  8
BEMASSUNG
  6
Continuous
440
 16777216
100
AcDbTrace
 10
684.8340513530849
 20
222.2900124392388
 30
0.0
 11
684.8340513530849
 21
220.4233457725721
 31
0.0
 12
690.4340513530849
 22
221.3566791059054
 32
0.0
 13
690.4340513530849
 23
221.3566791059054
 33
0.0
  0
MTEXT
  5
48C
330
484
100
AcDbEntity
  8
BEMASSUNG
  6
Continuous
 62
     3
440
 16777216
100
AcDbMText
 10
661.9340513530846
 20
225.7566791059054
 30
0.0
 40
5.6
 41
0.0
 46
0.0
 71
     5
 72
     1
  1
\A1;DM
  7
NORM
 73
     1
 44
1.0
  0
POINT
  5
48D
330
484
100
AcDbEntity
  8
DEFPOINTS
  6
Continuous
 62
     0
440
 16777216
100
AcDbPoint
 10
633.4340513530844
 20
232.8257031729494
 30
0.0
  0
POINT
  5
48E
330
484
100
AcDbEntity
  8
DEFPOINTS
  6
Continuous
 62
     0
440
 16777216
100
AcDbPoint
 10
690.4340513530849
 20
276.5257031729495
 30
0.0
  0
POINT
  5
48F
330
484
100
AcDbEntity
  8
DEFPOINTS
  6
Continuous
 62
     0
440
 16777216
100
AcDbPoint
 10
690.4340513530849
 20
221.3566791059054
 30
0.0
  0
ENDBLK
  5
486
330
484
100
AcDbEntity
  8
0
100
AcDbBlockEnd
  0
BLOCK
  5
49A
330
499
100
AcDbEntity
  8
0
100
AcDbBlockBegin
  2
*D45
 70
     1
 10
0.0
 20
0.0
 30
0.0
  3
*D45
  1

  0
LINE
  5
49C
330
499
100
AcDbEntity
  8
BEMASSUNG
  6
Continuous
440
 16777216
370
    -2
100
AcDbLine
 10
632.6340513530802
 20
273.3257031729494
 30
0.0
 11
602.8409899421874
 21
273.3257031729494
 31
0.0
  0
LINE
  5
49D
330
499
100
AcDbEntity
  8
BEMASSUNG
  6
Continuous
440
 16777216
370
    -2
100
AcDbLine
 10
629.6340513530845
 20
232.8257031729494
 30
0.0
 11
602.8409899421873
 21
232.8257031729494
 31
0.0
  0
LINE
  5
49E
330
499
100
AcDbEntity
  8
BEMASSUNG
  6
Continuous
440
 16777216
370
    -2
100
AcDbLine
 10
603.6409899421873
 20
267.7257031729494
 30
0.0
 11
603.6409899421872
 21
238.4257031729494
 31
0.0
  0
SOLID
  5
49F
330
499
100
AcDbEntity
  8
BEMASSUNG
  6
Continuous
440
 16777216
100
AcDbTrace
 10
602.7076566088541
 20
267.7257031729494
 30
0.0
 11
604.5743232755206
 21
267.7257031729494
 31
0.0
 12
603.6409899421873
 22
273.3257031729494
 32
0.0
 13
603.6409899421873
 23
273.3257031729494
 33
0.0
  0
SOLID
  5
4A0
330
499
100
AcDbEntity
  8
BEMASSUNG
  6
Continuous
440
 16777216
100
AcDbTrace
 10
602.7076566088539
 20
238.4257031729494
 30
0.0
 11
604.5743232755206
 21
238.4257031729494
 31
0.0
 12
603.6409899421872
 22
232.8257031729494
 32
0.0
 13
603.6409899421872
 23
232.8257031729494
 33
0.0
  0
MTEXT
  5
4A1
330
499
100
AcDbEntity
  8
BEMASSUNG
  6
Continuous
 62
     3
440
 16777216
100
AcDbMText
 10
599.2409899421873
 20
253.0757031729495
 30
0.0
 40
5.6
 41
0.0
 46
0.0
 71
     5
 72
     1
  1
\A1;40.5
  7
NORM
 11
0.0000000000000001
 21
1.0
 31
0.0
 73
     1
 44
1.0
  0
POINT
  5
4A2
330
499
100
AcDbEntity
  8
DEFPOINTS
  6
Continuous
 62
     0
440
 16777216
100
AcDbPoint
 10
633.4340513530802
 20
273.3257031729494
 30
0.0
  0
POINT
  5
4A3
330
499
100
AcDbEntity
  8
DEFPOINTS
  6
Continuous
 62
     0
440
 16777216
100
AcDbPoint
 10
630.4340513530844
 20
232.8257031729494
 30
0.0
  0
POINT
  5
4A4
330
499
100
AcDbEntity
  8
DEFPOINTS
  6
Continuous
 62
     0
440
 16777216
100
AcDbPoint
 10
603.6409899421872
 20
232.8257031729494
 30
0.0
  0
ENDBLK
  5
49B
330
499
100
AcDbEntity
  8
0
100
AcDbBlockEnd
  0
ENDSEC
  0
SECTION
  2
ENTITIES
  0
DIMENSION
  5
30
330
2
100
AcDbEntity
  8
BEMASSUNG
  6
Continuous
100
AcDbDimension
280
     0
  2
*D32
 10
719.4340513530844
 20
221.3566791059054
 30
0.0
 11
704.9340513530847
 21
225.7566791059054
 31
0.0
 71
     5
 42
28.99999999999955
 73
     0
 74
     0
 75
     0
  3
PROSPEKT
100
AcDbAlignedDimension
 13
690.4340513530849
 23
276.5257031729495
 33
0.0
 14
719.4340513530844
 24
292.4470235165097
 34
0.0
100
AcDbRotatedDimension
  0
DIMENSION
  5
3F
330
2
100
AcDbEntity
  8
BEMASSUNG
  6
Continuous
100
AcDbDimension
280
     0
  2
*D44
 10
690.4340513530849
 20
221.3566791059054
 30
0.0
 11
661.9340513530846
 21
225.7566791059054
 31
0.0
 70
    32
  1
DM
 71
     5
 42
57.00000000000045
 73
     0
 74
     0
 75
     0
  3
PROSPEKT
100
AcDbAlignedDimension
 13
633.4340513530844
 23
232.8257031729494
 33
0.0
 14
690.4340513530849
 24
276.5257031729495
 34
0.0
100
AcDbRotatedDimension
  0
CIRCLE
  5
5E
330
2
100
AcDbEntity
  8
UMRISS03
100
AcDbCircle
 10
644.4340513530844
 20
423.3257031729499
 30
0.0
 40
3.5
  0
LWPOLYLINE
  5
60
330
2
100
AcDbEntity
  8
UMRISS03
100
AcDbPolyline
 90
       24
 70
     1
 43
0.0
 10
644.6340513530843
 20
425.3257031729492
 10
644.2340513530846
 20
425.3257031729495
 42
0.4142135623733172
 10
643.9340513530844
 20
425.0257031729496
 10
643.9340513530844
 20
423.9257031729496
 42
-0.4142135623732059
 10
643.8340513530845
 20
423.8257031729496
 10
642.7340513530846
 20
423.8257031729498
 42
0.4142135623731427
 10
642.4340513530844
 20
423.5257031729499
 10
642.4340513530844
 20
423.1257031729501
 42
0.4142135623731427
 10
642.7340513530846
 20
422.82570317295
 10
643.8340513530845
 20
422.8257031729505
 42
-0.4142135623731298
 10
643.9340513530844
 20
422.7257031729505
 10
643.9340513530844
 20
421.6257031729494
 42
0.4142135623730774
 10
644.2340513530846
 20
421.3257031729495
 10
644.6340513530847
 20
421.3257031729495
 42
0.4142135623731189
 10
644.9340513530844
 20
421.6257031729496
 10
644.9340513530844
 20
422.7257031729499
 42
-0.414213562373123
 10
645.0340513530842
 20
422.8257031729499
 10
646.1340513530845
 20
422.82570317295
 42
0.4142135623730951
 10
646.4340513530844
 20
423.1257031729501
 10
646.4340513530844
 20
423.5257031729495
 42
0.4142135623730475
 10
646.1340513530845
 20
423.8257031729493
 10
645.0340513530842
 20
423.8257031729498
 42
-0.4142135623729705
 10
644.9340513530844
 20
423.9257031729498
 10
644.9340513530844
 20
425.0257031729493
 42
0.4142135623730831
  0
LINE
  5
68
330
2
100
AcDbEntity
  8
UMRISS05
100
AcDbLine
 10
803.3158817313852
 20
415.4257031729496
 30
0.0
 11
811.2158817313851
 21
415.4257031729498
 31
0.0
  0
LINE
  5
69
330
2
100
AcDbEntity
  8
UMRISS05
100
AcDbLine
 10
800.215881731385
 20
417.9257031729498
 30
0.0
 11
803.3158817313852
 21
417.9257031729498
 31
0.0
  0
LINE
  5
7A
330
2
100
AcDbEntity
  8
UMRISS05
100
AcDbLine
 10
803.3158817313852
 20
390.2257031729498
 30
0.0
 11
811.2158817313851
 21
390.2257031729498
 31
0.0
  0
LINE
  5
7B
330
2
100
AcDbEntity
  8
UMRISS05
100
AcDbLine
 10
800.215881731385
 20
387.7257031729499
 30
0.0
 11
803.3158817313852
 21
387.7257031729498
 31
0.0
  0
DIMENSION
  5
7C
330
2
100
AcDbEntity
  8
BEMASSUNG
  6
Continuous
100
AcDbDimension
280
     0
  2
*D23
 10
796.8158817313849
 20
404.0947077700042
 30
0.0
 11
785.4050192671507
 21
408.465339494251
 31
0.0
 70
   128
 71
     5
 42
3.40000000000009
 73
     0
 74
     0
 75
     0
  3
PROSPEKT
100
AcDbAlignedDimension
 13
800.215881731385
 23
403.8930903967479
 33
0.0
 14
796.8158817313849
 24
404.1955164566318
 34
0.0
100
AcDbRotatedDimension
  0
LINE
  5
8B
330
2
100
AcDbEntity
  8
UMRISS05
100
AcDbLine
 10
800.5158817313851
 20
339.9257031729499
 30
0.0
 11
808.0158817313849
 21
339.9257031729499
 31
0.0
  0
DIMENSION
  5
8C
330
2
100
AcDbEntity
  8
BEMASSUNG
  6
Continuous
100
AcDbDimension
280
     0
  2
*D29
 10
811.2158817313851
 20
373.2918346438639
 30
0.0
 11
804.9818012810042
 21
377.8020564890197
 31
0.0
 70
   128
 71
     5
 42
11.00000000000022
 73
     0
 74
     0
 75
     0
  3
PROSPEKT
100
AcDbAlignedDimension
 13
800.215881731385
 23
387.7257031729499
 33
0.0
 14
811.2158817313851
 24
390.2257031729498
 34
0.0
100
AcDbRotatedDimension
  0
LINE
  5
9B
330
2
100
AcDbEntity
  8
UMRISS05
100
AcDbLine
 10
811.2158817313851
 20
415.4257031729498
 30
0.0
 11
811.2158817313851
 21
390.2257031729498
 31
0.0
  0
ARC
  5
9C
330
2
100
AcDbEntity
  8
UMRISS05
100
AcDbCircle
 10
724.435881731385
 20
402.8257031729499
 30
0.0
 40
79.88000000000024
100
AcDbArc
 50
350.9244549841865
 51
9.075545015813508
  0
LINE
  5
9D
330
2
100
AcDbEntity
  8
UMRISS05
100
AcDbLine
 10
803.3158817313852
 20
417.9257031729499
 30
0.0
 11
803.3158817313852
 21
387.7257031729498
 31
0.0
  0
LINE
  5
9E
330
2
100
AcDbEntity
  8
UMRISS05
100
AcDbLine
 10
800.215881731385
 20
417.9257031729498
 30
0.0
 11
800.215881731385
 21
387.7257031729499
 31
0.0
  0
LINE
  5
9F
330
2
100
AcDbEntity
  8
UMRISS05
100
AcDbLine
 10
800.5158817313851
 20
309.7257031729498
 30
0.0
 11
808.0158817313849
 21
309.7257031729498
 31
0.0
  0
DIMENSION
  5
A0
330
2
100
AcDbEntity
  8
BEMASSUNG
  6
Continuous
100
AcDbDimension
280
     0
  2
*D14
 10
800.5158817313851
 20
324.0068124852895
 30
0.0
 11
786.5930335925404
 21
328.2291883006682
 31
0.0
 70
   128
 71
     5
 42
3.700000000000271
 73
     0
 74
     0
 75
     0
  3
PROSPEKT
100
AcDbAlignedDimension
 13
796.8158817313849
 23
322.4049858587222
 33
0.0
 14
800.5158817313851
 24
324.8257031729499
 34
0.0
100
AcDbRotatedDimension
  0
LINE
  5
AF
330
2
100
AcDbEntity
  8
ACHSEN
100
AcDbLine
 10
798.0658817313849
 20
284.4257031729498
 30
0.0
 11
811.565881731385
 21
284.4257031729498
 31
0.0
  0
CIRCLE
  5
B0
330
2
100
AcDbEntity
  8
UMRISS05
100
AcDbCircle
 10
804.8158817313849
 20
284.4257031729498
 30
0.0
 40
2.75
  0
CIRCLE
  5
B1
330
2
100
AcDbEntity
  8
UMRISS05
100
AcDbCircle
 10
804.8158817313849
 20
284.4257031729498
 30
0.0
 40
4.75
  0
LINE
  5
B2
330
2
100
AcDbEntity
  8
ACHSEN
100
AcDbLine
 10
804.8158817313849
 20
291.1757031729499
 30
0.0
 11
804.8158817313849
 21
277.6757031729498
 31
0.0
  0
DIMENSION
  5
B3
330
2
100
AcDbEntity
  8
BEMASSUNG
  6
Continuous
100
AcDbDimension
280
     0
  2
*D16
 10
808.0158817313849
 20
299.0902232710945
 30
0.0
 11
787.6427007901853
 21
303.2316453556263
 31
0.0
 70
   128
 71
     5
 42
7.499999999999772
 73
     0
 74
     0
 75
     0
  3
PROSPEKT
100
AcDbAlignedDimension
 13
800.5158817313851
 23
309.7257031729498
 33
0.0
 14
808.0158817313849
 24
309.7257031729498
 34
0.0
100
AcDbRotatedDimension
  0
LINE
  5
D6
330
2
100
AcDbEntity
  8
UMRISS05
100
AcDbLine
 10
800.5158817313851
 20
339.9257031729499
 30
0.0
 11
800.5158817313851
 21
309.7257031729498
 31
0.0
  0
LINE
  5
D7
330
2
100
AcDbEntity
  8
UMRISS05
100
AcDbLine
 10
808.0158817313849
 20
339.9257031729499
 30
0.0
 11
808.0158817313849
 21
309.7257031729498
 31
0.0
  0
LINE
  5
DA
330
2
100
AcDbEntity
  8
UMRISS05
100
AcDbLine
 10
718.3733911813049
 20
414.2650430011693
 30
0.0
 11
719.4325065773672
 21
413.2059276051071
 31
0.0
  0
LINE
  5
DB
330
2
100
AcDbEntity
  8
UMRISS05
100
AcDbLine
 10
719.4340513530849
 20
415.3257031729491
 30
0.0
 11
718.3733911813049
 21
414.2650430011693
 31
0.0
  0
LINE
  5
DC
330
2
100
AcDbEntity
  8
UMRISS05
100
AcDbLine
 10
701.6340513530847
 20
432.3257031729491
 30
0.0
 11
701.6340513530847
 21
430.8257031729492
 31
0.0
  0
LINE
  5
DD
330
2
100
AcDbEntity
  8
UMRISS05
100
AcDbLine
 10
702.9997367780337
 20
431.7600177480005
 30
0.0
 11
701.9390766062539
 21
430.6993575762207
 31
0.0
  0
LINE
  5
DE
330
2
100
AcDbEntity
  8
UMRISS05
100
AcDbLine
 10
701.6340513530847
 20
430.8257031729492
 30
0.0
 11
701.9390766062539
 21
430.6993575762207
 31
0.0
  0
LINE
  5
DF
330
2
100
AcDbEntity
  8
UMRISS05
100
AcDbLine
 10
692.4340513530847
 20
431.5373907687046
 30
0.0
 11
692.4340513530847
 21
432.3257031729491
 31
0.0
  0
ARC
  5
E0
330
2
100
AcDbEntity
  8
UMRISS05
100
AcDbCircle
 10
692.6340513530852
 20
431.5373907687046
 30
0.0
 40
0.2
100
AcDbArc
 50
180.0
 51
244.9710005123719
  0
LINE
  5
E1
330
2
100
AcDbEntity
  8
UMRISS05
100
AcDbLine
 10
688.4340513530847
 20
431.5373907687046
 30
0.0
 11
688.4340513530847
 21
432.3257031729491
 31
0.0
  0
ARC
  5
E2
330
2
100
AcDbEntity
  8
UMRISS05
100
AcDbCircle
 10
688.234051353085
 20
431.5373907687046
 30
0.0
 40
0.2
100
AcDbArc
 50
295.0289994876282
 51
0.0
  0
LINE
  5
E3
330
2
100
AcDbEntity
  8
UMRISS05
100
AcDbLine
 10
692.4340513530844
 20
432.3257031729491
 30
0.0
 11
701.6340513530847
 21
432.3257031729491
 31
0.0
  0
LINE
  5
E4
330
2
100
AcDbEntity
  8
ACHSEN
100
AcDbLine
 10
706.4938199308851
 20
415.2120384868868
 30
0.0
 11
700.3742827752838
 21
417.4393678590116
 31
0.0
  0
LINE
  5
E5
330
2
100
AcDbEntity
  8
ACHSEN
100
AcDbLine
 10
704.7060857196242
 20
419.820588871787
 30
0.0
 11
702.1620169865448
 21
412.8308174741112
 31
0.0
  0
LINE
  5
E6
330
2
100
AcDbEntity
  8
UMRISS03
100
AcDbLine
 10
704.9879997944815
 20
412.9932499862595
 30
0.0
 11
706.7665045397744
 21
417.8796516143462
 31
0.0
  0
LINE
  5
E7
330
2
100
AcDbEntity
  8
UMRISS03
100
AcDbLine
 10
700.1015981663947
 20
414.7717547315528
 30
0.0
 11
701.8801029116882
 21
419.6581563596395
 31
0.0
  0
LINE
  5
E8
330
2
100
AcDbEntity
  8
UMRISS03
100
AcDbLine
 10
700.1015981663947
 20
414.7717547315528
 30
0.0
 11
704.9879997944815
 21
412.9932499862595
 31
0.0
  0
LINE
  5
E9
330
2
100
AcDbEntity
  8
UMRISS03
100
AcDbLine
 10
701.8801029116882
 20
419.6581563596395
 30
0.0
 11
706.7665045397744
 21
417.8796516143462
 31
0.0
  0
LINE
  5
EA
330
2
100
AcDbEntity
  8
ACHSEN
100
AcDbLine
 10
696.8930779633235
 20
426.8257031729496
 30
0.0
 11
683.9750247428462
 21
426.8257031729496
 31
0.0
  0
LINE
  5
EB
330
2
100
AcDbEntity
  8
ACHSEN
100
AcDbLine
 10
683.6787183951185
 20
426.8257031729496
 30
0.0
 11
697.1893843110507
 21
426.8257031729496
 31
0.0
  0
CIRCLE
  5
EC
330
2
100
AcDbEntity
  8
UMRISS05
100
AcDbCircle
 10
690.4340513530849
 20
426.8257031729499
 30
0.0
 40
4.5
  0
ARC
  5
ED
330
2
100
AcDbEntity
  8
UMRISS05
100
AcDbCircle
 10
690.4340513530849
 20
426.8257031729499
 30
0.0
 40
5.0
100
AcDbArc
 50
115.7192795021851
 51
64.28072049781484
  0
DIMENSION
  5
EE
330
2
100
AcDbEntity
  8
BEMASSUNG
  6
Continuous
100
AcDbDimension
280
     0
  2
*D24
 10
694.9340513530849
 20
442.9890593462162
 30
0.0
 11
690.141232734818
 21
447.9759718193474
 31
0.0
 70
   128
 71
     5
 42
9.0
 73
     0
 74
     0
 75
     0
  3
PROSPEKT
100
AcDbAlignedDimension
 13
685.9340513530849
 23
426.8257031729499
 33
0.0
 14
694.9340513530849
 24
426.8257031729499
 34
0.0
100
AcDbRotatedDimension
  0
LINE
  5
FD
330
2
100
AcDbEntity
  8
UMRISS05
100
AcDbLine
 10
702.9997367780337
 20
431.7600177480005
 30
0.0
 11
719.4340513530849
 21
415.3257031729491
 31
0.0
  0
LINE
  5
FE
330
2
100
AcDbEntity
  8
ACHSEN
100
AcDbLine
 10
709.4340513530847
 20
385.4257031729501
 30
0.0
 11
709.4340513530847
 21
376.2257031729498
 31
0.0
  0
LINE
  5
FF
330
2
100
AcDbEntity
  8
ACHSEN
100
AcDbLine
 10
709.4340513530838
 20
384.8143697099753
 30
0.0
 11
709.4340513530838
 21
376.8370366359243
 31
0.0
  0
LWPOLYLINE
  5
100
330
2
100
AcDbEntity
  8
UMRISS03
100
AcDbPolyline
 90
       24
 70
     1
 43
0.0
 10
693.1340513530848
 20
400.8257031729496
 10
692.734051353085
 20
400.8257031729502
 42
0.4142135623733172
 10
692.4340513530847
 20
400.5257031729501
 10
692.4340513530847
 20
399.4257031729501
 42
-0.4142135623732059
 10
692.334051353085
 20
399.3257031729502
 10
691.2340513530851
 20
399.3257031729503
 42
0.4142135623731427
 10
690.9340513530849
 20
399.0257031729504
 10
690.9340513530849
 20
398.6257031729506
 42
0.4142135623731427
 10
691.2340513530851
 20
398.3257031729506
 10
692.334051353085
 20
398.3257031729511
 42
-0.4142135623731298
 10
692.4340513530847
 20
398.2257031729512
 10
692.4340513530847
 20
397.1257031729499
 42
0.4142135623730774
 10
692.734051353085
 20
396.8257031729499
 10
693.1340513530852
 20
396.8257031729502
 42
0.4142135623731189
 10
693.4340513530846
 20
397.1257031729501
 10
693.4340513530846
 20
398.2257031729505
 42
-0.414213562373123
 10
693.5340513530847
 20
398.3257031729504
 10
694.6340513530848
 20
398.3257031729506
 42
0.4142135623730951
 10
694.9340513530849
 20
398.6257031729506
 10
694.9340513530849
 20
399.02570317295
 42
0.4142135623730475
 10
694.6340513530848
 20
399.3257031729499
 10
693.5340513530847
 20
399.3257031729503
 42
-0.4142135623729705
 10
693.4340513530846
 20
399.4257031729503
 10
693.4340513530846
 20
400.5257031729497
 42
0.4142135623730831
  0
CIRCLE
  5
101
330
2
100
AcDbEntity
  8
UMRISS03
100
AcDbCircle
 10
692.9340513530847
 20
398.8257031729503
 30
0.0
 40
3.5
  0
LINE
  5
102
330
2
100
AcDbEntity
  8
1855
100
AcDbLine
 10
686.4340513530849
 20
376.8257031729502
 30
0.0
 11
694.4340513530851
 21
376.8257031729502
 31
0.0
  0
LINE
  5
104
330
2
100
AcDbEntity
  8
1855
100
AcDbLine
 10
686.4340513530846
 20
384.8257031729501
 30
0.0
 11
686.4340513530849
 21
376.8257031729502
 31
0.0
  0
LINE
  5
105
330
2
100
AcDbEntity
  8
1855
100
AcDbLine
 10
694.4340513530851
 20
384.8257031729502
 30
0.0
 11
686.4340513530846
 21
384.8257031729501
 31
0.0
  0
LINE
  5
106
330
2
100
AcDbEntity
  8
1855
100
AcDbLine
 10
694.4340513530851
 20
384.8257031729502
 30
0.0
 11
694.4340513530851
 21
376.8257031729502
 31
0.0
  0
LINE
  5
107
330
2
100
AcDbEntity
  8
ACHSEN
100
AcDbLine
 10
671.4340513530847
 20
385.4257031729501
 30
0.0
 11
671.4340513530847
 21
376.2257031729502
 31
0.0
  0
LINE
  5
108
330
2
100
AcDbEntity
  8
ACHSEN
100
AcDbLine
 10
671.434051353084
 20
376.1664979591468
 30
0.0
 11
671.434051353084
 21
385.4849083867529
 31
0.0
  0
CIRCLE
  5
109
330
2
100
AcDbEntity
  8
UMRISS05
100
AcDbCircle
 10
671.434051353084
 20
380.8257031729498
 30
0.0
 40
2.6
  0
DIMENSION
  5
10A
330
2
100
AcDbEntity
  8
BEMASSUNG
  6
Continuous
100
AcDbDimension
280
     0
  2
*D28
 10
686.4340513530849
 20
390.6186259306899
 30
0.0
 11
678.7185404746078
 21
395.4117212561178
 31
0.0
 70
   128
  1
9
 71
     5
 42
7.999999999999886
 73
     0
 74
     0
 75
     0
  3
PROSPEKT
100
AcDbAlignedDimension
 13
694.4340513530846
 23
384.8257031729505
 33
0.0
 14
686.4340513530849
 24
384.8257031729503
 34
0.0
100
AcDbRotatedDimension
  0
CIRCLE
  5
119
330
2
100
AcDbEntity
  8
UMRISS05
100
AcDbCircle
 10
690.4340513530849
 20
359.3257031729536
 30
0.0
 40
5.0
  0
LINE
  5
11A
330
2
100
AcDbEntity
  8
ACHSEN
100
AcDbLine
 10
697.4340513530846
 20
359.3257031729536
 30
0.0
 11
683.4340513530849
 21
359.3257031729536
 31
0.0
  0
LINE
  5
11B
330
2
100
AcDbEntity
  8
ACHSEN
100
AcDbLine
 10
696.796661753023
 20
359.3257031729534
 30
0.0
 11
684.0714409531467
 21
359.3257031729534
 31
0.0
  0
LWPOLYLINE
  5
11C
330
2
100
AcDbEntity
  8
UMRISS03
100
AcDbPolyline
 90
       24
 70
     1
 43
0.0
 10
672.6340513530848
 20
366.8257031729496
 10
672.234051353085
 20
366.82570317295
 42
0.4142135623733172
 10
671.9340513530847
 20
366.52570317295
 10
671.9340513530847
 20
365.4257031729498
 42
-0.4142135623732059
 10
671.834051353085
 20
365.3257031729499
 10
670.7340513530851
 20
365.3257031729503
 42
0.4142135623731427
 10
670.4340513530849
 20
365.0257031729502
 10
670.4340513530849
 20
364.6257031729504
 42
0.4142135623731427
 10
670.7340513530851
 20
364.3257031729504
 10
671.834051353085
 20
364.3257031729508
 42
-0.4142135623731298
 10
671.9340513530847
 20
364.2257031729509
 10
671.9340513530847
 20
363.1257031729497
 42
0.4142135623730774
 10
672.234051353085
 20
362.8257031729497
 10
672.6340513530852
 20
362.8257031729499
 42
0.4142135623731189
 10
672.9340513530849
 20
363.1257031729499
 10
672.9340513530849
 20
364.2257031729503
 42
-0.414213562373123
 10
673.0340513530847
 20
364.3257031729502
 10
674.1340513530848
 20
364.3257031729504
 42
0.4142135623730951
 10
674.4340513530849
 20
364.6257031729504
 10
674.4340513530849
 20
365.0257031729498
 42
0.4142135623730475
 10
674.1340513530848
 20
365.3257031729497
 10
673.0340513530847
 20
365.3257031729503
 42
-0.4142135623729705
 10
672.9340513530849
 20
365.4257031729502
 10
672.9340513530849
 20
366.5257031729495
 42
0.4142135623730831
  0
CIRCLE
  5
11D
330
2
100
AcDbEntity
  8
UMRISS03
100
AcDbCircle
 10
672.4340513530846
 20
364.8257031729502
 30
0.0
 40
3.5
  0
CIRCLE
  5
11E
330
2
100
AcDbEntity
  8
UMRISS05
100
AcDbCircle
 10
690.4340513530849
 20
380.8257031729502
 30
0.0
 40
8.0
  0
DIMENSION
  5
11F
330
2
100
AcDbEntity
  8
BEMASSUNG
  6
Continuous
100
AcDbDimension
280
     0
  2
*D4
 10
734.4647051238057
 20
359.3257031729536
 30
0.0
 11
730.0647051238057
 21
370.0757031729519
 31
0.0
 71
     5
 42
21.49999999999636
 73
     0
 74
     0
 75
     0
  3
PROSPEKT
100
AcDbAlignedDimension
 13
714.0340513530847
 23
380.82570317295
 33
0.0
 14
697.4340513530846
 24
359.3257031729536
 34
0.0
 50
90.0
100
AcDbRotatedDimension
  0
CIRCLE
  5
12C
330
2
100
AcDbEntity
  8
UMRISS03
100
AcDbCircle
 10
710.9340513530849
 20
342.3257031729499
 30
0.0
 40
2.049999999999998
  0
LINE
  5
12D
330
2
100
AcDbEntity
  8
ACHSEN
100
AcDbLine
 10
714.0340513530847
 20
380.82570317295
 30
0.0
 11
666.834051353085
 21
380.8257031729502
 31
0.0
  0
LINE
  5
12E
330
2
100
AcDbEntity
  8
ACHSEN
100
AcDbLine
 10
713.6479410391999
 20
380.8257031729498
 30
0.0
 11
667.1052730898305
 21
380.8257031729498
 31
0.0
  0
CIRCLE
  5
12F
330
2
100
AcDbEntity
  8
UMRISS05
100
AcDbCircle
 10
709.4340513530838
 20
380.8257031729498
 30
0.0
 40
2.6
  0
DIMENSION
  5
130
330
2
100
AcDbEntity
  8
BEMASSUNG
  6
Continuous
100
AcDbDimension
280
     0
  2
*D25
 10
745.7046541466862
 20
380.82570317295
 30
0.0
 11
741.3046541466862
 21
406.5757031729502
 31
0.0
 71
     5
 42
51.50000000000023
 73
     0
 74
     0
 75
     0
  3
PROSPEKT
100
AcDbAlignedDimension
 13
701.6340513530847
 23
432.3257031729501
 33
0.0
 14
714.0340513530847
 24
380.82570317295
 34
0.0
 50
90.0
100
AcDbRotatedDimension
  0
DIMENSION
  5
13D
330
2
100
AcDbEntity
  8
BEMASSUNG
  6
Continuous
100
AcDbDimension
280
     0
  2
*D26
 10
734.4647051238057
 20
426.8257031729499
 30
0.0
 11
730.0647051238057
 21
403.8257031729499
 31
0.0
 71
     5
 42
46.0
 73
     0
 74
     0
 75
     0
  3
PROSPEKT
100
AcDbAlignedDimension
 13
714.0340513530847
 23
380.82570317295
 33
0.0
 14
697.4340513530846
 24
426.8257031729499
 34
0.0
 50
90.0
100
AcDbRotatedDimension
  0
DIMENSION
  5
14A
330
2
100
AcDbEntity
  8
BEMASSUNG
  6
Continuous
100
AcDbDimension
280
     0
  2
*D27
 10
709.4340513530847
 20
404.7115768776017
 30
0.0
 11
690.4340513530849
 21
409.1115768776017
 31
0.0
 71
     5
 42
38.0
 73
     0
 74
     0
 75
     0
  3
PROSPEKT
100
AcDbAlignedDimension
 13
671.4340513530847
 23
385.4257031729501
 33
0.0
 14
709.4340513530847
 24
385.4257031729501
 34
0.0
100
AcDbRotatedDimension
  0
LINE
  5
157
330
2
100
AcDbEntity
  8
UMRISS05
100
AcDbLine
 10
630.4340513530847
 20
480.8257031729489
 30
0.0
 11
633.4340513530849
 21
480.8257031729489
 31
0.0
  0
LINE
  5
158
330
2
100
AcDbEntity
  8
ACHSEN
100
AcDbLine
 10
639.9340513530852
 20
460.825703172949
 30
0.0
 11
625.4340513530808
 21
460.825703172949
 31
0.0
  0
LINE
  5
159
330
2
100
AcDbEntity
  8
UMRISS05
100
AcDbLine
 10
635.2010199948986
 20
413.9552768723838
 30
0.0
 11
638.7476122708447
 21
417.8257031729502
 31
0.0
  0
LINE
  5
15A
330
2
100
AcDbEntity
  8
UMRISS05
100
AcDbLine
 10
635.5696586633038
 20
413.6174817685756
 30
0.0
 11
639.4257831232993
 21
417.8257031729502
 31
0.0
  0
LINE
  5
15B
330
2
100
AcDbEntity
  8
UMRISS05
100
AcDbLine
 10
634.4340687848572
 20
414.8256938178413
 30
0.0
 11
633.4340513530851
 21
414.8256938178413
 31
0.0
  0
LINE
  5
15C
330
2
100
AcDbEntity
  8
UMRISS05
100
AcDbLine
 10
633.4340513530851
 20
417.8256938178416
 30
0.0
 11
638.4340513530844
 21
417.8256938178416
 31
0.0
  0
LINE
  5
15D
330
2
100
AcDbEntity
  8
UMRISS05
100
AcDbLine
 10
644.9340513530851
 20
417.8257031729502
 30
0.0
 11
638.4340513530844
 21
417.8257031729502
 31
0.0
  0
DIMENSION
  5
15E
330
2
100
AcDbEntity
  8
BEMASSUNG
  6
Continuous
100
AcDbDimension
280
     0
  2
*D18
 10
630.4340513530855
 20
422.9024932998393
 30
0.0
 11
625.4340600689712
 21
427.3024932998391
 31
0.0
 71
     5
 42
9.999982568228119
 73
     0
 74
     0
 75
     0
  3
PROSPEKT
100
AcDbAlignedDimension
 13
620.4340687848572
 23
417.8256938178415
 33
0.0
 14
630.4340513530855
 24
425.5851346035893
 34
0.0
100
AcDbRotatedDimension
  0
LINE
  5
16D
330
2
100
AcDbEntity
  8
UMRISS05
100
AcDbLine
 10
620.4340687848572
 20
417.8256938178415
 30
0.0
 11
630.4340513530851
 21
417.8256938178415
 31
0.0
  0
LINE
  5
16E
330
2
100
AcDbEntity
  8
UMRISS05
100
AcDbLine
 10
630.4340513530852
 20
414.8256938178413
 30
0.0
 11
620.4340687848572
 21
414.8256938178413
 31
0.0
  0
DIMENSION
  5
16F
330
2
100
AcDbEntity
  8
BEMASSUNG
  6
Continuous
100
AcDbDimension
280
     0
  2
*D42
 10
603.6693030766549
 20
432.3257031729491
 30
0.0
 11
599.2693030766548
 21
456.575703172949
 31
0.0
 70
    32
 71
     5
 42
48.49999999999983
 73
     0
 74
     0
 75
     0
  3
PROSPEKT
100
AcDbAlignedDimension
 13
630.4340513530847
 23
480.8257031729489
 33
0.0
 14
633.4340513530831
 24
432.3257031729491
 34
0.0
 50
90.0
100
AcDbRotatedDimension
  0
LINE
  5
17C
330
2
100
AcDbEntity
  8
UMRISS05
100
AcDbLine
 10
635.6930329216927
 20
410.7917466797243
 30
0.0
 11
637.1675875953127
 21
409.440566264493
 31
0.0
  0
ARC
  5
17D
330
2
100
AcDbEntity
  8
UMRISS05
100
AcDbCircle
 10
640.4340687848574
 20
402.8256938178413
 30
0.0
 40
3.0
100
AcDbArc
 50
90.0
 51
270.0
  0
LINE
  5
17E
330
2
100
AcDbEntity
  8
UMRISS05
100
AcDbLine
 10
635.3552378178849
 20
410.4231080113195
 30
0.0
 11
636.8297924915049
 21
409.0719275960881
 31
0.0
  0
LINE
  5
17F
330
2
100
AcDbEntity
  8
UMRISS05
100
AcDbLine
 10
636.8297924915049
 20
409.0719275960881
 30
0.0
 11
637.1675875953127
 21
409.440566264493
 31
0.0
  0
LINE
  5
180
330
2
100
AcDbEntity
  8
UMRISS05
100
AcDbLine
 10
640.4340687848574
 20
399.8256938178414
 30
0.0
 11
644.9340513530849
 21
399.8256938178412
 31
0.0
  0
LINE
  5
181
330
2
100
AcDbEntity
  8
UMRISS05
100
AcDbLine
 10
639.4347973934461
 20
393.3258371808765
 30
0.0
 11
644.9340513530849
 21
393.3258371808765
 31
0.0
  0
LINE
  5
182
330
2
100
AcDbEntity
  8
UMRISS05
100
AcDbLine
 10
640.4340687848574
 20
405.8256938178413
 30
0.0
 11
644.9340513530849
 21
405.8256938178413
 31
0.0
  0
LINE
  5
183
330
2
100
AcDbEntity
  8
UMRISS05
100
AcDbLine
 10
634.4340687848572
 20
390.8256938178413
 30
0.0
 11
633.4340513530851
 21
390.8256938178413
 31
0.0
  0
LINE
  5
184
330
2
100
AcDbEntity
  8
UMRISS05
100
AcDbLine
 10
637.4347973934463
 20
391.3258371808765
 30
0.0
 11
637.4347973934463
 21
388.8257031729498
 31
0.0
  0
LINE
  5
185
330
2
100
AcDbEntity
  8
UMRISS05
100
AcDbLine
 10
633.4340513530849
 20
388.8257031729499
 30
0.0
 11
644.9340513530846
 21
388.8257031729497
 31
0.0
  0
ARC
  5
186
330
2
100
AcDbEntity
  8
UMRISS05
100
AcDbCircle
 10
639.4347973934461
 20
391.3258371808765
 30
0.0
 40
2.0
100
AcDbArc
 50
90.0
 51
180.0
  0
LINE
  5
187
330
2
100
AcDbEntity
  8
UMRISS05
100
AcDbLine
 10
620.4340687848572
 20
387.8256938178413
 30
0.0
 11
630.4340513530852
 21
387.8256938178413
 31
0.0
  0
LINE
  5
188
330
2
100
AcDbEntity
  8
UMRISS05
100
AcDbLine
 10
630.4340513530852
 20
390.8256938178413
 30
0.0
 11
620.4340687848572
 21
390.8256938178413
 31
0.0
  0
LINE
  5
189
330
2
100
AcDbEntity
  8
ACHSEN
100
AcDbLine
 10
636.4340687848572
 20
402.8256938178413
 30
0.0
 11
618.4340687848572
 21
402.8256938178413
 31
0.0
  0
DIMENSION
  5
18A
330
2
100
AcDbEntity
  8
BEMASSUNG
  6
Continuous
100
AcDbDimension
280
     0
  2
*D11
 10
630.4340513530852
 20
351.5973550159062
 30
0.0
 11
620.4340513530852
 21
355.9973550159063
 31
0.0
 71
     5
 42
19.99999999999988
 73
     0
 74
     0
 75
     0
  3
PROSPEKT
100
AcDbAlignedDimension
 13
610.4340513530852
 23
339.825693817841
 33
0.0
 14
630.4340513530852
 24
352.2680153418435
 34
0.0
100
AcDbRotatedDimension
  0
LINE
  5
197
330
2
100
AcDbEntity
  8
UMRISS05
100
AcDbLine
 10
610.4340513530852
 20
339.825693817841
 30
0.0
 11
630.4340513530852
 21
339.825693817841
 31
0.0
  0
DIMENSION
  5
198
330
2
100
AcDbEntity
  8
BEMASSUNG
  6
Continuous
100
AcDbDimension
280
     0
  2
*D3
 10
603.6826846887052
 20
387.8256938178413
 30
0.0
 11
599.2826846887052
 21
363.8256938178412
 31
0.0
 71
     5
 42
48.00000000000034
 73
     0
 74
     0
 75
     0
  3
PROSPEKT
100
AcDbAlignedDimension
 13
610.4340513530852
 23
339.825693817841
 33
0.0
 14
620.4340687848572
 24
387.8256938178413
 34
0.0
 50
90.0
100
AcDbRotatedDimension
  0
DIMENSION
  5
1A5
330
2
100
AcDbEntity
  8
BEMASSUNG
  6
Continuous
100
AcDbDimension
280
     0
  2
*D19
 10
603.7446532774517
 20
432.3257031729491
 30
0.0
 11
599.3446532774514
 21
425.0756984953953
 31
0.0
 71
     5
 42
14.50000935510763
 73
     0
 74
     0
 75
     0
  3
PROSPEKT
100
AcDbAlignedDimension
 13
620.4340687848572
 23
417.8256938178415
 33
0.0
 14
633.4340513530831
 24
432.3257031729491
 34
0.0
 50
90.0
100
AcDbRotatedDimension
  0
DIMENSION
  5
1B4
330
2
100
AcDbEntity
  8
BEMASSUNG
  6
Continuous
100
AcDbDimension
280
     0
  2
*D20
 10
603.7482463933756
 20
417.8256938178415
 30
0.0
 11
598.5709079399071
 21
402.2373330204517
 31
0.0
 70
   128
 71
     5
 42
30.00000000000023
 73
     0
 74
     0
 75
     0
  3
PROSPEKT
100
AcDbAlignedDimension
 13
620.4340687848572
 23
387.8256938178413
 33
0.0
 14
620.4340687848572
 24
417.8256938178415
 34
0.0
 50
90.0
100
AcDbRotatedDimension
  0
ARC
  5
1C1
330
2
100
AcDbEntity
  8
UMRISS05
100
AcDbCircle
 10
637.044213336924
 20
412.2663013533446
 30
0.0
 40
2.5
100
AcDbArc
 50
137.5000000000018
 51
227.5000000000013
  0
LINE
  5
1C2
330
2
100
AcDbEntity
  8
UMRISS05
100
AcDbLine
 10
634.4340687848572
 20
390.8256938178413
 30
0.0
 11
634.4340687848572
 21
414.8256938178413
 31
0.0
  0
LINE
  5
1C3
330
2
100
AcDbEntity
  8
UMRISS05
100
AcDbLine
 10
644.9340513530846
 20
388.8257031729497
 30
0.0
 11
644.9340513530851
 21
417.8257031729502
 31
0.0
  0
LINE
  5
1C4
330
2
100
AcDbEntity
  8
UMRISS05
100
AcDbLine
 10
629.4340687848569
 20
390.8256938178413
 30
0.0
 11
629.4340687848569
 21
414.8256938178413
 31
0.0
  0
LINE
  5
1C5
330
2
100
AcDbEntity
  8
UMRISS05
100
AcDbLine
 10
620.4340687848572
 20
387.8256938178413
 30
0.0
 11
620.4340687848572
 21
417.8256938178415
 31
0.0
  0
ARC
  5
1C6
330
2
100
AcDbEntity
  8
UMRISS05
100
AcDbCircle
 10
637.044213336924
 20
412.2663013533446
 30
0.0
 40
2.0
100
AcDbArc
 50
137.500000000003
 51
227.4999999999997
  0
LINE
  5
1C7
330
2
100
AcDbEntity
  8
UMRISS05
100
AcDbLine
 10
633.4340513530831
 20
432.3257031729491
 30
0.0
 11
688.4340513530844
 21
432.3257031729491
 31
0.0
  0
DIMENSION
  5
1C8
330
2
100
AcDbEntity
  8
BEMASSUNG
  6
Continuous
100
AcDbDimension
280
     0
  2
*D17
 10
662.5072928267396
 20
380.8257031729502
 30
0.0
 11
658.1072928267396
 21
391.8256984953959
 31
0.0
 71
     5
 42
21.99999064489117
 73
     0
 74
     0
 75
     0
  3
PROSPEKT
100
AcDbAlignedDimension
 13
634.4340687848572
 23
402.8256938178413
 33
0.0
 14
666.834051353085
 24
380.8257031729502
 34
0.0
 50
90.0
100
AcDbRotatedDimension
  0
LWPOLYLINE
  5
1D5
330
2
100
AcDbEntity
  8
UMRISS03
100
AcDbPolyline
 90
       24
 70
     1
 43
0.0
 10
711.6340513530848
 20
312.8257031729493
 10
711.2340513530852
 20
312.8257031729497
 42
0.4142135623733172
 10
710.9340513530849
 20
312.5257031729498
 10
710.9340513530849
 20
311.4257031729496
 42
-0.4142135623732059
 10
710.8340513530849
 20
311.3257031729497
 10
709.734051353085
 20
311.3257031729499
 42
0.4142135623731427
 10
709.4340513530847
 20
311.02570317295
 10
709.4340513530847
 20
310.6257031729501
 42
0.4142135623731427
 10
709.734051353085
 20
310.3257031729502
 10
710.8340513530849
 20
310.3257031729506
 42
-0.4142135623731298
 10
710.9340513530849
 20
310.2257031729507
 10
710.9340513530849
 20
309.1257031729494
 42
0.4142135623730774
 10
711.2340513530852
 20
308.8257031729495
 10
711.6340513530851
 20
308.8257031729497
 42
0.4142135623731189
 10
711.9340513530849
 20
309.1257031729497
 10
711.9340513530849
 20
310.2257031729501
 42
-0.414213562373123
 10
712.0340513530846
 20
310.32570317295
 10
713.1340513530848
 20
310.3257031729502
 42
0.4142135623730951
 10
713.4340513530847
 20
310.6257031729501
 10
713.4340513530847
 20
311.0257031729495
 42
0.4142135623730475
 10
713.1340513530848
 20
311.3257031729495
 10
712.0340513530846
 20
311.3257031729499
 42
-0.4142135623729705
 10
711.9340513530849
 20
311.4257031729498
 10
711.9340513530849
 20
312.5257031729493
 42
0.4142135623730831
  0
LINE
  5
1D6
330
2
100
AcDbEntity
  8
UMRISS05
100
AcDbLine
 10
718.3733911813049
 20
291.3863633447301
 30
0.0
 11
719.4340513530844
 21
292.4470235165097
 31
0.0
  0
LINE
  5
1D7
330
2
100
AcDbEntity
  8
UMRISS05
100
AcDbLine
 10
719.4340513530849
 20
290.3257031729503
 30
0.0
 11
718.3733911813049
 21
291.3863633447301
 31
0.0
  0
LINE
  5
1D8
330
2
100
AcDbEntity
  8
UMRISS05
100
AcDbLine
 10
719.4340513530849
 20
290.3257031729503
 30
0.0
 11
718.3733911813049
 21
291.3863633447301
 31
0.0
  0
LINE
  5
1D9
330
2
100
AcDbEntity
  8
ACHSEN
100
AcDbLine
 10
709.4340513530847
 20
300.9257031729503
 30
0.0
 11
709.4340513530847
 21
289.9257031729503
 31
0.0
  0
ARC
  5
1DA
330
2
100
AcDbEntity
  8
UMRISS03
100
AcDbCircle
 10
690.4340513530849
 20
322.2193574440354
 30
0.0
 40
2.0
100
AcDbArc
 50
269.9999999999935
 51
90.0
  0
LINE
  5
1DB
330
2
100
AcDbEntity
  8
UMRISS03
100
AcDbLine
 10
690.4340513530849
 20
324.2193574440355
 30
0.0
 11
686.1840326685626
 21
324.2193574440353
 31
0.0
  0
LINE
  5
1DC
330
2
100
AcDbEntity
  8
UMRISS03
100
AcDbLine
 10
686.1840326685627
 20
320.2193574440357
 30
0.0
 11
690.4340513530849
 21
320.2193574440355
 31
0.0
  0
LINE
  5
1DD
330
2
100
AcDbEntity
  8
UMRISS03
100
AcDbLine
 10
671.8007178265732
 20
316.9279256940825
 30
0.0
 11
669.1965768230627
 21
317.6257031729501
 31
0.0
  0
LINE
  5
1DE
330
2
100
AcDbEntity
  8
UMRISS03
100
AcDbLine
 10
677.6987512943242
 20
320.7046388182744
 30
0.0
 11
674.6984953054403
 21
317.7043828293902
 31
0.0
  0
ARC
  5
1DF
330
2
100
AcDbEntity
  8
UMRISS03
100
AcDbCircle
 10
672.5771749618806
 20
319.8257031729497
 30
0.0
 40
3.0
100
AcDbArc
 50
254.3255346997044
 51
315.0000000000023
  0
ARC
  5
1E0
330
2
100
AcDbEntity
  8
UMRISS03
100
AcDbCircle
 10
668.9340513530849
 20
316.1257031729499
 30
0.0
 40
1.5
100
AcDbArc
 50
90.0
 51
180.0
  0
LINE
  5
1E1
330
2
100
AcDbEntity
  8
UMRISS03
100
AcDbLine
 10
668.9340513530849
 20
317.6257031729499
 30
0.0
 11
669.1965768230627
 21
317.6257031729501
 31
0.0
  0
ARC
  5
1E2
330
2
100
AcDbEntity
  8
UMRISS03
100
AcDbCircle
 10
672.5771749618805
 20
319.8257031729495
 30
0.0
 40
7.0
100
AcDbArc
 50
269.999999999987
 51
315.0000000000023
  0
ARC
  5
1E3
330
2
100
AcDbEntity
  8
UMRISS03
100
AcDbCircle
 10
668.9340513530849
 20
314.32570317295
 30
0.0
 40
1.5
100
AcDbArc
 50
179.9999999999992
 51
269.999999999987
  0
LINE
  5
1E4
330
2
100
AcDbEntity
  8
UMRISS03
100
AcDbLine
 10
668.9340513530846
 20
312.8257031729499
 30
0.0
 11
672.5771749618794
 21
312.8257031729495
 31
0.0
  0
CIRCLE
  5
1E5
330
2
100
AcDbEntity
  8
UMRISS03
100
AcDbCircle
 10
670.434051353084
 20
314.8257031729496
 30
0.0
 40
2.0
  0
LINE
  5
1E6
330
2
100
AcDbEntity
  8
UMRISS03
100
AcDbLine
 10
667.4340513530847
 20
316.1257031729499
 30
0.0
 11
667.4340513530847
 21
314.32570317295
 31
0.0
  0
LINE
  5
1E7
330
2
100
AcDbEntity
  8
UMRISS03
100
AcDbLine
 10
677.5269224301865
 20
314.875955704644
 30
0.0
 11
680.5271784190702
 21
317.8762116935282
 31
0.0
  0
LINE
  5
1E8
330
2
100
AcDbEntity
  8
ACHSEN
100
AcDbLine
 10
703.3092806203642
 20
302.8257031729497
 30
0.0
 11
677.5588220858055
 21
302.8257031729497
 31
0.0
  0
ARC
  5
1E9
330
2
100
AcDbEntity
  8
UMRISS03
100
AcDbCircle
 10
686.1840326685624
 20
312.2193574440353
 30
0.0
 40
12.0
100
AcDbArc
 50
90.0
 51
134.9999999999982
  0
ARC
  5
1EA
330
2
100
AcDbEntity
  8
UMRISS03
100
AcDbCircle
 10
686.1840326685627
 20
312.2193574440357
 30
0.0
 40
8.0
100
AcDbArc
 50
90.0
 51
135.0000000000006
  0
CIRCLE
  5
1EB
330
2
100
AcDbEntity
  8
UMRISS05
100
AcDbCircle
 10
700.4340513530847
 20
288.3257031729499
 30
0.0
 40
2.6
  0
LINE
  5
1EC
330
2
100
AcDbEntity
  8
ACHSEN
100
AcDbLine
 10
705.0340513530847
 20
288.3257031729499
 30
0.0
 11
695.8340513530848
 21
288.3257031729499
 31
0.0
  0
LINE
  5
1ED
330
2
100
AcDbEntity
  8
ACHSEN
100
AcDbLine
 10
700.4340513530847
 20
292.9257031729502
 30
0.0
 11
700.4340513530847
 21
283.7257031729498
 31
0.0
  0
LINE
  5
1EE
330
2
100
AcDbEntity
  8
ACHSEN
100
AcDbLine
 10
684.4809167429388
 20
283.6257031729494
 30
0.0
 11
696.3871859632312
 21
283.6257031729496
 31
0.0
  0
LINE
  5
1EF
330
2
100
AcDbEntity
  8
UMRISS05
100
AcDbLine
 10
701.6340513530847
 20
273.3257031729494
 30
0.0
 11
701.6340513530847
 21
274.8257031729504
 31
0.0
  0
LINE
  5
1F0
330
2
100
AcDbEntity
  8
UMRISS05
100
AcDbLine
 10
702.9997367780337
 20
273.891388597899
 30
0.0
 11
701.9390766062539
 21
274.9520487696788
 31
0.0
  0
LINE
  5
1F1
330
2
100
AcDbEntity
  8
UMRISS05
100
AcDbLine
 10
701.6340513530847
 20
274.8257031729504
 30
0.0
 11
701.9390766062539
 21
274.9520487696788
 31
0.0
  0
ARC
  5
1F2
330
2
100
AcDbEntity
  8
UMRISS03
100
AcDbCircle
 10
666.9340513530849
 20
284.4257031729496
 30
0.0
 40
7.498889300106986
100
AcDbArc
 50
337.8409181306084
 51
22.15908186939163
  0
LINE
  5
1F3
330
2
100
AcDbEntity
  8
ACHSEN
100
AcDbLine
 10
680.4340513530847
 20
292.9257031729502
 30
0.0
 11
680.4340513530847
 21
283.7257031729498
 31
0.0
  0
ARC
  5
1F4
330
2
100
AcDbEntity
  8
UMRISS03
100
AcDbCircle
 10
675.9340513530847
 20
284.4257031729496
 30
0.0
 40
7.498889300106986
100
AcDbArc
 50
157.8409181306098
 51
202.1590818693901
  0
LINE
  5
1F5
330
2
100
AcDbEntity
  8
UMRISS03
100
AcDbLine
 10
673.879074084168
 20
281.5972760482034
 30
0.0
 11
668.9890286220014
 21
281.5972760482034
 31
0.0
  0
LINE
  5
1F6
330
2
100
AcDbEntity
  8
UMRISS03
100
AcDbLine
 10
673.879074084168
 20
287.2541302976959
 30
0.0
 11
668.9890286220014
 21
287.2541302976959
 31
0.0
  0
LINE
  5
1F7
330
2
100
AcDbEntity
  8
ACHSEN
100
AcDbLine
 10
676.9340513530849
 20
295.4257031729503
 30
0.0
 11
665.9340513530849
 21
295.4257031729503
 31
0.0
  0
LINE
  5
1F8
330
2
100
AcDbEntity
  8
ACHSEN
100
AcDbLine
 10
685.0340513530847
 20
288.3257031729499
 30
0.0
 11
675.834051353085
 21
288.3257031729499
 31
0.0
  0
CIRCLE
  5
1F9
330
2
100
AcDbEntity
  8
UMRISS05
100
AcDbCircle
 10
680.4340513530847
 20
288.3257031729499
 30
0.0
 40
2.6
  0
LWPOLYLINE
  5
1FA
330
2
100
AcDbEntity
  8
UMRISS05
100
AcDbPolyline
 90
        4
 70
     1
 43
0.0
 10
695.5340513530846
 20
283.6257031729497
 10
695.5340513530846
 20
292.9666971378567
 42
4.109609026488814
 10
685.334051353085
 20
292.9666971378567
 10
685.334051353085
 20
283.6257031729497
 42
1.0
  0
LWPOLYLINE
  5
1FB
330
2
100
AcDbEntity
  8
ACHSEN
100
AcDbPolyline
 90
        4
 70
     1
 43
0.0
 10
685.334051353085
 20
282.8257031729497
 10
685.334051353085
 20
295.9011093220443
 42
-3.044038009981496
 10
695.5340513530846
 20
295.9011093220443
 10
695.5340513530846
 20
282.8257031729497
 42
-0.9999999999999998
  0
LINE
  5
1FC
330
2
100
AcDbEntity
  8
ACHSEN
100
AcDbLine
 10
671.4340513530847
 20
300.9257031729503
 30
0.0
 11
671.4340513530847
 21
289.9257031729503
 31
0.0
  0
CIRCLE
  5
1FD
330
2
100
AcDbEntity
  8
UMRISS05
100
AcDbCircle
 10
671.4340513530847
 20
295.4257031729503
 30
0.0
 40
3.5
  0
CIRCLE
  5
1FE
330
2
100
AcDbEntity
  8
UMRISS03
100
AcDbCircle
 10
711.4340513530849
 20
310.8257031729499
 30
0.0
 40
3.5
  0
DIMENSION
  5
1FF
330
2
100
AcDbEntity
  8
BEMASSUNG
  6
Continuous
100
AcDbDimension
280
     0
  2
*D15
 10
745.6415797234788
 20
273.3257031729494
 30
0.0
 11
741.2415797234788
 21
288.0757031729497
 31
0.0
 71
     5
 42
29.50000000000023
 73
     0
 74
     0
 75
     0
  3
PROSPEKT
100
AcDbAlignedDimension
 13
703.3092806203642
 23
302.8257031729497
 33
0.0
 14
701.6340513530847
 24
273.3257031729494
 34
0.0
 50
90.0
100
AcDbRotatedDimension
  0
LINE
  5
20C
330
2
100
AcDbEntity
  8
UMRISS05
100
AcDbLine
 10
702.9997367780337
 20
273.891388597899
 30
0.0
 11
719.4340513530849
 21
290.3257031729503
 31
0.0
  0
CIRCLE
  5
20D
330
2
100
AcDbEntity
  8
UMRISS05
100
AcDbCircle
 10
709.4340513530847
 20
295.4257031729503
 30
0.0
 40
3.5
  0
LINE
  5
20E
330
2
100
AcDbEntity
  8
ACHSEN
100
AcDbLine
 10
714.9340513530849
 20
295.4257031729503
 30
0.0
 11
703.9340513530849
 21
295.4257031729503
 31
0.0
  0
LINE
  5
20F
330
2
100
AcDbEntity
  8
UMRISS05
100
AcDbLine
 10
685.9340513530802
 20
184.845528265903
 30
0.0
 11
694.9340513530802
 21
184.845528265903
 31
0.0
  0
LINE
  5
210
330
2
100
AcDbEntity
  8
UMRISS05
100
AcDbLine
 10
669.6429369522241
 20
186.3455282659033
 30
0.0
 11
719.4340513530804
 21
186.3455282659028
 31
0.0
  0
LINE
  5
211
330
2
100
AcDbEntity
  8
UMRISS05
100
AcDbLine
 10
610.4340513530852
 20
309.8256938178408
 30
0.0
 11
630.4340513530852
 21
309.8256938178408
 31
0.0
  0
LINE
  5
212
330
2
100
AcDbEntity
  8
ACHSEN
100
AcDbLine
 10
632.4340513530852
 20
324.825693817841
 30
0.0
 11
608.4340513530852
 21
324.825693817841
 31
0.0
  0
LINE
  5
213
330
2
100
AcDbEntity
  8
ACHSEN
100
AcDbLine
 10
639.9340513530849
 20
284.4257031729495
 30
0.0
 11
625.4340513530802
 21
284.4257031729495
 31
0.0
  0
CIRCLE
  5
214
330
2
100
AcDbEntity
  8
UMRISS03
100
AcDbCircle
 10
646.9340513530847
 20
298.8257031729495
 30
0.0
 40
3.5
  0
LWPOLYLINE
  5
215
330
2
100
AcDbEntity
  8
UMRISS03
100
AcDbPolyline
 90
       24
 70
     1
 43
0.0
 10
647.1340513530848
 20
300.8257031729488
 10
646.734051353085
 20
300.8257031729493
 42
0.4142135623733172
 10
646.4340513530847
 20
300.5257031729493
 10
646.4340513530847
 20
299.4257031729492
 42
-0.4142135623732059
 10
646.334051353085
 20
299.3257031729493
 10
645.2340513530851
 20
299.3257031729495
 42
0.4142135623731427
 10
644.9340513530849
 20
299.0257031729495
 10
644.9340513530849
 20
298.6257031729497
 42
0.4142135623731427
 10
645.2340513530851
 20
298.3257031729497
 10
646.334051353085
 20
298.3257031729502
 42
-0.4142135623731298
 10
646.4340513530847
 20
298.2257031729503
 10
646.4340513530847
 20
297.125703172949
 42
0.4142135623730774
 10
646.734051353085
 20
296.8257031729491
 10
647.1340513530853
 20
296.8257031729493
 42
0.4142135623731189
 10
647.4340513530846
 20
297.1257031729491
 10
647.4340513530846
 20
298.2257031729496
 42
-0.414213562373123
 10
647.5340513530847
 20
298.3257031729495
 10
648.6340513530848
 20
298.3257031729497
 42
0.4142135623730951
 10
648.9340513530849
 20
298.6257031729497
 10
648.9340513530849
 20
299.0257031729491
 42
0.4142135623730475
 10
648.6340513530848
 20
299.325703172949
 10
647.5340513530847
 20
299.3257031729495
 42
-0.4142135623729705
 10
647.4340513530846
 20
299.4257031729494
 10
647.4340513530846
 20
300.5257031729489
 42
0.4142135623730831
  0
DIMENSION
  5
216
330
2
100
AcDbEntity
  8
BEMASSUNG
  6
Continuous
100
AcDbDimension
280
     0
  2
*D10
 10
603.6826846887052
 20
309.8256938178408
 30
0.0
 11
599.2826846887052
 21
291.5756984953952
 31
0.0
 71
     5
 42
36.49999064489146
 73
     0
 74
     0
 75
     0
  3
PROSPEKT
100
AcDbAlignedDimension
 13
633.4340513530802
 23
273.3257031729494
 33
0.0
 14
610.4340513530852
 24
309.8256938178408
 34
0.0
 50
90.0
100
AcDbRotatedDimension
  0
LINE
  5
223
330
2
100
AcDbEntity
  8
UMRISS05
100
AcDbLine
 10
630.4340513530844
 20
232.8257031729494
 30
0.0
 11
633.4340513530844
 21
232.8257031729494
 31
0.0
  0
LINE
  5
224
330
2
100
AcDbEntity
  8
ACHSEN
100
AcDbLine
 10
639.9340513530849
 20
252.8257031729495
 30
0.0
 11
625.4340513530802
 21
252.8257031729495
 31
0.0
  0
LINE
  5
225
330
2
100
AcDbEntity
  8
UMRISS05
100
AcDbLine
 10
630.4340513530844
 20
187.3455282659033
 30
0.0
 11
633.4340513530802
 21
187.3455282659033
 31
0.0
  0
LINE
  5
226
330
2
100
AcDbEntity
  8
UMRISS05
100
AcDbLine
 10
623.4340513530844
 20
183.9455282659037
 30
0.0
 11
620.4340513530844
 21
182.9455282659035
 31
0.0
  0
LINE
  5
227
330
2
100
AcDbEntity
  8
UMRISS05
100
AcDbLine
 10
610.4340513530858
 20
183.6455282659037
 30
0.0
 11
622.5340513530847
 21
183.6455282659037
 31
0.0
  0
LINE
  5
228
330
2
100
AcDbEntity
  8
UMRISS05
100
AcDbLine
 10
623.4340513530838
 20
183.9455282659036
 30
0.0
 11
630.4340513530802
 21
183.9455282659035
 31
0.0
  0
DIMENSION
  5
229
330
2
100
AcDbEntity
  8
BEMASSUNG
  6
Continuous
100
AcDbDimension
280
     0
  2
*D45
 10
603.6409899421872
 20
232.8257031729494
 30
0.0
 11
599.2409899421873
 21
253.0757031729495
 31
0.0
 70
    32
 71
     5
 42
40.49999999999999
 73
     0
 74
     0
 75
     0
  3
PROSPEKT
100
AcDbAlignedDimension
 13
633.4340513530802
 23
273.3257031729494
 33
0.0
 14
630.4340513530844
 24
232.8257031729494
 34
0.0
 50
90.0
100
AcDbRotatedDimension
  0
LINE
  5
236
330
2
100
AcDbEntity
  8
UMRISS05
100
AcDbLine
 10
633.4340513530802
 20
273.3257031729494
 30
0.0
 11
701.6340513530847
 21
273.3257031729494
 31
0.0
  0
LINE
  5
237
330
2
100
AcDbEntity
  8
UMRISS05
100
AcDbLine
 10
633.4340513530802
 20
186.3455282659033
 30
0.0
 11
718.4340513530854
 21
186.3455282659032
 31
0.0
  0
DIMENSION
  5
238
330
2
100
AcDbEntity
  8
BEMASSUNG
  6
Continuous
100
AcDbDimension
280
     0
  2
*D1
 10
757.327604506603
 20
273.3257031729502
 30
0.0
 11
752.5547233762647
 21
351.9621067843052
 31
0.0
 70
   128
 71
     5
 42
159.0
 73
     0
 74
     0
 75
     0
  3
PROSPEKT
100
AcDbAlignedDimension
 13
701.6340513530847
 23
432.3257031729501
 33
0.0
 14
701.6340513530847
 24
273.3257031729502
 34
0.0
 50
90.0
100
AcDbRotatedDimension
  0
DIMENSION
  5
245
330
2
100
AcDbEntity
  8
BEMASSUNG
  6
Continuous
100
AcDbDimension
280
     0
  2
*D43
 10
591.9672319918812
 20
232.8257031729494
 30
0.0
 11
586.7883152136605
 21
355.5075255216018
 31
0.0
 70
   160
 71
     5
 42
247.9999999999995
 73
     0
 74
     0
 75
     0
  3
PROSPEKT
100
AcDbAlignedDimension
 13
630.4340513530847
 23
480.8257031729489
 33
0.0
 14
630.4340513530844
 24
232.8257031729494
 34
0.0
 50
90.0
100
AcDbRotatedDimension
  0
DIMENSION
  5
252
330
2
100
AcDbEntity
  8
BEMASSUNG
  6
Continuous
100
AcDbDimension
280
     0
  2
*D5
 10
745.7046541466862
 20
302.8257031729497
 30
0.0
 11
741.3046541466862
 21
341.82570317295
 31
0.0
 71
     5
 42
78.00000000000022
 73
     0
 74
     0
 75
     0
  3
PROSPEKT
100
AcDbAlignedDimension
 13
714.0340513530847
 23
380.82570317295
 33
0.0
 14
703.5340513530846
 24
302.8257031729497
 34
0.0
 50
90.0
100
AcDbRotatedDimension
  0
LINE
  5
25F
330
2
100
AcDbEntity
  8
UMRISS05
100
AcDbLine
 10
719.4325065773672
 20
413.2059276051071
 30
0.0
 11
719.4325065773663
 21
292.4454787407917
 31
0.0
  0
LINE
  5
260
330
2
100
AcDbEntity
  8
UMRISS05
100
AcDbLine
 10
633.4340513530844
 20
232.8257031729494
 30
0.0
 11
633.4340513530849
 21
480.8257031729489
 31
0.0
  0
LINE
  5
261
330
2
100
AcDbEntity
  8
UMRISS05
100
AcDbLine
 10
630.4340513530844
 20
232.8257031729494
 30
0.0
 11
630.4340513530847
 21
480.8257031729489
 31
0.0
  0
DIMENSION
  5
262
330
2
100
AcDbEntity
  8
BEMASSUNG
  6
Continuous
100
AcDbDimension
280
     0
  2
*D6
 10
662.5072928267396
 20
324.8256938178409
 30
0.0
 11
658.1072928267396
 21
352.8256984953957
 31
0.0
 71
     5
 42
56.00000935510928
 73
     0
 74
     0
 75
     0
  3
PROSPEKT
100
AcDbAlignedDimension
 13
666.834051353085
 23
380.8257031729502
 33
0.0
 14
630.4340513530852
 24
324.825693817841
 34
0.0
 50
90.0
100
AcDbRotatedDimension
  0
LINE
  5
26F
330
2
100
AcDbEntity
  8
ACHSEN
100
AcDbLine
 10
690.4340513530849
 20
433.5174706437442
 30
0.0
 11
690.4340513530849
 21
276.5257031729495
 31
0.0
  0
DIMENSION
  5
270
330
2
100
AcDbEntity
  8
BEMASSUNG
  6
Continuous
100
AcDbDimension
280
     0
  2
*D9
 10
603.7390588412018
 20
339.825693817841
 30
0.0
 11
598.5625443660969
 21
324.8336632971279
 31
0.0
 70
   128
 71
     5
 42
30.00000000000011
 73
     0
 74
     0
 75
     0
  3
PROSPEKT
100
AcDbAlignedDimension
 13
610.4340513530852
 23
309.8256938178408
 33
0.0
 14
610.4340513530852
 24
339.825693817841
 34
0.0
 50
90.0
100
AcDbRotatedDimension
  0
LINE
  5
27D
330
2
100
AcDbEntity
  8
UMRISS05
100
AcDbLine
 10
610.4340513530852
 20
309.8256938178408
 30
0.0
 11
610.4340513530852
 21
339.825693817841
 31
0.0
  0
LINE
  5
27E
330
2
100
AcDbEntity
  8
UMRISS05
100
AcDbLine
 10
685.9340513530802
 20
174.645528265903
 30
0.0
 11
694.9340513530802
 21
174.645528265903
 31
0.0
  0
LINE
  5
27F
330
2
100
AcDbEntity
  8
UMRISS05
100
AcDbLine
 10
633.4340513530802
 20
173.1455282659032
 30
0.0
 11
633.4340513530802
 21
174.6455282659032
 31
0.0
  0
LINE
  5
280
330
2
100
AcDbEntity
  8
UMRISS05
100
AcDbLine
 10
630.4340513530844
 20
167.3455282659033
 30
0.0
 11
633.4340513530802
 21
167.3455282659033
 31
0.0
  0
LINE
  5
281
330
2
100
AcDbEntity
  8
UMRISS05
100
AcDbLine
 10
620.4340513530849
 20
180.8455282659038
 30
0.0
 11
628.8340513530848
 21
172.7455282659037
 31
0.0
  0
LINE
  5
282
330
2
100
AcDbEntity
  8
UMRISS05
100
AcDbLine
 10
610.4340513530858
 20
176.4455282659038
 30
0.0
 11
624.9970143160477
 21
176.4455282659039
 31
0.0
  0
LINE
  5
283
330
2
100
AcDbEntity
  8
UMRISS05
100
AcDbLine
 10
628.8340513530854
 20
172.7455282659037
 30
0.0
 11
630.4340513530802
 21
172.7455282659037
 31
0.0
  0
LINE
  5
284
330
2
100
AcDbEntity
  8
UMRISS05
100
AcDbLine
 10
620.4340513530849
 20
180.8455282659038
 30
0.0
 11
630.4340513530802
 21
180.8455282659038
 31
0.0
  0
LINE
  5
285
330
2
100
AcDbEntity
  8
UMRISS05
100
AcDbLine
 10
633.4340513530802
 20
173.1455282659032
 30
0.0
 11
719.4340513530804
 21
173.145528265903
 31
0.0
  0
DIMENSION
  5
286
330
2
100
AcDbEntity
  8
BEMASSUNG
  6
Continuous
100
AcDbDimension
280
     0
  2
*D7
 10
654.9781340258808
 20
186.3455282659033
 30
0.0
 11
649.9799315633662
 21
195.4428088474785
 31
0.0
 70
   128
 71
     5
 42
1.000000000000055
 73
     0
 74
     0
 75
     0
  3
PROSPEKT
100
AcDbAlignedDimension
 13
633.4340513530802
 23
187.3455282659033
 33
0.0
 14
651.4413364939058
 24
186.3455282659033
 34
0.0
 50
90.0
100
AcDbRotatedDimension
  0
LINE
  5
295
330
2
100
AcDbEntity
  8
UMRISS05
100
AcDbLine
 10
633.4340513530802
 20
187.3455282659033
 30
0.0
 11
633.4340513530802
 21
167.3455282659033
 31
0.0
  0
LINE
  5
296
330
2
100
AcDbEntity
  8
UMRISS05
100
AcDbLine
 10
630.4340513530844
 20
187.3455282659033
 30
0.0
 11
630.4340513530844
 21
167.3455282659033
 31
0.0
  0
LINE
  5
297
330
2
100
AcDbEntity
  8
UMRISS05
100
AcDbLine
 10
719.4340513530804
 20
186.3455282659028
 30
0.0
 11
719.4340513530804
 21
173.145528265903
 31
0.0
  0
LINE
  5
298
330
2
100
AcDbEntity
  8
UMRISS05
100
AcDbLine
 10
702.8733911813008
 20
186.345528265903
 30
0.0
 11
702.8733911813008
 21
173.145528265903
 31
0.0
  0
LINE
  5
299
330
2
100
AcDbEntity
  8
UMRISS05
100
AcDbLine
 10
701.8127310095207
 20
186.345528265903
 30
0.0
 11
701.8127310095207
 21
173.145528265903
 31
0.0
  0
LINE
  5
29A
330
2
100
AcDbEntity
  8
UMRISS05
100
AcDbLine
 10
694.9340513530802
 20
173.145528265903
 30
0.0
 11
694.9340513530808
 21
186.345528265903
 31
0.0
  0
LINE
  5
29B
330
2
100
AcDbEntity
  8
UMRISS05
100
AcDbLine
 10
685.9340513530802
 20
173.145528265903
 30
0.0
 11
685.9340513530808
 21
186.345528265903
 31
0.0
  0
LINE
  5
29C
330
2
100
AcDbEntity
  8
UMRISS05
100
AcDbLine
 10
719.4340513530851
 20
185.3455282659032
 30
0.0
 11
719.4340513530849
 21
174.1455282659033
 31
0.0
  0
DIMENSION
  5
29D
330
2
100
AcDbEntity
  8
BEMASSUNG
  6
Continuous
100
AcDbDimension
280
     0
  2
*D13
 10
746.3985257061999
 20
173.145528265903
 30
0.0
 11
741.76056426309
 21
159.0862364379065
 31
0.0
 70
   128
 71
     5
 42
13.19999999999982
 73
     0
 74
     0
 75
     0
  3
PROSPEKT
100
AcDbAlignedDimension
 13
719.4340513530804
 23
186.3455282659028
 33
0.0
 14
719.4340513530804
 24
173.145528265903
 34
0.0
 50
90.0
100
AcDbRotatedDimension
  0
LINE
  5
2AC
330
2
100
AcDbEntity
  8
UMRISS05
100
AcDbLine
 10
610.4340513530858
 20
183.6455282659037
 30
0.0
 11
610.4340513530858
 21
176.4455282659038
 31
0.0
  0
LINE
  5
2AD
330
2
100
AcDbEntity
  8
UMRISS05
100
AcDbLine
 10
620.4340513530849
 20
182.9455282659036
 30
0.0
 11
620.4340513530849
 21
180.8455282659038
 31
0.0
  0
DIMENSION
  5
2AE
330
2
100
AcDbEntity
  8
BEMASSUNG
  6
Continuous
100
AcDbDimension
280
     0
  2
*D41
 10
633.4340513530849
 20
497.3981634006764
 30
0.0
 11
631.9340513530847
 21
501.7981634006765
 31
0.0
 70
    32
 71
     5
 42
3.000000000000227
 73
     0
 74
     0
 75
     0
  3
PROSPEKT
100
AcDbAlignedDimension
 13
630.4340513530847
 23
480.8257031729489
 33
0.0
 14
633.4340513530849
 24
480.8257031729489
 34
0.0
100
AcDbRotatedDimension
  0
LINE
  5
419
330
2
100
AcDbEntity
  8
UMRISS05
100
AcDbLine
 10
796.8158817313849
 20
480.8257031729492
 30
0.0
 11
796.8158817313849
 21
232.8257031729494
 31
0.0
  0
LINE
  5
41A
330
2
100
AcDbEntity
  8
UMRISS05
100
AcDbLine
 10
818.8158817313849
 20
480.8257031729492
 30
0.0
 11
818.8158817313849
 21
232.8257031729494
 31
0.0
  0
LINE
  5
41B
330
2
100
AcDbEntity
  8
ACHSEN
100
AcDbLine
 10
807.8158817313848
 20
259.5757031729495
 30
0.0
 11
807.8158817313848
 21
246.0757031729495
 31
0.0
  0
DIMENSION
  5
41C
330
2
100
AcDbEntity
  8
BEMASSUNG
  6
Continuous
100
AcDbDimension
280
     0
  2
*D39
 10
818.8158817313849
 20
221.3668905872268
 30
0.0
 11
807.6254262852321
 21
221.3668905872268
 31
0.0
 70
   160
  1
<>
 71
     5
 42
22.0
 73
     0
 74
     0
 75
     0
  3
Katalog 09
100
AcDbAlignedDimension
 13
796.8158817313849
 23
232.8257031729494
 33
0.0
 14
818.8158817313849
 24
232.8257031729494
 34
0.0
100
AcDbRotatedDimension
1001
ACAD_DSTYLE_DIMINSPECT
1070
   396
1000
100%
1070
   395
1000

1070
   394
1070
    33
1070
   393
1070
     0
  0
CIRCLE
  5
41D
330
2
100
AcDbEntity
  8
UMRISS05
100
AcDbCircle
 10
807.8158817313848
 20
252.8257031729496
 30
0.0
 40
4.75
  0
CIRCLE
  5
41E
330
2
100
AcDbEntity
  8
UMRISS05
100
AcDbCircle
 10
807.8158817313848
 20
252.8257031729496
 30
0.0
 40
2.549999999999998
  0
LINE
  5
41F
330
2
100
AcDbEntity
  8
ACHSEN
100
AcDbLine
 10
801.0658817313849
 20
252.8257031729496
 30
0.0
 11
814.5658817313849
 21
252.8257031729496
 31
0.0
  0
LINE
  5
422
330
2
100
AcDbEntity
  8
ACHSEN
100
AcDbLine
 10
807.8158817313848
 20
468.2045584704427
 30
0.0
 11
807.8158817313848
 21
454.0757031729491
 31
0.0
  0
CIRCLE
  5
423
330
2
100
AcDbEntity
  8
UMRISS05
100
AcDbCircle
 10
807.8158817313848
 20
460.8257031729491
 30
0.0
 40
4.75
  0
CIRCLE
  5
424
330
2
100
AcDbEntity
  8
UMRISS05
100
AcDbCircle
 10
807.8158817313848
 20
460.8257031729491
 30
0.0
 40
2.549999999999998
  0
LINE
  5
425
102
{ACAD_REACTORS
330
42A
102
}
330
2
100
AcDbEntity
  8
ACHSEN
100
AcDbLine
 10
801.0658817313849
 20
460.8257031729491
 30
0.0
 11
814.5658817313849
 21
460.8257031729491
 31
0.0
  0
LINE
  5
426
102
{ACAD_REACTORS
330
42A
102
}
330
2
100
AcDbEntity
  8
UMRISS05
100
AcDbLine
 10
796.815881731385
 20
480.8257031729491
 30
0.0
 11
818.8158817313849
 21
480.8257031729491
 31
0.0
  0
LINE
  5
427
330
2
100
AcDbEntity
  8
UMRISS05
100
AcDbLine
 10
796.8158817313849
 20
232.8257031729494
 30
0.0
 11
818.8158817313849
 21
232.8257031729494
 31
0.0
  0
DIMENSION
  5
428
102
{ACAD_XDICTIONARY
360
429
102
}
102
{ACAD_REACTORS
330
42A
102
}
330
2
100
AcDbEntity
  8
UMRISS07
100
AcDbDimension
280
     0
  2
*D40
 10
779.7091510979794
 20
480.8257031729491
 30
0.0
 11
776.4881586013899
 21
470.8257031729492
 31
0.0
 70
    32
 71
     5
 42
20.00000000000006
 73
     0
 74
     0
 75
     0
  3
Katalog 09
100
AcDbAlignedDimension
 13
801.0658817313849
 23
460.8257031729491
 33
0.0
 14
796.815881731385
 24
480.8257031729491
 34
0.0
 50
90.0
100
AcDbRotatedDimension
1001
ACAD
1000
DSTYLE
1002
{
1070
    50
1040
1.570796326794896
1070
   345
1005
17
1070
   346
1005
17
1070
   347
1005
17
1002
}
  0
ENDSEC
  0
SECTION
  2
OBJECTS
  0
DICTIONARY
  5
8
330
0
100
AcDbDictionary
281
     1
  3
ACAD_CIP_PREVIOUS_PRODUCT_INFO
350
364
  3
ACAD_COLOR
350
2B
  3
ACAD_DETAILVIEWSTYLE
350
35C
  3
ACAD_FIELDLIST
350
3C5
  3
ACAD_GROUP
350
27
  3
ACAD_LAYOUT
350
C
  3
ACAD_MATERIAL
350
2A
  3
ACAD_MLEADERSTYLE
350
358
  3
ACAD_MLINESTYLE
350
28
  3
ACAD_PLOTSETTINGS
350
29
  3
ACAD_PLOTSTYLENAME
350
7
  3
ACAD_SCALELIST
350
346
  3
ACAD_SECTIONVIEWSTYLE
350
35A
  3
ACAD_TABLESTYLE
350
2C
  3
ACAD_VISUALSTYLE
350
32D
  3
ACDB_RECOMPOSE_DATA
350
4C1
  3
AcDbVariableDictionary
350
311
  3
AcmDictionary
350
2CD
  3
AMG
350
2BE
  3
AMGSNAPSETTINGS
350
3D9
  0
DICTIONARY
  5
3FD
330
12
100
AcDbDictionary
280
     1
281
     1
  3
ACAD_LAYERSTATES
360
3FE
  0
DICTIONARY
  5
4A5
330
5
100
AcDbDictionary
280
     1
281
     1
  3
ADSK_XREC_LAYER_RECONCILED
360
4A6
  0
DICTIONARY
  5
4A7
330
5F
100
AcDbDictionary
280
     1
281
     1
  3
ADSK_XREC_LAYER_RECONCILED
360
4A8
  0
DICTIONARY
  5
4A9
330
62
100
AcDbDictionary
280
     1
281
     1
  3
ADSK_XREC_LAYER_RECONCILED
360
4AA
  0
DICTIONARY
  5
4AB
330
2D
100
AcDbDictionary
280
     1
281
     1
  3
ADSK_XREC_LAYER_RECONCILED
360
4AC
  0
DICTIONARY
  5
4AD
330
31
100
AcDbDictionary
280
     1
281
     1
  3
ADSK_XREC_LAYER_RECONCILED
360
4AE
  0
DICTIONARY
  5
4AF
330
64
100
AcDbDictionary
280
     1
281
     1
  3
ADSK_XREC_LAYER_RECONCILED
360
4B0
  0
DICTIONARY
  5
4B1
330
103
100
AcDbDictionary
280
     1
281
     1
  3
ADSK_XREC_LAYER_RECONCILED
360
4B2
  0
DICTIONARY
  5
3
330
2
100
AcDbDictionary
280
     1
281
     1
  0
DICTIONARY
  5
429
330
428
100
AcDbDictionary
280
     1
281
     1
  3
ACAD_DIMASSOC
360
42A
  0
XRECORD
  5
364
102
{ACAD_REACTORS
330
8
102
}
330
8
100
AcDbXrecord
280
     1
300
AMECH_PP
300
2014
300
PDSU_F_S
  0
DICTIONARY
  5
2B
102
{ACAD_REACTORS
330
8
102
}
330
8
100
AcDbDictionary
281
     1
  0
DICTIONARY
  5
35C
102
{ACAD_REACTORS
330
8
102
}
330
8
100
AcDbDictionary
281
     1
  3
Metric50
350
35D
  0
FIELDLIST
  5
3C5
102
{ACAD_REACTORS
330
8
102
}
330
8
100
AcDbIdSet
 90
        6
330
3C3
330
3C4
330
3C6
330
3CE
330
3CF
330
3D0
100
AcDbFieldList
  0
DICTIONARY
  5
27
102
{ACAD_REACTORS
330
8
102
}
330
8
100
AcDbDictionary
281
     1
  0
DICTIONARY
  5
C
102
{ACAD_REACTORS
330
8
102
}
330
8
100
AcDbDictionary
281
     1
  3
Layout1
350
11
  3
Model
350
B
  0
DICTIONARY
  5
2A
102
{ACAD_REACTORS
330
8
102
}
330
8
100
AcDbDictionary
281
     1
  3
ByBlock
350
31D
  3
ByLayer
350
315
  3
Global
350
325
  0
DICTIONARY
  5
358
102
{ACAD_REACTORS
330
8
102
}
330
8
100
AcDbDictionary
281
     1
  3
Standard
350
359
  0
DICTIONARY
  5
28
102
{ACAD_REACTORS
330
8
102
}
330
8
100
AcDbDictionary
281
     1
  3
STANDARD
350
2E
  0
DICTIONARY
  5
29
102
{ACAD_REACTORS
330
8
102
}
330
8
100
AcDbDictionary
281
     1
  0
ACDBDICTIONARYWDFLT
  5
7
102
{ACAD_REACTORS
330
8
102
}
330
8
100
AcDbDictionary
281
     1
  3
Normal
350
6
100
AcDbDictionaryWithDefault
340
6
  0
DICTIONARY
  5
346
102
{ACAD_REACTORS
330
8
102
}
330
8
100
AcDbDictionary
281
     1
  3
A0
350
347
  3
A1
350
348
  3
A2
350
349
  3
A3
350
34A
  3
A4
350
34B
  3
A5
350
34C
  3
A6
350
34D
  3
A7
350
34E
  3
A8
350
34F
  3
A9
350
350
  3
B0
350
351
  3
B1
350
352
  3
B2
350
353
  3
B3
350
354
  3
B4
350
355
  3
B5
350
356
  3
B6
350
357
  0
DICTIONARY
  5
35A
102
{ACAD_REACTORS
330
8
102
}
330
8
100
AcDbDictionary
281
     1
  3
Metric50
350
35B
  0
DICTIONARY
  5
2C
102
{ACAD_REACTORS
330
8
102
}
330
8
100
AcDbDictionary
281
     1
  3
Standard
350
2F
  0
DICTIONARY
  5
32D
102
{ACAD_REACTORS
330
8
102
}
330
8
100
AcDbDictionary
281
     1
  3
2dWireframe
350
333
  3
Basic
350
332
  3
Brighten
350
339
  3
ColorChange
350
33D
  3
Conceptual
350
336
  3
Dim
350
338
  3
EdgeColorOff
350
345
  3
Facepattern
350
33C
  3
Flat
350
32E
  3
FlatWithEdges
350
32F
  3
Gouraud
350
330
  3
GouraudWithEdges
350
331
  3
Hidden
350
335
  3
JitterOff
350
343
  3
Linepattern
350
33B
  3
OverhangOff
350
344
  3
Realistic
350
337
  3
Shaded
350
342
  3
Shaded with edges
350
341
  3
Shades of Gray
350
33E
  3
Sketchy
350
33F
  3
Thicken
350
33A
  3
Wireframe
350
334
  3
X-Ray
350
340
  0
XRECORD
  5
4C1
102
{ACAD_REACTORS
330
8
102
}
330
8
100
AcDbXrecord
280
     1
 90
        1
330
2F
330
35B
330
35D
  0
DICTIONARY
  5
311
102
{ACAD_REACTORS
330
8
102
}
330
8
100
AcDbDictionary
281
     1
  3
CANNOSCALE
350
4B7
  3
CMLEADERSTYLE
350
4B3
  3
CTABLESTYLE
350
312
  3
CVIEWDETAILSTYLE
350
4B4
  3
CVIEWSECTIONSTYLE
350
4B5
  3
LAYEREVAL
350
4B9
  3
LAYERNOTIFY
350
4BA
  3
LIGHTINGUNITS
350
4B8
  3
MSLTSCALE
350
4B6
  0
DICTIONARY
  5
2CD
102
{ACAD_REACTORS
330
8
102
}
330
8
100
AcDbDictionary
281
     1
  3
AcmStdDictionary
350
2CE
  0
DICTIONARY
  5
2BE
102
{ACAD_REACTORS
330
8
102
}
330
8
100
AcDbDictionary
281
     1
  0
DICTIONARY
  5
3D9
102
{ACAD_REACTORS
330
8
102
}
330
8
100
AcDbDictionary
281
     1
  0
DICTIONARY
  5
3FE
102
{ACAD_REACTORS
330
3FD
102
}
330
3FD
100
AcDbDictionary
281
     1
  0
XRECORD
  5
4A6
102
{ACAD_REACTORS
330
4A5
102
}
330
4A5
100
AcDbXrecord
280
     1
290
     1
  0
XRECORD
  5
4A8
102
{ACAD_REACTORS
330
4A7
102
}
330
4A7
100
AcDbXrecord
280
     1
290
     1
  0
XRECORD
  5
4AA
102
{ACAD_REACTORS
330
4A9
102
}
330
4A9
100
AcDbXrecord
280
     1
290
     1
  0
XRECORD
  5
4AC
102
{ACAD_REACTORS
330
4AB
102
}
330
4AB
100
AcDbXrecord
280
     1
290
     1
  0
XRECORD
  5
4AE
102
{ACAD_REACTORS
330
4AD
102
}
330
4AD
100
AcDbXrecord
280
     1
290
     1
  0
XRECORD
  5
4B0
102
{ACAD_REACTORS
330
4AF
102
}
330
4AF
100
AcDbXrecord
280
     1
290
     1
  0
XRECORD
  5
4B2
102
{ACAD_REACTORS
330
4B1
102
}
330
4B1
100
AcDbXrecord
280
     1
290
     1
  0
DIMASSOC
  5
42A
102
{ACAD_REACTORS
330
429
102
}
330
429
100
AcDbDimAssoc
330
428
 90
        3
 70
     0
 71
     0
  1
AcDbOsnapPointRef
 72
    13
331
425
 73
     2
 91
        0
 40
0.0
 10
0.0
 20
0.0
 30
2.000000000000000E+50
 75
     0
  1
AcDbOsnapPointRef
 72
    13
331
426
 73
     2
 91
        0
 40
0.0
 10
0.0
 20
0.0
 30
2.000000000000000E+50
 75
     0
  0
ACDBDETAILVIEWSTYLE
  5
35D
102
{ACAD_XDICTIONARY
360
4BF
102
}
102
{ACAD_REACTORS
330
35C
330
3BF
102
}
330
35C
100
AcDbModelDocViewStyle
 70
     0
  3
Metric50
290
     0
100
AcDbDetailViewStyle
 70
     0
 71
     0
 90
        3
 71
     1
340
14
 62
   256
 40
5.0
340
0
 62
   256
 40
5.0
300

 40
0.0
280
     1
 71
     2
340
9
 90
       25
 62
   256
 71
     3
340
14
 62
   256
 40
5.0
 90
        0
 40
15.0
 90
        1
300
%<\AcVar ViewDetailId>% (%<\AcVar ViewScale \f "%sn">%)
 71
     4
340
9
 90
       25
 62
   256
340
9
 90
       25
 62
   256
280
     0
  0
LAYOUT
  5
11
102
{ACAD_REACTORS
330
C
102
}
330
C
100
AcDbPlotSettings
  1

  2
G:\VORLAGEN\AutoCAD2002\Plotten\A3hoch-MSL.pc3
  4

  6

 40
0.0
 41
0.0
 42
0.0
 43
0.0
 44
0.0
 45
0.0
 46
0.0
 47
0.0
 48
0.0
 49
0.0
140
0.0
141
0.0
142
1.0
143
1.0
 70
   688
 72
     0
 73
     0
 74
     5
  7
monochrome.ctb
 75
    16
147
1.0
 76
     0
 77
     2
 78
   300
148
0.0
149
0.0
100
AcDbLayout
  1
Layout1
 70
     1
 71
     1
 10
0.0
 20
0.0
 11
12.0
 21
9.0
 12
0.0
 22
0.0
 32
0.0
 14
1.000000000000000E+20
 24
1.000000000000000E+20
 34
1.000000000000000E+20
 15
-1.000000000000000E+20
 25
-1.000000000000000E+20
 35
-1.000000000000000E+20
146
0.0
 13
0.0
 23
0.0
 33
0.0
 16
1.0
 26
0.0
 36
0.0
 17
0.0
 27
1.0
 37
0.0
 76
     0
330
E
  0
LAYOUT
  5
B
102
{ACAD_REACTORS
330
C
102
}
330
C
100
AcDbPlotSettings
  1

  2
G:\VORLAGEN\AutoCAD2002\Plotten\A3hoch-MSL.pc3
  4
A3
  6

 40
7.143749713897705
 41
5.746753215789794
 42
7.18609619140625
 43
7.14373779296875
 44
296.9683227539062
 45
419.9889831542968
 46
0.0
 47
0.0
 48
0.0
 49
0.0
140
0.0
141
0.0
142
1.0
143
2.967097547447379
 70
 11952
 72
     1
 73
     1
 74
     0
  7
monochrome.ctb
 75
     0
147
0.3370297012514159
 76
     0
 77
     2
 78
   300
148
37.26480768543979
149
46.46959467917849
100
AcDbLayout
  1
Model
 70
     1
 71
     0
 10
0.0
 20
0.0
 11
12.0
 21
9.0
 12
0.0
 22
0.0
 32
0.0
 14
0.0
 24
0.0
 34
0.0
 15
0.0
 25
0.0
 35
0.0
146
0.0
 13
0.0
 23
0.0
 33
0.0
 16
1.0
 26
0.0
 36
0.0
 17
0.0
 27
1.0
 37
0.0
 76
     0
330
2
331
1C
1001
ACAD_PSEXT
1000
G:\VORLAGEN\AutoCAD2002\Plotten\A3hoch-MSL.pc3
1000
HP LaserJet 5000 Series PCL
1000
CAD
1000
HP LaserJet 5000N
1070
     0
  0
MATERIAL
  5
31D
102
{ACAD_XDICTIONARY
360
31E
102
}
102
{ACAD_REACTORS
330
2A
102
}
330
2A
100
AcDbMaterial
  1
ByBlock
 72
     0
 43
0.0208333333333333
 43
0.0
 43
0.0
 43
0.0
 43
0.0
 43
0.0208333333333333
 43
0.0
 43
0.0
 43
0.0
 43
0.0
 43
1.0
 43
0.0
 43
0.0
 43
0.0
 43
0.0
 43
1.0
 77
     0
 47
0.0208333333333333
 47
0.0
 47
0.0
 47
0.0
 47
0.0
 47
0.0208333333333333
 47
0.0
 47
0.0
 47
0.0
 47
0.0
 47
1.0
 47
0.0
 47
0.0
 47
0.0
 47
0.0
 47
1.0
171
     0
 49
0.0208333333333333
 49
0.0
 49
0.0
 49
0.0
 49
0.0
 49
0.0208333333333333
 49
0.0
 49
0.0
 49
0.0
 49
0.0
 49
1.0
 49
0.0
 49
0.0
 49
0.0
 49
0.0
 49
1.0
175
     0
142
0.0208333333333333
142
0.0
142
0.0
142
0.0
142
0.0
142
0.0208333333333333
142
0.0
142
0.0
142
0.0
142
0.0
142
1.0
142
0.0
142
0.0
142
0.0
142
0.0
142
1.0
179
     0
144
0.0208333333333333
144
0.0
144
0.0
144
0.0
144
0.0
144
0.0208333333333333
144
0.0
144
0.0
144
0.0
144
0.0
144
1.0
144
0.0
144
0.0
144
0.0
144
0.0
144
1.0
147
0.0208333333333333
147
0.0
147
0.0
147
0.0
147
0.0
147
0.0208333333333333
147
0.0
147
0.0
147
0.0
147
0.0
147
1.0
147
0.0
147
0.0
147
0.0
147
0.0
147
1.0
  0
MATERIAL
  5
315
102
{ACAD_XDICTIONARY
360
316
102
}
102
{ACAD_REACTORS
330
2A
102
}
330
2A
100
AcDbMaterial
  1
ByLayer
 72
     0
 43
0.0208333333333333
 43
0.0
 43
0.0
 43
0.0
 43
0.0
 43
0.0208333333333333
 43
0.0
 43
0.0
 43
0.0
 43
0.0
 43
1.0
 43
0.0
 43
0.0
 43
0.0
 43
0.0
 43
1.0
 77
     0
 47
0.0208333333333333
 47
0.0
 47
0.0
 47
0.0
 47
0.0
 47
0.0208333333333333
 47
0.0
 47
0.0
 47
0.0
 47
0.0
 47
1.0
 47
0.0
 47
0.0
 47
0.0
 47
0.0
 47
1.0
171
     0
 49
0.0208333333333333
 49
0.0
 49
0.0
 49
0.0
 49
0.0
 49
0.0208333333333333
 49
0.0
 49
0.0
 49
0.0
 49
0.0
 49
1.0
 49
0.0
 49
0.0
 49
0.0
 49
0.0
 49
1.0
175
     0
142
0.0208333333333333
142
0.0
142
0.0
142
0.0
142
0.0
142
0.0208333333333333
142
0.0
142
0.0
142
0.0
142
0.0
142
1.0
142
0.0
142
0.0
142
0.0
142
0.0
142
1.0
179
     0
144
0.0208333333333333
144
0.0
144
0.0
144
0.0
144
0.0
144
0.0208333333333333
144
0.0
144
0.0
144
0.0
144
0.0
144
1.0
144
0.0
144
0.0
144
0.0
144
0.0
144
1.0
147
0.0208333333333333
147
0.0
147
0.0
147
0.0
147
0.0
147
0.0208333333333333
147
0.0
147
0.0
147
0.0
147
0.0
147
1.0
147
0.0
147
0.0
147
0.0
147
0.0
147
1.0
  0
MATERIAL
  5
325
102
{ACAD_XDICTIONARY
360
326
102
}
102
{ACAD_REACTORS
330
2A
102
}
330
2A
100
AcDbMaterial
  1
Global
 72
     0
 43
0.0208333333333333
 43
0.0
 43
0.0
 43
0.0
 43
0.0
 43
0.0208333333333333
 43
0.0
 43
0.0
 43
0.0
 43
0.0
 43
1.0
 43
0.0
 43
0.0
 43
0.0
 43
0.0
 43
1.0
 77
     0
 47
0.0208333333333333
 47
0.0
 47
0.0
 47
0.0
 47
0.0
 47
0.0208333333333333
 47
0.0
 47
0.0
 47
0.0
 47
0.0
 47
1.0
 47
0.0
 47
0.0
 47
0.0
 47
0.0
 47
1.0
171
     0
 49
0.0208333333333333
 49
0.0
 49
0.0
 49
0.0
 49
0.0
 49
0.0208333333333333
 49
0.0
 49
0.0
 49
0.0
 49
0.0
 49
1.0
 49
0.0
 49
0.0
 49
0.0
 49
0.0
 49
1.0
175
     0
142
0.0208333333333333
142
0.0
142
0.0
142
0.0
142
0.0
142
0.0208333333333333
142
0.0
142
0.0
142
0.0
142
0.0
142
1.0
142
0.0
142
0.0
142
0.0
142
0.0
142
1.0
179
     0
144
0.0208333333333333
144
0.0
144
0.0
144
0.0
144
0.0
144
0.0208333333333333
144
0.0
144
0.0
144
0.0
144
0.0
144
1.0
144
0.0
144
0.0
144
0.0
144
0.0
144
1.0
147
0.0208333333333333
147
0.0
147
0.0
147
0.0
147
0.0
147
0.0208333333333333
147
0.0
147
0.0
147
0.0
147
0.0
147
1.0
147
0.0
147
0.0
147
0.0
147
0.0
147
1.0
  0
MLEADERSTYLE
  5
359
102
{ACAD_REACTORS
330
358
102
}
330
358
100
AcDbMLeaderStyle
179
     2
170
     2
171
     1
172
     0
 90
        2
 40
0.0
 41
0.0
173
     1
 91
-1056964608
340
17
 92
       -2
290
     1
 42
2.0
291
     1
 43
0.36
  3
Standard
 44
4.0
300

342
14
174
     1
178
     6
175
     1
176
     0
 93
-1056964608
 45
4.0
292
     0
297
     0
 46
4.0
 94
-1056964608
 47
1.0
 49
1.0
140
1.0
293
     1
141
0.0
294
     1
177
     0
142
1.0
295
     0
296
     0
143
0.125
271
     0
272
     9
273
     9
298
     0
  0
MLINESTYLE
  5
2E
102
{ACAD_REACTORS
330
28
102
}
330
28
100
AcDbMlineStyle
  2
STANDARD
 70
     0
  3

 62
     0
 51
90.0
 52
90.0
 71
     2
 49
0.5
 62
   256
  6
BYLAYER
 49
-0.5
 62
   256
  6
BYLAYER
  0
ACDBPLACEHOLDER
  5
6
102
{ACAD_REACTORS
330
7
102
}
330
7
  0
SCALE
  5
347
102
{ACAD_REACTORS
330
346
102
}
330
346
100
AcDbScale
 70
     0
300
1:1
140
1.0
141
1.0
290
     1
  0
SCALE
  5
348
102
{ACAD_REACTORS
330
346
102
}
330
346
100
AcDbScale
 70
     0
300
1:2
140
1.0
141
2.0
290
     0
  0
SCALE
  5
349
102
{ACAD_REACTORS
330
346
102
}
330
346
100
AcDbScale
 70
     0
300
1:4
140
1.0
141
4.0
290
     0
  0
SCALE
  5
34A
102
{ACAD_REACTORS
330
346
102
}
330
346
100
AcDbScale
 70
     0
300
1:5
140
1.0
141
5.0
290
     0
  0
SCALE
  5
34B
102
{ACAD_REACTORS
330
346
102
}
330
346
100
AcDbScale
 70
     0
300
1:8
140
1.0
141
8.0
290
     0
  0
SCALE
  5
34C
102
{ACAD_REACTORS
330
346
102
}
330
346
100
AcDbScale
 70
     0
300
1:10
140
1.0
141
10.0
290
     0
  0
SCALE
  5
34D
102
{ACAD_REACTORS
330
346
102
}
330
346
100
AcDbScale
 70
     0
300
1:16
140
1.0
141
16.0
290
     0
  0
SCALE
  5
34E
102
{ACAD_REACTORS
330
346
102
}
330
346
100
AcDbScale
 70
     0
300
1:20
140
1.0
141
20.0
290
     0
  0
SCALE
  5
34F
102
{ACAD_REACTORS
330
346
102
}
330
346
100
AcDbScale
 70
     0
300
1:30
140
1.0
141
30.0
290
     0
  0
SCALE
  5
350
102
{ACAD_REACTORS
330
346
102
}
330
346
100
AcDbScale
 70
     0
300
1:40
140
1.0
141
40.0
290
     0
  0
SCALE
  5
351
102
{ACAD_REACTORS
330
346
102
}
330
346
100
AcDbScale
 70
     0
300
1:50
140
1.0
141
50.0
290
     0
  0
SCALE
  5
352
102
{ACAD_REACTORS
330
346
102
}
330
346
100
AcDbScale
 70
     0
300
1:100
140
1.0
141
100.0
290
     0
  0
SCALE
  5
353
102
{ACAD_REACTORS
330
346
102
}
330
346
100
AcDbScale
 70
     0
300
2:1
140
2.0
141
1.0
290
     0
  0
SCALE
  5
354
102
{ACAD_REACTORS
330
346
102
}
330
346
100
AcDbScale
 70
     0
300
4:1
140
4.0
141
1.0
290
     0
  0
SCALE
  5
355
102
{ACAD_REACTORS
330
346
102
}
330
346
100
AcDbScale
 70
     0
300
8:1
140
8.0
141
1.0
290
     0
  0
SCALE
  5
356
102
{ACAD_REACTORS
330
346
102
}
330
346
100
AcDbScale
 70
     0
300
10:1
140
10.0
141
1.0
290
     0
  0
SCALE
  5
357
102
{ACAD_REACTORS
330
346
102
}
330
346
100
AcDbScale
 70
     0
300
100:1
140
100.0
141
1.0
290
     0
  0
ACDBSECTIONVIEWSTYLE
  5
35B
102
{ACAD_XDICTIONARY
360
4BD
102
}
102
{ACAD_REACTORS
330
35A
330
3BE
102
}
330
35A
100
AcDbModelDocViewStyle
 70
     0
  3
Metric50
290
     0
100
AcDbSectionViewStyle
 70
     0
 71
     0
 90
      102
 71
     1
340
14
 62
   256
 40
5.0
340
0
340
0
 62
   256
 40
5.0
300
I, O, Q, S, X, Z
 40
10.0
 90
        0
 40
2.5
 90
        0
 71
     2
340
9
 90
       25
 62
   256
340
9
 90
       50
 62
   256
 40
5.0
 40
2.5
 40
5.0
 71
     3
340
14
 62
   256
 40
5.0
 90
        0
 40
15.0
 90
        1
300
%<\AcVar ViewSectionStartId>%-%<\AcVar ViewSectionEndId>% (%<\AcVar ViewScale \f "%sn">%)
 71
     4
 62
   256
 62
   257
300
ANSI31
 40
1.0
 90
        0
290
     0
290
     0
 90
        6
 40
0.0
 40
1.570796326794896
 40
0.2617993877991494
 40
1.308996938995747
 40
-0.2617993877991494
 40
1.832595714594046
  0
TABLESTYLE
  5
2F
102
{ACAD_XDICTIONARY
360
4BB
102
}
102
{ACAD_REACTORS
330
2C
102
}
330
2C
100
AcDbTableStyle
280
     0
  3
Standard
 70
     0
 71
     0
 40
1.5
 41
1.5
280
     0
281
     0
  7
STANDARD
140
4.5
170
     2
 62
     0
 63
     7
283
     0
 90
        4
 91
        0
  1

274
    -2
284
     1
 64
     0
275
    -2
285
     1
 65
     0
276
    -2
286
     1
 66
     0
277
    -2
287
     1
 67
     0
278
    -2
288
     1
 68
     0
279
    -2
289
     1
 69
     0
  7
STANDARD
140
6.0
170
     5
 62
     0
 63
     7
283
     0
 90
        4
 91
        0
  1

274
    -2
284
     1
 64
     0
275
    -2
285
     1
 65
     0
276
    -2
286
     1
 66
     0
277
    -2
287
     1
 67
     0
278
    -2
288
     1
 68
     0
279
    -2
289
     1
 69
     0
  7
STANDARD
140
4.5
170
     5
 62
     0
 63
     7
283
     0
 90
        4
 91
        0
  1

274
    -2
284
     1
 64
     0
275
    -2
285
     1
 65
     0
276
    -2
286
     1
 66
     0
277
    -2
287
     1
 67
     0
278
    -2
288
     1
 68
     0
279
    -2
289
     1
 69
     0
  0
VISUALSTYLE
  5
333
102
{ACAD_REACTORS
330
32D
102
}
330
32D
100
AcDbVisualStyle
  2
2dWireframe
 70
     4
177
     3
291
     0
 70
    58
 90
        0
176
     1
 90
        2
176
     1
 90
        0
176
     1
 90
        0
176
     1
 40
0.6
176
     1
 40
30.0
176
     1
 62
     7
420
 16777215
176
     1
 90
        1
176
     1
 90
        4
176
     1
 62
     7
176
     1
 62
   257
176
     1
 90
        1
176
     1
 90
        1
176
     1
 40
1.0
176
     1
 90
        0
176
     1
 62
   257
176
     1
 40
1.0
176
     1
 90
        1
176
     1
 90
        6
176
     1
 90
        2
176
     1
 62
     7
176
     1
 90
        5
176
     1
 90
        0
176
     1
 90
        0
176
     1
290
     0
176
     1
 90
        1
176
     1
 40
0.0
176
     1
 90
        0
176
     1
290
     1
176
     1
290
     1
176
     1
290
     0
176
     1
290
     0
176
     1
290
     0
176
     1
290
     0
176
     1
290
     0
176
     1
290
     0
176
     1
290
     0
176
     1
 90
       50
176
     1
 40
0.0
176
     1
 40
1.0
176
     1
 90
        0
176
     1
 62
    18
420
        0
176
     1
 90
       50
176
     1
 90
        3
176
     1
 62
     5
420
      255
176
     1
290
     0
176
     1
 90
       50
176
     1
 90
       50
176
     1
 90
       50
176
     1
290
     0
176
     1
 90
       50
176
     1
 62
   256
176
     0
 40
1.0
176
     0
 90
        2
176
     1
  1
strokes_ogs.tif
176
     1
290
     0
176
     1
 40
1.0
176
     1
 40
1.0
176
     1
  0
VISUALSTYLE
  5
332
102
{ACAD_REACTORS
330
32D
102
}
330
32D
100
AcDbVisualStyle
  2
Basic
 70
     7
177
     3
291
     1
 70
    58
 90
        1
176
     1
 90
        0
176
     1
 90
        1
176
     1
 90
        0
176
     1
 40
0.6
176
     1
 40
30.0
176
     1
 62
     7
420
 16777215
176
     1
 90
        0
176
     1
 90
        4
176
     1
 62
     7
176
     1
 62
   257
176
     1
 90
        1
176
     1
 90
        1
176
     1
 40
1.0
176
     1
 90
        8
176
     1
 62
     7
176
     1
 40
1.0
176
     1
 90
        1
176
     1
 90
        6
176
     1
 90
        2
176
     1
 62
     7
176
     1
 90
        5
176
     1
 90
        0
176
     1
 90
        0
176
     1
290
     0
176
     1
 90
        1
176
     1
 40
0.0
176
     1
 90
        0
176
     1
290
     0
176
     1
290
     1
176
     1
290
     1
176
     1
290
     0
176
     1
290
     0
176
     1
290
     0
176
     1
290
     0
176
     1
290
     0
176
     1
290
     0
176
     1
 90
       50
176
     1
 40
0.0
176
     1
 40
1.0
176
     1
 90
        0
176
     1
 62
    18
420
        0
176
     1
 90
       50
176
     1
 90
        3
176
     1
 62
     5
420
      255
176
     1
290
     0
176
     1
 90
       50
176
     1
 90
       50
176
     1
 90
       50
176
     1
290
     0
176
     1
 90
       50
176
     1
 62
   256
176
     0
 40
1.0
176
     0
 90
        2
176
     1
  1
strokes_ogs.tif
176
     1
290
     0
176
     1
 40
1.0
176
     1
 40
1.0
176
     1
  0
VISUALSTYLE
  5
339
102
{ACAD_REACTORS
330
32D
102
}
330
32D
100
AcDbVisualStyle
  2
Brighten
 70
    12
177
     3
291
     1
 70
    58
 90
        2
176
     1
 90
        2
176
     1
 90
        0
176
     1
 90
        0
176
     1
 40
0.6
176
     1
 40
30.0
176
     1
 62
     7
420
 16777215
176
     1
 90
        1
176
     1
 90
        4
176
     1
 62
     7
176
     1
 62
   257
176
     1
 90
        1
176
     1
 90
        1
176
     1
 40
1.0
176
     1
 90
        8
176
     1
 62
     7
176
     1
 40
1.0
176
     1
 90
        1
176
     1
 90
        6
176
     1
 90
        2
176
     1
 62
     7
176
     1
 90
        5
176
     1
 90
        0
176
     1
 90
        0
176
     1
290
     0
176
     1
 90
        1
176
     1
 40
50.0
176
     1
 90
        0
176
     1
290
     0
176
     1
290
     1
176
     1
290
     1
176
     1
290
     0
176
     1
290
     0
176
     1
290
     0
176
     1
290
     0
176
     1
290
     0
176
     1
290
     0
176
     1
 90
       50
176
     1
 40
0.0
176
     1
 40
1.0
176
     1
 90
        0
176
     1
 62
    18
420
        0
176
     1
 90
       50
176
     1
 90
        3
176
     1
 62
     5
420
      255
176
     1
290
     0
176
     1
 90
       50
176
     1
 90
       50
176
     1
 90
       50
176
     1
290
     0
176
     1
 90
       50
176
     1
 62
   256
176
     0
 40
1.0
176
     0
 90
        2
176
     1
  1
strokes_ogs.tif
176
     1
290
     0
176
     1
 40
1.0
176
     1
 40
1.0
176
     1
  0
VISUALSTYLE
  5
33D
102
{ACAD_REACTORS
330
32D
102
}
330
32D
100
AcDbVisualStyle
  2
ColorChange
 70
    16
177
     3
291
     1
 70
    58
 90
        2
176
     1
 90
        2
176
     1
 90
        3
176
     1
 90
        0
176
     1
 40
0.6
176
     1
 40
30.0
176
     1
 62
     8
420
  8421504
176
     1
 90
        1
176
     1
 90
        4
176
     1
 62
     7
176
     1
 62
   257
176
     1
 90
        1
176
     1
 90
        1
176
     1
 40
1.0
176
     1
 90
        8
176
     1
 62
     8
420
  8421504
176
     1
 40
1.0
176
     1
 90
        1
176
     1
 90
        6
176
     1
 90
        2
176
     1
 62
     7
176
     1
 90
        5
176
     1
 90
        0
176
     1
 90
        0
176
     1
290
     0
176
     1
 90
        1
176
     1
 40
0.0
176
     1
 90
        0
176
     1
290
     0
176
     1
290
     1
176
     1
290
     1
176
     1
290
     0
176
     1
290
     0
176
     1
290
     0
176
     1
290
     0
176
     1
290
     0
176
     1
290
     0
176
     1
 90
       50
176
     1
 40
0.0
176
     1
 40
1.0
176
     1
 90
        0
176
     1
 62
    18
420
        0
176
     1
 90
       50
176
     1
 90
        3
176
     1
 62
     5
420
      255
176
     1
290
     0
176
     1
 90
       50
176
     1
 90
       50
176
     1
 90
       50
176
     1
290
     0
176
     1
 90
       50
176
     1
 62
   256
176
     0
 40
1.0
176
     0
 90
        2
176
     1
  1
strokes_ogs.tif
176
     1
290
     0
176
     1
 40
1.0
176
     1
 40
1.0
176
     1
  0
VISUALSTYLE
  5
336
102
{ACAD_REACTORS
330
32D
102
}
330
32D
100
AcDbVisualStyle
  2
Conceptual
 70
     9
177
     3
291
     0
 70
    58
 90
        3
176
     1
 90
        2
176
     1
 90
        0
176
     1
 90
        0
176
     1
 40
0.6
176
     1
 40
30.0
176
     1
 62
     7
420
 16777215
176
     1
 90
        2
176
     1
 90
        2
176
     1
 62
     7
176
     1
 62
   257
176
     1
 90
        1
176
     1
 90
        1
176
     1
 40
179.0
176
     1
 90
        8
176
     1
 62
     7
176
     1
 40
1.0
176
     1
 90
        1
176
     1
 90
        6
176
     1
 90
        2
176
     1
 62
     7
176
     1
 90
        3
176
     1
 90
        0
176
     1
 90
        0
176
     1
290
     0
176
     1
 90
        1
176
     1
 40
0.0
176
     1
 90
        0
176
     1
290
     0
176
     1
290
     1
176
     1
290
     1
176
     1
290
     0
176
     1
290
     0
176
     1
290
     0
176
     1
290
     0
176
     1
290
     0
176
     1
290
     0
176
     1
 90
       50
176
     1
 40
0.0
176
     1
 40
1.0
176
     1
 90
        0
176
     1
 62
    18
420
        0
176
     1
 90
       50
176
     1
 90
        3
176
     1
 62
     5
420
      255
176
     1
290
     0
176
     1
 90
       50
176
     1
 90
       50
176
     1
 90
       50
176
     1
290
     0
176
     1
 90
       50
176
     1
 62
   256
176
     0
 40
1.0
176
     0
 90
        2
176
     1
  1
strokes_ogs.tif
176
     1
290
     0
176
     1
 40
1.0
176
     1
 40
1.0
176
     1
  0
VISUALSTYLE
  5
338
102
{ACAD_REACTORS
330
32D
102
}
330
32D
100
AcDbVisualStyle
  2
Dim
 70
    11
177
     3
291
     1
 70
    58
 90
        2
176
     1
 90
        2
176
     1
 90
        0
176
     1
 90
        0
176
     1
 40
0.6
176
     1
 40
30.0
176
     1
 62
     7
420
 16777215
176
     1
 90
        1
176
     1
 90
        4
176
     1
 62
     7
176
     1
 62
   257
176
     1
 90
        1
176
     1
 90
        1
176
     1
 40
1.0
176
     1
 90
        8
176
     1
 62
     7
176
     1
 40
1.0
176
     1
 90
        1
176
     1
 90
        6
176
     1
 90
        2
176
     1
 62
     7
176
     1
 90
        5
176
     1
 90
        0
176
     1
 90
        0
176
     1
290
     0
176
     1
 90
        1
176
     1
 40
-50.0
176
     1
 90
        0
176
     1
290
     0
176
     1
290
     1
176
     1
290
     1
176
     1
290
     0
176
     1
290
     0
176
     1
290
     0
176
     1
290
     0
176
     1
290
     0
176
     1
290
     0
176
     1
 90
       50
176
     1
 40
0.0
176
     1
 40
1.0
176
     1
 90
        0
176
     1
 62
    18
420
        0
176
     1
 90
       50
176
     1
 90
        3
176
     1
 62
     5
420
      255
176
     1
290
     0
176
     1
 90
       50
176
     1
 90
       50
176
     1
 90
       50
176
     1
290
     0
176
     1
 90
       50
176
     1
 62
   256
176
     0
 40
1.0
176
     0
 90
        2
176
     1
  1
strokes_ogs.tif
176
     1
290
     0
176
     1
 40
1.0
176
     1
 40
1.0
176
     1
  0
VISUALSTYLE
  5
345
102
{ACAD_REACTORS
330
32D
102
}
330
32D
100
AcDbVisualStyle
  2
EdgeColorOff
 70
    22
177
     3
291
     1
 70
    58
 90
        2
176
     0
 90
        2
176
     0
 90
        0
176
     0
 90
        0
176
     0
 40
0.6
176
     0
 40
30.0
176
     0
 62
     7
420
 16777215
176
     0
 90
        1
176
     0
 90
        4
176
     0
 62
     7
176
     0
 62
   257
176
     0
 90
        1
176
     0
 90
        1
176
     0
 40
1.0
176
     0
 90
        8
176
     2
 62
     7
176
     0
 40
1.0
176
     0
 90
        1
176
     0
 90
        6
176
     0
 90
        2
176
     0
 62
     7
176
     0
 90
        5
176
     0
 90
        0
176
     0
 90
        0
176
     0
290
     0
176
     0
 90
        1
176
     0
 40
0.0
176
     0
 90
        0
176
     0
290
     0
176
     1
290
     1
176
     1
290
     1
176
     1
290
     0
176
     1
290
     0
176
     1
290
     0
176
     1
290
     0
176
     1
290
     0
176
     1
290
     0
176
     1
 90
       50
176
     0
 40
0.0
176
     0
 40
1.0
176
     0
 90
        0
176
     0
 62
    18
420
        0
176
     0
 90
       50
176
     0
 90
        3
176
     0
 62
     5
420
      255
176
     0
290
     0
176
     1
 90
       50
176
     0
 90
       50
176
     0
 90
       50
176
     0
290
     0
176
     1
 90
       50
176
     0
 62
   256
176
     0
 40
1.0
176
     0
 90
        2
176
     0
  1
strokes_ogs.tif
176
     0
290
     0
176
     1
 40
1.0
176
     0
 40
1.0
176
     0
  0
VISUALSTYLE
  5
33C
102
{ACAD_REACTORS
330
32D
102
}
330
32D
100
AcDbVisualStyle
  2
Facepattern
 70
    15
177
     3
291
     1
 70
    58
 90
        2
176
     1
 90
        2
176
     1
 90
        0
176
     1
 90
        0
176
     1
 40
0.6
176
     1
 40
30.0
176
     1
 62
     7
420
 16777215
176
     1
 90
        1
176
     1
 90
        4
176
     1
 62
     7
176
     1
 62
   257
176
     1
 90
        1
176
     1
 90
        1
176
     1
 40
1.0
176
     1
 90
        8
176
     1
 62
     7
176
     1
 40
1.0
176
     1
 90
        1
176
     1
 90
        6
176
     1
 90
        2
176
     1
 62
     7
176
     1
 90
        5
176
     1
 90
        0
176
     1
 90
        0
176
     1
290
     0
176
     1
 90
        1
176
     1
 40
0.0
176
     1
 90
        0
176
     1
290
     0
176
     1
290
     1
176
     1
290
     1
176
     1
290
     0
176
     1
290
     0
176
     1
290
     0
176
     1
290
     0
176
     1
290
     0
176
     1
290
     0
176
     1
 90
       50
176
     1
 40
0.0
176
     1
 40
1.0
176
     1
 90
        0
176
     1
 62
    18
420
        0
176
     1
 90
       50
176
     1
 90
        3
176
     1
 62
     5
420
      255
176
     1
290
     0
176
     1
 90
       50
176
     1
 90
       50
176
     1
 90
       50
176
     1
290
     0
176
     1
 90
       50
176
     1
 62
   256
176
     0
 40
1.0
176
     0
 90
        2
176
     1
  1
strokes_ogs.tif
176
     1
290
     0
176
     1
 40
1.0
176
     1
 40
1.0
176
     1
  0
VISUALSTYLE
  5
32E
102
{ACAD_REACTORS
330
32D
102
}
330
32D
100
AcDbVisualStyle
  2
Flat
 70
     0
177
     3
291
     1
 70
    58
 90
        2
176
     1
 90
        1
176
     1
 90
        1
176
     1
 90
        2
176
     1
 40
0.6
176
     1
 40
30.0
176
     1
 62
     7
420
 16777215
176
     1
 90
        0
176
     1
 90
        0
176
     1
 62
     7
176
     1
 62
   257
176
     1
 90
        1
176
     1
 90
        1
176
     1
 40
1.0
176
     1
 90
        8
176
     1
 62
     7
176
     1
 40
1.0
176
     1
 90
        1
176
     1
 90
        6
176
     1
 90
        2
176
     1
 62
     7
176
     1
 90
        5
176
     1
 90
        0
176
     1
 90
        0
176
     1
290
     0
176
     1
 90
       13
176
     1
 40
0.0
176
     1
 90
        0
176
     1
290
     0
176
     1
290
     1
176
     1
290
     1
176
     1
290
     0
176
     1
290
     0
176
     1
290
     0
176
     1
290
     0
176
     1
290
     0
176
     1
290
     0
176
     1
 90
       50
176
     1
 40
0.0
176
     1
 40
1.0
176
     1
 90
        0
176
     1
 62
    18
420
        0
176
     1
 90
       50
176
     1
 90
        3
176
     1
 62
     5
420
      255
176
     1
290
     0
176
     1
 90
       50
176
     1
 90
       50
176
     1
 90
       50
176
     1
290
     0
176
     1
 90
       50
176
     1
 62
   256
176
     0
 40
1.0
176
     0
 90
        2
176
     1
  1
strokes_ogs.tif
176
     1
290
     0
176
     1
 40
1.0
176
     1
 40
1.0
176
     1
  0
VISUALSTYLE
  5
32F
102
{ACAD_REACTORS
330
32D
102
}
330
32D
100
AcDbVisualStyle
  2
FlatWithEdges
 70
     1
177
     3
291
     1
 70
    58
 90
        2
176
     1
 90
        1
176
     1
 90
        1
176
     1
 90
        2
176
     1
 40
0.6
176
     1
 40
30.0
176
     1
 62
     7
420
 16777215
176
     1
 90
        1
176
     1
 90
        0
176
     1
 62
     7
176
     1
 62
   257
176
     1
 90
        1
176
     1
 90
        1
176
     1
 40
1.0
176
     1
 90
        0
176
     1
 62
   257
176
     1
 40
1.0
176
     1
 90
        1
176
     1
 90
        6
176
     1
 90
        2
176
     1
 62
     7
176
     1
 90
        5
176
     1
 90
        0
176
     1
 90
        0
176
     1
290
     0
176
     1
 90
       13
176
     1
 40
0.0
176
     1
 90
        0
176
     1
290
     0
176
     1
290
     1
176
     1
290
     1
176
     1
290
     0
176
     1
290
     0
176
     1
290
     0
176
     1
290
     0
176
     1
290
     0
176
     1
290
     0
176
     1
 90
       50
176
     1
 40
0.0
176
     1
 40
1.0
176
     1
 90
        0
176
     1
 62
    18
420
        0
176
     1
 90
       50
176
     1
 90
        3
176
     1
 62
     5
420
      255
176
     1
290
     0
176
     1
 90
       50
176
     1
 90
       50
176
     1
 90
       50
176
     1
290
     0
176
     1
 90
       50
176
     1
 62
   256
176
     0
 40
1.0
176
     0
 90
        2
176
     1
  1
strokes_ogs.tif
176
     1
290
     0
176
     1
 40
1.0
176
     1
 40
1.0
176
     1
  0
VISUALSTYLE
  5
330
102
{ACAD_REACTORS
330
32D
102
}
330
32D
100
AcDbVisualStyle
  2
Gouraud
 70
     2
177
     3
291
     1
 70
    58
 90
        2
176
     1
 90
        2
176
     1
 90
        1
176
     1
 90
        2
176
     1
 40
0.6
176
     1
 40
30.0
176
     1
 62
     7
420
 16777215
176
     1
 90
        0
176
     1
 90
        0
176
     1
 62
     7
176
     1
 62
   257
176
     1
 90
        1
176
     1
 90
        1
176
     1
 40
1.0
176
     1
 90
        0
176
     1
 62
     7
176
     1
 40
1.0
176
     1
 90
        1
176
     1
 90
        6
176
     1
 90
        2
176
     1
 62
     7
176
     1
 90
        5
176
     1
 90
        0
176
     1
 90
        0
176
     1
290
     0
176
     1
 90
       13
176
     1
 40
0.0
176
     1
 90
        0
176
     1
290
     0
176
     1
290
     1
176
     1
290
     1
176
     1
290
     0
176
     1
290
     0
176
     1
290
     0
176
     1
290
     0
176
     1
290
     0
176
     1
290
     0
176
     1
 90
       50
176
     1
 40
0.0
176
     1
 40
1.0
176
     1
 90
        0
176
     1
 62
    18
420
        0
176
     1
 90
       50
176
     1
 90
        3
176
     1
 62
     5
420
      255
176
     1
290
     0
176
     1
 90
       50
176
     1
 90
       50
176
     1
 90
       50
176
     1
290
     0
176
     1
 90
       50
176
     1
 62
   256
176
     0
 40
1.0
176
     0
 90
        2
176
     1
  1
strokes_ogs.tif
176
     1
290
     0
176
     1
 40
1.0
176
     1
 40
1.0
176
     1
  0
VISUALSTYLE
  5
331
102
{ACAD_REACTORS
330
32D
102
}
330
32D
100
AcDbVisualStyle
  2
GouraudWithEdges
 70
     3
177
     3
291
     1
 70
    58
 90
        2
176
     1
 90
        2
176
     1
 90
        1
176
     1
 90
        2
176
     1
 40
0.6
176
     1
 40
30.0
176
     1
 62
     7
420
 16777215
176
     1
 90
        1
176
     1
 90
        0
176
     1
 62
     7
176
     1
 62
   257
176
     1
 90
        1
176
     1
 90
        1
176
     1
 40
1.0
176
     1
 90
        0
176
     1
 62
   257
176
     1
 40
1.0
176
     1
 90
        1
176
     1
 90
        6
176
     1
 90
        2
176
     1
 62
     7
176
     1
 90
        5
176
     1
 90
        0
176
     1
 90
        0
176
     1
290
     0
176
     1
 90
       13
176
     1
 40
0.0
176
     1
 90
        0
176
     1
290
     0
176
     1
290
     1
176
     1
290
     1
176
     1
290
     0
176
     1
290
     0
176
     1
290
     0
176
     1
290
     0
176
     1
290
     0
176
     1
290
     0
176
     1
 90
       50
176
     1
 40
0.0
176
     1
 40
1.0
176
     1
 90
        0
176
     1
 62
    18
420
        0
176
     1
 90
       50
176
     1
 90
        3
176
     1
 62
     5
420
      255
176
     1
290
     0
176
     1
 90
       50
176
     1
 90
       50
176
     1
 90
       50
176
     1
290
     0
176
     1
 90
       50
176
     1
 62
   256
176
     0
 40
1.0
176
     0
 90
        2
176
     1
  1
strokes_ogs.tif
176
     1
290
     0
176
     1
 40
1.0
176
     1
 40
1.0
176
     1
  0
VISUALSTYLE
  5
335
102
{ACAD_REACTORS
330
32D
102
}
330
32D
100
AcDbVisualStyle
  2
Hidden
 70
     6
177
     3
291
     0
 70
    58
 90
        1
176
     1
 90
        2
176
     1
 90
        2
176
     1
 90
        0
176
     1
 40
0.6
176
     1
 40
30.0
176
     1
 62
     7
420
 16777215
176
     1
 90
        2
176
     1
 90
        2
176
     1
 62
     7
176
     1
 62
   257
176
     1
 90
        2
176
     1
 90
        1
176
     1
 40
40.0
176
     1
 90
        0
176
     1
 62
   257
176
     1
 40
1.0
176
     1
 90
        1
176
     1
 90
        6
176
     1
 90
        2
176
     1
 62
     7
176
     1
 90
        3
176
     1
 90
        0
176
     1
 90
        0
176
     1
290
     0
176
     1
 90
        1
176
     1
 40
0.0
176
     1
 90
        0
176
     1
290
     0
176
     1
290
     1
176
     1
290
     1
176
     1
290
     0
176
     1
290
     0
176
     1
290
     0
176
     1
290
     0
176
     1
290
     0
176
     1
290
     0
176
     1
 90
       50
176
     1
 40
0.0
176
     1
 40
1.0
176
     1
 90
        0
176
     1
 62
    18
420
        0
176
     1
 90
       50
176
     1
 90
        3
176
     1
 62
     5
420
      255
176
     1
290
     0
176
     1
 90
       50
176
     1
 90
       50
176
     1
 90
       50
176
     1
290
     0
176
     1
 90
       50
176
     1
 62
   256
176
     0
 40
1.0
176
     0
 90
        2
176
     1
  1
strokes_ogs.tif
176
     1
290
     0
176
     1
 40
1.0
176
     1
 40
1.0
176
     1
  0
VISUALSTYLE
  5
343
102
{ACAD_REACTORS
330
32D
102
}
330
32D
100
AcDbVisualStyle
  2
JitterOff
 70
    20
177
     3
291
     1
 70
    58
 90
        2
176
     0
 90
        2
176
     0
 90
        0
176
     0
 90
        0
176
     0
 40
0.6
176
     0
 40
30.0
176
     0
 62
     7
420
 16777215
176
     0
 90
        1
176
     0
 90
        4
176
     0
 62
     7
176
     0
 62
   257
176
     0
 90
        1
176
     0
 90
        1
176
     0
 40
1.0
176
     0
 90
       10
176
     2
 62
     7
176
     0
 40
1.0
176
     0
 90
        1
176
     0
 90
        6
176
     0
 90
        2
176
     0
 62
     7
176
     0
 90
        5
176
     0
 90
        0
176
     0
 90
        0
176
     0
290
     0
176
     0
 90
        1
176
     0
 40
0.0
176
     0
 90
        0
176
     0
290
     0
176
     1
290
     1
176
     1
290
     1
176
     1
290
     0
176
     1
290
     0
176
     1
290
     0
176
     1
290
     0
176
     1
290
     0
176
     1
290
     0
176
     1
 90
       50
176
     0
 40
0.0
176
     0
 40
1.0
176
     0
 90
        0
176
     0
 62
    18
420
        0
176
     0
 90
       50
176
     0
 90
        3
176
     0
 62
     5
420
      255
176
     0
290
     0
176
     1
 90
       50
176
     0
 90
       50
176
     0
 90
       50
176
     0
290
     0
176
     1
 90
       50
176
     0
 62
   256
176
     0
 40
1.0
176
     0
 90
        2
176
     0
  1
strokes_ogs.tif
176
     0
290
     0
176
     1
 40
1.0
176
     0
 40
1.0
176
     0
  0
VISUALSTYLE
  5
33B
102
{ACAD_REACTORS
330
32D
102
}
330
32D
100
AcDbVisualStyle
  2
Linepattern
 70
    14
177
     3
291
     1
 70
    58
 90
        2
176
     1
 90
        2
176
     1
 90
        0
176
     1
 90
        0
176
     1
 40
0.6
176
     1
 40
30.0
176
     1
 62
     7
420
 16777215
176
     1
 90
        1
176
     1
 90
        4
176
     1
 62
     7
176
     1
 62
   257
176
     1
 90
        7
176
     1
 90
        7
176
     1
 40
1.0
176
     1
 90
        8
176
     1
 62
     7
176
     1
 40
1.0
176
     1
 90
        1
176
     1
 90
        6
176
     1
 90
        2
176
     1
 62
     7
176
     1
 90
        5
176
     1
 90
        0
176
     1
 90
        0
176
     1
290
     0
176
     1
 90
        1
176
     1
 40
0.0
176
     1
 90
        0
176
     1
290
     0
176
     1
290
     1
176
     1
290
     1
176
     1
290
     0
176
     1
290
     0
176
     1
290
     0
176
     1
290
     0
176
     1
290
     0
176
     1
290
     0
176
     1
 90
       50
176
     1
 40
0.0
176
     1
 40
1.0
176
     1
 90
        0
176
     1
 62
    18
420
        0
176
     1
 90
       50
176
     1
 90
        3
176
     1
 62
     5
420
      255
176
     1
290
     0
176
     1
 90
       50
176
     1
 90
       50
176
     1
 90
       50
176
     1
290
     0
176
     1
 90
       50
176
     1
 62
   256
176
     0
 40
1.0
176
     0
 90
        2
176
     1
  1
strokes_ogs.tif
176
     1
290
     0
176
     1
 40
1.0
176
     1
 40
1.0
176
     1
  0
VISUALSTYLE
  5
344
102
{ACAD_REACTORS
330
32D
102
}
330
32D
100
AcDbVisualStyle
  2
OverhangOff
 70
    21
177
     3
291
     1
 70
    58
 90
        2
176
     0
 90
        2
176
     0
 90
        0
176
     0
 90
        0
176
     0
 40
0.6
176
     0
 40
30.0
176
     0
 62
     7
420
 16777215
176
     0
 90
        1
176
     0
 90
        4
176
     0
 62
     7
176
     0
 62
   257
176
     0
 90
        1
176
     0
 90
        1
176
     0
 40
1.0
176
     0
 90
        9
176
     2
 62
     7
176
     0
 40
1.0
176
     0
 90
        1
176
     0
 90
        6
176
     0
 90
        2
176
     0
 62
     7
176
     0
 90
        5
176
     0
 90
        0
176
     0
 90
        0
176
     0
290
     0
176
     0
 90
        1
176
     0
 40
0.0
176
     0
 90
        0
176
     0
290
     0
176
     1
290
     1
176
     1
290
     1
176
     1
290
     0
176
     1
290
     0
176
     1
290
     0
176
     1
290
     0
176
     1
290
     0
176
     1
290
     0
176
     1
 90
       50
176
     0
 40
0.0
176
     0
 40
1.0
176
     0
 90
        0
176
     0
 62
    18
420
        0
176
     0
 90
       50
176
     0
 90
        3
176
     0
 62
     5
420
      255
176
     0
290
     0
176
     1
 90
       50
176
     0
 90
       50
176
     0
 90
       50
176
     0
290
     0
176
     1
 90
       50
176
     0
 62
   256
176
     0
 40
1.0
176
     0
 90
        2
176
     0
  1
strokes_ogs.tif
176
     0
290
     0
176
     1
 40
1.0
176
     0
 40
1.0
176
     0
  0
VISUALSTYLE
  5
337
102
{ACAD_REACTORS
330
32D
102
}
330
32D
100
AcDbVisualStyle
  2
Realistic
 70
     8
177
     3
291
     0
 70
    58
 90
        2
176
     1
 90
        3
176
     1
 90
        0
176
     1
 90
        2
176
     1
 40
0.6
176
     1
 40
30.0
176
     1
 62
     7
420
 16777215
176
     1
 90
        0
176
     1
 90
        0
176
     1
 62
     7
176
     1
 62
   257
176
     1
 90
        1
176
     1
 90
        1
176
     1
 40
1.0
176
     1
 90
        8
176
     1
 62
   257
176
     1
 40
1.0
176
     1
 90
        1
176
     1
 90
        6
176
     1
 90
        2
176
     1
 62
     7
176
     1
 90
        3
176
     1
 90
        0
176
     1
 90
        0
176
     1
290
     0
176
     1
 90
       13
176
     1
 40
0.0
176
     1
 90
        0
176
     1
290
     0
176
     1
290
     1
176
     1
290
     1
176
     1
290
     0
176
     1
290
     0
176
     1
290
     0
176
     1
290
     0
176
     1
290
     0
176
     1
290
     0
176
     1
 90
       50
176
     1
 40
0.0
176
     1
 40
1.0
176
     1
 90
        0
176
     1
 62
    18
420
        0
176
     1
 90
       50
176
     1
 90
        3
176
     1
 62
     5
420
      255
176
     1
290
     0
176
     1
 90
       50
176
     1
 90
       50
176
     1
 90
       50
176
     1
290
     0
176
     1
 90
       50
176
     1
 62
   256
176
     0
 40
1.0
176
     0
 90
        2
176
     1
  1
strokes_ogs.tif
176
     1
290
     0
176
     1
 40
1.0
176
     1
 40
1.0
176
     1
  0
VISUALSTYLE
  5
342
102
{ACAD_REACTORS
330
32D
102
}
330
32D
100
AcDbVisualStyle
  2
Shaded
 70
    27
177
     3
291
     0
 70
    58
 90
        2
176
     1
 90
        2
176
     1
 90
        1
176
     1
 90
        2
176
     1
 40
0.6
176
     1
 40
30.0
176
     1
 62
     7
420
 16777215
176
     1
 90
        0
176
     1
 90
        4
176
     1
 62
     7
176
     1
 62
   257
176
     1
 90
        1
176
     1
 90
        1
176
     1
 40
1.0
176
     1
 90
        8
176
     1
 62
   257
176
     1
 40
1.0
176
     1
 90
        1
176
     1
 90
        6
176
     1
 90
        2
176
     1
 62
     8
420
  7895160
176
     1
 90
        3
176
     1
 90
        0
176
     1
 90
        0
176
     1
290
     0
176
     1
 90
        5
176
     1
 40
0.0
176
     1
 90
        0
176
     1
290
     0
176
     1
290
     1
176
     1
290
     1
176
     1
290
     0
176
     1
290
     0
176
     1
290
     0
176
     1
290
     0
176
     1
290
     0
176
     1
290
     0
176
     1
 90
       50
176
     1
 40
0.0
176
     1
 40
1.0
176
     1
 90
        0
176
     1
 62
    18
420
        0
176
     1
 90
       50
176
     1
 90
        3
176
     1
 62
     5
420
      255
176
     1
290
     0
176
     1
 90
       50
176
     1
 90
       50
176
     1
 90
       50
176
     1
290
     0
176
     1
 90
       50
176
     1
 62
   256
176
     0
 40
1.0
176
     0
 90
        2
176
     1
  1
strokes_ogs.tif
176
     1
290
     0
176
     1
 40
1.0
176
     1
 40
1.0
176
     1
  0
VISUALSTYLE
  5
341
102
{ACAD_REACTORS
330
32D
102
}
330
32D
100
AcDbVisualStyle
  2
Shaded with edges
 70
    26
177
     3
291
     0
 70
    58
 90
        2
176
     1
 90
        2
176
     1
 90
        1
176
     1
 90
        2
176
     1
 40
0.6
176
     1
 40
30.0
176
     1
 62
     7
420
 16777215
176
     1
 90
        1
176
     1
 90
       10
176
     1
 62
     7
176
     1
 62
   257
176
     1
 90
        2
176
     1
 90
        1
176
     1
 40
1.0
176
     1
 90
        8
176
     1
 62
   257
176
     1
 40
1.0
176
     1
 90
        1
176
     1
 90
        6
176
     1
 90
        2
176
     1
 62
     7
176
     1
 90
        3
176
     1
 90
        0
176
     1
 90
        0
176
     1
290
     0
176
     1
 90
        5
176
     1
 40
0.0
176
     1
 90
        0
176
     1
290
     0
176
     1
290
     1
176
     1
290
     1
176
     1
290
     0
176
     1
290
     0
176
     1
290
     0
176
     1
290
     0
176
     1
290
     0
176
     1
290
     0
176
     1
 90
       50
176
     1
 40
0.0
176
     1
 40
1.0
176
     1
 90
        0
176
     1
 62
    18
420
        0
176
     1
 90
       50
176
     1
 90
        3
176
     1
 62
     5
420
      255
176
     1
290
     0
176
     1
 90
       50
176
     1
 90
       50
176
     1
 90
       50
176
     1
290
     0
176
     1
 90
       50
176
     1
 62
   256
176
     0
 40
1.0
176
     0
 90
        2
176
     1
  1
strokes_ogs.tif
176
     1
290
     0
176
     1
 40
1.0
176
     1
 40
1.0
176
     1
  0
VISUALSTYLE
  5
33E
102
{ACAD_REACTORS
330
32D
102
}
330
32D
100
AcDbVisualStyle
  2
Shades of Gray
 70
    23
177
     3
291
     0
 70
    58
 90
        2
176
     1
 90
        2
176
     1
 90
        3
176
     1
 90
        0
176
     1
 40
0.6
176
     1
 40
30.0
176
     1
 62
     7
420
 16777215
176
     1
 90
        2
176
     1
 90
        2
176
     1
 62
     7
176
     1
 62
     7
176
     1
 90
        1
176
     1
 90
        1
176
     1
 40
40.0
176
     1
 90
        8
176
     1
 62
     7
176
     1
 40
1.0
176
     1
 90
        1
176
     1
 90
        6
176
     1
 90
        2
176
     1
 62
     7
176
     1
 90
        3
176
     1
 90
        0
176
     1
 90
        0
176
     1
290
     0
176
     1
 90
        1
176
     1
 40
0.0
176
     1
 90
        0
176
     1
290
     0
176
     1
290
     1
176
     1
290
     1
176
     1
290
     0
176
     1
290
     0
176
     1
290
     0
176
     1
290
     0
176
     1
290
     0
176
     1
290
     0
176
     1
 90
       50
176
     1
 40
0.0
176
     1
 40
1.0
176
     1
 90
        0
176
     1
 62
    18
420
        0
176
     1
 90
       50
176
     1
 90
        3
176
     1
 62
     5
420
      255
176
     1
290
     0
176
     1
 90
       50
176
     1
 90
       50
176
     1
 90
       50
176
     1
290
     0
176
     1
 90
       50
176
     1
 62
   256
176
     0
 40
1.0
176
     0
 90
        2
176
     1
  1
strokes_ogs.tif
176
     1
290
     0
176
     1
 40
1.0
176
     1
 40
1.0
176
     1
  0
VISUALSTYLE
  5
33F
102
{ACAD_REACTORS
330
32D
102
}
330
32D
100
AcDbVisualStyle
  2
Sketchy
 70
    24
177
     3
291
     0
 70
    58
 90
        1
176
     1
 90
        2
176
     1
 90
        2
176
     1
 90
        0
176
     1
 40
0.6
176
     1
 40
30.0
176
     1
 62
     7
420
 16777215
176
     1
 90
        2
176
     1
 90
        2
176
     1
 62
     7
176
     1
 62
     7
176
     1
 90
        1
176
     1
 90
        1
176
     1
 40
40.0
176
     1
 90
       11
176
     1
 62
     7
176
     1
 40
1.0
176
     1
 90
        1
176
     1
 90
        6
176
     1
 90
        2
176
     1
 62
     7
176
     1
 90
        6
176
     1
 90
        0
176
     1
 90
        0
176
     1
290
     0
176
     1
 90
        1
176
     1
 40
0.0
176
     1
 90
        0
176
     1
290
     0
176
     1
290
     1
176
     1
290
     1
176
     1
290
     0
176
     1
290
     0
176
     1
290
     0
176
     1
290
     0
176
     1
290
     0
176
     1
290
     0
176
     1
 90
       50
176
     1
 40
0.0
176
     1
 40
1.0
176
     1
 90
        0
176
     1
 62
    18
420
        0
176
     1
 90
       50
176
     1
 90
        3
176
     1
 62
     5
420
      255
176
     1
290
     0
176
     1
 90
       50
176
     1
 90
       50
176
     1
 90
       50
176
     1
290
     0
176
     1
 90
       50
176
     1
 62
   256
176
     0
 40
1.0
176
     0
 90
        2
176
     1
  1
strokes_ogs.tif
176
     1
290
     0
176
     1
 40
1.0
176
     1
 40
1.0
176
     1
  0
VISUALSTYLE
  5
33A
102
{ACAD_REACTORS
330
32D
102
}
330
32D
100
AcDbVisualStyle
  2
Thicken
 70
    13
177
     3
291
     1
 70
    58
 90
        2
176
     1
 90
        2
176
     1
 90
        0
176
     1
 90
        0
176
     1
 40
0.6
176
     1
 40
30.0
176
     1
 62
     7
420
 16777215
176
     1
 90
        1
176
     1
 90
        4
176
     1
 62
     7
176
     1
 62
   257
176
     1
 90
        1
176
     1
 90
        1
176
     1
 40
1.0
176
     1
 90
       12
176
     1
 62
     7
176
     1
 40
1.0
176
     1
 90
        1
176
     1
 90
        6
176
     1
 90
        2
176
     1
 62
     7
176
     1
 90
        5
176
     1
 90
        0
176
     1
 90
        0
176
     1
290
     0
176
     1
 90
        1
176
     1
 40
0.0
176
     1
 90
        0
176
     1
290
     0
176
     1
290
     1
176
     1
290
     1
176
     1
290
     0
176
     1
290
     0
176
     1
290
     0
176
     1
290
     0
176
     1
290
     0
176
     1
290
     0
176
     1
 90
       50
176
     1
 40
0.0
176
     1
 40
1.0
176
     1
 90
        0
176
     1
 62
    18
420
        0
176
     1
 90
       50
176
     1
 90
        3
176
     1
 62
     5
420
      255
176
     1
290
     0
176
     1
 90
       50
176
     1
 90
       50
176
     1
 90
       50
176
     1
290
     0
176
     1
 90
       50
176
     1
 62
   256
176
     0
 40
1.0
176
     0
 90
        2
176
     1
  1
strokes_ogs.tif
176
     1
290
     0
176
     1
 40
1.0
176
     1
 40
1.0
176
     1
  0
VISUALSTYLE
  5
334
102
{ACAD_REACTORS
330
32D
102
}
330
32D
100
AcDbVisualStyle
  2
Wireframe
 70
     5
177
     3
291
     0
 70
    58
 90
        0
176
     1
 90
        2
176
     1
 90
        0
176
     1
 90
        0
176
     1
 40
0.6
176
     1
 40
30.0
176
     1
 62
     7
420
 16777215
176
     1
 90
        1
176
     1
 90
        4
176
     1
 62
     7
176
     1
 62
   257
176
     1
 90
        1
176
     1
 90
        1
176
     1
 40
1.0
176
     1
 90
        0
176
     1
 62
   257
176
     1
 40
1.0
176
     1
 90
        1
176
     1
 90
        6
176
     1
 90
        2
176
     1
 62
     7
176
     1
 90
        3
176
     1
 90
        0
176
     1
 90
        0
176
     1
290
     0
176
     1
 90
        1
176
     1
 40
0.0
176
     1
 90
        0
176
     1
290
     0
176
     1
290
     1
176
     1
290
     1
176
     1
290
     0
176
     1
290
     0
176
     1
290
     0
176
     1
290
     0
176
     1
290
     0
176
     1
290
     0
176
     1
 90
       50
176
     1
 40
0.0
176
     1
 40
1.0
176
     1
 90
        0
176
     1
 62
    18
420
        0
176
     1
 90
       50
176
     1
 90
        3
176
     1
 62
     5
420
      255
176
     1
290
     0
176
     1
 90
       50
176
     1
 90
       50
176
     1
 90
       50
176
     1
290
     0
176
     1
 90
       50
176
     1
 62
   256
176
     0
 40
1.0
176
     0
 90
        2
176
     1
  1
strokes_ogs.tif
176
     1
290
     0
176
     1
 40
1.0
176
     1
 40
1.0
176
     1
  0
VISUALSTYLE
  5
340
102
{ACAD_REACTORS
330
32D
102
}
330
32D
100
AcDbVisualStyle
  2
X-Ray
 70
    25
177
     3
291
     0
 70
    58
 90
        2
176
     1
 90
        2
176
     1
 90
        1
176
     1
 90
        1
176
     1
 40
0.5
176
     1
 40
30.0
176
     1
 62
     7
420
 16777215
176
     1
 90
        1
176
     1
 90
        0
176
     1
 62
     7
176
     1
 62
   257
176
     1
 90
        1
176
     1
 90
        1
176
     1
 40
1.0
176
     1
 90
        8
176
     1
 62
     7
176
     1
 40
1.0
176
     1
 90
        1
176
     1
 90
        6
176
     1
 90
        2
176
     1
 62
     7
176
     1
 90
        3
176
     1
 90
        0
176
     1
 90
        0
176
     1
290
     0
176
     1
 90
       13
176
     1
 40
0.0
176
     1
 90
        0
176
     1
290
     0
176
     1
290
     1
176
     1
290
     1
176
     1
290
     0
176
     1
290
     0
176
     1
290
     0
176
     1
290
     0
176
     1
290
     0
176
     1
290
     0
176
     1
 90
       50
176
     1
 40
0.0
176
     1
 40
1.0
176
     1
 90
        0
176
     1
 62
    18
420
        0
176
     1
 90
       50
176
     1
 90
        3
176
     1
 62
     5
420
      255
176
     1
290
     0
176
     1
 90
       50
176
     1
 90
       50
176
     1
 90
       50
176
     1
290
     0
176
     1
 90
       50
176
     1
 62
   256
176
     0
 40
1.0
176
     0
 90
        2
176
     1
  1
strokes_ogs.tif
176
     1
290
     0
176
     1
 40
1.0
176
     1
 40
1.0
176
     1
  0
DICTIONARYVAR
  5
4B7
102
{ACAD_REACTORS
330
311
102
}
330
311
100
DictionaryVariables
280
     0
  1
1:1
  0
DICTIONARYVAR
  5
4B3
102
{ACAD_REACTORS
330
311
102
}
330
311
100
DictionaryVariables
280
     0
  1
STANDARD
  0
DICTIONARYVAR
  5
312
102
{ACAD_REACTORS
330
311
102
}
330
311
100
DictionaryVariables
280
     0
  1
STANDARD
  0
DICTIONARYVAR
  5
4B4
102
{ACAD_REACTORS
330
311
102
}
330
311
100
DictionaryVariables
280
     0
  1
Metric50
  0
DICTIONARYVAR
  5
4B5
102
{ACAD_REACTORS
330
311
102
}
330
311
100
DictionaryVariables
280
     0
  1
Metric50
  0
DICTIONARYVAR
  5
4B9
102
{ACAD_REACTORS
330
311
102
}
330
311
100
DictionaryVariables
280
     0
  1
1
  0
DICTIONARYVAR
  5
4BA
102
{ACAD_REACTORS
330
311
102
}
330
311
100
DictionaryVariables
280
     0
  1
15
  0
DICTIONARYVAR
  5
4B8
102
{ACAD_REACTORS
330
311
102
}
330
311
100
DictionaryVariables
280
     0
  1
0
  0
DICTIONARYVAR
  5
4B6
102
{ACAD_REACTORS
330
311
102
}
330
311
100
DictionaryVariables
280
     0
  1
0
  0
DICTIONARY
  5
2CE
102
{ACAD_REACTORS
330
2CD
102
}
330
2CD
100
AcDbDictionary
281
     1
  0
DICTIONARY
  5
4BF
330
35D
100
AcDbDictionary
280
     1
281
     1
  3
ACAD_XREC_ROUNDTRIP
360
4C0
  0
DICTIONARY
  5
31E
330
31D
100
AcDbDictionary
280
     1
281
     1
  3
BUMPTILE
360
320
  3
DIFFUSETILE
360
31F
  3
OPACITYTILE
360
323
  3
REFLECTIONTILE
360
322
  3
REFRACTIONTILE
360
324
  3
SPECULARTILE
360
321
  0
DICTIONARY
  5
316
330
315
100
AcDbDictionary
280
     1
281
     1
  3
BUMPTILE
360
318
  3
DIFFUSETILE
360
317
  3
OPACITYTILE
360
31B
  3
REFLECTIONTILE
360
31A
  3
REFRACTIONTILE
360
31C
  3
SPECULARTILE
360
319
  0
DICTIONARY
  5
326
330
325
100
AcDbDictionary
280
     1
281
     1
  3
BUMPTILE
360
328
  3
DIFFUSETILE
360
327
  3
OPACITYTILE
360
32B
  3
REFLECTIONTILE
360
32A
  3
REFRACTIONTILE
360
32C
  3
SPECULARTILE
360
329
  0
DICTIONARY
  5
4BD
330
35B
100
AcDbDictionary
280
     1
281
     1
  3
ACAD_XREC_ROUNDTRIP
360
4BE
  0
DICTIONARY
  5
4BB
330
2F
100
AcDbDictionary
280
     1
281
     1
  3
ACAD_ROUNDTRIP_2008_TABLESTYLE_CELLSTYLEMAP
360
4BC
  0
XRECORD
  5
4C0
102
{ACAD_REACTORS
330
4BF
102
}
330
4BF
100
AcDbXrecord
280
     1
102
DISPLAYNAME
  1
Metric50
102
FLAGS
 90
        0
  0
XRECORD
  5
320
102
{ACAD_REACTORS
330
31E
102
}
330
31E
100
AcDbXrecord
280
     1
270
     1
271
     1
  0
XRECORD
  5
31F
102
{ACAD_REACTORS
330
31E
102
}
330
31E
100
AcDbXrecord
280
     1
270
     1
271
     1
  0
XRECORD
  5
323
102
{ACAD_REACTORS
330
31E
102
}
330
31E
100
AcDbXrecord
280
     1
270
     1
271
     1
  0
XRECORD
  5
322
102
{ACAD_REACTORS
330
31E
102
}
330
31E
100
AcDbXrecord
280
     1
270
     1
271
     1
  0
XRECORD
  5
324
102
{ACAD_REACTORS
330
31E
102
}
330
31E
100
AcDbXrecord
280
     1
270
     1
271
     1
  0
XRECORD
  5
321
102
{ACAD_REACTORS
330
31E
102
}
330
31E
100
AcDbXrecord
280
     1
270
     1
271
     1
  0
XRECORD
  5
318
102
{ACAD_REACTORS
330
316
102
}
330
316
100
AcDbXrecord
280
     1
270
     1
271
     1
  0
XRECORD
  5
317
102
{ACAD_REACTORS
330
316
102
}
330
316
100
AcDbXrecord
280
     1
270
     1
271
     1
  0
XRECORD
  5
31B
102
{ACAD_REACTORS
330
316
102
}
330
316
100
AcDbXrecord
280
     1
270
     1
271
     1
  0
XRECORD
  5
31A
102
{ACAD_REACTORS
330
316
102
}
330
316
100
AcDbXrecord
280
     1
270
     1
271
     1
  0
XRECORD
  5
31C
102
{ACAD_REACTORS
330
316
102
}
330
316
100
AcDbXrecord
280
     1
270
     1
271
     1
  0
XRECORD
  5
319
102
{ACAD_REACTORS
330
316
102
}
330
316
100
AcDbXrecord
280
     1
270
     1
271
     1
  0
XRECORD
  5
328
102
{ACAD_REACTORS
330
326
102
}
330
326
100
AcDbXrecord
280
     1
270
     1
271
     1
  0
XRECORD
  5
327
102
{ACAD_REACTORS
330
326
102
}
330
326
100
AcDbXrecord
280
     1
270
     1
271
     1
  0
XRECORD
  5
32B
102
{ACAD_REACTORS
330
326
102
}
330
326
100
AcDbXrecord
280
     1
270
     1
271
     1
  0
XRECORD
  5
32A
102
{ACAD_REACTORS
330
326
102
}
330
326
100
AcDbXrecord
280
     1
270
     1
271
     1
  0
XRECORD
  5
32C
102
{ACAD_REACTORS
330
326
102
}
330
326
100
AcDbXrecord
280
     1
270
     1
271
     1
  0
XRECORD
  5
329
102
{ACAD_REACTORS
330
326
102
}
330
326
100
AcDbXrecord
280
     1
270
     1
271
     1
  0
XRECORD
  5
4BE
102
{ACAD_REACTORS
330
4BD
102
}
330
4BD
100
AcDbXrecord
280
     1
102
DISPLAYNAME
  1
Metric50
102
FLAGS
 90
        0
  0
CELLSTYLEMAP
  5
4BC
102
{ACAD_REACTORS
330
4BB
102
}
330
4BB
100
AcDbCellStyleMap
 90
        3
300
CELLSTYLE
  1
TABLEFORMAT_BEGIN
 90
        5
170
     1
 91
        0
 92
    32768
 62
   257
 93
        1
300
CONTENTFORMAT
  1
CONTENTFORMAT_BEGIN
 90
        0
 91
        0
 92
        4
 93
        0
300

 40
0.0
140
1.0
 94
        5
 62
     0
340
14
144
6.0
309
CONTENTFORMAT_END
171
     1
301
MARGIN
  1
CELLMARGIN_BEGIN
 40
1.5
 40
1.5
 40
1.5
 40
1.5
 40
0.18
 40
0.18
309
CELLMARGIN_END
 94
        6
 95
        1
302
GRIDFORMAT
  1
GRIDFORMAT_BEGIN
 90
        0
 91
        1
 62
     0
 92
       -2
340
0
 93
        0
 40
0.045
309
GRIDFORMAT_END
 95
        2
302
GRIDFORMAT
  1
GRIDFORMAT_BEGIN
 90
        0
 91
        1
 62
     0
 92
       -2
340
0
 93
        0
 40
0.045
309
GRIDFORMAT_END
 95
        4
302
GRIDFORMAT
  1
GRIDFORMAT_BEGIN
 90
        0
 91
        1
 62
     0
 92
       -2
340
0
 93
        0
 40
0.045
309
GRIDFORMAT_END
 95
        8
302
GRIDFORMAT
  1
GRIDFORMAT_BEGIN
 90
        0
 91
        1
 62
     0
 92
       -2
340
0
 93
        0
 40
0.045
309
GRIDFORMAT_END
 95
       16
302
GRIDFORMAT
  1
GRIDFORMAT_BEGIN
 90
        0
 91
        1
 62
     0
 92
       -2
340
0
 93
        0
 40
0.045
309
GRIDFORMAT_END
 95
       32
302
GRIDFORMAT
  1
GRIDFORMAT_BEGIN
 90
        0
 91
        1
 62
     0
 92
       -2
340
0
 93
        0
 40
0.045
309
GRIDFORMAT_END
309
TABLEFORMAT_END
  1
CELLSTYLE_BEGIN
 90
        1
 91
        1
300
_TITLE
309
CELLSTYLE_END
300
CELLSTYLE
  1
TABLEFORMAT_BEGIN
 90
        5
170
     1
 91
        0
 92
        0
 62
   257
 93
        1
300
CONTENTFORMAT
  1
CONTENTFORMAT_BEGIN
 90
        0
 91
        0
 92
        4
 93
        0
300

 40
0.0
140
1.0
 94
        5
 62
     0
340
14
144
4.5
309
CONTENTFORMAT_END
171
     1
301
MARGIN
  1
CELLMARGIN_BEGIN
 40
1.5
 40
1.5
 40
1.5
 40
1.5
 40
0.18
 40
0.18
309
CELLMARGIN_END
 94
        6
 95
        1
302
GRIDFORMAT
  1
GRIDFORMAT_BEGIN
 90
        0
 91
        1
 62
     0
 92
       -2
340
0
 93
        0
 40
0.045
309
GRIDFORMAT_END
 95
        2
302
GRIDFORMAT
  1
GRIDFORMAT_BEGIN
 90
        0
 91
        1
 62
     0
 92
       -2
340
0
 93
        0
 40
0.045
309
GRIDFORMAT_END
 95
        4
302
GRIDFORMAT
  1
GRIDFORMAT_BEGIN
 90
        0
 91
        1
 62
     0
 92
       -2
340
0
 93
        0
 40
0.045
309
GRIDFORMAT_END
 95
        8
302
GRIDFORMAT
  1
GRIDFORMAT_BEGIN
 90
        0
 91
        1
 62
     0
 92
       -2
340
0
 93
        0
 40
0.045
309
GRIDFORMAT_END
 95
       16
302
GRIDFORMAT
  1
GRIDFORMAT_BEGIN
 90
        0
 91
        1
 62
     0
 92
       -2
340
0
 93
        0
 40
0.045
309
GRIDFORMAT_END
 95
       32
302
GRIDFORMAT
  1
GRIDFORMAT_BEGIN
 90
        0
 91
        1
 62
     0
 92
       -2
340
0
 93
        0
 40
0.045
309
GRIDFORMAT_END
309
TABLEFORMAT_END
  1
CELLSTYLE_BEGIN
 90
        2
 91
        1
300
_HEADER
309
CELLSTYLE_END
300
CELLSTYLE
  1
TABLEFORMAT_BEGIN
 90
        5
170
     1
 91
        0
 92
        0
 62
   257
 93
        1
300
CONTENTFORMAT
  1
CONTENTFORMAT_BEGIN
 90
        0
 91
        0
 92
        4
 93
        0
300

 40
0.0
140
1.0
 94
        2
 62
     0
340
14
144
4.5
309
CONTENTFORMAT_END
171
     1
301
MARGIN
  1
CELLMARGIN_BEGIN
 40
1.5
 40
1.5
 40
1.5
 40
1.5
 40
0.18
 40
0.18
309
CELLMARGIN_END
 94
        6
 95
        1
302
GRIDFORMAT
  1
GRIDFORMAT_BEGIN
 90
        0
 91
        1
 62
     0
 92
       -2
340
0
 93
        0
 40
0.045
309
GRIDFORMAT_END
 95
        2
302
GRIDFORMAT
  1
GRIDFORMAT_BEGIN
 90
        0
 91
        1
 62
     0
 92
       -2
340
0
 93
        0
 40
0.045
309
GRIDFORMAT_END
 95
        4
302
GRIDFORMAT
  1
GRIDFORMAT_BEGIN
 90
        0
 91
        1
 62
     0
 92
       -2
340
0
 93
        0
 40
0.045
309
GRIDFORMAT_END
 95
        8
302
GRIDFORMAT
  1
GRIDFORMAT_BEGIN
 90
        0
 91
        1
 62
     0
 92
       -2
340
0
 93
        0
 40
0.045
309
GRIDFORMAT_END
 95
       16
302
GRIDFORMAT
  1
GRIDFORMAT_BEGIN
 90
        0
 91
        1
 62
     0
 92
       -2
340
0
 93
        0
 40
0.045
309
GRIDFORMAT_END
 95
       32
302
GRIDFORMAT
  1
GRIDFORMAT_BEGIN
 90
        0
 91
        1
 62
     0
 92
       -2
340
0
 93
        0
 40
0.045
309
GRIDFORMAT_END
309
TABLEFORMAT_END
  1
CELLSTYLE_BEGIN
 90
        3
 91
        2
300
_DATA
309
CELLSTYLE_END
  0
ENDSEC
  0
EOF
