  0
SECTION
  2
HEADER
  9
$ACADVER
  1
AC1015
  9
$ACADMAINTVER
 70
    20
  9
$DWGCODEPAGE
  3
ANSI_1252
  9
$INSBASE
 10
0.0
 20
0.0
 30
0.0
  9
$EXTMIN
 10
-19.26854138140627
 20
3.683266408715758
 30
0.0
  9
$EXTMAX
 10
502.9414503813357
 20
490.9855099218225
 30
0.0
  9
$LIMMIN
 10
0.0
 20
0.0
  9
$LIMMAX
 10
566.4069975479701
 20
669.6985897720049
  9
$ORTHOMODE
 70
     1
  9
$REGENMODE
 70
     1
  9
$FILLMODE
 70
     1
  9
$QTEXTMODE
 70
     0
  9
$MIRRTEXT
 70
     0
  9
$LTSCALE
 40
1.0
  9
$ATTMODE
 70
     1
  9
$TEXTSIZE
 40
3.5
  9
$TRACEWID
 40
0.05
  9
$TEXTSTYLE
  7
ARIAL-STANDARD
  9
$CLAYER
  8
ACHSEN
  9
$CELTYPE
  6
BYLAYER
  9
$CECOLOR
 62
   256
  9
$CELTSCALE
 40
1.0
  9
$DISPSILH
 70
     0
  9
$DIMSCALE
 40
1.0
  9
$DIMASZ
 40
4.0
  9
$DIMEXO
 40
0.0
  9
$DIMDLI
 40
8.0
  9
$DIMRND
 40
0.0
  9
$DIMDLE
 40
0.0
  9
$DIMEXE
 40
1.0
  9
$DIMTP
 40
0.0
  9
$DIMTM
 40
0.0
  9
$DIMTXT
 40
4.349999999999999
  9
$DIMCEN
 40
1.5
  9
$DIMTSZ
 40
0.0
  9
$DIMTOL
 70
     0
  9
$DIMLIM
 70
     0
  9
$DIMTIH
 70
     0
  9
$DIMTOH
 70
     0
  9
$DIMSE1
 70
     0
  9
$DIMSE2
 70
     0
  9
$DIMTAD
 70
     1
  9
$DIMZIN
 70
     8
  9
$DIMBLK
  1

  9
$DIMASO
 70
     1
  9
$DIMSHO
 70
     1
  9
$DIMPOST
  1

  9
$DIMAPOST
  1

  9
$DIMALT
 70
     0
  9
$DIMALTD
 70
     2
  9
$DIMALTF
 40
25.39999999999999
  9
$DIMLFAC
 40
1.0
  9
$DIMTOFL
 70
     1
  9
$DIMTVP
 40
0.0
  9
$DIMTIX
 70
     1
  9
$DIMSOXD
 70
     0
  9
$DIMSAH
 70
     0
  9
$DIMBLK1
  1

  9
$DIMBLK2
  1

  9
$DIMSTYLE
  2
Katalog 09
  9
$DIMCLRD
 70
     2
  9
$DIMCLRE
 70
     2
  9
$DIMCLRT
 70
     3
  9
$DIMTFAC
 40
0.4285714285714286
  9
$DIMGAP
 40
1.0
  9
$DIMJUST
 70
     0
  9
$DIMSD1
 70
     0
  9
$DIMSD2
 70
     0
  9
$DIMTOLJ
 70
     1
  9
$DIMTZIN
 70
     8
  9
$DIMALTZ
 70
     8
  9
$DIMALTTZ
 70
     8
  9
$DIMUPT
 70
     0
  9
$DIMDEC
 70
     2
  9
$DIMTDEC
 70
     2
  9
$DIMALTU
 70
     2
  9
$DIMALTTD
 70
     2
  9
$DIMTXSTY
  7
ARIAL-STANDARD
  9
$DIMAUNIT
 70
     0
  9
$DIMADEC
 70
     0
  9
$DIMALTRND
 40
0.0
  9
$DIMAZIN
 70
     0
  9
$DIMDSEP
 70
    46
  9
$DIMATFIT
 70
     3
  9
$DIMFRAC
 70
     0
  9
$DIMLDRBLK
  1

  9
$DIMLUNIT
 70
     2
  9
$DIMLWD
 70
    -2
  9
$DIMLWE
 70
    -2
  9
$DIMTMOVE
 70
     2
  9
$LUNITS
 70
     2
  9
$LUPREC
 70
     4
  9
$SKETCHINC
 40
0.1
  9
$FILLETRAD
 40
1.5
  9
$AUNITS
 70
     0
  9
$AUPREC
 70
     0
  9
$MENU
  1
.
  9
$ELEVATION
 40
0.0
  9
$PELEVATION
 40
0.0
  9
$THICKNESS
 40
0.0
  9
$LIMCHECK
 70
     0
  9
$CHAMFERA
 40
0.0
  9
$CHAMFERB
 40
0.0
  9
$CHAMFERC
 40
1.0
  9
$CHAMFERD
 40
0.0
  9
$SKPOLY
 70
     0
  9
$TDCREATE
 40
2451554.447219456
  9
$TDUCREATE
 40
2451554.363886123
  9
$TDUPDATE
 40
2455345.584118333
  9
$TDUUPDATE
 40
2455345.500785000
  9
$TDINDWG
 40
2.0652232870
  9
$TDUSRTIMER
 40
2.0652232870
  9
$USRTIMER
 70
     1
  9
$ANGBASE
 50
0.0
  9
$ANGDIR
 70
     0
  9
$PDMODE
 70
     0
  9
$PDSIZE
 40
0.0
  9
$PLINEWID
 40
0.0
  9
$SPLFRAME
 70
     0
  9
$SPLINETYPE
 70
     6
  9
$SPLINESEGS
 70
     8
  9
$HANDSEED
  5
32B
  9
$SURFTAB1
 70
     6
  9
$SURFTAB2
 70
     6
  9
$SURFTYPE
 70
     6
  9
$SURFU
 70
     6
  9
$SURFV
 70
     6
  9
$UCSBASE
  2

  9
$UCSNAME
  2

  9
$UCSORG
 10
0.0
 20
0.0
 30
0.0
  9
$UCSXDIR
 10
1.0
 20
0.0
 30
0.0
  9
$UCSYDIR
 10
0.0
 20
1.0
 30
0.0
  9
$UCSORTHOREF
  2

  9
$UCSORTHOVIEW
 70
     0
  9
$UCSORGTOP
 10
0.0
 20
0.0
 30
0.0
  9
$UCSORGBOTTOM
 10
0.0
 20
0.0
 30
0.0
  9
$UCSORGLEFT
 10
0.0
 20
0.0
 30
0.0
  9
$UCSORGRIGHT
 10
0.0
 20
0.0
 30
0.0
  9
$UCSORGFRONT
 10
0.0
 20
0.0
 30
0.0
  9
$UCSORGBACK
 10
0.0
 20
0.0
 30
0.0
  9
$PUCSBASE
  2

  9
$PUCSNAME
  2

  9
$PUCSORG
 10
0.0
 20
0.0
 30
0.0
  9
$PUCSXDIR
 10
1.0
 20
0.0
 30
0.0
  9
$PUCSYDIR
 10
0.0
 20
1.0
 30
0.0
  9
$PUCSORTHOREF
  2

  9
$PUCSORTHOVIEW
 70
     0
  9
$PUCSORGTOP
 10
0.0
 20
0.0
 30
0.0
  9
$PUCSORGBOTTOM
 10
0.0
 20
0.0
 30
0.0
  9
$PUCSORGLEFT
 10
0.0
 20
0.0
 30
0.0
  9
$PUCSORGRIGHT
 10
0.0
 20
0.0
 30
0.0
  9
$PUCSORGFRONT
 10
0.0
 20
0.0
 30
0.0
  9
$PUCSORGBACK
 10
0.0
 20
0.0
 30
0.0
  9
$USERI1
 70
     0
  9
$USERI2
 70
     0
  9
$USERI3
 70
     0
  9
$USERI4
 70
     0
  9
$USERI5
 70
     0
  9
$USERR1
 40
0.0
  9
$USERR2
 40
0.0
  9
$USERR3
 40
0.0
  9
$USERR4
 40
0.0
  9
$USERR5
 40
0.0
  9
$WORLDVIEW
 70
     1
  9
$SHADEDGE
 70
     3
  9
$SHADEDIF
 70
    70
  9
$TILEMODE
 70
     1
  9
$MAXACTVP
 70
    48
  9
$PINSBASE
 10
0.0
 20
0.0
 30
0.0
  9
$PLIMCHECK
 70
     0
  9
$PEXTMIN
 10
1.000000000000000E+20
 20
1.000000000000000E+20
 30
1.000000000000000E+20
  9
$PEXTMAX
 10
-1.000000000000000E+20
 20
-1.000000000000000E+20
 30
-1.000000000000000E+20
  9
$PLIMMIN
 10
0.0
 20
0.0
  9
$PLIMMAX
 10
12.0
 20
9.0
  9
$UNITMODE
 70
     0
  9
$VISRETAIN
 70
     1
  9
$PLINEGEN
 70
     0
  9
$PSLTSCALE
 70
     1
  9
$TREEDEPTH
 70
  3020
  9
$CMLSTYLE
  2
STANDARD
  9
$CMLJUST
 70
     0
  9
$CMLSCALE
 40
1.0
  9
$PROXYGRAPHICS
 70
     1
  9
$MEASUREMENT
 70
     1
  9
$CELWEIGHT
370
    -1
  9
$ENDCAPS
280
     0
  9
$JOINSTYLE
280
     0
  9
$LWDISPLAY
290
     0
  9
$INSUNITS
 70
     0
  9
$HYPERLINKBASE
  1

  9
$STYLESHEET
  1

  9
$XEDIT
290
     1
  9
$CEPSNTYPE
380
     0
  9
$PSTYLEMODE
290
     1
  9
$FINGERPRINTGUID
  2
{2881BAE8-1989-4F91-93C5-57CF9418CABC}
  9
$VERSIONGUID
  2
{A0F8529B-5A9D-49E3-86FF-4612422BD172}
  9
$EXTNAMES
290
     1
  9
$PSVPSCALE
 40
0.0
  9
$OLESTARTUP
290
     0
  0
ENDSEC
  0
SECTION
  2
CLASSES
  0
CLASS
  1
ACDBDICTIONARYWDFLT
  2
AcDbDictionaryWithDefault
  3
ObjectDBX Classes
 90
        0
280
     0
281
     0
  0
CLASS
  1
ACDBPLACEHOLDER
  2
AcDbPlaceHolder
  3
ObjectDBX Classes
 90
        0
280
     0
281
     0
  0
CLASS
  1
LAYOUT
  2
AcDbLayout
  3
ObjectDBX Classes
 90
        0
280
     0
281
     0
  0
CLASS
  1
ACME_DOCUMENT
  2
AcMeDbDoc
  3
AcMeServices
 90
    33792
280
     0
281
     0
  0
CLASS
  1
AMGSETTINGSOBJ
  2
AmgSettingsObj
  3
"AcadM|Product Description: AutoCAD Mechanical|Company: Autodesk, Inc."
 90
     1024
280
     0
281
     0
  0
CLASS
  1
ACMESCOPE
  2
AcMeScope
  3
AcMeServices
 90
     1024
280
     0
281
     0
  0
CLASS
  1
ACMECOMMANDHISTORY
  2
AcMeCommandHistory
  3
AcMeServices
 90
    33792
280
     0
281
     0
  0
CLASS
  1
ACIMSYSVARMAN
  2
AcImSysVarManager
  3
AcMeServices
 90
     1024
280
     0
281
     0
  0
CLASS
  1
ACIMREALSYSVAR
  2
AcImRealSysVar
  3
AcMeServices
 90
     1024
280
     0
281
     0
  0
CLASS
  1
ACIMINTSYSVAR
  2
AcImIntSysVar
  3
AcMeServices
 90
     1024
280
     0
281
     0
  0
CLASS
  1
ACMEDRAWINGMAN
  2
AcMeDrawingMan
  3
AcMeServices
 90
    33792
280
     0
281
     0
  0
CLASS
  1
ACMEVIEW
  2
AcMeView
  3
AcMeServices
 90
    33792
280
     0
281
     0
  0
CLASS
  1
ACDBENTITYCACHE
  2
AcMeEntityCache
  3
AcMeServices
 90
    33792
280
     0
281
     0
  0
CLASS
  1
GSMANAGER
  2
AcMeGSManager
  3
AcMeServices
 90
    33792
280
     1
281
     0
  0
CLASS
  1
AMDTINTERNALREACTOR
  2
AmdtInternalReactor
  3
AcMeServices
 90
     1024
280
     0
281
     0
  0
CLASS
  1
ACMESTATEMGR
  2
AcMeStateMgr
  3
AcMeServices
 90
     1024
280
     0
281
     0
  0
CLASS
  1
ACGREFMASTER
  2
AcGrefMaster
  3
AcAttribServices
 90
     1024
280
     0
281
     0
  0
CLASS
  1
ACME_DATABASE
  2
AcMeDbDatabase
  3
AcMeServices
 90
    33792
280
     0
281
     0
  0
CLASS
  1
ACRFINSADJUSTERMGR
  2
AcRfInsAdjusterMgr
  3
AcMeServices
 90
    33792
280
     0
281
     0
  0
CLASS
  1
ACGREFACADMASTER
  2
AcGrefacadMaster
  3
AcGrefServices
 90
    33792
280
     0
281
     0
  0
CLASS
  1
AMIMASTER
  2
AmiMaster
  3
AmiServices
 90
    33792
280
     0
281
     0
  0
CLASS
  1
ACMDATADICTIONARY
  2
AcmDataDictionary
  3
"AcmSymBB|Product Description: AutoCAD Mechanical|Company: Autodesk, Inc."
 90
     1024
280
     0
281
     0
  0
CLASS
  1
ACMDATAENTRYBLOCK
  2
AcmDataEntryBlock
  3
AcmSymBB|Product Description: AutoCAD Mechanical|Company: Autodesk, Inc.
 90
     1024
280
     0
281
     0
  0
CLASS
  1
ACIMSTRSYSVAR
  2
AcImStrSysVar
  3
AcMeServices
 90
     1024
280
     0
281
     0
  0
CLASS
  1
ACMSTANDARDDIN
  2
AcmStandardDIN
  3
"Amdt_StdImp|Product Description: AutoCAD Mechanical|Company: Autodesk, Inc."
 90
     1024
280
     0
281
     0
  0
CLASS
  1
AMGOBJPROPCFG
  2
AmgObjPropCfg
  3
"AmgLay|Product Description: AutoCAD Mechanical|Company: Autodesk, Inc."
 90
     1025
280
     0
281
     0
  0
CLASS
  1
AMDTEDGESTANDARDDIN
  2
AmdtEdgeStdDIN
  3
"Amdt_StdImp|Product Description: AutoCAD Mechanical|Company: Autodesk, Inc."
 90
     1024
280
     0
281
     0
  0
CLASS
  1
ACMSURFSTANDARDDIN
  2
AcmSurfTextStdDIN
  3
"Amdt_StdImp|Product Description: AutoCAD Mechanical|Company: Autodesk, Inc."
 90
     1024
280
     0
281
     0
  0
CLASS
  1
ACMFCFSTANDARDDIN
  2
AcmFCFStdDIN
  3
"Amdt_StdImp|Product Description: AutoCAD Mechanical|Company: Autodesk, Inc."
 90
     1024
280
     0
281
     0
  0
CLASS
  1
ACMWELDSTANDARDDIN
  2
AcmWeldingStdDIN
  3
"Amdt_StdImp|Product Description: AutoCAD Mechanical|Company: Autodesk, Inc."
 90
     1024
280
     0
281
     0
  0
CLASS
  1
ACMIDSTANDARDDIN
  2
AcmIdStdDIN
  3
"Amdt_StdImp|Product Description: AutoCAD Mechanical|Company: Autodesk, Inc."
 90
     1024
280
     0
281
     0
  0
CLASS
  1
ACMDATUMSTANDARDDIN
  2
AcmDatumStdDIN
  3
"Amdt_StdImp|Product Description: AutoCAD Mechanical|Company: Autodesk, Inc."
 90
     1024
280
     0
281
     0
  0
CLASS
  1
ACMBOMSTANDARDDIN
  2
AcmBOMStdDIN
  3
"Amdt_StdImp|Product Description: AutoCAD Mechanical|Company: Autodesk, Inc."
 90
     1024
280
     0
281
     0
  0
CLASS
  1
ACMDETAILSTANDARDDIN
  2
AmdtDetailSymStdDIN
  3
"Amdt_StdImp|Product Description: AutoCAD Mechanical|Company: Autodesk, Inc."
 90
     1024
280
     0
281
     0
  0
CLASS
  1
ACMSECTIONSTANDARDDIN
  2
AmdtSectionSymStdDIN
  3
"Amdt_StdImp|Product Description: AutoCAD Mechanical|Company: Autodesk, Inc."
 90
     1024
280
     0
281
     0
  0
CLASS
  1
ACMCENTERLINESTANDARDDIN
  2
AmdtCenterLineStdDIN
  3
"Amdt_StdImp|Product Description: AutoCAD Mechanical|Company: Autodesk, Inc."
 90
     1024
280
     0
281
     0
  0
CLASS
  1
ACMNOTESTANDARDDIN
  2
AmdtNoteStdDIN
  3
"Amdt_StdImp|Product Description: AutoCAD Mechanical|Company: Autodesk, Inc."
 90
     1024
280
     0
281
     0
  0
CLASS
  1
ACAMGLAYSTD
  2
AcAmgLayStd
  3
"AmgLay|Product Description: AutoCAD Mechanical|Company: Autodesk, Inc."
 90
     1024
280
     0
281
     0
  0
CLASS
  1
ACAMGDIMSTD
  2
AcAmgDimStd
  3
"AmgDim|Product Description: AutoCAD Mechanical|Company: Autodesk, Inc."
 90
     1024
280
     0
281
     0
  0
CLASS
  1
ACAMGHOLECHARTSTDDIN
  2
AcAmgHoleChartStdDIN
  3
AmgDim|Product Description: AutoCAD Mechanical|Company: Autodesk, Inc.
 90
     1024
280
     0
281
     0
  0
CLASS
  1
ACAMGTITLESTD
  2
AcAmgTitleStd
  3
"AmgTitle|Product Description: AutoCAD Mechanical|Company: Autodesk, Inc."
 90
     4095
280
     0
281
     0
  0
CLASS
  1
ACAMGFILTERDAT
  2
AcAmgFilterDat
  3
"AcadM|Product Description: AutoCAD Mechanical|Company: Autodesk, Inc."
 90
    33792
280
     0
281
     0
  0
CLASS
  1
LAYER_INDEX
  2
AcDbLayerIndex
  3
ObjectDBX Classes
 90
    32768
280
     0
281
     0
  0
CLASS
  1
IDBUFFER
  2
AcDbIdBuffer
  3
ObjectDBX Classes
 90
    32768
280
     0
281
     0
  0
CLASS
  1
DICTIONARYVAR
  2
AcDbDictionaryVar
  3
ObjectDBX Classes
 90
        0
280
     0
281
     0
  0
CLASS
  1
ACMDIMBREAKPERSREACTOR
  2
AcmDimBreakPersReactor
  3
AmgDim|Product Description: AutoCAD Mechanical|Company: Autodesk, Inc.
 90
    36863
280
     0
281
     0
  0
CLASS
  1
AMDTNOTE
  2
AmdtNote
  3
"AcmSymBB|Product Description: AutoCAD Mechanical|Company: Autodesk, Inc."
 90
    36863
280
     0
281
     1
  0
CLASS
  1
AMDTFORMULAUPDATEDISPATCHER
  2
AmdtFormulaUpdateDispatcher
  3
AcMeServices
 90
    33792
280
     0
281
     0
  0
CLASS
  1
PLOTSETTINGS
  2
AcDbPlotSettings
  3
ObjectDBX Classes
 90
    32768
280
     0
281
     0
  0
CLASS
  1
TABLESTYLE
  2
AcDbTableStyle
  3
ObjectDBX Classes
 90
     4095
280
     0
281
     0
  0
CLASS
  1
AM_DRAWING_MGR
  2
AcDmDwgMgr
  3
AcMechDwgViewMgmt
 90
     1024
280
     0
281
     0
  0
CLASS
  1
AM_DWG_DOCUMENT
  2
AcDmDwgDocument
  3
AcMechDwgViewMgmt
 90
     1024
280
     0
281
     0
  0
CLASS
  1
AM_DWG_SHEET
  2
AcDmSheet
  3
AcMechDwgViewMgmt
 90
     1024
280
     0
281
     0
  0
CLASS
  1
AM_VIEWDIMPARMAP
  2
AcDmViewDimParMap
  3
AcMechDwgViewMgmt
 90
     1024
280
     0
281
     0
  0
CLASS
  1
AM_DWGMGR_NAME
  2
AcDmDwgMgrName
  3
AcMechDwgViewMgmt
 90
     1024
280
     0
281
     0
  0
CLASS
  1
AMDTMENUSTATEMGR
  2
AmdtMenuStateMgr
  3
McadcomServices
 90
    33792
280
     0
281
     0
  0
CLASS
  1
AMDTMCOMMENUSTATE
  2
AmdtMcomMenuState
  3
McadcomServices
 90
    33792
280
     0
281
     0
  0
CLASS
  1
MAPIAMMOUDLE
  2
MApiAmModule
  3
MApiAmServices
 90
    33792
280
     0
281
     0
  0
CLASS
  1
AMDTADMENUSTATE
  2
AmdtAdMenuState
  3
DesignerServices
 90
    33792
280
     1
281
     0
  0
CLASS
  1
ADAPPL
  2
AcAdAppl
  3
DesignerAssemblies
 90
    33792
280
     0
281
     0
  0
CLASS
  1
DEPMGR
  2
AcAdDepMgr
  3
DesignerAssemblies
 90
    33792
280
     0
281
     0
  0
CLASS
  1
PARAMMGR
  2
AcAdParamMgr
  3
DesignerAssemblies
 90
    33792
280
     0
281
     0
  0
CLASS
  1
PARAMSCOPE
  2
AcAdParamScope
  3
DesignerAssemblies
 90
    33792
280
     0
281
     0
  0
CLASS
  1
NAMEDAPPL
  2
AcAdNamedAppl
  3
DesignerAssemblies
 90
    33792
280
     0
281
     0
  0
CLASS
  1
AMDTDMMENUSTATE
  2
AmdtDmMenuState
  3
AcMechDwgViewMgmt
 90
    33792
280
     0
281
     0
  0
CLASS
  1
AMDTAMMENUSTATE
  2
AmdtAmMenuState
  3
DesignerAssemblies
 90
    33792
280
     0
281
     0
  0
CLASS
  1
ACAMPROJECT
  2
AcAmProject
  3
DesignerAssemblies
 90
    33792
280
     0
281
     0
  0
CLASS
  1
ACAMGRCOMPDEF
  2
AcAmGrCompDef
  3
DesignerAssemblies
 90
    33792
280
     0
281
     0
  0
CLASS
  1
ACCMCONTEXT
  2
AcCmContext
  3
DesignerAssemblies
 90
    33792
280
     0
281
     0
  0
CLASS
  1
ACAMCOMPDEF
  2
AcAmCompDef
  3
DesignerAssemblies
 90
    33792
280
     0
281
     0
  0
CLASS
  1
ACAMCOMPDEFMGR
  2
AcAmCompDefMgr
  3
DesignerAssemblies
 90
    33792
280
     0
281
     0
  0
CLASS
  1
AMCONTEXTMGR
  2
AcAmContextMgr
  3
DesignerAssemblies
 90
    33792
280
     0
281
     0
  0
CLASS
  1
ACAMCONTEXTMODELER
  2
AcAmContextModeler
  3
DesignerAssemblies
 90
    33792
280
     0
281
     0
  0
CLASS
  1
ACRFATTGENMGR
  2
AcRfAttGeneralMgr
  3
AcAttribServices
 90
    33792
280
     0
281
     0
  0
CLASS
  1
ACRFOBJATTMGR
  2
AcRfObjAttGroupMgr
  3
AcAttribServices
 90
    33792
280
     0
281
     0
  0
CLASS
  1
ACRFMCADAPIATTHOLDER
  2
AcRfMCADAPIAttHolder
  3
AcAttribServices
 90
    33792
280
     0
281
     0
  0
CLASS
  1
AMDTSYSATTR
  2
AmdtSystemAttribute
  3
AcAttribServices
 90
    33792
280
     0
281
     0
  0
CLASS
  1
ACMTHREADLINESTANDARDDIN
  2
AmdtThreadLineStdDIN
  3
"Amdt_StdImp|Product Description: AutoCAD Mechanical|Company: Autodesk, Inc."
 90
     1024
280
     0
281
     0
  0
CLASS
  1
CATALOGSTATE
  2
AcAmCatalogState
  3
DesignerAssemblies
 90
    33792
280
     0
281
     0
  0
CLASS
  1
ACAMGRCOMPDEFSET
  2
AcAmGrCompDefSet
  3
DesignerAssemblies
 90
    33792
280
     0
281
     0
  0
CLASS
  1
AMDTBROWSERDBTAB
  2
AmdtBrowserDbTab
  3
McadcomServices
 90
    33792
280
     0
281
     0
  0
CLASS
  1
CBROWSERAPPOBJECT
  2
CBrowserAppObject
  3
McadcomServices
 90
    33792
280
     0
281
     0
  0
CLASS
  1
DM_PLACEHOLDER
  2
AcDmSelsetPlaceholder
  3
AcMechDwgViewMgmt
 90
    33792
280
     0
281
     0
  0
CLASS
  1
SORTENTSTABLE
  2
AcDbSortentsTable
  3
ObjectDBX Classes
 90
        0
280
     0
281
     0
  0
CLASS
  1
MATERIAL
  2
AcDbMaterial
  3
ObjectDBX Classes
 90
     1153
280
     0
281
     0
  0
CLASS
  1
VISUALSTYLE
  2
AcDbVisualStyle
  3
ObjectDBX Classes
 90
     4095
280
     0
281
     0
  0
CLASS
  1
SCALE
  2
AcDbScale
  3
ObjectDBX Classes
 90
     1153
280
     0
281
     0
  0
CLASS
  1
MLEADERSTYLE
  2
AcDbMLeaderStyle
  3
ACDB_MLEADERSTYLE_CLASS
 90
    36863
280
     0
281
     0
  0
CLASS
  1
ACMTAPERSTANDARDDIN
  2
AcmTaperStdDIN
  3
"Amdt_StdImp|Product Description: AutoCAD Mechanical|Company: Autodesk, Inc."
 90
     1024
280
     0
281
     0
  0
CLASS
  1
ACMANOOTATIONVIEWSTANDARDDIN
  2
AmdtAnViewStdDIN
  3
"Amdt_StdImp|Product Description: AutoCAD Mechanical|Company: Autodesk, Inc."
 90
     1024
280
     0
281
     0
  0
CLASS
  1
VLO-VL
  2
vlo_VL
  3
VL|AutoLISP based application
 90
    32897
280
     0
281
     0
  0
CLASS
  1
CAMSSTRUCTBTNSTATE
  2
StructBtnState
  3
DesignerAssemblies
 90
    33792
280
     0
281
     0
  0
CLASS
  1
CELLSTYLEMAP
  2
AcDbCellStyleMap
  3
ObjectDBX Classes
 90
     1152
280
     0
281
     0
  0
CLASS
  1
AMDTEDGESTANDARDDIN13715
  2
AmdtEdgeStdDIN13715
  3
"Amdt_StdImp|Product Description: AutoCAD Mechanical|Company: Autodesk, Inc."
 90
    33792
280
     0
281
     0
  0
CLASS
  1
ACMSURFSTANDARDDIN2002
  2
AcmSurfTextStdDIN2002
  3
"Amdt_StdImp|Product Description: AutoCAD Mechanical|Company: Autodesk, Inc."
 90
    33792
280
     0
281
     0
  0
CLASS
  1
AMDTNOTETEMPLATEDB
  2
AmdtNoteTemplateDB
  3
AcmSymBB|Product Description: AutoCAD Mechanical|Company: Autodesk, Inc.
 90
    33792
280
     0
281
     0
  0
ENDSEC
  0
SECTION
  2
TABLES
  0
TABLE
  2
VPORT
  5
28
330
0
100
AcDbSymbolTable
 70
     1
  0
VPORT
  5
29
330
28
100
AcDbSymbolTableRecord
100
AcDbViewportTableRecord
  2
*Active
 70
     0
 10
0.0
 20
0.0
 11
1.0
 21
1.0
 12
241.8435552710891
 22
254.7448829176337
 13
0.0
 23
0.0
 14
10.0
 24
10.0
 15
10.0
 25
10.0
 16
0.0
 26
0.0
 36
1.0
 17
0.0
 27
0.0
 37
0.0
 40
505.2903849270607
 41
1.509297520661156
 42
50.0
 43
0.0
 44
0.0
 50
0.0
 51
0.0
 71
     0
 72
  5000
 73
     1
 74
     0
 75
     0
 76
     0
 77
     0
 78
     0
281
     0
 65
     1
110
0.0
120
0.0
130
0.0
111
1.0
121
0.0
131
0.0
112
0.0
122
1.0
132
0.0
 79
     0
146
0.0
  0
ENDTAB
  0
TABLE
  2
LTYPE
  5
23
330
0
100
AcDbSymbolTable
 70
    16
  0
LTYPE
  5
24
330
23
100
AcDbSymbolTableRecord
100
AcDbLinetypeTableRecord
  2
BYBLOCK
 70
     0
  3

 72
    65
 73
     0
 40
0.0
  0
LTYPE
  5
25
330
23
100
AcDbSymbolTableRecord
100
AcDbLinetypeTableRecord
  2
BYLAYER
 70
     0
  3

 72
    65
 73
     0
 40
0.0
  0
LTYPE
  5
15
330
23
100
AcDbSymbolTableRecord
100
AcDbLinetypeTableRecord
  2
CONTINUOUS
 70
     0
  3
Solid line
 72
    65
 73
     0
 40
0.0
  0
LTYPE
  5
51
330
23
100
AcDbSymbolTableRecord
100
AcDbLinetypeTableRecord
  2
STRICHPUNKT2
 70
     0
  3
Strichpunkt (.5x) _._._._._._._._._._._._._._._
 72
    65
 73
     4
 40
12.7
 49
6.349999999999999
 74
     0
 49
-3.174999999999999
 74
     0
 49
0.0
 74
     0
 49
-3.174999999999999
 74
     0
  0
LTYPE
  5
2C3
330
23
100
AcDbSymbolTableRecord
100
AcDbLinetypeTableRecord
  2
AM_ISO02W050
 70
     0
  3
__ __ __ __ __ __ __ __ __ __ __ __ __ __ __
 72
    65
 73
     2
 40
7.5
 49
6.0
 74
     0
 49
-1.5
 74
     0
  0
LTYPE
  5
2D5
330
23
100
AcDbSymbolTableRecord
100
AcDbLinetypeTableRecord
  2
ACDINWELD
 70
     0
  3
_ _ _ _ _
 72
    65
 73
     2
 40
2.0
 49
2.0
 74
     0
 49
-1.0
 74
     0
  0
LTYPE
  5
2D8
330
23
100
AcDbSymbolTableRecord
100
AcDbLinetypeTableRecord
  2
ACDINTGB
 70
     0
  3
__ . . __ . .
 72
    65
 73
     6
 40
9.0
 49
4.0
 74
     0
 49
-1.0
 74
     0
 49
1.0
 74
     0
 49
-1.0
 74
     0
 49
1.0
 74
     0
 49
-1.0
 74
     0
  0
LTYPE
  5
2D9
330
23
100
AcDbSymbolTableRecord
100
AcDbLinetypeTableRecord
  2
ACDINTGL
 70
     0
  3
_ _ _ _ _
 72
    65
 73
     2
 40
3.0
 49
2.0
 74
     0
 49
-1.0
 74
     0
  0
LTYPE
  5
2DD
330
23
100
AcDbSymbolTableRecord
100
AcDbLinetypeTableRecord
  2
CENTER
 70
     0
  3
__ . __
 72
    65
 73
     4
 40
7.0
 49
4.0
 74
     0
 49
-1.0
 74
     0
 49
1.0
 74
     0
 49
-1.0
 74
     0
  0
LTYPE
  5
2BE
330
23
100
AcDbSymbolTableRecord
100
AcDbLinetypeTableRecord
  2
gen3
 70
     0
  3
-- -- -- -- -- -- -- -- -- -- -- -- -- -- --
 72
    65
 73
     2
 40
6.25
 49
4.75
 74
     0
 49
-1.5
 74
     0
  0
LTYPE
  5
2BF
330
23
100
AcDbSymbolTableRecord
100
AcDbLinetypeTableRecord
  2
gen7
 70
     0
  3
____ . ____ . ____ . ____ . ____ . ____ . ____
 72
    65
 73
     4
 40
13.75
 49
9.75
 74
     0
 49
-1.5
 74
     0
 49
1.0
 74
     0
 49
-1.5
 74
     0
  0
LTYPE
  5
2C0
330
23
100
AcDbSymbolTableRecord
100
AcDbLinetypeTableRecord
  2
gen3a
 70
     0
  3
 - - - - -
 72
    65
 73
     2
 40
3.125
 49
2.25
 74
     0
 49
-0.875
 74
     0
  0
LTYPE
  5
2C1
330
23
100
AcDbSymbolTableRecord
100
AcDbLinetypeTableRecord
  2
gen7a
 70
     0
  3
__ . __ . __
 72
    65
 73
     4
 40
6.875
 49
4.75
 74
     0
 49
-0.875
 74
     0
 49
0.375
 74
     0
 49
-0.875
 74
     0
  0
LTYPE
  5
2C2
330
23
100
AcDbSymbolTableRecord
100
AcDbLinetypeTableRecord
  2
gen4a
 70
     0
  3
_____ . . _____ . . _____ . . ____ .. ____
 72
    65
 73
     6
 40
16.25
 49
9.75
 74
     0
 49
-1.5
 74
     0
 49
1.0
 74
     0
 49
-1.5
 74
     0
 49
1.0
 74
     0
 49
-1.5
 74
     0
  0
LTYPE
  5
2C4
330
23
100
AcDbSymbolTableRecord
100
AcDbLinetypeTableRecord
  2
genzigzag
 70
     0
  3
/\/-/\/-/\/-/\/-/\/-/\/
 72
    65
 73
     2
 40
12.0001
 49
0.0001
 74
     4
 75
   135
340
2C5
 46
2.0
 50
0.0
 44
0.0
 45
0.0
 49
-12.0
 74
     0
  0
LTYPE
  5
A1
330
23
100
AcDbSymbolTableRecord
100
AcDbLinetypeTableRecord
  2
VERDECKT
 70
     0
  3
Verdeckt __ __ __ __ __ __ __ __ __ __ __ __ __
 72
    65
 73
     2
 40
9.524999999999998
 49
6.349999999999999
 74
     0
 49
-3.174999999999999
 74
     0
  0
LTYPE
  5
309
330
23
100
AcDbSymbolTableRecord
100
AcDbLinetypeTableRecord
  2
HIDDEN
 70
     0
  3
Verdeckt
 72
    65
 73
     2
 40
9.525
 49
6.349999999999999
 74
     0
 49
-3.174999999999999
 74
     0
  0
LTYPE
  5
30A
330
23
100
AcDbSymbolTableRecord
100
AcDbLinetypeTableRecord
  2
PHANTOM2
 70
     0
  3
Phantom (.5x) ___ _ _ ___ _ _ ___ _ _ ___ _ _
 72
    65
 73
     6
 40
31.75
 49
15.875
 74
     0
 49
-3.174999999999999
 74
     0
 49
3.174999999999999
 74
     0
 49
-3.174999999999999
 74
     0
 49
3.174999999999999
 74
     0
 49
-3.174999999999999
 74
     0
  0
ENDTAB
  0
TABLE
  2
LAYER
  5
1D
102
{ACAD_XDICTIONARY
360
1E
102
}
330
0
100
AcDbSymbolTable
 70
     7
  0
LAYER
  5
6
102
{ACAD_XDICTIONARY
360
7
102
}
330
1D
100
AcDbSymbolTableRecord
100
AcDbLayerTableRecord
  2
0
 70
     0
 62
     7
  6
CONTINUOUS
370
    -3
390
9
  0
LAYER
  5
8D
102
{ACAD_XDICTIONARY
360
8E
102
}
330
1D
100
AcDbSymbolTableRecord
100
AcDbLayerTableRecord
  2
UMRISS05
 70
     0
 62
     4
  6
CONTINUOUS
370
    -3
390
9
  0
LAYER
  5
6D
102
{ACAD_XDICTIONARY
360
6E
102
}
330
1D
100
AcDbSymbolTableRecord
100
AcDbLayerTableRecord
  2
BEMASSUNG
 70
     0
 62
     2
  6
CONTINUOUS
370
    -3
390
9
  0
LAYER
  5
4E
102
{ACAD_XDICTIONARY
360
4F
102
}
330
1D
100
AcDbSymbolTableRecord
100
AcDbLayerTableRecord
  2
ACHSEN
 70
     0
 62
     1
  6
STRICHPUNKT2
370
    -3
390
9
  0
LAYER
  5
79
330
1D
100
AcDbSymbolTableRecord
100
AcDbLayerTableRecord
  2
DEFPOINTS
 70
     0
 62
     7
  6
CONTINUOUS
290
     0
370
    -3
390
9
  0
LAYER
  5
69
102
{ACAD_XDICTIONARY
360
6A
102
}
330
1D
100
AcDbSymbolTableRecord
100
AcDbLayerTableRecord
  2
1855
 70
     0
 62
     4
  6
CONTINUOUS
370
    -3
390
9
  0
LAYER
  5
9F
102
{ACAD_XDICTIONARY
360
A0
102
}
330
1D
100
AcDbSymbolTableRecord
100
AcDbLayerTableRecord
  2
AVERDECKTE
 70
     0
 62
    13
  6
VERDECKT
370
    -3
390
9
  0
ENDTAB
  0
TABLE
  2
STYLE
  5
20
330
0
100
AcDbSymbolTable
 70
     6
  0
STYLE
  5
21
330
20
100
AcDbSymbolTableRecord
100
AcDbTextStyleTableRecord
  2
STANDARD
 70
     0
 40
0.0
 41
1.0
 50
0.0
 71
     0
 42
10.0
  3
txt
  4

  0
STYLE
  5
30
330
20
100
AcDbSymbolTableRecord
100
AcDbTextStyleTableRecord
  2
ARIAL-STANDARD
 70
     0
 40
0.0
 41
1.0
 50
0.0
 71
     0
 42
3.5
  3
arial.ttf
  4

1001
ACAD
1000
Arial
1071
       34
  0
STYLE
  5
35
330
20
100
AcDbSymbolTableRecord
100
AcDbTextStyleTableRecord
  2
WMF
 70
     0
 40
0.0
 41
1.0
 50
0.0
 71
     0
 42
6.5
  3
arial.ttf
  4

1001
ACAD
1000
Arial
1071
       34
  0
STYLE
  5
2CF
330
20
100
AcDbSymbolTableRecord
100
AcDbTextStyleTableRecord
  2
ACDINTS
 70
     0
 40
1.0
 41
1.0
 50
0.0
 71
     0
 42
3.5
  3
isocp.shx
  4

  0
STYLE
  5
2D3
330
20
100
AcDbSymbolTableRecord
100
AcDbTextStyleTableRecord
  2
ACDINGDT
 70
     0
 40
0.0
 41
1.0
 50
0.0
 71
     0
 42
3.5
  3
amgdt.shx
  4

  0
STYLE
  5
2C5
330
20
100
AcDbSymbolTableRecord
100
AcDbTextStyleTableRecord
  2

 70
     1
 40
0.0
 41
1.0
 50
0.0
 71
     0
 42
3.5
  3
genltshp.shx
  4

  0
ENDTAB
  0
TABLE
  2
VIEW
  5
26
330
0
100
AcDbSymbolTable
 70
     0
  0
ENDTAB
  0
TABLE
  2
UCS
  5
27
330
0
100
AcDbSymbolTable
 70
     0
  0
ENDTAB
  0
TABLE
  2
APPID
  5
2C
330
0
100
AcDbSymbolTable
 70
     6
  0
APPID
  5
2D
330
2C
100
AcDbSymbolTableRecord
100
AcDbRegAppTableRecord
  2
ACAD
 70
     0
  0
APPID
  5
32
330
2C
100
AcDbSymbolTableRecord
100
AcDbRegAppTableRecord
  2
ACAD_DSTYLE_DIMJAG
 70
     0
  0
APPID
  5
31
330
2C
100
AcDbSymbolTableRecord
100
AcDbRegAppTableRecord
  2
ACAD_DSTYLE_DIMBREAK
 70
     0
  0
APPID
  5
33
330
2C
100
AcDbSymbolTableRecord
100
AcDbRegAppTableRecord
  2
ACAD_DSTYLE_DIMTALN
 70
     0
  0
APPID
  5
8A
330
2C
100
AcDbSymbolTableRecord
100
AcDbRegAppTableRecord
  2
ACAD_DSTYLE_DIMINSPECT
 70
     0
  0
APPID
  5
30C
330
2C
100
AcDbSymbolTableRecord
100
AcDbRegAppTableRecord
  2
ACATTRIBSERVICES
 70
     0
  0
ENDTAB
  0
TABLE
  2
DIMSTYLE
  5
2E
330
0
100
AcDbSymbolTable
 70
     2
100
AcDbDimStyleTable
 71
     2
340
2F
340
34
  0
DIMSTYLE
105
34
330
2E
100
AcDbSymbolTableRecord
100
AcDbDimStyleTableRecord
  2
WMF
 70
     0
 40
1.9
 41
2.799999999999999
 42
1.0
 43
0.0
 44
1.0
 73
     0
 74
     0
 77
     1
 78
     8
140
3.399999999999999
141
1.5
146
0.5
147
1.0
172
     1
174
     1
176
   256
177
   256
178
   256
271
     2
272
     2
279
     2
284
     8
285
     8
286
     8
340
35
  0
DIMSTYLE
105
2F
102
{ACAD_REACTORS
330
1D2
330
1C5
330
1B8
330
1AB
330
19B
330
18C
330
17F
330
16F
330
162
330
151
330
12F
330
117
330
107
330
7D
330
6C
330
2AE
330
2A1
330
294
330
287
330
27A
330
264
330
255
330
242
330
235
330
221
330
211
330
1FF
102
}
330
2E
100
AcDbSymbolTableRecord
100
AcDbDimStyleTableRecord
  2
Katalog 09
 70
     0
 41
4.0
 42
0.0
 43
8.0
 44
1.0
 73
     0
 74
     0
 77
     1
 78
     8
140
4.349999999999999
141
1.5
143
25.39999999999999
146
0.4285714285714286
147
1.0
172
     1
174
     1
176
     2
177
     2
178
     3
271
     2
272
     2
279
     2
284
     8
285
     8
286
     8
340
30
1001
ACAD_DSTYLE_DIMBREAK
1070
   391
1040
3.75
1001
ACAD_DSTYLE_DIMJAG
1070
   388
1040
1.5
1001
ACAD_DSTYLE_DIMTALN
1070
   392
1070
     0
  0
ENDTAB
  0
TABLE
  2
BLOCK_RECORD
  5
1
330
0
100
AcDbSymbolTable
 70
    27
  0
BLOCK_RECORD
  5
2
102
{ACAD_XDICTIONARY
360
3
102
}
330
1
100
AcDbSymbolTableRecord
100
AcDbBlockTableRecord
  2
*MODEL_SPACE
340
17
  0
BLOCK_RECORD
  5
19
330
1
100
AcDbSymbolTableRecord
100
AcDbBlockTableRecord
  2
*PAPER_SPACE
340
1C
  0
BLOCK_RECORD
  5
1D3
330
1
100
AcDbSymbolTableRecord
100
AcDbBlockTableRecord
  2
*D0
340
0
  0
BLOCK_RECORD
  5
1C6
330
1
100
AcDbSymbolTableRecord
100
AcDbBlockTableRecord
  2
*D1
340
0
  0
BLOCK_RECORD
  5
1B9
330
1
100
AcDbSymbolTableRecord
100
AcDbBlockTableRecord
  2
*D2
340
0
  0
BLOCK_RECORD
  5
1AC
330
1
100
AcDbSymbolTableRecord
100
AcDbBlockTableRecord
  2
*D3
340
0
  0
BLOCK_RECORD
  5
19C
330
1
100
AcDbSymbolTableRecord
100
AcDbBlockTableRecord
  2
*D4
340
0
  0
BLOCK_RECORD
  5
18D
330
1
100
AcDbSymbolTableRecord
100
AcDbBlockTableRecord
  2
*D5
340
0
  0
BLOCK_RECORD
  5
180
330
1
100
AcDbSymbolTableRecord
100
AcDbBlockTableRecord
  2
*D6
340
0
  0
BLOCK_RECORD
  5
170
330
1
100
AcDbSymbolTableRecord
100
AcDbBlockTableRecord
  2
*D7
340
0
  0
BLOCK_RECORD
  5
163
330
1
100
AcDbSymbolTableRecord
100
AcDbBlockTableRecord
  2
*D8
340
0
  0
BLOCK_RECORD
  5
152
330
1
100
AcDbSymbolTableRecord
100
AcDbBlockTableRecord
  2
*D9
340
0
  0
BLOCK_RECORD
  5
130
330
1
100
AcDbSymbolTableRecord
100
AcDbBlockTableRecord
  2
*D10
340
0
  0
BLOCK_RECORD
  5
118
330
1
100
AcDbSymbolTableRecord
100
AcDbBlockTableRecord
  2
*D11
340
0
  0
BLOCK_RECORD
  5
108
330
1
100
AcDbSymbolTableRecord
100
AcDbBlockTableRecord
  2
*D12
340
0
  0
BLOCK_RECORD
  5
7E
330
1
100
AcDbSymbolTableRecord
100
AcDbBlockTableRecord
  2
*D13
340
0
  0
BLOCK_RECORD
  5
70
330
1
100
AcDbSymbolTableRecord
100
AcDbBlockTableRecord
  2
*D14
340
0
  0
BLOCK_RECORD
  5
2AF
330
1
100
AcDbSymbolTableRecord
100
AcDbBlockTableRecord
  2
*D15
340
0
  0
BLOCK_RECORD
  5
2A2
330
1
100
AcDbSymbolTableRecord
100
AcDbBlockTableRecord
  2
*D16
340
0
  0
BLOCK_RECORD
  5
295
330
1
100
AcDbSymbolTableRecord
100
AcDbBlockTableRecord
  2
*D17
340
0
  0
BLOCK_RECORD
  5
288
330
1
100
AcDbSymbolTableRecord
100
AcDbBlockTableRecord
  2
*D18
340
0
  0
BLOCK_RECORD
  5
27B
330
1
100
AcDbSymbolTableRecord
100
AcDbBlockTableRecord
  2
*D19
340
0
  0
BLOCK_RECORD
  5
265
330
1
100
AcDbSymbolTableRecord
100
AcDbBlockTableRecord
  2
*D20
340
0
  0
BLOCK_RECORD
  5
256
330
1
100
AcDbSymbolTableRecord
100
AcDbBlockTableRecord
  2
*D21
340
0
  0
BLOCK_RECORD
  5
243
330
1
100
AcDbSymbolTableRecord
100
AcDbBlockTableRecord
  2
*D22
340
0
  0
BLOCK_RECORD
  5
236
330
1
100
AcDbSymbolTableRecord
100
AcDbBlockTableRecord
  2
*D23
340
0
  0
BLOCK_RECORD
  5
222
330
1
100
AcDbSymbolTableRecord
100
AcDbBlockTableRecord
  2
*D24
340
0
  0
BLOCK_RECORD
  5
212
330
1
100
AcDbSymbolTableRecord
100
AcDbBlockTableRecord
  2
*D25
340
0
  0
BLOCK_RECORD
  5
200
330
1
100
AcDbSymbolTableRecord
100
AcDbBlockTableRecord
  2
*D26
340
0
  0
ENDTAB
  0
ENDSEC
  0
SECTION
  2
BLOCKS
  0
BLOCK
  5
5
330
2
100
AcDbEntity
  8
0
100
AcDbBlockBegin
  2
*MODEL_SPACE
 70
     0
 10
0.0
 20
0.0
 30
0.0
  3
*MODEL_SPACE
  1

  0
ENDBLK
  5
16
330
2
100
AcDbEntity
  8
0
100
AcDbBlockEnd
  0
BLOCK
  5
1A
330
19
100
AcDbEntity
 67
     1
  8
0
100
AcDbBlockBegin
  2
*PAPER_SPACE
 70
     0
 10
0.0
 20
0.0
 30
0.0
  3
*PAPER_SPACE
  1

  0
ENDBLK
  5
1B
330
19
100
AcDbEntity
 67
     1
  8
0
100
AcDbBlockEnd
  0
BLOCK
  5
1D4
330
1D3
100
AcDbEntity
  8
0
100
AcDbBlockBegin
  2
*D0
 70
     1
 10
0.0
 20
0.0
 30
0.0
  3
*D0
  1

  0
LINE
  5
1D5
330
1D3
100
AcDbEntity
  8
BEMASSUNG
  6
Continuous
 62
     2
370
    -2
100
AcDbLine
 10
306.5610499237166
 20
416.9177775541211
 30
0.0
 11
306.5610499237166
 21
423.9024932998392
 31
0.0
  0
LINE
  5
1D6
330
1D3
100
AcDbEntity
  8
BEMASSUNG
  6
Continuous
 62
     2
370
    -2
100
AcDbLine
 10
316.5596200030362
 20
425.5851346035894
 30
0.0
 11
316.5596200030362
 21
421.9024932998393
 31
0.0
  0
LINE
  5
1D7
330
1D3
100
AcDbEntity
  8
BEMASSUNG
  6
Continuous
 62
     2
370
    -2
100
AcDbLine
 10
302.5610499237166
 20
422.9024932998393
 30
0.0
 11
298.5610499237166
 21
422.9024932998393
 31
0.0
  0
LINE
  5
1D8
330
1D3
100
AcDbEntity
  8
BEMASSUNG
  6
Continuous
 62
     2
370
    -2
100
AcDbLine
 10
320.5596200030362
 20
422.9024932998393
 30
0.0
 11
324.5596200030362
 21
422.9024932998393
 31
0.0
  0
LINE
  5
1D9
330
1D3
100
AcDbEntity
  8
BEMASSUNG
  6
Continuous
 62
     2
370
    -2
100
AcDbLine
 10
306.5610499237166
 20
422.9024932998393
 30
0.0
 11
316.5596200030362
 21
422.9024932998393
 31
0.0
  0
SOLID
  5
1DA
330
1D3
100
AcDbEntity
  8
BEMASSUNG
  6
Continuous
 62
     2
100
AcDbTrace
 10
302.5610499237166
 20
423.5691599665059
 30
0.0
 11
302.5610499237166
 21
422.2358266331726
 31
0.0
 12
306.5610499237166
 22
422.9024932998393
 32
0.0
 13
306.5610499237166
 23
422.9024932998393
 33
0.0
  0
SOLID
  5
1DB
330
1D3
100
AcDbEntity
  8
BEMASSUNG
  6
Continuous
 62
     2
100
AcDbTrace
 10
320.5596200030362
 20
423.5691599665059
 30
0.0
 11
320.5596200030362
 21
422.2358266331726
 31
0.0
 12
316.5596200030362
 22
422.9024932998393
 32
0.0
 13
316.5596200030362
 23
422.9024932998393
 33
0.0
  0
MTEXT
  5
1DC
330
1D3
100
AcDbEntity
  8
BEMASSUNG
  6
Continuous
 62
     3
100
AcDbMText
 10
311.5603349633764
 20
426.1234857964287
 30
0.0
 40
4.349999999999999
 41
0.0
 71
     5
 72
     1
  1
\A1;10
  7
ARIAL-STANDARD
 73
     1
 44
1.0
1001
ACAD
1000
MTEXTBEGIN
1070
    73
1070
     1
1070
    44
1040
1.0
1070
    74
1070
     0
1000
MTEXTEND
  0
POINT
  5
1DD
330
1D3
100
AcDbEntity
  8
DEFPOINTS
  6
Continuous
 62
     0
100
AcDbPoint
 10
306.5610499237166
 20
416.9177775541211
 30
0.0
  0
POINT
  5
1DE
330
1D3
100
AcDbEntity
  8
DEFPOINTS
  6
Continuous
 62
     0
100
AcDbPoint
 10
316.5596200030362
 20
425.5851346035894
 30
0.0
  0
POINT
  5
1DF
330
1D3
100
AcDbEntity
  8
DEFPOINTS
  6
Continuous
 62
     0
100
AcDbPoint
 10
316.5596200030362
 20
422.9024932998393
 30
0.0
  0
ENDBLK
  5
1E0
330
1D3
100
AcDbEntity
  8
0
100
AcDbBlockEnd
  0
BLOCK
  5
1C7
330
1C6
100
AcDbEntity
  8
0
100
AcDbBlockBegin
  2
*D1
 70
     1
 10
0.0
 20
0.0
 30
0.0
  3
*D1
  1

  0
LINE
  5
1C8
330
1C6
100
AcDbEntity
  8
BEMASSUNG
  6
Continuous
 62
     2
370
    -2
100
AcDbLine
 10
306.5696374348081
 20
417.8256938178415
 30
0.0
 11
288.8702219274025
 21
417.8256938178415
 31
0.0
  0
LINE
  5
1C9
330
1C6
100
AcDbEntity
  8
BEMASSUNG
  6
Continuous
 62
     2
370
    -2
100
AcDbLine
 10
319.5596200030339
 20
432.3257031729491
 30
0.0
 11
288.8702219274025
 21
432.3257031729491
 31
0.0
  0
LINE
  5
1CA
330
1C6
100
AcDbEntity
  8
BEMASSUNG
  6
Continuous
 62
     2
370
    -2
100
AcDbLine
 10
289.8702219274024
 20
421.8256938178415
 30
0.0
 11
289.8702219274024
 21
428.3257031729491
 31
0.0
  0
MTEXT
  5
1CB
330
1C6
100
AcDbEntity
  8
BEMASSUNG
  6
Continuous
 62
     3
100
AcDbMText
 10
285.6584352896689
 20
425.4239955381308
 30
0.0
 40
4.349999999999999
 41
0.0
 71
     5
 72
     1
  1
\A1;14.5
  7
ARIAL-STANDARD
 11
0.0000000000000001
 21
1.0
 31
0.0
 73
     1
 44
1.0
1001
ACAD
1000
MTEXTBEGIN
1070
    73
1070
     1
1070
    44
1040
1.0
1070
    74
1070
     0
1000
MTEXTEND
  0
SOLID
  5
1CC
330
1C6
100
AcDbEntity
  8
BEMASSUNG
  6
Continuous
 62
     2
100
AcDbTrace
 10
289.2035552607358
 20
421.8256938178415
 30
0.0
 11
290.5368885940691
 21
421.8256938178415
 31
0.0
 12
289.8702219274024
 22
417.8256938178415
 32
0.0
 13
289.8702219274024
 23
417.8256938178415
 33
0.0
  0
SOLID
  5
1CD
330
1C6
100
AcDbEntity
  8
BEMASSUNG
  6
Continuous
 62
     2
100
AcDbTrace
 10
289.2035552607358
 20
428.3257031729491
 30
0.0
 11
290.5368885940691
 21
428.3257031729491
 31
0.0
 12
289.8702219274024
 22
432.3257031729491
 32
0.0
 13
289.8702219274024
 23
432.3257031729491
 33
0.0
  0
POINT
  5
1CE
330
1C6
100
AcDbEntity
  8
DEFPOINTS
  6
Continuous
 62
     0
100
AcDbPoint
 10
306.5696374348081
 20
417.8256938178415
 30
0.0
  0
POINT
  5
1CF
330
1C6
100
AcDbEntity
  8
DEFPOINTS
  6
Continuous
 62
     0
100
AcDbPoint
 10
319.5596200030339
 20
432.3257031729491
 30
0.0
  0
POINT
  5
1D0
330
1C6
100
AcDbEntity
  8
DEFPOINTS
  6
Continuous
 62
     0
100
AcDbPoint
 10
289.8702219274024
 20
432.3257031729491
 30
0.0
  0
ENDBLK
  5
1D1
330
1C6
100
AcDbEntity
  8
0
100
AcDbBlockEnd
  0
BLOCK
  5
1BA
330
1B9
100
AcDbEntity
  8
0
100
AcDbBlockBegin
  2
*D2
 70
     1
 10
0.0
 20
0.0
 30
0.0
  3
*D2
  1

  0
LINE
  5
1BB
330
1B9
100
AcDbEntity
  8
BEMASSUNG
  6
Continuous
 62
     2
370
    -2
100
AcDbLine
 10
307.0610499237166
 20
387.8257031729491
 30
0.0
 11
288.8082533386561
 21
387.8257031729491
 31
0.0
  0
LINE
  5
1BC
330
1B9
100
AcDbEntity
  8
BEMASSUNG
  6
Continuous
 62
     2
370
    -2
100
AcDbLine
 10
307.0610499237166
 20
417.8257031729491
 30
0.0
 11
288.8082533386561
 21
417.8257031729491
 31
0.0
  0
LINE
  5
1BD
330
1B9
100
AcDbEntity
  8
BEMASSUNG
  6
Continuous
 62
     2
370
    -2
100
AcDbLine
 10
289.8082533386561
 20
391.8257031729491
 30
0.0
 11
289.8082533386561
 21
413.8257031729491
 31
0.0
  0
MTEXT
  5
1BE
330
1B9
100
AcDbEntity
  8
BEMASSUNG
  6
Continuous
 62
     3
100
AcDbMText
 10
286.2721157539318
 20
404.3237125032929
 30
0.0
 40
4.349999999999999
 41
0.0
 71
     5
 72
     1
  1
\A1;30
  7
ARIAL-STANDARD
 11
0.0000000000000001
 21
1.0
 31
0.0
 73
     1
 44
1.0
1001
ACAD
1000
MTEXTBEGIN
1070
    73
1070
     1
1070
    44
1040
1.0
1070
    74
1070
     0
1000
MTEXTEND
  0
SOLID
  5
1BF
330
1B9
100
AcDbEntity
  8
BEMASSUNG
  6
Continuous
 62
     2
100
AcDbTrace
 10
289.1415866719894
 20
391.8257031729491
 30
0.0
 11
290.4749200053228
 21
391.8257031729491
 31
0.0
 12
289.8082533386561
 22
387.8257031729491
 32
0.0
 13
289.8082533386561
 23
387.8257031729491
 33
0.0
  0
SOLID
  5
1C0
330
1B9
100
AcDbEntity
  8
BEMASSUNG
  6
Continuous
 62
     2
100
AcDbTrace
 10
289.1415866719894
 20
413.8257031729491
 30
0.0
 11
290.4749200053228
 21
413.8257031729491
 31
0.0
 12
289.8082533386561
 22
417.8257031729491
 32
0.0
 13
289.8082533386561
 23
417.8257031729491
 33
0.0
  0
POINT
  5
1C1
330
1B9
100
AcDbEntity
  8
DEFPOINTS
  6
Continuous
 62
     0
100
AcDbPoint
 10
307.0610499237166
 20
387.8257031729491
 30
0.0
  0
POINT
  5
1C2
330
1B9
100
AcDbEntity
  8
DEFPOINTS
  6
Continuous
 62
     0
100
AcDbPoint
 10
307.0610499237166
 20
417.8257031729491
 30
0.0
  0
POINT
  5
1C3
330
1B9
100
AcDbEntity
  8
DEFPOINTS
  6
Continuous
 62
     0
100
AcDbPoint
 10
289.8082533386561
 20
417.8257031729491
 30
0.0
  0
ENDBLK
  5
1C4
330
1B9
100
AcDbEntity
  8
0
100
AcDbBlockEnd
  0
BLOCK
  5
1AD
330
1AC
100
AcDbEntity
  8
0
100
AcDbBlockBegin
  2
*D3
 70
     1
 10
0.0
 20
0.0
 30
0.0
  3
*D3
  1

  0
LINE
  5
1AE
330
1AC
100
AcDbEntity
  8
BEMASSUNG
  6
Continuous
 62
     2
370
    -2
100
AcDbLine
 10
316.5596200030357
 20
467.825703172949
 30
0.0
 11
288.7948717266058
 21
467.825703172949
 31
0.0
  0
LINE
  5
1AF
330
1AC
100
AcDbEntity
  8
BEMASSUNG
  6
Continuous
 62
     2
370
    -2
100
AcDbLine
 10
319.5596200030339
 20
432.3257031729491
 30
0.0
 11
288.7948717266058
 21
432.3257031729491
 31
0.0
  0
LINE
  5
1B0
330
1AC
100
AcDbEntity
  8
BEMASSUNG
  6
Continuous
 62
     2
370
    -2
100
AcDbLine
 10
289.7948717266059
 20
463.825703172949
 30
0.0
 11
289.7948717266059
 21
436.3257031729491
 31
0.0
  0
SOLID
  5
1B1
330
1AC
100
AcDbEntity
  8
BEMASSUNG
  6
Continuous
 62
     2
100
AcDbTrace
 10
289.1282050599392
 20
463.825703172949
 30
0.0
 11
290.4615383932725
 21
463.825703172949
 31
0.0
 12
289.7948717266059
 22
467.825703172949
 32
0.0
 13
289.7948717266059
 23
467.825703172949
 33
0.0
  0
SOLID
  5
1B2
330
1AC
100
AcDbEntity
  8
BEMASSUNG
  6
Continuous
 62
     2
100
AcDbTrace
 10
289.1282050599392
 20
436.3257031729491
 30
0.0
 11
290.4615383932725
 21
436.3257031729491
 31
0.0
 12
289.7948717266059
 22
432.3257031729491
 32
0.0
 13
289.7948717266059
 23
432.3257031729491
 33
0.0
  0
MTEXT
  5
1B3
330
1AC
100
AcDbEntity
  8
BEMASSUNG
  6
Continuous
 62
     3
100
AcDbMText
 10
286.5723956010941
 20
450.0757031729491
 30
0.0
 40
4.349999999999999
 41
0.0
 71
     5
 72
     1
  1
\A1;35.5
  7
ARIAL-STANDARD
 11
0.0000000000000001
 21
1.0
 31
0.0
 73
     1
 44
1.0
1001
ACAD
1000
MTEXTBEGIN
1070
    73
1070
     1
1070
    44
1040
1.0
1070
    74
1070
     0
1000
MTEXTEND
  0
POINT
  5
1B4
330
1AC
100
AcDbEntity
  8
DEFPOINTS
  6
Continuous
 62
     0
100
AcDbPoint
 10
316.5596200030357
 20
467.825703172949
 30
0.0
  0
POINT
  5
1B5
330
1AC
100
AcDbEntity
  8
DEFPOINTS
  6
Continuous
 62
     0
100
AcDbPoint
 10
319.5596200030339
 20
432.3257031729491
 30
0.0
  0
POINT
  5
1B6
330
1AC
100
AcDbEntity
  8
DEFPOINTS
  6
Continuous
 62
     0
100
AcDbPoint
 10
289.7948717266059
 20
432.3257031729491
 30
0.0
  0
ENDBLK
  5
1B7
330
1AC
100
AcDbEntity
  8
0
100
AcDbBlockEnd
  0
BLOCK
  5
19D
330
19C
100
AcDbEntity
  8
0
100
AcDbBlockBegin
  2
*D4
 70
     1
 10
0.0
 20
0.0
 30
0.0
  3
*D4
  1

  0
LINE
  5
19E
330
19C
100
AcDbEntity
  8
BEMASSUNG
  6
Continuous
 62
     2
370
    -2
100
AcDbLine
 10
486.3414503813357
 20
403.8930903967477
 30
0.0
 11
486.3414503813357
 21
409.4653394942509
 31
0.0
  0
LINE
  5
19F
330
19C
100
AcDbEntity
  8
BEMASSUNG
  6
Continuous
 62
     2
370
    -2
100
AcDbLine
 10
482.9414503813357
 20
404.1955164566318
 30
0.0
 11
482.9414503813357
 21
409.4653394942509
 31
0.0
  0
LINE
  5
1A0
330
19C
100
AcDbEntity
  8
BEMASSUNG
  6
Continuous
 62
     2
370
    -2
100
AcDbLine
 10
490.3414503813357
 20
408.4653394942509
 30
0.0
 11
494.3414503813357
 21
408.4653394942509
 31
0.0
  0
LINE
  5
1A1
330
19C
100
AcDbEntity
  8
BEMASSUNG
  6
Continuous
 62
     2
370
    -2
100
AcDbLine
 10
478.9414503813357
 20
408.4653394942509
 30
0.0
 11
474.9414503813357
 21
408.4653394942509
 31
0.0
  0
MTEXT
  5
1A2
330
19C
100
AcDbEntity
  8
BEMASSUNG
  6
Continuous
 62
     3
100
AcDbMText
 10
473.6004045294658
 20
413.4649079334971
 30
0.0
 40
4.349999999999999
 41
0.0
 71
     5
 72
     1
  1
\A1;3.4
  7
ARIAL-STANDARD
 73
     1
 44
1.0
1001
ACAD
1000
MTEXTBEGIN
1070
    73
1070
     1
1070
    44
1040
1.0
1070
    74
1070
     0
1000
MTEXTEND
  0
LINE
  5
1A3
330
19C
100
AcDbEntity
  8
BEMASSUNG
  6
Continuous
 62
     2
370
    -2
100
AcDbLine
 10
486.3414503813357
 20
408.4653394942509
 30
0.0
 11
482.9414503813357
 21
408.4653394942509
 31
0.0
  0
SOLID
  5
1A4
330
19C
100
AcDbEntity
  8
BEMASSUNG
  6
Continuous
 62
     2
100
AcDbTrace
 10
490.3414503813357
 20
409.1320061609176
 30
0.0
 11
490.3414503813357
 21
407.7986728275842
 31
0.0
 12
486.3414503813357
 22
408.4653394942509
 32
0.0
 13
486.3414503813357
 23
408.4653394942509
 33
0.0
  0
SOLID
  5
1A5
330
19C
100
AcDbEntity
  8
BEMASSUNG
  6
Continuous
 62
     2
100
AcDbTrace
 10
478.9414503813357
 20
409.1320061609176
 30
0.0
 11
478.9414503813357
 21
407.7986728275842
 31
0.0
 12
482.9414503813357
 22
408.4653394942509
 32
0.0
 13
482.9414503813357
 23
408.4653394942509
 33
0.0
  0
POINT
  5
1A6
330
19C
100
AcDbEntity
  8
DEFPOINTS
  6
Continuous
 62
     0
100
AcDbPoint
 10
486.3414503813357
 20
403.8930903967477
 30
0.0
  0
POINT
  5
1A7
330
19C
100
AcDbEntity
  8
DEFPOINTS
  6
Continuous
 62
     0
100
AcDbPoint
 10
482.9414503813357
 20
404.1955164566318
 30
0.0
  0
POINT
  5
1A8
330
19C
100
AcDbEntity
  8
DEFPOINTS
  6
Continuous
 62
     0
100
AcDbPoint
 10
482.9414503813357
 20
408.4653394942509
 30
0.0
  0
ENDBLK
  5
1A9
330
19C
100
AcDbEntity
  8
0
100
AcDbBlockEnd
  0
BLOCK
  5
18E
330
18D
100
AcDbEntity
  8
0
100
AcDbBlockBegin
  2
*D5
 70
     1
 10
0.0
 20
0.0
 30
0.0
  3
*D5
  1

  0
LINE
  5
18F
330
18D
100
AcDbEntity
  8
BEMASSUNG
  6
Continuous
 62
     2
370
    -2
100
AcDbLine
 10
372.0596200030357
 20
426.8257031729499
 30
0.0
 11
372.0596200030357
 21
444.0598541767099
 31
0.0
  0
LINE
  5
190
330
18D
100
AcDbEntity
  8
BEMASSUNG
  6
Continuous
 62
     2
370
    -2
100
AcDbLine
 10
381.0596200030357
 20
426.8257031729499
 30
0.0
 11
381.0596200030357
 21
444.0598541767099
 31
0.0
  0
LINE
  5
191
330
18D
100
AcDbEntity
  8
BEMASSUNG
  6
Continuous
 62
     2
370
    -2
100
AcDbLine
 10
368.0596200030357
 20
443.0598541767099
 30
0.0
 11
364.0596200030357
 21
443.0598541767099
 31
0.0
  0
LINE
  5
192
330
18D
100
AcDbEntity
  8
BEMASSUNG
  6
Continuous
 62
     2
370
    -2
100
AcDbLine
 10
385.0596200030357
 20
443.0598541767099
 30
0.0
 11
389.0596200030357
 21
443.0598541767099
 31
0.0
  0
MTEXT
  5
193
330
18D
100
AcDbEntity
  8
BEMASSUNG
  6
Continuous
 62
     3
100
AcDbMText
 10
376.3017019715144
 20
447.2945275475636
 30
0.0
 40
4.349999999999999
 41
0.0
 71
     5
 72
     1
  1
\A1;9
  7
ARIAL-STANDARD
 73
     1
 44
1.0
1001
ACAD
1000
MTEXTBEGIN
1070
    73
1070
     1
1070
    44
1040
1.0
1070
    74
1070
     0
1000
MTEXTEND
  0
LINE
  5
194
330
18D
100
AcDbEntity
  8
BEMASSUNG
  6
Continuous
 62
     2
370
    -2
100
AcDbLine
 10
372.0596200030357
 20
443.0598541767099
 30
0.0
 11
381.0596200030357
 21
443.0598541767099
 31
0.0
  0
SOLID
  5
195
330
18D
100
AcDbEntity
  8
BEMASSUNG
  6
Continuous
 62
     2
100
AcDbTrace
 10
368.0596200030357
 20
443.7265208433766
 30
0.0
 11
368.0596200030357
 21
442.3931875100432
 31
0.0
 12
372.0596200030357
 22
443.0598541767099
 32
0.0
 13
372.0596200030357
 23
443.0598541767099
 33
0.0
  0
SOLID
  5
196
330
18D
100
AcDbEntity
  8
BEMASSUNG
  6
Continuous
 62
     2
100
AcDbTrace
 10
385.0596200030357
 20
443.7265208433766
 30
0.0
 11
385.0596200030357
 21
442.3931875100432
 31
0.0
 12
381.0596200030357
 22
443.0598541767099
 32
0.0
 13
381.0596200030357
 23
443.0598541767099
 33
0.0
  0
POINT
  5
197
330
18D
100
AcDbEntity
  8
DEFPOINTS
  6
Continuous
 62
     0
100
AcDbPoint
 10
372.0596200030357
 20
426.8257031729499
 30
0.0
  0
POINT
  5
198
330
18D
100
AcDbEntity
  8
DEFPOINTS
  6
Continuous
 62
     0
100
AcDbPoint
 10
381.0596200030357
 20
426.8257031729499
 30
0.0
  0
POINT
  5
199
330
18D
100
AcDbEntity
  8
DEFPOINTS
  6
Continuous
 62
     0
100
AcDbPoint
 10
381.0596200030357
 20
443.0598541767099
 30
0.0
  0
ENDBLK
  5
19A
330
18D
100
AcDbEntity
  8
0
100
AcDbBlockEnd
  0
BLOCK
  5
181
330
180
100
AcDbEntity
  8
0
100
AcDbBlockBegin
  2
*D6
 70
     1
 10
0.0
 20
0.0
 30
0.0
  3
*D6
  1

  0
LINE
  5
182
330
180
100
AcDbEntity
  8
BEMASSUNG
  6
Continuous
 62
     2
370
    -2
100
AcDbLine
 10
387.7596200030355
 20
432.3257031729501
 30
0.0
 11
432.830222796637
 21
432.3257031729501
 31
0.0
  0
LINE
  5
183
330
180
100
AcDbEntity
  8
BEMASSUNG
  6
Continuous
 62
     2
370
    -2
100
AcDbLine
 10
400.1596200030355
 20
380.82570317295
 30
0.0
 11
432.830222796637
 21
380.82570317295
 31
0.0
  0
LINE
  5
184
330
180
100
AcDbEntity
  8
BEMASSUNG
  6
Continuous
 62
     2
370
    -2
100
AcDbLine
 10
431.8302227966371
 20
428.3257031729501
 30
0.0
 11
431.8302227966371
 21
384.82570317295
 31
0.0
  0
SOLID
  5
185
330
180
100
AcDbEntity
  8
BEMASSUNG
  6
Continuous
 62
     2
100
AcDbTrace
 10
431.1635561299704
 20
428.3257031729501
 30
0.0
 11
432.4968894633038
 21
428.3257031729501
 31
0.0
 12
431.8302227966371
 22
432.3257031729501
 32
0.0
 13
431.8302227966371
 23
432.3257031729501
 33
0.0
  0
SOLID
  5
186
330
180
100
AcDbEntity
  8
BEMASSUNG
  6
Continuous
 62
     2
100
AcDbTrace
 10
431.1635561299704
 20
384.82570317295
 30
0.0
 11
432.4968894633038
 21
384.82570317295
 31
0.0
 12
431.830222796637
 22
380.82570317295
 32
0.0
 13
431.830222796637
 23
380.82570317295
 33
0.0
  0
MTEXT
  5
187
330
180
100
AcDbEntity
  8
BEMASSUNG
  6
Continuous
 62
     3
100
AcDbMText
 10
428.6092303000476
 20
406.5757031729502
 30
0.0
 40
4.349999999999999
 41
0.0
 71
     5
 72
     1
  1
\A1;51.5
  7
ARIAL-STANDARD
 11
0.0000000000000001
 21
1.0
 31
0.0
 73
     1
 44
1.0
1001
ACAD
1000
MTEXTBEGIN
1070
    73
1070
     1
1070
    44
1040
1.0
1070
    74
1070
     0
1000
MTEXTEND
  0
POINT
  5
188
330
180
100
AcDbEntity
  8
DEFPOINTS
  6
Continuous
 62
     0
100
AcDbPoint
 10
387.7596200030355
 20
432.3257031729501
 30
0.0
  0
POINT
  5
189
330
180
100
AcDbEntity
  8
DEFPOINTS
  6
Continuous
 62
     0
100
AcDbPoint
 10
400.1596200030355
 20
380.82570317295
 30
0.0
  0
POINT
  5
18A
330
180
100
AcDbEntity
  8
DEFPOINTS
  6
Continuous
 62
     0
100
AcDbPoint
 10
431.830222796637
 20
380.82570317295
 30
0.0
  0
ENDBLK
  5
18B
330
180
100
AcDbEntity
  8
0
100
AcDbBlockEnd
  0
BLOCK
  5
171
330
170
100
AcDbEntity
  8
0
100
AcDbBlockBegin
  2
*D7
 70
     1
 10
0.0
 20
0.0
 30
0.0
  3
*D7
  1

  0
LINE
  5
172
330
170
100
AcDbEntity
  8
BEMASSUNG
  6
Continuous
 62
     2
370
    -2
100
AcDbLine
 10
400.1596200030355
 20
380.82570317295
 30
0.0
 11
421.5902737737565
 21
380.82570317295
 31
0.0
  0
LINE
  5
173
330
170
100
AcDbEntity
  8
BEMASSUNG
  6
Continuous
 62
     2
370
    -2
100
AcDbLine
 10
383.5596200030357
 20
426.8257031729499
 30
0.0
 11
421.5902737737565
 21
426.8257031729499
 31
0.0
  0
LINE
  5
174
330
170
100
AcDbEntity
  8
BEMASSUNG
  6
Continuous
 62
     2
370
    -2
100
AcDbLine
 10
420.5902737737566
 20
384.82570317295
 30
0.0
 11
420.5902737737566
 21
422.8257031729499
 31
0.0
  0
SOLID
  5
175
330
170
100
AcDbEntity
  8
BEMASSUNG
  6
Continuous
 62
     2
100
AcDbTrace
 10
419.9236071070899
 20
384.82570317295
 30
0.0
 11
421.2569404404232
 21
384.82570317295
 31
0.0
 12
420.5902737737565
 22
380.82570317295
 32
0.0
 13
420.5902737737565
 23
380.82570317295
 33
0.0
  0
SOLID
  5
176
330
170
100
AcDbEntity
  8
BEMASSUNG
  6
Continuous
 62
     2
100
AcDbTrace
 10
419.9236071070899
 20
422.8257031729499
 30
0.0
 11
421.2569404404232
 21
422.8257031729499
 31
0.0
 12
420.5902737737566
 22
426.8257031729499
 32
0.0
 13
420.5902737737566
 23
426.8257031729499
 33
0.0
  0
MTEXT
  5
177
330
170
100
AcDbEntity
  8
BEMASSUNG
  6
Continuous
 62
     3
100
AcDbMText
 10
417.3692812771671
 20
403.82570317295
 30
0.0
 40
4.349999999999999
 41
0.0
 71
     5
 72
     1
  1
\A1;46
  7
ARIAL-STANDARD
 11
0.0000000000000001
 21
1.0
 31
0.0
 73
     1
 44
1.0
1001
ACAD
1000
MTEXTBEGIN
1070
    73
1070
     1
1070
    44
1040
1.0
1070
    74
1070
     0
1000
MTEXTEND
  0
POINT
  5
178
330
170
100
AcDbEntity
  8
DEFPOINTS
  6
Continuous
 62
     0
100
AcDbPoint
 10
400.1596200030355
 20
380.82570317295
 30
0.0
  0
POINT
  5
179
330
170
100
AcDbEntity
  8
DEFPOINTS
  6
Continuous
 62
     0
100
AcDbPoint
 10
383.5596200030357
 20
426.8257031729499
 30
0.0
  0
POINT
  5
17A
330
170
100
AcDbEntity
  8
DEFPOINTS
  6
Continuous
 62
     0
100
AcDbPoint
 10
420.5902737737566
 20
426.8257031729499
 30
0.0
  0
ENDBLK
  5
17B
330
170
100
AcDbEntity
  8
0
100
AcDbBlockEnd
  0
BLOCK
  5
164
330
163
100
AcDbEntity
  8
0
100
AcDbBlockBegin
  2
*D8
 70
     1
 10
0.0
 20
0.0
 30
0.0
  3
*D8
  1

  0
LINE
  5
165
330
163
100
AcDbEntity
  8
BEMASSUNG
  6
Continuous
 62
     2
370
    -2
100
AcDbLine
 10
357.5596200030357
 20
385.4257031729501
 30
0.0
 11
357.5596200030357
 21
405.7115768776018
 31
0.0
  0
LINE
  5
166
330
163
100
AcDbEntity
  8
BEMASSUNG
  6
Continuous
 62
     2
370
    -2
100
AcDbLine
 10
395.5596200030356
 20
385.4257031729501
 30
0.0
 11
395.5596200030356
 21
405.7115768776018
 31
0.0
  0
LINE
  5
167
330
163
100
AcDbEntity
  8
BEMASSUNG
  6
Continuous
 62
     2
370
    -2
100
AcDbLine
 10
361.5596200030357
 20
404.7115768776018
 30
0.0
 11
391.5596200030357
 21
404.7115768776018
 31
0.0
  0
SOLID
  5
168
330
163
100
AcDbEntity
  8
BEMASSUNG
  6
Continuous
 62
     2
100
AcDbTrace
 10
361.5596200030357
 20
405.3782435442685
 30
0.0
 11
361.5596200030357
 21
404.0449102109351
 31
0.0
 12
357.5596200030357
 22
404.7115768776018
 32
0.0
 13
357.5596200030357
 23
404.7115768776018
 33
0.0
  0
SOLID
  5
169
330
163
100
AcDbEntity
  8
BEMASSUNG
  6
Continuous
 62
     2
100
AcDbTrace
 10
391.5596200030357
 20
405.3782435442685
 30
0.0
 11
391.5596200030357
 21
404.0449102109351
 31
0.0
 12
395.5596200030356
 22
404.7115768776018
 32
0.0
 13
395.5596200030356
 23
404.7115768776018
 33
0.0
  0
MTEXT
  5
16A
330
163
100
AcDbEntity
  8
BEMASSUNG
  6
Continuous
 62
     3
100
AcDbMText
 10
376.5596200030357
 20
407.9340530031134
 30
0.0
 40
4.349999999999999
 41
0.0
 71
     5
 72
     1
  1
\A1;38
  7
ARIAL-STANDARD
 73
     1
 44
1.0
1001
ACAD
1000
MTEXTBEGIN
1070
    73
1070
     1
1070
    44
1040
1.0
1070
    74
1070
     0
1000
MTEXTEND
  0
POINT
  5
16B
330
163
100
AcDbEntity
  8
DEFPOINTS
  6
Continuous
 62
     0
100
AcDbPoint
 10
357.5596200030357
 20
385.4257031729501
 30
0.0
  0
POINT
  5
16C
330
163
100
AcDbEntity
  8
DEFPOINTS
  6
Continuous
 62
     0
100
AcDbPoint
 10
395.5596200030356
 20
385.4257031729501
 30
0.0
  0
POINT
  5
16D
330
163
100
AcDbEntity
  8
DEFPOINTS
  6
Continuous
 62
     0
100
AcDbPoint
 10
395.5596200030356
 20
404.7115768776018
 30
0.0
  0
ENDBLK
  5
16E
330
163
100
AcDbEntity
  8
0
100
AcDbBlockEnd
  0
BLOCK
  5
153
330
152
100
AcDbEntity
  8
0
100
AcDbBlockBegin
  2
*D9
 70
     1
 10
0.0
 20
0.0
 30
0.0
  3
*D9
  1

  0
LINE
  5
154
330
152
100
AcDbEntity
  8
BEMASSUNG
  6
Continuous
 62
     2
370
    -2
100
AcDbLine
 10
380.5596200030355
 20
384.8257031729505
 30
0.0
 11
380.5596200030355
 21
396.4117212561177
 31
0.0
  0
LINE
  5
155
330
152
100
AcDbEntity
  8
BEMASSUNG
  6
Continuous
 62
     2
370
    -2
100
AcDbLine
 10
372.5596200030357
 20
384.8257031729503
 30
0.0
 11
372.5596200030357
 21
396.4117212561177
 31
0.0
  0
LINE
  5
156
330
152
100
AcDbEntity
  8
BEMASSUNG
  6
Continuous
 62
     2
370
    -2
100
AcDbLine
 10
384.5596200030355
 20
395.4117212561178
 30
0.0
 11
388.5596200030355
 21
395.4117212561178
 31
0.0
  0
LINE
  5
157
330
152
100
AcDbEntity
  8
BEMASSUNG
  6
Continuous
 62
     2
370
    -2
100
AcDbLine
 10
368.5596200030357
 20
395.4117212561178
 30
0.0
 11
364.5596200030357
 21
395.4117212561178
 31
0.0
  0
MTEXT
  5
158
330
152
100
AcDbEntity
  8
BEMASSUNG
  6
Continuous
 62
     3
100
AcDbMText
 10
365.0603751315821
 20
399.1212032782346
 30
0.0
 40
4.349999999999999
 41
0.0
 71
     5
 72
     1
  1
\A1;9
  7
ARIAL-STANDARD
 73
     1
 44
1.0
1001
ACAD
1000
MTEXTBEGIN
1070
    73
1070
     1
1070
    44
1040
1.0
1070
    74
1070
     0
1000
MTEXTEND
  0
LINE
  5
159
330
152
100
AcDbEntity
  8
BEMASSUNG
  6
Continuous
 62
     2
370
    -2
100
AcDbLine
 10
380.5596200030355
 20
395.4117212561178
 30
0.0
 11
372.5596200030357
 21
395.4117212561178
 31
0.0
  0
SOLID
  5
15A
330
152
100
AcDbEntity
  8
BEMASSUNG
  6
Continuous
 62
     2
100
AcDbTrace
 10
384.5596200030355
 20
396.0783879227845
 30
0.0
 11
384.5596200030355
 21
394.7450545894511
 31
0.0
 12
380.5596200030355
 22
395.4117212561178
 32
0.0
 13
380.5596200030355
 23
395.4117212561178
 33
0.0
  0
SOLID
  5
15B
330
152
100
AcDbEntity
  8
BEMASSUNG
  6
Continuous
 62
     2
100
AcDbTrace
 10
368.5596200030357
 20
396.0783879227845
 30
0.0
 11
368.5596200030357
 21
394.7450545894511
 31
0.0
 12
372.5596200030357
 22
395.4117212561178
 32
0.0
 13
372.5596200030357
 23
395.4117212561178
 33
0.0
  0
POINT
  5
15C
330
152
100
AcDbEntity
  8
DEFPOINTS
  6
Continuous
 62
     0
100
AcDbPoint
 10
380.5596200030355
 20
384.8257031729505
 30
0.0
  0
POINT
  5
15D
330
152
100
AcDbEntity
  8
DEFPOINTS
  6
Continuous
 62
     0
100
AcDbPoint
 10
372.5596200030357
 20
384.8257031729503
 30
0.0
  0
POINT
  5
15E
330
152
100
AcDbEntity
  8
DEFPOINTS
  6
Continuous
 62
     0
100
AcDbPoint
 10
372.5596200030357
 20
395.4117212561178
 30
0.0
  0
ENDBLK
  5
15F
330
152
100
AcDbEntity
  8
0
100
AcDbBlockEnd
  0
BLOCK
  5
131
330
130
100
AcDbEntity
  8
0
100
AcDbBlockBegin
  2
*D10
 70
     1
 10
0.0
 20
0.0
 30
0.0
  3
*D10
  1

  0
LINE
  5
132
330
130
100
AcDbEntity
  8
BEMASSUNG
  6
Continuous
 62
     2
370
    -2
100
AcDbLine
 10
486.3414503813357
 20
387.7257031729498
 30
0.0
 11
486.3414503813357
 21
372.0601100727449
 31
0.0
  0
LINE
  5
133
330
130
100
AcDbEntity
  8
BEMASSUNG
  6
Continuous
 62
     2
370
    -2
100
AcDbLine
 10
497.3414503813359
 20
390.2257031729497
 30
0.0
 11
497.3414503813359
 21
372.0601100727449
 31
0.0
  0
LINE
  5
134
330
130
100
AcDbEntity
  8
BEMASSUNG
  6
Continuous
 62
     2
370
    -2
100
AcDbLine
 10
490.3414503813357
 20
373.0601100727449
 30
0.0
 11
493.3414503813359
 21
373.0601100727449
 31
0.0
  0
MTEXT
  5
135
330
130
100
AcDbEntity
  8
BEMASSUNG
  6
Continuous
 62
     3
100
AcDbMText
 10
491.8414503813359
 20
377.8020564890196
 30
0.0
 40
4.349999999999999
 41
0.0
 71
     5
 72
     1
  1
\A1;11
  7
ARIAL-STANDARD
 73
     1
 44
1.0
1001
ACAD
1000
MTEXTBEGIN
1070
    73
1070
     1
1070
    44
1040
1.0
1070
    74
1070
     0
1000
MTEXTEND
  0
SOLID
  5
136
330
130
100
AcDbEntity
  8
BEMASSUNG
  6
Continuous
 62
     2
100
AcDbTrace
 10
490.3414503813357
 20
373.7267767394116
 30
0.0
 11
490.3414503813357
 21
372.3934434060782
 31
0.0
 12
486.3414503813357
 22
373.0601100727449
 32
0.0
 13
486.3414503813357
 23
373.0601100727449
 33
0.0
  0
SOLID
  5
137
330
130
100
AcDbEntity
  8
BEMASSUNG
  6
Continuous
 62
     2
100
AcDbTrace
 10
493.3414503813359
 20
373.7267767394116
 30
0.0
 11
493.3414503813359
 21
372.3934434060782
 31
0.0
 12
497.3414503813359
 22
373.0601100727449
 32
0.0
 13
497.3414503813359
 23
373.0601100727449
 33
0.0
  0
POINT
  5
138
330
130
100
AcDbEntity
  8
DEFPOINTS
  6
Continuous
 62
     0
100
AcDbPoint
 10
486.3414503813357
 20
387.7257031729498
 30
0.0
  0
POINT
  5
139
330
130
100
AcDbEntity
  8
DEFPOINTS
  6
Continuous
 62
     0
100
AcDbPoint
 10
497.3414503813359
 20
390.2257031729497
 30
0.0
  0
POINT
  5
13A
330
130
100
AcDbEntity
  8
DEFPOINTS
  6
Continuous
 62
     0
100
AcDbPoint
 10
497.3414503813359
 20
373.0601100727449
 30
0.0
  0
ENDBLK
  5
13B
330
130
100
AcDbEntity
  8
0
100
AcDbBlockEnd
  0
BLOCK
  5
119
330
118
100
AcDbEntity
  8
0
100
AcDbBlockBegin
  2
*D11
 70
     1
 10
0.0
 20
0.0
 30
0.0
  3
*D11
  1

  0
LINE
  5
11A
330
118
100
AcDbEntity
  8
BEMASSUNG
  6
Continuous
 62
     2
370
    -2
100
AcDbLine
 10
316.5596200030357
 20
467.825703172949
 30
0.0
 11
316.5596200030357
 21
485.3981634006766
 31
0.0
  0
LINE
  5
11B
330
118
100
AcDbEntity
  8
BEMASSUNG
  6
Continuous
 62
     2
370
    -2
100
AcDbLine
 10
319.5596200030357
 20
467.825703172949
 30
0.0
 11
319.5596200030357
 21
485.3981634006766
 31
0.0
  0
LINE
  5
11C
330
118
100
AcDbEntity
  8
BEMASSUNG
  6
Continuous
 62
     2
370
    -2
100
AcDbLine
 10
312.5596200030356
 20
484.3981634006765
 30
0.0
 11
308.5596200030356
 21
484.3981634006765
 31
0.0
  0
LINE
  5
11D
330
118
100
AcDbEntity
  8
BEMASSUNG
  6
Continuous
 62
     2
370
    -2
100
AcDbLine
 10
323.5596200030357
 20
484.3981634006765
 30
0.0
 11
327.5596200030357
 21
484.3981634006765
 31
0.0
  0
LINE
  5
11E
330
118
100
AcDbEntity
  8
BEMASSUNG
  6
Continuous
 62
     2
370
    -2
100
AcDbLine
 10
316.5596200030357
 20
484.3981634006765
 30
0.0
 11
319.5596200030357
 21
484.3981634006765
 31
0.0
  0
SOLID
  5
11F
330
118
100
AcDbEntity
  8
BEMASSUNG
  6
Continuous
 62
     2
100
AcDbTrace
 10
312.5596200030356
 20
485.0648300673433
 30
0.0
 11
312.5596200030356
 21
483.7314967340098
 31
0.0
 12
316.5596200030357
 22
484.3981634006765
 32
0.0
 13
316.5596200030357
 23
484.3981634006765
 33
0.0
  0
SOLID
  5
120
330
118
100
AcDbEntity
  8
BEMASSUNG
  6
Continuous
 62
     2
100
AcDbTrace
 10
323.5596200030357
 20
485.0648300673433
 30
0.0
 11
323.5596200030357
 21
483.7314967340098
 31
0.0
 12
319.5596200030357
 22
484.3981634006765
 32
0.0
 13
319.5596200030357
 23
484.3981634006765
 33
0.0
  0
MTEXT
  5
121
330
118
100
AcDbEntity
  8
BEMASSUNG
  6
Continuous
 62
     3
100
AcDbMText
 10
318.0596200030357
 20
487.6206395261881
 30
0.0
 40
4.349999999999999
 41
0.0
 71
     5
 72
     1
  1
\A1;3
  7
ARIAL-STANDARD
 73
     1
 44
1.0
1001
ACAD
1000
MTEXTBEGIN
1070
    73
1070
     1
1070
    44
1040
1.0
1070
    74
1070
     0
1000
MTEXTEND
  0
POINT
  5
122
330
118
100
AcDbEntity
  8
DEFPOINTS
  6
Continuous
 62
     0
100
AcDbPoint
 10
316.5596200030357
 20
467.825703172949
 30
0.0
  0
POINT
  5
123
330
118
100
AcDbEntity
  8
DEFPOINTS
  6
Continuous
 62
     0
100
AcDbPoint
 10
319.5596200030357
 20
467.825703172949
 30
0.0
  0
POINT
  5
124
330
118
100
AcDbEntity
  8
DEFPOINTS
  6
Continuous
 62
     0
100
AcDbPoint
 10
319.5596200030357
 20
484.3981634006765
 30
0.0
  0
ENDBLK
  5
125
330
118
100
AcDbEntity
  8
0
100
AcDbBlockEnd
  0
BLOCK
  5
109
330
108
100
AcDbEntity
  8
0
100
AcDbBlockBegin
  2
*D12
 70
     1
 10
0.0
 20
0.0
 30
0.0
  3
*D12
  1

  0
LINE
  5
10A
330
108
100
AcDbEntity
  8
BEMASSUNG
  6
Continuous
 62
     2
370
    -2
100
AcDbLine
 10
306.5610499237166
 20
339.3256939154089
 30
0.0
 11
306.5610499237166
 21
352.5973550159063
 31
0.0
  0
LINE
  5
10B
330
108
100
AcDbEntity
  8
BEMASSUNG
  6
Continuous
 62
     2
370
    -2
100
AcDbLine
 10
316.559620003036
 20
352.2680153418435
 30
0.0
 11
316.559620003036
 21
350.5973550159063
 31
0.0
  0
LINE
  5
10C
330
108
100
AcDbEntity
  8
BEMASSUNG
  6
Continuous
 62
     2
370
    -2
100
AcDbLine
 10
302.5610499237166
 20
351.5973550159062
 30
0.0
 11
298.5610499237166
 21
351.5973550159062
 31
0.0
  0
LINE
  5
10D
330
108
100
AcDbEntity
  8
BEMASSUNG
  6
Continuous
 62
     2
370
    -2
100
AcDbLine
 10
320.559620003036
 20
351.5973550159062
 30
0.0
 11
324.559620003036
 21
351.5973550159062
 31
0.0
  0
LINE
  5
10E
330
108
100
AcDbEntity
  8
BEMASSUNG
  6
Continuous
 62
     2
370
    -2
100
AcDbLine
 10
306.5610499237166
 20
351.5973550159062
 30
0.0
 11
316.559620003036
 21
351.5973550159062
 31
0.0
  0
SOLID
  5
10F
330
108
100
AcDbEntity
  8
BEMASSUNG
  6
Continuous
 62
     2
100
AcDbTrace
 10
302.5610499237166
 20
352.2640216825729
 30
0.0
 11
302.5610499237166
 21
350.9306883492396
 31
0.0
 12
306.5610499237166
 22
351.5973550159062
 32
0.0
 13
306.5610499237166
 23
351.5973550159062
 33
0.0
  0
SOLID
  5
110
330
108
100
AcDbEntity
  8
BEMASSUNG
  6
Continuous
 62
     2
100
AcDbTrace
 10
320.559620003036
 20
352.2640216825729
 30
0.0
 11
320.559620003036
 21
350.9306883492396
 31
0.0
 12
316.559620003036
 22
351.5973550159062
 32
0.0
 13
316.559620003036
 23
351.5973550159062
 33
0.0
  0
MTEXT
  5
111
330
108
100
AcDbEntity
  8
BEMASSUNG
  6
Continuous
 62
     3
100
AcDbMText
 10
311.5603349633763
 20
354.8183475124956
 30
0.0
 40
4.349999999999999
 41
0.0
 71
     5
 72
     1
  1
\A1;10
  7
ARIAL-STANDARD
 73
     1
 44
1.0
1001
ACAD
1000
MTEXTBEGIN
1070
    73
1070
     1
1070
    44
1040
1.0
1070
    74
1070
     0
1000
MTEXTEND
  0
POINT
  5
112
330
108
100
AcDbEntity
  8
DEFPOINTS
  6
Continuous
 62
     0
100
AcDbPoint
 10
306.5610499237166
 20
339.3256939154089
 30
0.0
  0
POINT
  5
113
330
108
100
AcDbEntity
  8
DEFPOINTS
  6
Continuous
 62
     0
100
AcDbPoint
 10
316.559620003036
 20
352.2680153418435
 30
0.0
  0
POINT
  5
114
330
108
100
AcDbEntity
  8
DEFPOINTS
  6
Continuous
 62
     0
100
AcDbPoint
 10
316.559620003036
 20
351.5973550159062
 30
0.0
  0
ENDBLK
  5
115
330
108
100
AcDbEntity
  8
0
100
AcDbBlockEnd
  0
BLOCK
  5
7F
330
7E
100
AcDbEntity
  8
0
100
AcDbBlockBegin
  2
*D13
 70
     1
 10
0.0
 20
0.0
 30
0.0
  3
*D13
  1

  0
LINE
  5
80
330
7E
100
AcDbEntity
  8
BEMASSUNG
  6
Continuous
 62
     2
370
    -2
100
AcDbLine
 10
316.5596200030352
 20
237.8257031729494
 30
0.0
 11
316.5596200030352
 21
257.3523684154468
 31
0.0
  0
LINE
  5
81
330
7E
100
AcDbEntity
  8
BEMASSUNG
  6
Continuous
 62
     2
370
    -2
100
AcDbLine
 10
376.5596200030357
 20
276.5257031729495
 30
0.0
 11
376.5596200030357
 21
255.3523684154468
 31
0.0
  0
LINE
  5
82
330
7E
100
AcDbEntity
  8
BEMASSUNG
  6
Continuous
 62
     2
370
    -2
100
AcDbLine
 10
320.5596200030352
 20
256.3523684154468
 30
0.0
 11
372.5596200030357
 21
256.3523684154468
 31
0.0
  0
SOLID
  5
83
330
7E
100
AcDbEntity
  8
BEMASSUNG
  6
Continuous
 62
     2
100
AcDbTrace
 10
320.5596200030352
 20
257.0190350821135
 30
0.0
 11
320.5596200030352
 21
255.6857017487801
 31
0.0
 12
316.5596200030352
 22
256.3523684154468
 32
0.0
 13
316.5596200030352
 23
256.3523684154468
 33
0.0
  0
SOLID
  5
84
330
7E
100
AcDbEntity
  8
BEMASSUNG
  6
Continuous
 62
     2
100
AcDbTrace
 10
372.5596200030357
 20
257.0190350821135
 30
0.0
 11
372.5596200030357
 21
255.6857017487801
 31
0.0
 12
376.5596200030357
 22
256.3523684154468
 32
0.0
 13
376.5596200030357
 23
256.3523684154468
 33
0.0
  0
MTEXT
  5
85
330
7E
100
AcDbEntity
  8
BEMASSUNG
  6
Continuous
 62
     3
100
AcDbMText
 10
346.5596200030355
 20
259.5273684154468
 30
0.0
 40
4.349999999999999
 41
0.0
 71
     5
 72
     1
  1
\A1;DM
  7
ARIAL-STANDARD
 73
     1
 44
1.0
1001
ACAD
1000
MTEXTBEGIN
1070
    73
1070
     1
1070
    44
1040
1.0
1070
    74
1070
     0
1000
MTEXTEND
  0
POINT
  5
86
330
7E
100
AcDbEntity
  8
DEFPOINTS
  6
Continuous
 62
     0
100
AcDbPoint
 10
316.5596200030352
 20
237.8257031729494
 30
0.0
  0
POINT
  5
87
330
7E
100
AcDbEntity
  8
DEFPOINTS
  6
Continuous
 62
     0
100
AcDbPoint
 10
376.5596200030357
 20
276.5257031729495
 30
0.0
  0
POINT
  5
88
330
7E
100
AcDbEntity
  8
DEFPOINTS
  6
Continuous
 62
     0
100
AcDbPoint
 10
376.5596200030357
 20
256.3523684154468
 30
0.0
  0
ENDBLK
  5
89
330
7E
100
AcDbEntity
  8
0
100
AcDbBlockEnd
  0
BLOCK
  5
71
330
70
100
AcDbEntity
  8
0
100
AcDbBlockBegin
  2
*D14
 70
     1
 10
0.0
 20
0.0
 30
0.0
  3
*D14
  1

  0
LINE
  5
72
330
70
100
AcDbEntity
  8
BEMASSUNG
  6
Continuous
 62
     2
370
    -2
100
AcDbLine
 10
376.5596200030357
 20
276.5257031729495
 30
0.0
 11
376.5596200030357
 21
255.3523684154468
 31
0.0
  0
LINE
  5
73
330
70
100
AcDbEntity
  8
BEMASSUNG
  6
Continuous
 62
     2
370
    -2
100
AcDbLine
 10
405.5596200030351
 20
292.4470235165097
 30
0.0
 11
405.5596200030351
 21
255.3523684154468
 31
0.0
  0
LINE
  5
74
330
70
100
AcDbEntity
  8
BEMASSUNG
  6
Continuous
 62
     2
370
    -2
100
AcDbLine
 10
380.5596200030357
 20
256.3523684154468
 30
0.0
 11
401.5596200030351
 21
256.3523684154468
 31
0.0
  0
SOLID
  5
75
330
70
100
AcDbEntity
  8
BEMASSUNG
  6
Continuous
 62
     2
100
AcDbTrace
 10
380.5596200030357
 20
257.0190350821135
 30
0.0
 11
380.5596200030357
 21
255.6857017487801
 31
0.0
 12
376.5596200030357
 22
256.3523684154468
 32
0.0
 13
376.5596200030357
 23
256.3523684154468
 33
0.0
  0
SOLID
  5
76
330
70
100
AcDbEntity
  8
BEMASSUNG
  6
Continuous
 62
     2
100
AcDbTrace
 10
401.5596200030351
 20
257.0190350821135
 30
0.0
 11
401.5596200030351
 21
255.6857017487801
 31
0.0
 12
405.5596200030351
 22
256.3523684154468
 32
0.0
 13
405.5596200030351
 23
256.3523684154468
 33
0.0
  0
MTEXT
  5
77
330
70
100
AcDbEntity
  8
BEMASSUNG
  6
Continuous
 62
     3
100
AcDbMText
 10
391.0596200030354
 20
259.5733609120362
 30
0.0
 40
4.349999999999999
 41
0.0
 71
     5
 72
     1
  1
\A1;29
  7
ARIAL-STANDARD
 73
     1
 44
1.0
1001
ACAD
1000
MTEXTBEGIN
1070
    73
1070
     1
1070
    44
1040
1.0
1070
    74
1070
     0
1000
MTEXTEND
  0
POINT
  5
78
330
70
100
AcDbEntity
  8
DEFPOINTS
  6
Continuous
 62
     0
100
AcDbPoint
 10
376.5596200030357
 20
276.5257031729495
 30
0.0
  0
POINT
  5
7A
330
70
100
AcDbEntity
  8
DEFPOINTS
  6
Continuous
 62
     0
100
AcDbPoint
 10
405.5596200030351
 20
292.4470235165097
 30
0.0
  0
POINT
  5
7B
330
70
100
AcDbEntity
  8
DEFPOINTS
  6
Continuous
 62
     0
100
AcDbPoint
 10
405.5596200030351
 20
256.3523684154468
 30
0.0
  0
ENDBLK
  5
7C
330
70
100
AcDbEntity
  8
0
100
AcDbBlockEnd
  0
BLOCK
  5
2B0
330
2AF
100
AcDbEntity
  8
0
100
AcDbBlockBegin
  2
*D15
 70
     1
 10
0.0
 20
0.0
 30
0.0
  3
*D15
  1

  0
LINE
  5
2B1
330
2AF
100
AcDbEntity
  8
BEMASSUNG
  6
Continuous
 62
     2
370
    -2
100
AcDbLine
 10
387.7596200030355
 20
432.3257031729501
 30
0.0
 11
443.6755906940616
 21
432.3257031729501
 31
0.0
  0
LINE
  5
2B2
330
2AF
100
AcDbEntity
  8
BEMASSUNG
  6
Continuous
 62
     2
370
    -2
100
AcDbLine
 10
387.7596200030355
 20
273.3257031729502
 30
0.0
 11
443.6755906940616
 21
273.3257031729502
 31
0.0
  0
LINE
  5
2B3
330
2AF
100
AcDbEntity
  8
BEMASSUNG
  6
Continuous
 62
     2
370
    -2
100
AcDbLine
 10
442.6755906940616
 20
428.3257031729501
 30
0.0
 11
442.6755906940615
 21
277.3257031729502
 31
0.0
  0
MTEXT
  5
2B4
330
2AF
100
AcDbEntity
  8
BEMASSUNG
  6
Continuous
 62
     3
100
AcDbMText
 10
438.6802920262157
 20
351.9621067843052
 30
0.0
 40
4.349999999999999
 41
0.0
 71
     5
 72
     1
  1
\A1;159
  7
ARIAL-STANDARD
 11
0.0000000000000001
 21
1.0
 31
0.0
 73
     1
 44
1.0
1001
ACAD
1000
MTEXTBEGIN
1070
    73
1070
     1
1070
    44
1040
1.0
1070
    74
1070
     0
1000
MTEXTEND
  0
SOLID
  5
2B5
330
2AF
100
AcDbEntity
  8
BEMASSUNG
  6
Continuous
 62
     2
100
AcDbTrace
 10
442.008924027395
 20
428.3257031729501
 30
0.0
 11
443.3422573607283
 21
428.3257031729501
 31
0.0
 12
442.6755906940616
 22
432.3257031729501
 32
0.0
 13
442.6755906940616
 23
432.3257031729501
 33
0.0
  0
SOLID
  5
2B6
330
2AF
100
AcDbEntity
  8
BEMASSUNG
  6
Continuous
 62
     2
100
AcDbTrace
 10
442.0089240273949
 20
277.3257031729502
 30
0.0
 11
443.3422573607282
 21
277.3257031729502
 31
0.0
 12
442.6755906940615
 22
273.3257031729502
 32
0.0
 13
442.6755906940615
 23
273.3257031729502
 33
0.0
  0
POINT
  5
2B7
330
2AF
100
AcDbEntity
  8
DEFPOINTS
  6
Continuous
 62
     0
100
AcDbPoint
 10
387.7596200030355
 20
432.3257031729501
 30
0.0
  0
POINT
  5
2B8
330
2AF
100
AcDbEntity
  8
DEFPOINTS
  6
Continuous
 62
     0
100
AcDbPoint
 10
387.7596200030355
 20
273.3257031729502
 30
0.0
  0
POINT
  5
2B9
330
2AF
100
AcDbEntity
  8
DEFPOINTS
  6
Continuous
 62
     0
100
AcDbPoint
 10
442.6755906940615
 20
273.3257031729502
 30
0.0
  0
ENDBLK
  5
2BA
330
2AF
100
AcDbEntity
  8
0
100
AcDbBlockEnd
  0
BLOCK
  5
2A3
330
2A2
100
AcDbEntity
  8
0
100
AcDbBlockBegin
  2
*D16
 70
     1
 10
0.0
 20
0.0
 30
0.0
  3
*D16
  1

  0
LINE
  5
2A4
330
2A2
100
AcDbEntity
  8
BEMASSUNG
  6
Continuous
 62
     2
370
    -2
100
AcDbLine
 10
316.5596200030357
 20
467.825703172949
 30
0.0
 11
271.9138838636114
 21
467.825703172949
 31
0.0
  0
LINE
  5
2A5
330
2A2
100
AcDbEntity
  8
BEMASSUNG
  6
Continuous
 62
     2
370
    -2
100
AcDbLine
 10
316.5596200030352
 20
237.8257031729494
 30
0.0
 11
271.9138838636114
 21
237.8257031729494
 31
0.0
  0
LINE
  5
2A6
330
2A2
100
AcDbEntity
  8
BEMASSUNG
  6
Continuous
 62
     2
370
    -2
100
AcDbLine
 10
272.9138838636114
 20
463.825703172949
 30
0.0
 11
272.9138838636114
 21
241.8257031729494
 31
0.0
  0
MTEXT
  5
2A7
330
2A2
100
AcDbEntity
  8
BEMASSUNG
  6
Continuous
 62
     3
100
AcDbMText
 10
268.9663175135911
 20
355.9893432640706
 30
0.0
 40
4.349999999999999
 41
0.0
 71
     5
 72
     1
  1
\A1;230
  7
ARIAL-STANDARD
 11
0.0000000000000001
 21
1.0
 31
0.0
 73
     1
 44
1.0
1001
ACAD
1000
MTEXTBEGIN
1070
    73
1070
     1
1070
    44
1040
1.0
1070
    74
1070
     0
1000
MTEXTEND
  0
SOLID
  5
2A8
330
2A2
100
AcDbEntity
  8
BEMASSUNG
  6
Continuous
 62
     2
100
AcDbTrace
 10
272.2472171969447
 20
463.825703172949
 30
0.0
 11
273.5805505302781
 21
463.825703172949
 31
0.0
 12
272.9138838636114
 22
467.825703172949
 32
0.0
 13
272.9138838636114
 23
467.825703172949
 33
0.0
  0
SOLID
  5
2A9
330
2A2
100
AcDbEntity
  8
BEMASSUNG
  6
Continuous
 62
     2
100
AcDbTrace
 10
272.2472171969447
 20
241.8257031729494
 30
0.0
 11
273.580550530278
 21
241.8257031729494
 31
0.0
 12
272.9138838636114
 22
237.8257031729494
 32
0.0
 13
272.9138838636114
 23
237.8257031729494
 33
0.0
  0
POINT
  5
2AA
330
2A2
100
AcDbEntity
  8
DEFPOINTS
  6
Continuous
 62
     0
100
AcDbPoint
 10
316.5596200030357
 20
467.825703172949
 30
0.0
  0
POINT
  5
2AB
330
2A2
100
AcDbEntity
  8
DEFPOINTS
  6
Continuous
 62
     0
100
AcDbPoint
 10
316.5596200030352
 20
237.8257031729494
 30
0.0
  0
POINT
  5
2AC
330
2A2
100
AcDbEntity
  8
DEFPOINTS
  6
Continuous
 62
     0
100
AcDbPoint
 10
272.9138838636114
 20
237.8257031729494
 30
0.0
  0
ENDBLK
  5
2AD
330
2A2
100
AcDbEntity
  8
0
100
AcDbBlockEnd
  0
BLOCK
  5
296
330
295
100
AcDbEntity
  8
0
100
AcDbBlockBegin
  2
*D17
 70
     1
 10
0.0
 20
0.0
 30
0.0
  3
*D17
  1

  0
LINE
  5
297
330
295
100
AcDbEntity
  8
BEMASSUNG
  6
Continuous
 62
     2
370
    -2
100
AcDbLine
 10
296.5696200030361
 20
339.825693817841
 30
0.0
 11
288.808253338656
 21
339.825693817841
 31
0.0
  0
LINE
  5
298
330
295
100
AcDbEntity
  8
BEMASSUNG
  6
Continuous
 62
     2
370
    -2
100
AcDbLine
 10
306.5696374348081
 20
387.8256938178413
 30
0.0
 11
288.8082533386561
 21
387.8256938178413
 31
0.0
  0
LINE
  5
299
330
295
100
AcDbEntity
  8
BEMASSUNG
  6
Continuous
 62
     2
370
    -2
100
AcDbLine
 10
289.808253338656
 20
343.825693817841
 30
0.0
 11
289.808253338656
 21
383.8256938178413
 31
0.0
  0
SOLID
  5
29A
330
295
100
AcDbEntity
  8
BEMASSUNG
  6
Continuous
 62
     2
100
AcDbTrace
 10
289.1415866719894
 20
343.825693817841
 30
0.0
 11
290.4749200053227
 21
343.825693817841
 31
0.0
 12
289.808253338656
 22
339.825693817841
 32
0.0
 13
289.808253338656
 23
339.825693817841
 33
0.0
  0
SOLID
  5
29B
330
295
100
AcDbEntity
  8
BEMASSUNG
  6
Continuous
 62
     2
100
AcDbTrace
 10
289.1415866719894
 20
383.8256938178413
 30
0.0
 11
290.4749200053227
 21
383.8256938178413
 31
0.0
 12
289.8082533386561
 22
387.8256938178413
 32
0.0
 13
289.8082533386561
 23
387.8256938178413
 33
0.0
  0
MTEXT
  5
29C
330
295
100
AcDbEntity
  8
BEMASSUNG
  6
Continuous
 62
     3
100
AcDbMText
 10
286.5872608420666
 20
363.8256938178412
 30
0.0
 40
4.349999999999999
 41
0.0
 71
     5
 72
     1
  1
\A1;48
  7
ARIAL-STANDARD
 11
0.0000000000000001
 21
1.0
 31
0.0
 73
     1
 44
1.0
1001
ACAD
1000
MTEXTBEGIN
1070
    73
1070
     1
1070
    44
1040
1.0
1070
    74
1070
     0
1000
MTEXTEND
  0
POINT
  5
29D
330
295
100
AcDbEntity
  8
DEFPOINTS
  6
Continuous
 62
     0
100
AcDbPoint
 10
296.5696200030361
 20
339.825693817841
 30
0.0
  0
POINT
  5
29E
330
295
100
AcDbEntity
  8
DEFPOINTS
  6
Continuous
 62
     0
100
AcDbPoint
 10
306.5696374348081
 20
387.8256938178413
 30
0.0
  0
POINT
  5
29F
330
295
100
AcDbEntity
  8
DEFPOINTS
  6
Continuous
 62
     0
100
AcDbPoint
 10
289.8082533386561
 20
387.8256938178413
 30
0.0
  0
ENDBLK
  5
2A0
330
295
100
AcDbEntity
  8
0
100
AcDbBlockEnd
  0
BLOCK
  5
289
330
288
100
AcDbEntity
  8
0
100
AcDbBlockBegin
  2
*D18
 70
     1
 10
0.0
 20
0.0
 30
0.0
  3
*D18
  1

  0
LINE
  5
28A
330
288
100
AcDbEntity
  8
BEMASSUNG
  6
Continuous
 62
     2
370
    -2
100
AcDbLine
 10
400.1596200030355
 20
380.82570317295
 30
0.0
 11
421.5902737737565
 21
380.82570317295
 31
0.0
  0
LINE
  5
28B
330
288
100
AcDbEntity
  8
BEMASSUNG
  6
Continuous
 62
     2
370
    -2
100
AcDbLine
 10
383.5596200030357
 20
359.3257031729536
 30
0.0
 11
421.5902737737565
 21
359.3257031729535
 31
0.0
  0
LINE
  5
28C
330
288
100
AcDbEntity
  8
BEMASSUNG
  6
Continuous
 62
     2
370
    -2
100
AcDbLine
 10
420.5902737737566
 20
376.82570317295
 30
0.0
 11
420.5902737737566
 21
363.3257031729535
 31
0.0
  0
SOLID
  5
28D
330
288
100
AcDbEntity
  8
BEMASSUNG
  6
Continuous
 62
     2
100
AcDbTrace
 10
419.9236071070899
 20
376.82570317295
 30
0.0
 11
421.2569404404232
 21
376.82570317295
 31
0.0
 12
420.5902737737566
 22
380.82570317295
 32
0.0
 13
420.5902737737566
 23
380.82570317295
 33
0.0
  0
SOLID
  5
28E
330
288
100
AcDbEntity
  8
BEMASSUNG
  6
Continuous
 62
     2
100
AcDbTrace
 10
419.9236071070899
 20
363.3257031729535
 30
0.0
 11
421.2569404404232
 21
363.3257031729535
 31
0.0
 12
420.5902737737566
 22
359.3257031729535
 32
0.0
 13
420.5902737737566
 23
359.3257031729535
 33
0.0
  0
MTEXT
  5
28F
330
288
100
AcDbEntity
  8
BEMASSUNG
  6
Continuous
 62
     3
100
AcDbMText
 10
417.3692812771672
 20
370.0757031729519
 30
0.0
 40
4.349999999999999
 41
0.0
 71
     5
 72
     1
  1
\A1;21.5
  7
ARIAL-STANDARD
 11
0.0000000000000001
 21
1.0
 31
0.0
 73
     1
 44
1.0
1001
ACAD
1000
MTEXTBEGIN
1070
    73
1070
     1
1070
    44
1040
1.0
1070
    74
1070
     0
1000
MTEXTEND
  0
POINT
  5
290
330
288
100
AcDbEntity
  8
DEFPOINTS
  6
Continuous
 62
     0
100
AcDbPoint
 10
400.1596200030355
 20
380.82570317295
 30
0.0
  0
POINT
  5
291
330
288
100
AcDbEntity
  8
DEFPOINTS
  6
Continuous
 62
     0
100
AcDbPoint
 10
383.5596200030357
 20
359.3257031729536
 30
0.0
  0
POINT
  5
292
330
288
100
AcDbEntity
  8
DEFPOINTS
  6
Continuous
 62
     0
100
AcDbPoint
 10
420.5902737737566
 20
359.3257031729535
 30
0.0
  0
ENDBLK
  5
293
330
288
100
AcDbEntity
  8
0
100
AcDbBlockEnd
  0
BLOCK
  5
27C
330
27B
100
AcDbEntity
  8
0
100
AcDbBlockBegin
  2
*D19
 70
     1
 10
0.0
 20
0.0
 30
0.0
  3
*D19
  1

  0
LINE
  5
27D
330
27B
100
AcDbEntity
  8
BEMASSUNG
  6
Continuous
 62
     2
370
    -2
100
AcDbLine
 10
400.1596200030355
 20
380.82570317295
 30
0.0
 11
432.830222796637
 21
380.82570317295
 31
0.0
  0
LINE
  5
27E
330
27B
100
AcDbEntity
  8
BEMASSUNG
  6
Continuous
 62
     2
370
    -2
100
AcDbLine
 10
389.6596200030356
 20
302.8257031729497
 30
0.0
 11
432.830222796637
 21
302.8257031729497
 31
0.0
  0
LINE
  5
27F
330
27B
100
AcDbEntity
  8
BEMASSUNG
  6
Continuous
 62
     2
370
    -2
100
AcDbLine
 10
431.830222796637
 20
376.82570317295
 30
0.0
 11
431.830222796637
 21
306.8257031729497
 31
0.0
  0
SOLID
  5
280
330
27B
100
AcDbEntity
  8
BEMASSUNG
  6
Continuous
 62
     2
100
AcDbTrace
 10
431.1635561299703
 20
376.82570317295
 30
0.0
 11
432.4968894633037
 21
376.82570317295
 31
0.0
 12
431.830222796637
 22
380.82570317295
 32
0.0
 13
431.830222796637
 23
380.82570317295
 33
0.0
  0
SOLID
  5
281
330
27B
100
AcDbEntity
  8
BEMASSUNG
  6
Continuous
 62
     2
100
AcDbTrace
 10
431.1635561299703
 20
306.8257031729497
 30
0.0
 11
432.4968894633037
 21
306.8257031729497
 31
0.0
 12
431.830222796637
 22
302.8257031729497
 32
0.0
 13
431.830222796637
 23
302.8257031729497
 33
0.0
  0
MTEXT
  5
282
330
27B
100
AcDbEntity
  8
BEMASSUNG
  6
Continuous
 62
     3
100
AcDbMText
 10
428.6092303000476
 20
341.82570317295
 30
0.0
 40
4.349999999999999
 41
0.0
 71
     5
 72
     1
  1
\A1;78
  7
ARIAL-STANDARD
 11
0.0000000000000001
 21
1.0
 31
0.0
 73
     1
 44
1.0
1001
ACAD
1000
MTEXTBEGIN
1070
    73
1070
     1
1070
    44
1040
1.0
1070
    74
1070
     0
1000
MTEXTEND
  0
POINT
  5
283
330
27B
100
AcDbEntity
  8
DEFPOINTS
  6
Continuous
 62
     0
100
AcDbPoint
 10
400.1596200030355
 20
380.82570317295
 30
0.0
  0
POINT
  5
284
330
27B
100
AcDbEntity
  8
DEFPOINTS
  6
Continuous
 62
     0
100
AcDbPoint
 10
389.6596200030356
 20
302.8257031729497
 30
0.0
  0
POINT
  5
285
330
27B
100
AcDbEntity
  8
DEFPOINTS
  6
Continuous
 62
     0
100
AcDbPoint
 10
431.830222796637
 20
302.8257031729497
 30
0.0
  0
ENDBLK
  5
286
330
27B
100
AcDbEntity
  8
0
100
AcDbBlockEnd
  0
BLOCK
  5
266
330
265
100
AcDbEntity
  8
0
100
AcDbBlockBegin
  2
*D20
 70
     1
 10
0.0
 20
0.0
 30
0.0
  3
*D20
  1

  0
LINE
  5
267
330
265
100
AcDbEntity
  8
BEMASSUNG
  6
Continuous
 62
     2
370
    -2
100
AcDbLine
 10
319.5596200030311
 20
187.3455282659033
 30
0.0
 11
337.1055002133171
 21
187.3455282659033
 31
0.0
  0
LINE
  5
268
330
265
100
AcDbEntity
  8
BEMASSUNG
  6
Continuous
 62
     2
370
    -2
100
AcDbLine
 10
337.5669051438567
 20
186.3455282659033
 30
0.0
 11
335.1055002133171
 21
186.3455282659033
 31
0.0
  0
LINE
  5
269
330
265
100
AcDbEntity
  8
BEMASSUNG
  6
Continuous
 62
     2
370
    -2
100
AcDbLine
 10
336.1055002133172
 20
191.3455282659033
 30
0.0
 11
336.1055002133172
 21
195.3455282659033
 31
0.0
  0
LINE
  5
26A
330
265
100
AcDbEntity
  8
BEMASSUNG
  6
Continuous
 62
     2
370
    -2
100
AcDbLine
 10
336.1055002133172
 20
182.3455282659033
 30
0.0
 11
336.1055002133172
 21
178.3455282659033
 31
0.0
  0
MTEXT
  5
26B
330
265
100
AcDbEntity
  8
BEMASSUNG
  6
Continuous
 62
     3
100
AcDbMText
 10
332.232718463576
 20
192.7754085304314
 30
0.0
 40
4.349999999999999
 41
0.0
 71
     5
 72
     1
  1
\A1;1
  7
ARIAL-STANDARD
 11
0.0000000000000001
 21
1.0
 31
0.0
 73
     1
 44
1.0
1001
ACAD
1000
MTEXTBEGIN
1070
    73
1070
     1
1070
    44
1040
1.0
1070
    74
1070
     0
1000
MTEXTEND
  0
LINE
  5
26C
330
265
100
AcDbEntity
  8
BEMASSUNG
  6
Continuous
 62
     2
370
    -2
100
AcDbLine
 10
336.1055002133172
 20
187.3455282659033
 30
0.0
 11
336.1055002133172
 21
186.3455282659033
 31
0.0
  0
SOLID
  5
26D
330
265
100
AcDbEntity
  8
BEMASSUNG
  6
Continuous
 62
     2
100
AcDbTrace
 10
335.4388335466505
 20
191.3455282659033
 30
0.0
 11
336.7721668799839
 21
191.3455282659033
 31
0.0
 12
336.1055002133172
 22
187.3455282659033
 32
0.0
 13
336.1055002133172
 23
187.3455282659033
 33
0.0
  0
SOLID
  5
26E
330
265
100
AcDbEntity
  8
BEMASSUNG
  6
Continuous
 62
     2
100
AcDbTrace
 10
335.4388335466505
 20
182.3455282659033
 30
0.0
 11
336.7721668799839
 21
182.3455282659033
 31
0.0
 12
336.1055002133172
 22
186.3455282659033
 32
0.0
 13
336.1055002133172
 23
186.3455282659033
 33
0.0
  0
POINT
  5
26F
330
265
100
AcDbEntity
  8
DEFPOINTS
  6
Continuous
 62
     0
100
AcDbPoint
 10
319.5596200030311
 20
187.3455282659033
 30
0.0
  0
POINT
  5
270
330
265
100
AcDbEntity
  8
DEFPOINTS
  6
Continuous
 62
     0
100
AcDbPoint
 10
337.5669051438567
 20
186.3455282659033
 30
0.0
  0
POINT
  5
271
330
265
100
AcDbEntity
  8
DEFPOINTS
  6
Continuous
 62
     0
100
AcDbPoint
 10
336.1055002133172
 20
186.3455282659033
 30
0.0
  0
ENDBLK
  5
272
330
265
100
AcDbEntity
  8
0
100
AcDbBlockEnd
  0
BLOCK
  5
257
330
256
100
AcDbEntity
  8
0
100
AcDbBlockBegin
  2
*D21
 70
     1
 10
0.0
 20
0.0
 30
0.0
  3
*D21
  1

  0
LINE
  5
258
330
256
100
AcDbEntity
  8
BEMASSUNG
  6
Continuous
 62
     2
370
    -2
100
AcDbLine
 10
319.5596200030311
 20
273.3257031729494
 30
0.0
 11
288.7665585921382
 21
273.3257031729494
 31
0.0
  0
LINE
  5
259
330
256
100
AcDbEntity
  8
BEMASSUNG
  6
Continuous
 62
     2
370
    -2
100
AcDbLine
 10
316.5596200030352
 20
237.8257031729494
 30
0.0
 11
288.7665585921382
 21
237.8257031729494
 31
0.0
  0
LINE
  5
25A
330
256
100
AcDbEntity
  8
BEMASSUNG
  6
Continuous
 62
     2
370
    -2
100
AcDbLine
 10
289.7665585921382
 20
269.3257031729494
 30
0.0
 11
289.7665585921382
 21
241.8257031729494
 31
0.0
  0
SOLID
  5
25B
330
256
100
AcDbEntity
  8
BEMASSUNG
  6
Continuous
 62
     2
100
AcDbTrace
 10
289.0998919254715
 20
269.3257031729494
 30
0.0
 11
290.4332252588048
 21
269.3257031729494
 31
0.0
 12
289.7665585921382
 22
273.3257031729494
 32
0.0
 13
289.7665585921382
 23
273.3257031729494
 33
0.0
  0
SOLID
  5
25C
330
256
100
AcDbEntity
  8
BEMASSUNG
  6
Continuous
 62
     2
100
AcDbTrace
 10
289.0998919254715
 20
241.8257031729494
 30
0.0
 11
290.4332252588048
 21
241.8257031729494
 31
0.0
 12
289.7665585921382
 22
237.8257031729494
 32
0.0
 13
289.7665585921382
 23
237.8257031729494
 33
0.0
  0
MTEXT
  5
25D
330
256
100
AcDbEntity
  8
BEMASSUNG
  6
Continuous
 62
     3
100
AcDbMText
 10
286.5440824666265
 20
255.5757031729494
 30
0.0
 40
4.349999999999999
 41
0.0
 71
     5
 72
     1
  1
\A1;35.5
  7
ARIAL-STANDARD
 11
0.0000000000000001
 21
1.0
 31
0.0
 73
     1
 44
1.0
1001
ACAD
1000
MTEXTBEGIN
1070
    73
1070
     1
1070
    44
1040
1.0
1070
    74
1070
     0
1000
MTEXTEND
  0
POINT
  5
25E
330
256
100
AcDbEntity
  8
DEFPOINTS
  6
Continuous
 62
     0
100
AcDbPoint
 10
319.5596200030311
 20
273.3257031729494
 30
0.0
  0
POINT
  5
25F
330
256
100
AcDbEntity
  8
DEFPOINTS
  6
Continuous
 62
     0
100
AcDbPoint
 10
316.5596200030352
 20
237.8257031729494
 30
0.0
  0
POINT
  5
260
330
256
100
AcDbEntity
  8
DEFPOINTS
  6
Continuous
 62
     0
100
AcDbPoint
 10
289.7665585921382
 20
237.8257031729494
 30
0.0
  0
ENDBLK
  5
261
330
256
100
AcDbEntity
  8
0
100
AcDbBlockEnd
  0
BLOCK
  5
244
330
243
100
AcDbEntity
  8
0
100
AcDbBlockBegin
  2
*D22
 70
     1
 10
0.0
 20
0.0
 30
0.0
  3
*D22
  1

  0
LINE
  5
245
330
243
100
AcDbEntity
  8
BEMASSUNG
  6
Continuous
 62
     2
370
    -2
100
AcDbLine
 10
307.0610499237166
 20
309.8256938178408
 30
0.0
 11
288.8082533386561
 21
309.8256938178408
 31
0.0
  0
LINE
  5
246
330
243
100
AcDbEntity
  8
BEMASSUNG
  6
Continuous
 62
     2
370
    -2
100
AcDbLine
 10
307.0610499237166
 20
339.8256939154089
 30
0.0
 11
288.8082533386561
 21
339.8256939154089
 31
0.0
  0
LINE
  5
247
330
243
100
AcDbEntity
  8
BEMASSUNG
  6
Continuous
 62
     2
370
    -2
100
AcDbLine
 10
289.8082533386561
 20
313.8256938178408
 30
0.0
 11
289.8082533386561
 21
335.8256939154089
 31
0.0
  0
MTEXT
  5
248
330
243
100
AcDbEntity
  8
BEMASSUNG
  6
Continuous
 62
     3
100
AcDbMText
 10
286.2632363352959
 20
324.467861612376
 30
0.0
 40
4.349999999999999
 41
0.0
 71
     5
 72
     1
  1
\A1;30
  7
ARIAL-STANDARD
 11
0.0000000000000001
 21
1.0
 31
0.0
 73
     1
 44
1.0
1001
ACAD
1000
MTEXTBEGIN
1070
    73
1070
     1
1070
    44
1040
1.0
1070
    74
1070
     0
1000
MTEXTEND
  0
SOLID
  5
249
330
243
100
AcDbEntity
  8
BEMASSUNG
  6
Continuous
 62
     2
100
AcDbTrace
 10
289.1415866719894
 20
313.8256938178408
 30
0.0
 11
290.4749200053228
 21
313.8256938178408
 31
0.0
 12
289.8082533386561
 22
309.8256938178408
 32
0.0
 13
289.8082533386561
 23
309.8256938178408
 33
0.0
  0
SOLID
  5
24A
330
243
100
AcDbEntity
  8
BEMASSUNG
  6
Continuous
 62
     2
100
AcDbTrace
 10
289.1415866719894
 20
335.8256939154089
 30
0.0
 11
290.4749200053228
 21
335.8256939154089
 31
0.0
 12
289.8082533386561
 22
339.8256939154089
 32
0.0
 13
289.8082533386561
 23
339.8256939154089
 33
0.0
  0
POINT
  5
24B
330
243
100
AcDbEntity
  8
DEFPOINTS
  6
Continuous
 62
     0
100
AcDbPoint
 10
307.0610499237166
 20
309.8256938178408
 30
0.0
  0
POINT
  5
24C
330
243
100
AcDbEntity
  8
DEFPOINTS
  6
Continuous
 62
     0
100
AcDbPoint
 10
307.0610499237166
 20
339.8256939154089
 30
0.0
  0
POINT
  5
24D
330
243
100
AcDbEntity
  8
DEFPOINTS
  6
Continuous
 62
     0
100
AcDbPoint
 10
289.8082533386561
 20
339.8256939154089
 30
0.0
  0
ENDBLK
  5
24E
330
243
100
AcDbEntity
  8
0
100
AcDbBlockEnd
  0
BLOCK
  5
237
330
236
100
AcDbEntity
  8
0
100
AcDbBlockBegin
  2
*D23
 70
     1
 10
0.0
 20
0.0
 30
0.0
  3
*D23
  1

  0
LINE
  5
238
330
236
100
AcDbEntity
  8
BEMASSUNG
  6
Continuous
 62
     2
370
    -2
100
AcDbLine
 10
319.5596200030311
 20
273.3257031729494
 30
0.0
 11
288.8082533386561
 21
273.3257031729494
 31
0.0
  0
LINE
  5
239
330
236
100
AcDbEntity
  8
BEMASSUNG
  6
Continuous
 62
     2
370
    -2
100
AcDbLine
 10
296.5696200030361
 20
309.8256938178408
 30
0.0
 11
288.8082533386561
 21
309.8256938178408
 31
0.0
  0
LINE
  5
23A
330
236
100
AcDbEntity
  8
BEMASSUNG
  6
Continuous
 62
     2
370
    -2
100
AcDbLine
 10
289.8082533386561
 20
277.3257031729494
 30
0.0
 11
289.8082533386561
 21
305.8256938178408
 31
0.0
  0
SOLID
  5
23B
330
236
100
AcDbEntity
  8
BEMASSUNG
  6
Continuous
 62
     2
100
AcDbTrace
 10
289.1415866719894
 20
277.3257031729494
 30
0.0
 11
290.4749200053228
 21
277.3257031729494
 31
0.0
 12
289.8082533386561
 22
273.3257031729494
 32
0.0
 13
289.8082533386561
 23
273.3257031729494
 33
0.0
  0
SOLID
  5
23C
330
236
100
AcDbEntity
  8
BEMASSUNG
  6
Continuous
 62
     2
100
AcDbTrace
 10
289.1415866719894
 20
305.8256938178408
 30
0.0
 11
290.4749200053228
 21
305.8256938178408
 31
0.0
 12
289.8082533386561
 22
309.8256938178408
 32
0.0
 13
289.8082533386561
 23
309.8256938178408
 33
0.0
  0
MTEXT
  5
23D
330
236
100
AcDbEntity
  8
BEMASSUNG
  6
Continuous
 62
     3
100
AcDbMText
 10
286.5857772131444
 20
291.5756984953952
 30
0.0
 40
4.349999999999999
 41
0.0
 71
     5
 72
     1
  1
\A1;36.5
  7
ARIAL-STANDARD
 11
0.0000000000000001
 21
1.0
 31
0.0
 73
     1
 44
1.0
1001
ACAD
1000
MTEXTBEGIN
1070
    73
1070
     1
1070
    44
1040
1.0
1070
    74
1070
     0
1000
MTEXTEND
  0
POINT
  5
23E
330
236
100
AcDbEntity
  8
DEFPOINTS
  6
Continuous
 62
     0
100
AcDbPoint
 10
319.5596200030311
 20
273.3257031729494
 30
0.0
  0
POINT
  5
23F
330
236
100
AcDbEntity
  8
DEFPOINTS
  6
Continuous
 62
     0
100
AcDbPoint
 10
296.5696200030361
 20
309.8256938178408
 30
0.0
  0
POINT
  5
240
330
236
100
AcDbEntity
  8
DEFPOINTS
  6
Continuous
 62
     0
100
AcDbPoint
 10
289.8082533386561
 20
309.8256938178408
 30
0.0
  0
ENDBLK
  5
241
330
236
100
AcDbEntity
  8
0
100
AcDbBlockEnd
  0
BLOCK
  5
223
330
222
100
AcDbEntity
  8
0
100
AcDbBlockBegin
  2
*D24
 70
     1
 10
0.0
 20
0.0
 30
0.0
  3
*D24
  1

  0
LINE
  5
224
330
222
100
AcDbEntity
  8
BEMASSUNG
  6
Continuous
 62
     2
370
    -2
100
AcDbLine
 10
405.559620003031
 20
186.3455282659028
 30
0.0
 11
428.8861329130409
 21
186.3455282659028
 31
0.0
  0
LINE
  5
225
330
222
100
AcDbEntity
  8
BEMASSUNG
  6
Continuous
 62
     2
370
    -2
100
AcDbLine
 10
405.559620003031
 20
173.145528265903
 30
0.0
 11
428.8861329130409
 21
173.145528265903
 31
0.0
  0
LINE
  5
226
330
222
100
AcDbEntity
  8
BEMASSUNG
  6
Continuous
 62
     2
370
    -2
100
AcDbLine
 10
427.886132913041
 20
182.3455282659028
 30
0.0
 11
427.886132913041
 21
177.145528265903
 31
0.0
  0
MTEXT
  5
227
330
222
100
AcDbEntity
  8
BEMASSUNG
  6
Continuous
 62
     3
100
AcDbMText
 10
423.2160846036976
 20
179.5413218126732
 30
0.0
 40
4.349999999999999
 41
0.0
 71
     5
 72
     1
  1
\A1;13.2
  7
ARIAL-STANDARD
 11
0.0000000000000001
 21
1.0
 31
0.0
 73
     1
 44
1.0
1001
ACAD
1000
MTEXTBEGIN
1070
    73
1070
     1
1070
    44
1040
1.0
1070
    74
1070
     0
1000
MTEXTEND
  0
SOLID
  5
228
330
222
100
AcDbEntity
  8
BEMASSUNG
  6
Continuous
 62
     2
100
AcDbTrace
 10
427.2194662463743
 20
182.3455282659028
 30
0.0
 11
428.5527995797076
 21
182.3455282659028
 31
0.0
 12
427.886132913041
 22
186.3455282659028
 32
0.0
 13
427.886132913041
 23
186.3455282659028
 33
0.0
  0
SOLID
  5
229
330
222
100
AcDbEntity
  8
BEMASSUNG
  6
Continuous
 62
     2
100
AcDbTrace
 10
427.2194662463743
 20
177.145528265903
 30
0.0
 11
428.5527995797076
 21
177.145528265903
 31
0.0
 12
427.886132913041
 22
173.145528265903
 32
0.0
 13
427.886132913041
 23
173.145528265903
 33
0.0
  0
POINT
  5
22A
330
222
100
AcDbEntity
  8
DEFPOINTS
  6
Continuous
 62
     0
100
AcDbPoint
 10
405.559620003031
 20
186.3455282659028
 30
0.0
  0
POINT
  5
22B
330
222
100
AcDbEntity
  8
DEFPOINTS
  6
Continuous
 62
     0
100
AcDbPoint
 10
405.559620003031
 20
173.145528265903
 30
0.0
  0
POINT
  5
22C
330
222
100
AcDbEntity
  8
DEFPOINTS
  6
Continuous
 62
     0
100
AcDbPoint
 10
427.886132913041
 20
173.145528265903
 30
0.0
  0
ENDBLK
  5
22D
330
222
100
AcDbEntity
  8
0
100
AcDbBlockEnd
  0
BLOCK
  5
213
330
212
100
AcDbEntity
  8
0
100
AcDbBlockBegin
  2
*D25
 70
     1
 10
0.0
 20
0.0
 30
0.0
  3
*D25
  1

  0
LINE
  5
214
330
212
100
AcDbEntity
  8
BEMASSUNG
  6
Continuous
 62
     2
370
    -2
100
AcDbLine
 10
482.9414503813357
 20
247.8257031729494
 30
0.0
 11
482.9414503813357
 21
214.3668905872266
 31
0.0
  0
LINE
  5
215
330
212
100
AcDbEntity
  8
BEMASSUNG
  6
Continuous
 62
     2
370
    -2
100
AcDbLine
 10
502.9414503813357
 20
247.8257031729494
 30
0.0
 11
502.9414503813357
 21
214.3668905872266
 31
0.0
  0
LINE
  5
216
330
212
100
AcDbEntity
  8
BEMASSUNG
  6
Continuous
 62
     2
370
    -2
100
AcDbLine
 10
486.9414503813357
 20
215.3668905872266
 30
0.0
 11
498.9414503813357
 21
215.3668905872266
 31
0.0
  0
MTEXT
  5
217
330
212
100
AcDbEntity
  8
BEMASSUNG
  6
Continuous
 62
     3
100
AcDbMText
 10
492.3132332741233
 20
220.6925293864911
 30
0.0
 40
4.349999999999999
 41
0.0
 71
     5
 72
     1
  1
\A1;20
  7
ARIAL-STANDARD
 73
     1
 44
1.0
1001
ACAD
1000
MTEXTBEGIN
1070
    73
1070
     1
1070
    44
1040
1.0
1070
    74
1070
     0
1000
MTEXTEND
  0
SOLID
  5
218
330
212
100
AcDbEntity
  8
BEMASSUNG
  6
Continuous
 62
     2
100
AcDbTrace
 10
486.9414503813357
 20
216.0335572538933
 30
0.0
 11
486.9414503813357
 21
214.70022392056
 31
0.0
 12
482.9414503813357
 22
215.3668905872266
 32
0.0
 13
482.9414503813357
 23
215.3668905872266
 33
0.0
  0
SOLID
  5
219
330
212
100
AcDbEntity
  8
BEMASSUNG
  6
Continuous
 62
     2
100
AcDbTrace
 10
498.9414503813357
 20
216.0335572538933
 30
0.0
 11
498.9414503813357
 21
214.70022392056
 31
0.0
 12
502.9414503813357
 22
215.3668905872266
 32
0.0
 13
502.9414503813357
 23
215.3668905872266
 33
0.0
  0
POINT
  5
21A
330
212
100
AcDbEntity
  8
DEFPOINTS
  6
Continuous
 62
     0
100
AcDbPoint
 10
482.9414503813357
 20
247.8257031729494
 30
0.0
  0
POINT
  5
21B
330
212
100
AcDbEntity
  8
DEFPOINTS
  6
Continuous
 62
     0
100
AcDbPoint
 10
502.9414503813357
 20
247.8257031729494
 30
0.0
  0
POINT
  5
21C
330
212
100
AcDbEntity
  8
DEFPOINTS
  6
Continuous
 62
     0
100
AcDbPoint
 10
502.9414503813357
 20
215.3668905872266
 30
0.0
  0
ENDBLK
  5
21D
330
212
100
AcDbEntity
  8
0
100
AcDbBlockEnd
  0
BLOCK
  5
201
330
200
100
AcDbEntity
  8
0
100
AcDbBlockBegin
  2
*D26
 70
     1
 10
0.0
 20
0.0
 30
0.0
  3
*D26
  1

  0
LINE
  5
202
330
200
100
AcDbEntity
  8
BEMASSUNG
  6
Continuous
 62
     2
370
    -2
100
AcDbLine
 10
389.434849270315
 20
302.8257031729496
 30
0.0
 11
432.7671483734298
 21
302.8257031729496
 31
0.0
  0
LINE
  5
203
330
200
100
AcDbEntity
  8
BEMASSUNG
  6
Continuous
 62
     2
370
    -2
100
AcDbLine
 10
387.7596200030355
 20
273.3257031729494
 30
0.0
 11
432.7671483734298
 21
273.3257031729494
 31
0.0
  0
LINE
  5
204
330
200
100
AcDbEntity
  8
BEMASSUNG
  6
Continuous
 62
     2
370
    -2
100
AcDbLine
 10
431.7671483734297
 20
298.8257031729496
 30
0.0
 11
431.7671483734297
 21
277.3257031729494
 31
0.0
  0
SOLID
  5
205
330
200
100
AcDbEntity
  8
BEMASSUNG
  6
Continuous
 62
     2
100
AcDbTrace
 10
431.100481706763
 20
298.8257031729496
 30
0.0
 11
432.4338150400964
 21
298.8257031729496
 31
0.0
 12
431.7671483734297
 22
302.8257031729496
 32
0.0
 13
431.7671483734297
 23
302.8257031729496
 33
0.0
  0
SOLID
  5
206
330
200
100
AcDbEntity
  8
BEMASSUNG
  6
Continuous
 62
     2
100
AcDbTrace
 10
431.100481706763
 20
277.3257031729494
 30
0.0
 11
432.4338150400964
 21
277.3257031729494
 31
0.0
 12
431.7671483734297
 22
273.3257031729494
 32
0.0
 13
431.7671483734297
 23
273.3257031729494
 33
0.0
  0
MTEXT
  5
207
330
200
100
AcDbEntity
  8
BEMASSUNG
  6
Continuous
 62
     3
100
AcDbMText
 10
428.5461558768403
 20
288.0757031729496
 30
0.0
 40
4.349999999999999
 41
0.0
 71
     5
 72
     1
  1
\A1;29.5
  7
ARIAL-STANDARD
 11
0.0000000000000001
 21
1.0
 31
0.0
 73
     1
 44
1.0
1001
ACAD
1000
MTEXTBEGIN
1070
    73
1070
     1
1070
    44
1040
1.0
1070
    74
1070
     0
1000
MTEXTEND
  0
POINT
  5
208
330
200
100
AcDbEntity
  8
DEFPOINTS
  6
Continuous
 62
     0
100
AcDbPoint
 10
389.434849270315
 20
302.8257031729496
 30
0.0
  0
POINT
  5
209
330
200
100
AcDbEntity
  8
DEFPOINTS
  6
Continuous
 62
     0
100
AcDbPoint
 10
387.7596200030355
 20
273.3257031729494
 30
0.0
  0
POINT
  5
20A
330
200
100
AcDbEntity
  8
DEFPOINTS
  6
Continuous
 62
     0
100
AcDbPoint
 10
431.7671483734297
 20
273.3257031729494
 30
0.0
  0
ENDBLK
  5
20B
330
200
100
AcDbEntity
  8
0
100
AcDbBlockEnd
  0
ENDSEC
  0
SECTION
  2
ENTITIES
  0
CIRCLE
  5
68
330
2
100
AcDbEntity
  8
1855
100
AcDbCircle
 10
376.5596200030357
 20
380.8257031729498
 30
0.0
 40
3.5
  0
DIMENSION
  5
6C
330
2
100
AcDbEntity
  8
BEMASSUNG
  6
Continuous
100
AcDbDimension
  2
*D14
 10
405.5596200030351
 20
256.3523684154468
 30
0.0
 11
391.0596200030354
 21
259.5733609120362
 31
0.0
 71
     5
 42
28.99999999999955
  3
Katalog 09
100
AcDbAlignedDimension
 13
376.5596200030357
 23
276.5257031729495
 33
0.0
 14
405.5596200030351
 24
292.4470235165097
 34
0.0
100
AcDbRotatedDimension
  0
DIMENSION
  5
7D
330
2
100
AcDbEntity
  8
BEMASSUNG
  6
Continuous
100
AcDbDimension
  2
*D13
 10
376.5596200030357
 20
256.3523684154468
 30
0.0
 11
346.5596200030355
 21
259.5273684154468
 31
0.0
  1
DM
 71
     5
 42
60.00000000000046
  3
Katalog 09
100
AcDbAlignedDimension
 13
316.5596200030352
 23
237.8257031729494
 33
0.0
 14
376.5596200030357
 24
276.5257031729495
 34
0.0
100
AcDbRotatedDimension
1001
ACAD_DSTYLE_DIMINSPECT
1070
   396
1000
100%
1070
   395
1000

1070
   394
1070
    33
1070
   393
1070
     0
  0
LINE
  5
8B
330
2
100
AcDbEntity
  8
ACHSEN
100
AcDbLine
 10
395.5596200030361
 20
386.3257031729501
 30
0.0
 11
395.5596200030361
 21
375.3257031729502
 31
0.0
  0
CIRCLE
  5
8C
330
2
100
AcDbEntity
  8
UMRISS05
100
AcDbCircle
 10
395.5596200030361
 20
380.8257031729502
 30
0.0
 40
3.5
  0
CIRCLE
  5
90
330
2
100
AcDbEntity
  8
UMRISS05
100
AcDbCircle
 10
357.5596200030361
 20
380.8257031729502
 30
0.0
 40
3.5
  0
LINE
  5
91
330
2
100
AcDbEntity
  8
ACHSEN
100
AcDbLine
 10
357.5596200030361
 20
386.3257031729501
 30
0.0
 11
357.5596200030361
 21
375.3257031729502
 31
0.0
  0
LINE
  5
92
330
2
100
AcDbEntity
  8
UMRISS05
100
AcDbLine
 10
306.2915189047481
 20
180.8689238215771
 30
0.0
 11
314.9180352259752
 21
173.6304171580906
 31
0.0
  0
LINE
  5
93
330
2
100
AcDbEntity
  8
UMRISS05
100
AcDbLine
 10
306.5510499237713
 20
181.045528265889
 30
0.0
 11
306.3557976657168
 21
181.045528265889
 31
0.0
  0
LINE
  5
94
330
2
100
AcDbEntity
  8
UMRISS05
100
AcDbLine
 10
306.5510499237713
 20
183.7815282658892
 30
0.0
 11
306.5510499237713
 21
181.045528265889
 31
0.0
  0
ARC
  5
95
330
2
100
AcDbEntity
  8
UMRISS05
100
AcDbCircle
 10
316.5250042501916
 20
175.5455282658881
 30
0.0
 40
2.5
100
AcDbArc
 50
230.0000000000002
 51
270.0
  0
ARC
  5
96
330
2
100
AcDbEntity
  8
UMRISS05
100
AcDbCircle
 10
306.3557976657168
 20
180.945528265889
 30
0.0
 40
0.1
100
AcDbArc
 50
90.0
 51
230.0000000000002
  0
LINE
  5
97
330
2
100
AcDbEntity
  8
UMRISS05
100
AcDbLine
 10
306.3757976657168
 20
181.045528265889
 30
0.0
 11
316.5596200030352
 21
181.045528265889
 31
0.0
  0
LINE
  5
98
330
2
100
AcDbEntity
  8
UMRISS05
100
AcDbLine
 10
306.5510499237713
 20
183.7815282658892
 30
0.0
 11
309.8510499237714
 21
184.0455282658891
 31
0.0
  0
LINE
  5
99
330
2
100
AcDbEntity
  8
UMRISS05
100
AcDbLine
 10
316.5596200030352
 20
184.0455282658891
 30
0.0
 11
309.8510499237714
 21
184.0455282658891
 31
0.0
  0
LINE
  5
9A
330
2
100
AcDbEntity
  8
UMRISS05
100
AcDbLine
 10
331.2596200030363
 20
417.3257031729492
 30
0.0
 11
319.5596200030355
 21
417.3257031729492
 31
0.0
  0
LINE
  5
9B
330
2
100
AcDbEntity
  8
UMRISS05
100
AcDbLine
 10
327.4190533299818
 20
320.7288871557969
 30
0.0
 11
324.8150431111861
 21
318.8192796620133
 31
0.0
  0
ARC
  5
9C
330
2
100
AcDbEntity
  8
UMRISS05
100
AcDbCircle
 10
324.2236794475586
 20
330.025684657869
 30
0.0
 40
1.0
100
AcDbArc
 50
53.74616226255412
 51
90.0
  0
LINE
  5
9D
330
2
100
AcDbEntity
  8
UMRISS05
100
AcDbLine
 10
324.8150431111861
 20
330.8320896537247
 30
0.0
 11
327.4190533299819
 21
328.9224821599412
 31
0.0
  0
LINE
  5
9E
330
2
100
AcDbEntity
  8
AVERDECKTE
100
AcDbLine
 10
316.5596200030352
 20
312.8256939154089
 30
0.0
 11
319.5596200030351
 21
312.8256939154089
 31
0.0
  0
ARC
  5
A2
330
2
100
AcDbEntity
  8
UMRISS05
100
AcDbCircle
 10
307.0510619189193
 20
336.3256939154088
 30
0.0
 40
0.5
100
AcDbArc
 50
90.0
 51
175.6176454975437
  0
ARC
  5
A3
330
2
100
AcDbEntity
  8
UMRISS05
100
AcDbCircle
 10
307.0510619189187
 20
313.3256939154088
 30
0.0
 40
0.5
100
AcDbArc
 50
184.3823545024497
 51
270.0
  0
LINE
  5
A4
330
2
100
AcDbEntity
  8
AVERDECKTE
100
AcDbLine
 10
316.5596200030351
 20
336.8256939154087
 30
0.0
 11
319.5596200030351
 21
336.8256939154089
 31
0.0
  0
ARC
  5
A5
330
2
100
AcDbEntity
  8
UMRISS05
100
AcDbCircle
 10
457.1110499237165
 20
324.8256939154052
 30
0.0
 40
150.9999999999999
100
AcDbArc
 50
175.6176454975478
 51
184.3823545024497
  0
LINE
  5
A6
330
2
100
AcDbEntity
  8
UMRISS05
100
AcDbLine
 10
320.5510499237166
 20
322.8256846578691
 30
0.0
 11
319.5596200030351
 21
322.8256846578691
 31
0.0
  0
LINE
  5
A7
330
2
100
AcDbEntity
  8
UMRISS05
100
AcDbLine
 10
320.5510499237166
 20
322.6756846578692
 30
0.0
 11
319.5596200030351
 21
322.6756846578691
 31
0.0
  0
LINE
  5
A8
330
2
100
AcDbEntity
  8
UMRISS05
100
AcDbLine
 10
320.5510499237166
 20
326.8256846578691
 30
0.0
 11
319.5596200030351
 21
326.8256846578691
 31
0.0
  0
LINE
  5
A9
330
2
100
AcDbEntity
  8
UMRISS05
100
AcDbLine
 10
320.5510499237166
 20
326.9756846578691
 30
0.0
 11
319.5596200030351
 21
326.9756846578691
 31
0.0
  0
LINE
  5
AA
330
2
100
AcDbEntity
  8
UMRISS05
100
AcDbLine
 10
324.2236794475585
 20
331.025684657869
 30
0.0
 11
320.5510499237166
 21
331.025684657869
 31
0.0
  0
ARC
  5
AB
330
2
100
AcDbEntity
  8
UMRISS05
100
AcDbCircle
 10
324.2236794475586
 20
319.6256846578691
 30
0.0
 40
1.0
100
AcDbArc
 50
270.0
 51
306.2538377374459
  0
LINE
  5
AC
330
2
100
AcDbEntity
  8
UMRISS05
100
AcDbLine
 10
324.2236794475586
 20
318.625684657869
 30
0.0
 11
320.5510499237166
 21
318.625684657869
 31
0.0
  0
ARC
  5
AD
330
2
100
AcDbEntity
  8
UMRISS05
100
AcDbCircle
 10
327.7147351617956
 20
329.3256846578691
 30
0.0
 40
0.5
100
AcDbArc
 50
233.7461622625541
 51
270.0
  0
LINE
  5
AE
330
2
100
AcDbEntity
  8
UMRISS05
100
AcDbLine
 10
331.2596200030363
 20
328.8256846578691
 30
0.0
 11
327.7147351617956
 21
328.8256846578691
 31
0.0
  0
ARC
  5
AF
330
2
100
AcDbEntity
  8
UMRISS05
100
AcDbCircle
 10
327.7147351617956
 20
320.3256846578691
 30
0.0
 40
0.5
100
AcDbArc
 50
90.0
 51
126.2538377374458
  0
LINE
  5
B0
330
2
100
AcDbEntity
  8
UMRISS05
100
AcDbLine
 10
331.2596200030363
 20
320.8256846578691
 30
0.0
 11
327.7147351617956
 21
320.8256846578691
 31
0.0
  0
LINE
  5
B1
330
2
100
AcDbEntity
  8
UMRISS05
100
AcDbLine
 10
319.5596200030355
 20
339.325693915409
 30
0.0
 11
331.2596200030363
 21
339.325693915409
 31
0.0
  0
LINE
  5
B2
330
2
100
AcDbEntity
  8
UMRISS05
100
AcDbLine
 10
331.2596200030363
 20
339.325693915409
 30
0.0
 11
331.2596200030363
 21
310.3256939154092
 31
0.0
  0
LINE
  5
B3
330
2
100
AcDbEntity
  8
UMRISS05
100
AcDbLine
 10
331.2596200030363
 20
310.3256939154092
 30
0.0
 11
319.5596200030353
 21
310.3256939154092
 31
0.0
  0
LINE
  5
B4
330
2
100
AcDbEntity
  8
UMRISS05
100
AcDbLine
 10
331.259620003036
 20
333.6429893877043
 30
0.0
 11
326.5705916888681
 21
339.3256939154091
 31
0.0
  0
LINE
  5
B5
330
2
100
AcDbEntity
  8
UMRISS05
100
AcDbLine
 10
321.7909715888468
 20
326.6176057608709
 30
0.0
 11
331.2596200030363
 21
328.2849508070695
 31
0.0
  0
ARC
  5
B6
330
2
100
AcDbEntity
  8
UMRISS05
100
AcDbCircle
 10
322.0518834889012
 20
325.1359190192296
 30
0.0
 40
1.5044835060399
100
AcDbArc
 50
99.98689397380495
 51
245.3000900866797
  0
LINE
  5
B7
330
2
100
AcDbEntity
  8
UMRISS05
100
AcDbLine
 10
322.331720352281
 20
323.351216817225
 30
0.0
 11
321.4232115177391
 21
323.7690824625699
 31
0.0
  0
LINE
  5
B8
330
2
100
AcDbEntity
  8
UMRISS05
100
AcDbLine
 10
322.5426409944849
 20
323.8097930820226
 30
0.0
 11
322.331720352281
 21
323.351216817225
 31
0.0
  0
LINE
  5
B9
330
2
100
AcDbEntity
  8
UMRISS05
100
AcDbLine
 10
321.6341321599431
 20
324.2276587273675
 30
0.0
 11
322.5426409944849
 21
323.8097930820226
 31
0.0
  0
ARC
  5
BA
330
2
100
AcDbEntity
  8
UMRISS05
100
AcDbCircle
 10
322.0518834889012
 20
325.1359190192296
 30
0.0
 40
0.9997264278889424
100
AcDbArc
 50
99.98796017931992
 51
245.3000900866797
  0
LINE
  5
BB
330
2
100
AcDbEntity
  8
UMRISS05
100
AcDbLine
 10
331.2596200030363
 20
327.7726076809714
 30
0.0
 11
321.8784897058473
 21
326.1204938140612
 31
0.0
  0
LINE
  5
BC
330
2
100
AcDbEntity
  8
UMRISS05
100
AcDbLine
 10
327.2246060221523
 20
339.3256939154092
 30
0.0
 11
331.2596200030362
 21
334.4357488682375
 31
0.0
  0
LINE
  5
BD
330
2
100
AcDbEntity
  8
UMRISS05
100
AcDbLine
 10
323.5510499237166
 20
310.3256939154089
 30
0.0
 11
323.5510499237166
 21
313.3256939154088
 31
0.0
  0
ARC
  5
BE
330
2
100
AcDbEntity
  8
UMRISS05
100
AcDbCircle
 10
325.5510499237166
 20
313.3256939154088
 30
0.0
 40
1.999999999999997
100
AcDbArc
 50
90.0
 51
180.0
  0
LINE
  5
BF
330
2
100
AcDbEntity
  8
UMRISS05
100
AcDbLine
 10
325.5510499237166
 20
315.3256939154089
 30
0.0
 11
331.2596200030362
 21
315.3256939154089
 31
0.0
  0
LINE
  5
C0
330
2
100
AcDbEntity
  8
UMRISS05
100
AcDbLine
 10
319.5596200030351
 20
312.8256939154089
 30
0.0
 11
320.5510499237166
 21
312.8256939154088
 31
0.0
  0
LINE
  5
C1
330
2
100
AcDbEntity
  8
UMRISS05
100
AcDbLine
 10
307.0510619189187
 20
312.8256939154089
 30
0.0
 11
316.5596200030352
 21
312.8256939154089
 31
0.0
  0
ARC
  5
C2
330
2
100
AcDbEntity
  8
UMRISS05
100
AcDbCircle
 10
307.0610499237166
 20
310.3256939154089
 30
0.0
 40
0.5
100
AcDbArc
 50
180.0
 51
270.0
  0
LINE
  5
C3
330
2
100
AcDbEntity
  8
UMRISS05
100
AcDbLine
 10
307.0610499237166
 20
309.8256939154089
 30
0.0
 11
316.5596200030351
 21
309.8256939154089
 31
0.0
  0
LINE
  5
C4
330
2
100
AcDbEntity
  8
UMRISS05
100
AcDbLine
 10
320.5510499237166
 20
336.8256939154089
 30
0.0
 11
319.5596200030351
 21
336.8256939154089
 31
0.0
  0
LINE
  5
C5
330
2
100
AcDbEntity
  8
UMRISS05
100
AcDbLine
 10
316.5596200030351
 20
336.8256939154087
 30
0.0
 11
307.0510619189193
 21
336.8256939154087
 31
0.0
  0
LINE
  5
C6
330
2
100
AcDbEntity
  8
UMRISS05
100
AcDbLine
 10
320.5510499237166
 20
326.9756846578691
 30
0.0
 11
320.5510499237166
 21
336.8256939154089
 31
0.0
  0
LINE
  5
C7
330
2
100
AcDbEntity
  8
UMRISS05
100
AcDbLine
 10
320.5510499237166
 20
322.8256846578691
 30
0.0
 11
320.5510499237166
 21
326.8256846578691
 31
0.0
  0
LINE
  5
C8
330
2
100
AcDbEntity
  8
UMRISS05
100
AcDbLine
 10
320.5510499237166
 20
312.8256939154088
 30
0.0
 11
320.5510499237166
 21
322.6756846578691
 31
0.0
  0
LINE
  5
C9
330
2
100
AcDbEntity
  8
UMRISS05
100
AcDbLine
 10
306.5610499237166
 20
336.4251335682516
 30
0.0
 11
306.5610499237166
 21
339.3256939154089
 31
0.0
  0
LINE
  5
CA
330
2
100
AcDbEntity
  8
AVERDECKTE
100
AcDbLine
 10
306.5610499237166
 20
313.2262542625633
 30
0.0
 11
306.5610499237166
 21
336.4251335682516
 31
0.0
  0
LINE
  5
CB
330
2
100
AcDbEntity
  8
UMRISS05
100
AcDbLine
 10
306.5610499237166
 20
310.3256939154089
 30
0.0
 11
306.5610499237166
 21
313.2262542625633
 31
0.0
  0
ARC
  5
CC
330
2
100
AcDbEntity
  8
UMRISS05
100
AcDbCircle
 10
307.0610499237166
 20
339.3256939154089
 30
0.0
 40
0.5
100
AcDbArc
 50
90.0
 51
180.0
  0
LINE
  5
CD
330
2
100
AcDbEntity
  8
UMRISS05
100
AcDbLine
 10
316.5596200030351
 20
339.8256939154089
 30
0.0
 11
307.0610499237166
 21
339.8256939154089
 31
0.0
  0
LINE
  5
CE
330
2
100
AcDbEntity
  8
UMRISS05
100
AcDbLine
 10
327.4190533299818
 20
398.7288964133372
 30
0.0
 11
324.6830465174515
 21
396.7224914174815
 31
0.0
  0
ARC
  5
CF
330
2
100
AcDbEntity
  8
UMRISS05
100
AcDbCircle
 10
324.3873646856376
 20
408.5256939154093
 30
0.0
 40
0.5
100
AcDbArc
 50
53.74616226255412
 51
90.0
  0
LINE
  5
D0
330
2
100
AcDbEntity
  8
UMRISS05
100
AcDbLine
 10
324.6830465174515
 20
408.9288964133372
 30
0.0
 11
327.4190533299819
 21
406.9224914174815
 31
0.0
  0
LINE
  5
D1
330
2
100
AcDbEntity
  8
AVERDECKTE
100
AcDbLine
 10
316.5596200030352
 20
390.8257031729491
 30
0.0
 11
319.5596200030351
 21
390.8257031729491
 31
0.0
  0
ARC
  5
D2
330
2
100
AcDbEntity
  8
UMRISS05
100
AcDbCircle
 10
307.0510619189193
 20
414.325703172949
 30
0.0
 40
0.5
100
AcDbArc
 50
90.0
 51
175.6176454975437
  0
ARC
  5
D3
330
2
100
AcDbEntity
  8
UMRISS05
100
AcDbCircle
 10
307.0510619189187
 20
391.3257031729491
 30
0.0
 40
0.5
100
AcDbArc
 50
184.3823545024497
 51
270.0
  0
LINE
  5
D4
330
2
100
AcDbEntity
  8
AVERDECKTE
100
AcDbLine
 10
316.5596200030351
 20
414.825703172949
 30
0.0
 11
319.5596200030351
 21
414.8257031729491
 31
0.0
  0
ARC
  5
D5
330
2
100
AcDbEntity
  8
UMRISS05
100
AcDbCircle
 10
457.1110499237165
 20
402.8257031729454
 30
0.0
 40
150.9999999999999
100
AcDbArc
 50
175.6176454975478
 51
184.3823545024497
  0
LINE
  5
D6
330
2
100
AcDbEntity
  8
ACHSEN
100
AcDbLine
 10
322.6173037766709
 20
324.8256846578691
 30
0.0
 11
304.6273037766708
 21
324.8256846578691
 31
0.0
  0
LINE
  5
D7
330
2
100
AcDbEntity
  8
UMRISS05
100
AcDbLine
 10
320.5510499237166
 20
400.8256939154093
 30
0.0
 11
319.5596200030351
 21
400.8256939154093
 31
0.0
  0
LINE
  5
D8
330
2
100
AcDbEntity
  8
UMRISS05
100
AcDbLine
 10
320.5510499237166
 20
400.6756939154094
 30
0.0
 11
319.5596200030351
 21
400.6756939154094
 31
0.0
  0
LINE
  5
D9
330
2
100
AcDbEntity
  8
UMRISS05
100
AcDbLine
 10
320.5510499237166
 20
404.8256939154093
 30
0.0
 11
319.5596200030351
 21
404.8256939154093
 31
0.0
  0
LINE
  5
DA
330
2
100
AcDbEntity
  8
UMRISS05
100
AcDbLine
 10
320.5510499237166
 20
404.9756939154093
 30
0.0
 11
319.5596200030351
 21
404.9756939154092
 31
0.0
  0
LINE
  5
DB
330
2
100
AcDbEntity
  8
UMRISS05
100
AcDbLine
 10
324.3873646856376
 20
409.0256939154093
 30
0.0
 11
320.5510499237166
 21
409.0256939154092
 31
0.0
  0
ARC
  5
DC
330
2
100
AcDbEntity
  8
UMRISS05
100
AcDbCircle
 10
324.3873646856376
 20
397.1256939154093
 30
0.0
 40
0.5
100
AcDbArc
 50
270.0
 51
306.2538377374459
  0
LINE
  5
DD
330
2
100
AcDbEntity
  8
UMRISS05
100
AcDbLine
 10
324.3873646856376
 20
396.6256939154093
 30
0.0
 11
320.5510499237166
 21
396.6256939154093
 31
0.0
  0
ARC
  5
DE
330
2
100
AcDbEntity
  8
UMRISS05
100
AcDbCircle
 10
327.7147351617957
 20
407.3256939154092
 30
0.0
 40
0.5
100
AcDbArc
 50
233.7461622625541
 51
270.0
  0
LINE
  5
DF
330
2
100
AcDbEntity
  8
UMRISS05
100
AcDbLine
 10
331.2596200030363
 20
406.8256939154093
 30
0.0
 11
327.7147351617957
 21
406.8256939154093
 31
0.0
  0
ARC
  5
E0
330
2
100
AcDbEntity
  8
UMRISS05
100
AcDbCircle
 10
327.7147351617956
 20
398.3256939154093
 30
0.0
 40
0.5
100
AcDbArc
 50
90.0
 51
126.2538377374458
  0
LINE
  5
E1
330
2
100
AcDbEntity
  8
UMRISS05
100
AcDbLine
 10
331.2596200030363
 20
398.8256939154093
 30
0.0
 11
327.7147351617956
 21
398.8256939154093
 31
0.0
  0
LINE
  5
E2
330
2
100
AcDbEntity
  8
ACHSEN
100
AcDbLine
 10
322.6173037766709
 20
402.8256939154092
 30
0.0
 11
304.6273037766708
 21
402.8256939154092
 31
0.0
  0
LINE
  5
E3
330
2
100
AcDbEntity
  8
UMRISS05
100
AcDbLine
 10
331.2596200030363
 20
417.3257031729492
 30
0.0
 11
331.2596200030363
 21
388.3257031729494
 31
0.0
  0
LINE
  5
E4
330
2
100
AcDbEntity
  8
UMRISS05
100
AcDbLine
 10
331.2596200030363
 20
388.3257031729494
 30
0.0
 11
319.5596200030355
 21
388.3257031729495
 31
0.0
  0
LINE
  5
E5
330
2
100
AcDbEntity
  8
UMRISS05
100
AcDbLine
 10
331.259620003036
 20
411.6429986452445
 30
0.0
 11
326.5705916888681
 21
417.3257031729493
 31
0.0
  0
LINE
  5
E6
330
2
100
AcDbEntity
  8
UMRISS05
100
AcDbLine
 10
321.7909715888468
 20
404.6176150184112
 30
0.0
 11
331.2596200030363
 21
406.2849600646098
 31
0.0
  0
ARC
  5
E7
330
2
100
AcDbEntity
  8
UMRISS05
100
AcDbCircle
 10
322.0518834889012
 20
403.1359282767698
 30
0.0
 40
1.5044835060399
100
AcDbArc
 50
99.98689397380495
 51
245.3000900866797
  0
LINE
  5
E8
330
2
100
AcDbEntity
  8
UMRISS05
100
AcDbLine
 10
322.331720352281
 20
401.3512260747651
 30
0.0
 11
321.4232115177391
 21
401.76909172011
 31
0.0
  0
LINE
  5
E9
330
2
100
AcDbEntity
  8
UMRISS05
100
AcDbLine
 10
322.5426409944849
 20
401.8098023395628
 30
0.0
 11
322.331720352281
 21
401.3512260747651
 31
0.0
  0
LINE
  5
EA
330
2
100
AcDbEntity
  8
UMRISS05
100
AcDbLine
 10
321.6341321599431
 20
402.2276679849078
 30
0.0
 11
322.5426409944849
 21
401.8098023395628
 31
0.0
  0
ARC
  5
EB
330
2
100
AcDbEntity
  8
UMRISS05
100
AcDbCircle
 10
322.0518834889012
 20
403.1359282767698
 30
0.0
 40
0.9997264278889424
100
AcDbArc
 50
99.98796017931992
 51
245.3000900866797
  0
LINE
  5
EC
330
2
100
AcDbEntity
  8
UMRISS05
100
AcDbLine
 10
331.2596200030363
 20
405.7726169385116
 30
0.0
 11
321.8784897058473
 21
404.1205030716015
 31
0.0
  0
LINE
  5
ED
330
2
100
AcDbEntity
  8
UMRISS05
100
AcDbLine
 10
327.2246060221523
 20
417.3257031729494
 30
0.0
 11
331.2596200030362
 21
412.4357581257776
 31
0.0
  0
LINE
  5
EE
330
2
100
AcDbEntity
  8
UMRISS05
100
AcDbLine
 10
323.5510499237166
 20
388.3257031729491
 30
0.0
 11
323.5510499237166
 21
391.3257031729491
 31
0.0
  0
ARC
  5
EF
330
2
100
AcDbEntity
  8
UMRISS05
100
AcDbCircle
 10
325.5510499237166
 20
391.3257031729491
 30
0.0
 40
1.999999999999997
100
AcDbArc
 50
90.0
 51
180.0
  0
LINE
  5
F0
330
2
100
AcDbEntity
  8
UMRISS05
100
AcDbLine
 10
325.5510499237166
 20
393.3257031729491
 30
0.0
 11
331.2596200030362
 21
393.3257031729491
 31
0.0
  0
LINE
  5
F1
330
2
100
AcDbEntity
  8
UMRISS05
100
AcDbLine
 10
319.5596200030351
 20
390.8257031729491
 30
0.0
 11
320.5510499237166
 21
390.825703172949
 31
0.0
  0
LINE
  5
F2
330
2
100
AcDbEntity
  8
UMRISS05
100
AcDbLine
 10
307.0510619189187
 20
390.8257031729491
 30
0.0
 11
316.5596200030352
 21
390.8257031729491
 31
0.0
  0
ARC
  5
F3
330
2
100
AcDbEntity
  8
UMRISS05
100
AcDbCircle
 10
307.0610499237166
 20
388.3257031729491
 30
0.0
 40
0.5
100
AcDbArc
 50
180.0
 51
270.0
  0
LINE
  5
F4
330
2
100
AcDbEntity
  8
UMRISS05
100
AcDbLine
 10
307.0610499237166
 20
387.8257031729491
 30
0.0
 11
316.5596200030351
 21
387.8257031729491
 31
0.0
  0
LINE
  5
F5
330
2
100
AcDbEntity
  8
UMRISS05
100
AcDbLine
 10
320.5510499237166
 20
414.8257031729491
 30
0.0
 11
319.5596200030351
 21
414.8257031729491
 31
0.0
  0
LINE
  5
F6
330
2
100
AcDbEntity
  8
UMRISS05
100
AcDbLine
 10
316.5596200030351
 20
414.825703172949
 30
0.0
 11
307.0510619189193
 21
414.825703172949
 31
0.0
  0
LINE
  5
F7
330
2
100
AcDbEntity
  8
UMRISS05
100
AcDbLine
 10
320.5510499237166
 20
404.9756939154092
 30
0.0
 11
320.5510499237166
 21
414.8257031729491
 31
0.0
  0
LINE
  5
F8
330
2
100
AcDbEntity
  8
UMRISS05
100
AcDbLine
 10
320.5510499237166
 20
400.8256939154093
 30
0.0
 11
320.5510499237166
 21
404.8256939154093
 31
0.0
  0
LINE
  5
F9
330
2
100
AcDbEntity
  8
UMRISS05
100
AcDbLine
 10
320.5510499237166
 20
390.825703172949
 30
0.0
 11
320.5510499237166
 21
400.6756939154094
 31
0.0
  0
LINE
  5
FA
330
2
100
AcDbEntity
  8
UMRISS05
100
AcDbLine
 10
306.5610499237166
 20
414.4251428257919
 30
0.0
 11
306.5610499237166
 21
417.325703172949
 31
0.0
  0
LINE
  5
FB
330
2
100
AcDbEntity
  8
AVERDECKTE
100
AcDbLine
 10
306.5610499237166
 20
391.2262635201036
 30
0.0
 11
306.5610499237166
 21
414.4251428257918
 31
0.0
  0
LINE
  5
FC
330
2
100
AcDbEntity
  8
UMRISS05
100
AcDbLine
 10
306.5610499237166
 20
388.3257031729491
 30
0.0
 11
306.5610499237166
 21
391.2262635201035
 31
0.0
  0
ARC
  5
FD
330
2
100
AcDbEntity
  8
UMRISS05
100
AcDbCircle
 10
307.0610499237166
 20
417.325703172949
 30
0.0
 40
0.5
100
AcDbArc
 50
90.0
 51
180.0
  0
LINE
  5
FE
330
2
100
AcDbEntity
  8
UMRISS05
100
AcDbLine
 10
316.5596200030351
 20
417.8257031729491
 30
0.0
 11
307.0610499237166
 21
417.8257031729491
 31
0.0
  0
LINE
  5
FF
330
2
100
AcDbEntity
  8
UMRISS05
100
AcDbLine
 10
486.3414503813357
 20
339.9257031729499
 30
0.0
 11
489.441450381336
 21
339.9257031729498
 31
0.0
  0
LINE
  5
100
330
2
100
AcDbEntity
  8
UMRISS05
100
AcDbLine
 10
489.441450381336
 20
337.4257031729496
 30
0.0
 11
497.3414503813359
 21
337.4257031729497
 31
0.0
  0
LINE
  5
101
330
2
100
AcDbEntity
  8
UMRISS05
100
AcDbLine
 10
489.441450381336
 20
312.2257031729497
 30
0.0
 11
497.3414503813359
 21
312.2257031729497
 31
0.0
  0
LINE
  5
102
330
2
100
AcDbEntity
  8
UMRISS05
100
AcDbLine
 10
486.3414503813357
 20
309.7257031729498
 30
0.0
 11
489.441450381336
 21
309.7257031729497
 31
0.0
  0
LINE
  5
103
330
2
100
AcDbEntity
  8
UMRISS05
100
AcDbLine
 10
497.3414503813359
 20
337.4257031729497
 30
0.0
 11
497.3414503813359
 21
312.2257031729497
 31
0.0
  0
ARC
  5
104
330
2
100
AcDbEntity
  8
UMRISS05
100
AcDbCircle
 10
410.5614503813358
 20
324.8257031729499
 30
0.0
 40
79.88000000000024
100
AcDbArc
 50
350.9244549841862
 51
9.075545015813785
  0
LINE
  5
105
330
2
100
AcDbEntity
  8
UMRISS05
100
AcDbLine
 10
489.441450381336
 20
339.92570317295
 30
0.0
 11
489.441450381336
 21
309.7257031729497
 31
0.0
  0
LINE
  5
106
330
2
100
AcDbEntity
  8
UMRISS05
100
AcDbLine
 10
486.3414503813357
 20
339.9257031729499
 30
0.0
 11
486.3414503813357
 21
309.7257031729498
 31
0.0
  0
DIMENSION
  5
107
330
2
100
AcDbEntity
  8
BEMASSUNG
  6
Continuous
100
AcDbDimension
  2
*D12
 10
316.559620003036
 20
351.5973550159062
 30
0.0
 11
311.5603349633763
 21
354.8183475124956
 31
0.0
 71
     5
 42
9.998570079319392
  3
Katalog 09
100
AcDbAlignedDimension
 13
306.5610499237166
 23
339.3256939154089
 33
0.0
 14
316.559620003036
 24
352.2680153418435
 34
0.0
100
AcDbRotatedDimension
  0
CIRCLE
  5
116
330
2
100
AcDbEntity
  8
UMRISS05
100
AcDbCircle
 10
376.5596200030357
 20
359.3257031729536
 30
0.0
 40
4.5
  0
DIMENSION
  5
117
330
2
100
AcDbEntity
  8
BEMASSUNG
  6
Continuous
100
AcDbDimension
  2
*D11
 10
319.5596200030357
 20
484.3981634006765
 30
0.0
 11
318.0596200030357
 21
487.6206395261881
 31
0.0
 71
     5
 42
3.0
  3
Katalog 09
100
AcDbAlignedDimension
 13
316.5596200030357
 23
467.825703172949
 33
0.0
 14
319.5596200030357
 24
467.825703172949
 34
0.0
100
AcDbRotatedDimension
  0
LINE
  5
126
330
2
100
AcDbEntity
  8
ACHSEN
100
AcDbLine
 10
486.1914503813356
 20
458.825703172949
 30
0.0
 11
499.6914503813356
 21
458.825703172949
 31
0.0
  0
ARC
  5
127
330
2
100
AcDbEntity
  8
UMRISS05
100
AcDbCircle
 10
492.9414503813356
 20
457.825703172949
 30
0.0
 40
10.0
100
AcDbArc
 50
0.0
 51
180.0
  0
CIRCLE
  5
128
330
2
100
AcDbEntity
  8
UMRISS05
100
AcDbCircle
 10
492.9414503813356
 20
458.825703172949
 30
0.0
 40
2.549999999999999
  0
CIRCLE
  5
129
330
2
100
AcDbEntity
  8
UMRISS05
100
AcDbCircle
 10
492.9414503813356
 20
458.825703172949
 30
0.0
 40
4.75
  0
LINE
  5
12A
330
2
100
AcDbEntity
  8
ACHSEN
100
AcDbLine
 10
492.9414503813356
 20
465.575703172949
 30
0.0
 11
492.9414503813356
 21
452.075703172949
 31
0.0
  0
LINE
  5
12B
330
2
100
AcDbEntity
  8
UMRISS05
100
AcDbLine
 10
486.3414503813357
 20
417.9257031729498
 30
0.0
 11
489.441450381336
 21
417.9257031729497
 31
0.0
  0
LINE
  5
12C
330
2
100
AcDbEntity
  8
UMRISS05
100
AcDbLine
 10
489.441450381336
 20
415.4257031729496
 30
0.0
 11
497.3414503813359
 21
415.4257031729497
 31
0.0
  0
LINE
  5
12D
330
2
100
AcDbEntity
  8
UMRISS05
100
AcDbLine
 10
489.441450381336
 20
390.2257031729497
 30
0.0
 11
497.3414503813359
 21
390.2257031729497
 31
0.0
  0
LINE
  5
12E
330
2
100
AcDbEntity
  8
UMRISS05
100
AcDbLine
 10
486.3414503813357
 20
387.7257031729498
 30
0.0
 11
489.441450381336
 21
387.7257031729497
 31
0.0
  0
DIMENSION
  5
12F
330
2
100
AcDbEntity
  8
BEMASSUNG
  6
Continuous
100
AcDbDimension
  2
*D10
 10
497.3414503813359
 20
373.0601100727449
 30
0.0
 11
491.8414503813359
 21
377.8020564890196
 31
0.0
 70
   128
 71
     5
 42
11.00000000000022
  3
Katalog 09
100
AcDbAlignedDimension
 13
486.3414503813357
 23
387.7257031729498
 33
0.0
 14
497.3414503813359
 24
390.2257031729497
 34
0.0
100
AcDbRotatedDimension
  0
LINE
  5
13C
330
2
100
AcDbEntity
  8
UMRISS05
100
AcDbLine
 10
497.3414503813359
 20
415.4257031729497
 30
0.0
 11
497.3414503813359
 21
390.2257031729497
 31
0.0
  0
ARC
  5
13D
330
2
100
AcDbEntity
  8
UMRISS05
100
AcDbCircle
 10
410.5614503813358
 20
402.8257031729499
 30
0.0
 40
79.88000000000024
100
AcDbArc
 50
350.9244549841865
 51
9.075545015813451
  0
LINE
  5
13E
330
2
100
AcDbEntity
  8
UMRISS05
100
AcDbLine
 10
489.441450381336
 20
417.9257031729499
 30
0.0
 11
489.441450381336
 21
387.7257031729497
 31
0.0
  0
LINE
  5
13F
330
2
100
AcDbEntity
  8
UMRISS05
100
AcDbLine
 10
486.3414503813357
 20
417.9257031729498
 30
0.0
 11
486.3414503813357
 21
387.7257031729498
 31
0.0
  0
LINE
  5
140
330
2
100
AcDbEntity
  8
UMRISS05
100
AcDbLine
 10
387.7596200030355
 20
430.8257031729492
 30
0.0
 11
388.0646452562048
 21
430.6993575762207
 31
0.0
  0
LINE
  5
141
330
2
100
AcDbEntity
  8
UMRISS05
100
AcDbLine
 10
389.1253054279846
 20
431.7600177480005
 30
0.0
 11
388.0646452562048
 21
430.6993575762207
 31
0.0
  0
LINE
  5
142
330
2
100
AcDbEntity
  8
UMRISS05
100
AcDbLine
 10
387.7596200030355
 20
432.3257031729491
 30
0.0
 11
387.7596200030355
 21
430.8257031729492
 31
0.0
  0
ARC
  5
143
330
2
100
AcDbEntity
  8
UMRISS05
100
AcDbCircle
 10
374.3596200030359
 20
431.5373907687047
 30
0.0
 40
0.2
100
AcDbArc
 50
295.0289994876284
 51
0.0
  0
LINE
  5
144
330
2
100
AcDbEntity
  8
UMRISS05
100
AcDbLine
 10
374.5596200030357
 20
431.5373907687047
 30
0.0
 11
374.5596200030357
 21
432.3257031729491
 31
0.0
  0
ARC
  5
145
330
2
100
AcDbEntity
  8
UMRISS05
100
AcDbCircle
 10
378.759620003036
 20
431.5373907687047
 30
0.0
 40
0.2
100
AcDbArc
 50
180.0
 51
244.9710005123717
  0
LINE
  5
146
330
2
100
AcDbEntity
  8
UMRISS05
100
AcDbLine
 10
378.5596200030357
 20
431.5373907687047
 30
0.0
 11
378.5596200030357
 21
432.3257031729491
 31
0.0
  0
LINE
  5
147
330
2
100
AcDbEntity
  8
UMRISS05
100
AcDbLine
 10
378.5596200030352
 20
432.3257031729492
 30
0.0
 11
387.7596200030355
 21
432.3257031729491
 31
0.0
  0
LINE
  5
148
330
2
100
AcDbEntity
  8
UMRISS05
100
AcDbLine
 10
405.5596200030356
 20
415.3257031729491
 30
0.0
 11
404.4989598312558
 21
414.2650430011694
 31
0.0
  0
LINE
  5
149
330
2
100
AcDbEntity
  8
UMRISS05
100
AcDbLine
 10
404.4989598312558
 20
414.2650430011694
 30
0.0
 11
405.558075227318
 21
413.2059276051072
 31
0.0
  0
LINE
  5
14A
330
2
100
AcDbEntity
  8
ACHSEN
100
AcDbLine
 10
369.8042870450692
 20
426.8257031729496
 30
0.0
 11
383.3149529610016
 21
426.8257031729496
 31
0.0
  0
LINE
  5
14B
330
2
100
AcDbEntity
  8
ACHSEN
100
AcDbLine
 10
383.0186466132743
 20
426.8257031729496
 30
0.0
 11
370.100593392797
 21
426.8257031729496
 31
0.0
  0
LINE
  5
14C
330
2
100
AcDbEntity
  8
1855
100
AcDbLine
 10
380.5596200030359
 20
384.8257031729502
 30
0.0
 11
380.5596200030359
 21
376.8257031729502
 31
0.0
  0
LINE
  5
14D
330
2
100
AcDbEntity
  8
1855
100
AcDbLine
 10
380.5596200030359
 20
384.8257031729502
 30
0.0
 11
372.5596200030354
 21
384.8257031729501
 31
0.0
  0
LINE
  5
14E
330
2
100
AcDbEntity
  8
1855
100
AcDbLine
 10
372.5596200030354
 20
384.8257031729501
 30
0.0
 11
372.5596200030357
 21
376.8257031729502
 31
0.0
  0
LINE
  5
14F
330
2
100
AcDbEntity
  8
1855
100
AcDbLine
 10
372.5596200030357
 20
376.8257031729502
 30
0.0
 11
380.5596200030359
 21
376.8257031729502
 31
0.0
  0
LINE
  5
150
330
2
100
AcDbEntity
  8
ACHSEN
100
AcDbLine
 10
399.7735096891508
 20
380.8257031729498
 30
0.0
 11
353.2308417397814
 21
380.8257031729498
 31
0.0
  0
DIMENSION
  5
151
330
2
100
AcDbEntity
  8
BEMASSUNG
  6
Continuous
100
AcDbDimension
  2
*D9
 10
372.5596200030357
 20
395.4117212561178
 30
0.0
 11
365.0603751315821
 21
399.1212032782346
 31
0.0
 70
   128
  1
9
 71
     5
 42
7.999999999999886
  3
Katalog 09
100
AcDbAlignedDimension
 13
380.5596200030355
 23
384.8257031729505
 33
0.0
 14
372.5596200030357
 24
384.8257031729503
 34
0.0
100
AcDbRotatedDimension
1001
ACAD_DSTYLE_DIMINSPECT
1070
   396
1000
100%
1070
   395
1000

1070
   394
1070
    33
1070
   393
1070
     0
  0
CIRCLE
  5
160
330
2
100
AcDbEntity
  8
UMRISS05
100
AcDbCircle
 10
376.5596200030357
 20
380.8257031729502
 30
0.0
 40
8.0
  0
LINE
  5
161
330
2
100
AcDbEntity
  8
ACHSEN
100
AcDbLine
 10
400.1596200030355
 20
380.82570317295
 30
0.0
 11
352.9596200030358
 21
380.8257031729502
 31
0.0
  0
DIMENSION
  5
162
330
2
100
AcDbEntity
  8
BEMASSUNG
  6
Continuous
100
AcDbDimension
  2
*D8
 10
395.5596200030356
 20
404.7115768776018
 30
0.0
 11
376.5596200030357
 21
407.9340530031134
 31
0.0
 71
     5
 42
38.0
  3
Katalog 09
100
AcDbAlignedDimension
 13
357.5596200030357
 23
385.4257031729501
 33
0.0
 14
395.5596200030356
 24
385.4257031729501
 34
0.0
100
AcDbRotatedDimension
  0
DIMENSION
  5
16F
330
2
100
AcDbEntity
  8
BEMASSUNG
  6
Continuous
100
AcDbDimension
  2
*D7
 10
420.5902737737566
 20
426.8257031729499
 30
0.0
 11
417.3692812771671
 21
403.82570317295
 31
0.0
 71
     5
 42
45.99999999999994
  3
Katalog 09
100
AcDbAlignedDimension
 13
400.1596200030355
 23
380.82570317295
 33
0.0
 14
383.5596200030357
 24
426.8257031729499
 34
0.0
 50
90.0
100
AcDbRotatedDimension
  0
ARC
  5
17C
330
2
100
AcDbEntity
  8
UMRISS05
100
AcDbCircle
 10
376.5596200030357
 20
426.8257031729499
 30
0.0
 40
5.0
100
AcDbArc
 50
115.7192795021853
 51
64.28072049781468
  0
LINE
  5
17D
330
2
100
AcDbEntity
  8
UMRISS05
100
AcDbLine
 10
389.1253054279846
 20
431.7600177480005
 30
0.0
 11
405.5596200030356
 21
415.3257031729491
 31
0.0
  0
CIRCLE
  5
17E
330
2
100
AcDbEntity
  8
UMRISS05
100
AcDbCircle
 10
376.5596200030357
 20
426.8257031729499
 30
0.0
 40
4.5
  0
DIMENSION
  5
17F
330
2
100
AcDbEntity
  8
BEMASSUNG
  6
Continuous
100
AcDbDimension
  2
*D6
 10
431.830222796637
 20
380.82570317295
 30
0.0
 11
428.6092303000476
 21
406.5757031729502
 31
0.0
 71
     5
 42
51.50000000000023
  3
Katalog 09
100
AcDbAlignedDimension
 13
387.7596200030355
 23
432.3257031729501
 33
0.0
 14
400.1596200030355
 24
380.82570317295
 34
0.0
 50
90.0
100
AcDbRotatedDimension
  0
DIMENSION
  5
18C
330
2
100
AcDbEntity
  8
BEMASSUNG
  6
Continuous
100
AcDbDimension
  2
*D5
 10
381.0596200030357
 20
443.0598541767099
 30
0.0
 11
376.3017019715144
 21
447.2945275475636
 31
0.0
 70
   128
 71
     5
 42
9.0
  3
Katalog 09
100
AcDbAlignedDimension
 13
372.0596200030357
 23
426.8257031729499
 33
0.0
 14
381.0596200030357
 24
426.8257031729499
 34
0.0
100
AcDbRotatedDimension
  0
DIMENSION
  5
19B
330
2
100
AcDbEntity
  8
BEMASSUNG
  6
Continuous
100
AcDbDimension
  2
*D4
 10
482.9414503813357
 20
408.4653394942509
 30
0.0
 11
473.6004045294658
 21
413.4649079334971
 31
0.0
 70
   128
 71
     5
 42
3.40000000000009
  3
Katalog 09
100
AcDbAlignedDimension
 13
486.3414503813357
 23
403.8930903967477
 33
0.0
 14
482.9414503813357
 24
404.1955164566318
 34
0.0
100
AcDbRotatedDimension
  0
LINE
  5
1AA
330
2
100
AcDbEntity
  8
UMRISS05
100
AcDbLine
 10
316.5596200030357
 20
467.825703172949
 30
0.0
 11
319.5596200030357
 21
467.825703172949
 31
0.0
  0
DIMENSION
  5
1AB
330
2
100
AcDbEntity
  8
BEMASSUNG
  6
Continuous
100
AcDbDimension
  2
*D3
 10
289.7948717266059
 20
432.3257031729491
 30
0.0
 11
286.5723956010941
 21
450.0757031729491
 31
0.0
 71
     5
 42
35.49999999999989
  3
Katalog 09
100
AcDbAlignedDimension
 13
316.5596200030357
 23
467.825703172949
 33
0.0
 14
319.5596200030339
 24
432.3257031729491
 34
0.0
 50
90.0
100
AcDbRotatedDimension
  0
DIMENSION
  5
1B8
330
2
100
AcDbEntity
  8
BEMASSUNG
  6
Continuous
100
AcDbDimension
  2
*D2
 10
289.8082533386561
 20
417.8257031729491
 30
0.0
 11
286.2721157539318
 21
404.3237125032929
 31
0.0
 70
   128
 71
     5
 42
30.0
  3
Katalog 09
100
AcDbAlignedDimension
 13
307.0610499237166
 23
387.8257031729491
 33
0.0
 14
307.0610499237166
 24
417.8257031729491
 34
0.0
 50
90.0
100
AcDbRotatedDimension
  0
DIMENSION
  5
1C5
330
2
100
AcDbEntity
  8
BEMASSUNG
  6
Continuous
100
AcDbDimension
  2
*D1
 10
289.8702219274024
 20
432.3257031729491
 30
0.0
 11
285.6584352896689
 21
425.4239955381308
 31
0.0
 70
   128
 71
     5
 42
14.50000935510763
  3
Katalog 09
100
AcDbAlignedDimension
 13
306.5696374348081
 23
417.8256938178415
 33
0.0
 14
319.5596200030339
 24
432.3257031729491
 34
0.0
 50
90.0
100
AcDbRotatedDimension
  0
DIMENSION
  5
1D2
330
2
100
AcDbEntity
  8
BEMASSUNG
  6
Continuous
100
AcDbDimension
  2
*D0
 10
316.5596200030362
 20
422.9024932998393
 30
0.0
 11
311.5603349633764
 21
426.1234857964287
 31
0.0
 71
     5
 42
9.99857007931962
  3
Katalog 09
100
AcDbAlignedDimension
 13
306.5610499237166
 23
416.9177775541211
 33
0.0
 14
316.5596200030362
 24
425.5851346035894
 34
0.0
100
AcDbRotatedDimension
  0
LINE
  5
1E1
330
2
100
AcDbEntity
  8
UMRISS05
100
AcDbLine
 10
319.5596200030339
 20
432.3257031729491
 30
0.0
 11
374.5596200030352
 21
432.3257031729492
 31
0.0
  0
LINE
  5
1E2
330
2
100
AcDbEntity
  8
ACHSEN
100
AcDbLine
 10
484.1914503813357
 20
284.4257031729497
 30
0.0
 11
497.6914503813357
 21
284.4257031729497
 31
0.0
  0
CIRCLE
  5
1E3
330
2
100
AcDbEntity
  8
UMRISS05
100
AcDbCircle
 10
490.9414503813357
 20
284.4257031729497
 30
0.0
 40
2.75
  0
CIRCLE
  5
1E4
330
2
100
AcDbEntity
  8
UMRISS05
100
AcDbCircle
 10
490.9414503813357
 20
284.4257031729497
 30
0.0
 40
4.75
  0
LINE
  5
1E5
330
2
100
AcDbEntity
  8
ACHSEN
100
AcDbLine
 10
490.9414503813357
 20
291.1757031729497
 30
0.0
 11
490.9414503813357
 21
277.6757031729498
 31
0.0
  0
LINE
  5
1E6
330
2
100
AcDbEntity
  8
ACHSEN
100
AcDbLine
 10
382.9222304029738
 20
359.3257031729534
 30
0.0
 11
370.1970096030975
 21
359.3257031729534
 31
0.0
  0
CIRCLE
  5
1E7
330
2
100
AcDbEntity
  8
UMRISS05
100
AcDbCircle
 10
376.5596200030357
 20
359.3257031729536
 30
0.0
 40
5.0
  0
LINE
  5
1E8
330
2
100
AcDbEntity
  8
ACHSEN
100
AcDbLine
 10
383.5596200030357
 20
359.3257031729536
 30
0.0
 11
369.5596200030357
 21
359.3257031729536
 31
0.0
  0
LINE
  5
1E9
330
2
100
AcDbEntity
  8
UMRISS05
100
AcDbLine
 10
405.5596200030356
 20
290.3257031729503
 30
0.0
 11
404.4989598312558
 21
291.3863633447301
 31
0.0
  0
LINE
  5
1EA
330
2
100
AcDbEntity
  8
UMRISS05
100
AcDbLine
 10
405.5596200030356
 20
290.3257031729503
 30
0.0
 11
404.4989598312558
 21
291.3863633447301
 31
0.0
  0
LINE
  5
1EB
330
2
100
AcDbEntity
  8
UMRISS05
100
AcDbLine
 10
404.4989598312558
 20
291.3863633447301
 30
0.0
 11
405.5596200030351
 21
292.4470235165097
 31
0.0
  0
LINE
  5
1EC
330
2
100
AcDbEntity
  8
ACHSEN
100
AcDbLine
 10
401.0596200030356
 20
295.4257031729503
 30
0.0
 11
390.0596200030357
 21
295.4257031729503
 31
0.0
  0
LINE
  5
1ED
330
2
100
AcDbEntity
  8
ACHSEN
100
AcDbLine
 10
386.5596200030357
 20
292.9257031729501
 30
0.0
 11
386.5596200030357
 21
283.7257031729498
 31
0.0
  0
LINE
  5
1EE
330
2
100
AcDbEntity
  8
ACHSEN
100
AcDbLine
 10
391.1596200030356
 20
288.3257031729499
 30
0.0
 11
381.9596200030357
 21
288.3257031729499
 31
0.0
  0
CIRCLE
  5
1EF
330
2
100
AcDbEntity
  8
UMRISS05
100
AcDbCircle
 10
386.5596200030357
 20
288.3257031729499
 30
0.0
 40
2.6
  0
LINE
  5
1F0
330
2
100
AcDbEntity
  8
ACHSEN
100
AcDbLine
 10
395.5596200030356
 20
300.9257031729503
 30
0.0
 11
395.5596200030356
 21
289.9257031729503
 31
0.0
  0
CIRCLE
  5
1F1
330
2
100
AcDbEntity
  8
UMRISS05
100
AcDbCircle
 10
395.5596200030356
 20
295.4257031729503
 30
0.0
 40
3.5
  0
LINE
  5
1F2
330
2
100
AcDbEntity
  8
ACHSEN
100
AcDbLine
 10
366.5596200030357
 20
292.9257031729501
 30
0.0
 11
366.5596200030357
 21
283.7257031729498
 31
0.0
  0
CIRCLE
  5
1F3
330
2
100
AcDbEntity
  8
UMRISS05
100
AcDbCircle
 10
366.5596200030357
 20
288.3257031729499
 30
0.0
 40
2.6
  0
LINE
  5
1F4
330
2
100
AcDbEntity
  8
ACHSEN
100
AcDbLine
 10
371.1596200030356
 20
288.3257031729499
 30
0.0
 11
361.9596200030358
 21
288.3257031729499
 31
0.0
  0
LINE
  5
1F5
330
2
100
AcDbEntity
  8
ACHSEN
100
AcDbLine
 10
363.0596200030357
 20
295.4257031729503
 30
0.0
 11
352.0596200030357
 21
295.4257031729503
 31
0.0
  0
CIRCLE
  5
1F6
330
2
100
AcDbEntity
  8
UMRISS05
100
AcDbCircle
 10
357.5596200030357
 20
295.4257031729503
 30
0.0
 40
3.5
  0
LINE
  5
1F7
330
2
100
AcDbEntity
  8
ACHSEN
100
AcDbLine
 10
357.5596200030357
 20
300.9257031729503
 30
0.0
 11
357.5596200030357
 21
289.9257031729503
 31
0.0
  0
LINE
  5
1F8
330
2
100
AcDbEntity
  8
ACHSEN
100
AcDbLine
 10
389.434849270315
 20
302.8257031729496
 30
0.0
 11
363.6843907357563
 21
302.8257031729496
 31
0.0
  0
LINE
  5
1F9
330
2
100
AcDbEntity
  8
ACHSEN
100
AcDbLine
 10
370.6064853928895
 20
283.6257031729494
 30
0.0
 11
382.5127546131819
 21
283.6257031729496
 31
0.0
  0
LINE
  5
1FA
330
2
100
AcDbEntity
  8
UMRISS05
100
AcDbLine
 10
387.7596200030355
 20
274.8257031729504
 30
0.0
 11
388.0646452562048
 21
274.9520487696788
 31
0.0
  0
LINE
  5
1FB
330
2
100
AcDbEntity
  8
UMRISS05
100
AcDbLine
 10
389.1253054279846
 20
273.891388597899
 30
0.0
 11
388.0646452562048
 21
274.9520487696788
 31
0.0
  0
LINE
  5
1FC
330
2
100
AcDbEntity
  8
UMRISS05
100
AcDbLine
 10
387.7596200030355
 20
273.3257031729494
 30
0.0
 11
387.7596200030355
 21
274.8257031729504
 31
0.0
  0
LWPOLYLINE
  5
1FD
330
2
100
AcDbEntity
  8
ACHSEN
100
AcDbPolyline
 90
        4
 70
     1
 43
0.0
 10
371.4596200030357
 20
282.8257031729497
 10
371.4596200030357
 20
295.9011093220443
 42
-3.044038009981497
 10
381.6596200030356
 20
295.9011093220443
 10
381.6596200030356
 20
282.8257031729497
 42
-0.9999999999999998
  0
LINE
  5
1FE
330
2
100
AcDbEntity
  8
UMRISS05
100
AcDbLine
 10
389.1253054279846
 20
273.891388597899
 30
0.0
 11
405.5596200030356
 21
290.3257031729503
 31
0.0
  0
DIMENSION
  5
1FF
330
2
100
AcDbEntity
  8
BEMASSUNG
  6
Continuous
100
AcDbDimension
  2
*D26
 10
431.7671483734297
 20
273.3257031729494
 30
0.0
 11
428.5461558768403
 21
288.0757031729496
 31
0.0
 71
     5
 42
29.50000000000023
  3
Katalog 09
100
AcDbAlignedDimension
 13
389.434849270315
 23
302.8257031729496
 33
0.0
 14
387.7596200030355
 24
273.3257031729494
 34
0.0
 50
90.0
100
AcDbRotatedDimension
  0
LWPOLYLINE
  5
20C
330
2
100
AcDbEntity
  8
UMRISS05
100
AcDbPolyline
 90
        4
 70
     1
 43
0.0
 10
381.6596200030356
 20
283.6257031729497
 10
381.6596200030356
 20
292.9666971378567
 42
4.109609026488815
 10
371.4596200030357
 20
292.9666971378567
 10
371.4596200030357
 20
283.6257031729497
 42
1.0
  0
LINE
  5
20D
330
2
100
AcDbEntity
  8
ACHSEN
100
AcDbLine
 10
486.1914503813356
 20
246.8257031729494
 30
0.0
 11
499.6914503813356
 21
246.8257031729494
 31
0.0
  0
CIRCLE
  5
20E
330
2
100
AcDbEntity
  8
UMRISS05
100
AcDbCircle
 10
492.9414503813356
 20
246.8257031729494
 30
0.0
 40
2.549999999999999
  0
CIRCLE
  5
20F
330
2
100
AcDbEntity
  8
UMRISS05
100
AcDbCircle
 10
492.9414503813356
 20
246.8257031729494
 30
0.0
 40
4.75
  0
ARC
  5
210
330
2
100
AcDbEntity
  8
UMRISS05
100
AcDbCircle
 10
492.9414503813356
 20
247.8257031729494
 30
0.0
 40
10.0
100
AcDbArc
 50
180.0
 51
0.0
  0
DIMENSION
  5
211
330
2
100
AcDbEntity
  8
BEMASSUNG
  6
Continuous
100
AcDbDimension
  2
*D25
 10
502.9414503813357
 20
215.3668905872266
 30
0.0
 11
492.3132332741233
 21
220.6925293864911
 31
0.0
 70
   128
  1
<>
 71
     5
 42
20.0
  3
Katalog 09
100
AcDbAlignedDimension
 13
482.9414503813357
 23
247.8257031729494
 33
0.0
 14
502.9414503813357
 24
247.8257031729494
 34
0.0
100
AcDbRotatedDimension
1001
ACAD_DSTYLE_DIMINSPECT
1070
   396
1000
100%
1070
   395
1000

1070
   394
1070
    33
1070
   393
1070
     0
  0
LINE
  5
21E
330
2
100
AcDbEntity
  8
UMRISS05
100
AcDbLine
 10
372.0596200030311
 20
184.845528265903
 30
0.0
 11
381.0596200030311
 21
184.845528265903
 31
0.0
  0
LINE
  5
21F
330
2
100
AcDbEntity
  8
UMRISS05
100
AcDbLine
 10
355.7685056021749
 20
186.3455282659033
 30
0.0
 11
405.559620003031
 21
186.3455282659028
 31
0.0
  0
LINE
  5
220
330
2
100
AcDbEntity
  8
UMRISS05
100
AcDbLine
 10
372.0596200030311
 20
174.645528265903
 30
0.0
 11
381.0596200030311
 21
174.645528265903
 31
0.0
  0
DIMENSION
  5
221
330
2
100
AcDbEntity
  8
BEMASSUNG
  6
Continuous
100
AcDbDimension
  2
*D24
 10
427.886132913041
 20
173.145528265903
 30
0.0
 11
423.2160846036976
 21
179.5413218126732
 31
0.0
 70
   128
 71
     5
 42
13.19999999999982
  3
Katalog 09
100
AcDbAlignedDimension
 13
405.559620003031
 23
186.3455282659028
 33
0.0
 14
405.559620003031
 24
173.145528265903
 34
0.0
 50
90.0
100
AcDbRotatedDimension
  0
LINE
  5
22E
330
2
100
AcDbEntity
  8
UMRISS05
100
AcDbLine
 10
405.5596200030361
 20
185.3455282659032
 30
0.0
 11
405.5596200030356
 21
174.1455282659033
 31
0.0
  0
LINE
  5
22F
330
2
100
AcDbEntity
  8
UMRISS05
100
AcDbLine
 10
372.0596200030311
 20
173.145528265903
 30
0.0
 11
372.0596200030316
 21
186.345528265903
 31
0.0
  0
LINE
  5
230
330
2
100
AcDbEntity
  8
UMRISS05
100
AcDbLine
 10
381.0596200030311
 20
173.145528265903
 30
0.0
 11
381.0596200030316
 21
186.345528265903
 31
0.0
  0
LINE
  5
231
330
2
100
AcDbEntity
  8
UMRISS05
100
AcDbLine
 10
387.9382996594716
 20
186.345528265903
 30
0.0
 11
387.9382996594716
 21
173.145528265903
 31
0.0
  0
LINE
  5
232
330
2
100
AcDbEntity
  8
UMRISS05
100
AcDbLine
 10
388.9989598312516
 20
186.345528265903
 30
0.0
 11
388.9989598312516
 21
173.145528265903
 31
0.0
  0
LINE
  5
233
330
2
100
AcDbEntity
  8
UMRISS05
100
AcDbLine
 10
405.559620003031
 20
186.3455282659028
 30
0.0
 11
405.559620003031
 21
173.145528265903
 31
0.0
  0
LINE
  5
234
330
2
100
AcDbEntity
  8
ACHSEN
100
AcDbLine
 10
492.9414503813356
 20
253.5757031729494
 30
0.0
 11
492.9414503813356
 21
240.0757031729494
 31
0.0
  0
DIMENSION
  5
235
330
2
100
AcDbEntity
  8
BEMASSUNG
  6
Continuous
100
AcDbDimension
  2
*D23
 10
289.8082533386561
 20
309.8256938178408
 30
0.0
 11
286.5857772131444
 21
291.5756984953952
 31
0.0
 71
     5
 42
36.49999064489146
  3
Katalog 09
100
AcDbAlignedDimension
 13
319.5596200030311
 23
273.3257031729494
 33
0.0
 14
296.5696200030361
 24
309.8256938178408
 34
0.0
 50
90.0
100
AcDbRotatedDimension
  0
DIMENSION
  5
242
330
2
100
AcDbEntity
  8
BEMASSUNG
  6
Continuous
100
AcDbDimension
  2
*D22
 10
289.8082533386561
 20
339.8256939154089
 30
0.0
 11
286.2632363352959
 21
324.467861612376
 31
0.0
 70
   128
 71
     5
 42
30.00000009756803
  3
Katalog 09
100
AcDbAlignedDimension
 13
307.0610499237166
 23
309.8256938178408
 33
0.0
 14
307.0610499237166
 24
339.8256939154089
 34
0.0
 50
90.0
100
AcDbRotatedDimension
  0
LINE
  5
24F
330
2
100
AcDbEntity
  8
UMRISS05
100
AcDbLine
 10
316.5596200030352
 20
237.8257031729494
 30
0.0
 11
319.5596200030352
 21
237.8257031729494
 31
0.0
  0
LINE
  5
250
330
2
100
AcDbEntity
  8
UMRISS05
100
AcDbLine
 10
316.5596200030352
 20
187.3455282659033
 30
0.0
 11
319.5596200030311
 21
187.3455282659033
 31
0.0
  0
LINE
  5
251
330
2
100
AcDbEntity
  8
UMRISS05
100
AcDbLine
 10
316.5596200030352
 20
167.3455282659033
 30
0.0
 11
319.5596200030311
 21
167.3455282659033
 31
0.0
  0
LINE
  5
252
330
2
100
AcDbEntity
  8
UMRISS05
100
AcDbLine
 10
319.5596200030311
 20
173.1455282659032
 30
0.0
 11
319.5596200030311
 21
173.4955282659032
 31
0.0
  0
LINE
  5
253
330
2
100
AcDbEntity
  8
UMRISS05
100
AcDbLine
 10
316.5596200030352
 20
187.3455282659033
 30
0.0
 11
316.5596200030352
 21
167.3455282659033
 31
0.0
  0
LINE
  5
254
330
2
100
AcDbEntity
  8
UMRISS05
100
AcDbLine
 10
319.5596200030311
 20
187.3455282659033
 30
0.0
 11
319.5596200030311
 21
167.3455282659033
 31
0.0
  0
DIMENSION
  5
255
330
2
100
AcDbEntity
  8
BEMASSUNG
  6
Continuous
100
AcDbDimension
  2
*D21
 10
289.7665585921382
 20
237.8257031729494
 30
0.0
 11
286.5440824666265
 21
255.5757031729494
 31
0.0
 71
     5
 42
35.5
  3
Katalog 09
100
AcDbAlignedDimension
 13
319.5596200030311
 23
273.3257031729494
 33
0.0
 14
316.5596200030352
 24
237.8257031729494
 34
0.0
 50
90.0
100
AcDbRotatedDimension
  0
LINE
  5
262
330
2
100
AcDbEntity
  8
UMRISS05
100
AcDbLine
 10
319.5596200030311
 20
186.3455282659033
 30
0.0
 11
404.559620003036
 21
186.3455282659032
 31
0.0
  0
LINE
  5
263
330
2
100
AcDbEntity
  8
UMRISS05
100
AcDbLine
 10
319.5596200030311
 20
173.1455282659032
 30
0.0
 11
405.559620003031
 21
173.145528265903
 31
0.0
  0
DIMENSION
  5
264
330
2
100
AcDbEntity
  8
BEMASSUNG
  6
Continuous
100
AcDbDimension
  2
*D20
 10
336.1055002133172
 20
186.3455282659033
 30
0.0
 11
332.232718463576
 21
192.7754085304314
 31
0.0
 70
   128
 71
     5
 42
1.000000000000028
  3
Katalog 09
100
AcDbAlignedDimension
 13
319.5596200030311
 23
187.3455282659033
 33
0.0
 14
337.5669051438567
 24
186.3455282659033
 34
0.0
 50
90.0
100
AcDbRotatedDimension
  0
LINE
  5
273
330
2
100
AcDbEntity
  8
UMRISS05
100
AcDbLine
 10
319.5596200030311
 20
273.3257031729494
 30
0.0
 11
387.7596200030355
 21
273.3257031729494
 31
0.0
  0
LINE
  5
274
330
2
100
AcDbEntity
  8
ACHSEN
100
AcDbLine
 10
376.5596200030357
 20
433.5174706437442
 30
0.0
 11
376.5596200030357
 21
276.5257031729495
 31
0.0
  0
LINE
  5
275
330
2
100
AcDbEntity
  8
UMRISS05
100
AcDbLine
 10
502.9414503813357
 20
457.825703172949
 30
0.0
 11
502.9414503813357
 21
247.8257031729494
 31
0.0
  0
LINE
  5
276
330
2
100
AcDbEntity
  8
UMRISS05
100
AcDbLine
 10
482.9414503813357
 20
457.825703172949
 30
0.0
 11
482.9414503813357
 21
247.8257031729494
 31
0.0
  0
LINE
  5
277
330
2
100
AcDbEntity
  8
UMRISS05
100
AcDbLine
 10
316.5596200030352
 20
237.8257031729494
 30
0.0
 11
316.5596200030357
 21
467.825703172949
 31
0.0
  0
LINE
  5
278
330
2
100
AcDbEntity
  8
UMRISS05
100
AcDbLine
 10
319.5596200030352
 20
237.8257031729494
 30
0.0
 11
319.5596200030357
 21
467.825703172949
 31
0.0
  0
LINE
  5
279
330
2
100
AcDbEntity
  8
UMRISS05
100
AcDbLine
 10
405.558075227318
 20
413.2059276051072
 30
0.0
 11
405.5580752273171
 21
292.4454787407917
 31
0.0
  0
DIMENSION
  5
27A
330
2
100
AcDbEntity
  8
BEMASSUNG
  6
Continuous
100
AcDbDimension
  2
*D19
 10
431.830222796637
 20
302.8257031729497
 30
0.0
 11
428.6092303000476
 21
341.82570317295
 31
0.0
 71
     5
 42
78.00000000000022
  3
Katalog 09
100
AcDbAlignedDimension
 13
400.1596200030355
 23
380.82570317295
 33
0.0
 14
389.6596200030356
 24
302.8257031729497
 34
0.0
 50
90.0
100
AcDbRotatedDimension
  0
DIMENSION
  5
287
330
2
100
AcDbEntity
  8
BEMASSUNG
  6
Continuous
100
AcDbDimension
  2
*D18
 10
420.5902737737566
 20
359.3257031729535
 30
0.0
 11
417.3692812771672
 21
370.0757031729519
 31
0.0
 71
     5
 42
21.49999999999642
  3
Katalog 09
100
AcDbAlignedDimension
 13
400.1596200030355
 23
380.82570317295
 33
0.0
 14
383.5596200030357
 24
359.3257031729536
 34
0.0
 50
90.0
100
AcDbRotatedDimension
  0
DIMENSION
  5
294
330
2
100
AcDbEntity
  8
BEMASSUNG
  6
Continuous
100
AcDbDimension
  2
*D17
 10
289.8082533386561
 20
387.8256938178413
 30
0.0
 11
286.5872608420666
 21
363.8256938178412
 31
0.0
 71
     5
 42
48.00000000000034
  3
Katalog 09
100
AcDbAlignedDimension
 13
296.5696200030361
 23
339.825693817841
 33
0.0
 14
306.5696374348081
 24
387.8256938178413
 34
0.0
 50
90.0
100
AcDbRotatedDimension
  0
DIMENSION
  5
2A1
330
2
100
AcDbEntity
  8
BEMASSUNG
  6
Continuous
100
AcDbDimension
  2
*D16
 10
272.9138838636114
 20
237.8257031729494
 30
0.0
 11
268.9663175135911
 21
355.9893432640706
 31
0.0
 70
   128
 71
     5
 42
229.9999999999997
  3
Katalog 09
100
AcDbAlignedDimension
 13
316.5596200030357
 23
467.825703172949
 33
0.0
 14
316.5596200030352
 24
237.8257031729494
 34
0.0
 50
90.0
100
AcDbRotatedDimension
  0
DIMENSION
  5
2AE
330
2
100
AcDbEntity
  8
BEMASSUNG
  6
Continuous
100
AcDbDimension
  2
*D15
 10
442.6755906940615
 20
273.3257031729502
 30
0.0
 11
438.6802920262157
 21
351.9621067843052
 31
0.0
 70
   128
 71
     5
 42
159.0
  3
Katalog 09
100
AcDbAlignedDimension
 13
387.7596200030355
 23
432.3257031729501
 33
0.0
 14
387.7596200030355
 24
273.3257031729502
 34
0.0
 50
90.0
100
AcDbRotatedDimension
  0
ENDSEC
  0
SECTION
  2
OBJECTS
  0
DICTIONARY
  5
B
330
0
100
AcDbDictionary
281
     1
  3
ACAD_2007HEADERVARS_RT
350
31B
  3
ACAD_COLOR
350
4A
  3
ACAD_GROUP
350
37
  3
ACAD_LAYOUT
350
18
  3
ACAD_MATERIAL
350
D
  3
ACAD_MLEADERSTYLE
350
4D
  3
ACAD_PLOTSETTINGS
350
39
  3
ACAD_PLOTSTYLENAME
350
A
  3
ACAD_SCALELIST
350
4B
  3
ACAD_TABLESTYLE
350
4C
  3
ACAD_VISUALSTYLE
350
2B
  3
ACDB_RECOMPOSE_DATA
350
31A
  3
AcDbVariableDictionary
350
30F
  3
AcmDictionary
350
2CC
  3
AMG
350
2BD
  0
DICTIONARY
  5
1E
330
1D
100
AcDbDictionary
280
     1
281
     1
  3
ACAD_LAYERSTATES
360
1F
  0
DICTIONARY
  5
7
330
6
100
AcDbDictionary
280
     1
281
     1
  3
ADSK_XREC_LAYER_RECONCILED
360
8
  0
DICTIONARY
  5
8E
330
8D
100
AcDbDictionary
280
     1
281
     1
  3
ADSK_XREC_LAYER_RECONCILED
360
8F
  0
DICTIONARY
  5
6E
330
6D
100
AcDbDictionary
280
     1
281
     1
  3
ADSK_XREC_LAYER_RECONCILED
360
6F
  0
DICTIONARY
  5
4F
330
4E
100
AcDbDictionary
280
     1
281
     1
  3
ADSK_XREC_LAYER_RECONCILED
360
50
  0
DICTIONARY
  5
6A
330
69
100
AcDbDictionary
280
     1
281
     1
  3
ADSK_XREC_LAYER_RECONCILED
360
6B
  0
DICTIONARY
  5
A0
330
9F
100
AcDbDictionary
280
     1
281
     1
  0
DICTIONARY
  5
3
330
2
100
AcDbDictionary
280
     1
281
     1
  3
ACAD_SORTENTS
360
2BB
  0
DICTIONARY
  5
31B
102
{ACAD_REACTORS
330
B
102
}
330
B
100
AcDbDictionary
281
     1
  3
INTERFEREVPVS
350
31C
  0
DICTIONARY
  5
4A
102
{ACAD_REACTORS
330
B
102
}
330
B
100
AcDbDictionary
281
     1
  0
DICTIONARY
  5
37
102
{ACAD_REACTORS
330
B
102
}
330
B
100
AcDbDictionary
281
     1
  0
DICTIONARY
  5
18
102
{ACAD_REACTORS
330
B
102
}
330
B
100
AcDbDictionary
281
     1
  3
Layout1
350
1C
  3
Model
350
17
  0
DICTIONARY
  5
D
102
{ACAD_REACTORS
330
B
102
}
330
B
100
AcDbDictionary
281
     1
  3
ByBlock
350
42
  3
ByLayer
350
3A
  3
Global
350
C
  0
DICTIONARY
  5
4D
102
{ACAD_REACTORS
330
B
102
}
330
B
100
AcDbDictionary
281
     1
  0
DICTIONARY
  5
39
102
{ACAD_REACTORS
330
B
102
}
330
B
100
AcDbDictionary
281
     1
  0
ACDBDICTIONARYWDFLT
  5
A
102
{ACAD_REACTORS
330
B
102
}
330
B
100
AcDbDictionary
281
     1
  3
Normal
350
9
100
AcDbDictionaryWithDefault
340
9
  0
DICTIONARY
  5
4B
102
{ACAD_REACTORS
330
B
102
}
330
B
100
AcDbDictionary
281
     1
  3
A0
350
57
  3
A1
350
58
  3
A2
350
59
  3
A3
350
5A
  3
A4
350
5B
  3
A5
350
5C
  3
A6
350
5D
  3
A7
350
5E
  3
A8
350
5F
  3
A9
350
60
  3
B0
350
61
  3
B1
350
62
  3
B2
350
63
  3
B3
350
64
  3
B4
350
65
  3
B5
350
66
  3
B6
350
67
  0
DICTIONARY
  5
4C
102
{ACAD_REACTORS
330
B
102
}
330
B
100
AcDbDictionary
281
     1
  3
Standard
350
53
  0
DICTIONARY
  5
2B
102
{ACAD_REACTORS
330
B
102
}
330
B
100
AcDbDictionary
281
     1
  3
2dWireframe
350
2A
  3
3dWireframe
350
56
  3
Realistic
350
55
  0
XRECORD
  5
31A
102
{ACAD_REACTORS
330
B
102
}
330
B
100
AcDbXrecord
280
     1
 90
        1
330
53
  0
DICTIONARY
  5
30F
102
{ACAD_REACTORS
330
B
102
}
330
B
100
AcDbDictionary
281
     1
  3
CANNOSCALE
350
312
  3
CMLEADERSTYLE
350
311
  3
CTABLESTYLE
350
310
  3
DIMASSOC
350
317
  3
HIDETEXT
350
315
  3
INDEXCTL
350
314
  3
SORTENTS
350
313
  3
XCLIPFRAME
350
316
  0
DICTIONARY
  5
2CC
102
{ACAD_REACTORS
330
B
102
}
330
B
100
AcDbDictionary
281
     1
  3
AcmStdDictionary
350
2CD
  0
DICTIONARY
  5
2BD
102
{ACAD_REACTORS
330
B
102
}
330
B
100
AcDbDictionary
281
     1
  3
AcMgSettings
350
2C7
  0
DICTIONARY
  5
1F
102
{ACAD_REACTORS
330
1E
102
}
330
1E
100
AcDbDictionary
281
     1
  0
XRECORD
  5
8
102
{ACAD_REACTORS
330
7
102
}
330
7
100
AcDbXrecord
280
     1
290
     1
  0
XRECORD
  5
8F
102
{ACAD_REACTORS
330
8E
102
}
330
8E
100
AcDbXrecord
280
     1
290
     1
  0
XRECORD
  5
6F
102
{ACAD_REACTORS
330
6E
102
}
330
6E
100
AcDbXrecord
280
     1
290
     1
  0
XRECORD
  5
50
102
{ACAD_REACTORS
330
4F
102
}
330
4F
100
AcDbXrecord
280
     1
290
     1
  0
XRECORD
  5
6B
102
{ACAD_REACTORS
330
6A
102
}
330
6A
100
AcDbXrecord
280
     1
290
     1
  0
SORTENTSTABLE
  5
2BB
102
{ACAD_REACTORS
330
3
102
}
330
3
100
AcDbSortentsTable
330
2
331
21F
  5
AF
331
252
  5
9D
331
B5
  5
20D
331
12F
  5
FB
331
B1
  5
211
331
12B
  5
FF
331
AD
  5
221
331
EC
  5
14A
331
127
  5
103
331
E8
  5
14E
331
162
  5
E2
331
A9
  5
231
331
20F
  5
B3
331
242
  5
A4
331
A5
  5
235
331
E4
  5
160
331
E0
  5
17C
331
9D
  5
252
331
DC
  5
18C
331
117
  5
105
331
D8
  5
1B8
331
99
  5
262
331
279
  5
90
331
1FF
  5
B7
331
1FB
  5
BB
331
1F7
  5
BF
331
17D
  5
DF
331
1B8
  5
D8
331
1F3
  5
C3
331
232
  5
A8
331
D4
  5
1E2
331
14E
  5
E8
331
95
  5
274
331
91
  5
278
331
D0
  5
1E6
331
275
  5
94
331
14A
  5
EC
331
146
  5
F0
331
CC
  5
1EA
331
103
  5
127
331
142
  5
F4
331
C8
  5
1EE
331
1EF
  5
C7
331
22E
  5
AC
331
1EB
  5
CB
331
1E7
  5
CF
331
1E3
  5
D3
331
C4
  5
1F2
331
FF
  5
12B
331
13E
  5
F8
331
C0
  5
1F6
331
FB
  5
12F
331
7D
  5
294
331
BC
  5
1FA
331
F7
  5
13F
331
F3
  5
143
331
B8
  5
1FE
331
21E
  5
B0
331
255
  5
9A
331
251
  5
9E
331
B4
  5
20E
331
12E
  5
FC
331
B0
  5
21E
331
EF
  5
147
331
12A
  5
100
331
294
  5
7D
331
126
  5
104
331
AC
  5
22E
331
EB
  5
14B
331
161
  5
E3
331
A8
  5
232
331
6C
  5
2A1
331
68
  5
2AE
331
20E
  5
B4
331
18C
  5
DC
331
E7
  5
14F
331
A4
  5
242
331
E3
  5
161
331
DF
  5
17D
331
9C
  5
253
331
DB
  5
19B
331
116
  5
106
331
151
  5
E5
331
98
  5
263
331
278
  5
91
331
1FE
  5
B8
331
1FA
  5
BC
331
1F6
  5
C0
331
235
  5
A5
331
17C
  5
E0
331
1F2
  5
C4
331
231
  5
A9
331
D7
  5
1C5
331
94
  5
275
331
D3
  5
1E3
331
14D
  5
E9
331
90
  5
279
331
CF
  5
1E7
331
274
  5
95
331
149
  5
ED
331
145
  5
F1
331
8C
  5
27A
331
CB
  5
1EB
331
106
  5
116
331
102
  5
128
331
141
  5
F5
331
1EE
  5
C8
331
1EA
  5
CC
331
1AB
  5
D9
331
1E6
  5
D0
331
1E2
  5
D4
331
221
  5
AD
331
C7
  5
1EF
331
C3
  5
1F3
331
FE
  5
12C
331
13D
  5
F9
331
BF
  5
1F7
331
FA
  5
13C
331
264
  5
97
331
BB
  5
1FB
331
F6
  5
140
331
F2
  5
144
331
19B
  5
DB
331
254
  5
9B
331
211
  5
B1
331
250
  5
A2
331
B7
  5
1FF
331
B3
  5
20F
331
12D
  5
FD
331
AF
  5
21F
331
EE
  5
148
331
129
  5
101
331
AB
  5
22F
331
EA
  5
14C
331
160
  5
E4
331
1D2
  5
D6
331
20D
  5
B5
331
E6
  5
150
331
A7
  5
233
331
A3
  5
24F
331
E2
  5
162
331
287
  5
8B
331
DE
  5
17E
331
9B
  5
254
331
DA
  5
1AA
331
150
  5
E6
331
1FD
  5
B9
331
1F9
  5
BD
331
17F
  5
DD
331
1F5
  5
C1
331
234
  5
A6
331
1F1
  5
C5
331
230
  5
AA
331
D6
  5
1D2
331
97
  5
264
331
93
  5
276
331
D2
  5
1E4
331
277
  5
92
331
14C
  5
EA
331
148
  5
EE
331
CE
  5
1E8
331
273
  5
96
331
144
  5
F2
331
8B
  5
287
331
CA
  5
1EC
331
2AE
  5
68
331
105
  5
117
331
101
  5
129
331
140
  5
F6
331
1ED
  5
C9
331
1E9
  5
CD
331
16F
  5
E1
331
1AA
  5
DA
331
1E5
  5
D1
331
1E1
  5
D5
331
220
  5
AE
331
C6
  5
1F0
331
C2
  5
1F4
331
FD
  5
12D
331
13C
  5
FA
331
BE
  5
1F8
331
F9
  5
13D
331
263
  5
98
331
BA
  5
1FC
331
F5
  5
141
331
F1
  5
145
331
253
  5
9C
331
210
  5
B2
331
B6
  5
20C
331
B2
  5
210
331
12C
  5
FE
331
AE
  5
220
331
ED
  5
149
331
128
  5
102
331
E9
  5
14D
331
AA
  5
230
331
24F
  5
A3
331
20C
  5
B6
331
E5
  5
151
331
A6
  5
234
331
A2
  5
250
331
E1
  5
16F
331
9E
  5
251
331
DD
  5
17F
331
9A
  5
255
331
D9
  5
1AB
331
27A
  5
8C
331
1C5
  5
D7
331
1FC
  5
BA
331
1F8
  5
BE
331
17E
  5
DE
331
1F4
  5
C2
331
233
  5
A7
331
1F0
  5
C6
331
D5
  5
1E1
331
14F
  5
E7
331
96
  5
273
331
92
  5
277
331
D1
  5
1E5
331
276
  5
93
331
14B
  5
EB
331
147
  5
EF
331
CD
  5
1E9
331
104
  5
126
331
143
  5
F3
331
C9
  5
1ED
331
100
  5
12A
331
22F
  5
AB
331
1EC
  5
CA
331
1E8
  5
CE
331
1E4
  5
D2
331
C5
  5
1F1
331
13F
  5
F7
331
C1
  5
1F5
331
FC
  5
12E
331
BD
  5
1F9
331
2A1
  5
6C
331
F8
  5
13E
331
262
  5
99
331
B9
  5
1FD
331
F4
  5
142
331
F0
  5
146
  0
XRECORD
  5
31C
102
{ACAD_REACTORS
330
31B
102
}
330
31B
100
AcDbXrecord
280
     1
340
56
  0
LAYOUT
  5
1C
102
{ACAD_XDICTIONARY
360
320
102
}
102
{ACAD_REACTORS
330
18
102
}
330
18
100
AcDbPlotSettings
  1

  2
G:\VORLAGEN\AutoCAD2002\Plotten\A3hoch-MSL.pc3
  4

  6

 40
0.0
 41
0.0
 42
0.0
 43
0.0
 44
0.0
 45
0.0
 46
0.0
 47
0.0
 48
0.0
 49
0.0
140
0.0
141
0.0
142
1.0
143
1.0
 70
   688
 72
     0
 73
     0
 74
     5
  7
Katalog 09.ctb
 75
    16
147
1.0
148
0.0
149
0.0
100
AcDbLayout
  1
Layout1
 70
     1
 71
     1
 10
0.0
 20
0.0
 11
12.0
 21
9.0
 12
0.0
 22
0.0
 32
0.0
 14
1.000000000000000E+20
 24
1.000000000000000E+20
 34
1.000000000000000E+20
 15
-1.000000000000000E+20
 25
-1.000000000000000E+20
 35
-1.000000000000000E+20
146
0.0
 13
0.0
 23
0.0
 33
0.0
 16
1.0
 26
0.0
 36
0.0
 17
0.0
 27
1.0
 37
0.0
 76
     0
330
19
  0
LAYOUT
  5
17
102
{ACAD_XDICTIONARY
360
31E
102
}
102
{ACAD_REACTORS
330
18
102
}
330
18
100
AcDbPlotSettings
  1

  2
G:\VORLAGEN\AutoCAD2002\Plotten\A3hoch-MSL.pc3
  4
A3
  6

 40
6.085416793823242
 41
6.12772798538208
 42
5.662078857421875
 43
5.53509521484375
 44
296.9683227539062
 45
419.9889831542968
 46
0.0
 47
0.0
 48
0.0
 49
0.0
140
0.0
141
0.0
142
1.0
143
1.0
 70
 11952
 72
     1
 73
     1
 74
     0
  7
Katalog 09.ctb
 75
     0
147
1.0
148
500.5406631691881
149
273.6766449544727
100
AcDbLayout
  1
Model
 70
     1
 71
     0
 10
0.0
 20
0.0
 11
12.0
 21
9.0
 12
0.0
 22
0.0
 32
0.0
 14
0.0
 24
0.0
 34
0.0
 15
0.0
 25
0.0
 35
0.0
146
0.0
 13
0.0
 23
0.0
 33
0.0
 16
1.0
 26
0.0
 36
0.0
 17
0.0
 27
1.0
 37
0.0
 76
     0
330
2
331
29
  0
MATERIAL
  5
42
102
{ACAD_XDICTIONARY
360
43
102
}
102
{ACAD_REACTORS
330
D
102
}
330
D
100
AcDbMaterial
  1
ByBlock
 72
     0
 43
0.0208333333333333
 43
0.0
 43
0.0
 43
0.0
 43
0.0
 43
0.0208333333333333
 43
0.0
 43
0.0
 43
0.0
 43
0.0
 43
1.0
 43
0.0
 43
0.0
 43
0.0
 43
0.0
 43
1.0
 77
     0
 47
0.0208333333333333
 47
0.0
 47
0.0
 47
0.0
 47
0.0
 47
0.0208333333333333
 47
0.0
 47
0.0
 47
0.0
 47
0.0
 47
1.0
 47
0.0
 47
0.0
 47
0.0
 47
0.0
 47
1.0
171
     0
 49
0.0208333333333333
 49
0.0
 49
0.0
 49
0.0
 49
0.0
 49
0.0208333333333333
 49
0.0
 49
0.0
 49
0.0
 49
0.0
 49
1.0
 49
0.0
 49
0.0
 49
0.0
 49
0.0
 49
1.0
175
     0
142
0.0208333333333333
142
0.0
142
0.0
142
0.0
142
0.0
142
0.0208333333333333
142
0.0
142
0.0
142
0.0
142
0.0
142
1.0
142
0.0
142
0.0
142
0.0
142
0.0
142
1.0
179
     0
144
0.0208333333333333
144
0.0
144
0.0
144
0.0
144
0.0
144
0.0208333333333333
144
0.0
144
0.0
144
0.0
144
0.0
144
1.0
144
0.0
144
0.0
144
0.0
144
0.0
144
1.0
147
0.0208333333333333
147
0.0
147
0.0
147
0.0
147
0.0
147
0.0208333333333333
147
0.0
147
0.0
147
0.0
147
0.0
147
1.0
147
0.0
147
0.0
147
0.0
147
0.0
147
1.0
  0
MATERIAL
  5
3A
102
{ACAD_XDICTIONARY
360
3B
102
}
102
{ACAD_REACTORS
330
D
102
}
330
D
100
AcDbMaterial
  1
ByLayer
 72
     0
 43
0.0208333333333333
 43
0.0
 43
0.0
 43
0.0
 43
0.0
 43
0.0208333333333333
 43
0.0
 43
0.0
 43
0.0
 43
0.0
 43
1.0
 43
0.0
 43
0.0
 43
0.0
 43
0.0
 43
1.0
 77
     0
 47
0.0208333333333333
 47
0.0
 47
0.0
 47
0.0
 47
0.0
 47
0.0208333333333333
 47
0.0
 47
0.0
 47
0.0
 47
0.0
 47
1.0
 47
0.0
 47
0.0
 47
0.0
 47
0.0
 47
1.0
171
     0
 49
0.0208333333333333
 49
0.0
 49
0.0
 49
0.0
 49
0.0
 49
0.0208333333333333
 49
0.0
 49
0.0
 49
0.0
 49
0.0
 49
1.0
 49
0.0
 49
0.0
 49
0.0
 49
0.0
 49
1.0
175
     0
142
0.0208333333333333
142
0.0
142
0.0
142
0.0
142
0.0
142
0.0208333333333333
142
0.0
142
0.0
142
0.0
142
0.0
142
1.0
142
0.0
142
0.0
142
0.0
142
0.0
142
1.0
179
     0
144
0.0208333333333333
144
0.0
144
0.0
144
0.0
144
0.0
144
0.0208333333333333
144
0.0
144
0.0
144
0.0
144
0.0
144
1.0
144
0.0
144
0.0
144
0.0
144
0.0
144
1.0
147
0.0208333333333333
147
0.0
147
0.0
147
0.0
147
0.0
147
0.0208333333333333
147
0.0
147
0.0
147
0.0
147
0.0
147
1.0
147
0.0
147
0.0
147
0.0
147
0.0
147
1.0
  0
MATERIAL
  5
C
102
{ACAD_XDICTIONARY
360
E
102
}
102
{ACAD_REACTORS
330
D
102
}
330
D
100
AcDbMaterial
  1
Global
 72
     0
 43
0.0208333333333333
 43
0.0
 43
0.0
 43
0.0
 43
0.0
 43
0.0208333333333333
 43
0.0
 43
0.0
 43
0.0
 43
0.0
 43
1.0
 43
0.0
 43
0.0
 43
0.0
 43
0.0
 43
1.0
 77
     0
 47
0.0208333333333333
 47
0.0
 47
0.0
 47
0.0
 47
0.0
 47
0.0208333333333333
 47
0.0
 47
0.0
 47
0.0
 47
0.0
 47
1.0
 47
0.0
 47
0.0
 47
0.0
 47
0.0
 47
1.0
171
     0
 49
0.0208333333333333
 49
0.0
 49
0.0
 49
0.0
 49
0.0
 49
0.0208333333333333
 49
0.0
 49
0.0
 49
0.0
 49
0.0
 49
1.0
 49
0.0
 49
0.0
 49
0.0
 49
0.0
 49
1.0
175
     0
142
0.0208333333333333
142
0.0
142
0.0
142
0.0
142
0.0
142
0.0208333333333333
142
0.0
142
0.0
142
0.0
142
0.0
142
1.0
142
0.0
142
0.0
142
0.0
142
0.0
142
1.0
179
     0
144
0.0208333333333333
144
0.0
144
0.0
144
0.0
144
0.0
144
0.0208333333333333
144
0.0
144
0.0
144
0.0
144
0.0
144
1.0
144
0.0
144
0.0
144
0.0
144
0.0
144
1.0
147
0.0208333333333333
147
0.0
147
0.0
147
0.0
147
0.0
147
0.0208333333333333
147
0.0
147
0.0
147
0.0
147
0.0
147
1.0
147
0.0
147
0.0
147
0.0
147
0.0
147
1.0
  0
ACDBPLACEHOLDER
  5
9
102
{ACAD_REACTORS
330
A
102
}
330
A
  0
SCALE
  5
57
102
{ACAD_REACTORS
330
4B
102
}
330
4B
100
AcDbScale
 70
     0
300
1:1
140
1.0
141
1.0
290
     1
  0
SCALE
  5
58
102
{ACAD_REACTORS
330
4B
102
}
330
4B
100
AcDbScale
 70
     0
300
1:2
140
1.0
141
2.0
290
     0
  0
SCALE
  5
59
102
{ACAD_REACTORS
330
4B
102
}
330
4B
100
AcDbScale
 70
     0
300
1:4
140
1.0
141
4.0
290
     0
  0
SCALE
  5
5A
102
{ACAD_REACTORS
330
4B
102
}
330
4B
100
AcDbScale
 70
     0
300
1:5
140
1.0
141
5.0
290
     0
  0
SCALE
  5
5B
102
{ACAD_REACTORS
330
4B
102
}
330
4B
100
AcDbScale
 70
     0
300
1:8
140
1.0
141
8.0
290
     0
  0
SCALE
  5
5C
102
{ACAD_REACTORS
330
4B
102
}
330
4B
100
AcDbScale
 70
     0
300
1:10
140
1.0
141
10.0
290
     0
  0
SCALE
  5
5D
102
{ACAD_REACTORS
330
4B
102
}
330
4B
100
AcDbScale
 70
     0
300
1:16
140
1.0
141
16.0
290
     0
  0
SCALE
  5
5E
102
{ACAD_REACTORS
330
4B
102
}
330
4B
100
AcDbScale
 70
     0
300
1:20
140
1.0
141
20.0
290
     0
  0
SCALE
  5
5F
102
{ACAD_REACTORS
330
4B
102
}
330
4B
100
AcDbScale
 70
     0
300
1:30
140
1.0
141
30.0
290
     0
  0
SCALE
  5
60
102
{ACAD_REACTORS
330
4B
102
}
330
4B
100
AcDbScale
 70
     0
300
1:40
140
1.0
141
40.0
290
     0
  0
SCALE
  5
61
102
{ACAD_REACTORS
330
4B
102
}
330
4B
100
AcDbScale
 70
     0
300
1:50
140
1.0
141
50.0
290
     0
  0
SCALE
  5
62
102
{ACAD_REACTORS
330
4B
102
}
330
4B
100
AcDbScale
 70
     0
300
1:100
140
1.0
141
100.0
290
     0
  0
SCALE
  5
63
102
{ACAD_REACTORS
330
4B
102
}
330
4B
100
AcDbScale
 70
     0
300
2:1
140
2.0
141
1.0
290
     0
  0
SCALE
  5
64
102
{ACAD_REACTORS
330
4B
102
}
330
4B
100
AcDbScale
 70
     0
300
4:1
140
4.0
141
1.0
290
     0
  0
SCALE
  5
65
102
{ACAD_REACTORS
330
4B
102
}
330
4B
100
AcDbScale
 70
     0
300
8:1
140
8.0
141
1.0
290
     0
  0
SCALE
  5
66
102
{ACAD_REACTORS
330
4B
102
}
330
4B
100
AcDbScale
 70
     0
300
10:1
140
10.0
141
1.0
290
     0
  0
SCALE
  5
67
102
{ACAD_REACTORS
330
4B
102
}
330
4B
100
AcDbScale
 70
     0
300
100:1
140
100.0
141
1.0
290
     0
  0
TABLESTYLE
  5
53
102
{ACAD_XDICTIONARY
360
54
102
}
102
{ACAD_REACTORS
330
4C
102
}
330
4C
100
AcDbTableStyle
  3
Standard
 70
     0
 71
     0
 40
1.5
 41
1.5
280
     0
281
     0
  7
STANDARD
140
4.5
170
     2
 62
     0
 63
     7
283
     0
274
    -2
284
     1
 64
     0
275
    -2
285
     1
 65
     0
276
    -2
286
     1
 66
     0
277
    -2
287
     1
 67
     0
278
    -2
288
     1
 68
     0
279
    -2
289
     1
 69
     0
  7
STANDARD
140
6.0
170
     5
 62
     0
 63
     7
283
     0
274
    -2
284
     1
 64
     0
275
    -2
285
     1
 65
     0
276
    -2
286
     1
 66
     0
277
    -2
287
     1
 67
     0
278
    -2
288
     1
 68
     0
279
    -2
289
     1
 69
     0
  7
STANDARD
140
4.5
170
     5
 62
     0
 63
     7
283
     0
274
    -2
284
     1
 64
     0
275
    -2
285
     1
 65
     0
276
    -2
286
     1
 66
     0
277
    -2
287
     1
 67
     0
278
    -2
288
     1
 68
     0
279
    -2
289
     1
 69
     0
  0
VISUALSTYLE
  5
2A
102
{ACAD_XDICTIONARY
360
322
102
}
102
{ACAD_REACTORS
330
2B
102
}
330
2B
100
AcDbVisualStyle
  2
2dWireframe
 70
     4
 71
     0
 72
     2
 73
     0
 90
        0
 40
-0.6
 41
-30.0
 62
     5
 63
     7
 74
     1
 91
        4
 64
     7
 65
   257
 75
     1
175
     1
 42
1.0
 92
        0
 66
   257
 43
1.0
 76
     1
 77
     6
 78
     2
 67
     7
 79
     5
170
     0
171
     0
290
     0
174
     0
 93
        1
 44
0.0
173
     0
291
     0
 45
0.0
1001
ACAD
1000
AcDbSavedByObjectVersion
1070
     0
  0
VISUALSTYLE
  5
56
102
{ACAD_XDICTIONARY
360
329
102
}
102
{ACAD_REACTORS
330
2B
102
}
330
2B
100
AcDbVisualStyle
  2
3dWireframe
 70
     5
 71
     0
 72
     2
 73
     0
 90
        0
 40
-0.6
 41
-30.0
 62
     5
 63
     7
 74
     1
 91
        4
 64
     7
 65
   257
 75
     1
175
     1
 42
1.0
 92
        0
 66
   257
 43
1.0
 76
     1
 77
     6
 78
     2
 67
     7
 79
     5
170
     0
171
     0
290
     0
174
     0
 93
        1
 44
0.0
173
     0
291
     0
 45
0.0
1001
ACAD
1000
AcDbSavedByObjectVersion
1070
     0
  0
VISUALSTYLE
  5
55
102
{ACAD_XDICTIONARY
360
327
102
}
102
{ACAD_REACTORS
330
2B
102
}
330
2B
100
AcDbVisualStyle
  2
Realistic
 70
     8
 71
     2
 72
     2
 73
     0
 90
        0
 40
-0.6
 41
-30.0
 62
     5
 63
     7
 74
     1
 91
        0
 64
     7
 65
   257
 75
     1
175
     1
 42
1.0
 92
        8
 66
     8
 43
1.0
 76
     1
 77
     6
 78
     2
 67
     7
 79
     5
170
     0
171
     0
290
     0
174
     0
 93
       13
 44
0.0
173
     0
291
     0
 45
0.0
1001
ACAD
1000
AcDbSavedByObjectVersion
1070
     0
  0
DICTIONARYVAR
  5
312
102
{ACAD_REACTORS
330
30F
102
}
330
30F
100
DictionaryVariables
280
     0
  1
1:1
  0
DICTIONARYVAR
  5
311
102
{ACAD_REACTORS
330
30F
102
}
330
30F
100
DictionaryVariables
280
     0
  1
STANDARD
  0
DICTIONARYVAR
  5
310
102
{ACAD_REACTORS
330
30F
102
}
330
30F
100
DictionaryVariables
280
     0
  1
STANDARD
  0
DICTIONARYVAR
  5
317
102
{ACAD_REACTORS
330
30F
102
}
330
30F
100
DictionaryVariables
280
     0
  1
1
  0
DICTIONARYVAR
  5
315
102
{ACAD_REACTORS
330
30F
102
}
330
30F
100
DictionaryVariables
280
     0
  1
1
  0
DICTIONARYVAR
  5
314
102
{ACAD_REACTORS
330
30F
102
}
330
30F
100
DictionaryVariables
280
     0
  1
0
  0
DICTIONARYVAR
  5
313
102
{ACAD_REACTORS
330
30F
102
}
330
30F
100
DictionaryVariables
280
     0
  1
127
  0
DICTIONARYVAR
  5
316
102
{ACAD_REACTORS
330
30F
102
}
330
30F
100
DictionaryVariables
280
     0
  1
0
  0
DICTIONARY
  5
2CD
102
{ACAD_REACTORS
330
2CC
102
}
330
2CC
100
AcDbDictionary
281
     1
  0
DICTIONARY
  5
2C7
102
{ACAD_REACTORS
330
2BD
102
}
330
2BD
100
AcDbDictionary
281
     1
  3
DWGSETTINGS
350
2C6
  3
TRANSSETTINGS
350
2C8
  0
DICTIONARY
  5
320
330
1C
100
AcDbDictionary
280
     1
281
     1
  3
ACAD_XREC_ROUNDTRIP
360
321
  0
DICTIONARY
  5
31E
330
17
100
AcDbDictionary
280
     1
281
     1
  3
ACAD_XREC_ROUNDTRIP
360
31F
  0
DICTIONARY
  5
43
330
42
100
AcDbDictionary
280
     1
281
     1
  3
ACAD_XREC_ROUNDTRIP
360
325
  3
BUMPTILE
360
44
  3
DIFFUSETILE
360
45
  3
OPACITYTILE
360
46
  3
REFLECTIONTILE
360
47
  3
REFRACTIONTILE
360
48
  3
SPECULARTILE
360
49
  0
DICTIONARY
  5
3B
330
3A
100
AcDbDictionary
280
     1
281
     1
  3
ACAD_XREC_ROUNDTRIP
360
324
  3
BUMPTILE
360
3C
  3
DIFFUSETILE
360
3D
  3
OPACITYTILE
360
3E
  3
REFLECTIONTILE
360
3F
  3
REFRACTIONTILE
360
40
  3
SPECULARTILE
360
41
  0
DICTIONARY
  5
E
330
C
100
AcDbDictionary
280
     1
281
     1
  3
ACAD_XREC_ROUNDTRIP
360
31D
  3
BUMPTILE
360
F
  3
DIFFUSETILE
360
10
  3
OPACITYTILE
360
11
  3
REFLECTIONTILE
360
12
  3
REFRACTIONTILE
360
13
  3
SPECULARTILE
360
14
  0
DICTIONARY
  5
54
330
53
100
AcDbDictionary
280
     1
281
     1
  3
ACAD_ROUNDTRIP_2008_TABLESTYLE_CELLSTYLEMAP
360
318
  3
ACAD_XREC_ROUNDTRIP
360
326
  0
DICTIONARY
  5
322
330
2A
100
AcDbDictionary
280
     1
281
     1
  3
ACAD_XREC_ROUNDTRIP
360
323
  0
DICTIONARY
  5
329
330
56
100
AcDbDictionary
280
     1
281
     1
  3
ACAD_XREC_ROUNDTRIP
360
32A
  0
DICTIONARY
  5
327
330
55
100
AcDbDictionary
280
     1
281
     1
  3
ACAD_XREC_ROUNDTRIP
360
328
  0
XRECORD
  5
321
102
{ACAD_REACTORS
330
320
102
}
330
320
100
AcDbXrecord
280
     1
102
SHADEPLOT
 70
     0
102
SHADEPLOTRESLEVEL
 70
     2
102
SHADEPLOTCUSTOMDPI
 70
   300
  0
XRECORD
  5
31F
102
{ACAD_REACTORS
330
31E
102
}
330
31E
100
AcDbXrecord
280
     1
102
SHADEPLOT
 70
     0
102
SHADEPLOTRESLEVEL
 70
     2
102
SHADEPLOTCUSTOMDPI
 70
   300
  0
XRECORD
  5
325
102
{ACAD_REACTORS
330
43
102
}
330
43
100
AcDbXrecord
280
     1
102
MATERIAL
148
0.0
149
0.0
149
0.0
 93
        0
 94
      127
282
     0
 72
     0
 77
     0
171
     0
175
     0
179
     0
273
     0
  0
XRECORD
  5
44
102
{ACAD_REACTORS
330
43
102
}
330
43
100
AcDbXrecord
280
     1
270
     1
271
     1
  0
XRECORD
  5
45
102
{ACAD_REACTORS
330
43
102
}
330
43
100
AcDbXrecord
280
     1
270
     1
271
     1
  0
XRECORD
  5
46
102
{ACAD_REACTORS
330
43
102
}
330
43
100
AcDbXrecord
280
     1
270
     1
271
     1
  0
XRECORD
  5
47
102
{ACAD_REACTORS
330
43
102
}
330
43
100
AcDbXrecord
280
     1
270
     1
271
     1
  0
XRECORD
  5
48
102
{ACAD_REACTORS
330
43
102
}
330
43
100
AcDbXrecord
280
     1
270
     1
271
     1
  0
XRECORD
  5
49
102
{ACAD_REACTORS
330
43
102
}
330
43
100
AcDbXrecord
280
     1
270
     1
271
     1
  0
XRECORD
  5
324
102
{ACAD_REACTORS
330
3B
102
}
330
3B
100
AcDbXrecord
280
     1
102
MATERIAL
148
0.0
149
0.0
149
0.0
 93
        0
 94
      127
282
     0
 72
     0
 77
     0
171
     0
175
     0
179
     0
273
     0
  0
XRECORD
  5
3C
102
{ACAD_REACTORS
330
3B
102
}
330
3B
100
AcDbXrecord
280
     1
270
     1
271
     1
  0
XRECORD
  5
3D
102
{ACAD_REACTORS
330
3B
102
}
330
3B
100
AcDbXrecord
280
     1
270
     1
271
     1
  0
XRECORD
  5
3E
102
{ACAD_REACTORS
330
3B
102
}
330
3B
100
AcDbXrecord
280
     1
270
     1
271
     1
  0
XRECORD
  5
3F
102
{ACAD_REACTORS
330
3B
102
}
330
3B
100
AcDbXrecord
280
     1
270
     1
271
     1
  0
XRECORD
  5
40
102
{ACAD_REACTORS
330
3B
102
}
330
3B
100
AcDbXrecord
280
     1
270
     1
271
     1
  0
XRECORD
  5
41
102
{ACAD_REACTORS
330
3B
102
}
330
3B
100
AcDbXrecord
280
     1
270
     1
271
     1
  0
XRECORD
  5
31D
102
{ACAD_REACTORS
330
E
102
}
330
E
100
AcDbXrecord
280
     1
102
MATERIAL
148
0.0
149
0.0
149
0.0
 93
        0
 94
      127
282
     0
 72
     0
 77
     0
171
     0
175
     0
179
     0
273
     0
  0
XRECORD
  5
F
102
{ACAD_REACTORS
330
E
102
}
330
E
100
AcDbXrecord
280
     1
270
     1
271
     1
  0
XRECORD
  5
10
102
{ACAD_REACTORS
330
E
102
}
330
E
100
AcDbXrecord
280
     1
270
     1
271
     1
  0
XRECORD
  5
11
102
{ACAD_REACTORS
330
E
102
}
330
E
100
AcDbXrecord
280
     1
270
     1
271
     1
  0
XRECORD
  5
12
102
{ACAD_REACTORS
330
E
102
}
330
E
100
AcDbXrecord
280
     1
270
     1
271
     1
  0
XRECORD
  5
13
102
{ACAD_REACTORS
330
E
102
}
330
E
100
AcDbXrecord
280
     1
270
     1
271
     1
  0
XRECORD
  5
14
102
{ACAD_REACTORS
330
E
102
}
330
E
100
AcDbXrecord
280
     1
270
     1
271
     1
  0
CELLSTYLEMAP
  5
318
102
{ACAD_REACTORS
330
54
102
}
330
54
100
AcDbCellStyleMap
 90
        3
300
CELLSTYLE
  1
TABLEFORMAT_BEGIN
 90
        5
170
     1
 91
        0
 92
    32768
 62
   257
 93
        1
300
CONTENTFORMAT
  1
CONTENTFORMAT_BEGIN
 90
        0
 91
        0
 92
        4
 93
        0
300

 40
0.0
140
1.0
 94
        5
 62
     0
340
21
144
6.0
309
CONTENTFORMAT_END
171
     1
301
MARGIN
  1
CELLMARGIN_BEGIN
 40
1.5
 40
1.5
 40
1.5
 40
1.5
 40
0.18
 40
0.18
309
CELLMARGIN_END
 94
        6
 95
        1
302
GRIDFORMAT
  1
GRIDFORMAT_BEGIN
 90
        0
 91
        1
 62
     0
 92
       -2
340
0
 93
        0
 40
0.045
309
GRIDFORMAT_END
 95
        2
302
GRIDFORMAT
  1
GRIDFORMAT_BEGIN
 90
        0
 91
        1
 62
     0
 92
       -2
340
0
 93
        0
 40
0.045
309
GRIDFORMAT_END
 95
        4
302
GRIDFORMAT
  1
GRIDFORMAT_BEGIN
 90
        0
 91
        1
 62
     0
 92
       -2
340
0
 93
        0
 40
0.045
309
GRIDFORMAT_END
 95
        8
302
GRIDFORMAT
  1
GRIDFORMAT_BEGIN
 90
        0
 91
        1
 62
     0
 92
       -2
340
0
 93
        0
 40
0.045
309
GRIDFORMAT_END
 95
       16
302
GRIDFORMAT
  1
GRIDFORMAT_BEGIN
 90
        0
 91
        1
 62
     0
 92
       -2
340
0
 93
        0
 40
0.045
309
GRIDFORMAT_END
 95
       32
302
GRIDFORMAT
  1
GRIDFORMAT_BEGIN
 90
        0
 91
        1
 62
     0
 92
       -2
340
0
 93
        0
 40
0.045
309
GRIDFORMAT_END
309
TABLEFORMAT_END
  1
CELLSTYLE_BEGIN
 90
        1
 91
        1
300
_TITLE
309
CELLSTYLE_END
300
CELLSTYLE
  1
TABLEFORMAT_BEGIN
 90
        5
170
     1
 91
        0
 92
        0
 62
   257
 93
        1
300
CONTENTFORMAT
  1
CONTENTFORMAT_BEGIN
 90
        0
 91
        0
 92
        4
 93
        0
300

 40
0.0
140
1.0
 94
        5
 62
     0
340
21
144
4.5
309
CONTENTFORMAT_END
171
     1
301
MARGIN
  1
CELLMARGIN_BEGIN
 40
1.5
 40
1.5
 40
1.5
 40
1.5
 40
0.18
 40
0.18
309
CELLMARGIN_END
 94
        6
 95
        1
302
GRIDFORMAT
  1
GRIDFORMAT_BEGIN
 90
        0
 91
        1
 62
     0
 92
       -2
340
0
 93
        0
 40
0.045
309
GRIDFORMAT_END
 95
        2
302
GRIDFORMAT
  1
GRIDFORMAT_BEGIN
 90
        0
 91
        1
 62
     0
 92
       -2
340
0
 93
        0
 40
0.045
309
GRIDFORMAT_END
 95
        4
302
GRIDFORMAT
  1
GRIDFORMAT_BEGIN
 90
        0
 91
        1
 62
     0
 92
       -2
340
0
 93
        0
 40
0.045
309
GRIDFORMAT_END
 95
        8
302
GRIDFORMAT
  1
GRIDFORMAT_BEGIN
 90
        0
 91
        1
 62
     0
 92
       -2
340
0
 93
        0
 40
0.045
309
GRIDFORMAT_END
 95
       16
302
GRIDFORMAT
  1
GRIDFORMAT_BEGIN
 90
        0
 91
        1
 62
     0
 92
       -2
340
0
 93
        0
 40
0.045
309
GRIDFORMAT_END
 95
       32
302
GRIDFORMAT
  1
GRIDFORMAT_BEGIN
 90
        0
 91
        1
 62
     0
 92
       -2
340
0
 93
        0
 40
0.045
309
GRIDFORMAT_END
309
TABLEFORMAT_END
  1
CELLSTYLE_BEGIN
 90
        2
 91
        1
300
_HEADER
309
CELLSTYLE_END
300
CELLSTYLE
  1
TABLEFORMAT_BEGIN
 90
        5
170
     1
 91
        0
 92
        0
 62
   257
 93
        1
300
CONTENTFORMAT
  1
CONTENTFORMAT_BEGIN
 90
        0
 91
        0
 92
        4
 93
        0
300

 40
0.0
140
1.0
 94
        2
 62
     0
340
21
144
4.5
309
CONTENTFORMAT_END
171
     1
301
MARGIN
  1
CELLMARGIN_BEGIN
 40
1.5
 40
1.5
 40
1.5
 40
1.5
 40
0.18
 40
0.18
309
CELLMARGIN_END
 94
        6
 95
        1
302
GRIDFORMAT
  1
GRIDFORMAT_BEGIN
 90
        0
 91
        1
 62
     0
 92
       -2
340
0
 93
        0
 40
0.045
309
GRIDFORMAT_END
 95
        2
302
GRIDFORMAT
  1
GRIDFORMAT_BEGIN
 90
        0
 91
        1
 62
     0
 92
       -2
340
0
 93
        0
 40
0.045
309
GRIDFORMAT_END
 95
        4
302
GRIDFORMAT
  1
GRIDFORMAT_BEGIN
 90
        0
 91
        1
 62
     0
 92
       -2
340
0
 93
        0
 40
0.045
309
GRIDFORMAT_END
 95
        8
302
GRIDFORMAT
  1
GRIDFORMAT_BEGIN
 90
        0
 91
        1
 62
     0
 92
       -2
340
0
 93
        0
 40
0.045
309
GRIDFORMAT_END
 95
       16
302
GRIDFORMAT
  1
GRIDFORMAT_BEGIN
 90
        0
 91
        1
 62
     0
 92
       -2
340
0
 93
        0
 40
0.045
309
GRIDFORMAT_END
 95
       32
302
GRIDFORMAT
  1
GRIDFORMAT_BEGIN
 90
        0
 91
        1
 62
     0
 92
       -2
340
0
 93
        0
 40
0.045
309
GRIDFORMAT_END
309
TABLEFORMAT_END
  1
CELLSTYLE_BEGIN
 90
        3
 91
        2
300
_DATA
309
CELLSTYLE_END
  0
XRECORD
  5
326
102
{ACAD_REACTORS
330
54
102
}
330
54
100
AcDbXrecord
280
     1
102
ACAD_ROUNDTRIP_PRE2007_TABLESTYLE
 90
        4
 91
        0
  1

 92
        4
 93
        0
  2

 94
        4
 95
        0
  3

  0
XRECORD
  5
323
102
{ACAD_REACTORS
330
322
102
}
330
322
100
AcDbXrecord
280
     1
102
RTVSPropertyOp0
 70
     1
102
RTVSPropertyOp1
 70
     1
102
RTVSPropertyOp2
 70
     1
102
RTVSPropertyOp3
 70
     1
102
RTVSPropertyOp4
 70
     1
102
RTVSPropertyOp5
 70
     1
102
RTVSPropertyOp6
 70
     1
102
RTVSPropertyOp7
 70
     1
102
RTVSPropertyOp8
 70
     1
102
RTVSPropertyOp9
 70
     1
102
RTVSPropertyOp10
 70
     1
102
RTVSPropertyOp11
 70
     1
102
RTVSPropertyOp12
 70
     1
102
RTVSPropertyOp13
 70
     1
102
RTVSPropertyOp14
 70
     1
102
RTVSPropertyOp15
 70
     1
102
RTVSPropertyOp16
 70
     1
102
RTVSPropertyOp17
 70
     1
102
RTVSPropertyOp18
 70
     1
102
RTVSPropertyOp19
 70
     1
102
RTVSPropertyOp20
 70
     1
102
RTVSPropertyOp21
 70
     1
102
RTVSPropertyOp22
 70
     1
102
RTVSPropertyOp23
 70
     1
102
RTVSPropertyOp24
 70
     1
102
RTVSPropertyOp25
 70
     1
102
RTVSPropertyOp26
 70
     1
102
RTVSPropertyOp27
 70
     1
102
RTVSPropertyOp28
 70
     1
102
RTVSPropertyOp29
 70
     1
102
RTVSPropertyOp30
 70
     1
102
RTVSPropertyOp31
 70
     1
102
RTVSPropertyOp32
 70
     1
  0
XRECORD
  5
32A
102
{ACAD_REACTORS
330
329
102
}
330
329
100
AcDbXrecord
280
     1
102
RTVSPropertyOp0
 70
     1
102
RTVSPropertyOp1
 70
     1
102
RTVSPropertyOp2
 70
     1
102
RTVSPropertyOp3
 70
     1
102
RTVSPropertyOp4
 70
     1
102
RTVSPropertyOp5
 70
     1
102
RTVSPropertyOp6
 70
     1
102
RTVSPropertyOp7
 70
     1
102
RTVSPropertyOp8
 70
     1
102
RTVSPropertyOp9
 70
     1
102
RTVSPropertyOp10
 70
     1
102
RTVSPropertyOp11
 70
     1
102
RTVSPropertyOp12
 70
     1
102
RTVSPropertyOp13
 70
     1
102
RTVSPropertyOp14
 70
     1
102
RTVSPropertyOp15
 70
     1
102
RTVSPropertyOp16
 70
     1
102
RTVSPropertyOp17
 70
     1
102
RTVSPropertyOp18
 70
     1
102
RTVSPropertyOp19
 70
     1
102
RTVSPropertyOp20
 70
     1
102
RTVSPropertyOp21
 70
     1
102
RTVSPropertyOp22
 70
     1
102
RTVSPropertyOp23
 70
     1
102
RTVSPropertyOp24
 70
     1
102
RTVSPropertyOp25
 70
     1
102
RTVSPropertyOp26
 70
     1
102
RTVSPropertyOp27
 70
     1
102
RTVSPropertyOp28
 70
     1
102
RTVSPropertyOp29
 70
     1
102
RTVSPropertyOp30
 70
     1
102
RTVSPropertyOp31
 70
     1
102
RTVSPropertyOp32
 70
     1
  0
XRECORD
  5
328
102
{ACAD_REACTORS
330
327
102
}
330
327
100
AcDbXrecord
280
     1
102
RTVSPropertyOp0
 70
     1
102
RTVSPropertyOp1
 70
     1
102
RTVSPropertyOp2
 70
     1
102
RTVSPropertyOp3
 70
     1
102
RTVSPropertyOp4
 70
     1
102
RTVSPropertyOp5
 70
     1
102
RTVSPropertyOp6
 70
     1
102
RTVSPropertyOp7
 70
     1
102
RTVSPropertyOp8
 70
     1
102
RTVSPropertyOp9
 70
     1
102
RTVSPropertyOp10
 70
     1
102
RTVSPropertyOp11
 70
     1
102
RTVSPropertyOp12
 70
     1
102
RTVSPropertyOp13
 70
     1
102
RTVSPropertyOp14
 70
     1
102
RTVSPropertyOp15
 70
     1
102
RTVSPropertyOp16
 70
     1
102
RTVSPropertyOp17
 70
     1
102
RTVSPropertyOp18
 70
     1
102
RTVSPropertyOp19
 70
     1
102
RTVSPropertyOp20
 70
     1
102
RTVSPropertyOp21
 70
     1
102
RTVSPropertyOp22
 70
     1
102
RTVSPropertyOp23
 70
     1
102
RTVSPropertyOp24
 70
     1
102
RTVSPropertyOp25
 70
     1
102
RTVSPropertyOp26
 70
     1
102
RTVSPropertyOp27
 70
     1
102
RTVSPropertyOp28
 70
     1
102
RTVSPropertyOp29
 70
     1
102
RTVSPropertyOp30
 70
     1
102
RTVSPropertyOp31
 70
     1
102
RTVSPropertyOp32
 70
     1
  0
ENDSEC
  0
EOF
