  0
SECTION
  2
HEADER
  9
$ACADVER
  1
AC1015
  9
$ACADMAINTVER
 70
     6
  9
$DWGCODEPAGE
  3
ANSI_1252
  9
$INSBASE
 10
0.0
 20
0.0
 30
0.0
  9
$EXTMIN
 10
0.0
 20
0.0
 30
0.0
  9
$EXTMAX
 10
420.0
 20
297.0
 30
0.0
  9
$LIMMIN
 10
0.0
 20
0.0
  9
$LIMMAX
 10
420.0
 20
297.0
  9
$ORTHOMODE
 70
     0
  9
$REGENMODE
 70
     1
  9
$FILLMODE
 70
     1
  9
$QTEXTMODE
 70
     0
  9
$MIRRTEXT
 70
     1
  9
$LTSCALE
 40
1.0
  9
$ATTMODE
 70
     1
  9
$TEXTSIZE
 40
2.5
  9
$TRACEWID
 40
1.0
  9
$TEXTSTYLE
  7
Standard
  9
$CLAYER
  8
0
  9
$CELTYPE
  6
ByLayer
  9
$CECOLOR
 62
   256
  9
$CELTSCALE
 40
1.0
  9
$DISPSILH
 70
     0
  9
$DIMSCALE
 40
1.0
  9
$DIMASZ
 40
2.5
  9
$DIMEXO
 40
0.0
  9
$DIMDLI
 40
3.75
  9
$DIMRND
 40
0.0
  9
$DIMDLE
 40
0.0
  9
$DIMEXE
 40
1.0
  9
$DIMTP
 40
0.0
  9
$DIMTM
 40
0.0
  9
$DIMTXT
 40
2.5
  9
$DIMCEN
 40
2.5
  9
$DIMTSZ
 40
0.0
  9
$DIMTOL
 70
     0
  9
$DIMLIM
 70
     0
  9
$DIMTIH
 70
     1
  9
$DIMTOH
 70
     1
  9
$DIMSE1
 70
     0
  9
$DIMSE2
 70
     0
  9
$DIMTAD
 70
     1
  9
$DIMZIN
 70
     0
  9
$DIMBLK
  1

  9
$DIMASO
 70
     1
  9
$DIMSHO
 70
     1
  9
$DIMPOST
  1

  9
$DIMAPOST
  1

  9
$DIMALT
 70
     0
  9
$DIMALTD
 70
     3
  9
$DIMALTF
 40
0.0393700787
  9
$DIMLFAC
 40
1.0
  9
$DIMTOFL
 70
     1
  9
$DIMTVP
 40
0.0
  9
$DIMTIX
 70
     0
  9
$DIMSOXD
 70
     0
  9
$DIMSAH
 70
     0
  9
$DIMBLK1
  1

  9
$DIMBLK2
  1

  9
$DIMSTYLE
  2
ISO-25
  9
$DIMCLRD
 70
     0
  9
$DIMCLRE
 70
     0
  9
$DIMCLRT
 70
     0
  9
$DIMTFAC
 40
1.0
  9
$DIMGAP
 40
2.0
  9
$DIMJUST
 70
     0
  9
$DIMSD1
 70
     0
  9
$DIMSD2
 70
     0
  9
$DIMTOLJ
 70
     0
  9
$DIMTZIN
 70
     0
  9
$DIMALTZ
 70
     0
  9
$DIMALTTZ
 70
     0
  9
$DIMUPT
 70
     0
  9
$DIMDEC
 70
     2
  9
$DIMTDEC
 70
     2
  9
$DIMALTU
 70
     2
  9
$DIMALTTD
 70
     3
  9
$DIMTXSTY
  7
Standard
  9
$DIMAUNIT
 70
     0
  9
$DIMADEC
 70
     1
  9
$DIMALTRND
 40
0.0
  9
$DIMAZIN
 70
     0
  9
$DIMDSEP
 70
    44
  9
$DIMATFIT
 70
     3
  9
$DIMFRAC
 70
     0
  9
$DIMLDRBLK
  1

  9
$DIMLUNIT
 70
     2
  9
$DIMLWD
 70
    -2
  9
$DIMLWE
 70
    -2
  9
$DIMTMOVE
 70
     0
  9
$LUNITS
 70
     2
  9
$LUPREC
 70
     2
  9
$SKETCHINC
 40
1.0
  9
$FILLETRAD
 40
10.0
  9
$AUNITS
 70
     0
  9
$AUPREC
 70
     1
  9
$MENU
  1
.
  9
$ELEVATION
 40
0.0
  9
$PELEVATION
 40
0.0
  9
$THICKNESS
 40
0.0
  9
$LIMCHECK
 70
     0
  9
$CHAMFERA
 40
0.0
  9
$CHAMFERB
 40
0.0
  9
$CHAMFERC
 40
0.0
  9
$CHAMFERD
 40
0.0
  9
$SKPOLY
 70
     0
  9
$TDCREATE
 40
2459082.538493438
  9
$TDUCREATE
 40
2459082.455160104
  9
$TDUPDATE
 40
2459082.538504271
  9
$TDUUPDATE
 40
2459082.455170937
  9
$TDINDWG
 40
0.0000000116
  9
$TDUSRTIMER
 40
0.0000000116
  9
$USRTIMER
 70
     1
  9
$ANGBASE
 50
0.0
  9
$ANGDIR
 70
     0
  9
$PDMODE
 70
     0
  9
$PDSIZE
 40
-1.0
  9
$PLINEWID
 40
0.0
  9
$SPLFRAME
 70
     0
  9
$SPLINETYPE
 70
     6
  9
$SPLINESEGS
 70
     8
  9
$HANDSEED
  5
392
  9
$SURFTAB1
 70
     6
  9
$SURFTAB2
 70
     6
  9
$SURFTYPE
 70
     6
  9
$SURFU
 70
     6
  9
$SURFV
 70
     6
  9
$UCSBASE
  2

  9
$UCSNAME
  2

  9
$UCSORG
 10
0.0
 20
0.0
 30
0.0
  9
$UCSXDIR
 10
1.0
 20
0.0
 30
0.0
  9
$UCSYDIR
 10
0.0
 20
1.0
 30
0.0
  9
$UCSORTHOREF
  2

  9
$UCSORTHOVIEW
 70
     0
  9
$UCSORGTOP
 10
0.0
 20
0.0
 30
0.0
  9
$UCSORGBOTTOM
 10
0.0
 20
0.0
 30
0.0
  9
$UCSORGLEFT
 10
0.0
 20
0.0
 30
0.0
  9
$UCSORGRIGHT
 10
0.0
 20
0.0
 30
0.0
  9
$UCSORGFRONT
 10
0.0
 20
0.0
 30
0.0
  9
$UCSORGBACK
 10
0.0
 20
0.0
 30
0.0
  9
$PUCSBASE
  2

  9
$PUCSNAME
  2

  9
$PUCSORG
 10
0.0
 20
0.0
 30
0.0
  9
$PUCSXDIR
 10
1.0
 20
0.0
 30
0.0
  9
$PUCSYDIR
 10
0.0
 20
1.0
 30
0.0
  9
$PUCSORTHOREF
  2

  9
$PUCSORTHOVIEW
 70
     0
  9
$PUCSORGTOP
 10
0.0
 20
0.0
 30
0.0
  9
$PUCSORGBOTTOM
 10
0.0
 20
0.0
 30
0.0
  9
$PUCSORGLEFT
 10
0.0
 20
0.0
 30
0.0
  9
$PUCSORGRIGHT
 10
0.0
 20
0.0
 30
0.0
  9
$PUCSORGFRONT
 10
0.0
 20
0.0
 30
0.0
  9
$PUCSORGBACK
 10
0.0
 20
0.0
 30
0.0
  9
$USERI1
 70
     0
  9
$USERI2
 70
     0
  9
$USERI3
 70
     0
  9
$USERI4
 70
     0
  9
$USERI5
 70
     0
  9
$USERR1
 40
0.0
  9
$USERR2
 40
0.0
  9
$USERR3
 40
0.0
  9
$USERR4
 40
0.0
  9
$USERR5
 40
0.0
  9
$WORLDVIEW
 70
     1
  9
$SHADEDGE
 70
     3
  9
$SHADEDIF
 70
    70
  9
$TILEMODE
 70
     1
  9
$MAXACTVP
 70
    64
  9
$PINSBASE
 10
0.0
 20
0.0
 30
0.0
  9
$PLIMCHECK
 70
     0
  9
$PEXTMIN
 10
1.0000000000E+20
 20
1.0000000000E+20
 30
1.0000000000E+20
  9
$PEXTMAX
 10
-1.0000000000E+20
 20
-1.0000000000E+20
 30
-1.0000000000E+20
  9
$PLIMMIN
 10
0.0
 20
0.0
  9
$PLIMMAX
 10
420.0
 20
297.0
  9
$UNITMODE
 70
     0
  9
$VISRETAIN
 70
     1
  9
$PLINEGEN
 70
     0
  9
$PSLTSCALE
 70
     1
  9
$TREEDEPTH
 70
  3020
  9
$CMLSTYLE
  2
Standard
  9
$CMLJUST
 70
     0
  9
$CMLSCALE
 40
20.0
  9
$PROXYGRAPHICS
 70
     1
  9
$MEASUREMENT
 70
     1
  9
$CELWEIGHT
370
    -1
  9
$ENDCAPS
280
     0
  9
$JOINSTYLE
280
     0
  9
$LWDISPLAY
290
     1
  9
$INSUNITS
 70
     4
  9
$HYPERLINKBASE
  1

  9
$STYLESHEET
  1

  9
$XEDIT
290
     1
  9
$CEPSNTYPE
380
     0
  9
$PSTYLEMODE
290
     1
  9
$FINGERPRINTGUID
  2
{ad0d081a-deab-4cf7-8203-48b42dd74a9a}
  9
$VERSIONGUID
  2
{FAEB1C32-E019-11D5-929B-00C0DF256EC4}
  9
$EXTNAMES
290
     1
  9
$PSVPSCALE
 40
0.0
  9
$OLESTARTUP
290
     0
  0
ENDSEC
  0
SECTION
  2
CLASSES
  0
CLASS
  1
ACDBDICTIONARYWDFLT
  2
AcDbDictionaryWithDefault
  3
ObjectDBX Classes
 90
        0
280
     0
281
     0
  0
CLASS
  1
VISUALSTYLE
  2
AcDbVisualStyle
  3
ObjectDBX Classes
 90
     4095
280
     0
281
     0
  0
CLASS
  1
MATERIAL
  2
AcDbMaterial
  3
ObjectDBX Classes
 90
     1153
280
     0
281
     0
  0
CLASS
  1
SCALE
  2
AcDbScale
  3
ObjectDBX Classes
 90
     1153
280
     0
281
     0
  0
CLASS
  1
TABLESTYLE
  2
AcDbTableStyle
  3
ObjectDBX Classes
 90
     4095
280
     0
281
     0
  0
CLASS
  1
MLEADERSTYLE
  2
AcDbMLeaderStyle
  3
ACDB_MLEADERSTYLE_CLASS
 90
     4095
280
     0
281
     0
  0
CLASS
  1
SUN
  2
AcDbSun
  3
SCENEOE
 90
     1153
280
     0
281
     0
  0
CLASS
  1
ACDBPLACEHOLDER
  2
AcDbPlaceHolder
  3
ObjectDBX Classes
 90
        0
280
     0
281
     0
  0
CLASS
  1
LAYOUT
  2
AcDbLayout
  3
ObjectDBX Classes
 90
        0
280
     0
281
     0
  0
ENDSEC
  0
SECTION
  2
TABLES
  0
TABLE
  2
VPORT
  5
8
330
0
100
AcDbSymbolTable
 70
     1
  0
VPORT
  5
29
330
8
100
AcDbSymbolTableRecord
100
AcDbViewportTableRecord
  2
*Active
 70
     0
 10
0.0
 20
0.0
 11
1.0
 21
1.0
 12
210.0
 22
148.5
 13
0.0
 23
0.0
 14
10.0
 24
10.0
 15
10.0
 25
10.0
 16
0.0
 26
0.0
 36
1.0
 17
0.0
 27
0.0
 37
0.0
 40
297.0
 41
1.4141414141
 42
50.0
 43
0.0
 44
0.0
 50
0.0
 51
0.0
 71
     0
 72
  2000
 73
     1
 74
     3
 75
     0
 76
     0
 77
     0
 78
     0
281
     0
 65
     1
110
0.0
120
0.0
130
0.0
111
1.0
121
0.0
131
0.0
112
0.0
122
1.0
132
0.0
 79
     0
146
0.0
  0
ENDTAB
  0
TABLE
  2
LTYPE
  5
5
330
0
100
AcDbSymbolTable
 70
     6
  0
LTYPE
  5
14
330
5
100
AcDbSymbolTableRecord
100
AcDbLinetypeTableRecord
  2
ByBlock
 70
     0
  3

 72
    65
 73
     0
 40
0.0
  0
LTYPE
  5
15
330
5
100
AcDbSymbolTableRecord
100
AcDbLinetypeTableRecord
  2
ByLayer
 70
     0
  3

 72
    65
 73
     0
 40
0.0
  0
LTYPE
  5
16
330
5
100
AcDbSymbolTableRecord
100
AcDbLinetypeTableRecord
  2
Continuous
 70
     0
  3
Solid line
 72
    65
 73
     0
 40
0.0
  0
LTYPE
  5
6E
330
5
100
AcDbSymbolTableRecord
100
AcDbLinetypeTableRecord
  2
HIDDEN
 70
     0
  3
Hidden __ __ __ __ __ __ __ __ __ __ __ __ __ __
 72
    65
 73
     2
 40
1.905
 49
1.27
 74
     0
 49
-0.635
 74
     0
  0
LTYPE
  5
6F
330
5
100
AcDbSymbolTableRecord
100
AcDbLinetypeTableRecord
  2
PHANTOM
 70
     0
  3
Phantom ______  __  __  ______  __  __  ______
 72
    65
 73
     6
 40
12.7
 49
6.35
 74
     0
 49
-1.27
 74
     0
 49
1.27
 74
     0
 49
-1.27
 74
     0
 49
1.27
 74
     0
 49
-1.27
 74
     0
  0
LTYPE
  5
70
330
5
100
AcDbSymbolTableRecord
100
AcDbLinetypeTableRecord
  2
CENTER
 70
     0
  3
Center ____ _ ____ _ ____ _ ____ _ ____ _ ____
 72
    65
 73
     4
 40
10.16
 49
6.35
 74
     0
 49
-1.27
 74
     0
 49
1.27
 74
     0
 49
-1.27
 74
     0
  0
LTYPE
  5
71
330
5
100
AcDbSymbolTableRecord
100
AcDbLinetypeTableRecord
  2
CENTERX2
 70
     0
  3
Center (2x) ________  __  ________  __  _____
 72
    65
 73
     4
 40
20.32
 49
12.7
 74
     0
 49
-2.54
 74
     0
 49
2.54
 74
     0
 49
-2.54
 74
     0
  0
LTYPE
  5
72
330
5
100
AcDbSymbolTableRecord
100
AcDbLinetypeTableRecord
  2
DOT2
 70
     0
  3
Dot (.5x) ........................................
 72
    65
 73
     2
 40
0.635
 49
0.0
 74
     0
 49
-0.635
 74
     0
  0
ENDTAB
  0
TABLE
  2
LAYER
  5
2
330
0
100
AcDbSymbolTable
 70
     3
  0
LAYER
  5
10
330
2
100
AcDbSymbolTableRecord
100
AcDbLayerTableRecord
  2
0
 70
     0
 62
     7
  6
Continuous
370
    -3
390
F
  0
LAYER
  5
73
330
2
100
AcDbSymbolTableRecord
100
AcDbLayerTableRecord
  2
REVISIONNOTES
 70
     0
 62
     1
  6
Continuous
370
    -3
390
F
  0
LAYER
  5
74
330
2
100
AcDbSymbolTableRecord
100
AcDbLayerTableRecord
  2
1
 70
     0
 62
   179
  6
Continuous
370
    -3
390
F
  0
ENDTAB
  0
TABLE
  2
STYLE
  5
3
330
0
100
AcDbSymbolTable
 70
     8
  0
STYLE
  5
11
330
3
100
AcDbSymbolTableRecord
100
AcDbTextStyleTableRecord
  2
Standard
 70
     0
 40
0.0
 41
1.0
 50
0.0
 71
     0
 42
2.5
  3
txt
  4

  0
STYLE
  5
AD
330
3
100
AcDbSymbolTableRecord
100
AcDbTextStyleTableRecord
  2
SLDTEXTSTYLE0
 70
     0
 40
0.0
 41
0.5525
 50
0.0
 71
     0
 42
2.5
  3
TXT
  4

  0
STYLE
  5
AF
330
3
100
AcDbSymbolTableRecord
100
AcDbTextStyleTableRecord
  2
SLDTEXTSTYLE1
 70
     0
 40
0.0
 41
0.605
 50
0.0
 71
     0
 42
2.5
  3
TXT
  4

  0
STYLE
  5
BA
330
3
100
AcDbSymbolTableRecord
100
AcDbTextStyleTableRecord
  2
SLDTEXTSTYLE2
 70
     0
 40
0.0
 41
0.57
 50
0.0
 71
     0
 42
2.5
  3
TXT
  4

  0
STYLE
  5
E0
330
3
100
AcDbSymbolTableRecord
100
AcDbTextStyleTableRecord
  2
SLDTEXTSTYLE3
 70
     0
 40
0.0
 41
0.563
 50
0.0
 71
     0
 42
2.5
  3
TXT
  4

  0
STYLE
  5
111
330
3
100
AcDbSymbolTableRecord
100
AcDbTextStyleTableRecord
  2
SLDTEXTSTYLE4
 70
     0
 40
0.0
 41
0.605
 50
0.0
 71
     0
 42
2.5
  3
TXT
  4
bigfont
  0
STYLE
  5
146
330
3
100
AcDbSymbolTableRecord
100
AcDbTextStyleTableRecord
  2
SLDTEXTSTYLE5
 70
     0
 40
0.0
 41
0.5671875
 50
0.0
 71
     0
 42
2.5
  3
TXT
  4

  0
STYLE
  5
1F0
330
3
100
AcDbSymbolTableRecord
100
AcDbTextStyleTableRecord
  2
SLDTEXTSTYLE6
 70
     0
 40
0.0
 41
0.75
 50
0.0
 71
     0
 42
2.5
  3
TXT
  4

  0
ENDTAB
  0
TABLE
  2
VIEW
  5
6
330
0
100
AcDbSymbolTable
 70
     0
  0
ENDTAB
  0
TABLE
  2
UCS
  5
7
330
0
100
AcDbSymbolTable
 70
     0
  0
ENDTAB
  0
TABLE
  2
APPID
  5
9
330
0
100
AcDbSymbolTable
 70
     1
  0
APPID
  5
12
330
9
100
AcDbSymbolTableRecord
100
AcDbRegAppTableRecord
  2
ACAD
 70
     0
  0
ENDTAB
  0
TABLE
  2
DIMSTYLE
  5
A
330
0
100
AcDbSymbolTable
 70
     5
100
AcDbDimStyleTable
  0
DIMSTYLE
105
27
330
A
100
AcDbSymbolTableRecord
100
AcDbDimStyleTableRecord
  2
ISO-25
 70
     0
 41
2.5
 42
0.625
 43
3.75
 44
1.25
 73
     0
 74
     0
 77
     1
 78
     8
140
2.5
141
2.5
143
0.0393700787
147
0.625
171
     3
172
     1
178
     0
271
     2
272
     2
274
     3
278
    44
283
     0
284
     8
340
11
  0
DIMSTYLE
105
251
102
{ACAD_REACTORS
330
250
330
26D
102
}
330
A
100
AcDbSymbolTableRecord
100
AcDbDimStyleTableRecord
  2
SLDDIMSTYLE0
 70
     0
 41
2.5
 44
0.0
 45
0.000000001
 48
0.3
 71
     1
 73
     0
 74
     0
 77
     1
 78
    12
 79
     3
140
2.5
147
0.625
173
     1
178
     0
271
     2
272
     1
276
     2
284
     8
340
AF
  0
DIMSTYLE
105
261
102
{ACAD_REACTORS
330
260
330
2AC
102
}
330
A
100
AcDbSymbolTableRecord
100
AcDbDimStyleTableRecord
  2
SLDDIMSTYLE1
 70
     0
 41
2.5
 44
0.0
 45
0.000000001
 47
0.2
 48
0.2
 71
     1
 73
     0
 74
     0
 77
     1
 78
    12
 79
     3
140
2.5
147
0.625
173
     1
178
     0
271
     2
272
     1
276
     2
284
     8
340
AF
  0
DIMSTYLE
105
27D
102
{ACAD_REACTORS
330
27C
330
286
330
292
330
2B8
102
}
330
A
100
AcDbSymbolTableRecord
100
AcDbDimStyleTableRecord
  2
SLDDIMSTYLE2
 70
     0
 41
2.5
 44
0.0
 45
0.000000001
 73
     0
 74
     0
 77
     1
 78
    12
 79
     3
140
2.5
147
0.625
173
     1
178
     0
271
     2
272
     2
276
     2
284
    12
340
AF
  0
DIMSTYLE
105
2A0
102
{ACAD_REACTORS
330
29F
330
33B
102
}
330
A
100
AcDbSymbolTableRecord
100
AcDbDimStyleTableRecord
  2
SLDDIMSTYLE3
 70
     0
 41
2.5
 44
0.0
 45
0.000000001
 73
     0
 74
     0
 77
     1
 78
    12
 79
     3
140
2.5
147
0.625
172
     1
173
     1
178
     0
271
     2
272
     2
276
     2
284
    12
289
     0
340
AF
  0
ENDTAB
  0
TABLE
  2
BLOCK_RECORD
  5
1
330
0
100
AcDbSymbolTable
 70
    50
  0
BLOCK_RECORD
  5
1F
330
1
100
AcDbSymbolTableRecord
100
AcDbBlockTableRecord
  2
*Model_Space
340
22
  0
BLOCK_RECORD
  5
1B
330
1
100
AcDbSymbolTableRecord
100
AcDbBlockTableRecord
  2
*Paper_Space
340
1E
  0
BLOCK_RECORD
  5
23
330
1
100
AcDbSymbolTableRecord
100
AcDbBlockTableRecord
  2
*Paper_Space0
340
26
  0
BLOCK_RECORD
  5
75
330
1
100
AcDbSymbolTableRecord
100
AcDbBlockTableRecord
  2
ERGAENZUNG_VON_EINHEITSSCHRIFTKOPF_ALBSTADT_VERSION_7_2017_11_10
340
0
102
{BLKREFS
331
1EF
102
}
  0
BLOCK_RECORD
  5
AA
330
1
100
AcDbSymbolTableRecord
100
AcDbBlockTableRecord
  2
SW_NOTE_0
340
0
102
{BLKREFS
331
B1
102
}
  0
BLOCK_RECORD
  5
B2
330
1
100
AcDbSymbolTableRecord
100
AcDbBlockTableRecord
  2
SW_NOTE_0_1
340
0
102
{BLKREFS
331
B6
102
}
  0
BLOCK_RECORD
  5
B7
330
1
100
AcDbSymbolTableRecord
100
AcDbBlockTableRecord
  2
SW_NOTE_0_2
340
0
102
{BLKREFS
331
BD
102
}
  0
BLOCK_RECORD
  5
BE
330
1
100
AcDbSymbolTableRecord
100
AcDbBlockTableRecord
  2
SW_NOTE_0_3
340
0
102
{BLKREFS
331
C2
102
}
  0
BLOCK_RECORD
  5
C3
330
1
100
AcDbSymbolTableRecord
100
AcDbBlockTableRecord
  2
SW_NOTE_0_4
340
0
102
{BLKREFS
331
C7
102
}
  0
BLOCK_RECORD
  5
C8
330
1
100
AcDbSymbolTableRecord
100
AcDbBlockTableRecord
  2
SW_NOTE_0_5
340
0
102
{BLKREFS
331
CC
102
}
  0
BLOCK_RECORD
  5
CD
330
1
100
AcDbSymbolTableRecord
100
AcDbBlockTableRecord
  2
SW_NOTE_0_6
340
0
102
{BLKREFS
331
D1
102
}
  0
BLOCK_RECORD
  5
D2
330
1
100
AcDbSymbolTableRecord
100
AcDbBlockTableRecord
  2
SW_NOTE_0_7
340
0
102
{BLKREFS
331
D6
102
}
  0
BLOCK_RECORD
  5
D7
330
1
100
AcDbSymbolTableRecord
100
AcDbBlockTableRecord
  2
SW_NOTE_0_8
340
0
102
{BLKREFS
331
DC
102
}
  0
BLOCK_RECORD
  5
DD
330
1
100
AcDbSymbolTableRecord
100
AcDbBlockTableRecord
  2
SW_NOTE_0_9
340
0
102
{BLKREFS
331
E3
102
}
  0
BLOCK_RECORD
  5
E4
330
1
100
AcDbSymbolTableRecord
100
AcDbBlockTableRecord
  2
SW_NOTE_0_10
340
0
102
{BLKREFS
331
E9
102
}
  0
BLOCK_RECORD
  5
EA
330
1
100
AcDbSymbolTableRecord
100
AcDbBlockTableRecord
  2
SW_NOTE_0_11
340
0
102
{BLKREFS
331
EF
102
}
  0
BLOCK_RECORD
  5
F0
330
1
100
AcDbSymbolTableRecord
100
AcDbBlockTableRecord
  2
SW_NOTE_0_12
340
0
102
{BLKREFS
331
F4
102
}
  0
BLOCK_RECORD
  5
F5
330
1
100
AcDbSymbolTableRecord
100
AcDbBlockTableRecord
  2
SW_NOTE_0_13
340
0
102
{BLKREFS
331
F9
102
}
  0
BLOCK_RECORD
  5
FA
330
1
100
AcDbSymbolTableRecord
100
AcDbBlockTableRecord
  2
SW_NOTE_0_14
340
0
102
{BLKREFS
331
FE
102
}
  0
BLOCK_RECORD
  5
FF
330
1
100
AcDbSymbolTableRecord
100
AcDbBlockTableRecord
  2
SW_NOTE_0_15
340
0
102
{BLKREFS
331
103
102
}
  0
BLOCK_RECORD
  5
104
330
1
100
AcDbSymbolTableRecord
100
AcDbBlockTableRecord
  2
SW_NOTE_0_16
340
0
102
{BLKREFS
331
108
102
}
  0
BLOCK_RECORD
  5
109
330
1
100
AcDbSymbolTableRecord
100
AcDbBlockTableRecord
  2
SW_NOTE_0_17
340
0
102
{BLKREFS
331
10D
102
}
  0
BLOCK_RECORD
  5
10E
330
1
100
AcDbSymbolTableRecord
100
AcDbBlockTableRecord
  2
SW_NOTE_0_18
340
0
102
{BLKREFS
331
113
102
}
  0
BLOCK_RECORD
  5
114
330
1
100
AcDbSymbolTableRecord
100
AcDbBlockTableRecord
  2
SW_NOTE_0_19
340
0
102
{BLKREFS
331
118
102
}
  0
BLOCK_RECORD
  5
119
330
1
100
AcDbSymbolTableRecord
100
AcDbBlockTableRecord
  2
SW_NOTE_0_20
340
0
102
{BLKREFS
331
11D
102
}
  0
BLOCK_RECORD
  5
11E
330
1
100
AcDbSymbolTableRecord
100
AcDbBlockTableRecord
  2
SW_NOTE_0_21
340
0
102
{BLKREFS
331
122
102
}
  0
BLOCK_RECORD
  5
123
330
1
100
AcDbSymbolTableRecord
100
AcDbBlockTableRecord
  2
SW_NOTE_0_22
340
0
102
{BLKREFS
331
127
102
}
  0
BLOCK_RECORD
  5
128
330
1
100
AcDbSymbolTableRecord
100
AcDbBlockTableRecord
  2
SW_NOTE_0_23
340
0
102
{BLKREFS
331
12E
102
}
  0
BLOCK_RECORD
  5
12F
330
1
100
AcDbSymbolTableRecord
100
AcDbBlockTableRecord
  2
SW_NOTE_0_24
340
0
102
{BLKREFS
331
133
102
}
  0
BLOCK_RECORD
  5
134
330
1
100
AcDbSymbolTableRecord
100
AcDbBlockTableRecord
  2
SW_NOTE_0_25
340
0
102
{BLKREFS
331
138
102
}
  0
BLOCK_RECORD
  5
139
330
1
100
AcDbSymbolTableRecord
100
AcDbBlockTableRecord
  2
SW_NOTE_0_26
340
0
102
{BLKREFS
331
13D
102
}
  0
BLOCK_RECORD
  5
13E
330
1
100
AcDbSymbolTableRecord
100
AcDbBlockTableRecord
  2
SW_NOTE_0_27
340
0
102
{BLKREFS
331
142
102
}
  0
BLOCK_RECORD
  5
143
330
1
100
AcDbSymbolTableRecord
100
AcDbBlockTableRecord
  2
SW_NOTE_0_28
340
0
102
{BLKREFS
331
148
102
}
  0
BLOCK_RECORD
  5
149
330
1
100
AcDbSymbolTableRecord
100
AcDbBlockTableRecord
  2
SW_NOTE_0_29
340
0
102
{BLKREFS
331
14D
102
}
  0
BLOCK_RECORD
  5
14E
330
1
100
AcDbSymbolTableRecord
100
AcDbBlockTableRecord
  2
SW_NOTE_0_30
340
0
102
{BLKREFS
331
152
102
}
  0
BLOCK_RECORD
  5
153
330
1
100
AcDbSymbolTableRecord
100
AcDbBlockTableRecord
  2
SW_NOTE_0_31
340
0
102
{BLKREFS
331
157
102
}
  0
BLOCK_RECORD
  5
158
330
1
100
AcDbSymbolTableRecord
100
AcDbBlockTableRecord
  2
SW_NOTE_0_32
340
0
102
{BLKREFS
331
15C
102
}
  0
BLOCK_RECORD
  5
213
330
1
100
AcDbSymbolTableRecord
100
AcDbBlockTableRecord
  2
SW_TABLEANNOTATION_0
340
0
102
{BLKREFS
331
237
102
}
  0
BLOCK_RECORD
  5
252
330
1
100
AcDbSymbolTableRecord
100
AcDbBlockTableRecord
  2
_D
340
0
  0
BLOCK_RECORD
  5
262
330
1
100
AcDbSymbolTableRecord
100
AcDbBlockTableRecord
  2
_D_1
340
0
  0
BLOCK_RECORD
  5
26E
330
1
100
AcDbSymbolTableRecord
100
AcDbBlockTableRecord
  2
_D_2
340
0
  0
BLOCK_RECORD
  5
27E
330
1
100
AcDbSymbolTableRecord
100
AcDbBlockTableRecord
  2
_D_3
340
0
  0
BLOCK_RECORD
  5
287
330
1
100
AcDbSymbolTableRecord
100
AcDbBlockTableRecord
  2
_D_4
340
0
  0
BLOCK_RECORD
  5
293
330
1
100
AcDbSymbolTableRecord
100
AcDbBlockTableRecord
  2
_D_5
340
0
  0
BLOCK_RECORD
  5
2A1
330
1
100
AcDbSymbolTableRecord
100
AcDbBlockTableRecord
  2
_D_6
340
0
  0
BLOCK_RECORD
  5
2AD
330
1
100
AcDbSymbolTableRecord
100
AcDbBlockTableRecord
  2
_D_7
340
0
  0
BLOCK_RECORD
  5
2B9
330
1
100
AcDbSymbolTableRecord
100
AcDbBlockTableRecord
  2
_D_8
340
0
  0
BLOCK_RECORD
  5
2C2
330
1
100
AcDbSymbolTableRecord
100
AcDbBlockTableRecord
  2
SW_CENTERMARKSYMBOL_0
340
0
102
{BLKREFS
331
2CD
102
}
  0
BLOCK_RECORD
  5
2CE
330
1
100
AcDbSymbolTableRecord
100
AcDbBlockTableRecord
  2
SW_CENTERMARKSYMBOL_1
340
0
102
{BLKREFS
331
2D9
102
}
  0
BLOCK_RECORD
  5
2DA
330
1
100
AcDbSymbolTableRecord
100
AcDbBlockTableRecord
  2
SW_CENTERMARKSYMBOL_2
340
0
102
{BLKREFS
331
2E5
102
}
  0
BLOCK_RECORD
  5
2E6
330
1
100
AcDbSymbolTableRecord
100
AcDbBlockTableRecord
  2
SW_CENTERMARKSYMBOL_3
340
0
102
{BLKREFS
331
2F1
102
}
  0
BLOCK_RECORD
  5
33C
330
1
100
AcDbSymbolTableRecord
100
AcDbBlockTableRecord
  2
_D_9
340
0
  0
ENDTAB
  0
ENDSEC
  0
SECTION
  2
BLOCKS
  0
BLOCK
  5
20
330
1F
100
AcDbEntity
  8
0
100
AcDbBlockBegin
  2
*Model_Space
 70
     0
 10
0.0
 20
0.0
 30
0.0
  3
*Model_Space
  1

  0
ENDBLK
  5
21
330
1F
100
AcDbEntity
  8
0
100
AcDbBlockEnd
  0
BLOCK
  5
1C
330
1B
100
AcDbEntity
 67
     1
  8
0
100
AcDbBlockBegin
  2
*Paper_Space
 70
     0
 10
0.0
 20
0.0
 30
0.0
  3
*Paper_Space
  1

  0
ENDBLK
  5
1D
330
1B
100
AcDbEntity
 67
     1
  8
0
100
AcDbBlockEnd
  0
BLOCK
  5
24
330
23
100
AcDbEntity
  8
0
100
AcDbBlockBegin
  2
*Paper_Space0
 70
     0
 10
0.0
 20
0.0
 30
0.0
  3
*Paper_Space0
  1

  0
ENDBLK
  5
25
330
23
100
AcDbEntity
  8
0
100
AcDbBlockEnd
  0
BLOCK
  5
76
330
75
100
AcDbEntity
  8
0
100
AcDbBlockBegin
  2
ERGAENZUNG_VON_EINHEITSSCHRIFTKOPF_ALBSTADT_VERSION_7_2017_11_10
 70
     2
 10
0.0
 20
0.0
 30
0.0
  3
ERGAENZUNG_VON_EINHEITSSCHRIFTKOPF_ALBSTADT_VERSION_7_2017_11_10
  1

  0
ARC
  5
78
330
75
100
AcDbEntity
  8
0
  6
Continuous
 62
     7
370
    18
100
AcDbCircle
 10
472.947259708
 20
127.0873760655
 30
0.0
 40
2.74288307000208
100
AcDbArc
 50
90.0
 51
270.0
  0
ARC
  5
79
330
75
100
AcDbEntity
  8
0
  6
Continuous
 62
     7
370
    18
100
AcDbCircle
 10
477.5758748886
 20
127.0873760655
 30
0.0
 40
2.74288307000208
100
AcDbArc
 50
270.0
 51
90.0
  0
LINE
  5
7A
330
75
100
AcDbEntity
  8
1
 62
     7
100
AcDbLine
 10
591.4943526121
 20
137.4356189657
 30
0.0
 11
592.5026035474
 21
138.209277119
 31
0.0
  0
LINE
  5
7B
330
75
100
AcDbEntity
  8
1
  6
Continuous
 62
     7
100
AcDbLine
 10
593.1648923827
 20
139.1061587363
 30
0.0
 11
592.3853071564
 21
138.32657351
 31
0.0
  0
LINE
  5
7C
330
75
100
AcDbEntity
  8
1
  6
Continuous
 62
     7
100
AcDbLine
 10
593.7948923827
 20
139.7361587363
 30
0.0
 11
593.7948923827
 21
141.9411587363
 31
0.0
  0
LINE
  5
7D
330
75
100
AcDbEntity
  8
1
  6
Continuous
 62
     7
100
AcDbLine
 10
585.6048923827
 20
139.1061587363
 30
0.0
 11
590.3298923827
 21
139.1061587363
 31
0.0
  0
LINE
  5
7E
330
75
100
AcDbEntity
  8
1
  6
Continuous
 62
     7
100
AcDbLine
 10
585.6048923827
 20
139.1061587363
 30
0.0
 11
584.8253071564
 21
138.32657351
 31
0.0
  0
LINE
  5
7F
330
75
100
AcDbEntity
  8
1
  6
Continuous
 62
     7
100
AcDbLine
 10
586.2348923827
 20
139.7361587363
 30
0.0
 11
586.2348923827
 21
141.9411587363
 31
0.0
  0
LINE
  5
80
330
75
100
AcDbEntity
  8
1
  6
Continuous
 62
     7
100
AcDbLine
 10
583.9343526121
 20
135.2306189657
 30
0.0
 11
583.9343526121
 21
137.4356189657
 31
0.0
  0
LINE
  5
81
330
75
100
AcDbEntity
  8
1
  6
Continuous
 62
     7
100
AcDbLine
 10
581.7293526121
 20
137.4356189657
 30
0.0
 11
583.9343526121
 21
137.4356189657
 31
0.0
  0
LINE
  5
82
330
75
100
AcDbEntity
  8
1
  6
Continuous
 62
     7
100
AcDbLine
 10
591.4943526121
 20
137.4356189657
 30
0.0
 11
593.6993526121
 21
137.4356189657
 31
0.0
  0
LINE
  5
83
330
75
100
AcDbEntity
  8
1
  6
Continuous
 62
     7
100
AcDbLine
 10
591.4943526121
 20
137.4356189657
 30
0.0
 11
591.4943526121
 21
139.6406189657
 31
0.0
  0
LINE
  5
84
330
75
100
AcDbEntity
  8
1
  6
Continuous
 62
     7
100
AcDbLine
 10
593.7948923827
 20
139.7361587363
 30
0.0
 11
595.9998923827
 21
139.7361587363
 31
0.0
  0
LINE
  5
85
330
75
100
AcDbEntity
  8
1
  6
Continuous
 62
     7
100
AcDbLine
 10
586.2348923827
 20
139.7361587363
 30
0.0
 11
588.4398923827
 21
139.7361587363
 31
0.0
  0
LINE
  5
86
330
75
100
AcDbEntity
  8
1
  6
Continuous
 62
     7
100
AcDbLine
 10
593.1648923827
 20
139.1061587363
 30
0.0
 11
597.8898923827
 21
139.1061587363
 31
0.0
  0
LINE
  5
87
330
75
100
AcDbEntity
  8
0
  6
Continuous
 62
     7
370
    25
100
AcDbLine
 10
581.3036061719
 20
146.4262259865
 30
0.0
 11
581.3036061719
 21
133.7262259865
 31
0.0
  0
LINE
  5
88
330
75
100
AcDbEntity
  8
0
  6
Continuous
 62
     7
370
    18
100
AcDbLine
 10
472.947259708
 20
129.8302591355
 30
0.0
 11
477.5758748886
 21
129.8302591355
 31
0.0
  0
LINE
  5
89
330
75
100
AcDbEntity
  8
0
  6
Continuous
 62
     7
370
    18
100
AcDbLine
 10
472.947259708
 20
124.3444929955
 30
0.0
 11
477.5758748886
 21
124.3444929955
 31
0.0
  0
LINE
  5
8A
330
75
100
AcDbEntity
  8
0
  6
Continuous
 62
     7
370
    50
100
AcDbLine
 10
467.5864324192
 20
133.7262259865
 30
0.0
 11
467.5864324192
 21
146.4262259865
 31
0.0
  0
LINE
  5
8B
330
75
100
AcDbEntity
  8
0
  6
Continuous
 62
     7
370
    50
100
AcDbLine
 10
467.5864324192
 20
146.4262259865
 30
0.0
 11
650.5864324192
 21
146.4262259865
 31
0.0
  0
LINE
  5
8C
330
75
100
AcDbEntity
  8
0
  6
Continuous
 62
     7
370
    50
100
AcDbLine
 10
650.5864324192
 20
146.4262259865
 30
0.0
 11
650.5864324192
 21
133.7262259865
 31
0.0
  0
LINE
  5
8D
330
75
100
AcDbEntity
  8
0
  6
Continuous
 62
     7
370
    25
100
AcDbLine
 10
527.5864324192
 20
121.0262259865
 30
0.0
 11
527.5864324192
 21
133.7262259865
 31
0.0
  0
LINE
  5
8E
330
75
100
AcDbEntity
  8
0
  6
Continuous
 62
     7
370
    50
100
AcDbLine
 10
467.5864324192
 20
133.7262259865
 30
0.0
 11
650.5864324192
 21
133.7262259865
 31
0.0
  0
LINE
  5
8F
330
75
100
AcDbEntity
  8
0
  6
Continuous
 62
     7
370
    50
100
AcDbLine
 10
467.5864324192
 20
133.7262259865
 30
0.0
 11
467.5864324192
 21
121.0262259865
 31
0.0
  0
LINE
  5
90
330
75
100
AcDbEntity
  8
0
  6
Continuous
 62
     7
370
    50
100
AcDbLine
 10
467.5864324192
 20
121.0262259865
 30
0.0
 11
650.5864324192
 21
121.0262259865
 31
0.0
  0
LINE
  5
91
330
75
100
AcDbEntity
  8
0
  6
Continuous
 62
     7
370
    50
100
AcDbLine
 10
650.5864324192
 20
133.7262259865
 30
0.0
 11
650.5864324192
 21
121.0262259865
 31
0.0
  0
LINE
  5
92
330
75
100
AcDbEntity
  8
0
  6
Continuous
 62
     7
370
    25
100
AcDbLine
 10
600.5864324192
 20
121.0262259865
 30
0.0
 11
600.5864324192
 21
133.7262259865
 31
0.0
  0
LINE
  5
93
330
75
100
AcDbEntity
  8
0
  6
Continuous
 62
     7
370
    18
100
AcDbLine
 10
476.0646463834
 20
133.7262259865
 30
0.0
 11
476.0646463834
 21
146.4262259865
 31
0.0
  0
LINE
  5
94
330
75
100
AcDbEntity
  8
0
  6
Continuous
 62
     7
370
    18
100
AcDbLine
 10
496.8374374907
 20
133.7262259865
 30
0.0
 11
496.8374374907
 21
146.4262259865
 31
0.0
  0
LINE
  5
95
330
75
100
AcDbEntity
  8
0
  6
Continuous
 62
     7
370
    18
100
AcDbLine
 10
512.1437046224
 20
133.7262259865
 30
0.0
 11
512.1437046224
 21
146.4262259865
 31
0.0
  0
LINE
  5
96
330
75
100
AcDbEntity
  8
0
  6
Continuous
 62
     7
370
    25
100
AcDbLine
 10
527.5864324192
 20
133.7262259865
 30
0.0
 11
527.5864324192
 21
146.4262259865
 31
0.0
  0
LINE
  5
97
330
75
100
AcDbEntity
  8
0
  6
Continuous
 62
     7
370
    18
100
AcDbLine
 10
467.5864324192
 20
138.4762259865
 30
0.0
 11
527.5864324192
 21
138.4762259865
 31
0.0
  0
LINE
  5
98
330
75
100
AcDbEntity
  8
0
  6
Continuous
 62
     7
370
    25
100
AcDbLine
 10
600.5864324192
 20
133.7262259865
 30
0.0
 11
600.5864324192
 21
146.4262259865
 31
0.0
  0
LINE
  5
99
330
75
100
AcDbEntity
  8
0
  6
Continuous
 62
     7
370
    25
100
AcDbLine
 10
648.5864324192
 20
137.92656031
 30
0.0
 11
620.2664324192
 21
137.92656031
 31
0.0
  0
LINE
  5
9A
330
75
100
AcDbEntity
  8
0
  6
Continuous
 62
     7
370
    25
100
AcDbLine
 10
624.8264324192
 20
140.4556702268
 30
0.0
 11
624.8264324192
 21
135.3756702268
 31
0.0
  0
LINE
  5
9B
330
75
100
AcDbEntity
  8
0
  6
Continuous
 62
     7
370
    25
100
AcDbLine
 10
634.4264324192
 20
140.4556702268
 30
0.0
 11
634.4264324192
 21
135.3756702268
 31
0.0
  0
LINE
  5
9C
330
75
100
AcDbEntity
  8
0
  6
Continuous
 62
     7
370
    25
100
AcDbLine
 10
644.0264324192
 20
140.4556702268
 30
0.0
 11
644.0264324192
 21
135.3756702268
 31
0.0
  0
LINE
  5
9D
330
75
100
AcDbEntity
  8
0
  6
Continuous
 62
     7
370
    18
100
AcDbLine
 10
601.4149737536
 20
141.9556702268
 30
0.0
 11
604.4149737536
 21
141.9556702268
 31
0.0
  0
LINE
  5
9E
330
75
100
AcDbEntity
  8
0
  6
Continuous
 62
     7
370
    18
100
AcDbLine
 10
601.8649737536
 20
140.4556702268
 30
0.0
 11
603.9649737536
 21
140.4556702268
 31
0.0
  0
LINE
  5
9F
330
75
100
AcDbEntity
  8
0
  6
Continuous
 62
     7
370
    18
100
AcDbLine
 10
602.3149737536
 20
140.8576702268
 30
0.0
 11
603.5149737536
 21
140.8576702268
 31
0.0
  0
LINE
  5
A0
330
75
100
AcDbEntity
  8
0
  6
Continuous
 62
     7
370
    18
100
AcDbLine
 10
601.4149737536
 20
141.9556702268
 30
0.0
 11
601.4149737536
 21
138.9556702268
 31
0.0
  0
LINE
  5
A1
330
75
100
AcDbEntity
  8
0
  6
Continuous
 62
     7
370
    18
100
AcDbLine
 10
601.4149737536
 20
138.9556702268
 30
0.0
 11
604.4149737536
 21
138.9556702268
 31
0.0
  0
LINE
  5
A2
330
75
100
AcDbEntity
  8
0
  6
Continuous
 62
     7
370
    18
100
AcDbLine
 10
604.4149737536
 20
138.9556702268
 30
0.0
 11
604.4149737536
 21
141.9556702268
 31
0.0
  0
LINE
  5
A3
330
75
100
AcDbEntity
  8
0
  6
Continuous
 62
     7
370
    18
100
AcDbLine
 10
602.3149737536
 20
140.0536702268
 30
0.0
 11
603.5149737536
 21
140.0536702268
 31
0.0
  0
LINE
  5
A4
330
75
100
AcDbEntity
  8
0
  6
Continuous
 62
     7
370
    18
100
AcDbLine
 10
645.1058948121
 20
125.2782010119
 30
0.0
 11
600.8082372299
 21
125.2782010119
 31
0.0
  0
LINE
  5
A5
330
75
100
AcDbEntity
  8
0
  6
Continuous
 62
     7
370
    18
100
AcDbLine
 10
607.2218948121
 20
130.7802058761
 30
0.0
 11
607.2218948121
 21
121.4263930009
 31
0.0
  0
LINE
  5
A6
330
75
100
AcDbEntity
  8
0
  6
Continuous
 62
     7
370
    18
100
AcDbLine
 10
614.6138948121
 20
130.7802058761
 30
0.0
 11
614.6138948121
 21
121.4263930009
 31
0.0
  0
LINE
  5
A7
330
75
100
AcDbEntity
  8
0
  6
Continuous
 62
     7
370
    18
100
AcDbLine
 10
622.0058948121
 20
130.7802058761
 30
0.0
 11
622.0058948121
 21
121.4263930009
 31
0.0
  0
LINE
  5
A8
330
75
100
AcDbEntity
  8
0
  6
Continuous
 62
     7
370
    18
100
AcDbLine
 10
629.3978948121
 20
130.7802058761
 30
0.0
 11
629.3978948121
 21
121.4263930009
 31
0.0
  0
LINE
  5
A9
330
75
100
AcDbEntity
  8
0
  6
Continuous
 62
     7
370
    18
100
AcDbLine
 10
636.7898948121
 20
130.7802058761
 30
0.0
 11
636.7898948121
 21
121.4263930009
 31
0.0
  0
INSERT
  5
B1
330
75
100
AcDbEntity
  8
0
  6
Continuous
 62
     7
370
     0
100
AcDbBlockReference
  2
SW_NOTE_0
 10
616.946783549
 20
127.8566229775
 30
0.0
  0
INSERT
  5
B6
330
75
100
AcDbEntity
  8
0
  6
Continuous
 62
     7
370
     0
100
AcDbBlockReference
  2
SW_NOTE_0_1
 10
621.4394323718
 20
135.6806045295
 30
0.0
  0
INSERT
  5
BD
330
75
100
AcDbEntity
  8
0
  6
Continuous
 62
     7
370
    18
100
AcDbBlockReference
  2
SW_NOTE_0_2
 10
630.0051827962
 20
127.8405272946
 30
0.0
  0
INSERT
  5
C2
330
75
100
AcDbEntity
  8
0
  6
Continuous
 62
     7
370
    18
100
AcDbBlockReference
  2
SW_NOTE_0_3
 10
608.5120782152
 20
122.1683795013
 30
0.0
  0
INSERT
  5
C7
330
75
100
AcDbEntity
  8
0
  6
Continuous
 62
     7
370
    18
100
AcDbBlockReference
  2
SW_NOTE_0_4
 10
623.2521089623
 20
122.1552629305
 30
0.0
  0
INSERT
  5
CC
330
75
100
AcDbEntity
  8
0
  6
Continuous
 62
     7
370
    18
100
AcDbBlockReference
  2
SW_NOTE_0_5
 10
630.6425567958
 20
122.1661195695
 30
0.0
  0
INSERT
  5
D1
330
75
100
AcDbEntity
  8
0
  6
Continuous
 62
     7
370
    18
100
AcDbBlockReference
  2
SW_NOTE_0_6
 10
638.5018716822
 20
122.1671215898
 30
0.0
  0
INSERT
  5
D6
330
75
100
AcDbEntity
  8
0
  6
Continuous
 62
     7
370
    18
100
AcDbBlockReference
  2
SW_NOTE_0_7
 10
601.0983970489
 20
122.1675932478
 30
0.0
  0
INSERT
  5
DC
330
75
100
AcDbEntity
  8
0
  6
Continuous
 62
     7
370
     0
100
AcDbBlockReference
  2
SW_NOTE_0_8
 10
638.3039525579
 20
127.8252880698
 30
0.0
  0
INSERT
  5
E3
330
75
100
AcDbEntity
  8
0
  6
Continuous
 62
     7
370
     0
100
AcDbBlockReference
  2
SW_NOTE_0_9
 10
623.700685549
 20
127.8588223684
 30
0.0
  0
INSERT
  5
E9
330
75
100
AcDbEntity
  8
0
  6
Continuous
 62
     7
370
     0
100
AcDbBlockReference
  2
SW_NOTE_0_10
 10
602.2785189971
 20
127.8559927623
 30
0.0
  0
INSERT
  5
EF
330
75
100
AcDbEntity
  8
0
  6
Continuous
 62
     7
370
     0
100
AcDbBlockReference
  2
SW_NOTE_0_11
 10
609.0146097458
 20
127.8440699194
 30
0.0
  0
INSERT
  5
F4
330
75
100
AcDbEntity
  8
0
  6
Continuous
 62
     7
370
    18
100
AcDbBlockReference
  2
SW_NOTE_0_12
 10
615.8558657779
 20
122.1678553323
 30
0.0
  0
INSERT
  5
F9
330
75
100
AcDbEntity
  8
0
  6
Continuous
 62
     7
370
     0
100
AcDbBlockReference
  2
SW_NOTE_0_13
 10
481.6948517348
 20
125.4491980064
 30
0.0
  0
INSERT
  5
FE
330
75
100
AcDbEntity
  8
0
  6
Continuous
 62
     7
370
     0
100
AcDbBlockReference
  2
SW_NOTE_0_14
 10
644.6284324477
 20
138.2591508692
 30
0.0
  0
INSERT
  5
103
330
75
100
AcDbEntity
  8
0
  6
Continuous
 62
     7
370
     0
100
AcDbBlockReference
  2
SW_NOTE_0_15
 10
644.9308335226
 20
135.7191508692
 30
0.0
  0
INSERT
  5
108
330
75
100
AcDbEntity
  8
0
  6
Continuous
 62
     7
370
     0
100
AcDbBlockReference
  2
SW_NOTE_0_16
 10
637.8461354179
 20
135.7159843066
 30
0.0
  0
INSERT
  5
10D
330
75
100
AcDbEntity
  8
0
  6
Continuous
 62
     7
370
     0
100
AcDbBlockReference
  2
SW_NOTE_0_17
 10
628.0882003052
 20
135.6806045295
 30
0.0
  0
INSERT
  5
113
330
75
100
AcDbEntity
  8
0
  6
Continuous
 62
     7
370
     0
100
AcDbBlockReference
  2
SW_NOTE_0_18
 10
635.0264325689
 20
138.2598647378
 30
0.0
  0
INSERT
  5
118
330
75
100
AcDbEntity
  8
0
  6
Continuous
 62
     7
370
     0
100
AcDbBlockReference
  2
SW_NOTE_0_19
 10
625.4264325689
 20
138.2553677692
 30
0.0
  0
INSERT
  5
11D
330
75
100
AcDbEntity
  8
0
  6
Continuous
 62
     7
370
     0
100
AcDbBlockReference
  2
SW_NOTE_0_20
 10
620.9034324814
 20
138.2553677692
 30
0.0
  0
INSERT
  5
122
330
75
100
AcDbEntity
  8
0
  6
Continuous
 62
     7
370
     0
100
AcDbBlockReference
  2
SW_NOTE_0_21
 10
621.9490758708
 20
140.8197717935
 30
0.0
  0
INSERT
  5
127
330
75
100
AcDbEntity
  8
0
  6
Continuous
 62
     7
370
     0
100
AcDbBlockReference
  2
SW_NOTE_0_22
 10
605.9405029253
 20
142.8612294585
 30
0.0
  0
INSERT
  5
12E
330
75
100
AcDbEntity
  8
0
  6
Continuous
 62
     7
370
     0
100
AcDbBlockReference
  2
SW_NOTE_0_23
 10
606.0108981645
 20
140.7149915132
 30
0.0
  0
INSERT
  5
133
330
75
100
AcDbEntity
  8
0
  6
Continuous
 62
     7
370
     0
100
AcDbBlockReference
  2
SW_NOTE_0_24
 10
502.1958222855
 20
134.929319516
 30
0.0
  0
INSERT
  5
138
330
75
100
AcDbEntity
  8
0
  6
Continuous
 62
     7
370
     0
100
AcDbBlockReference
  2
SW_NOTE_0_25
 10
516.4539267444
 20
134.929319516
 30
0.0
  0
INSERT
  5
13D
330
75
100
AcDbEntity
  8
0
  6
Continuous
 62
     7
370
     0
100
AcDbBlockReference
  2
SW_NOTE_0_26
 10
480.5449889088
 20
134.929319516
 30
0.0
  0
INSERT
  5
142
330
75
100
AcDbEntity
  8
0
  6
Continuous
 62
     7
370
     0
100
AcDbBlockReference
  2
SW_NOTE_0_27
 10
601.0262706867
 20
131.0088746362
 30
0.0
  0
INSERT
  5
148
330
75
100
AcDbEntity
  8
0
  6
Continuous
 62
     7
370
     0
100
AcDbBlockReference
  2
SW_NOTE_0_28
 10
581.6853707396
 20
143.6829499154
 30
0.0
  0
INSERT
  5
14D
330
75
100
AcDbEntity
  8
0
  6
Continuous
 62
     7
370
     0
100
AcDbBlockReference
  2
SW_NOTE_0_29
 10
469.1934396563
 20
134.929319516
 30
0.0
  0
INSERT
  5
152
330
75
100
AcDbEntity
  8
0
  6
Continuous
 62
     7
370
     0
100
AcDbBlockReference
  2
SW_NOTE_0_30
 10
528.2741539392
 20
130.7739673901
 30
0.0
  0
INSERT
  5
157
330
75
100
AcDbEntity
  8
0
  6
Continuous
 62
     7
370
     0
100
AcDbBlockReference
  2
SW_NOTE_0_31
 10
586.5475819101
 20
139.9005799848
 30
0.0
  0
INSERT
  5
15C
330
75
100
AcDbEntity
  8
0
  6
Continuous
 62
     7
370
     0
100
AcDbBlockReference
  2
SW_NOTE_0_32
 10
594.1075819101
 20
139.9005799848
 30
0.0
  0
ATTDEF
  5
15D
330
75
100
AcDbEntity
  8
0
  6
Continuous
 62
     7
370
     0
100
AcDbText
 10
528.2741539392
 20
126.332348394
 30
0.0
 40
2.5
  1
Schliessblech
 41
0.605
  7
SLDTEXTSTYLE1
 11
528.2741539392
 21
125.4491982392
 31
0.0
100
AcDbAttributeDefinition
  3

  2
AUTOATTR0
 70
     0
 74
     1
  0
ENDBLK
  5
77
330
75
100
AcDbEntity
  8
0
100
AcDbBlockEnd
  0
BLOCK
  5
AB
330
AA
100
AcDbEntity
  8
0
100
AcDbBlockBegin
  2
SW_NOTE_0
 70
     0
 10
0.0
 20
0.0
 30
0.0
  3
SW_NOTE_0
  1

  0
MTEXT
  5
AE
330
AA
100
AcDbEntity
  8
0
  6
Continuous
 62
     0
370
     0
100
AcDbMText
 10
3.794175
 20
2.1439774648
 30
0.0
 40
1.6632
 41
0.0
 71
     3
 72
     1
  1
>  6
  7
SLDTEXTSTYLE0
 73
     1
 44
1.0
  0
MTEXT
  5
B0
330
AA
100
AcDbEntity
  8
0
  6
Continuous
 62
     0
370
     0
100
AcDbMText
 10
3.9313311735
 20
0.0002975796
 30
0.0
 40
1.6632
 41
0.0
 71
     3
 72
     1
  1
... 30
  7
SLDTEXTSTYLE1
 73
     1
 44
1.0
  0
ENDBLK
  5
AC
330
AA
100
AcDbEntity
  8
0
100
AcDbBlockEnd
  0
BLOCK
  5
B3
330
B2
100
AcDbEntity
  8
0
100
AcDbBlockBegin
  2
SW_NOTE_0_1
 70
     0
 10
0.0
 20
0.0
 30
0.0
  3
SW_NOTE_0_1
  1

  0
MTEXT
  5
B5
330
B2
100
AcDbEntity
  8
0
  6
Continuous
 62
     0
370
     0
100
AcDbMText
 10
0.0
 20
1.8562575453
 30
0.0
 40
1.44
 41
0.0
 71
     1
 72
     1
  1
0,1
  7
SLDTEXTSTYLE1
 73
     1
 44
1.0
  0
ENDBLK
  5
B4
330
B2
100
AcDbEntity
  8
0
100
AcDbBlockEnd
  0
BLOCK
  5
B8
330
B7
100
AcDbEntity
  8
0
100
AcDbBlockBegin
  2
SW_NOTE_0_2
 70
     0
 10
0.0
 20
0.0
 30
0.0
  3
SW_NOTE_0_2
  1

  0
MTEXT
  5
BB
330
B7
100
AcDbEntity
  8
0
  6
Continuous
 62
     0
370
    18
100
AcDbMText
 10
6.288975
 20
2.1439774648
 30
0.0
 40
1.6632
 41
0.0
 71
     3
 72
     1
  1
>  120
  7
SLDTEXTSTYLE2
 73
     1
 44
1.0
  0
MTEXT
  5
BC
330
B7
100
AcDbEntity
  8
0
  6
Continuous
 62
     0
370
    18
100
AcDbMText
 10
6.358563673
 20
0.0002975796
 30
0.0
 40
1.6632
 41
0.0
 71
     3
 72
     1
  1
... 400
  7
SLDTEXTSTYLE1
 73
     1
 44
1.0
  0
ENDBLK
  5
B9
330
B7
100
AcDbEntity
  8
0
100
AcDbBlockEnd
  0
BLOCK
  5
BF
330
BE
100
AcDbEntity
  8
0
100
AcDbBlockBegin
  2
SW_NOTE_0_3
 70
     0
 10
0.0
 20
0.0
 30
0.0
  3
SW_NOTE_0_3
  1

  0
MTEXT
  5
C1
330
BE
100
AcDbEntity
  8
0
  6
Continuous
 62
     0
370
    18
100
AcDbMText
 10
0.0
 20
2.1439774648
 30
0.0
 40
1.6632
 41
0.0
 71
     1
 72
     1
  1
± 0.1
  7
SLDTEXTSTYLE1
 73
     1
 44
1.0
  0
ENDBLK
  5
C0
330
BE
100
AcDbEntity
  8
0
100
AcDbBlockEnd
  0
BLOCK
  5
C4
330
C3
100
AcDbEntity
  8
0
100
AcDbBlockBegin
  2
SW_NOTE_0_4
 70
     0
 10
0.0
 20
0.0
 30
0.0
  3
SW_NOTE_0_4
  1

  0
MTEXT
  5
C6
330
C3
100
AcDbEntity
  8
0
  6
Continuous
 62
     0
370
    18
100
AcDbMText
 10
0.0
 20
2.1439774648
 30
0.0
 40
1.6632
 41
0.0
 71
     1
 72
     1
  1
± 0.3
  7
SLDTEXTSTYLE1
 73
     1
 44
1.0
  0
ENDBLK
  5
C5
330
C3
100
AcDbEntity
  8
0
100
AcDbBlockEnd
  0
BLOCK
  5
C9
330
C8
100
AcDbEntity
  8
0
100
AcDbBlockBegin
  2
SW_NOTE_0_5
 70
     0
 10
0.0
 20
0.0
 30
0.0
  3
SW_NOTE_0_5
  1

  0
MTEXT
  5
CB
330
C8
100
AcDbEntity
  8
0
  6
Continuous
 62
     0
370
    18
100
AcDbMText
 10
0.0
 20
2.1439774648
 30
0.0
 40
1.6632
 41
0.0
 71
     1
 72
     1
  1
± 0.5
  7
SLDTEXTSTYLE1
 73
     1
 44
1.0
  0
ENDBLK
  5
CA
330
C8
100
AcDbEntity
  8
0
100
AcDbBlockEnd
  0
BLOCK
  5
CE
330
CD
100
AcDbEntity
  8
0
100
AcDbBlockBegin
  2
SW_NOTE_0_6
 70
     0
 10
0.0
 20
0.0
 30
0.0
  3
SW_NOTE_0_6
  1

  0
MTEXT
  5
D0
330
CD
100
AcDbEntity
  8
0
  6
Continuous
 62
     0
370
    18
100
AcDbMText
 10
0.0
 20
2.1439774648
 30
0.0
 40
1.6632
 41
0.0
 71
     1
 72
     1
  1
± 0.8
  7
SLDTEXTSTYLE1
 73
     1
 44
1.0
  0
ENDBLK
  5
CF
330
CD
100
AcDbEntity
  8
0
100
AcDbBlockEnd
  0
BLOCK
  5
D3
330
D2
100
AcDbEntity
  8
0
100
AcDbBlockBegin
  2
SW_NOTE_0_7
 70
     0
 10
0.0
 20
0.0
 30
0.0
  3
SW_NOTE_0_7
  1

  0
MTEXT
  5
D5
330
D2
100
AcDbEntity
  8
0
  6
Continuous
 62
     0
370
    18
100
AcDbMText
 10
0.0
 20
2.1439774648
 30
0.0
 40
1.6632
 41
0.0
 71
     1
 72
     1
  1
± 0.1
  7
SLDTEXTSTYLE1
 73
     1
 44
1.0
  0
ENDBLK
  5
D4
330
D2
100
AcDbEntity
  8
0
100
AcDbBlockEnd
  0
BLOCK
  5
D8
330
D7
100
AcDbEntity
  8
0
100
AcDbBlockBegin
  2
SW_NOTE_0_8
 70
     0
 10
0.0
 20
0.0
 30
0.0
  3
SW_NOTE_0_8
  1

  0
MTEXT
  5
DA
330
D7
100
AcDbEntity
  8
0
  6
Continuous
 62
     0
370
     0
100
AcDbMText
 10
6.288975
 20
2.1439774648
 30
0.0
 40
1.6632
 41
0.0
 71
     3
 72
     1
  1
>  400
  7
SLDTEXTSTYLE2
 73
     1
 44
1.0
  0
MTEXT
  5
DB
330
D7
100
AcDbEntity
  8
0
  6
Continuous
 62
     0
370
     0
100
AcDbMText
 10
6.490811992
 20
0.0002975796
 30
0.0
 40
1.6632
 41
0.0
 71
     3
 72
     1
  1
... 1000
  7
SLDTEXTSTYLE1
 73
     1
 44
1.0
  0
ENDBLK
  5
D9
330
D7
100
AcDbEntity
  8
0
100
AcDbBlockEnd
  0
BLOCK
  5
DE
330
DD
100
AcDbEntity
  8
0
100
AcDbBlockBegin
  2
SW_NOTE_0_9
 70
     0
 10
0.0
 20
0.0
 30
0.0
  3
SW_NOTE_0_9
  1

  0
MTEXT
  5
E1
330
DD
100
AcDbEntity
  8
0
  6
Continuous
 62
     0
370
     0
100
AcDbMText
 10
5.041575
 20
2.1439774648
 30
0.0
 40
1.6632
 41
0.0
 71
     3
 72
     1
  1
>  30
  7
SLDTEXTSTYLE3
 73
     1
 44
1.0
  0
MTEXT
  5
E2
330
DD
100
AcDbEntity
  8
0
  6
Continuous
 62
     0
370
     0
100
AcDbMText
 10
5.2333048138
 20
0.0002975796
 30
0.0
 40
1.6632
 41
0.0
 71
     3
 72
     1
  1
... 120
  7
SLDTEXTSTYLE1
 73
     1
 44
1.0
  0
ENDBLK
  5
DF
330
DD
100
AcDbEntity
  8
0
100
AcDbBlockEnd
  0
BLOCK
  5
E5
330
E4
100
AcDbEntity
  8
0
100
AcDbBlockBegin
  2
SW_NOTE_0_10
 70
     0
 10
0.0
 20
0.0
 30
0.0
  3
SW_NOTE_0_10
  1

  0
MTEXT
  5
E7
330
E4
100
AcDbEntity
  8
0
  6
Continuous
 62
     0
370
     0
100
AcDbMText
 10
3.1185
 20
2.1439774648
 30
0.0
 40
1.6632
 41
0.0
 71
     3
 72
     1
  1
0.5
  7
SLDTEXTSTYLE1
 73
     1
 44
1.0
  0
MTEXT
  5
E8
330
E4
100
AcDbEntity
  8
0
  6
Continuous
 62
     0
370
     0
100
AcDbMText
 10
3.1849126367
 20
0.0002975796
 30
0.0
 40
1.6632
 41
0.0
 71
     3
 72
     1
  1
... 3
  7
SLDTEXTSTYLE1
 73
     1
 44
1.0
  0
ENDBLK
  5
E6
330
E4
100
AcDbEntity
  8
0
100
AcDbBlockEnd
  0
BLOCK
  5
EB
330
EA
100
AcDbEntity
  8
0
100
AcDbBlockBegin
  2
SW_NOTE_0_11
 70
     0
 10
0.0
 20
0.0
 30
0.0
  3
SW_NOTE_0_11
  1

  0
MTEXT
  5
ED
330
EA
100
AcDbEntity
  8
0
  6
Continuous
 62
     0
370
     0
100
AcDbMText
 10
3.794175
 20
2.1439774648
 30
0.0
 40
1.6632
 41
0.0
 71
     3
 72
     1
  1
>  3
  7
SLDTEXTSTYLE0
 73
     1
 44
1.0
  0
MTEXT
  5
EE
330
EA
100
AcDbEntity
  8
0
  6
Continuous
 62
     0
370
     0
100
AcDbMText
 10
3.9261338802
 20
0.0002975796
 30
0.0
 40
1.6632
 41
0.0
 71
     3
 72
     1
  1
... 6
  7
SLDTEXTSTYLE1
 73
     1
 44
1.0
  0
ENDBLK
  5
EC
330
EA
100
AcDbEntity
  8
0
100
AcDbBlockEnd
  0
BLOCK
  5
F1
330
F0
100
AcDbEntity
  8
0
100
AcDbBlockBegin
  2
SW_NOTE_0_12
 70
     0
 10
0.0
 20
0.0
 30
0.0
  3
SW_NOTE_0_12
  1

  0
MTEXT
  5
F3
330
F0
100
AcDbEntity
  8
0
  6
Continuous
 62
     0
370
    18
100
AcDbMText
 10
0.0
 20
2.1439774648
 30
0.0
 40
1.6632
 41
0.0
 71
     1
 72
     1
  1
± 0.2
  7
SLDTEXTSTYLE1
 73
     1
 44
1.0
  0
ENDBLK
  5
F2
330
F0
100
AcDbEntity
  8
0
100
AcDbBlockEnd
  0
BLOCK
  5
F6
330
F5
100
AcDbEntity
  8
0
100
AcDbBlockBegin
  2
SW_NOTE_0_13
 70
     0
 10
0.0
 20
0.0
 30
0.0
  3
SW_NOTE_0_13
  1

  0
MTEXT
  5
F8
330
F5
100
AcDbEntity
  8
0
  6
Continuous
 62
     0
370
     0
100
AcDbMText
 10
0.0
 20
3.2226693494
 30
0.0
 40
2.5
 41
0.0
 71
     1
 72
     1
  1
Inspection Dimension
  7
SLDTEXTSTYLE1
 73
     1
 44
1.0
  0
ENDBLK
  5
F7
330
F5
100
AcDbEntity
  8
0
100
AcDbBlockEnd
  0
BLOCK
  5
FB
330
FA
100
AcDbEntity
  8
0
100
AcDbBlockBegin
  2
SW_NOTE_0_14
 70
     0
 10
0.0
 20
0.0
 30
0.0
  3
SW_NOTE_0_14
  1

  0
MTEXT
  5
FD
330
FA
100
AcDbEntity
  8
0
  6
Continuous
 62
     0
370
     0
100
AcDbMText
 10
1.6425
 20
1.8562575453
 30
0.0
 40
1.44
 41
0.0
 71
     2
 72
     1
  1
>50
  7
SLDTEXTSTYLE1
 73
     1
 44
1.0
  0
ENDBLK
  5
FC
330
FA
100
AcDbEntity
  8
0
100
AcDbBlockEnd
  0
BLOCK
  5
100
330
FF
100
AcDbEntity
  8
0
100
AcDbBlockBegin
  2
SW_NOTE_0_15
 70
     0
 10
0.0
 20
0.0
 30
0.0
  3
SW_NOTE_0_15
  1

  0
MTEXT
  5
102
330
FF
100
AcDbEntity
  8
0
  6
Continuous
 62
     0
370
     0
100
AcDbMText
 10
0.0
 20
1.8562575453
 30
0.0
 40
1.44
 41
0.0
 71
     1
 72
     1
  1
0,5
  7
SLDTEXTSTYLE1
 73
     1
 44
1.0
  0
ENDBLK
  5
101
330
FF
100
AcDbEntity
  8
0
100
AcDbBlockEnd
  0
BLOCK
  5
105
330
104
100
AcDbEntity
  8
0
100
AcDbBlockBegin
  2
SW_NOTE_0_16
 70
     0
 10
0.0
 20
0.0
 30
0.0
  3
SW_NOTE_0_16
  1

  0
MTEXT
  5
107
330
104
100
AcDbEntity
  8
0
  6
Continuous
 62
     0
370
     0
100
AcDbMText
 10
0.0
 20
1.8562575453
 30
0.0
 40
1.44
 41
0.0
 71
     1
 72
     1
  1
0,3
  7
SLDTEXTSTYLE1
 73
     1
 44
1.0
  0
ENDBLK
  5
106
330
104
100
AcDbEntity
  8
0
100
AcDbBlockEnd
  0
BLOCK
  5
10A
330
109
100
AcDbEntity
  8
0
100
AcDbBlockBegin
  2
SW_NOTE_0_17
 70
     0
 10
0.0
 20
0.0
 30
0.0
  3
SW_NOTE_0_17
  1

  0
MTEXT
  5
10C
330
109
100
AcDbEntity
  8
0
  6
Continuous
 62
     0
370
     0
100
AcDbMText
 10
0.0
 20
1.8562575453
 30
0.0
 40
1.44
 41
0.0
 71
     1
 72
     1
  1
0,2
  7
SLDTEXTSTYLE1
 73
     1
 44
1.0
  0
ENDBLK
  5
10B
330
109
100
AcDbEntity
  8
0
100
AcDbBlockEnd
  0
BLOCK
  5
10F
330
10E
100
AcDbEntity
  8
0
100
AcDbBlockBegin
  2
SW_NOTE_0_18
 70
     0
 10
0.0
 20
0.0
 30
0.0
  3
SW_NOTE_0_18
  1

  0
MTEXT
  5
112
330
10E
100
AcDbEntity
  8
0
  6
Continuous
 62
     0
370
     0
100
AcDbMText
 10
4.1175
 20
1.8562575453
 30
0.0
 40
1.44
 41
0.0
 71
     2
 72
     1
  1
>30 - \U+226450
  7
SLDTEXTSTYLE4
 73
     1
 44
1.0
  0
ENDBLK
  5
110
330
10E
100
AcDbEntity
  8
0
100
AcDbBlockEnd
  0
BLOCK
  5
115
330
114
100
AcDbEntity
  8
0
100
AcDbBlockBegin
  2
SW_NOTE_0_19
 70
     0
 10
0.0
 20
0.0
 30
0.0
  3
SW_NOTE_0_19
  1

  0
MTEXT
  5
117
330
114
100
AcDbEntity
  8
0
  6
Continuous
 62
     0
370
     0
100
AcDbMText
 10
4.1175
 20
1.8562575453
 30
0.0
 40
1.44
 41
0.0
 71
     2
 72
     1
  1
>10 - \U+226430
  7
SLDTEXTSTYLE4
 73
     1
 44
1.0
  0
ENDBLK
  5
116
330
114
100
AcDbEntity
  8
0
100
AcDbBlockEnd
  0
BLOCK
  5
11A
330
119
100
AcDbEntity
  8
0
100
AcDbBlockBegin
  2
SW_NOTE_0_20
 70
     0
 10
0.0
 20
0.0
 30
0.0
  3
SW_NOTE_0_20
  1

  0
MTEXT
  5
11C
330
119
100
AcDbEntity
  8
0
  6
Continuous
 62
     0
370
     0
100
AcDbMText
 10
1.62
 20
1.8562575453
 30
0.0
 40
1.44
 41
0.0
 71
     2
 72
     1
  1
\U+226410
  7
SLDTEXTSTYLE4
 73
     1
 44
1.0
  0
ENDBLK
  5
11B
330
119
100
AcDbEntity
  8
0
100
AcDbBlockEnd
  0
BLOCK
  5
11F
330
11E
100
AcDbEntity
  8
0
100
AcDbBlockBegin
  2
SW_NOTE_0_21
 70
     0
 10
0.0
 20
0.0
 30
0.0
  3
SW_NOTE_0_21
  1

  0
MTEXT
  5
121
330
11E
100
AcDbEntity
  8
0
  6
Continuous
 62
     0
370
     0
100
AcDbMText
 10
0.0
 20
1.3406304494
 30
0.0
 40
1.04
 41
0.0
 71
     1
 72
     1
  1
Nennmaßbereiche / nominal size range
  7
SLDTEXTSTYLE1
 73
     1
 44
1.0
  0
ENDBLK
  5
120
330
11E
100
AcDbEntity
  8
0
100
AcDbBlockEnd
  0
BLOCK
  5
124
330
123
100
AcDbEntity
  8
0
100
AcDbBlockBegin
  2
SW_NOTE_0_22
 70
     0
 10
0.0
 20
0.0
 30
0.0
  3
SW_NOTE_0_22
  1

  0
MTEXT
  5
126
330
123
100
AcDbEntity
  8
0
  6
Continuous
 62
     0
370
     0
100
AcDbMText
 10
0.0
 20
1.9336016097
 30
0.0
 40
1.5
 41
0.0
 71
     1
 72
     1
  1
Toleranz allgemein / General Tolerance
  7
SLDTEXTSTYLE1
 73
     1
 44
1.0
  0
ENDBLK
  5
125
330
123
100
AcDbEntity
  8
0
100
AcDbBlockEnd
  0
BLOCK
  5
129
330
128
100
AcDbEntity
  8
0
100
AcDbBlockBegin
  2
SW_NOTE_0_23
 70
     0
 10
0.0
 20
0.0
 30
0.0
  3
SW_NOTE_0_23
  1

  0
MTEXT
  5
12B
330
128
100
AcDbEntity
  8
0
  6
Continuous
 62
     0
370
     0
100
AcDbMText
 10
0.0
 20
1.5468812877
 30
0.0
 40
1.2
 41
0.0
 71
     1
 72
     1
  1
abweichend von/
  7
SLDTEXTSTYLE1
 73
     1
 44
1.0
  0
MTEXT
  5
12C
330
128
100
AcDbEntity
  8
0
  6
Continuous
 62
     0
370
     0
100
AcDbMText
 10
0.0
 20
-0.2931187531
 30
0.0
 40
1.2
 41
0.0
 71
     1
 72
     1
  1
divergent from
  7
SLDTEXTSTYLE1
 73
     1
 44
1.0
  0
MTEXT
  5
12D
330
128
100
AcDbEntity
  8
0
  6
Continuous
 62
     0
370
     0
100
AcDbMText
 10
0.0
 20
-2.1331187939
 30
0.0
 40
1.2
 41
0.0
 71
     1
 72
     1
  1
ISO 2768
  7
SLDTEXTSTYLE1
 73
     1
 44
1.0
  0
ENDBLK
  5
12A
330
128
100
AcDbEntity
  8
0
100
AcDbBlockEnd
  0
BLOCK
  5
130
330
12F
100
AcDbEntity
  8
0
100
AcDbBlockBegin
  2
SW_NOTE_0_24
 70
     0
 10
0.0
 20
0.0
 30
0.0
  3
SW_NOTE_0_24
  1

  0
MTEXT
  5
132
330
12F
100
AcDbEntity
  8
0
  6
Continuous
 62
     0
370
     0
100
AcDbMText
 10
0.0
 20
1.9864420573
 30
0.0
 40
1.5409912109
 41
0.0
 71
     1
 72
     1
  1
Date
  7
SLDTEXTSTYLE1
 73
     1
 44
1.0
  0
ENDBLK
  5
131
330
12F
100
AcDbEntity
  8
0
100
AcDbBlockEnd
  0
BLOCK
  5
135
330
134
100
AcDbEntity
  8
0
100
AcDbBlockBegin
  2
SW_NOTE_0_25
 70
     0
 10
0.0
 20
0.0
 30
0.0
  3
SW_NOTE_0_25
  1

  0
MTEXT
  5
137
330
134
100
AcDbEntity
  8
0
  6
Continuous
 62
     0
370
     0
100
AcDbMText
 10
0.0
 20
1.9864420573
 30
0.0
 40
1.5409912109
 41
0.0
 71
     1
 72
     1
  1
Name
  7
SLDTEXTSTYLE1
 73
     1
 44
1.0
  0
ENDBLK
  5
136
330
134
100
AcDbEntity
  8
0
100
AcDbBlockEnd
  0
BLOCK
  5
13A
330
139
100
AcDbEntity
  8
0
100
AcDbBlockBegin
  2
SW_NOTE_0_26
 70
     0
 10
0.0
 20
0.0
 30
0.0
  3
SW_NOTE_0_26
  1

  0
MTEXT
  5
13C
330
139
100
AcDbEntity
  8
0
  6
Continuous
 62
     0
370
     0
100
AcDbMText
 10
0.0
 20
1.9864420573
 30
0.0
 40
1.5409912109
 41
0.0
 71
     1
 72
     1
  1
Description
  7
SLDTEXTSTYLE1
 73
     1
 44
1.0
  0
ENDBLK
  5
13B
330
139
100
AcDbEntity
  8
0
100
AcDbBlockEnd
  0
BLOCK
  5
13F
330
13E
100
AcDbEntity
  8
0
100
AcDbBlockBegin
  2
SW_NOTE_0_27
 70
     0
 10
0.0
 20
0.0
 30
0.0
  3
SW_NOTE_0_27
  1

  0
MTEXT
  5
141
330
13E
100
AcDbEntity
  8
0
  6
Continuous
 62
     0
370
     0
100
AcDbMText
 10
0.0
 20
2.0463950369
 30
0.0
 40
1.5875
 41
0.0
 71
     1
 72
     1
  1
Tolerances ISO 2768 m
  7
SLDTEXTSTYLE1
 73
     1
 44
1.0
  0
ENDBLK
  5
140
330
13E
100
AcDbEntity
  8
0
100
AcDbBlockEnd
  0
BLOCK
  5
144
330
143
100
AcDbEntity
  8
0
100
AcDbBlockBegin
  2
SW_NOTE_0_28
 70
     0
 10
0.0
 20
0.0
 30
0.0
  3
SW_NOTE_0_28
  1

  0
MTEXT
  5
147
330
143
100
AcDbEntity
  8
0
  6
Continuous
 62
     0
370
     0
100
AcDbMText
 10
0.0
 20
2.0463950369
 30
0.0
 40
1.5875
 41
0.0
 71
     1
 72
     1
  1
ISO 13715
  7
SLDTEXTSTYLE5
 73
     1
 44
1.0
  0
ENDBLK
  5
145
330
143
100
AcDbEntity
  8
0
100
AcDbBlockEnd
  0
BLOCK
  5
14A
330
149
100
AcDbEntity
  8
0
100
AcDbBlockBegin
  2
SW_NOTE_0_29
 70
     0
 10
0.0
 20
0.0
 30
0.0
  3
SW_NOTE_0_29
  1

  0
MTEXT
  5
14C
330
149
100
AcDbEntity
  8
0
  6
Continuous
 62
     0
370
     0
100
AcDbMText
 10
0.0
 20
1.9864420573
 30
0.0
 40
1.5409912109
 41
0.0
 71
     1
 72
     1
  1
State
  7
SLDTEXTSTYLE1
 73
     1
 44
1.0
  0
ENDBLK
  5
14B
330
149
100
AcDbEntity
  8
0
100
AcDbBlockEnd
  0
BLOCK
  5
14F
330
14E
100
AcDbEntity
  8
0
100
AcDbBlockBegin
  2
SW_NOTE_0_30
 70
     0
 10
0.0
 20
0.0
 30
0.0
  3
SW_NOTE_0_30
  1

  0
MTEXT
  5
151
330
14E
100
AcDbEntity
  8
0
  6
Continuous
 62
     0
370
     0
100
AcDbMText
 10
0.0
 20
1.9864420573
 30
0.0
 40
1.5409912109
 41
0.0
 71
     1
 72
     1
  1
Name local language
  7
SLDTEXTSTYLE1
 73
     1
 44
1.0
  0
ENDBLK
  5
150
330
14E
100
AcDbEntity
  8
0
100
AcDbBlockEnd
  0
BLOCK
  5
154
330
153
100
AcDbEntity
  8
0
100
AcDbBlockBegin
  2
SW_NOTE_0_31
 70
     0
 10
0.0
 20
0.0
 30
0.0
  3
SW_NOTE_0_31
  1

  0
MTEXT
  5
156
330
153
100
AcDbEntity
  8
0
  6
Continuous
 62
     0
370
     0
100
AcDbMText
 10
0.0
 20
2.0302816901
 30
0.0
 40
1.575
 41
0.0
 71
     1
 72
     1
  1
-0,1
  7
SLDTEXTSTYLE5
 73
     1
 44
1.0
  0
ENDBLK
  5
155
330
153
100
AcDbEntity
  8
0
100
AcDbBlockEnd
  0
BLOCK
  5
159
330
158
100
AcDbEntity
  8
0
100
AcDbBlockBegin
  2
SW_NOTE_0_32
 70
     0
 10
0.0
 20
0.0
 30
0.0
  3
SW_NOTE_0_32
  1

  0
MTEXT
  5
15B
330
158
100
AcDbEntity
  8
0
  6
Continuous
 62
     0
370
     0
100
AcDbMText
 10
0.0
 20
2.0302816901
 30
0.0
 40
1.575
 41
0.0
 71
     1
 72
     1
  1
+0,1
  7
SLDTEXTSTYLE5
 73
     1
 44
1.0
  0
ENDBLK
  5
15A
330
158
100
AcDbEntity
  8
0
100
AcDbBlockEnd
  0
BLOCK
  5
214
330
213
100
AcDbEntity
  8
0
100
AcDbBlockBegin
  2
SW_TABLEANNOTATION_0
 70
     0
 10
0.0
 20
0.0
 30
0.0
  3
SW_TABLEANNOTATION_0
  1

  0
LINE
  5
216
330
213
100
AcDbEntity
  8
0
  6
Continuous
 62
     0
370
    25
100
AcDbLine
 10
0.0
 20
0.0
 30
0.0
 11
0.0
 21
-5.2563765562
 31
0.0
  0
LINE
  5
217
330
213
100
AcDbEntity
  8
0
  6
Continuous
 62
     0
370
    25
100
AcDbLine
 10
0.0
 20
-5.2563765562
 30
0.0
 11
0.0
 21
-15.1272219093
 31
0.0
  0
LINE
  5
218
330
213
100
AcDbEntity
  8
0
  6
Continuous
 62
     0
370
    18
100
AcDbLine
 10
17.0971972292
 20
-5.2563765562
 30
0.0
 11
17.0971972292
 21
-15.1272219093
 31
0.0
  0
LINE
  5
219
330
213
100
AcDbEntity
  8
0
  6
Continuous
 62
     0
370
    18
100
AcDbLine
 10
36.3353515037
 20
-5.2563765562
 30
0.0
 11
36.3353515037
 21
-15.1272219093
 31
0.0
  0
LINE
  5
21A
330
213
100
AcDbEntity
  8
0
  6
Continuous
 62
     0
370
    18
100
AcDbLine
 10
63.0600943246
 20
-5.2563765562
 30
0.0
 11
63.0600943246
 21
-15.1272219093
 31
0.0
  0
LINE
  5
21B
330
213
100
AcDbEntity
  8
0
  6
Continuous
 62
     0
370
    18
100
AcDbLine
 10
120.2269884846
 20
-5.2563765562
 30
0.0
 11
120.2269884846
 21
-15.1272219093
 31
0.0
  0
LINE
  5
21C
330
213
100
AcDbEntity
  8
0
  6
Continuous
 62
     0
370
    25
100
AcDbLine
 10
144.7327002869
 20
0.0
 30
0.0
 11
144.7327002869
 21
-5.2563765562
 31
0.0
  0
LINE
  5
21D
330
213
100
AcDbEntity
  8
0
  6
Continuous
 62
     0
370
    25
100
AcDbLine
 10
144.7327002869
 20
-5.2563765562
 30
0.0
 11
144.7327002869
 21
-15.1272219093
 31
0.0
  0
LINE
  5
21E
330
213
100
AcDbEntity
  8
0
  6
Continuous
 62
     0
370
    25
100
AcDbLine
 10
0.0
 20
0.0
 30
0.0
 11
17.0971972292
 21
0.0
 31
0.0
  0
LINE
  5
21F
330
213
100
AcDbEntity
  8
0
  6
Continuous
 62
     0
370
    18
100
AcDbLine
 10
0.0
 20
-5.2563765562
 30
0.0
 11
17.0971972292
 21
-5.2563765562
 31
0.0
  0
LINE
  5
220
330
213
100
AcDbEntity
  8
0
  6
Continuous
 62
     0
370
    25
100
AcDbLine
 10
17.0971972292
 20
0.0
 30
0.0
 11
36.3353515037
 21
0.0
 31
0.0
  0
LINE
  5
221
330
213
100
AcDbEntity
  8
0
  6
Continuous
 62
     0
370
    18
100
AcDbLine
 10
17.0971972292
 20
-5.2563765562
 30
0.0
 11
36.3353515037
 21
-5.2563765562
 31
0.0
  0
LINE
  5
222
330
213
100
AcDbEntity
  8
0
  6
Continuous
 62
     0
370
    25
100
AcDbLine
 10
36.3353515037
 20
0.0
 30
0.0
 11
63.0600943246
 21
0.0
 31
0.0
  0
LINE
  5
223
330
213
100
AcDbEntity
  8
0
  6
Continuous
 62
     0
370
    18
100
AcDbLine
 10
36.3353515037
 20
-5.2563765562
 30
0.0
 11
63.0600943246
 21
-5.2563765562
 31
0.0
  0
LINE
  5
224
330
213
100
AcDbEntity
  8
0
  6
Continuous
 62
     0
370
    25
100
AcDbLine
 10
63.0600943246
 20
0.0
 30
0.0
 11
120.2269884846
 21
0.0
 31
0.0
  0
LINE
  5
225
330
213
100
AcDbEntity
  8
0
  6
Continuous
 62
     0
370
    18
100
AcDbLine
 10
63.0600943246
 20
-5.2563765562
 30
0.0
 11
120.2269884846
 21
-5.2563765562
 31
0.0
  0
LINE
  5
226
330
213
100
AcDbEntity
  8
0
  6
Continuous
 62
     0
370
    25
100
AcDbLine
 10
120.2269884846
 20
0.0
 30
0.0
 11
144.7327002869
 21
0.0
 31
0.0
  0
LINE
  5
227
330
213
100
AcDbEntity
  8
0
  6
Continuous
 62
     0
370
    18
100
AcDbLine
 10
120.2269884846
 20
-5.2563765562
 30
0.0
 11
144.7327002869
 21
-5.2563765562
 31
0.0
  0
LINE
  5
228
330
213
100
AcDbEntity
  8
0
  6
Continuous
 62
     0
370
    25
100
AcDbLine
 10
0.0
 20
-15.1272219093
 30
0.0
 11
17.0971972292
 21
-15.1272219093
 31
0.0
  0
LINE
  5
229
330
213
100
AcDbEntity
  8
0
  6
Continuous
 62
     0
370
    25
100
AcDbLine
 10
17.0971972292
 20
-15.1272219093
 30
0.0
 11
36.3353515037
 21
-15.1272219093
 31
0.0
  0
LINE
  5
22A
330
213
100
AcDbEntity
  8
0
  6
Continuous
 62
     0
370
    25
100
AcDbLine
 10
36.3353515037
 20
-15.1272219093
 30
0.0
 11
63.0600943246
 21
-15.1272219093
 31
0.0
  0
LINE
  5
22B
330
213
100
AcDbEntity
  8
0
  6
Continuous
 62
     0
370
    25
100
AcDbLine
 10
63.0600943246
 20
-15.1272219093
 30
0.0
 11
120.2269884846
 21
-15.1272219093
 31
0.0
  0
LINE
  5
22C
330
213
100
AcDbEntity
  8
0
  6
Continuous
 62
     0
370
    25
100
AcDbLine
 10
120.2269884846
 20
-15.1272219093
 30
0.0
 11
144.7327002869
 21
-15.1272219093
 31
0.0
  0
LINE
  5
22D
330
213
100
AcDbEntity
  8
0
  6
Continuous
 62
     0
370
    25
100
AcDbLine
 10
0.0
 20
0.0
 30
0.0
 11
0.0
 21
-15.1272219093
 31
0.0
  0
LINE
  5
22E
330
213
100
AcDbEntity
  8
0
  6
Continuous
 62
     0
370
    25
100
AcDbLine
 10
0.0
 20
-15.1272219093
 30
0.0
 11
144.7327002869
 21
-15.1272219093
 31
0.0
  0
LINE
  5
22F
330
213
100
AcDbEntity
  8
0
  6
Continuous
 62
     0
370
    25
100
AcDbLine
 10
144.7327002869
 20
-15.1272219093
 30
0.0
 11
144.7327002869
 21
0.0
 31
0.0
  0
LINE
  5
230
330
213
100
AcDbEntity
  8
0
  6
Continuous
 62
     0
370
    25
100
AcDbLine
 10
144.7327002869
 20
0.0
 30
0.0
 11
0.0
 21
0.0
 31
0.0
  0
MTEXT
  5
231
330
213
100
AcDbEntity
  8
0
  6
Continuous
 62
     0
370
     0
100
AcDbMText
 10
61.0069761046
 20
-1.3386957994
 30
0.0
 40
2.5
 41
0.0
 71
     1
 72
     1
  1
Revision Table
  7
SLDTEXTSTYLE1
 73
     1
 44
1.0
  0
MTEXT
  5
232
330
213
100
AcDbEntity
  8
0
  6
Continuous
 62
     0
370
     0
100
AcDbMText
 10
1.9617931629
 20
-8.5837131903
 30
0.0
 40
2.5
 41
0.0
 71
     1
 72
     1
  1
Revision
  7
SLDTEXTSTYLE1
 73
     1
 44
1.0
  0
MTEXT
  5
233
330
213
100
AcDbEntity
  8
0
  6
Continuous
 62
     0
370
     0
100
AcDbMText
 10
21.9471772841
 20
-8.5837131903
 30
0.0
 40
2.5
 41
0.0
 71
     1
 72
     1
  1
ZONE
  7
SLDTEXTSTYLE1
 73
     1
 44
1.0
  0
MTEXT
  5
234
330
213
100
AcDbEntity
  8
0
  6
Continuous
 62
     0
370
     0
100
AcDbMText
 10
45.1178621971
 20
-8.5837131903
 30
0.0
 40
2.5
 41
0.0
 71
     1
 72
     1
  1
DATE
  7
SLDTEXTSTYLE1
 73
     1
 44
1.0
  0
MTEXT
  5
235
330
213
100
AcDbEntity
  8
0
  6
Continuous
 62
     0
370
     0
100
AcDbMText
 10
79.9091675371
 20
-8.5837131903
 30
0.0
 40
2.5
 41
0.0
 71
     1
 72
     1
  1
DESCRIPTION
  7
SLDTEXTSTYLE1
 73
     1
 44
1.0
  0
MTEXT
  5
236
330
213
100
AcDbEntity
  8
0
  6
Continuous
 62
     0
370
     0
100
AcDbMText
 10
123.5996361393
 20
-8.5837131903
 30
0.0
 40
2.5
 41
0.0
 71
     1
 72
     1
  1
changed by
  7
SLDTEXTSTYLE1
 73
     1
 44
1.0
  0
ENDBLK
  5
215
330
213
100
AcDbEntity
  8
0
100
AcDbBlockEnd
  0
BLOCK
  5
253
330
252
100
AcDbEntity
  8
0
100
AcDbBlockBegin
  2
_D
 70
     0
 10
0.0
 20
0.0
 30
0.0
  3
_D
  1

  0
SOLID
  5
255
330
252
100
AcDbEntity
  8
0
  6
Continuous
 62
     7
370
    18
100
AcDbTrace
 10
65.6490195465
 20
248.3938297872
 30
0.0
 11
65.2644041619
 21
245.8938297872
 31
0.0
 12
66.0336349312
 22
245.8938297872
 32
0.0
 13
66.0336349312
 23
245.8938297872
 33
0.0
  0
SOLID
  5
256
330
252
100
AcDbEntity
  8
0
  6
Continuous
 62
     7
370
    18
100
AcDbTrace
 10
65.6490195465
 20
224.3938297872
 30
0.0
 11
66.0336349312
 21
226.8938297872
 31
0.0
 12
65.2644041619
 22
226.8938297872
 32
0.0
 13
65.2644041619
 23
226.8938297872
 33
0.0
  0
LINE
  5
257
330
252
100
AcDbEntity
  8
0
  6
Continuous
 62
     7
370
     0
100
AcDbLine
 10
83.7714116203
 20
248.3938297872
 30
0.0
 11
64.6490195465
 21
248.3938297872
 31
0.0
  0
LINE
  5
258
330
252
100
AcDbEntity
  8
0
  6
Continuous
 62
     7
370
     0
100
AcDbLine
 10
83.7714116203
 20
224.3938297872
 30
0.0
 11
64.6490195465
 21
224.3938297872
 31
0.0
  0
LINE
  5
259
330
252
100
AcDbEntity
  8
0
  6
Continuous
 62
     7
370
     0
100
AcDbLine
 10
65.6490195465
 20
248.3938297872
 30
0.0
 11
65.6490195465
 21
224.3938297872
 31
0.0
  0
MTEXT
  5
25A
330
252
100
AcDbEntity
  8
0
  6
Continuous
 62
     7
370
    18
100
AcDbMText
 10
62.4263503717
 20
231.7879269627
 30
0.0
 40
2.5
 41
0.0
 71
     1
 72
     1
  1
24
  7
SLDTEXTSTYLE1
 11
-7.044195017643634E-15
 21
1.0
 31
0.0
 73
     1
 44
1.0
  0
MTEXT
  5
25B
330
252
100
AcDbEntity
  8
0
  6
Continuous
 62
     7
370
    18
100
AcDbMText
 10
62.4263503717
 20
236.5448714123
 30
0.0
 40
2.5
 41
0.0
 71
     1
 72
     1
  1

  7
SLDTEXTSTYLE1
 11
-7.044195017643634E-15
 21
1.0
 31
0.0
 73
     1
 44
1.0
  0
MTEXT
  5
25C
330
252
100
AcDbEntity
  8
0
  6
Continuous
 62
     7
370
    18
100
AcDbMText
 10
60.6347953716
 20
237.3356699635
 30
0.0
 40
1.875
 41
0.0
 71
     1
 72
     1
  1

  7
SLDTEXTSTYLE1
 11
-7.044195017643634E-15
 21
1.0
 31
0.0
 73
     1
 44
1.0
  0
MTEXT
  5
25D
330
252
100
AcDbEntity
  8
0
  6
Continuous
 62
     7
370
    18
100
AcDbMText
 10
63.0566703902
 20
236.5622324665
 30
0.0
 40
1.875
 41
0.0
 71
     1
 72
     1
  1
-
  7
SLDTEXTSTYLE1
 11
-7.044195017643634E-15
 21
1.0
 31
0.0
 73
     1
 44
1.0
  0
MTEXT
  5
25E
330
252
100
AcDbEntity
  8
0
  6
Continuous
 62
     7
370
    18
100
AcDbMText
 10
60.6347953716
 20
237.4190031347
 30
0.0
 40
1.875
 41
0.0
 71
     1
 72
     1
  1
0
  7
SLDTEXTSTYLE1
 11
-7.044195017643634E-15
 21
1.0
 31
0.0
 73
     1
 44
1.0
  0
MTEXT
  5
25F
330
252
100
AcDbEntity
  8
0
  6
Continuous
 62
     7
370
    18
100
AcDbMText
 10
63.0566703902
 20
237.4190031347
 30
0.0
 40
1.875
 41
0.0
 71
     1
 72
     1
  1
0,3
  7
SLDTEXTSTYLE1
 11
-7.044195017643634E-15
 21
1.0
 31
0.0
 73
     1
 44
1.0
  0
ENDBLK
  5
254
330
252
100
AcDbEntity
  8
0
100
AcDbBlockEnd
  0
BLOCK
  5
263
330
262
100
AcDbEntity
  8
0
100
AcDbBlockBegin
  2
_D_1
 70
     0
 10
0.0
 20
0.0
 30
0.0
  3
_D_1
  1

  0
SOLID
  5
265
330
262
100
AcDbEntity
  8
0
  6
Continuous
 62
     7
370
    18
100
AcDbTrace
 10
169.7714116203
 20
260.3938297872
 30
0.0
 11
167.2714116203
 21
260.7784451718
 31
0.0
 12
167.2714116203
 22
260.0092144026
 32
0.0
 13
167.2714116203
 23
260.0092144026
 33
0.0
  0
SOLID
  5
266
330
262
100
AcDbEntity
  8
0
  6
Continuous
 62
     7
370
    18
100
AcDbTrace
 10
83.7714116203
 20
260.3938297872
 30
0.0
 11
86.2714116203
 21
260.0092144026
 31
0.0
 12
86.2714116203
 22
260.7784451718
 32
0.0
 13
86.2714116203
 23
260.7784451718
 33
0.0
  0
LINE
  5
267
330
262
100
AcDbEntity
  8
0
  6
Continuous
 62
     7
370
     0
100
AcDbLine
 10
169.7714116203
 20
250.3938297872
 30
0.0
 11
169.7714116203
 21
261.3938297872
 31
0.0
  0
LINE
  5
268
330
262
100
AcDbEntity
  8
0
  6
Continuous
 62
     7
370
     0
100
AcDbLine
 10
83.7714116203
 20
248.3938297872
 30
0.0
 11
83.7714116203
 21
261.3938297872
 31
0.0
  0
LINE
  5
269
330
262
100
AcDbEntity
  8
0
  6
Continuous
 62
     7
370
     0
100
AcDbLine
 10
169.7714116203
 20
260.3938297872
 30
0.0
 11
83.7714116203
 21
260.3938297872
 31
0.0
  0
MTEXT
  5
26A
330
262
100
AcDbEntity
  8
0
  6
Continuous
 62
     7
370
    18
100
AcDbMText
 10
121.886863135
 20
263.616498962
 30
0.0
 40
2.5
 41
0.0
 71
     1
 72
     1
  1
86
  7
SLDTEXTSTYLE1
 73
     1
 44
1.0
  0
MTEXT
  5
26B
330
262
100
AcDbEntity
  8
0
  6
Continuous
 62
     7
370
    18
100
AcDbMText
 10
126.6438075846
 20
263.616498962
 30
0.0
 40
2.5
 41
0.0
 71
     1
 72
     1
  1

  7
SLDTEXTSTYLE1
 73
     1
 44
1.0
  0
MTEXT
  5
26C
330
262
100
AcDbEntity
  8
0
  6
Continuous
 62
     7
370
    18
100
AcDbMText
 10
126.6611686388
 20
262.9913871904
 30
0.0
 40
1.875
 41
0.0
 71
     1
 72
     1
  1
±0,2
  7
SLDTEXTSTYLE1
 73
     1
 44
1.0
  0
ENDBLK
  5
264
330
262
100
AcDbEntity
  8
0
100
AcDbBlockEnd
  0
BLOCK
  5
26F
330
26E
100
AcDbEntity
  8
0
100
AcDbBlockBegin
  2
_D_2
 70
     0
 10
0.0
 20
0.0
 30
0.0
  3
_D_2
  1

  0
SOLID
  5
271
330
26E
100
AcDbEntity
  8
0
  6
Continuous
 62
     7
370
    18
100
AcDbTrace
 10
83.7714116203
 20
270.3938297872
 30
0.0
 11
86.2714116203
 21
270.0092144026
 31
0.0
 12
86.2714116203
 22
270.7784451718
 32
0.0
 13
86.2714116203
 23
270.7784451718
 33
0.0
  0
SOLID
  5
272
330
26E
100
AcDbEntity
  8
0
  6
Continuous
 62
     7
370
    18
100
AcDbTrace
 10
333.7714116203
 20
270.3938297872
 30
0.0
 11
331.2714116203
 21
270.7784451718
 31
0.0
 12
331.2714116203
 22
270.0092144026
 32
0.0
 13
331.2714116203
 23
270.0092144026
 33
0.0
  0
LINE
  5
273
330
26E
100
AcDbEntity
  8
0
  6
Continuous
 62
     7
370
     0
100
AcDbLine
 10
83.7714116203
 20
248.3938297872
 30
0.0
 11
83.7714116203
 21
271.3938297872
 31
0.0
  0
LINE
  5
274
330
26E
100
AcDbEntity
  8
0
  6
Continuous
 62
     7
370
     0
100
AcDbLine
 10
333.7714116203
 20
248.3938297872
 30
0.0
 11
333.7714116203
 21
271.3938297872
 31
0.0
  0
LINE
  5
275
330
26E
100
AcDbEntity
  8
0
  6
Continuous
 62
     7
370
     0
100
AcDbLine
 10
83.7714116203
 20
270.3938297872
 30
0.0
 11
333.7714116203
 21
270.3938297872
 31
0.0
  0
MTEXT
  5
276
330
26E
100
AcDbEntity
  8
0
  6
Continuous
 62
     7
370
    18
100
AcDbMText
 10
203.2106475087
 20
273.616498962
 30
0.0
 40
2.5
 41
0.0
 71
     1
 72
     1
  1
250
  7
SLDTEXTSTYLE1
 73
     1
 44
1.0
  0
MTEXT
  5
277
330
26E
100
AcDbEntity
  8
0
  6
Continuous
 62
     7
370
    18
100
AcDbMText
 10
209.8773142996
 20
273.616498962
 30
0.0
 40
2.5
 41
0.0
 71
     1
 72
     1
  1

  7
SLDTEXTSTYLE1
 73
     1
 44
1.0
  0
MTEXT
  5
278
330
26E
100
AcDbEntity
  8
0
  6
Continuous
 62
     7
370
    18
100
AcDbMText
 10
210.6681126179
 20
275.4080539622
 30
0.0
 40
1.875
 41
0.0
 71
     1
 72
     1
  1

  7
SLDTEXTSTYLE1
 73
     1
 44
1.0
  0
MTEXT
  5
279
330
26E
100
AcDbEntity
  8
0
  6
Continuous
 62
     7
370
    18
100
AcDbMText
 10
209.8946751209
 20
272.9861789436
 30
0.0
 40
1.875
 41
0.0
 71
     1
 72
     1
  1
-
  7
SLDTEXTSTYLE1
 73
     1
 44
1.0
  0
MTEXT
  5
27A
330
26E
100
AcDbEntity
  8
0
  6
Continuous
 62
     7
370
    18
100
AcDbMText
 10
210.7514462548
 20
275.4080539622
 30
0.0
 40
1.875
 41
0.0
 71
     1
 72
     1
  1
0
  7
SLDTEXTSTYLE1
 73
     1
 44
1.0
  0
MTEXT
  5
27B
330
26E
100
AcDbEntity
  8
0
  6
Continuous
 62
     7
370
    18
100
AcDbMText
 10
210.7514462548
 20
272.9861789436
 30
0.0
 40
1.875
 41
0.0
 71
     1
 72
     1
  1
0,3
  7
SLDTEXTSTYLE1
 73
     1
 44
1.0
  0
ENDBLK
  5
270
330
26E
100
AcDbEntity
  8
0
100
AcDbBlockEnd
  0
BLOCK
  5
27F
330
27E
100
AcDbEntity
  8
0
100
AcDbBlockBegin
  2
_D_3
 70
     0
 10
0.0
 20
0.0
 30
0.0
  3
_D_3
  1

  0
SOLID
  5
281
330
27E
100
AcDbEntity
  8
0
  6
Continuous
 62
     7
370
    18
100
AcDbTrace
 10
128.5408441169
 20
248.3938297872
 30
0.0
 11
128.1562287323
 21
245.8938297872
 31
0.0
 12
128.9254595015
 22
245.8938297872
 32
0.0
 13
128.9254595015
 23
245.8938297872
 33
0.0
  0
SOLID
  5
282
330
27E
100
AcDbEntity
  8
0
  6
Continuous
 62
     7
370
    18
100
AcDbTrace
 10
128.5408441169
 20
237.3938297872
 30
0.0
 11
128.9254595015
 21
239.8938297872
 31
0.0
 12
128.1562287323
 22
239.8938297872
 32
0.0
 13
128.1562287323
 23
239.8938297872
 33
0.0
  0
LINE
  5
283
330
27E
100
AcDbEntity
  8
0
  6
Continuous
 62
     7
370
     0
100
AcDbLine
 10
143.5214116203
 20
237.3938297872
 30
0.0
 11
127.5408441169
 21
237.3938297872
 31
0.0
  0
LINE
  5
284
330
27E
100
AcDbEntity
  8
0
  6
Continuous
 62
     7
370
     0
100
AcDbLine
 10
128.5408441169
 20
248.3938297872
 30
0.0
 11
128.5408441169
 21
237.3938297872
 31
0.0
  0
MTEXT
  5
285
330
27E
100
AcDbEntity
  8
0
  6
Continuous
 62
     7
370
    18
100
AcDbMText
 10
125.3181749421
 20
240.9841075624
 30
0.0
 40
2.5
 41
0.0
 71
     1
 72
     1
  1
11
  7
SLDTEXTSTYLE1
 11
-7.044195017643634E-15
 21
1.0
 31
0.0
 73
     1
 44
1.0
  0
ENDBLK
  5
280
330
27E
100
AcDbEntity
  8
0
100
AcDbBlockEnd
  0
BLOCK
  5
288
330
287
100
AcDbEntity
  8
0
100
AcDbBlockBegin
  2
_D_4
 70
     0
 10
0.0
 20
0.0
 30
0.0
  3
_D_4
  1

  0
SOLID
  5
28A
330
287
100
AcDbEntity
  8
0
  6
Continuous
 62
     7
370
    18
100
AcDbTrace
 10
344.5990695446
 20
239.8938297872
 30
0.0
 11
344.21445416
 21
237.3938297872
 31
0.0
 12
344.9836849292
 22
237.3938297872
 32
0.0
 13
344.9836849292
 23
237.3938297872
 33
0.0
  0
SOLID
  5
28B
330
287
100
AcDbEntity
  8
0
  6
Continuous
 62
     7
370
    18
100
AcDbTrace
 10
344.5990695446
 20
232.8938297872
 30
0.0
 11
344.9836849292
 21
235.3938297872
 31
0.0
 12
344.21445416
 22
235.3938297872
 32
0.0
 13
344.21445416
 23
235.3938297872
 33
0.0
  0
LINE
  5
28C
330
287
100
AcDbEntity
  8
0
  6
Continuous
 62
     7
370
     0
100
AcDbLine
 10
326.7714116203
 20
239.8938297872
 30
0.0
 11
345.5990695446
 21
239.8938297872
 31
0.0
  0
LINE
  5
28D
330
287
100
AcDbEntity
  8
0
  6
Continuous
 62
     7
370
     0
100
AcDbLine
 10
326.7714116203
 20
232.8938297872
 30
0.0
 11
345.5990695446
 21
232.8938297872
 31
0.0
  0
LINE
  5
28E
330
287
100
AcDbEntity
  8
0
  6
Continuous
 62
     7
370
     0
100
AcDbLine
 10
344.5990695446
 20
239.8938297872
 30
0.0
 11
344.5990695446
 21
249.9859829687
 31
0.0
  0
LINE
  5
28F
330
287
100
AcDbEntity
  8
0
  6
Continuous
 62
     7
370
     0
100
AcDbLine
 10
344.5990695446
 20
239.8938297872
 30
0.0
 11
344.5990695446
 21
232.8938297872
 31
0.0
  0
MTEXT
  5
290
330
287
100
AcDbEntity
  8
0
  6
Continuous
 62
     7
370
    18
100
AcDbMText
 10
341.3763999623
 20
244.4312952713
 30
0.0
 40
2.5
 41
0.0
 71
     1
 72
     1
  1
%%c
  7
SLDTEXTSTYLE1
 11
-7.044195017643634E-15
 21
1.0
 31
0.0
 73
     1
 44
1.0
  0
MTEXT
  5
291
330
287
100
AcDbEntity
  8
0
  6
Continuous
 62
     7
370
    18
100
AcDbMText
 10
341.3694554974
 20
248.0762606275
 30
0.0
 40
2.5
 41
0.0
 71
     1
 72
     1
  1
7
  7
SLDTEXTSTYLE1
 11
-7.044195017643634E-15
 21
1.0
 31
0.0
 73
     1
 44
1.0
  0
ENDBLK
  5
289
330
287
100
AcDbEntity
  8
0
100
AcDbBlockEnd
  0
BLOCK
  5
294
330
293
100
AcDbEntity
  8
0
100
AcDbBlockBegin
  2
_D_5
 70
     0
 10
0.0
 20
0.0
 30
0.0
  3
_D_5
  1

  0
SOLID
  5
296
330
293
100
AcDbEntity
  8
0
  6
Continuous
 62
     7
370
    18
100
AcDbTrace
 10
354.1560004371
 20
241.0938297872
 30
0.0
 11
353.7713850525
 21
238.5938297872
 31
0.0
 12
354.5406158218
 22
238.5938297872
 32
0.0
 13
354.5406158218
 23
238.5938297872
 33
0.0
  0
SOLID
  5
297
330
293
100
AcDbEntity
  8
0
  6
Continuous
 62
     7
370
    18
100
AcDbTrace
 10
354.1560004371
 20
231.6938297872
 30
0.0
 11
354.5406158218
 21
234.1938297872
 31
0.0
 12
353.7713850525
 22
234.1938297872
 32
0.0
 13
353.7713850525
 23
234.1938297872
 33
0.0
  0
LINE
  5
298
330
293
100
AcDbEntity
  8
0
  6
Continuous
 62
     7
370
     0
100
AcDbLine
 10
326.7714116203
 20
241.0938297872
 30
0.0
 11
355.1560004371
 21
241.0938297872
 31
0.0
  0
LINE
  5
299
330
293
100
AcDbEntity
  8
0
  6
Continuous
 62
     7
370
     0
100
AcDbLine
 10
326.7714116203
 20
231.6938297872
 30
0.0
 11
355.1560004371
 21
231.6938297872
 31
0.0
  0
LINE
  5
29A
330
293
100
AcDbEntity
  8
0
  6
Continuous
 62
     7
370
     0
100
AcDbLine
 10
354.1560004371
 20
241.0938297872
 30
0.0
 11
354.1560004371
 21
258.1076002231
 31
0.0
  0
LINE
  5
29B
330
293
100
AcDbEntity
  8
0
  6
Continuous
 62
     7
370
     0
100
AcDbLine
 10
354.1560004371
 20
241.0938297872
 30
0.0
 11
354.1560004371
 21
231.6938297872
 31
0.0
  0
MTEXT
  5
29C
330
293
100
AcDbEntity
  8
0
  6
Continuous
 62
     7
370
    18
100
AcDbMText
 10
350.9333308549
 20
242.7751333004
 30
0.0
 40
2.5
 41
0.0
 71
     1
 72
     1
  1
%%c
  7
SLDTEXTSTYLE1
 11
-7.044195017643634E-15
 21
1.0
 31
0.0
 73
     1
 44
1.0
  0
MTEXT
  5
29D
330
293
100
AcDbEntity
  8
0
  6
Continuous
 62
     7
370
    18
100
AcDbMText
 10
350.9263863899
 20
246.4200986567
 30
0.0
 40
2.5
 41
0.0
 71
     1
 72
     1
  1
9,4
  7
SLDTEXTSTYLE1
 11
-7.044195017643634E-15
 21
1.0
 31
0.0
 73
     1
 44
1.0
  0
MTEXT
  5
29E
330
293
100
AcDbEntity
  8
0
  6
Continuous
 62
     7
370
    18
100
AcDbMText
 10
350.9263863899
 20
251.1944039276
 30
0.0
 40
2.5
 41
0.0
 71
     1
 72
     1
  1
x90°
  7
SLDTEXTSTYLE1
 11
-7.044195017643634E-15
 21
1.0
 31
0.0
 73
     1
 44
1.0
  0
ENDBLK
  5
295
330
293
100
AcDbEntity
  8
0
100
AcDbBlockEnd
  0
BLOCK
  5
2A2
330
2A1
100
AcDbEntity
  8
0
100
AcDbBlockBegin
  2
_D_6
 70
     0
 10
0.0
 20
0.0
 30
0.0
  3
_D_6
  1

  0
SOLID
  5
2A4
330
2A1
100
AcDbEntity
  8
0
  6
Continuous
 62
     7
370
    18
100
AcDbTrace
 10
83.7714116203
 20
213.6938059435
 30
0.0
 11
81.2714116203
 21
214.0784213281
 31
0.0
 12
81.2714116203
 22
213.3091905588
 32
0.0
 13
81.2714116203
 23
213.3091905588
 33
0.0
  0
SOLID
  5
2A5
330
2A1
100
AcDbEntity
  8
0
  6
Continuous
 62
     7
370
    18
100
AcDbTrace
 10
90.7714116203
 20
213.6938059435
 30
0.0
 11
93.2714116203
 21
213.3091905588
 31
0.0
 12
93.2714116203
 22
214.0784213281
 32
0.0
 13
93.2714116203
 23
214.0784213281
 33
0.0
  0
LINE
  5
2A6
330
2A1
100
AcDbEntity
  8
0
  6
Continuous
 62
     7
370
     0
100
AcDbLine
 10
83.7714116203
 20
224.3938297872
 30
0.0
 11
83.7714116203
 21
212.6938059435
 31
0.0
  0
LINE
  5
2A7
330
2A1
100
AcDbEntity
  8
0
  6
Continuous
 62
     7
370
     0
100
AcDbLine
 10
90.7714116203
 20
236.3938297872
 30
0.0
 11
90.7714116203
 21
212.6938059435
 31
0.0
  0
LINE
  5
2A8
330
2A1
100
AcDbEntity
  8
0
  6
Continuous
 62
     7
370
     0
100
AcDbLine
 10
83.7714116203
 20
213.6938059435
 30
0.0
 11
78.9637193126
 21
213.6938059435
 31
0.0
  0
LINE
  5
2A9
330
2A1
100
AcDbEntity
  8
0
  6
Continuous
 62
     7
370
     0
100
AcDbLine
 10
83.7714116203
 20
213.6938059435
 30
0.0
 11
90.7714116203
 21
213.6938059435
 31
0.0
  0
LINE
  5
2AA
330
2A1
100
AcDbEntity
  8
0
  6
Continuous
 62
     7
370
     0
100
AcDbLine
 10
90.7714116203
 20
213.6938059435
 30
0.0
 11
95.579103928
 21
213.6938059435
 31
0.0
  0
MTEXT
  5
2AB
330
2A1
100
AcDbEntity
  8
0
  6
Continuous
 62
     7
370
    18
100
AcDbMText
 10
86.3165505079
 20
216.9164751183
 30
0.0
 40
2.5
 41
0.0
 71
     1
 72
     1
  1
7
  7
SLDTEXTSTYLE1
 73
     1
 44
1.0
  0
ENDBLK
  5
2A3
330
2A1
100
AcDbEntity
  8
0
100
AcDbBlockEnd
  0
BLOCK
  5
2AE
330
2AD
100
AcDbEntity
  8
0
100
AcDbBlockBegin
  2
_D_7
 70
     0
 10
0.0
 20
0.0
 30
0.0
  3
_D_7
  1

  0
SOLID
  5
2B0
330
2AD
100
AcDbEntity
  8
0
  6
Continuous
 62
     7
370
    18
100
AcDbTrace
 10
90.7714116203
 20
213.6938059435
 30
0.0
 11
93.2714116203
 21
213.3091905588
 31
0.0
 12
93.2714116203
 22
214.0784213281
 32
0.0
 13
93.2714116203
 23
214.0784213281
 33
0.0
  0
SOLID
  5
2B1
330
2AD
100
AcDbEntity
  8
0
  6
Continuous
 62
     7
370
    18
100
AcDbTrace
 10
326.7714116203
 20
213.6938059435
 30
0.0
 11
324.2714116203
 21
214.0784213281
 31
0.0
 12
324.2714116203
 22
213.3091905588
 32
0.0
 13
324.2714116203
 23
213.3091905588
 33
0.0
  0
LINE
  5
2B2
330
2AD
100
AcDbEntity
  8
0
  6
Continuous
 62
     7
370
     0
100
AcDbLine
 10
90.7714116203
 20
236.3938297872
 30
0.0
 11
90.7714116203
 21
212.6938059435
 31
0.0
  0
LINE
  5
2B3
330
2AD
100
AcDbEntity
  8
0
  6
Continuous
 62
     7
370
     0
100
AcDbLine
 10
326.7714116203
 20
236.3938297872
 30
0.0
 11
326.7714116203
 21
212.6938059435
 31
0.0
  0
LINE
  5
2B4
330
2AD
100
AcDbEntity
  8
0
  6
Continuous
 62
     7
370
     0
100
AcDbLine
 10
90.7714116203
 20
213.6938059435
 30
0.0
 11
326.7714116203
 21
213.6938059435
 31
0.0
  0
MTEXT
  5
2B5
330
2AD
100
AcDbEntity
  8
0
  6
Continuous
 62
     7
370
    18
100
AcDbMText
 10
202.9320013823
 20
216.9164751183
 30
0.0
 40
2.5
 41
0.0
 71
     1
 72
     1
  1
236
  7
SLDTEXTSTYLE1
 73
     1
 44
1.0
  0
MTEXT
  5
2B6
330
2AD
100
AcDbEntity
  8
0
  6
Continuous
 62
     7
370
    18
100
AcDbMText
 10
209.5986681732
 20
216.9164751183
 30
0.0
 40
2.5
 41
0.0
 71
     1
 72
     1
  1

  7
SLDTEXTSTYLE1
 73
     1
 44
1.0
  0
MTEXT
  5
2B7
330
2AD
100
AcDbEntity
  8
0
  6
Continuous
 62
     7
370
    18
100
AcDbMText
 10
209.6160289945
 20
216.2913633467
 30
0.0
 40
1.875
 41
0.0
 71
     1
 72
     1
  1
±0,2
  7
SLDTEXTSTYLE1
 73
     1
 44
1.0
  0
ENDBLK
  5
2AF
330
2AD
100
AcDbEntity
  8
0
100
AcDbBlockEnd
  0
BLOCK
  5
2BA
330
2B9
100
AcDbEntity
  8
0
100
AcDbBlockBegin
  2
_D_8
 70
     0
 10
0.0
 20
0.0
 30
0.0
  3
_D_8
  1

  0
SOLID
  5
2BC
330
2B9
100
AcDbEntity
  8
0
  6
Continuous
 62
     7
370
    18
100
AcDbTrace
 10
75.4788871418
 20
236.3938297872
 30
0.0
 11
75.8635025265
 21
238.8938297872
 31
0.0
 12
75.0942717572
 22
238.8938297872
 32
0.0
 13
75.0942717572
 23
238.8938297872
 33
0.0
  0
SOLID
  5
2BD
330
2B9
100
AcDbEntity
  8
0
  6
Continuous
 62
     7
370
    18
100
AcDbTrace
 10
75.4788871418
 20
248.3938297872
 30
0.0
 11
75.0942717572
 21
245.8938297872
 31
0.0
 12
75.8635025265
 22
245.8938297872
 32
0.0
 13
75.8635025265
 23
245.8938297872
 33
0.0
  0
LINE
  5
2BE
330
2B9
100
AcDbEntity
  8
0
  6
Continuous
 62
     7
370
     0
100
AcDbLine
 10
90.7714116203
 20
236.3938297872
 30
0.0
 11
74.4788871418
 21
236.3938297872
 31
0.0
  0
LINE
  5
2BF
330
2B9
100
AcDbEntity
  8
0
  6
Continuous
 62
     7
370
     0
100
AcDbLine
 10
83.7714116203
 20
248.3938297872
 30
0.0
 11
74.4788871418
 21
248.3938297872
 31
0.0
  0
LINE
  5
2C0
330
2B9
100
AcDbEntity
  8
0
  6
Continuous
 62
     7
370
     0
100
AcDbLine
 10
75.4788871418
 20
236.3938297872
 30
0.0
 11
75.4788871418
 21
248.3938297872
 31
0.0
  0
MTEXT
  5
2C1
330
2B9
100
AcDbEntity
  8
0
  6
Continuous
 62
     7
370
    18
100
AcDbMText
 10
72.256217967
 20
240.4841075624
 30
0.0
 40
2.5
 41
0.0
 71
     1
 72
     1
  1
12
  7
SLDTEXTSTYLE1
 11
6.123233995736766E-17
 21
1.0
 31
0.0
 73
     1
 44
1.0
  0
ENDBLK
  5
2BB
330
2B9
100
AcDbEntity
  8
0
100
AcDbBlockEnd
  0
BLOCK
  5
2C3
330
2C2
100
AcDbEntity
  8
0
100
AcDbBlockBegin
  2
SW_CENTERMARKSYMBOL_0
 70
     0
 10
0.0
 20
0.0
 30
0.0
  3
SW_CENTERMARKSYMBOL_0
  1

  0
LINE
  5
2C5
330
2C2
100
AcDbEntity
  8
0
  6
Continuous
 62
     0
370
    18
100
AcDbLine
 10
0.0
 20
0.0
 30
0.0
 11
0.0
 21
2.5
 31
0.0
  0
LINE
  5
2C6
330
2C2
100
AcDbEntity
  8
0
  6
Continuous
 62
     0
370
    18
100
AcDbLine
 10
0.0
 20
0.0
 30
0.0
 11
-2.5
 21
0.0
 31
0.0
  0
LINE
  5
2C7
330
2C2
100
AcDbEntity
  8
0
  6
Continuous
 62
     0
370
    18
100
AcDbLine
 10
0.0
 20
0.0
 30
0.0
 11
0.0
 21
-2.5
 31
0.0
  0
LINE
  5
2C8
330
2C2
100
AcDbEntity
  8
0
  6
Continuous
 62
     0
370
    18
100
AcDbLine
 10
0.0
 20
0.0
 30
0.0
 11
2.5
 21
0.0
 31
0.0
  0
LINE
  5
2C9
330
2C2
100
AcDbEntity
  8
0
  6
Continuous
 62
     0
370
    18
100
AcDbLine
 10
0.0
 20
5.0
 30
0.0
 11
0.0
 21
6.4
 31
0.0
  0
LINE
  5
2CA
330
2C2
100
AcDbEntity
  8
0
  6
Continuous
 62
     0
370
    18
100
AcDbLine
 10
-5.0
 20
0.0
 30
0.0
 11
-6.4
 21
0.0
 31
0.0
  0
LINE
  5
2CB
330
2C2
100
AcDbEntity
  8
0
  6
Continuous
 62
     0
370
    18
100
AcDbLine
 10
0.0
 20
-5.0
 30
0.0
 11
0.0
 21
-6.4
 31
0.0
  0
LINE
  5
2CC
330
2C2
100
AcDbEntity
  8
0
  6
Continuous
 62
     0
370
    18
100
AcDbLine
 10
5.0
 20
0.0
 30
0.0
 11
6.4
 21
0.0
 31
0.0
  0
ENDBLK
  5
2C4
330
2C2
100
AcDbEntity
  8
0
100
AcDbBlockEnd
  0
BLOCK
  5
2CF
330
2CE
100
AcDbEntity
  8
0
100
AcDbBlockBegin
  2
SW_CENTERMARKSYMBOL_1
 70
     0
 10
0.0
 20
0.0
 30
0.0
  3
SW_CENTERMARKSYMBOL_1
  1

  0
LINE
  5
2D1
330
2CE
100
AcDbEntity
  8
0
  6
Continuous
 62
     0
370
    18
100
AcDbLine
 10
0.0
 20
0.0
 30
0.0
 11
0.0
 21
2.5
 31
0.0
  0
LINE
  5
2D2
330
2CE
100
AcDbEntity
  8
0
  6
Continuous
 62
     0
370
    18
100
AcDbLine
 10
0.0
 20
0.0
 30
0.0
 11
-2.5
 21
0.0
 31
0.0
  0
LINE
  5
2D3
330
2CE
100
AcDbEntity
  8
0
  6
Continuous
 62
     0
370
    18
100
AcDbLine
 10
0.0
 20
0.0
 30
0.0
 11
0.0
 21
-2.5
 31
0.0
  0
LINE
  5
2D4
330
2CE
100
AcDbEntity
  8
0
  6
Continuous
 62
     0
370
    18
100
AcDbLine
 10
0.0
 20
0.0
 30
0.0
 11
2.5
 21
0.0
 31
0.0
  0
LINE
  5
2D5
330
2CE
100
AcDbEntity
  8
0
  6
Continuous
 62
     0
370
    18
100
AcDbLine
 10
0.0
 20
5.0
 30
0.0
 11
0.0
 21
6.4
 31
0.0
  0
LINE
  5
2D6
330
2CE
100
AcDbEntity
  8
0
  6
Continuous
 62
     0
370
    18
100
AcDbLine
 10
-5.0
 20
0.0
 30
0.0
 11
-6.4
 21
0.0
 31
0.0
  0
LINE
  5
2D7
330
2CE
100
AcDbEntity
  8
0
  6
Continuous
 62
     0
370
    18
100
AcDbLine
 10
0.0
 20
-5.0
 30
0.0
 11
0.0
 21
-6.4
 31
0.0
  0
LINE
  5
2D8
330
2CE
100
AcDbEntity
  8
0
  6
Continuous
 62
     0
370
    18
100
AcDbLine
 10
5.0
 20
0.0
 30
0.0
 11
6.4
 21
0.0
 31
0.0
  0
ENDBLK
  5
2D0
330
2CE
100
AcDbEntity
  8
0
100
AcDbBlockEnd
  0
BLOCK
  5
2DB
330
2DA
100
AcDbEntity
  8
0
100
AcDbBlockBegin
  2
SW_CENTERMARKSYMBOL_2
 70
     0
 10
0.0
 20
0.0
 30
0.0
  3
SW_CENTERMARKSYMBOL_2
  1

  0
LINE
  5
2DD
330
2DA
100
AcDbEntity
  8
0
  6
Continuous
 62
     0
370
    18
100
AcDbLine
 10
0.0
 20
0.0
 30
0.0
 11
0.0
 21
2.5
 31
0.0
  0
LINE
  5
2DE
330
2DA
100
AcDbEntity
  8
0
  6
Continuous
 62
     0
370
    18
100
AcDbLine
 10
0.0
 20
0.0
 30
0.0
 11
-2.5
 21
0.0
 31
0.0
  0
LINE
  5
2DF
330
2DA
100
AcDbEntity
  8
0
  6
Continuous
 62
     0
370
    18
100
AcDbLine
 10
0.0
 20
0.0
 30
0.0
 11
0.0
 21
-2.5
 31
0.0
  0
LINE
  5
2E0
330
2DA
100
AcDbEntity
  8
0
  6
Continuous
 62
     0
370
    18
100
AcDbLine
 10
0.0
 20
0.0
 30
0.0
 11
2.5
 21
0.0
 31
0.0
  0
LINE
  5
2E1
330
2DA
100
AcDbEntity
  8
0
  6
Continuous
 62
     0
370
    18
100
AcDbLine
 10
0.0
 20
5.0
 30
0.0
 11
0.0
 21
7.2
 31
0.0
  0
LINE
  5
2E2
330
2DA
100
AcDbEntity
  8
0
  6
Continuous
 62
     0
370
    18
100
AcDbLine
 10
-5.0
 20
0.0
 30
0.0
 11
-7.2
 21
0.0
 31
0.0
  0
LINE
  5
2E3
330
2DA
100
AcDbEntity
  8
0
  6
Continuous
 62
     0
370
    18
100
AcDbLine
 10
0.0
 20
-5.0
 30
0.0
 11
0.0
 21
-7.2
 31
0.0
  0
LINE
  5
2E4
330
2DA
100
AcDbEntity
  8
0
  6
Continuous
 62
     0
370
    18
100
AcDbLine
 10
5.0
 20
0.0
 30
0.0
 11
7.2
 21
0.0
 31
0.0
  0
ENDBLK
  5
2DC
330
2DA
100
AcDbEntity
  8
0
100
AcDbBlockEnd
  0
BLOCK
  5
2E7
330
2E6
100
AcDbEntity
  8
0
100
AcDbBlockBegin
  2
SW_CENTERMARKSYMBOL_3
 70
     0
 10
0.0
 20
0.0
 30
0.0
  3
SW_CENTERMARKSYMBOL_3
  1

  0
LINE
  5
2E9
330
2E6
100
AcDbEntity
  8
0
  6
Continuous
 62
     0
370
    18
100
AcDbLine
 10
0.0
 20
0.0
 30
0.0
 11
0.0
 21
2.5
 31
0.0
  0
LINE
  5
2EA
330
2E6
100
AcDbEntity
  8
0
  6
Continuous
 62
     0
370
    18
100
AcDbLine
 10
0.0
 20
0.0
 30
0.0
 11
-2.5
 21
0.0
 31
0.0
  0
LINE
  5
2EB
330
2E6
100
AcDbEntity
  8
0
  6
Continuous
 62
     0
370
    18
100
AcDbLine
 10
0.0
 20
0.0
 30
0.0
 11
0.0
 21
-2.5
 31
0.0
  0
LINE
  5
2EC
330
2E6
100
AcDbEntity
  8
0
  6
Continuous
 62
     0
370
    18
100
AcDbLine
 10
0.0
 20
0.0
 30
0.0
 11
2.5
 21
0.0
 31
0.0
  0
LINE
  5
2ED
330
2E6
100
AcDbEntity
  8
0
  6
Continuous
 62
     0
370
    18
100
AcDbLine
 10
0.0
 20
5.0
 30
0.0
 11
0.0
 21
7.2
 31
0.0
  0
LINE
  5
2EE
330
2E6
100
AcDbEntity
  8
0
  6
Continuous
 62
     0
370
    18
100
AcDbLine
 10
-5.0
 20
0.0
 30
0.0
 11
-7.2
 21
0.0
 31
0.0
  0
LINE
  5
2EF
330
2E6
100
AcDbEntity
  8
0
  6
Continuous
 62
     0
370
    18
100
AcDbLine
 10
0.0
 20
-5.0
 30
0.0
 11
0.0
 21
-7.2
 31
0.0
  0
LINE
  5
2F0
330
2E6
100
AcDbEntity
  8
0
  6
Continuous
 62
     0
370
    18
100
AcDbLine
 10
5.0
 20
0.0
 30
0.0
 11
7.2
 21
0.0
 31
0.0
  0
ENDBLK
  5
2E8
330
2E6
100
AcDbEntity
  8
0
100
AcDbBlockEnd
  0
BLOCK
  5
33D
330
33C
100
AcDbEntity
  8
0
100
AcDbBlockBegin
  2
_D_9
 70
     0
 10
0.0
 20
0.0
 30
0.0
  3
_D_9
  1

  0
SOLID
  5
33F
330
33C
100
AcDbEntity
  8
0
  6
Continuous
 62
     7
370
    18
100
AcDbTrace
 10
74.9312623987
 20
156.4727127487
 30
0.0
 11
74.5466470141
 21
153.9727127487
 31
0.0
 12
75.3158777833
 22
153.9727127487
 32
0.0
 13
75.3158777833
 23
153.9727127487
 33
0.0
  0
SOLID
  5
340
330
33C
100
AcDbEntity
  8
0
  6
Continuous
 62
     7
370
    18
100
AcDbTrace
 10
74.9312623987
 20
159.4727127487
 30
0.0
 11
75.3158777833
 21
161.9727127487
 31
0.0
 12
74.5466470141
 22
161.9727127487
 32
0.0
 13
74.5466470141
 23
161.9727127487
 33
0.0
  0
LINE
  5
341
330
33C
100
AcDbEntity
  8
0
  6
Continuous
 62
     7
370
     0
100
AcDbLine
 10
83.7714116203
 20
156.4727127487
 30
0.0
 11
73.9312623987
 21
156.4727127487
 31
0.0
  0
LINE
  5
342
330
33C
100
AcDbEntity
  8
0
  6
Continuous
 62
     7
370
     0
100
AcDbLine
 10
83.7714116203
 20
159.4727127487
 30
0.0
 11
73.9312623987
 21
159.4727127487
 31
0.0
  0
LINE
  5
343
330
33C
100
AcDbEntity
  8
0
  6
Continuous
 62
     7
370
     0
100
AcDbLine
 10
74.9312623987
 20
156.4727127487
 30
0.0
 11
74.9312623987
 21
151.665020441
 31
0.0
  0
LINE
  5
344
330
33C
100
AcDbEntity
  8
0
  6
Continuous
 62
     7
370
     0
100
AcDbLine
 10
74.9312623987
 20
156.4727127487
 30
0.0
 11
74.9312623987
 21
159.4727127487
 31
0.0
  0
LINE
  5
345
330
33C
100
AcDbEntity
  8
0
  6
Continuous
 62
     7
370
     0
100
AcDbLine
 10
74.9312623987
 20
159.4727127487
 30
0.0
 11
74.9312623987
 21
167.5447849817
 31
0.0
  0
MTEXT
  5
346
330
33C
100
AcDbEntity
  8
0
  6
Continuous
 62
     7
370
    18
100
AcDbMText
 10
71.7085932239
 20
165.6350627569
 30
0.0
 40
2.5
 41
0.0
 71
     1
 72
     1
  1
3
  7
SLDTEXTSTYLE1
 11
6.123233995736766E-17
 21
1.0
 31
0.0
 73
     1
 44
1.0
  0
ENDBLK
  5
33E
330
33C
100
AcDbEntity
  8
0
100
AcDbBlockEnd
  0
ENDSEC
  0
SECTION
  2
ENTITIES
  0
HATCH
  5
15E
330
1F
100
AcDbEntity
  8
0
  6
Continuous
 62
     7
100
AcDbHatch
 10
0.0
 20
0.0
 30
0.0
210
0.0
220
0.0
230
1.0
  2
SOLID
 70
     1
 71
     0
 91
        1
 92
        0
 93
        9
 72
     1
 10
278.0600349050992
 20
18.12889986233926
 11
280.0093336388994
 21
21.36461150363923
 72
     1
 10
280.0093336388994
 20
21.36461150363923
 11
278.7224201459993
 21
21.36586354853924
 72
     1
 10
278.7224201459993
 20
21.36586354853924
 11
277.5026060270994
 21
19.29022688543929
 72
     1
 10
277.5026060270994
 20
19.29022688543929
 11
276.2727772931993
 21
21.36340974983927
 72
     1
 10
276.2727772931993
 20
21.36340974983927
 11
274.9702404194991
 21
21.36376033403928
 72
     1
 10
274.9702404194991
 20
21.36376033403928
 11
276.9045166493993
 21
18.15834370253928
 72
     1
 10
276.9045166493993
 20
18.15834370253928
 11
276.9069204476992
 21
16.11190058693926
 72
     1
 10
276.9069204476992
 20
16.11190058693926
 11
278.0620381187992
 21
16.11109941773925
 72
     1
 10
278.0620381187992
 20
16.11109941773925
 11
278.0600349050992
 21
18.12889986233926
 97
        0
 75
     0
 76
     1
 98
        1
 10
0.0
 20
0.0
  0
HATCH
  5
15F
330
1F
100
AcDbEntity
  8
0
  6
Continuous
 62
     7
100
AcDbHatch
 10
0.0
 20
0.0
 30
0.0
210
0.0
220
0.0
230
1.0
  2
SOLID
 70
     1
 71
     0
 91
        4
 92
        0
 93
       36
 72
     4
 94
        3
 73
     1
 74
     0
 95
        8
 96
        4
 40
27.0
 40
27.0
 40
27.0
 40
27.0
 40
28.0
 40
28.0
 40
28.0
 40
28.0
 10
250.775912366388
 20
15.97750071869941
 42
1.0
 10
251.6006888446594
 20
15.97750071869941
 42
1.0
 10
252.2000300909972
 20
16.21966082123849
 42
1.0
 10
252.5600654791808
 20
16.60954058930489
 42
1.0
 72
     1
 10
252.5600654791808
 20
16.60954058930489
 11
252.3680799884582
 21
16.10328776948067
 72
     1
 10
252.3680799884582
 20
16.10328776948067
 11
253.5373687714173
 21
16.10308747162911
 72
     1
 10
253.5373687714173
 20
16.10308747162911
 11
253.9492312286926
 21
17.27272677582834
 72
     1
 10
253.9492312286926
 20
17.27272677582834
 11
255.9146538971497
 21
17.27402871186348
 72
     1
 10
255.9146538971497
 20
17.27402871186348
 11
256.311894611261
 21
16.10428925873847
 72
     1
 10
256.311894611261
 20
16.10428925873847
 11
257.5118289655089
 21
16.10448955659005
 72
     1
 10
257.5118289655089
 20
16.10448955659005
 11
255.5448539887024
 21
21.35649952241037
 72
     1
 10
255.5448539887024
 20
21.35649952241037
 11
254.3593410797669
 21
21.35664974579904
 72
     1
 10
254.3593410797669
 20
21.35664974579904
 11
252.9588585016418
 21
17.66180535248849
 72
     4
 94
        3
 73
     1
 74
     0
 95
        8
 96
        4
 40
1.0
 40
1.0
 40
1.0
 40
1.0
 40
2.0
 40
2.0
 40
2.0
 40
2.0
 10
252.9588585016418
 20
17.66180535248849
 42
1.0
 10
252.9572060443666
 20
18.85412838837716
 42
1.0
 10
251.7814075812317
 20
19.09713975678537
 42
1.0
 10
251.3988386847472
 20
19.19127974701973
 42
1.0
 72
     4
 94
        3
 73
     1
 74
     0
 95
        8
 96
        4
 40
2.0
 40
2.0
 40
2.0
 40
2.0
 40
3.0
 40
3.0
 40
3.0
 40
3.0
 10
251.3988386847472
 20
19.19127974701973
 42
1.0
 10
250.0813294916322
 20
19.53088475434395
 42
1.0
 10
249.8317583685852
 20
19.57910646210761
 42
1.0
 10
249.8314078473449
 20
19.98611169648262
 42
1.0
 72
     4
 94
        3
 73
     1
 74
     0
 95
        8
 96
        4
 40
3.0
 40
3.0
 40
3.0
 40
3.0
 40
4.0
 40
4.0
 40
4.0
 40
4.0
 10
249.8314078473449
 20
19.98611169648262
 42
1.0
 10
249.8320087408996
 20
20.42771838471505
 42
1.0
 10
250.2584428668762
 20
20.58209795380683
 42
1.0
 10
250.6259393500305
 20
20.58129676240059
 42
1.0
 72
     4
 94
        3
 73
     1
 74
     0
 95
        8
 96
        4
 40
4.0
 40
4.0
 40
4.0
 40
4.0
 40
5.0
 40
5.0
 40
5.0
 40
5.0
 10
250.6259393500305
 20
20.58129676240059
 42
1.0
 10
251.1789116437317
 20
20.5817474325666
 42
1.0
 10
251.6265773419739
 20
20.42030736420722
 42
1.0
 10
251.6640831146788
 20
19.78841771699044
 42
1.0
 72
     1
 10
251.6640831146788
 20
19.78841771699044
 11
252.7821957965637
 21
19.788618014842
 72
     4
 94
        3
 73
     1
 74
     0
 95
        8
 96
        4
 40
6.0
 40
6.0
 40
6.0
 40
6.0
 40
7.0
 40
7.0
 40
7.0
 40
7.0
 10
252.7821957965637
 20
19.788618014842
 42
1.0
 10
252.7805934137513
 20
21.00217262299631
 42
1.0
 10
251.773045145929
 20
21.47943232880684
 42
1.0
 10
250.6781169403627
 20
21.47873128632638
 42
1.0
 72
     4
 94
        3
 73
     1
 74
     0
 95
        8
 96
        4
 40
7.0
 40
7.0
 40
7.0
 40
7.0
 40
8.0
 40
8.0
 40
8.0
 40
8.0
 10
250.6781169403627
 20
21.47873128632638
 42
1.0
 10
249.739871729181
 20
21.47973277558418
 42
1.0
 10
248.7410864923645
 20
20.97633420014472
 42
1.0
 10
248.7159991864563
 20
19.93067926606271
 42
1.0
 72
     4
 94
        3
 73
     1
 74
     0
 95
        8
 96
        4
 40
8.0
 40
8.0
 40
8.0
 40
8.0
 40
9.0
 40
9.0
 40
9.0
 40
9.0
 10
248.7159991864563
 20
19.93067926606271
 42
1.0
 10
248.6373822797181
 20
21.03707452363107
 42
1.0
 10
247.6701940289856
 20
21.47788002045722
 42
1.0
 10
246.6170779999328
 20
21.47677838227363
 42
1.0
 72
     4
 94
        3
 73
     1
 74
     0
 95
        8
 96
        4
 40
9.0
 40
9.0
 40
9.0
 40
9.0
 40
10.0
 40
10.0
 40
10.0
 40
10.0
 10
246.6170779999328
 20
21.47677838227363
 42
1.0
 10
245.6702700555971
 20
21.47707882905098
 42
1.0
 10
244.6551104694152
 20
20.9610614889631
 42
1.0
 10
244.6557614374329
 20
19.88776545136545
 42
1.0
 72
     4
 94
        3
 73
     1
 74
     0
 95
        8
 96
        4
 40
10.0
 40
10.0
 40
10.0
 40
10.0
 40
11.0
 40
11.0
 40
11.0
 40
11.0
 10
244.6557614374329
 20
19.88776545136545
 42
1.0
 10
244.6560118097474
 20
18.90089793671701
 42
1.0
 10
245.4431322919251
 20
18.60110212739083
 42
1.0
 10
246.222491232355
 20
18.39489548920723
 42
1.0
 72
     4
 94
        3
 73
     1
 74
     0
 95
        8
 96
        4
 40
11.0
 40
11.0
 40
11.0
 40
11.0
 40
12.0
 40
12.0
 40
12.0
 40
12.0
 10
246.222491232355
 20
18.39489548920723
 42
1.0
 10
246.9954907159972
 20
18.18898929780099
 42
1.0
 10
247.7823608258607
 20
18.09374766938301
 42
1.0
 10
247.781709857843
 20
17.52800638764473
 42
1.0
 72
     4
 94
        3
 73
     1
 74
     0
 95
        8
 96
        4
 40
12.0
 40
12.0
 40
12.0
 40
12.0
 40
13.0
 40
13.0
 40
13.0
 40
13.0
 10
247.781709857843
 20
17.52800638764473
 42
1.0
 10
247.7819602301574
 20
16.99100784760568
 42
1.0
 10
247.1650428473451
 20
16.87363330659003
 42
1.0
 10
246.761292453058
 20
16.87243151948067
 42
1.0
 72
     4
 94
        3
 73
     1
 74
     0
 95
        8
 96
        4
 40
13.0
 40
13.0
 40
13.0
 40
13.0
 40
14.0
 40
14.0
 40
14.0
 40
14.0
 10
246.761292453058
 20
16.87243151948067
 42
1.0
 10
246.1418713471011
 20
16.87132988129705
 42
1.0
 10
245.5989640204408
 20
17.14453615082831
 42
1.0
 10
245.5980626801087
 20
17.84317505707833
 42
1.0
 72
     1
 10
245.5980626801087
 20
17.84317505707833
 11
244.4938206244447
 21
17.84297475922678
 72
     1
 10
244.4938206244447
 20
17.84297475922678
 11
243.1790655267883
 21
21.35244349091622
 72
     1
 10
243.1790655267883
 20
21.35244349091622
 11
241.9965070111634
 21
21.35244349091622
 72
     1
 10
241.9965070111634
 20
21.35244349091622
 11
240.0058468134094
 21
16.09747913178536
 72
     1
 10
240.0058468134094
 20
16.09747913178536
 11
241.1745347028138
 21
16.0998827060041
 72
     1
 10
241.1745347028138
 20
16.0998827060041
 11
241.5864472345521
 21
17.26862066987128
 72
     1
 10
241.5864472345521
 20
17.26862066987128
 11
243.5517697540834
 21
17.26822007416817
 72
     1
 10
243.5517697540834
 20
17.26822007416817
 11
243.9486098724915
 21
16.09978255707833
 72
     1
 10
243.9486098724915
 20
16.09978255707833
 11
245.1468416950013
 21
16.09948211030099
 72
     1
 10
245.1468416950013
 20
16.09948211030099
 11
244.9626678204895
 21
16.59121333588692
 72
     4
 94
        3
 73
     1
 74
     0
 95
        8
 96
        4
 40
24.0
 40
24.0
 40
24.0
 40
24.0
 40
25.0
 40
25.0
 40
25.0
 40
25.0
 10
244.9626678204895
 20
16.59121333588692
 42
1.0
 10
245.3860974786928
 20
16.17118874116036
 42
1.0
 10
246.0371155707337
 20
15.97469654877753
 42
1.0
 10
246.716425734308
 20
15.97589833588692
 42
1.0
 72
     4
 94
        3
 73
     1
 74
     0
 95
        8
 96
        4
 40
25.0
 40
25.0
 40
25.0
 40
25.0
 40
26.0
 40
26.0
 40
26.0
 40
26.0
 10
246.716425734308
 20
15.97589833588692
 42
1.0
 10
247.767538784845
 20
15.97489684662909
 42
1.0
 10
248.4551112347961
 20
16.36808152924629
 42
1.0
 10
248.7441410346007
 20
16.96036227631662
 42
1.0
 72
     4
 94
        3
 73
     1
 74
     0
 95
        8
 96
        4
 40
26.0
 40
26.0
 40
26.0
 40
26.0
 40
27.0
 40
27.0
 40
27.0
 40
27.0
 10
248.7441410346007
 20
16.96036227631662
 42
1.0
 10
249.1115373688293
 20
16.28575911225411
 42
1.0
 10
249.9227937421205
 20
15.97649922944161
 42
1.0
 10
250.775912366388
 20
15.97750071869941
 42
1.0
 97
        0
 92
        0
 93
        4
 72
     1
 10
242.5862839661994
 20
20.05671673823928
 11
243.2487192074992
 21
18.12970103153927
 72
     1
 10
243.2487192074992
 20
18.12970103153927
 11
241.8865434845994
 21
18.13000161533926
 72
     1
 10
241.8865434845994
 20
18.13000161533926
 11
242.5710114602995
 21
20.05666673783926
 72
     1
 10
242.5710114602995
 20
20.05666673783926
 11
242.5862839661994
 21
20.05671673823928
 97
        0
 92
        0
 93
        4
 72
     1
 10
254.9484671651994
 20
20.06092287653927
 11
255.6127047464993
 21
18.13470862973926
 72
     1
 10
255.6127047464993
 20
18.13470862973926
 11
254.2494275612992
 21
18.13420775363925
 72
     1
 10
254.2494275612992
 20
18.13420775363925
 11
254.9343961223991
 21
20.06087287613928
 72
     1
 10
254.9343961223991
 20
20.06087287613928
 11
254.9484671651994
 21
20.06092287653927
 97
        0
 92
        0
 93
       10
 72
     4
 94
        3
 73
     1
 74
     0
 95
        8
 96
        4
 40
8.0
 40
8.0
 40
8.0
 40
8.0
 40
9.0
 40
9.0
 40
9.0
 40
9.0
 10
250.2803254071593
 20
18.3976996591291
 42
1.0
 10
251.0534250397278
 20
18.19169331879708
 42
1.0
 10
251.841246564386
 20
18.09675213715645
 42
1.0
 10
251.8416471600891
 20
17.53000936616036
 42
1.0
 72
     4
 94
        3
 73
     1
 74
     0
 95
        8
 96
        4
 40
9.0
 40
9.0
 40
9.0
 40
9.0
 40
10.0
 40
10.0
 40
10.0
 40
10.0
 10
251.8416471600891
 20
17.53000936616036
 42
1.0
 10
251.8413967877746
 20
16.99361171967598
 42
1.0
 10
251.2239786603332
 20
16.87523568940255
 42
1.0
 10
250.8174240961243
 20
16.87503539155099
 42
1.0
 72
     4
 94
        3
 73
     1
 74
     0
 95
        8
 96
        4
 40
0.0
 40
0.0
 40
0.0
 40
0.0
 40
1.0
 40
1.0
 40
1.0
 40
1.0
 10
250.8174240961243
 20
16.87503539155099
 42
1.0
 10
250.2008071600892
 20
16.87383360444161
 42
1.0
 10
249.6562974506164
 20
17.14623868256659
 42
1.0
 10
249.6543445465636
 20
17.84307490815254
 42
1.0
 72
     1
 10
249.6543445465636
 20
17.84307490815254
 11
248.8889063068178
 21
17.84387609955879
 72
     4
 94
        3
 73
     1
 74
     0
 95
        8
 96
        4
 40
2.0
 40
2.0
 40
2.0
 40
2.0
 40
3.0
 40
3.0
 40
3.0
 40
3.0
 10
248.8889063068178
 20
17.84387609955879
 42
1.0
 10
248.7744861591126
 20
18.87681212006659
 42
1.0
 10
247.7027424298646
 20
19.09924288422676
 42
1.0
 10
247.3393520526672
 20
19.19022818329902
 42
1.0
 72
     4
 94
        3
 73
     1
 74
     0
 95
        8
 96
        4
 40
3.0
 40
3.0
 40
3.0
 40
3.0
 40
4.0
 40
4.0
 40
4.0
 40
4.0
 10
247.3393520526672
 20
19.19022818329902
 42
1.0
 10
246.0249975507141
 20
19.52788028657051
 42
1.0
 10
245.7739241937806
 20
19.58010795136545
 42
1.0
 10
245.7729727789857
 20
19.98385834565256
 42
1.0
 72
     4
 94
        3
 73
     1
 74
     0
 95
        8
 96
        4
 40
4.0
 40
4.0
 40
4.0
 40
4.0
 40
5.0
 40
5.0
 40
5.0
 40
5.0
 10
245.7729727789857
 20
19.98385834565256
 42
1.0
 10
245.7746252362612
 20
20.42586562958809
 42
1.0
 10
246.2001079474427
 20
20.58059571992013
 42
1.0
 10
246.5675042816713
 20
20.57984460297677
 42
1.0
 72
     4
 94
        3
 73
     1
 74
     0
 95
        8
 96
        4
 40
5.0
 40
5.0
 40
5.0
 40
5.0
 40
6.0
 40
6.0
 40
6.0
 40
6.0
 10
246.5675042816713
 20
20.57984460297677
 42
1.0
 10
247.1200759796692
 20
20.57969437958809
 42
1.0
 10
247.5670406354309
 20
20.41975654511544
 42
1.0
 10
247.6050972272279
 20
19.78696555756659
 42
1.0
 72
     1
 10
247.6050972272279
 20
19.78696555756659
 11
248.7190537286927
 21
19.78706570649238
 72
     4
 94
        3
 73
     1
 74
     0
 95
        8
 96
        4
 40
7.0
 40
7.0
 40
7.0
 40
7.0
 40
8.0
 40
8.0
 40
8.0
 40
8.0
 10
248.7190537286927
 20
19.78706570649238
 42
1.0
 10
248.7737350421693
 20
18.88352209809396
 42
1.0
 10
249.5288579425599
 20
18.59419185151193
 42
1.0
 10
250.2803254071593
 20
18.3976996591291
 42
1.0
 97
        0
 75
     0
 76
     1
 98
        1
 10
0.0
 20
0.0
  0
HATCH
  5
160
330
1F
100
AcDbEntity
  8
0
  6
Continuous
 62
     7
100
AcDbHatch
 10
0.0
 20
0.0
 30
0.0
210
0.0
220
0.0
230
1.0
  2
SOLID
 70
     1
 71
     0
 91
        4
 92
        0
 93
       16
 72
     4
 94
        3
 73
     1
 74
     0
 95
        8
 96
        4
 40
15.0
 40
15.0
 40
15.0
 40
15.0
 40
16.0
 40
16.0
 40
16.0
 40
16.0
 10
267.7901632929016
 20
17.63276216401191
 42
1.0
 10
267.7897626971983
 20
18.28743569184394
 42
1.0
 10
267.4646792841124
 20
18.7796676620588
 42
1.0
 10
266.8241267548157
 20
18.96248952607246
 42
1.0
 72
     4
 94
        3
 73
     1
 74
     0
 95
        8
 96
        4
 40
0.0
 40
0.0
 40
0.0
 40
0.0
 40
1.0
 40
1.0
 40
1.0
 40
1.0
 10
266.8241267548157
 20
18.96248952607246
 42
1.0
 10
267.2812064520813
 20
19.18341805634591
 42
1.0
 10
267.538188595636
 20
19.54485552949045
 42
1.0
 10
267.5393903827454
 20
20.05982130585762
 42
1.0
 72
     4
 94
        3
 73
     1
 74
     0
 95
        8
 96
        4
 40
1.0
 40
1.0
 40
1.0
 40
1.0
 40
2.0
 40
2.0
 40
2.0
 40
2.0
 10
267.5393903827454
 20
20.05982130585762
 42
1.0
 10
267.538188595636
 20
21.03732489594551
 42
1.0
 10
266.8611818573547
 20
21.36230816010568
 42
1.0
 10
265.8596925995423
 20
21.36095614960762
 42
1.0
 72
     1
 10
265.8596925995423
 20
21.36095614960762
 11
263.387616515558
 21
21.35975436249823
 72
     1
 10
263.387616515558
 20
21.35975436249823
 11
263.3904206854796
 21
16.49547096284004
 72
     1
 10
263.3904206854796
 20
16.49547096284004
 11
261.5699135126281
 21
21.35965421357247
 72
     1
 10
261.5699135126281
 20
21.35965421357247
 11
260.3839499335268
 21
21.35880294770331
 72
     1
 10
260.3839499335268
 20
21.35880294770331
 11
258.3919877997376
 21
16.10468985444161
 72
     1
 10
258.3919877997376
 20
16.10468985444161
 11
259.563329635675
 21
16.10519059907051
 72
     1
 10
259.563329635675
 20
16.10519059907051
 11
259.9737399335267
 21
17.27583139252753
 72
     1
 10
259.9737399335267
 20
17.27583139252753
 11
261.939062453058
 21
17.27523049897287
 72
     1
 10
261.939062453058
 20
17.27523049897287
 11
262.3364533905579
 21
16.1062922372541
 72
     1
 10
262.3364533905579
 20
16.1062922372541
 11
263.5358369257141
 21
16.10729372651193
 72
     1
 10
263.5358369257141
 20
16.10729372651193
 11
263.5354363300108
 21
16.10789462006662
 72
     1
 10
263.5354363300108
 20
16.10789462006662
 11
265.9370075702454
 21
16.10849551362129
 72
     4
 94
        3
 73
     1
 74
     0
 95
        8
 96
        4
 40
14.0
 40
14.0
 40
14.0
 40
14.0
 40
15.0
 40
15.0
 40
15.0
 40
15.0
 10
265.9370075702454
 20
16.10849551362129
 42
1.0
 10
266.8854178973938
 20
16.10869581147287
 42
1.0
 10
267.7895623993469
 20
16.56637640229317
 42
1.0
 10
267.7901632929016
 20
17.63276216401191
 42
1.0
 97
        0
 92
        0
 93
        4
 72
     1
 10
260.9746281647991
 20
20.06392755173928
 11
261.6372136979994
 21
18.13571009123926
 72
     1
 10
261.6372136979994
 20
18.13571009123926
 11
260.2749879746993
 21
18.13581009203927
 72
     1
 10
260.2749879746993
 20
18.13581009203927
 11
260.9598062438992
 21
20.06387726063927
 72
     1
 10
260.9598062438992
 20
20.06387726063927
 11
260.9746281647991
 21
20.06392755173928
 97
        0
 92
        0
 93
        5
 72
     4
 94
        3
 73
     1
 74
     0
 95
        8
 96
        4
 40
1.0
 40
1.0
 40
1.0
 40
1.0
 40
2.0
 40
2.0
 40
2.0
 40
2.0
 10
265.6251438153625
 20
20.46402237031075
 42
1.0
 10
266.0361550067689
 20
20.46327125336739
 42
1.0
 10
266.4201259882142
 20
20.36131964692209
 42
1.0
 10
266.4215280731752
 20
19.86052494355295
 42
1.0
 72
     4
 94
        3
 73
     1
 74
     0
 95
        8
 96
        4
 40
2.0
 40
2.0
 40
2.0
 40
2.0
 40
3.0
 40
3.0
 40
3.0
 40
3.0
 10
266.4215280731752
 20
19.86052494355295
 42
1.0
 10
266.4205265839173
 20
19.41866788300606
 42
1.0
 10
266.1174759345033
 20
19.23404333832832
 42
1.0
 10
265.7152778485656
 20
19.23484452973456
 42
1.0
 72
     1
 10
265.7152778485656
 20
19.23484452973456
 11
264.544937501886
 21
19.23284155121893
 72
     1
 10
264.544937501886
 20
19.23284155121893
 11
264.5443366083313
 21
20.46327125336739
 72
     1
 10
264.5443366083313
 20
20.46327125336739
 11
265.6251438153625
 21
20.46402237031075
 97
        0
 92
        0
 93
        5
 72
     4
 94
        3
 73
     1
 74
     0
 95
        8
 96
        4
 40
3.0
 40
3.0
 40
3.0
 40
3.0
 40
4.0
 40
4.0
 40
4.0
 40
4.0
 10
265.8032086054016
 20
18.44857531342597
 42
1.0
 10
266.2959413202453
 20
18.44897590912911
 42
1.0
 10
266.6354461786437
 20
18.2348575058088
 42
1.0
 10
266.6338437958314
 20
17.69785896576973
 42
1.0
 72
     4
 94
        3
 73
     1
 74
     0
 95
        8
 96
        4
 40
4.0
 40
4.0
 40
4.0
 40
4.0
 40
5.0
 40
5.0
 40
5.0
 40
5.0
 10
266.6338437958314
 20
17.69785896576973
 42
1.0
 10
266.6342443915344
 20
17.1526482138166
 42
1.0
 10
266.2364528583314
 20
17.00572973969552
 42
1.0
 10
265.7821773309874
 20
17.00633063325019
 42
1.0
 72
     1
 10
265.7821773309874
 20
17.00633063325019
 11
264.5457386932923
 21
17.00502869721504
 72
     1
 10
264.5457386932923
 20
17.00502869721504
 11
264.5453380975891
 21
18.44747367524238
 72
     1
 10
264.5453380975891
 20
18.44747367524238
 11
265.8032086054016
 21
18.44857531342597
 97
        0
 75
     0
 76
     1
 98
        1
 10
0.0
 20
0.0
  0
HATCH
  5
161
330
1F
100
AcDbEntity
  8
0
  6
Continuous
 62
     7
100
AcDbHatch
 10
0.0
 20
0.0
 30
0.0
210
0.0
220
0.0
230
1.0
  2
SOLID
 70
     1
 71
     0
 91
        2
 92
        0
 93
       11
 72
     4
 94
        3
 73
     1
 74
     0
 95
        8
 96
        4
 40
10.0
 40
10.0
 40
10.0
 40
10.0
 40
11.0
 40
11.0
 40
11.0
 40
11.0
 10
275.7666468394886
 20
18.70321783376455
 42
1.0
 10
275.7676483287466
 20
20.26353809743642
 42
1.0
 10
274.8094234068716
 20
21.47699255666494
 42
1.0
 10
273.1840063414419
 20
21.47438868459464
 42
1.0
 72
     4
 94
        3
 73
     1
 74
     0
 95
        8
 96
        4
 40
0.0
 40
0.0
 40
0.0
 40
0.0
 40
1.0
 40
1.0
 40
1.0
 40
1.0
 10
273.1840063414419
 20
21.47438868459464
 42
1.0
 10
271.5587895738638
 20
21.47614129079581
 42
1.0
 10
270.6017664390981
 20
20.26243645925283
 42
1.0
 10
270.6031685240591
 20
18.70201604665517
 42
1.0
 72
     4
 94
        3
 73
     1
 74
     0
 95
        8
 96
        4
 40
1.0
 40
1.0
 40
1.0
 40
1.0
 40
2.0
 40
2.0
 40
2.0
 40
2.0
 10
270.6031685240591
 20
18.70201604665517
 42
1.0
 10
270.6041700133168
 20
18.08895439748526
 42
1.0
 10
270.7632065074574
 20
17.527319221704
 42
1.0
 10
271.0568431578482
 20
17.07364458791494
 42
1.0
 72
     1
 10
271.0568431578482
 20
17.07364458791494
 11
269.1131423498829
 21
17.07430334674812
 72
     1
 10
269.1131423498829
 20
17.07430334674812
 11
269.1131423498829
 21
21.37052037201973
 72
     1
 10
269.1131423498829
 20
21.37052037201973
 11
267.9588140839173
 21
21.37052037201973
 72
     1
 10
267.9588140839173
 20
21.37052037201973
 11
267.9746376141907
 21
16.11029819428536
 72
     1
 10
267.9746376141907
 20
16.11029819428536
 11
271.31520518255
 21
16.12411874604317
 72
     1
 10
271.31520518255
 20
16.12411874604317
 11
271.2951976012075
 21
16.75927710988759
 72
     4
 94
        3
 73
     1
 74
     0
 95
        8
 96
        4
 40
8.0
 40
8.0
 40
8.0
 40
8.0
 40
9.0
 40
9.0
 40
9.0
 40
9.0
 10
271.2951976012075
 20
16.75927710988759
 42
1.0
 10
271.7370546617544
 20
16.27245318166495
 42
1.0
 10
272.3790092760123
 20
15.973007893579
 42
1.0
 10
273.1868105113637
 20
15.9740093828368
 42
1.0
 72
     4
 94
        3
 73
     1
 74
     0
 95
        8
 96
        4
 40
9.0
 40
9.0
 40
9.0
 40
9.0
 40
10.0
 40
10.0
 40
10.0
 40
10.0
 10
273.1868105113637
 20
15.9740093828368
 42
1.0
 10
274.8126281724965
 20
15.97400938283683
 42
1.0
 10
275.7678486265982
 20
17.18841525686024
 42
1.0
 10
275.7666468394886
 20
18.70321783376455
 42
1.0
 97
        0
 92
        0
 93
        4
 72
     4
 94
        3
 73
     1
 74
     0
 95
        8
 96
        4
 40
3.0
 40
3.0
 40
3.0
 40
3.0
 40
4.0
 40
4.0
 40
4.0
 40
4.0
 10
274.6293334345031
 20
18.71682421113106
 42
1.0
 10
274.6297340302069
 20
17.83946954682442
 42
1.0
 10
274.2389529218083
 20
16.95775840424632
 42
1.0
 10
273.2022112421208
 20
16.95635631928557
 42
1.0
 72
     4
 94
        3
 73
     1
 74
     0
 95
        8
 96
        4
 40
0.0
 40
0.0
 40
0.0
 40
0.0
 40
1.0
 40
1.0
 40
1.0
 40
1.0
 10
273.2022112421208
 20
16.95635631928558
 42
1.0
 10
272.1640674774726
 20
16.9558555746565
 42
1.0
 10
271.7750890497377
 20
17.83886865326972
 42
1.0
 10
271.773486666925
 20
18.71412019013496
 42
1.0
 72
     4
 94
        3
 73
     1
 74
     0
 95
        8
 96
        4
 40
1.0
 40
1.0
 40
1.0
 40
1.0
 40
2.0
 40
2.0
 40
2.0
 40
2.0
 10
271.773486666925
 20
18.71412019013496
 42
1.0
 10
271.7730860712218
 20
19.63343725434394
 42
1.0
 10
272.1620644989562
 20
20.51625003510568
 42
1.0
 10
273.200608859308
 20
20.51680085419746
 42
1.0
 72
     4
 94
        3
 73
     1
 74
     0
 95
        8
 96
        4
 40
2.0
 40
2.0
 40
2.0
 40
2.0
 40
3.0
 40
3.0
 40
3.0
 40
3.0
 10
273.200608859308
 20
20.51680085419746
 42
1.0
 10
274.2381517304016
 20
20.51665063080879
 42
1.0
 10
274.6273304559876
 20
19.63508971161934
 42
1.0
 10
274.6293334345031
 20
18.71682421113105
 42
1.0
 97
        0
 75
     0
 76
     1
 98
        1
 10
0.0
 20
0.0
  0
LINE
  5
162
330
1F
100
AcDbEntity
  8
0
  6
Continuous
 62
     7
370
    70
100
AcDbLine
 10
20.0
 20
9.0
 30
0.0
 11
20.0
 21
288.0
 31
0.0
  0
LINE
  5
163
330
1F
100
AcDbEntity
  8
0
  6
Continuous
 62
     7
370
    18
100
AcDbLine
 10
5.0
 20
148.5
 30
0.0
 11
14.0
 21
148.5
 31
0.0
  0
LINE
  5
164
330
1F
100
AcDbEntity
  8
0
  6
Continuous
 62
     7
370
    18
100
AcDbLine
 10
230.0
 20
9.0
 30
0.0
 11
230.0
 21
4.0
 31
0.0
  0
LINE
  5
165
330
1F
100
AcDbEntity
  8
0
  6
Continuous
 62
     7
370
    18
100
AcDbLine
 10
230.0
 20
288.0
 30
0.0
 11
230.0
 21
293.0
 31
0.0
  0
LINE
  5
166
330
1F
100
AcDbEntity
  8
0
  6
Continuous
 62
     7
370
    18
100
AcDbLine
 10
125.0
 20
9.0
 30
0.0
 11
125.0
 21
4.0
 31
0.0
  0
LINE
  5
167
330
1F
100
AcDbEntity
  8
0
  6
Continuous
 62
     7
370
    18
100
AcDbLine
 10
125.0
 20
288.0
 30
0.0
 11
125.0
 21
293.0
 31
0.0
  0
LINE
  5
168
330
1F
100
AcDbEntity
  8
0
  6
CENTERX2
 62
     7
370
    18
100
AcDbLine
 10
230.0
 20
9.0
 30
0.0
 11
413.0
 21
9.0
 31
0.0
  0
LINE
  5
169
330
1F
100
AcDbEntity
  8
0
  6
CENTERX2
 62
     7
370
    18
100
AcDbLine
 10
413.0
 20
42.8
 30
0.0
 11
413.0
 21
9.0
 31
0.0
  0
LINE
  5
16A
330
1F
100
AcDbEntity
  8
0
  6
Continuous
 62
     7
370
    25
100
AcDbLine
 10
230.0
 20
24.0
 30
0.0
 11
413.0
 21
24.0
 31
0.0
  0
LINE
  5
16B
330
1F
100
AcDbEntity
  8
0
  6
CENTERX2
 62
     7
370
    18
100
AcDbLine
 10
399.5466379565
 20
27.7521826334
 30
0.0
 11
405.2718411658
 21
27.7521826334
 31
0.0
  0
LINE
  5
16C
330
1F
100
AcDbEntity
  8
0
  6
Continuous
 62
     7
370
    18
100
AcDbLine
 10
404.7565728769
 20
29.9695142827
 30
0.0
 11
400.2145783309
 21
29.1055142622
 31
0.0
  0
LINE
  5
16D
330
1F
100
AcDbEntity
  8
0
  6
Continuous
 62
     7
370
    18
100
AcDbLine
 10
404.7565728769
 20
25.5348509841
 30
0.0
 11
400.2145783309
 21
26.3988510046
 31
0.0
  0
LINE
  5
16E
330
1F
100
AcDbEntity
  8
0
  6
Continuous
 62
     7
370
    18
100
AcDbLine
 10
400.2145783309
 20
29.1055142622
 30
0.0
 11
400.2145783309
 21
26.3988510046
 31
0.0
  0
LINE
  5
16F
330
1F
100
AcDbEntity
  8
0
  6
Continuous
 62
     7
370
    18
100
AcDbLine
 10
404.7565728769
 20
25.5348509841
 30
0.0
 11
404.7565728769
 21
29.9695142827
 31
0.0
  0
LINE
  5
170
330
1F
100
AcDbEntity
  8
0
  6
CENTERX2
 62
     7
370
    18
100
AcDbLine
 10
406.2413099895
 20
27.7521826334
 30
0.0
 11
411.9283451773
 21
27.7521826334
 31
0.0
  0
LINE
  5
171
330
1F
100
AcDbEntity
  8
0
  6
Continuous
 62
     7
370
    25
100
AcDbLine
 10
230.0
 20
31.5
 30
0.0
 11
413.0
 21
31.5
 31
0.0
  0
LINE
  5
172
330
1F
100
AcDbEntity
  8
0
  6
Continuous
 62
     7
370
    70
100
AcDbLine
 10
230.0
 20
42.8
 30
0.0
 11
413.0
 21
42.8
 31
0.0
  0
LINE
  5
173
330
1F
100
AcDbEntity
  8
0
  6
Continuous
 62
     7
370
    70
100
AcDbLine
 10
230.0
 20
9.0
 30
0.0
 11
230.0
 21
42.8
 31
0.0
  0
LINE
  5
174
330
1F
100
AcDbEntity
  8
0
  6
Continuous
 62
     7
370
    25
100
AcDbLine
 10
363.0
 20
42.8
 30
0.0
 11
363.0
 21
9.0
 31
0.0
  0
LINE
  5
175
330
1F
100
AcDbEntity
  8
0
  6
Continuous
 62
     7
370
    25
100
AcDbLine
 10
290.0
 20
42.8
 30
0.0
 11
290.0
 21
9.0
 31
0.0
  0
LINE
  5
176
330
1F
100
AcDbEntity
  8
0
  6
Continuous
 62
     7
370
    25
100
AcDbLine
 10
314.4
 20
31.5
 30
0.0
 11
314.4
 21
24.0
 31
0.0
  0
LINE
  5
177
330
1F
100
AcDbEntity
  8
0
  6
Continuous
 62
     7
370
    25
100
AcDbLine
 10
338.7
 20
31.5
 30
0.0
 11
338.7
 21
24.0
 31
0.0
  0
LINE
  5
178
330
1F
100
AcDbEntity
  8
0
  6
Continuous
 62
     7
370
    25
100
AcDbLine
 10
251.0
 20
31.5
 30
0.0
 11
251.0
 21
24.0
 31
0.0
  0
LINE
  5
179
330
1F
100
AcDbEntity
  8
0
  6
Continuous
 62
     7
370
    25
100
AcDbLine
 10
269.0
 20
31.5
 30
0.0
 11
269.0
 21
24.0
 31
0.0
  0
LINE
  5
17A
330
1F
100
AcDbEntity
  8
0
  6
Continuous
 62
     7
370
    25
100
AcDbLine
 10
363.0
 20
16.5
 30
0.0
 11
413.0
 21
16.5
 31
0.0
  0
LINE
  5
17B
330
1F
100
AcDbEntity
  8
0
  6
Continuous
 62
     7
370
    25
100
AcDbLine
 10
403.7812674462
 20
16.5
 30
0.0
 11
403.7812674462
 21
9.0
 31
0.0
  0
LINE
  5
17C
330
1F
100
AcDbEntity
  8
0
  6
Continuous
 62
     7
370
    25
100
AcDbLine
 10
388.0
 20
31.5
 30
0.0
 11
388.0
 21
24.0
 31
0.0
  0
LINE
  5
17D
330
1F
100
AcDbEntity
  8
0
  6
CENTERX2
 62
     7
370
    18
100
AcDbLine
 10
409.0848275834
 20
30.5957002273
 30
0.0
 11
409.0848275834
 21
24.9086650395
 31
0.0
  0
LINE
  5
17E
330
1F
100
AcDbEntity
  8
0
  6
Continuous
 62
     7
370
    18
100
AcDbLine
 10
254.3593410798
 20
21.3566497458
 30
0.0
 11
252.9588585016
 21
17.6618053525
 31
0.0
  0
LINE
  5
17F
330
1F
100
AcDbEntity
  8
0
  6
Continuous
 62
     7
370
    18
100
AcDbLine
 10
251.6640831147
 20
19.788417717
 30
0.0
 11
252.7821957966
 21
19.7886180148
 31
0.0
  0
LINE
  5
180
330
1F
100
AcDbEntity
  8
0
  6
Continuous
 62
     7
370
    18
100
AcDbLine
 10
245.5980626801
 20
17.8431750571
 30
0.0
 11
244.4938206244
 21
17.8429747592
 31
0.0
  0
LINE
  5
181
330
1F
100
AcDbEntity
  8
0
  6
Continuous
 62
     7
370
    70
100
AcDbLine
 10
413.0
 20
9.0
 30
0.0
 11
20.0
 21
9.0
 31
0.0
  0
LINE
  5
182
330
1F
100
AcDbEntity
  8
0
  6
Continuous
 62
     7
370
    70
100
AcDbLine
 10
413.0
 20
9.0
 30
0.0
 11
413.0
 21
288.0
 31
0.0
  0
LINE
  5
183
330
1F
100
AcDbEntity
  8
0
  6
Continuous
 62
     7
370
    70
100
AcDbLine
 10
413.0
 20
288.0
 30
0.0
 11
20.0
 21
288.0
 31
0.0
  0
LINE
  5
184
330
1F
100
AcDbEntity
  8
0
  6
Continuous
 62
     7
370
    18
100
AcDbLine
 10
244.4938206244
 20
17.8429747592
 30
0.0
 11
243.1790655268
 21
21.3524434909
 31
0.0
  0
LINE
  5
185
330
1F
100
AcDbEntity
  8
0
  6
Continuous
 62
     7
370
    18
100
AcDbLine
 10
243.1790655268
 20
21.3524434909
 30
0.0
 11
241.9965070112
 21
21.3524434909
 31
0.0
  0
LINE
  5
186
330
1F
100
AcDbEntity
  8
0
  6
Continuous
 62
     7
370
    18
100
AcDbLine
 10
241.9965070112
 20
21.3524434909
 30
0.0
 11
240.0058468134
 21
16.0974791318
 31
0.0
  0
LINE
  5
187
330
1F
100
AcDbEntity
  8
0
  6
Continuous
 62
     7
370
    18
100
AcDbLine
 10
240.0058468134
 20
16.0974791318
 30
0.0
 11
241.1745347028
 21
16.099882706
 31
0.0
  0
LINE
  5
188
330
1F
100
AcDbEntity
  8
0
  6
Continuous
 62
     7
370
    18
100
AcDbLine
 10
241.1745347028
 20
16.099882706
 30
0.0
 11
241.5864472346
 21
17.2686206699
 31
0.0
  0
LINE
  5
189
330
1F
100
AcDbEntity
  8
0
  6
Continuous
 62
     7
370
    18
100
AcDbLine
 10
241.5864472346
 20
17.2686206699
 30
0.0
 11
243.5517697541
 21
17.2682200742
 31
0.0
  0
LINE
  5
18A
330
1F
100
AcDbEntity
  8
0
  6
Continuous
 62
     7
370
    18
100
AcDbLine
 10
243.5517697541
 20
17.2682200742
 30
0.0
 11
243.9486098725
 21
16.0997825571
 31
0.0
  0
LINE
  5
18B
330
1F
100
AcDbEntity
  8
0
  6
Continuous
 62
     7
370
    18
100
AcDbLine
 10
243.9486098725
 20
16.0997825571
 30
0.0
 11
245.146841695
 21
16.0994821103
 31
0.0
  0
LINE
  5
18C
330
1F
100
AcDbEntity
  8
0
  6
Continuous
 62
     7
370
    18
100
AcDbLine
 10
245.146841695
 20
16.0994821103
 30
0.0
 11
244.9626678205
 21
16.5912133359
 31
0.0
  0
LINE
  5
18D
330
1F
100
AcDbEntity
  8
0
  6
Continuous
 62
     7
370
    18
100
AcDbLine
 10
252.5600654792
 20
16.6095405893
 30
0.0
 11
252.3680799885
 21
16.1032877695
 31
0.0
  0
LINE
  5
18E
330
1F
100
AcDbEntity
  8
0
  6
Continuous
 62
     7
370
    18
100
AcDbLine
 10
252.3680799885
 20
16.1032877695
 30
0.0
 11
253.5373687714
 21
16.1030874716
 31
0.0
  0
LINE
  5
18F
330
1F
100
AcDbEntity
  8
0
  6
Continuous
 62
     7
370
    18
100
AcDbLine
 10
253.5373687714
 20
16.1030874716
 30
0.0
 11
253.9492312287
 21
17.2727267758
 31
0.0
  0
LINE
  5
190
330
1F
100
AcDbEntity
  8
0
  6
Continuous
 62
     7
370
    18
100
AcDbLine
 10
253.9492312287
 20
17.2727267758
 30
0.0
 11
255.9146538971
 21
17.2740287119
 31
0.0
  0
LINE
  5
191
330
1F
100
AcDbEntity
  8
0
  6
Continuous
 62
     7
370
    18
100
AcDbLine
 10
255.9146538971
 20
17.2740287119
 30
0.0
 11
256.3118946113
 21
16.1042892587
 31
0.0
  0
LINE
  5
192
330
1F
100
AcDbEntity
  8
0
  6
Continuous
 62
     7
370
    18
100
AcDbLine
 10
256.3118946113
 20
16.1042892587
 30
0.0
 11
257.5118289655
 21
16.1044895566
 31
0.0
  0
LINE
  5
193
330
1F
100
AcDbEntity
  8
0
  6
Continuous
 62
     7
370
    18
100
AcDbLine
 10
257.5118289655
 20
16.1044895566
 30
0.0
 11
255.5448539887
 21
21.3564995224
 31
0.0
  0
LINE
  5
194
330
1F
100
AcDbEntity
  8
0
  6
Continuous
 62
     7
370
    18
100
AcDbLine
 10
255.5448539887
 20
21.3564995224
 30
0.0
 11
254.3593410798
 21
21.3566497458
 31
0.0
  0
LINE
  5
195
330
1F
100
AcDbEntity
  8
0
  6
Continuous
 62
     7
370
    18
100
AcDbLine
 10
241.8865434846
 20
18.1300016153
 30
0.0
 11
242.5710114603
 21
20.0566667378
 31
0.0
  0
LINE
  5
196
330
1F
100
AcDbEntity
  8
0
  6
Continuous
 62
     7
370
    18
100
AcDbLine
 10
242.5710114603
 20
20.0566667378
 30
0.0
 11
242.5862839662
 21
20.0567167382
 31
0.0
  0
LINE
  5
197
330
1F
100
AcDbEntity
  8
0
  6
Continuous
 62
     7
370
    18
100
AcDbLine
 10
242.5862839662
 20
20.0567167382
 30
0.0
 11
243.2487192075
 21
18.1297010315
 31
0.0
  0
LINE
  5
198
330
1F
100
AcDbEntity
  8
0
  6
Continuous
 62
     7
370
    18
100
AcDbLine
 10
243.2487192075
 20
18.1297010315
 30
0.0
 11
241.8865434846
 21
18.1300016153
 31
0.0
  0
LINE
  5
199
330
1F
100
AcDbEntity
  8
0
  6
Continuous
 62
     7
370
    18
100
AcDbLine
 10
249.6543445466
 20
17.8430749082
 30
0.0
 11
248.8889063068
 21
17.8438760996
 31
0.0
  0
LINE
  5
19A
330
1F
100
AcDbEntity
  8
0
  6
Continuous
 62
     7
370
    18
100
AcDbLine
 10
247.6050972272
 20
19.7869655576
 30
0.0
 11
248.7190537287
 21
19.7870657065
 31
0.0
  0
LINE
  5
19B
330
1F
100
AcDbEntity
  8
0
  6
Continuous
 62
     7
370
    18
100
AcDbLine
 10
254.2494275613
 20
18.1342077536
 30
0.0
 11
254.9343961224
 21
20.0608728761
 31
0.0
  0
LINE
  5
19C
330
1F
100
AcDbEntity
  8
0
  6
Continuous
 62
     7
370
    18
100
AcDbLine
 10
254.9343961224
 20
20.0608728761
 30
0.0
 11
254.9484671652
 21
20.0609228765
 31
0.0
  0
LINE
  5
19D
330
1F
100
AcDbEntity
  8
0
  6
Continuous
 62
     7
370
    18
100
AcDbLine
 10
254.9484671652
 20
20.0609228765
 30
0.0
 11
255.6127047465
 21
18.1347086297
 31
0.0
  0
LINE
  5
19E
330
1F
100
AcDbEntity
  8
0
  6
Continuous
 62
     7
370
    18
100
AcDbLine
 10
255.6127047465
 20
18.1347086297
 30
0.0
 11
254.2494275613
 21
18.1342077536
 31
0.0
  0
LINE
  5
19F
330
1F
100
AcDbEntity
  8
0
  6
Continuous
 62
     7
370
    18
100
AcDbLine
 10
265.8596925995
 20
21.3609561496
 30
0.0
 11
263.3876165156
 21
21.3597543625
 31
0.0
  0
LINE
  5
1A0
330
1F
100
AcDbEntity
  8
0
  6
Continuous
 62
     7
370
    18
100
AcDbLine
 10
263.3876165156
 20
21.3597543625
 30
0.0
 11
263.3904206855
 21
16.4954709628
 31
0.0
  0
LINE
  5
1A1
330
1F
100
AcDbEntity
  8
0
  6
Continuous
 62
     7
370
    18
100
AcDbLine
 10
263.3904206855
 20
16.4954709628
 30
0.0
 11
261.5699135126
 21
21.3596542136
 31
0.0
  0
LINE
  5
1A2
330
1F
100
AcDbEntity
  8
0
  6
Continuous
 62
     7
370
    18
100
AcDbLine
 10
261.5699135126
 20
21.3596542136
 30
0.0
 11
260.3839499335
 21
21.3588029477
 31
0.0
  0
LINE
  5
1A3
330
1F
100
AcDbEntity
  8
0
  6
Continuous
 62
     7
370
    18
100
AcDbLine
 10
260.3839499335
 20
21.3588029477
 30
0.0
 11
258.3919877997
 21
16.1046898544
 31
0.0
  0
LINE
  5
1A4
330
1F
100
AcDbEntity
  8
0
  6
Continuous
 62
     7
370
    18
100
AcDbLine
 10
258.3919877997
 20
16.1046898544
 30
0.0
 11
259.5633296357
 21
16.1051905991
 31
0.0
  0
LINE
  5
1A5
330
1F
100
AcDbEntity
  8
0
  6
Continuous
 62
     7
370
    18
100
AcDbLine
 10
259.5633296357
 20
16.1051905991
 30
0.0
 11
259.9737399335
 21
17.2758313925
 31
0.0
  0
LINE
  5
1A6
330
1F
100
AcDbEntity
  8
0
  6
Continuous
 62
     7
370
    18
100
AcDbLine
 10
259.9737399335
 20
17.2758313925
 30
0.0
 11
261.9390624531
 21
17.275230499
 31
0.0
  0
LINE
  5
1A7
330
1F
100
AcDbEntity
  8
0
  6
Continuous
 62
     7
370
    18
100
AcDbLine
 10
261.9390624531
 20
17.275230499
 30
0.0
 11
262.3364533906
 21
16.1062922373
 31
0.0
  0
LINE
  5
1A8
330
1F
100
AcDbEntity
  8
0
  6
Continuous
 62
     7
370
    18
100
AcDbLine
 10
262.3364533906
 20
16.1062922373
 30
0.0
 11
263.5358369257
 21
16.1072937265
 31
0.0
  0
LINE
  5
1A9
330
1F
100
AcDbEntity
  8
0
  6
Continuous
 62
     7
370
    18
100
AcDbLine
 10
263.5358369257
 20
16.1072937265
 30
0.0
 11
263.53543633
 21
16.1078946201
 31
0.0
  0
LINE
  5
1AA
330
1F
100
AcDbEntity
  8
0
  6
Continuous
 62
     7
370
    18
100
AcDbLine
 10
263.53543633
 20
16.1078946201
 30
0.0
 11
265.9370075702
 21
16.1084955136
 31
0.0
  0
LINE
  5
1AB
330
1F
100
AcDbEntity
  8
0
  6
Continuous
 62
     7
370
    18
100
AcDbLine
 10
260.2749879747
 20
18.135810092
 30
0.0
 11
260.9598062439
 21
20.0638772606
 31
0.0
  0
LINE
  5
1AC
330
1F
100
AcDbEntity
  8
0
  6
Continuous
 62
     7
370
    18
100
AcDbLine
 10
260.9598062439
 20
20.0638772606
 30
0.0
 11
260.9746281648
 21
20.0639275517
 31
0.0
  0
LINE
  5
1AD
330
1F
100
AcDbEntity
  8
0
  6
Continuous
 62
     7
370
    18
100
AcDbLine
 10
260.9746281648
 20
20.0639275517
 30
0.0
 11
261.637213698
 21
18.1357100912
 31
0.0
  0
LINE
  5
1AE
330
1F
100
AcDbEntity
  8
0
  6
Continuous
 62
     7
370
    18
100
AcDbLine
 10
261.637213698
 20
18.1357100912
 30
0.0
 11
260.2749879747
 21
18.135810092
 31
0.0
  0
LINE
  5
1AF
330
1F
100
AcDbEntity
  8
0
  6
Continuous
 62
     7
370
    18
100
AcDbLine
 10
264.5443366083
 20
20.4632712534
 30
0.0
 11
265.6251438154
 21
20.4640223703
 31
0.0
  0
LINE
  5
1B0
330
1F
100
AcDbEntity
  8
0
  6
Continuous
 62
     7
370
    18
100
AcDbLine
 10
265.7152778486
 20
19.2348445297
 30
0.0
 11
264.5449375019
 21
19.2328415512
 31
0.0
  0
LINE
  5
1B1
330
1F
100
AcDbEntity
  8
0
  6
Continuous
 62
     7
370
    18
100
AcDbLine
 10
264.5449375019
 20
19.2328415512
 30
0.0
 11
264.5443366083
 21
20.4632712534
 31
0.0
  0
LINE
  5
1B2
330
1F
100
AcDbEntity
  8
0
  6
Continuous
 62
     7
370
    18
100
AcDbLine
 10
265.782177331
 20
17.0063306333
 30
0.0
 11
264.5457386933
 21
17.0050286972
 31
0.0
  0
LINE
  5
1B3
330
1F
100
AcDbEntity
  8
0
  6
Continuous
 62
     7
370
    18
100
AcDbLine
 10
264.5457386933
 20
17.0050286972
 30
0.0
 11
264.5453380976
 21
18.4474736752
 31
0.0
  0
LINE
  5
1B4
330
1F
100
AcDbEntity
  8
0
  6
Continuous
 62
     7
370
    18
100
AcDbLine
 10
264.5453380976
 20
18.4474736752
 30
0.0
 11
265.8032086054
 21
18.4485753134
 31
0.0
  0
LINE
  5
1B5
330
1F
100
AcDbEntity
  8
0
  6
Continuous
 62
     7
370
    18
100
AcDbLine
 10
271.0568431578
 20
17.0736445879
 30
0.0
 11
269.1131423499
 21
17.0743033467
 31
0.0
  0
LINE
  5
1B6
330
1F
100
AcDbEntity
  8
0
  6
Continuous
 62
     7
370
    18
100
AcDbLine
 10
269.1131423499
 20
17.0743033467
 30
0.0
 11
269.1131423499
 21
21.370520372
 31
0.0
  0
LINE
  5
1B7
330
1F
100
AcDbEntity
  8
0
  6
Continuous
 62
     7
370
    18
100
AcDbLine
 10
269.1131423499
 20
21.370520372
 30
0.0
 11
267.9588140839
 21
21.370520372
 31
0.0
  0
LINE
  5
1B8
330
1F
100
AcDbEntity
  8
0
  6
Continuous
 62
     7
370
    18
100
AcDbLine
 10
267.9588140839
 20
21.370520372
 30
0.0
 11
267.9746376142
 21
16.1102981943
 31
0.0
  0
LINE
  5
1B9
330
1F
100
AcDbEntity
  8
0
  6
Continuous
 62
     7
370
    18
100
AcDbLine
 10
267.9746376142
 20
16.1102981943
 30
0.0
 11
271.3152051826
 21
16.124118746
 31
0.0
  0
LINE
  5
1BA
330
1F
100
AcDbEntity
  8
0
  6
Continuous
 62
     7
370
    18
100
AcDbLine
 10
271.3152051826
 20
16.124118746
 30
0.0
 11
271.2951976012
 21
16.7592771099
 31
0.0
  0
LINE
  5
1BB
330
1F
100
AcDbEntity
  8
0
  6
Continuous
 62
     7
370
    18
100
AcDbLine
 10
278.722420146
 20
21.3658635485
 30
0.0
 11
277.5026060271
 21
19.2902268854
 31
0.0
  0
LINE
  5
1BC
330
1F
100
AcDbEntity
  8
0
  6
Continuous
 62
     7
370
    18
100
AcDbLine
 10
277.5026060271
 20
19.2902268854
 30
0.0
 11
276.2727772932
 21
21.3634097498
 31
0.0
  0
LINE
  5
1BD
330
1F
100
AcDbEntity
  8
0
  6
Continuous
 62
     7
370
    18
100
AcDbLine
 10
276.2727772932
 20
21.3634097498
 30
0.0
 11
274.9702404195
 21
21.363760334
 31
0.0
  0
LINE
  5
1BE
330
1F
100
AcDbEntity
  8
0
  6
Continuous
 62
     7
370
    18
100
AcDbLine
 10
274.9702404195
 20
21.363760334
 30
0.0
 11
276.9045166494
 21
18.1583437025
 31
0.0
  0
LINE
  5
1BF
330
1F
100
AcDbEntity
  8
0
  6
Continuous
 62
     7
370
    18
100
AcDbLine
 10
276.9045166494
 20
18.1583437025
 30
0.0
 11
276.9069204477
 21
16.1119005869
 31
0.0
  0
LINE
  5
1C0
330
1F
100
AcDbEntity
  8
0
  6
Continuous
 62
     7
370
    18
100
AcDbLine
 10
276.9069204477
 20
16.1119005869
 30
0.0
 11
278.0620381188
 21
16.1110994177
 31
0.0
  0
LINE
  5
1C1
330
1F
100
AcDbEntity
  8
0
  6
Continuous
 62
     7
370
    18
100
AcDbLine
 10
278.0620381188
 20
16.1110994177
 30
0.0
 11
278.0600349051
 21
18.1288998623
 31
0.0
  0
LINE
  5
1C2
330
1F
100
AcDbEntity
  8
0
  6
Continuous
 62
     7
370
    18
100
AcDbLine
 10
278.0600349051
 20
18.1288998623
 30
0.0
 11
280.0093336389
 21
21.3646115036
 31
0.0
  0
LINE
  5
1C3
330
1F
100
AcDbEntity
  8
0
  6
Continuous
 62
     7
370
    18
100
AcDbLine
 10
280.0093336389
 20
21.3646115036
 30
0.0
 11
278.722420146
 21
21.3658635485
 31
0.0
  0
CIRCLE
  5
1C4
330
1F
100
AcDbEntity
  8
0
  6
Continuous
 62
     7
370
    18
100
AcDbCircle
 10
409.0848275834
 20
27.7521826334
 30
0.0
 40
1.353331628808689
  0
CIRCLE
  5
1C5
330
1F
100
AcDbEntity
  8
0
  6
Continuous
 62
     7
370
    18
100
AcDbCircle
 10
409.0848275834
 20
27.7521826334
 30
0.0
 40
2.217331649307812
  0
SPLINE
  5
1C6
330
1F
100
AcDbEntity
  8
0
  6
Continuous
 62
     7
370
    18
100
AcDbSpline
210
0.0
220
0.0
230
1.0
 70
     8
 71
     3
 72
     8
 73
     4
 74
     0
 42
0.000000001
 43
0.00000001
 40
1.0
 40
1.0
 40
1.0
 40
1.0
 40
2.0
 40
2.0
 40
2.0
 40
2.0
 10
252.9588585016418
 20
17.66180535248849
 30
0.0
 10
252.9572060443666
 20
18.85412838837716
 30
0.0
 10
251.7814075812317
 20
19.09713975678537
 30
0.0
 10
251.3988386847472
 20
19.19127974701973
 30
0.0
  0
SPLINE
  5
1C7
330
1F
100
AcDbEntity
  8
0
  6
Continuous
 62
     7
370
    18
100
AcDbSpline
210
0.0
220
0.0
230
1.0
 70
     8
 71
     3
 72
     8
 73
     4
 74
     0
 42
0.000000001
 43
0.00000001
 40
2.0
 40
2.0
 40
2.0
 40
2.0
 40
3.0
 40
3.0
 40
3.0
 40
3.0
 10
251.3988386847472
 20
19.19127974701973
 30
0.0
 10
250.0813294916322
 20
19.53088475434395
 30
0.0
 10
249.8317583685852
 20
19.57910646210761
 30
0.0
 10
249.8314078473449
 20
19.98611169648262
 30
0.0
  0
SPLINE
  5
1C8
330
1F
100
AcDbEntity
  8
0
  6
Continuous
 62
     7
370
    18
100
AcDbSpline
210
0.0
220
0.0
230
1.0
 70
     8
 71
     3
 72
     8
 73
     4
 74
     0
 42
0.000000001
 43
0.00000001
 40
3.0
 40
3.0
 40
3.0
 40
3.0
 40
4.0
 40
4.0
 40
4.0
 40
4.0
 10
249.8314078473449
 20
19.98611169648262
 30
0.0
 10
249.8320087408996
 20
20.42771838471505
 30
0.0
 10
250.2584428668762
 20
20.58209795380683
 30
0.0
 10
250.6259393500305
 20
20.58129676240059
 30
0.0
  0
SPLINE
  5
1C9
330
1F
100
AcDbEntity
  8
0
  6
Continuous
 62
     7
370
    18
100
AcDbSpline
210
0.0
220
0.0
230
1.0
 70
     8
 71
     3
 72
     8
 73
     4
 74
     0
 42
0.000000001
 43
0.00000001
 40
4.0
 40
4.0
 40
4.0
 40
4.0
 40
5.0
 40
5.0
 40
5.0
 40
5.0
 10
250.6259393500305
 20
20.58129676240059
 30
0.0
 10
251.1789116437317
 20
20.5817474325666
 30
0.0
 10
251.6265773419739
 20
20.42030736420722
 30
0.0
 10
251.6640831146788
 20
19.78841771699044
 30
0.0
  0
SPLINE
  5
1CA
330
1F
100
AcDbEntity
  8
0
  6
Continuous
 62
     7
370
    18
100
AcDbSpline
210
0.0
220
0.0
230
1.0
 70
     8
 71
     3
 72
     8
 73
     4
 74
     0
 42
0.000000001
 43
0.00000001
 40
6.0
 40
6.0
 40
6.0
 40
6.0
 40
7.0
 40
7.0
 40
7.0
 40
7.0
 10
252.7821957965637
 20
19.788618014842
 30
0.0
 10
252.7805934137513
 20
21.00217262299631
 30
0.0
 10
251.773045145929
 20
21.47943232880684
 30
0.0
 10
250.6781169403627
 20
21.47873128632638
 30
0.0
  0
SPLINE
  5
1CB
330
1F
100
AcDbEntity
  8
0
  6
Continuous
 62
     7
370
    18
100
AcDbSpline
210
0.0
220
0.0
230
1.0
 70
     8
 71
     3
 72
     8
 73
     4
 74
     0
 42
0.000000001
 43
0.00000001
 40
7.0
 40
7.0
 40
7.0
 40
7.0
 40
8.0
 40
8.0
 40
8.0
 40
8.0
 10
250.6781169403627
 20
21.47873128632638
 30
0.0
 10
249.739871729181
 20
21.47973277558418
 30
0.0
 10
248.7410864923645
 20
20.97633420014472
 30
0.0
 10
248.7159991864563
 20
19.93067926606271
 30
0.0
  0
SPLINE
  5
1CC
330
1F
100
AcDbEntity
  8
0
  6
Continuous
 62
     7
370
    18
100
AcDbSpline
210
0.0
220
0.0
230
1.0
 70
     8
 71
     3
 72
     8
 73
     4
 74
     0
 42
0.000000001
 43
0.00000001
 40
8.0
 40
8.0
 40
8.0
 40
8.0
 40
9.0
 40
9.0
 40
9.0
 40
9.0
 10
248.7159991864563
 20
19.93067926606271
 30
0.0
 10
248.6373822797181
 20
21.03707452363107
 30
0.0
 10
247.6701940289856
 20
21.47788002045722
 30
0.0
 10
246.6170779999328
 20
21.47677838227363
 30
0.0
  0
SPLINE
  5
1CD
330
1F
100
AcDbEntity
  8
0
  6
Continuous
 62
     7
370
    18
100
AcDbSpline
210
0.0
220
0.0
230
1.0
 70
     8
 71
     3
 72
     8
 73
     4
 74
     0
 42
0.000000001
 43
0.00000001
 40
9.0
 40
9.0
 40
9.0
 40
9.0
 40
10.0
 40
10.0
 40
10.0
 40
10.0
 10
246.6170779999328
 20
21.47677838227363
 30
0.0
 10
245.6702700555971
 20
21.47707882905098
 30
0.0
 10
244.6551104694152
 20
20.9610614889631
 30
0.0
 10
244.6557614374329
 20
19.88776545136545
 30
0.0
  0
SPLINE
  5
1CE
330
1F
100
AcDbEntity
  8
0
  6
Continuous
 62
     7
370
    18
100
AcDbSpline
210
0.0
220
0.0
230
1.0
 70
     8
 71
     3
 72
     8
 73
     4
 74
     0
 42
0.000000001
 43
0.00000001
 40
10.0
 40
10.0
 40
10.0
 40
10.0
 40
11.0
 40
11.0
 40
11.0
 40
11.0
 10
244.6557614374329
 20
19.88776545136545
 30
0.0
 10
244.6560118097474
 20
18.90089793671701
 30
0.0
 10
245.4431322919251
 20
18.60110212739083
 30
0.0
 10
246.222491232355
 20
18.39489548920723
 30
0.0
  0
SPLINE
  5
1CF
330
1F
100
AcDbEntity
  8
0
  6
Continuous
 62
     7
370
    18
100
AcDbSpline
210
0.0
220
0.0
230
1.0
 70
     8
 71
     3
 72
     8
 73
     4
 74
     0
 42
0.000000001
 43
0.00000001
 40
11.0
 40
11.0
 40
11.0
 40
11.0
 40
12.0
 40
12.0
 40
12.0
 40
12.0
 10
246.222491232355
 20
18.39489548920723
 30
0.0
 10
246.9954907159972
 20
18.18898929780099
 30
0.0
 10
247.7823608258607
 20
18.09374766938301
 30
0.0
 10
247.781709857843
 20
17.52800638764473
 30
0.0
  0
SPLINE
  5
1D0
330
1F
100
AcDbEntity
  8
0
  6
Continuous
 62
     7
370
    18
100
AcDbSpline
210
0.0
220
0.0
230
1.0
 70
     8
 71
     3
 72
     8
 73
     4
 74
     0
 42
0.000000001
 43
0.00000001
 40
12.0
 40
12.0
 40
12.0
 40
12.0
 40
13.0
 40
13.0
 40
13.0
 40
13.0
 10
247.781709857843
 20
17.52800638764473
 30
0.0
 10
247.7819602301574
 20
16.99100784760568
 30
0.0
 10
247.1650428473451
 20
16.87363330659003
 30
0.0
 10
246.761292453058
 20
16.87243151948067
 30
0.0
  0
SPLINE
  5
1D1
330
1F
100
AcDbEntity
  8
0
  6
Continuous
 62
     7
370
    18
100
AcDbSpline
210
0.0
220
0.0
230
1.0
 70
     8
 71
     3
 72
     8
 73
     4
 74
     0
 42
0.000000001
 43
0.00000001
 40
13.0
 40
13.0
 40
13.0
 40
13.0
 40
14.0
 40
14.0
 40
14.0
 40
14.0
 10
246.761292453058
 20
16.87243151948067
 30
0.0
 10
246.1418713471011
 20
16.87132988129705
 30
0.0
 10
245.5989640204408
 20
17.14453615082831
 30
0.0
 10
245.5980626801087
 20
17.84317505707833
 30
0.0
  0
SPLINE
  5
1D2
330
1F
100
AcDbEntity
  8
0
  6
Continuous
 62
     7
370
    18
100
AcDbSpline
210
0.0
220
0.0
230
1.0
 70
     8
 71
     3
 72
     8
 73
     4
 74
     0
 42
0.000000001
 43
0.00000001
 40
24.0
 40
24.0
 40
24.0
 40
24.0
 40
25.0
 40
25.0
 40
25.0
 40
25.0
 10
244.9626678204895
 20
16.59121333588692
 30
0.0
 10
245.3860974786928
 20
16.17118874116036
 30
0.0
 10
246.0371155707337
 20
15.97469654877753
 30
0.0
 10
246.716425734308
 20
15.97589833588692
 30
0.0
  0
SPLINE
  5
1D3
330
1F
100
AcDbEntity
  8
0
  6
Continuous
 62
     7
370
    18
100
AcDbSpline
210
0.0
220
0.0
230
1.0
 70
     8
 71
     3
 72
     8
 73
     4
 74
     0
 42
0.000000001
 43
0.00000001
 40
25.0
 40
25.0
 40
25.0
 40
25.0
 40
26.0
 40
26.0
 40
26.0
 40
26.0
 10
246.716425734308
 20
15.97589833588692
 30
0.0
 10
247.767538784845
 20
15.97489684662909
 30
0.0
 10
248.4551112347961
 20
16.36808152924629
 30
0.0
 10
248.7441410346007
 20
16.96036227631662
 30
0.0
  0
SPLINE
  5
1D4
330
1F
100
AcDbEntity
  8
0
  6
Continuous
 62
     7
370
    18
100
AcDbSpline
210
0.0
220
0.0
230
1.0
 70
     8
 71
     3
 72
     8
 73
     4
 74
     0
 42
0.000000001
 43
0.00000001
 40
26.0
 40
26.0
 40
26.0
 40
26.0
 40
27.0
 40
27.0
 40
27.0
 40
27.0
 10
248.7441410346007
 20
16.96036227631662
 30
0.0
 10
249.1115373688293
 20
16.28575911225411
 30
0.0
 10
249.9227937421205
 20
15.97649922944161
 30
0.0
 10
250.775912366388
 20
15.97750071869941
 30
0.0
  0
SPLINE
  5
1D5
330
1F
100
AcDbEntity
  8
0
  6
Continuous
 62
     7
370
    18
100
AcDbSpline
210
0.0
220
0.0
230
1.0
 70
     8
 71
     3
 72
     8
 73
     4
 74
     0
 42
0.000000001
 43
0.00000001
 40
27.0
 40
27.0
 40
27.0
 40
27.0
 40
28.0
 40
28.0
 40
28.0
 40
28.0
 10
250.775912366388
 20
15.97750071869941
 30
0.0
 10
251.6006888446594
 20
15.97750071869941
 30
0.0
 10
252.2000300909972
 20
16.21966082123849
 30
0.0
 10
252.5600654791808
 20
16.60954058930489
 30
0.0
  0
SPLINE
  5
1D6
330
1F
100
AcDbEntity
  8
0
  6
Continuous
 62
     7
370
    18
100
AcDbSpline
210
0.0
220
0.0
230
1.0
 70
     8
 71
     3
 72
     8
 73
     4
 74
     0
 42
0.000000001
 43
0.00000001
 40
0.0
 40
0.0
 40
0.0
 40
0.0
 40
1.0
 40
1.0
 40
1.0
 40
1.0
 10
250.8174240961243
 20
16.87503539155099
 30
0.0
 10
250.2008071600892
 20
16.87383360444161
 30
0.0
 10
249.6562974506164
 20
17.14623868256659
 30
0.0
 10
249.6543445465636
 20
17.84307490815254
 30
0.0
  0
SPLINE
  5
1D7
330
1F
100
AcDbEntity
  8
0
  6
Continuous
 62
     7
370
    18
100
AcDbSpline
210
0.0
220
0.0
230
1.0
 70
     8
 71
     3
 72
     8
 73
     4
 74
     0
 42
0.000000001
 43
0.00000001
 40
2.0
 40
2.0
 40
2.0
 40
2.0
 40
3.0
 40
3.0
 40
3.0
 40
3.0
 10
248.8889063068178
 20
17.84387609955879
 30
0.0
 10
248.7744861591126
 20
18.87681212006659
 30
0.0
 10
247.7027424298646
 20
19.09924288422676
 30
0.0
 10
247.3393520526672
 20
19.19022818329902
 30
0.0
  0
SPLINE
  5
1D8
330
1F
100
AcDbEntity
  8
0
  6
Continuous
 62
     7
370
    18
100
AcDbSpline
210
0.0
220
0.0
230
1.0
 70
     8
 71
     3
 72
     8
 73
     4
 74
     0
 42
0.000000001
 43
0.00000001
 40
3.0
 40
3.0
 40
3.0
 40
3.0
 40
4.0
 40
4.0
 40
4.0
 40
4.0
 10
247.3393520526672
 20
19.19022818329902
 30
0.0
 10
246.0249975507141
 20
19.52788028657051
 30
0.0
 10
245.7739241937806
 20
19.58010795136545
 30
0.0
 10
245.7729727789857
 20
19.98385834565256
 30
0.0
  0
SPLINE
  5
1D9
330
1F
100
AcDbEntity
  8
0
  6
Continuous
 62
     7
370
    18
100
AcDbSpline
210
0.0
220
0.0
230
1.0
 70
     8
 71
     3
 72
     8
 73
     4
 74
     0
 42
0.000000001
 43
0.00000001
 40
4.0
 40
4.0
 40
4.0
 40
4.0
 40
5.0
 40
5.0
 40
5.0
 40
5.0
 10
245.7729727789857
 20
19.98385834565256
 30
0.0
 10
245.7746252362612
 20
20.42586562958809
 30
0.0
 10
246.2001079474427
 20
20.58059571992013
 30
0.0
 10
246.5675042816713
 20
20.57984460297677
 30
0.0
  0
SPLINE
  5
1DA
330
1F
100
AcDbEntity
  8
0
  6
Continuous
 62
     7
370
    18
100
AcDbSpline
210
0.0
220
0.0
230
1.0
 70
     8
 71
     3
 72
     8
 73
     4
 74
     0
 42
0.000000001
 43
0.00000001
 40
5.0
 40
5.0
 40
5.0
 40
5.0
 40
6.0
 40
6.0
 40
6.0
 40
6.0
 10
246.5675042816713
 20
20.57984460297677
 30
0.0
 10
247.1200759796692
 20
20.57969437958809
 30
0.0
 10
247.5670406354309
 20
20.41975654511544
 30
0.0
 10
247.6050972272279
 20
19.78696555756659
 30
0.0
  0
SPLINE
  5
1DB
330
1F
100
AcDbEntity
  8
0
  6
Continuous
 62
     7
370
    18
100
AcDbSpline
210
0.0
220
0.0
230
1.0
 70
     8
 71
     3
 72
     8
 73
     4
 74
     0
 42
0.000000001
 43
0.00000001
 40
7.0
 40
7.0
 40
7.0
 40
7.0
 40
8.0
 40
8.0
 40
8.0
 40
8.0
 10
248.7190537286927
 20
19.78706570649238
 30
0.0
 10
248.7737350421693
 20
18.88352209809396
 30
0.0
 10
249.5288579425599
 20
18.59419185151193
 30
0.0
 10
250.2803254071593
 20
18.3976996591291
 30
0.0
  0
SPLINE
  5
1DC
330
1F
100
AcDbEntity
  8
0
  6
Continuous
 62
     7
370
    18
100
AcDbSpline
210
0.0
220
0.0
230
1.0
 70
     8
 71
     3
 72
     8
 73
     4
 74
     0
 42
0.000000001
 43
0.00000001
 40
8.0
 40
8.0
 40
8.0
 40
8.0
 40
9.0
 40
9.0
 40
9.0
 40
9.0
 10
250.2803254071593
 20
18.3976996591291
 30
0.0
 10
251.0534250397278
 20
18.19169331879708
 30
0.0
 10
251.841246564386
 20
18.09675213715645
 30
0.0
 10
251.8416471600891
 20
17.53000936616036
 30
0.0
  0
SPLINE
  5
1DD
330
1F
100
AcDbEntity
  8
0
  6
Continuous
 62
     7
370
    18
100
AcDbSpline
210
0.0
220
0.0
230
1.0
 70
     8
 71
     3
 72
     8
 73
     4
 74
     0
 42
0.000000001
 43
0.00000001
 40
9.0
 40
9.0
 40
9.0
 40
9.0
 40
10.0
 40
10.0
 40
10.0
 40
10.0
 10
251.8416471600891
 20
17.53000936616036
 30
0.0
 10
251.8413967877746
 20
16.99361171967598
 30
0.0
 10
251.2239786603332
 20
16.87523568940255
 30
0.0
 10
250.8174240961243
 20
16.87503539155099
 30
0.0
  0
SPLINE
  5
1DE
330
1F
100
AcDbEntity
  8
0
  6
Continuous
 62
     7
370
    18
100
AcDbSpline
210
0.0
220
0.0
230
1.0
 70
     8
 71
     3
 72
     8
 73
     4
 74
     0
 42
0.000000001
 43
0.00000001
 40
0.0
 40
0.0
 40
0.0
 40
0.0
 40
1.0
 40
1.0
 40
1.0
 40
1.0
 10
266.8241267548157
 20
18.96248952607246
 30
0.0
 10
267.2812064520813
 20
19.18341805634591
 30
0.0
 10
267.538188595636
 20
19.54485552949045
 30
0.0
 10
267.5393903827454
 20
20.05982130585762
 30
0.0
  0
SPLINE
  5
1DF
330
1F
100
AcDbEntity
  8
0
  6
Continuous
 62
     7
370
    18
100
AcDbSpline
210
0.0
220
0.0
230
1.0
 70
     8
 71
     3
 72
     8
 73
     4
 74
     0
 42
0.000000001
 43
0.00000001
 40
1.0
 40
1.0
 40
1.0
 40
1.0
 40
2.0
 40
2.0
 40
2.0
 40
2.0
 10
267.5393903827454
 20
20.05982130585762
 30
0.0
 10
267.538188595636
 20
21.03732489594551
 30
0.0
 10
266.8611818573547
 20
21.36230816010568
 30
0.0
 10
265.8596925995423
 20
21.36095614960762
 30
0.0
  0
SPLINE
  5
1E0
330
1F
100
AcDbEntity
  8
0
  6
Continuous
 62
     7
370
    18
100
AcDbSpline
210
0.0
220
0.0
230
1.0
 70
     8
 71
     3
 72
     8
 73
     4
 74
     0
 42
0.000000001
 43
0.00000001
 40
14.0
 40
14.0
 40
14.0
 40
14.0
 40
15.0
 40
15.0
 40
15.0
 40
15.0
 10
265.9370075702454
 20
16.10849551362129
 30
0.0
 10
266.8854178973938
 20
16.10869581147287
 30
0.0
 10
267.7895623993469
 20
16.56637640229317
 30
0.0
 10
267.7901632929016
 20
17.63276216401191
 30
0.0
  0
SPLINE
  5
1E1
330
1F
100
AcDbEntity
  8
0
  6
Continuous
 62
     7
370
    18
100
AcDbSpline
210
0.0
220
0.0
230
1.0
 70
     8
 71
     3
 72
     8
 73
     4
 74
     0
 42
0.000000001
 43
0.00000001
 40
15.0
 40
15.0
 40
15.0
 40
15.0
 40
16.0
 40
16.0
 40
16.0
 40
16.0
 10
267.7901632929016
 20
17.63276216401191
 30
0.0
 10
267.7897626971983
 20
18.28743569184394
 30
0.0
 10
267.4646792841124
 20
18.7796676620588
 30
0.0
 10
266.8241267548157
 20
18.96248952607246
 30
0.0
  0
SPLINE
  5
1E2
330
1F
100
AcDbEntity
  8
0
  6
Continuous
 62
     7
370
    18
100
AcDbSpline
210
0.0
220
0.0
230
1.0
 70
     8
 71
     3
 72
     8
 73
     4
 74
     0
 42
0.000000001
 43
0.00000001
 40
1.0
 40
1.0
 40
1.0
 40
1.0
 40
2.0
 40
2.0
 40
2.0
 40
2.0
 10
265.6251438153625
 20
20.46402237031075
 30
0.0
 10
266.0361550067689
 20
20.46327125336739
 30
0.0
 10
266.4201259882142
 20
20.36131964692209
 30
0.0
 10
266.4215280731752
 20
19.86052494355295
 30
0.0
  0
SPLINE
  5
1E3
330
1F
100
AcDbEntity
  8
0
  6
Continuous
 62
     7
370
    18
100
AcDbSpline
210
0.0
220
0.0
230
1.0
 70
     8
 71
     3
 72
     8
 73
     4
 74
     0
 42
0.000000001
 43
0.00000001
 40
2.0
 40
2.0
 40
2.0
 40
2.0
 40
3.0
 40
3.0
 40
3.0
 40
3.0
 10
266.4215280731752
 20
19.86052494355295
 30
0.0
 10
266.4205265839173
 20
19.41866788300606
 30
0.0
 10
266.1174759345033
 20
19.23404333832832
 30
0.0
 10
265.7152778485656
 20
19.23484452973456
 30
0.0
  0
SPLINE
  5
1E4
330
1F
100
AcDbEntity
  8
0
  6
Continuous
 62
     7
370
    18
100
AcDbSpline
210
0.0
220
0.0
230
1.0
 70
     8
 71
     3
 72
     8
 73
     4
 74
     0
 42
0.000000001
 43
0.00000001
 40
3.0
 40
3.0
 40
3.0
 40
3.0
 40
4.0
 40
4.0
 40
4.0
 40
4.0
 10
265.8032086054016
 20
18.44857531342597
 30
0.0
 10
266.2959413202453
 20
18.44897590912911
 30
0.0
 10
266.6354461786437
 20
18.2348575058088
 30
0.0
 10
266.6338437958314
 20
17.69785896576973
 30
0.0
  0
SPLINE
  5
1E5
330
1F
100
AcDbEntity
  8
0
  6
Continuous
 62
     7
370
    18
100
AcDbSpline
210
0.0
220
0.0
230
1.0
 70
     8
 71
     3
 72
     8
 73
     4
 74
     0
 42
0.000000001
 43
0.00000001
 40
4.0
 40
4.0
 40
4.0
 40
4.0
 40
5.0
 40
5.0
 40
5.0
 40
5.0
 10
266.6338437958314
 20
17.69785896576973
 30
0.0
 10
266.6342443915344
 20
17.1526482138166
 30
0.0
 10
266.2364528583314
 20
17.00572973969552
 30
0.0
 10
265.7821773309874
 20
17.00633063325019
 30
0.0
  0
SPLINE
  5
1E6
330
1F
100
AcDbEntity
  8
0
  6
Continuous
 62
     7
370
    18
100
AcDbSpline
210
0.0
220
0.0
230
1.0
 70
     8
 71
     3
 72
     8
 73
     4
 74
     0
 42
0.000000001
 43
0.00000001
 40
0.0
 40
0.0
 40
0.0
 40
0.0
 40
1.0
 40
1.0
 40
1.0
 40
1.0
 10
273.1840063414419
 20
21.47438868459464
 30
0.0
 10
271.5587895738638
 20
21.47614129079581
 30
0.0
 10
270.6017664390981
 20
20.26243645925283
 30
0.0
 10
270.6031685240591
 20
18.70201604665517
 30
0.0
  0
SPLINE
  5
1E7
330
1F
100
AcDbEntity
  8
0
  6
Continuous
 62
     7
370
    18
100
AcDbSpline
210
0.0
220
0.0
230
1.0
 70
     8
 71
     3
 72
     8
 73
     4
 74
     0
 42
0.000000001
 43
0.00000001
 40
1.0
 40
1.0
 40
1.0
 40
1.0
 40
2.0
 40
2.0
 40
2.0
 40
2.0
 10
270.6031685240591
 20
18.70201604665517
 30
0.0
 10
270.6041700133168
 20
18.08895439748526
 30
0.0
 10
270.7632065074574
 20
17.527319221704
 30
0.0
 10
271.0568431578482
 20
17.07364458791494
 30
0.0
  0
SPLINE
  5
1E8
330
1F
100
AcDbEntity
  8
0
  6
Continuous
 62
     7
370
    18
100
AcDbSpline
210
0.0
220
0.0
230
1.0
 70
     8
 71
     3
 72
     8
 73
     4
 74
     0
 42
0.000000001
 43
0.00000001
 40
8.0
 40
8.0
 40
8.0
 40
8.0
 40
9.0
 40
9.0
 40
9.0
 40
9.0
 10
271.2951976012075
 20
16.75927710988759
 30
0.0
 10
271.7370546617544
 20
16.27245318166495
 30
0.0
 10
272.3790092760123
 20
15.973007893579
 30
0.0
 10
273.1868105113637
 20
15.9740093828368
 30
0.0
  0
SPLINE
  5
1E9
330
1F
100
AcDbEntity
  8
0
  6
Continuous
 62
     7
370
    18
100
AcDbSpline
210
0.0
220
0.0
230
1.0
 70
     8
 71
     3
 72
     8
 73
     4
 74
     0
 42
0.000000001
 43
0.00000001
 40
9.0
 40
9.0
 40
9.0
 40
9.0
 40
10.0
 40
10.0
 40
10.0
 40
10.0
 10
273.1868105113637
 20
15.9740093828368
 30
0.0
 10
274.8126281724965
 20
15.97400938283683
 30
0.0
 10
275.7678486265982
 20
17.18841525686024
 30
0.0
 10
275.7666468394886
 20
18.70321783376455
 30
0.0
  0
SPLINE
  5
1EA
330
1F
100
AcDbEntity
  8
0
  6
Continuous
 62
     7
370
    18
100
AcDbSpline
210
0.0
220
0.0
230
1.0
 70
     8
 71
     3
 72
     8
 73
     4
 74
     0
 42
0.000000001
 43
0.00000001
 40
10.0
 40
10.0
 40
10.0
 40
10.0
 40
11.0
 40
11.0
 40
11.0
 40
11.0
 10
275.7666468394886
 20
18.70321783376455
 30
0.0
 10
275.7676483287466
 20
20.26353809743642
 30
0.0
 10
274.8094234068716
 20
21.47699255666494
 30
0.0
 10
273.1840063414419
 20
21.47438868459464
 30
0.0
  0
SPLINE
  5
1EB
330
1F
100
AcDbEntity
  8
0
  6
Continuous
 62
     7
370
    18
100
AcDbSpline
210
0.0
220
0.0
230
1.0
 70
     8
 71
     3
 72
     8
 73
     4
 74
     0
 42
0.000000001
 43
0.00000001
 40
3.0
 40
3.0
 40
3.0
 40
3.0
 40
4.0
 40
4.0
 40
4.0
 40
4.0
 10
274.6293334345031
 20
18.71682421113106
 30
0.0
 10
274.6297340302069
 20
17.83946954682442
 30
0.0
 10
274.2389529218083
 20
16.95775840424632
 30
0.0
 10
273.2022112421208
 20
16.95635631928557
 30
0.0
  0
SPLINE
  5
1EC
330
1F
100
AcDbEntity
  8
0
  6
Continuous
 62
     7
370
    18
100
AcDbSpline
210
0.0
220
0.0
230
1.0
 70
     8
 71
     3
 72
     8
 73
     4
 74
     0
 42
0.000000001
 43
0.00000001
 40
2.0
 40
2.0
 40
2.0
 40
2.0
 40
3.0
 40
3.0
 40
3.0
 40
3.0
 10
273.200608859308
 20
20.51680085419746
 30
0.0
 10
274.2381517304016
 20
20.51665063080879
 30
0.0
 10
274.6273304559876
 20
19.63508971161934
 30
0.0
 10
274.6293334345031
 20
18.71682421113105
 30
0.0
  0
SPLINE
  5
1ED
330
1F
100
AcDbEntity
  8
0
  6
Continuous
 62
     7
370
    18
100
AcDbSpline
210
0.0
220
0.0
230
1.0
 70
     8
 71
     3
 72
     8
 73
     4
 74
     0
 42
0.000000001
 43
0.00000001
 40
1.0
 40
1.0
 40
1.0
 40
1.0
 40
2.0
 40
2.0
 40
2.0
 40
2.0
 10
271.773486666925
 20
18.71412019013496
 30
0.0
 10
271.7730860712218
 20
19.63343725434394
 30
0.0
 10
272.1620644989562
 20
20.51625003510568
 30
0.0
 10
273.200608859308
 20
20.51680085419746
 30
0.0
  0
SPLINE
  5
1EE
330
1F
100
AcDbEntity
  8
0
  6
Continuous
 62
     7
370
    18
100
AcDbSpline
210
0.0
220
0.0
230
1.0
 70
     8
 71
     3
 72
     8
 73
     4
 74
     0
 42
0.000000001
 43
0.00000001
 40
0.0
 40
0.0
 40
0.0
 40
0.0
 40
1.0
 40
1.0
 40
1.0
 40
1.0
 10
273.2022112421208
 20
16.95635631928558
 30
0.0
 10
272.1640674774726
 20
16.9558555746565
 30
0.0
 10
271.7750890497377
 20
17.83886865326972
 30
0.0
 10
271.773486666925
 20
18.71412019013496
 30
0.0
  0
INSERT
  5
1EF
330
1F
100
AcDbEntity
  8
0
  6
Continuous
 62
     7
100
AcDbBlockReference
 66
     1
  2
ERGAENZUNG_VON_EINHEITSSCHRIFTKOPF_ALBSTADT_VERSION_7_2017_11_10
 10
-237.5864324192
 20
-78.2262259865
 30
0.0
  0
ATTRIB
  5
1F1
330
1EF
100
AcDbEntity
  8
0
  6
Continuous
 62
     7
370
     0
100
AcDbText
 10
290.68772152
 20
48.4336877452
 30
0.0
 40
3.5
  1
Schliessblech
 41
0.75
  7
SLDTEXTSTYLE6
 11
290.68772152
 21
47.1972775285
 31
0.0
100
AcDbAttribute
  2
AUTOATTR0
 70
     0
 74
     1
  0
SEQEND
  5
1F2
330
1EF
100
AcDbEntity
  8
0
  6
Continuous
 62
     7
  0
MTEXT
  5
1F3
330
1F
100
AcDbEntity
  8
0
  6
Continuous
 62
     7
370
     0
100
AcDbMText
 10
16.1492421948
 20
12.7461643489
 30
0.0
 40
2.8
 41
0.0
 71
     1
 72
     1
  1
This work  is copyright and no part may be reproduced, by any process, nor may any other exclusive right be exercised without the permission of ASSA ABLOY.
  7
SLDTEXTSTYLE1
 11
-3.269436733918102E-15
 21
1.0
 31
0.0
 73
     1
 44
1.0
  0
MTEXT
  5
1F4
330
1F
100
AcDbEntity
  8
0
  6
Continuous
 62
     7
370
     0
100
AcDbMText
 10
230.8427087605
 20
42.3961015831
 30
0.0
 40
1.5
 41
0.0
 71
     1
 72
     1
  1
Surface treatment:
  7
SLDTEXTSTYLE1
 73
     1
 44
1.0
  0
MTEXT
  5
1F5
330
1F
100
AcDbEntity
  8
0
  6
Continuous
 62
     7
370
     0
100
AcDbMText
 10
413.5215356241
 20
9.2107330017
 30
0.0
 40
0.5
 41
0.0
 71
     1
 72
     1
  1
V9_2019_02_21_drw
  7
SLDTEXTSTYLE1
 11
-3.491481338843133E-15
 21
1.0
 31
0.0
 73
     1
 44
1.0
  0
MTEXT
  5
1F6
330
1F
100
AcDbEntity
  8
0
  6
Continuous
 62
     7
370
     0
100
AcDbMText
 10
408.1196512427
 20
15.9961015831
 30
0.0
 40
1.5
 41
0.0
 71
     2
 72
     1
  1
Rev.:
  7
SLDTEXTSTYLE1
 73
     1
 44
1.0
  0
MTEXT
  5
1F7
330
1F
100
AcDbEntity
  8
0
  6
Continuous
 62
     7
370
     0
100
AcDbMText
 10
363.9
 20
15.9961015831
 30
0.0
 40
1.5
 41
0.0
 71
     1
 72
     1
  1
Document ID
  7
SLDTEXTSTYLE1
 73
     1
 44
1.0
  0
MTEXT
  5
1F8
330
1F
100
AcDbEntity
  8
0
  6
Continuous
 62
     7
370
     0
100
AcDbMText
 10
290.8538618759
 20
42.3961015831
 30
0.0
 40
1.5
 41
0.0
 71
     1
 72
     1
  1
Material:
  7
SLDTEXTSTYLE1
 73
     1
 44
1.0
  0
MTEXT
  5
1F9
330
1F
100
AcDbEntity
  8
0
  6
Continuous
 62
     7
370
     0
100
AcDbMText
 10
363.8538618759
 20
42.3961015831
 30
0.0
 40
1.5
 41
0.0
 71
     1
 72
     1
  1
General tolerance:
  7
SLDTEXTSTYLE1
 73
     1
 44
1.0
  0
MTEXT
  5
1FA
330
1F
100
AcDbEntity
  8
0
  6
Continuous
 62
     7
370
     0
100
AcDbMText
 10
230.9
 20
30.9961015831
 30
0.0
 40
1.5
 41
0.0
 71
     1
 72
     1
  1
Volume:
  7
SLDTEXTSTYLE1
 73
     1
 44
1.0
  0
MTEXT
  5
1FB
330
1F
100
AcDbEntity
  8
0
  6
Continuous
 62
     7
370
     0
100
AcDbMText
 10
251.9
 20
30.9961015831
 30
0.0
 40
1.5
 41
0.0
 71
     1
 72
     1
  1
Mass:
  7
SLDTEXTSTYLE1
 73
     1
 44
1.0
  0
MTEXT
  5
1FC
330
1F
100
AcDbEntity
  8
0
  6
Continuous
 62
     7
370
     0
100
AcDbMText
 10
269.9
 20
30.9961015831
 30
0.0
 40
1.5
 41
0.0
 71
     1
 72
     1
  1
Surface area:
  7
SLDTEXTSTYLE1
 73
     1
 44
1.0
  0
MTEXT
  5
1FD
330
1F
100
AcDbEntity
  8
0
  6
Continuous
 62
     7
370
     0
100
AcDbMText
 10
290.9
 20
30.9961015831
 30
0.0
 40
1.5
 41
0.0
 71
     1
 72
     1
  1
Created (YYYY-MM-DD):
  7
SLDTEXTSTYLE1
 73
     1
 44
1.0
  0
MTEXT
  5
1FE
330
1F
100
AcDbEntity
  8
0
  6
Continuous
 62
     7
370
     0
100
AcDbMText
 10
315.3
 20
30.9961015831
 30
0.0
 40
1.5
 41
0.0
 71
     1
 72
     1
  1
Designed by:
  7
SLDTEXTSTYLE1
 73
     1
 44
1.0
  0
MTEXT
  5
1FF
330
1F
100
AcDbEntity
  8
0
  6
Continuous
 62
     7
370
     0
100
AcDbMText
 10
339.6
 20
30.9961015831
 30
0.0
 40
1.5
 41
0.0
 71
     1
 72
     1
  1
Drawn by:
  7
SLDTEXTSTYLE1
 73
     1
 44
1.0
  0
MTEXT
  5
200
330
1F
100
AcDbEntity
  8
0
  6
Continuous
 62
     7
370
     0
100
AcDbMText
 10
363.9
 20
30.9961015831
 30
0.0
 40
1.5
 41
0.0
 71
     1
 72
     1
  1
Scale:
  7
SLDTEXTSTYLE1
 73
     1
 44
1.0
  0
MTEXT
  5
201
330
1F
100
AcDbEntity
  8
0
  6
Continuous
 62
     7
370
     0
100
AcDbMText
 10
388.9
 20
30.9961015831
 30
0.0
 40
1.5
 41
0.0
 71
     1
 72
     1
  1
Projection:
  7
SLDTEXTSTYLE1
 73
     1
 44
1.0
  0
MTEXT
  5
202
330
1F
100
AcDbEntity
  8
0
  6
Continuous
 62
     7
370
     0
100
AcDbMText
 10
363.9
 20
23.4961015831
 30
0.0
 40
1.5
 41
0.0
 71
     1
 72
     1
  1
Alternate ID
  7
SLDTEXTSTYLE1
 73
     1
 44
1.0
  0
MTEXT
  5
203
330
1F
100
AcDbEntity
  8
0
  6
Continuous
 62
     7
370
     0
100
AcDbMText
 10
375.3967174089
 20
27.8483545811
 30
0.0
 40
2.5
 41
0.0
 71
     2
 72
     1
  1
1:1 (A3)
  7
SLDTEXTSTYLE1
 73
     1
 44
1.0
  0
MTEXT
  5
204
330
1F
100
AcDbEntity
  8
0
  6
Continuous
 62
     7
370
     0
100
AcDbMText
 10
339.6
 20
27.5925161634
 30
0.0
 40
2.5
 41
0.0
 71
     1
 72
     1
  1
gisfai
  7
SLDTEXTSTYLE1
 73
     1
 44
1.0
  0
MTEXT
  5
205
330
1F
100
AcDbEntity
  8
0
  6
Continuous
 62
     7
370
     0
100
AcDbMText
 10
290.9
 20
27.5925161634
 30
0.0
 40
2.5
 41
0.0
 71
     1
 72
     1
  1
2020-08-20
  7
SLDTEXTSTYLE1
 73
     1
 44
1.0
  0
MTEXT
  5
206
330
1F
100
AcDbEntity
  8
0
  6
Continuous
 62
     7
370
     0
100
AcDbMText
 10
279.0530912745
 20
27.159068677
 30
0.0
 40
2.0
 41
0.0
 71
     2
 72
     1
  1
0.000000
  7
SLDTEXTSTYLE1
 73
     1
 44
1.0
  0
MTEXT
  5
207
330
1F
100
AcDbEntity
  8
0
  6
Continuous
 62
     7
370
     0
100
AcDbMText
 10
382.1972834122
 20
42.431537334
 30
0.0
 40
1.5
 41
0.0
 71
     1
 72
     1
  1
ISO 8015
  7
SLDTEXTSTYLE1
 73
     1
 44
1.0
  0
MTEXT
  5
208
330
1F
100
AcDbEntity
  8
0
  6
Continuous
 62
     7
370
     0
100
AcDbMText
 10
363.9326806367
 20
40.404726319
 30
0.0
 40
2.0
 41
0.0
 71
     1
 72
     1
  1
ISO 2768-mH
  7
SLDTEXTSTYLE1
 73
     1
 44
1.0
  0
MTEXT
  5
209
330
1F
100
AcDbEntity
  8
0
  6
Continuous
 62
     7
370
     0
100
AcDbMText
 10
315.3
 20
27.5925161634
 30
0.0
 40
2.5
 41
0.0
 71
     1
 72
     1
  1
gisfai
  7
SLDTEXTSTYLE1
 73
     1
 44
1.0
  0
MTEXT
  5
20A
330
1F
100
AcDbEntity
  8
0
  6
Continuous
 62
     7
370
     0
100
AcDbMText
 10
290.6224857887
 20
13.0924342366
 30
0.0
 40
3.0
 41
0.0
 71
     1
 72
     1
  1
-------385..-01
  7
SLDTEXTSTYLE1
 73
     1
 44
1.0
  0
MTEXT
  5
20B
330
1F
100
AcDbEntity
  8
0
  6
Continuous
 62
     7
370
     0
100
AcDbMText
 10
290.6224857887
 20
18.197381768
 30
0.0
 40
3.0
 41
0.0
 71
     1
 72
     1
  1
face plate
  7
SLDTEXTSTYLE1
 73
     1
 44
1.0
  0
MTEXT
  5
20C
330
1F
100
AcDbEntity
  8
0
  6
Continuous
 62
     7
370
     0
100
AcDbMText
 10
290.6224857887
 20
23.1782133692
 30
0.0
 40
3.0
 41
0.0
 71
     1
 72
     1
  1
Strike plate
  7
SLDTEXTSTYLE1
 73
     1
 44
1.0
  0
MTEXT
  5
20D
330
1F
100
AcDbEntity
  8
0
  6
Continuous
 62
     7
370
     0
100
AcDbMText
 10
363.9
 20
20.8453618153
 30
0.0
 40
3.2
 41
0.0
 71
     1
 72
     1
  1
S-971-1-1000
  7
SLDTEXTSTYLE1
 73
     1
 44
1.0
  0
MTEXT
  5
20E
330
1F
100
AcDbEntity
  8
0
  6
Continuous
 62
     7
370
     0
100
AcDbMText
 10
408.378331998
 20
13.4064794039
 30
0.0
 40
3.5
 41
0.0
 71
     2
 72
     1
  1
1
  7
SLDTEXTSTYLE1
 73
     1
 44
1.0
  0
MTEXT
  5
20F
330
1F
100
AcDbEntity
  8
0
  6
Continuous
 62
     7
370
     0
100
AcDbMText
 10
363.9
 20
13.462879376
 30
0.0
 40
3.5
 41
0.0
 71
     1
 72
     1
  1
D000429422-002
  7
SLDTEXTSTYLE1
 73
     1
 44
1.0
  0
MTEXT
  5
210
330
1F
100
AcDbEntity
  8
0
  6
Continuous
 62
     7
370
     0
100
AcDbMText
 10
390.0534390588
 20
7.9128626548
 30
0.0
 40
2.5
 41
0.0
 71
     1
 72
     1
  1
SHEET 1 OF 1
  7
SLDTEXTSTYLE1
 73
     1
 44
1.0
  0
MTEXT
  5
211
330
1F
100
AcDbEntity
  8
0
  6
Continuous
 62
     7
370
     0
100
AcDbMText
 10
372.5018737501
 20
7.4141621421
 30
0.0
 40
2.0
 41
0.0
 71
     3
 72
     1
  1
Configuration:D000429422-002
  7
SLDTEXTSTYLE1
 73
     1
 44
1.0
  0
MTEXT
  5
212
330
1F
100
AcDbEntity
  8
0
  6
Continuous
 62
     7
370
     0
100
AcDbMText
 10
259.7546537893
 20
13.8148557754
 30
0.0
 40
2.3
 41
0.0
 71
     2
 72
     1
  1
ASSA ABLOY Sicherheitstechnik GmbH
  7
SLDTEXTSTYLE1
 73
     1
 44
1.0
  0
INSERT
  5
237
330
1F
100
AcDbEntity
  8
0
  6
Continuous
 62
     7
370
     0
100
AcDbBlockReference
  2
SW_TABLEANNOTATION_0
 10
426.6512431883
 20
15.0327851607
 30
0.0
  0
LINE
  5
238
330
1F
100
AcDbEntity
  8
0
  6
Continuous
 62
     7
370
    35
100
AcDbLine
 10
145.5214116203
 20
248.3938297872
 30
0.0
 11
83.7714116203
 21
248.3938297872
 31
0.0
  0
LINE
  5
239
330
1F
100
AcDbEntity
  8
0
  6
Continuous
 62
     7
370
    35
100
AcDbLine
 10
145.5214116203
 20
243.3938297872
 30
0.0
 11
145.5214116203
 21
248.3938297872
 31
0.0
  0
LINE
  5
23A
330
1F
100
AcDbEntity
  8
0
  6
Continuous
 62
     7
370
    35
100
AcDbLine
 10
147.7714116203
 20
241.1438297872
 30
0.0
 11
145.5214116203
 21
243.3938297872
 31
0.0
  0
LINE
  5
23B
330
1F
100
AcDbEntity
  8
0
  6
Continuous
 62
     7
370
    35
100
AcDbLine
 10
157.7714116203
 20
229.3938297872
 30
0.0
 11
147.7714116203
 21
229.3938297872
 31
0.0
  0
LINE
  5
23C
330
1F
100
AcDbEntity
  8
0
  6
Continuous
 62
     7
370
    35
100
AcDbLine
 10
181.7714116203
 20
230.8938297872
 30
0.0
 11
157.7714116203
 21
230.8938297872
 31
0.0
  0
LINE
  5
23D
330
1F
100
AcDbEntity
  8
0
  6
Continuous
 62
     7
370
    35
100
AcDbLine
 10
333.7714116203
 20
248.3938297872
 30
0.0
 11
194.0214116203
 21
248.3938297872
 31
0.0
  0
LINE
  5
23E
330
1F
100
AcDbEntity
  8
0
  6
Continuous
 62
     7
370
    35
100
AcDbLine
 10
333.7714116203
 20
224.3938297872
 30
0.0
 11
333.7714116203
 21
248.3938297872
 31
0.0
  0
LINE
  5
23F
330
1F
100
AcDbEntity
  8
0
  6
Continuous
 62
     7
370
    35
100
AcDbLine
 10
157.7714116203
 20
230.8938297872
 30
0.0
 11
157.7714116203
 21
229.3938297872
 31
0.0
  0
LINE
  5
240
330
1F
100
AcDbEntity
  8
0
  6
Continuous
 62
     7
370
    35
100
AcDbLine
 10
83.7714116203
 20
248.3938297872
 30
0.0
 11
83.7714116203
 21
224.3938297872
 31
0.0
  0
LINE
  5
241
330
1F
100
AcDbEntity
  8
0
  6
Continuous
 62
     7
370
    35
100
AcDbLine
 10
147.7714116203
 20
229.3938297872
 30
0.0
 11
147.7714116203
 21
241.1438297872
 31
0.0
  0
LINE
  5
242
330
1F
100
AcDbEntity
  8
0
  6
Continuous
 62
     7
370
    35
100
AcDbLine
 10
191.7714116203
 20
229.3938297872
 30
0.0
 11
181.7714116203
 21
229.3938297872
 31
0.0
  0
LINE
  5
243
330
1F
100
AcDbEntity
  8
0
  6
Continuous
 62
     7
370
    35
100
AcDbLine
 10
191.7714116203
 20
241.1438297872
 30
0.0
 11
191.7714116203
 21
229.3938297872
 31
0.0
  0
LINE
  5
244
330
1F
100
AcDbEntity
  8
0
  6
Continuous
 62
     7
370
    35
100
AcDbLine
 10
194.0214116203
 20
243.3938297872
 30
0.0
 11
191.7714116203
 21
241.1438297872
 31
0.0
  0
LINE
  5
245
330
1F
100
AcDbEntity
  8
0
  6
Continuous
 62
     7
370
    35
100
AcDbLine
 10
194.0214116203
 20
248.3938297872
 30
0.0
 11
194.0214116203
 21
243.3938297872
 31
0.0
  0
LINE
  5
246
330
1F
100
AcDbEntity
  8
0
  6
Continuous
 62
     7
370
    35
100
AcDbLine
 10
181.7714116203
 20
229.3938297872
 30
0.0
 11
181.7714116203
 21
230.8938297872
 31
0.0
  0
LINE
  5
247
330
1F
100
AcDbEntity
  8
0
  6
Continuous
 62
     7
370
    35
100
AcDbLine
 10
83.7714116203
 20
224.3938297872
 30
0.0
 11
333.7714116203
 21
224.3938297872
 31
0.0
  0
CIRCLE
  5
248
330
1F
100
AcDbEntity
  8
0
  6
Continuous
 62
     7
370
    35
100
AcDbCircle
 10
143.5214116203
 20
237.3938297872
 30
0.0
 40
3.900000000000006
  0
CIRCLE
  5
249
330
1F
100
AcDbEntity
  8
0
  6
Continuous
 62
     7
370
    35
100
AcDbCircle
 10
196.0214116203
 20
237.3938297872
 30
0.0
 40
3.900000000000006
  0
CIRCLE
  5
24A
330
1F
100
AcDbEntity
  8
0
  6
Continuous
 62
     7
370
    35
100
AcDbCircle
 10
326.7714116203
 20
236.3938297872
 30
0.0
 40
4.700000000000045
  0
CIRCLE
  5
24B
330
1F
100
AcDbEntity
  8
0
  6
Continuous
 62
     7
370
    35
100
AcDbCircle
 10
90.7714116203
 20
236.3938297872
 30
0.0
 40
4.700000000000003
  0
CIRCLE
  5
24C
330
1F
100
AcDbEntity
  8
0
  6
Continuous
 62
     7
370
    35
100
AcDbCircle
 10
143.5214116203
 20
237.3938297872
 30
0.0
 40
2.850000000000023
  0
CIRCLE
  5
24D
330
1F
100
AcDbEntity
  8
0
  6
Continuous
 62
     7
370
    35
100
AcDbCircle
 10
196.0214116203
 20
237.3938297872
 30
0.0
 40
2.849999999999994
  0
CIRCLE
  5
24E
330
1F
100
AcDbEntity
  8
0
  6
Continuous
 62
     7
370
    35
100
AcDbCircle
 10
90.7714116203
 20
236.3938297872
 30
0.0
 40
3.5
  0
CIRCLE
  5
24F
330
1F
100
AcDbEntity
  8
0
  6
Continuous
 62
     7
370
    35
100
AcDbCircle
 10
326.7714116203
 20
236.3938297872
 30
0.0
 40
3.499999999999943
  0
DIMENSION
  5
250
330
1F
100
AcDbEntity
  8
0
  6
Continuous
 62
     7
370
    18
100
AcDbDimension
  2
_D
 10
65.6490195465
 20
224.3938297872
 30
0.0
 11
65.6490195465
 21
236.3938297872
 31
0.0
 70
   160
  1
<>
 71
     2
 42
-1.0
  3
SLDDIMSTYLE0
100
AcDbAlignedDimension
 13
83.7714116203
 23
248.3938297872
 33
0.0
 14
83.7714116203
 24
224.3938297872
 34
0.0
 50
90.0
100
AcDbRotatedDimension
  0
DIMENSION
  5
260
330
1F
100
AcDbEntity
  8
0
  6
Continuous
 62
     7
370
    18
100
AcDbDimension
  2
_D_1
 10
83.7714116203
 20
260.3938297872
 30
0.0
 11
126.7714116203
 21
260.3938297872
 31
0.0
 70
   160
  1
<>
 71
     2
 42
-1.0
  3
SLDDIMSTYLE1
100
AcDbAlignedDimension
 13
169.7714116203
 23
250.3938297872
 33
0.0
 14
83.7714116203
 24
248.3938297872
 34
0.0
100
AcDbRotatedDimension
  0
DIMENSION
  5
26D
330
1F
100
AcDbEntity
  8
0
  6
Continuous
 62
     7
370
    18
100
AcDbDimension
  2
_D_2
 10
333.7714116203
 20
270.3938297872
 30
0.0
 11
208.7714116203
 21
270.3938297872
 31
0.0
 70
   160
  1
<>
 71
     2
 42
-1.0
  3
SLDDIMSTYLE0
100
AcDbAlignedDimension
 13
83.7714116203
 23
248.3938297872
 33
0.0
 14
333.7714116203
 24
248.3938297872
 34
0.0
100
AcDbRotatedDimension
  0
DIMENSION
  5
27C
330
1F
100
AcDbEntity
  8
0
  6
Continuous
 62
     7
370
    18
100
AcDbDimension
  2
_D_3
 10
128.5408441169
 20
237.3938297872
 30
0.0
 11
128.5408441169
 21
242.8938297872
 31
0.0
 70
   160
  1
<>
 71
     2
 42
-1.0
  3
SLDDIMSTYLE2
100
AcDbAlignedDimension
 13
145.5214116203
 23
248.3938297872
 33
0.0
 14
143.5214116203
 24
237.3938297872
 34
0.0
 50
90.0
100
AcDbRotatedDimension
  0
DIMENSION
  5
286
330
1F
100
AcDbEntity
  8
0
  6
Continuous
 62
     7
370
    18
100
AcDbDimension
  2
_D_4
 10
344.5990695446
 20
232.8938297872
 30
0.0
 11
344.5990695446
 21
247.20863912
 31
0.0
 70
   160
  1
%%c<>
 71
     2
 42
-1.0
  3
SLDDIMSTYLE2
100
AcDbAlignedDimension
 13
326.7714116203
 23
239.8938297872
 33
0.0
 14
326.7714116203
 24
232.8938297872
 34
0.0
 50
90.0
100
AcDbRotatedDimension
  0
DIMENSION
  5
292
330
1F
100
AcDbEntity
  8
0
  6
Continuous
 62
     7
370
    18
100
AcDbDimension
  2
_D_5
 10
354.1560004371
 20
231.6938297872
 30
0.0
 11
354.1560004371
 21
250.4413667618
 31
0.0
 70
   160
  1
%%c<>x90°
 71
     2
 42
-1.0
  3
SLDDIMSTYLE2
100
AcDbAlignedDimension
 13
326.7714116203
 23
241.0938297872
 33
0.0
 14
326.7714116203
 24
231.6938297872
 34
0.0
 50
90.0
100
AcDbRotatedDimension
  0
DIMENSION
  5
29F
330
1F
100
AcDbEntity
  8
0
  6
Continuous
 62
     7
370
    18
100
AcDbDimension
  2
_D_6
 10
90.7714116203
 20
213.6938059435
 30
0.0
 11
87.2714116203
 21
213.6938059435
 31
0.0
 70
   160
  1
<>
 71
     2
 42
-1.0
  3
SLDDIMSTYLE3
100
AcDbAlignedDimension
 13
83.7714116203
 23
224.3938297872
 33
0.0
 14
90.7714116203
 24
236.3938297872
 34
0.0
100
AcDbRotatedDimension
  0
DIMENSION
  5
2AC
330
1F
100
AcDbEntity
  8
0
  6
Continuous
 62
     7
370
    18
100
AcDbDimension
  2
_D_7
 10
326.7714116203
 20
213.6938059435
 30
0.0
 11
208.7714116203
 21
213.6938059435
 31
0.0
 70
   160
  1
<>
 71
     2
 42
-1.0
  3
SLDDIMSTYLE1
100
AcDbAlignedDimension
 13
90.7714116203
 23
236.3938297872
 33
0.0
 14
326.7714116203
 24
236.3938297872
 34
0.0
100
AcDbRotatedDimension
  0
DIMENSION
  5
2B8
330
1F
100
AcDbEntity
  8
0
  6
Continuous
 62
     7
370
    18
100
AcDbDimension
  2
_D_8
 10
75.4788871418
 20
248.3938297872
 30
0.0
 11
75.4788871418
 21
242.3938297872
 31
0.0
 70
   160
  1
<>
 71
     2
 42
-1.0
  3
SLDDIMSTYLE2
100
AcDbAlignedDimension
 13
90.7714116203
 23
236.3938297872
 33
0.0
 14
83.7714116203
 24
248.3938297872
 34
0.0
 50
90.0
100
AcDbRotatedDimension
  0
INSERT
  5
2CD
330
1F
100
AcDbEntity
  8
0
  6
Continuous
 62
     7
370
     0
100
AcDbBlockReference
  2
SW_CENTERMARKSYMBOL_0
 10
143.5214116203
 20
237.3938297872
 30
0.0
  0
INSERT
  5
2D9
330
1F
100
AcDbEntity
  8
0
  6
Continuous
 62
     7
370
     0
100
AcDbBlockReference
  2
SW_CENTERMARKSYMBOL_1
 10
196.0214116203
 20
237.3938297872
 30
0.0
  0
INSERT
  5
2E5
330
1F
100
AcDbEntity
  8
0
  6
Continuous
 62
     7
370
     0
100
AcDbBlockReference
  2
SW_CENTERMARKSYMBOL_2
 10
90.7714116203
 20
236.3938297872
 30
0.0
  0
INSERT
  5
2F1
330
1F
100
AcDbEntity
  8
0
  6
Continuous
 62
     7
370
     0
100
AcDbBlockReference
  2
SW_CENTERMARKSYMBOL_3
 10
326.7714116203
 20
236.3938297872
 30
0.0
  0
LINE
  5
2F2
330
1F
100
AcDbEntity
  8
0
  6
CENTERX2
 62
     7
370
    18
100
AcDbLine
 10
169.7714116203
 20
250.3938297872
 30
0.0
 11
169.7714116203
 21
227.0946770697
 31
0.0
  0
LINE
  5
2F3
330
1F
100
AcDbEntity
  8
0
  6
Continuous
 62
     7
370
    35
100
AcDbLine
 10
145.5214116203
 20
156.4727127487
 30
0.0
 11
145.5214116203
 21
159.4727127487
 31
0.0
  0
LINE
  5
2F4
330
1F
100
AcDbEntity
  8
0
  6
Continuous
 62
     7
370
    35
100
AcDbLine
 10
145.5214116203
 20
156.4727127487
 30
0.0
 11
83.7714116203
 21
156.4727127487
 31
0.0
  0
LINE
  5
2F5
330
1F
100
AcDbEntity
  8
0
  6
Continuous
 62
     7
370
    35
100
AcDbLine
 10
83.7714116203
 20
156.4727127487
 30
0.0
 11
83.7714116203
 21
159.4727127487
 31
0.0
  0
LINE
  5
2F6
330
1F
100
AcDbEntity
  8
0
  6
Continuous
 62
     7
370
    35
100
AcDbLine
 10
145.5214116203
 20
159.4727127487
 30
0.0
 11
83.7714116203
 21
159.4727127487
 31
0.0
  0
LINE
  5
2F7
330
1F
100
AcDbEntity
  8
0
  6
Continuous
 62
     7
370
    35
100
AcDbLine
 10
333.7714116203
 20
156.4727127487
 30
0.0
 11
333.7714116203
 21
159.4727127487
 31
0.0
  0
LINE
  5
2F8
330
1F
100
AcDbEntity
  8
0
  6
Continuous
 62
     7
370
    35
100
AcDbLine
 10
333.7714116203
 20
156.4727127487
 30
0.0
 11
194.0214116203
 21
156.4727127487
 31
0.0
  0
LINE
  5
2F9
330
1F
100
AcDbEntity
  8
0
  6
Continuous
 62
     7
370
    35
100
AcDbLine
 10
194.0214116203
 20
156.4727127487
 30
0.0
 11
194.0214116203
 21
159.4727127487
 31
0.0
  0
LINE
  5
2FA
330
1F
100
AcDbEntity
  8
0
  6
Continuous
 62
     7
370
    35
100
AcDbLine
 10
333.7714116203
 20
159.4727127487
 30
0.0
 11
194.0214116203
 21
159.4727127487
 31
0.0
  0
LINE
  5
2FB
330
1F
100
AcDbEntity
  8
0
  6
Continuous
 62
     7
370
    35
100
AcDbLine
 10
147.7714116203
 20
156.4727127487
 30
0.0
 11
147.7714116203
 21
159.4727127487
 31
0.0
  0
LINE
  5
2FC
330
1F
100
AcDbEntity
  8
0
  6
Continuous
 62
     7
370
    35
100
AcDbLine
 10
147.7714116203
 20
156.4727127487
 30
0.0
 11
145.5214116203
 21
156.4727127487
 31
0.0
  0
LINE
  5
2FD
330
1F
100
AcDbEntity
  8
0
  6
Continuous
 62
     7
370
    35
100
AcDbLine
 10
147.7714116203
 20
159.4727127487
 30
0.0
 11
145.5214116203
 21
159.4727127487
 31
0.0
  0
LINE
  5
2FE
330
1F
100
AcDbEntity
  8
0
  6
Continuous
 62
     7
370
    35
100
AcDbLine
 10
191.7714116203
 20
156.4727127487
 30
0.0
 11
191.7714116203
 21
159.4727127487
 31
0.0
  0
LINE
  5
2FF
330
1F
100
AcDbEntity
  8
0
  6
Continuous
 62
     7
370
    35
100
AcDbLine
 10
194.0214116203
 20
156.4727127487
 30
0.0
 11
191.7714116203
 21
156.4727127487
 31
0.0
  0
LINE
  5
300
330
1F
100
AcDbEntity
  8
0
  6
Continuous
 62
     7
370
    35
100
AcDbLine
 10
194.0214116203
 20
159.4727127487
 30
0.0
 11
191.7714116203
 21
159.4727127487
 31
0.0
  0
LINE
  5
301
330
1F
100
AcDbEntity
  8
0
  6
Continuous
 62
     7
370
    35
100
AcDbLine
 10
181.7714116203
 20
156.4727127487
 30
0.0
 11
181.7714116203
 21
159.4727127487
 31
0.0
  0
LINE
  5
302
330
1F
100
AcDbEntity
  8
0
  6
Continuous
 62
     7
370
    35
100
AcDbLine
 10
157.7714116203
 20
156.4727127487
 30
0.0
 11
157.7714116203
 21
159.4727127487
 31
0.0
  0
LINE
  5
303
330
1F
100
AcDbEntity
  8
0
  6
Continuous
 62
     7
370
    35
100
AcDbLine
 10
181.7714116203
 20
156.4727127487
 30
0.0
 11
157.7714116203
 21
156.4727127487
 31
0.0
  0
LINE
  5
304
330
1F
100
AcDbEntity
  8
0
  6
Continuous
 62
     7
370
    35
100
AcDbLine
 10
181.7714116203
 20
159.4727127487
 30
0.0
 11
157.7714116203
 21
159.4727127487
 31
0.0
  0
LINE
  5
305
330
1F
100
AcDbEntity
  8
0
  6
Continuous
 62
     7
370
    35
100
AcDbLine
 10
191.7714116203
 20
156.4727127487
 30
0.0
 11
181.7714116203
 21
156.4727127487
 31
0.0
  0
LINE
  5
306
330
1F
100
AcDbEntity
  8
0
  6
Continuous
 62
     7
370
    35
100
AcDbLine
 10
191.7714116203
 20
159.4727127487
 30
0.0
 11
181.7714116203
 21
159.4727127487
 31
0.0
  0
LINE
  5
307
330
1F
100
AcDbEntity
  8
0
  6
Continuous
 62
     7
370
    35
100
AcDbLine
 10
157.7714116203
 20
156.4727127487
 30
0.0
 11
147.7714116203
 21
156.4727127487
 31
0.0
  0
LINE
  5
308
330
1F
100
AcDbEntity
  8
0
  6
Continuous
 62
     7
370
    35
100
AcDbLine
 10
157.7714116203
 20
159.4727127487
 30
0.0
 11
147.7714116203
 21
159.4727127487
 31
0.0
  0
LINE
  5
309
330
1F
100
AcDbEntity
  8
0
  6
HIDDEN
 62
     7
370
    18
100
AcDbLine
 10
192.1214116203
 20
159.1727127487
 30
0.0
 11
199.9214116203
 21
159.1727127487
 31
0.0
  0
LINE
  5
30A
330
1F
100
AcDbEntity
  8
0
  6
HIDDEN
 62
     7
370
    18
100
AcDbLine
 10
193.1714116203
 20
158.1227127487
 30
0.0
 11
198.8714116203
 21
158.1227127487
 31
0.0
  0
LINE
  5
30B
330
1F
100
AcDbEntity
  8
0
  6
HIDDEN
 62
     7
370
    18
100
AcDbLine
 10
192.1214116203
 20
156.7727127487
 30
0.0
 11
199.9214116203
 21
156.7727127487
 31
0.0
  0
LINE
  5
30C
330
1F
100
AcDbEntity
  8
0
  6
HIDDEN
 62
     7
370
    18
100
AcDbLine
 10
193.1714116203
 20
157.8227127487
 30
0.0
 11
198.8714116203
 21
157.8227127487
 31
0.0
  0
LINE
  5
30D
330
1F
100
AcDbEntity
  8
0
  6
HIDDEN
 62
     7
370
    18
100
AcDbLine
 10
139.6214116203
 20
159.1727127487
 30
0.0
 11
147.4214116203
 21
159.1727127487
 31
0.0
  0
LINE
  5
30E
330
1F
100
AcDbEntity
  8
0
  6
HIDDEN
 62
     7
370
    18
100
AcDbLine
 10
140.6714116203
 20
158.1227127487
 30
0.0
 11
146.3714116203
 21
158.1227127487
 31
0.0
  0
LINE
  5
30F
330
1F
100
AcDbEntity
  8
0
  6
HIDDEN
 62
     7
370
    18
100
AcDbLine
 10
139.6214116203
 20
156.7727127487
 30
0.0
 11
147.4214116203
 21
156.7727127487
 31
0.0
  0
LINE
  5
310
330
1F
100
AcDbEntity
  8
0
  6
HIDDEN
 62
     7
370
    18
100
AcDbLine
 10
140.6714116203
 20
157.8227127487
 30
0.0
 11
146.3714116203
 21
157.8227127487
 31
0.0
  0
LINE
  5
311
330
1F
100
AcDbEntity
  8
0
  6
HIDDEN
 62
     7
370
    18
100
AcDbLine
 10
322.0714116203
 20
159.1727127487
 30
0.0
 11
331.4714116203
 21
159.1727127487
 31
0.0
  0
LINE
  5
312
330
1F
100
AcDbEntity
  8
0
  6
HIDDEN
 62
     7
370
    18
100
AcDbLine
 10
323.2714116203
 20
157.9727127487
 30
0.0
 11
330.2714116203
 21
157.9727127487
 31
0.0
  0
LINE
  5
313
330
1F
100
AcDbEntity
  8
0
  6
HIDDEN
 62
     7
370
    18
100
AcDbLine
 10
331.4714116203
 20
156.7727127487
 30
0.0
 11
322.0714116203
 21
156.7727127487
 31
0.0
  0
LINE
  5
314
330
1F
100
AcDbEntity
  8
0
  6
HIDDEN
 62
     7
370
    18
100
AcDbLine
 10
86.0714116203
 20
159.1727127487
 30
0.0
 11
95.4714116203
 21
159.1727127487
 31
0.0
  0
LINE
  5
315
330
1F
100
AcDbEntity
  8
0
  6
HIDDEN
 62
     7
370
    18
100
AcDbLine
 10
87.2714116203
 20
157.9727127487
 30
0.0
 11
94.2714116203
 21
157.9727127487
 31
0.0
  0
LINE
  5
316
330
1F
100
AcDbEntity
  8
0
  6
HIDDEN
 62
     7
370
    18
100
AcDbLine
 10
95.4714116203
 20
156.7727127487
 30
0.0
 11
86.0714116203
 21
156.7727127487
 31
0.0
  0
LINE
  5
317
330
1F
100
AcDbEntity
  8
0
  6
HIDDEN
 62
     7
370
    18
100
AcDbLine
 10
192.1214116203
 20
159.4727127487
 30
0.0
 11
192.1214116203
 21
159.1727127487
 31
0.0
  0
LINE
  5
318
330
1F
100
AcDbEntity
  8
0
  6
HIDDEN
 62
     7
370
    18
100
AcDbLine
 10
199.9214116203
 20
159.1727127487
 30
0.0
 11
199.9214116203
 21
159.4727127487
 31
0.0
  0
LINE
  5
319
330
1F
100
AcDbEntity
  8
0
  6
HIDDEN
 62
     7
370
    18
100
AcDbLine
 10
192.1214116203
 20
159.1727127487
 30
0.0
 11
193.1714116203
 21
158.1227127487
 31
0.0
  0
LINE
  5
31A
330
1F
100
AcDbEntity
  8
0
  6
HIDDEN
 62
     7
370
    18
100
AcDbLine
 10
198.8714116203
 20
158.1227127487
 30
0.0
 11
199.9214116203
 21
159.1727127487
 31
0.0
  0
LINE
  5
31B
330
1F
100
AcDbEntity
  8
0
  6
HIDDEN
 62
     7
370
    18
100
AcDbLine
 10
199.9214116203
 20
156.7727127487
 30
0.0
 11
198.8714116203
 21
157.8227127487
 31
0.0
  0
LINE
  5
31C
330
1F
100
AcDbEntity
  8
0
  6
HIDDEN
 62
     7
370
    18
100
AcDbLine
 10
193.1714116203
 20
157.8227127487
 30
0.0
 11
192.1214116203
 21
156.7727127487
 31
0.0
  0
LINE
  5
31D
330
1F
100
AcDbEntity
  8
0
  6
HIDDEN
 62
     7
370
    18
100
AcDbLine
 10
139.6214116203
 20
159.4727127487
 30
0.0
 11
139.6214116203
 21
159.1727127487
 31
0.0
  0
LINE
  5
31E
330
1F
100
AcDbEntity
  8
0
  6
HIDDEN
 62
     7
370
    18
100
AcDbLine
 10
147.4214116203
 20
159.1727127487
 30
0.0
 11
147.4214116203
 21
159.4727127487
 31
0.0
  0
LINE
  5
31F
330
1F
100
AcDbEntity
  8
0
  6
HIDDEN
 62
     7
370
    18
100
AcDbLine
 10
139.6214116203
 20
159.1727127487
 30
0.0
 11
140.6714116203
 21
158.1227127487
 31
0.0
  0
LINE
  5
320
330
1F
100
AcDbEntity
  8
0
  6
HIDDEN
 62
     7
370
    18
100
AcDbLine
 10
146.3714116203
 20
158.1227127487
 30
0.0
 11
147.4214116203
 21
159.1727127487
 31
0.0
  0
LINE
  5
321
330
1F
100
AcDbEntity
  8
0
  6
HIDDEN
 62
     7
370
    18
100
AcDbLine
 10
192.1214116203
 20
156.7727127487
 30
0.0
 11
192.1214116203
 21
156.4727127487
 31
0.0
  0
LINE
  5
322
330
1F
100
AcDbEntity
  8
0
  6
HIDDEN
 62
     7
370
    18
100
AcDbLine
 10
199.9214116203
 20
156.4727127487
 30
0.0
 11
199.9214116203
 21
156.7727127487
 31
0.0
  0
LINE
  5
323
330
1F
100
AcDbEntity
  8
0
  6
HIDDEN
 62
     7
370
    18
100
AcDbLine
 10
147.4214116203
 20
156.7727127487
 30
0.0
 11
146.3714116203
 21
157.8227127487
 31
0.0
  0
LINE
  5
324
330
1F
100
AcDbEntity
  8
0
  6
HIDDEN
 62
     7
370
    18
100
AcDbLine
 10
140.6714116203
 20
157.8227127487
 30
0.0
 11
139.6214116203
 21
156.7727127487
 31
0.0
  0
LINE
  5
325
330
1F
100
AcDbEntity
  8
0
  6
HIDDEN
 62
     7
370
    18
100
AcDbLine
 10
139.6214116203
 20
156.7727127487
 30
0.0
 11
139.6214116203
 21
156.4727127487
 31
0.0
  0
LINE
  5
326
330
1F
100
AcDbEntity
  8
0
  6
HIDDEN
 62
     7
370
    18
100
AcDbLine
 10
147.4214116203
 20
156.4727127487
 30
0.0
 11
147.4214116203
 21
156.7727127487
 31
0.0
  0
LINE
  5
327
330
1F
100
AcDbEntity
  8
0
  6
HIDDEN
 62
     7
370
    18
100
AcDbLine
 10
322.0714116203
 20
159.4727127487
 30
0.0
 11
322.0714116203
 21
159.1727127487
 31
0.0
  0
LINE
  5
328
330
1F
100
AcDbEntity
  8
0
  6
HIDDEN
 62
     7
370
    18
100
AcDbLine
 10
331.4714116203
 20
159.1727127487
 30
0.0
 11
331.4714116203
 21
159.4727127487
 31
0.0
  0
LINE
  5
329
330
1F
100
AcDbEntity
  8
0
  6
HIDDEN
 62
     7
370
    18
100
AcDbLine
 10
322.0714116203
 20
159.1727127487
 30
0.0
 11
323.2714116203
 21
157.9727127487
 31
0.0
  0
LINE
  5
32A
330
1F
100
AcDbEntity
  8
0
  6
HIDDEN
 62
     7
370
    18
100
AcDbLine
 10
330.2714116203
 20
157.9727127487
 30
0.0
 11
331.4714116203
 21
159.1727127487
 31
0.0
  0
LINE
  5
32B
330
1F
100
AcDbEntity
  8
0
  6
HIDDEN
 62
     7
370
    18
100
AcDbLine
 10
331.4714116203
 20
156.7727127487
 30
0.0
 11
330.2714116203
 21
157.9727127487
 31
0.0
  0
LINE
  5
32C
330
1F
100
AcDbEntity
  8
0
  6
HIDDEN
 62
     7
370
    18
100
AcDbLine
 10
323.2714116203
 20
157.9727127487
 30
0.0
 11
322.0714116203
 21
156.7727127487
 31
0.0
  0
LINE
  5
32D
330
1F
100
AcDbEntity
  8
0
  6
HIDDEN
 62
     7
370
    18
100
AcDbLine
 10
331.4714116203
 20
156.4727127487
 30
0.0
 11
331.4714116203
 21
156.7727127487
 31
0.0
  0
LINE
  5
32E
330
1F
100
AcDbEntity
  8
0
  6
HIDDEN
 62
     7
370
    18
100
AcDbLine
 10
322.0714116203
 20
156.7727127487
 30
0.0
 11
322.0714116203
 21
156.4727127487
 31
0.0
  0
LINE
  5
32F
330
1F
100
AcDbEntity
  8
0
  6
HIDDEN
 62
     7
370
    18
100
AcDbLine
 10
86.0714116203
 20
159.4727127487
 30
0.0
 11
86.0714116203
 21
159.1727127487
 31
0.0
  0
LINE
  5
330
330
1F
100
AcDbEntity
  8
0
  6
HIDDEN
 62
     7
370
    18
100
AcDbLine
 10
95.4714116203
 20
159.1727127487
 30
0.0
 11
95.4714116203
 21
159.4727127487
 31
0.0
  0
LINE
  5
331
330
1F
100
AcDbEntity
  8
0
  6
HIDDEN
 62
     7
370
    18
100
AcDbLine
 10
86.0714116203
 20
159.1727127487
 30
0.0
 11
87.2714116203
 21
157.9727127487
 31
0.0
  0
LINE
  5
332
330
1F
100
AcDbEntity
  8
0
  6
HIDDEN
 62
     7
370
    18
100
AcDbLine
 10
94.2714116203
 20
157.9727127487
 30
0.0
 11
95.4714116203
 21
159.1727127487
 31
0.0
  0
LINE
  5
333
330
1F
100
AcDbEntity
  8
0
  6
HIDDEN
 62
     7
370
    18
100
AcDbLine
 10
95.4714116203
 20
156.7727127487
 30
0.0
 11
94.2714116203
 21
157.9727127487
 31
0.0
  0
LINE
  5
334
330
1F
100
AcDbEntity
  8
0
  6
HIDDEN
 62
     7
370
    18
100
AcDbLine
 10
87.2714116203
 20
157.9727127487
 30
0.0
 11
86.0714116203
 21
156.7727127487
 31
0.0
  0
LINE
  5
335
330
1F
100
AcDbEntity
  8
0
  6
HIDDEN
 62
     7
370
    18
100
AcDbLine
 10
95.4714116203
 20
156.4727127487
 30
0.0
 11
95.4714116203
 21
156.7727127487
 31
0.0
  0
LINE
  5
336
330
1F
100
AcDbEntity
  8
0
  6
HIDDEN
 62
     7
370
    18
100
AcDbLine
 10
86.0714116203
 20
156.7727127487
 30
0.0
 11
86.0714116203
 21
156.4727127487
 31
0.0
  0
LINE
  5
337
330
1F
100
AcDbEntity
  8
0
  6
HIDDEN
 62
     7
370
    18
100
AcDbLine
 10
193.1714116203
 20
158.1227127487
 30
0.0
 11
193.1714116203
 21
157.8227127487
 31
0.0
  0
LINE
  5
338
330
1F
100
AcDbEntity
  8
0
  6
HIDDEN
 62
     7
370
    18
100
AcDbLine
 10
198.8714116203
 20
157.8227127487
 30
0.0
 11
198.8714116203
 21
158.1227127487
 31
0.0
  0
LINE
  5
339
330
1F
100
AcDbEntity
  8
0
  6
HIDDEN
 62
     7
370
    18
100
AcDbLine
 10
140.6714116203
 20
158.1227127487
 30
0.0
 11
140.6714116203
 21
157.8227127487
 31
0.0
  0
LINE
  5
33A
330
1F
100
AcDbEntity
  8
0
  6
HIDDEN
 62
     7
370
    18
100
AcDbLine
 10
146.3714116203
 20
157.8227127487
 30
0.0
 11
146.3714116203
 21
158.1227127487
 31
0.0
  0
DIMENSION
  5
33B
330
1F
100
AcDbEntity
  8
0
  6
Continuous
 62
     7
370
    18
100
AcDbDimension
  2
_D_9
 10
74.9312623987
 20
159.4727127487
 30
0.0
 11
74.9312623987
 21
166.5899238693
 31
0.0
 70
   160
  1
<>
 71
     2
 42
-1.0
  3
SLDDIMSTYLE3
100
AcDbAlignedDimension
 13
83.7714116203
 23
156.4727127487
 33
0.0
 14
83.7714116203
 24
159.4727127487
 34
0.0
 50
90.0
100
AcDbRotatedDimension
  0
LINE
  5
347
330
1F
100
AcDbEntity
  8
0
  6
CENTERX2
 62
     7
370
    18
100
AcDbLine
 10
90.7714116203
 20
154.7727127487
 30
0.0
 11
90.7714116203
 21
160.1967654618
 31
0.0
  0
LINE
  5
348
330
1F
100
AcDbEntity
  8
0
  6
CENTERX2
 62
     7
370
    18
100
AcDbLine
 10
143.5214116203
 20
154.7727127487
 30
0.0
 11
143.5214116203
 21
160.7603345376
 31
0.0
  0
LINE
  5
349
330
1F
100
AcDbEntity
  8
0
  6
CENTERX2
 62
     7
370
    18
100
AcDbLine
 10
196.0214116203
 20
154.7727127487
 30
0.0
 11
196.0214116203
 21
161.0685095116
 31
0.0
  0
LINE
  5
34A
330
1F
100
AcDbEntity
  8
0
  6
CENTERX2
 62
     7
370
    18
100
AcDbLine
 10
326.7714116203
 20
154.7727127487
 30
0.0
 11
326.7714116203
 21
160.8259216964
 31
0.0
  0
LINE
  5
34B
330
1F
100
AcDbEntity
  8
0
  6
CENTERX2
 62
     7
370
    18
100
AcDbLine
 10
298.2714116203
 20
154.4727127487
 30
0.0
 11
298.2714116203
 21
161.4727127487
 31
0.0
  0
LINE
  5
34C
330
1F
100
AcDbEntity
  8
0
  6
CENTERX2
 62
     7
370
    18
100
AcDbLine
 10
287.2714116203
 20
154.7727127487
 30
0.0
 11
287.2714116203
 21
160.6508126313
 31
0.0
  0
LINE
  5
34D
330
1F
100
AcDbEntity
  8
0
  6
Continuous
 62
     7
370
    35
100
AcDbLine
 10
381.6467307692
 20
248.3938297872
 30
0.0
 11
381.6467307692
 21
224.3938297872
 31
0.0
  0
LINE
  5
34E
330
1F
100
AcDbEntity
  8
0
  6
Continuous
 62
     7
370
    35
100
AcDbLine
 10
381.6467307692
 20
224.3938297872
 30
0.0
 11
378.6467307692
 21
224.3938297872
 31
0.0
  0
LINE
  5
34F
330
1F
100
AcDbEntity
  8
0
  6
Continuous
 62
     7
370
    35
100
AcDbLine
 10
378.6467307692
 20
248.3938297872
 30
0.0
 11
378.6467307692
 21
224.3938297872
 31
0.0
  0
LINE
  5
350
330
1F
100
AcDbEntity
  8
0
  6
Continuous
 62
     7
370
    35
100
AcDbLine
 10
381.6467307692
 20
248.3938297872
 30
0.0
 11
378.6467307692
 21
248.3938297872
 31
0.0
  0
LWPOLYLINE
  5
351
330
1F
100
AcDbEntity
  8
0
  6
Continuous
 62
     7
370
    35
100
AcDbPolyline
 90
       58
 70
   128
 43
0.0
 10
34.7150957699
 20
78.5732196791
 10
34.6923898957
 20
78.978260402
 10
34.6245478916
 20
79.3907264194
 10
34.5123932676
 20
79.8056109526
 10
34.3572874289
 20
80.2178778653
 10
34.1611131503
 20
80.6225227958
 10
33.9262517219
 20
81.0146339026
 10
33.6555540431
 20
81.3894514882
 10
33.3523060172
 20
81.7424257747
 10
33.0201886643
 20
82.0692721326
 10
32.6632334392
 20
82.3660230897
 10
32.2857732949
 20
82.6290764914
 10
31.8923900861
 20
82.8552392258
 10
31.4878589521
 20
83.0417659837
 10
31.0770903528
 20
83.1863925829
 10
30.6650704628
 20
83.2873634523
 10
30.2568006452
 20
83.3434529425
 10
29.8572367425
 20
83.353980203
 10
29.4712289194
 20
83.318817447
 10
29.1034627879
 20
83.2383915029
 10
28.7584025306
 20
83.1136786327
 10
28.4402367116
 20
82.9461926815
 10
28.152827433
 20
82.7379667021
 10
27.899663454
 20
82.4915282757
 10
27.6838178425
 20
82.209868831
 10
27.5079106717
 20
81.8964073322
 10
27.3740772165
 20
81.5549487771
 10
27.2839420336
 20
81.18963801
 10
27.2385992422
 20
80.8049094089
 10
27.2385992422
 20
80.4054330578
 10
27.2839420336
 20
79.9960580584
 10
27.3740772165
 20
79.5817536687
 10
27.5079106717
 20
79.1675489828
 10
27.6838178425
 20
78.7584718843
 10
27.899663454
 20
78.3594880152
 10
28.152827433
 20
77.9754404992
 10
28.4402367116
 20
77.6109911528
 10
28.7584025306
 20
77.2705638974
 10
29.1034627879
 20
76.9582910588
 10
29.4712289194
 20
76.6779632061
 10
29.8572367425
 20
76.4329831398
 10
30.2568006452
 20
76.226324586
 10
30.6650704628
 20
76.0604960997
 10
31.0770903528
 20
75.9375106139
 10
31.4878589521
 20
75.858861006
 10
31.8923900861
 20
75.8255019755
 10
32.2857732949
 20
75.837838456
 10
32.6632334392
 20
75.8957206993
 10
33.0201886643
 20
75.9984460933
 10
33.3523060172
 20
76.1447676909
 10
33.6555540431
 20
76.3329093462
 10
33.9262517219
 20
76.5605872743
 10
34.1611131503
 20
76.8250377736
 10
34.3572874289
 20
77.1230507732
 10
34.5123932676
 20
77.4510087991
 10
34.6245478916
 20
77.804930885
 10
34.6923898957
 20
78.1805208963
 10
34.7150957699
 20
78.5732196791
  0
LWPOLYLINE
  5
352
330
1F
100
AcDbEntity
  8
0
  6
Continuous
 62
     7
370
    35
100
AcDbPolyline
 90
       53
 70
   128
 43
0.0
 10
111.646206084
 20
58.4364429006
 10
111.6688399816
 20
58.7929450462
 10
111.7364116212
 20
59.131945771
 10
111.8479356562
 20
59.448501681
 10
112.0017858149
 20
59.7379966783
 10
112.1957186157
 20
59.9962092739
 10
112.4269060816
 20
60.2193741468
 10
112.6919769787
 20
60.4042370504
 10
112.9870659765
 20
60.5481022676
 10
113.307870013
 20
60.6488719193
 10
113.6497110428
 20
60.7050765572
 10
114.007604254
 20
60.7158965912
 10
114.3763307577
 20
60.6811742407
 10
114.7505136911
 20
60.6014158357
 10
115.1246966246
 20
60.4777844336
 10
115.4934231283
 20
60.3120828584
 10
115.8513163395
 20
60.1067274123
 10
116.1931573693
 20
59.8647126401
 10
116.5139614057
 20
59.5895676621
 10
116.8090504035
 20
59.2853047118
 10
117.0741213007
 20
58.956360628
 10
117.3053087665
 20
58.6075321562
 10
117.4992415673
 20
58.2439060011
 10
117.653091726
 20
57.8707846507
 10
117.764615761
 20
57.4936090546
 10
117.8321874006
 20
57.1178792823
 10
117.8548212982
 20
56.7490743199
 10
117.8321874006
 20
56.3925721743
 10
117.764615761
 20
56.0535714496
 10
117.653091726
 20
55.7370155395
 10
117.4992415673
 20
55.4475205422
 10
117.3053087665
 20
55.1893079466
 10
117.0741213007
 20
54.9661430738
 10
116.8090504035
 20
54.7812801701
 10
116.5139614057
 20
54.637414953
 10
116.1931573693
 20
54.5366453013
 10
115.8513163395
 20
54.4804406633
 10
115.4934231283
 20
54.4696206294
 10
115.1246966246
 20
54.5043429799
 10
114.7505136911
 20
54.5841013848
 10
114.3763307577
 20
54.707732787
 10
114.007604254
 20
54.8734343622
 10
113.6497110428
 20
55.0787898083
 10
113.307870013
 20
55.3208045805
 10
112.9870659765
 20
55.5959495584
 10
112.6919769787
 20
55.9002125088
 10
112.4269060816
 20
56.2291565926
 10
112.1957186157
 20
56.5779850644
 10
112.0017858149
 20
56.9416112195
 10
111.8479356562
 20
57.3147325699
 10
111.7364116212
 20
57.691908166
 10
111.6688399816
 20
58.0676379383
 10
111.646206084
 20
58.4364429006
  0
LWPOLYLINE
  5
353
330
1F
100
AcDbEntity
  8
0
  6
Continuous
 62
     7
370
    35
100
AcDbPolyline
 90
       53
 70
   128
 43
0.0
 10
69.8574498348
 20
69.7937314244
 10
69.8800837324
 20
70.15023357
 10
69.947655372
 20
70.4892342948
 10
70.0591794069
 20
70.8057902049
 10
70.2130295657
 20
71.0952852021
 10
70.4069623665
 20
71.3534977977
 10
70.6381498323
 20
71.5766626706
 10
70.9032207295
 20
71.7615255742
 10
71.1983097273
 20
71.9053907914
 10
71.5191137637
 20
72.0061604431
 10
71.8609547935
 20
72.0623650811
 10
72.2188480047
 20
72.073185115
 10
72.5875745084
 20
72.0384627645
 10
72.9617574419
 20
71.9587043596
 10
73.3359403753
 20
71.8350729574
 10
73.704666879
 20
71.6693713822
 10
74.0625600902
 20
71.4640159361
 10
74.40440112
 20
71.2220011639
 10
74.7252051565
 20
70.9468561859
 10
75.0202941543
 20
70.6425932356
 10
75.2853650514
 20
70.3136491518
 10
75.5165525173
 20
69.96482068
 10
75.710485318
 20
69.6011945249
 10
75.8643354768
 20
69.2280731745
 10
75.9758595117
 20
68.8508975784
 10
76.0434311513
 20
68.4751678061
 10
76.066065049
 20
68.1063628438
 10
76.0434311513
 20
67.7498606982
 10
75.9758595117
 20
67.4108599734
 10
75.8643354768
 20
67.0943040633
 10
75.710485318
 20
66.8048090661
 10
75.5165525173
 20
66.5465964705
 10
75.2853650514
 20
66.3234315976
 10
75.0202941543
 20
66.1385686939
 10
74.7252051565
 20
65.9947034768
 10
74.40440112
 20
65.8939338251
 10
74.0625600902
 20
65.8377291871
 10
73.704666879
 20
65.8269091532
 10
73.3359403753
 20
65.8616315037
 10
72.9617574419
 20
65.9413899086
 10
72.5875745084
 20
66.0650213108
 10
72.2188480047
 20
66.230722886
 10
71.8609547935
 20
66.4360783321
 10
71.5191137637
 20
66.6780931043
 10
71.1983097273
 20
66.9532380822
 10
70.9032207295
 20
67.2575010326
 10
70.6381498323
 20
67.5864451164
 10
70.4069623665
 20
67.9352735882
 10
70.2130295657
 20
68.2988997433
 10
70.0591794069
 20
68.6720210937
 10
69.947655372
 20
69.0491966898
 10
69.8800837324
 20
69.4249264621
 10
69.8574498348
 20
69.7937314244
  0
LINE
  5
354
330
1F
100
AcDbEntity
  8
0
  6
Continuous
 62
     7
370
    35
100
AcDbLine
 10
74.5537100609
 20
77.0033448006
 30
0.0
 11
25.4021729487
 21
90.3616793977
 31
0.0
  0
LINE
  5
355
330
1F
100
AcDbEntity
  8
0
  6
Continuous
 62
     7
370
    35
100
AcDbLine
 10
74.5537100609
 20
73.1460919475
 30
0.0
 11
74.5537100609
 21
77.0033448006
 31
0.0
  0
LINE
  5
356
330
1F
100
AcDbEntity
  8
0
  6
Continuous
 62
     7
370
    35
100
AcDbLine
 10
76.3446567573
 20
70.9235872268
 30
0.0
 11
74.5537100609
 21
73.1460919475
 31
0.0
  0
LINE
  5
357
330
1F
100
AcDbEntity
  8
0
  6
Continuous
 62
     7
370
    35
100
AcDbLine
 10
76.3446567573
 20
61.8590430219
 30
0.0
 11
76.3446567573
 21
70.9235872268
 31
0.0
  0
LINE
  5
358
330
1F
100
AcDbEntity
  8
0
  6
Continuous
 62
     7
370
    35
100
AcDbLine
 10
84.3044198524
 20
59.6957499697
 30
0.0
 11
76.3446567573
 21
61.8590430219
 31
0.0
  0
LINE
  5
359
330
1F
100
AcDbEntity
  8
0
  6
Continuous
 62
     7
370
    35
100
AcDbLine
 10
84.3044198524
 20
60.8529258257
 30
0.0
 11
84.3044198524
 21
59.6957499697
 31
0.0
  0
LINE
  5
35A
330
1F
100
AcDbEntity
  8
0
  6
Continuous
 62
     7
370
    35
100
AcDbLine
 10
103.4078512806
 20
55.6610225005
 30
0.0
 11
84.3044198524
 21
60.8529258257
 31
0.0
  0
LINE
  5
35B
330
1F
100
AcDbEntity
  8
0
  6
Continuous
 62
     7
370
    35
100
AcDbLine
 10
103.4078512806
 20
54.5038466445
 30
0.0
 11
103.4078512806
 21
55.6610225005
 31
0.0
  0
LINE
  5
35C
330
1F
100
AcDbEntity
  8
0
  6
Continuous
 62
     7
370
    35
100
AcDbLine
 10
111.3676143757
 20
52.3405535924
 30
0.0
 11
103.4078512806
 21
54.5038466445
 31
0.0
  0
LINE
  5
35D
330
1F
100
AcDbEntity
  8
0
  6
Continuous
 62
     7
370
    35
100
AcDbLine
 10
111.3676143757
 20
61.4050977973
 30
0.0
 11
111.3676143757
 21
52.3405535924
 31
0.0
  0
LINE
  5
35E
330
1F
100
AcDbEntity
  8
0
  6
Continuous
 62
     7
370
    35
100
AcDbLine
 10
113.1585610721
 20
62.6541206445
 30
0.0
 11
111.3676143757
 21
61.4050977973
 31
0.0
  0
LINE
  5
35F
330
1F
100
AcDbEntity
  8
0
  6
Continuous
 62
     7
370
    35
100
AcDbLine
 10
113.1585610721
 20
66.5113734977
 30
0.0
 11
113.1585610721
 21
62.6541206445
 31
0.0
  0
LINE
  5
360
330
1F
100
AcDbEntity
  8
0
  6
Continuous
 62
     7
370
    35
100
AcDbLine
 10
224.3962503261
 20
36.2793530938
 30
0.0
 11
113.1585610721
 21
66.5113734977
 31
0.0
  0
LINE
  5
361
330
1F
100
AcDbEntity
  8
0
  6
Continuous
 62
     7
370
    35
100
AcDbLine
 10
224.3962503261
 20
17.7645393986
 30
0.0
 11
224.3962503261
 21
36.2793530938
 31
0.0
  0
LINE
  5
362
330
1F
100
AcDbEntity
  8
0
  6
Continuous
 62
     7
370
    35
100
AcDbLine
 10
25.4021729487
 20
71.8468657025
 30
0.0
 11
224.3962503261
 21
17.7645393986
 31
0.0
  0
LINE
  5
363
330
1F
100
AcDbEntity
  8
0
  6
Continuous
 62
     7
370
    35
100
AcDbLine
 10
25.4021729487
 20
90.3616793977
 30
0.0
 11
25.4021729487
 21
71.8468657025
 31
0.0
  0
LWPOLYLINE
  5
364
330
1F
100
AcDbEntity
  8
0
  6
Continuous
 62
     7
370
    35
100
AcDbPolyline
 90
       58
 70
   128
 43
0.0
 10
222.5655048142
 20
27.5195036482
 10
222.54279894
 20
27.9245443711
 10
222.4749569359
 20
28.3370103885
 10
222.3628023119
 20
28.7518949217
 10
222.2076964732
 20
29.1641618345
 10
222.0115221946
 20
29.5688067649
 10
221.7766607662
 20
29.9609178717
 10
221.5059630874
 20
30.3357354573
 10
221.2027150615
 20
30.6887097439
 10
220.8705977086
 20
31.0155561017
 10
220.5136424835
 20
31.3123070588
 10
220.1361823392
 20
31.5753604605
 10
219.7427991303
 20
31.801523195
 10
219.3382679963
 20
31.9880499528
 10
218.9274993971
 20
32.132676552
 10
218.5154795071
 20
32.2336474215
 10
218.1072096894
 20
32.2897369116
 10
217.7076457868
 20
32.3002641721
 10
217.3216379637
 20
32.2651014162
 10
216.9538718322
 20
32.1846754721
 10
216.6088115749
 20
32.0599626018
 10
216.2906457559
 20
31.8924766507
 10
216.0032364772
 20
31.6842506713
 10
215.7500724983
 20
31.4378122449
 10
215.5342268868
 20
31.1561528002
 10
215.358319716
 20
30.8426913013
 10
215.2244862608
 20
30.5012327462
 10
215.1343510779
 20
30.1359219792
 10
215.0890082865
 20
29.7511933781
 10
215.0890082865
 20
29.3517170269
 10
215.1343510779
 20
28.9423420276
 10
215.2244862608
 20
28.5280376379
 10
215.358319716
 20
28.1138329519
 10
215.5342268868
 20
27.7047558535
 10
215.7500724983
 20
27.3057719844
 10
216.0032364772
 20
26.9217244683
 10
216.2906457559
 20
26.5572751219
 10
216.6088115749
 20
26.2168478665
 10
216.9538718322
 20
25.9045750279
 10
217.3216379637
 20
25.6242471752
 10
217.7076457868
 20
25.3792671089
 10
218.1072096894
 20
25.1726085552
 10
218.5154795071
 20
25.0067800688
 10
218.9274993971
 20
24.8837945831
 10
219.3382679963
 20
24.8051449751
 10
219.7427991303
 20
24.7717859447
 10
220.1361823392
 20
24.7841224251
 10
220.5136424835
 20
24.8420046684
 10
220.8705977086
 20
24.9447300624
 10
221.2027150615
 20
25.0910516601
 10
221.5059630874
 20
25.2791933153
 10
221.7766607662
 20
25.5068712434
 10
222.0115221946
 20
25.7713217427
 10
222.2076964732
 20
26.0693347423
 10
222.3628023119
 20
26.3972927682
 10
222.4749569359
 20
26.7512148541
 10
222.54279894
 20
27.1268048655
 10
222.5655048142
 20
27.5195036482
  0
LINE
  5
365
330
1F
100
AcDbEntity
  8
0
  6
Continuous
 62
     7
370
    35
100
AcDbLine
 10
224.3962503261
 20
36.2793530938
 30
0.0
 11
225.6563278762
 21
37.5092274122
 31
0.0
  0
LINE
  5
366
330
1F
100
AcDbEntity
  8
0
  6
Continuous
 62
     7
370
    35
100
AcDbLine
 10
113.1585610721
 20
66.5113734977
 30
0.0
 11
114.4186386222
 21
67.741247816
 31
0.0
  0
LINE
  5
367
330
1F
100
AcDbEntity
  8
0
  6
Continuous
 62
     7
370
    35
100
AcDbLine
 10
225.6563278762
 20
37.5092274122
 30
0.0
 11
114.4186386222
 21
67.741247816
 31
0.0
  0
LINE
  5
368
330
1F
100
AcDbEntity
  8
0
  6
Continuous
 62
     7
370
    35
100
AcDbLine
 10
224.3962503261
 20
17.7645393986
 30
0.0
 11
225.6563278762
 21
18.994413717
 31
0.0
  0
LINE
  5
369
330
1F
100
AcDbEntity
  8
0
  6
Continuous
 62
     7
370
    35
100
AcDbLine
 10
225.6563278762
 20
18.994413717
 30
0.0
 11
225.6563278762
 21
37.5092274122
 31
0.0
  0
LWPOLYLINE
  5
36A
330
1F
100
AcDbEntity
  8
0
  6
Continuous
 62
     7
370
    35
100
AcDbPolyline
 90
       30
 70
   128
 43
0.0
 10
215.9339711399
 20
31.6237247414
 10
215.8760802533
 20
31.5607996767
 10
215.6602346418
 20
31.279140232
 10
215.484327471
 20
30.9656787331
 10
215.3504940158
 20
30.624220178
 10
215.2603588329
 20
30.258909411
 10
215.2150160415
 20
29.8741808099
 10
215.2150160415
 20
29.4747044588
 10
215.2603588329
 20
29.0653294594
 10
215.3504940158
 20
28.6510250697
 10
215.484327471
 20
28.2368203837
 10
215.6602346418
 20
27.8277432853
 10
215.8760802533
 20
27.4287594162
 10
216.1292442323
 20
27.0447119002
 10
216.4166535109
 20
26.6802625538
 10
216.7348193299
 20
26.3398352984
 10
217.0798795872
 20
26.0275624597
 10
217.4476457187
 20
25.7472346071
 10
217.8336535418
 20
25.5022545408
 10
218.2332174444
 20
25.295595987
 10
218.6414872621
 20
25.1297675007
 10
219.0535071521
 20
25.0067820149
 10
219.4642757514
 20
24.928132407
 10
219.8688068854
 20
24.8947733765
 10
220.2621900942
 20
24.907109857
 10
220.6396502385
 20
24.9649921002
 10
220.9966054636
 20
25.0677174943
 10
221.3287228165
 20
25.2140390919
 10
221.6319708424
 20
25.4021807472
 10
221.840868934
 20
25.5717654558
  0
LWPOLYLINE
  5
36B
330
1F
100
AcDbEntity
  8
0
  6
Continuous
 62
     7
370
    35
100
AcDbPolyline
 90
       15
 70
   128
 43
0.0
 10
216.6685378513
 20
29.9083411102
 10
216.691410192
 20
30.2474030808
 10
216.7596516511
 20
30.568465239
 10
216.8721417055
 20
30.866255753
 10
217.0270332718
 20
31.1358849108
 10
217.2217830346
 20
31.3729254091
 10
217.4531932084
 20
31.5734850495
 10
217.7174640443
 20
31.7342706482
 10
218.0102562227
 20
31.8526421101
 10
218.3267621039
 20
31.9266557791
 10
218.6617846703
 20
31.9550963528
 10
219.0098228605
 20
31.9374968378
 10
219.3651618971
 20
31.8741462176
 10
219.7219671228
 20
31.7660847076
 10
220.0653978561
 20
31.6194995483
  0
LWPOLYLINE
  5
36C
330
1F
100
AcDbEntity
  8
0
  6
Continuous
 62
     7
370
    35
100
AcDbPolyline
 90
       31
 70
   128
 43
0.0
 10
221.9368590345
 20
29.7020790594
 10
221.9644794952
 20
29.6405371531
 10
222.0984455532
 20
29.2834249968
 10
222.1889973583
 20
28.9241415215
 10
222.2346480524
 20
28.568586152
 10
222.2346480524
 20
28.2225970976
 10
222.1889973583
 20
27.8918554891
 10
222.0984455532
 20
27.5817920945
 10
221.9644794952
 20
27.2974981462
 10
221.7892989033
 20
27.0436417429
 10
221.575780238
 20
26.8243911998
 10
221.3274294699
 20
26.6433466048
 10
221.0483245116
 20
26.503480705
 10
220.743048259
 20
26.4070900947
 10
220.4166133396
 20
26.355757505
 10
220.0743798059
 20
26.3503258156
 10
219.7219671228
 20
26.3908842148
 10
219.3651618971
 20
26.4767667348
 10
219.0098228605
 20
26.6065631869
 10
218.6617846703
 20
26.7781423169
 10
218.3267621039
 20
26.9886868004
 10
218.0102562227
 20
27.2347395026
 10
217.7174640443
 20
27.5122602452
 10
217.4531932084
 20
27.816692145
 10
217.2217830346
 20
28.1430364388
 10
217.0270332718
 20
28.4859345622
 10
216.8721417055
 20
28.8397561376
 10
216.7596516511
 20
29.1986914245
 10
216.691410192
 20
29.5568467153
 10
216.6685378513
 20
29.9083411102
 10
216.6685378513
 20
29.9083411102
  0
ARC
  5
36D
330
1F
100
AcDbEntity
  8
0
  6
Continuous
 62
     7
370
    35
100
AcDbCircle
 10
221.7249657136
 20
31.367276668
 30
0.0
 40
5.499670050084139
100
AcDbArc
 50
210.2064480162
 51
238.4036192222
  0
ARC
  5
36E
330
1F
100
AcDbEntity
  8
0
  6
Continuous
 62
     7
370
    35
100
AcDbCircle
 10
114.0658801176
 20
58.6264698583
 30
0.0
 40
2.29464578863794
100
AcDbArc
 50
137.903980205
 51
181.6741706059
  0
LWPOLYLINE
  5
36F
330
1F
100
AcDbEntity
  8
0
  6
Continuous
 62
     7
370
    35
100
AcDbPolyline
 90
       22
 70
   128
 43
0.0
 10
117.2638336228
 20
55.1437614537
 10
117.2001290557
 20
55.0891305057
 10
116.9350581585
 20
54.904267602
 10
116.6399691607
 20
54.7604023848
 10
116.3191651243
 20
54.6596327331
 10
115.9773240945
 20
54.6034280952
 10
115.6194308833
 20
54.5926080612
 10
115.2507043796
 20
54.6273304117
 10
114.8765214461
 20
54.7070888167
 10
114.5023385127
 20
54.8307202188
 10
114.133612009
 20
54.996421794
 10
113.7757187978
 20
55.2017772401
 10
113.433877768
 20
55.4437920123
 10
113.1130737315
 20
55.7189369903
 10
112.8179847337
 20
56.0231999406
 10
112.5529138366
 20
56.3521440244
 10
112.3217263707
 20
56.7009724962
 10
112.12779357
 20
57.0645986513
 10
111.9739434112
 20
57.4377200017
 10
111.8624193763
 20
57.8148955978
 10
111.7948477366
 20
58.1906253701
 10
111.772213839
 20
58.5594303325
  0
ARC
  5
370
330
1F
100
AcDbEntity
  8
0
  6
Continuous
 62
     7
370
    35
100
AcDbCircle
 10
114.7684901987
 20
58.7510113886
 30
0.0
 40
1.719514096274201
100
AcDbArc
 50
59.8931300893
 51
179.609169824
  0
LWPOLYLINE
  5
371
330
1F
100
AcDbEntity
  8
0
  6
Continuous
 62
     7
370
    35
100
AcDbPolyline
 90
       27
 70
   128
 43
0.0
 10
117.4168827488
 20
58.4088315364
 10
117.4941895657
 20
58.1740644897
 10
117.5629906811
 20
57.8488372669
 10
117.5860810708
 20
57.5296635337
 10
117.5629906811
 20
57.2230407467
 10
117.4941895657
 20
56.9352108618
 10
117.3810783169
 20
56.6720332653
 10
117.2259595536
 20
56.4388654943
 10
117.0319910464
 20
56.240454172
 10
116.8031214349
 20
56.0808383808
 10
116.5440098442
 20
55.963267438
 10
116.2599310392
 20
55.8901347489
 10
115.9566680451
 20
55.8629290842
 10
115.640394422
 20
55.8822042727
 10
115.3175485887
 20
55.9475679272
 10
114.9947027554
 20
56.0576894322
 10
114.6784291322
 20
56.2103270314
 10
114.3751661381
 20
56.4023734634
 10
114.0910873331
 20
56.6299192168
 10
113.8319757425
 20
56.8883321161
 10
113.6031061309
 20
57.1723516199
 10
113.4091376238
 20
57.4761959102
 10
113.2540188604
 20
57.7936795934
 10
113.1409076117
 20
58.1183396174
 10
113.0721064963
 20
58.4435668402
 10
113.0490161066
 20
58.7627405734
 10
113.0490161066
 20
58.7627405734
  0
LINE
  5
372
330
1F
100
AcDbEntity
  8
0
  6
Continuous
 62
     7
370
    35
100
AcDbLine
 10
111.3676143757
 20
61.4050977973
 30
0.0
 11
112.6276919258
 21
62.6349721157
 31
0.0
  0
LINE
  5
373
330
1F
100
AcDbEntity
  8
0
  6
Continuous
 62
     7
370
    35
100
AcDbLine
 10
113.1585610721
 20
63.0052051851
 30
0.0
 11
112.6276919258
 21
62.6349721157
 31
0.0
  0
ARC
  5
374
330
1F
100
AcDbEntity
  8
0
  6
Continuous
 62
     7
370
    35
100
AcDbCircle
 10
114.847227858
 20
58.9367619105
 30
0.0
 40
1.672982565687087
100
AcDbArc
 50
138.6783572702
 51
181.7480642777
  0
LWPOLYLINE
  5
375
330
1F
100
AcDbEntity
  8
0
  6
Continuous
 62
     7
370
    35
100
AcDbPolyline
 90
       19
 70
   128
 43
0.0
 10
117.1703116961
 20
56.3739836641
 10
117.1579988014
 20
56.3634416038
 10
116.9291291899
 20
56.2038258127
 10
116.6700175992
 20
56.0862548699
 10
116.3859387942
 20
56.0131221808
 10
116.0826758001
 20
55.9859165161
 10
115.766402177
 20
56.0051917046
 10
115.4435563437
 20
56.0705553591
 10
115.1207105104
 20
56.1806768641
 10
114.8044368872
 20
56.3333144632
 10
114.5011738931
 20
56.5253608953
 10
114.2170950881
 20
56.7529066486
 10
113.9579834975
 20
57.0113195479
 10
113.7291138859
 20
57.2953390517
 10
113.5351453788
 20
57.599183342
 10
113.3800266155
 20
57.9166670253
 10
113.2669153667
 20
58.2413270492
 10
113.1981142513
 20
58.566554272
 10
113.1750238616
 20
58.8857280053
  0
ARC
  5
376
330
1F
100
AcDbEntity
  8
0
  6
Continuous
 62
     7
370
    35
100
AcDbCircle
 10
117.3562704301
 20
60.1360570707
 30
0.0
 40
4.542167863000311
100
AcDbArc
 50
207.9582690954
 51
240.6517981427
  0
LINE
  5
377
330
1F
100
AcDbEntity
  8
0
  6
Continuous
 62
     7
370
    35
100
AcDbLine
 10
103.4078512806
 20
54.5038466445
 30
0.0
 11
104.6679288307
 21
55.7337209629
 31
0.0
  0
LINE
  5
378
330
1F
100
AcDbEntity
  8
0
  6
Continuous
 62
     7
370
    35
100
AcDbLine
 10
111.3676143757
 20
53.9128899887
 30
0.0
 11
104.6679288307
 21
55.7337209629
 31
0.0
  0
LINE
  5
379
330
1F
100
AcDbEntity
  8
0
  6
Continuous
 62
     7
370
    35
100
AcDbLine
 10
103.4078512806
 20
55.6610225005
 30
0.0
 11
104.6679288307
 21
56.8908968189
 31
0.0
  0
LINE
  5
37A
330
1F
100
AcDbEntity
  8
0
  6
Continuous
 62
     7
370
    35
100
AcDbLine
 10
84.3044198524
 20
60.8529258257
 30
0.0
 11
85.5644974025
 21
62.082800144
 31
0.0
  0
LINE
  5
37B
330
1F
100
AcDbEntity
  8
0
  6
Continuous
 62
     7
370
    35
100
AcDbLine
 10
104.6679288307
 20
56.8908968189
 30
0.0
 11
85.5644974025
 21
62.082800144
 31
0.0
  0
LINE
  5
37C
330
1F
100
AcDbEntity
  8
0
  6
Continuous
 62
     7
370
    35
100
AcDbLine
 10
104.6679288307
 20
55.7337209629
 30
0.0
 11
104.6679288307
 21
56.8908968189
 31
0.0
  0
LINE
  5
37D
330
1F
100
AcDbEntity
  8
0
  6
Continuous
 62
     7
370
    35
100
AcDbLine
 10
74.5537100609
 20
73.1460919475
 30
0.0
 11
75.813787611
 21
74.3759662658
 31
0.0
  0
LINE
  5
37E
330
1F
100
AcDbEntity
  8
0
  6
Continuous
 62
     7
370
    35
100
AcDbLine
 10
74.5537100609
 20
77.0033448006
 30
0.0
 11
75.813787611
 21
78.233219119
 31
0.0
  0
LINE
  5
37F
330
1F
100
AcDbEntity
  8
0
  6
Continuous
 62
     7
370
    35
100
AcDbLine
 10
75.813787611
 20
74.3759662658
 30
0.0
 11
75.813787611
 21
78.233219119
 31
0.0
  0
LINE
  5
380
330
1F
100
AcDbEntity
  8
0
  6
Continuous
 62
     7
370
    35
100
AcDbLine
 10
25.4021729487
 20
90.3616793977
 30
0.0
 11
26.6622504988
 21
91.591553716
 31
0.0
  0
LINE
  5
381
330
1F
100
AcDbEntity
  8
0
  6
Continuous
 62
     7
370
    35
100
AcDbLine
 10
75.813787611
 20
78.233219119
 30
0.0
 11
26.6622504988
 21
91.591553716
 31
0.0
  0
LINE
  5
382
330
1F
100
AcDbEntity
  8
0
  6
Continuous
 62
     7
370
    35
100
AcDbLine
 10
76.3446567573
 20
70.9235872268
 30
0.0
 11
77.6047343074
 21
72.1534615452
 31
0.0
  0
LINE
  5
383
330
1F
100
AcDbEntity
  8
0
  6
Continuous
 62
     7
370
    35
100
AcDbLine
 10
77.6047343074
 20
72.1534615452
 30
0.0
 11
75.813787611
 21
74.3759662658
 31
0.0
  0
LINE
  5
384
330
1F
100
AcDbEntity
  8
0
  6
Continuous
 62
     7
370
    35
100
AcDbLine
 10
76.3446567573
 20
61.8590430219
 30
0.0
 11
77.6047343074
 21
63.0889173402
 31
0.0
  0
LINE
  5
385
330
1F
100
AcDbEntity
  8
0
  6
Continuous
 62
     7
370
    35
100
AcDbLine
 10
77.6047343074
 20
63.0889173402
 30
0.0
 11
77.6047343074
 21
72.1534615452
 31
0.0
  0
ARC
  5
386
330
1F
100
AcDbEntity
  8
0
  6
Continuous
 62
     7
370
    35
100
AcDbCircle
 10
72.2771238683
 20
69.9837583821
 30
0.0
 40
2.294645788641064
100
AcDbArc
 50
137.9039802056
 51
181.6741706059
  0
LWPOLYLINE
  5
387
330
1F
100
AcDbEntity
  8
0
  6
Continuous
 62
     7
370
    35
100
AcDbPolyline
 90
       22
 70
   128
 43
0.0
 10
75.4750773736
 20
66.5010499775
 10
75.4113728064
 20
66.4464190295
 10
75.1463019093
 20
66.2615561258
 10
74.8512129115
 20
66.1176909087
 10
74.530408875
 20
66.0169212569
 10
74.1885678452
 20
65.960716619
 10
73.830674634
 20
65.949896585
 10
73.4619481303
 20
65.9846189356
 10
73.0877651969
 20
66.0643773405
 10
72.7135822634
 20
66.1880087426
 10
72.3448557597
 20
66.3537103178
 10
71.9869625485
 20
66.5590657639
 10
71.6451215187
 20
66.8010805361
 10
71.3243174823
 20
67.0762255141
 10
71.0292284845
 20
67.3804884644
 10
70.7641575873
 20
67.7094325482
 10
70.5329701215
 20
68.05826102
 10
70.3390373207
 20
68.4218871752
 10
70.185187162
 20
68.7950085255
 10
70.073663127
 20
69.1721841216
 10
70.0060914874
 20
69.5479138939
 10
69.9834575898
 20
69.9167188563
  0
ARC
  5
388
330
1F
100
AcDbEntity
  8
0
  6
Continuous
 62
     7
370
    35
100
AcDbCircle
 10
72.9797339494
 20
70.1082999124
 30
0.0
 40
1.719514096277954
100
AcDbArc
 50
59.8931300886
 51
179.6091698239
  0
LWPOLYLINE
  5
389
330
1F
100
AcDbEntity
  8
0
  6
Continuous
 62
     7
370
    35
100
AcDbPolyline
 90
       27
 70
   128
 43
0.0
 10
75.6281264995
 20
69.7661200603
 10
75.7054333164
 20
69.5313530136
 10
75.7742344318
 20
69.2061257908
 10
75.7973248215
 20
68.8869520575
 10
75.7742344318
 20
68.5803292706
 10
75.7054333164
 20
68.2924993856
 10
75.5923220676
 20
68.0293217892
 10
75.4372033043
 20
67.7961540181
 10
75.2432347972
 20
67.5977426958
 10
75.0143651856
 20
67.4381269046
 10
74.755253595
 20
67.3205559618
 10
74.47117479
 20
67.2474232728
 10
74.1679117959
 20
67.220217608
 10
73.8516381727
 20
67.2394927966
 10
73.5287923394
 20
67.3048564511
 10
73.2059465061
 20
67.414977956
 10
72.889672883
 20
67.5676155552
 10
72.5864098889
 20
67.7596619872
 10
72.3023310839
 20
67.9872077406
 10
72.0432194932
 20
68.2456206399
 10
71.8143498817
 20
68.5296401437
 10
71.6203813745
 20
68.833484434
 10
71.4652626112
 20
69.1509681172
 10
71.3521513624
 20
69.4756281412
 10
71.283350247
 20
69.800855364
 10
71.2602598573
 20
70.1200290972
 10
71.2602598573
 20
70.1200290972
  0
ARC
  5
38A
330
1F
100
AcDbEntity
  8
0
  6
Continuous
 62
     7
370
    35
100
AcDbCircle
 10
73.0584716087
 20
70.2940504343
 30
0.0
 40
1.672982565690209
100
AcDbArc
 50
138.6783572711
 51
181.7480642777
  0
LWPOLYLINE
  5
38B
330
1F
100
AcDbEntity
  8
0
  6
Continuous
 62
     7
370
    35
100
AcDbPolyline
 90
       19
 70
   128
 43
0.0
 10
75.3815554468
 20
67.7312721879
 10
75.3692425522
 20
67.7207301276
 10
75.1403729406
 20
67.5611143365
 10
74.88126135
 20
67.4435433937
 10
74.597182545
 20
67.3704107046
 10
74.2939195509
 20
67.3432050399
 10
73.9776459277
 20
67.3624802284
 10
73.6548000944
 20
67.4278438829
 10
73.3319542611
 20
67.5379653879
 10
73.015680638
 20
67.6906029871
 10
72.7124176439
 20
67.8826494191
 10
72.4283388389
 20
68.1101951724
 10
72.1692272482
 20
68.3686080717
 10
71.9403576367
 20
68.6526275755
 10
71.7463891295
 20
68.9564718658
 10
71.5912703662
 20
69.2739555491
 10
71.4781591174
 20
69.598615573
 10
71.409358002
 20
69.9238427958
 10
71.3862676123
 20
70.2430165291
  0
LINE
  5
38C
330
1F
100
AcDbEntity
  8
0
  6
Continuous
 62
     7
370
    35
100
AcDbLine
 10
84.6371314005
 20
61.1776624964
 30
0.0
 11
77.6047343074
 21
63.0889173402
 31
0.0
  0
ARC
  5
38D
330
1F
100
AcDbEntity
  8
0
  6
Continuous
 62
     7
370
    35
100
AcDbCircle
 10
75.5675141808
 20
71.4933455945
 30
0.0
 40
4.542167863000387
100
AcDbArc
 50
207.9582690954
 51
240.6517981426
  0
LWPOLYLINE
  5
38E
330
1F
100
AcDbEntity
  8
0
  6
Continuous
 62
     7
370
    35
100
AcDbPolyline
 90
       30
 70
   128
 43
0.0
 10
28.0835620958
 20
82.6774407725
 10
28.025671209
 20
82.6145157076
 10
27.8098255975
 20
82.3328562629
 10
27.6339184267
 20
82.019394764
 10
27.5000849715
 20
81.6779362089
 10
27.4099497886
 20
81.3126254419
 10
27.3646069972
 20
80.9278968408
 10
27.3646069972
 20
80.5284204897
 10
27.4099497886
 20
80.1190454903
 10
27.5000849715
 20
79.7047411006
 10
27.6339184267
 20
79.2905364146
 10
27.8098255975
 20
78.8814593162
 10
28.025671209
 20
78.4824754471
 10
28.278835188
 20
78.098427931
 10
28.5662444666
 20
77.7339785846
 10
28.8844102856
 20
77.3935513292
 10
29.2294705429
 20
77.0812784906
 10
29.5972366744
 20
76.8009506379
 10
29.9832444975
 20
76.5559705717
 10
30.3828084002
 20
76.3493120179
 10
30.7910782178
 20
76.1834835315
 10
31.2030981079
 20
76.0604980458
 10
31.6138667071
 20
75.9818484378
 10
32.0183978411
 20
75.9484894074
 10
32.4117810499
 20
75.9608258878
 10
32.7892411942
 20
76.0187081311
 10
33.1461964193
 20
76.1214335251
 10
33.4783137722
 20
76.2677551228
 10
33.7815617981
 20
76.455896778
 10
33.99045989
 20
76.6254814868
  0
LWPOLYLINE
  5
38F
330
1F
100
AcDbEntity
  8
0
  6
Continuous
 62
     7
370
    35
100
AcDbPolyline
 90
       15
 70
   128
 43
0.0
 10
28.818128807
 20
80.962057141
 10
28.8410011477
 20
81.3011191116
 10
28.9092426068
 20
81.6221812698
 10
29.0217326612
 20
81.9199717838
 10
29.1766242275
 20
82.1896009417
 10
29.3713739903
 20
82.42664144
 10
29.6027841641
 20
82.6272010803
 10
29.867055
 20
82.787986679
 10
30.1598471784
 20
82.906358141
 10
30.4763530596
 20
82.98037181
 10
30.811375626
 20
83.0088123837
 10
31.1594138162
 20
82.9912128687
 10
31.5147528528
 20
82.9278622484
 10
31.8715580785
 20
82.8198007385
 10
32.2149888107
 20
82.6732155798
  0
LWPOLYLINE
  5
390
330
1F
100
AcDbEntity
  8
0
  6
Continuous
 62
     7
370
    35
100
AcDbPolyline
 90
       31
 70
   128
 43
0.0
 10
34.0864499908
 20
80.7557950891
 10
34.1140704509
 20
80.694253184
 10
34.2480365089
 20
80.3371410276
 10
34.338588314
 20
79.9778575523
 10
34.3842390081
 20
79.6223021828
 10
34.3842390081
 20
79.2763131285
 10
34.338588314
 20
78.94557152
 10
34.2480365089
 20
78.6355081254
 10
34.1140704509
 20
78.3512141771
 10
33.938889859
 20
78.0973577738
 10
33.7253711937
 20
77.8781072307
 10
33.4770204256
 20
77.6970626356
 10
33.1979154673
 20
77.5571967358
 10
32.8926392147
 20
77.4608061255
 10
32.5662042954
 20
77.4094735358
 10
32.2239707616
 20
77.4040418465
 10
31.8715580785
 20
77.4446002457
 10
31.5147528528
 20
77.5304827657
 10
31.1594138162
 20
77.6602792177
 10
30.811375626
 20
77.8318583478
 10
30.4763530596
 20
78.0424028312
 10
30.1598471784
 20
78.2884555335
 10
29.867055
 20
78.565976276
 10
29.6027841641
 20
78.8704081759
 10
29.3713739903
 20
79.1967524696
 10
29.1766242275
 20
79.5396505931
 10
29.0217326612
 20
79.8934721685
 10
28.9092426068
 20
80.2524074553
 10
28.8410011477
 20
80.6105627462
 10
28.818128807
 20
80.962057141
 10
28.818128807
 20
80.962057141
  0
ARC
  5
391
330
1F
100
AcDbEntity
  8
0
  6
Continuous
 62
     7
370
    35
100
AcDbCircle
 10
33.8745566694
 20
82.4209926989
 30
0.0
 40
5.499670050156451
100
AcDbArc
 50
210.2064480244
 51
238.4036192135
  0
ENDSEC
  0
SECTION
  2
OBJECTS
  0
DICTIONARY
  5
C
330
0
100
AcDbDictionary
281
     1
  3
ACAD_GROUP
350
D
  3
ACAD_LAYOUT
350
1A
  3
ACAD_MLINESTYLE
350
17
  3
ACAD_PLOTSETTINGS
350
19
  3
ACAD_PLOTSTYLENAME
350
E
  3
ACAD_SCALELIST
350
47
  0
DICTIONARY
  5
D
102
{ACAD_REACTORS
330
C
102
}
330
C
100
AcDbDictionary
281
     1
  0
DICTIONARY
  5
1A
102
{ACAD_REACTORS
330
C
102
}
330
C
100
AcDbDictionary
281
     1
  3
Layout1
350
1E
  3
Layout2
350
26
  3
Model
350
22
  0
DICTIONARY
  5
17
102
{ACAD_REACTORS
330
C
102
}
330
C
100
AcDbDictionary
281
     1
  3
Standard
350
18
  0
DICTIONARY
  5
19
102
{ACAD_REACTORS
330
C
102
}
330
C
100
AcDbDictionary
281
     1
  0
ACDBDICTIONARYWDFLT
  5
E
102
{ACAD_REACTORS
330
C
102
}
330
C
100
AcDbDictionary
281
     1
  3
Normal
350
F
100
AcDbDictionaryWithDefault
340
F
  0
DICTIONARY
  5
47
102
{ACAD_REACTORS
330
C
102
}
330
C
100
AcDbDictionary
281
     1
  3
A0
350
48
  3
A1
350
49
  3
A2
350
4A
  3
A3
350
4B
  3
A4
350
4C
  3
A5
350
4D
  3
A6
350
4E
  3
A7
350
4F
  3
A8
350
50
  3
A9
350
51
  3
B0
350
52
  3
B1
350
53
  3
B2
350
54
  3
B3
350
55
  3
B4
350
56
  3
B5
350
57
  3
B6
350
58
  3
B7
350
59
  3
B8
350
5A
  3
B9
350
5B
  3
C0
350
5C
  3
C1
350
5D
  3
C2
350
5E
  3
C3
350
5F
  3
C4
350
60
  3
C5
350
61
  3
C6
350
62
  3
C7
350
63
  3
C8
350
64
  3
C9
350
65
  3
D0
350
66
  3
D1
350
67
  3
D2
350
68
  0
LAYOUT
  5
1E
102
{ACAD_REACTORS
330
1A
102
}
330
1A
100
AcDbPlotSettings
  1

  2
none_device
  4

  6

 40
0.0
 41
0.0
 42
0.0
 43
0.0
 44
0.0
 45
0.0
 46
0.0
 47
0.0
 48
0.0
 49
0.0
140
0.0
141
0.0
142
1.0
143
1.0
 70
   688
 72
     1
 73
     0
 74
     5
  7

 75
    16
147
1.0
148
0.0
149
0.0
100
AcDbLayout
  1
Layout1
 70
     1
 71
     1
 10
0.0
 20
0.0
 11
420.0
 21
297.0
 12
0.0
 22
0.0
 32
0.0
 14
1.0000000000E+20
 24
1.0000000000E+20
 34
1.0000000000E+20
 15
-1.0000000000E+20
 25
-1.0000000000E+20
 35
-1.0000000000E+20
146
0.0
 13
0.0
 23
0.0
 33
0.0
 16
1.0
 26
0.0
 36
0.0
 17
0.0
 27
1.0
 37
0.0
 76
     0
330
1B
  0
LAYOUT
  5
26
102
{ACAD_REACTORS
330
1A
102
}
330
1A
100
AcDbPlotSettings
  1

  2
none_device
  4

  6

 40
0.0
 41
0.0
 42
0.0
 43
0.0
 44
0.0
 45
0.0
 46
0.0
 47
0.0
 48
0.0
 49
0.0
140
0.0
141
0.0
142
1.0
143
1.0
 70
   688
 72
     1
 73
     0
 74
     5
  7

 75
    16
147
1.0
148
0.0
149
0.0
100
AcDbLayout
  1
Layout2
 70
     1
 71
     2
 10
0.0
 20
0.0
 11
0.0
 21
0.0
 12
0.0
 22
0.0
 32
0.0
 14
0.0
 24
0.0
 34
0.0
 15
0.0
 25
0.0
 35
0.0
146
0.0
 13
0.0
 23
0.0
 33
0.0
 16
1.0
 26
0.0
 36
0.0
 17
0.0
 27
1.0
 37
0.0
 76
     0
330
23
  0
LAYOUT
  5
22
102
{ACAD_REACTORS
330
1A
102
}
330
1A
100
AcDbPlotSettings
  1

  2
none_device
  4
Letter_(8.50_x_11.00_Inches)
  6

 40
6.35
 41
6.35
 42
6.35000508
 43
6.35000508
 44
215.9
 45
279.4
 46
0.0
 47
0.0
 48
0.0
 49
0.0
140
0.0
141
0.0
142
1.0
143
1.0
 70
  1712
 72
     1
 73
     0
 74
     0
  7

 75
     0
147
1.0
148
0.0
149
0.0
100
AcDbLayout
  1
Model
 70
     1
 71
     0
 10
0.0
 20
0.0
 11
420.0
 21
297.0
 12
0.0
 22
0.0
 32
0.0
 14
0.0
 24
0.0
 34
0.0
 15
420.0
 25
297.0
 35
0.0
146
0.0
 13
0.0
 23
0.0
 33
0.0
 16
1.0
 26
0.0
 36
0.0
 17
0.0
 27
1.0
 37
0.0
 76
     0
330
1F
331
29
  0
MLINESTYLE
  5
18
102
{ACAD_REACTORS
330
17
102
}
330
17
100
AcDbMlineStyle
  2
Standard
 70
     0
  3

 62
   256
 51
90.0
 52
90.0
 71
     2
 49
0.5
 62
   256
  6
BYLAYER
 49
-0.5
 62
   256
  6
BYLAYER
  0
ACDBPLACEHOLDER
  5
F
102
{ACAD_REACTORS
330
E
102
}
330
E
  0
SCALE
  5
48
102
{ACAD_REACTORS
330
47
102
}
330
47
100
AcDbScale
 70
     0
300
1:1
140
1.0
141
1.0
290
     1
  0
SCALE
  5
49
102
{ACAD_REACTORS
330
47
102
}
330
47
100
AcDbScale
 70
     0
300
1:2
140
1.0
141
2.0
290
     0
  0
SCALE
  5
4A
102
{ACAD_REACTORS
330
47
102
}
330
47
100
AcDbScale
 70
     0
300
1:4
140
1.0
141
4.0
290
     0
  0
SCALE
  5
4B
102
{ACAD_REACTORS
330
47
102
}
330
47
100
AcDbScale
 70
     0
300
1:5
140
1.0
141
5.0
290
     0
  0
SCALE
  5
4C
102
{ACAD_REACTORS
330
47
102
}
330
47
100
AcDbScale
 70
     0
300
1:8
140
1.0
141
8.0
290
     0
  0
SCALE
  5
4D
102
{ACAD_REACTORS
330
47
102
}
330
47
100
AcDbScale
 70
     0
300
1:10
140
1.0
141
10.0
290
     0
  0
SCALE
  5
4E
102
{ACAD_REACTORS
330
47
102
}
330
47
100
AcDbScale
 70
     0
300
1:16
140
1.0
141
16.0
290
     0
  0
SCALE
  5
4F
102
{ACAD_REACTORS
330
47
102
}
330
47
100
AcDbScale
 70
     0
300
1:20
140
1.0
141
20.0
290
     0
  0
SCALE
  5
50
102
{ACAD_REACTORS
330
47
102
}
330
47
100
AcDbScale
 70
     0
300
1:30
140
1.0
141
30.0
290
     0
  0
SCALE
  5
51
102
{ACAD_REACTORS
330
47
102
}
330
47
100
AcDbScale
 70
     0
300
1:40
140
1.0
141
40.0
290
     0
  0
SCALE
  5
52
102
{ACAD_REACTORS
330
47
102
}
330
47
100
AcDbScale
 70
     0
300
1:50
140
1.0
141
50.0
290
     0
  0
SCALE
  5
53
102
{ACAD_REACTORS
330
47
102
}
330
47
100
AcDbScale
 70
     0
300
1:100
140
1.0
141
100.0
290
     0
  0
SCALE
  5
54
102
{ACAD_REACTORS
330
47
102
}
330
47
100
AcDbScale
 70
     0
300
2:1
140
2.0
141
1.0
290
     0
  0
SCALE
  5
55
102
{ACAD_REACTORS
330
47
102
}
330
47
100
AcDbScale
 70
     0
300
4:1
140
4.0
141
1.0
290
     0
  0
SCALE
  5
56
102
{ACAD_REACTORS
330
47
102
}
330
47
100
AcDbScale
 70
     0
300
8:1
140
8.0
141
1.0
290
     0
  0
SCALE
  5
57
102
{ACAD_REACTORS
330
47
102
}
330
47
100
AcDbScale
 70
     0
300
10:1
140
10.0
141
1.0
290
     0
  0
SCALE
  5
58
102
{ACAD_REACTORS
330
47
102
}
330
47
100
AcDbScale
 70
     0
300
100:1
140
100.0
141
1.0
290
     0
  0
SCALE
  5
59
102
{ACAD_REACTORS
330
47
102
}
330
47
100
AcDbScale
 70
     0
300
1/128" = 1'-0"
140
0.0078125
141
12.0
290
     0
  0
SCALE
  5
5A
102
{ACAD_REACTORS
330
47
102
}
330
47
100
AcDbScale
 70
     0
300
1/64" = 1'-0"
140
0.015625
141
12.0
290
     0
  0
SCALE
  5
5B
102
{ACAD_REACTORS
330
47
102
}
330
47
100
AcDbScale
 70
     0
300
1/32" = 1'-0"
140
0.03125
141
12.0
290
     0
  0
SCALE
  5
5C
102
{ACAD_REACTORS
330
47
102
}
330
47
100
AcDbScale
 70
     0
300
1/16" = 1'-0"
140
0.0625
141
12.0
290
     0
  0
SCALE
  5
5D
102
{ACAD_REACTORS
330
47
102
}
330
47
100
AcDbScale
 70
     0
300
3/32" = 1'-0"
140
0.09375
141
12.0
290
     0
  0
SCALE
  5
5E
102
{ACAD_REACTORS
330
47
102
}
330
47
100
AcDbScale
 70
     0
300
1/8" = 1'-0"
140
0.125
141
12.0
290
     0
  0
SCALE
  5
5F
102
{ACAD_REACTORS
330
47
102
}
330
47
100
AcDbScale
 70
     0
300
3/16" = 1'-0"
140
0.1875
141
12.0
290
     0
  0
SCALE
  5
60
102
{ACAD_REACTORS
330
47
102
}
330
47
100
AcDbScale
 70
     0
300
1/4" = 1'-0"
140
0.25
141
12.0
290
     0
  0
SCALE
  5
61
102
{ACAD_REACTORS
330
47
102
}
330
47
100
AcDbScale
 70
     0
300
3/8" = 1'-0"
140
0.375
141
12.0
290
     0
  0
SCALE
  5
62
102
{ACAD_REACTORS
330
47
102
}
330
47
100
AcDbScale
 70
     0
300
1/2" = 1'-0"
140
0.5
141
12.0
290
     0
  0
SCALE
  5
63
102
{ACAD_REACTORS
330
47
102
}
330
47
100
AcDbScale
 70
     0
300
3/4" = 1'-0"
140
0.75
141
12.0
290
     0
  0
SCALE
  5
64
102
{ACAD_REACTORS
330
47
102
}
330
47
100
AcDbScale
 70
     0
300
1" = 1'-0"
140
1.0
141
12.0
290
     0
  0
SCALE
  5
65
102
{ACAD_REACTORS
330
47
102
}
330
47
100
AcDbScale
 70
     0
300
1-1/2" = 1'-0"
140
1.5
141
12.0
290
     0
  0
SCALE
  5
66
102
{ACAD_REACTORS
330
47
102
}
330
47
100
AcDbScale
 70
     0
300
3" = 1'-0"
140
3.0
141
12.0
290
     0
  0
SCALE
  5
67
102
{ACAD_REACTORS
330
47
102
}
330
47
100
AcDbScale
 70
     0
300
6" = 1'-0"
140
6.0
141
12.0
290
     0
  0
SCALE
  5
68
102
{ACAD_REACTORS
330
47
102
}
330
47
100
AcDbScale
 70
     0
300
1'-0" = 1'-0"
140
12.0
141
12.0
290
     0
  0
ENDSEC
  0
EOF
