  0
SECTION
  2
HEADER
  9
$ACADVER
  1
AC1015
  9
$ACADMAINTVER
 70
     6
  9
$DWGCODEPAGE
  3
ANSI_1252
  9
$INSBASE
 10
0.0
 20
0.0
 30
0.0
  9
$EXTMIN
 10
0.0
 20
0.0
 30
0.0
  9
$EXTMAX
 10
420.0
 20
297.0
 30
0.0
  9
$LIMMIN
 10
0.0
 20
0.0
  9
$LIMMAX
 10
420.0
 20
297.0
  9
$ORTHOMODE
 70
     0
  9
$REGENMODE
 70
     1
  9
$FILLMODE
 70
     1
  9
$QTEXTMODE
 70
     0
  9
$MIRRTEXT
 70
     1
  9
$LTSCALE
 40
1.0
  9
$ATTMODE
 70
     1
  9
$TEXTSIZE
 40
3.5
  9
$TRACEWID
 40
1.0
  9
$TEXTSTYLE
  7
Standard
  9
$CLAYER
  8
0
  9
$CELTYPE
  6
ByLayer
  9
$CECOLOR
 62
   256
  9
$CELTSCALE
 40
1.0
  9
$DISPSILH
 70
     0
  9
$DIMSCALE
 40
1.0
  9
$DIMASZ
 40
3.3
  9
$DIMEXO
 40
0.0
  9
$DIMDLI
 40
3.75
  9
$DIMRND
 40
0.0
  9
$DIMDLE
 40
0.0
  9
$DIMEXE
 40
1.0
  9
$DIMTP
 40
0.0
  9
$DIMTM
 40
0.0
  9
$DIMTXT
 40
3.5
  9
$DIMCEN
 40
2.5
  9
$DIMTSZ
 40
0.0
  9
$DIMTOL
 70
     0
  9
$DIMLIM
 70
     0
  9
$DIMTIH
 70
     1
  9
$DIMTOH
 70
     1
  9
$DIMSE1
 70
     0
  9
$DIMSE2
 70
     0
  9
$DIMTAD
 70
     1
  9
$DIMZIN
 70
     0
  9
$DIMBLK
  1

  9
$DIMASO
 70
     1
  9
$DIMSHO
 70
     1
  9
$DIMPOST
  1

  9
$DIMAPOST
  1

  9
$DIMALT
 70
     0
  9
$DIMALTD
 70
     3
  9
$DIMALTF
 40
0.0393700787
  9
$DIMLFAC
 40
1.0
  9
$DIMTOFL
 70
     1
  9
$DIMTVP
 40
0.0
  9
$DIMTIX
 70
     0
  9
$DIMSOXD
 70
     0
  9
$DIMSAH
 70
     0
  9
$DIMBLK1
  1

  9
$DIMBLK2
  1

  9
$DIMSTYLE
  2
ISO-25
  9
$DIMCLRD
 70
     0
  9
$DIMCLRE
 70
     0
  9
$DIMCLRT
 70
     0
  9
$DIMTFAC
 40
1.0
  9
$DIMGAP
 40
1.524
  9
$DIMJUST
 70
     0
  9
$DIMSD1
 70
     0
  9
$DIMSD2
 70
     0
  9
$DIMTOLJ
 70
     0
  9
$DIMTZIN
 70
     0
  9
$DIMALTZ
 70
     0
  9
$DIMALTTZ
 70
     0
  9
$DIMUPT
 70
     0
  9
$DIMDEC
 70
     2
  9
$DIMTDEC
 70
     2
  9
$DIMALTU
 70
     2
  9
$DIMALTTD
 70
     3
  9
$DIMTXSTY
  7
Standard
  9
$DIMAUNIT
 70
     0
  9
$DIMADEC
 70
     2
  9
$DIMALTRND
 40
0.0
  9
$DIMAZIN
 70
     0
  9
$DIMDSEP
 70
    44
  9
$DIMATFIT
 70
     3
  9
$DIMFRAC
 70
     0
  9
$DIMLDRBLK
  1

  9
$DIMLUNIT
 70
     2
  9
$DIMLWD
 70
    -2
  9
$DIMLWE
 70
    -2
  9
$DIMTMOVE
 70
     0
  9
$LUNITS
 70
     2
  9
$LUPREC
 70
     2
  9
$SKETCHINC
 40
1.0
  9
$FILLETRAD
 40
10.0
  9
$AUNITS
 70
     0
  9
$AUPREC
 70
     2
  9
$MENU
  1
.
  9
$ELEVATION
 40
0.0
  9
$PELEVATION
 40
0.0
  9
$THICKNESS
 40
0.0
  9
$LIMCHECK
 70
     0
  9
$CHAMFERA
 40
10.0
  9
$CHAMFERB
 40
10.0
  9
$CHAMFERC
 40
20.0
  9
$CHAMFERD
 40
0.0
  9
$SKPOLY
 70
     0
  9
$TDCREATE
 40
2455616.485662303
  9
$TDUCREATE
 40
2455616.443995636
  9
$TDUPDATE
 40
2455616.485662315
  9
$TDUUPDATE
 40
2455616.443995648
  9
$TDINDWG
 40
0.0000000116
  9
$TDUSRTIMER
 40
0.0000000116
  9
$USRTIMER
 70
     1
  9
$ANGBASE
 50
0.0
  9
$ANGDIR
 70
     0
  9
$PDMODE
 70
     0
  9
$PDSIZE
 40
-1.0
  9
$PLINEWID
 40
0.0
  9
$SPLFRAME
 70
     0
  9
$SPLINETYPE
 70
     6
  9
$SPLINESEGS
 70
     8
  9
$HANDSEED
  5
3AE
  9
$SURFTAB1
 70
     6
  9
$SURFTAB2
 70
     6
  9
$SURFTYPE
 70
     6
  9
$SURFU
 70
     6
  9
$SURFV
 70
     6
  9
$UCSBASE
  2

  9
$UCSNAME
  2

  9
$UCSORG
 10
0.0
 20
0.0
 30
0.0
  9
$UCSXDIR
 10
1.0
 20
0.0
 30
0.0
  9
$UCSYDIR
 10
0.0
 20
1.0
 30
0.0
  9
$UCSORTHOREF
  2

  9
$UCSORTHOVIEW
 70
     0
  9
$UCSORGTOP
 10
0.0
 20
0.0
 30
0.0
  9
$UCSORGBOTTOM
 10
0.0
 20
0.0
 30
0.0
  9
$UCSORGLEFT
 10
0.0
 20
0.0
 30
0.0
  9
$UCSORGRIGHT
 10
0.0
 20
0.0
 30
0.0
  9
$UCSORGFRONT
 10
0.0
 20
0.0
 30
0.0
  9
$UCSORGBACK
 10
0.0
 20
0.0
 30
0.0
  9
$PUCSBASE
  2

  9
$PUCSNAME
  2

  9
$PUCSORG
 10
0.0
 20
0.0
 30
0.0
  9
$PUCSXDIR
 10
1.0
 20
0.0
 30
0.0
  9
$PUCSYDIR
 10
0.0
 20
1.0
 30
0.0
  9
$PUCSORTHOREF
  2

  9
$PUCSORTHOVIEW
 70
     0
  9
$PUCSORGTOP
 10
0.0
 20
0.0
 30
0.0
  9
$PUCSORGBOTTOM
 10
0.0
 20
0.0
 30
0.0
  9
$PUCSORGLEFT
 10
0.0
 20
0.0
 30
0.0
  9
$PUCSORGRIGHT
 10
0.0
 20
0.0
 30
0.0
  9
$PUCSORGFRONT
 10
0.0
 20
0.0
 30
0.0
  9
$PUCSORGBACK
 10
0.0
 20
0.0
 30
0.0
  9
$USERI1
 70
     0
  9
$USERI2
 70
     0
  9
$USERI3
 70
     0
  9
$USERI4
 70
     0
  9
$USERI5
 70
     0
  9
$USERR1
 40
0.0
  9
$USERR2
 40
0.0
  9
$USERR3
 40
0.0
  9
$USERR4
 40
0.0
  9
$USERR5
 40
0.0
  9
$WORLDVIEW
 70
     1
  9
$SHADEDGE
 70
     3
  9
$SHADEDIF
 70
    70
  9
$TILEMODE
 70
     1
  9
$MAXACTVP
 70
    64
  9
$PINSBASE
 10
0.0
 20
0.0
 30
0.0
  9
$PLIMCHECK
 70
     0
  9
$PEXTMIN
 10
1.0000000000E+20
 20
1.0000000000E+20
 30
1.0000000000E+20
  9
$PEXTMAX
 10
-1.0000000000E+20
 20
-1.0000000000E+20
 30
-1.0000000000E+20
  9
$PLIMMIN
 10
0.0
 20
0.0
  9
$PLIMMAX
 10
420.0
 20
297.0
  9
$UNITMODE
 70
     0
  9
$VISRETAIN
 70
     1
  9
$PLINEGEN
 70
     0
  9
$PSLTSCALE
 70
     1
  9
$TREEDEPTH
 70
  3020
  9
$CMLSTYLE
  2
Standard
  9
$CMLJUST
 70
     0
  9
$CMLSCALE
 40
20.0
  9
$PROXYGRAPHICS
 70
     1
  9
$MEASUREMENT
 70
     1
  9
$CELWEIGHT
370
    -1
  9
$ENDCAPS
280
     0
  9
$JOINSTYLE
280
     0
  9
$LWDISPLAY
290
     1
  9
$INSUNITS
 70
     4
  9
$HYPERLINKBASE
  1

  9
$STYLESHEET
  1

  9
$XEDIT
290
     1
  9
$CEPSNTYPE
380
     0
  9
$PSTYLEMODE
290
     1
  9
$FINGERPRINTGUID
  2
{70A37E23-EC3F-45D3-A38B-07E9814FC5B6}
  9
$VERSIONGUID
  2
{FAEB1C32-E019-11D5-929B-00C0DF256EC4}
  9
$EXTNAMES
290
     1
  9
$PSVPSCALE
 40
0.0
  9
$OLESTARTUP
290
     0
  0
ENDSEC
  0
SECTION
  2
CLASSES
  0
CLASS
  1
ACDBDICTIONARYWDFLT
  2
AcDbDictionaryWithDefault
  3
ObjectDBX Classes
 90
        0
280
     0
281
     0
  0
CLASS
  1
VISUALSTYLE
  2
AcDbVisualStyle
  3
ObjectDBX Classes
 90
     4095
280
     0
281
     0
  0
CLASS
  1
DICTIONARYVAR
  2
AcDbDictionaryVar
  3
ObjectDBX Classes
 90
        0
280
     0
281
     0
  0
CLASS
  1
ACDBPLACEHOLDER
  2
AcDbPlaceHolder
  3
ObjectDBX Classes
 90
        0
280
     0
281
     0
  0
CLASS
  1
LAYOUT
  2
AcDbLayout
  3
ObjectDBX Classes
 90
        0
280
     0
281
     0
  0
ENDSEC
  0
SECTION
  2
TABLES
  0
TABLE
  2
VPORT
  5
8
330
0
100
AcDbSymbolTable
 70
     1
  0
VPORT
  5
29
330
8
100
AcDbSymbolTableRecord
100
AcDbViewportTableRecord
  2
*Active
 70
     0
 10
0.0
 20
0.0
 11
1.0
 21
1.0
 12
210.0
 22
148.5
 13
0.0
 23
0.0
 14
10.0
 24
10.0
 15
10.0
 25
10.0
 16
0.0
 26
0.0
 36
1.0
 17
0.0
 27
0.0
 37
0.0
 40
297.0
 41
1.4141414141
 42
50.0
 43
0.0
 44
0.0
 50
0.0
 51
0.0
 71
     0
 72
  2000
 73
     1
 74
     3
 75
     0
 76
     0
 77
     0
 78
     0
281
     0
 65
     1
110
0.0
120
0.0
130
0.0
111
1.0
121
0.0
131
0.0
112
0.0
122
1.0
132
0.0
 79
     0
146
0.0
  0
ENDTAB
  0
TABLE
  2
LTYPE
  5
5
330
0
100
AcDbSymbolTable
 70
     6
  0
LTYPE
  5
14
330
5
100
AcDbSymbolTableRecord
100
AcDbLinetypeTableRecord
  2
ByBlock
 70
     0
  3

 72
    65
 73
     0
 40
0.0
  0
LTYPE
  5
15
330
5
100
AcDbSymbolTableRecord
100
AcDbLinetypeTableRecord
  2
ByLayer
 70
     0
  3

 72
    65
 73
     0
 40
0.0
  0
LTYPE
  5
16
330
5
100
AcDbSymbolTableRecord
100
AcDbLinetypeTableRecord
  2
Continuous
 70
     0
  3
Solid line
 72
    65
 73
     0
 40
0.0
  0
LTYPE
  5
3B
330
5
100
AcDbSymbolTableRecord
100
AcDbLinetypeTableRecord
  2
HIDDEN
 70
     0
  3
Hidden __ __ __ __ __ __ __ __ __ __ __ __ __ __
 72
    65
 73
     2
 40
1.905
 49
1.27
 74
     0
 49
-0.635
 74
     0
  0
LTYPE
  5
3C
330
5
100
AcDbSymbolTableRecord
100
AcDbLinetypeTableRecord
  2
PHANTOM
 70
     0
  3
Phantom ______  __  __  ______  __  __  ______
 72
    65
 73
     6
 40
12.7
 49
6.35
 74
     0
 49
-1.27
 74
     0
 49
1.27
 74
     0
 49
-1.27
 74
     0
 49
1.27
 74
     0
 49
-1.27
 74
     0
  0
LTYPE
  5
3D
330
5
100
AcDbSymbolTableRecord
100
AcDbLinetypeTableRecord
  2
CENTER
 70
     0
  3
Center ____ _ ____ _ ____ _ ____ _ ____ _ ____
 72
    65
 73
     4
 40
10.16
 49
6.35
 74
     0
 49
-1.27
 74
     0
 49
1.27
 74
     0
 49
-1.27
 74
     0
  0
LTYPE
  5
3E
330
5
100
AcDbSymbolTableRecord
100
AcDbLinetypeTableRecord
  2
CENTERX2
 70
     0
  3
Center (2x) ________  __  ________  __  _____
 72
    65
 73
     4
 40
20.32
 49
12.7
 74
     0
 49
-2.54
 74
     0
 49
2.54
 74
     0
 49
-2.54
 74
     0
  0
LTYPE
  5
3F
330
5
100
AcDbSymbolTableRecord
100
AcDbLinetypeTableRecord
  2
DOT2
 70
     0
  3
Dot (.5x) ........................................
 72
    65
 73
     2
 40
0.635
 49
0.0
 74
     0
 49
-0.635
 74
     0
  0
ENDTAB
  0
TABLE
  2
LAYER
  5
2
330
0
100
AcDbSymbolTable
 70
     9
  0
LAYER
  5
10
330
2
100
AcDbSymbolTableRecord
100
AcDbLayerTableRecord
  2
0
 70
     0
 62
     7
  6
Continuous
370
    -3
390
F
  0
LAYER
  5
40
330
2
100
AcDbSymbolTableRecord
100
AcDbLayerTableRecord
  2
VORLAGE_TEXT
 70
     0
 62
     7
  6
Continuous
370
    -3
390
F
  0
LAYER
  5
41
330
2
100
AcDbSymbolTableRecord
100
AcDbLayerTableRecord
  2
VORLAGE_BEMASSUNG
 70
     0
 62
    -5
  6
Continuous
370
    -3
390
F
  0
LAYER
  5
42
330
2
100
AcDbSymbolTableRecord
100
AcDbLayerTableRecord
  2
TEXT
 70
     0
 62
     7
  6
Continuous
370
    -3
390
F
  0
LAYER
  5
43
330
2
100
AcDbSymbolTableRecord
100
AcDbLayerTableRecord
  2
LINIEN-DICK
 70
     0
 62
     7
  6
Continuous
370
    30
390
F
  0
LAYER
  5
44
330
2
100
AcDbSymbolTableRecord
100
AcDbLayerTableRecord
  2
LINIEN-NORMAL
 70
     0
 62
     7
  6
Continuous
370
    15
390
F
  0
LAYER
  5
45
330
2
100
AcDbSymbolTableRecord
100
AcDbLayerTableRecord
  2
LINIEN-DÜNN
 70
     0
 62
     7
  6
Continuous
370
    -3
390
F
  0
LAYER
  5
46
330
2
100
AcDbSymbolTableRecord
100
AcDbLayerTableRecord
  2
TEXT-DEUTSCH
 70
     0
 62
     7
  6
Continuous
370
    -3
390
F
  0
LAYER
  5
47
330
2
100
AcDbSymbolTableRecord
100
AcDbLayerTableRecord
  2
TEXT-ENGLISCH
 70
     0
 62
    -7
  6
Continuous
370
    -3
390
F
  0
ENDTAB
  0
TABLE
  2
STYLE
  5
3
330
0
100
AcDbSymbolTable
 70
     4
  0
STYLE
  5
11
330
3
100
AcDbSymbolTableRecord
100
AcDbTextStyleTableRecord
  2
Standard
 70
     0
 40
0.0
 41
1.0
 50
0.0
 71
     0
 42
2.5
  3
txt
  4

  0
STYLE
  5
13D
330
3
100
AcDbSymbolTableRecord
100
AcDbTextStyleTableRecord
  2
SLDTEXTSTYLE0
 70
     0
 40
0.0
 41
0.7
 50
0.0
 71
     0
 42
0.2
  3
TXT
  4

  0
STYLE
  5
16C
330
3
100
AcDbSymbolTableRecord
100
AcDbTextStyleTableRecord
  2
SLDTEXTSTYLE1
 70
     0
 40
0.0
 41
0.605
 50
0.0
 71
     0
 42
0.2
  3
TXT
  4

  0
STYLE
  5
16E
330
3
100
AcDbSymbolTableRecord
100
AcDbTextStyleTableRecord
  2
SLDTEXTSTYLE2
 70
     0
 40
0.0
 41
0.5525
 50
0.0
 71
     0
 42
0.2
  3
TXT
  4

  0
ENDTAB
  0
TABLE
  2
VIEW
  5
6
330
0
100
AcDbSymbolTable
 70
     0
  0
ENDTAB
  0
TABLE
  2
UCS
  5
7
330
0
100
AcDbSymbolTable
 70
     0
  0
ENDTAB
  0
TABLE
  2
APPID
  5
9
330
0
100
AcDbSymbolTable
 70
     1
  0
APPID
  5
12
330
9
100
AcDbSymbolTableRecord
100
AcDbRegAppTableRecord
  2
ACAD
 70
     0
  0
ENDTAB
  0
TABLE
  2
DIMSTYLE
  5
A
330
0
100
AcDbSymbolTable
 70
     8
100
AcDbDimStyleTable
  0
DIMSTYLE
105
27
330
A
100
AcDbSymbolTableRecord
100
AcDbDimStyleTableRecord
  2
ISO-25
 70
     0
 41
2.5
 42
0.625
 43
3.75
 44
1.25
 73
     0
 74
     0
 77
     1
 78
     8
140
2.5
141
2.5
143
0.0393700787
147
0.625
171
     3
172
     1
271
     2
272
     2
274
     3
278
    44
283
     0
284
     8
340
11
  0
DIMSTYLE
105
1DE
102
{ACAD_REACTORS
330
1DD
330
1F4
330
224
330
22E
330
253
330
282
102
}
330
A
100
AcDbSymbolTableRecord
100
AcDbDimStyleTableRecord
  2
SLDDIMSTYLE0
 70
     0
 41
3.3
 44
0.0
 45
0.000000001
 73
     0
 74
     0
 77
     2
 78
    12
140
3.5
147
0.875
173
     1
271
     2
272
     2
284
    12
340
16C
  0
DIMSTYLE
105
1E7
102
{ACAD_REACTORS
330
1E6
330
1FE
330
246
330
275
102
}
330
A
100
AcDbSymbolTableRecord
100
AcDbDimStyleTableRecord
  2
SLDDIMSTYLE1
 70
     0
 41
3.3
 44
0.0
 45
0.000000001
 48
0.3
 71
     1
 73
     0
 74
     0
 77
     2
 78
    12
140
3.5
147
0.875
173
     1
271
     2
272
     1
284
     8
340
16C
  0
DIMSTYLE
105
20C
102
{ACAD_REACTORS
330
20B
330
28C
330
330
102
}
330
A
100
AcDbSymbolTableRecord
100
AcDbDimStyleTableRecord
  2
SLDDIMSTYLE2
 70
     0
 41
3.3
 44
0.0
 45
0.000000001
 73
     0
 74
     0
 77
     2
 78
    12
140
3.5
147
0.875
173
     1
271
     2
272
     2
284
    12
340
16C
  0
DIMSTYLE
105
219
102
{ACAD_REACTORS
330
218
330
25F
330
26A
102
}
330
A
100
AcDbSymbolTableRecord
100
AcDbDimStyleTableRecord
  2
SLDDIMSTYLE3
 70
     0
 41
3.3
 44
0.0
 45
0.000000001
 47
0.2
 48
0.2
 71
     1
 73
     0
 74
     0
 77
     2
 78
    12
140
3.5
147
0.875
173
     1
271
     2
272
     1
284
     8
340
16C
  0
DIMSTYLE
105
23B
102
{ACAD_REACTORS
330
23A
102
}
330
A
100
AcDbSymbolTableRecord
100
AcDbDimStyleTableRecord
  2
SLDDIMSTYLE4
 70
     0
 41
3.3
 44
0.0
 45
0.000000001
 47
0.1
 48
0.1
 71
     1
 73
     0
 74
     0
 77
     2
 78
    12
140
3.5
147
0.875
173
     1
271
     2
272
     1
284
     8
340
16C
  0
DIMSTYLE
105
297
102
{ACAD_REACTORS
330
296
330
2A4
102
}
330
A
100
AcDbSymbolTableRecord
100
AcDbDimStyleTableRecord
  2
SLDDIMSTYLE5
 70
     0
 41
3.3
 44
0.0
 45
0.000000001
 73
     0
 74
     0
 77
     2
 78
    12
140
3.5
147
0.875
173
     1
271
     2
272
     2
284
    12
340
16C
  0
DIMSTYLE
105
2B2
330
A
100
AcDbSymbolTableRecord
100
AcDbDimStyleTableRecord
  2
SLDDIMSTYLE6
 70
     0
 41
3.3
 44
0.0
 45
0.000000001
140
0.0
146
3.3
147
0.0
173
     1
271
     0
272
     0
340
11
  0
ENDTAB
  0
TABLE
  2
BLOCK_RECORD
  5
1
330
0
100
AcDbSymbolTable
 70
    37
  0
BLOCK_RECORD
  5
1F
330
1
100
AcDbSymbolTableRecord
100
AcDbBlockTableRecord
  2
*Model_Space
340
22
  0
BLOCK_RECORD
  5
1B
330
1
100
AcDbSymbolTableRecord
100
AcDbBlockTableRecord
  2
*Paper_Space
340
1E
  0
BLOCK_RECORD
  5
23
330
1
100
AcDbSymbolTableRecord
100
AcDbBlockTableRecord
  2
*Paper_Space0
340
26
  0
BLOCK_RECORD
  5
48
330
1
100
AcDbSymbolTableRecord
100
AcDbBlockTableRecord
  2
effeff Logo-0015_2
340
0
102
{BLKREFS
331
143
102
}
  0
BLOCK_RECORD
  5
137
330
1
100
AcDbSymbolTableRecord
100
AcDbBlockTableRecord
  2
effeff Logo fuer Schriftkopf
340
0
102
{BLKREFS
331
168
102
}
  0
BLOCK_RECORD
  5
13A
330
1
100
AcDbSymbolTableRecord
100
AcDbBlockTableRecord
  2
SW_NOTE_0
340
0
102
{BLKREFS
331
142
102
}
  0
BLOCK_RECORD
  5
169
330
1
100
AcDbSymbolTableRecord
100
AcDbBlockTableRecord
  2
SW_NOTE_1
340
0
102
{BLKREFS
331
171
102
}
  0
BLOCK_RECORD
  5
174
330
1
100
AcDbSymbolTableRecord
100
AcDbBlockTableRecord
  2
SW_NOTE_2
340
0
102
{BLKREFS
331
179
102
}
  0
BLOCK_RECORD
  5
17D
330
1
100
AcDbSymbolTableRecord
100
AcDbBlockTableRecord
  2
SW_NOTE_3
340
0
102
{BLKREFS
331
182
102
}
  0
BLOCK_RECORD
  5
183
330
1
100
AcDbSymbolTableRecord
100
AcDbBlockTableRecord
  2
SW_NOTE_4
340
0
102
{BLKREFS
331
188
102
}
  0
BLOCK_RECORD
  5
189
330
1
100
AcDbSymbolTableRecord
100
AcDbBlockTableRecord
  2
SW_NOTE_5
340
0
102
{BLKREFS
331
18E
102
}
  0
BLOCK_RECORD
  5
18F
330
1
100
AcDbSymbolTableRecord
100
AcDbBlockTableRecord
  2
SW_NOTE_6
340
0
102
{BLKREFS
331
194
102
}
  0
BLOCK_RECORD
  5
195
330
1
100
AcDbSymbolTableRecord
100
AcDbBlockTableRecord
  2
SW_NOTE_7
340
0
102
{BLKREFS
331
19A
102
}
  0
BLOCK_RECORD
  5
19B
330
1
100
AcDbSymbolTableRecord
100
AcDbBlockTableRecord
  2
SW_NOTE_8
340
0
102
{BLKREFS
331
1A0
102
}
  0
BLOCK_RECORD
  5
1A1
330
1
100
AcDbSymbolTableRecord
100
AcDbBlockTableRecord
  2
SW_NOTE_9
340
0
102
{BLKREFS
331
1A6
102
}
  0
BLOCK_RECORD
  5
1B5
330
1
100
AcDbSymbolTableRecord
100
AcDbBlockTableRecord
  2
SW_NOTE_10
340
0
102
{BLKREFS
331
1BA
102
}
  0
BLOCK_RECORD
  5
1DF
330
1
100
AcDbSymbolTableRecord
100
AcDbBlockTableRecord
  2
*D14
340
0
  0
BLOCK_RECORD
  5
1E8
330
1
100
AcDbSymbolTableRecord
100
AcDbBlockTableRecord
  2
*D15
340
0
  0
BLOCK_RECORD
  5
1F5
330
1
100
AcDbSymbolTableRecord
100
AcDbBlockTableRecord
  2
*D16
340
0
  0
BLOCK_RECORD
  5
1FF
330
1
100
AcDbSymbolTableRecord
100
AcDbBlockTableRecord
  2
*D17
340
0
  0
BLOCK_RECORD
  5
20D
330
1
100
AcDbSymbolTableRecord
100
AcDbBlockTableRecord
  2
*D18
340
0
  0
BLOCK_RECORD
  5
21A
330
1
100
AcDbSymbolTableRecord
100
AcDbBlockTableRecord
  2
*D19
340
0
  0
BLOCK_RECORD
  5
225
330
1
100
AcDbSymbolTableRecord
100
AcDbBlockTableRecord
  2
*D20
340
0
  0
BLOCK_RECORD
  5
22F
330
1
100
AcDbSymbolTableRecord
100
AcDbBlockTableRecord
  2
*D21
340
0
  0
BLOCK_RECORD
  5
23C
330
1
100
AcDbSymbolTableRecord
100
AcDbBlockTableRecord
  2
*D22
340
0
  0
BLOCK_RECORD
  5
247
330
1
100
AcDbSymbolTableRecord
100
AcDbBlockTableRecord
  2
*D23
340
0
  0
BLOCK_RECORD
  5
254
330
1
100
AcDbSymbolTableRecord
100
AcDbBlockTableRecord
  2
*D24
340
0
  0
BLOCK_RECORD
  5
260
330
1
100
AcDbSymbolTableRecord
100
AcDbBlockTableRecord
  2
*D25
340
0
  0
BLOCK_RECORD
  5
26B
330
1
100
AcDbSymbolTableRecord
100
AcDbBlockTableRecord
  2
*D26
340
0
  0
BLOCK_RECORD
  5
276
330
1
100
AcDbSymbolTableRecord
100
AcDbBlockTableRecord
  2
*D27
340
0
  0
BLOCK_RECORD
  5
283
330
1
100
AcDbSymbolTableRecord
100
AcDbBlockTableRecord
  2
*D28
340
0
  0
BLOCK_RECORD
  5
28D
330
1
100
AcDbSymbolTableRecord
100
AcDbBlockTableRecord
  2
*D29
340
0
  0
BLOCK_RECORD
  5
298
330
1
100
AcDbSymbolTableRecord
100
AcDbBlockTableRecord
  2
*D30
340
0
  0
BLOCK_RECORD
  5
2A5
330
1
100
AcDbSymbolTableRecord
100
AcDbBlockTableRecord
  2
*D31
340
0
  0
BLOCK_RECORD
  5
2B4
330
1
100
AcDbSymbolTableRecord
100
AcDbBlockTableRecord
  2
SW_CENTERMARKSYMBOL_0
340
0
102
{BLKREFS
331
2BF
102
}
  0
BLOCK_RECORD
  5
2C0
330
1
100
AcDbSymbolTableRecord
100
AcDbBlockTableRecord
  2
SW_CENTERMARKSYMBOL_1
340
0
102
{BLKREFS
331
2CB
102
}
  0
BLOCK_RECORD
  5
2CC
330
1
100
AcDbSymbolTableRecord
100
AcDbBlockTableRecord
  2
SW_CENTERMARKSYMBOL_2
340
0
102
{BLKREFS
331
2D7
102
}
  0
BLOCK_RECORD
  5
2D8
330
1
100
AcDbSymbolTableRecord
100
AcDbBlockTableRecord
  2
SW_CENTERMARKSYMBOL_3
340
0
102
{BLKREFS
331
2E3
102
}
  0
BLOCK_RECORD
  5
331
330
1
100
AcDbSymbolTableRecord
100
AcDbBlockTableRecord
  2
*D36
340
0
  0
ENDTAB
  0
ENDSEC
  0
SECTION
  2
BLOCKS
  0
BLOCK
  5
20
330
1F
100
AcDbEntity
  8
0
100
AcDbBlockBegin
  2
*Model_Space
 70
     0
 10
0.0
 20
0.0
 30
0.0
  3
*Model_Space
  1

  0
ENDBLK
  5
21
330
1F
100
AcDbEntity
  8
0
100
AcDbBlockEnd
  0
BLOCK
  5
1C
330
1B
100
AcDbEntity
 67
     1
  8
0
100
AcDbBlockBegin
  2
*Paper_Space
 70
     0
 10
0.0
 20
0.0
 30
0.0
  3
*Paper_Space
  1

  0
ENDBLK
  5
1D
330
1B
100
AcDbEntity
 67
     1
  8
0
100
AcDbBlockEnd
  0
BLOCK
  5
24
330
23
100
AcDbEntity
  8
0
100
AcDbBlockBegin
  2
*Paper_Space0
 70
     0
 10
0.0
 20
0.0
 30
0.0
  3
*Paper_Space0
  1

  0
ENDBLK
  5
25
330
23
100
AcDbEntity
  8
0
100
AcDbBlockEnd
  0
BLOCK
  5
49
330
48
100
AcDbEntity
  8
0
100
AcDbBlockBegin
  2
effeff Logo-0015_2
 70
     0
 10
0.0
 20
0.0
 30
0.0
  3
effeff Logo-0015_2
  1

  0
ARC
  5
4B
330
48
100
AcDbEntity
  8
0
  6
Continuous
 62
     7
100
AcDbCircle
 10
515.3784714
 20
1868.8337909
 30
0.0
 40
17.50844250400025
100
AcDbArc
 50
14.042087
 51
119.12115
  0
ARC
  5
4C
330
48
100
AcDbEntity
  8
0
  6
Continuous
 62
     7
100
AcDbCircle
 10
483.7045163087
 20
2006.1601609315
 30
0.0
 40
38.09999730848463
100
AcDbArc
 50
294.9922136483
 51
359.3292419917
  0
ARC
  5
4D
330
48
100
AcDbEntity
  8
0
  6
Continuous
 62
     7
100
AcDbCircle
 10
643.0589882
 20
1915.0686489
 30
0.0
 40
32.43300600000046
100
AcDbArc
 50
109.81992
 51
294.69529
  0
ARC
  5
4E
330
48
100
AcDbEntity
  8
0
  6
Continuous
 62
     7
100
AcDbCircle
 10
794.1722496
 20
2333.3101289
 30
0.0
 40
101.5999999999999
100
AcDbArc
 50
359.90917
 51
114.3759
  0
ARC
  5
4F
330
48
100
AcDbEntity
  8
0
  6
Continuous
 62
     7
100
AcDbCircle
 10
651.5630098
 20
2240.8061229
 30
0.0
 40
127.0000000000007
100
AcDbArc
 50
114.3759
 51
179.32923
  0
ARC
  5
50
330
48
100
AcDbEntity
  8
0
  6
Continuous
 62
     7
100
AcDbCircle
 10
681.4108292
 20
2215.3797069
 30
0.0
 40
77.14394782000088
100
AcDbArc
 50
114.7393
 51
175.97808
  0
ARC
  5
51
330
48
100
AcDbEntity
  8
0
  6
Continuous
 62
     7
100
AcDbCircle
 10
797.635311
 20
2133.9686429
 30
0.0
 40
19.05000000000007
100
AcDbArc
 50
295.35791
 51
0.0
  0
ARC
  5
52
330
48
100
AcDbEntity
  8
0
  6
Continuous
 62
     7
100
AcDbCircle
 10
658.6788706
 20
1939.1668989
 30
0.0
 40
142.5542742000001
100
AcDbArc
 50
207.77528
 51
296.18968
  0
ARC
  5
53
330
48
100
AcDbEntity
  8
0
  6
Continuous
 62
     7
100
AcDbCircle
 10
1060.486957
 20
2441.7787969
 30
0.0
 40
35.71956788000017
100
AcDbArc
 50
287.70296
 51
1.02601
  0
ARC
  5
54
330
48
100
AcDbEntity
  8
0
  6
Continuous
 62
     7
100
AcDbCircle
 10
1258.6232638
 20
2785.4504489
 30
0.0
 40
42.76302090000011
100
AcDbArc
 50
281.08067
 51
84.3963
  0
ARC
  5
55
330
48
100
AcDbEntity
  8
0
  6
Continuous
 62
     7
100
AcDbCircle
 10
1253.5129616
 20
2681.0315569
 30
0.0
 40
147.2705004799994
100
AcDbArc
 50
86.384874
 51
170.97251
  0
ARC
  5
56
330
48
100
AcDbEntity
  8
0
  6
Continuous
 62
     7
100
AcDbCircle
 10
1269.7362718
 20
2650.3145749
 30
0.0
 40
93.21482753999962
100
AcDbArc
 50
91.779404
 51
182.92195
  0
ARC
  5
57
330
48
100
AcDbEntity
  8
0
  6
Continuous
 62
     7
100
AcDbCircle
 10
1525.8716498
 20
2789.8098509
 30
0.0
 40
164.2260367999999
100
AcDbArc
 50
91.783522
 51
177.30533
  0
ARC
  5
58
330
48
100
AcDbEntity
  8
0
  6
Continuous
 62
     7
100
AcDbCircle
 10
1519.8183218
 20
2908.1235589
 30
0.0
 40
45.84234672000006
100
AcDbArc
 50
272.72508
 51
88.82243
  0
ARC
  5
59
330
48
100
AcDbEntity
  8
0
  6
Continuous
 62
     7
100
AcDbCircle
 10
1523.8810518
 20
2784.6320609
 30
0.0
 40
77.72382982000023
100
AcDbArc
 50
91.388437
 51
181.80322
  0
ARC
  5
5A
330
48
100
AcDbEntity
  8
0
  6
Continuous
 62
     7
100
AcDbCircle
 10
1615.5074878
 20
2618.8203529
 30
0.0
 40
39.90822600000038
100
AcDbArc
 50
295.29521
 51
125.42294
  0
ARC
  5
5B
330
48
100
AcDbEntity
  8
0
  6
Continuous
 62
     7
100
AcDbCircle
 10
1008.9957722
 20
1626.0628769
 30
0.0
 40
94.74884022000018
100
AcDbArc
 50
251.71354
 51
299.26417
  0
ARC
  5
5C
330
48
100
AcDbEntity
  8
0
  6
Continuous
 62
     7
100
AcDbCircle
 10
959.2877182
 20
1740.4014849
 30
0.0
 40
219.1524699999996
100
AcDbArc
 50
291.00666
 51
357.16247
  0
ARC
  5
5D
330
48
100
AcDbEntity
  8
0
  6
Continuous
 62
     7
100
AcDbCircle
 10
1228.0315546
 20
1866.1142129
 30
0.0
 40
220.0308782000004
100
AcDbArc
 50
286.42885
 51
355.30262
  0
ARC
  5
5E
330
48
100
AcDbEntity
  8
0
  6
Continuous
 62
     7
100
AcDbCircle
 10
998.211618
 20
1576.0497689
 30
0.0
 40
44.0827109200002
100
AcDbArc
 50
103.02671
 51
269.56768
  0
ARC
  5
5F
330
48
100
AcDbEntity
  8
0
  6
Continuous
 62
     7
100
AcDbCircle
 10
980.6189684
 20
1732.0931449
 30
0.0
 40
113.3538068200005
100
AcDbArc
 50
273.87284
 51
1.52447
  0
ARC
  5
60
330
48
100
AcDbEntity
  8
0
  6
Continuous
 62
     7
100
AcDbCircle
 10
1943.0120398
 20
2351.6001609
 30
0.0
 40
123.1210974200003
100
AcDbArc
 50
200.58087
 51
290.78248
  0
ARC
  5
61
330
48
100
AcDbEntity
  8
0
  6
Continuous
 62
     7
100
AcDbCircle
 10
1972.1290758
 20
2651.2973009
 30
0.0
 40
80.10880599999973
100
AcDbArc
 50
114.61159
 51
180.35762
  0
ARC
  5
62
330
48
100
AcDbEntity
  8
0
  6
Continuous
 62
     7
100
AcDbCircle
 10
2079.4783658
 20
2760.2556809
 30
0.0
 40
25.76079683999982
100
AcDbArc
 50
357.28465
 51
113.30025
  0
ARC
  5
63
330
48
100
AcDbEntity
  8
0
  6
Continuous
 62
     7
100
AcDbCircle
 10
1979.5186978
 20
2658.8764069
 30
0.0
 40
168.1565039199998
100
AcDbArc
 50
112.41504
 51
183.43965
  0
ARC
  5
64
330
48
100
AcDbEntity
  8
0
  6
Continuous
 62
     7
100
AcDbCircle
 10
2079.3511118
 20
2772.1832669
 30
0.0
 40
101.8349499999999
100
AcDbArc
 50
0.0
 51
106.97704
  0
ARC
  5
65
330
48
100
AcDbEntity
  8
0
  6
Continuous
 62
     7
100
AcDbCircle
 10
2133.6657098
 20
2533.8004569
 30
0.0
 40
48.40960600000044
100
AcDbArc
 50
295.94359
 51
0.42713
  0
ARC
  5
66
330
48
100
AcDbEntity
  8
0
  6
Continuous
 62
     7
100
AcDbCircle
 10
2270.5323398
 20
2756.3854829
 30
0.0
 40
40.07551294000061
100
AcDbArc
 50
113.66313
 51
294.00122
  0
ARC
  5
67
330
48
100
AcDbEntity
  8
0
  6
Continuous
 62
     7
100
AcDbCircle
 10
2557.3064678
 20
3078.8290849
 30
0.0
 40
184.5383660000001
100
AcDbArc
 50
96.428599
 51
180.0
  0
ARC
  5
68
330
48
100
AcDbEntity
  8
0
  6
Continuous
 62
     7
100
AcDbCircle
 10
2543.0174438
 20
3218.4876829
 30
0.0
 40
44.18166678000085
100
AcDbArc
 50
272.34792
 51
98.29338
  0
ARC
  5
69
330
48
100
AcDbEntity
  8
0
  6
Continuous
 62
     7
100
AcDbCircle
 10
2552.7387858
 20
3084.7701449
 30
0.0
 40
90.0619661799995
100
AcDbArc
 50
95.043217
 51
180.0
  0
ARC
  5
6A
330
48
100
AcDbEntity
  8
0
  6
Continuous
 62
     7
100
AcDbCircle
 10
2825.4705238
 20
3212.8046869
 30
0.0
 40
178.16516818
100
AcDbArc
 50
94.705414
 51
178.23325
  0
ARC
  5
6B
330
48
100
AcDbEntity
  8
0
  6
Continuous
 62
     7
100
AcDbCircle
 10
2811.8741578
 20
3346.5024129
 30
0.0
 40
43.87863208000022
100
AcDbArc
 50
290.29752
 51
91.33061
  0
ARC
  5
6C
330
48
100
AcDbEntity
  8
0
  6
Continuous
 62
     7
100
AcDbCircle
 10
2832.4346958
 20
3200.9238369
 30
0.0
 40
104.6670779400006
100
AcDbArc
 50
103.33264
 51
180.0
  0
ARC
  5
6D
330
48
100
AcDbEntity
  8
0
  6
Continuous
 62
     7
100
AcDbCircle
 10
2896.5221978
 20
3044.7227269
 30
0.0
 40
37.94099599999992
100
AcDbArc
 50
294.19729
 51
111.34859
  0
ARC
  5
6E
330
48
100
AcDbEntity
  8
0
  6
Continuous
 62
     7
100
AcDbCircle
 10
2237.7676098
 20
2182.2098469
 30
0.0
 40
143.5912469799999
100
AcDbArc
 50
279.16205
 51
358.88757
  0
ARC
  5
6F
330
48
100
AcDbEntity
  8
0
  6
Continuous
 62
     7
100
AcDbCircle
 10
2241.3982858
 20
2174.7833949
 30
0.0
 40
221.16562066
100
AcDbArc
 50
286.92178
 51
6.06447
  0
ARC
  5
70
330
48
100
AcDbEntity
  8
0
  6
Continuous
 62
     7
100
AcDbCircle
 10
2290.3857418
 20
2006.0196989
 30
0.0
 40
45.50614724000062
100
AcDbArc
 50
130.83302
 51
289.76215
  0
ARC
  5
71
330
48
100
AcDbEntity
  8
0
  6
Continuous
 62
     7
100
AcDbCircle
 10
2554.5663158
 20
2135.6331049
 30
0.0
 40
41.07687999999993
100
AcDbArc
 50
92.959037
 51
252.07449
  0
ARC
  5
72
330
48
100
AcDbEntity
  8
0
  6
Continuous
 62
     7
100
AcDbCircle
 10
2524.1190818
 20
2298.4867289
 30
0.0
 40
125.0812839999999
100
AcDbArc
 50
278.0904
 51
0.0
  0
ARC
  5
73
330
48
100
AcDbEntity
  8
0
  6
Continuous
 62
     7
100
AcDbCircle
 10
2489.5974338
 20
2311.4727329
 30
0.0
 40
240.0881660000007
100
AcDbArc
 50
293.25446
 51
355.30477
  0
ARC
  5
74
330
48
100
AcDbEntity
  8
0
  6
Continuous
 62
     7
100
AcDbCircle
 10
2572.3099938
 20
2162.3920049
 30
0.0
 40
72.51559283999994
100
AcDbArc
 50
227.67709
 51
279.58748
  0
ARC
  5
75
330
48
100
AcDbEntity
  8
0
  6
Continuous
 62
     7
100
AcDbCircle
 10
1811.1037438
 20
2302.0693989
 30
0.0
 40
17.77999999999994
100
AcDbArc
 50
20.580869
 51
114.22398
  0
ARC
  5
76
330
48
100
AcDbEntity
  8
0
  6
Continuous
 62
     7
100
AcDbCircle
 10
791.285311
 20
2327.7018089
 30
0.0
 40
25.40000000000041
100
AcDbArc
 50
0.0
 51
116.41669
  0
ARC
  5
77
330
48
100
AcDbEntity
  8
0
  6
Continuous
 62
     7
100
AcDbCircle
 10
1938.2444598
 20
2345.4739349
 30
0.0
 40
33.02000000000029
100
AcDbArc
 50
116.48141
 51
294.93437
  0
ARC
  5
78
330
48
100
AcDbEntity
  8
0
  6
Continuous
 62
     7
100
AcDbCircle
 10
1775.7301798
 20
2441.4435169
 30
0.0
 40
38.10000000000028
100
AcDbArc
 50
295.31863
 51
0.5988
  0
ARC
  5
79
330
48
100
AcDbEntity
  8
0
  6
Continuous
 62
     7
100
AcDbCircle
 10
985.9921352
 20
2325.6891129
 30
0.0
 40
40.64000000000044
100
AcDbArc
 50
113.79896
 51
292.78069
  0
ARC
  5
7A
330
48
100
AcDbEntity
  8
0
  6
Continuous
 62
     7
100
AcDbCircle
 10
1273.3677098
 20
1700.5333909
 30
0.0
 40
48.50378666000036
100
AcDbArc
 50
104.6236
 51
290.38355
  0
ARC
  5
7B
330
48
100
AcDbEntity
  8
0
  6
Continuous
 62
     7
100
AcDbCircle
 10
1223.5584368
 20
1884.9511069
 30
0.0
 40
142.5040761800002
100
AcDbArc
 50
285.03861
 51
359.88519
  0
ARC
  5
7C
330
48
100
AcDbEntity
  8
0
  6
Continuous
 62
     7
100
AcDbCircle
 10
2347.3978198
 20
2878.5897089
 30
0.0
 40
35.56000000000034
100
AcDbArc
 50
296.25486
 51
2.92638
  0
LINE
  5
7D
330
48
100
AcDbEntity
  8
0
  6
Continuous
 62
     7
100
AcDbLine
 10
203.7813552
 20
987.5165289
 30
0.0
 11
3194.4123818
 21
987.5165289
 31
0.0
  0
LINE
  5
7E
330
48
100
AcDbEntity
  8
0
  6
Continuous
 62
     7
100
AcDbLine
 10
0.0
 20
650.4387169
 30
0.0
 11
3309.9028798
 21
652.3208569
 31
0.0
  0
LINE
  5
7F
330
48
100
AcDbEntity
  8
0
  6
Continuous
 62
     7
100
AcDbLine
 10
203.7813552
 20
3978.0302329
 30
0.0
 11
3194.4123818
 21
3978.0302329
 31
0.0
  0
LINE
  5
80
330
48
100
AcDbEntity
  8
0
  6
Continuous
 62
     7
100
AcDbLine
 10
301.56404
 20
3876.2112849
 30
0.0
 11
3101.6236418
 21
3876.2112849
 31
0.0
  0
LINE
  5
81
330
48
100
AcDbEntity
  8
0
  6
Continuous
 62
     7
100
AcDbLine
 10
301.56404
 20
1087.6021809
 30
0.0
 11
3101.6236418
 21
1087.6021809
 31
0.0
  0
LINE
  5
82
330
48
100
AcDbEntity
  8
0
  6
Continuous
 62
     7
100
AcDbLine
 10
3194.4123818
 20
987.5165289
 30
0.0
 11
3194.4123818
 21
3978.0302329
 31
0.0
  0
LINE
  5
83
330
48
100
AcDbEntity
  8
0
  6
Continuous
 62
     7
100
AcDbLine
 10
301.56404
 20
3876.2112849
 30
0.0
 11
301.56404
 21
1087.6021809
 31
0.0
  0
LINE
  5
84
330
48
100
AcDbEntity
  8
0
  6
Continuous
 62
     7
100
AcDbLine
 10
203.7813552
 20
3978.0302329
 30
0.0
 11
203.7813552
 21
987.5165289
 31
0.0
  0
LINE
  5
85
330
48
100
AcDbEntity
  8
0
  6
Continuous
 62
     7
100
AcDbLine
 10
301.56404
 20
1879.2208669
 30
0.0
 11
499.8015658
 21
1971.6278449
 31
0.0
  0
LINE
  5
86
330
48
100
AcDbEntity
  8
0
  6
Continuous
 62
     7
100
AcDbLine
 10
301.56404
 20
1788.8408089
 30
0.0
 11
506.8578382
 21
1884.1291629
 31
0.0
  0
LINE
  5
87
330
48
100
AcDbEntity
  8
0
  6
Continuous
 62
     7
100
AcDbLine
 10
521.8019028
 20
2005.7141369
 30
0.0
 11
524.5716966
 21
2242.2930389
 31
0.0
  0
LINE
  5
88
330
48
100
AcDbEntity
  8
0
  6
Continuous
 62
     7
100
AcDbLine
 10
599.147392
 20
2356.4850889
 30
0.0
 11
752.2397706
 21
2425.8532509
 31
0.0
  0
LINE
  5
89
330
48
100
AcDbEntity
  8
0
  6
Continuous
 62
     7
100
AcDbLine
 10
895.7721226
 20
2333.1490929
 30
0.0
 11
895.375908
 21
2083.2143629
 31
0.0
  0
LINE
  5
8A
330
48
100
AcDbEntity
  8
0
  6
Continuous
 62
     7
100
AcDbLine
 10
607.3407716
 20
2022.7003869
 30
0.0
 11
805.7938926
 21
2116.7543009
 31
0.0
  0
LINE
  5
8B
330
48
100
AcDbEntity
  8
0
  6
Continuous
 62
     7
100
AcDbLine
 10
816.685311
 20
2133.9686429
 30
0.0
 11
816.685311
 21
2327.7018089
 31
0.0
  0
LINE
  5
8C
330
48
100
AcDbEntity
  8
0
  6
Continuous
 62
     7
100
AcDbLine
 10
604.456881
 20
2220.7906689
 30
0.0
 11
607.3407716
 21
2022.7003869
 31
0.0
  0
LINE
  5
8D
330
48
100
AcDbEntity
  8
0
  6
Continuous
 62
     7
100
AcDbLine
 10
649.126845
 20
2285.4435749
 30
0.0
 11
779.9849526
 21
2350.4495409
 31
0.0
  0
LINE
  5
8E
330
48
100
AcDbEntity
  8
0
  6
Continuous
 62
     7
100
AcDbLine
 10
880.6118278
 20
2060.1887549
 30
0.0
 11
626.9948598
 21
1943.2441069
 31
0.0
  0
LINE
  5
8F
330
48
100
AcDbEntity
  8
0
  6
Continuous
 62
     7
100
AcDbLine
 10
656.5043766
 20
1885.5541029
 30
0.0
 11
1096.5434254
 21
2086.9585769
 31
0.0
  0
LINE
  5
90
330
48
100
AcDbEntity
  8
0
  6
Continuous
 62
     7
100
AcDbLine
 10
719.6132674
 20
1810.2921249
 30
0.0
 11
1093.932661
 21
1990.8236409
 31
0.0
  0
LINE
  5
91
330
48
100
AcDbEntity
  8
0
  6
Continuous
 62
     7
100
AcDbLine
 10
1093.932661
 20
1990.8236409
 30
0.0
 11
1093.932661
 21
1729.2343749
 31
0.0
  0
LINE
  5
92
330
48
100
AcDbEntity
  8
0
  6
Continuous
 62
     7
100
AcDbLine
 10
1178.1714816
 20
2031.9955169
 30
0.0
 11
1178.1714816
 21
1729.5523829
 31
0.0
  0
LINE
  5
93
330
48
100
AcDbEntity
  8
0
  6
Continuous
 62
     7
100
AcDbLine
 10
1096.5434254
 20
2086.9585769
 30
0.0
 11
1095.8872164
 21
2331.9474189
 31
0.0
  0
LINE
  5
94
330
48
100
AcDbEntity
  8
0
  6
Continuous
 62
     7
100
AcDbLine
 10
1176.3572358
 20
2370.2450309
 30
0.0
 11
1177.0405466
 21
2119.3801529
 31
0.0
  0
LINE
  5
95
330
48
100
AcDbEntity
  8
0
  6
Continuous
 62
     7
100
AcDbLine
 10
1177.0405466
 20
2119.3801529
 30
0.0
 11
1366.0622158
 21
2205.0970249
 31
0.0
  0
LINE
  5
96
330
48
100
AcDbEntity
  8
0
  6
Continuous
 62
     7
100
AcDbLine
 10
1176.3572358
 20
2370.2450309
 30
0.0
 11
1360.6250918
 21
2455.3980229
 31
0.0
  0
LINE
  5
97
330
48
100
AcDbEntity
  8
0
  6
Continuous
 62
     7
100
AcDbLine
 10
969.5927268
 20
2362.8731889
 30
0.0
 11
1071.348632
 21
2407.7506709
 31
0.0
  0
LINE
  5
98
330
48
100
AcDbEntity
  8
0
  6
Continuous
 62
     7
100
AcDbLine
 10
1096.2007794
 20
2442.4183689
 30
0.0
 11
1108.0666688
 21
2704.1394609
 31
0.0
  0
LINE
  5
99
330
48
100
AcDbEntity
  8
0
  6
Continuous
 62
     7
100
AcDbLine
 10
1171.2905708
 20
2455.3228389
 30
0.0
 11
1176.6427572
 21
2645.5629969
 31
0.0
  0
LINE
  5
9A
330
48
100
AcDbEntity
  8
0
  6
Continuous
 62
     7
100
AcDbLine
 10
1171.2905708
 20
2455.3228389
 30
0.0
 11
1361.5643838
 21
2544.7288069
 31
0.0
  0
LINE
  5
9B
330
48
100
AcDbEntity
  8
0
  6
Continuous
 62
     7
100
AcDbLine
 10
1361.5643838
 20
2544.7288069
 30
0.0
 11
1361.5643838
 21
2797.5306889
 31
0.0
  0
LINE
  5
9C
330
48
100
AcDbEntity
  8
0
  6
Continuous
 62
     7
100
AcDbLine
 10
1440.1207418
 20
2583.8707149
 30
0.0
 11
1446.1959138
 21
2782.1865489
 31
0.0
  0
LINE
  5
9D
330
48
100
AcDbEntity
  8
0
  6
Continuous
 62
     7
100
AcDbLine
 10
1360.6250918
 20
2455.3980229
 30
0.0
 11
1366.0622158
 21
2205.0970249
 31
0.0
  0
LINE
  5
9E
330
48
100
AcDbEntity
  8
0
  6
Continuous
 62
     7
100
AcDbLine
 10
1178.1714816
 20
2031.9955169
 30
0.0
 11
1366.0622158
 21
2113.7154449
 31
0.0
  0
LINE
  5
9F
330
48
100
AcDbEntity
  8
0
  6
Continuous
 62
     7
100
AcDbLine
 10
1443.1270858
 20
2241.9417569
 30
0.0
 11
1792.0235178
 21
2407.0031489
 31
0.0
  0
LINE
  5
A0
330
48
100
AcDbEntity
  8
0
  6
Continuous
 62
     7
100
AcDbLine
 10
1813.8281478
 20
2441.8415349
 30
0.0
 11
1811.6650838
 21
2648.7875269
 31
0.0
  0
LINE
  5
A1
330
48
100
AcDbEntity
  8
0
  6
Continuous
 62
     7
100
AcDbLine
 10
1893.2547098
 20
2453.2458809
 30
0.0
 11
2104.8613478
 21
2553.3742049
 31
0.0
  0
LINE
  5
A2
330
48
100
AcDbEntity
  8
0
  6
Continuous
 62
     7
100
AcDbLine
 10
2104.8613478
 20
2553.3742049
 30
0.0
 11
2105.2100898
 21
2759.0354649
 31
0.0
  0
LINE
  5
A3
330
48
100
AcDbEntity
  8
0
  6
Continuous
 62
     7
100
AcDbLine
 10
1803.8086098
 20
2318.2837429
 30
0.0
 11
1446.5108738
 21
2157.5281589
 31
0.0
  0
LINE
  5
A4
330
48
100
AcDbEntity
  8
0
  6
Continuous
 62
     7
100
AcDbLine
 10
1446.5108738
 20
2157.5281589
 30
0.0
 11
1447.3302778
 21
1845.4340409
 31
0.0
  0
LINE
  5
A5
330
48
100
AcDbEntity
  8
0
  6
Continuous
 62
     7
100
AcDbLine
 10
1443.1270858
 20
2241.9417569
 30
0.0
 11
1442.4384918
 21
2492.8884229
 31
0.0
  0
LINE
  5
A6
330
48
100
AcDbEntity
  8
0
  6
Continuous
 62
     7
100
AcDbLine
 10
1442.4384918
 20
2492.8884229
 30
0.0
 11
1632.5595238
 21
2582.7386369
 31
0.0
  0
LINE
  5
A7
330
48
100
AcDbEntity
  8
0
  6
Continuous
 62
     7
100
AcDbLine
 10
1440.1207418
 20
2583.8707149
 30
0.0
 11
1605.2519838
 21
2657.3884749
 31
0.0
  0
LINE
  5
A8
330
48
100
AcDbEntity
  8
0
  6
Continuous
 62
     7
100
AcDbLine
 10
1986.6980078
 20
2236.4901549
 30
0.0
 11
2381.3317118
 21
2427.5961989
 31
0.0
  0
LINE
  5
A9
330
48
100
AcDbEntity
  8
0
  6
Continuous
 62
     7
100
AcDbLine
 10
2069.1979698
 20
2783.8764109
 30
0.0
 11
1938.7664298
 21
2724.1282449
 31
0.0
  0
LINE
  5
AA
330
48
100
AcDbEntity
  8
0
  6
Continuous
 62
     7
100
AcDbLine
 10
2049.5777398
 20
2869.6740549
 30
0.0
 11
1915.3984298
 21
2814.3282169
 31
0.0
  0
LINE
  5
AB
330
48
100
AcDbEntity
  8
0
  6
Continuous
 62
     7
100
AcDbLine
 10
2154.8442298
 20
2490.2694289
 30
0.0
 11
1923.5205878
 21
2375.0293749
 31
0.0
  0
LINE
  5
AC
330
48
100
AcDbEntity
  8
0
  6
Continuous
 62
     7
100
AcDbLine
 10
2182.0753158
 20
2533.8004569
 30
0.0
 11
2181.1852998
 21
2772.5627429
 31
0.0
  0
LINE
  5
AD
330
48
100
AcDbEntity
  8
0
  6
Continuous
 62
     7
100
AcDbLine
 10
2385.2803958
 20
2516.8929469
 30
0.0
 11
1952.1649298
 21
2315.5316529
 31
0.0
  0
LINE
  5
AE
330
48
100
AcDbEntity
  8
0
  6
Continuous
 62
     7
100
AcDbLine
 10
2385.2803958
 20
2516.8929469
 30
0.0
 11
2384.5890078
 21
2763.3011409
 31
0.0
  0
LINE
  5
AF
330
48
100
AcDbEntity
  8
0
  6
Continuous
 62
     7
100
AcDbLine
 10
2363.1282938
 20
2846.6982309
 30
0.0
 11
2251.1973518
 21
2791.4882829
 31
0.0
  0
LINE
  5
B0
330
48
100
AcDbEntity
  8
0
  6
Continuous
 62
     7
100
AcDbLine
 10
2384.5890078
 20
2763.3011409
 30
0.0
 11
2286.8332978
 21
2719.7749389
 31
0.0
  0
LINE
  5
B1
330
48
100
AcDbEntity
  8
0
  6
Continuous
 62
     7
100
AcDbLine
 10
2457.8908678
 20
2542.3404449
 30
0.0
 11
2457.2114178
 21
2800.4118109
 31
0.0
  0
LINE
  5
B2
330
48
100
AcDbEntity
  8
0
  6
Continuous
 62
     7
100
AcDbLine
 10
2457.2114178
 20
2800.4118109
 30
0.0
 11
2648.4101718
 21
2891.0445989
 31
0.0
  0
LINE
  5
B3
330
48
100
AcDbEntity
  8
0
  6
Continuous
 62
     7
100
AcDbLine
 10
2648.4101718
 20
2891.0445989
 30
0.0
 11
2653.1942618
 21
2637.3331429
 31
0.0
  0
LINE
  5
B4
330
48
100
AcDbEntity
  8
0
  6
Continuous
 62
     7
100
AcDbLine
 10
2653.1942618
 20
2637.3331429
 30
0.0
 11
2457.8908678
 21
2542.3404449
 31
0.0
  0
LINE
  5
B5
330
48
100
AcDbEntity
  8
0
  6
Continuous
 62
     7
100
AcDbLine
 10
2382.9113378
 20
2880.4050469
 30
0.0
 11
2372.7681018
 21
3078.8290849
 31
0.0
  0
LINE
  5
B6
330
48
100
AcDbEntity
  8
0
  6
Continuous
 62
     7
100
AcDbLine
 10
2461.7661458
 20
2891.1561049
 30
0.0
 11
2647.3901078
 21
2975.3052889
 31
0.0
  0
LINE
  5
B7
330
48
100
AcDbEntity
  8
0
  6
Continuous
 62
     7
100
AcDbLine
 10
2461.7661458
 20
2891.1561049
 30
0.0
 11
2462.6777518
 21
3085.1933089
 31
0.0
  0
LINE
  5
B8
330
48
100
AcDbEntity
  8
0
  6
Continuous
 62
     7
100
AcDbLine
 10
2647.3901078
 20
3218.2976909
 30
0.0
 11
2647.3901078
 21
2975.3052889
 31
0.0
  0
LINE
  5
B9
330
48
100
AcDbEntity
  8
0
  6
Continuous
 62
     7
100
AcDbLine
 10
2727.7932998
 20
3203.2497149
 30
0.0
 11
2727.7932998
 21
3019.5096709
 31
0.0
  0
LINE
  5
BA
330
48
100
AcDbEntity
  8
0
  6
Continuous
 62
     7
100
AcDbLine
 10
2727.7932998
 20
3019.5096709
 30
0.0
 11
2882.7099318
 21
3080.0604769
 31
0.0
  0
LINE
  5
BB
330
48
100
AcDbEntity
  8
0
  6
Continuous
 62
     7
100
AcDbLine
 10
2727.1743018
 20
2927.0290329
 30
0.0
 11
2912.0733478
 21
3010.1154809
 31
0.0
  0
LINE
  5
BC
330
48
100
AcDbEntity
  8
0
  6
Continuous
 62
     7
100
AcDbLine
 10
2727.1743018
 20
2927.0290329
 30
0.0
 11
2725.4120498
 21
2675.2820129
 31
0.0
  0
LINE
  5
BD
330
48
100
AcDbEntity
  8
0
  6
Continuous
 62
     7
100
AcDbLine
 10
2725.4120498
 20
2675.2820129
 30
0.0
 11
3101.6236418
 21
2848.1020889
 31
0.0
  0
LINE
  5
BE
330
48
100
AcDbEntity
  8
0
  6
Continuous
 62
     7
100
AcDbLine
 10
3101.6236418
 20
2760.6884969
 30
0.0
 11
2728.8799118
 21
2590.0391049
 31
0.0
  0
LINE
  5
BF
330
48
100
AcDbEntity
  8
0
  6
Continuous
 62
     7
100
AcDbLine
 10
2728.8799118
 20
2590.0391049
 30
0.0
 11
2728.8799118
 21
2291.8202449
 31
0.0
  0
LINE
  5
C0
330
48
100
AcDbEntity
  8
0
  6
Continuous
 62
     7
100
AcDbLine
 10
2650.4975438
 20
2552.9289429
 30
0.0
 11
2461.3262178
 21
2465.8915249
 31
0.0
  0
LINE
  5
C1
330
48
100
AcDbEntity
  8
0
  6
Continuous
 62
     7
100
AcDbLine
 10
2381.3317118
 20
2179.4219429
 30
0.0
 11
2381.3317118
 21
2427.5961989
 31
0.0
  0
LINE
  5
C2
330
48
100
AcDbEntity
  8
0
  6
Continuous
 62
     7
100
AcDbLine
 10
2461.3262178
 20
2198.1491089
 30
0.0
 11
2461.3262178
 21
2465.8915249
 31
0.0
  0
LINE
  5
C3
330
48
100
AcDbEntity
  8
0
  6
Continuous
 62
     7
100
AcDbLine
 10
2650.4975438
 20
2552.9289429
 30
0.0
 11
2649.2003658
 21
2298.4867289
 31
0.0
  0
LINE
  5
C4
330
48
100
AcDbEntity
  8
0
  6
Continuous
 62
     7
100
AcDbLine
 10
3101.6236418
 20
1087.6021809
 30
0.0
 11
3101.6236418
 21
3876.2112849
 31
0.0
  0
LINE
  5
C5
330
48
100
AcDbEntity
  8
0
  6
Continuous
 62
     7
100
AcDbLine
 10
1095.8872164
 20
2331.9474189
 30
0.0
 11
1001.728121
 21
2288.2192869
 31
0.0
  0
LINE
  5
C6
330
48
100
AcDbEntity
  8
0
  6
Continuous
 62
     7
100
AcDbLine
 10
1366.0622158
 20
2113.7154449
 30
0.0
 11
1366.0622158
 21
1884.6656109
 31
0.0
  0
LINE
  5
C7
330
48
100
AcDbEntity
  8
0
  6
Continuous
 62
     7
100
AcDbLine
 10
1892.0217938
 20
2650.7971749
 30
0.0
 11
1893.2547098
 21
2453.2458809
 31
0.0
  0
LINE
  5
C8
330
48
100
AcDbEntity
  8
0
  6
Continuous
 62
     7
100
AcDbLine
 10
1221.4602698
 20
414.3388589
 30
0.0
 11
1113.547176
 21
129.9392753
 31
0.0
  0
LINE
  5
C9
330
48
100
AcDbEntity
  8
0
  6
Continuous
 62
     7
100
AcDbLine
 10
1013.7867964
 20
293.7747109
 30
0.0
 11
1099.9257402
 21
293.7747109
 31
0.0
  0
LINE
  5
CA
330
48
100
AcDbEntity
  8
0
  6
Continuous
 62
     7
100
AcDbLine
 10
546.4238246
 20
143.9009187
 30
0.0
 11
461.355948
 21
143.9009187
 31
0.0
  0
LINE
  5
CB
330
48
100
AcDbEntity
  8
0
  6
Continuous
 62
     7
100
AcDbLine
 10
461.355948
 20
143.9009187
 30
0.0
 11
360.0456604
 21
414.2631669
 31
0.0
  0
LINE
  5
CC
330
48
100
AcDbEntity
  8
0
  6
Continuous
 62
     7
100
AcDbLine
 10
360.0456604
 20
414.2631669
 30
0.0
 11
268.9420072
 21
414.2631669
 31
0.0
  0
LINE
  5
CD
330
48
100
AcDbEntity
  8
0
  6
Continuous
 62
     7
100
AcDbLine
 10
268.9420072
 20
414.2631669
 30
0.0
 11
115.6156946
 21
9.6017969
 31
0.0
  0
LINE
  5
CE
330
48
100
AcDbEntity
  8
0
  6
Continuous
 62
     7
100
AcDbLine
 10
115.6156946
 20
9.6017969
 30
0.0
 11
205.6356822
 21
9.6017969
 31
0.0
  0
LINE
  5
CF
330
48
100
AcDbEntity
  8
0
  6
Continuous
 62
     7
100
AcDbLine
 10
205.6356822
 20
9.6017969
 30
0.0
 11
237.339251
 21
99.6721781
 31
0.0
  0
LINE
  5
D0
330
48
100
AcDbEntity
  8
0
  6
Continuous
 62
     7
100
AcDbLine
 10
237.339251
 20
99.6721781
 30
0.0
 11
388.7880464
 21
99.6974003
 31
0.0
  0
LINE
  5
D1
330
48
100
AcDbEntity
  8
0
  6
Continuous
 62
     7
100
AcDbLine
 10
388.7880464
 20
99.6974003
 30
0.0
 11
419.3449322
 21
9.6017969
 31
0.0
  0
LINE
  5
D2
330
48
100
AcDbEntity
  8
0
  6
Continuous
 62
     7
100
AcDbLine
 10
419.3449322
 20
9.6017969
 30
0.0
 11
511.6582604
 21
9.6017969
 31
0.0
  0
LINE
  5
D3
330
48
100
AcDbEntity
  8
0
  6
Continuous
 62
     7
100
AcDbLine
 10
511.6582604
 20
9.6017969
 30
0.0
 11
497.4697696
 21
47.4293565
 31
0.0
  0
LINE
  5
D4
330
48
100
AcDbEntity
  8
0
  6
Continuous
 62
     7
100
AcDbLine
 10
1082.8264602
 20
48.8910503
 30
0.0
 11
1068.0331446
 21
9.6522159
 31
0.0
  0
LINE
  5
D5
330
48
100
AcDbEntity
  8
0
  6
Continuous
 62
     7
100
AcDbLine
 10
1068.0331446
 20
9.6522159
 30
0.0
 11
1158.128748
 21
9.6522159
 31
0.0
  0
LINE
  5
D6
330
48
100
AcDbEntity
  8
0
  6
Continuous
 62
     7
100
AcDbLine
 10
1158.128748
 20
9.6522159
 30
0.0
 11
1189.8575136
 21
100.0502063
 31
0.0
  0
LINE
  5
D7
330
48
100
AcDbEntity
  8
0
  6
Continuous
 62
     7
100
AcDbLine
 10
1189.8575136
 20
100.0502063
 30
0.0
 11
1341.2558138
 21
100.0754031
 31
0.0
  0
LINE
  5
D8
330
48
100
AcDbEntity
  8
0
  6
Continuous
 62
     7
100
AcDbLine
 10
1341.2558138
 20
100.0754031
 30
0.0
 11
1371.9009138
 21
9.5262065
 31
0.0
  0
LINE
  5
D9
330
48
100
AcDbEntity
  8
0
  6
Continuous
 62
     7
100
AcDbLine
 10
1371.9009138
 20
9.5262065
 30
0.0
 11
1464.3277038
 21
9.5514033
 31
0.0
  0
LINE
  5
DA
330
48
100
AcDbEntity
  8
0
  6
Continuous
 62
     7
100
AcDbLine
 10
1464.3277038
 20
9.5514033
 30
0.0
 11
1312.7907958
 21
414.3388589
 31
0.0
  0
LINE
  5
DB
330
48
100
AcDbEntity
  8
0
  6
Continuous
 62
     7
100
AcDbLine
 10
1312.7907958
 20
414.3388589
 30
0.0
 11
1221.4602698
 21
414.3388589
 31
0.0
  0
LINE
  5
DC
330
48
100
AcDbEntity
  8
0
  6
Continuous
 62
     7
100
AcDbLine
 10
260.4868806
 20
166.0279001
 30
0.0
 11
313.208543
 21
314.4398969
 31
0.0
  0
LINE
  5
DD
330
48
100
AcDbEntity
  8
0
  6
Continuous
 62
     7
100
AcDbLine
 10
314.3930212
 20
314.4398969
 30
0.0
 11
365.4135948
 21
166.0027033
 31
0.0
  0
LINE
  5
DE
330
48
100
AcDbEntity
  8
0
  6
Continuous
 62
     7
100
AcDbLine
 10
365.4135948
 20
166.0027033
 30
0.0
 11
260.4868806
 21
166.0279001
 31
0.0
  0
LINE
  5
DF
330
48
100
AcDbEntity
  8
0
  6
Continuous
 62
     7
100
AcDbLine
 10
858.935798
 20
143.9009187
 30
0.0
 11
799.9641354
 21
143.9765345
 31
0.0
  0
LINE
  5
E0
330
48
100
AcDbEntity
  8
0
  6
Continuous
 62
     7
100
AcDbLine
 10
701.0857962
 20
293.6738729
 30
0.0
 11
786.8845324
 21
293.6738729
 31
0.0
  0
LINE
  5
E1
330
48
100
AcDbEntity
  8
0
  6
Continuous
 62
     7
100
AcDbLine
 10
1212.9925448
 20
166.3303125
 30
0.0
 11
1265.7393278
 21
314.7927029
 31
0.0
  0
LINE
  5
E2
330
48
100
AcDbEntity
  8
0
  6
Continuous
 62
     7
100
AcDbLine
 10
1266.8482918
 20
314.7927029
 30
0.0
 11
1318.0074478
 21
166.3807315
 31
0.0
  0
LINE
  5
E3
330
48
100
AcDbEntity
  8
0
  6
Continuous
 62
     7
100
AcDbLine
 10
1318.0074478
 20
166.3807315
 30
0.0
 11
1212.9925448
 21
166.3303125
 31
0.0
  0
LINE
  5
E4
330
48
100
AcDbEntity
  8
0
  6
Continuous
 62
     7
100
AcDbLine
 10
2107.4841518
 20
414.1877289
 30
0.0
 11
1917.0611138
 21
414.1625829
 31
0.0
  0
LINE
  5
E5
330
48
100
AcDbEntity
  8
0
  6
Continuous
 62
     7
100
AcDbLine
 10
1917.0611138
 20
414.1625829
 30
0.0
 11
1917.2376438
 21
39.5664563
 31
0.0
  0
LINE
  5
E6
330
48
100
AcDbEntity
  8
0
  6
Continuous
 62
     7
100
AcDbLine
 10
1917.2376438
 20
39.5664563
 30
0.0
 11
1776.9656358
 21
414.2380209
 31
0.0
  0
LINE
  5
E7
330
48
100
AcDbEntity
  8
0
  6
Continuous
 62
     7
100
AcDbLine
 10
1776.9656358
 20
414.2380209
 30
0.0
 11
1685.5848178
 21
414.2631669
 31
0.0
  0
LINE
  5
E8
330
48
100
AcDbEntity
  8
0
  6
Continuous
 62
     7
100
AcDbLine
 10
1685.5848178
 20
414.2631669
 30
0.0
 11
1532.1200498
 21
9.5262065
 31
0.0
  0
LINE
  5
E9
330
48
100
AcDbEntity
  8
0
  6
Continuous
 62
     7
100
AcDbLine
 10
1532.1200498
 20
9.5262065
 30
0.0
 11
1622.3667578
 21
9.5262065
 31
0.0
  0
LINE
  5
EA
330
48
100
AcDbEntity
  8
0
  6
Continuous
 62
     7
100
AcDbLine
 10
1622.3667578
 20
9.5262065
 30
0.0
 11
1654.0072838
 21
99.6469813
 31
0.0
  0
LINE
  5
EB
330
48
100
AcDbEntity
  8
0
  6
Continuous
 62
     7
100
AcDbLine
 10
1654.0072838
 20
99.6469813
 30
0.0
 11
1805.4433538
 21
99.6469813
 31
0.0
  0
LINE
  5
EC
330
48
100
AcDbEntity
  8
0
  6
Continuous
 62
     7
100
AcDbLine
 10
1805.4433538
 20
99.6469813
 30
0.0
 11
1836.0130158
 21
9.6269937
 31
0.0
  0
LINE
  5
ED
330
48
100
AcDbEntity
  8
0
  6
Continuous
 62
     7
100
AcDbLine
 10
1836.0130158
 20
9.6269937
 30
0.0
 11
1928.4773978
 21
9.6522159
 31
0.0
  0
LINE
  5
EE
330
48
100
AcDbEntity
  8
0
  6
Continuous
 62
     7
100
AcDbLine
 10
1928.4271058
 20
9.6269937
 30
0.0
 11
2113.4569618
 21
9.5514033
 31
0.0
  0
LINE
  5
EF
330
48
100
AcDbEntity
  8
0
  6
Continuous
 62
     7
100
AcDbLine
 10
1677.2178038
 20
165.9522843
 30
0.0
 11
1729.9901138
 21
314.4901889
 31
0.0
  0
LINE
  5
F0
330
48
100
AcDbEntity
  8
0
  6
Continuous
 62
     7
100
AcDbLine
 10
1731.1239698
 20
314.4901889
 30
0.0
 11
1782.1825418
 21
165.9522843
 31
0.0
  0
LINE
  5
F1
330
48
100
AcDbEntity
  8
0
  6
Continuous
 62
     7
100
AcDbLine
 10
1782.1825418
 20
165.9522843
 30
0.0
 11
1677.2178038
 21
165.9522843
 31
0.0
  0
LINE
  5
F2
330
48
100
AcDbEntity
  8
0
  6
Continuous
 62
     7
100
AcDbLine
 10
2006.1739658
 20
345.3621109
 30
0.0
 11
2089.4145918
 21
345.3621109
 31
0.0
  0
LINE
  5
F3
330
48
100
AcDbEntity
  8
0
  6
Continuous
 62
     7
100
AcDbLine
 10
2096.4206738
 20
250.6295089
 30
0.0
 11
2006.1991118
 21
250.5792169
 31
0.0
  0
LINE
  5
F4
330
48
100
AcDbEntity
  8
0
  6
Continuous
 62
     7
100
AcDbLine
 10
2006.1991118
 20
250.5792169
 30
0.0
 11
2006.1739658
 21
345.3621109
 31
0.0
  0
LINE
  5
F5
330
48
100
AcDbEntity
  8
0
  6
Continuous
 62
     7
100
AcDbLine
 10
2101.5367418
 20
78.9313001
 30
0.0
 11
2006.2748038
 21
78.9061033
 31
0.0
  0
LINE
  5
F6
330
48
100
AcDbEntity
  8
0
  6
Continuous
 62
     7
100
AcDbLine
 10
2006.2748038
 20
78.9061033
 30
0.0
 11
2006.1991118
 21
190.0197749
 31
0.0
  0
LINE
  5
F7
330
48
100
AcDbEntity
  8
0
  6
Continuous
 62
     7
100
AcDbLine
 10
2006.1991118
 20
190.0197749
 30
0.0
 11
2103.1496418
 21
190.0449209
 31
0.0
  0
LINE
  5
F8
330
48
100
AcDbEntity
  8
0
  6
Continuous
 62
     7
100
AcDbLine
 10
2509.0711058
 20
85.0804877
 30
0.0
 11
2358.2398098
 21
85.0804877
 31
0.0
  0
LINE
  5
F9
330
48
100
AcDbEntity
  8
0
  6
Continuous
 62
     7
100
AcDbLine
 10
2358.2398098
 20
85.0804877
 30
0.0
 11
2358.1389718
 21
414.2380209
 31
0.0
  0
LINE
  5
FA
330
48
100
AcDbEntity
  8
0
  6
Continuous
 62
     7
100
AcDbLine
 10
2358.1389718
 20
414.2380209
 30
0.0
 11
2269.2529418
 21
414.2128749
 31
0.0
  0
LINE
  5
FB
330
48
100
AcDbEntity
  8
0
  6
Continuous
 62
     7
100
AcDbLine
 10
2269.2529418
 20
414.2128749
 30
0.0
 11
2269.2783418
 21
9.5514033
 31
0.0
  0
LINE
  5
FC
330
48
100
AcDbEntity
  8
0
  6
Continuous
 62
     7
100
AcDbLine
 10
2269.2783418
 20
9.5514033
 30
0.0
 11
2527.4683258
 21
9.5514033
 31
0.0
  0
LINE
  5
FD
330
48
100
AcDbEntity
  8
0
  6
Continuous
 62
     7
100
AcDbLine
 10
2527.4683258
 20
9.5514033
 30
0.0
 11
2527.4683258
 21
60.8617909
 31
0.0
  0
LINE
  5
FE
330
48
100
AcDbEntity
  8
0
  6
Continuous
 62
     7
100
AcDbLine
 10
3098.4600718
 20
414.2631669
 30
0.0
 11
3004.5085198
 21
254.8634349
 31
0.0
  0
LINE
  5
FF
330
48
100
AcDbEntity
  8
0
  6
Continuous
 62
     7
100
AcDbLine
 10
3004.5085198
 20
254.8634349
 30
0.0
 11
2909.7759178
 21
414.2631669
 31
0.0
  0
LINE
  5
100
330
48
100
AcDbEntity
  8
0
  6
Continuous
 62
     7
100
AcDbLine
 10
2909.7759178
 20
414.2631669
 30
0.0
 11
2809.3981658
 21
414.2631669
 31
0.0
  0
LINE
  5
101
330
48
100
AcDbEntity
  8
0
  6
Continuous
 62
     7
100
AcDbLine
 10
2809.3981658
 20
414.2631669
 30
0.0
 11
2958.4400318
 21
167.6911937
 31
0.0
  0
LINE
  5
102
330
48
100
AcDbEntity
  8
0
  6
Continuous
 62
     7
100
AcDbLine
 10
2958.4400318
 20
167.6911937
 30
0.0
 11
2958.4400318
 21
9.6269937
 31
0.0
  0
LINE
  5
103
330
48
100
AcDbEntity
  8
0
  6
Continuous
 62
     7
100
AcDbLine
 10
2958.4400318
 20
9.6269937
 30
0.0
 11
3047.4771918
 21
9.6269937
 31
0.0
  0
LINE
  5
104
330
48
100
AcDbEntity
  8
0
  6
Continuous
 62
     7
100
AcDbLine
 10
3047.4771918
 20
9.6269937
 30
0.0
 11
3047.4520458
 21
165.4482721
 31
0.0
  0
LINE
  5
105
330
48
100
AcDbEntity
  8
0
  6
Continuous
 62
     7
100
AcDbLine
 10
3047.4520458
 20
165.4482721
 30
0.0
 11
3197.6534218
 21
414.2885669
 31
0.0
  0
LINE
  5
106
330
48
100
AcDbEntity
  8
0
  6
Continuous
 62
     7
100
AcDbLine
 10
3197.6534218
 20
414.2885669
 30
0.0
 11
3098.4600718
 21
414.2631669
 31
0.0
  0
LINE
  5
107
330
48
100
AcDbEntity
  8
0
  6
Continuous
 62
     7
100
AcDbLine
 10
0.0
 20
851.0987169
 30
0.0
 11
0.0
 21
650.4387169
 31
0.0
  0
LINE
  5
108
330
48
100
AcDbEntity
  8
0
  6
Continuous
 62
     7
100
AcDbLine
 10
3309.9028798
 20
652.3208569
 30
0.0
 11
3309.9028798
 21
539.6586489
 31
0.0
  0
LINE
  5
109
330
48
100
AcDbEntity
  8
0
  6
Continuous
 62
     7
100
AcDbLine
 10
3398.8028798
 20
539.6586489
 30
0.0
 11
3309.9028798
 21
539.6586489
 31
0.0
  0
LINE
  5
10A
330
48
100
AcDbEntity
  8
0
  6
Continuous
 62
     7
100
AcDbLine
 10
3398.8028798
 20
741.2714029
 30
0.0
 11
3398.8028798
 21
539.6586489
 31
0.0
  0
LINE
  5
10B
330
48
100
AcDbEntity
  8
0
  6
Continuous
 62
     7
100
AcDbLine
 10
88.9
 20
739.3892629
 30
0.0
 11
3398.8028798
 21
741.2714029
 31
0.0
  0
LINE
  5
10C
330
48
100
AcDbEntity
  8
0
  6
Continuous
 62
     7
100
AcDbLine
 10
88.9
 20
851.1492629
 30
0.0
 11
88.9
 21
739.3892629
 31
0.0
  0
LINE
  5
10D
330
48
100
AcDbEntity
  8
0
  6
Continuous
 62
     7
100
AcDbLine
 10
0.0
 20
851.0987169
 30
0.0
 11
88.9
 21
851.1492629
 31
0.0
  0
SPLINE
  5
10E
330
48
100
AcDbEntity
  8
0
  6
Continuous
 62
     7
100
AcDbSpline
210
0.0
220
0.0
230
1.0
 70
     8
 71
     3
 72
     8
 73
     4
 74
     0
 42
0.00000001
 43
0.00000001
 40
1.0
 40
1.0
 40
1.0
 40
1.0
 40
2.0
 40
2.0
 40
2.0
 40
2.0
 10
1113.547176000002
 20
129.9392752999995
 30
0.0
 10
1113.395969800002
 20
221.8241308999995
 30
0.0
 10
1022.846747800001
 20
240.5236108999995
 30
0.0
 10
993.3357324000011
 20
247.7565148999994
 30
0.0
  0
SPLINE
  5
10F
330
48
100
AcDbEntity
  8
0
  6
Continuous
 62
     7
100
AcDbSpline
210
0.0
220
0.0
230
1.0
 70
     8
 71
     3
 72
     8
 73
     4
 74
     0
 42
0.00000001
 43
0.00000001
 40
2.0
 40
2.0
 40
2.0
 40
2.0
 40
3.0
 40
3.0
 40
3.0
 40
3.0
 10
993.3357324000011
 20
247.7565148999994
 30
0.0
 10
891.8742386000007
 20
273.9408668999994
 30
0.0
 10
872.6202258000013
 20
277.6708568999995
 30
0.0
 10
872.5824306000014
 20
309.0215688999991
 30
0.0
  0
SPLINE
  5
110
330
48
100
AcDbEntity
  8
0
  6
Continuous
 62
     7
100
AcDbSpline
210
0.0
220
0.0
230
1.0
 70
     8
 71
     3
 72
     8
 73
     4
 74
     0
 42
0.00000001
 43
0.00000001
 40
3.0
 40
3.0
 40
3.0
 40
3.0
 40
4.0
 40
4.0
 40
4.0
 40
4.0
 10
872.5824306000014
 20
309.0215688999991
 30
0.0
 10
872.6202258000013
 20
343.0689988999993
 30
0.0
 10
905.4956744000018
 20
354.9135268999995
 30
0.0
 10
933.7844418000012
 20
354.8883808999994
 30
0.0
  0
SPLINE
  5
111
330
48
100
AcDbEntity
  8
0
  6
Continuous
 62
     7
100
AcDbSpline
210
0.0
220
0.0
230
1.0
 70
     8
 71
     3
 72
     8
 73
     4
 74
     0
 42
0.00000001
 43
0.00000001
 40
4.0
 40
4.0
 40
4.0
 40
4.0
 40
5.0
 40
5.0
 40
5.0
 40
5.0
 10
933.7844418000012
 20
354.8883808999994
 30
0.0
 10
976.4002824000011
 20
354.9135268999995
 30
0.0
 10
1010.901204
 20
342.4891168999995
 30
0.0
 10
1013.786796400001
 20
293.7747108999993
 30
0.0
  0
SPLINE
  5
112
330
48
100
AcDbEntity
  8
0
  6
Continuous
 62
     7
100
AcDbSpline
210
0.0
220
0.0
230
1.0
 70
     8
 71
     3
 72
     8
 73
     4
 74
     0
 42
0.00000001
 43
0.00000001
 40
6.0
 40
6.0
 40
6.0
 40
6.0
 40
7.0
 40
7.0
 40
7.0
 40
7.0
 10
1099.925740200001
 20
293.7747108999993
 30
0.0
 10
1099.812329200001
 20
387.3229108999996
 30
0.0
 10
1022.191504000001
 20
424.0668048999994
 30
0.0
 10
937.8166918000011
 20
424.0414048999992
 30
0.0
  0
SPLINE
  5
113
330
48
100
AcDbEntity
  8
0
  6
Continuous
 62
     7
100
AcDbSpline
210
0.0
220
0.0
230
1.0
 70
     8
 71
     3
 72
     8
 73
     4
 74
     0
 42
0.00000001
 43
0.00000001
 40
7.0
 40
7.0
 40
7.0
 40
7.0
 40
8.0
 40
8.0
 40
8.0
 40
8.0
 10
937.8166918000011
 20
424.0414048999992
 30
0.0
 10
865.538604200001
 20
424.1170968999994
 30
0.0
 10
788.5982196000017
 20
385.3066588999994
 30
0.0
 10
786.657710400001
 20
304.7624968999996
 30
0.0
  0
SPLINE
  5
114
330
48
100
AcDbEntity
  8
0
  6
Continuous
 62
     7
100
AcDbSpline
210
0.0
220
0.0
230
1.0
 70
     8
 71
     3
 72
     8
 73
     4
 74
     0
 42
0.00000001
 43
0.00000001
 40
8.0
 40
8.0
 40
8.0
 40
8.0
 40
9.0
 40
9.0
 40
9.0
 40
9.0
 10
786.657710400001
 20
304.7624968999996
 30
0.0
 10
780.6093354000012
 20
389.9942288999996
 30
0.0
 10
706.0757024000015
 20
423.9659668999996
 30
0.0
 10
624.9266902000014
 20
423.8651288999993
 30
0.0
  0
SPLINE
  5
115
330
48
100
AcDbEntity
  8
0
  6
Continuous
 62
     7
100
AcDbSpline
210
0.0
220
0.0
230
1.0
 70
     8
 71
     3
 72
     8
 73
     4
 74
     0
 42
0.00000001
 43
0.00000001
 40
9.0
 40
9.0
 40
9.0
 40
9.0
 40
10.0
 40
10.0
 40
10.0
 40
10.0
 10
624.9266902000014
 20
423.8651288999993
 30
0.0
 10
551.9807604000011
 20
423.8902748999993
 30
0.0
 10
473.7803072000011
 20
384.1222568999996
 30
0.0
 10
473.8307008000016
 20
301.4610048999993
 30
0.0
  0
SPLINE
  5
116
330
48
100
AcDbEntity
  8
0
  6
Continuous
 62
     7
100
AcDbSpline
210
0.0
220
0.0
230
1.0
 70
     8
 71
     3
 72
     8
 73
     4
 74
     0
 42
0.00000001
 43
0.00000001
 40
10.0
 40
10.0
 40
10.0
 40
10.0
 40
11.0
 40
11.0
 40
11.0
 40
11.0
 10
473.8307008000016
 20
301.4610048999993
 30
0.0
 10
473.8307008000016
 20
225.4027368999991
 30
0.0
 10
534.4908792000007
 20
202.2930548999993
 30
0.0
 10
594.5462074000014
 20
186.4411688999996
 30
0.0
  0
SPLINE
  5
117
330
48
100
AcDbEntity
  8
0
  6
Continuous
 62
     7
100
AcDbSpline
210
0.0
220
0.0
230
1.0
 70
     8
 71
     3
 72
     8
 73
     4
 74
     0
 42
0.00000001
 43
0.00000001
 40
11.0
 40
11.0
 40
11.0
 40
11.0
 40
12.0
 40
12.0
 40
12.0
 40
12.0
 10
594.5462074000014
 20
186.4411688999996
 30
0.0
 10
654.1100964000011
 20
170.5641876999993
 30
0.0
 10
714.7324542000009
 20
163.2305218999996
 30
0.0
 10
714.6694368000012
 20
119.6318282999993
 30
0.0
  0
SPLINE
  5
118
330
48
100
AcDbEntity
  8
0
  6
Continuous
 62
     7
100
AcDbSpline
210
0.0
220
0.0
230
1.0
 70
     8
 71
     3
 72
     8
 73
     4
 74
     0
 42
0.00000001
 43
0.00000001
 40
12.0
 40
12.0
 40
12.0
 40
12.0
 40
13.0
 40
13.0
 40
13.0
 40
13.0
 10
714.6694368000012
 20
119.6318282999993
 30
0.0
 10
714.7072574000015
 20
78.27605629999911
 30
0.0
 10
667.1519042000016
 20
69.22870329999941
 30
0.0
 10
636.027963400001
 20
69.10269389999968
 30
0.0
  0
SPLINE
  5
119
330
48
100
AcDbEntity
  8
0
  6
Continuous
 62
     7
100
AcDbSpline
210
0.0
220
0.0
230
1.0
 70
     8
 71
     3
 72
     8
 73
     4
 74
     0
 42
0.00000001
 43
0.00000001
 40
13.0
 40
13.0
 40
13.0
 40
13.0
 40
14.0
 40
14.0
 40
14.0
 40
14.0
 10
636.027963400001
 20
69.10269389999968
 30
0.0
 10
588.3466008000014
 20
69.0523002999992
 30
0.0
 10
546.4994150000014
 20
90.09559069999939
 30
0.0
 10
546.4238246000015
 20
143.9009186999996
 30
0.0
  0
SPLINE
  5
11A
330
48
100
AcDbEntity
  8
0
  6
Continuous
 62
     7
100
AcDbSpline
210
0.0
220
0.0
230
1.0
 70
     8
 71
     3
 72
     8
 73
     4
 74
     0
 42
0.00000001
 43
0.00000001
 40
24.0
 40
24.0
 40
24.0
 40
24.0
 40
25.0
 40
25.0
 40
25.0
 40
25.0
 10
497.4697696000012
 20
47.42935649999946
 30
0.0
 10
530.105797800001
 20
15.09574069999919
 30
0.0
 10
580.2569040000014
 20
-0.0504063000001942
 30
0.0
 10
632.6005636000014
 20
0.0504062999997501
 30
0.0
  0
SPLINE
  5
11B
330
48
100
AcDbEntity
  8
0
  6
Continuous
 62
     7
100
AcDbSpline
210
0.0
220
0.0
230
1.0
 70
     8
 71
     3
 72
     8
 73
     4
 74
     0
 42
0.00000001
 43
0.00000001
 40
25.0
 40
25.0
 40
25.0
 40
25.0
 40
26.0
 40
26.0
 40
26.0
 40
26.0
 10
632.6005636000014
 20
0.0504062999997501
 30
0.0
 10
713.5983696000005
 20
-0.0251841000005193
 30
0.0
 10
766.559452400001
 20
30.26708449999971
 30
0.0
 10
788.8124432000012
 20
75.90712529999965
 30
0.0
  0
SPLINE
  5
11C
330
48
100
AcDbEntity
  8
0
  6
Continuous
 62
     7
100
AcDbSpline
210
0.0
220
0.0
230
1.0
 70
     8
 71
     3
 72
     8
 73
     4
 74
     0
 42
0.00000001
 43
0.00000001
 40
26.0
 40
26.0
 40
26.0
 40
26.0
 40
27.0
 40
27.0
 40
27.0
 40
27.0
 10
788.8124432000012
 20
75.90712529999965
 30
0.0
 10
817.1390058000005
 20
23.94149389999933
 30
0.0
 10
879.6388808000008
 20
0.1008252999992187
 30
0.0
 10
945.3771542000018
 20
0.1764156999994881
 30
0.0
  0
SPLINE
  5
11D
330
48
100
AcDbEntity
  8
0
  6
Continuous
 62
     7
100
AcDbSpline
210
0.0
220
0.0
230
1.0
 70
     8
 71
     3
 72
     8
 73
     4
 74
     0
 42
0.00000001
 43
0.00000001
 40
27.0
 40
27.0
 40
27.0
 40
27.0
 40
28.0
 40
28.0
 40
28.0
 40
28.0
 10
945.3771542000018
 20
0.1764156999994881
 30
0.0
 10
1008.910275800001
 20
0.1764156999994881
 30
0.0
 10
1055.079551000001
 20
18.85077509999977
 30
0.0
 10
1082.826460200001
 20
48.89105029999952
 30
0.0
  0
SPLINE
  5
11E
330
48
100
AcDbEntity
  8
0
  6
Continuous
 62
     7
100
AcDbSpline
210
0.0
220
0.0
230
1.0
 70
     8
 71
     3
 72
     8
 73
     4
 74
     0
 42
0.00000001
 43
0.00000001
 40
0.0
 40
0.0
 40
0.0
 40
0.0
 40
1.0
 40
1.0
 40
1.0
 40
1.0
 10
948.5525352000019
 20
69.32951589999936
 30
0.0
 10
901.047601000001
 20
69.22870329999941
 30
0.0
 10
859.0870042000018
 20
90.24679689999937
 30
0.0
 10
858.935798000001
 20
143.9009186999996
 30
0.0
  0
SPLINE
  5
11F
330
48
100
AcDbEntity
  8
0
  6
Continuous
 62
     7
100
AcDbSpline
210
0.0
220
0.0
230
1.0
 70
     8
 71
     3
 72
     8
 73
     4
 74
     0
 42
0.00000001
 43
0.00000001
 40
2.0
 40
2.0
 40
2.0
 40
2.0
 40
3.0
 40
3.0
 40
3.0
 40
3.0
 10
799.9641354000007
 20
143.9765344999997
 30
0.0
 10
791.1561774000013
 20
223.5630148999994
 30
0.0
 10
708.5832666000016
 20
240.6749948999991
 30
0.0
 10
680.584338600001
 20
247.6810768999993
 30
0.0
  0
SPLINE
  5
120
330
48
100
AcDbEntity
  8
0
  6
Continuous
 62
     7
100
AcDbSpline
210
0.0
220
0.0
230
1.0
 70
     8
 71
     3
 72
     8
 73
     4
 74
     0
 42
0.00000001
 43
0.00000001
 40
3.0
 40
3.0
 40
3.0
 40
3.0
 40
4.0
 40
4.0
 40
4.0
 40
4.0
 10
680.584338600001
 20
247.6810768999993
 30
0.0
 10
579.324444600001
 20
273.7142988999994
 30
0.0
 10
559.9696446000015
 20
277.7716948999998
 30
0.0
 10
559.919251000001
 20
308.8198928999994
 30
0.0
  0
SPLINE
  5
121
330
48
100
AcDbEntity
  8
0
  6
Continuous
 62
     7
100
AcDbSpline
210
0.0
220
0.0
230
1.0
 70
     8
 71
     3
 72
     8
 73
     4
 74
     0
 42
0.00000001
 43
0.00000001
 40
4.0
 40
4.0
 40
4.0
 40
4.0
 40
5.0
 40
5.0
 40
5.0
 40
5.0
 10
559.919251000001
 20
308.8198928999994
 30
0.0
 10
560.0452604000017
 20
342.8924688999992
 30
0.0
 10
592.8072980000012
 20
354.8126888999996
 30
0.0
 10
621.1212368000014
 20
354.7372508999991
 30
0.0
  0
SPLINE
  5
122
330
48
100
AcDbEntity
  8
0
  6
Continuous
 62
     7
100
AcDbSpline
210
0.0
220
0.0
230
1.0
 70
     8
 71
     3
 72
     8
 73
     4
 74
     0
 42
0.00000001
 43
0.00000001
 40
5.0
 40
5.0
 40
5.0
 40
5.0
 40
6.0
 40
6.0
 40
6.0
 40
6.0
 10
621.1212368000014
 20
354.7372508999991
 30
0.0
 10
663.6992822000014
 20
354.7372508999991
 30
0.0
 10
698.1498102000012
 20
342.4136788999994
 30
0.0
 10
701.085796200001
 20
293.6738728999995
 30
0.0
  0
SPLINE
  5
123
330
48
100
AcDbEntity
  8
0
  6
Continuous
 62
     7
100
AcDbSpline
210
0.0
220
0.0
230
1.0
 70
     8
 71
     3
 72
     8
 73
     4
 74
     0
 42
0.00000001
 43
0.00000001
 40
7.0
 40
7.0
 40
7.0
 40
7.0
 40
8.0
 40
8.0
 40
8.0
 40
8.0
 10
786.8845324000011
 20
293.6738728999995
 30
0.0
 10
791.0931854000012
 20
224.0672048999994
 30
0.0
 10
849.2835948000011
 20
201.7888648999997
 30
0.0
 10
907.1715918000009
 20
186.6428448999997
 30
0.0
  0
SPLINE
  5
124
330
48
100
AcDbEntity
  8
0
  6
Continuous
 62
     7
100
AcDbSpline
210
0.0
220
0.0
230
1.0
 70
     8
 71
     3
 72
     8
 73
     4
 74
     0
 42
0.00000001
 43
0.00000001
 40
8.0
 40
8.0
 40
8.0
 40
8.0
 40
9.0
 40
9.0
 40
9.0
 40
9.0
 10
907.1715918000009
 20
186.6428448999997
 30
0.0
 10
966.7480792000011
 20
170.7909842999995
 30
0.0
 10
1027.446027400001
 20
163.4573438999993
 30
0.0
 10
1027.458625800001
 20
119.7830344999993
 30
0.0
  0
SPLINE
  5
125
330
48
100
AcDbEntity
  8
0
  6
Continuous
 62
     7
100
AcDbSpline
210
0.0
220
0.0
230
1.0
 70
     8
 71
     3
 72
     8
 73
     4
 74
     0
 42
0.00000001
 43
0.00000001
 40
9.0
 40
9.0
 40
9.0
 40
9.0
 40
10.0
 40
10.0
 40
10.0
 40
10.0
 10
1027.458625800001
 20
119.7830344999993
 30
0.0
 10
1027.446027400001
 20
78.45245929999933
 30
0.0
 10
979.9032980000009
 20
69.3547126999996
 30
0.0
 10
948.5525352000019
 20
69.32951589999936
 30
0.0
  0
SPLINE
  5
126
330
48
100
AcDbEntity
  8
0
  6
Continuous
 62
     7
100
AcDbSpline
210
0.0
220
0.0
230
1.0
 70
     8
 71
     3
 72
     8
 73
     4
 74
     0
 42
0.00000001
 43
0.00000001
 40
0.0
 40
0.0
 40
0.0
 40
0.0
 40
1.0
 40
1.0
 40
1.0
 40
1.0
 10
2181.828681800002
 20
229.6366628999995
 30
0.0
 10
2217.0353678
 20
246.6729508999994
 30
0.0
 10
2236.818665800001
 20
274.4953488999995
 30
0.0
 10
2236.9195038
 20
314.1879288999991
 30
0.0
  0
SPLINE
  5
127
330
48
100
AcDbEntity
  8
0
  6
Continuous
 62
     7
100
AcDbSpline
210
0.0
220
0.0
230
1.0
 70
     8
 71
     3
 72
     8
 73
     4
 74
     0
 42
0.00000001
 43
0.00000001
 40
1.0
 40
1.0
 40
1.0
 40
1.0
 40
2.0
 40
2.0
 40
2.0
 40
2.0
 10
2236.9195038
 20
314.1879288999991
 30
0.0
 10
2236.818665800001
 20
389.4900388999995
 30
0.0
 10
2184.676529800002
 20
414.4648428999993
 30
0.0
 10
2107.4841518
 20
414.1877288999996
 30
0.0
  0
SPLINE
  5
128
330
48
100
AcDbEntity
  8
0
  6
Continuous
 62
     7
100
AcDbSpline
210
0.0
220
0.0
230
1.0
 70
     8
 71
     3
 72
     8
 73
     4
 74
     0
 42
0.00000001
 43
0.00000001
 40
14.0
 40
14.0
 40
14.0
 40
14.0
 40
15.0
 40
15.0
 40
15.0
 40
15.0
 10
2113.456961800002
 20
9.551403299999706
 30
0.0
 10
2186.516251800002
 20
9.727806299999475
 30
0.0
 10
2256.148319800001
 20
45.03520329999944
 30
0.0
 10
2256.223757800002
 20
127.2174874999994
 30
0.0
  0
SPLINE
  5
129
330
48
100
AcDbEntity
  8
0
  6
Continuous
 62
     7
100
AcDbSpline
210
0.0
220
0.0
230
1.0
 70
     8
 71
     3
 72
     8
 73
     4
 74
     0
 42
0.00000001
 43
0.00000001
 40
15.0
 40
15.0
 40
15.0
 40
15.0
 40
16.0
 40
16.0
 40
16.0
 40
16.0
 10
2256.223757800002
 20
127.2174874999994
 30
0.0
 10
2256.148319800001
 20
177.6710568999995
 30
0.0
 10
2231.173515800001
 20
215.5742068999995
 30
0.0
 10
2181.828681800002
 20
229.6366628999995
 30
0.0
  0
SPLINE
  5
12A
330
48
100
AcDbEntity
  8
0
  6
Continuous
 62
     7
100
AcDbSpline
210
0.0
220
0.0
230
1.0
 70
     8
 71
     3
 72
     8
 73
     4
 74
     0
 42
0.00000001
 43
0.00000001
 40
1.0
 40
1.0
 40
1.0
 40
1.0
 40
2.0
 40
2.0
 40
2.0
 40
2.0
 10
2089.414591800002
 20
345.3621108999995
 30
0.0
 10
2121.092963800002
 20
345.2866728999995
 30
0.0
 10
2150.654499800001
 20
337.3984488999997
 30
0.0
 10
2150.755337800002
 20
298.8653788999995
 30
0.0
  0
SPLINE
  5
12B
330
48
100
AcDbEntity
  8
0
  6
Continuous
 62
     7
100
AcDbSpline
210
0.0
220
0.0
230
1.0
 70
     8
 71
     3
 72
     8
 73
     4
 74
     0
 42
0.00000001
 43
0.00000001
 40
2.0
 40
2.0
 40
2.0
 40
2.0
 40
3.0
 40
3.0
 40
3.0
 40
3.0
 10
2150.755337800002
 20
298.8653788999995
 30
0.0
 10
2150.704791800002
 20
264.7676568999993
 30
0.0
 10
2127.368287800001
 20
250.5538168999992
 30
0.0
 10
2096.420673800002
 20
250.6295088999995
 30
0.0
  0
SPLINE
  5
12C
330
48
100
AcDbEntity
  8
0
  6
Continuous
 62
     7
100
AcDbSpline
210
0.0
220
0.0
230
1.0
 70
     8
 71
     3
 72
     8
 73
     4
 74
     0
 42
0.00000001
 43
0.00000001
 40
3.0
 40
3.0
 40
3.0
 40
3.0
 40
4.0
 40
4.0
 40
4.0
 40
4.0
 10
2103.149641800001
 20
190.0449208999993
 30
0.0
 10
2141.077937800001
 20
190.0954668999995
 30
0.0
 10
2167.262289800001
 20
173.5882608999995
 30
0.0
 10
2167.161451800001
 20
132.2073936999994
 30
0.0
  0
SPLINE
  5
12D
330
48
100
AcDbEntity
  8
0
  6
Continuous
 62
     7
100
AcDbSpline
210
0.0
220
0.0
230
1.0
 70
     8
 71
     3
 72
     8
 73
     4
 74
     0
 42
0.00000001
 43
0.00000001
 40
4.0
 40
4.0
 40
4.0
 40
4.0
 40
5.0
 40
5.0
 40
5.0
 40
5.0
 10
2167.161451800001
 20
132.2073936999994
 30
0.0
 10
2167.161451800001
 20
90.22160009999958
 30
0.0
 10
2136.516351800001
 20
78.93130009999982
 30
0.0
 10
2101.536741800001
 20
78.93130009999982
 30
0.0
  0
SPLINE
  5
12E
330
48
100
AcDbEntity
  8
0
  6
Continuous
 62
     7
100
AcDbSpline
210
0.0
220
0.0
230
1.0
 70
     8
 71
     3
 72
     8
 73
     4
 74
     0
 42
0.00000001
 43
0.00000001
 40
0.0
 40
0.0
 40
0.0
 40
0.0
 40
1.0
 40
1.0
 40
1.0
 40
1.0
 10
2672.9821318
 20
424.1422428999995
 30
0.0
 10
2547.7807058
 20
424.2179348999992
 30
0.0
 10
2474.040949800002
 20
330.7705728999993
 30
0.0
 10
2474.141787800001
 20
210.5086848999997
 30
0.0
  0
SPLINE
  5
12F
330
48
100
AcDbEntity
  8
0
  6
Continuous
 62
     7
100
AcDbSpline
210
0.0
220
0.0
230
1.0
 70
     8
 71
     3
 72
     8
 73
     4
 74
     0
 42
0.00000001
 43
0.00000001
 40
1.0
 40
1.0
 40
1.0
 40
1.0
 40
2.0
 40
2.0
 40
2.0
 40
2.0
 10
2474.141787800001
 20
210.5086848999997
 30
0.0
 10
2474.242625800001
 20
163.2809408999991
 30
0.0
 10
2486.465359800001
 20
120.0350532999996
 30
0.0
 10
2509.071105800001
 20
85.08048769999954
 30
0.0
  0
SPLINE
  5
130
330
48
100
AcDbEntity
  8
0
  6
Continuous
 62
     7
100
AcDbSpline
210
0.0
220
0.0
230
1.0
 70
     8
 71
     3
 72
     8
 73
     4
 74
     0
 42
0.00000001
 43
0.00000001
 40
8.0
 40
8.0
 40
8.0
 40
8.0
 40
9.0
 40
9.0
 40
9.0
 40
9.0
 10
2527.468325800002
 20
60.86179089999977
 30
0.0
 10
2561.490355800001
 20
23.36186589999922
 30
0.0
 10
2610.986319800001
 20
0.2772282999994324
 30
0.0
 10
2673.234099800001
 20
0.3528186999997018
 30
0.0
  0
SPLINE
  5
131
330
48
100
AcDbEntity
  8
0
  6
Continuous
 62
     7
100
AcDbSpline
210
0.0
220
0.0
230
1.0
 70
     8
 71
     3
 72
     8
 73
     4
 74
     0
 42
0.00000001
 43
0.00000001
 40
9.0
 40
9.0
 40
9.0
 40
9.0
 40
10.0
 40
10.0
 40
10.0
 40
10.0
 10
2673.234099800001
 20
0.3528186999997018
 30
0.0
 10
2798.460671800001
 20
0.3528186999997018
 30
0.0
 10
2872.099589800001
 20
93.90101869999911
 30
0.0
 10
2871.973605800001
 20
210.6346688999996
 30
0.0
  0
SPLINE
  5
132
330
48
100
AcDbEntity
  8
0
  6
Continuous
 62
     7
100
AcDbSpline
210
0.0
220
0.0
230
1.0
 70
     8
 71
     3
 72
     8
 73
     4
 74
     0
 42
0.00000001
 43
0.00000001
 40
10.0
 40
10.0
 40
10.0
 40
10.0
 40
11.0
 40
11.0
 40
11.0
 40
11.0
 10
2871.973605800001
 20
210.6346688999996
 30
0.0
 10
2872.023897800001
 20
330.8460108999998
 30
0.0
 10
2798.208703800001
 20
424.3439188999991
 30
0.0
 10
2672.9821318
 20
424.1422428999995
 30
0.0
  0
SPLINE
  5
133
330
48
100
AcDbEntity
  8
0
  6
Continuous
 62
     7
100
AcDbSpline
210
0.0
220
0.0
230
1.0
 70
     8
 71
     3
 72
     8
 73
     4
 74
     0
 42
0.00000001
 43
0.00000001
 40
3.0
 40
3.0
 40
3.0
 40
3.0
 40
4.0
 40
4.0
 40
4.0
 40
4.0
 10
2783.163267800001
 20
210.7103608999994
 30
0.0
 10
2783.238959800001
 20
143.0944686999993
 30
0.0
 10
2753.097795800001
 20
75.17626569999925
 30
0.0
 10
2673.208953800001
 20
75.05025629999973
 30
0.0
  0
SPLINE
  5
134
330
48
100
AcDbEntity
  8
0
  6
Continuous
 62
     7
100
AcDbSpline
210
0.0
220
0.0
230
1.0
 70
     8
 71
     3
 72
     8
 73
     4
 74
     0
 42
0.00000001
 43
0.00000001
 40
2.0
 40
2.0
 40
2.0
 40
2.0
 40
3.0
 40
3.0
 40
3.0
 40
3.0
 10
2673.057569800001
 20
349.3943608999994
 30
0.0
 10
2753.022103800001
 20
349.3943608999994
 30
0.0
 10
2783.012137800001
 20
281.4511388999996
 30
0.0
 10
2783.163267800001
 20
210.7103608999994
 30
0.0
  0
SPLINE
  5
135
330
48
100
AcDbEntity
  8
0
  6
Continuous
 62
     7
100
AcDbSpline
210
0.0
220
0.0
230
1.0
 70
     8
 71
     3
 72
     8
 73
     4
 74
     0
 42
0.00000001
 43
0.00000001
 40
1.0
 40
1.0
 40
1.0
 40
1.0
 40
2.0
 40
2.0
 40
2.0
 40
2.0
 10
2563.153547800001
 20
210.5086848999997
 30
0.0
 10
2563.052963800001
 20
281.3251548999993
 30
0.0
 10
2593.0175978
 20
349.3440688999993
 30
0.0
 10
2673.057569800001
 20
349.3943608999994
 30
0.0
  0
SPLINE
  5
136
330
48
100
AcDbEntity
  8
0
  6
Continuous
 62
     7
100
AcDbSpline
210
0.0
220
0.0
230
1.0
 70
     8
 71
     3
 72
     8
 73
     4
 74
     0
 42
0.00000001
 43
0.00000001
 40
0.0
 40
0.0
 40
0.0
 40
0.0
 40
1.0
 40
1.0
 40
1.0
 40
1.0
 10
2673.208953800001
 20
75.05025629999973
 30
0.0
 10
2593.244419800001
 20
75.0502562999995
 30
0.0
 10
2563.254385800001
 20
143.0692718999995
 30
0.0
 10
2563.153547800001
 20
210.5086848999997
 30
0.0
  0
ENDBLK
  5
4A
330
48
100
AcDbEntity
  8
0
100
AcDbBlockEnd
  0
BLOCK
  5
138
330
137
100
AcDbEntity
  8
0
100
AcDbBlockBegin
  2
effeff Logo fuer Schriftkopf
 70
     0
 10
0.0
 20
0.0
 30
0.0
  3
effeff Logo fuer Schriftkopf
  1

  0
INSERT
  5
142
330
137
100
AcDbEntity
  8
0
  6
Continuous
 62
     7
370
     0
100
AcDbBlockReference
  2
SW_NOTE_0
 10
10.9430671197
 20
8.8581138453
 30
0.0
  0
INSERT
  5
143
330
137
100
AcDbEntity
  8
0
  6
Continuous
 62
     7
100
AcDbBlockReference
  2
effeff Logo-0015_2
 10
0.0
 20
0.0
 30
0.0
 41
0.003
 42
0.003
 43
0.003
  0
ENDBLK
  5
139
330
137
100
AcDbEntity
  8
0
100
AcDbBlockEnd
  0
BLOCK
  5
13B
330
13A
100
AcDbEntity
  8
0
100
AcDbBlockBegin
  2
SW_NOTE_0
 70
     0
 10
0.0
 20
0.0
 30
0.0
  3
SW_NOTE_0
  1

  0
MTEXT
  5
13E
330
13A
100
AcDbEntity
  8
0
  6
Continuous
 62
     0
370
     0
100
AcDbMText
 10
0.0
 20
2.3874608764
 30
0.0
 40
1.8520833333
 41
0.0
 71
     1
 72
     1
  1
ASSA ABLOY
  7
SLDTEXTSTYLE0
 73
     1
 44
1.0
  0
MTEXT
  5
13F
330
13A
100
AcDbEntity
  8
0
  6
Continuous
 62
     0
370
     0
100
AcDbMText
 10
0.0
 20
-0.0819835382
 30
0.0
 40
1.8520833333
 41
0.0
 71
     1
 72
     1
  1
Sicherheitstechnik GmbH
  7
SLDTEXTSTYLE0
 73
     1
 44
1.0
  0
MTEXT
  5
140
330
13A
100
AcDbEntity
  8
0
  6
Continuous
 62
     0
370
     0
100
AcDbMText
 10
0.0
 20
-2.5514279528
 30
0.0
 40
1.8520833333
 41
0.0
 71
     1
 72
     1
  1
Bildstockstrasse 20
  7
SLDTEXTSTYLE0
 73
     1
 44
1.0
  0
MTEXT
  5
141
330
13A
100
AcDbEntity
  8
0
  6
Continuous
 62
     0
370
     0
100
AcDbMText
 10
0.0
 20
-5.0208723674
 30
0.0
 40
1.8520833333
 41
0.0
 71
     1
 72
     1
  1
72458 Albstadt
  7
SLDTEXTSTYLE0
 73
     1
 44
1.0
  0
ENDBLK
  5
13C
330
13A
100
AcDbEntity
  8
0
100
AcDbBlockEnd
  0
BLOCK
  5
16A
330
169
100
AcDbEntity
  8
0
100
AcDbBlockBegin
  2
SW_NOTE_1
 70
     0
 10
0.0
 20
0.0
 30
0.0
  3
SW_NOTE_1
  1

  0
MTEXT
  5
16D
330
169
100
AcDbEntity
  8
0
  6
Continuous
 62
     0
370
     0
100
AcDbMText
 10
0.0
 20
6.1391851107
 30
0.0
 40
4.7625
 41
0.0
 71
     1
 72
     1
  1
Mass X:
  7
SLDTEXTSTYLE1
 73
     1
 44
1.0
  0
MTEXT
  5
16F
330
169
100
AcDbEntity
  8
0
  6
Continuous
 62
     0
370
     0
100
AcDbMText
 10
0.0
 20
-0.2108148126
 30
0.0
 40
4.7625
 41
0.0
 71
     1
 72
     1
  1
Modell 118                 23.4 bis 26.4
  7
SLDTEXTSTYLE2
 73
     1
 44
1.0
  0
MTEXT
  5
170
330
169
100
AcDbEntity
  8
0
  6
Continuous
 62
     0
370
     0
100
AcDbMText
 10
0.0
 20
-6.5608147359
 30
0.0
 40
4.7625
 41
0.0
 71
     1
 72
     1
  1
Modell 143/343/332   23.4 bis 25.4
  7
SLDTEXTSTYLE1
 73
     1
 44
1.0
  0
ENDBLK
  5
16B
330
169
100
AcDbEntity
  8
0
100
AcDbBlockEnd
  0
BLOCK
  5
175
330
174
100
AcDbEntity
  8
0
100
AcDbBlockBegin
  2
SW_NOTE_2
 70
     0
 10
0.0
 20
0.0
 30
0.0
  3
SW_NOTE_2
  1

  0
MTEXT
  5
177
330
174
100
AcDbEntity
  8
0
  6
Continuous
 62
     0
370
     0
100
AcDbMText
 10
0.0
 20
2.0463950369
 30
0.0
 40
1.5875
 41
0.0
 71
     1
 72
     1
  1
Blatt
  7
SLDTEXTSTYLE1
 73
     1
 44
1.0
  0
MTEXT
  5
178
330
174
100
AcDbEntity
  8
0
  6
Continuous
 62
     0
370
     0
100
AcDbMText
 10
0.0
 20
-0.0702716042
 30
0.0
 40
1.5875
 41
0.0
 71
     1
 72
     1
  1
sheet
  7
SLDTEXTSTYLE1
 73
     1
 44
1.0
  0
ENDBLK
  5
176
330
174
100
AcDbEntity
  8
0
100
AcDbBlockEnd
  0
BLOCK
  5
17E
330
17D
100
AcDbEntity
  8
0
100
AcDbBlockBegin
  2
SW_NOTE_3
 70
     0
 10
0.0
 20
0.0
 30
0.0
  3
SW_NOTE_3
  1

  0
MTEXT
  5
180
330
17D
100
AcDbEntity
  8
0
  6
Continuous
 62
     0
370
     0
100
AcDbMText
 10
0.0
 20
2.0463950369
 30
0.0
 40
1.5875
 41
0.0
 71
     1
 72
     1
  1
freig.
  7
SLDTEXTSTYLE1
 73
     1
 44
1.0
  0
MTEXT
  5
181
330
17D
100
AcDbEntity
  8
0
  6
Continuous
 62
     0
370
     0
100
AcDbMText
 10
0.0
 20
-0.0702716042
 30
0.0
 40
1.5875
 41
0.0
 71
     1
 72
     1
  1
approved
  7
SLDTEXTSTYLE1
 73
     1
 44
1.0
  0
ENDBLK
  5
17F
330
17D
100
AcDbEntity
  8
0
100
AcDbBlockEnd
  0
BLOCK
  5
184
330
183
100
AcDbEntity
  8
0
100
AcDbBlockBegin
  2
SW_NOTE_4
 70
     0
 10
0.0
 20
0.0
 30
0.0
  3
SW_NOTE_4
  1

  0
MTEXT
  5
186
330
183
100
AcDbEntity
  8
0
  6
Continuous
 62
     0
370
     0
100
AcDbMText
 10
0.0
 20
2.0463950369
 30
0.0
 40
1.5875
 41
0.0
 71
     1
 72
     1
  1
Gepr.
  7
SLDTEXTSTYLE1
 73
     1
 44
1.0
  0
MTEXT
  5
187
330
183
100
AcDbEntity
  8
0
  6
Continuous
 62
     0
370
     0
100
AcDbMText
 10
0.0
 20
-0.0702716042
 30
0.0
 40
1.5875
 41
0.0
 71
     1
 72
     1
  1
checked
  7
SLDTEXTSTYLE1
 73
     1
 44
1.0
  0
ENDBLK
  5
185
330
183
100
AcDbEntity
  8
0
100
AcDbBlockEnd
  0
BLOCK
  5
18A
330
189
100
AcDbEntity
  8
0
100
AcDbBlockBegin
  2
SW_NOTE_5
 70
     0
 10
0.0
 20
0.0
 30
0.0
  3
SW_NOTE_5
  1

  0
MTEXT
  5
18C
330
189
100
AcDbEntity
  8
0
  6
Continuous
 62
     0
370
     0
100
AcDbMText
 10
0.0
 20
2.0463950369
 30
0.0
 40
1.5875
 41
0.0
 71
     1
 72
     1
  1
Bearb.
  7
SLDTEXTSTYLE1
 73
     1
 44
1.0
  0
MTEXT
  5
18D
330
189
100
AcDbEntity
  8
0
  6
Continuous
 62
     0
370
     0
100
AcDbMText
 10
0.0
 20
-0.0702716042
 30
0.0
 40
1.5875
 41
0.0
 71
     1
 72
     1
  1
author
  7
SLDTEXTSTYLE1
 73
     1
 44
1.0
  0
ENDBLK
  5
18B
330
189
100
AcDbEntity
  8
0
100
AcDbBlockEnd
  0
BLOCK
  5
190
330
18F
100
AcDbEntity
  8
0
100
AcDbBlockBegin
  2
SW_NOTE_6
 70
     0
 10
0.0
 20
0.0
 30
0.0
  3
SW_NOTE_6
  1

  0
MTEXT
  5
192
330
18F
100
AcDbEntity
  8
0
  6
Continuous
 62
     0
370
     0
100
AcDbMText
 10
0.0
 20
2.0463950369
 30
0.0
 40
1.5875
 41
0.0
 71
     1
 72
     1
  1
Name
  7
SLDTEXTSTYLE1
 73
     1
 44
1.0
  0
MTEXT
  5
193
330
18F
100
AcDbEntity
  8
0
  6
Continuous
 62
     0
370
     0
100
AcDbMText
 10
0.0
 20
-0.0702716042
 30
0.0
 40
1.5875
 41
0.0
 71
     1
 72
     1
  1
name
  7
SLDTEXTSTYLE1
 73
     1
 44
1.0
  0
ENDBLK
  5
191
330
18F
100
AcDbEntity
  8
0
100
AcDbBlockEnd
  0
BLOCK
  5
196
330
195
100
AcDbEntity
  8
0
100
AcDbBlockBegin
  2
SW_NOTE_7
 70
     0
 10
0.0
 20
0.0
 30
0.0
  3
SW_NOTE_7
  1

  0
MTEXT
  5
198
330
195
100
AcDbEntity
  8
0
  6
Continuous
 62
     0
370
     0
100
AcDbMText
 10
0.0
 20
2.0463950369
 30
0.0
 40
1.5875
 41
0.0
 71
     1
 72
     1
  1
Datum
  7
SLDTEXTSTYLE1
 73
     1
 44
1.0
  0
MTEXT
  5
199
330
195
100
AcDbEntity
  8
0
  6
Continuous
 62
     0
370
     0
100
AcDbMText
 10
0.0
 20
-0.0702716042
 30
0.0
 40
1.5875
 41
0.0
 71
     1
 72
     1
  1
date
  7
SLDTEXTSTYLE1
 73
     1
 44
1.0
  0
ENDBLK
  5
197
330
195
100
AcDbEntity
  8
0
100
AcDbBlockEnd
  0
BLOCK
  5
19C
330
19B
100
AcDbEntity
  8
0
100
AcDbBlockBegin
  2
SW_NOTE_8
 70
     0
 10
0.0
 20
0.0
 30
0.0
  3
SW_NOTE_8
  1

  0
MTEXT
  5
19E
330
19B
100
AcDbEntity
  8
0
  6
Continuous
 62
     0
370
     0
100
AcDbMText
 10
0.0
 20
2.0463950369
 30
0.0
 40
1.5875
 41
0.0
 71
     1
 72
     1
  1
Aenderung
  7
SLDTEXTSTYLE1
 73
     1
 44
1.0
  0
MTEXT
  5
19F
330
19B
100
AcDbEntity
  8
0
  6
Continuous
 62
     0
370
     0
100
AcDbMText
 10
0.0
 20
-0.0702716042
 30
0.0
 40
1.5875
 41
0.0
 71
     1
 72
     1
  1
description
  7
SLDTEXTSTYLE1
 73
     1
 44
1.0
  0
ENDBLK
  5
19D
330
19B
100
AcDbEntity
  8
0
100
AcDbBlockEnd
  0
BLOCK
  5
1A2
330
1A1
100
AcDbEntity
  8
0
100
AcDbBlockBegin
  2
SW_NOTE_9
 70
     0
 10
0.0
 20
0.0
 30
0.0
  3
SW_NOTE_9
  1

  0
MTEXT
  5
1A4
330
1A1
100
AcDbEntity
  8
0
  6
Continuous
 62
     0
370
     0
100
AcDbMText
 10
0.0
 20
2.0463950369
 30
0.0
 40
1.5875
 41
0.0
 71
     1
 72
     1
  1
Stand
  7
SLDTEXTSTYLE1
 73
     1
 44
1.0
  0
MTEXT
  5
1A5
330
1A1
100
AcDbEntity
  8
0
  6
Continuous
 62
     0
370
     0
100
AcDbMText
 10
0.0
 20
-0.0702716042
 30
0.0
 40
1.5875
 41
0.0
 71
     1
 72
     1
  1
state
  7
SLDTEXTSTYLE1
 73
     1
 44
1.0
  0
ENDBLK
  5
1A3
330
1A1
100
AcDbEntity
  8
0
100
AcDbBlockEnd
  0
BLOCK
  5
1B6
330
1B5
100
AcDbEntity
  8
0
100
AcDbBlockBegin
  2
SW_NOTE_10
 70
     0
 10
0.0
 20
0.0
 30
0.0
  3
SW_NOTE_10
  1

  0
MTEXT
  5
1B8
330
1B5
100
AcDbEntity
  8
0
  6
Continuous
 62
     0
370
     0
100
AcDbMText
 10
0.0
 20
3.4106583948
 30
0.0
 40
2.6458333333
 41
0.0
 71
     1
 72
     1
  1
Gewicht/
  7
SLDTEXTSTYLE1
 73
     1
 44
1.0
  0
MTEXT
  5
1B9
330
1B5
100
AcDbEntity
  8
0
  6
Continuous
 62
     0
370
     0
100
AcDbMText
 10
0.0
 20
-0.1171193403
 30
0.0
 40
2.6458333333
 41
0.0
 71
     1
 72
     1
  1
weight:
  7
SLDTEXTSTYLE1
 73
     1
 44
1.0
  0
ENDBLK
  5
1B7
330
1B5
100
AcDbEntity
  8
0
100
AcDbBlockEnd
  0
BLOCK
  5
1E0
330
1DF
100
AcDbEntity
  8
0
100
AcDbBlockBegin
  2
*D14
 70
     1
 10
0.0
 20
0.0
 30
0.0
  3
*D14
  1

  0
SOLID
  5
1E2
330
1DF
100
AcDbEntity
  8
0
  6
Continuous
 62
     7
370
     0
100
AcDbTrace
 10
145.2251359377
 20
241.9682394366
 30
0.0
 11
144.7251359377
 21
238.6682394366
 31
0.0
 12
145.7251359377
 22
238.6682394366
 32
0.0
 13
145.7251359377
 23
238.6682394366
 33
0.0
  0
SOLID
  5
1E3
330
1DF
100
AcDbEntity
  8
0
  6
Continuous
 62
     7
370
     0
100
AcDbTrace
 10
145.2251359377
 20
217.4956915426
 30
0.0
 11
145.7251359377
 21
220.7956915426
 31
0.0
 12
144.7251359377
 22
220.7956915426
 32
0.0
 13
144.7251359377
 23
220.7956915426
 33
0.0
  0
LINE
  5
1E4
330
1DF
100
AcDbEntity
  8
0
  6
Continuous
 62
     7
370
     0
100
AcDbLine
 10
145.2251359377
 20
241.9682394366
 30
0.0
 11
145.2251359377
 21
217.4956915426
 31
0.0
  0
MTEXT
  5
1E5
330
1DF
100
AcDbEntity
  8
0
  6
Continuous
 62
     7
370
     0
100
AcDbMText
 10
140.7133986157
 20
228.1295464813
 30
0.0
 40
3.5
 41
0.0
 71
     1
 72
     1
  1
X
  7
SLDTEXTSTYLE1
 11
-7.044195017643634E-15
 21
1.0
 31
0.0
 73
     1
 44
1.0
  0
ENDBLK
  5
1E1
330
1DF
100
AcDbEntity
  8
0
100
AcDbBlockEnd
  0
BLOCK
  5
1E9
330
1E8
100
AcDbEntity
  8
0
100
AcDbBlockBegin
  2
*D15
 70
     1
 10
0.0
 20
0.0
 30
0.0
  3
*D15
  1

  0
SOLID
  5
1EB
330
1E8
100
AcDbEntity
  8
0
  6
Continuous
 62
     7
370
     0
100
AcDbTrace
 10
50.314362869
 20
222.9682394366
 30
0.0
 11
49.814362869
 21
219.6682394366
 31
0.0
 12
50.814362869
 22
219.6682394366
 32
0.0
 13
50.814362869
 23
219.6682394366
 33
0.0
  0
SOLID
  5
1EC
330
1E8
100
AcDbEntity
  8
0
  6
Continuous
 62
     7
370
     0
100
AcDbTrace
 10
50.314362869
 20
197.9682394366
 30
0.0
 11
50.814362869
 21
201.2682394366
 31
0.0
 12
49.814362869
 22
201.2682394366
 32
0.0
 13
49.814362869
 23
201.2682394366
 33
0.0
  0
LINE
  5
1ED
330
1E8
100
AcDbEntity
  8
0
  6
Continuous
 62
     7
370
     0
100
AcDbLine
 10
69.5192998705
 20
222.9682394366
 30
0.0
 11
49.314362869
 21
222.9682394366
 31
0.0
  0
LINE
  5
1EE
330
1E8
100
AcDbEntity
  8
0
  6
Continuous
 62
     7
370
     0
100
AcDbLine
 10
69.5192998705
 20
197.9682394366
 30
0.0
 11
49.314362869
 21
197.9682394366
 31
0.0
  0
LINE
  5
1EF
330
1E8
100
AcDbEntity
  8
0
  6
Continuous
 62
     7
370
     0
100
AcDbLine
 10
50.314362869
 20
222.9682394366
 30
0.0
 11
50.314362869
 21
197.9682394366
 31
0.0
  0
MTEXT
  5
1F0
330
1E8
100
AcDbEntity
  8
0
  6
Continuous
 62
     7
370
     0
100
AcDbMText
 10
45.8026255469
 20
204.0073750184
 30
0.0
 40
3.5
 41
0.0
 71
     1
 72
     1
  1
25
  7
SLDTEXTSTYLE1
 11
-7.044195017643634E-15
 21
1.0
 31
0.0
 73
     1
 44
1.0
  0
MTEXT
  5
1F1
330
1E8
100
AcDbEntity
  8
0
  6
Continuous
 62
     7
370
     0
100
AcDbMText
 10
46.8534678769
 20
210.7108278698
 30
0.0
 40
2.45
 41
0.0
 71
     1
 72
     1
  1
-
  7
SLDTEXTSTYLE1
 11
-7.044195017643634E-15
 21
1.0
 31
0.0
 73
     1
 44
1.0
  0
MTEXT
  5
1F2
330
1E8
100
AcDbEntity
  8
0
  6
Continuous
 62
     7
370
     0
100
AcDbMText
 10
46.8534678769
 20
212.2509305834
 30
0.0
 40
2.45
 41
0.0
 71
     1
 72
     1
  1
0,3
  7
SLDTEXTSTYLE1
 11
-7.044195017643634E-15
 21
1.0
 31
0.0
 73
     1
 44
1.0
  0
MTEXT
  5
1F3
330
1E8
100
AcDbEntity
  8
0
  6
Continuous
 62
     7
370
     0
100
AcDbMText
 10
43.0966855352
 20
212.2509305834
 30
0.0
 40
2.45
 41
0.0
 71
     1
 72
     1
  1
0
  7
SLDTEXTSTYLE1
 11
-7.044195017643634E-15
 21
1.0
 31
0.0
 73
     1
 44
1.0
  0
ENDBLK
  5
1EA
330
1E8
100
AcDbEntity
  8
0
100
AcDbBlockEnd
  0
BLOCK
  5
1F6
330
1F5
100
AcDbEntity
  8
0
100
AcDbBlockBegin
  2
*D16
 70
     1
 10
0.0
 20
0.0
 30
0.0
  3
*D16
  1

  0
SOLID
  5
1F8
330
1F5
100
AcDbEntity
  8
0
  6
Continuous
 62
     7
370
     0
100
AcDbTrace
 10
59.5192998705
 20
222.9682394366
 30
0.0
 11
59.0192998705
 21
219.6682394366
 31
0.0
 12
60.0192998705
 22
219.6682394366
 32
0.0
 13
60.0192998705
 23
219.6682394366
 33
0.0
  0
SOLID
  5
1F9
330
1F5
100
AcDbEntity
  8
0
  6
Continuous
 62
     7
370
     0
100
AcDbTrace
 10
59.5192998705
 20
210.4682394366
 30
0.0
 11
60.0192998705
 21
213.7682394366
 31
0.0
 12
59.0192998705
 22
213.7682394366
 32
0.0
 13
59.0192998705
 23
213.7682394366
 33
0.0
  0
LINE
  5
1FA
330
1F5
100
AcDbEntity
  8
0
  6
Continuous
 62
     7
370
     0
100
AcDbLine
 10
69.5192998705
 20
222.9682394366
 30
0.0
 11
58.5192998705
 21
222.9682394366
 31
0.0
  0
LINE
  5
1FB
330
1F5
100
AcDbEntity
  8
0
  6
Continuous
 62
     7
370
     0
100
AcDbLine
 10
71.5192998705
 20
210.4682394366
 30
0.0
 11
58.5192998705
 21
210.4682394366
 31
0.0
  0
LINE
  5
1FC
330
1F5
100
AcDbEntity
  8
0
  6
Continuous
 62
     7
370
     0
100
AcDbLine
 10
59.5192998705
 20
222.9682394366
 30
0.0
 11
59.5192998705
 21
210.4682394366
 31
0.0
  0
MTEXT
  5
1FD
330
1F5
100
AcDbEntity
  8
0
  6
Continuous
 62
     7
370
     0
100
AcDbMText
 10
55.0075625484
 20
212.0400661651
 30
0.0
 40
3.5
 41
0.0
 71
     1
 72
     1
  1
12,5
  7
SLDTEXTSTYLE1
 11
-7.044195017643634E-15
 21
1.0
 31
0.0
 73
     1
 44
1.0
  0
ENDBLK
  5
1F7
330
1F5
100
AcDbEntity
  8
0
100
AcDbBlockEnd
  0
BLOCK
  5
200
330
1FF
100
AcDbEntity
  8
0
100
AcDbBlockBegin
  2
*D17
 70
     1
 10
0.0
 20
0.0
 30
0.0
  3
*D17
  1

  0
SOLID
  5
202
330
1FF
100
AcDbEntity
  8
0
  6
Continuous
 62
     7
370
     0
100
AcDbTrace
 10
41.5979367076
 20
197.9682394366
 30
0.0
 11
42.0979367076
 21
201.2682394366
 31
0.0
 12
41.0979367076
 22
201.2682394366
 32
0.0
 13
41.0979367076
 23
201.2682394366
 33
0.0
  0
SOLID
  5
203
330
1FF
100
AcDbEntity
  8
0
  6
Continuous
 62
     7
370
     0
100
AcDbTrace
 10
41.5979367076
 20
241.9682394366
 30
0.0
 11
41.0979367076
 21
238.6682394366
 31
0.0
 12
42.0979367076
 22
238.6682394366
 32
0.0
 13
42.0979367076
 23
238.6682394366
 33
0.0
  0
LINE
  5
204
330
1FF
100
AcDbEntity
  8
0
  6
Continuous
 62
     7
370
     0
100
AcDbLine
 10
69.5192998705
 20
197.9682394366
 30
0.0
 11
40.5979367076
 21
197.9682394366
 31
0.0
  0
LINE
  5
205
330
1FF
100
AcDbEntity
  8
0
  6
Continuous
 62
     7
370
     0
100
AcDbLine
 10
116.5192998705
 20
241.9682394366
 30
0.0
 11
40.5979367076
 21
241.9682394366
 31
0.0
  0
LINE
  5
206
330
1FF
100
AcDbEntity
  8
0
  6
Continuous
 62
     7
370
     0
100
AcDbLine
 10
41.5979367076
 20
197.9682394366
 30
0.0
 11
41.5979367076
 21
241.9682394366
 31
0.0
  0
MTEXT
  5
207
330
1FF
100
AcDbEntity
  8
0
  6
Continuous
 62
     7
370
     0
100
AcDbMText
 10
37.0861993856
 20
213.5073750184
 30
0.0
 40
3.5
 41
0.0
 71
     1
 72
     1
  1
44
  7
SLDTEXTSTYLE1
 11
-1.608122649676637E-16
 21
1.0
 31
0.0
 73
     1
 44
1.0
  0
MTEXT
  5
208
330
1FF
100
AcDbEntity
  8
0
  6
Continuous
 62
     7
370
     0
100
AcDbMText
 10
38.1370417156
 20
220.2108278698
 30
0.0
 40
2.45
 41
0.0
 71
     1
 72
     1
  1
-
  7
SLDTEXTSTYLE1
 11
-1.608122649676637E-16
 21
1.0
 31
0.0
 73
     1
 44
1.0
  0
MTEXT
  5
209
330
1FF
100
AcDbEntity
  8
0
  6
Continuous
 62
     7
370
     0
100
AcDbMText
 10
38.1370417156
 20
221.7509305834
 30
0.0
 40
2.45
 41
0.0
 71
     1
 72
     1
  1
0,3
  7
SLDTEXTSTYLE1
 11
-1.608122649676637E-16
 21
1.0
 31
0.0
 73
     1
 44
1.0
  0
MTEXT
  5
20A
330
1FF
100
AcDbEntity
  8
0
  6
Continuous
 62
     7
370
     0
100
AcDbMText
 10
34.3802593738
 20
221.7509305834
 30
0.0
 40
2.45
 41
0.0
 71
     1
 72
     1
  1
0
  7
SLDTEXTSTYLE1
 11
-1.608122649676637E-16
 21
1.0
 31
0.0
 73
     1
 44
1.0
  0
ENDBLK
  5
201
330
1FF
100
AcDbEntity
  8
0
100
AcDbBlockEnd
  0
BLOCK
  5
20E
330
20D
100
AcDbEntity
  8
0
100
AcDbBlockBegin
  2
*D18
 70
     1
 10
0.0
 20
0.0
 30
0.0
  3
*D18
  1

  0
SOLID
  5
210
330
20D
100
AcDbEntity
  8
0
  6
Continuous
 62
     7
370
     0
100
AcDbTrace
 10
69.5192998705
 20
185.647606052
 30
0.0
 11
66.2192998705
 21
186.147606052
 31
0.0
 12
66.2192998705
 22
185.147606052
 32
0.0
 13
66.2192998705
 23
185.147606052
 33
0.0
  0
SOLID
  5
211
330
20D
100
AcDbEntity
  8
0
  6
Continuous
 62
     7
370
     0
100
AcDbTrace
 10
76.5192998705
 20
185.647606052
 30
0.0
 11
79.8192998705
 21
185.147606052
 31
0.0
 12
79.8192998705
 22
186.147606052
 32
0.0
 13
79.8192998705
 23
186.147606052
 33
0.0
  0
LINE
  5
212
330
20D
100
AcDbEntity
  8
0
  6
Continuous
 62
     7
370
     0
100
AcDbLine
 10
69.5192998705
 20
197.9682394366
 30
0.0
 11
69.5192998705
 21
184.647606052
 31
0.0
  0
LINE
  5
213
330
20D
100
AcDbEntity
  8
0
  6
Continuous
 62
     7
370
     0
100
AcDbLine
 10
76.5192998705
 20
205.4682394366
 30
0.0
 11
76.5192998705
 21
184.647606052
 31
0.0
  0
LINE
  5
214
330
20D
100
AcDbEntity
  8
0
  6
Continuous
 62
     7
370
     0
100
AcDbLine
 10
69.5192998705
 20
185.647606052
 30
0.0
 11
63.2692998705
 21
185.647606052
 31
0.0
  0
LINE
  5
215
330
20D
100
AcDbEntity
  8
0
  6
Continuous
 62
     7
370
     0
100
AcDbLine
 10
69.5192998705
 20
185.647606052
 30
0.0
 11
76.5192998705
 21
185.647606052
 31
0.0
  0
LINE
  5
216
330
20D
100
AcDbEntity
  8
0
  6
Continuous
 62
     7
370
     0
100
AcDbLine
 10
76.5192998705
 20
185.647606052
 30
0.0
 11
82.7692998705
 21
185.647606052
 31
0.0
  0
MTEXT
  5
217
330
20D
100
AcDbEntity
  8
0
  6
Continuous
 62
     7
370
     0
100
AcDbMText
 10
71.6839506969
 20
190.1593433741
 30
0.0
 40
3.5
 41
0.0
 71
     1
 72
     1
  1
7
  7
SLDTEXTSTYLE1
 73
     1
 44
1.0
  0
ENDBLK
  5
20F
330
20D
100
AcDbEntity
  8
0
100
AcDbBlockEnd
  0
BLOCK
  5
21B
330
21A
100
AcDbEntity
  8
0
100
AcDbBlockBegin
  2
*D19
 70
     1
 10
0.0
 20
0.0
 30
0.0
  3
*D19
  1

  0
SOLID
  5
21D
330
21A
100
AcDbEntity
  8
0
  6
Continuous
 62
     7
370
     0
100
AcDbTrace
 10
76.5192998705
 20
173.9682394366
 30
0.0
 11
79.8192998705
 21
173.4682394366
 31
0.0
 12
79.8192998705
 22
174.4682394366
 32
0.0
 13
79.8192998705
 23
174.4682394366
 33
0.0
  0
SOLID
  5
21E
330
21A
100
AcDbEntity
  8
0
  6
Continuous
 62
     7
370
     0
100
AcDbTrace
 10
312.5192998705
 20
173.9682394366
 30
0.0
 11
309.2192998705
 21
174.4682394366
 31
0.0
 12
309.2192998705
 22
173.4682394366
 32
0.0
 13
309.2192998705
 23
173.4682394366
 33
0.0
  0
LINE
  5
21F
330
21A
100
AcDbEntity
  8
0
  6
Continuous
 62
     7
370
     0
100
AcDbLine
 10
76.5192998705
 20
205.4682394366
 30
0.0
 11
76.5192998705
 21
172.9682394366
 31
0.0
  0
LINE
  5
220
330
21A
100
AcDbEntity
  8
0
  6
Continuous
 62
     7
370
     0
100
AcDbLine
 10
312.5192998705
 20
205.4682394366
 30
0.0
 11
312.5192998705
 21
172.9682394366
 31
0.0
  0
LINE
  5
221
330
21A
100
AcDbEntity
  8
0
  6
Continuous
 62
     7
370
     0
100
AcDbLine
 10
76.5192998705
 20
173.9682394366
 30
0.0
 11
312.5192998705
 21
173.9682394366
 31
0.0
  0
MTEXT
  5
222
330
21A
100
AcDbEntity
  8
0
  6
Continuous
 62
     7
370
     0
100
AcDbMText
 10
186.7809514095
 20
178.4799767587
 30
0.0
 40
3.5
 41
0.0
 71
     1
 72
     1
  1
236
  7
SLDTEXTSTYLE1
 73
     1
 44
1.0
  0
MTEXT
  5
223
330
21A
100
AcDbEntity
  8
0
  6
Continuous
 62
     7
370
     0
100
AcDbMText
 10
196.1328467886
 20
177.4291344287
 30
0.0
 40
2.45
 41
0.0
 71
     1
 72
     1
  1
±0,2
  7
SLDTEXTSTYLE1
 73
     1
 44
1.0
  0
ENDBLK
  5
21C
330
21A
100
AcDbEntity
  8
0
100
AcDbBlockEnd
  0
BLOCK
  5
226
330
225
100
AcDbEntity
  8
0
100
AcDbBlockBegin
  2
*D20
 70
     1
 10
0.0
 20
0.0
 30
0.0
  3
*D20
  1

  0
SOLID
  5
228
330
225
100
AcDbEntity
  8
0
  6
Continuous
 62
     7
370
     0
100
AcDbTrace
 10
218.5192998705
 20
185.647606052
 30
0.0
 11
221.8192998705
 21
185.147606052
 31
0.0
 12
221.8192998705
 22
186.147606052
 32
0.0
 13
221.8192998705
 23
186.147606052
 33
0.0
  0
SOLID
  5
229
330
225
100
AcDbEntity
  8
0
  6
Continuous
 62
     7
370
     0
100
AcDbTrace
 10
292.5192998705
 20
185.647606052
 30
0.0
 11
289.2192998705
 21
186.147606052
 31
0.0
 12
289.2192998705
 22
185.147606052
 32
0.0
 13
289.2192998705
 23
185.147606052
 33
0.0
  0
LINE
  5
22A
330
225
100
AcDbEntity
  8
0
  6
Continuous
 62
     7
370
     0
100
AcDbLine
 10
218.5192998705
 20
204.9682394366
 30
0.0
 11
218.5192998705
 21
184.647606052
 31
0.0
  0
LINE
  5
22B
330
225
100
AcDbEntity
  8
0
  6
Continuous
 62
     7
370
     0
100
AcDbLine
 10
292.5192998705
 20
204.9682394366
 30
0.0
 11
292.5192998705
 21
184.647606052
 31
0.0
  0
LINE
  5
22C
330
225
100
AcDbEntity
  8
0
  6
Continuous
 62
     7
370
     0
100
AcDbLine
 10
218.5192998705
 20
185.647606052
 30
0.0
 11
292.5192998705
 21
185.647606052
 31
0.0
  0
MTEXT
  5
22D
330
225
100
AcDbEntity
  8
0
  6
Continuous
 62
     7
370
     0
100
AcDbMText
 10
252.8463759413
 20
190.1593433741
 30
0.0
 40
3.5
 41
0.0
 71
     1
 72
     1
  1
74
  7
SLDTEXTSTYLE1
 73
     1
 44
1.0
  0
ENDBLK
  5
227
330
225
100
AcDbEntity
  8
0
100
AcDbBlockEnd
  0
BLOCK
  5
230
330
22F
100
AcDbEntity
  8
0
100
AcDbBlockBegin
  2
*D21
 70
     1
 10
0.0
 20
0.0
 30
0.0
  3
*D21
  1

  0
ARC
  5
232
330
22F
100
AcDbEntity
  8
0
  6
Continuous
 62
     7
370
     0
100
AcDbCircle
 10
199.6269796192
 20
188.331657891
 30
0.0
 40
6.001722366975871
100
AcDbArc
 50
153.4349488229
 51
206.5650511771
  0
ARC
  5
233
330
22F
100
AcDbEntity
  8
0
  6
Continuous
 62
     7
370
     0
100
AcDbCircle
 10
197.4116201218
 20
188.331657891
 30
0.0
 40
6.001722366975871
100
AcDbArc
 50
333.4349488229
 51
26.5650511771
  0
SOLID
  5
234
330
22F
100
AcDbEntity
  8
0
  6
Continuous
 62
     7
370
     0
100
AcDbTrace
 10
178.5192998705
 20
185.647606052
 30
0.0
 11
181.8192998705
 21
185.147606052
 31
0.0
 12
181.8192998705
 22
186.147606052
 32
0.0
 13
181.8192998705
 23
186.147606052
 33
0.0
  0
SOLID
  5
235
330
22F
100
AcDbEntity
  8
0
  6
Continuous
 62
     7
370
     0
100
AcDbTrace
 10
218.5192998705
 20
185.647606052
 30
0.0
 11
215.2192998705
 21
186.147606052
 31
0.0
 12
215.2192998705
 22
185.147606052
 32
0.0
 13
215.2192998705
 23
185.147606052
 33
0.0
  0
LINE
  5
236
330
22F
100
AcDbEntity
  8
0
  6
Continuous
 62
     7
370
     0
100
AcDbLine
 10
178.5192998705
 20
203.7682394366
 30
0.0
 11
178.5192998705
 21
184.647606052
 31
0.0
  0
LINE
  5
237
330
22F
100
AcDbEntity
  8
0
  6
Continuous
 62
     7
370
     0
100
AcDbLine
 10
218.5192998705
 20
204.9682394366
 30
0.0
 11
218.5192998705
 21
184.647606052
 31
0.0
  0
LINE
  5
238
330
22F
100
AcDbEntity
  8
0
  6
Continuous
 62
     7
370
     0
100
AcDbLine
 10
178.5192998705
 20
185.647606052
 30
0.0
 11
218.5192998705
 21
185.647606052
 31
0.0
  0
MTEXT
  5
239
330
22F
100
AcDbEntity
  8
0
  6
Continuous
 62
     7
370
     0
100
AcDbMText
 10
195.8463759413
 20
190.1593433741
 30
0.0
 40
3.5
 41
0.0
 71
     1
 72
     1
  1
40
  7
SLDTEXTSTYLE1
 73
     1
 44
1.0
  0
ENDBLK
  5
231
330
22F
100
AcDbEntity
  8
0
100
AcDbBlockEnd
  0
BLOCK
  5
23D
330
23C
100
AcDbEntity
  8
0
100
AcDbBlockBegin
  2
*D22
 70
     1
 10
0.0
 20
0.0
 30
0.0
  3
*D22
  1

  0
SOLID
  5
23F
330
23C
100
AcDbEntity
  8
0
  6
Continuous
 62
     7
370
     0
100
AcDbTrace
 10
106.8328442649
 20
241.9682394366
 30
0.0
 11
106.3328442649
 21
238.6682394366
 31
0.0
 12
107.3328442649
 22
238.6682394366
 32
0.0
 13
107.3328442649
 23
238.6682394366
 33
0.0
  0
SOLID
  5
240
330
23C
100
AcDbEntity
  8
0
  6
Continuous
 62
     7
370
     0
100
AcDbTrace
 10
106.8328442649
 20
210.2682394366
 30
0.0
 11
107.3328442649
 21
213.5682394366
 31
0.0
 12
106.3328442649
 22
213.5682394366
 32
0.0
 13
106.3328442649
 23
213.5682394366
 33
0.0
  0
LINE
  5
241
330
23C
100
AcDbEntity
  8
0
  6
Continuous
 62
     7
370
     0
100
AcDbLine
 10
116.5192998705
 20
241.9682394366
 30
0.0
 11
105.8328442649
 21
241.9682394366
 31
0.0
  0
LINE
  5
242
330
23C
100
AcDbEntity
  8
0
  6
Continuous
 62
     7
370
     0
100
AcDbLine
 10
125.3692998705
 20
210.2682394366
 30
0.0
 11
105.8328442649
 21
210.2682394366
 31
0.0
  0
LINE
  5
243
330
23C
100
AcDbEntity
  8
0
  6
Continuous
 62
     7
370
     0
100
AcDbLine
 10
106.8328442649
 20
241.9682394366
 30
0.0
 11
106.8328442649
 21
210.2682394366
 31
0.0
  0
MTEXT
  5
244
330
23C
100
AcDbEntity
  8
0
  6
Continuous
 62
     7
370
     0
100
AcDbMText
 10
102.3211069428
 20
223.8160992526
 30
0.0
 40
3.5
 41
0.0
 71
     1
 72
     1
  1
31,7
  7
SLDTEXTSTYLE1
 11
-7.044195017643634E-15
 21
1.0
 31
0.0
 73
     1
 44
1.0
  0
MTEXT
  5
245
330
23C
100
AcDbEntity
  8
0
  6
Continuous
 62
     7
370
     0
100
AcDbMText
 10
103.3719492728
 20
234.5077949692
 30
0.0
 40
2.45
 41
0.0
 71
     1
 72
     1
  1
±0,1
  7
SLDTEXTSTYLE1
 11
-7.044195017643634E-15
 21
1.0
 31
0.0
 73
     1
 44
1.0
  0
ENDBLK
  5
23E
330
23C
100
AcDbEntity
  8
0
100
AcDbBlockEnd
  0
BLOCK
  5
248
330
247
100
AcDbEntity
  8
0
100
AcDbBlockBegin
  2
*D23
 70
     1
 10
0.0
 20
0.0
 30
0.0
  3
*D23
  1

  0
SOLID
  5
24A
330
247
100
AcDbEntity
  8
0
  6
Continuous
 62
     7
370
     0
100
AcDbTrace
 10
196.5192998705
 20
251.9682394366
 30
0.0
 11
193.2192998705
 21
252.4682394366
 31
0.0
 12
193.2192998705
 22
251.4682394366
 32
0.0
 13
193.2192998705
 23
251.4682394366
 33
0.0
  0
SOLID
  5
24B
330
247
100
AcDbEntity
  8
0
  6
Continuous
 62
     7
370
     0
100
AcDbTrace
 10
116.5192998705
 20
251.9682394366
 30
0.0
 11
119.8192998705
 21
251.4682394366
 31
0.0
 12
119.8192998705
 22
252.4682394366
 32
0.0
 13
119.8192998705
 23
252.4682394366
 33
0.0
  0
LINE
  5
24C
330
247
100
AcDbEntity
  8
0
  6
Continuous
 62
     7
370
     0
100
AcDbLine
 10
196.5192998705
 20
241.9682394366
 30
0.0
 11
196.5192998705
 21
252.9682394366
 31
0.0
  0
LINE
  5
24D
330
247
100
AcDbEntity
  8
0
  6
Continuous
 62
     7
370
     0
100
AcDbLine
 10
116.5192998705
 20
241.9682394366
 30
0.0
 11
116.5192998705
 21
252.9682394366
 31
0.0
  0
LINE
  5
24E
330
247
100
AcDbEntity
  8
0
  6
Continuous
 62
     7
370
     0
100
AcDbLine
 10
196.5192998705
 20
251.9682394366
 30
0.0
 11
116.5192998705
 21
251.9682394366
 31
0.0
  0
MTEXT
  5
24F
330
247
100
AcDbEntity
  8
0
  6
Continuous
 62
     7
370
     0
100
AcDbMText
 10
141.626176736
 20
256.4799767587
 30
0.0
 40
3.5
 41
0.0
 71
     1
 72
     1
  1
80
  7
SLDTEXTSTYLE1
 73
     1
 44
1.0
  0
MTEXT
  5
250
330
247
100
AcDbEntity
  8
0
  6
Continuous
 62
     7
370
     0
100
AcDbMText
 10
148.3296295874
 20
255.4291344287
 30
0.0
 40
2.45
 41
0.0
 71
     1
 72
     1
  1
-
  7
SLDTEXTSTYLE1
 73
     1
 44
1.0
  0
MTEXT
  5
251
330
247
100
AcDbEntity
  8
0
  6
Continuous
 62
     7
370
     0
100
AcDbMText
 10
149.869732301
 20
255.4291344287
 30
0.0
 40
2.45
 41
0.0
 71
     1
 72
     1
  1
0,3
  7
SLDTEXTSTYLE1
 73
     1
 44
1.0
  0
MTEXT
  5
252
330
247
100
AcDbEntity
  8
0
  6
Continuous
 62
     7
370
     0
100
AcDbMText
 10
149.869732301
 20
259.1859167704
 30
0.0
 40
2.45
 41
0.0
 71
     1
 72
     1
  1
0
  7
SLDTEXTSTYLE1
 73
     1
 44
1.0
  0
ENDBLK
  5
249
330
247
100
AcDbEntity
  8
0
100
AcDbBlockEnd
  0
BLOCK
  5
255
330
254
100
AcDbEntity
  8
0
100
AcDbBlockBegin
  2
*D24
 70
     1
 10
0.0
 20
0.0
 30
0.0
  3
*D24
  1

  0
ARC
  5
257
330
254
100
AcDbEntity
  8
0
  6
Continuous
 62
     7
370
     0
100
AcDbCircle
 10
94.1269796192
 20
254.6522912755
 30
0.0
 40
6.001722366975732
100
AcDbArc
 50
153.4349488229
 51
206.5650511771
  0
ARC
  5
258
330
254
100
AcDbEntity
  8
0
  6
Continuous
 62
     7
370
     0
100
AcDbCircle
 10
91.9116201218
 20
254.6522912755
 30
0.0
 40
6.001722366975706
100
AcDbArc
 50
333.4349488229
 51
26.5650511771
  0
SOLID
  5
259
330
254
100
AcDbEntity
  8
0
  6
Continuous
 62
     7
370
     0
100
AcDbTrace
 10
69.5192998705
 20
251.9682394366
 30
0.0
 11
72.8192998705
 21
251.4682394366
 31
0.0
 12
72.8192998705
 22
252.4682394366
 32
0.0
 13
72.8192998705
 23
252.4682394366
 33
0.0
  0
SOLID
  5
25A
330
254
100
AcDbEntity
  8
0
  6
Continuous
 62
     7
370
     0
100
AcDbTrace
 10
116.5192998705
 20
251.9682394366
 30
0.0
 11
113.2192998705
 21
252.4682394366
 31
0.0
 12
113.2192998705
 22
251.4682394366
 32
0.0
 13
113.2192998705
 23
251.4682394366
 33
0.0
  0
LINE
  5
25B
330
254
100
AcDbEntity
  8
0
  6
Continuous
 62
     7
370
     0
100
AcDbLine
 10
69.5192998705
 20
222.9682394366
 30
0.0
 11
69.5192998705
 21
252.9682394366
 31
0.0
  0
LINE
  5
25C
330
254
100
AcDbEntity
  8
0
  6
Continuous
 62
     7
370
     0
100
AcDbLine
 10
116.5192998705
 20
241.9682394366
 30
0.0
 11
116.5192998705
 21
252.9682394366
 31
0.0
  0
LINE
  5
25D
330
254
100
AcDbEntity
  8
0
  6
Continuous
 62
     7
370
     0
100
AcDbLine
 10
69.5192998705
 20
251.9682394366
 30
0.0
 11
116.5192998705
 21
251.9682394366
 31
0.0
  0
MTEXT
  5
25E
330
254
100
AcDbEntity
  8
0
  6
Continuous
 62
     7
370
     0
100
AcDbMText
 10
90.3463759413
 20
256.4799767587
 30
0.0
 40
3.5
 41
0.0
 71
     1
 72
     1
  1
47
  7
SLDTEXTSTYLE1
 73
     1
 44
1.0
  0
ENDBLK
  5
256
330
254
100
AcDbEntity
  8
0
100
AcDbBlockEnd
  0
BLOCK
  5
261
330
260
100
AcDbEntity
  8
0
100
AcDbBlockBegin
  2
*D25
 70
     1
 10
0.0
 20
0.0
 30
0.0
  3
*D25
  1

  0
SOLID
  5
263
330
260
100
AcDbEntity
  8
0
  6
Continuous
 62
     7
370
     0
100
AcDbTrace
 10
69.5192998705
 20
261.5439596215
 30
0.0
 11
72.8192998705
 21
261.0439596215
 31
0.0
 12
72.8192998705
 22
262.0439596215
 32
0.0
 13
72.8192998705
 23
262.0439596215
 33
0.0
  0
SOLID
  5
264
330
260
100
AcDbEntity
  8
0
  6
Continuous
 62
     7
370
     0
100
AcDbTrace
 10
156.5192998705
 20
261.5439596215
 30
0.0
 11
153.2192998705
 21
262.0439596215
 31
0.0
 12
153.2192998705
 22
261.0439596215
 32
0.0
 13
153.2192998705
 23
261.0439596215
 33
0.0
  0
LINE
  5
265
330
260
100
AcDbEntity
  8
0
  6
Continuous
 62
     7
370
     0
100
AcDbLine
 10
69.5192998705
 20
222.9682394366
 30
0.0
 11
69.5192998705
 21
262.5439596215
 31
0.0
  0
LINE
  5
266
330
260
100
AcDbEntity
  8
0
  6
Continuous
 62
     7
370
     0
100
AcDbLine
 10
156.5192998705
 20
244.0235551528
 30
0.0
 11
156.5192998705
 21
262.5439596215
 31
0.0
  0
LINE
  5
267
330
260
100
AcDbEntity
  8
0
  6
Continuous
 62
     7
370
     0
100
AcDbLine
 10
69.5192998705
 20
261.5439596215
 30
0.0
 11
156.5192998705
 21
261.5439596215
 31
0.0
  0
MTEXT
  5
268
330
260
100
AcDbEntity
  8
0
  6
Continuous
 62
     7
370
     0
100
AcDbMText
 10
106.6163005831
 20
266.0556969435
 30
0.0
 40
3.5
 41
0.0
 71
     1
 72
     1
  1
87
  7
SLDTEXTSTYLE1
 73
     1
 44
1.0
  0
MTEXT
  5
269
330
260
100
AcDbEntity
  8
0
  6
Continuous
 62
     7
370
     0
100
AcDbMText
 10
113.297497615
 20
265.0048546136
 30
0.0
 40
2.45
 41
0.0
 71
     1
 72
     1
  1
±0,2
  7
SLDTEXTSTYLE1
 73
     1
 44
1.0
  0
ENDBLK
  5
262
330
260
100
AcDbEntity
  8
0
100
AcDbBlockEnd
  0
BLOCK
  5
26C
330
26B
100
AcDbEntity
  8
0
100
AcDbBlockBegin
  2
*D26
 70
     1
 10
0.0
 20
0.0
 30
0.0
  3
*D26
  1

  0
SOLID
  5
26E
330
26B
100
AcDbEntity
  8
0
  6
Continuous
 62
     7
370
     0
100
AcDbTrace
 10
156.5192998705
 20
261.5439596215
 30
0.0
 11
159.8192998705
 21
261.0439596215
 31
0.0
 12
159.8192998705
 22
262.0439596215
 32
0.0
 13
159.8192998705
 23
262.0439596215
 33
0.0
  0
SOLID
  5
26F
330
26B
100
AcDbEntity
  8
0
  6
Continuous
 62
     7
370
     0
100
AcDbTrace
 10
255.5192998705
 20
261.5439596215
 30
0.0
 11
252.2192998705
 21
262.0439596215
 31
0.0
 12
252.2192998705
 22
261.0439596215
 32
0.0
 13
252.2192998705
 23
261.0439596215
 33
0.0
  0
LINE
  5
270
330
26B
100
AcDbEntity
  8
0
  6
Continuous
 62
     7
370
     0
100
AcDbLine
 10
156.5192998705
 20
244.0235551528
 30
0.0
 11
156.5192998705
 21
262.5439596215
 31
0.0
  0
LINE
  5
271
330
26B
100
AcDbEntity
  8
0
  6
Continuous
 62
     7
370
     0
100
AcDbLine
 10
255.5192998705
 20
219.9682394366
 30
0.0
 11
255.5192998705
 21
262.5439596215
 31
0.0
  0
LINE
  5
272
330
26B
100
AcDbEntity
  8
0
  6
Continuous
 62
     7
370
     0
100
AcDbLine
 10
156.5192998705
 20
261.5439596215
 30
0.0
 11
255.5192998705
 21
261.5439596215
 31
0.0
  0
MTEXT
  5
273
330
26B
100
AcDbEntity
  8
0
  6
Continuous
 62
     7
370
     0
100
AcDbMText
 10
199.6163005831
 20
266.0556969435
 30
0.0
 40
3.5
 41
0.0
 71
     1
 72
     1
  1
99
  7
SLDTEXTSTYLE1
 73
     1
 44
1.0
  0
MTEXT
  5
274
330
26B
100
AcDbEntity
  8
0
  6
Continuous
 62
     7
370
     0
100
AcDbMText
 10
206.297497615
 20
265.0048546136
 30
0.0
 40
2.45
 41
0.0
 71
     1
 72
     1
  1
±0,2
  7
SLDTEXTSTYLE1
 73
     1
 44
1.0
  0
ENDBLK
  5
26D
330
26B
100
AcDbEntity
  8
0
100
AcDbBlockEnd
  0
BLOCK
  5
277
330
276
100
AcDbEntity
  8
0
100
AcDbBlockBegin
  2
*D27
 70
     1
 10
0.0
 20
0.0
 30
0.0
  3
*D27
  1

  0
SOLID
  5
279
330
276
100
AcDbEntity
  8
0
  6
Continuous
 62
     7
370
     0
100
AcDbTrace
 10
69.5192998705
 20
163.986071618
 30
0.0
 11
72.8192998705
 21
163.486071618
 31
0.0
 12
72.8192998705
 22
164.486071618
 32
0.0
 13
72.8192998705
 23
164.486071618
 33
0.0
  0
SOLID
  5
27A
330
276
100
AcDbEntity
  8
0
  6
Continuous
 62
     7
370
     0
100
AcDbTrace
 10
319.5192998705
 20
163.986071618
 30
0.0
 11
316.2192998705
 21
164.486071618
 31
0.0
 12
316.2192998705
 22
163.486071618
 32
0.0
 13
316.2192998705
 23
163.486071618
 33
0.0
  0
LINE
  5
27B
330
276
100
AcDbEntity
  8
0
  6
Continuous
 62
     7
370
     0
100
AcDbLine
 10
69.5192998705
 20
197.9682394366
 30
0.0
 11
69.5192998705
 21
162.986071618
 31
0.0
  0
LINE
  5
27C
330
276
100
AcDbEntity
  8
0
  6
Continuous
 62
     7
370
     0
100
AcDbLine
 10
319.5192998705
 20
197.9682394366
 30
0.0
 11
319.5192998705
 21
162.986071618
 31
0.0
  0
LINE
  5
27D
330
276
100
AcDbEntity
  8
0
  6
Continuous
 62
     7
370
     0
100
AcDbLine
 10
69.5192998705
 20
163.986071618
 30
0.0
 11
319.5192998705
 21
163.986071618
 31
0.0
  0
MTEXT
  5
27E
330
276
100
AcDbEntity
  8
0
  6
Continuous
 62
     7
370
     0
100
AcDbMText
 10
186.7230862786
 20
168.49780894
 30
0.0
 40
3.5
 41
0.0
 71
     1
 72
     1
  1
250
  7
SLDTEXTSTYLE1
 73
     1
 44
1.0
  0
MTEXT
  5
27F
330
276
100
AcDbEntity
  8
0
  6
Continuous
 62
     7
370
     0
100
AcDbMText
 10
196.0972374773
 20
167.44696661
 30
0.0
 40
2.45
 41
0.0
 71
     1
 72
     1
  1
-
  7
SLDTEXTSTYLE1
 73
     1
 44
1.0
  0
MTEXT
  5
280
330
276
100
AcDbEntity
  8
0
  6
Continuous
 62
     7
370
     0
100
AcDbMText
 10
197.6373401908
 20
167.44696661
 30
0.0
 40
2.45
 41
0.0
 71
     1
 72
     1
  1
0,3
  7
SLDTEXTSTYLE1
 73
     1
 44
1.0
  0
MTEXT
  5
281
330
276
100
AcDbEntity
  8
0
  6
Continuous
 62
     7
370
     0
100
AcDbMText
 10
197.6373401908
 20
171.2037489517
 30
0.0
 40
2.45
 41
0.0
 71
     1
 72
     1
  1
0
  7
SLDTEXTSTYLE1
 73
     1
 44
1.0
  0
ENDBLK
  5
278
330
276
100
AcDbEntity
  8
0
100
AcDbBlockEnd
  0
BLOCK
  5
284
330
283
100
AcDbEntity
  8
0
100
AcDbBlockBegin
  2
*D28
 70
     1
 10
0.0
 20
0.0
 30
0.0
  3
*D28
  1

  0
SOLID
  5
286
330
283
100
AcDbEntity
  8
0
  6
Continuous
 62
     7
370
     0
100
AcDbTrace
 10
234.3620404875
 20
218.9682394366
 30
0.0
 11
233.8620404875
 21
215.6682394366
 31
0.0
 12
234.8620404875
 22
215.6682394366
 32
0.0
 13
234.8620404875
 23
215.6682394366
 33
0.0
  0
SOLID
  5
287
330
283
100
AcDbEntity
  8
0
  6
Continuous
 62
     7
370
     0
100
AcDbTrace
 10
234.3620404875
 20
204.9682394366
 30
0.0
 11
234.8620404875
 21
208.2682394366
 31
0.0
 12
233.8620404875
 22
208.2682394366
 32
0.0
 13
233.8620404875
 23
208.2682394366
 33
0.0
  0
LINE
  5
288
330
283
100
AcDbEntity
  8
0
  6
Continuous
 62
     7
370
     0
100
AcDbLine
 10
218.5192998705
 20
218.9682394366
 30
0.0
 11
235.3620404875
 21
218.9682394366
 31
0.0
  0
LINE
  5
289
330
283
100
AcDbEntity
  8
0
  6
Continuous
 62
     7
370
     0
100
AcDbLine
 10
218.5192998705
 20
204.9682394366
 30
0.0
 11
235.3620404875
 21
204.9682394366
 31
0.0
  0
LINE
  5
28A
330
283
100
AcDbEntity
  8
0
  6
Continuous
 62
     7
370
     0
100
AcDbLine
 10
234.3620404875
 20
218.9682394366
 30
0.0
 11
234.3620404875
 21
204.9682394366
 31
0.0
  0
MTEXT
  5
28B
330
283
100
AcDbEntity
  8
0
  6
Continuous
 62
     7
370
     0
100
AcDbMText
 10
229.8503031654
 20
209.2953155075
 30
0.0
 40
3.5
 41
0.0
 71
     1
 72
     1
  1
14
  7
SLDTEXTSTYLE1
 11
-7.044195017643634E-15
 21
1.0
 31
0.0
 73
     1
 44
1.0
  0
ENDBLK
  5
285
330
283
100
AcDbEntity
  8
0
100
AcDbBlockEnd
  0
BLOCK
  5
28E
330
28D
100
AcDbEntity
  8
0
100
AcDbBlockBegin
  2
*D29
 70
     1
 10
0.0
 20
0.0
 30
0.0
  3
*D29
  1

  0
SOLID
  5
290
330
28D
100
AcDbEntity
  8
0
  6
Continuous
 62
     7
370
     0
100
AcDbTrace
 10
275.4722317695
 20
222.9682394366
 30
0.0
 11
275.9722317695
 21
226.2682394366
 31
0.0
 12
274.9722317695
 22
226.2682394366
 32
0.0
 13
274.9722317695
 23
226.2682394366
 33
0.0
  0
SOLID
  5
291
330
28D
100
AcDbEntity
  8
0
  6
Continuous
 62
     7
370
     0
100
AcDbTrace
 10
275.4722317695
 20
218.9682394366
 30
0.0
 11
274.9722317695
 21
215.6682394366
 31
0.0
 12
275.9722317695
 22
215.6682394366
 32
0.0
 13
275.9722317695
 23
215.6682394366
 33
0.0
  0
LINE
  5
292
330
28D
100
AcDbEntity
  8
0
  6
Continuous
 62
     7
370
     0
100
AcDbLine
 10
275.4722317695
 20
222.9682394366
 30
0.0
 11
275.4722317695
 21
232.7907947065
 31
0.0
  0
LINE
  5
293
330
28D
100
AcDbEntity
  8
0
  6
Continuous
 62
     7
370
     0
100
AcDbLine
 10
275.4722317695
 20
222.9682394366
 30
0.0
 11
275.4722317695
 21
218.9682394366
 31
0.0
  0
LINE
  5
294
330
28D
100
AcDbEntity
  8
0
  6
Continuous
 62
     7
370
     0
100
AcDbLine
 10
275.4722317695
 20
218.9682394366
 30
0.0
 11
275.4722317695
 21
212.7182394366
 31
0.0
  0
MTEXT
  5
295
330
28D
100
AcDbEntity
  8
0
  6
Continuous
 62
     7
370
     0
100
AcDbMText
 10
270.9604944475
 20
228.5325963593
 30
0.0
 40
3.5
 41
0.0
 71
     1
 72
     1
  1
4
  7
SLDTEXTSTYLE1
 11
-7.044195017643634E-15
 21
1.0
 31
0.0
 73
     1
 44
1.0
  0
ENDBLK
  5
28F
330
28D
100
AcDbEntity
  8
0
100
AcDbBlockEnd
  0
BLOCK
  5
299
330
298
100
AcDbEntity
  8
0
100
AcDbBlockBegin
  2
*D30
 70
     1
 10
0.0
 20
0.0
 30
0.0
  3
*D30
  1

  0
SOLID
  5
29B
330
298
100
AcDbEntity
  8
0
  6
Continuous
 62
     7
370
     0
100
AcDbTrace
 10
329.5192998705
 20
213.4682394366
 30
0.0
 11
330.0192998705
 21
216.7682394366
 31
0.0
 12
329.0192998705
 22
216.7682394366
 32
0.0
 13
329.0192998705
 23
216.7682394366
 33
0.0
  0
SOLID
  5
29C
330
298
100
AcDbEntity
  8
0
  6
Continuous
 62
     7
370
     0
100
AcDbTrace
 10
329.5192998705
 20
207.4682394366
 30
0.0
 11
329.0192998705
 21
204.1682394366
 31
0.0
 12
330.0192998705
 22
204.1682394366
 32
0.0
 13
330.0192998705
 23
204.1682394366
 33
0.0
  0
LINE
  5
29D
330
298
100
AcDbEntity
  8
0
  6
Continuous
 62
     7
370
     0
100
AcDbLine
 10
312.5192998705
 20
213.4682394366
 30
0.0
 11
330.5192998705
 21
213.4682394366
 31
0.0
  0
LINE
  5
29E
330
298
100
AcDbEntity
  8
0
  6
Continuous
 62
     7
370
     0
100
AcDbLine
 10
312.5192998705
 20
207.4682394366
 30
0.0
 11
330.5192998705
 21
207.4682394366
 31
0.0
  0
LINE
  5
29F
330
298
100
AcDbEntity
  8
0
  6
Continuous
 62
     7
370
     0
100
AcDbLine
 10
329.5192998705
 20
213.4682394366
 30
0.0
 11
329.5192998705
 21
226.9781685527
 31
0.0
  0
LINE
  5
2A0
330
298
100
AcDbEntity
  8
0
  6
Continuous
 62
     7
370
     0
100
AcDbLine
 10
329.5192998705
 20
213.4682394366
 30
0.0
 11
329.5192998705
 21
207.4682394366
 31
0.0
  0
LINE
  5
2A1
330
298
100
AcDbEntity
  8
0
  6
Continuous
 62
     7
370
     0
100
AcDbLine
 10
329.5192998705
 20
207.4682394366
 30
0.0
 11
329.5192998705
 21
201.2182394366
 31
0.0
  0
MTEXT
  5
2A2
330
298
100
AcDbEntity
  8
0
  6
Continuous
 62
     7
370
     0
100
AcDbMText
 10
325.0075627813
 20
217.6189363624
 30
0.0
 40
3.5
 41
0.0
 71
     1
 72
     1
  1
%%c
  7
SLDTEXTSTYLE1
 11
-7.044195017643634E-15
 21
1.0
 31
0.0
 73
     1
 44
1.0
  0
MTEXT
  5
2A3
330
298
100
AcDbEntity
  8
0
  6
Continuous
 62
     7
370
     0
100
AcDbMText
 10
325.0075625484
 20
222.7199702055
 30
0.0
 40
3.5
 41
0.0
 71
     1
 72
     1
  1
6
  7
SLDTEXTSTYLE1
 11
-7.044195017643634E-15
 21
1.0
 31
0.0
 73
     1
 44
1.0
  0
ENDBLK
  5
29A
330
298
100
AcDbEntity
  8
0
100
AcDbBlockEnd
  0
BLOCK
  5
2A6
330
2A5
100
AcDbEntity
  8
0
100
AcDbBlockBegin
  2
*D31
 70
     1
 10
0.0
 20
0.0
 30
0.0
  3
*D31
  1

  0
SOLID
  5
2A8
330
2A5
100
AcDbEntity
  8
0
  6
Continuous
 62
     7
370
     0
100
AcDbTrace
 10
337.7681827252
 20
214.4682394366
 30
0.0
 11
338.2681827252
 21
217.7682394366
 31
0.0
 12
337.2681827252
 22
217.7682394366
 32
0.0
 13
337.2681827252
 23
217.7682394366
 33
0.0
  0
SOLID
  5
2A9
330
2A5
100
AcDbEntity
  8
0
  6
Continuous
 62
     7
370
     0
100
AcDbTrace
 10
337.7681827252
 20
206.4682394366
 30
0.0
 11
337.2681827252
 21
203.1682394366
 31
0.0
 12
338.2681827252
 22
203.1682394366
 32
0.0
 13
338.2681827252
 23
203.1682394366
 33
0.0
  0
LINE
  5
2AA
330
2A5
100
AcDbEntity
  8
0
  6
Continuous
 62
     7
370
     0
100
AcDbLine
 10
312.5192998705
 20
214.4682394366
 30
0.0
 11
338.7681827252
 21
214.4682394366
 31
0.0
  0
LINE
  5
2AB
330
2A5
100
AcDbEntity
  8
0
  6
Continuous
 62
     7
370
     0
100
AcDbLine
 10
312.5192998705
 20
206.4682394366
 30
0.0
 11
338.7681827252
 21
206.4682394366
 31
0.0
  0
LINE
  5
2AC
330
2A5
100
AcDbEntity
  8
0
  6
Continuous
 62
     7
370
     0
100
AcDbLine
 10
337.7681827252
 20
214.4682394366
 30
0.0
 11
337.7681827252
 21
220.7182394366
 31
0.0
  0
LINE
  5
2AD
330
2A5
100
AcDbEntity
  8
0
  6
Continuous
 62
     7
370
     0
100
AcDbLine
 10
337.7681827252
 20
214.4682394366
 30
0.0
 11
337.7681827252
 21
206.4682394366
 31
0.0
  0
LINE
  5
2AE
330
2A5
100
AcDbEntity
  8
0
  6
Continuous
 62
     7
370
     0
100
AcDbLine
 10
337.7681827252
 20
206.4682394366
 30
0.0
 11
337.7681827252
 21
200.2182394366
 31
0.0
  0
MTEXT
  5
2AF
330
2A5
100
AcDbEntity
  8
0
  6
Continuous
 62
     7
370
     0
100
AcDbMText
 10
333.256445636
 20
206.5823733415
 30
0.0
 40
3.5
 41
0.0
 71
     1
 72
     1
  1
%%c
  7
SLDTEXTSTYLE1
 11
-7.044195017643634E-15
 21
1.0
 31
0.0
 73
     1
 44
1.0
  0
MTEXT
  5
2B0
330
2A5
100
AcDbEntity
  8
0
  6
Continuous
 62
     7
370
     0
100
AcDbMText
 10
333.2564454032
 20
211.6834071846
 30
0.0
 40
3.5
 41
0.0
 71
     1
 72
     1
  1
8
  7
SLDTEXTSTYLE1
 11
-7.044195017643634E-15
 21
1.0
 31
0.0
 73
     1
 44
1.0
  0
ENDBLK
  5
2A7
330
2A5
100
AcDbEntity
  8
0
100
AcDbBlockEnd
  0
BLOCK
  5
2B5
330
2B4
100
AcDbEntity
  8
0
100
AcDbBlockBegin
  2
SW_CENTERMARKSYMBOL_0
 70
     0
 10
0.0
 20
0.0
 30
0.0
  3
SW_CENTERMARKSYMBOL_0
  1

  0
LINE
  5
2B7
330
2B4
100
AcDbEntity
  8
0
  6
Continuous
 62
     0
370
     0
100
AcDbLine
 10
0.0
 20
0.0
 30
0.0
 11
0.0
 21
1.0
 31
0.0
  0
LINE
  5
2B8
330
2B4
100
AcDbEntity
  8
0
  6
Continuous
 62
     0
370
     0
100
AcDbLine
 10
0.0
 20
0.0
 30
0.0
 11
-1.0
 21
0.0
 31
0.0
  0
LINE
  5
2B9
330
2B4
100
AcDbEntity
  8
0
  6
Continuous
 62
     0
370
     0
100
AcDbLine
 10
0.0
 20
0.0
 30
0.0
 11
0.0
 21
-1.0
 31
0.0
  0
LINE
  5
2BA
330
2B4
100
AcDbEntity
  8
0
  6
Continuous
 62
     0
370
     0
100
AcDbLine
 10
0.0
 20
0.0
 30
0.0
 11
1.0
 21
0.0
 31
0.0
  0
LINE
  5
2BB
330
2B4
100
AcDbEntity
  8
0
  6
Continuous
 62
     0
370
     0
100
AcDbLine
 10
0.0
 20
2.0
 30
0.0
 11
0.0
 21
4.9
 31
0.0
  0
LINE
  5
2BC
330
2B4
100
AcDbEntity
  8
0
  6
Continuous
 62
     0
370
     0
100
AcDbLine
 10
-2.0
 20
0.0
 30
0.0
 11
-4.9
 21
0.0
 31
0.0
  0
LINE
  5
2BD
330
2B4
100
AcDbEntity
  8
0
  6
Continuous
 62
     0
370
     0
100
AcDbLine
 10
0.0
 20
-2.0
 30
0.0
 11
0.0
 21
-4.9
 31
0.0
  0
LINE
  5
2BE
330
2B4
100
AcDbEntity
  8
0
  6
Continuous
 62
     0
370
     0
100
AcDbLine
 10
2.0
 20
0.0
 30
0.0
 11
4.9
 21
0.0
 31
0.0
  0
ENDBLK
  5
2B6
330
2B4
100
AcDbEntity
  8
0
100
AcDbBlockEnd
  0
BLOCK
  5
2C1
330
2C0
100
AcDbEntity
  8
0
100
AcDbBlockBegin
  2
SW_CENTERMARKSYMBOL_1
 70
     0
 10
0.0
 20
0.0
 30
0.0
  3
SW_CENTERMARKSYMBOL_1
  1

  0
LINE
  5
2C3
330
2C0
100
AcDbEntity
  8
0
  6
Continuous
 62
     0
370
     0
100
AcDbLine
 10
0.0
 20
0.0
 30
0.0
 11
0.0
 21
1.0
 31
0.0
  0
LINE
  5
2C4
330
2C0
100
AcDbEntity
  8
0
  6
Continuous
 62
     0
370
     0
100
AcDbLine
 10
0.0
 20
0.0
 30
0.0
 11
-1.0
 21
0.0
 31
0.0
  0
LINE
  5
2C5
330
2C0
100
AcDbEntity
  8
0
  6
Continuous
 62
     0
370
     0
100
AcDbLine
 10
0.0
 20
0.0
 30
0.0
 11
0.0
 21
-1.0
 31
0.0
  0
LINE
  5
2C6
330
2C0
100
AcDbEntity
  8
0
  6
Continuous
 62
     0
370
     0
100
AcDbLine
 10
0.0
 20
0.0
 30
0.0
 11
1.0
 21
0.0
 31
0.0
  0
LINE
  5
2C7
330
2C0
100
AcDbEntity
  8
0
  6
Continuous
 62
     0
370
     0
100
AcDbLine
 10
0.0
 20
2.0
 30
0.0
 11
0.0
 21
4.9
 31
0.0
  0
LINE
  5
2C8
330
2C0
100
AcDbEntity
  8
0
  6
Continuous
 62
     0
370
     0
100
AcDbLine
 10
-2.0
 20
0.0
 30
0.0
 11
-4.9
 21
0.0
 31
0.0
  0
LINE
  5
2C9
330
2C0
100
AcDbEntity
  8
0
  6
Continuous
 62
     0
370
     0
100
AcDbLine
 10
0.0
 20
-2.0
 30
0.0
 11
0.0
 21
-4.9
 31
0.0
  0
LINE
  5
2CA
330
2C0
100
AcDbEntity
  8
0
  6
Continuous
 62
     0
370
     0
100
AcDbLine
 10
2.0
 20
0.0
 30
0.0
 11
4.9
 21
0.0
 31
0.0
  0
ENDBLK
  5
2C2
330
2C0
100
AcDbEntity
  8
0
100
AcDbBlockEnd
  0
BLOCK
  5
2CD
330
2CC
100
AcDbEntity
  8
0
100
AcDbBlockBegin
  2
SW_CENTERMARKSYMBOL_2
 70
     0
 10
0.0
 20
0.0
 30
0.0
  3
SW_CENTERMARKSYMBOL_2
  1

  0
LINE
  5
2CF
330
2CC
100
AcDbEntity
  8
0
  6
Continuous
 62
     0
370
     0
100
AcDbLine
 10
0.0
 20
0.0
 30
0.0
 11
0.0
 21
1.0
 31
0.0
  0
LINE
  5
2D0
330
2CC
100
AcDbEntity
  8
0
  6
Continuous
 62
     0
370
     0
100
AcDbLine
 10
0.0
 20
0.0
 30
0.0
 11
-1.0
 21
0.0
 31
0.0
  0
LINE
  5
2D1
330
2CC
100
AcDbEntity
  8
0
  6
Continuous
 62
     0
370
     0
100
AcDbLine
 10
0.0
 20
0.0
 30
0.0
 11
0.0
 21
-1.0
 31
0.0
  0
LINE
  5
2D2
330
2CC
100
AcDbEntity
  8
0
  6
Continuous
 62
     0
370
     0
100
AcDbLine
 10
0.0
 20
0.0
 30
0.0
 11
1.0
 21
0.0
 31
0.0
  0
LINE
  5
2D3
330
2CC
100
AcDbEntity
  8
0
  6
Continuous
 62
     0
370
     0
100
AcDbLine
 10
0.0
 20
2.0
 30
0.0
 11
0.0
 21
5.0
 31
0.0
  0
LINE
  5
2D4
330
2CC
100
AcDbEntity
  8
0
  6
Continuous
 62
     0
370
     0
100
AcDbLine
 10
-2.0
 20
0.0
 30
0.0
 11
-5.0
 21
0.0
 31
0.0
  0
LINE
  5
2D5
330
2CC
100
AcDbEntity
  8
0
  6
Continuous
 62
     0
370
     0
100
AcDbLine
 10
0.0
 20
-2.0
 30
0.0
 11
0.0
 21
-5.0
 31
0.0
  0
LINE
  5
2D6
330
2CC
100
AcDbEntity
  8
0
  6
Continuous
 62
     0
370
     0
100
AcDbLine
 10
2.0
 20
0.0
 30
0.0
 11
5.0
 21
0.0
 31
0.0
  0
ENDBLK
  5
2CE
330
2CC
100
AcDbEntity
  8
0
100
AcDbBlockEnd
  0
BLOCK
  5
2D9
330
2D8
100
AcDbEntity
  8
0
100
AcDbBlockBegin
  2
SW_CENTERMARKSYMBOL_3
 70
     0
 10
0.0
 20
0.0
 30
0.0
  3
SW_CENTERMARKSYMBOL_3
  1

  0
LINE
  5
2DB
330
2D8
100
AcDbEntity
  8
0
  6
Continuous
 62
     0
370
     0
100
AcDbLine
 10
0.0
 20
0.0
 30
0.0
 11
0.0
 21
1.0
 31
0.0
  0
LINE
  5
2DC
330
2D8
100
AcDbEntity
  8
0
  6
Continuous
 62
     0
370
     0
100
AcDbLine
 10
0.0
 20
0.0
 30
0.0
 11
-1.0
 21
0.0
 31
0.0
  0
LINE
  5
2DD
330
2D8
100
AcDbEntity
  8
0
  6
Continuous
 62
     0
370
     0
100
AcDbLine
 10
0.0
 20
0.0
 30
0.0
 11
0.0
 21
-1.0
 31
0.0
  0
LINE
  5
2DE
330
2D8
100
AcDbEntity
  8
0
  6
Continuous
 62
     0
370
     0
100
AcDbLine
 10
0.0
 20
0.0
 30
0.0
 11
1.0
 21
0.0
 31
0.0
  0
LINE
  5
2DF
330
2D8
100
AcDbEntity
  8
0
  6
Continuous
 62
     0
370
     0
100
AcDbLine
 10
0.0
 20
2.0
 30
0.0
 11
0.0
 21
5.0
 31
0.0
  0
LINE
  5
2E0
330
2D8
100
AcDbEntity
  8
0
  6
Continuous
 62
     0
370
     0
100
AcDbLine
 10
-2.0
 20
0.0
 30
0.0
 11
-5.0
 21
0.0
 31
0.0
  0
LINE
  5
2E1
330
2D8
100
AcDbEntity
  8
0
  6
Continuous
 62
     0
370
     0
100
AcDbLine
 10
0.0
 20
-2.0
 30
0.0
 11
0.0
 21
-5.0
 31
0.0
  0
LINE
  5
2E2
330
2D8
100
AcDbEntity
  8
0
  6
Continuous
 62
     0
370
     0
100
AcDbLine
 10
2.0
 20
0.0
 30
0.0
 11
5.0
 21
0.0
 31
0.0
  0
ENDBLK
  5
2DA
330
2D8
100
AcDbEntity
  8
0
100
AcDbBlockEnd
  0
BLOCK
  5
332
330
331
100
AcDbEntity
  8
0
100
AcDbBlockBegin
  2
*D36
 70
     1
 10
0.0
 20
0.0
 30
0.0
  3
*D36
  1

  0
SOLID
  5
334
330
331
100
AcDbEntity
  8
0
  6
Continuous
 62
     7
370
     0
100
AcDbTrace
 10
59.5192998705
 20
128.0147491569
 30
0.0
 11
59.0192998705
 21
124.7147491569
 31
0.0
 12
60.0192998705
 22
124.7147491569
 32
0.0
 13
60.0192998705
 23
124.7147491569
 33
0.0
  0
SOLID
  5
335
330
331
100
AcDbEntity
  8
0
  6
Continuous
 62
     7
370
     0
100
AcDbTrace
 10
59.5192998705
 20
131.0147491569
 30
0.0
 11
60.0192998705
 21
134.3147491569
 31
0.0
 12
59.0192998705
 22
134.3147491569
 32
0.0
 13
59.0192998705
 23
134.3147491569
 33
0.0
  0
LINE
  5
336
330
331
100
AcDbEntity
  8
0
  6
Continuous
 62
     7
370
     0
100
AcDbLine
 10
69.5192998705
 20
128.0147491569
 30
0.0
 11
58.5192998705
 21
128.0147491569
 31
0.0
  0
LINE
  5
337
330
331
100
AcDbEntity
  8
0
  6
Continuous
 62
     7
370
     0
100
AcDbLine
 10
69.5192998705
 20
131.0147491569
 30
0.0
 11
58.5192998705
 21
131.0147491569
 31
0.0
  0
LINE
  5
338
330
331
100
AcDbEntity
  8
0
  6
Continuous
 62
     7
370
     0
100
AcDbLine
 10
59.5192998705
 20
128.0147491569
 30
0.0
 11
59.5192998705
 21
121.7647491569
 31
0.0
  0
LINE
  5
339
330
331
100
AcDbEntity
  8
0
  6
Continuous
 62
     7
370
     0
100
AcDbLine
 10
59.5192998705
 20
128.0147491569
 30
0.0
 11
59.5192998705
 21
131.0147491569
 31
0.0
  0
LINE
  5
33A
330
331
100
AcDbEntity
  8
0
  6
Continuous
 62
     7
370
     0
100
AcDbLine
 10
59.5192998705
 20
131.0147491569
 30
0.0
 11
59.5192998705
 21
139.9337402054
 31
0.0
  0
MTEXT
  5
33B
330
331
100
AcDbEntity
  8
0
  6
Continuous
 62
     7
370
     0
100
AcDbMText
 10
55.0075625484
 20
135.6755418582
 30
0.0
 40
3.5
 41
0.0
 71
     1
 72
     1
  1
3
  7
SLDTEXTSTYLE1
 11
6.123233995736766E-17
 21
1.0
 31
0.0
 73
     1
 44
1.0
  0
ENDBLK
  5
333
330
331
100
AcDbEntity
  8
0
100
AcDbBlockEnd
  0
ENDSEC
  0
SECTION
  2
ENTITIES
  0
LINE
  5
144
330
1F
100
AcDbEntity
  8
0
  6
Continuous
 62
     7
370
     0
100
AcDbLine
 10
420.0
 20
297.0
 30
0.0
 11
420.0
 21
0.1
 31
0.0
  0
LINE
  5
145
330
1F
100
AcDbEntity
  8
0
  6
Continuous
 62
     7
370
     0
100
AcDbLine
 10
420.0
 20
0.1
 30
0.0
 11
0.0
 21
0.1
 31
0.0
  0
LINE
  5
146
330
1F
100
AcDbEntity
  8
0
  6
Continuous
 62
     7
370
     0
100
AcDbLine
 10
0.0
 20
0.1
 30
0.0
 11
0.0
 21
297.0
 31
0.0
  0
LINE
  5
147
330
1F
100
AcDbEntity
  8
0
  6
Continuous
 62
     7
370
     0
100
AcDbLine
 10
0.0
 20
297.0
 30
0.0
 11
420.0
 21
297.0
 31
0.0
  0
LINE
  5
148
330
1F
100
AcDbEntity
  8
LINIEN-DICK
100
AcDbLine
 10
415.0
 20
292.0
 30
0.0
 11
5.0
 21
292.0
 31
0.0
  0
LINE
  5
149
330
1F
100
AcDbEntity
  8
LINIEN-DICK
100
AcDbLine
 10
5.0
 20
292.0
 30
0.0
 11
5.0
 21
5.0
 31
0.0
  0
LINE
  5
14A
330
1F
100
AcDbEntity
  8
0
  6
Continuous
 62
     7
370
     0
100
AcDbLine
 10
21.0
 20
292.0
 30
0.0
 11
21.0
 21
5.0
 31
0.0
  0
LINE
  5
14B
330
1F
100
AcDbEntity
  8
LINIEN-DICK
100
AcDbLine
 10
5.0
 20
5.0
 30
0.0
 11
227.8
 21
5.0
 31
0.0
  0
LINE
  5
14C
330
1F
100
AcDbEntity
  8
LINIEN-DICK
100
AcDbLine
 10
415.0
 20
60.25
 30
0.0
 11
415.0
 21
292.0
 31
0.0
  0
LINE
  5
14D
330
1F
100
AcDbEntity
  8
LINIEN-DICK
100
AcDbLine
 10
227.8
 20
60.25
 30
0.0
 11
227.8
 21
5.0
 31
0.0
  0
LINE
  5
14E
330
1F
100
AcDbEntity
  8
0
  6
Continuous
 62
     7
370
     0
100
AcDbLine
 10
235.42
 20
43.25
 30
0.0
 11
235.42
 21
5.0
 31
0.0
  0
LINE
  5
14F
330
1F
100
AcDbEntity
  8
0
  6
Continuous
 62
     7
370
     0
100
AcDbLine
 10
260.82
 20
5.0
 30
0.0
 11
260.82
 21
43.25
 31
0.0
  0
LINE
  5
150
330
1F
100
AcDbEntity
  8
0
  6
Continuous
 62
     7
370
     0
100
AcDbLine
 10
281.14
 20
22.0
 30
0.0
 11
415.0
 21
22.0
 31
0.0
  0
LINE
  5
151
330
1F
100
AcDbEntity
  8
0
  6
Continuous
 62
     7
370
     0
100
AcDbLine
 10
415.0
 20
43.25
 30
0.0
 11
227.8
 21
43.25
 31
0.0
  0
LINE
  5
152
330
1F
100
AcDbEntity
  8
LINIEN-DICK
100
AcDbLine
 10
227.8
 20
60.25
 30
0.0
 11
415.0
 21
60.25
 31
0.0
  0
LINE
  5
153
330
1F
100
AcDbEntity
  8
0
  6
Continuous
 62
     7
370
     0
100
AcDbLine
 10
281.14
 20
38.9447711707
 30
0.0
 11
227.8
 21
38.9447711707
 31
0.0
  0
LINE
  5
154
330
1F
100
AcDbEntity
  8
0
  6
Continuous
 62
     7
370
     0
100
AcDbLine
 10
281.14
 20
5.0
 30
0.0
 11
281.14
 21
60.25
 31
0.0
  0
LINE
  5
155
330
1F
100
AcDbEntity
  8
LINIEN-DICK
100
AcDbLine
 10
324.32
 20
60.25
 30
0.0
 11
324.32
 21
5.0
 31
0.0
  0
LINE
  5
156
330
1F
100
AcDbEntity
  8
0
  6
Continuous
 62
     7
370
     0
100
AcDbLine
 10
273.52
 20
43.25
 30
0.0
 11
273.52
 21
5.0
 31
0.0
  0
LINE
  5
157
330
1F
100
AcDbEntity
  8
0
  6
Continuous
 62
     7
370
     0
100
AcDbLine
 10
290.5491845626
 20
22.0
 30
0.0
 11
290.5491845626
 21
43.25
 31
0.0
  0
LINE
  5
158
330
1F
100
AcDbEntity
  8
0
  6
Continuous
 62
     7
370
     0
100
AcDbLine
 10
281.14
 20
13.5
 30
0.0
 11
227.8
 21
13.5
 31
0.0
  0
LINE
  5
159
330
1F
100
AcDbEntity
  8
0
  6
Continuous
 62
     7
370
     0
100
AcDbLine
 10
306.6969257405
 20
60.25
 30
0.0
 11
306.6969257405
 21
22.0
 31
0.0
  0
LINE
  5
15A
330
1F
100
AcDbEntity
  8
0
  6
Continuous
 62
     7
370
     0
100
AcDbLine
 10
368.48
 20
5.0
 30
0.0
 11
368.48
 21
9.25
 31
0.0
  0
LINE
  5
15B
330
1F
100
AcDbEntity
  8
0
  6
Continuous
 62
     7
370
     0
100
AcDbLine
 10
376.28
 20
53.875
 30
0.0
 11
376.28
 21
60.25
 31
0.0
  0
LINE
  5
15C
330
1F
100
AcDbEntity
  8
0
  6
Continuous
 62
     7
370
     0
100
AcDbLine
 10
227.8
 20
9.23
 30
0.0
 11
415.0
 21
9.23
 31
0.0
  0
LINE
  5
15D
330
1F
100
AcDbEntity
  8
0
  6
Continuous
 62
     7
370
     0
100
AcDbLine
 10
399.68
 20
9.25
 30
0.0
 11
399.68
 21
22.0
 31
0.0
  0
LINE
  5
15E
330
1F
100
AcDbEntity
  8
0
  6
Continuous
 62
     7
370
     0
100
AcDbLine
 10
415.0
 20
53.875
 30
0.0
 11
324.32
 21
53.875
 31
0.0
  0
LINE
  5
15F
330
1F
100
AcDbEntity
  8
LINIEN-DICK
100
AcDbLine
 10
415.0
 20
5.0
 30
0.0
 11
415.0
 21
60.25
 31
0.0
  0
LINE
  5
160
330
1F
100
AcDbEntity
  8
LINIEN-DICK
100
AcDbLine
 10
227.8
 20
5.0
 30
0.0
 11
415.0
 21
5.0
 31
0.0
  0
LINE
  5
161
330
1F
100
AcDbEntity
  8
0
  6
Continuous
 62
     7
370
     0
100
AcDbLine
 10
281.14
 20
17.75
 30
0.0
 11
227.8
 21
17.75
 31
0.0
  0
LINE
  5
162
330
1F
100
AcDbEntity
  8
0
  6
Continuous
 62
     7
370
     0
100
AcDbLine
 10
281.14
 20
22.0
 30
0.0
 11
227.8
 21
22.0
 31
0.0
  0
LINE
  5
163
330
1F
100
AcDbEntity
  8
0
  6
Continuous
 62
     7
370
     0
100
AcDbLine
 10
324.32
 20
26.25
 30
0.0
 11
227.8
 21
26.25
 31
0.0
  0
LINE
  5
164
330
1F
100
AcDbEntity
  8
0
  6
Continuous
 62
     7
370
     0
100
AcDbLine
 10
324.32
 20
30.5
 30
0.0
 11
227.8
 21
30.5
 31
0.0
  0
LINE
  5
165
330
1F
100
AcDbEntity
  8
0
  6
Continuous
 62
     7
370
     0
100
AcDbLine
 10
324.32
 20
34.75
 30
0.0
 11
227.8
 21
34.75
 31
0.0
  0
LINE
  5
166
330
1F
100
AcDbEntity
  8
0
  6
Continuous
 62
     7
370
     0
100
AcDbLine
 10
324.32
 20
38.9447711707
 30
0.0
 11
281.14
 21
38.9447711707
 31
0.0
  0
LINE
  5
167
330
1F
100
AcDbEntity
  8
0
  6
Continuous
 62
     7
370
     0
100
AcDbLine
 10
415.0
 20
13.5
 30
0.0
 11
399.68
 21
13.5
 31
0.0
  0
INSERT
  5
168
330
1F
100
AcDbEntity
  8
0
  6
Continuous
 62
     7
100
AcDbBlockReference
  2
effeff Logo fuer Schriftkopf
 10
281.4163612828
 20
9.5537357694
 30
0.0
  0
INSERT
  5
171
330
1F
100
AcDbEntity
  8
0
  6
Continuous
 62
     7
370
     0
100
AcDbBlockReference
  2
SW_NOTE_1
 10
226.7639732107
 20
88.3426066526
 30
0.0
  0
MTEXT
  5
172
330
1F
100
AcDbEntity
  8
0
  6
Continuous
 62
     7
370
     0
100
AcDbMText
 10
325.8260642912
 20
21.0127144526
 30
0.0
 40
2.5
 41
0.0
 71
     1
 72
     1
  1
Zeichnungsnummer/drawing number:
  7
SLDTEXTSTYLE1
 73
     1
 44
1.0
  0
MTEXT
  5
173
330
1F
100
AcDbEntity
  8
0
  6
Continuous
 62
     7
370
     0
100
AcDbMText
 10
325.8260642912
 20
52.3779131886
 30
0.0
 40
2.5
 41
0.0
 71
     1
 72
     1
  1
Werkstoff/material:
  7
SLDTEXTSTYLE1
 73
     1
 44
1.0
  0
INSERT
  5
179
330
1F
100
AcDbEntity
  8
0
  6
Continuous
 62
     7
370
     0
100
AcDbBlockReference
  2
SW_NOTE_2
 10
400.679992
 20
19.3836658113
 30
0.0
  0
MTEXT
  5
17A
330
1F
100
AcDbEntity
  8
0
  6
Continuous
 62
     7
370
     0
100
AcDbMText
 10
308.6624886193
 20
42.1115838431
 30
0.0
 40
2.0
 41
0.0
 71
     1
 72
     1
  1
Name/name
  7
SLDTEXTSTYLE1
 73
     1
 44
1.0
  0
MTEXT
  5
17B
330
1F
100
AcDbEntity
  8
0
  6
Continuous
 62
     7
370
     0
100
AcDbMText
 10
291.5276529145
 20
42.2400306748
 30
0.0
 40
2.1166666667
 41
0.0
 71
     1
 72
     1
  1
Datum/date
  7
SLDTEXTSTYLE1
 73
     1
 44
1.0
  0
MTEXT
  5
17C
330
1F
100
AcDbEntity
  8
0
  6
Continuous
 62
     7
370
     0
100
AcDbMText
 10
325.7973605375
 20
58.5086132061
 30
0.0
 40
2.5
 41
0.0
 71
     1
 72
     1
  1
Maßstab/scale: 1:1
  7
SLDTEXTSTYLE1
 73
     1
 44
1.0
  0
INSERT
  5
182
330
1F
100
AcDbEntity
  8
0
  6
Continuous
 62
     7
370
     0
100
AcDbBlockReference
  2
SW_NOTE_3
 10
281.5969414389
 20
24.2146643741
 30
0.0
  0
INSERT
  5
188
330
1F
100
AcDbEntity
  8
0
  6
Continuous
 62
     7
370
     0
100
AcDbBlockReference
  2
SW_NOTE_4
 10
281.5969414389
 20
32.6160489974
 30
0.0
  0
INSERT
  5
18E
330
1F
100
AcDbEntity
  8
0
  6
Continuous
 62
     7
370
     0
100
AcDbBlockReference
  2
SW_NOTE_5
 10
281.5969414389
 20
36.7918740267
 30
0.0
  0
INSERT
  5
194
330
1F
100
AcDbEntity
  8
0
  6
Continuous
 62
     7
370
     0
100
AcDbBlockReference
  2
SW_NOTE_6
 10
274.5994263081
 20
7.1633912139
 30
0.0
  0
INSERT
  5
19A
330
1F
100
AcDbEntity
  8
0
  6
Continuous
 62
     7
370
     0
100
AcDbBlockReference
  2
SW_NOTE_7
 10
264.1179175561
 20
7.1633910975
 30
0.0
  0
INSERT
  5
1A0
330
1F
100
AcDbEntity
  8
0
  6
Continuous
 62
     7
370
     0
100
AcDbBlockReference
  2
SW_NOTE_8
 10
242.4345306832
 20
7.1633909811
 30
0.0
  0
INSERT
  5
1A6
330
1F
100
AcDbEntity
  8
0
  6
Continuous
 62
     7
370
     0
100
AcDbBlockReference
  2
SW_NOTE_9
 10
228.8348455297
 20
6.9203474822
 30
0.0
  0
MTEXT
  5
1A7
330
1F
100
AcDbEntity
  8
0
  6
Continuous
 62
     7
370
     0
100
AcDbMText
 10
325.5963189226
 20
41.9881722711
 30
0.0
 40
2.5
 41
0.0
 71
     1
 72
     1
  1
Benennung/name:
  7
SLDTEXTSTYLE1
 73
     1
 44
1.0
  0
MTEXT
  5
1A8
330
1F
100
AcDbEntity
  8
0
  6
Continuous
 62
     7
370
     0
100
AcDbMText
 10
389.3572359152
 20
58.6789710928
 30
0.0
 40
2.6458333333
 41
0.0
 71
     1
 72
     1
  1
166296
  7
SLDTEXTSTYLE0
 73
     1
 44
1.0
  0
MTEXT
  5
1A9
330
1F
100
AcDbEntity
  8
0
  6
Continuous
 62
     7
370
     0
100
AcDbMText
 10
369.079582564
 20
53.1292798643
 30
0.0
 40
2.1166666667
 41
0.0
 71
     1
 72
     1
  1
SBL-Lapp
  7
SLDTEXTSTYLE0
 73
     1
 44
1.0
  0
MTEXT
  5
1AA
330
1F
100
AcDbEntity
  8
0
  6
Continuous
 62
     7
370
     0
100
AcDbMText
 10
339.6372376212
 20
36.8399577249
 30
0.0
 40
3.7041666667
 41
0.0
 71
     1
 72
     1
  1
Schliessblech Profix 2
  7
SLDTEXTSTYLE0
 73
     1
 44
1.0
  0
MTEXT
  5
1AB
330
1F
100
AcDbEntity
  8
0
  6
Continuous
 62
     7
370
     0
100
AcDbMText
 10
354.5327913219
 20
31.79580762
 30
0.0
 40
3.7041666667
 41
0.0
 71
     1
 72
     1
  1
face plate
  7
SLDTEXTSTYLE0
 73
     1
 44
1.0
  0
MTEXT
  5
1AC
330
1F
100
AcDbEntity
  8
0
  6
Continuous
 62
     7
370
     0
100
AcDbMText
 10
347.9887647757
 20
26.9758419643
 30
0.0
 40
3.7041666667
 41
0.0
 71
     1
 72
     1
  1
Masszeichnung
  7
SLDTEXTSTYLE0
 73
     1
 44
1.0
  0
MTEXT
  5
1AD
330
1F
100
AcDbEntity
  8
0
  6
Continuous
 62
     7
370
     0
100
AcDbMText
 10
325.9399734772
 20
15.7666195091
 30
0.0
 40
3.7041666667
 41
0.0
 71
     1
 72
     1
  1
118.13-70-32-01-1000
  7
SLDTEXTSTYLE0
 73
     1
 44
1.0
  0
MTEXT
  5
1AE
330
1F
100
AcDbEntity
  8
0
  6
Continuous
 62
     7
370
     0
100
AcDbMText
 10
310.8921718949
 20
38.0103977868
 30
0.0
 40
2.1166666667
 41
0.0
 71
     1
 72
     1
  1
sauter
  7
SLDTEXTSTYLE0
 73
     1
 44
1.0
  0
MTEXT
  5
1AF
330
1F
100
AcDbEntity
  8
0
  6
Continuous
 62
     7
370
     0
100
AcDbMText
 10
291.5635737288
 20
38.0103977868
 30
0.0
 40
2.1166666667
 41
0.0
 71
     1
 72
     1
  1
05.08.10
  7
SLDTEXTSTYLE0
 73
     1
 44
1.0
  0
MTEXT
  5
1B0
330
1F
100
AcDbEntity
  8
0
  6
Continuous
 62
     7
370
     0
100
AcDbMText
 10
325.9399734772
 20
8.9548062719
 30
0.0
 40
2.9104166667
 41
0.0
 71
     1
 72
     1
  1
-------15C..-01
  7
SLDTEXTSTYLE0
 73
     1
 44
1.0
  0
MTEXT
  5
1B1
330
1F
100
AcDbEntity
  8
0
  6
Continuous
 62
     7
370
     0
100
AcDbMText
 10
400.4718753549
 20
16.4743802336
 30
0.0
 40
2.1166666667
 41
0.0
 71
     1
 72
     1
  1
1
  7
SLDTEXTSTYLE1
 73
     1
 44
1.0
  0
MTEXT
  5
1B2
330
1F
100
AcDbEntity
  8
0
  6
Continuous
 62
     7
370
     0
100
AcDbMText
 10
403.2139810665
 20
16.4743801754
 30
0.0
 40
2.1166666667
 41
0.0
 71
     1
 72
     1
  1
(A3)
  7
SLDTEXTSTYLE1
 73
     1
 44
1.0
  0
MTEXT
  5
1B3
330
1F
100
AcDbEntity
  8
0
  6
Continuous
 62
     7
370
     0
100
AcDbMText
 10
408.0730426314
 20
12.2318141691
 30
0.0
 40
2.1166666667
 41
0.0
 71
     1
 72
     1
  1
1
  7
SLDTEXTSTYLE1
 73
     1
 44
1.0
  0
MTEXT
  5
1B4
330
1F
100
AcDbEntity
  8
0
  6
Continuous
 62
     7
370
     0
100
AcDbMText
 10
400.4718753549
 20
12.2318141691
 30
0.0
 40
2.1166666667
 41
0.0
 71
     1
 72
     1
  1
1 von
  7
SLDTEXTSTYLE1
 73
     1
 44
1.0
  0
INSERT
  5
1BA
330
1F
100
AcDbEntity
  8
0
  6
Continuous
 62
     7
370
     0
100
AcDbBlockReference
  2
SW_NOTE_10
 10
308.7749742127
 20
55.2200058741
 30
0.0
  0
MTEXT
  5
1BB
330
1F
100
AcDbEntity
  8
0
  6
Continuous
 62
     7
370
     0
100
AcDbMText
 10
320.17368302
 20
49.2589754895
 30
0.0
 40
2.6458333333
 41
0.0
 71
     1
 72
     1
  1
g
  7
SLDTEXTSTYLE1
 73
     1
 44
1.0
  0
LINE
  5
1BC
330
1F
100
AcDbEntity
  8
0
  6
Continuous
 62
     7
370
    40
100
AcDbLine
 10
292.5193072615
 20
204.9682395923
 30
0.0
 11
292.5193072615
 21
218.9682395588
 31
0.0
  0
LINE
  5
1BD
330
1F
100
AcDbEntity
  8
0
  6
Continuous
 62
     7
370
    40
100
AcDbLine
 10
292.5193072615
 20
218.9682395588
 30
0.0
 11
218.5192988572
 21
218.9682395588
 31
0.0
  0
LINE
  5
1BE
330
1F
100
AcDbEntity
  8
0
  6
Continuous
 62
     7
370
    40
100
AcDbLine
 10
218.5192988572
 20
218.9682395588
 30
0.0
 11
218.5192988572
 21
204.9682395923
 31
0.0
  0
LINE
  5
1BF
330
1F
100
AcDbEntity
  8
0
  6
Continuous
 62
     7
370
    40
100
AcDbLine
 10
218.5192988572
 20
204.9682395923
 30
0.0
 11
292.5193072615
 21
204.9682395923
 31
0.0
  0
LINE
  5
1C0
330
1F
100
AcDbEntity
  8
0
  6
Continuous
 62
     7
370
    40
100
AcDbLine
 10
116.5193007645
 20
241.9682396035
 30
0.0
 11
116.5193007645
 21
222.9682392831
 31
0.0
  0
LINE
  5
1C1
330
1F
100
AcDbEntity
  8
0
  6
Continuous
 62
     7
370
    40
100
AcDbLine
 10
196.5192989764
 20
241.9682396035
 30
0.0
 11
116.5193007645
 21
241.9682396035
 31
0.0
  0
LINE
  5
1C2
330
1F
100
AcDbEntity
  8
0
  6
Continuous
 62
     7
370
    40
100
AcDbLine
 10
196.5192989764
 20
222.9682392831
 30
0.0
 11
196.5192989764
 21
241.9682396035
 31
0.0
  0
LINE
  5
1C3
330
1F
100
AcDbEntity
  8
0
  6
Continuous
 62
     7
370
    40
100
AcDbLine
 10
319.5193023739
 20
222.9682392831
 30
0.0
 11
196.5192989764
 21
222.9682392831
 31
0.0
  0
LINE
  5
1C4
330
1F
100
AcDbEntity
  8
0
  6
Continuous
 62
     7
370
    40
100
AcDbLine
 10
319.5193023739
 20
197.9682398419
 30
0.0
 11
319.5193023739
 21
222.9682392831
 31
0.0
  0
LINE
  5
1C5
330
1F
100
AcDbEntity
  8
0
  6
Continuous
 62
     7
370
    40
100
AcDbLine
 10
69.5193023739
 20
197.9682398419
 30
0.0
 11
319.5193023739
 21
197.9682398419
 31
0.0
  0
LINE
  5
1C6
330
1F
100
AcDbEntity
  8
0
  6
Continuous
 62
     7
370
    40
100
AcDbLine
 10
69.5193023739
 20
222.9682392831
 30
0.0
 11
69.5193023739
 21
197.9682398419
 31
0.0
  0
LINE
  5
1C7
330
1F
100
AcDbEntity
  8
0
  6
Continuous
 62
     7
370
    40
100
AcDbLine
 10
116.5193007645
 20
222.9682392831
 30
0.0
 11
69.5193023739
 21
222.9682392831
 31
0.0
  0
LINE
  5
1C8
330
1F
100
AcDbEntity
  8
0
  6
Continuous
 62
     7
370
    40
100
AcDbLine
 10
134.5192999897
 20
214.2682396266
 30
0.0
 11
134.5192999897
 21
203.7682393025
 31
0.0
  0
LINE
  5
1C9
330
1F
100
AcDbEntity
  8
0
  6
Continuous
 62
     7
370
    40
100
AcDbLine
 10
134.5192999897
 20
203.7682393025
 30
0.0
 11
144.5192997662
 21
203.7682393025
 31
0.0
  0
LINE
  5
1CA
330
1F
100
AcDbEntity
  8
0
  6
Continuous
 62
     7
370
    40
100
AcDbLine
 10
144.5192997662
 20
203.7682393025
 30
0.0
 11
144.5192997662
 21
204.7682394664
 31
0.0
  0
LINE
  5
1CB
330
1F
100
AcDbEntity
  8
0
  6
Continuous
 62
     7
370
    40
100
AcDbLine
 10
144.5192997662
 20
204.7682394664
 30
0.0
 11
168.5192999748
 21
204.7682394664
 31
0.0
  0
LINE
  5
1CC
330
1F
100
AcDbEntity
  8
0
  6
Continuous
 62
     7
370
    40
100
AcDbLine
 10
168.5192999748
 20
204.7682394664
 30
0.0
 11
168.5192999748
 21
203.7682393025
 31
0.0
  0
LINE
  5
1CD
330
1F
100
AcDbEntity
  8
0
  6
Continuous
 62
     7
370
    40
100
AcDbLine
 10
168.5192999748
 20
203.7682393025
 30
0.0
 11
178.5192997513
 21
203.7682393025
 31
0.0
  0
LINE
  5
1CE
330
1F
100
AcDbEntity
  8
0
  6
Continuous
 62
     7
370
    40
100
AcDbLine
 10
178.5192997513
 20
203.7682393025
 30
0.0
 11
178.5192997513
 21
214.2682396266
 31
0.0
  0
LINE
  5
1CF
330
1F
100
AcDbEntity
  8
0
  6
Continuous
 62
     7
370
    40
100
AcDbLine
 10
178.5192997513
 20
214.2682396266
 30
0.0
 11
180.5193000791
 21
216.2682394888
 31
0.0
  0
LINE
  5
1D0
330
1F
100
AcDbEntity
  8
0
  6
Continuous
 62
     7
370
    40
100
AcDbLine
 10
180.5193000791
 20
216.2682394888
 30
0.0
 11
180.5193000791
 21
222.2682395409
 31
0.0
  0
LINE
  5
1D1
330
1F
100
AcDbEntity
  8
0
  6
Continuous
 62
     7
370
    40
100
AcDbLine
 10
180.5193000791
 20
222.2682395409
 30
0.0
 11
132.5192996619
 21
222.2682395409
 31
0.0
  0
LINE
  5
1D2
330
1F
100
AcDbEntity
  8
0
  6
Continuous
 62
     7
370
    40
100
AcDbLine
 10
132.5192996619
 20
222.2682395409
 30
0.0
 11
132.5192996619
 21
216.2682394888
 31
0.0
  0
LINE
  5
1D3
330
1F
100
AcDbEntity
  8
0
  6
Continuous
 62
     7
370
    40
100
AcDbLine
 10
132.5192996619
 20
216.2682394888
 30
0.0
 11
134.5192999897
 21
214.2682396266
 31
0.0
  0
CIRCLE
  5
1D4
330
1F
100
AcDbEntity
  8
0
  6
Continuous
 62
     7
370
    40
100
AcDbCircle
 10
182.7692998705
 20
210.2682394366
 30
0.0
 40
3.900000000000006
  0
CIRCLE
  5
1D5
330
1F
100
AcDbEntity
  8
0
  6
Continuous
 62
     7
370
    40
100
AcDbCircle
 10
130.2692998705
 20
210.2682394366
 30
0.0
 40
3.900000000000006
  0
CIRCLE
  5
1D6
330
1F
100
AcDbEntity
  8
0
  6
Continuous
 62
     7
370
    40
100
AcDbCircle
 10
312.5192998705
 20
210.4682394366
 30
0.0
 40
4.000000000000057
  0
CIRCLE
  5
1D7
330
1F
100
AcDbEntity
  8
0
  6
Continuous
 62
     7
370
    40
100
AcDbCircle
 10
76.5192998705
 20
210.4682394366
 30
0.0
 40
4.0
  0
CIRCLE
  5
1D8
330
1F
100
AcDbEntity
  8
0
  6
Continuous
 62
     7
370
    40
100
AcDbCircle
 10
312.5192998705
 20
210.4682394366
 30
0.0
 40
3.000000000000057
  0
CIRCLE
  5
1D9
330
1F
100
AcDbEntity
  8
0
  6
Continuous
 62
     7
370
    40
100
AcDbCircle
 10
76.5192998705
 20
210.4682394366
 30
0.0
 40
3.000000000000014
  0
CIRCLE
  5
1DA
330
1F
100
AcDbEntity
  8
0
  6
Continuous
 62
     7
370
    40
100
AcDbCircle
 10
182.7692998705
 20
210.2682394366
 30
0.0
 40
2.849999999999994
  0
CIRCLE
  5
1DB
330
1F
100
AcDbEntity
  8
0
  6
Continuous
 62
     7
370
    40
100
AcDbCircle
 10
130.2692998705
 20
210.2682394366
 30
0.0
 40
2.849999999999994
  0
LINE
  5
1DC
330
1F
100
AcDbEntity
  8
0
  6
HIDDEN
 62
     7
370
    40
100
AcDbLine
 10
133.1137386845
 20
217.4956915426
 30
0.0
 11
179.2435926513
 21
217.4956915426
 31
0.0
  0
DIMENSION
  5
1DD
330
1F
100
AcDbEntity
  8
0
  6
Continuous
 62
     7
370
     0
100
AcDbDimension
  2
*D14
 10
145.2251359377
 20
217.4956915426
 30
0.0
 11
145.2251359377
 21
229.7319654896
 31
0.0
 70
   160
  1
X
 71
     2
 42
-1.0
  3
SLDDIMSTYLE0
100
AcDbAlignedDimension
 13
116.5192998705
 23
241.9682394366
 33
0.0
 14
133.1137386845
 24
217.4956915426
 34
0.0
 50
90.0
100
AcDbRotatedDimension
  0
DIMENSION
  5
1E6
330
1F
100
AcDbEntity
  8
0
  6
Continuous
 62
     7
370
     0
100
AcDbDimension
  2
*D15
 10
50.314362869
 20
197.9682394366
 30
0.0
 11
50.314362869
 21
210.4682394366
 31
0.0
 70
   160
 71
     2
 42
-1.0
  3
SLDDIMSTYLE1
100
AcDbAlignedDimension
 13
69.5192998705
 23
222.9682394366
 33
0.0
 14
69.5192998705
 24
197.9682394366
 34
0.0
 50
90.0
100
AcDbRotatedDimension
  0
DIMENSION
  5
1F4
330
1F
100
AcDbEntity
  8
0
  6
Continuous
 62
     7
370
     0
100
AcDbDimension
  2
*D16
 10
59.5192998705
 20
210.4682394366
 30
0.0
 11
59.5192998705
 21
216.7182394366
 31
0.0
 70
   160
 71
     2
 42
-1.0
  3
SLDDIMSTYLE0
100
AcDbAlignedDimension
 13
69.5192998705
 23
222.9682394366
 33
0.0
 14
71.5192998705
 24
210.4682394366
 34
0.0
 50
90.0
100
AcDbRotatedDimension
  0
DIMENSION
  5
1FE
330
1F
100
AcDbEntity
  8
0
  6
Continuous
 62
     7
370
     0
100
AcDbDimension
  2
*D17
 10
41.5979367076
 20
241.9682394366
 30
0.0
 11
41.5979367076
 21
219.9682394366
 31
0.0
 70
   160
 71
     2
 42
-1.0
  3
SLDDIMSTYLE1
100
AcDbAlignedDimension
 13
69.5192998705
 23
197.9682394366
 33
0.0
 14
116.5192998705
 24
241.9682394366
 34
0.0
 50
90.0
100
AcDbRotatedDimension
  0
DIMENSION
  5
20B
330
1F
100
AcDbEntity
  8
0
  6
Continuous
 62
     7
370
     0
100
AcDbDimension
  2
*D18
 10
76.5192998705
 20
185.647606052
 30
0.0
 11
73.0192998705
 21
185.647606052
 31
0.0
 70
   160
 71
     2
 42
-1.0
  3
SLDDIMSTYLE2
100
AcDbAlignedDimension
 13
69.5192998705
 23
197.9682394366
 33
0.0
 14
76.5192998705
 24
205.4682394366
 34
0.0
100
AcDbRotatedDimension
  0
DIMENSION
  5
218
330
1F
100
AcDbEntity
  8
0
  6
Continuous
 62
     7
370
     0
100
AcDbDimension
  2
*D19
 10
312.5192998705
 20
173.9682394366
 30
0.0
 11
194.5192998705
 21
173.9682394366
 31
0.0
 70
   160
 71
     2
 42
-1.0
  3
SLDDIMSTYLE3
100
AcDbAlignedDimension
 13
76.5192998705
 23
205.4682394366
 33
0.0
 14
312.5192998705
 24
205.4682394366
 34
0.0
100
AcDbRotatedDimension
  0
DIMENSION
  5
224
330
1F
100
AcDbEntity
  8
0
  6
Continuous
 62
     7
370
     0
100
AcDbDimension
  2
*D20
 10
292.5192998705
 20
185.647606052
 30
0.0
 11
255.5192998705
 21
185.647606052
 31
0.0
 70
   160
 71
     2
 42
-1.0
  3
SLDDIMSTYLE0
100
AcDbAlignedDimension
 13
218.5192998705
 23
204.9682394366
 33
0.0
 14
292.5192998705
 24
204.9682394366
 34
0.0
100
AcDbRotatedDimension
  0
DIMENSION
  5
22E
330
1F
100
AcDbEntity
  8
0
  6
Continuous
 62
     7
370
     0
100
AcDbDimension
  2
*D21
 10
218.5192998705
 20
185.647606052
 30
0.0
 11
198.5192998705
 21
185.647606052
 31
0.0
 70
   160
  1
(<>)
 71
     2
 42
-1.0
  3
SLDDIMSTYLE0
100
AcDbAlignedDimension
 13
178.5192998705
 23
203.7682394366
 33
0.0
 14
218.5192998705
 24
204.9682394366
 34
0.0
100
AcDbRotatedDimension
  0
DIMENSION
  5
23A
330
1F
100
AcDbEntity
  8
0
  6
Continuous
 62
     7
370
     0
100
AcDbDimension
  2
*D22
 10
106.8328442649
 20
210.2682394366
 30
0.0
 11
106.8328442649
 21
232.2243478823
 31
0.0
 70
   160
 71
     2
 42
-1.0
  3
SLDDIMSTYLE4
100
AcDbAlignedDimension
 13
116.5192998705
 23
241.9682394366
 33
0.0
 14
125.3692998705
 24
210.2682394366
 34
0.0
 50
90.0
100
AcDbRotatedDimension
  0
DIMENSION
  5
246
330
1F
100
AcDbEntity
  8
0
  6
Continuous
 62
     7
370
     0
100
AcDbDimension
  2
*D23
 10
116.5192998705
 20
251.9682394366
 30
0.0
 11
148.0870411542
 21
251.9682394366
 31
0.0
 70
   160
 71
     2
 42
-1.0
  3
SLDDIMSTYLE1
100
AcDbAlignedDimension
 13
196.5192998705
 23
241.9682394366
 33
0.0
 14
116.5192998705
 24
241.9682394366
 34
0.0
100
AcDbRotatedDimension
  0
DIMENSION
  5
253
330
1F
100
AcDbEntity
  8
0
  6
Continuous
 62
     7
370
     0
100
AcDbDimension
  2
*D24
 10
116.5192998705
 20
251.9682394366
 30
0.0
 11
93.0192998705
 21
251.9682394366
 31
0.0
 70
   160
  1
(<>)
 71
     2
 42
-1.0
  3
SLDDIMSTYLE0
100
AcDbAlignedDimension
 13
69.5192998705
 23
222.9682394366
 33
0.0
 14
116.5192998705
 24
241.9682394366
 34
0.0
100
AcDbRotatedDimension
  0
DIMENSION
  5
25F
330
1F
100
AcDbEntity
  8
0
  6
Continuous
 62
     7
370
     0
100
AcDbDimension
  2
*D25
 10
156.5192998705
 20
261.5439596215
 30
0.0
 11
113.0192998705
 21
261.5439596215
 31
0.0
 70
   160
 71
     2
 42
-1.0
  3
SLDDIMSTYLE3
100
AcDbAlignedDimension
 13
69.5192998705
 23
222.9682394366
 33
0.0
 14
156.5192998705
 24
244.0235551528
 34
0.0
100
AcDbRotatedDimension
  0
DIMENSION
  5
26A
330
1F
100
AcDbEntity
  8
0
  6
Continuous
 62
     7
370
     0
100
AcDbDimension
  2
*D26
 10
255.5192998705
 20
261.5439596215
 30
0.0
 11
206.0192998705
 21
261.5439596215
 31
0.0
 70
   160
 71
     2
 42
-1.0
  3
SLDDIMSTYLE3
100
AcDbAlignedDimension
 13
156.5192998705
 23
244.0235551528
 33
0.0
 14
255.5192998705
 24
219.9682394366
 34
0.0
100
AcDbRotatedDimension
  0
DIMENSION
  5
275
330
1F
100
AcDbEntity
  8
0
  6
Continuous
 62
     7
370
     0
100
AcDbDimension
  2
*D27
 10
319.5192998705
 20
163.986071618
 30
0.0
 11
194.5192998705
 21
163.986071618
 31
0.0
 70
   160
 71
     2
 42
-1.0
  3
SLDDIMSTYLE1
100
AcDbAlignedDimension
 13
69.5192998705
 23
197.9682394366
 33
0.0
 14
319.5192998705
 24
197.9682394366
 34
0.0
100
AcDbRotatedDimension
  0
DIMENSION
  5
282
330
1F
100
AcDbEntity
  8
0
  6
Continuous
 62
     7
370
     0
100
AcDbDimension
  2
*D28
 10
234.3620404875
 20
204.9682394366
 30
0.0
 11
234.3620404875
 21
211.9682394366
 31
0.0
 70
   160
 71
     2
 42
-1.0
  3
SLDDIMSTYLE0
100
AcDbAlignedDimension
 13
218.5192998705
 23
218.9682394366
 33
0.0
 14
218.5192998705
 24
204.9682394366
 34
0.0
 50
90.0
100
AcDbRotatedDimension
  0
DIMENSION
  5
28C
330
1F
100
AcDbEntity
  8
0
  6
Continuous
 62
     7
370
     0
100
AcDbDimension
  2
*D29
 10
275.4722317695
 20
218.9682394366
 30
0.0
 11
275.4722317695
 21
229.8679455329
 31
0.0
 70
   160
 71
     2
 42
-1.0
  3
SLDDIMSTYLE2
100
AcDbAlignedDimension
 13
319.5192998705
 23
222.9682394366
 33
0.0
 14
292.5192998705
 24
218.9682394366
 34
0.0
 50
90.0
100
AcDbRotatedDimension
  0
DIMENSION
  5
296
330
1F
100
AcDbEntity
  8
0
  6
Continuous
 62
     7
370
     0
100
AcDbDimension
  2
*D30
 10
329.5192998705
 20
207.4682394366
 30
0.0
 11
329.5192998705
 21
221.5048024575
 31
0.0
 70
   160
  1
%%c<>
 71
     2
 42
-1.0
  3
SLDDIMSTYLE5
100
AcDbAlignedDimension
 13
312.5192998705
 23
213.4682394366
 33
0.0
 14
312.5192998705
 24
207.4682394366
 34
0.0
 50
90.0
100
AcDbRotatedDimension
  0
DIMENSION
  5
2A4
330
1F
100
AcDbEntity
  8
0
  6
Continuous
 62
     7
370
     0
100
AcDbDimension
  2
*D31
 10
337.7681827252
 20
206.4682394366
 30
0.0
 11
337.7681827252
 21
210.4682394366
 31
0.0
 70
   160
  1
%%c<>
 71
     2
 42
-1.0
  3
SLDDIMSTYLE5
100
AcDbAlignedDimension
 13
312.5192998705
 23
214.4682394366
 33
0.0
 14
312.5192998705
 24
206.4682394366
 34
0.0
 50
90.0
100
AcDbRotatedDimension
  0
MTEXT
  5
2B1
330
1F
100
AcDbEntity
  8
0
  6
Continuous
 62
     7
370
     0
100
AcDbMText
 10
326.1118619912
 20
238.4008270193
 30
0.0
 40
3.5
 41
0.0
 71
     1
 72
     1
  1
Senkung 90°
  7
SLDTEXTSTYLE1
 73
     1
 44
1.0
  0
LEADER
  5
2B3
330
1F
100
AcDbEntity
  8
0
  6
Continuous
 62
     7
370
     0
100
AcDbLeader
  3
SLDDIMSTYLE6
 76
     3
 10
313.2762036619
 20
214.3959737263
 30
0.0
 10
325.6110483187
 20
233.8871881527
 30
0.0
 10
353.6993622452
 20
233.8871881527
 30
0.0
  0
INSERT
  5
2BF
330
1F
100
AcDbEntity
  8
0
  6
Continuous
 62
     7
370
     0
100
AcDbBlockReference
  2
SW_CENTERMARKSYMBOL_0
 10
182.7692998705
 20
210.2682394366
 30
0.0
  0
INSERT
  5
2CB
330
1F
100
AcDbEntity
  8
0
  6
Continuous
 62
     7
370
     0
100
AcDbBlockReference
  2
SW_CENTERMARKSYMBOL_1
 10
130.2692998705
 20
210.2682394366
 30
0.0
  0
INSERT
  5
2D7
330
1F
100
AcDbEntity
  8
0
  6
Continuous
 62
     7
370
     0
100
AcDbBlockReference
  2
SW_CENTERMARKSYMBOL_2
 10
312.5192998705
 20
210.4682394366
 30
0.0
  0
INSERT
  5
2E3
330
1F
100
AcDbEntity
  8
0
  6
Continuous
 62
     7
370
     0
100
AcDbBlockReference
  2
SW_CENTERMARKSYMBOL_3
 10
76.5192998705
 20
210.4682394366
 30
0.0
  0
LINE
  5
2E4
330
1F
100
AcDbEntity
  8
0
  6
CENTERX2
 62
     7
370
     0
100
AcDbLine
 10
156.5192998705
 20
202.7682394366
 30
0.0
 11
156.5192998705
 21
244.0235551528
 31
0.0
  0
LINE
  5
2E5
330
1F
100
AcDbEntity
  8
0
  6
CENTERX2
 62
     7
370
     0
100
AcDbLine
 10
255.5192998705
 20
203.9682394366
 30
0.0
 11
255.5192998705
 21
219.9682394366
 31
0.0
  0
LINE
  5
2E6
330
1F
100
AcDbEntity
  8
0
  6
Continuous
 62
     7
370
    40
100
AcDbLine
 10
196.5192989764
 20
128.0147491308
 30
0.0
 11
116.5193007645
 21
128.0147491308
 31
0.0
  0
LINE
  5
2E7
330
1F
100
AcDbEntity
  8
0
  6
Continuous
 62
     7
370
    40
100
AcDbLine
 10
116.5193007645
 20
128.0147491308
 30
0.0
 11
116.5193007645
 21
131.0147491569
 31
0.0
  0
LINE
  5
2E8
330
1F
100
AcDbEntity
  8
0
  6
Continuous
 62
     7
370
    40
100
AcDbLine
 10
196.5192989764
 20
131.0147491569
 30
0.0
 11
116.5193007645
 21
131.0147491569
 31
0.0
  0
LINE
  5
2E9
330
1F
100
AcDbEntity
  8
0
  6
Continuous
 62
     7
370
    40
100
AcDbLine
 10
196.5192989764
 20
128.0147491308
 30
0.0
 11
196.5192989764
 21
131.0147491569
 31
0.0
  0
LINE
  5
2EA
330
1F
100
AcDbEntity
  8
0
  6
Continuous
 62
     7
370
    40
100
AcDbLine
 10
319.5193023739
 20
128.0147491308
 30
0.0
 11
319.5193023739
 21
131.0147491569
 31
0.0
  0
LINE
  5
2EB
330
1F
100
AcDbEntity
  8
0
  6
Continuous
 62
     7
370
    40
100
AcDbLine
 10
319.5193023739
 20
128.0147491308
 30
0.0
 11
196.5192989764
 21
128.0147491308
 31
0.0
  0
LINE
  5
2EC
330
1F
100
AcDbEntity
  8
0
  6
Continuous
 62
     7
370
    40
100
AcDbLine
 10
319.5193023739
 20
131.0147491569
 30
0.0
 11
196.5192989764
 21
131.0147491569
 31
0.0
  0
LINE
  5
2ED
330
1F
100
AcDbEntity
  8
0
  6
Continuous
 62
     7
370
    40
100
AcDbLine
 10
69.5193023739
 20
128.0147491308
 30
0.0
 11
69.5193023739
 21
131.0147491569
 31
0.0
  0
LINE
  5
2EE
330
1F
100
AcDbEntity
  8
0
  6
Continuous
 62
     7
370
    40
100
AcDbLine
 10
116.5193007645
 20
128.0147491308
 30
0.0
 11
69.5193023739
 21
128.0147491308
 31
0.0
  0
LINE
  5
2EF
330
1F
100
AcDbEntity
  8
0
  6
Continuous
 62
     7
370
    40
100
AcDbLine
 10
116.5193007645
 20
131.0147491569
 30
0.0
 11
69.5193023739
 21
131.0147491569
 31
0.0
  0
LINE
  5
2F0
330
1F
100
AcDbEntity
  8
0
  6
HIDDEN
 62
     7
370
     0
100
AcDbLine
 10
180.5193000791
 20
131.0147491569
 30
0.0
 11
180.5193000791
 21
128.0147491308
 31
0.0
  0
LINE
  5
2F1
330
1F
100
AcDbEntity
  8
0
  6
HIDDEN
 62
     7
370
     0
100
AcDbLine
 10
132.5192996619
 20
131.0147491569
 30
0.0
 11
132.5192996619
 21
128.0147491308
 31
0.0
  0
LINE
  5
2F2
330
1F
100
AcDbEntity
  8
0
  6
HIDDEN
 62
     7
370
     0
100
AcDbLine
 10
218.5192988572
 20
128.0147491308
 30
0.0
 11
218.5192988572
 21
131.0147491569
 31
0.0
  0
LINE
  5
2F3
330
1F
100
AcDbEntity
  8
0
  6
HIDDEN
 62
     7
370
     0
100
AcDbLine
 10
292.5193072615
 20
128.0147491308
 30
0.0
 11
292.5193072615
 21
131.0147491569
 31
0.0
  0
LINE
  5
2F4
330
1F
100
AcDbEntity
  8
0
  6
HIDDEN
 62
     7
370
     0
100
AcDbLine
 10
134.5192999897
 20
131.0147491569
 30
0.0
 11
134.5192999897
 21
128.0147491308
 31
0.0
  0
LINE
  5
2F5
330
1F
100
AcDbEntity
  8
0
  6
HIDDEN
 62
     7
370
     0
100
AcDbLine
 10
178.5192997513
 20
131.0147491569
 30
0.0
 11
178.5192997513
 21
128.0147491308
 31
0.0
  0
LINE
  5
2F6
330
1F
100
AcDbEntity
  8
0
  6
HIDDEN
 62
     7
370
     0
100
AcDbLine
 10
308.5192949829
 20
130.7147491426
 30
0.0
 11
316.5192962942
 21
130.7147491426
 31
0.0
  0
LINE
  5
2F7
330
1F
100
AcDbEntity
  8
0
  6
HIDDEN
 62
     7
370
     0
100
AcDbLine
 10
72.519301003
 20
130.7147491426
 30
0.0
 11
80.5193023143
 21
130.7147491426
 31
0.0
  0
LINE
  5
2F8
330
1F
100
AcDbEntity
  8
0
  6
HIDDEN
 62
     7
370
     0
100
AcDbLine
 10
309.5192970095
 20
129.7147491533
 30
0.0
 11
315.5192942676
 21
129.7147491533
 31
0.0
  0
LINE
  5
2F9
330
1F
100
AcDbEntity
  8
0
  6
HIDDEN
 62
     7
370
     0
100
AcDbLine
 10
73.5193030295
 20
129.7147491533
 30
0.0
 11
79.5193002877
 21
129.7147491533
 31
0.0
  0
LINE
  5
2FA
330
1F
100
AcDbEntity
  8
0
  6
HIDDEN
 62
     7
370
     0
100
AcDbLine
 10
316.5192962942
 20
128.3147490869
 30
0.0
 11
308.5192949829
 21
128.3147490869
 31
0.0
  0
LINE
  5
2FB
330
1F
100
AcDbEntity
  8
0
  6
HIDDEN
 62
     7
370
     0
100
AcDbLine
 10
315.5192942676
 20
129.3147491343
 30
0.0
 11
309.5192970095
 21
129.3147491343
 31
0.0
  0
LINE
  5
2FC
330
1F
100
AcDbEntity
  8
0
  6
HIDDEN
 62
     7
370
     0
100
AcDbLine
 10
80.5193023143
 20
128.3147490869
 30
0.0
 11
72.519301003
 21
128.3147490869
 31
0.0
  0
LINE
  5
2FD
330
1F
100
AcDbEntity
  8
0
  6
HIDDEN
 62
     7
370
     0
100
AcDbLine
 10
79.5193002877
 20
129.3147491343
 30
0.0
 11
73.5193030295
 21
129.3147491343
 31
0.0
  0
LINE
  5
2FE
330
1F
100
AcDbEntity
  8
0
  6
HIDDEN
 62
     7
370
     0
100
AcDbLine
 10
126.3692998645
 20
130.7147491426
 30
0.0
 11
134.1692996529
 21
130.7147491426
 31
0.0
  0
LINE
  5
2FF
330
1F
100
AcDbEntity
  8
0
  6
HIDDEN
 62
     7
370
     0
100
AcDbLine
 10
178.869300088
 20
130.7147491426
 30
0.0
 11
186.6692998764
 21
130.7147491426
 31
0.0
  0
LINE
  5
300
330
1F
100
AcDbEntity
  8
0
  6
HIDDEN
 62
     7
370
     0
100
AcDbLine
 10
179.9192992357
 20
129.6647491219
 30
0.0
 11
185.6193007288
 21
129.6647491219
 31
0.0
  0
LINE
  5
301
330
1F
100
AcDbEntity
  8
0
  6
HIDDEN
 62
     7
370
     0
100
AcDbLine
 10
127.4192990122
 20
129.6647491219
 30
0.0
 11
133.1193005053
 21
129.6647491219
 31
0.0
  0
LINE
  5
302
330
1F
100
AcDbEntity
  8
0
  6
HIDDEN
 62
     7
370
     0
100
AcDbLine
 10
186.6692998764
 20
128.3147490869
 30
0.0
 11
178.869300088
 21
128.3147490869
 31
0.0
  0
LINE
  5
303
330
1F
100
AcDbEntity
  8
0
  6
HIDDEN
 62
     7
370
     0
100
AcDbLine
 10
185.6193007288
 20
129.3647491658
 30
0.0
 11
179.9192992357
 21
129.3647491658
 31
0.0
  0
LINE
  5
304
330
1F
100
AcDbEntity
  8
0
  6
HIDDEN
 62
     7
370
     0
100
AcDbLine
 10
134.1692996529
 20
128.3147490869
 30
0.0
 11
126.3692998645
 21
128.3147490869
 31
0.0
  0
LINE
  5
305
330
1F
100
AcDbEntity
  8
0
  6
HIDDEN
 62
     7
370
     0
100
AcDbLine
 10
133.1193005053
 20
129.3647491658
 30
0.0
 11
127.4192990122
 21
129.3647491658
 31
0.0
  0
LINE
  5
306
330
1F
100
AcDbEntity
  8
0
  6
HIDDEN
 62
     7
370
     0
100
AcDbLine
 10
144.5192997662
 20
131.0147491569
 30
0.0
 11
144.5192997662
 21
128.0147491308
 31
0.0
  0
LINE
  5
307
330
1F
100
AcDbEntity
  8
0
  6
HIDDEN
 62
     7
370
     0
100
AcDbLine
 10
168.5192999748
 20
131.0147491569
 30
0.0
 11
168.5192999748
 21
128.0147491308
 31
0.0
  0
LINE
  5
308
330
1F
100
AcDbEntity
  8
0
  6
HIDDEN
 62
     7
370
     0
100
AcDbLine
 10
308.5192949829
 20
131.0147491569
 30
0.0
 11
308.5192949829
 21
130.7147491426
 31
0.0
  0
LINE
  5
309
330
1F
100
AcDbEntity
  8
0
  6
HIDDEN
 62
     7
370
     0
100
AcDbLine
 10
316.5192962942
 20
130.7147491426
 30
0.0
 11
316.5192962942
 21
131.0147491569
 31
0.0
  0
LINE
  5
30A
330
1F
100
AcDbEntity
  8
0
  6
HIDDEN
 62
     7
370
     0
100
AcDbLine
 10
72.519301003
 20
131.0147491569
 30
0.0
 11
72.519301003
 21
130.7147491426
 31
0.0
  0
LINE
  5
30B
330
1F
100
AcDbEntity
  8
0
  6
HIDDEN
 62
     7
370
     0
100
AcDbLine
 10
80.5193023143
 20
130.7147491426
 30
0.0
 11
80.5193023143
 21
131.0147491569
 31
0.0
  0
LINE
  5
30C
330
1F
100
AcDbEntity
  8
0
  6
HIDDEN
 62
     7
370
     0
100
AcDbLine
 10
308.5192949829
 20
130.7147491426
 30
0.0
 11
309.5192970095
 21
129.7147491533
 31
0.0
  0
LINE
  5
30D
330
1F
100
AcDbEntity
  8
0
  6
HIDDEN
 62
     7
370
     0
100
AcDbLine
 10
315.5192942676
 20
129.7147491533
 30
0.0
 11
316.5192962942
 21
130.7147491426
 31
0.0
  0
LINE
  5
30E
330
1F
100
AcDbEntity
  8
0
  6
HIDDEN
 62
     7
370
     0
100
AcDbLine
 10
72.519301003
 20
130.7147491426
 30
0.0
 11
73.5193030295
 21
129.7147491533
 31
0.0
  0
LINE
  5
30F
330
1F
100
AcDbEntity
  8
0
  6
HIDDEN
 62
     7
370
     0
100
AcDbLine
 10
79.5193002877
 20
129.7147491533
 30
0.0
 11
80.5193023143
 21
130.7147491426
 31
0.0
  0
LINE
  5
310
330
1F
100
AcDbEntity
  8
0
  6
HIDDEN
 62
     7
370
     0
100
AcDbLine
 10
316.5192962942
 20
128.3147490869
 30
0.0
 11
315.5192942676
 21
129.3147491343
 31
0.0
  0
LINE
  5
311
330
1F
100
AcDbEntity
  8
0
  6
HIDDEN
 62
     7
370
     0
100
AcDbLine
 10
309.5192970095
 20
129.3147491343
 30
0.0
 11
308.5192949829
 21
128.3147490869
 31
0.0
  0
LINE
  5
312
330
1F
100
AcDbEntity
  8
0
  6
HIDDEN
 62
     7
370
     0
100
AcDbLine
 10
80.5193023143
 20
128.3147490869
 30
0.0
 11
79.5193002877
 21
129.3147491343
 31
0.0
  0
LINE
  5
313
330
1F
100
AcDbEntity
  8
0
  6
HIDDEN
 62
     7
370
     0
100
AcDbLine
 10
73.5193030295
 20
129.3147491343
 30
0.0
 11
72.519301003
 21
128.3147490869
 31
0.0
  0
LINE
  5
314
330
1F
100
AcDbEntity
  8
0
  6
HIDDEN
 62
     7
370
     0
100
AcDbLine
 10
80.5193023143
 20
128.0147491308
 30
0.0
 11
80.5193023143
 21
128.3147490869
 31
0.0
  0
LINE
  5
315
330
1F
100
AcDbEntity
  8
0
  6
HIDDEN
 62
     7
370
     0
100
AcDbLine
 10
72.519301003
 20
128.3147490869
 30
0.0
 11
72.519301003
 21
128.0147491308
 31
0.0
  0
LINE
  5
316
330
1F
100
AcDbEntity
  8
0
  6
HIDDEN
 62
     7
370
     0
100
AcDbLine
 10
316.5192962942
 20
128.0147491308
 30
0.0
 11
316.5192962942
 21
128.3147490869
 31
0.0
  0
LINE
  5
317
330
1F
100
AcDbEntity
  8
0
  6
HIDDEN
 62
     7
370
     0
100
AcDbLine
 10
308.5192949829
 20
128.3147490869
 30
0.0
 11
308.5192949829
 21
128.0147491308
 31
0.0
  0
LINE
  5
318
330
1F
100
AcDbEntity
  8
0
  6
HIDDEN
 62
     7
370
     0
100
AcDbLine
 10
126.3692998645
 20
131.0147491569
 30
0.0
 11
126.3692998645
 21
130.7147491426
 31
0.0
  0
LINE
  5
319
330
1F
100
AcDbEntity
  8
0
  6
HIDDEN
 62
     7
370
     0
100
AcDbLine
 10
134.1692996529
 20
130.7147491426
 30
0.0
 11
134.1692996529
 21
131.0147491569
 31
0.0
  0
LINE
  5
31A
330
1F
100
AcDbEntity
  8
0
  6
HIDDEN
 62
     7
370
     0
100
AcDbLine
 10
178.869300088
 20
131.0147491569
 30
0.0
 11
178.869300088
 21
130.7147491426
 31
0.0
  0
LINE
  5
31B
330
1F
100
AcDbEntity
  8
0
  6
HIDDEN
 62
     7
370
     0
100
AcDbLine
 10
186.6692998764
 20
130.7147491426
 30
0.0
 11
186.6692998764
 21
131.0147491569
 31
0.0
  0
LINE
  5
31C
330
1F
100
AcDbEntity
  8
0
  6
HIDDEN
 62
     7
370
     0
100
AcDbLine
 10
178.869300088
 20
130.7147491426
 30
0.0
 11
179.9192992357
 21
129.6647491219
 31
0.0
  0
LINE
  5
31D
330
1F
100
AcDbEntity
  8
0
  6
HIDDEN
 62
     7
370
     0
100
AcDbLine
 10
185.6193007288
 20
129.6647491219
 30
0.0
 11
186.6692998764
 21
130.7147491426
 31
0.0
  0
LINE
  5
31E
330
1F
100
AcDbEntity
  8
0
  6
HIDDEN
 62
     7
370
     0
100
AcDbLine
 10
126.3692998645
 20
130.7147491426
 30
0.0
 11
127.4192990122
 21
129.6647491219
 31
0.0
  0
LINE
  5
31F
330
1F
100
AcDbEntity
  8
0
  6
HIDDEN
 62
     7
370
     0
100
AcDbLine
 10
133.1193005053
 20
129.6647491219
 30
0.0
 11
134.1692996529
 21
130.7147491426
 31
0.0
  0
LINE
  5
320
330
1F
100
AcDbEntity
  8
0
  6
HIDDEN
 62
     7
370
     0
100
AcDbLine
 10
186.6692998764
 20
128.3147490869
 30
0.0
 11
185.6193007288
 21
129.3647491658
 31
0.0
  0
LINE
  5
321
330
1F
100
AcDbEntity
  8
0
  6
HIDDEN
 62
     7
370
     0
100
AcDbLine
 10
179.9192992357
 20
129.3647491658
 30
0.0
 11
178.869300088
 21
128.3147490869
 31
0.0
  0
LINE
  5
322
330
1F
100
AcDbEntity
  8
0
  6
HIDDEN
 62
     7
370
     0
100
AcDbLine
 10
134.1692996529
 20
128.3147490869
 30
0.0
 11
133.1193005053
 21
129.3647491658
 31
0.0
  0
LINE
  5
323
330
1F
100
AcDbEntity
  8
0
  6
HIDDEN
 62
     7
370
     0
100
AcDbLine
 10
127.4192990122
 20
129.3647491658
 30
0.0
 11
126.3692998645
 21
128.3147490869
 31
0.0
  0
LINE
  5
324
330
1F
100
AcDbEntity
  8
0
  6
HIDDEN
 62
     7
370
     0
100
AcDbLine
 10
134.1692996529
 20
128.0147491308
 30
0.0
 11
134.1692996529
 21
128.3147490869
 31
0.0
  0
LINE
  5
325
330
1F
100
AcDbEntity
  8
0
  6
HIDDEN
 62
     7
370
     0
100
AcDbLine
 10
126.3692998645
 20
128.3147490869
 30
0.0
 11
126.3692998645
 21
128.0147491308
 31
0.0
  0
LINE
  5
326
330
1F
100
AcDbEntity
  8
0
  6
HIDDEN
 62
     7
370
     0
100
AcDbLine
 10
186.6692998764
 20
128.0147491308
 30
0.0
 11
186.6692998764
 21
128.3147490869
 31
0.0
  0
LINE
  5
327
330
1F
100
AcDbEntity
  8
0
  6
HIDDEN
 62
     7
370
     0
100
AcDbLine
 10
178.869300088
 20
128.3147490869
 30
0.0
 11
178.869300088
 21
128.0147491308
 31
0.0
  0
LINE
  5
328
330
1F
100
AcDbEntity
  8
0
  6
HIDDEN
 62
     7
370
     0
100
AcDbLine
 10
79.5193002877
 20
129.3147491343
 30
0.0
 11
79.5193002877
 21
129.7147491533
 31
0.0
  0
LINE
  5
329
330
1F
100
AcDbEntity
  8
0
  6
HIDDEN
 62
     7
370
     0
100
AcDbLine
 10
73.5193030295
 20
129.7147491533
 30
0.0
 11
73.5193030295
 21
129.3147491343
 31
0.0
  0
LINE
  5
32A
330
1F
100
AcDbEntity
  8
0
  6
HIDDEN
 62
     7
370
     0
100
AcDbLine
 10
315.5192942676
 20
129.3147491343
 30
0.0
 11
315.5192942676
 21
129.7147491533
 31
0.0
  0
LINE
  5
32B
330
1F
100
AcDbEntity
  8
0
  6
HIDDEN
 62
     7
370
     0
100
AcDbLine
 10
309.5192970095
 20
129.7147491533
 30
0.0
 11
309.5192970095
 21
129.3147491343
 31
0.0
  0
LINE
  5
32C
330
1F
100
AcDbEntity
  8
0
  6
HIDDEN
 62
     7
370
     0
100
AcDbLine
 10
133.1193005053
 20
129.3647491658
 30
0.0
 11
133.1193005053
 21
129.6647491219
 31
0.0
  0
LINE
  5
32D
330
1F
100
AcDbEntity
  8
0
  6
HIDDEN
 62
     7
370
     0
100
AcDbLine
 10
127.4192990122
 20
129.6647491219
 30
0.0
 11
127.4192990122
 21
129.3647491658
 31
0.0
  0
LINE
  5
32E
330
1F
100
AcDbEntity
  8
0
  6
HIDDEN
 62
     7
370
     0
100
AcDbLine
 10
185.6193007288
 20
129.3647491658
 30
0.0
 11
185.6193007288
 21
129.6647491219
 31
0.0
  0
LINE
  5
32F
330
1F
100
AcDbEntity
  8
0
  6
HIDDEN
 62
     7
370
     0
100
AcDbLine
 10
179.9192992357
 20
129.6647491219
 30
0.0
 11
179.9192992357
 21
129.3647491658
 31
0.0
  0
DIMENSION
  5
330
330
1F
100
AcDbEntity
  8
0
  6
Continuous
 62
     7
370
     0
100
AcDbDimension
  2
*D36
 10
59.5192998705
 20
131.0147491569
 30
0.0
 11
59.5192998705
 21
137.0108910318
 31
0.0
 70
   160
 71
     2
 42
-1.0
  3
SLDDIMSTYLE2
100
AcDbAlignedDimension
 13
69.5192998705
 23
128.0147491569
 33
0.0
 14
69.5192998705
 24
131.0147491569
 34
0.0
 50
90.0
100
AcDbRotatedDimension
  0
LINE
  5
33C
330
1F
100
AcDbEntity
  8
0
  6
CENTERX2
 62
     7
370
     0
100
AcDbLine
 10
76.5192998705
 20
127.1287579615
 30
0.0
 11
76.5192998705
 21
131.6354695258
 31
0.0
  0
LINE
  5
33D
330
1F
100
AcDbEntity
  8
0
  6
CENTERX2
 62
     7
370
     0
100
AcDbLine
 10
182.7692998705
 20
129.6647491569
 30
0.0
 11
182.7692998705
 21
129.3647491569
 31
0.0
  0
LINE
  5
33E
330
1F
100
AcDbEntity
  8
0
  6
CENTERX2
 62
     7
370
     0
100
AcDbLine
 10
182.7692998705
 20
128.3147491569
 30
0.0
 11
182.7692998705
 21
129.3647491569
 31
0.0
  0
LINE
  5
33F
330
1F
100
AcDbEntity
  8
0
  6
CENTERX2
 62
     7
370
     0
100
AcDbLine
 10
182.7692998705
 20
128.3147491569
 30
0.0
 11
182.7692998705
 21
127.0147491569
 31
0.0
  0
LINE
  5
340
330
1F
100
AcDbEntity
  8
0
  6
CENTERX2
 62
     7
370
     0
100
AcDbLine
 10
130.2692998705
 20
129.6647491569
 30
0.0
 11
130.2692998705
 21
129.3647491569
 31
0.0
  0
LINE
  5
341
330
1F
100
AcDbEntity
  8
0
  6
CENTERX2
 62
     7
370
     0
100
AcDbLine
 10
130.2692998705
 20
128.3147491569
 30
0.0
 11
130.2692998705
 21
129.3647491569
 31
0.0
  0
LINE
  5
342
330
1F
100
AcDbEntity
  8
0
  6
CENTERX2
 62
     7
370
     0
100
AcDbLine
 10
130.2692998705
 20
128.3147491569
 30
0.0
 11
130.2692998705
 21
127.0147491569
 31
0.0
  0
LINE
  5
343
330
1F
100
AcDbEntity
  8
0
  6
CENTERX2
 62
     7
370
     0
100
AcDbLine
 10
130.2692998705
 20
130.7147491569
 30
0.0
 11
130.2692998705
 21
129.6647491569
 31
0.0
  0
LINE
  5
344
330
1F
100
AcDbEntity
  8
0
  6
CENTERX2
 62
     7
370
     0
100
AcDbLine
 10
130.2692998705
 20
130.7147491569
 30
0.0
 11
130.2692998705
 21
132.0147491569
 31
0.0
  0
LINE
  5
345
330
1F
100
AcDbEntity
  8
0
  6
CENTERX2
 62
     7
370
     0
100
AcDbLine
 10
182.7692998705
 20
130.7147491569
 30
0.0
 11
182.7692998705
 21
129.6647491569
 31
0.0
  0
LINE
  5
346
330
1F
100
AcDbEntity
  8
0
  6
CENTERX2
 62
     7
370
     0
100
AcDbLine
 10
182.7692998705
 20
130.7147491569
 30
0.0
 11
182.7692998705
 21
132.0147491569
 31
0.0
  0
LINE
  5
347
330
1F
100
AcDbEntity
  8
0
  6
CENTERX2
 62
     7
370
     0
100
AcDbLine
 10
312.5192998705
 20
129.7147491569
 30
0.0
 11
312.5192998705
 21
129.3147491569
 31
0.0
  0
LINE
  5
348
330
1F
100
AcDbEntity
  8
0
  6
CENTERX2
 62
     7
370
     0
100
AcDbLine
 10
312.5192998705
 20
128.3147491569
 30
0.0
 11
312.5192998705
 21
129.3147491569
 31
0.0
  0
LINE
  5
349
330
1F
100
AcDbEntity
  8
0
  6
CENTERX2
 62
     7
370
     0
100
AcDbLine
 10
312.5192998705
 20
128.3147491569
 30
0.0
 11
312.5192998705
 21
127.0147491569
 31
0.0
  0
LINE
  5
34A
330
1F
100
AcDbEntity
  8
0
  6
CENTERX2
 62
     7
370
     0
100
AcDbLine
 10
76.5192998705
 20
129.7147491569
 30
0.0
 11
76.5192998705
 21
129.3147491569
 31
0.0
  0
LINE
  5
34B
330
1F
100
AcDbEntity
  8
0
  6
CENTERX2
 62
     7
370
     0
100
AcDbLine
 10
76.5192998705
 20
128.3147491569
 30
0.0
 11
76.5192998705
 21
129.3147491569
 31
0.0
  0
LINE
  5
34C
330
1F
100
AcDbEntity
  8
0
  6
CENTERX2
 62
     7
370
     0
100
AcDbLine
 10
76.5192998705
 20
128.3147491569
 30
0.0
 11
76.5192998705
 21
127.0147491569
 31
0.0
  0
LINE
  5
34D
330
1F
100
AcDbEntity
  8
0
  6
CENTERX2
 62
     7
370
     0
100
AcDbLine
 10
312.5192998705
 20
130.7147491569
 30
0.0
 11
312.5192998705
 21
129.7147491569
 31
0.0
  0
LINE
  5
34E
330
1F
100
AcDbEntity
  8
0
  6
CENTERX2
 62
     7
370
     0
100
AcDbLine
 10
312.5192998705
 20
130.7147491569
 30
0.0
 11
312.5192998705
 21
132.0147491569
 31
0.0
  0
LINE
  5
34F
330
1F
100
AcDbEntity
  8
0
  6
CENTERX2
 62
     7
370
     0
100
AcDbLine
 10
76.5192998705
 20
130.7147491569
 30
0.0
 11
76.5192998705
 21
129.7147491569
 31
0.0
  0
LINE
  5
350
330
1F
100
AcDbEntity
  8
0
  6
CENTERX2
 62
     7
370
     0
100
AcDbLine
 10
76.5192998705
 20
130.7147491569
 30
0.0
 11
76.5192998705
 21
132.0147491569
 31
0.0
  0
LINE
  5
351
330
1F
100
AcDbEntity
  8
0
  6
CENTERX2
 62
     7
370
     0
100
AcDbLine
 10
156.5192998705
 20
132.0147491569
 30
0.0
 11
156.5192998705
 21
127.0147491569
 31
0.0
  0
LINE
  5
352
330
1F
100
AcDbEntity
  8
0
  6
CENTERX2
 62
     7
370
     0
100
AcDbLine
 10
255.5192998705
 20
127.0147491569
 30
0.0
 11
255.5192998705
 21
132.0147491569
 31
0.0
  0
LINE
  5
353
330
1F
100
AcDbEntity
  8
0
  6
Continuous
 62
     7
370
    40
100
AcDbLine
 10
387.9305512835
 20
222.9682392831
 30
0.0
 11
387.9305512835
 21
197.9682398419
 31
0.0
  0
LINE
  5
354
330
1F
100
AcDbEntity
  8
0
  6
Continuous
 62
     7
370
    40
100
AcDbLine
 10
387.9305512835
 20
197.9682398419
 30
0.0
 11
384.9305512574
 21
197.9682398419
 31
0.0
  0
LINE
  5
355
330
1F
100
AcDbEntity
  8
0
  6
Continuous
 62
     7
370
    40
100
AcDbLine
 10
384.9305512574
 20
222.9682392831
 30
0.0
 11
384.9305512574
 21
197.9682398419
 31
0.0
  0
LINE
  5
356
330
1F
100
AcDbEntity
  8
0
  6
Continuous
 62
     7
370
    40
100
AcDbLine
 10
387.9305512835
 20
222.9682392831
 30
0.0
 11
384.9305512574
 21
222.9682392831
 31
0.0
  0
LINE
  5
357
330
1F
100
AcDbEntity
  8
0
  6
Continuous
 62
     7
370
    40
100
AcDbLine
 10
387.9305512835
 20
241.9682396035
 30
0.0
 11
384.9305512574
 21
241.9682396035
 31
0.0
  0
LINE
  5
358
330
1F
100
AcDbEntity
  8
0
  6
Continuous
 62
     7
370
    40
100
AcDbLine
 10
387.9305512835
 20
241.9682396035
 30
0.0
 11
387.9305512835
 21
222.9682392831
 31
0.0
  0
LINE
  5
359
330
1F
100
AcDbEntity
  8
0
  6
Continuous
 62
     7
370
    40
100
AcDbLine
 10
384.9305512574
 20
241.9682396035
 30
0.0
 11
384.9305512574
 21
222.9682392831
 31
0.0
  0
LINE
  5
35A
330
1F
100
AcDbEntity
  8
0
  6
Continuous
 62
     7
370
    40
100
AcDbLine
 10
135.3533050412
 20
19.8701506098
 30
0.0
 11
135.3533050412
 21
25.5859362794
 31
0.0
  0
LINE
  5
35B
330
1F
100
AcDbEntity
  8
0
  6
Continuous
 62
     7
370
    40
100
AcDbLine
 10
135.3533050412
 20
25.5859362794
 30
0.0
 11
109.190351166
 21
40.6894880634
 31
0.0
  0
LINE
  5
35C
330
1F
100
AcDbEntity
  8
0
  6
Continuous
 62
     7
370
    40
100
AcDbLine
 10
109.190351166
 20
40.6894880634
 30
0.0
 11
109.190351166
 21
34.9737023939
 31
0.0
  0
LINE
  5
35D
330
1F
100
AcDbEntity
  8
0
  6
Continuous
 62
     7
370
    40
100
AcDbLine
 10
109.190351166
 20
34.9737023939
 30
0.0
 11
135.3533050412
 21
19.8701506098
 31
0.0
  0
LINE
  5
35E
330
1F
100
AcDbEntity
  8
0
  6
Continuous
 62
     7
370
    40
100
AcDbLine
 10
73.1279059998
 20
70.8981138805
 30
0.0
 11
73.1279059998
 21
63.1409760368
 31
0.0
  0
LINE
  5
35F
330
1F
100
AcDbEntity
  8
0
  6
Continuous
 62
     7
370
    40
100
AcDbLine
 10
101.4121766151
 20
54.569952009
 30
0.0
 11
73.1279059998
 21
70.8981138805
 31
0.0
  0
LINE
  5
360
330
1F
100
AcDbEntity
  8
0
  6
Continuous
 62
     7
370
    40
100
AcDbLine
 10
101.4121766151
 20
46.8128141653
 30
0.0
 11
101.4121766151
 21
54.569952009
 31
0.0
  0
LINE
  5
361
330
1F
100
AcDbEntity
  8
0
  6
Continuous
 62
     7
370
    40
100
AcDbLine
 10
144.8992448592
 20
21.7082640333
 30
0.0
 11
101.4121766151
 21
46.8128141653
 31
0.0
  0
LINE
  5
362
330
1F
100
AcDbEntity
  8
0
  6
Continuous
 62
     7
370
    40
100
AcDbLine
 10
144.8992448592
 20
11.5015041129
 30
0.0
 11
144.8992448592
 21
21.7082640333
 31
0.0
  0
LINE
  5
363
330
1F
100
AcDbEntity
  8
0
  6
Continuous
 62
     7
370
    40
100
AcDbLine
 10
56.5108972109
 20
62.5270111018
 30
0.0
 11
144.8992448592
 21
11.5015041129
 31
0.0
  0
LINE
  5
364
330
1F
100
AcDbEntity
  8
0
  6
Continuous
 62
     7
370
    40
100
AcDbLine
 10
56.5108972109
 20
72.7337710223
 30
0.0
 11
56.5108972109
 21
62.5270111018
 31
0.0
  0
LINE
  5
365
330
1F
100
AcDbEntity
  8
0
  6
Continuous
 62
     7
370
    40
100
AcDbLine
 10
73.1279059998
 20
63.1409760368
 30
0.0
 11
56.5108972109
 21
72.7337710223
 31
0.0
  0
LINE
  5
366
330
1F
100
AcDbEntity
  8
0
  6
Continuous
 62
     7
370
    40
100
AcDbLine
 10
79.4918667565
 20
55.9151873003
 30
0.0
 11
79.4918667565
 21
51.6283479056
 31
0.0
  0
LINE
  5
367
330
1F
100
AcDbEntity
  8
0
  6
Continuous
 62
     7
370
    40
100
AcDbLine
 10
79.4918667565
 20
51.6283479056
 30
0.0
 11
83.0274005835
 21
49.5873276716
 31
0.0
  0
LINE
  5
368
330
1F
100
AcDbEntity
  8
0
  6
Continuous
 62
     7
370
    40
100
AcDbLine
 10
83.0274005835
 20
49.5873276716
 30
0.0
 11
83.0274005835
 21
49.9955981445
 31
0.0
  0
LINE
  5
369
330
1F
100
AcDbEntity
  8
0
  6
Continuous
 62
     7
370
    40
100
AcDbLine
 10
83.0274005835
 20
49.9955981445
 30
0.0
 11
91.5126820315
 21
45.097149431
 31
0.0
  0
LINE
  5
36A
330
1F
100
AcDbEntity
  8
0
  6
Continuous
 62
     7
370
    40
100
AcDbLine
 10
91.5126820315
 20
45.097149431
 30
0.0
 11
91.5126820315
 21
44.6888789581
 31
0.0
  0
LINE
  5
36B
330
1F
100
AcDbEntity
  8
0
  6
Continuous
 62
     7
370
    40
100
AcDbLine
 10
91.5126820315
 20
44.6888789581
 30
0.0
 11
95.0482158584
 21
42.6478587242
 31
0.0
  0
LINE
  5
36C
330
1F
100
AcDbEntity
  8
0
  6
Continuous
 62
     7
370
    40
100
AcDbLine
 10
95.0482158584
 20
42.6478587242
 30
0.0
 11
95.0482158584
 21
46.9346981189
 31
0.0
  0
LINE
  5
36D
330
1F
100
AcDbEntity
  8
0
  6
Continuous
 62
     7
370
    40
100
AcDbLine
 10
95.0482158584
 20
46.9346981189
 30
0.0
 11
95.7553227555
 21
47.3430347517
 31
0.0
  0
LINE
  5
36E
330
1F
100
AcDbEntity
  8
0
  6
Continuous
 62
     7
370
    40
100
AcDbLine
 10
95.7553227555
 20
47.3430347517
 30
0.0
 11
95.7553227555
 21
49.7926572086
 31
0.0
  0
LINE
  5
36F
330
1F
100
AcDbEntity
  8
0
  6
Continuous
 62
     7
370
    40
100
AcDbLine
 10
95.7553227555
 20
49.7926572086
 30
0.0
 11
78.7847598595
 21
59.5895546357
 31
0.0
  0
LINE
  5
370
330
1F
100
AcDbEntity
  8
0
  6
Continuous
 62
     7
370
    40
100
AcDbLine
 10
78.7847598595
 20
59.5895546357
 30
0.0
 11
78.7847598595
 21
57.1399321787
 31
0.0
  0
LINE
  5
371
330
1F
100
AcDbEntity
  8
0
  6
Continuous
 62
     7
370
    40
100
AcDbLine
 10
78.7847598595
 20
57.1399321787
 30
0.0
 11
79.4918667565
 21
55.9151873003
 31
0.0
  0
LWPOLYLINE
  5
372
330
1F
100
AcDbEntity
  8
0
  6
Continuous
 62
     7
370
    40
100
AcDbPolyline
 90
       25
 70
   128
 43
0.0
 10
97.9296760359
 20
43.6381848642
 10
97.8826928366
 20
44.0774135078
 10
97.7449437647
 20
44.5409558044
 10
97.5258176895
 20
44.9972213429
 10
97.2402471076
 20
45.4151166247
 10
96.9076926678
 20
45.7661630949
 10
96.5508175208
 20
46.0264374817
 10
96.1939430323
 20
46.178201989
 10
95.8613885925
 20
46.2111147022
 10
95.5758180106
 20
46.1229321961
 10
95.3566912768
 20
45.919664619
 10
95.2189428635
 20
45.6151636353
 10
95.1719596641
 20
45.230180639
 10
95.2189428635
 20
44.7909519954
 10
95.3566912768
 20
44.327410079
 10
95.5758180106
 20
43.8711441603
 10
95.8613885925
 20
43.4532488785
 10
96.1939430323
 20
43.1022024084
 10
96.5508175208
 20
42.8419284017
 10
96.9076926678
 20
42.6901635143
 10
97.2402471076
 20
42.657250801
 10
97.5258176895
 20
42.7454333071
 10
97.7449437647
 20
42.9487012644
 10
97.8826928366
 20
43.2532018679
 10
97.9296760359
 20
43.6381848642
  0
LWPOLYLINE
  5
373
330
1F
100
AcDbEntity
  8
0
  6
Continuous
 62
     7
370
    40
100
AcDbPolyline
 90
       25
 70
   128
 43
0.0
 10
79.3681229508
 20
54.3535413775
 10
79.3211397514
 20
54.7927700211
 10
79.1833913381
 20
55.2563119375
 10
78.9642646044
 20
55.7125778562
 10
78.6786940225
 20
56.130473138
 10
78.3461395826
 20
56.4815196082
 10
77.9892650941
 20
56.7417936148
 10
77.6323899471
 20
56.8935585023
 10
77.2998355073
 20
56.9264712155
 10
77.0142649254
 20
56.8382887094
 10
76.7951388502
 20
56.6350207521
 10
76.6573897783
 20
56.3305201486
 10
76.610406579
 20
55.9455371523
 10
76.6573897783
 20
55.5063085087
 10
76.7951388502
 20
55.0427662122
 10
77.0142649254
 20
54.5865006736
 10
77.2998355073
 20
54.1686053918
 10
77.6323899471
 20
53.8175589217
 10
77.9892650941
 20
53.5572845348
 10
78.3461395826
 20
53.4055200276
 10
78.6786940225
 20
53.3726073143
 10
78.9642646044
 20
53.4607898204
 10
79.1833913381
 20
53.6640573975
 10
79.3211397514
 20
53.9685583812
 10
79.3681229508
 20
54.3535413775
  0
LWPOLYLINE
  5
374
330
1F
100
AcDbEntity
  8
0
  6
Continuous
 62
     7
370
    40
100
AcDbPolyline
 90
       25
 70
   128
 43
0.0
 10
143.838582538
 20
17.2171913444
 10
143.7903981534
 20
17.6676802454
 10
143.6491166488
 20
18.1431084831
 10
143.4243685792
 20
18.6110750218
 10
143.1314795921
 20
19.0396833983
 10
142.7903956839
 20
19.3997323785
 10
142.424371378
 20
19.6666796341
 10
142.0583470721
 20
19.8223350467
 10
141.7172631638
 20
19.8560931647
 10
141.4243689084
 20
19.7656502559
 10
141.1996261071
 20
19.5571692738
 10
141.0583446025
 20
19.2448611891
 10
141.0101549496
 20
18.8500078357
 10
141.0583446025
 20
18.3995159052
 10
141.1996261071
 20
17.9240876675
 10
141.4243689084
 20
17.4561240751
 10
141.7172631638
 20
17.0275127523
 10
142.0583470721
 20
16.6674636771
 10
142.424371378
 20
16.4005164215
 10
142.7903956839
 20
16.2448610089
 10
143.1314795921
 20
16.211102986
 10
143.4243685792
 20
16.301548841
 10
143.6491166488
 20
16.5100268769
 10
143.7903981534
 20
16.8223349615
 10
143.838582538
 20
17.2171913444
  0
LWPOLYLINE
  5
375
330
1F
100
AcDbEntity
  8
0
  6
Continuous
 62
     7
370
    40
100
AcDbPolyline
 90
       25
 70
   128
 43
0.0
 10
60.3999844864
 20
65.3852687132
 10
60.3517948335
 20
65.8357606556
 10
60.2105159631
 20
66.3111873726
 10
59.9857705276
 20
66.7791523906
 10
59.6928762722
 20
67.2077638085
 10
59.3517949981
 20
67.567811268
 10
58.9857706922
 20
67.8347585236
 10
58.6197437521
 20
67.9904154569
 10
58.278662478
 20
68.0241720542
 10
57.9857708568
 20
67.9337276247
 10
57.7610254213
 20
67.7252481633
 10
57.6197439168
 20
67.4129400786
 10
57.571556898
 20
67.0180852045
 10
57.6197439168
 20
66.5675947947
 10
57.7610254213
 20
66.092166557
 10
57.9857708568
 20
65.6242014439
 10
58.278662478
 20
65.1955916418
 10
58.6197437521
 20
64.8355440873
 10
58.9857706922
 20
64.568595311
 10
59.3517949981
 20
64.4129398984
 10
59.6928762722
 20
64.3791833961
 10
59.9857705276
 20
64.4696262098
 10
60.2105159631
 20
64.6781057664
 10
60.3517948335
 20
64.9904153717
 10
60.3999844864
 20
65.3852687132
  0
LINE
  5
376
330
1F
100
AcDbEntity
  8
0
  6
Continuous
 62
     7
370
    40
100
AcDbLine
 10
144.8992448592
 20
21.7082640333
 30
0.0
 11
145.9599050402
 21
22.3205701225
 31
0.0
  0
LINE
  5
377
330
1F
100
AcDbEntity
  8
0
  6
Continuous
 62
     7
370
    40
100
AcDbLine
 10
101.4121766151
 20
46.8128141653
 30
0.0
 11
102.4728367961
 21
47.4251202545
 31
0.0
  0
LINE
  5
378
330
1F
100
AcDbEntity
  8
0
  6
Continuous
 62
     7
370
    40
100
AcDbLine
 10
145.9599050402
 20
22.3205701225
 30
0.0
 11
102.4728367961
 21
47.4251202545
 31
0.0
  0
LINE
  5
379
330
1F
100
AcDbEntity
  8
0
  6
Continuous
 62
     7
370
    40
100
AcDbLine
 10
144.8992448592
 20
11.5015041129
 30
0.0
 11
145.9599050402
 21
12.1138102021
 31
0.0
  0
LINE
  5
37A
330
1F
100
AcDbEntity
  8
0
  6
Continuous
 62
     7
370
    40
100
AcDbLine
 10
145.9599050402
 20
12.1138102021
 30
0.0
 11
145.9599050402
 21
22.3205701225
 31
0.0
  0
LWPOLYLINE
  5
37B
330
1F
100
AcDbEntity
  8
0
  6
Continuous
 62
     7
370
    40
100
AcDbPolyline
 90
       13
 70
   128
 43
0.0
 10
141.4788893143
 20
19.7938758265
 10
141.3056921087
 20
19.6183998732
 10
141.1644106042
 20
19.3060917885
 10
141.1162209512
 20
18.9112384351
 10
141.1644106042
 20
18.4607465046
 10
141.3056921087
 20
17.9853182669
 10
141.5304349101
 20
17.5173546745
 10
141.8233291654
 20
17.0887433517
 10
142.1644130737
 20
16.7286942765
 10
142.5304373796
 20
16.4617470209
 10
142.8964616855
 20
16.3060916083
 10
143.2375455938
 20
16.2723335854
 10
143.4759176323
 20
16.334551931
  0
LWPOLYLINE
  5
37C
330
1F
100
AcDbEntity
  8
0
  6
Continuous
 62
     7
370
    40
100
AcDbPolyline
 90
       15
 70
   128
 43
0.0
 10
142.4218084462
 20
19.6681565314
 10
142.3536569922
 20
19.6658035382
 10
142.106470994
 20
19.5808664872
 10
141.9283689489
 20
19.3820251364
 10
141.8351769985
 20
19.0869466665
 10
141.8351769985
 20
18.721849383
 10
141.9283689489
 20
18.3191737774
 10
142.106470994
 20
17.9147001348
 10
142.3536569922
 20
17.5443682527
 10
142.6479684353
 20
17.241080872
 10
142.963253204
 20
17.0317870567
 10
143.2714941806
 20
16.9350851952
 10
143.5453011819
 20
16.9595684196
 10
143.7603502081
 20
17.1030584779
 10
143.8385800273
 20
17.2139686847
  0
ARC
  5
37D
330
1F
100
AcDbEntity
  8
0
  6
Continuous
 62
     7
370
    40
100
AcDbCircle
 10
145.085057579
 20
19.5695823874
 30
0.0
 40
3.132518870842504
100
AcDbArc
 50
187.2384604551
 51
232.7561629983
  0
ARC
  5
37E
330
1F
100
AcDbEntity
  8
0
  6
Continuous
 62
     7
370
    40
100
AcDbCircle
 10
142.7283709144
 20
19.0689303053
 30
0.0
 40
0.7673988447548782
100
AcDbArc
 50
132.6849156009
 51
185.6875144288
  0
LWPOLYLINE
  5
37F
330
1F
100
AcDbEntity
  8
0
  6
Continuous
 62
     7
370
    40
100
AcDbPolyline
 90
        9
 70
   128
 43
0.0
 10
143.7013000861
 20
17.04646369
 10
143.5557406764
 20
17.013701743
 10
143.2614292333
 20
17.0502191216
 10
142.946149733
 20
17.2049423105
 10
142.6379087564
 20
17.4641279053
 10
142.364101755
 20
17.8047419644
 10
142.1490527289
 20
18.1965223433
 10
142.0118752737
 20
18.604654468
 10
141.9647498287
 20
18.9928788462
  0
ARC
  5
380
330
1F
100
AcDbEntity
  8
0
  6
Continuous
 62
     7
370
    40
100
AcDbCircle
 10
145.1019888367
 20
19.5795122286
 30
0.0
 40
3.033438556970427
100
AcDbArc
 50
182.2142000697
 51
237.8457600605
  0
LINE
  5
381
330
1F
100
AcDbEntity
  8
0
  6
Continuous
 62
     7
370
    40
100
AcDbLine
 10
109.190351166
 20
34.9737023939
 30
0.0
 11
110.251011347
 21
35.5860084831
 31
0.0
  0
LINE
  5
382
330
1F
100
AcDbEntity
  8
0
  6
Continuous
 62
     7
370
    40
100
AcDbLine
 10
110.251011347
 20
35.5860084831
 30
0.0
 11
135.353302901
 21
21.0947640238
 31
0.0
  0
LINE
  5
383
330
1F
100
AcDbEntity
  8
0
  6
Continuous
 62
     7
370
    40
100
AcDbLine
 10
101.4121766151
 20
54.569952009
 30
0.0
 11
102.4728367961
 21
55.1822580982
 31
0.0
  0
LINE
  5
384
330
1F
100
AcDbEntity
  8
0
  6
Continuous
 62
     7
370
    40
100
AcDbLine
 10
73.1279059998
 20
70.8981138805
 30
0.0
 11
74.1885661808
 21
71.5104199697
 31
0.0
  0
LINE
  5
385
330
1F
100
AcDbEntity
  8
0
  6
Continuous
 62
     7
370
    40
100
AcDbLine
 10
102.4728367961
 20
55.1822580982
 30
0.0
 11
74.1885661808
 21
71.5104199697
 31
0.0
  0
LINE
  5
386
330
1F
100
AcDbEntity
  8
0
  6
Continuous
 62
     7
370
    40
100
AcDbLine
 10
102.4728367961
 20
47.4251202545
 30
0.0
 11
102.4728367961
 21
55.1822580982
 31
0.0
  0
LINE
  5
387
330
1F
100
AcDbEntity
  8
0
  6
Continuous
 62
     7
370
    40
100
AcDbLine
 10
110.251011347
 20
40.0771819753
 30
0.0
 11
110.251011347
 21
35.5860084831
 31
0.0
  0
LWPOLYLINE
  5
388
330
1F
100
AcDbEntity
  8
0
  6
Continuous
 62
     7
370
    40
100
AcDbPolyline
 90
       13
 70
   128
 43
0.0
 10
95.6303733193
 20
46.1510935109
 10
95.4627572784
 20
45.9808952184
 10
95.3250088651
 20
45.6763942347
 10
95.2780256658
 20
45.2914112385
 10
95.3250088651
 20
44.8521825949
 10
95.4627572784
 20
44.3886406784
 10
95.6818840122
 20
43.9323747597
 10
95.9674545941
 20
43.514479478
 10
96.3000090339
 20
43.1634330078
 10
96.6568835224
 20
42.9031590011
 10
97.0137586694
 20
42.7513941137
 10
97.3463131093
 20
42.7184814004
 10
97.577328547
 20
42.7785024588
  0
LWPOLYLINE
  5
389
330
1F
100
AcDbEntity
  8
0
  6
Continuous
 62
     7
370
    40
100
AcDbPolyline
 90
       14
 70
   128
 43
0.0
 10
96.577743924
 20
46.0105896522
 10
96.4358466803
 20
45.9929780855
 10
96.2129273887
 20
45.8642479209
 10
96.0698045937
 20
45.6225043935
 10
96.0204875126
 20
45.2914114285
 10
96.0698045937
 20
44.9033781738
 10
96.2129273887
 20
44.4963885846
 10
96.4358466803
 20
44.1102812843
 10
96.7167409376
 20
43.782851465
 10
97.0281146104
 20
43.54615001
 10
97.3394889418
 20
43.4233466945
 10
97.6203831991
 20
43.4264629075
 10
97.8433024907
 20
43.5551930721
 10
97.9294177219
 20
43.6691683039
  0
ARC
  5
38A
330
1F
100
AcDbEntity
  8
0
  6
Continuous
 62
     7
370
    40
100
AcDbCircle
 10
99.1754588767
 20
45.9493556
 30
0.0
 40
3.061563705019814
100
AcDbArc
 50
187.652964009
 51
232.3416566198
  0
ARC
  5
38B
330
1F
100
AcDbEntity
  8
0
  6
Continuous
 62
     7
370
    40
100
AcDbCircle
 10
96.837637482
 20
45.4293038859
 30
0.0
 40
0.7152044810562934
100
AcDbArc
 50
130.7604584386
 51
186.1532832035
  0
LWPOLYLINE
  5
38C
330
1F
100
AcDbEntity
  8
0
  6
Continuous
 62
     7
370
    40
100
AcDbPolyline
 90
        9
 70
   128
 43
0.0
 10
97.7916141555
 20
43.5096388809
 10
97.7264492008
 20
43.4876935069
 10
97.4455549434
 20
43.4845772939
 10
97.1341806121
 20
43.6073806094
 10
96.8228069393
 20
43.8440820644
 10
96.5419126819
 20
44.1715118837
 10
96.3189933903
 20
44.557619184
 10
96.1758705953
 20
44.9646087732
 10
96.1265535142
 20
45.352642028
  0
ARC
  5
38D
330
1F
100
AcDbEntity
  8
0
  6
Continuous
 62
     7
370
    40
100
AcDbCircle
 10
99.1958965925
 20
45.959725015
 30
0.0
 40
2.965595032604296
100
AcDbArc
 50
182.2656532184
 51
237.0882787847
  0
LINE
  5
38E
330
1F
100
AcDbEntity
  8
0
  6
Continuous
 62
     7
370
    40
100
AcDbLine
 10
92.5733422125
 20
45.3011850473
 30
0.0
 11
91.5126820315
 21
44.6888789581
 31
0.0
  0
LINE
  5
38F
330
1F
100
AcDbEntity
  8
0
  6
Continuous
 62
     7
370
    40
100
AcDbLine
 10
92.5733422125
 20
45.3011850473
 30
0.0
 11
95.0482156937
 21
43.8724709976
 31
0.0
  0
LINE
  5
390
330
1F
100
AcDbEntity
  8
0
  6
Continuous
 62
     7
370
    40
100
AcDbLine
 10
92.5733422125
 20
45.7094555202
 30
0.0
 11
91.5126820315
 21
45.097149431
 31
0.0
  0
LINE
  5
391
330
1F
100
AcDbEntity
  8
0
  6
Continuous
 62
     7
370
    40
100
AcDbLine
 10
92.5733422125
 20
45.7094555202
 30
0.0
 11
92.5733422125
 21
45.3011850473
 31
0.0
  0
LINE
  5
392
330
1F
100
AcDbEntity
  8
0
  6
Continuous
 62
     7
370
    40
100
AcDbLine
 10
84.0880607645
 20
50.6079042337
 30
0.0
 11
83.0274005835
 21
49.9955981445
 31
0.0
  0
LINE
  5
393
330
1F
100
AcDbEntity
  8
0
  6
Continuous
 62
     7
370
    40
100
AcDbLine
 10
84.0880607645
 20
50.6079042337
 30
0.0
 11
92.5733422125
 21
45.7094555202
 31
0.0
  0
LINE
  5
394
330
1F
100
AcDbEntity
  8
0
  6
Continuous
 62
     7
370
    40
100
AcDbLine
 10
79.8454200405
 20
57.7522382679
 30
0.0
 11
78.7847598595
 21
57.1399321787
 31
0.0
  0
LINE
  5
395
330
1F
100
AcDbEntity
  8
0
  6
Continuous
 62
     7
370
    40
100
AcDbLine
 10
79.8454200405
 20
58.9772485475
 30
0.0
 11
79.8454200405
 21
57.7522382679
 31
0.0
  0
LINE
  5
396
330
1F
100
AcDbEntity
  8
0
  6
Continuous
 62
     7
370
    40
100
AcDbLine
 10
80.5525269375
 20
56.5274933895
 30
0.0
 11
79.4918667565
 21
55.9151873003
 31
0.0
  0
LINE
  5
397
330
1F
100
AcDbEntity
  8
0
  6
Continuous
 62
     7
370
    40
100
AcDbLine
 10
79.8454200405
 20
57.7522382679
 30
0.0
 11
80.5525269375
 21
56.5274933895
 31
0.0
  0
LINE
  5
398
330
1F
100
AcDbEntity
  8
0
  6
Continuous
 62
     7
370
    40
100
AcDbLine
 10
80.5525269375
 20
52.2406539948
 30
0.0
 11
79.4918667565
 21
51.6283479056
 31
0.0
  0
LINE
  5
399
330
1F
100
AcDbEntity
  8
0
  6
Continuous
 62
     7
370
    40
100
AcDbLine
 10
80.5525269375
 20
56.5274933895
 30
0.0
 11
80.5525269375
 21
52.2406539948
 31
0.0
  0
LWPOLYLINE
  5
39A
330
1F
100
AcDbEntity
  8
0
  6
Continuous
 62
     7
370
    40
100
AcDbPolyline
 90
       13
 70
   128
 43
0.0
 10
77.0688202341
 20
56.8664500242
 10
76.9012048518
 20
56.6962513516
 10
76.76345578
 20
56.391750748
 10
76.7164725806
 20
56.0067677518
 10
76.76345578
 20
55.5675391082
 10
76.9012048518
 20
55.1039968116
 10
77.120330927
 20
54.647731273
 10
77.4059015089
 20
54.2298359913
 10
77.7384559487
 20
53.8787895211
 10
78.0953310958
 20
53.6185151343
 10
78.4522055843
 20
53.466750627
 10
78.7847600241
 20
53.4338379137
 10
79.0157754619
 20
53.4938589721
  0
LINE
  5
39B
330
1F
100
AcDbEntity
  8
0
  6
Continuous
 62
     7
370
    40
100
AcDbLine
 10
80.5525269375
 20
52.2406539948
 30
0.0
 11
83.7344500225
 21
50.403768897
 31
0.0
  0
LWPOLYLINE
  5
39C
330
1F
100
AcDbEntity
  8
0
  6
Continuous
 62
     7
370
    40
100
AcDbPolyline
 90
       14
 70
   128
 43
0.0
 10
78.0161908388
 20
56.7259461655
 10
77.8742935951
 20
56.7083345988
 10
77.6513743035
 20
56.5796044342
 10
77.5082515085
 20
56.3378609068
 10
77.4589344274
 20
56.0067679418
 10
77.5082515085
 20
55.6187346871
 10
77.6513743035
 20
55.2117450978
 10
77.8742935951
 20
54.8256377976
 10
78.1551878525
 20
54.4982079783
 10
78.4665621838
 20
54.2615061431
 10
78.7779358566
 20
54.1387032078
 10
79.058830114
 20
54.1418194208
 10
79.2817494056
 20
54.2705495854
 10
79.3678646367
 20
54.3845248172
  0
ARC
  5
39D
330
1F
100
AcDbEntity
  8
0
  6
Continuous
 62
     7
370
    40
100
AcDbCircle
 10
80.6139057915
 20
56.6647121133
 30
0.0
 40
3.061563705019957
100
AcDbArc
 50
187.652964009
 51
232.3416566198
  0
ARC
  5
39E
330
1F
100
AcDbEntity
  8
0
  6
Continuous
 62
     7
370
    40
100
AcDbCircle
 10
78.2760843969
 20
56.1446603992
 30
0.0
 40
0.715204481056092
100
AcDbArc
 50
130.7604584386
 51
186.1532832035
  0
LWPOLYLINE
  5
39F
330
1F
100
AcDbEntity
  8
0
  6
Continuous
 62
     7
370
    40
100
AcDbPolyline
 90
        9
 70
   128
 43
0.0
 10
79.2300610703
 20
54.2249953942
 10
79.1648961156
 20
54.2030500202
 10
78.8840018583
 20
54.1999338072
 10
78.5726281855
 20
54.3227367426
 10
78.2612538541
 20
54.5594385777
 10
77.9803595968
 20
54.886868397
 10
77.7574403052
 20
55.2729756973
 10
77.6143175102
 20
55.6799652865
 10
77.5650004291
 20
56.0679985413
  0
ARC
  5
3A0
330
1F
100
AcDbEntity
  8
0
  6
Continuous
 62
     7
370
    40
100
AcDbCircle
 10
80.6343432473
 20
56.6750814284
 30
0.0
 40
2.965594768792047
100
AcDbArc
 50
182.265651489
 51
237.0882966265
  0
LINE
  5
3A1
330
1F
100
AcDbEntity
  8
0
  6
Continuous
 62
     7
370
    40
100
AcDbLine
 10
56.5108972109
 20
72.7337710223
 30
0.0
 11
57.5715573919
 21
73.3460771115
 31
0.0
  0
LINE
  5
3A2
330
1F
100
AcDbEntity
  8
0
  6
Continuous
 62
     7
370
    40
100
AcDbLine
 10
73.1279051766
 20
64.3655886904
 30
0.0
 11
57.5715573919
 21
73.3460771115
 31
0.0
  0
LWPOLYLINE
  5
3A3
330
1F
100
AcDbEntity
  8
0
  6
Continuous
 62
     7
370
    40
100
AcDbPolyline
 90
       13
 70
   128
 43
0.0
 10
58.0402912627
 20
67.9619531954
 10
57.867091423
 20
67.7864787627
 10
57.7258099184
 20
67.474170678
 10
57.6776228997
 20
67.0793158039
 10
57.7258099184
 20
66.6288253942
 10
57.867091423
 20
66.1533971564
 10
58.0918368585
 20
65.6854320433
 10
58.3847284797
 20
65.2568222412
 10
58.7258097538
 20
64.8967746867
 10
59.0918366938
 20
64.6298259104
 10
59.4578609997
 20
64.4741704978
 10
59.7989422738
 20
64.4404139956
 10
60.0373143123
 20
64.5026323412
  0
LWPOLYLINE
  5
3A4
330
1F
100
AcDbEntity
  8
0
  6
Continuous
 62
     7
370
    40
100
AcDbPolyline
 90
       15
 70
   128
 43
0.0
 10
58.9832077604
 20
67.8362354209
 10
58.9150589406
 20
67.833880907
 10
58.6678703082
 20
67.7489453767
 10
58.4897682632
 20
67.5501040259
 10
58.3965763127
 20
67.255025556
 10
58.3965763127
 20
66.8899282725
 10
58.4897682632
 20
66.4872526669
 10
58.6678703082
 20
66.0827790243
 10
58.9150589406
 20
65.7124456215
 10
59.2093703837
 20
65.4091582408
 10
59.5246525182
 20
65.1998659462
 10
59.8328908606
 20
65.1031656054
 10
60.1067004961
 20
65.1276473091
 10
60.3217468881
 20
65.2711388881
 10
60.3999819757
 20
65.3820460535
  0
ARC
  5
3A5
330
1F
100
AcDbEntity
  8
0
  6
Continuous
 62
     7
370
    40
100
AcDbCircle
 10
61.6464216527
 20
67.7376378916
 30
0.0
 40
3.132478543093795
100
AcDbArc
 50
187.2381510069
 51
232.7564724466
  0
ARC
  5
3A6
330
1F
100
AcDbEntity
  8
0
  6
Continuous
 62
     7
370
    40
100
AcDbCircle
 10
59.2897465424
 20
67.2370211602
 30
0.0
 40
0.767373990665265
100
AcDbArc
 50
132.6842212667
 51
185.6887111681
  0
LWPOLYLINE
  5
3A7
330
1F
100
AcDbEntity
  8
0
  6
Continuous
 62
     7
370
    40
100
AcDbPolyline
 90
        9
 70
   128
 43
0.0
 10
60.2626994003
 20
65.2145425796
 10
60.1171399906
 20
65.1817806325
 10
59.8228311817
 20
65.2182964905
 10
59.507546413
 20
65.3730227207
 10
59.1993080706
 20
65.6322067948
 10
58.9255010693
 20
65.9728208539
 10
58.7104520431
 20
66.3646012328
 10
58.5732719537
 20
66.7727348782
 10
58.5261517771
 20
67.1609562151
  0
ARC
  5
3A8
330
1F
100
AcDbEntity
  8
0
  6
Continuous
 62
     7
370
    40
100
AcDbCircle
 10
61.6633754701
 20
67.747580603
 30
0.0
 40
3.033422905917916
100
AcDbArc
 50
182.2140414836
 51
237.8458571389
  0
ENDSEC
  0
SECTION
  2
OBJECTS
  0
DICTIONARY
  5
C
330
0
100
AcDbDictionary
281
     1
  3
ACAD_GROUP
350
D
  3
ACAD_LAYOUT
350
1A
  3
ACAD_MLEADERSTYLE
350
3AA
  3
ACAD_MLINESTYLE
350
17
  3
ACAD_PLOTSETTINGS
350
19
  3
ACAD_PLOTSTYLENAME
350
E
  3
ACAD_TABLESTYLE
350
3A9
  3
ACAD_VISUALSTYLE
350
2A
  3
AcDbVariableDictionary
350
3AB
  0
DICTIONARY
  5
D
102
{ACAD_REACTORS
330
C
102
}
330
C
100
AcDbDictionary
281
     1
  0
DICTIONARY
  5
1A
102
{ACAD_REACTORS
330
C
102
}
330
C
100
AcDbDictionary
281
     1
  3
Layout1
350
1E
  3
Layout2
350
26
  3
Model
350
22
  0
DICTIONARY
  5
3AA
102
{ACAD_REACTORS
330
C
102
}
330
C
100
AcDbDictionary
281
     1
  0
DICTIONARY
  5
17
102
{ACAD_REACTORS
330
C
102
}
330
C
100
AcDbDictionary
281
     1
  3
Standard
350
18
  0
DICTIONARY
  5
19
102
{ACAD_REACTORS
330
C
102
}
330
C
100
AcDbDictionary
281
     1
  0
ACDBDICTIONARYWDFLT
  5
E
102
{ACAD_REACTORS
330
C
102
}
330
C
100
AcDbDictionary
281
     1
  3
Normal
350
F
100
AcDbDictionaryWithDefault
340
F
  0
DICTIONARY
  5
3A9
102
{ACAD_REACTORS
330
C
102
}
330
C
100
AcDbDictionary
281
     1
  0
DICTIONARY
  5
2A
102
{ACAD_REACTORS
330
C
102
}
330
C
100
AcDbDictionary
281
     1
  3
2dWireframe
350
2F
  3
3D Hidden
350
31
  3
3dWireframe
350
30
  3
Basic
350
32
  3
Brighten
350
36
  3
ColorChange
350
3A
  3
Conceptual
350
34
  3
Dim
350
35
  3
Facepattern
350
39
  3
Flat
350
2B
  3
FlatWithEdges
350
2C
  3
Gouraud
350
2D
  3
GouraudWithEdges
350
2E
  3
Linepattern
350
38
  3
Realistic
350
33
  3
Thicken
350
37
  0
DICTIONARY
  5
3AB
102
{ACAD_REACTORS
330
C
102
}
330
C
100
AcDbDictionary
281
     1
  3
PSOLHEIGHT
350
3AD
  3
PSOLWIDTH
350
3AC
  0
LAYOUT
  5
1E
102
{ACAD_REACTORS
330
1A
102
}
330
1A
100
AcDbPlotSettings
  1

  2
none_device
  4

  6

 40
0.0
 41
0.0
 42
0.0
 43
0.0
 44
0.0
 45
0.0
 46
0.0
 47
0.0
 48
0.0
 49
0.0
140
0.0
141
0.0
142
1.0
143
1.0
 70
   688
 72
     0
 73
     0
 74
     5
  7

 75
    16
147
1.0
148
0.0
149
0.0
100
AcDbLayout
  1
Layout1
 70
     1
 71
     1
 10
0.0
 20
0.0
 11
420.0
 21
297.0
 12
0.0
 22
0.0
 32
0.0
 14
1.0000000000E+20
 24
1.0000000000E+20
 34
1.0000000000E+20
 15
-1.0000000000E+20
 25
-1.0000000000E+20
 35
-1.0000000000E+20
146
0.0
 13
0.0
 23
0.0
 33
0.0
 16
1.0
 26
0.0
 36
0.0
 17
0.0
 27
1.0
 37
0.0
 76
     0
330
1B
  0
LAYOUT
  5
26
102
{ACAD_REACTORS
330
1A
102
}
330
1A
100
AcDbPlotSettings
  1

  2
none_device
  4

  6

 40
0.0
 41
0.0
 42
0.0
 43
0.0
 44
0.0
 45
0.0
 46
0.0
 47
0.0
 48
0.0
 49
0.0
140
0.0
141
0.0
142
1.0
143
1.0
 70
   688
 72
     0
 73
     0
 74
     5
  7

 75
    16
147
1.0
148
0.0
149
0.0
100
AcDbLayout
  1
Layout2
 70
     1
 71
     2
 10
0.0
 20
0.0
 11
0.0
 21
0.0
 12
0.0
 22
0.0
 32
0.0
 14
0.0
 24
0.0
 34
0.0
 15
0.0
 25
0.0
 35
0.0
146
0.0
 13
0.0
 23
0.0
 33
0.0
 16
1.0
 26
0.0
 36
0.0
 17
0.0
 27
1.0
 37
0.0
 76
     0
330
23
  0
LAYOUT
  5
22
102
{ACAD_REACTORS
330
1A
102
}
330
1A
100
AcDbPlotSettings
  1

  2
none_device
  4

  6

 40
0.0
 41
0.0
 42
0.0
 43
0.0
 44
0.0
 45
0.0
 46
0.0
 47
0.0
 48
0.0
 49
0.0
140
0.0
141
0.0
142
1.0
143
1.0
 70
  1712
 72
     0
 73
     0
 74
     0
  7

 75
     0
147
1.0
148
0.0
149
0.0
100
AcDbLayout
  1
Model
 70
     1
 71
     0
 10
0.0
 20
0.0
 11
420.0
 21
297.0
 12
0.0
 22
0.0
 32
0.0
 14
0.0
 24
0.0
 34
0.0
 15
420.0
 25
297.0
 35
0.0
146
0.0
 13
0.0
 23
0.0
 33
0.0
 16
1.0
 26
0.0
 36
0.0
 17
0.0
 27
1.0
 37
0.0
 76
     0
330
1F
331
29
  0
MLINESTYLE
  5
18
102
{ACAD_REACTORS
330
17
102
}
330
17
100
AcDbMlineStyle
  2
Standard
 70
     0
  3

 62
   256
 51
90.0
 52
90.0
 71
     2
 49
0.5
 62
   256
  6
BYLAYER
 49
-0.5
 62
   256
  6
BYLAYER
  0
ACDBPLACEHOLDER
  5
F
102
{ACAD_REACTORS
330
E
102
}
330
E
  0
VISUALSTYLE
  5
2F
102
{ACAD_REACTORS
330
2A
102
}
330
2A
100
AcDbVisualStyle
  2
2dWireframe
 70
     4
 71
     0
 72
     2
 73
     0
 90
        0
 40
-0.6
 41
-30.0
 62
     5
 63
     7
 74
     1
 91
        4
 64
     7
 65
   257
 75
     1
175
     1
 42
1.0
 92
        0
 66
   257
 43
1.0
 76
     1
 77
     6
 78
     2
 67
     7
 79
     5
170
     0
171
     0
290
     0
174
     0
 93
        1
 44
0.0
173
     0
291
     0
 45
0.0
1001
ACAD
1000
AcDbSavedByObjectVersion
1070
     0
  0
VISUALSTYLE
  5
31
102
{ACAD_REACTORS
330
2A
102
}
330
2A
100
AcDbVisualStyle
  2
3D Hidden
 70
     6
 71
     1
 72
     2
 73
     2
 90
        0
 40
-0.6
 41
-30.0
 62
     5
 63
     7
 74
     2
 91
        2
 64
     7
 65
   257
 75
     2
175
     1
 42
40.0
 92
        0
 66
   257
 43
1.0
 76
     1
 77
     6
 78
     2
 67
     7
 79
     3
170
     0
171
     0
290
     0
174
     0
 93
        1
 44
0.0
173
     0
291
     0
 45
0.0
1001
ACAD
1000
AcDbSavedByObjectVersion
1070
     0
  0
VISUALSTYLE
  5
30
102
{ACAD_REACTORS
330
2A
102
}
330
2A
100
AcDbVisualStyle
  2
3dWireframe
 70
     5
 71
     0
 72
     2
 73
     0
 90
        0
 40
-0.6
 41
-30.0
 62
     5
 63
     7
 74
     1
 91
        4
 64
     7
 65
   257
 75
     1
175
     1
 42
1.0
 92
        0
 66
   257
 43
1.0
 76
     1
 77
     6
 78
     2
 67
     7
 79
     5
170
     0
171
     0
290
     0
174
     0
 93
        1
 44
0.0
173
     0
291
     0
 45
0.0
1001
ACAD
1000
AcDbSavedByObjectVersion
1070
     0
  0
VISUALSTYLE
  5
32
102
{ACAD_REACTORS
330
2A
102
}
330
2A
100
AcDbVisualStyle
  2
Basic
 70
     7
 71
     1
 72
     0
 73
     1
 90
        0
 40
-0.6
 41
-30.0
 62
     5
 63
     7
 74
     0
 91
        4
 64
     7
 65
   257
 75
     1
175
     1
 42
1.0
 92
        8
 66
     7
 43
1.0
 76
     1
 77
     6
 78
     2
 67
     7
 79
     5
170
     0
171
     0
290
     0
174
     0
 93
        1
 44
0.0
173
     0
291
     1
 45
0.0
1001
ACAD
1000
AcDbSavedByObjectVersion
1070
     0
  0
VISUALSTYLE
  5
36
102
{ACAD_REACTORS
330
2A
102
}
330
2A
100
AcDbVisualStyle
  2
Brighten
 70
    12
 71
     2
 72
     2
 73
     0
 90
        0
 40
-0.6
 41
-30.0
 62
     5
 63
     7
 74
     1
 91
        4
 64
     7
 65
   257
 75
     1
175
     1
 42
1.0
 92
        8
 66
     7
 43
1.0
 76
     1
 77
     6
 78
     2
 67
     7
 79
     5
170
     0
171
     0
290
     0
174
     0
 93
        1
 44
50.0
173
     0
291
     1
 45
0.0
1001
ACAD
1000
AcDbSavedByObjectVersion
1070
     0
  0
VISUALSTYLE
  5
3A
102
{ACAD_REACTORS
330
2A
102
}
330
2A
100
AcDbVisualStyle
  2
ColorChange
 70
    16
 71
     2
 72
     2
 73
     3
 90
        0
 40
-0.6
 41
-30.0
 62
     5
 63
     8
 74
     1
 91
        4
 64
     7
 65
   257
 75
     1
175
     1
 42
1.0
 92
        8
 66
     8
 43
1.0
 76
     1
 77
     6
 78
     2
 67
     7
 79
     5
170
     0
171
     0
290
     0
174
     0
 93
        1
 44
0.0
173
     0
291
     1
 45
0.0
1001
ACAD
1000
AcDbSavedByObjectVersion
1070
     0
  0
VISUALSTYLE
  5
34
102
{ACAD_REACTORS
330
2A
102
}
330
2A
100
AcDbVisualStyle
  2
Conceptual
 70
     9
 71
     3
 72
     2
 73
     0
 90
        0
 40
-0.6
 41
-30.0
 62
     5
 63
     7
 74
     2
 91
        2
 64
     7
 65
   257
 75
     1
175
     1
 42
40.0
 92
        8
 66
     7
 43
1.0
 76
     1
 77
     6
 78
     2
 67
     7
 79
     3
170
     0
171
     0
290
     0
174
     0
 93
        1
 44
0.0
173
     0
291
     0
 45
0.0
1001
ACAD
1000
AcDbSavedByObjectVersion
1070
     0
  0
VISUALSTYLE
  5
35
102
{ACAD_REACTORS
330
2A
102
}
330
2A
100
AcDbVisualStyle
  2
Dim
 70
    11
 71
     2
 72
     2
 73
     0
 90
        0
 40
-0.6
 41
-30.0
 62
     5
 63
     7
 74
     1
 91
        4
 64
     7
 65
   257
 75
     1
175
     1
 42
1.0
 92
        8
 66
     7
 43
1.0
 76
     1
 77
     6
 78
     2
 67
     7
 79
     5
170
     0
171
     0
290
     0
174
     0
 93
        1
 44
-50.0
173
     0
291
     1
 45
0.0
1001
ACAD
1000
AcDbSavedByObjectVersion
1070
     0
  0
VISUALSTYLE
  5
39
102
{ACAD_REACTORS
330
2A
102
}
330
2A
100
AcDbVisualStyle
  2
Facepattern
 70
    15
 71
     2
 72
     2
 73
     0
 90
        0
 40
-0.6
 41
-30.0
 62
     5
 63
     7
 74
     1
 91
        4
 64
     7
 65
   257
 75
     1
175
     1
 42
1.0
 92
        8
 66
     7
 43
1.0
 76
     1
 77
     6
 78
     2
 67
     7
 79
     5
170
     0
171
     0
290
     0
174
     0
 93
        1
 44
0.0
173
     0
291
     1
 45
0.0
1001
ACAD
1000
AcDbSavedByObjectVersion
1070
     0
  0
VISUALSTYLE
  5
2B
102
{ACAD_REACTORS
330
2A
102
}
330
2A
100
AcDbVisualStyle
  2
Flat
 70
     0
 71
     2
 72
     1
 73
     1
 90
        2
 40
-0.6
 41
30.0
 62
     5
 63
     7
 74
     0
 91
        4
 64
     7
 65
   257
 75
     1
175
     1
 42
1.0
 92
        8
 66
     7
 43
1.0
 76
     1
 77
     6
 78
     2
 67
     7
 79
     5
170
     0
171
     0
290
     0
174
     0
 93
       13
 44
0.0
173
     0
291
     1
 45
0.0
1001
ACAD
1000
AcDbSavedByObjectVersion
1070
     0
  0
VISUALSTYLE
  5
2C
102
{ACAD_REACTORS
330
2A
102
}
330
2A
100
AcDbVisualStyle
  2
FlatWithEdges
 70
     1
 71
     2
 72
     1
 73
     1
 90
        2
 40
-0.6
 41
30.0
 62
     5
 63
     7
 74
     1
 91
        4
 64
     7
 65
   257
 75
     1
175
     1
 42
1.0
 92
        0
 66
   257
 43
1.0
 76
     1
 77
     6
 78
     2
 67
     7
 79
     5
170
     0
171
     0
290
     0
174
     0
 93
       13
 44
0.0
173
     0
291
     1
 45
0.0
1001
ACAD
1000
AcDbSavedByObjectVersion
1070
     0
  0
VISUALSTYLE
  5
2D
102
{ACAD_REACTORS
330
2A
102
}
330
2A
100
AcDbVisualStyle
  2
Gouraud
 70
     2
 71
     2
 72
     2
 73
     1
 90
        2
 40
-0.6
 41
30.0
 62
     5
 63
     7
 74
     0
 91
        4
 64
     7
 65
   257
 75
     1
175
     1
 42
1.0
 92
        0
 66
     7
 43
1.0
 76
     1
 77
     6
 78
     2
 67
     7
 79
     5
170
     0
171
     0
290
     0
174
     0
 93
       13
 44
0.0
173
     0
291
     1
 45
0.0
1001
ACAD
1000
AcDbSavedByObjectVersion
1070
     0
  0
VISUALSTYLE
  5
2E
102
{ACAD_REACTORS
330
2A
102
}
330
2A
100
AcDbVisualStyle
  2
GouraudWithEdges
 70
     3
 71
     2
 72
     2
 73
     1
 90
        2
 40
-0.6
 41
30.0
 62
     5
 63
     7
 74
     1
 91
        4
 64
     7
 65
   257
 75
     1
175
     1
 42
1.0
 92
        0
 66
   257
 43
1.0
 76
     1
 77
     6
 78
     2
 67
     7
 79
     5
170
     0
171
     0
290
     0
174
     0
 93
       13
 44
0.0
173
     0
291
     1
 45
0.0
1001
ACAD
1000
AcDbSavedByObjectVersion
1070
     0
  0
VISUALSTYLE
  5
38
102
{ACAD_REACTORS
330
2A
102
}
330
2A
100
AcDbVisualStyle
  2
Linepattern
 70
    14
 71
     2
 72
     2
 73
     0
 90
        0
 40
-0.6
 41
-30.0
 62
     5
 63
     7
 74
     1
 91
        4
 64
     7
 65
   257
 75
     7
175
     7
 42
1.0
 92
        8
 66
     7
 43
1.0
 76
     1
 77
     6
 78
     2
 67
     7
 79
     5
170
     0
171
     0
290
     0
174
     0
 93
        1
 44
0.0
173
     0
291
     1
 45
0.0
1001
ACAD
1000
AcDbSavedByObjectVersion
1070
     0
  0
VISUALSTYLE
  5
33
102
{ACAD_REACTORS
330
2A
102
}
330
2A
100
AcDbVisualStyle
  2
Realistic
 70
     8
 71
     2
 72
     2
 73
     0
 90
        0
 40
-0.6
 41
-30.0
 62
     5
 63
     7
 74
     1
 91
        0
 64
     7
 65
   257
 75
     1
175
     1
 42
1.0
 92
        8
 66
     8
 43
1.0
 76
     1
 77
     6
 78
     2
 67
     7
 79
     5
170
     0
171
     0
290
     0
174
     0
 93
       13
 44
0.0
173
     0
291
     0
 45
0.0
1001
ACAD
1000
AcDbSavedByObjectVersion
1070
     0
  0
VISUALSTYLE
  5
37
102
{ACAD_REACTORS
330
2A
102
}
330
2A
100
AcDbVisualStyle
  2
Thicken
 70
    13
 71
     2
 72
     2
 73
     0
 90
        0
 40
-0.6
 41
-30.0
 62
     5
 63
     7
 74
     1
 91
        4
 64
     7
 65
   257
 75
     1
175
     1
 42
1.0
 92
       12
 66
     7
 43
1.0
 76
     1
 77
     6
 78
     2
 67
     7
 79
     5
170
     0
171
     0
290
     0
174
     0
 93
        1
 44
0.0
173
     0
291
     1
 45
0.0
1001
ACAD
1000
AcDbSavedByObjectVersion
1070
     0
  0
DICTIONARYVAR
  5
3AD
102
{ACAD_REACTORS
330
3AB
102
}
330
3AB
100
DictionaryVariables
280
     0
  1
80.000000
  0
DICTIONARYVAR
  5
3AC
102
{ACAD_REACTORS
330
3AB
102
}
330
3AB
100
DictionaryVariables
280
     0
  1
5.000000
  0
ENDSEC
  0
EOF
