  0
SECTION
  2
HEADER
  9
$ACADVER
  1
AC1014
999
I-DEAS 11 NX Not Encoded
  9
$EXTMIN
 10
0.0
 20
0.0
  9
$EXTMAX
 10
4.2E+002
 20
2.97E+002
  9
$TEXTSIZE
 40
1.25E-001
  9
$LTSCALE
 40
1.0
  9
$CLAYER
  8
100
  9
$CECOLOR
 62
3
  9
$DIMASZ
 40
1.25E-001
  9
$DIMEXO
 40
6.25E-002
  9
$DIMDLI
 40
2.5E-001
  9
$DIMEXE
 40
1.25E-001
  9
$DIMTP
 40
5.0E-003
  9
$DIMTM
 40
-5.0E-003
  9
$DIMTXT
 40
3.0
  9
$DIMLIM
 70
0
  9
$DIMTIH
 70
1
  9
$DIMTOH
 70
1
  9
$DIMSE1
 70
0
  9
$DIMSE2
 70
0
  9
$DIMTAD
 70
0
  9
$DIMASO
 70
1
  9
$DIMALT
 70
0
  9
$DIMALTD
 70
0
  9
$DIMTOFL
 70
1
  9
$DIMTIX
 70
0
  9
$DIMSAH
 70
0
  9
$DIMTFAC
 40
1.0
  9
$DIMGAP
 40
6.25E-002
  9
$LUNITS
 70
2
  9
$LUPREC
 70
3
  9
$FILLETRAD
 40
1.0E+001
  9
$AUNITS
 70
0
  9
$AUPREC
 70
1
  9
$CHAMFERA
 40
6.0
  9
$CHAMFERB
 40
6.0
  9
$ANGBASE
 50
0.0
  9
$ANGDIR
 70
0
  9
$PEXTMIN
 10
0.0
 20
0.0
 30
0.0
  9
$PEXTMAX
 10
4.2E+002
 20
2.97E+002
 30
0.0
  9
$PLIMMIN
 10
0.0
 20
0.0
  9
$PLIMMAX
 10
4.2E+002
 20
2.97E+002
  9
$PDMODE
 70
2
  9
$PDSIZE
 40
-1.0E-002
  9
$SPLINETYPE
 70
6
  9
$TILEMODE
 70
0
  9
$HANDLING
 70
1
  9
$HANDSEED
  5
f4240
  0
ENDSEC
  0
SECTION
  2
TABLES
  0
TABLE
  2
VPORT
  5
64
100
AcDbSymbolTable
 70
2
  0
VPORT
  5
65
100
AcDbSymbolTableRecord
100
AcDbViewportTableRecord
  2
*Active
 70
0
 10
0.0
 20
0.0
 11
4.2E+002
 21
2.97E+002
 12
2.1E+002
 22
1.485E+002
 13
0.0
 23
0.0
 14
1.0
 24
1.0
 15
0.0
 25
0.0
 16
0.0
 26
0.0
 36
1.0
 17
0.0
 27
0.0
 37
0.0
 40
2.97E+002
 41
1.4141414
 42
5.0E+001
 43
0.0
 44
0.0
 50
0.0
 51
0.0
 71
0
 72
1000
 73
1
 74
3
 75
0
 76
0
 77
0
 78
0
  0
ENDTAB
  0
TABLE
  2
LTYPE
  5
66
100
AcDbSymbolTable
 70
7
  0
LTYPE
  5
67
100
AcDbSymbolTableRecord
100
AcDbLinetypeTableRecord
  2
BYBLOCK
 70
0
  3

 72
65
 73
0
 40
0.0
  0
LTYPE
  5
68
100
AcDbSymbolTableRecord
100
AcDbLinetypeTableRecord
  2
BYLAYER
 70
0
  3

 72
65
 73
0
 40
0.0
  0
LTYPE
  5
69
100
AcDbSymbolTableRecord
100
AcDbLinetypeTableRecord
  2
CONTINUOUS
 70
0
  3

 72
65
 73
0
 40
0.0
  0
LTYPE
  5
6a
100
AcDbSymbolTableRecord
100
AcDbLinetypeTableRecord
  2
HIDDENNEW0
  3
_ 
 70
64
 72
65
 73
3
 40
4.5
 49
1.5
 74
0
 49
-1.5
 74
0
 49
1.5
 74
0
  0
LTYPE
  5
6b
100
AcDbSymbolTableRecord
100
AcDbLinetypeTableRecord
  2
HIDDENNEW1
  3
_ 
 70
64
 72
65
 73
3
 40
4.5
 49
1.5
 74
0
 49
-1.5
 74
0
 49
1.5
 74
0
  0
LTYPE
  5
6c
100
AcDbSymbolTableRecord
100
AcDbLinetypeTableRecord
  2
HIDDEN
  3
_ 
 70
64
 72
65
 73
3
 40
4.5
 49
1.5
 74
0
 49
-1.5
 74
0
 49
1.5
 74
0
  0
LTYPE
  5
6d
100
AcDbSymbolTableRecord
100
AcDbLinetypeTableRecord
  2
CENTERLINE
  3
_ 
 70
64
 72
65
 73
5
 40
3.0E+001
 49
1.2E+001
 74
0
 49
-1.5
 74
0
 49
3.0
 74
0
 49
-1.5
 74
0
 49
1.2E+001
 74
0
  0
LTYPE
  5
6e
100
AcDbSymbolTableRecord
100
AcDbLinetypeTableRecord
  2
PHANTOM
  3
_ 
 70
64
 72
65
 73
7
 40
2.95E+001
 49
9.5
 74
0
 49
-1.5
 74
0
 49
3.0
 74
0
 49
-1.5
 74
0
 49
3.0
 74
0
 49
-1.5
 74
0
 49
9.5
 74
0
  0
LTYPE
  5
6f
100
AcDbSymbolTableRecord
100
AcDbLinetypeTableRecord
  2
SHORT_DASH
  3
_ 
 70
64
 72
65
 73
3
 40
3.0
 49
7.5E-001
 74
0
 49
-1.5
 74
0
 49
7.5E-001
 74
0
  0
LTYPE
  5
70
100
AcDbSymbolTableRecord
100
AcDbLinetypeTableRecord
  2
LONG_DASH
  3
_ 
 70
64
 72
65
 73
3
 40
9.0
 49
2.25
 74
0
 49
-4.5
 74
0
 49
2.25
 74
0
  0
ENDTAB
  0
TABLE
  2
LAYER
  5
71
100
AcDbSymbolTable
 70
258
  0
LAYER
  5
72
100
AcDbSymbolTableRecord
100
AcDbLayerTableRecord
  2
0
 70
0
 62
-7
  6
CONTINUOUS
  0
LAYER
  5
73
100
AcDbSymbolTableRecord
100
AcDbLayerTableRecord
  2
1
 70
0
 62
7
  6
CONTINUOUS
  0
LAYER
  5
74
100
AcDbSymbolTableRecord
100
AcDbLayerTableRecord
  2
2
 70
0
 62
7
  6
CONTINUOUS
  0
LAYER
  5
75
100
AcDbSymbolTableRecord
100
AcDbLayerTableRecord
  2
3
 70
0
 62
7
  6
CONTINUOUS
  0
LAYER
  5
76
100
AcDbSymbolTableRecord
100
AcDbLayerTableRecord
  2
4
 70
0
 62
7
  6
CONTINUOUS
  0
LAYER
  5
77
100
AcDbSymbolTableRecord
100
AcDbLayerTableRecord
  2
5
 70
0
 62
7
  6
CONTINUOUS
  0
LAYER
  5
78
100
AcDbSymbolTableRecord
100
AcDbLayerTableRecord
  2
Drafting_Hidden_Entities
 70
1
 62
7
  6
CONTINUOUS
  0
ENDTAB
  0
TABLE
  2
STYLE
  5
79
100
AcDbSymbolTable
 70
1
  0
STYLE
  5
7a
100
AcDbSymbolTableRecord
100
AcDbTextStyleTableRecord
  2
STANDARD
 70
64
 40
0.0
 41
1.0
 50
0.0
 71
0
 42
1.0
  3
monotxt.shx
  4

  0
ENDTAB
  0
TABLE
  2
VIEW
  5
7b
100
AcDbSymbolTable
 70
0
  0
ENDTAB
  0
TABLE
  2
UCS
  5
7c
100
AcDbSymbolTable
 70
0
  0
ENDTAB
  0
TABLE
  2
APPID
  5
7d
100
AcDbSymbolTable
 70
1
  0
APPID
  5
7e
100
AcDbSymbolTableRecord
100
AcDbRegAppTableRecord
  2
ACAD
 70
1
  0
ENDTAB
  0
TABLE
  2
DIMSTYLE
  5
7f
100
AcDbSymbolTable
 70
4
  0
DIMSTYLE
105
80
100
AcDbSymbolTableRecord
100
AcDbDimStyleTableRecord
  2
DSTYLE1
 70
0
  3

  4

  5

  6

  7

 40
1.0
 41
3.0
 42
0.0
 43
3.8E-001
 44
3.0
 45
1.0E-002
 46
0.0
 47
2.0E-001
 48
1.0E-001
 71
1
 72
0
 73
0
 74
0
 75
0
 76
0
 77
1
 78
11
140
3.0
141
9.0E-002
142
0.0
143
3.9370079E-002
144
1.0
145
0.0
146
1.0
147
1.5
170
0
171
2
172
0
173
0
174
0
175
0
176
0
177
0
178
0
270
2
271
2
272
4
273
2
274
2
275
0
280
0
281
0
282
0
283
1
284
0
285
0
286
0
287
3
288
0
  0
DIMSTYLE
105
81
100
AcDbSymbolTableRecord
100
AcDbDimStyleTableRecord
  2
DSTYLE2
 70
0
  3

  4

  5

  6

  7

 40
1.0
 41
3.0
 42
0.0
 43
3.8E-001
 44
3.0
 45
1.0E-002
 46
0.0
 47
1.0E-001
 48
1.0E-001
 71
0
 72
0
 73
0
 74
0
 75
0
 76
0
 77
1
 78
11
140
3.0
141
9.0E-002
142
0.0
143
3.9370079E-002
144
1.0
145
0.0
146
1.0
147
1.5
170
0
171
2
172
0
173
0
174
0
175
0
176
0
177
0
178
0
270
2
271
2
272
4
273
2
274
2
275
0
280
0
281
0
282
0
283
1
284
0
285
0
286
0
287
3
288
0
  0
DIMSTYLE
105
82
100
AcDbSymbolTableRecord
100
AcDbDimStyleTableRecord
  2
DSTYLE3
 70
0
  3

  4

  5

  6

  7

 40
1.0
 41
3.0
 42
0.0
 43
3.8E-001
 44
3.0
 45
1.0E-002
 46
0.0
 47
1.0E-001
 48
1.0E-001
 71
1
 72
0
 73
0
 74
0
 75
0
 76
0
 77
1
 78
11
140
3.0
141
9.0E-002
142
0.0
143
3.9370079E-002
144
1.0
145
0.0
146
1.0
147
1.5
170
0
171
2
172
0
173
0
174
0
175
0
176
0
177
0
178
0
270
2
271
2
272
4
273
2
274
2
275
0
280
0
281
0
282
0
283
1
284
0
285
0
286
0
287
3
288
0
  0
DIMSTYLE
105
83
100
AcDbSymbolTableRecord
100
AcDbDimStyleTableRecord
  2
DSTYLE4
 70
0
  3

  4

  5

  6

  7

 40
1.0
 41
3.0
 42
1.5
 43
3.8E-001
 44
5.0
 45
0.0
 46
0.0
 47
1.0
 48
1.0
 71
0
 72
0
 73
1
 74
1
 75
1
 76
0
 77
1
 78
3
140
3.0
141
9.0E-002
142
0.0
143
3.9370079E-002
144
1.0
145
0.0
146
1.0
147
1.5
170
0
171
2
172
0
173
0
174
0
175
0
176
0
177
0
178
0
270
2
271
0
272
4
273
2
274
2
275
0
280
0
281
0
282
0
283
1
284
0
285
0
286
0
287
3
288
0
  0
ENDTAB
  0
TABLE
  2
BLOCK_RECORD
  5
84
100
AcDbSymbolTable
 70
0
  0
BLOCK_RECORD
  5
85
100
AcDbSymbolTableRecord
100
AcDbBlockTableRecord
  2
*MODEL_SPACE
  0
BLOCK_RECORD
  5
86
100
AcDbSymbolTableRecord
100
AcDbBlockTableRecord
  2
*PAPER_SPACE
  0
BLOCK_RECORD
  5
87
100
AcDbSymbolTableRecord
100
AcDbBlockTableRecord
  2
*D210
  0
BLOCK_RECORD
  5
88
100
AcDbSymbolTableRecord
100
AcDbBlockTableRecord
  2
*D217
  0
BLOCK_RECORD
  5
89
100
AcDbSymbolTableRecord
100
AcDbBlockTableRecord
  2
*D218
  0
BLOCK_RECORD
  5
8a
100
AcDbSymbolTableRecord
100
AcDbBlockTableRecord
  2
*D219
  0
BLOCK_RECORD
  5
8b
100
AcDbSymbolTableRecord
100
AcDbBlockTableRecord
  2
*D220
  0
BLOCK_RECORD
  5
8c
100
AcDbSymbolTableRecord
100
AcDbBlockTableRecord
  2
*D221
  0
BLOCK_RECORD
  5
8d
100
AcDbSymbolTableRecord
100
AcDbBlockTableRecord
  2
*D222
  0
BLOCK_RECORD
  5
8e
100
AcDbSymbolTableRecord
100
AcDbBlockTableRecord
  2
*D388
  0
BLOCK_RECORD
  5
8f
100
AcDbSymbolTableRecord
100
AcDbBlockTableRecord
  2
*D1365
  0
BLOCK_RECORD
  5
90
100
AcDbSymbolTableRecord
100
AcDbBlockTableRecord
  2
*D1366
  0
BLOCK_RECORD
  5
91
100
AcDbSymbolTableRecord
100
AcDbBlockTableRecord
  2
*D1368
  0
BLOCK_RECORD
  5
92
100
AcDbSymbolTableRecord
100
AcDbBlockTableRecord
  2
*D1369
  0
BLOCK_RECORD
  5
93
100
AcDbSymbolTableRecord
100
AcDbBlockTableRecord
  2
_AH1
  0
BLOCK_RECORD
  5
94
100
AcDbSymbolTableRecord
100
AcDbBlockTableRecord
  2
_AH2
  0
BLOCK_RECORD
  5
95
100
AcDbSymbolTableRecord
100
AcDbBlockTableRecord
  2
_AH12
  3
_AH
  0
BLOCK_RECORD
  5
96
100
AcDbSymbolTableRecord
100
AcDbBlockTableRecord
  2
_AH13
  3
_AH
  0
BLOCK_RECORD
  5
97
100
AcDbSymbolTableRecord
100
AcDbBlockTableRecord
  2
_AH14
  3
_AH
  0
BLOCK_RECORD
  5
98
100
AcDbSymbolTableRecord
100
AcDbBlockTableRecord
  2
_AH15
  3
_AH
  0
BLOCK_RECORD
  5
99
100
AcDbSymbolTableRecord
100
AcDbBlockTableRecord
  2
_AH16
  3
_AH
  0
BLOCK_RECORD
  5
9a
100
AcDbSymbolTableRecord
100
AcDbBlockTableRecord
  2
_AH17
  3
_AH
  0
BLOCK_RECORD
  5
9b
100
AcDbSymbolTableRecord
100
AcDbBlockTableRecord
  2
_AH18
  3
_AH
  0
BLOCK_RECORD
  5
9c
100
AcDbSymbolTableRecord
100
AcDbBlockTableRecord
  2
_AH19
  3
_AH
  0
BLOCK_RECORD
  5
9d
100
AcDbSymbolTableRecord
100
AcDbBlockTableRecord
  2
_AH20
  3
_AH
  0
BLOCK_RECORD
  5
9e
100
AcDbSymbolTableRecord
100
AcDbBlockTableRecord
  2
_AH21
  3
_AH
  0
BLOCK_RECORD
  5
9f
100
AcDbSymbolTableRecord
100
AcDbBlockTableRecord
  2
A3
  0
BLOCK_RECORD
  5
a0
100
AcDbSymbolTableRecord
100
AcDbBlockTableRecord
  2
ASSANEW00
  0
BLOCK_RECORD
  5
a1
100
AcDbSymbolTableRecord
100
AcDbBlockTableRecord
  2
EFFZF_SCHLIETAB
  0
BLOCK_RECORD
  5
a2
100
AcDbSymbolTableRecord
100
AcDbBlockTableRecord
  2
M11
  0
BLOCK_RECORD
  5
a3
100
AcDbSymbolTableRecord
100
AcDbBlockTableRecord
  2
ENGL
  0
BLOCK_RECORD
  5
a4
100
AcDbSymbolTableRecord
100
AcDbBlockTableRecord
  2
*TX146
  3
*TX
  0
BLOCK_RECORD
  5
a5
100
AcDbSymbolTableRecord
100
AcDbBlockTableRecord
  2
*TX147
  3
*TX
  0
BLOCK_RECORD
  5
a6
100
AcDbSymbolTableRecord
100
AcDbBlockTableRecord
  2
*TX148
  3
*TX
  0
BLOCK_RECORD
  5
a7
100
AcDbSymbolTableRecord
100
AcDbBlockTableRecord
  2
*TX149
  3
*TX
  0
BLOCK_RECORD
  5
a8
100
AcDbSymbolTableRecord
100
AcDbBlockTableRecord
  2
*TX150
  3
*TX
  0
BLOCK_RECORD
  5
a9
100
AcDbSymbolTableRecord
100
AcDbBlockTableRecord
  2
*TX151
  3
*TX
  0
BLOCK_RECORD
  5
aa
100
AcDbSymbolTableRecord
100
AcDbBlockTableRecord
  2
*TX152
  3
*TX
  0
BLOCK_RECORD
  5
ab
100
AcDbSymbolTableRecord
100
AcDbBlockTableRecord
  2
*TX153
  3
*TX
  0
BLOCK_RECORD
  5
ac
100
AcDbSymbolTableRecord
100
AcDbBlockTableRecord
  2
*TX154
  3
*TX
  0
ENDTAB
  0
ENDSEC
  0
SECTION
  2
BLOCKS
  0
BLOCK
  5
ad
100
AcDbEntity
100
AcDbBlockBegin
  2
*MODEL_SPACE
 70
0
 10
0.0
 20
0.0
 30
0.0
  3
*MODEL_SPACE
  1

  0
ENDBLK
  5
ae
100
AcDbEntity
100
AcDbBlockEnd
  0
BLOCK
  5
af
100
AcDbEntity
100
AcDbBlockBegin
  2
*PAPER_SPACE
 70
0
 10
0.0
 20
0.0
 30
0.0
  3
*PAPER_SPACE
  1

  0
ENDBLK
  5
b0
100
AcDbEntity
100
AcDbBlockEnd
  0
BLOCK
  5
b1
100
AcDbEntity
100
AcDbBlockBegin
  2
_AH12
  3
_AH
 10
0.0
 20
0.0
 70
64
  0
LINE
  5
b2
100
AcDbEntity
  8
0
100
AcDbLine
  6
CONTINUOUS
 62
0
 10
0.0
 20
0.0
 11
1.0
 21
0.0
  0
LINE
  5
b3
100
AcDbEntity
  8
0
100
AcDbLine
  6
CONTINUOUS
 62
0
 10
0.0
 20
0.0
 11
-1.0
 21
0.0
  0
ENDBLK
  5
b4
100
AcDbEntity
100
AcDbBlockEnd
  0
BLOCK
  5
b5
100
AcDbEntity
100
AcDbBlockBegin
  2
_AH13
  3
_AH
 10
0.0
 20
0.0
 70
64
  0
SOLID
  5
b6
100
AcDbEntity
  8
0
100
AcDbTrace
  6
CONTINUOUS
 62
0
 10
0.0
 20
0.0
 11
1.0
 21
-1.66667E-001
 12
1.0
 22
1.66667E-001
 13
0.0
 23
0.0
  0
ENDBLK
  5
b7
100
AcDbEntity
100
AcDbBlockEnd
  0
BLOCK
  5
b8
100
AcDbEntity
100
AcDbBlockBegin
  2
_AH14
  3
_AH
 10
0.0
 20
0.0
 70
64
  0
ENDBLK
  5
b9
100
AcDbEntity
100
AcDbBlockEnd
  0
BLOCK
  5
ba
100
AcDbEntity
100
AcDbBlockBegin
  2
_AH15
  3
_AH
 10
0.0
 20
0.0
 70
64
  0
CIRCLE
  5
bb
100
AcDbEntity
  8
0
100
AcDbCircle
  6
CONTINUOUS
 62
0
 10
0.0
 20
0.0
 40
1.66667E-001
  0
LINE
  5
bc
100
AcDbEntity
  8
0
100
AcDbLine
  6
CONTINUOUS
 62
0
 10
0.0
 20
0.0
 11
-1.0
 21
0.0
  0
ENDBLK
  5
bd
100
AcDbEntity
100
AcDbBlockEnd
  0
BLOCK
  5
be
100
AcDbEntity
100
AcDbBlockBegin
  2
_AH16
  3
_AH
 10
0.0
 20
0.0
 70
64
  0
POLYLINE
  5
bf
100
AcDbEntity
  8
0
100
AcDb2dPolyline
  6
CONTINUOUS
 62
0
 66
1
 40
1.66667E-001
 41
1.66667E-001
 70
0
  0
VERTEX
  5
c0
100
AcDbEntity
  8
0
100
AcDbVertex
100
AcDb2dVertex
 42
1.0
 10
8.3335E-002
 20
0.0
 70
0
  0
VERTEX
  5
c1
100
AcDbEntity
  8
0
100
AcDbVertex
100
AcDb2dVertex
 42
1.0
 10
-8.3335E-002
 20
0.0
 70
0
  0
VERTEX
  5
c2
100
AcDbEntity
  8
0
100
AcDbVertex
100
AcDb2dVertex
 42
0.0
 10
8.3335E-002
 20
0.0
 70
0
  0
SEQEND
  5
c3
100
AcDbEntity
  0
LINE
  5
c4
100
AcDbEntity
  8
0
100
AcDbLine
  6
CONTINUOUS
 62
0
 10
0.0
 20
0.0
 11
-1.0
 21
0.0
  0
ENDBLK
  5
c5
100
AcDbEntity
100
AcDbBlockEnd
  0
BLOCK
  5
c6
100
AcDbEntity
100
AcDbBlockBegin
  2
_AH17
  3
_AH
 10
0.0
 20
0.0
 70
64
  0
LINE
  5
c7
100
AcDbEntity
  8
0
100
AcDbLine
  6
CONTINUOUS
 62
0
 10
-1.66667E-001
 20
-1.66667E-001
 11
1.66667E-001
 21
-1.66667E-001
  0
LINE
  5
c8
100
AcDbEntity
  8
0
100
AcDbLine
  6
CONTINUOUS
 62
0
 10
1.66667E-001
 20
-1.66667E-001
 11
1.66667E-001
 21
1.66667E-001
  0
LINE
  5
c9
100
AcDbEntity
  8
0
100
AcDbLine
  6
CONTINUOUS
 62
0
 10
1.66667E-001
 20
1.66667E-001
 11
-1.66667E-001
 21
1.66667E-001
  0
LINE
  5
ca
100
AcDbEntity
  8
0
100
AcDbLine
  6
CONTINUOUS
 62
0
 10
-1.66667E-001
 20
1.66667E-001
 11
-1.66667E-001
 21
-1.66667E-001
  0
LINE
  5
cb
100
AcDbEntity
  8
0
100
AcDbLine
  6
CONTINUOUS
 62
0
 10
0.0
 20
0.0
 11
-1.0
 21
0.0
  0
ENDBLK
  5
cc
100
AcDbEntity
100
AcDbBlockEnd
  0
BLOCK
  5
cd
100
AcDbEntity
100
AcDbBlockBegin
  2
_AH18
  3
_AH
 10
0.0
 20
0.0
 70
64
  0
SOLID
  5
ce
100
AcDbEntity
  8
0
100
AcDbTrace
  6
CONTINUOUS
 62
0
 10
-1.66667E-001
 20
-1.66667E-001
 11
1.66667E-001
 21
-1.66667E-001
 12
-1.66667E-001
 22
1.66667E-001
 13
1.66667E-001
 23
1.66667E-001
  0
LINE
  5
cf
100
AcDbEntity
  8
0
100
AcDbLine
  6
CONTINUOUS
 62
0
 10
0.0
 20
0.0
 11
-1.0
 21
0.0
  0
ENDBLK
  5
d0
100
AcDbEntity
100
AcDbBlockEnd
  0
BLOCK
  5
d1
100
AcDbEntity
100
AcDbBlockBegin
  2
_AH19
  3
_AH
 10
0.0
 20
0.0
 70
64
  0
LINE
  5
d2
100
AcDbEntity
  8
0
100
AcDbLine
  6
CONTINUOUS
 62
0
 10
-5.0E-001
 20
-5.0E-001
 11
5.0E-001
 21
5.0E-001
  0
LINE
  5
d3
100
AcDbEntity
  8
0
100
AcDbLine
  6
CONTINUOUS
 62
0
 10
0.0
 20
0.0
 11
-1.0
 21
0.0
  0
ENDBLK
  5
d4
100
AcDbEntity
100
AcDbBlockEnd
  0
BLOCK
  5
d5
100
AcDbEntity
100
AcDbBlockBegin
  2
_AH20
  3
_AH
 10
0.0
 20
0.0
 70
64
  0
POLYLINE
  5
d6
100
AcDbEntity
  8
0
100
AcDb2dPolyline
  6
CONTINUOUS
 62
0
 66
1
 40
5.0E-001
 41
5.0E-001
 70
0
  0
VERTEX
  5
d7
100
AcDbEntity
  8
0
100
AcDbVertex
100
AcDb2dVertex
 42
4.1421356E-001
 10
-1.66667E-001
 20
-1.66667E-001
 70
0
  0
VERTEX
  5
d8
100
AcDbEntity
  8
0
100
AcDbVertex
100
AcDb2dVertex
 42
0.0
 10
0.0
 20
0.0
 70
0
  0
SEQEND
  5
d9
100
AcDbEntity
  0
POLYLINE
  5
da
100
AcDbEntity
  8
0
100
AcDb2dPolyline
  6
CONTINUOUS
 62
0
 66
1
 40
5.0E-001
 41
5.0E-001
 70
0
  0
VERTEX
  5
db
100
AcDbEntity
  8
0
100
AcDbVertex
100
AcDb2dVertex
 42
4.1421356E-001
 10
1.66667E-001
 20
1.66667E-001
 70
0
  0
VERTEX
  5
dc
100
AcDbEntity
  8
0
100
AcDbVertex
100
AcDb2dVertex
 42
0.0
 10
0.0
 20
0.0
 70
0
  0
SEQEND
  5
dd
100
AcDbEntity
  0
LINE
  5
de
100
AcDbEntity
  8
0
100
AcDbLine
  6
CONTINUOUS
 62
0
 10
0.0
 20
0.0
 11
-1.0
 21
0.0
  0
ENDBLK
  5
df
100
AcDbEntity
100
AcDbBlockEnd
  0
BLOCK
  5
e0
100
AcDbEntity
100
AcDbBlockBegin
  2
_AH21
  3
_AH
 10
0.0
 20
0.0
 70
64
  0
LINE
  5
e1
100
AcDbEntity
  8
0
100
AcDbLine
  6
CONTINUOUS
 62
0
 10
0.0
 20
0.0
 11
-1.0
 21
-1.66667E-001
  0
LINE
  5
e2
100
AcDbEntity
  8
0
100
AcDbLine
  6
CONTINUOUS
 62
0
 10
-1.0
 20
-1.66667E-001
 11
-1.0
 21
1.66667E-001
  0
LINE
  5
e3
100
AcDbEntity
  8
0
100
AcDbLine
  6
CONTINUOUS
 62
0
 10
-1.0
 20
1.66667E-001
 11
0.0
 21
0.0
  0
ENDBLK
  5
e4
100
AcDbEntity
100
AcDbBlockEnd
  0
BLOCK
  5
e5
100
AcDbEntity
100
AcDbBlockBegin
  2
A3
 10
0.0
 20
0.0
 70
0
  0
ATTDEF
  5
e6
100
AcDbEntity
  8
1
100
AcDbText
  6
CONTINUOUS
 62
6
 10
3.7285302E+002
 20
3.5139971E+001
 40
4.0
  1
 
 41
7.0E-001
 72
1
 11
3.7145302E+002
 21
3.5139971E+001
100
AcDbAttributeDefinition
  3
1
  2
1
 70
0
  0
ATTDEF
  5
e7
100
AcDbEntity
  8
1
100
AcDbText
  6
CONTINUOUS
 62
6
 10
3.7285302E+002
 20
2.4028525E+001
 40
4.0
  1
 
 41
7.0E-001
 72
1
 11
3.7145302E+002
 21
2.4028525E+001
100
AcDbAttributeDefinition
  3
2
  2
2
 70
0
  0
ATTDEF
  5
e8
100
AcDbEntity
  8
1
100
AcDbText
  6
CONTINUOUS
 62
6
 10
3.6650302E+002
 20
1.0708917E+001
 40
4.0
  1
 
 41
7.0E-001
 72
1
 11
3.6510302E+002
 21
1.0708917E+001
100
AcDbAttributeDefinition
  3
3
  2
3
 70
0
  0
ATTDEF
  5
e9
100
AcDbEntity
  8
1
100
AcDbText
  6
CONTINUOUS
 62
6
 10
3.8250302E+002
 20
4.98925E+001
 40
3.0
  1
 
 41
7.0E-001
 72
1
 11
3.8145302E+002
 21
4.98925E+001
100
AcDbAttributeDefinition
  3
4
  2
4
 70
0
  0
ATTDEF
  5
ea
100
AcDbEntity
  8
1
100
AcDbText
  6
CONTINUOUS
 62
6
 10
3.8250302E+002
 20
4.4605E+001
 40
3.0
  1
 
 41
7.0E-001
 72
1
 11
3.8145302E+002
 21
4.4605E+001
100
AcDbAttributeDefinition
  3
5
  2
5
 70
0
  0
ATTDEF
  5
eb
100
AcDbEntity
  8
1
100
AcDbText
  6
CONTINUOUS
 62
6
 10
3.9790302E+002
 20
5.53925E+001
 40
3.0
  1
 
 41
7.0E-001
 72
1
 11
3.9685302E+002
 21
5.53925E+001
100
AcDbAttributeDefinition
  3
6
  2
6
 70
0
  0
ATTDEF
  5
ec
100
AcDbEntity
  8
1
100
AcDbText
  6
CONTINUOUS
 62
6
 10
2.9282753E+002
 20
6.17056
 40
2.5
  1
 
 41
7.0E-001
100
AcDbAttributeDefinition
  3
7
  2
7
 70
0
  0
ATTDEF
  5
ed
100
AcDbEntity
  8
1
100
AcDbText
  6
CONTINUOUS
 62
6
 10
3.3600753E+002
 20
6.17056
 40
2.5
  1
 
 41
7.0E-001
100
AcDbAttributeDefinition
  3
8
  2
8
 70
0
  0
ATTDEF
  5
ee
100
AcDbEntity
  8
1
100
AcDbText
  6
CONTINUOUS
 62
6
 10
2.8651236E+002
 20
4.0139149E+001
 40
2.0
  1
 
 41
7.0E-001
100
AcDbAttributeDefinition
  3
9
  2
9
 70
0
  0
ATTDEF
  5
ef
100
AcDbEntity
  8
1
100
AcDbText
  6
CONTINUOUS
 62
6
 10
2.9625302E+002
 20
3.56575E+001
 40
2.2
  1
 
 41
7.0E-001
100
AcDbAttributeDefinition
  3
10
  2
10
 70
0
  0
ATTDEF
  5
f0
100
AcDbEntity
  8
1
100
AcDbText
  6
CONTINUOUS
 62
6
 10
3.1149302E+002
 20
3.56575E+001
 40
2.2
  1
 
 41
7.0E-001
100
AcDbAttributeDefinition
  3
11
  2
11
 70
0
  0
ATTDEF
  5
f1
100
AcDbEntity
  8
1
100
AcDbText
  6
CONTINUOUS
 62
6
 10
2.9625302E+002
 20
3.14275E+001
 40
2.2
  1
 
 41
7.0E-001
100
AcDbAttributeDefinition
  3
12
  2
12
 70
0
  0
ATTDEF
  5
f2
100
AcDbEntity
  8
1
100
AcDbText
  6
CONTINUOUS
 62
6
 10
3.1149302E+002
 20
3.14275E+001
 40
2.2
  1
 
 41
7.0E-001
100
AcDbAttributeDefinition
  3
13
  2
13
 70
0
  0
ATTDEF
  5
f3
100
AcDbEntity
  8
1
100
AcDbText
  6
CONTINUOUS
 62
6
 10
2.9625302E+002
 20
2.71975E+001
 40
2.2
  1
 
 41
7.0E-001
100
AcDbAttributeDefinition
  3
14
  2
14
 70
0
  0
ATTDEF
  5
f4
100
AcDbEntity
  8
1
100
AcDbText
  6
CONTINUOUS
 62
6
 10
3.1149302E+002
 20
2.71975E+001
 40
2.2
  1
 
 41
7.0E-001
100
AcDbAttributeDefinition
  3
15
  2
15
 70
0
  0
ATTDEF
  5
f5
100
AcDbEntity
  8
1
100
AcDbText
  6
CONTINUOUS
 62
6
 10
2.9625302E+002
 20
2.29675E+001
 40
2.2
  1
 
 41
7.0E-001
100
AcDbAttributeDefinition
  3
16
  2
16
 70
0
  0
ATTDEF
  5
f6
100
AcDbEntity
  8
1
100
AcDbText
  6
CONTINUOUS
 62
6
 10
3.7441543E+002
 20
2.9750496E+001
 40
4.0
  1
17
 41
7.0E-001
 72
1
 11
3.7161543E+002
 21
2.9750496E+001
100
AcDbAttributeDefinition
  3
17
  2
17
 70
0
  0
ATTDEF
  5
f7
100
AcDbEntity
  8
1
100
AcDbText
  6
CONTINUOUS
 62
6
 10
4.0750623E+002
 20
3.8785527E+001
 40
1.0
  1
 
100
AcDbAttributeDefinition
  3
18
  2
18
 70
0
  0
ATTDEF
  5
f8
100
AcDbEntity
  8
1
100
AcDbText
  6
CONTINUOUS
 62
6
 10
4.0750623E+002
 20
3.7285527E+001
 40
1.0
  1
 
100
AcDbAttributeDefinition
  3
19
  2
19
 70
0
  0
ATTDEF
  5
f9
100
AcDbEntity
  8
1
100
AcDbText
  6
CONTINUOUS
 62
6
 10
4.0750623E+002
 20
3.5785527E+001
 40
1.0
  1
 
100
AcDbAttributeDefinition
  3
20
  2
20
 70
0
  0
ATTDEF
  5
fa
100
AcDbEntity
  8
1
100
AcDbText
  6
CONTINUOUS
 62
6
 10
2.3275302E+002
 20
3.98875E+001
 40
2.0
  1
 
 41
7.0E-001
100
AcDbAttributeDefinition
  3
21
  2
21
 70
0
  0
ATTDEF
  5
fb
100
AcDbEntity
  8
1
100
AcDbText
  6
CONTINUOUS
 62
6
 10
2.4037302E+002
 20
3.98875E+001
 40
2.0
  1
 
 41
7.0E-001
100
AcDbAttributeDefinition
  3
22
  2
22
 70
0
  0
ATTDEF
  5
fc
100
AcDbEntity
  8
1
100
AcDbText
  6
CONTINUOUS
 62
6
 10
2.6577302E+002
 20
3.98875E+001
 40
2.0
  1
 
 41
7.0E-001
100
AcDbAttributeDefinition
  3
23
  2
23
 70
0
  0
ATTDEF
  5
fd
100
AcDbEntity
  8
1
100
AcDbText
  6
CONTINUOUS
 62
6
 10
2.7797302E+002
 20
3.98875E+001
 40
2.0
  1
 
 41
7.0E-001
100
AcDbAttributeDefinition
  3
24
  2
24
 70
0
  0
ATTDEF
  5
fe
100
AcDbEntity
  8
1
100
AcDbText
  6
CONTINUOUS
 62
6
 10
2.3275302E+002
 20
3.56575E+001
 40
2.0
  1
 
 41
7.0E-001
100
AcDbAttributeDefinition
  3
25
  2
25
 70
0
  0
ATTDEF
  5
ff
100
AcDbEntity
  8
1
100
AcDbText
  6
CONTINUOUS
 62
6
 10
2.4037302E+002
 20
3.56575E+001
 40
2.0
  1
 
 41
7.0E-001
100
AcDbAttributeDefinition
  3
26
  2
26
 70
0
  0
ATTDEF
  5
100
100
AcDbEntity
  8
1
100
AcDbText
  6
CONTINUOUS
 62
6
 10
2.6577302E+002
 20
3.56575E+001
 40
2.0
  1
 
 41
7.0E-001
100
AcDbAttributeDefinition
  3
27
  2
27
 70
0
  0
ATTDEF
  5
101
100
AcDbEntity
  8
1
100
AcDbText
  6
CONTINUOUS
 62
6
 10
2.7797302E+002
 20
3.56575E+001
 40
2.0
  1
 
 41
7.0E-001
100
AcDbAttributeDefinition
  3
28
  2
28
 70
0
  0
ATTDEF
  5
102
100
AcDbEntity
  8
1
100
AcDbText
  6
CONTINUOUS
 62
6
 10
2.3275302E+002
 20
3.14275E+001
 40
2.0
  1
 
 41
7.0E-001
100
AcDbAttributeDefinition
  3
29
  2
29
 70
0
  0
ATTDEF
  5
103
100
AcDbEntity
  8
1
100
AcDbText
  6
CONTINUOUS
 62
6
 10
2.4037302E+002
 20
3.14275E+001
 40
2.0
  1
 
 41
7.0E-001
100
AcDbAttributeDefinition
  3
30
  2
30
 70
0
  0
ATTDEF
  5
104
100
AcDbEntity
  8
1
100
AcDbText
  6
CONTINUOUS
 62
6
 10
2.6577302E+002
 20
3.14275E+001
 40
2.0
  1
 
 41
7.0E-001
100
AcDbAttributeDefinition
  3
31
  2
31
 70
0
  0
ATTDEF
  5
105
100
AcDbEntity
  8
1
100
AcDbText
  6
CONTINUOUS
 62
6
 10
2.7797302E+002
 20
3.14275E+001
 40
2.0
  1
 
 41
7.0E-001
100
AcDbAttributeDefinition
  3
32
  2
32
 70
0
  0
ATTDEF
  5
106
100
AcDbEntity
  8
1
100
AcDbText
  6
CONTINUOUS
 62
6
 10
2.3275302E+002
 20
2.71975E+001
 40
2.0
  1
 
 41
7.0E-001
100
AcDbAttributeDefinition
  3
33
  2
33
 70
0
  0
ATTDEF
  5
107
100
AcDbEntity
  8
1
100
AcDbText
  6
CONTINUOUS
 62
6
 10
2.4037302E+002
 20
2.71975E+001
 40
2.0
  1
 
 41
7.0E-001
100
AcDbAttributeDefinition
  3
34
  2
34
 70
0
  0
ATTDEF
  5
108
100
AcDbEntity
  8
1
100
AcDbText
  6
CONTINUOUS
 62
6
 10
2.6577302E+002
 20
2.71975E+001
 40
2.0
  1
 
 41
7.0E-001
100
AcDbAttributeDefinition
  3
35
  2
35
 70
0
  0
ATTDEF
  5
109
100
AcDbEntity
  8
1
100
AcDbText
  6
CONTINUOUS
 62
6
 10
2.7797302E+002
 20
2.71975E+001
 40
2.0
  1
 
 41
7.0E-001
100
AcDbAttributeDefinition
  3
36
  2
36
 70
0
  0
ATTDEF
  5
10a
100
AcDbEntity
  8
1
100
AcDbText
  6
CONTINUOUS
 62
6
 10
2.3275302E+002
 20
2.29675E+001
 40
2.0
  1
 
 41
7.0E-001
100
AcDbAttributeDefinition
  3
37
  2
37
 70
0
  0
ATTDEF
  5
10b
100
AcDbEntity
  8
1
100
AcDbText
  6
CONTINUOUS
 62
6
 10
2.4037302E+002
 20
2.29675E+001
 40
2.0
  1
 
 41
7.0E-001
100
AcDbAttributeDefinition
  3
38
  2
38
 70
0
  0
ATTDEF
  5
10c
100
AcDbEntity
  8
1
100
AcDbText
  6
CONTINUOUS
 62
6
 10
2.6577302E+002
 20
2.29675E+001
 40
2.0
  1
 
 41
7.0E-001
100
AcDbAttributeDefinition
  3
39
  2
39
 70
0
  0
ATTDEF
  5
10d
100
AcDbEntity
  8
1
100
AcDbText
  6
CONTINUOUS
 62
6
 10
2.7797302E+002
 20
2.29675E+001
 40
2.0
  1
 
 41
7.0E-001
100
AcDbAttributeDefinition
  3
40
  2
40
 70
0
  0
ATTDEF
  5
10e
100
AcDbEntity
  8
1
100
AcDbText
  6
CONTINUOUS
 62
6
 10
2.3275302E+002
 20
1.87375E+001
 40
2.0
  1
 
 41
7.0E-001
100
AcDbAttributeDefinition
  3
41
  2
41
 70
0
  0
ATTDEF
  5
10f
100
AcDbEntity
  8
1
100
AcDbText
  6
CONTINUOUS
 62
6
 10
2.4037302E+002
 20
1.87375E+001
 40
2.0
  1
 
 41
7.0E-001
100
AcDbAttributeDefinition
  3
42
  2
42
 70
0
  0
ATTDEF
  5
110
100
AcDbEntity
  8
1
100
AcDbText
  6
CONTINUOUS
 62
6
 10
2.6577302E+002
 20
1.87375E+001
 40
2.0
  1
 
 41
7.0E-001
100
AcDbAttributeDefinition
  3
43
  2
43
 70
0
  0
ATTDEF
  5
111
100
AcDbEntity
  8
1
100
AcDbText
  6
CONTINUOUS
 62
6
 10
2.7797302E+002
 20
1.87375E+001
 40
2.0
  1
 
 41
7.0E-001
100
AcDbAttributeDefinition
  3
44
  2
44
 70
0
  0
ATTDEF
  5
112
100
AcDbEntity
  8
1
100
AcDbText
  6
CONTINUOUS
 62
6
 10
2.3275302E+002
 20
1.45075E+001
 40
2.0
  1
 
 41
7.0E-001
100
AcDbAttributeDefinition
  3
45
  2
45
 70
0
  0
ATTDEF
  5
113
100
AcDbEntity
  8
1
100
AcDbText
  6
CONTINUOUS
 62
6
 10
2.4037302E+002
 20
1.45075E+001
 40
2.0
  1
 
 41
7.0E-001
100
AcDbAttributeDefinition
  3
46
  2
46
 70
0
  0
ATTDEF
  5
114
100
AcDbEntity
  8
1
100
AcDbText
  6
CONTINUOUS
 62
6
 10
2.6577302E+002
 20
1.45075E+001
 40
2.0
  1
 
 41
7.0E-001
100
AcDbAttributeDefinition
  3
47
  2
47
 70
0
  0
ATTDEF
  5
115
100
AcDbEntity
  8
1
100
AcDbText
  6
CONTINUOUS
 62
6
 10
2.7797302E+002
 20
1.45075E+001
 40
2.0
  1
 
 41
7.0E-001
100
AcDbAttributeDefinition
  3
48
  2
48
 70
0
  0
ATTDEF
  5
116
100
AcDbEntity
  8
1
100
AcDbText
  6
CONTINUOUS
 62
6
 10
2.3275302E+002
 20
1.02775E+001
 40
2.0
  1
 
 41
7.0E-001
100
AcDbAttributeDefinition
  3
49
  2
49
 70
0
  0
ATTDEF
  5
117
100
AcDbEntity
  8
1
100
AcDbText
  6
CONTINUOUS
 62
6
 10
2.4037302E+002
 20
1.02775E+001
 40
2.0
  1
 
 41
7.0E-001
100
AcDbAttributeDefinition
  3
50
  2
50
 70
0
  0
ATTDEF
  5
118
100
AcDbEntity
  8
1
100
AcDbText
  6
CONTINUOUS
 62
6
 10
2.6577302E+002
 20
1.02775E+001
 40
2.0
  1
 
 41
7.0E-001
100
AcDbAttributeDefinition
  3
51
  2
51
 70
0
  0
ATTDEF
  5
119
100
AcDbEntity
  8
1
100
AcDbText
  6
CONTINUOUS
 62
6
 10
2.7797302E+002
 20
1.02775E+001
 40
2.0
  1
 
 41
7.0E-001
100
AcDbAttributeDefinition
  3
52
  2
52
 70
0
  0
POLYLINE
  5
11a
100
AcDbEntity
  8
1
100
AcDb2dPolyline
  6
CONTINUOUS
 62
2
 66
1
 40
5.0E-001
 41
5.0E-001
 70
0
  0
VERTEX
  5
11b
100
AcDbEntity
  8
1
100
AcDbVertex
100
AcDb2dVertex
 42
0.0
 10
4.146327E+002
 20
5.2475
 70
0
  0
VERTEX
  5
11c
100
AcDbEntity
  8
1
100
AcDbVertex
100
AcDb2dVertex
 42
0.0
 10
4.146327E+002
 20
2.9181714E+002
 70
0
  0
SEQEND
  5
11d
100
AcDbEntity
  0
POLYLINE
  5
11e
100
AcDbEntity
  8
1
100
AcDb2dPolyline
  6
CONTINUOUS
 62
2
 66
1
 40
5.0E-001
 41
5.0E-001
 70
0
  0
VERTEX
  5
11f
100
AcDbEntity
  8
1
100
AcDbVertex
100
AcDb2dVertex
 42
0.0
 10
4.146327E+002
 20
2.9181714E+002
 70
0
  0
VERTEX
  5
120
100
AcDbEntity
  8
1
100
AcDbVertex
100
AcDb2dVertex
 42
0.0
 10
5.2475
 20
2.9181714E+002
 70
0
  0
SEQEND
  5
121
100
AcDbEntity
  0
POLYLINE
  5
122
100
AcDbEntity
  8
1
100
AcDb2dPolyline
  6
CONTINUOUS
 62
2
 66
1
 40
5.0E-001
 41
5.0E-001
 70
0
  0
VERTEX
  5
123
100
AcDbEntity
  8
1
100
AcDbVertex
100
AcDb2dVertex
 42
0.0
 10
5.2475
 20
2.9181714E+002
 70
0
  0
VERTEX
  5
124
100
AcDbEntity
  8
1
100
AcDbVertex
100
AcDb2dVertex
 42
0.0
 10
5.2475
 20
5.2475
 70
0
  0
SEQEND
  5
125
100
AcDbEntity
  0
POLYLINE
  5
126
100
AcDbEntity
  8
1
100
AcDb2dPolyline
  6
CONTINUOUS
 62
2
 66
1
 40
5.0E-001
 41
5.0E-001
 70
0
  0
VERTEX
  5
127
100
AcDbEntity
  8
1
100
AcDbVertex
100
AcDb2dVertex
 42
0.0
 10
5.2475
 20
5.2475
 70
0
  0
VERTEX
  5
128
100
AcDbEntity
  8
1
100
AcDbVertex
100
AcDb2dVertex
 42
0.0
 10
4.146327E+002
 20
5.2475
 70
0
  0
SEQEND
  5
129
100
AcDbEntity
  0
LINE
  5
12a
100
AcDbEntity
  8
1
100
AcDbLine
  6
CONTINUOUS
 62
2
 10
2.2991011E+002
 20
3.5484755E-001
 11
2.2991011E+002
 21
5.2475
  0
LINE
  5
12b
100
AcDbEntity
  8
1
100
AcDbLine
  6
CONTINUOUS
 62
2
 10
1.2506756E+002
 20
3.5484755E-001
 11
1.2506756E+002
 21
5.2475
  0
LINE
  5
12c
100
AcDbEntity
  8
1
100
AcDbLine
  6
CONTINUOUS
 62
2
 10
2.099401E+002
 20
2.967098E+002
 11
2.099401E+002
 21
2.9181714E+002
  0
LINE
  5
12d
100
AcDbEntity
  8
1
100
AcDbLine
  6
CONTINUOUS
 62
2
 10
3.5484755E-001
 20
1.4853232E+002
 11
5.2475
 21
1.4853232E+002
  0
LINE
  5
12e
100
AcDbEntity
  8
1
100
AcDbLine
  6
CONTINUOUS
 62
2
 10
2.2991011E+002
 20
2.9181714E+002
 11
2.2991011E+002
 21
2.967098E+002
  0
LINE
  5
12f
100
AcDbEntity
  8
1
100
AcDbLine
  6
CONTINUOUS
 62
2
 10
1.2506756E+002
 20
2.9181714E+002
 11
1.2506756E+002
 21
2.967098E+002
  0
LINE
  5
130
100
AcDbEntity
  8
1
100
AcDbLine
  6
CONTINUOUS
 62
2
 10
2.099401E+002
 20
5.2475
 11
2.099401E+002
 21
3.5484755E-001
  0
LINE
  5
131
100
AcDbEntity
  8
1
100
AcDbLine
  6
CONTINUOUS
 62
2
 10
4.146327E+002
 20
1.4853232E+002
 11
4.1952536E+002
 21
1.4853232E+002
  0
LINE
  5
132
100
AcDbEntity
  8
1
100
AcDbLine
  6
CONTINUOUS
 62
2
 10
4.1952536E+002
 20
3.5484755E-001
 11
4.1952536E+002
 21
2.967098E+002
  0
LINE
  5
133
100
AcDbEntity
  8
1
100
AcDbLine
  6
CONTINUOUS
 62
2
 10
4.1952536E+002
 20
2.967098E+002
 11
3.5484755E-001
 21
2.967098E+002
  0
LINE
  5
134
100
AcDbEntity
  8
1
100
AcDbLine
  6
CONTINUOUS
 62
2
 10
3.5484755E-001
 20
2.967098E+002
 11
3.5484755E-001
 21
3.5484755E-001
  0
LINE
  5
135
100
AcDbEntity
  8
1
100
AcDbLine
  6
CONTINUOUS
 62
2
 10
3.5484755E-001
 20
3.5484755E-001
 11
4.1952536E+002
 21
3.5484755E-001
  0
POINT
  5
136
100
AcDbEntity
  8
1
100
AcDbPoint
  6
CONTINUOUS
 62
2
 10
2.549975E-001
 20
2.549975E-001
  0
POLYLINE
  5
137
100
AcDbEntity
  8
1
100
AcDb2dPolyline
  6
CONTINUOUS
 62
2
 66
1
 40
5.0E-001
 41
5.0E-001
 70
0
  0
VERTEX
  5
138
100
AcDbEntity
  8
1
100
AcDbVertex
100
AcDb2dVertex
 42
0.0
 10
2.3193577E+002
 20
6.018235E+001
 70
0
  0
VERTEX
  5
139
100
AcDbEntity
  8
1
100
AcDbVertex
100
AcDb2dVertex
 42
0.0
 10
4.1463239E+002
 20
6.018235E+001
 70
0
  0
SEQEND
  5
13a
100
AcDbEntity
  0
POLYLINE
  5
13b
100
AcDbEntity
  8
1
100
AcDb2dPolyline
  6
CONTINUOUS
 62
2
 66
1
 40
5.0E-001
 41
5.0E-001
 70
0
  0
VERTEX
  5
13c
100
AcDbEntity
  8
1
100
AcDbVertex
100
AcDb2dVertex
 42
0.0
 10
2.3193577E+002
 20
6.018235E+001
 70
0
  0
VERTEX
  5
13d
100
AcDbEntity
  8
1
100
AcDbVertex
100
AcDb2dVertex
 42
0.0
 10
2.3193577E+002
 20
5.2477916
 70
0
  0
SEQEND
  5
13e
100
AcDbEntity
  0
POLYLINE
  5
13f
100
AcDbEntity
  8
1
100
AcDb2dPolyline
  6
CONTINUOUS
 62
2
 66
1
 40
5.0E-001
 41
5.0E-001
 70
0
  0
VERTEX
  5
140
100
AcDbEntity
  8
1
100
AcDbVertex
100
AcDb2dVertex
 42
0.0
 10
4.146327E+002
 20
4.327943E+001
 70
0
  0
VERTEX
  5
141
100
AcDbEntity
  8
1
100
AcDbVertex
100
AcDb2dVertex
 42
0.0
 10
2.3193559E+002
 20
4.327943E+001
 70
0
  0
SEQEND
  5
142
100
AcDbEntity
  0
POLYLINE
  5
143
100
AcDbEntity
  8
1
100
AcDb2dPolyline
  6
CONTINUOUS
 62
2
 66
1
 40
5.0E-001
 41
5.0E-001
 70
0
  0
VERTEX
  5
144
100
AcDbEntity
  8
1
100
AcDbVertex
100
AcDb2dVertex
 42
0.0
 10
2.8522224E+002
 20
2.215058E+001
 70
0
  0
VERTEX
  5
145
100
AcDbEntity
  8
1
100
AcDbVertex
100
AcDb2dVertex
 42
0.0
 10
4.146327E+002
 20
2.215058E+001
 70
0
  0
SEQEND
  5
146
100
AcDbEntity
  0
POLYLINE
  5
147
100
AcDbEntity
  8
1
100
AcDb2dPolyline
  6
CONTINUOUS
 62
2
 66
1
 40
5.0E-001
 41
5.0E-001
 70
0
  0
VERTEX
  5
148
100
AcDbEntity
  8
1
100
AcDbVertex
100
AcDb2dVertex
 42
0.0
 10
4.019454E+002
 20
2.215058E+001
 70
0
  0
VERTEX
  5
149
100
AcDbEntity
  8
1
100
AcDbVertex
100
AcDb2dVertex
 42
0.0
 10
4.019454E+002
 20
9.47327
 70
0
  0
SEQEND
  5
14a
100
AcDbEntity
  0
POLYLINE
  5
14b
100
AcDbEntity
  8
1
100
AcDb2dPolyline
  6
CONTINUOUS
 62
2
 66
1
 40
5.0E-001
 41
5.0E-001
 70
0
  0
VERTEX
  5
14c
100
AcDbEntity
  8
1
100
AcDbVertex
100
AcDb2dVertex
 42
0.0
 10
3.2835906E+002
 20
5.2475
 70
0
  0
VERTEX
  5
14d
100
AcDbEntity
  8
1
100
AcDbVertex
100
AcDb2dVertex
 42
0.0
 10
3.2835906E+002
 20
6.018251E+001
 70
0
  0
SEQEND
  5
14e
100
AcDbEntity
  0
POLYLINE
  5
14f
100
AcDbEntity
  8
1
100
AcDb2dPolyline
  6
CONTINUOUS
 62
2
 66
1
 40
5.0E-001
 41
5.0E-001
 70
0
  0
VERTEX
  5
150
100
AcDbEntity
  8
1
100
AcDbVertex
100
AcDb2dVertex
 42
0.0
 10
2.8522224E+002
 20
6.018251E+001
 70
0
  0
VERTEX
  5
151
100
AcDbEntity
  8
1
100
AcDbVertex
100
AcDb2dVertex
 42
0.0
 10
2.8522224E+002
 20
5.2475
 70
0
  0
SEQEND
  5
152
100
AcDbEntity
  0
LINE
  5
153
100
AcDbEntity
  8
1
100
AcDbLine
  6
CONTINUOUS
 62
150
 10
2.3193559E+002
 20
9.47327
 11
4.146327E+002
 21
9.47327
  0
LINE
  5
154
100
AcDbEntity
  8
1
100
AcDbLine
  6
CONTINUOUS
 62
150
 10
4.146327E+002
 20
1.369904E+001
 11
4.019454E+002
 21
1.369904E+001
  0
LINE
  5
155
100
AcDbEntity
  8
1
100
AcDbLine
  6
CONTINUOUS
 62
150
 10
2.8522224E+002
 20
1.369904E+001
 11
2.3193559E+002
 21
1.369904E+001
  0
LINE
  5
156
100
AcDbEntity
  8
1
100
AcDbLine
  6
CONTINUOUS
 62
150
 10
2.3193559E+002
 20
1.792481E+001
 11
2.8522224E+002
 21
1.792481E+001
  0
LINE
  5
157
100
AcDbEntity
  8
1
100
AcDbLine
  6
CONTINUOUS
 62
150
 10
2.8522224E+002
 20
2.215058E+001
 11
2.3193559E+002
 21
2.215058E+001
  0
LINE
  5
158
100
AcDbEntity
  8
1
100
AcDbLine
  6
CONTINUOUS
 62
150
 10
2.3193559E+002
 20
2.637635E+001
 11
3.2835906E+002
 21
2.637635E+001
  0
LINE
  5
159
100
AcDbEntity
  8
1
100
AcDbLine
  6
CONTINUOUS
 62
150
 10
3.2835906E+002
 20
3.060212E+001
 11
2.3193559E+002
 21
3.060212E+001
  0
LINE
  5
15a
100
AcDbEntity
  8
1
100
AcDbLine
  6
CONTINUOUS
 62
150
 10
2.3193559E+002
 20
3.482789E+001
 11
3.2835906E+002
 21
3.482789E+001
  0
LINE
  5
15b
100
AcDbEntity
  8
1
100
AcDbLine
  6
CONTINUOUS
 62
150
 10
3.2835906E+002
 20
3.905366E+001
 11
2.3193559E+002
 21
3.905366E+001
  0
LINE
  5
15c
100
AcDbEntity
  8
1
100
AcDbLine
  6
CONTINUOUS
 62
150
 10
3.2835906E+002
 20
5.3843855E+001
 11
4.146327E+002
 21
5.3843855E+001
  0
LINE
  5
15d
100
AcDbEntity
  8
1
100
AcDbLine
  6
CONTINUOUS
 62
150
 10
3.7910827E+002
 20
6.018251E+001
 11
3.7910827E+002
 21
5.3843855E+001
  0
LINE
  5
15e
100
AcDbEntity
  8
1
100
AcDbLine
  6
CONTINUOUS
 62
150
 10
3.7149588E+002
 20
9.47327
 11
3.7149588E+002
 21
5.2475
  0
LINE
  5
15f
100
AcDbEntity
  8
1
100
AcDbLine
  6
CONTINUOUS
 62
150
 10
3.1059684E+002
 20
2.215058E+001
 11
3.1059684E+002
 21
6.018251E+001
  0
LINE
  5
160
100
AcDbEntity
  8
1
100
AcDbLine
  6
CONTINUOUS
 62
150
 10
2.9537209E+002
 20
4.327943E+001
 11
2.9537209E+002
 21
2.215058E+001
  0
LINE
  5
161
100
AcDbEntity
  8
1
100
AcDbLine
  6
CONTINUOUS
 62
150
 10
2.7760987E+002
 20
5.2475
 11
2.7760987E+002
 21
4.327943E+001
  0
LINE
  5
162
100
AcDbEntity
  8
1
100
AcDbLine
  6
CONTINUOUS
 62
150
 10
2.6492257E+002
 20
4.327943E+001
 11
2.6492257E+002
 21
5.2475
  0
LINE
  5
163
100
AcDbEntity
  8
1
100
AcDbLine
  6
CONTINUOUS
 62
150
 10
2.3954797E+002
 20
5.2475
 11
2.3954797E+002
 21
4.327943E+001
  0
LINE
  5
164
100
AcDbEntity
  8
1
100
AcDbLine
  6
CONTINUOUS
 62
150
 10
2.22475E+001
 20
2.9181714E+002
 11
2.22475E+001
 21
5.2475
  0
INSERT
  5
165
100
AcDbEntity
100
AcDbBlockReference
  2
ASSANEW00
  8
1
 10
2.8522224E+002
 20
6.4352411
  0
INSERT
  5
166
100
AcDbEntity
100
AcDbBlockReference
  2
ENGL
  8
1
 10
4.146327E+002
 20
5.2475
  0
POINT
  5
167
100
AcDbEntity
  8
1
100
AcDbPoint
  6
CONTINUOUS
 62
1
 10
4.146327E+002
 20
5.2475
  0
POINT
  5
168
100
AcDbEntity
  8
1
100
AcDbPoint
  6
CONTINUOUS
 62
2
 10
1.1148916E+002
 20
1.1190143E+002
  0
POINT
  5
169
100
AcDbEntity
  8
Drafting_Hidden_Entities
100
AcDbPoint
  6
CONTINUOUS
 62
1
 10
0.0
 20
0.0
  0
ENDBLK
  5
16a
100
AcDbEntity
100
AcDbBlockEnd
  0
BLOCK
  5
16b
100
AcDbEntity
100
AcDbBlockBegin
  2
ASSANEW00
 10
0.0
 20
0.0
 70
0
  0
LINE
  5
16c
100
AcDbEntity
  8
100
100
AcDbLine
  6
CONTINUOUS
 62
2
 10
2.3522184
 20
1.5317271E+001
 11
2.3522184
 21
6.1264705
  0
LINE
  5
16d
100
AcDbEntity
  8
100
100
AcDbLine
  6
CONTINUOUS
 62
2
 10
1.1543046E+001
 20
1.5317271E+001
 11
2.3522184
 21
1.5317271E+001
  0
LINE
  5
16e
100
AcDbEntity
  8
100
100
AcDbLine
  6
CONTINUOUS
 62
2
 10
1.1543046E+001
 20
6.1264705
 11
1.1543046E+001
 21
1.5317271E+001
  0
LINE
  5
16f
100
AcDbEntity
  8
100
100
AcDbLine
  6
CONTINUOUS
 62
2
 10
1.1083534E+001
 20
6.5860035
 11
1.1083534E+001
 21
1.4857738E+001
  0
LINE
  5
170
100
AcDbEntity
  8
100
100
AcDbLine
  6
CONTINUOUS
 62
2
 10
1.1083534E+001
 20
1.4857738E+001
 11
2.8117864
 21
1.4857738E+001
  0
LINE
  5
171
100
AcDbEntity
  8
100
100
AcDbLine
  6
CONTINUOUS
 62
1
 10
3.366157
 20
9.0031884
 11
3.366157
 21
9.7990882
  0
LINE
  5
172
100
AcDbEntity
  8
100
100
AcDbLine
  6
CONTINUOUS
 62
2
 10
2.8117864
 20
1.4857738E+001
 11
2.8117864
 21
6.5860035
  0
LINE
  5
173
100
AcDbEntity
  8
100
100
AcDbLine
  6
CONTINUOUS
 62
2
 10
2.8117864
 20
6.5860035
 11
1.1083534E+001
 21
6.5860035
  0
LINE
  5
174
100
AcDbEntity
  8
100
100
AcDbLine
  6
CONTINUOUS
 62
2
 10
2.3522184
 20
6.1264705
 11
1.1543046E+001
 21
6.1264705
  0
LINE
  5
175
100
AcDbEntity
  8
100
100
AcDbLine
  6
CONTINUOUS
 62
1
 10
4.6155594
 20
9.6602992
 11
2.8117864
 21
8.8194173
  0
LINE
  5
176
100
AcDbEntity
  8
100
100
AcDbLine
  6
CONTINUOUS
 62
1
 10
3.5500123
 20
1.016675E+001
 11
3.5500123
 21
9.1640793
  0
LINE
  5
177
100
AcDbEntity
  8
100
100
AcDbLine
  6
CONTINUOUS
 62
1
 10
3.7338115
 20
1.0263235E+001
 11
3.7338115
 21
9.2494507
  0
ARC
  5
178
100
AcDbEntity
  8
100
100
AcDbCircle
  6
CONTINUOUS
 62
1
 10
3.8257251
 20
9.7990882
 40
4.5953753E-001
100
AcDbArc
 50
1.1500681E+002
 51
1.8E+002
  0
LINE
  5
179
100
AcDbEntity
  8
100
100
AcDbLine
  6
CONTINUOUS
 62
1
 10
3.631492
 20
1.0215427E+001
 11
4.2233068
 21
1.0492108E+001
  0
ARC
  5
17a
100
AcDbEntity
  8
100
100
AcDbCircle
  6
CONTINUOUS
 62
1
 10
4.3398467
 20
1.0242143E+001
 40
2.7571278E-001
100
AcDbArc
 50
0.0
 51
1.14997E+002
  0
LINE
  5
17b
100
AcDbEntity
  8
100
100
AcDbLine
  6
CONTINUOUS
 62
1
 10
4.6155594
 20
9.6602992
 11
4.6155594
 21
1.0242143E+001
  0
LINE
  5
17c
100
AcDbEntity
  8
100
100
AcDbLine
  6
CONTINUOUS
 62
1
 10
4.2479611
 20
1.0503095E+001
 11
4.2479611
 21
9.4894372
  0
LINE
  5
17d
100
AcDbEntity
  8
100
100
AcDbLine
  6
CONTINUOUS
 62
1
 10
4.4317603
 20
9.5748086
 11
4.4317603
 21
1.0501307E+001
  0
ARC
  5
17e
100
AcDbEntity
  8
100
100
AcDbCircle
  6
CONTINUOUS
 62
1
 10
3.6418698
 20
9.0031884
 40
2.7572995E-001
100
AcDbArc
 50
1.8E+002
 51
2.9508511E+002
  0
LINE
  5
17f
100
AcDbEntity
  8
100
100
AcDbLine
  6
CONTINUOUS
 62
1
 10
8.4646838
 20
1.0947938E+001
 11
3.7584096
 21
8.7541213
  0
LINE
  5
180
100
AcDbEntity
  8
100
100
AcDbLine
  6
CONTINUOUS
 62
1
 10
6.7008512
 20
1.1140019E+001
 11
4.7994147
 21
1.0253138E+001
  0
LINE
  5
181
100
AcDbEntity
  8
100
100
AcDbLine
  6
CONTINUOUS
 62
1
 10
5.0751275
 20
1.109782E+001
 11
5.0751275
 21
8.3717697
  0
LINE
  5
182
100
AcDbEntity
  8
100
100
AcDbLine
  6
CONTINUOUS
 62
1
 10
5.2588986
 20
1.1509566E+001
 11
5.2588986
 21
8.175994
  0
LINE
  5
183
100
AcDbEntity
  8
100
100
AcDbLine
  6
CONTINUOUS
 62
1
 10
5.4083389
 20
1.1279796E+001
 11
5.4083389
 21
8.5537527
  0
LINE
  5
184
100
AcDbEntity
  8
100
100
AcDbLine
  6
CONTINUOUS
 62
1
 10
6.2413673
 20
1.1667652E+001
 11
6.2413673
 21
8.9416088
  0
LINE
  5
185
100
AcDbEntity
  8
100
100
AcDbLine
  6
CONTINUOUS
 62
1
 10
6.057512
 20
8.5307533
 11
6.057512
 21
1.1864319E+001
  0
ARC
  5
186
100
AcDbEntity
  8
100
100
AcDbCircle
  6
CONTINUOUS
 62
1
 10
6.6089376
 20
1.1667652E+001
 40
3.6762675E-001
100
AcDbArc
 50
9.9286249E+001
 51
1.8E+002
  0
ARC
  5
187
100
AcDbEntity
  8
100
100
AcDbCircle
  6
CONTINUOUS
 62
1
 10
6.4595815
 20
1.1486567E+001
 40
5.5145542E-001
100
AcDbArc
 50
8.0603552E+001
 51
1.8E+002
  0
LINE
  5
188
100
AcDbEntity
  8
100
100
AcDbLine
  6
CONTINUOUS
 62
1
 10
5.9080998
 20
1.1486567E+001
 11
5.9080998
 21
8.7605163
  0
ARC
  5
189
100
AcDbEntity
  8
100
100
AcDbCircle
  6
CONTINUOUS
 62
1
 10
5.7760214
 20
1.1279796E+001
 40
3.6763313E-001
100
AcDbArc
 50
9.9325427E+001
 51
1.8E+002
  0
ARC
  5
18a
100
AcDbEntity
  8
100
100
AcDbCircle
  6
CONTINUOUS
 62
1
 10
5.6265531
 20
1.109782E+001
 40
5.5145542E-001
100
AcDbArc
 50
8.0603552E+001
 51
1.8E+002
  0
ARC
  5
18b
100
AcDbEntity
  8
100
100
AcDbCircle
  6
CONTINUOUS
 62
1
 10
4.7074731
 20
8.3717697
 40
3.6764041E-001
100
AcDbArc
 50
2.7E+002
 51
3.6E+002
  0
ARC
  5
18c
100
AcDbEntity
  8
100
100
AcDbCircle
  6
CONTINUOUS
 62
1
 10
4.8569133
 20
8.5537527
 40
5.5145306E-001
100
AcDbArc
 50
2.6060319E+002
 51
3.6E+002
  0
ARC
  5
18d
100
AcDbEntity
  8
100
100
AcDbCircle
  6
CONTINUOUS
 62
1
 10
5.5405015
 20
8.7605163
 40
3.6762642E-001
100
AcDbArc
 50
2.7E+002
 51
3.6E+002
  0
ARC
  5
18e
100
AcDbEntity
  8
100
100
AcDbCircle
  6
CONTINUOUS
 62
1
 10
5.6898857
 20
8.9416088
 40
5.5145087E-001
100
AcDbArc
 50
2.606093E+002
 51
3.6E+002
  0
LINE
  5
18f
100
AcDbEntity
  8
100
100
AcDbLine
  6
CONTINUOUS
 62
1
 10
7.2151972
 20
1.0291718E+001
 11
7.2151972
 21
1.1086727E+001
  0
LINE
  5
190
100
AcDbEntity
  8
100
100
AcDbLine
  6
CONTINUOUS
 62
1
 10
7.3990525
 20
1.1454382E+001
 11
7.3990525
 21
1.0451718E+001
  0
LINE
  5
191
100
AcDbEntity
  8
100
100
AcDbLine
  6
CONTINUOUS
 62
1
 10
7.5828516
 20
1.1550867E+001
 11
7.5828516
 21
1.0537083E+001
  0
LINE
  5
192
100
AcDbEntity
  8
100
100
AcDbLine
  6
CONTINUOUS
 62
1
 10
8.0970293
 20
1.1790734E+001
 11
8.0970293
 21
1.0777076E+001
  0
LINE
  5
193
100
AcDbEntity
  8
100
100
AcDbLine
  6
CONTINUOUS
 62
1
 10
8.2808846
 20
1.0862441E+001
 11
8.2808846
 21
1.1789837E+001
  0
LINE
  5
194
100
AcDbEntity
  8
100
100
AcDbLine
  6
CONTINUOUS
 62
1
 10
8.4646838
 20
1.0947938E+001
 11
8.4646838
 21
1.1529761E+001
  0
ARC
  5
195
100
AcDbEntity
  8
100
100
AcDbCircle
  6
CONTINUOUS
 62
1
 10
8.188971
 20
1.1529761E+001
 40
2.7571278E-001
100
AcDbArc
 50
0.0
 51
1.1499049E+002
  0
LINE
  5
196
100
AcDbEntity
  8
100
100
AcDbLine
  6
CONTINUOUS
 62
1
 10
7.4805322
 20
1.1503059E+001
 11
8.0724031
 21
1.177974E+001
  0
ARC
  5
197
100
AcDbEntity
  8
100
100
AcDbCircle
  6
CONTINUOUS
 62
1
 10
7.6747652
 20
1.1086727E+001
 40
4.5954345E-001
100
AcDbArc
 50
1.1501034E+002
 51
1.8E+002
  0
LINE
  5
198
100
AcDbEntity
  8
100
100
AcDbLine
  6
CONTINUOUS
 62
1
 10
7.6074498
 20
1.0041753E+001
 11
1.1083534E+001
 21
1.1662043E+001
  0
ARC
  5
199
100
AcDbEntity
  8
100
100
AcDbCircle
  6
CONTINUOUS
 62
1
 10
7.49091
 20
1.0291718E+001
 40
2.7573404E-001
100
AcDbArc
 50
1.8E+002
 51
2.9499577E+002
  0
ARC
  5
19a
100
AcDbEntity
  8
100
100
AcDbCircle
  6
CONTINUOUS
 62
1
 10
9.4756493
 20
1.238635E+001
 40
5.5145071E-001
100
AcDbArc
 50
8.0591814E+001
 51
1.8E+002
  0
ARC
  5
19b
100
AcDbEntity
  8
100
100
AcDbCircle
  6
CONTINUOUS
 62
1
 10
9.6250335
 20
1.2567435E+001
 40
3.6763562E-001
100
AcDbArc
 50
9.9308349E+001
 51
1.8E+002
  0
LINE
  5
19c
100
AcDbEntity
  8
100
100
AcDbLine
  6
CONTINUOUS
 62
1
 10
9.108051
 20
1.2797198E+001
 11
9.108051
 21
9.4636329
  0
LINE
  5
19d
100
AcDbEntity
  8
100
100
AcDbLine
  6
CONTINUOUS
 62
1
 10
9.2574071
 20
1.2567435E+001
 11
9.257379
 21
9.8413917
  0
LINE
  5
19e
100
AcDbEntity
  8
100
100
AcDbLine
  6
CONTINUOUS
 62
1
 10
8.9242238
 20
1.238635E+001
 11
8.9242238
 21
9.6602992
  0
LINE
  5
19f
100
AcDbEntity
  8
100
100
AcDbLine
  6
CONTINUOUS
 62
1
 10
1.0549891E+001
 20
1.2427651E+001
 11
8.648511
 21
1.154077E+001
  0
LINE
  5
1a0
100
AcDbEntity
  8
100
100
AcDbLine
  6
CONTINUOUS
 62
1
 10
9.7571961
 20
1.2774199E+001
 11
9.7571961
 21
1.0048155E+001
  0
LINE
  5
1a1
100
AcDbEntity
  8
100
100
AcDbLine
  6
CONTINUOUS
 62
1
 10
9.9065522
 20
9.8183923
 11
9.9065522
 21
1.3151958E+001
  0
LINE
  5
1a2
100
AcDbEntity
  8
100
100
AcDbLine
  6
CONTINUOUS
 62
1
 10
1.0090351E+001
 20
1.2955291E+001
 11
1.0090351E+001
 21
1.0229241E+001
  0
ARC
  5
1a3
100
AcDbEntity
  8
100
100
AcDbCircle
  6
CONTINUOUS
 62
1
 10
1.0457978E+001
 20
1.2955291E+001
 40
3.6763609E-001
100
AcDbArc
 50
9.9285896E+001
 51
1.8E+002
  0
ARC
  5
1a4
100
AcDbEntity
  8
100
100
AcDbCircle
  6
CONTINUOUS
 62
1
 10
1.030865E+001
 20
1.2774199E+001
 40
5.5143931E-001
100
AcDbArc
 50
8.0606189E+001
 51
1.8E+002
  0
ARC
  5
1a5
100
AcDbEntity
  8
100
100
AcDbCircle
  6
CONTINUOUS
 62
1
 10
8.5565974
 20
9.6602992
 40
3.6764041E-001
100
AcDbArc
 50
2.7E+002
 51
3.6E+002
  0
ARC
  5
1a6
100
AcDbEntity
  8
100
100
AcDbCircle
  6
CONTINUOUS
 62
1
 10
8.7059535
 20
9.8413917
 40
5.5145317E-001
100
AcDbArc
 50
2.606093E+002
 51
3.6E+002
  0
ARC
  5
1a7
100
AcDbEntity
  8
100
100
AcDbCircle
  6
CONTINUOUS
 62
1
 10
9.3895417
 20
1.0048155E+001
 40
3.6764041E-001
100
AcDbArc
 50
2.7E+002
 51
3.6E+002
  0
ARC
  5
1a8
100
AcDbEntity
  8
100
100
AcDbCircle
  6
CONTINUOUS
 62
1
 10
9.5389258
 20
1.0229241E+001
 40
5.5145071E-001
100
AcDbArc
 50
2.6059181E+002
 51
3.6E+002
  0
TEXT
  5
1a9
100
AcDbEntity
  8
100
100
AcDbText
  6
CONTINUOUS
 62
1
 10
1.260589E+001
 20
1.268055E+001
 40
2.024
  1
ASSA ABLOY
 41
7.0E-001
100
AcDbText
  0
TEXT
  5
1aa
100
AcDbEntity
  8
100
100
AcDbText
  6
CONTINUOUS
 62
1
 10
1.260589E+001
 20
6.5797544
 40
2.024
  1
D-72458 Albstadt
 41
7.0E-001
100
AcDbText
  0
TEXT
  5
1ab
100
AcDbEntity
  8
100
100
AcDbText
  6
CONTINUOUS
 62
1
 10
1.260589E+001
 20
9.8404184
 40
2.024
  1
Sicherheitstechnik GmbH
 41
6.0E-001
100
AcDbText
  0
TEXT
  5
1ac
100
AcDbEntity
  8
100
100
AcDbText
  6
CONTINUOUS
 62
1
 10
2.4184657
 20
3.7344036
 40
9.2E-001
  1
ASSA ABLOY
100
AcDbText
  0
POLYLINE
  5
1ad
100
AcDbEntity
  8
100
100
AcDb2dPolyline
  6
CONTINUOUS
 62
1
 66
1
 40
5.0E-001
 41
5.0E-001
 70
0
  0
VERTEX
  5
1ae
100
AcDbEntity
  8
100
100
AcDbVertex
100
AcDb2dVertex
 42
0.0
 10
1.9788336
 20
5.8543596
 70
0
  0
VERTEX
  5
1af
100
AcDbEntity
  8
100
100
AcDbVertex
100
AcDb2dVertex
 42
0.0
 10
1.9788336
 20
5.444576
 70
0
  0
SEQEND
  5
1b0
100
AcDbEntity
  0
POLYLINE
  5
1b1
100
AcDbEntity
  8
100
100
AcDb2dPolyline
  6
CONTINUOUS
 62
1
 66
1
 40
5.0E-001
 41
5.0E-001
 70
0
  0
VERTEX
  5
1b2
100
AcDbEntity
  8
100
100
AcDbVertex
100
AcDb2dVertex
 42
0.0
 10
1.9788336
 20
5.444576
 70
0
  0
VERTEX
  5
1b3
100
AcDbEntity
  8
100
100
AcDbVertex
100
AcDb2dVertex
 42
0.0
 10
1.1973716E+001
 20
5.444576
 70
0
  0
SEQEND
  5
1b4
100
AcDbEntity
  0
POLYLINE
  5
1b5
100
AcDbEntity
  8
100
100
AcDb2dPolyline
  6
CONTINUOUS
 62
1
 66
1
 40
5.0E-001
 41
5.0E-001
 70
0
  0
VERTEX
  5
1b6
100
AcDbEntity
  8
100
100
AcDbVertex
100
AcDb2dVertex
 42
0.0
 10
1.1973716E+001
 20
5.444576
 70
0
  0
VERTEX
  5
1b7
100
AcDbEntity
  8
100
100
AcDbVertex
100
AcDb2dVertex
 42
0.0
 10
1.1973716E+001
 20
5.0102458
 70
0
  0
SEQEND
  5
1b8
100
AcDbEntity
  0
POINT
  5
1b9
100
AcDbEntity
  8
Drafting_Hidden_Entities
100
AcDbPoint
  6
CONTINUOUS
 62
1
 10
0.0
 20
0.0
  0
ENDBLK
  5
1ba
100
AcDbEntity
100
AcDbBlockEnd
  0
BLOCK
  5
1bb
100
AcDbEntity
100
AcDbBlockBegin
  2
EFFZF_SCHLIETAB
 10
0.0
 20
0.0
 70
0
  0
LINE
  5
1bc
100
AcDbEntity
  8
3
100
AcDbLine
  6
CONTINUOUS
 62
2
 10
4.500061
 20
4.5000076
 11
-4.4999695
 21
4.5000076
  0
LINE
  5
1bd
100
AcDbEntity
  8
3
100
AcDbLine
  6
CONTINUOUS
 62
2
 10
5.0000305
 20
5.0
 11
-5.0
 21
5.0
  0
LINE
  5
1be
100
AcDbEntity
  8
3
100
AcDbLine
  6
CONTINUOUS
 62
2
 10
-5.0
 20
5.0
 11
-5.0
 21
-5.0
  0
LINE
  5
1bf
100
AcDbEntity
  8
1
100
AcDbLine
  6
CONTINUOUS
 62
1
 10
-2.537384
 20
-1.1550369
 11
-4.4999695
 21
-2.0699539
  0
LINE
  5
1c0
100
AcDbEntity
  8
1
100
AcDbLine
  6
CONTINUOUS
 62
1
 10
7.1792603E-001
 20
-7.3999786E-001
 11
4.500061
 21
1.0229492
  0
LINE
  5
1c1
100
AcDbEntity
  8
1
100
AcDbLine
  6
CONTINUOUS
 62
1
 10
2.5131531
 20
2.0080566
 11
2.5131226
 21
-9.5800018E-001
  0
ARC
  5
1c2
100
AcDbEntity
  8
1
100
AcDbCircle
  6
CONTINUOUS
 62
1
 10
2.913147
 20
2.0080566
 40
4.0000394E-001
100
AcDbArc
 50
9.9308349E+001
 51
1.8E+002
  0
ARC
  5
1c3
100
AcDbEntity
  8
1
100
AcDbCircle
  6
CONTINUOUS
 62
1
 10
2.7506104
 20
1.8110275
 40
6.0000294E-001
100
AcDbArc
 50
8.0591814E+001
 51
1.8E+002
  0
LINE
  5
1c4
100
AcDbEntity
  8
1
100
AcDbLine
  6
CONTINUOUS
 62
1
 10
2.1506348
 20
1.8110275
 11
2.1506348
 21
-1.1550369
  0
ARC
  5
1c5
100
AcDbEntity
  8
1
100
AcDbCircle
  6
CONTINUOUS
 62
1
 10
1.7506409
 20
-1.1550369
 40
4.0000916E-001
100
AcDbArc
 50
2.7E+002
 51
3.6E+002
  0
LINE
  5
1c6
100
AcDbEntity
  8
1
100
AcDbLine
  6
CONTINUOUS
 62
1
 10
3.9194336
 20
1.8559647
 11
1.850647
 21
8.9099884E-001
  0
LINE
  5
1c7
100
AcDbEntity
  8
1
100
AcDbLine
  6
CONTINUOUS
 62
1
 10
3.2194519
 20
-9.830246E-001
 11
3.2194519
 21
2.644043
  0
LINE
  5
1c8
100
AcDbEntity
  8
3
100
AcDbLine
  6
CONTINUOUS
 62
2
 10
4.500061
 20
-4.5000076
 11
4.500061
 21
4.5000076
  0
LINE
  5
1c9
100
AcDbEntity
  8
3
100
AcDbLine
  6
CONTINUOUS
 62
2
 10
5.0000305
 20
-5.0
 11
5.0000305
 21
5.0
  0
LINE
  5
1ca
100
AcDbEntity
  8
3
100
AcDbLine
  6
CONTINUOUS
 62
2
 10
-4.4999695
 20
-4.5000076
 11
4.500061
 21
-4.5000076
  0
LINE
  5
1cb
100
AcDbEntity
  8
3
100
AcDbLine
  6
CONTINUOUS
 62
2
 10
-5.0
 20
-5.0
 11
5.0000305
 21
-5.0
  0
LINE
  5
1cc
100
AcDbEntity
  8
1
100
AcDbLine
  6
CONTINUOUS
 62
1
 10
-3.6080933
 20
-5.5103302E-001
 11
-2.9641724
 21
-2.4999237E-001
  0
LINE
  5
1cd
100
AcDbEntity
  8
3
100
AcDbLine
  6
CONTINUOUS
 62
2
 10
-4.4999695
 20
4.5000076
 11
-4.4999695
 21
-4.5000076
  0
LINE
  5
1ce
100
AcDbEntity
  8
1
100
AcDbLine
  6
CONTINUOUS
 62
1
 10
1.6506348
 20
2.4597168E-001
 11
-3.4700012
 21
-2.1409988
  0
LINE
  5
1cf
100
AcDbEntity
  8
1
100
AcDbLine
  6
CONTINUOUS
 62
1
 10
-1.6748047
 20
6.0704803E-001
 11
-1.6748047
 21
-2.3590088
  0
ARC
  5
1d0
100
AcDbEntity
  8
1
100
AcDbCircle
  6
CONTINUOUS
 62
1
 10
7.9116821E-001
 20
3.9698029E-001
 40
5.0000376E-001
100
AcDbArc
 50
1.1501034E+002
 51
1.8E+002
  0
LINE
  5
1d1
100
AcDbEntity
  8
1
100
AcDbLine
  6
CONTINUOUS
 62
1
 10
5.7983398E-001
 20
8.4996796E-001
 11
1.2238159
 21
1.1510086
  0
LINE
  5
1d2
100
AcDbEntity
  8
1
100
AcDbLine
  6
CONTINUOUS
 62
1
 10
2.350647
 20
2.258049
 11
2.350647
 21
-1.3690186
  0
LINE
  5
1d3
100
AcDbEntity
  8
1
100
AcDbLine
  6
CONTINUOUS
 62
1
 10
3.0569458
 20
2.2330246
 11
3.0569458
 21
-7.3303223E-001
  0
ARC
  5
1d4
100
AcDbEntity
  8
1
100
AcDbCircle
  6
CONTINUOUS
 62
1
 10
3.8194275
 20
2.4300613
 40
4.0000445E-001
100
AcDbArc
 50
9.9285896E+001
 51
1.8E+002
  0
ARC
  5
1d5
100
AcDbEntity
  8
1
100
AcDbCircle
  6
CONTINUOUS
 62
1
 10
3.6569519
 20
2.2330246
 40
5.9999055E-001
100
AcDbArc
 50
8.0606189E+001
 51
1.8E+002
  0
ARC
  5
1d6
100
AcDbEntity
  8
1
100
AcDbCircle
  6
CONTINUOUS
 62
1
 10
2.6569214
 20
-7.3303223E-001
 40
4.0000916E-001
100
AcDbArc
 50
2.7E+002
 51
3.6E+002
  0
ARC
  5
1d7
100
AcDbEntity
  8
1
100
AcDbCircle
  6
CONTINUOUS
 62
1
 10
1.913147
 20
-9.5800018E-001
 40
6.0000563E-001
100
AcDbArc
 50
2.606093E+002
 51
3.6E+002
  0
ARC
  5
1d8
100
AcDbEntity
  8
1
100
AcDbCircle
  6
CONTINUOUS
 62
1
 10
-1.3684692
 20
-1.9370041
 40
6.0000312E-001
100
AcDbArc
 50
2.606093E+002
 51
3.6E+002
  0
ARC
  5
1d9
100
AcDbEntity
  8
1
100
AcDbCircle
  6
CONTINUOUS
 62
1
 10
-2.2747803
 20
-2.3590088
 40
6.0000551E-001
100
AcDbArc
 50
2.6060319E+002
 51
3.6E+002
  0
LINE
  5
1da
100
AcDbEntity
  8
1
100
AcDbLine
  6
CONTINUOUS
 62
1
 10
-2.0373535
 20
4.0904999E-001
 11
-2.0373535
 21
-2.5570145
  0
ARC
  5
1db
100
AcDbEntity
  8
1
100
AcDbCircle
  6
CONTINUOUS
 62
1
 10
-1.4373779
 20
4.0904999E-001
 40
6.0000807E-001
100
AcDbArc
 50
8.0603552E+001
 51
1.8E+002
  0
ARC
  5
1dc
100
AcDbEntity
  8
1
100
AcDbCircle
  6
CONTINUOUS
 62
1
 10
-1.2747498
 20
6.0704803E-001
 40
4.0000123E-001
100
AcDbArc
 50
9.9325427E+001
 51
1.8E+002
  0
LINE
  5
1dd
100
AcDbEntity
  8
1
100
AcDbLine
  6
CONTINUOUS
 62
1
 10
-3.8967896
 20
-1.8700027
 11
-3.8967896
 21
-1.0040283
  0
LINE
  5
1de
100
AcDbEntity
  8
1
100
AcDbLine
  6
CONTINUOUS
 62
1
 10
-3.4967651
 20
-4.9901581E-001
 11
-3.4967651
 21
-1.6020584
  0
LINE
  5
1df
100
AcDbEntity
  8
1
100
AcDbLine
  6
CONTINUOUS
 62
1
 10
-2.9373474
 20
-2.3803711E-001
 11
-2.9373474
 21
-1.3409424
  0
LINE
  5
1e0
100
AcDbEntity
  8
1
100
AcDbLine
  6
CONTINUOUS
 62
1
 10
-2.537384
 20
-1.1550369
 11
-2.537384
 21
-5.2196503E-001
  0
ARC
  5
1e1
100
AcDbEntity
  8
1
100
AcDbCircle
  6
CONTINUOUS
 62
1
 10
-3.396759
 20
-1.0040283
 40
4.9999732E-001
100
AcDbArc
 50
1.1500681E+002
 51
1.8E+002
  0
LINE
  5
1e2
100
AcDbEntity
  8
1
100
AcDbLine
  6
CONTINUOUS
 62
1
 10
-2.7373657
 20
-1.2480545
 11
-2.7373657
 21
-2.399826E-001
  0
ARC
  5
1e3
100
AcDbEntity
  8
1
100
AcDbCircle
  6
CONTINUOUS
 62
1
 10
-2.8373718
 20
-5.2196503E-001
 40
2.9998779E-001
100
AcDbArc
 50
0.0
 51
1.14997E+002
  0
LINE
  5
1e4
100
AcDbEntity
  8
1
100
AcDbLine
  6
CONTINUOUS
 62
1
 10
-2.6849365E-001
 20
4.5496368E-001
 11
-2.3373413
 21
-5.1000214E-001
  0
LINE
  5
1e5
100
AcDbEntity
  8
1
100
AcDbLine
  6
CONTINUOUS
 62
1
 10
-9.6847534E-001
 20
-2.3840332
 11
-9.6847534E-001
 21
1.2430344
  0
ARC
  5
1e6
100
AcDbEntity
  8
1
100
AcDbCircle
  6
CONTINUOUS
 62
1
 10
-5.3100586E-001
 20
8.3202362E-001
 40
6.0000807E-001
100
AcDbArc
 50
8.0603552E+001
 51
1.8E+002
  0
ARC
  5
1e7
100
AcDbEntity
  8
1
100
AcDbCircle
  6
CONTINUOUS
 62
1
 10
-3.6849976E-001
 20
1.0290527
 40
3.9999428E-001
100
AcDbArc
 50
9.9286249E+001
 51
1.8E+002
  0
LINE
  5
1e8
100
AcDbEntity
  8
1
100
AcDbLine
  6
CONTINUOUS
 62
1
 10
2.911377E-001
 20
-4.6802521E-001
 11
2.911377E-001
 21
3.9698029E-001
  0
ARC
  5
1e9
100
AcDbEntity
  8
1
100
AcDbCircle
  6
CONTINUOUS
 62
1
 10
5.9112549E-001
 20
-4.6802521E-001
 40
3.0001092E-001
100
AcDbArc
 50
1.8E+002
 51
2.9499577E+002
  0
LINE
  5
1ea
100
AcDbEntity
  8
1
100
AcDbLine
  6
CONTINUOUS
 62
1
 10
6.9116211E-001
 20
9.0198517E-001
 11
6.9116211E-001
 21
-2.0105743E-001
  0
LINE
  5
1eb
100
AcDbEntity
  8
1
100
AcDbLine
  6
CONTINUOUS
 62
1
 10
1.2506104
 20
1.1629715
 11
1.2506104
 21
6.0066223E-002
  0
LINE
  5
1ec
100
AcDbEntity
  8
1
100
AcDbLine
  6
CONTINUOUS
 62
1
 10
1.4506531
 20
1.5294647E-001
 11
1.4506531
 21
1.1619949
  0
LINE
  5
1ed
100
AcDbEntity
  8
1
100
AcDbLine
  6
CONTINUOUS
 62
1
 10
4.9118042E-001
 20
7.970047E-001
 11
4.9118042E-001
 21
-2.9393768E-001
  0
ARC
  5
1ee
100
AcDbEntity
  8
1
100
AcDbCircle
  6
CONTINUOUS
 62
1
 10
1.350647
 20
8.7902069E-001
 40
2.9998779E-001
100
AcDbArc
 50
0.0
 51
1.1499049E+002
  0
LINE
  5
1ef
100
AcDbEntity
  8
1
100
AcDbLine
  6
CONTINUOUS
 62
1
 10
1.6506348
 20
2.4597168E-001
 11
1.6506348
 21
8.7902069E-001
  0
LINE
  5
1f0
100
AcDbEntity
  8
1
100
AcDbLine
  6
CONTINUOUS
 62
1
 10
3.4194336
 20
2.4300613
 11
3.4194336
 21
-5.3600311E-001
  0
ARC
  5
1f1
100
AcDbEntity
  8
1
100
AcDbCircle
  6
CONTINUOUS
 62
1
 10
2.819458
 20
-5.3600311E-001
 40
6.0000294E-001
100
AcDbArc
 50
2.6059181E+002
 51
3.6E+002
  0
ARC
  5
1f2
100
AcDbEntity
  8
1
100
AcDbCircle
  6
CONTINUOUS
 62
1
 10
-1.5310059
 20
-2.1340408
 40
3.9999393E-001
100
AcDbArc
 50
2.7E+002
 51
3.6E+002
  0
LINE
  5
1f3
100
AcDbEntity
  8
1
100
AcDbLine
  6
CONTINUOUS
 62
1
 10
-1.1310425
 20
8.3202362E-001
 11
-1.1310425
 21
-2.1340408
  0
LINE
  5
1f4
100
AcDbEntity
  8
1
100
AcDbLine
  6
CONTINUOUS
 62
1
 10
-7.6843262E-001
 20
1.0290527
 11
-7.6843262E-001
 21
-1.9370041
  0
LINE
  5
1f5
100
AcDbEntity
  8
1
100
AcDbLine
  6
CONTINUOUS
 62
1
 10
-3.6967468
 20
-6.0399628E-001
 11
-3.6967468
 21
-1.6949463
  0
ARC
  5
1f6
100
AcDbEntity
  8
1
100
AcDbCircle
  6
CONTINUOUS
 62
1
 10
-3.5968018
 20
-1.8700027
 40
3.0000648E-001
100
AcDbArc
 50
1.8E+002
 51
2.9508511E+002
  0
LINE
  5
1f7
100
AcDbEntity
  8
1
100
AcDbLine
  6
CONTINUOUS
 62
1
 10
-1.8374023
 20
8.5704803E-001
 11
-1.8374023
 21
-2.7700272
  0
ARC
  5
1f8
100
AcDbEntity
  8
1
100
AcDbCircle
  6
CONTINUOUS
 62
1
 10
-2.4373779
 20
-2.5570145
 40
4.0000916E-001
100
AcDbArc
 50
2.7E+002
 51
3.6E+002
  0
POINT
  5
1f9
100
AcDbEntity
  8
Drafting_Hidden_Entities
100
AcDbPoint
  6
CONTINUOUS
 62
1
 10
0.0
 20
0.0
  0
ENDBLK
  5
1fa
100
AcDbEntity
100
AcDbBlockEnd
  0
BLOCK
  5
1fb
100
AcDbEntity
100
AcDbBlockBegin
  2
M11
 10
0.0
 20
0.0
 70
0
  0
TEXT
  5
1fc
100
AcDbEntity
  8
1
100
AcDbText
  6
CONTINUOUS
 62
1
 10
-3.7549647
 20
1.445907
 40
3.5
  1
1:1
 41
7.0E-001
100
AcDbText
  0
POINT
  5
1fd
100
AcDbEntity
  8
Drafting_Hidden_Entities
100
AcDbPoint
  6
CONTINUOUS
 62
1
 10
0.0
 20
0.0
  0
ENDBLK
  5
1fe
100
AcDbEntity
100
AcDbBlockEnd
  0
BLOCK
  5
1ff
100
AcDbEntity
100
AcDbBlockBegin
  2
ENGL
 10
0.0
 20
0.0
 70
0
  0
TEXT
  5
200
100
AcDbEntity
  8
100
100
AcDbText
  6
CONTINUOUS
 62
1
 10
-8.536E+001
 20
4.5645E+001
 40
2.0
  1
Werkstoff
 41
7.0E-001
100
AcDbText
  0
TEXT
  5
201
100
AcDbEntity
  8
100
100
AcDbText
  6
CONTINUOUS
 62
1
 10
-8.5261357E+001
 20
4.2906381E+001
 40
2.0
  1
material
 41
7.5E-001
100
AcDbText
  0
TEXT
  5
202
100
AcDbEntity
  8
100
100
AcDbText
  6
CONTINUOUS
 62
1
 10
-8.536E+001
 20
3.507E+001
 40
2.0
  1
Benennung
 41
7.0E-001
100
AcDbText
  0
TEXT
  5
203
100
AcDbEntity
  8
100
100
AcDbText
  6
CONTINUOUS
 62
1
 10
-8.5514812E+001
 20
3.276902E+001
 40
2.0
  1
name
 41
7.5E-001
100
AcDbText
  0
TEXT
  5
204
100
AcDbEntity
  8
100
100
AcDbText
  6
CONTINUOUS
 62
1
 10
-8.5624253E+001
 20
1.387293E+001
 40
2.0
  1
Zeichnungsnummer
 41
7.0E-001
100
AcDbText
  0
TEXT
  5
205
100
AcDbEntity
  8
100
100
AcDbText
  6
CONTINUOUS
 62
1
 10
-8.5799829E+001
 20
1.1151507E+001
 40
2.0
  1
drawing number
 41
7.5E-001
100
AcDbText
  0
TEXT
  5
206
100
AcDbEntity
  8
100
100
AcDbText
  6
CONTINUOUS
 62
1
 10
-1.0246863E+002
 20
3.4864044E+001
 40
2.0
  1
Name/name
 41
6.607E-001
 51
-2.104591E-004
100
AcDbText
  0
TEXT
  5
207
100
AcDbEntity
  8
100
100
AcDbText
  6
CONTINUOUS
 62
1
 10
-1.184521E+002
 20
3.4864044E+001
 40
2.0
  1
Datum/date
 41
6.2856E-001
 51
-2.104591E-004
100
AcDbText
  0
INSERT
  5
208
100
AcDbEntity
100
AcDbBlockReference
  2
*TX146
  8
100
 10
-8.5682805E+001
 20
5.2351367E+001
  0
INSERT
  5
209
100
AcDbEntity
100
AcDbBlockReference
  2
*TX147
  8
100
 10
-1.2784696E+002
 20
3.1813764E+001
  0
INSERT
  5
20a
100
AcDbEntity
100
AcDbBlockReference
  2
*TX148
  8
100
 10
-1.2784696E+002
 20
2.7787394E+001
  0
INSERT
  5
20b
100
AcDbEntity
100
AcDbBlockReference
  2
*TX149
  8
100
 10
-1.28213E+002
 20
1.9246609E+001
  0
INSERT
  5
20c
100
AcDbEntity
100
AcDbBlockReference
  2
*TX150
  8
100
 10
-1.3585107E+002
 20
2.105119
  0
INSERT
  5
20d
100
AcDbEntity
100
AcDbBlockReference
  2
*TX151
  8
100
 10
-1.4663644E+002
 20
2.241643
  0
INSERT
  5
20e
100
AcDbEntity
100
AcDbBlockReference
  2
*TX152
  8
100
 10
-1.6970893E+002
 20
2.241643
  0
INSERT
  5
20f
100
AcDbEntity
100
AcDbBlockReference
  2
*TX153
  8
100
 10
-1.8172301E+002
 20
2.105119
  0
INSERT
  5
210
100
AcDbEntity
100
AcDbBlockReference
  2
*TX154
  8
100
 10
-1.2169835E+001
 20
1.4485099E+001
  0
POINT
  5
211
100
AcDbEntity
  8
Drafting_Hidden_Entities
100
AcDbPoint
  6
CONTINUOUS
 62
1
 10
0.0
 20
0.0
  0
ENDBLK
  5
212
100
AcDbEntity
100
AcDbBlockEnd
  0
BLOCK
  5
213
100
AcDbEntity
100
AcDbBlockBegin
  2
*TX146
  3
*TX
 10
0.0
 20
0.0
 70
65
  0
TEXT
  5
214
100
AcDbEntity
  8
1
100
AcDbText
  6
CONTINUOUS
 62
1
 10
0.0
 20
0.0
 40
2.0
  1
Maßstab:
 41
6.2244898E-001
 51
-2.104591E-004
100
AcDbText
  0
TEXT
  5
215
100
AcDbEntity
  8
1
100
AcDbText
  6
CONTINUOUS
 62
1
 10
0.0
 20
-2.8
 40
2.0
  1
scale:
 41
6.2244898E-001
 51
-2.104591E-004
100
AcDbText
  0
ENDBLK
  5
216
100
AcDbEntity
100
AcDbBlockEnd
  0
BLOCK
  5
217
100
AcDbEntity
100
AcDbBlockBegin
  2
*TX147
  3
*TX
 10
0.0
 20
0.0
 70
65
  0
TEXT
  5
218
100
AcDbEntity
  8
1
100
AcDbText
  6
CONTINUOUS
 62
1
 10
0.0
 20
0.0
 40
2.0
  1
Bearb.
 41
5.476E-001
 51
-2.104591E-004
100
AcDbText
  0
TEXT
  5
219
100
AcDbEntity
  8
1
100
AcDbText
  6
CONTINUOUS
 62
1
 10
0.0
 20
-2.2
 40
2.0
  1
author
 41
5.476E-001
 51
-2.104591E-004
100
AcDbText
  0
ENDBLK
  5
21a
100
AcDbEntity
100
AcDbBlockEnd
  0
BLOCK
  5
21b
100
AcDbEntity
100
AcDbBlockBegin
  2
*TX148
  3
*TX
 10
0.0
 20
0.0
 70
65
  0
TEXT
  5
21c
100
AcDbEntity
  8
1
100
AcDbText
  6
CONTINUOUS
 62
1
 10
0.0
 20
0.0
 40
2.0
  1
gepr.
 41
5.2856E-001
 51
-2.104591E-004
100
AcDbText
  0
TEXT
  5
21d
100
AcDbEntity
  8
1
100
AcDbText
  6
CONTINUOUS
 62
1
 10
0.0
 20
-2.1
 40
2.0
  1
checked
 41
5.2856E-001
 51
-2.104591E-004
100
AcDbText
  0
ENDBLK
  5
21e
100
AcDbEntity
100
AcDbBlockEnd
  0
BLOCK
  5
21f
100
AcDbEntity
100
AcDbBlockBegin
  2
*TX149
  3
*TX
 10
0.0
 20
0.0
 70
65
  0
TEXT
  5
220
100
AcDbEntity
  8
1
100
AcDbText
  6
CONTINUOUS
 62
1
 10
0.0
 20
0.0
 40
1.8
  1
freig.
 41
6.0E-001
 51
-2.104591E-004
100
AcDbText
  0
TEXT
  5
221
100
AcDbEntity
  8
1
100
AcDbText
  6
CONTINUOUS
 62
1
 10
0.0
 20
-1.89
 40
1.8
  1
approved
 41
6.0E-001
 51
-2.104591E-004
100
AcDbText
  0
ENDBLK
  5
222
100
AcDbEntity
100
AcDbBlockEnd
  0
BLOCK
  5
223
100
AcDbEntity
100
AcDbBlockBegin
  2
*TX150
  3
*TX
 10
0.0
 20
0.0
 70
65
  0
TEXT
  5
224
100
AcDbEntity
  8
1
100
AcDbText
  6
CONTINUOUS
 62
1
 10
0.0
 20
0.0
 40
1.8
  1
Name
 41
6.607E-001
 51
-2.104591E-004
100
AcDbText
  0
TEXT
  5
225
100
AcDbEntity
  8
1
100
AcDbText
  6
CONTINUOUS
 62
1
 10
0.0
 20
-1.9
 40
1.8
  1
name
 41
6.607E-001
 51
-2.104591E-004
100
AcDbText
  0
ENDBLK
  5
226
100
AcDbEntity
100
AcDbBlockEnd
  0
BLOCK
  5
227
100
AcDbEntity
100
AcDbBlockBegin
  2
*TX151
  3
*TX
 10
0.0
 20
0.0
 70
65
  0
TEXT
  5
228
100
AcDbEntity
  8
1
100
AcDbText
  6
CONTINUOUS
 62
1
 10
0.0
 20
0.0
 40
1.8
  1
Datum
 41
6.2856E-001
 51
-2.104591E-004
100
AcDbText
  0
TEXT
  5
229
100
AcDbEntity
  8
1
100
AcDbText
  6
CONTINUOUS
 62
1
 10
0.0
 20
-1.9
 40
1.8
  1
date
 41
6.2856E-001
 51
-2.104591E-004
100
AcDbText
  0
ENDBLK
  5
22a
100
AcDbEntity
100
AcDbBlockEnd
  0
BLOCK
  5
22b
100
AcDbEntity
100
AcDbBlockBegin
  2
*TX152
  3
*TX
 10
0.0
 20
0.0
 70
65
  0
TEXT
  5
22c
100
AcDbEntity
  8
1
100
AcDbText
  6
CONTINUOUS
 62
1
 10
0.0
 20
0.0
 40
1.8
  1
Aenderung
 41
5.9524444E-001
 51
-2.104591E-004
100
AcDbText
  0
TEXT
  5
22d
100
AcDbEntity
  8
1
100
AcDbText
  6
CONTINUOUS
 62
1
 10
0.0
 20
-1.89
 40
1.8
  1
description
 41
5.9524444E-001
 51
-2.104591E-004
100
AcDbText
  0
ENDBLK
  5
22e
100
AcDbEntity
100
AcDbBlockEnd
  0
BLOCK
  5
22f
100
AcDbEntity
100
AcDbBlockBegin
  2
*TX153
  3
*TX
 10
0.0
 20
0.0
 70
65
  0
TEXT
  5
230
100
AcDbEntity
  8
1
100
AcDbText
  6
CONTINUOUS
 62
1
 10
0.0
 20
0.0
 40
1.8
  1
Stand
 41
5.714E-001
 51
-2.104591E-004
100
AcDbText
  0
TEXT
  5
231
100
AcDbEntity
  8
1
100
AcDbText
  6
CONTINUOUS
 62
1
 10
0.0
 20
-1.89
 40
1.8
  1
state
 41
5.714E-001
 51
-2.104591E-004
100
AcDbText
  0
ENDBLK
  5
232
100
AcDbEntity
100
AcDbBlockEnd
  0
BLOCK
  5
233
100
AcDbEntity
100
AcDbBlockBegin
  2
*TX154
  3
*TX
 10
0.0
 20
0.0
 70
65
  0
TEXT
  5
234
100
AcDbEntity
  8
1
100
AcDbText
  6
CONTINUOUS
 62
6
 10
0.0
 20
0.0
 40
1.8
  1
Blatt
 41
5.4288E-001
 51
-2.104591E-004
100
AcDbText
  0
TEXT
  5
235
100
AcDbEntity
  8
1
100
AcDbText
  6
CONTINUOUS
 62
6
 10
0.0
 20
-1.9
 40
1.8
  1
sheet No.
 41
5.4288E-001
 51
-2.104591E-004
100
AcDbText
  0
ENDBLK
  5
236
100
AcDbEntity
100
AcDbBlockEnd
  0
BLOCK
  5
237
100
AcDbEntity
100
AcDbBlockBegin
  2
_AH1
 70
0
 10
0.0
 20
0.0
  3
_AH1
  0
LINE
  5
238
100
AcDbEntity
  8
0
100
AcDbLine
  6
CONTINUOUS
 62
0
 10
-1.0
 20
1.66667E-001
 11
0.0
 21
0.0
  0
LINE
  5
239
100
AcDbEntity
  8
0
100
AcDbLine
  6
CONTINUOUS
 62
0
 10
0.0
 20
0.0
 11
-1.0
 21
-1.66667E-001
  0
LINE
  5
23a
100
AcDbEntity
  8
0
100
AcDbLine
  6
CONTINUOUS
 62
0
 10
-1.0
 20
1.66667E-001
 11
-1.0
 21
-1.66667E-001
  0
LINE
  5
23b
100
AcDbEntity
  8
0
100
AcDbLine
  6
CONTINUOUS
 62
0
 10
0.0
 20
0.0
 11
-1.0
 21
0.0
  0
ENDBLK
  5
23c
100
AcDbEntity
100
AcDbBlockEnd
  0
BLOCK
  5
23d
100
AcDbEntity
100
AcDbBlockBegin
  2
_AH2
 70
0
 10
0.0
 20
0.0
  3
_AH2
  0
LINE
  5
23e
100
AcDbEntity
  8
0
100
AcDbLine
  6
CONTINUOUS
 62
0
 10
-1.0
 20
1.66667E-001
 11
0.0
 21
0.0
  0
LINE
  5
23f
100
AcDbEntity
  8
0
100
AcDbLine
  6
CONTINUOUS
 62
0
 10
0.0
 20
0.0
 11
-1.0
 21
-1.66667E-001
  0
LINE
  5
240
100
AcDbEntity
  8
0
100
AcDbLine
  6
CONTINUOUS
 62
0
 10
0.0
 20
0.0
 11
-1.0
 21
0.0
  0
ENDBLK
  5
241
100
AcDbEntity
100
AcDbBlockEnd
  0
BLOCK
  5
242
100
AcDbEntity
100
AcDbBlockBegin
  2
*D210
  3
*D
 10
0.0
 20
0.0
 70
65
  0
LINE
  5
243
100
AcDbEntity
  8
2
100
AcDbLine
  6
CONTINUOUS
 62
3
 10
2.6702307E+002
 20
2.1153197E+002
 11
2.6702307E+002
 21
2.0107034E+002
  0
LINE
  5
244
100
AcDbEntity
  8
2
100
AcDbLine
  6
CONTINUOUS
 62
3
 10
8.1023066E+001
 20
2.1153197E+002
 11
8.1023066E+001
 21
2.0107034E+002
  0
LINE
  5
245
100
AcDbEntity
  8
2
100
AcDbLine
  6
CONTINUOUS
 62
3
 10
2.6702307E+002
 20
2.0407034E+002
 11
1.7402307E+002
 21
2.0407034E+002
  0
LINE
  5
246
100
AcDbEntity
  8
2
100
AcDbLine
  6
CONTINUOUS
 62
3
 10
8.1023066E+001
 20
2.0407034E+002
 11
1.7402307E+002
 21
2.0407034E+002
  0
TEXT
  5
247
100
AcDbEntity
  8
2
100
AcDbText
  6
CONTINUOUS
 62
3
 10
1.6712307E+002
 20
2.0557134E+002
 40
3.0
  1
186
 41
7.5E-001
 50
3.6E+002
100
AcDbText
  0
TEXT
  5
248
100
AcDbEntity
  8
2
100
AcDbText
  6
CONTINUOUS
 62
3
 10
1.7462307E+002
 20
2.0602134E+002
 40
2.1
  1
%%p0,2
 41
7.5E-001
 50
3.6E+002
100
AcDbText
  0
INSERT
  5
249
100
AcDbEntity
100
AcDbBlockReference
  2
_AH1
  8
2
 62
3
 10
2.6702307E+002
 20
2.0407034E+002
 41
3.0
 42
3.0
 43
3.0
 50
0.0
  0
INSERT
  5
24a
100
AcDbEntity
100
AcDbBlockReference
  2
_AH1
  8
2
 62
3
 10
8.1023066E+001
 20
2.0407034E+002
 41
3.0
 42
3.0
 43
3.0
 50
1.8E+002
  0
ENDBLK
  5
24b
100
AcDbEntity
100
AcDbBlockEnd
  0
BLOCK
  5
24c
100
AcDbEntity
100
AcDbBlockBegin
  2
*D217
  3
*D
 10
0.0
 20
0.0
 70
65
  0
LINE
  5
24d
100
AcDbEntity
  8
2
100
AcDbLine
  6
CONTINUOUS
 62
3
 10
2.6702307E+002
 20
2.1153197E+002
 11
2.6702307E+002
 21
2.0107034E+002
  0
LINE
  5
24e
100
AcDbEntity
  8
2
100
AcDbLine
  6
CONTINUOUS
 62
3
 10
2.7402307E+002
 20
2.1423197E+002
 11
2.7402307E+002
 21
2.0107034E+002
  0
LINE
  5
24f
100
AcDbEntity
  8
2
100
AcDbLine
  6
CONTINUOUS
 62
3
 10
2.6102307E+002
 20
2.0407034E+002
 11
2.6702307E+002
 21
2.0407034E+002
  0
LINE
  5
250
100
AcDbEntity
  8
2
100
AcDbLine
  6
CONTINUOUS
 62
3
 10
2.8002307E+002
 20
2.0407034E+002
 11
2.6702307E+002
 21
2.0407034E+002
  0
TEXT
  5
251
100
AcDbEntity
  8
2
100
AcDbText
  6
CONTINUOUS
 62
3
 10
2.6980131E+002
 20
2.0557134E+002
 40
3.0
  1
7
 41
7.5E-001
100
AcDbText
  0
INSERT
  5
252
100
AcDbEntity
100
AcDbBlockReference
  2
_AH1
  8
2
 62
3
 10
2.6702307E+002
 20
2.0407034E+002
 41
3.0
 42
3.0
 43
3.0
 50
0.0
  0
INSERT
  5
253
100
AcDbEntity
100
AcDbBlockReference
  2
_AH1
  8
2
 62
3
 10
2.7402307E+002
 20
2.0407034E+002
 41
3.0
 42
3.0
 43
3.0
 50
1.8E+002
  0
ENDBLK
  5
254
100
AcDbEntity
100
AcDbBlockEnd
  0
BLOCK
  5
255
100
AcDbEntity
100
AcDbBlockBegin
  2
*D218
  3
*D
 10
0.0
 20
0.0
 70
65
  0
LINE
  5
256
100
AcDbEntity
  8
2
100
AcDbLine
  6
CONTINUOUS
 62
3
 10
2.7402307E+002
 20
2.3923197E+002
 11
2.8845293E+002
 21
2.3923197E+002
  0
LINE
  5
257
100
AcDbEntity
  8
2
100
AcDbLine
  6
CONTINUOUS
 62
3
 10
2.7522307E+002
 20
2.3373197E+002
 11
2.8845293E+002
 21
2.3373197E+002
  0
LINE
  5
258
100
AcDbEntity
  8
2
100
AcDbLine
  6
CONTINUOUS
 62
3
 10
2.8545293E+002
 20
2.3923197E+002
 11
2.8545293E+002
 21
2.5186508E+002
  0
LINE
  5
259
100
AcDbEntity
  8
2
100
AcDbLine
  6
CONTINUOUS
 62
3
 10
2.8545293E+002
 20
2.2773197E+002
 11
2.8545293E+002
 21
2.3923197E+002
  0
TEXT
  5
25a
100
AcDbEntity
  8
2
100
AcDbText
  6
CONTINUOUS
 62
3
 10
2.8395193E+002
 20
2.4361508E+002
 40
3.0
  1
5,5
 41
7.5E-001
 50
9.0E+001
100
AcDbText
  0
INSERT
  5
25b
100
AcDbEntity
100
AcDbBlockReference
  2
_AH1
  8
2
 62
3
 10
2.8545293E+002
 20
2.3923197E+002
 41
3.0
 42
3.0
 43
3.0
 50
2.7E+002
  0
INSERT
  5
25c
100
AcDbEntity
100
AcDbBlockReference
  2
_AH1
  8
2
 62
3
 10
2.8545293E+002
 20
2.3373197E+002
 41
3.0
 42
3.0
 43
3.0
 50
9.0E+001
  0
ENDBLK
  5
25d
100
AcDbEntity
100
AcDbBlockEnd
  0
BLOCK
  5
25e
100
AcDbEntity
100
AcDbBlockBegin
  2
*D219
  3
*D
 10
0.0
 20
0.0
 70
65
  0
LINE
  5
25f
100
AcDbEntity
  8
2
100
AcDbLine
  6
CONTINUOUS
 62
3
 10
2.7522307E+002
 20
2.3373197E+002
 11
2.8845293E+002
 21
2.3373197E+002
  0
LINE
  5
260
100
AcDbEntity
  8
2
100
AcDbLine
  6
CONTINUOUS
 62
3
 10
2.7522307E+002
 20
2.1973197E+002
 11
2.8845293E+002
 21
2.1973197E+002
  0
LINE
  5
261
100
AcDbEntity
  8
2
100
AcDbLine
  6
CONTINUOUS
 62
3
 10
2.8545293E+002
 20
2.3373197E+002
 11
2.8545293E+002
 21
2.2715113E+002
  0
LINE
  5
262
100
AcDbEntity
  8
2
100
AcDbLine
  6
CONTINUOUS
 62
3
 10
2.8545293E+002
 20
2.1973197E+002
 11
2.8545293E+002
 21
2.2715113E+002
  0
TEXT
  5
263
100
AcDbEntity
  8
2
100
AcDbText
  6
CONTINUOUS
 62
3
 10
2.8395193E+002
 20
2.2490113E+002
 40
3.0
  1
14
 41
7.5E-001
 50
9.0E+001
100
AcDbText
  0
INSERT
  5
264
100
AcDbEntity
100
AcDbBlockReference
  2
_AH1
  8
2
 62
3
 10
2.8545293E+002
 20
2.3373197E+002
 41
3.0
 42
3.0
 43
3.0
 50
9.0E+001
  0
INSERT
  5
265
100
AcDbEntity
100
AcDbBlockReference
  2
_AH1
  8
2
 62
3
 10
2.8545293E+002
 20
2.1973197E+002
 41
3.0
 42
3.0
 43
3.0
 50
2.7E+002
  0
ENDBLK
  5
266
100
AcDbEntity
100
AcDbBlockEnd
  0
BLOCK
  5
267
100
AcDbEntity
100
AcDbBlockBegin
  2
*D220
  3
*D
 10
0.0
 20
0.0
 70
65
  0
LINE
  5
268
100
AcDbEntity
  8
2
100
AcDbLine
  6
CONTINUOUS
 62
3
 10
2.7402307E+002
 20
2.3923197E+002
 11
2.9960182E+002
 21
2.3923197E+002
  0
LINE
  5
269
100
AcDbEntity
  8
2
100
AcDbLine
  6
CONTINUOUS
 62
3
 10
2.7402307E+002
 20
2.1423197E+002
 11
2.9960182E+002
 21
2.1423197E+002
  0
LINE
  5
26a
100
AcDbEntity
  8
2
100
AcDbLine
  6
CONTINUOUS
 62
3
 10
2.9660182E+002
 20
2.3923197E+002
 11
2.9660182E+002
 21
2.269423E+002
  0
LINE
  5
26b
100
AcDbEntity
  8
2
100
AcDbLine
  6
CONTINUOUS
 62
3
 10
2.9660182E+002
 20
2.1423197E+002
 11
2.9660182E+002
 21
2.269423E+002
  0
TEXT
  5
26c
100
AcDbEntity
  8
2
100
AcDbText
  6
CONTINUOUS
 62
3
 10
2.9397582E+002
 20
2.211673E+002
 40
3.0
  1
25
 41
7.5E-001
 50
9.0E+001
100
AcDbText
  0
TEXT
  5
26d
100
AcDbEntity
  8
2
100
AcDbText
  6
CONTINUOUS
 62
3
 10
2.9510082E+002
 20
2.264173E+002
 40
2.1
  1
-0,2
 41
7.5E-001
 50
9.0E+001
100
AcDbText
  0
INSERT
  5
26e
100
AcDbEntity
100
AcDbBlockReference
  2
_AH1
  8
2
 62
3
 10
2.9660182E+002
 20
2.3923197E+002
 41
3.0
 42
3.0
 43
3.0
 50
9.0E+001
  0
INSERT
  5
26f
100
AcDbEntity
100
AcDbBlockReference
  2
_AH1
  8
2
 62
3
 10
2.9660182E+002
 20
2.1423197E+002
 41
3.0
 42
3.0
 43
3.0
 50
2.7E+002
  0
ENDBLK
  5
270
100
AcDbEntity
100
AcDbBlockEnd
  0
BLOCK
  5
271
100
AcDbEntity
100
AcDbBlockBegin
  2
*D221
  3
*D
 10
0.0
 20
0.0
 70
65
  0
LINE
  5
272
100
AcDbEntity
  8
2
100
AcDbLine
  6
CONTINUOUS
 62
3
 10
1.8227307E+002
 20
2.3923197E+002
 11
1.7135484E+002
 21
2.3923197E+002
  0
LINE
  5
273
100
AcDbEntity
  8
2
100
AcDbLine
  6
CONTINUOUS
 62
3
 10
1.7962307E+002
 20
2.2723197E+002
 11
1.7135484E+002
 21
2.2723197E+002
  0
LINE
  5
274
100
AcDbEntity
  8
2
100
AcDbLine
  6
CONTINUOUS
 62
3
 10
1.7435484E+002
 20
2.4523197E+002
 11
1.7435484E+002
 21
2.3923197E+002
  0
LINE
  5
275
100
AcDbEntity
  8
2
100
AcDbLine
  6
CONTINUOUS
 62
3
 10
1.7435484E+002
 20
2.2123197E+002
 11
1.7435484E+002
 21
2.3923197E+002
  0
TEXT
  5
276
100
AcDbEntity
  8
2
100
AcDbText
  6
CONTINUOUS
 62
3
 10
1.7285384E+002
 20
2.3116606E+002
 40
3.0
  1
12
 41
7.5E-001
 50
9.0E+001
100
AcDbText
  0
INSERT
  5
277
100
AcDbEntity
100
AcDbBlockReference
  2
_AH1
  8
2
 62
3
 10
1.7435484E+002
 20
2.3923197E+002
 41
3.0
 42
3.0
 43
3.0
 50
2.7E+002
  0
INSERT
  5
278
100
AcDbEntity
100
AcDbBlockReference
  2
_AH1
  8
2
 62
3
 10
1.7435484E+002
 20
2.2723197E+002
 41
3.0
 42
3.0
 43
3.0
 50
9.0E+001
  0
ENDBLK
  5
279
100
AcDbEntity
100
AcDbBlockEnd
  0
BLOCK
  5
27a
100
AcDbEntity
100
AcDbBlockBegin
  2
*D222
  3
*D
 10
0.0
 20
0.0
 70
65
  0
LINE
  5
27b
100
AcDbEntity
  8
2
100
AcDbLine
  6
CONTINUOUS
 62
3
 10
1.5802307E+002
 20
2.4740013E+002
 11
1.5802307E+002
 21
2.5079156E+002
  0
LINE
  5
27c
100
AcDbEntity
  8
2
100
AcDbLine
  6
CONTINUOUS
 62
3
 10
2.7402307E+002
 20
2.3923197E+002
 11
2.7402307E+002
 21
2.5079156E+002
  0
LINE
  5
27d
100
AcDbEntity
  8
2
100
AcDbLine
  6
CONTINUOUS
 62
3
 10
1.5802307E+002
 20
2.4779156E+002
 11
2.1805274E+002
 21
2.4779156E+002
  0
LINE
  5
27e
100
AcDbEntity
  8
2
100
AcDbLine
  6
CONTINUOUS
 62
3
 10
2.7402307E+002
 20
2.4779156E+002
 11
2.1805274E+002
 21
2.4779156E+002
  0
TEXT
  5
27f
100
AcDbEntity
  8
2
100
AcDbText
  6
CONTINUOUS
 62
3
 10
2.1115274E+002
 20
2.4929256E+002
 40
3.0
  1
116
 41
7.5E-001
100
AcDbText
  0
TEXT
  5
280
100
AcDbEntity
  8
2
100
AcDbText
  6
CONTINUOUS
 62
3
 10
2.1865274E+002
 20
2.4974256E+002
 40
2.1
  1
%%p0,2
 41
7.5E-001
100
AcDbText
  0
INSERT
  5
281
100
AcDbEntity
100
AcDbBlockReference
  2
_AH1
  8
2
 62
3
 10
1.5802307E+002
 20
2.4779156E+002
 41
3.0
 42
3.0
 43
3.0
 50
1.8E+002
  0
INSERT
  5
282
100
AcDbEntity
100
AcDbBlockReference
  2
_AH1
  8
2
 62
3
 10
2.7402307E+002
 20
2.4779156E+002
 41
3.0
 42
3.0
 43
3.0
 50
0.0
  0
ENDBLK
  5
283
100
AcDbEntity
100
AcDbBlockEnd
  0
BLOCK
  5
284
100
AcDbEntity
100
AcDbBlockBegin
  2
*D388
  3
*D
 10
0.0
 20
0.0
 70
65
  0
LINE
  5
285
100
AcDbEntity
  8
4
100
AcDbLine
  6
CONTINUOUS
 62
3
 10
2.7402307E+002
 20
1.4357624E+002
 11
2.8855939E+002
 21
1.4357624E+002
  0
LINE
  5
286
100
AcDbEntity
  8
4
100
AcDbLine
  6
CONTINUOUS
 62
3
 10
2.7402307E+002
 20
1.4057624E+002
 11
2.8855939E+002
 21
1.4057624E+002
  0
LINE
  5
287
100
AcDbEntity
  8
4
100
AcDbLine
  6
CONTINUOUS
 62
3
 10
2.8555939E+002
 20
1.4357624E+002
 11
2.8555939E+002
 21
1.5245271E+002
  0
LINE
  5
288
100
AcDbEntity
  8
4
100
AcDbLine
  6
CONTINUOUS
 62
3
 10
2.8555939E+002
 20
1.3457624E+002
 11
2.8555939E+002
 21
1.4357624E+002
  0
TEXT
  5
289
100
AcDbEntity
  8
4
100
AcDbText
  6
CONTINUOUS
 62
3
 10
2.8405839E+002
 20
1.4870271E+002
 40
3.0
  1
3
 41
7.5E-001
 50
9.0E+001
100
AcDbText
  0
INSERT
  5
28a
100
AcDbEntity
100
AcDbBlockReference
  2
_AH1
  8
4
 62
3
 10
2.8555939E+002
 20
1.4357624E+002
 41
3.0
 42
3.0
 43
3.0
 50
2.7E+002
  0
INSERT
  5
28b
100
AcDbEntity
100
AcDbBlockReference
  2
_AH1
  8
4
 62
3
 10
2.8555939E+002
 20
1.4057624E+002
 41
3.0
 42
3.0
 43
3.0
 50
9.0E+001
  0
ENDBLK
  5
28c
100
AcDbEntity
100
AcDbBlockEnd
  0
BLOCK
  5
28d
100
AcDbEntity
100
AcDbBlockBegin
  2
*D1365
  3
*D
 10
0.0
 20
0.0
 70
65
  0
LINE
  5
28e
100
AcDbEntity
  8
2
100
AcDbLine
  6
CONTINUOUS
 62
3
 10
2.7402307E+002
 20
2.3923197E+002
 11
2.7402307E+002
 21
2.5941258E+002
  0
LINE
  5
28f
100
AcDbEntity
  8
2
100
AcDbLine
  6
CONTINUOUS
 62
3
 10
7.4023066E+001
 20
2.3923197E+002
 11
7.4023066E+001
 21
2.5941258E+002
  0
LINE
  5
290
100
AcDbEntity
  8
2
100
AcDbLine
  6
CONTINUOUS
 62
3
 10
2.7402307E+002
 20
2.5641258E+002
 11
1.8005845E+002
 21
2.5641258E+002
  0
LINE
  5
291
100
AcDbEntity
  8
2
100
AcDbLine
  6
CONTINUOUS
 62
3
 10
7.4023066E+001
 20
2.5641258E+002
 11
1.8005845E+002
 21
2.5641258E+002
  0
TEXT
  5
292
100
AcDbEntity
  8
2
100
AcDbText
  6
CONTINUOUS
 62
3
 10
1.7315845E+002
 20
2.5903858E+002
 40
3.0
  1
200
 41
7.5E-001
 50
3.6E+002
100
AcDbText
  0
TEXT
  5
293
100
AcDbEntity
  8
2
100
AcDbText
  6
CONTINUOUS
 62
3
 10
1.8065845E+002
 20
2.5791358E+002
 40
2.1
  1
-0,5
 41
7.5E-001
 50
3.6E+002
100
AcDbText
  0
INSERT
  5
294
100
AcDbEntity
100
AcDbBlockReference
  2
_AH1
  8
2
 62
3
 10
2.7402307E+002
 20
2.5641258E+002
 41
3.0
 42
3.0
 43
3.0
 50
0.0
  0
INSERT
  5
295
100
AcDbEntity
100
AcDbBlockReference
  2
_AH1
  8
2
 62
3
 10
7.4023066E+001
 20
2.5641258E+002
 41
3.0
 42
3.0
 43
3.0
 50
1.8E+002
  0
ENDBLK
  5
296
100
AcDbEntity
100
AcDbBlockEnd
  0
BLOCK
  5
297
100
AcDbEntity
100
AcDbBlockBegin
  2
*D1366
  3
*D
 10
0.0
 20
0.0
 70
65
  0
LINE
  5
298
100
AcDbEntity
  8
2
100
AcDbLine
  6
CONTINUOUS
 62
3
 10
8.1023066E+001
 20
2.3638197E+002
 11
6.1799076E+001
 21
2.3638197E+002
  0
LINE
  5
299
100
AcDbEntity
  8
2
100
AcDbLine
  6
CONTINUOUS
 62
3
 10
8.1023066E+001
 20
2.3108197E+002
 11
6.1799076E+001
 21
2.3108197E+002
  0
LINE
  5
29a
100
AcDbEntity
  8
2
100
AcDbLine
  6
CONTINUOUS
 62
3
 10
6.4799076E+001
 20
2.3638197E+002
 11
6.4799076E+001
 21
2.5196798E+002
  0
LINE
  5
29b
100
AcDbEntity
  8
2
100
AcDbLine
  6
CONTINUOUS
 62
3
 10
6.4799076E+001
 20
2.2508197E+002
 11
6.4799076E+001
 21
2.3638197E+002
  0
TEXT
  5
29c
100
AcDbEntity
  8
2
100
AcDbText
  6
CONTINUOUS
 62
3
 10
6.3298076E+001
 20
2.4146798E+002
 40
3.0
  1
%%c5,3
 41
7.5E-001
 50
9.0E+001
100
AcDbText
  0
INSERT
  5
29d
100
AcDbEntity
100
AcDbBlockReference
  2
_AH1
  8
2
 62
3
 10
6.4799076E+001
 20
2.3638197E+002
 41
3.0
 42
3.0
 43
3.0
 50
2.7E+002
  0
INSERT
  5
29e
100
AcDbEntity
100
AcDbBlockReference
  2
_AH1
  8
2
 62
3
 10
6.4799076E+001
 20
2.3108197E+002
 41
3.0
 42
3.0
 43
3.0
 50
9.0E+001
  0
ENDBLK
  5
29f
100
AcDbEntity
100
AcDbBlockEnd
  0
BLOCK
  5
2a0
100
AcDbEntity
100
AcDbBlockBegin
  2
*D1368
  3
*D
 10
0.0
 20
0.0
 70
65
  0
LINE
  5
2a1
100
AcDbEntity
  8
2
100
AcDbLine
  6
CONTINUOUS
 62
3
 10
8.1023066E+001
 20
2.3893197E+002
 11
5.2624806E+001
 21
2.3893197E+002
  0
LINE
  5
2a2
100
AcDbEntity
  8
2
100
AcDbLine
  6
CONTINUOUS
 62
3
 10
8.1023066E+001
 20
2.2853197E+002
 11
5.2624806E+001
 21
2.2853197E+002
  0
LINE
  5
2a3
100
AcDbEntity
  8
2
100
AcDbLine
  6
CONTINUOUS
 62
3
 10
5.5624806E+001
 20
2.3893197E+002
 11
5.5624806E+001
 21
2.5553087E+002
  0
LINE
  5
2a4
100
AcDbEntity
  8
2
100
AcDbLine
  6
CONTINUOUS
 62
3
 10
5.5624806E+001
 20
2.2253197E+002
 11
5.5624806E+001
 21
2.3893197E+002
  0
TEXT
  5
2a5
100
AcDbEntity
  8
2
100
AcDbText
  6
CONTINUOUS
 62
3
 10
5.4123806E+001
 20
2.4278087E+002
 40
3.0
  1
%%c10,4
 41
7.5E-001
 50
9.0E+001
100
AcDbText
  0
INSERT
  5
2a6
100
AcDbEntity
100
AcDbBlockReference
  2
_AH1
  8
2
 62
3
 10
5.5624806E+001
 20
2.3893197E+002
 41
3.0
 42
3.0
 43
3.0
 50
2.7E+002
  0
INSERT
  5
2a7
100
AcDbEntity
100
AcDbBlockReference
  2
_AH1
  8
2
 62
3
 10
5.5624806E+001
 20
2.2853197E+002
 41
3.0
 42
3.0
 43
3.0
 50
9.0E+001
  0
ENDBLK
  5
2a8
100
AcDbEntity
100
AcDbBlockEnd
  0
BLOCK
  5
2a9
100
AcDbEntity
100
AcDbBlockBegin
  2
*D1369
  3
*D
 10
0.0
 20
0.0
 70
65
  0
LINE
  5
2aa
100
AcDbEntity
  8
2
100
AcDbLine
  6
CONTINUOUS
 62
3
 10
7.7315321E+001
 20
2.3737788E+002
 11
6.8249997E+001
 21
2.6189042E+002
  0
LINE
  5
2ab
100
AcDbEntity
  8
2
100
AcDbLine
  6
CONTINUOUS
 62
3
 10
7.7315321E+001
 20
2.3737788E+002
 11
7.6743688E+001
 21
2.4036505E+002
  0
LINE
  5
2ac
100
AcDbEntity
  8
2
100
AcDbLine
  6
CONTINUOUS
 62
3
 10
7.7315321E+001
 20
2.3737788E+002
 11
7.5805773E+001
 21
2.4001819E+002
  0
LINE
  5
2ad
100
AcDbEntity
  8
2
100
AcDbLine
  6
CONTINUOUS
 62
3
 10
7.6743688E+001
 20
2.4036505E+002
 11
7.5805773E+001
 21
2.4001819E+002
  0
LINE
  5
2ae
100
AcDbEntity
  8
2
100
AcDbLine
  6
CONTINUOUS
 62
3
 10
3.7499997E+001
 20
2.6189042E+002
 11
6.8249997E+001
 21
2.6189042E+002
  0
TEXT
  5
2af
100
AcDbEntity
  8
2
100
AcDbText
  6
CONTINUOUS
 62
3
 10
3.8999997E+001
 20
2.6339042E+002
 40
3.0
  1
Senkung 90°
 41
7.5E-001
100
AcDbText
  0
ENDBLK
  5
2b0
100
AcDbEntity
100
AcDbBlockEnd
  0
ENDSEC
  0
SECTION
  2
ENTITIES
  0
CIRCLE
  5
2b1
100
AcDbEntity
  8
2
100
AcDbCircle
  6
CONTINUOUS
 62
6
 10
2.6702307E+002
 20
2.3373197E+002
 40
5.2
  0
CIRCLE
  5
2b2
100
AcDbEntity
  8
2
100
AcDbCircle
  6
CONTINUOUS
 62
6
 10
2.6702307E+002
 20
2.3373197E+002
 40
2.65
  0
CIRCLE
  5
2b3
100
AcDbEntity
  8
2
100
AcDbCircle
  6
CONTINUOUS
 62
6
 10
1.8802307E+002
 20
2.2723197E+002
 40
5.2
  0
CIRCLE
  5
2b4
100
AcDbEntity
  8
2
100
AcDbCircle
  6
CONTINUOUS
 62
6
 10
1.8802307E+002
 20
2.2723197E+002
 40
2.65
  0
CIRCLE
  5
2b5
100
AcDbEntity
  8
2
100
AcDbCircle
  6
CONTINUOUS
 62
6
 10
1.1602307E+002
 20
2.2723197E+002
 40
5.2
  0
CIRCLE
  5
2b6
100
AcDbEntity
  8
2
100
AcDbCircle
  6
CONTINUOUS
 62
6
 10
1.1602307E+002
 20
2.2723197E+002
 40
2.65
  0
CIRCLE
  5
2b7
100
AcDbEntity
  8
2
100
AcDbCircle
  6
CONTINUOUS
 62
6
 10
8.1023066E+001
 20
2.3373197E+002
 40
5.2
  0
CIRCLE
  5
2b8
100
AcDbEntity
  8
2
100
AcDbCircle
  6
CONTINUOUS
 62
6
 10
8.1023066E+001
 20
2.3373197E+002
 40
2.65
  0
LINE
  5
2b9
100
AcDbEntity
  8
2
100
AcDbLine
  6
CONTINUOUS
 62
1
 10
2.7402307E+002
 20
2.3923197E+002
 11
2.7402307E+002
 21
2.1423197E+002
  0
LINE
  5
2ba
100
AcDbEntity
  8
2
100
AcDbLine
  6
CONTINUOUS
 62
1
 10
7.4023066E+001
 20
2.1423197E+002
 11
7.4023066E+001
 21
2.3923197E+002
  0
LINE
  5
2bb
100
AcDbEntity
  8
2
100
AcDbLine
  6
CONTINUOUS
 62
1
 10
7.4023066E+001
 20
2.1423197E+002
 11
2.7402307E+002
 21
2.1423197E+002
  0
LINE
  5
2bc
100
AcDbEntity
  8
2
100
AcDbLine
  6
CONTINUOUS
 62
1
 10
7.4023066E+001
 20
2.3923197E+002
 11
1.3377307E+002
 21
2.3923197E+002
  0
LINE
  5
2bd
100
AcDbEntity
  8
2
100
AcDbLine
  6
CONTINUOUS
 62
1
 10
1.8227307E+002
 20
2.3923197E+002
 11
2.7402307E+002
 21
2.3923197E+002
  0
LINE
  5
2be
100
AcDbEntity
  8
2
100
AcDbLine
  6
CONTINUOUS
 62
6
 10
1.3377307E+002
 20
2.2023197E+002
 11
1.8227307E+002
 21
2.2023197E+002
  0
LINE
  5
2bf
100
AcDbEntity
  8
2
100
AcDbLine
  6
CONTINUOUS
 62
6
 10
1.3377307E+002
 20
2.3923197E+002
 11
1.3377307E+002
 21
2.2023197E+002
  0
LINE
  5
2c0
100
AcDbEntity
  8
2
100
AcDbLine
  6
CONTINUOUS
 62
6
 10
1.8227307E+002
 20
2.2023197E+002
 11
1.8227307E+002
 21
2.3923197E+002
  0
CIRCLE
  5
2c1
100
AcDbEntity
  8
2
100
AcDbCircle
  6
CONTINUOUS
 62
6
 10
8.1023066E+001
 20
2.1973197E+002
 40
2.65
  0
CIRCLE
  5
2c2
100
AcDbEntity
  8
2
100
AcDbCircle
  6
CONTINUOUS
 62
6
 10
8.1023066E+001
 20
2.1973197E+002
 40
5.2
  0
CIRCLE
  5
2c3
100
AcDbEntity
  8
2
100
AcDbCircle
  6
CONTINUOUS
 62
6
 10
1.2802307E+002
 20
2.2723197E+002
 40
2.65
  0
CIRCLE
  5
2c4
100
AcDbEntity
  8
2
100
AcDbCircle
  6
CONTINUOUS
 62
6
 10
1.2802307E+002
 20
2.2723197E+002
 40
5.2
  0
CIRCLE
  5
2c5
100
AcDbEntity
  8
2
100
AcDbCircle
  6
CONTINUOUS
 62
6
 10
2.4102307E+002
 20
2.2723197E+002
 40
2.65
  0
CIRCLE
  5
2c6
100
AcDbEntity
  8
2
100
AcDbCircle
  6
CONTINUOUS
 62
6
 10
2.4102307E+002
 20
2.2723197E+002
 40
5.2
  0
CIRCLE
  5
2c7
100
AcDbEntity
  8
2
100
AcDbCircle
  6
CONTINUOUS
 62
6
 10
2.6702307E+002
 20
2.1973197E+002
 40
2.65
  0
CIRCLE
  5
2c8
100
AcDbEntity
  8
2
100
AcDbCircle
  6
CONTINUOUS
 62
6
 10
2.6702307E+002
 20
2.1973197E+002
 40
5.2
  0
LINE
  5
2c9
100
AcDbEntity
  8
4
100
AcDbLine
  6
CONTINUOUS
 62
1
 10
2.7402307E+002
 20
1.4357624E+002
 11
2.7402307E+002
 21
1.4057624E+002
  0
LINE
  5
2ca
100
AcDbEntity
  8
4
100
AcDbLine
  6
CONTINUOUS
 62
1
 10
7.4023066E+001
 20
1.4357624E+002
 11
7.4023066E+001
 21
1.4057624E+002
  0
LINE
  5
2cb
100
AcDbEntity
  8
4
100
AcDbLine
  6
CONTINUOUS
 62
1
 10
1.3377307E+002
 20
1.4357624E+002
 11
1.3377307E+002
 21
1.4057624E+002
  0
LINE
  5
2cc
100
AcDbEntity
  8
4
100
AcDbLine
  6
CONTINUOUS
 62
1
 10
1.8227307E+002
 20
1.4057624E+002
 11
1.8227307E+002
 21
1.4357624E+002
  0
LINE
  5
2cd
100
AcDbEntity
  8
4
100
AcDbLine
  6
CONTINUOUS
 62
1
 10
1.8227307E+002
 20
1.4357624E+002
 11
1.3377307E+002
 21
1.4357624E+002
  0
LINE
  5
2ce
100
AcDbEntity
  8
4
100
AcDbLine
  6
CONTINUOUS
 62
1
 10
1.3377307E+002
 20
1.4357624E+002
 11
7.4023066E+001
 21
1.4357624E+002
  0
LINE
  5
2cf
100
AcDbEntity
  8
4
100
AcDbLine
  6
CONTINUOUS
 62
1
 10
2.7402307E+002
 20
1.4357624E+002
 11
1.8227307E+002
 21
1.4357624E+002
  0
LINE
  5
2d0
100
AcDbEntity
  8
4
100
AcDbLine
  6
CONTINUOUS
 62
6
 10
1.3377307E+002
 20
1.4057624E+002
 11
1.8227307E+002
 21
1.4057624E+002
  0
LINE
  5
2d1
100
AcDbEntity
  8
4
100
AcDbLine
  6
CONTINUOUS
 62
1
 10
1.8227307E+002
 20
1.4057624E+002
 11
2.7402307E+002
 21
1.4057624E+002
  0
LINE
  5
2d2
100
AcDbEntity
  8
4
100
AcDbLine
  6
CONTINUOUS
 62
1
 10
7.4023066E+001
 20
1.4057624E+002
 11
1.3377307E+002
 21
1.4057624E+002
  0
LINE
  5
2d3
100
AcDbEntity
  8
4
100
AcDbLine
  6
HIDDEN
 62
6
 10
2.7222306E+002
 20
1.4087623E+002
 11
2.7222306E+002
 21
1.4057625E+002
  0
LINE
  5
2d4
100
AcDbEntity
  8
4
100
AcDbLine
  6
HIDDEN
 62
6
 10
2.6182306E+002
 20
1.4087623E+002
 11
2.6182306E+002
 21
1.4057625E+002
  0
LINE
  5
2d5
100
AcDbEntity
  8
4
100
AcDbLine
  6
HIDDEN
 62
6
 10
2.7222306E+002
 20
1.4087623E+002
 11
2.6182306E+002
 21
1.4087623E+002
  0
LINE
  5
2d6
100
AcDbEntity
  8
4
100
AcDbLine
  6
HIDDEN
 62
6
 10
2.6437307E+002
 20
1.4357622E+002
 11
2.6437307E+002
 21
1.4342623E+002
  0
LINE
  5
2d7
100
AcDbEntity
  8
4
100
AcDbLine
  6
HIDDEN
 62
6
 10
2.6967306E+002
 20
1.4342623E+002
 11
2.6437307E+002
 21
1.4342623E+002
  0
LINE
  5
2d8
100
AcDbEntity
  8
4
100
AcDbLine
  6
HIDDEN
 62
6
 10
2.6967306E+002
 20
1.4357622E+002
 11
2.6967306E+002
 21
1.4342623E+002
  0
LINE
  5
2d9
100
AcDbEntity
  8
4
100
AcDbLine
  6
HIDDEN
 62
6
 10
2.6967306E+002
 20
1.4342623E+002
 11
2.7222306E+002
 21
1.4087623E+002
  0
LINE
  5
2da
100
AcDbEntity
  8
4
100
AcDbLine
  6
CENTERLINE
 62
3
 10
8.1023059E+001
 20
1.4675189E+002
 11
8.1023059E+001
 21
1.3632222E+002
  0
LINE
  5
2db
100
AcDbEntity
  8
4
100
AcDbLine
  6
CENTERLINE
 62
3
 10
1.1602307E+002
 20
1.4685515E+002
 11
1.1602307E+002
 21
1.3699344E+002
  0
LINE
  5
2dc
100
AcDbEntity
  8
4
100
AcDbLine
  6
CENTERLINE
 62
3
 10
1.2802305E+002
 20
1.4716494E+002
 11
1.2802305E+002
 21
1.3678691E+002
  0
LINE
  5
2dd
100
AcDbEntity
  8
4
100
AcDbLine
  6
CENTERLINE
 62
3
 10
1.8802309E+002
 20
1.4752637E+002
 11
1.8802309E+002
 21
1.3694181E+002
  0
LINE
  5
2de
100
AcDbEntity
  8
4
100
AcDbLine
  6
CENTERLINE
 62
3
 10
2.4102306E+002
 20
1.4788779E+002
 11
2.4102306E+002
 21
1.3663202E+002
  0
LINE
  5
2df
100
AcDbEntity
  8
4
100
AcDbLine
  6
CENTERLINE
 62
3
 10
2.6702306E+002
 20
1.4793942E+002
 11
2.6702306E+002
 21
1.3673528E+002
  0
LINE
  5
2e0
100
AcDbEntity
  8
4
100
AcDbLine
  6
HIDDEN
 62
6
 10
2.6437307E+002
 20
1.4342623E+002
 11
2.6182306E+002
 21
1.4087623E+002
  0
LINE
  5
2e1
100
AcDbEntity
  8
4
100
AcDbLine
  6
HIDDEN
 62
6
 10
1.9322309E+002
 20
1.4087623E+002
 11
1.9322309E+002
 21
1.4057625E+002
  0
LINE
  5
2e2
100
AcDbEntity
  8
4
100
AcDbLine
  6
HIDDEN
 62
6
 10
1.8282309E+002
 20
1.4087623E+002
 11
1.8282309E+002
 21
1.4057625E+002
  0
LINE
  5
2e3
100
AcDbEntity
  8
4
100
AcDbLine
  6
HIDDEN
 62
6
 10
1.9322309E+002
 20
1.4087623E+002
 11
1.8282309E+002
 21
1.4087623E+002
  0
LINE
  5
2e4
100
AcDbEntity
  8
4
100
AcDbLine
  6
HIDDEN
 62
6
 10
1.8537309E+002
 20
1.4357622E+002
 11
1.8537309E+002
 21
1.4342623E+002
  0
LINE
  5
2e5
100
AcDbEntity
  8
4
100
AcDbLine
  6
HIDDEN
 62
6
 10
1.9067308E+002
 20
1.4342623E+002
 11
1.8537309E+002
 21
1.4342623E+002
  0
LINE
  5
2e6
100
AcDbEntity
  8
4
100
AcDbLine
  6
HIDDEN
 62
6
 10
1.9067308E+002
 20
1.4357622E+002
 11
1.9067308E+002
 21
1.4342623E+002
  0
LINE
  5
2e7
100
AcDbEntity
  8
4
100
AcDbLine
  6
HIDDEN
 62
6
 10
1.9067308E+002
 20
1.4342623E+002
 11
1.9322309E+002
 21
1.4087623E+002
  0
LINE
  5
2e8
100
AcDbEntity
  8
4
100
AcDbLine
  6
HIDDEN
 62
6
 10
1.8537309E+002
 20
1.4342623E+002
 11
1.8282309E+002
 21
1.4087623E+002
  0
LINE
  5
2e9
100
AcDbEntity
  8
4
100
AcDbLine
  6
HIDDEN
 62
6
 10
1.2122307E+002
 20
1.4087623E+002
 11
1.2122307E+002
 21
1.4057625E+002
  0
LINE
  5
2ea
100
AcDbEntity
  8
4
100
AcDbLine
  6
HIDDEN
 62
6
 10
1.1082307E+002
 20
1.4087623E+002
 11
1.1082307E+002
 21
1.4057625E+002
  0
LINE
  5
2eb
100
AcDbEntity
  8
4
100
AcDbLine
  6
HIDDEN
 62
6
 10
1.2122307E+002
 20
1.4087623E+002
 11
1.1082307E+002
 21
1.4087623E+002
  0
LINE
  5
2ec
100
AcDbEntity
  8
4
100
AcDbLine
  6
HIDDEN
 62
6
 10
1.1337307E+002
 20
1.4357622E+002
 11
1.1337307E+002
 21
1.4342623E+002
  0
LINE
  5
2ed
100
AcDbEntity
  8
4
100
AcDbLine
  6
HIDDEN
 62
6
 10
1.1867307E+002
 20
1.4342623E+002
 11
1.1337307E+002
 21
1.4342623E+002
  0
LINE
  5
2ee
100
AcDbEntity
  8
4
100
AcDbLine
  6
HIDDEN
 62
6
 10
1.1867307E+002
 20
1.4357622E+002
 11
1.1867307E+002
 21
1.4342623E+002
  0
LINE
  5
2ef
100
AcDbEntity
  8
4
100
AcDbLine
  6
HIDDEN
 62
6
 10
1.1867307E+002
 20
1.4342623E+002
 11
1.2122307E+002
 21
1.4087623E+002
  0
LINE
  5
2f0
100
AcDbEntity
  8
4
100
AcDbLine
  6
HIDDEN
 62
6
 10
1.1337307E+002
 20
1.4342623E+002
 11
1.1082307E+002
 21
1.4087623E+002
  0
LINE
  5
2f1
100
AcDbEntity
  8
4
100
AcDbLine
  6
HIDDEN
 62
6
 10
8.6223059E+001
 20
1.4087623E+002
 11
8.6223059E+001
 21
1.4057625E+002
  0
LINE
  5
2f2
100
AcDbEntity
  8
4
100
AcDbLine
  6
HIDDEN
 62
6
 10
7.5823058E+001
 20
1.4087623E+002
 11
7.5823058E+001
 21
1.4057625E+002
  0
LINE
  5
2f3
100
AcDbEntity
  8
2
100
AcDbLine
  6
CONTINUOUS
 62
3
 10
8.4023066E+001
 20
2.3373197E+002
 11
7.8023066E+001
 21
2.3373197E+002
  0
LINE
  5
2f4
100
AcDbEntity
  8
2
100
AcDbLine
  6
CONTINUOUS
 62
3
 10
8.1023066E+001
 20
2.3673197E+002
 11
8.1023066E+001
 21
2.3073197E+002
  0
LINE
  5
2f5
100
AcDbEntity
  8
2
100
AcDbLine
  6
CONTINUOUS
 62
3
 10
8.5523066E+001
 20
2.3373197E+002
 11
8.9223066E+001
 21
2.3373197E+002
  0
LINE
  5
2f6
100
AcDbEntity
  8
2
100
AcDbLine
  6
CONTINUOUS
 62
3
 10
8.1023066E+001
 20
2.3823197E+002
 11
8.1023066E+001
 21
2.4193197E+002
  0
LINE
  5
2f7
100
AcDbEntity
  8
2
100
AcDbLine
  6
CONTINUOUS
 62
3
 10
7.6523066E+001
 20
2.3373197E+002
 11
7.2823066E+001
 21
2.3373197E+002
  0
LINE
  5
2f8
100
AcDbEntity
  8
2
100
AcDbLine
  6
CONTINUOUS
 62
3
 10
8.1023066E+001
 20
2.2923197E+002
 11
8.1023066E+001
 21
2.2553197E+002
  0
LINE
  5
2f9
100
AcDbEntity
  8
2
100
AcDbLine
  6
CONTINUOUS
 62
3
 10
8.4023066E+001
 20
2.1973197E+002
 11
7.8023066E+001
 21
2.1973197E+002
  0
LINE
  5
2fa
100
AcDbEntity
  8
2
100
AcDbLine
  6
CONTINUOUS
 62
3
 10
8.1023066E+001
 20
2.2273197E+002
 11
8.1023066E+001
 21
2.1673197E+002
  0
LINE
  5
2fb
100
AcDbEntity
  8
2
100
AcDbLine
  6
CONTINUOUS
 62
3
 10
8.5523066E+001
 20
2.1973197E+002
 11
8.9223066E+001
 21
2.1973197E+002
  0
LINE
  5
2fc
100
AcDbEntity
  8
2
100
AcDbLine
  6
CONTINUOUS
 62
3
 10
8.1023066E+001
 20
2.2423197E+002
 11
8.1023066E+001
 21
2.2793197E+002
  0
LINE
  5
2fd
100
AcDbEntity
  8
2
100
AcDbLine
  6
CONTINUOUS
 62
3
 10
7.6523066E+001
 20
2.1973197E+002
 11
7.2823066E+001
 21
2.1973197E+002
  0
LINE
  5
2fe
100
AcDbEntity
  8
2
100
AcDbLine
  6
CONTINUOUS
 62
3
 10
8.1023066E+001
 20
2.1523197E+002
 11
8.1023066E+001
 21
2.1153197E+002
  0
LINE
  5
2ff
100
AcDbEntity
  8
2
100
AcDbLine
  6
CONTINUOUS
 62
3
 10
1.1902307E+002
 20
2.2723197E+002
 11
1.1302307E+002
 21
2.2723197E+002
  0
LINE
  5
300
100
AcDbEntity
  8
2
100
AcDbLine
  6
CONTINUOUS
 62
3
 10
1.1602307E+002
 20
2.3023197E+002
 11
1.1602307E+002
 21
2.2423197E+002
  0
LINE
  5
301
100
AcDbEntity
  8
2
100
AcDbLine
  6
CONTINUOUS
 62
3
 10
1.2052307E+002
 20
2.2723197E+002
 11
1.2442307E+002
 21
2.2723197E+002
  0
LINE
  5
302
100
AcDbEntity
  8
2
100
AcDbLine
  6
CONTINUOUS
 62
3
 10
1.1602307E+002
 20
2.3173197E+002
 11
1.1602307E+002
 21
2.3563197E+002
  0
LINE
  5
303
100
AcDbEntity
  8
2
100
AcDbLine
  6
CONTINUOUS
 62
3
 10
1.1152307E+002
 20
2.2723197E+002
 11
1.0762307E+002
 21
2.2723197E+002
  0
LINE
  5
304
100
AcDbEntity
  8
2
100
AcDbLine
  6
CONTINUOUS
 62
3
 10
1.1602307E+002
 20
2.2273197E+002
 11
1.1602307E+002
 21
2.1883197E+002
  0
LINE
  5
305
100
AcDbEntity
  8
2
100
AcDbLine
  6
CONTINUOUS
 62
3
 10
1.3102307E+002
 20
2.2723197E+002
 11
1.2502307E+002
 21
2.2723197E+002
  0
LINE
  5
306
100
AcDbEntity
  8
2
100
AcDbLine
  6
CONTINUOUS
 62
3
 10
1.2802307E+002
 20
2.3023197E+002
 11
1.2802307E+002
 21
2.2423197E+002
  0
LINE
  5
307
100
AcDbEntity
  8
2
100
AcDbLine
  6
CONTINUOUS
 62
3
 10
1.3252307E+002
 20
2.2723197E+002
 11
1.3642307E+002
 21
2.2723197E+002
  0
LINE
  5
308
100
AcDbEntity
  8
2
100
AcDbLine
  6
CONTINUOUS
 62
3
 10
1.2802307E+002
 20
2.3173197E+002
 11
1.2802307E+002
 21
2.3563197E+002
  0
LINE
  5
309
100
AcDbEntity
  8
2
100
AcDbLine
  6
CONTINUOUS
 62
3
 10
1.2352307E+002
 20
2.2723197E+002
 11
1.1962307E+002
 21
2.2723197E+002
  0
LINE
  5
30a
100
AcDbEntity
  8
2
100
AcDbLine
  6
CONTINUOUS
 62
3
 10
1.2802307E+002
 20
2.2273197E+002
 11
1.2802307E+002
 21
2.1883197E+002
  0
LINE
  5
30b
100
AcDbEntity
  8
2
100
AcDbLine
  6
CONTINUOUS
 62
3
 10
1.9102307E+002
 20
2.2723197E+002
 11
1.8502307E+002
 21
2.2723197E+002
  0
LINE
  5
30c
100
AcDbEntity
  8
2
100
AcDbLine
  6
CONTINUOUS
 62
3
 10
1.8802307E+002
 20
2.3023197E+002
 11
1.8802307E+002
 21
2.2423197E+002
  0
LINE
  5
30d
100
AcDbEntity
  8
2
100
AcDbLine
  6
CONTINUOUS
 62
3
 10
1.9252307E+002
 20
2.2723197E+002
 11
1.9642307E+002
 21
2.2723197E+002
  0
LINE
  5
30e
100
AcDbEntity
  8
2
100
AcDbLine
  6
CONTINUOUS
 62
3
 10
1.8802307E+002
 20
2.3173197E+002
 11
1.8802307E+002
 21
2.3563197E+002
  0
LINE
  5
30f
100
AcDbEntity
  8
2
100
AcDbLine
  6
CONTINUOUS
 62
3
 10
1.8352307E+002
 20
2.2723197E+002
 11
1.7962307E+002
 21
2.2723197E+002
  0
LINE
  5
310
100
AcDbEntity
  8
2
100
AcDbLine
  6
CONTINUOUS
 62
3
 10
1.8802307E+002
 20
2.2273197E+002
 11
1.8802307E+002
 21
2.1883197E+002
  0
LINE
  5
311
100
AcDbEntity
  8
2
100
AcDbLine
  6
CONTINUOUS
 62
3
 10
2.4402307E+002
 20
2.2723197E+002
 11
2.3802307E+002
 21
2.2723197E+002
  0
LINE
  5
312
100
AcDbEntity
  8
2
100
AcDbLine
  6
CONTINUOUS
 62
3
 10
2.4102307E+002
 20
2.3023197E+002
 11
2.4102307E+002
 21
2.2423197E+002
  0
LINE
  5
313
100
AcDbEntity
  8
2
100
AcDbLine
  6
CONTINUOUS
 62
3
 10
2.4552307E+002
 20
2.2723197E+002
 11
2.4942307E+002
 21
2.2723197E+002
  0
LINE
  5
314
100
AcDbEntity
  8
2
100
AcDbLine
  6
CONTINUOUS
 62
3
 10
2.4102307E+002
 20
2.3173197E+002
 11
2.4102307E+002
 21
2.3563197E+002
  0
LINE
  5
315
100
AcDbEntity
  8
2
100
AcDbLine
  6
CONTINUOUS
 62
3
 10
2.3652307E+002
 20
2.2723197E+002
 11
2.3262307E+002
 21
2.2723197E+002
  0
LINE
  5
316
100
AcDbEntity
  8
2
100
AcDbLine
  6
CONTINUOUS
 62
3
 10
2.4102307E+002
 20
2.2273197E+002
 11
2.4102307E+002
 21
2.1883197E+002
  0
LINE
  5
317
100
AcDbEntity
  8
2
100
AcDbLine
  6
CONTINUOUS
 62
3
 10
2.7002307E+002
 20
2.3373197E+002
 11
2.6402307E+002
 21
2.3373197E+002
  0
LINE
  5
318
100
AcDbEntity
  8
2
100
AcDbLine
  6
CONTINUOUS
 62
3
 10
2.6702307E+002
 20
2.3673197E+002
 11
2.6702307E+002
 21
2.3073197E+002
  0
LINE
  5
319
100
AcDbEntity
  8
2
100
AcDbLine
  6
CONTINUOUS
 62
3
 10
2.7152307E+002
 20
2.3373197E+002
 11
2.7522307E+002
 21
2.3373197E+002
  0
LINE
  5
31a
100
AcDbEntity
  8
2
100
AcDbLine
  6
CONTINUOUS
 62
3
 10
2.6702307E+002
 20
2.3823197E+002
 11
2.6702307E+002
 21
2.4193197E+002
  0
LINE
  5
31b
100
AcDbEntity
  8
2
100
AcDbLine
  6
CONTINUOUS
 62
3
 10
2.6252307E+002
 20
2.3373197E+002
 11
2.5882307E+002
 21
2.3373197E+002
  0
LINE
  5
31c
100
AcDbEntity
  8
2
100
AcDbLine
  6
CONTINUOUS
 62
3
 10
2.6702307E+002
 20
2.2923197E+002
 11
2.6702307E+002
 21
2.2553197E+002
  0
LINE
  5
31d
100
AcDbEntity
  8
2
100
AcDbLine
  6
CONTINUOUS
 62
3
 10
2.7002307E+002
 20
2.1973197E+002
 11
2.6402307E+002
 21
2.1973197E+002
  0
LINE
  5
31e
100
AcDbEntity
  8
2
100
AcDbLine
  6
CONTINUOUS
 62
3
 10
2.6702307E+002
 20
2.2273197E+002
 11
2.6702307E+002
 21
2.1673197E+002
  0
LINE
  5
31f
100
AcDbEntity
  8
2
100
AcDbLine
  6
CONTINUOUS
 62
3
 10
2.7152307E+002
 20
2.1973197E+002
 11
2.7522307E+002
 21
2.1973197E+002
  0
LINE
  5
320
100
AcDbEntity
  8
2
100
AcDbLine
  6
CONTINUOUS
 62
3
 10
2.6702307E+002
 20
2.2423197E+002
 11
2.6702307E+002
 21
2.2793197E+002
  0
LINE
  5
321
100
AcDbEntity
  8
2
100
AcDbLine
  6
CONTINUOUS
 62
3
 10
2.6252307E+002
 20
2.1973197E+002
 11
2.5882307E+002
 21
2.1973197E+002
  0
LINE
  5
322
100
AcDbEntity
  8
2
100
AcDbLine
  6
CONTINUOUS
 62
3
 10
2.6702307E+002
 20
2.1523197E+002
 11
2.6702307E+002
 21
2.1153197E+002
  0
DIMENSION
  5
323
100
AcDbEntity
  8
2
100
AcDbDimension
  6
CONTINUOUS
 62
3
  2
*D210
  3
DSTYLE1
 10
8.1023066E+001
 20
2.0407034E+002
 11
1.7402307E+002
 21
2.0707134E+002
 70
128
100
AcDbAlignedDimension
 13
2.6702307E+002
 23
2.1153197E+002
 14
8.1023066E+001
 24
2.1153197E+002
 40
3.0
 50
0.0
100
AcDbRotatedDimension
1001
ACAD
1000
DSTYLE
1002
{
1070
173
1070
0
1070
5
1000
_AH1
1070
47
1040
2.0E-001
1070
48
1040
2.0E-001
1002
}
  0
LINE
  5
324
100
AcDbEntity
  8
2
100
AcDbLine
  6
CENTERLINE
 62
3
 10
1.5802307E+002
 20
2.4740013E+002
 11
1.5802307E+002
 21
2.0680403E+002
  0
LINE
  5
325
100
AcDbEntity
  8
2
100
AcDbLine
  6
CENTERLINE
 62
3
 10
-2.8397693E+002
 20
2.3923197E+002
 11
-2.8397693E+002
 21
2.1423197E+002
  0
DIMENSION
  5
326
100
AcDbEntity
  8
2
100
AcDbDimension
  6
CONTINUOUS
 62
3
  2
*D217
  3
DSTYLE2
 10
2.7402307E+002
 20
2.0407034E+002
 11
2.7092631E+002
 21
2.0707134E+002
 70
128
100
AcDbAlignedDimension
 13
2.6702307E+002
 23
2.1153197E+002
 14
2.7402307E+002
 24
2.1423197E+002
 40
3.0
 50
0.0
100
AcDbRotatedDimension
1001
ACAD
1000
DSTYLE
1002
{
1070
173
1070
0
1070
5
1000
_AH1
1002
}
  0
DIMENSION
  5
327
100
AcDbEntity
  8
2
100
AcDbDimension
  6
CONTINUOUS
 62
3
  2
*D218
  3
DSTYLE2
 10
2.8545293E+002
 20
2.3373197E+002
 11
2.8245193E+002
 21
2.4699008E+002
 70
128
100
AcDbAlignedDimension
 13
2.7402307E+002
 23
2.3923197E+002
 14
2.7522307E+002
 24
2.3373197E+002
 40
3.0
 50
2.7E+002
100
AcDbRotatedDimension
1001
ACAD
1000
DSTYLE
1002
{
1070
173
1070
0
1070
5
1000
_AH1
1002
}
  0
DIMENSION
  5
328
100
AcDbEntity
  8
2
100
AcDbDimension
  6
CONTINUOUS
 62
3
  2
*D219
  3
DSTYLE2
 10
2.8545293E+002
 20
2.1973197E+002
 11
2.8245193E+002
 21
2.2715113E+002
 70
128
100
AcDbAlignedDimension
 13
2.7522307E+002
 23
2.3373197E+002
 14
2.7522307E+002
 24
2.1973197E+002
 40
3.0
 50
9.0E+001
100
AcDbRotatedDimension
1001
ACAD
1000
DSTYLE
1002
{
1070
173
1070
0
1070
5
1000
_AH1
1002
}
  0
DIMENSION
  5
329
100
AcDbEntity
  8
2
100
AcDbDimension
  6
CONTINUOUS
 62
3
  2
*D220
  3
DSTYLE3
 10
2.9660182E+002
 20
2.1423197E+002
 11
2.9247582E+002
 21
2.269423E+002
 70
128
100
AcDbAlignedDimension
 13
2.7402307E+002
 23
2.3923197E+002
 14
2.7402307E+002
 24
2.1423197E+002
 40
3.0
 50
2.7E+002
100
AcDbRotatedDimension
1001
ACAD
1000
DSTYLE
1002
{
1070
173
1070
0
1070
5
1000
_AH1
1070
47
1040
1.0E-001
1070
48
1040
-1.0E-001
1002
}
  0
DIMENSION
  5
32a
100
AcDbEntity
  8
2
100
AcDbDimension
  6
CONTINUOUS
 62
3
  2
*D221
  3
DSTYLE2
 10
1.7435484E+002
 20
2.2723197E+002
 11
1.7135384E+002
 21
2.3341606E+002
 70
128
100
AcDbAlignedDimension
 13
1.8227307E+002
 23
2.3923197E+002
 14
1.7962307E+002
 24
2.2723197E+002
 40
3.0
 50
2.7E+002
100
AcDbRotatedDimension
1001
ACAD
1000
DSTYLE
1002
{
1070
173
1070
0
1070
5
1000
_AH1
1002
}
  0
DIMENSION
  5
32b
100
AcDbEntity
  8
2
100
AcDbDimension
  6
CONTINUOUS
 62
3
  2
*D222
  3
DSTYLE1
 10
2.7402307E+002
 20
2.4779156E+002
 11
2.1805274E+002
 21
2.5079256E+002
 70
128
100
AcDbAlignedDimension
 13
1.5802307E+002
 23
2.4740013E+002
 14
2.7402307E+002
 24
2.3923197E+002
 40
3.0
 50
0.0
100
AcDbRotatedDimension
1001
ACAD
1000
DSTYLE
1002
{
1070
173
1070
0
1070
5
1000
_AH1
1070
47
1040
2.0E-001
1070
48
1040
2.0E-001
1002
}
  0
DIMENSION
  5
32c
100
AcDbEntity
  8
4
100
AcDbDimension
  6
CONTINUOUS
 62
3
  2
*D388
  3
DSTYLE2
 10
2.8555939E+002
 20
1.4057624E+002
 11
2.8255839E+002
 21
1.4982771E+002
 70
128
100
AcDbAlignedDimension
 13
2.7402307E+002
 23
1.4357624E+002
 14
2.7402307E+002
 24
1.4057624E+002
 40
3.0
 50
9.0E+001
100
AcDbRotatedDimension
1001
ACAD
1000
DSTYLE
1002
{
1070
173
1070
0
1070
5
1000
_AH1
1002
}
  0
LINE
  5
32d
100
AcDbEntity
  8
4
100
AcDbLine
  6
HIDDEN
 62
6
 10
8.6223059E+001
 20
1.4087623E+002
 11
7.5823058E+001
 21
1.4087623E+002
  0
LINE
  5
32e
100
AcDbEntity
  8
4
100
AcDbLine
  6
HIDDEN
 62
6
 10
7.8373062E+001
 20
1.4357622E+002
 11
7.8373062E+001
 21
1.4342623E+002
  0
LINE
  5
32f
100
AcDbEntity
  8
4
100
AcDbLine
  6
HIDDEN
 62
6
 10
8.3673055E+001
 20
1.4342623E+002
 11
7.8373062E+001
 21
1.4342623E+002
  0
LINE
  5
330
100
AcDbEntity
  8
4
100
AcDbLine
  6
HIDDEN
 62
6
 10
8.3673055E+001
 20
1.4357622E+002
 11
8.3673055E+001
 21
1.4342623E+002
  0
LINE
  5
331
100
AcDbEntity
  8
4
100
AcDbLine
  6
HIDDEN
 62
6
 10
8.3673055E+001
 20
1.4342623E+002
 11
8.6223059E+001
 21
1.4087623E+002
  0
LINE
  5
332
100
AcDbEntity
  8
4
100
AcDbLine
  6
HIDDEN
 62
6
 10
7.8373062E+001
 20
1.4342623E+002
 11
7.5823058E+001
 21
1.4087623E+002
  0
LINE
  5
333
100
AcDbEntity
  8
4
100
AcDbLine
  6
HIDDEN
 62
6
 10
1.3067304E+002
 20
1.4342623E+002
 11
1.3322305E+002
 21
1.4087623E+002
  0
LINE
  5
334
100
AcDbEntity
  8
4
100
AcDbLine
  6
HIDDEN
 62
6
 10
1.3322305E+002
 20
1.4087623E+002
 11
1.2282305E+002
 21
1.4087623E+002
  0
LINE
  5
335
100
AcDbEntity
  8
4
100
AcDbLine
  6
HIDDEN
 62
6
 10
1.2537305E+002
 20
1.4342623E+002
 11
1.2282305E+002
 21
1.4087623E+002
  0
LINE
  5
336
100
AcDbEntity
  8
4
100
AcDbLine
  6
HIDDEN
 62
6
 10
1.3067304E+002
 20
1.4342623E+002
 11
1.2537305E+002
 21
1.4342623E+002
  0
LINE
  5
337
100
AcDbEntity
  8
4
100
AcDbLine
  6
HIDDEN
 62
6
 10
1.2537305E+002
 20
1.4357622E+002
 11
1.2537305E+002
 21
1.4342623E+002
  0
LINE
  5
338
100
AcDbEntity
  8
4
100
AcDbLine
  6
HIDDEN
 62
6
 10
1.3067304E+002
 20
1.4357622E+002
 11
1.3067304E+002
 21
1.4342623E+002
  0
LINE
  5
339
100
AcDbEntity
  8
4
100
AcDbLine
  6
HIDDEN
 62
6
 10
1.3322305E+002
 20
1.4087623E+002
 11
1.3322305E+002
 21
1.4057625E+002
  0
LINE
  5
33a
100
AcDbEntity
  8
4
100
AcDbLine
  6
HIDDEN
 62
6
 10
1.2282305E+002
 20
1.4087623E+002
 11
1.2282305E+002
 21
1.4057625E+002
  0
LINE
  5
33b
100
AcDbEntity
  8
4
100
AcDbLine
  6
HIDDEN
 62
6
 10
2.4367306E+002
 20
1.4342623E+002
 11
2.4622306E+002
 21
1.4087623E+002
  0
LINE
  5
33c
100
AcDbEntity
  8
4
100
AcDbLine
  6
HIDDEN
 62
6
 10
2.4622306E+002
 20
1.4087623E+002
 11
2.3582306E+002
 21
1.4087623E+002
  0
LINE
  5
33d
100
AcDbEntity
  8
4
100
AcDbLine
  6
HIDDEN
 62
6
 10
2.3837307E+002
 20
1.4342623E+002
 11
2.3582306E+002
 21
1.4087623E+002
  0
LINE
  5
33e
100
AcDbEntity
  8
4
100
AcDbLine
  6
HIDDEN
 62
6
 10
2.4367306E+002
 20
1.4342623E+002
 11
2.3837307E+002
 21
1.4342623E+002
  0
LINE
  5
33f
100
AcDbEntity
  8
4
100
AcDbLine
  6
HIDDEN
 62
6
 10
2.3837307E+002
 20
1.4357622E+002
 11
2.3837307E+002
 21
1.4342623E+002
  0
LINE
  5
340
100
AcDbEntity
  8
4
100
AcDbLine
  6
HIDDEN
 62
6
 10
2.4367306E+002
 20
1.4357622E+002
 11
2.4367306E+002
 21
1.4342623E+002
  0
LINE
  5
341
100
AcDbEntity
  8
4
100
AcDbLine
  6
HIDDEN
 62
6
 10
2.4622306E+002
 20
1.4087623E+002
 11
2.4622306E+002
 21
1.4057625E+002
  0
LINE
  5
342
100
AcDbEntity
  8
4
100
AcDbLine
  6
HIDDEN
 62
6
 10
2.3582306E+002
 20
1.4087623E+002
 11
2.3582306E+002
 21
1.4057625E+002
  0
INSERT
  5
343
100
AcDbEntity
100
AcDbBlockReference
  2
M11
  8
1
 10
3.5641262E+002
 20
5.3843855E+001
  0
INSERT
  5
344
100
AcDbEntity
100
AcDbBlockReference
  2
A3
  8
1
 10
0.0
 20
0.0
 66
1
  0
ATTRIB
  5
345
100
AcDbEntity
  8
1
100
AcDbText
  6
CONTINUOUS
 62
6
 10
3.8965302E+002
 20
3.5139971E+001
 40
4.0
  1
Schliessblech
 41
7.0E-001
 72
1
 11
3.7145302E+002
 21
3.5139971E+001
100
AcDbAttribute
  2
1
 70
0
  0
ATTRIB
  5
346
100
AcDbEntity
  8
1
100
AcDbText
  6
CONTINUOUS
 62
6
 10
3.8965302E+002
 20
2.4028525E+001
 40
4.0
  1
Masszeichnung
 41
7.0E-001
 72
1
 11
3.7145302E+002
 21
2.4028525E+001
100
AcDbAttribute
  2
2
 70
0
  0
ATTRIB
  5
347
100
AcDbEntity
  8
1
100
AcDbText
  6
CONTINUOUS
 62
6
 10
3.8890302E+002
 20
1.0708917E+001
 40
4.0
  1
141.01-00-18-1000
 41
7.0E-001
 72
1
 11
3.6510302E+002
 21
1.0708917E+001
100
AcDbAttribute
  2
3
 70
0
  0
ATTRIB
  5
348
100
AcDbEntity
  8
1
100
AcDbText
  6
CONTINUOUS
 62
6
 10
3.8250302E+002
 20
4.98925E+001
 40
3.0
  1
 
 41
7.0E-001
 72
1
 11
3.8145302E+002
 21
4.98925E+001
100
AcDbAttribute
  2
4
 70
0
  0
ATTRIB
  5
349
100
AcDbEntity
  8
1
100
AcDbText
  6
CONTINUOUS
 62
6
 10
3.8250302E+002
 20
4.4605E+001
 40
3.0
  1
 
 41
7.0E-001
 72
1
 11
3.8145302E+002
 21
4.4605E+001
100
AcDbAttribute
  2
5
 70
0
  0
ATTRIB
  5
34a
100
AcDbEntity
  8
1
100
AcDbText
  6
CONTINUOUS
 62
6
 10
4.0315302E+002
 20
5.53925E+001
 40
3.0
  1
054229
 41
7.0E-001
 72
1
 11
3.9685302E+002
 21
5.53925E+001
100
AcDbAttribute
  2
6
 70
0
  0
ATTRIB
  5
34b
100
AcDbEntity
  8
1
100
AcDbText
  6
CONTINUOUS
 62
6
 10
2.9282753E+002
 20
6.17056
 40
2.5
  1
 
 41
7.0E-001
100
AcDbAttribute
  2
7
 70
0
  0
ATTRIB
  5
34c
100
AcDbEntity
  8
1
100
AcDbText
  6
CONTINUOUS
 62
6
 10
3.3600753E+002
 20
6.17056
 40
2.5
  1
-------116..-05
 41
7.0E-001
100
AcDbAttribute
  2
8
 70
0
  0
ATTRIB
  5
34d
100
AcDbEntity
  8
1
100
AcDbText
  6
CONTINUOUS
 62
6
 10
2.8651236E+002
 20
4.0139149E+001
 40
2.0
  1
 
 41
7.0E-001
100
AcDbAttribute
  2
9
 70
0
  0
ATTRIB
  5
34e
100
AcDbEntity
  8
1
100
AcDbText
  6
CONTINUOUS
 62
6
 10
2.9625302E+002
 20
3.56575E+001
 40
2.2
  1
19.03.04
 41
7.0E-001
100
AcDbAttribute
  2
10
 70
0
  0
ATTRIB
  5
34f
100
AcDbEntity
  8
1
100
AcDbText
  6
CONTINUOUS
 62
6
 10
3.1149302E+002
 20
3.56575E+001
 40
2.2
  1
Nolle
 41
7.0E-001
100
AcDbAttribute
  2
11
 70
0
  0
ATTRIB
  5
350
100
AcDbEntity
  8
1
100
AcDbText
  6
CONTINUOUS
 62
6
 10
2.9625302E+002
 20
3.14275E+001
 40
2.2
  1
 
 41
7.0E-001
100
AcDbAttribute
  2
12
 70
0
  0
ATTRIB
  5
351
100
AcDbEntity
  8
1
100
AcDbText
  6
CONTINUOUS
 62
6
 10
3.1149302E+002
 20
3.14275E+001
 40
2.2
  1
 
 41
7.0E-001
100
AcDbAttribute
  2
13
 70
0
  0
ATTRIB
  5
352
100
AcDbEntity
  8
1
100
AcDbText
  6
CONTINUOUS
 62
6
 10
2.9625302E+002
 20
2.71975E+001
 40
2.2
  1
 
 41
7.0E-001
100
AcDbAttribute
  2
14
 70
0
  0
ATTRIB
  5
353
100
AcDbEntity
  8
1
100
AcDbText
  6
CONTINUOUS
 62
6
 10
3.1149302E+002
 20
2.71975E+001
 40
2.2
  1
 
 41
7.0E-001
100
AcDbAttribute
  2
15
 70
0
  0
ATTRIB
  5
354
100
AcDbEntity
  8
1
100
AcDbText
  6
CONTINUOUS
 62
6
 10
2.9625302E+002
 20
2.29675E+001
 40
2.2
  1
 
 41
7.0E-001
100
AcDbAttribute
  2
16
 70
0
  0
ATTRIB
  5
355
100
AcDbEntity
  8
1
100
AcDbText
  6
CONTINUOUS
 62
6
 10
3.8561543E+002
 20
2.9750496E+001
 40
4.0
  1
face plate
 41
7.0E-001
 72
1
 11
3.7161543E+002
 21
2.9750496E+001
100
AcDbAttribute
  2
17
 70
0
  0
ATTRIB
  5
356
100
AcDbEntity
  8
1
100
AcDbText
  6
CONTINUOUS
 62
6
 10
4.0750623E+002
 20
3.8785527E+001
 40
1.0
  1
 
100
AcDbAttribute
  2
18
 70
0
  0
ATTRIB
  5
357
100
AcDbEntity
  8
1
100
AcDbText
  6
CONTINUOUS
 62
6
 10
4.0750623E+002
 20
3.7285527E+001
 40
1.0
  1
 
100
AcDbAttribute
  2
19
 70
0
  0
ATTRIB
  5
358
100
AcDbEntity
  8
1
100
AcDbText
  6
CONTINUOUS
 62
6
 10
4.0750623E+002
 20
3.5785527E+001
 40
1.0
  1
 
100
AcDbAttribute
  2
20
 70
0
  0
ATTRIB
  5
359
100
AcDbEntity
  8
1
100
AcDbText
  6
CONTINUOUS
 62
6
 10
2.3275302E+002
 20
3.98875E+001
 40
2.0
  1
 
 41
7.0E-001
100
AcDbAttribute
  2
21
 70
0
  0
ATTRIB
  5
35a
100
AcDbEntity
  8
1
100
AcDbText
  6
CONTINUOUS
 62
6
 10
2.4037302E+002
 20
3.98875E+001
 40
2.0
  1
 
 41
7.0E-001
100
AcDbAttribute
  2
22
 70
0
  0
ATTRIB
  5
35b
100
AcDbEntity
  8
1
100
AcDbText
  6
CONTINUOUS
 62
6
 10
2.6577302E+002
 20
3.98875E+001
 40
2.0
  1
 
 41
7.0E-001
100
AcDbAttribute
  2
23
 70
0
  0
ATTRIB
  5
35c
100
AcDbEntity
  8
1
100
AcDbText
  6
CONTINUOUS
 62
6
 10
2.7797302E+002
 20
3.98875E+001
 40
2.0
  1
 
 41
7.0E-001
100
AcDbAttribute
  2
24
 70
0
  0
ATTRIB
  5
35d
100
AcDbEntity
  8
1
100
AcDbText
  6
CONTINUOUS
 62
6
 10
2.3275302E+002
 20
3.56575E+001
 40
2.0
  1
 
 41
7.0E-001
100
AcDbAttribute
  2
25
 70
0
  0
ATTRIB
  5
35e
100
AcDbEntity
  8
1
100
AcDbText
  6
CONTINUOUS
 62
6
 10
2.4037302E+002
 20
3.56575E+001
 40
2.0
  1
 
 41
7.0E-001
100
AcDbAttribute
  2
26
 70
0
  0
ATTRIB
  5
35f
100
AcDbEntity
  8
1
100
AcDbText
  6
CONTINUOUS
 62
6
 10
2.6577302E+002
 20
3.56575E+001
 40
2.0
  1
 
 41
7.0E-001
100
AcDbAttribute
  2
27
 70
0
  0
ATTRIB
  5
360
100
AcDbEntity
  8
1
100
AcDbText
  6
CONTINUOUS
 62
6
 10
2.7797302E+002
 20
3.56575E+001
 40
2.0
  1
 
 41
7.0E-001
100
AcDbAttribute
  2
28
 70
0
  0
ATTRIB
  5
361
100
AcDbEntity
  8
1
100
AcDbText
  6
CONTINUOUS
 62
6
 10
2.3275302E+002
 20
3.14275E+001
 40
2.0
  1
 
 41
7.0E-001
100
AcDbAttribute
  2
29
 70
0
  0
ATTRIB
  5
362
100
AcDbEntity
  8
1
100
AcDbText
  6
CONTINUOUS
 62
6
 10
2.4037302E+002
 20
3.14275E+001
 40
2.0
  1
 
 41
7.0E-001
100
AcDbAttribute
  2
30
 70
0
  0
ATTRIB
  5
363
100
AcDbEntity
  8
1
100
AcDbText
  6
CONTINUOUS
 62
6
 10
2.6577302E+002
 20
3.14275E+001
 40
2.0
  1
 
 41
7.0E-001
100
AcDbAttribute
  2
31
 70
0
  0
ATTRIB
  5
364
100
AcDbEntity
  8
1
100
AcDbText
  6
CONTINUOUS
 62
6
 10
2.7797302E+002
 20
3.14275E+001
 40
2.0
  1
 
 41
7.0E-001
100
AcDbAttribute
  2
32
 70
0
  0
ATTRIB
  5
365
100
AcDbEntity
  8
1
100
AcDbText
  6
CONTINUOUS
 62
6
 10
2.3275302E+002
 20
2.71975E+001
 40
2.0
  1
 
 41
7.0E-001
100
AcDbAttribute
  2
33
 70
0
  0
ATTRIB
  5
366
100
AcDbEntity
  8
1
100
AcDbText
  6
CONTINUOUS
 62
6
 10
2.4037302E+002
 20
2.71975E+001
 40
2.0
  1
 
 41
7.0E-001
100
AcDbAttribute
  2
34
 70
0
  0
ATTRIB
  5
367
100
AcDbEntity
  8
1
100
AcDbText
  6
CONTINUOUS
 62
6
 10
2.6577302E+002
 20
2.71975E+001
 40
2.0
  1
 
 41
7.0E-001
100
AcDbAttribute
  2
35
 70
0
  0
ATTRIB
  5
368
100
AcDbEntity
  8
1
100
AcDbText
  6
CONTINUOUS
 62
6
 10
2.7797302E+002
 20
2.71975E+001
 40
2.0
  1
 
 41
7.0E-001
100
AcDbAttribute
  2
36
 70
0
  0
ATTRIB
  5
369
100
AcDbEntity
  8
1
100
AcDbText
  6
CONTINUOUS
 62
6
 10
2.3275302E+002
 20
2.29675E+001
 40
2.0
  1
 
 41
7.0E-001
100
AcDbAttribute
  2
37
 70
0
  0
ATTRIB
  5
36a
100
AcDbEntity
  8
1
100
AcDbText
  6
CONTINUOUS
 62
6
 10
2.4037302E+002
 20
2.29675E+001
 40
2.0
  1
 
 41
7.0E-001
100
AcDbAttribute
  2
38
 70
0
  0
ATTRIB
  5
36b
100
AcDbEntity
  8
1
100
AcDbText
  6
CONTINUOUS
 62
6
 10
2.6577302E+002
 20
2.29675E+001
 40
2.0
  1
 
 41
7.0E-001
100
AcDbAttribute
  2
39
 70
0
  0
ATTRIB
  5
36c
100
AcDbEntity
  8
1
100
AcDbText
  6
CONTINUOUS
 62
6
 10
2.7797302E+002
 20
2.29675E+001
 40
2.0
  1
 
 41
7.0E-001
100
AcDbAttribute
  2
40
 70
0
  0
ATTRIB
  5
36d
100
AcDbEntity
  8
1
100
AcDbText
  6
CONTINUOUS
 62
6
 10
2.3275302E+002
 20
1.87375E+001
 40
2.0
  1
 
 41
7.0E-001
100
AcDbAttribute
  2
41
 70
0
  0
ATTRIB
  5
36e
100
AcDbEntity
  8
1
100
AcDbText
  6
CONTINUOUS
 62
6
 10
2.4037302E+002
 20
1.87375E+001
 40
2.0
  1
 
 41
7.0E-001
100
AcDbAttribute
  2
42
 70
0
  0
ATTRIB
  5
36f
100
AcDbEntity
  8
1
100
AcDbText
  6
CONTINUOUS
 62
6
 10
2.6577302E+002
 20
1.87375E+001
 40
2.0
  1
 
 41
7.0E-001
100
AcDbAttribute
  2
43
 70
0
  0
ATTRIB
  5
370
100
AcDbEntity
  8
1
100
AcDbText
  6
CONTINUOUS
 62
6
 10
2.7797302E+002
 20
1.87375E+001
 40
2.0
  1
 
 41
7.0E-001
100
AcDbAttribute
  2
44
 70
0
  0
ATTRIB
  5
371
100
AcDbEntity
  8
1
100
AcDbText
  6
CONTINUOUS
 62
6
 10
2.3275302E+002
 20
1.45075E+001
 40
2.0
  1
 
 41
7.0E-001
100
AcDbAttribute
  2
45
 70
0
  0
ATTRIB
  5
372
100
AcDbEntity
  8
1
100
AcDbText
  6
CONTINUOUS
 62
6
 10
2.4037302E+002
 20
1.45075E+001
 40
2.0
  1
 
 41
7.0E-001
100
AcDbAttribute
  2
46
 70
0
  0
ATTRIB
  5
373
100
AcDbEntity
  8
1
100
AcDbText
  6
CONTINUOUS
 62
6
 10
2.6577302E+002
 20
1.45075E+001
 40
2.0
  1
 
 41
7.0E-001
100
AcDbAttribute
  2
47
 70
0
  0
ATTRIB
  5
374
100
AcDbEntity
  8
1
100
AcDbText
  6
CONTINUOUS
 62
6
 10
2.7797302E+002
 20
1.45075E+001
 40
2.0
  1
 
 41
7.0E-001
100
AcDbAttribute
  2
48
 70
0
  0
ATTRIB
  5
375
100
AcDbEntity
  8
1
100
AcDbText
  6
CONTINUOUS
 62
6
 10
2.3275302E+002
 20
1.02775E+001
 40
2.0
  1
 
 41
7.0E-001
100
AcDbAttribute
  2
49
 70
0
  0
ATTRIB
  5
376
100
AcDbEntity
  8
1
100
AcDbText
  6
CONTINUOUS
 62
6
 10
2.4037302E+002
 20
1.02775E+001
 40
2.0
  1
 
 41
7.0E-001
100
AcDbAttribute
  2
50
 70
0
  0
ATTRIB
  5
377
100
AcDbEntity
  8
1
100
AcDbText
  6
CONTINUOUS
 62
6
 10
2.6577302E+002
 20
1.02775E+001
 40
2.0
  1
 
 41
7.0E-001
100
AcDbAttribute
  2
51
 70
0
  0
ATTRIB
  5
378
100
AcDbEntity
  8
1
100
AcDbText
  6
CONTINUOUS
 62
6
 10
2.7797302E+002
 20
1.02775E+001
 40
2.0
  1
 
 41
7.0E-001
100
AcDbAttribute
  2
52
 70
0
  0
SEQEND
  5
379
100
AcDbEntity
  0
ELLIPSE
  5
37a
100
AcDbEntity
  8
5
100
AcDbEllipse
  6
CONTINUOUS
 10
1.8564847E+002
 20
3.8777026E+001
 11
3.5671708
 21
-3.7835555
 40
7.0710678E-001
 41
0.0
 42
6.2831853
 62
6
  0
POLYLINE
  5
37b
100
AcDbEntity
  8
5
100
AcDb2dPolyline
  6
CONTINUOUS
 62
6
 66
1
 40
0.0
 41
0.0
 70
2
  0
VERTEX
  5
37c
100
AcDbEntity
  8
5
100
AcDbVertex
100
AcDb2dVertex
 42
0.0
 10
1.8215996E+002
 20
4.2631768E+001
 70
0
  0
VERTEX
  5
37d
100
AcDbEntity
  8
5
100
AcDbVertex
100
AcDb2dVertex
 42
2.2836503E-002
 10
1.820096E+002
 20
4.2464337E+001
 70
1
  0
VERTEX
  5
37e
100
AcDbEntity
  8
5
100
AcDbVertex
100
AcDb2dVertex
 42
2.1683259E-002
 10
1.8187205E+002
 20
4.2281082E+001
 70
0
  0
VERTEX
  5
37f
100
AcDbEntity
  8
5
100
AcDbVertex
100
AcDb2dVertex
 42
2.0941655E-002
 10
1.8174761E+002
 20
4.2081258E+001
 70
1
  0
VERTEX
  5
380
100
AcDbEntity
  8
5
100
AcDbVertex
100
AcDb2dVertex
 42
2.1207446E-002
 10
1.8163725E+002
 20
4.1866137E+001
 70
0
  0
VERTEX
  5
381
100
AcDbEntity
  8
5
100
AcDbVertex
100
AcDb2dVertex
 42
2.0876377E-002
 10
1.8154334E+002
 20
4.1635934E+001
 70
1
  0
VERTEX
  5
382
100
AcDbEntity
  8
5
100
AcDbVertex
100
AcDb2dVertex
 42
2.0268821E-002
 10
1.8146627E+002
 20
4.139228E+001
 70
0
  0
VERTEX
  5
383
100
AcDbEntity
  8
5
100
AcDbVertex
100
AcDb2dVertex
 42
1.9502787E-002
 10
1.8140765E+002
 20
4.1135814E+001
 70
1
  0
VERTEX
  5
384
100
AcDbEntity
  8
5
100
AcDbVertex
100
AcDb2dVertex
 42
1.883732E-002
 10
1.8136745E+002
 20
4.0868496E+001
 70
0
  0
VERTEX
  5
385
100
AcDbEntity
  8
5
100
AcDbVertex
100
AcDb2dVertex
 42
1.802483E-002
 10
1.8134704E+002
 20
4.0591504E+001
 70
1
  0
VERTEX
  5
386
100
AcDbEntity
  8
5
100
AcDbVertex
100
AcDb2dVertex
 42
1.7234554E-002
 10
1.8134585E+002
 20
4.030698E+001
 70
0
  0
VERTEX
  5
387
100
AcDbEntity
  8
5
100
AcDbVertex
100
AcDb2dVertex
 42
1.6418578E-002
 10
1.8136474E+002
 20
4.0016508E+001
 70
1
  0
VERTEX
  5
388
100
AcDbEntity
  8
5
100
AcDbVertex
100
AcDb2dVertex
 42
1.5644715E-002
 10
1.8140261E+002
 20
3.9722245E+001
 70
0
  0
VERTEX
  5
389
100
AcDbEntity
  8
5
100
AcDbVertex
100
AcDb2dVertex
 42
1.4908142E-002
 10
1.8145979E+002
 20
3.9426046E+001
 70
1
  0
VERTEX
  5
38a
100
AcDbEntity
  8
5
100
AcDbVertex
100
AcDb2dVertex
 42
1.4190461E-002
 10
1.8153476E+002
 20
3.9129898E+001
 70
0
  0
VERTEX
  5
38b
100
AcDbEntity
  8
5
100
AcDbVertex
100
AcDb2dVertex
 42
1.3558509E-002
 10
1.8162734E+002
 20
3.8835756E+001
 70
1
  0
VERTEX
  5
38c
100
AcDbEntity
  8
5
100
AcDbVertex
100
AcDb2dVertex
 42
1.2922928E-002
 10
1.8173568E+002
 20
3.8545284E+001
 70
0
  0
VERTEX
  5
38d
100
AcDbEntity
  8
5
100
AcDbVertex
100
AcDb2dVertex
 42
1.2400378E-002
 10
1.8185917E+002
 20
3.826037E+001
 70
1
  0
VERTEX
  5
38e
100
AcDbEntity
  8
5
100
AcDbVertex
100
AcDb2dVertex
 42
1.184795E-002
 10
1.8199581E+002
 20
3.7982249E+001
 70
0
  0
VERTEX
  5
38f
100
AcDbEntity
  8
5
100
AcDbVertex
100
AcDb2dVertex
 42
1.1428294E-002
 10
1.8214468E+002
 20
3.7712611E+001
 70
1
  0
VERTEX
  5
390
100
AcDbEntity
  8
5
100
AcDbVertex
100
AcDb2dVertex
 42
1.0959295E-002
 10
1.8230379E+002
 20
3.7452211E+001
 70
0
  0
VERTEX
  5
391
100
AcDbEntity
  8
5
100
AcDbVertex
100
AcDb2dVertex
 42
1.0620136E-002
 10
1.8247202E+002
 20
3.7202453E+001
 70
1
  0
VERTEX
  5
392
100
AcDbEntity
  8
5
100
AcDbVertex
100
AcDb2dVertex
 42
1.0202527E-002
 10
1.8264753E+002
 20
3.6963638E+001
 70
0
  0
VERTEX
  5
393
100
AcDbEntity
  8
5
100
AcDbVertex
100
AcDb2dVertex
 42
9.9590731E-003
 10
1.8282909E+002
 20
3.6736853E+001
 70
1
  0
VERTEX
  5
394
100
AcDbEntity
  8
5
100
AcDbVertex
100
AcDb2dVertex
 42
9.6600918E-003
 10
1.8301521E+002
 20
3.6521941E+001
 70
0
  0
VERTEX
  5
395
100
AcDbEntity
  8
5
100
AcDbVertex
100
AcDb2dVertex
 42
9.390413E-003
 10
1.8320474E+002
 20
3.6319657E+001
 70
1
  0
VERTEX
  5
396
100
AcDbEntity
  8
5
100
AcDbVertex
100
AcDb2dVertex
 42
8.924649E-003
 10
1.8339604E+002
 20
3.6129699E+001
 70
0
  0
VERTEX
  5
397
100
AcDbEntity
  8
5
100
AcDbVertex
100
AcDb2dVertex
 42
9.1246951E-003
 10
1.8358871E+002
 20
3.5951943E+001
 70
1
  0
VERTEX
  5
398
100
AcDbEntity
  8
5
100
AcDbVertex
100
AcDb2dVertex
 42
9.2062939E-003
 10
1.8378736E+002
 20
3.5781622E+001
 70
0
  0
VERTEX
  5
399
100
AcDbEntity
  8
5
100
AcDbVertex
100
AcDb2dVertex
 42
9.123548E-003
 10
1.8399721E+002
 20
3.5614868E+001
 70
1
  0
VERTEX
  5
39a
100
AcDbEntity
  8
5
100
AcDbVertex
100
AcDb2dVertex
 42
9.727842E-003
 10
1.8421799E+002
 20
3.5452413E+001
 70
0
  0
VERTEX
  5
39b
100
AcDbEntity
  8
5
100
AcDbVertex
100
AcDb2dVertex
 42
1.015936E-002
 10
1.8444934E+002
 20
3.5296341E+001
 70
1
  0
VERTEX
  5
39c
100
AcDbEntity
  8
5
100
AcDbVertex
100
AcDb2dVertex
 42
1.0594661E-002
 10
1.8469036E+002
 20
3.5147699E+001
 70
0
  0
VERTEX
  5
39d
100
AcDbEntity
  8
5
100
AcDbVertex
100
AcDb2dVertex
 42
1.1003572E-002
 10
1.8494092E+002
 20
3.500808E+001
 70
1
  0
VERTEX
  5
39e
100
AcDbEntity
  8
5
100
AcDbVertex
100
AcDb2dVertex
 42
1.1630402E-002
 10
1.8519982E+002
 20
3.4878574E+001
 70
0
  0
VERTEX
  5
39f
100
AcDbEntity
  8
5
100
AcDbVertex
100
AcDb2dVertex
 42
1.2139121E-002
 10
1.8546636E+002
 20
3.4761133E+001
 70
1
  0
VERTEX
  5
3a0
100
AcDbEntity
  8
5
100
AcDbVertex
100
AcDb2dVertex
 42
1.2739645E-002
 10
1.8573899E+002
 20
3.4656622E+001
 70
0
  0
VERTEX
  5
3a1
100
AcDbEntity
  8
5
100
AcDbVertex
100
AcDb2dVertex
 42
1.3487494E-002
 10
1.8601658E+002
 20
3.4566976E+001
 70
1
  0
VERTEX
  5
3a2
100
AcDbEntity
  8
5
100
AcDbVertex
100
AcDb2dVertex
 42
1.4563724E-002
 10
1.8629769E+002
 20
3.4493045E+001
 70
0
  0
VERTEX
  5
3a3
100
AcDbEntity
  8
5
100
AcDbVertex
100
AcDb2dVertex
 42
1.4939302E-002
 10
1.8658087E+002
 20
3.4436765E+001
 70
1
  0
VERTEX
  5
3a4
100
AcDbEntity
  8
5
100
AcDbVertex
100
AcDb2dVertex
 42
1.4800729E-002
 10
1.8686324E+002
 20
3.4397624E+001
 70
0
  0
VERTEX
  5
3a5
100
AcDbEntity
  8
5
100
AcDbVertex
100
AcDb2dVertex
 42
1.7092033E-002
 10
1.8714254E+002
 20
3.4376969E+001
 70
1
  0
VERTEX
  5
3a6
100
AcDbEntity
  8
5
100
AcDbVertex
100
AcDb2dVertex
 42
2.1447144E-002
 10
1.8742122E+002
 20
3.4377629E+001
 70
0
  0
VERTEX
  5
3a7
100
AcDbEntity
  8
5
100
AcDbVertex
100
AcDb2dVertex
 42
1.7502961E-002
 10
1.8769865E+002
 20
3.4401867E+001
 70
1
  0
VERTEX
  5
3a8
100
AcDbEntity
  8
5
100
AcDbVertex
100
AcDb2dVertex
 42
6.9855119E-003
 10
1.8795652E+002
 20
3.4436882E+001
 70
0
  0
VERTEX
  5
3a9
100
AcDbEntity
  8
5
100
AcDbVertex
100
AcDb2dVertex
 42
2.551454E-002
 10
1.8818689E+002
 20
3.447923E+001
 70
1
  0
VERTEX
  5
3aa
100
AcDbEntity
  8
5
100
AcDbVertex
100
AcDb2dVertex
 42
4.7205512E-002
 10
1.8845459E+002
 20
3.4575172E+001
 70
0
  0
VERTEX
  5
3ab
100
AcDbEntity
  8
5
100
AcDbVertex
100
AcDb2dVertex
 42
2.4788281E-002
 10
1.888271E+002
 20
3.4774905E+001
 70
1
  0
VERTEX
  5
3ac
100
AcDbEntity
  8
5
100
AcDbVertex
100
AcDb2dVertex
 42
1.3347061E-002
 10
1.8929133E+002
 20
3.5067806E+001
 70
0
  0
SEQEND
  5
3ad
100
AcDbEntity
  0
POLYLINE
  5
3ae
100
AcDbEntity
  8
5
100
AcDb2dPolyline
  6
CONTINUOUS
 62
1
 66
1
 40
0.0
 41
0.0
 70
2
  0
VERTEX
  5
3af
100
AcDbEntity
  8
5
100
AcDbVertex
100
AcDb2dVertex
 42
0.0
 10
1.8897053E+002
 20
3.8268474E+001
 70
0
  0
VERTEX
  5
3b0
100
AcDbEntity
  8
5
100
AcDbVertex
100
AcDb2dVertex
 42
-2.3310731E-002
 10
1.8887532E+002
 20
3.819301E+001
 70
1
  0
VERTEX
  5
3b1
100
AcDbEntity
  8
5
100
AcDbVertex
100
AcDb2dVertex
 42
-2.27177E-002
 10
1.8877257E+002
 20
3.8125784E+001
 70
0
  0
VERTEX
  5
3b2
100
AcDbEntity
  8
5
100
AcDbVertex
100
AcDb2dVertex
 42
-2.1996996E-002
 10
1.8866189E+002
 20
3.8067051E+001
 70
1
  0
VERTEX
  5
3b3
100
AcDbEntity
  8
5
100
AcDbVertex
100
AcDb2dVertex
 42
-2.1834693E-002
 10
1.885442E+002
 20
3.801707E+001
 70
0
  0
VERTEX
  5
3b4
100
AcDbEntity
  8
5
100
AcDbVertex
100
AcDb2dVertex
 42
-2.1282375E-002
 10
1.8842001E+002
 20
3.7976896E+001
 70
1
  0
VERTEX
  5
3b5
100
AcDbEntity
  8
5
100
AcDbVertex
100
AcDb2dVertex
 42
-2.0449867E-002
 10
1.8829036E+002
 20
3.7946438E+001
 70
0
  0
VERTEX
  5
3b6
100
AcDbEntity
  8
5
100
AcDbVertex
100
AcDb2dVertex
 42
-1.9536206E-002
 10
1.8815583E+002
 20
3.7926293E+001
 70
1
  0
VERTEX
  5
3b7
100
AcDbEntity
  8
5
100
AcDbVertex
100
AcDb2dVertex
 42
-1.8651786E-002
 10
1.8801752E+002
 20
3.7916108E+001
 70
0
  0
VERTEX
  5
3b8
100
AcDbEntity
  8
5
100
AcDbVertex
100
AcDb2dVertex
 42
-1.7733777E-002
 10
1.8787624E+002
 20
3.7916282E+001
 70
1
  0
VERTEX
  5
3b9
100
AcDbEntity
  8
5
100
AcDbVertex
100
AcDb2dVertex
 42
-1.6787422E-002
 10
1.8773308E+002
 20
3.7926195E+001
 70
0
  0
VERTEX
  5
3ba
100
AcDbEntity
  8
5
100
AcDbVertex
100
AcDb2dVertex
 42
-1.5912217E-002
 10
1.8758894E+002
 20
3.794596E+001
 70
1
  0
VERTEX
  5
3bb
100
AcDbEntity
  8
5
100
AcDbVertex
100
AcDb2dVertex
 42
-1.5030884E-002
 10
1.8744477E+002
 20
3.7974754E+001
 70
0
  0
VERTEX
  5
3bc
100
AcDbEntity
  8
5
100
AcDbVertex
100
AcDb2dVertex
 42
-1.4264678E-002
 10
1.8730151E+002
 20
3.8012446E+001
 70
1
  0
VERTEX
  5
3bd
100
AcDbEntity
  8
5
100
AcDbVertex
100
AcDb2dVertex
 42
-1.347291E-002
 10
1.8715993E+002
 20
3.8058081E+001
 70
0
  0
VERTEX
  5
3be
100
AcDbEntity
  8
5
100
AcDbVertex
100
AcDb2dVertex
 42
-1.283055E-002
 10
1.8702093E+002
 20
3.8111327E+001
 70
1
  0
VERTEX
  5
3bf
100
AcDbEntity
  8
5
100
AcDbVertex
100
AcDb2dVertex
 42
-1.2151106E-002
 10
1.8688505E+002
 20
3.8171187E+001
 70
0
  0
VERTEX
  5
3c0
100
AcDbEntity
  8
5
100
AcDbVertex
100
AcDb2dVertex
 42
-1.1613178E-002
 10
1.8675305E+002
 20
3.8237196E+001
 70
1
  0
VERTEX
  5
3c1
100
AcDbEntity
  8
5
100
AcDbVertex
100
AcDb2dVertex
 42
-1.1007013E-002
 10
1.866253E+002
 20
3.8308358E+001
 70
0
  0
VERTEX
  5
3c2
100
AcDbEntity
  8
5
100
AcDbVertex
100
AcDb2dVertex
 42
-1.0605482E-002
 10
1.8650243E+002
 20
3.8384126E+001
 70
1
  0
VERTEX
  5
3c3
100
AcDbEntity
  8
5
100
AcDbVertex
100
AcDb2dVertex
 42
-1.0164079E-002
 10
1.8638448E+002
 20
3.8463686E+001
 70
0
  0
VERTEX
  5
3c4
100
AcDbEntity
  8
5
100
AcDbVertex
100
AcDb2dVertex
 42
-9.730081E-003
 10
1.8627192E+002
 20
3.8546501E+001
 70
1
  0
VERTEX
  5
3c5
100
AcDbEntity
  8
5
100
AcDbVertex
100
AcDb2dVertex
 42
-9.1268663E-003
 10
1.8616493E+002
 20
3.8631509E+001
 70
0
  0
VERTEX
  5
3c6
100
AcDbEntity
  8
5
100
AcDbVertex
100
AcDb2dVertex
 42
-9.2101921E-003
 10
1.8606366E+002
 20
3.8718335E+001
 70
1
  0
VERTEX
  5
3c7
100
AcDbEntity
  8
5
100
AcDbVertex
100
AcDb2dVertex
 42
-9.1279447E-003
 10
1.8596543E+002
 20
3.8808954E+001
 70
0
  0
VERTEX
  5
3c8
100
AcDbEntity
  8
5
100
AcDbVertex
100
AcDb2dVertex
 42
-8.9276587E-003
 10
1.8586791E+002
 20
3.8905794E+001
 70
1
  0
VERTEX
  5
3c9
100
AcDbEntity
  8
5
100
AcDbVertex
100
AcDb2dVertex
 42
-9.3939358E-003
 10
1.8577129E+002
 20
3.9008919E+001
 70
0
  0
VERTEX
  5
3ca
100
AcDbEntity
  8
5
100
AcDbVertex
100
AcDb2dVertex
 42
-9.663661E-003
 10
1.8567641E+002
 20
3.9118485E+001
 70
1
  0
VERTEX
  5
3cb
100
AcDbEntity
  8
5
100
AcDbVertex
100
AcDb2dVertex
 42
-9.962525E-003
 10
1.8558385E+002
 20
3.9234106E+001
 70
0
  0
VERTEX
  5
3cc
100
AcDbEntity
  8
5
100
AcDbVertex
100
AcDb2dVertex
 42
-1.0206688E-002
 10
1.8549439E+002
 20
3.9355861E+001
 70
1
  0
VERTEX
  5
3cd
100
AcDbEntity
  8
5
100
AcDbVertex
100
AcDb2dVertex
 42
-1.0625985E-002
 10
1.8540863E+002
 20
3.9483196E+001
 70
0
  0
VERTEX
  5
3ce
100
AcDbEntity
  8
5
100
AcDbVertex
100
AcDb2dVertex
 42
-1.0963642E-002
 10
1.8532753E+002
 20
3.9615959E+001
 70
1
  0
VERTEX
  5
3cf
100
AcDbEntity
  8
5
100
AcDbVertex
100
AcDb2dVertex
 42
-1.1428022E-002
 10
1.8525165E+002
 20
3.9753429E+001
 70
0
  0
VERTEX
  5
3d0
100
AcDbEntity
  8
5
100
AcDbVertex
100
AcDb2dVertex
 42
-1.1854866E-002
 10
1.8518201E+002
 20
3.9895222E+001
 70
1
  0
VERTEX
  5
3d1
100
AcDbEntity
  8
5
100
AcDbVertex
100
AcDb2dVertex
 42
-1.2426708E-002
 10
1.8511908E+002
 20
4.0040482E+001
 70
0
  0
VERTEX
  5
3d2
100
AcDbEntity
  8
5
100
AcDbVertex
100
AcDb2dVertex
 42
-1.2924425E-002
 10
1.8506388E+002
 20
4.0188583E+001
 70
1
  0
VERTEX
  5
3d3
100
AcDbEntity
  8
5
100
AcDbVertex
100
AcDb2dVertex
 42
-1.3490027E-002
 10
1.8501672E+002
 20
4.0338529E+001
 70
0
  0
VERTEX
  5
3d4
100
AcDbEntity
  8
5
100
AcDbVertex
100
AcDb2dVertex
 42
-1.4217766E-002
 10
1.849785E+002
 20
4.048946E+001
 70
1
  0
VERTEX
  5
3d5
100
AcDbEntity
  8
5
100
AcDbVertex
100
AcDb2dVertex
 42
-1.5196565E-002
 10
1.8494942E+002
 20
4.0640504E+001
 70
0
  0
VERTEX
  5
3d6
100
AcDbEntity
  8
5
100
AcDbVertex
100
AcDb2dVertex
 42
-1.5579972E-002
 10
1.8493032E+002
 20
4.079069E+001
 70
1
  0
VERTEX
  5
3d7
100
AcDbEntity
  8
5
100
AcDbVertex
100
AcDb2dVertex
 42
-1.5413894E-002
 10
1.8492059E+002
 20
4.0938577E+001
 70
0
  0
VERTEX
  5
3d8
100
AcDbEntity
  8
5
100
AcDbVertex
100
AcDb2dVertex
 42
-1.7532022E-002
 10
1.8492068E+002
 20
4.1082895E+001
 70
1
  0
VERTEX
  5
3d9
100
AcDbEntity
  8
5
100
AcDbVertex
100
AcDb2dVertex
 42
-2.1498082E-002
 10
1.8493172E+002
 20
4.1224789E+001
 70
0
  0
VERTEX
  5
3da
100
AcDbEntity
  8
5
100
AcDbVertex
100
AcDb2dVertex
 42
-1.77971E-002
 10
1.8495457E+002
 20
4.1363837E+001
 70
1
  0
VERTEX
  5
3db
100
AcDbEntity
  8
5
100
AcDbVertex
100
AcDb2dVertex
 42
-7.8224104E-003
 10
1.8498223E+002
 20
4.1491736E+001
 70
0
  0
VERTEX
  5
3dc
100
AcDbEntity
  8
5
100
AcDbVertex
100
AcDb2dVertex
 42
-2.4994184E-002
 10
1.8501253E+002
 20
4.1604832E+001
 70
1
  0
VERTEX
  5
3dd
100
AcDbEntity
  8
5
100
AcDbVertex
100
AcDb2dVertex
 42
-4.520104E-002
 10
1.8506952E+002
 20
4.1733203E+001
 70
0
  0
VERTEX
  5
3de
100
AcDbEntity
  8
5
100
AcDbVertex
100
AcDb2dVertex
 42
-2.4144231E-002
 10
1.8517924E+002
 20
4.1908E+001
 70
1
  0
VERTEX
  5
3df
100
AcDbEntity
  8
5
100
AcDbVertex
100
AcDb2dVertex
 42
-1.3295277E-002
 10
1.8533621E+002
 20
4.2123246E+001
 70
0
  0
SEQEND
  5
3e0
100
AcDbEntity
  0
POLYLINE
  5
3e1
100
AcDbEntity
  8
5
100
AcDb2dPolyline
  6
CONTINUOUS
 62
6
 66
1
 40
0.0
 41
0.0
 70
2
  0
VERTEX
  5
3e2
100
AcDbEntity
  8
5
100
AcDbVertex
100
AcDb2dVertex
 42
0.0
 10
1.8938715E+002
 20
3.9388236E+001
 70
0
  0
VERTEX
  5
3e3
100
AcDbEntity
  8
5
100
AcDbVertex
100
AcDb2dVertex
 42
2.1659547E-003
 10
1.8938707E+002
 20
3.940622E+001
 70
1
  0
VERTEX
  5
3e4
100
AcDbEntity
  8
5
100
AcDbVertex
100
AcDb2dVertex
 42
2.1205914E-003
 10
1.8938684E+002
 20
3.9424338E+001
 70
0
  0
VERTEX
  5
3e5
100
AcDbEntity
  8
5
100
AcDbVertex
100
AcDb2dVertex
 42
2.100922E-003
 10
1.8938645E+002
 20
3.9442593E+001
 70
1
  0
VERTEX
  5
3e6
100
AcDbEntity
  8
5
100
AcDbVertex
100
AcDb2dVertex
 42
2.1122392E-003
 10
1.893859E+002
 20
3.9460982E+001
 70
0
  0
VERTEX
  5
3e7
100
AcDbEntity
  8
5
100
AcDbVertex
100
AcDb2dVertex
 42
2.1109586E-003
 10
1.8938519E+002
 20
3.9479507E+001
 70
1
  0
VERTEX
  5
3e8
100
AcDbEntity
  8
5
100
AcDbVertex
100
AcDb2dVertex
 42
2.1078722E-003
 10
1.8938432E+002
 20
3.9498163E+001
 70
0
  0
VERTEX
  5
3e9
100
AcDbEntity
  8
5
100
AcDbVertex
100
AcDb2dVertex
 42
2.1017838E-003
 10
1.8938328E+002
 20
3.9516955E+001
 70
1
  0
VERTEX
  5
3ea
100
AcDbEntity
  8
5
100
AcDbVertex
100
AcDb2dVertex
 42
2.101972E-003
 10
1.8938207E+002
 20
3.9535877E+001
 70
0
  0
VERTEX
  5
3eb
100
AcDbEntity
  8
5
100
AcDbVertex
100
AcDb2dVertex
 42
2.0971088E-003
 10
1.893807E+002
 20
3.9554933E+001
 70
1
  0
VERTEX
  5
3ec
100
AcDbEntity
  8
5
100
AcDbVertex
100
AcDb2dVertex
 42
2.0966809E-003
 10
1.8937915E+002
 20
3.9574116E+001
 70
0
  0
VERTEX
  5
3ed
100
AcDbEntity
  8
5
100
AcDbVertex
100
AcDb2dVertex
 42
2.0908241E-003
 10
1.8937742E+002
 20
3.9593432E+001
 70
1
  0
VERTEX
  5
3ee
100
AcDbEntity
  8
5
100
AcDbVertex
100
AcDb2dVertex
 42
2.0889434E-003
 10
1.8937552E+002
 20
3.9612874E+001
 70
0
  0
VERTEX
  5
3ef
100
AcDbEntity
  8
5
100
AcDbVertex
100
AcDb2dVertex
 42
2.085213E-003
 10
1.8937344E+002
 20
3.9632445E+001
 70
1
  0
VERTEX
  5
3f0
100
AcDbEntity
  8
5
100
AcDbVertex
100
AcDb2dVertex
 42
2.0883901E-003
 10
1.8937119E+002
 20
3.9652141E+001
 70
0
  0
VERTEX
  5
3f1
100
AcDbEntity
  8
5
100
AcDbVertex
100
AcDb2dVertex
 42
2.0771943E-003
 10
1.8936874E+002
 20
3.9671968E+001
 70
1
  0
VERTEX
  5
3f2
100
AcDbEntity
  8
5
100
AcDbVertex
100
AcDb2dVertex
 42
2.062521E-003
 10
1.8936612E+002
 20
3.969191E+001
 70
0
  0
VERTEX
  5
3f3
100
AcDbEntity
  8
5
100
AcDbVertex
100
AcDb2dVertex
 42
2.0764599E-003
 10
1.8936331E+002
 20
3.9711969E+001
 70
1
  0
VERTEX
  5
3f4
100
AcDbEntity
  8
5
100
AcDbVertex
100
AcDb2dVertex
 42
2.120167E-003
 10
1.8936031E+002
 20
3.973217E+001
 70
0
  0
VERTEX
  5
3f5
100
AcDbEntity
  8
5
100
AcDbVertex
100
AcDb2dVertex
 42
2.050007E-003
 10
1.893571E+002
 20
3.9752525E+001
 70
1
  0
VERTEX
  5
3f6
100
AcDbEntity
  8
5
100
AcDbVertex
100
AcDb2dVertex
 42
1.9056688E-003
 10
1.8935373E+002
 20
3.977291E+001
 70
0
  0
VERTEX
  5
3f7
100
AcDbEntity
  8
5
100
AcDbVertex
100
AcDb2dVertex
 42
2.1108158E-003
 10
1.8935019E+002
 20
3.9793285E+001
 70
1
  0
VERTEX
  5
3f8
100
AcDbEntity
  8
5
100
AcDbVertex
100
AcDb2dVertex
 42
2.5297879E-003
 10
1.8934638E+002
 20
3.9814118E+001
 70
0
  0
VERTEX
  5
3f9
100
AcDbEntity
  8
5
100
AcDbVertex
100
AcDb2dVertex
 42
1.891089E-003
 10
1.8934223E+002
 20
3.9835572E+001
 70
1
  0
VERTEX
  5
3fa
100
AcDbEntity
  8
5
100
AcDbVertex
100
AcDb2dVertex
 42
6.026823E-004
 10
1.8933823E+002
 20
3.9855782E+001
 70
0
  0
VERTEX
  5
3fb
100
AcDbEntity
  8
5
100
AcDbVertex
100
AcDb2dVertex
 42
2.7047196E-003
 10
1.8933451E+002
 20
3.9874109E+001
 70
1
  0
VERTEX
  5
3fc
100
AcDbEntity
  8
5
100
AcDbVertex
100
AcDb2dVertex
 42
4.6368416E-003
 10
1.8932927E+002
 20
3.9897887E+001
 70
0
  0
VERTEX
  5
3fd
100
AcDbEntity
  8
5
100
AcDbVertex
100
AcDb2dVertex
 42
2.2212321E-003
 10
1.893206E+002
 20
3.9934817E+001
 70
1
  0
VERTEX
  5
3fe
100
AcDbEntity
  8
5
100
AcDbVertex
100
AcDb2dVertex
 42
1.158842E-003
 10
1.8930887E+002
 20
3.9983364E+001
 70
0
  0
SEQEND
  5
3ff
100
AcDbEntity
  0
POLYLINE
  5
400
100
AcDbEntity
  8
5
100
AcDb2dPolyline
  6
CONTINUOUS
 62
6
 66
1
 40
0.0
 41
0.0
 70
2
  0
VERTEX
  5
401
100
AcDbEntity
  8
5
100
AcDbVertex
100
AcDb2dVertex
 42
0.0
 10
1.8702739E+002
 20
4.2372754E+001
 70
0
  0
VERTEX
  5
402
100
AcDbEntity
  8
5
100
AcDbVertex
100
AcDb2dVertex
 42
1.3538197E-002
 10
1.8687342E+002
 20
4.2413877E+001
 70
1
  0
VERTEX
  5
403
100
AcDbEntity
  8
5
100
AcDbVertex
100
AcDb2dVertex
 42
1.5354346E-002
 10
1.867244E+002
 20
4.2444726E+001
 70
0
  0
VERTEX
  5
404
100
AcDbEntity
  8
5
100
AcDbVertex
100
AcDb2dVertex
 42
1.6349213E-002
 10
1.8658047E+002
 20
4.2464786E+001
 70
1
  0
VERTEX
  5
405
100
AcDbEntity
  8
5
100
AcDbVertex
100
AcDb2dVertex
 42
1.624282E-002
 10
1.8644193E+002
 20
4.24751E+001
 70
0
  0
VERTEX
  5
406
100
AcDbEntity
  8
5
100
AcDbVertex
100
AcDb2dVertex
 42
1.6363076E-002
 10
1.8630973E+002
 20
4.2476079E+001
 70
1
  0
VERTEX
  5
407
100
AcDbEntity
  8
5
100
AcDbVertex
100
AcDb2dVertex
 42
1.6297666E-002
 10
1.8618447E+002
 20
4.2468953E+001
 70
0
  0
VERTEX
  5
408
100
AcDbEntity
  8
5
100
AcDbVertex
100
AcDb2dVertex
 42
1.7105292E-002
 10
1.8606681E+002
 20
4.2454157E+001
 70
1
  0
VERTEX
  5
409
100
AcDbEntity
  8
5
100
AcDbVertex
100
AcDb2dVertex
 42
1.7222897E-002
 10
1.8595426E+002
 20
4.2432141E+001
 70
0
  0
VERTEX
  5
40a
100
AcDbEntity
  8
5
100
AcDbVertex
100
AcDb2dVertex
 42
1.7684893E-002
 10
1.858445E+002
 20
4.2402468E+001
 70
1
  0
VERTEX
  5
40b
100
AcDbEntity
  8
5
100
AcDbVertex
100
AcDb2dVertex
 42
1.9103404E-002
 10
1.8573647E+002
 20
4.2364652E+001
 70
0
  0
VERTEX
  5
40c
100
AcDbEntity
  8
5
100
AcDbVertex
100
AcDb2dVertex
 42
1.9905394E-002
 10
1.8562988E+002
 20
4.2317475E+001
 70
1
  0
VERTEX
  5
40d
100
AcDbEntity
  8
5
100
AcDbVertex
100
AcDb2dVertex
 42
2.1212958E-002
 10
1.8552567E+002
 20
4.2260867E+001
 70
0
  0
VERTEX
  5
40e
100
AcDbEntity
  8
5
100
AcDbVertex
100
AcDb2dVertex
 42
2.2148765E-002
 10
1.8542522E+002
 20
4.2194083E+001
 70
1
  0
VERTEX
  5
40f
100
AcDbEntity
  8
5
100
AcDbVertex
100
AcDb2dVertex
 42
2.3040796E-002
 10
1.8532936E+002
 20
4.2117243E+001
 70
0
  0
VERTEX
  5
410
100
AcDbEntity
  8
5
100
AcDbVertex
100
AcDb2dVertex
 42
2.3475723E-002
 10
1.8523931E+002
 20
4.2029696E+001
 70
1
  0
VERTEX
  5
411
100
AcDbEntity
  8
5
100
AcDbVertex
100
AcDb2dVertex
 42
2.39854E-002
 10
1.8515589E+002
 20
4.1931863E+001
 70
0
  0
VERTEX
  5
412
100
AcDbEntity
  8
5
100
AcDbVertex
100
AcDb2dVertex
 42
2.3957803E-002
 10
1.8508049E+002
 20
4.1823412E+001
 70
1
  0
VERTEX
  5
413
100
AcDbEntity
  8
5
100
AcDbVertex
100
AcDb2dVertex
 42
2.3882191E-002
 10
1.8501379E+002
 20
4.1705092E+001
 70
0
  0
VERTEX
  5
414
100
AcDbEntity
  8
5
100
AcDbVertex
100
AcDb2dVertex
 42
2.3340312E-002
 10
1.8495714E+002
 20
4.1576944E+001
 70
1
  0
VERTEX
  5
415
100
AcDbEntity
  8
5
100
AcDbVertex
100
AcDb2dVertex
 42
2.2787303E-002
 10
1.8491094E+002
 20
4.1440046E+001
 70
0
  0
VERTEX
  5
416
100
AcDbEntity
  8
5
100
AcDbVertex
100
AcDb2dVertex
 42
2.1901628E-002
 10
1.8487639E+002
 20
4.1294858E+001
 70
1
  0
VERTEX
  5
417
100
AcDbEntity
  8
5
100
AcDbVertex
100
AcDb2dVertex
 42
2.1038794E-002
 10
1.8485353E+002
 20
4.1142729E+001
 70
0
  0
VERTEX
  5
418
100
AcDbEntity
  8
5
100
AcDbVertex
100
AcDb2dVertex
 42
2.0010079E-002
 10
1.8484326E+002
 20
4.0984517E+001
 70
1
  0
VERTEX
  5
419
100
AcDbEntity
  8
5
100
AcDbVertex
100
AcDb2dVertex
 42
1.9032516E-002
 10
1.8484521E+002
 20
4.0821724E+001
 70
0
  0
VERTEX
  5
41a
100
AcDbEntity
  8
5
100
AcDbVertex
100
AcDb2dVertex
 42
1.802849E-002
 10
1.8485989E+002
 20
4.0655519E+001
 70
1
  0
VERTEX
  5
41b
100
AcDbEntity
  8
5
100
AcDbVertex
100
AcDb2dVertex
 42
1.7071656E-002
 10
1.8488652E+002
 20
4.0487409E+001
 70
0
  0
VERTEX
  5
41c
100
AcDbEntity
  8
5
100
AcDbVertex
100
AcDb2dVertex
 42
1.6186126E-002
 10
1.8492519E+002
 20
4.0318742E+001
 70
1
  0
VERTEX
  5
41d
100
AcDbEntity
  8
5
100
AcDbVertex
100
AcDb2dVertex
 42
1.532203E-002
 10
1.849748E+002
 20
4.0150872E+001
 70
0
  0
VERTEX
  5
41e
100
AcDbEntity
  8
5
100
AcDbVertex
100
AcDb2dVertex
 42
1.458771E-002
 10
1.8503505E+002
 20
3.9985175E+001
 70
1
  0
VERTEX
  5
41f
100
AcDbEntity
  8
5
100
AcDbVertex
100
AcDb2dVertex
 42
1.3838555E-002
 10
1.8510462E+002
 20
3.9822724E+001
 70
0
  0
VERTEX
  5
420
100
AcDbEntity
  8
5
100
AcDbVertex
100
AcDb2dVertex
 42
1.3255359E-002
 10
1.8518292E+002
 20
3.9664788E+001
 70
1
  0
VERTEX
  5
421
100
AcDbEntity
  8
5
100
AcDbVertex
100
AcDb2dVertex
 42
1.2625928E-002
 10
1.8526857E+002
 20
3.9512085E+001
 70
0
  0
VERTEX
  5
422
100
AcDbEntity
  8
5
100
AcDbVertex
100
AcDb2dVertex
 42
1.2166018E-002
 10
1.8536078E+002
 20
3.9365677E+001
 70
1
  0
VERTEX
  5
423
100
AcDbEntity
  8
5
100
AcDbVertex
100
AcDb2dVertex
 42
1.1618531E-002
 10
1.8545822E+002
 20
3.9225915E+001
 70
0
  0
VERTEX
  5
424
100
AcDbEntity
  8
5
100
AcDbVertex
100
AcDb2dVertex
 42
1.1291766E-002
 10
1.8556003E+002
 20
3.9093609E+001
 70
1
  0
VERTEX
  5
425
100
AcDbEntity
  8
5
100
AcDbVertex
100
AcDb2dVertex
 42
1.0899576E-002
 10
1.8566508E+002
 20
3.896876E+001
 70
0
  0
VERTEX
  5
426
100
AcDbEntity
  8
5
100
AcDbVertex
100
AcDb2dVertex
 42
1.0561476E-002
 10
1.8577255E+002
 20
3.8851915E+001
 70
1
  0
VERTEX
  5
427
100
AcDbEntity
  8
5
100
AcDbVertex
100
AcDb2dVertex
 42
9.9774016E-003
 10
1.858813E+002
 20
3.8742863E+001
 70
0
  0
VERTEX
  5
428
100
AcDbEntity
  8
5
100
AcDbVertex
100
AcDb2dVertex
 42
1.0224011E-002
 10
1.8599105E+002
 20
3.8641497E+001
 70
1
  0
VERTEX
  5
429
100
AcDbEntity
  8
5
100
AcDbVertex
100
AcDb2dVertex
 42
1.0341171E-002
 10
1.8610468E+002
 20
3.8544842E+001
 70
0
  0
VERTEX
  5
42a
100
AcDbEntity
  8
5
100
AcDbVertex
100
AcDb2dVertex
 42
1.024483E-002
 10
1.8622547E+002
 20
3.8450521E+001
 70
1
  0
VERTEX
  5
42b
100
AcDbEntity
  8
5
100
AcDbVertex
100
AcDb2dVertex
 42
1.1010134E-002
 10
1.8635317E+002
 20
3.835913E+001
 70
0
  0
VERTEX
  5
42c
100
AcDbEntity
  8
5
100
AcDbVertex
100
AcDb2dVertex
 42
1.1571696E-002
 10
1.8648746E+002
 20
3.827215E+001
 70
1
  0
VERTEX
  5
42d
100
AcDbEntity
  8
5
100
AcDbVertex
100
AcDb2dVertex
 42
1.2147701E-002
 10
1.866277E+002
 20
3.8190351E+001
 70
0
  0
VERTEX
  5
42e
100
AcDbEntity
  8
5
100
AcDbVertex
100
AcDb2dVertex
 42
1.2681561E-002
 10
1.8677368E+002
 20
3.8114878E+001
 70
1
  0
VERTEX
  5
42f
100
AcDbEntity
  8
5
100
AcDbVertex
100
AcDb2dVertex
 42
1.3483951E-002
 10
1.8692448E+002
 20
3.8046502E+001
 70
0
  0
VERTEX
  5
430
100
AcDbEntity
  8
5
100
AcDbVertex
100
AcDb2dVertex
 42
1.4212741E-002
 10
1.8707948E+002
 20
3.7986593E+001
 70
1
  0
VERTEX
  5
431
100
AcDbEntity
  8
5
100
AcDbVertex
100
AcDb2dVertex
 42
1.5124076E-002
 10
1.8723753E+002
 20
3.7935764E+001
 70
0
  0
VERTEX
  5
432
100
AcDbEntity
  8
5
100
AcDbVertex
100
AcDb2dVertex
 42
1.6005414E-002
 10
1.8739771E+002
 20
3.7895335E+001
 70
1
  0
VERTEX
  5
433
100
AcDbEntity
  8
5
100
AcDbVertex
100
AcDb2dVertex
 42
1.7069121E-002
 10
1.8755872E+002
 20
3.7865668E+001
 70
0
  0
VERTEX
  5
434
100
AcDbEntity
  8
5
100
AcDbVertex
100
AcDb2dVertex
 42
1.8113846E-002
 10
1.8771933E+002
 20
3.7847935E+001
 70
1
  0
VERTEX
  5
435
100
AcDbEntity
  8
5
100
AcDbVertex
100
AcDb2dVertex
 42
1.9267073E-002
 10
1.8787824E+002
 20
3.784214E+001
 70
0
  0
VERTEX
  5
436
100
AcDbEntity
  8
5
100
AcDbVertex
100
AcDb2dVertex
 42
2.0422628E-002
 10
1.88034E+002
 20
3.7849163E+001
 70
1
  0
VERTEX
  5
437
100
AcDbEntity
  8
5
100
AcDbVertex
100
AcDb2dVertex
 42
2.1596221E-002
 10
1.8818544E+002
 20
3.7868608E+001
 70
0
  0
VERTEX
  5
438
100
AcDbEntity
  8
5
100
AcDbVertex
100
AcDb2dVertex
 42
2.2673898E-002
 10
1.8833105E+002
 20
3.7900972E+001
 70
1
  0
VERTEX
  5
439
100
AcDbEntity
  8
5
100
AcDbVertex
100
AcDb2dVertex
 42
2.3525184E-002
 10
1.884699E+002
 20
3.794539E+001
 70
0
  0
VERTEX
  5
43a
100
AcDbEntity
  8
5
100
AcDbVertex
100
AcDb2dVertex
 42
2.4486833E-002
 10
1.8860059E+002
 20
3.8001909E+001
 70
1
  0
VERTEX
  5
43b
100
AcDbEntity
  8
5
100
AcDbVertex
100
AcDb2dVertex
 42
2.5308882E-002
 10
1.8872258E+002
 20
3.8069538E+001
 70
0
  0
VERTEX
  5
43c
100
AcDbEntity
  8
5
100
AcDbVertex
100
AcDb2dVertex
 42
2.5183228E-002
 10
1.8883469E+002
 20
3.8147986E+001
 70
1
  0
VERTEX
  5
43d
100
AcDbEntity
  8
5
100
AcDbVertex
100
AcDb2dVertex
 42
2.38989E-002
 10
1.8893675E+002
 20
3.8235194E+001
 70
0
  0
VERTEX
  5
43e
100
AcDbEntity
  8
5
100
AcDbVertex
100
AcDb2dVertex
 42
2.525214E-002
 10
1.8902789E+002
 20
3.8330252E+001
 70
1
  0
VERTEX
  5
43f
100
AcDbEntity
  8
5
100
AcDbVertex
100
AcDb2dVertex
 42
2.7934257E-002
 10
1.8910855E+002
 20
3.8434383E+001
 70
0
  0
VERTEX
  5
440
100
AcDbEntity
  8
5
100
AcDbVertex
100
AcDb2dVertex
 42
2.1967681E-002
 10
1.8917828E+002
 20
3.8547625E+001
 70
1
  0
VERTEX
  5
441
100
AcDbEntity
  8
5
100
AcDbVertex
100
AcDb2dVertex
 42
1.0550192E-002
 10
1.89237E+002
 20
3.8658028E+001
 70
0
  0
VERTEX
  5
442
100
AcDbEntity
  8
5
100
AcDbVertex
100
AcDb2dVertex
 42
2.6251487E-002
 10
1.8928428E+002
 20
3.8760983E+001
 70
1
  0
VERTEX
  5
443
100
AcDbEntity
  8
5
100
AcDbVertex
100
AcDb2dVertex
 42
4.0193966E-002
 10
1.8932369E+002
 20
3.8896961E+001
 70
0
  0
VERTEX
  5
444
100
AcDbEntity
  8
5
100
AcDbVertex
100
AcDb2dVertex
 42
1.9878053E-002
 10
1.8935806E+002
 20
3.910893E+001
 70
1
  0
VERTEX
  5
445
100
AcDbEntity
  8
5
100
AcDbVertex
100
AcDb2dVertex
 42
1.0866073E-002
 10
1.8938715E+002
 20
3.9388236E+001
 70
0
  0
SEQEND
  5
446
100
AcDbEntity
  0
ELLIPSE
  5
447
100
AcDbEntity
  8
5
100
AcDbEllipse
  6
CONTINUOUS
 10
1.1790653E+002
 20
5.6409367E+001
 11
3.5671708
 21
-3.7835555
 40
7.0710678E-001
 41
0.0
 42
6.2831853
 62
6
  0
POLYLINE
  5
448
100
AcDbEntity
  8
5
100
AcDb2dPolyline
  6
CONTINUOUS
 62
6
 66
1
 40
0.0
 41
0.0
 70
2
  0
VERTEX
  5
449
100
AcDbEntity
  8
5
100
AcDbVertex
100
AcDb2dVertex
 42
0.0
 10
1.1441802E+002
 20
6.0264109E+001
 70
0
  0
VERTEX
  5
44a
100
AcDbEntity
  8
5
100
AcDbVertex
100
AcDb2dVertex
 42
2.2836503E-002
 10
1.1426766E+002
 20
6.0096678E+001
 70
1
  0
VERTEX
  5
44b
100
AcDbEntity
  8
5
100
AcDbVertex
100
AcDb2dVertex
 42
2.1683259E-002
 10
1.141301E+002
 20
5.9913423E+001
 70
0
  0
VERTEX
  5
44c
100
AcDbEntity
  8
5
100
AcDbVertex
100
AcDb2dVertex
 42
2.0941655E-002
 10
1.1400567E+002
 20
5.9713599E+001
 70
1
  0
VERTEX
  5
44d
100
AcDbEntity
  8
5
100
AcDbVertex
100
AcDb2dVertex
 42
2.1207446E-002
 10
1.1389531E+002
 20
5.9498478E+001
 70
0
  0
VERTEX
  5
44e
100
AcDbEntity
  8
5
100
AcDbVertex
100
AcDb2dVertex
 42
2.0876377E-002
 10
1.138014E+002
 20
5.9268275E+001
 70
1
  0
VERTEX
  5
44f
100
AcDbEntity
  8
5
100
AcDbVertex
100
AcDb2dVertex
 42
2.0268821E-002
 10
1.1372433E+002
 20
5.9024621E+001
 70
0
  0
VERTEX
  5
450
100
AcDbEntity
  8
5
100
AcDbVertex
100
AcDb2dVertex
 42
1.9502787E-002
 10
1.1366571E+002
 20
5.8768155E+001
 70
1
  0
VERTEX
  5
451
100
AcDbEntity
  8
5
100
AcDbVertex
100
AcDb2dVertex
 42
1.883732E-002
 10
1.1362551E+002
 20
5.8500837E+001
 70
0
  0
VERTEX
  5
452
100
AcDbEntity
  8
5
100
AcDbVertex
100
AcDb2dVertex
 42
1.802483E-002
 10
1.136051E+002
 20
5.8223845E+001
 70
1
  0
VERTEX
  5
453
100
AcDbEntity
  8
5
100
AcDbVertex
100
AcDb2dVertex
 42
1.7234554E-002
 10
1.1360391E+002
 20
5.7939321E+001
 70
0
  0
VERTEX
  5
454
100
AcDbEntity
  8
5
100
AcDbVertex
100
AcDb2dVertex
 42
1.6418578E-002
 10
1.1362279E+002
 20
5.7648849E+001
 70
1
  0
VERTEX
  5
455
100
AcDbEntity
  8
5
100
AcDbVertex
100
AcDb2dVertex
 42
1.5644715E-002
 10
1.1366066E+002
 20
5.7354586E+001
 70
0
  0
VERTEX
  5
456
100
AcDbEntity
  8
5
100
AcDbVertex
100
AcDb2dVertex
 42
1.4908142E-002
 10
1.1371785E+002
 20
5.7058387E+001
 70
1
  0
VERTEX
  5
457
100
AcDbEntity
  8
5
100
AcDbVertex
100
AcDb2dVertex
 42
1.4190461E-002
 10
1.1379282E+002
 20
5.6762239E+001
 70
0
  0
VERTEX
  5
458
100
AcDbEntity
  8
5
100
AcDbVertex
100
AcDb2dVertex
 42
1.3558509E-002
 10
1.138854E+002
 20
5.6468097E+001
 70
1
  0
VERTEX
  5
459
100
AcDbEntity
  8
5
100
AcDbVertex
100
AcDb2dVertex
 42
1.2922928E-002
 10
1.1399374E+002
 20
5.6177625E+001
 70
0
  0
VERTEX
  5
45a
100
AcDbEntity
  8
5
100
AcDbVertex
100
AcDb2dVertex
 42
1.2400378E-002
 10
1.1411722E+002
 20
5.5892711E+001
 70
1
  0
VERTEX
  5
45b
100
AcDbEntity
  8
5
100
AcDbVertex
100
AcDb2dVertex
 42
1.184795E-002
 10
1.1425387E+002
 20
5.561459E+001
 70
0
  0
VERTEX
  5
45c
100
AcDbEntity
  8
5
100
AcDbVertex
100
AcDb2dVertex
 42
1.1428294E-002
 10
1.1440273E+002
 20
5.5344952E+001
 70
1
  0
VERTEX
  5
45d
100
AcDbEntity
  8
5
100
AcDbVertex
100
AcDb2dVertex
 42
1.0959295E-002
 10
1.1456185E+002
 20
5.5084552E+001
 70
0
  0
VERTEX
  5
45e
100
AcDbEntity
  8
5
100
AcDbVertex
100
AcDb2dVertex
 42
1.0620136E-002
 10
1.1473008E+002
 20
5.4834794E+001
 70
1
  0
VERTEX
  5
45f
100
AcDbEntity
  8
5
100
AcDbVertex
100
AcDb2dVertex
 42
1.0202527E-002
 10
1.1490558E+002
 20
5.4595979E+001
 70
0
  0
VERTEX
  5
460
100
AcDbEntity
  8
5
100
AcDbVertex
100
AcDb2dVertex
 42
9.9590731E-003
 10
1.1508714E+002
 20
5.4369193E+001
 70
1
  0
VERTEX
  5
461
100
AcDbEntity
  8
5
100
AcDbVertex
100
AcDb2dVertex
 42
9.6600918E-003
 10
1.1527326E+002
 20
5.4154282E+001
 70
0
  0
VERTEX
  5
462
100
AcDbEntity
  8
5
100
AcDbVertex
100
AcDb2dVertex
 42
9.390413E-003
 10
1.154628E+002
 20
5.3951997E+001
 70
1
  0
VERTEX
  5
463
100
AcDbEntity
  8
5
100
AcDbVertex
100
AcDb2dVertex
 42
8.924649E-003
 10
1.156541E+002
 20
5.376204E+001
 70
0
  0
VERTEX
  5
464
100
AcDbEntity
  8
5
100
AcDbVertex
100
AcDb2dVertex
 42
9.1246951E-003
 10
1.1584677E+002
 20
5.3584283E+001
 70
1
  0
VERTEX
  5
465
100
AcDbEntity
  8
5
100
AcDbVertex
100
AcDb2dVertex
 42
9.2062939E-003
 10
1.1604542E+002
 20
5.3413963E+001
 70
0
  0
VERTEX
  5
466
100
AcDbEntity
  8
5
100
AcDbVertex
100
AcDb2dVertex
 42
9.123548E-003
 10
1.1625527E+002
 20
5.3247209E+001
 70
1
  0
VERTEX
  5
467
100
AcDbEntity
  8
5
100
AcDbVertex
100
AcDb2dVertex
 42
9.727842E-003
 10
1.1647605E+002
 20
5.3084754E+001
 70
0
  0
VERTEX
  5
468
100
AcDbEntity
  8
5
100
AcDbVertex
100
AcDb2dVertex
 42
1.015936E-002
 10
1.167074E+002
 20
5.2928682E+001
 70
1
  0
VERTEX
  5
469
100
AcDbEntity
  8
5
100
AcDbVertex
100
AcDb2dVertex
 42
1.0594661E-002
 10
1.1694841E+002
 20
5.278004E+001
 70
0
  0
VERTEX
  5
46a
100
AcDbEntity
  8
5
100
AcDbVertex
100
AcDb2dVertex
 42
1.1003572E-002
 10
1.1719898E+002
 20
5.2640421E+001
 70
1
  0
VERTEX
  5
46b
100
AcDbEntity
  8
5
100
AcDbVertex
100
AcDb2dVertex
 42
1.1630402E-002
 10
1.1745788E+002
 20
5.2510915E+001
 70
0
  0
VERTEX
  5
46c
100
AcDbEntity
  8
5
100
AcDbVertex
100
AcDb2dVertex
 42
1.2139121E-002
 10
1.1772442E+002
 20
5.2393474E+001
 70
1
  0
VERTEX
  5
46d
100
AcDbEntity
  8
5
100
AcDbVertex
100
AcDb2dVertex
 42
1.2739645E-002
 10
1.1799705E+002
 20
5.2288963E+001
 70
0
  0
VERTEX
  5
46e
100
AcDbEntity
  8
5
100
AcDbVertex
100
AcDb2dVertex
 42
1.3487494E-002
 10
1.1827464E+002
 20
5.2199317E+001
 70
1
  0
VERTEX
  5
46f
100
AcDbEntity
  8
5
100
AcDbVertex
100
AcDb2dVertex
 42
1.4563724E-002
 10
1.1855574E+002
 20
5.2125386E+001
 70
0
  0
VERTEX
  5
470
100
AcDbEntity
  8
5
100
AcDbVertex
100
AcDb2dVertex
 42
1.4939302E-002
 10
1.1883893E+002
 20
5.2069105E+001
 70
1
  0
VERTEX
  5
471
100
AcDbEntity
  8
5
100
AcDbVertex
100
AcDb2dVertex
 42
1.4800729E-002
 10
1.191213E+002
 20
5.2029965E+001
 70
0
  0
VERTEX
  5
472
100
AcDbEntity
  8
5
100
AcDbVertex
100
AcDb2dVertex
 42
1.7092033E-002
 10
1.194006E+002
 20
5.200931E+001
 70
1
  0
VERTEX
  5
473
100
AcDbEntity
  8
5
100
AcDbVertex
100
AcDb2dVertex
 42
2.1447144E-002
 10
1.1967928E+002
 20
5.200997E+001
 70
0
  0
VERTEX
  5
474
100
AcDbEntity
  8
5
100
AcDbVertex
100
AcDb2dVertex
 42
1.7502961E-002
 10
1.1995671E+002
 20
5.2034208E+001
 70
1
  0
VERTEX
  5
475
100
AcDbEntity
  8
5
100
AcDbVertex
100
AcDb2dVertex
 42
6.9855119E-003
 10
1.2021457E+002
 20
5.2069223E+001
 70
0
  0
VERTEX
  5
476
100
AcDbEntity
  8
5
100
AcDbVertex
100
AcDb2dVertex
 42
2.551454E-002
 10
1.2044495E+002
 20
5.2111571E+001
 70
1
  0
VERTEX
  5
477
100
AcDbEntity
  8
5
100
AcDbVertex
100
AcDb2dVertex
 42
4.7205512E-002
 10
1.2071264E+002
 20
5.2207513E+001
 70
0
  0
VERTEX
  5
478
100
AcDbEntity
  8
5
100
AcDbVertex
100
AcDb2dVertex
 42
2.4788281E-002
 10
1.2108515E+002
 20
5.2407246E+001
 70
1
  0
VERTEX
  5
479
100
AcDbEntity
  8
5
100
AcDbVertex
100
AcDb2dVertex
 42
1.3347061E-002
 10
1.2154939E+002
 20
5.2700147E+001
 70
0
  0
SEQEND
  5
47a
100
AcDbEntity
  0
POLYLINE
  5
47b
100
AcDbEntity
  8
5
100
AcDb2dPolyline
  6
CONTINUOUS
 62
1
 66
1
 40
0.0
 41
0.0
 70
2
  0
VERTEX
  5
47c
100
AcDbEntity
  8
5
100
AcDbVertex
100
AcDb2dVertex
 42
0.0
 10
1.2122859E+002
 20
5.5900815E+001
 70
0
  0
VERTEX
  5
47d
100
AcDbEntity
  8
5
100
AcDbVertex
100
AcDb2dVertex
 42
-2.3310731E-002
 10
1.2113338E+002
 20
5.5825351E+001
 70
1
  0
VERTEX
  5
47e
100
AcDbEntity
  8
5
100
AcDbVertex
100
AcDb2dVertex
 42
-2.27177E-002
 10
1.2103063E+002
 20
5.5758125E+001
 70
0
  0
VERTEX
  5
47f
100
AcDbEntity
  8
5
100
AcDbVertex
100
AcDb2dVertex
 42
-2.1996996E-002
 10
1.2091995E+002
 20
5.5699392E+001
 70
1
  0
VERTEX
  5
480
100
AcDbEntity
  8
5
100
AcDbVertex
100
AcDb2dVertex
 42
-2.1834693E-002
 10
1.2080225E+002
 20
5.5649411E+001
 70
0
  0
VERTEX
  5
481
100
AcDbEntity
  8
5
100
AcDbVertex
100
AcDb2dVertex
 42
-2.1282375E-002
 10
1.2067807E+002
 20
5.5609237E+001
 70
1
  0
VERTEX
  5
482
100
AcDbEntity
  8
5
100
AcDbVertex
100
AcDb2dVertex
 42
-2.0449867E-002
 10
1.2054842E+002
 20
5.5578779E+001
 70
0
  0
VERTEX
  5
483
100
AcDbEntity
  8
5
100
AcDbVertex
100
AcDb2dVertex
 42
-1.9536206E-002
 10
1.2041388E+002
 20
5.5558634E+001
 70
1
  0
VERTEX
  5
484
100
AcDbEntity
  8
5
100
AcDbVertex
100
AcDb2dVertex
 42
-1.8651786E-002
 10
1.2027557E+002
 20
5.5548449E+001
 70
0
  0
VERTEX
  5
485
100
AcDbEntity
  8
5
100
AcDbVertex
100
AcDb2dVertex
 42
-1.7733777E-002
 10
1.201343E+002
 20
5.5548623E+001
 70
1
  0
VERTEX
  5
486
100
AcDbEntity
  8
5
100
AcDbVertex
100
AcDb2dVertex
 42
-1.6787422E-002
 10
1.1999114E+002
 20
5.5558536E+001
 70
0
  0
VERTEX
  5
487
100
AcDbEntity
  8
5
100
AcDbVertex
100
AcDb2dVertex
 42
-1.5912217E-002
 10
1.1984699E+002
 20
5.5578301E+001
 70
1
  0
VERTEX
  5
488
100
AcDbEntity
  8
5
100
AcDbVertex
100
AcDb2dVertex
 42
-1.5030884E-002
 10
1.1970282E+002
 20
5.5607095E+001
 70
0
  0
VERTEX
  5
489
100
AcDbEntity
  8
5
100
AcDbVertex
100
AcDb2dVertex
 42
-1.4264678E-002
 10
1.1955956E+002
 20
5.5644787E+001
 70
1
  0
VERTEX
  5
48a
100
AcDbEntity
  8
5
100
AcDbVertex
100
AcDb2dVertex
 42
-1.347291E-002
 10
1.1941799E+002
 20
5.5690422E+001
 70
0
  0
VERTEX
  5
48b
100
AcDbEntity
  8
5
100
AcDbVertex
100
AcDb2dVertex
 42
-1.283055E-002
 10
1.1927898E+002
 20
5.5743668E+001
 70
1
  0
VERTEX
  5
48c
100
AcDbEntity
  8
5
100
AcDbVertex
100
AcDb2dVertex
 42
-1.2151106E-002
 10
1.191431E+002
 20
5.5803528E+001
 70
0
  0
VERTEX
  5
48d
100
AcDbEntity
  8
5
100
AcDbVertex
100
AcDb2dVertex
 42
-1.1613178E-002
 10
1.1901111E+002
 20
5.5869536E+001
 70
1
  0
VERTEX
  5
48e
100
AcDbEntity
  8
5
100
AcDbVertex
100
AcDb2dVertex
 42
-1.1007013E-002
 10
1.1888336E+002
 20
5.5940699E+001
 70
0
  0
VERTEX
  5
48f
100
AcDbEntity
  8
5
100
AcDbVertex
100
AcDb2dVertex
 42
-1.0605482E-002
 10
1.1876048E+002
 20
5.6016467E+001
 70
1
  0
VERTEX
  5
490
100
AcDbEntity
  8
5
100
AcDbVertex
100
AcDb2dVertex
 42
-1.0164079E-002
 10
1.1864253E+002
 20
5.6096027E+001
 70
0
  0
VERTEX
  5
491
100
AcDbEntity
  8
5
100
AcDbVertex
100
AcDb2dVertex
 42
-9.730081E-003
 10
1.1852998E+002
 20
5.6178842E+001
 70
1
  0
VERTEX
  5
492
100
AcDbEntity
  8
5
100
AcDbVertex
100
AcDb2dVertex
 42
-9.1268663E-003
 10
1.1842299E+002
 20
5.626385E+001
 70
0
  0
VERTEX
  5
493
100
AcDbEntity
  8
5
100
AcDbVertex
100
AcDb2dVertex
 42
-9.2101921E-003
 10
1.1832171E+002
 20
5.6350676E+001
 70
1
  0
VERTEX
  5
494
100
AcDbEntity
  8
5
100
AcDbVertex
100
AcDb2dVertex
 42
-9.1279447E-003
 10
1.1822349E+002
 20
5.6441295E+001
 70
0
  0
VERTEX
  5
495
100
AcDbEntity
  8
5
100
AcDbVertex
100
AcDb2dVertex
 42
-8.9276587E-003
 10
1.1812597E+002
 20
5.6538134E+001
 70
1
  0
VERTEX
  5
496
100
AcDbEntity
  8
5
100
AcDbVertex
100
AcDb2dVertex
 42
-9.3939358E-003
 10
1.1802935E+002
 20
5.664126E+001
 70
0
  0
VERTEX
  5
497
100
AcDbEntity
  8
5
100
AcDbVertex
100
AcDb2dVertex
 42
-9.663661E-003
 10
1.1793447E+002
 20
5.6750826E+001
 70
1
  0
VERTEX
  5
498
100
AcDbEntity
  8
5
100
AcDbVertex
100
AcDb2dVertex
 42
-9.962525E-003
 10
1.1784191E+002
 20
5.6866447E+001
 70
0
  0
VERTEX
  5
499
100
AcDbEntity
  8
5
100
AcDbVertex
100
AcDb2dVertex
 42
-1.0206688E-002
 10
1.1775244E+002
 20
5.6988202E+001
 70
1
  0
VERTEX
  5
49a
100
AcDbEntity
  8
5
100
AcDbVertex
100
AcDb2dVertex
 42
-1.0625985E-002
 10
1.1766669E+002
 20
5.7115537E+001
 70
0
  0
VERTEX
  5
49b
100
AcDbEntity
  8
5
100
AcDbVertex
100
AcDb2dVertex
 42
-1.0963642E-002
 10
1.1758558E+002
 20
5.7248299E+001
 70
1
  0
VERTEX
  5
49c
100
AcDbEntity
  8
5
100
AcDbVertex
100
AcDb2dVertex
 42
-1.1428022E-002
 10
1.1750971E+002
 20
5.738577E+001
 70
0
  0
VERTEX
  5
49d
100
AcDbEntity
  8
5
100
AcDbVertex
100
AcDb2dVertex
 42
-1.1854866E-002
 10
1.1744006E+002
 20
5.7527563E+001
 70
1
  0
VERTEX
  5
49e
100
AcDbEntity
  8
5
100
AcDbVertex
100
AcDb2dVertex
 42
-1.2426708E-002
 10
1.1737714E+002
 20
5.7672823E+001
 70
0
  0
VERTEX
  5
49f
100
AcDbEntity
  8
5
100
AcDbVertex
100
AcDb2dVertex
 42
-1.2924425E-002
 10
1.1732194E+002
 20
5.7820924E+001
 70
1
  0
VERTEX
  5
4a0
100
AcDbEntity
  8
5
100
AcDbVertex
100
AcDb2dVertex
 42
-1.3490027E-002
 10
1.1727477E+002
 20
5.797087E+001
 70
0
  0
VERTEX
  5
4a1
100
AcDbEntity
  8
5
100
AcDbVertex
100
AcDb2dVertex
 42
-1.4217766E-002
 10
1.1723655E+002
 20
5.8121801E+001
 70
1
  0
VERTEX
  5
4a2
100
AcDbEntity
  8
5
100
AcDbVertex
100
AcDb2dVertex
 42
-1.5196565E-002
 10
1.1720748E+002
 20
5.8272845E+001
 70
0
  0
VERTEX
  5
4a3
100
AcDbEntity
  8
5
100
AcDbVertex
100
AcDb2dVertex
 42
-1.5579972E-002
 10
1.1718837E+002
 20
5.8423031E+001
 70
1
  0
VERTEX
  5
4a4
100
AcDbEntity
  8
5
100
AcDbVertex
100
AcDb2dVertex
 42
-1.5413894E-002
 10
1.1717865E+002
 20
5.8570918E+001
 70
0
  0
VERTEX
  5
4a5
100
AcDbEntity
  8
5
100
AcDbVertex
100
AcDb2dVertex
 42
-1.7532022E-002
 10
1.1717873E+002
 20
5.8715236E+001
 70
1
  0
VERTEX
  5
4a6
100
AcDbEntity
  8
5
100
AcDbVertex
100
AcDb2dVertex
 42
-2.1498082E-002
 10
1.1718978E+002
 20
5.8857129E+001
 70
0
  0
VERTEX
  5
4a7
100
AcDbEntity
  8
5
100
AcDbVertex
100
AcDb2dVertex
 42
-1.77971E-002
 10
1.1721263E+002
 20
5.8996178E+001
 70
1
  0
VERTEX
  5
4a8
100
AcDbEntity
  8
5
100
AcDbVertex
100
AcDb2dVertex
 42
-7.8224104E-003
 10
1.1724028E+002
 20
5.9124077E+001
 70
0
  0
VERTEX
  5
4a9
100
AcDbEntity
  8
5
100
AcDbVertex
100
AcDb2dVertex
 42
-2.4994184E-002
 10
1.1727059E+002
 20
5.9237173E+001
 70
1
  0
VERTEX
  5
4aa
100
AcDbEntity
  8
5
100
AcDbVertex
100
AcDb2dVertex
 42
-4.520104E-002
 10
1.1732758E+002
 20
5.9365544E+001
 70
0
  0
VERTEX
  5
4ab
100
AcDbEntity
  8
5
100
AcDbVertex
100
AcDb2dVertex
 42
-2.4144231E-002
 10
1.174373E+002
 20
5.9540341E+001
 70
1
  0
VERTEX
  5
4ac
100
AcDbEntity
  8
5
100
AcDbVertex
100
AcDb2dVertex
 42
-1.3295277E-002
 10
1.1759427E+002
 20
5.9755587E+001
 70
0
  0
SEQEND
  5
4ad
100
AcDbEntity
  0
POLYLINE
  5
4ae
100
AcDbEntity
  8
5
100
AcDb2dPolyline
  6
CONTINUOUS
 62
6
 66
1
 40
0.0
 41
0.0
 70
2
  0
VERTEX
  5
4af
100
AcDbEntity
  8
5
100
AcDbVertex
100
AcDb2dVertex
 42
0.0
 10
1.216452E+002
 20
5.7020537E+001
 70
0
  0
VERTEX
  5
4b0
100
AcDbEntity
  8
5
100
AcDbVertex
100
AcDb2dVertex
 42
2.1660417E-003
 10
1.2164512E+002
 20
5.7038524E+001
 70
1
  0
VERTEX
  5
4b1
100
AcDbEntity
  8
5
100
AcDbVertex
100
AcDb2dVertex
 42
2.1206977E-003
 10
1.2164489E+002
 20
5.7056643E+001
 70
0
  0
VERTEX
  5
4b2
100
AcDbEntity
  8
5
100
AcDbVertex
100
AcDb2dVertex
 42
2.1010483E-003
 10
1.216445E+002
 20
5.7074901E+001
 70
1
  0
VERTEX
  5
4b3
100
AcDbEntity
  8
5
100
AcDbVertex
100
AcDb2dVertex
 42
2.1123869E-003
 10
1.2164395E+002
 20
5.7093292E+001
 70
0
  0
VERTEX
  5
4b4
100
AcDbEntity
  8
5
100
AcDbVertex
100
AcDb2dVertex
 42
2.1111273E-003
 10
1.2164324E+002
 20
5.7111819E+001
 70
1
  0
VERTEX
  5
4b5
100
AcDbEntity
  8
5
100
AcDbVertex
100
AcDb2dVertex
 42
2.1080611E-003
 10
1.2164237E+002
 20
5.7130478E+001
 70
0
  0
VERTEX
  5
4b6
100
AcDbEntity
  8
5
100
AcDbVertex
100
AcDb2dVertex
 42
2.1019931E-003
 10
1.2164133E+002
 20
5.7149272E+001
 70
1
  0
VERTEX
  5
4b7
100
AcDbEntity
  8
5
100
AcDbVertex
100
AcDb2dVertex
 42
2.1022016E-003
 10
1.2164012E+002
 20
5.7168196E+001
 70
0
  0
VERTEX
  5
4b8
100
AcDbEntity
  8
5
100
AcDbVertex
100
AcDb2dVertex
 42
2.0973586E-003
 10
1.2163875E+002
 20
5.7187253E+001
 70
1
  0
VERTEX
  5
4b9
100
AcDbEntity
  8
5
100
AcDbVertex
100
AcDb2dVertex
 42
2.0969506E-003
 10
1.216372E+002
 20
5.7206439E+001
 70
0
  0
VERTEX
  5
4ba
100
AcDbEntity
  8
5
100
AcDbVertex
100
AcDb2dVertex
 42
2.0911137E-003
 10
1.2163547E+002
 20
5.7225756E+001
 70
1
  0
VERTEX
  5
4bb
100
AcDbEntity
  8
5
100
AcDbVertex
100
AcDb2dVertex
 42
2.0892522E-003
 10
1.2163358E+002
 20
5.7245199E+001
 70
0
  0
VERTEX
  5
4bc
100
AcDbEntity
  8
5
100
AcDbVertex
100
AcDb2dVertex
 42
2.0855416E-003
 10
1.216315E+002
 20
5.7264772E+001
 70
1
  0
VERTEX
  5
4bd
100
AcDbEntity
  8
5
100
AcDbVertex
100
AcDb2dVertex
 42
2.0887386E-003
 10
1.2162924E+002
 20
5.728447E+001
 70
0
  0
VERTEX
  5
4be
100
AcDbEntity
  8
5
100
AcDbVertex
100
AcDb2dVertex
 42
2.0775609E-003
 10
1.216268E+002
 20
5.7304298E+001
 70
1
  0
VERTEX
  5
4bf
100
AcDbEntity
  8
5
100
AcDbVertex
100
AcDb2dVertex
 42
2.0629038E-003
 10
1.2162418E+002
 20
5.7324241E+001
 70
0
  0
VERTEX
  5
4c0
100
AcDbEntity
  8
5
100
AcDbVertex
100
AcDb2dVertex
 42
2.0768648E-003
 10
1.2162136E+002
 20
5.7344302E+001
 70
1
  0
VERTEX
  5
4c1
100
AcDbEntity
  8
5
100
AcDbVertex
100
AcDb2dVertex
 42
2.1205999E-003
 10
1.2161836E+002
 20
5.7364504E+001
 70
0
  0
VERTEX
  5
4c2
100
AcDbEntity
  8
5
100
AcDbVertex
100
AcDb2dVertex
 42
2.0504448E-003
 10
1.2161516E+002
 20
5.738486E+001
 70
1
  0
VERTEX
  5
4c3
100
AcDbEntity
  8
5
100
AcDbVertex
100
AcDb2dVertex
 42
1.906092E-003
 10
1.2161179E+002
 20
5.7405246E+001
 70
0
  0
VERTEX
  5
4c4
100
AcDbEntity
  8
5
100
AcDbVertex
100
AcDb2dVertex
 42
2.1113029E-003
 10
1.2160825E+002
 20
5.7425622E+001
 70
1
  0
VERTEX
  5
4c5
100
AcDbEntity
  8
5
100
AcDbVertex
100
AcDb2dVertex
 42
2.5303967E-003
 10
1.2160443E+002
 20
5.7446456E+001
 70
0
  0
VERTEX
  5
4c6
100
AcDbEntity
  8
5
100
AcDbVertex
100
AcDb2dVertex
 42
1.8915637E-003
 10
1.2160029E+002
 20
5.746791E+001
 70
1
  0
VERTEX
  5
4c7
100
AcDbEntity
  8
5
100
AcDbVertex
100
AcDb2dVertex
 42
6.028367E-004
 10
1.2159628E+002
 20
5.7488121E+001
 70
0
  0
VERTEX
  5
4c8
100
AcDbEntity
  8
5
100
AcDbVertex
100
AcDb2dVertex
 42
2.705425E-003
 10
1.2159257E+002
 20
5.7506449E+001
 70
1
  0
VERTEX
  5
4c9
100
AcDbEntity
  8
5
100
AcDbVertex
100
AcDb2dVertex
 42
4.6381297E-003
 10
1.2158733E+002
 20
5.7530227E+001
 70
0
  0
VERTEX
  5
4ca
100
AcDbEntity
  8
5
100
AcDbVertex
100
AcDb2dVertex
 42
2.2218814E-003
 10
1.2157865E+002
 20
5.7567158E+001
 70
1
  0
VERTEX
  5
4cb
100
AcDbEntity
  8
5
100
AcDbVertex
100
AcDb2dVertex
 42
1.1591882E-003
 10
1.2156693E+002
 20
5.7615705E+001
 70
0
  0
SEQEND
  5
4cc
100
AcDbEntity
  0
POLYLINE
  5
4cd
100
AcDbEntity
  8
5
100
AcDb2dPolyline
  6
CONTINUOUS
 62
6
 66
1
 40
0.0
 41
0.0
 70
2
  0
VERTEX
  5
4ce
100
AcDbEntity
  8
5
100
AcDbVertex
100
AcDb2dVertex
 42
0.0
 10
1.1928543E+002
 20
6.0005098E+001
 70
0
  0
VERTEX
  5
4cf
100
AcDbEntity
  8
5
100
AcDbVertex
100
AcDb2dVertex
 42
1.3538488E-002
 10
1.1913147E+002
 20
6.004622E+001
 70
1
  0
VERTEX
  5
4d0
100
AcDbEntity
  8
5
100
AcDbVertex
100
AcDb2dVertex
 42
1.5354602E-002
 10
1.1898245E+002
 20
6.0077069E+001
 70
0
  0
VERTEX
  5
4d1
100
AcDbEntity
  8
5
100
AcDbVertex
100
AcDb2dVertex
 42
1.634939E-002
 10
1.1883852E+002
 20
6.0097128E+001
 70
1
  0
VERTEX
  5
4d2
100
AcDbEntity
  8
5
100
AcDbVertex
100
AcDb2dVertex
 42
1.6242904E-002
 10
1.1869998E+002
 20
6.0107441E+001
 70
0
  0
VERTEX
  5
4d3
100
AcDbEntity
  8
5
100
AcDbVertex
100
AcDb2dVertex
 42
1.6363055E-002
 10
1.1856778E+002
 20
6.0108421E+001
 70
1
  0
VERTEX
  5
4d4
100
AcDbEntity
  8
5
100
AcDbVertex
100
AcDb2dVertex
 42
1.6297521E-002
 10
1.1844253E+002
 20
6.0101294E+001
 70
0
  0
VERTEX
  5
4d5
100
AcDbEntity
  8
5
100
AcDbVertex
100
AcDb2dVertex
 42
1.7105064E-002
 10
1.1832487E+002
 20
6.0086498E+001
 70
1
  0
VERTEX
  5
4d6
100
AcDbEntity
  8
5
100
AcDbVertex
100
AcDb2dVertex
 42
1.7222734E-002
 10
1.1821232E+002
 20
6.0064482E+001
 70
0
  0
VERTEX
  5
4d7
100
AcDbEntity
  8
5
100
AcDbVertex
100
AcDb2dVertex
 42
1.7684809E-002
 10
1.1810256E+002
 20
6.0034809E+001
 70
1
  0
VERTEX
  5
4d8
100
AcDbEntity
  8
5
100
AcDbVertex
100
AcDb2dVertex
 42
1.9103396E-002
 10
1.1799453E+002
 20
5.9996993E+001
 70
0
  0
VERTEX
  5
4d9
100
AcDbEntity
  8
5
100
AcDbVertex
100
AcDb2dVertex
 42
1.990542E-002
 10
1.1788794E+002
 20
5.9949816E+001
 70
1
  0
VERTEX
  5
4da
100
AcDbEntity
  8
5
100
AcDbVertex
100
AcDb2dVertex
 42
2.121296E-002
 10
1.1778373E+002
 20
5.9893208E+001
 70
0
  0
VERTEX
  5
4db
100
AcDbEntity
  8
5
100
AcDbVertex
100
AcDb2dVertex
 42
2.2148757E-002
 10
1.1768327E+002
 20
5.9826424E+001
 70
1
  0
VERTEX
  5
4dc
100
AcDbEntity
  8
5
100
AcDbVertex
100
AcDb2dVertex
 42
2.3040795E-002
 10
1.1758742E+002
 20
5.9749583E+001
 70
0
  0
VERTEX
  5
4dd
100
AcDbEntity
  8
5
100
AcDbVertex
100
AcDb2dVertex
 42
2.3475725E-002
 10
1.1749736E+002
 20
5.9662037E+001
 70
1
  0
VERTEX
  5
4de
100
AcDbEntity
  8
5
100
AcDbVertex
100
AcDb2dVertex
 42
2.39854E-002
 10
1.1741394E+002
 20
5.9564204E+001
 70
0
  0
VERTEX
  5
4df
100
AcDbEntity
  8
5
100
AcDbVertex
100
AcDb2dVertex
 42
2.3957802E-002
 10
1.1733855E+002
 20
5.9455753E+001
 70
1
  0
VERTEX
  5
4e0
100
AcDbEntity
  8
5
100
AcDbVertex
100
AcDb2dVertex
 42
2.3882191E-002
 10
1.1727185E+002
 20
5.9337433E+001
 70
0
  0
VERTEX
  5
4e1
100
AcDbEntity
  8
5
100
AcDbVertex
100
AcDb2dVertex
 42
2.3340312E-002
 10
1.172152E+002
 20
5.9209285E+001
 70
1
  0
VERTEX
  5
4e2
100
AcDbEntity
  8
5
100
AcDbVertex
100
AcDb2dVertex
 42
2.2787303E-002
 10
1.17169E+002
 20
5.9072386E+001
 70
0
  0
VERTEX
  5
4e3
100
AcDbEntity
  8
5
100
AcDbVertex
100
AcDb2dVertex
 42
2.1901628E-002
 10
1.1713445E+002
 20
5.8927199E+001
 70
1
  0
VERTEX
  5
4e4
100
AcDbEntity
  8
5
100
AcDbVertex
100
AcDb2dVertex
 42
2.1038794E-002
 10
1.1711159E+002
 20
5.877507E+001
 70
0
  0
VERTEX
  5
4e5
100
AcDbEntity
  8
5
100
AcDbVertex
100
AcDb2dVertex
 42
2.0010079E-002
 10
1.1710132E+002
 20
5.8616858E+001
 70
1
  0
VERTEX
  5
4e6
100
AcDbEntity
  8
5
100
AcDbVertex
100
AcDb2dVertex
 42
1.9032516E-002
 10
1.1710327E+002
 20
5.8454065E+001
 70
0
  0
VERTEX
  5
4e7
100
AcDbEntity
  8
5
100
AcDbVertex
100
AcDb2dVertex
 42
1.802849E-002
 10
1.1711794E+002
 20
5.828786E+001
 70
1
  0
VERTEX
  5
4e8
100
AcDbEntity
  8
5
100
AcDbVertex
100
AcDb2dVertex
 42
1.7071656E-002
 10
1.1714457E+002
 20
5.811975E+001
 70
0
  0
VERTEX
  5
4e9
100
AcDbEntity
  8
5
100
AcDbVertex
100
AcDb2dVertex
 42
1.6186126E-002
 10
1.1718325E+002
 20
5.7951083E+001
 70
1
  0
VERTEX
  5
4ea
100
AcDbEntity
  8
5
100
AcDbVertex
100
AcDb2dVertex
 42
1.532203E-002
 10
1.1723285E+002
 20
5.7783213E+001
 70
0
  0
VERTEX
  5
4eb
100
AcDbEntity
  8
5
100
AcDbVertex
100
AcDb2dVertex
 42
1.458771E-002
 10
1.172931E+002
 20
5.7617516E+001
 70
1
  0
VERTEX
  5
4ec
100
AcDbEntity
  8
5
100
AcDbVertex
100
AcDb2dVertex
 42
1.3838555E-002
 10
1.1736268E+002
 20
5.7455065E+001
 70
0
  0
VERTEX
  5
4ed
100
AcDbEntity
  8
5
100
AcDbVertex
100
AcDb2dVertex
 42
1.3255359E-002
 10
1.1744098E+002
 20
5.7297129E+001
 70
1
  0
VERTEX
  5
4ee
100
AcDbEntity
  8
5
100
AcDbVertex
100
AcDb2dVertex
 42
1.2625928E-002
 10
1.1752663E+002
 20
5.7144426E+001
 70
0
  0
VERTEX
  5
4ef
100
AcDbEntity
  8
5
100
AcDbVertex
100
AcDb2dVertex
 42
1.2166018E-002
 10
1.1761884E+002
 20
5.6998018E+001
 70
1
  0
VERTEX
  5
4f0
100
AcDbEntity
  8
5
100
AcDbVertex
100
AcDb2dVertex
 42
1.1618531E-002
 10
1.1771628E+002
 20
5.6858256E+001
 70
0
  0
VERTEX
  5
4f1
100
AcDbEntity
  8
5
100
AcDbVertex
100
AcDb2dVertex
 42
1.1291766E-002
 10
1.1781808E+002
 20
5.672595E+001
 70
1
  0
VERTEX
  5
4f2
100
AcDbEntity
  8
5
100
AcDbVertex
100
AcDb2dVertex
 42
1.0899574E-002
 10
1.1792314E+002
 20
5.6601101E+001
 70
0
  0
VERTEX
  5
4f3
100
AcDbEntity
  8
5
100
AcDbVertex
100
AcDb2dVertex
 42
1.0561476E-002
 10
1.180306E+002
 20
5.6484256E+001
 70
1
  0
VERTEX
  5
4f4
100
AcDbEntity
  8
5
100
AcDbVertex
100
AcDb2dVertex
 42
9.9774063E-003
 10
1.1813936E+002
 20
5.6375203E+001
 70
0
  0
VERTEX
  5
4f5
100
AcDbEntity
  8
5
100
AcDbVertex
100
AcDb2dVertex
 42
1.0223979E-002
 10
1.1824911E+002
 20
5.6273838E+001
 70
1
  0
VERTEX
  5
4f6
100
AcDbEntity
  8
5
100
AcDbVertex
100
AcDb2dVertex
 42
1.0341049E-002
 10
1.1836274E+002
 20
5.6177183E+001
 70
0
  0
VERTEX
  5
4f7
100
AcDbEntity
  8
5
100
AcDbVertex
100
AcDb2dVertex
 42
1.0244672E-002
 10
1.1848353E+002
 20
5.6082861E+001
 70
1
  0
VERTEX
  5
4f8
100
AcDbEntity
  8
5
100
AcDbVertex
100
AcDb2dVertex
 42
1.1009972E-002
 10
1.1861123E+002
 20
5.599147E+001
 70
0
  0
VERTEX
  5
4f9
100
AcDbEntity
  8
5
100
AcDbVertex
100
AcDb2dVertex
 42
1.1571527E-002
 10
1.1874552E+002
 20
5.590449E+001
 70
1
  0
VERTEX
  5
4fa
100
AcDbEntity
  8
5
100
AcDbVertex
100
AcDb2dVertex
 42
1.214752E-002
 10
1.1888575E+002
 20
5.582269E+001
 70
0
  0
VERTEX
  5
4fb
100
AcDbEntity
  8
5
100
AcDbVertex
100
AcDb2dVertex
 42
1.2681372E-002
 10
1.1903174E+002
 20
5.5747217E+001
 70
1
  0
VERTEX
  5
4fc
100
AcDbEntity
  8
5
100
AcDbVertex
100
AcDb2dVertex
 42
1.3483754E-002
 10
1.1918254E+002
 20
5.567884E+001
 70
0
  0
VERTEX
  5
4fd
100
AcDbEntity
  8
5
100
AcDbVertex
100
AcDb2dVertex
 42
1.4212539E-002
 10
1.1933753E+002
 20
5.561893E+001
 70
1
  0
VERTEX
  5
4fe
100
AcDbEntity
  8
5
100
AcDbVertex
100
AcDb2dVertex
 42
1.512387E-002
 10
1.1949559E+002
 20
5.5568101E+001
 70
0
  0
VERTEX
  5
4ff
100
AcDbEntity
  8
5
100
AcDbVertex
100
AcDb2dVertex
 42
1.600521E-002
 10
1.1965576E+002
 20
5.5527671E+001
 70
1
  0
VERTEX
  5
500
100
AcDbEntity
  8
5
100
AcDbVertex
100
AcDb2dVertex
 42
1.7068922E-002
 10
1.1981678E+002
 20
5.5498002E+001
 70
0
  0
VERTEX
  5
501
100
AcDbEntity
  8
5
100
AcDbVertex
100
AcDb2dVertex
 42
1.8113661E-002
 10
1.1997739E+002
 20
5.5480268E+001
 70
1
  0
VERTEX
  5
502
100
AcDbEntity
  8
5
100
AcDbVertex
100
AcDb2dVertex
 42
1.926691E-002
 10
1.201363E+002
 20
5.5474471E+001
 70
0
  0
VERTEX
  5
503
100
AcDbEntity
  8
5
100
AcDbVertex
100
AcDb2dVertex
 42
2.0422498E-002
 10
1.2029206E+002
 20
5.5481493E+001
 70
1
  0
VERTEX
  5
504
100
AcDbEntity
  8
5
100
AcDbVertex
100
AcDb2dVertex
 42
2.1596133E-002
 10
1.2044349E+002
 20
5.5500936E+001
 70
0
  0
VERTEX
  5
505
100
AcDbEntity
  8
5
100
AcDbVertex
100
AcDb2dVertex
 42
2.2673867E-002
 10
1.205891E+002
 20
5.5533298E+001
 70
1
  0
VERTEX
  5
506
100
AcDbEntity
  8
5
100
AcDbVertex
100
AcDb2dVertex
 42
2.3525215E-002
 10
1.2072795E+002
 20
5.5577715E+001
 70
0
  0
VERTEX
  5
507
100
AcDbEntity
  8
5
100
AcDbVertex
100
AcDb2dVertex
 42
2.4486936E-002
 10
1.2085864E+002
 20
5.5634232E+001
 70
1
  0
VERTEX
  5
508
100
AcDbEntity
  8
5
100
AcDbVertex
100
AcDb2dVertex
 42
2.5309057E-002
 10
1.2098063E+002
 20
5.5701859E+001
 70
0
  0
VERTEX
  5
509
100
AcDbEntity
  8
5
100
AcDbVertex
100
AcDb2dVertex
 42
2.5183468E-002
 10
1.2109274E+002
 20
5.5780305E+001
 70
1
  0
VERTEX
  5
50a
100
AcDbEntity
  8
5
100
AcDbVertex
100
AcDb2dVertex
 42
2.3899176E-002
 10
1.211948E+002
 20
5.5867511E+001
 70
0
  0
VERTEX
  5
50b
100
AcDbEntity
  8
5
100
AcDbVertex
100
AcDb2dVertex
 42
2.5252473E-002
 10
1.2128594E+002
 20
5.5962567E+001
 70
1
  0
VERTEX
  5
50c
100
AcDbEntity
  8
5
100
AcDbVertex
100
AcDb2dVertex
 42
2.7934658E-002
 10
1.213666E+002
 20
5.6066696E+001
 70
0
  0
VERTEX
  5
50d
100
AcDbEntity
  8
5
100
AcDbVertex
100
AcDb2dVertex
 42
2.1968009E-002
 10
1.2143633E+002
 20
5.6179937E+001
 70
1
  0
VERTEX
  5
50e
100
AcDbEntity
  8
5
100
AcDbVertex
100
AcDb2dVertex
 42
1.0550349E-002
 10
1.2149505E+002
 20
5.6290338E+001
 70
0
  0
VERTEX
  5
50f
100
AcDbEntity
  8
5
100
AcDbVertex
100
AcDb2dVertex
 42
2.6251872E-002
 10
1.2154233E+002
 20
5.6393291E+001
 70
1
  0
VERTEX
  5
510
100
AcDbEntity
  8
5
100
AcDbVertex
100
AcDb2dVertex
 42
4.0194502E-002
 10
1.2158174E+002
 20
5.6529268E+001
 70
0
  0
VERTEX
  5
511
100
AcDbEntity
  8
5
100
AcDbVertex
100
AcDb2dVertex
 42
1.9878277E-002
 10
1.216161E+002
 20
5.6741234E+001
 70
1
  0
VERTEX
  5
512
100
AcDbEntity
  8
5
100
AcDbVertex
100
AcDb2dVertex
 42
1.0866182E-002
 10
1.216452E+002
 20
5.7020537E+001
 70
0
  0
SEQEND
  5
513
100
AcDbEntity
  0
ELLIPSE
  5
514
100
AcDbEntity
  8
5
100
AcDbEllipse
  6
CONTINUOUS
 10
5.6167036E+001
 20
7.7364446E+001
 11
3.5671708
 21
-3.7835555
 40
7.0710678E-001
 41
0.0
 42
6.2831853
 62
6
  0
POLYLINE
  5
515
100
AcDbEntity
  8
5
100
AcDb2dPolyline
  6
CONTINUOUS
 62
6
 66
1
 40
0.0
 41
0.0
 70
2
  0
VERTEX
  5
516
100
AcDbEntity
  8
5
100
AcDbVertex
100
AcDb2dVertex
 42
0.0
 10
5.2678524E+001
 20
8.1219188E+001
 70
0
  0
VERTEX
  5
517
100
AcDbEntity
  8
5
100
AcDbVertex
100
AcDb2dVertex
 42
2.2836503E-002
 10
5.2528166E+001
 20
8.1051756E+001
 70
1
  0
VERTEX
  5
518
100
AcDbEntity
  8
5
100
AcDbVertex
100
AcDb2dVertex
 42
2.1683259E-002
 10
5.2390612E+001
 20
8.0868502E+001
 70
0
  0
VERTEX
  5
519
100
AcDbEntity
  8
5
100
AcDbVertex
100
AcDb2dVertex
 42
2.0941655E-002
 10
5.2266177E+001
 20
8.0668678E+001
 70
1
  0
VERTEX
  5
51a
100
AcDbEntity
  8
5
100
AcDbVertex
100
AcDb2dVertex
 42
2.1207446E-002
 10
5.215582E+001
 20
8.0453557E+001
 70
0
  0
VERTEX
  5
51b
100
AcDbEntity
  8
5
100
AcDbVertex
100
AcDb2dVertex
 42
2.0876377E-002
 10
5.2061906E+001
 20
8.0223353E+001
 70
1
  0
VERTEX
  5
51c
100
AcDbEntity
  8
5
100
AcDbVertex
100
AcDb2dVertex
 42
2.0268821E-002
 10
5.1984835E+001
 20
7.99797E+001
 70
0
  0
VERTEX
  5
51d
100
AcDbEntity
  8
5
100
AcDbVertex
100
AcDb2dVertex
 42
1.9502787E-002
 10
5.1926215E+001
 20
7.9723233E+001
 70
1
  0
VERTEX
  5
51e
100
AcDbEntity
  8
5
100
AcDbVertex
100
AcDb2dVertex
 42
1.883732E-002
 10
5.1886015E+001
 20
7.9455916E+001
 70
0
  0
VERTEX
  5
51f
100
AcDbEntity
  8
5
100
AcDbVertex
100
AcDb2dVertex
 42
1.802483E-002
 10
5.1865608E+001
 20
7.9178923E+001
 70
1
  0
VERTEX
  5
520
100
AcDbEntity
  8
5
100
AcDbVertex
100
AcDb2dVertex
 42
1.7234554E-002
 10
5.1864418E+001
 20
7.8894399E+001
 70
0
  0
VERTEX
  5
521
100
AcDbEntity
  8
5
100
AcDbVertex
100
AcDb2dVertex
 42
1.6418578E-002
 10
5.1883303E+001
 20
7.8603928E+001
 70
1
  0
VERTEX
  5
522
100
AcDbEntity
  8
5
100
AcDbVertex
100
AcDb2dVertex
 42
1.5644715E-002
 10
5.1921172E+001
 20
7.8309665E+001
 70
0
  0
VERTEX
  5
523
100
AcDbEntity
  8
5
100
AcDbVertex
100
AcDb2dVertex
 42
1.4908142E-002
 10
5.1978357E+001
 20
7.8013466E+001
 70
1
  0
VERTEX
  5
524
100
AcDbEntity
  8
5
100
AcDbVertex
100
AcDb2dVertex
 42
1.4190461E-002
 10
5.2053329E+001
 20
7.7717318E+001
 70
0
  0
VERTEX
  5
525
100
AcDbEntity
  8
5
100
AcDbVertex
100
AcDb2dVertex
 42
1.3558509E-002
 10
5.2145904E+001
 20
7.7423176E+001
 70
1
  0
VERTEX
  5
526
100
AcDbEntity
  8
5
100
AcDbVertex
100
AcDb2dVertex
 42
1.2922928E-002
 10
5.2254245E+001
 20
7.7132703E+001
 70
0
  0
VERTEX
  5
527
100
AcDbEntity
  8
5
100
AcDbVertex
100
AcDb2dVertex
 42
1.2400378E-002
 10
5.2377731E+001
 20
7.684779E+001
 70
1
  0
VERTEX
  5
528
100
AcDbEntity
  8
5
100
AcDbVertex
100
AcDb2dVertex
 42
1.184795E-002
 10
5.2514377E+001
 20
7.6569669E+001
 70
0
  0
VERTEX
  5
529
100
AcDbEntity
  8
5
100
AcDbVertex
100
AcDb2dVertex
 42
1.1428294E-002
 10
5.2663241E+001
 20
7.6300031E+001
 70
1
  0
VERTEX
  5
52a
100
AcDbEntity
  8
5
100
AcDbVertex
100
AcDb2dVertex
 42
1.0959295E-002
 10
5.2822355E+001
 20
7.6039631E+001
 70
0
  0
VERTEX
  5
52b
100
AcDbEntity
  8
5
100
AcDbVertex
100
AcDb2dVertex
 42
1.0620136E-002
 10
5.2990589E+001
 20
7.5789873E+001
 70
1
  0
VERTEX
  5
52c
100
AcDbEntity
  8
5
100
AcDbVertex
100
AcDb2dVertex
 42
1.0202527E-002
 10
5.3166091E+001
 20
7.5551058E+001
 70
0
  0
VERTEX
  5
52d
100
AcDbEntity
  8
5
100
AcDbVertex
100
AcDb2dVertex
 42
9.9590731E-003
 10
5.3347653E+001
 20
7.5324272E+001
 70
1
  0
VERTEX
  5
52e
100
AcDbEntity
  8
5
100
AcDbVertex
100
AcDb2dVertex
 42
9.6600918E-003
 10
5.353377E+001
 20
7.510936E+001
 70
0
  0
VERTEX
  5
52f
100
AcDbEntity
  8
5
100
AcDbVertex
100
AcDb2dVertex
 42
9.390413E-003
 10
5.3723304E+001
 20
7.4907076E+001
 70
1
  0
VERTEX
  5
530
100
AcDbEntity
  8
5
100
AcDbVertex
100
AcDb2dVertex
 42
8.924649E-003
 10
5.3914603E+001
 20
7.4717119E+001
 70
0
  0
VERTEX
  5
531
100
AcDbEntity
  8
5
100
AcDbVertex
100
AcDb2dVertex
 42
9.1246951E-003
 10
5.4107274E+001
 20
7.4539362E+001
 70
1
  0
VERTEX
  5
532
100
AcDbEntity
  8
5
100
AcDbVertex
100
AcDb2dVertex
 42
9.2062939E-003
 10
5.4305925E+001
 20
7.4369042E+001
 70
0
  0
VERTEX
  5
533
100
AcDbEntity
  8
5
100
AcDbVertex
100
AcDb2dVertex
 42
9.123548E-003
 10
5.451578E+001
 20
7.4202288E+001
 70
1
  0
VERTEX
  5
534
100
AcDbEntity
  8
5
100
AcDbVertex
100
AcDb2dVertex
 42
9.727842E-003
 10
5.4736559E+001
 20
7.4039833E+001
 70
0
  0
VERTEX
  5
535
100
AcDbEntity
  8
5
100
AcDbVertex
100
AcDb2dVertex
 42
1.015936E-002
 10
5.4967907E+001
 20
7.388376E+001
 70
1
  0
VERTEX
  5
536
100
AcDbEntity
  8
5
100
AcDbVertex
100
AcDb2dVertex
 42
1.0594661E-002
 10
5.5208921E+001
 20
7.3735118E+001
 70
0
  0
VERTEX
  5
537
100
AcDbEntity
  8
5
100
AcDbVertex
100
AcDb2dVertex
 42
1.1003572E-002
 10
5.5459488E+001
 20
7.35955E+001
 70
1
  0
VERTEX
  5
538
100
AcDbEntity
  8
5
100
AcDbVertex
100
AcDb2dVertex
 42
1.1630402E-002
 10
5.5718384E+001
 20
7.3465994E+001
 70
0
  0
VERTEX
  5
539
100
AcDbEntity
  8
5
100
AcDbVertex
100
AcDb2dVertex
 42
1.2139121E-002
 10
5.598493E+001
 20
7.3348552E+001
 70
1
  0
VERTEX
  5
53a
100
AcDbEntity
  8
5
100
AcDbVertex
100
AcDb2dVertex
 42
1.2739645E-002
 10
5.6257556E+001
 20
7.3244041E+001
 70
0
  0
VERTEX
  5
53b
100
AcDbEntity
  8
5
100
AcDbVertex
100
AcDb2dVertex
 42
1.3487494E-002
 10
5.6535146E+001
 20
7.3154396E+001
 70
1
  0
VERTEX
  5
53c
100
AcDbEntity
  8
5
100
AcDbVertex
100
AcDb2dVertex
 42
1.4563724E-002
 10
5.6816252E+001
 20
7.3080464E+001
 70
0
  0
VERTEX
  5
53d
100
AcDbEntity
  8
5
100
AcDbVertex
100
AcDb2dVertex
 42
1.4939302E-002
 10
5.7099438E+001
 20
7.3024184E+001
 70
1
  0
VERTEX
  5
53e
100
AcDbEntity
  8
5
100
AcDbVertex
100
AcDb2dVertex
 42
1.4800729E-002
 10
5.7381805E+001
 20
7.2985044E+001
 70
0
  0
VERTEX
  5
53f
100
AcDbEntity
  8
5
100
AcDbVertex
100
AcDb2dVertex
 42
1.7092033E-002
 10
5.7661104E+001
 20
7.2964389E+001
 70
1
  0
VERTEX
  5
540
100
AcDbEntity
  8
5
100
AcDbVertex
100
AcDb2dVertex
 42
2.1447144E-002
 10
5.7939788E+001
 20
7.2965049E+001
 70
0
  0
VERTEX
  5
541
100
AcDbEntity
  8
5
100
AcDbVertex
100
AcDb2dVertex
 42
1.7502961E-002
 10
5.821722E+001
 20
7.2989287E+001
 70
1
  0
VERTEX
  5
542
100
AcDbEntity
  8
5
100
AcDbVertex
100
AcDb2dVertex
 42
6.9855119E-003
 10
5.8475082E+001
 20
7.3024302E+001
 70
0
  0
VERTEX
  5
543
100
AcDbEntity
  8
5
100
AcDbVertex
100
AcDb2dVertex
 42
2.551454E-002
 10
5.870546E+001
 20
7.3066649E+001
 70
1
  0
VERTEX
  5
544
100
AcDbEntity
  8
5
100
AcDbVertex
100
AcDb2dVertex
 42
4.7205512E-002
 10
5.8973152E+001
 20
7.3162592E+001
 70
0
  0
VERTEX
  5
545
100
AcDbEntity
  8
5
100
AcDbVertex
100
AcDb2dVertex
 42
2.4788281E-002
 10
5.9345663E+001
 20
7.3362324E+001
 70
1
  0
VERTEX
  5
546
100
AcDbEntity
  8
5
100
AcDbVertex
100
AcDb2dVertex
 42
1.3347061E-002
 10
5.9809897E+001
 20
7.3655226E+001
 70
0
  0
SEQEND
  5
547
100
AcDbEntity
  0
POLYLINE
  5
548
100
AcDbEntity
  8
5
100
AcDb2dPolyline
  6
CONTINUOUS
 62
1
 66
1
 40
0.0
 41
0.0
 70
2
  0
VERTEX
  5
549
100
AcDbEntity
  8
5
100
AcDbVertex
100
AcDb2dVertex
 42
0.0
 10
5.9489093E+001
 20
7.6855894E+001
 70
0
  0
VERTEX
  5
54a
100
AcDbEntity
  8
5
100
AcDbVertex
100
AcDb2dVertex
 42
-2.3310731E-002
 10
5.9393885E+001
 20
7.678043E+001
 70
1
  0
VERTEX
  5
54b
100
AcDbEntity
  8
5
100
AcDbVertex
100
AcDb2dVertex
 42
-2.27177E-002
 10
5.929114E+001
 20
7.6713204E+001
 70
0
  0
VERTEX
  5
54c
100
AcDbEntity
  8
5
100
AcDbVertex
100
AcDb2dVertex
 42
-2.1996996E-002
 10
5.9180454E+001
 20
7.6654471E+001
 70
1
  0
VERTEX
  5
54d
100
AcDbEntity
  8
5
100
AcDbVertex
100
AcDb2dVertex
 42
-2.1834693E-002
 10
5.9062762E+001
 20
7.660449E+001
 70
0
  0
VERTEX
  5
54e
100
AcDbEntity
  8
5
100
AcDbVertex
100
AcDb2dVertex
 42
-2.1282375E-002
 10
5.8938579E+001
 20
7.6564316E+001
 70
1
  0
VERTEX
  5
54f
100
AcDbEntity
  8
5
100
AcDbVertex
100
AcDb2dVertex
 42
-2.0449867E-002
 10
5.8808925E+001
 20
7.6533857E+001
 70
0
  0
VERTEX
  5
550
100
AcDbEntity
  8
5
100
AcDbVertex
100
AcDb2dVertex
 42
-1.9536206E-002
 10
5.8674393E+001
 20
7.6513712E+001
 70
1
  0
VERTEX
  5
551
100
AcDbEntity
  8
5
100
AcDbVertex
100
AcDb2dVertex
 42
-1.8651786E-002
 10
5.8536082E+001
 20
7.6503528E+001
 70
0
  0
VERTEX
  5
552
100
AcDbEntity
  8
5
100
AcDbVertex
100
AcDb2dVertex
 42
-1.7733777E-002
 10
5.839481E+001
 20
7.6503701E+001
 70
1
  0
VERTEX
  5
553
100
AcDbEntity
  8
5
100
AcDbVertex
100
AcDb2dVertex
 42
-1.6787422E-002
 10
5.8251647E+001
 20
7.6513615E+001
 70
0
  0
VERTEX
  5
554
100
AcDbEntity
  8
5
100
AcDbVertex
100
AcDb2dVertex
 42
-1.5912217E-002
 10
5.8107501E+001
 20
7.653338E+001
 70
1
  0
VERTEX
  5
555
100
AcDbEntity
  8
5
100
AcDbVertex
100
AcDb2dVertex
 42
-1.5030884E-002
 10
5.7963332E+001
 20
7.6562174E+001
 70
0
  0
VERTEX
  5
556
100
AcDbEntity
  8
5
100
AcDbVertex
100
AcDb2dVertex
 42
-1.4264678E-002
 10
5.7820071E+001
 20
7.6599866E+001
 70
1
  0
VERTEX
  5
557
100
AcDbEntity
  8
5
100
AcDbVertex
100
AcDb2dVertex
 42
-1.347291E-002
 10
5.7678499E+001
 20
7.6645501E+001
 70
0
  0
VERTEX
  5
558
100
AcDbEntity
  8
5
100
AcDbVertex
100
AcDb2dVertex
 42
-1.283055E-002
 10
5.7539493E+001
 20
7.6698746E+001
 70
1
  0
VERTEX
  5
559
100
AcDbEntity
  8
5
100
AcDbVertex
100
AcDb2dVertex
 42
-1.2151106E-002
 10
5.7403611E+001
 20
7.6758607E+001
 70
0
  0
VERTEX
  5
55a
100
AcDbEntity
  8
5
100
AcDbVertex
100
AcDb2dVertex
 42
-1.1613178E-002
 10
5.727162E+001
 20
7.6824615E+001
 70
1
  0
VERTEX
  5
55b
100
AcDbEntity
  8
5
100
AcDbVertex
100
AcDb2dVertex
 42
-1.1007013E-002
 10
5.7143869E+001
 20
7.6895778E+001
 70
0
  0
VERTEX
  5
55c
100
AcDbEntity
  8
5
100
AcDbVertex
100
AcDb2dVertex
 42
-1.0605482E-002
 10
5.7020991E+001
 20
7.6971546E+001
 70
1
  0
VERTEX
  5
55d
100
AcDbEntity
  8
5
100
AcDbVertex
100
AcDb2dVertex
 42
-1.0164079E-002
 10
5.6903043E+001
 20
7.7051105E+001
 70
0
  0
VERTEX
  5
55e
100
AcDbEntity
  8
5
100
AcDbVertex
100
AcDb2dVertex
 42
-9.730081E-003
 10
5.6790484E+001
 20
7.713392E+001
 70
1
  0
VERTEX
  5
55f
100
AcDbEntity
  8
5
100
AcDbVertex
100
AcDb2dVertex
 42
-9.1268663E-003
 10
5.6683496E+001
 20
7.7218928E+001
 70
0
  0
VERTEX
  5
560
100
AcDbEntity
  8
5
100
AcDbVertex
100
AcDb2dVertex
 42
-9.2101921E-003
 10
5.6582222E+001
 20
7.7305755E+001
 70
1
  0
VERTEX
  5
561
100
AcDbEntity
  8
5
100
AcDbVertex
100
AcDb2dVertex
 42
-9.1279447E-003
 10
5.6483999E+001
 20
7.7396373E+001
 70
0
  0
VERTEX
  5
562
100
AcDbEntity
  8
5
100
AcDbVertex
100
AcDb2dVertex
 42
-8.9276587E-003
 10
5.6386476E+001
 20
7.7493213E+001
 70
1
  0
VERTEX
  5
563
100
AcDbEntity
  8
5
100
AcDbVertex
100
AcDb2dVertex
 42
-9.3939358E-003
 10
5.6289853E+001
 20
7.7596339E+001
 70
0
  0
VERTEX
  5
564
100
AcDbEntity
  8
5
100
AcDbVertex
100
AcDb2dVertex
 42
-9.663661E-003
 10
5.6194973E+001
 20
7.7705905E+001
 70
1
  0
VERTEX
  5
565
100
AcDbEntity
  8
5
100
AcDbVertex
100
AcDb2dVertex
 42
-9.962525E-003
 10
5.6102417E+001
 20
7.7821526E+001
 70
0
  0
VERTEX
  5
566
100
AcDbEntity
  8
5
100
AcDbVertex
100
AcDb2dVertex
 42
-1.0206688E-002
 10
5.6012953E+001
 20
7.7943281E+001
 70
1
  0
VERTEX
  5
567
100
AcDbEntity
  8
5
100
AcDbVertex
100
AcDb2dVertex
 42
-1.0625985E-002
 10
5.5927196E+001
 20
7.8070616E+001
 70
0
  0
VERTEX
  5
568
100
AcDbEntity
  8
5
100
AcDbVertex
100
AcDb2dVertex
 42
-1.0963642E-002
 10
5.5846092E+001
 20
7.8203378E+001
 70
1
  0
VERTEX
  5
569
100
AcDbEntity
  8
5
100
AcDbVertex
100
AcDb2dVertex
 42
-1.1428022E-002
 10
5.5770216E+001
 20
7.8340849E+001
 70
0
  0
VERTEX
  5
56a
100
AcDbEntity
  8
5
100
AcDbVertex
100
AcDb2dVertex
 42
-1.1854866E-002
 10
5.5700571E+001
 20
7.8482641E+001
 70
1
  0
VERTEX
  5
56b
100
AcDbEntity
  8
5
100
AcDbVertex
100
AcDb2dVertex
 42
-1.2426708E-002
 10
5.5637644E+001
 20
7.8627902E+001
 70
0
  0
VERTEX
  5
56c
100
AcDbEntity
  8
5
100
AcDbVertex
100
AcDb2dVertex
 42
-1.2924425E-002
 10
5.558245E+001
 20
7.8776003E+001
 70
1
  0
VERTEX
  5
56d
100
AcDbEntity
  8
5
100
AcDbVertex
100
AcDb2dVertex
 42
-1.3490027E-002
 10
5.553528E+001
 20
7.8925949E+001
 70
0
  0
VERTEX
  5
56e
100
AcDbEntity
  8
5
100
AcDbVertex
100
AcDb2dVertex
 42
-1.4217766E-002
 10
5.5497062E+001
 20
7.907688E+001
 70
1
  0
VERTEX
  5
56f
100
AcDbEntity
  8
5
100
AcDbVertex
100
AcDb2dVertex
 42
-1.5196565E-002
 10
5.546799E+001
 20
7.9227923E+001
 70
0
  0
VERTEX
  5
570
100
AcDbEntity
  8
5
100
AcDbVertex
100
AcDb2dVertex
 42
-1.5579972E-002
 10
5.5448881E+001
 20
7.937811E+001
 70
1
  0
VERTEX
  5
571
100
AcDbEntity
  8
5
100
AcDbVertex
100
AcDb2dVertex
 42
-1.5413894E-002
 10
5.543916E+001
 20
7.9525997E+001
 70
0
  0
VERTEX
  5
572
100
AcDbEntity
  8
5
100
AcDbVertex
100
AcDb2dVertex
 42
-1.7532022E-002
 10
5.5439242E+001
 20
7.9670315E+001
 70
1
  0
VERTEX
  5
573
100
AcDbEntity
  8
5
100
AcDbVertex
100
AcDb2dVertex
 42
-2.1498082E-002
 10
5.5450287E+001
 20
7.9812208E+001
 70
0
  0
VERTEX
  5
574
100
AcDbEntity
  8
5
100
AcDbVertex
100
AcDb2dVertex
 42
-1.77971E-002
 10
5.5473137E+001
 20
7.9951256E+001
 70
1
  0
VERTEX
  5
575
100
AcDbEntity
  8
5
100
AcDbVertex
100
AcDb2dVertex
 42
-7.8224104E-003
 10
5.5500791E+001
 20
8.0079156E+001
 70
0
  0
VERTEX
  5
576
100
AcDbEntity
  8
5
100
AcDbVertex
100
AcDb2dVertex
 42
-2.4994184E-002
 10
5.5531095E+001
 20
8.0192251E+001
 70
1
  0
VERTEX
  5
577
100
AcDbEntity
  8
5
100
AcDbVertex
100
AcDb2dVertex
 42
-4.520104E-002
 10
5.5588085E+001
 20
8.0320623E+001
 70
0
  0
VERTEX
  5
578
100
AcDbEntity
  8
5
100
AcDbVertex
100
AcDb2dVertex
 42
-2.4144231E-002
 10
5.5697804E+001
 20
8.049542E+001
 70
1
  0
VERTEX
  5
579
100
AcDbEntity
  8
5
100
AcDbVertex
100
AcDb2dVertex
 42
-1.3295277E-002
 10
5.5854779E+001
 20
8.0710665E+001
 70
0
  0
SEQEND
  5
57a
100
AcDbEntity
  0
POLYLINE
  5
57b
100
AcDbEntity
  8
5
100
AcDb2dPolyline
  6
CONTINUOUS
 62
6
 66
1
 40
0.0
 41
0.0
 70
2
  0
VERTEX
  5
57c
100
AcDbEntity
  8
5
100
AcDbVertex
100
AcDb2dVertex
 42
0.0
 10
5.9905697E+001
 20
7.7975656E+001
 70
0
  0
VERTEX
  5
57d
100
AcDbEntity
  8
5
100
AcDbVertex
100
AcDb2dVertex
 42
2.1665379E-003
 10
5.990562E+001
 20
7.7993641E+001
 70
1
  0
VERTEX
  5
57e
100
AcDbEntity
  8
5
100
AcDbVertex
100
AcDb2dVertex
 42
2.1211643E-003
 10
5.9905389E+001
 20
7.8011758E+001
 70
0
  0
VERTEX
  5
57f
100
AcDbEntity
  8
5
100
AcDbVertex
100
AcDb2dVertex
 42
2.1014913E-003
 10
5.9904999E+001
 20
7.8030014E+001
 70
1
  0
VERTEX
  5
580
100
AcDbEntity
  8
5
100
AcDbVertex
100
AcDb2dVertex
 42
2.1128132E-003
 10
5.9904454E+001
 20
7.8048402E+001
 70
0
  0
VERTEX
  5
581
100
AcDbEntity
  8
5
100
AcDbVertex
100
AcDb2dVertex
 42
2.1115336E-003
 10
5.9903743E+001
 20
7.8066927E+001
 70
1
  0
VERTEX
  5
582
100
AcDbEntity
  8
5
100
AcDbVertex
100
AcDb2dVertex
 42
2.1084477E-003
 10
5.9902872E+001
 20
7.8085583E+001
 70
0
  0
VERTEX
  5
583
100
AcDbEntity
  8
5
100
AcDbVertex
100
AcDb2dVertex
 42
2.1023587E-003
 10
5.9901833E+001
 20
7.8104375E+001
 70
1
  0
VERTEX
  5
584
100
AcDbEntity
  8
5
100
AcDbVertex
100
AcDb2dVertex
 42
2.1025479E-003
 10
5.9900628E+001
 20
7.8123297E+001
 70
0
  0
VERTEX
  5
585
100
AcDbEntity
  8
5
100
AcDbVertex
100
AcDb2dVertex
 42
2.097684E-003
 10
5.989925E+001
 20
7.8142353E+001
 70
1
  0
VERTEX
  5
586
100
AcDbEntity
  8
5
100
AcDbVertex
100
AcDb2dVertex
 42
2.0972566E-003
 10
5.9897704E+001
 20
7.8161536E+001
 70
0
  0
VERTEX
  5
587
100
AcDbEntity
  8
5
100
AcDbVertex
100
AcDb2dVertex
 42
2.0913987E-003
 10
5.989598E+001
 20
7.8180852E+001
 70
1
  0
VERTEX
  5
588
100
AcDbEntity
  8
5
100
AcDbVertex
100
AcDb2dVertex
 42
2.0895177E-003
 10
5.9894083E+001
 20
7.8200294E+001
 70
0
  0
VERTEX
  5
589
100
AcDbEntity
  8
5
100
AcDbVertex
100
AcDb2dVertex
 42
2.0857863E-003
 10
5.9892004E+001
 20
7.8219865E+001
 70
1
  0
VERTEX
  5
58a
100
AcDbEntity
  8
5
100
AcDbVertex
100
AcDb2dVertex
 42
2.0889642E-003
 10
5.9889747E+001
 20
7.8239561E+001
 70
0
  0
VERTEX
  5
58b
100
AcDbEntity
  8
5
100
AcDbVertex
100
AcDb2dVertex
 42
2.077765E-003
 10
5.9887304E+001
 20
7.8259387E+001
 70
1
  0
VERTEX
  5
58c
100
AcDbEntity
  8
5
100
AcDbVertex
100
AcDb2dVertex
 42
2.0630873E-003
 10
5.9884682E+001
 20
7.827933E+001
 70
0
  0
VERTEX
  5
58d
100
AcDbEntity
  8
5
100
AcDbVertex
100
AcDb2dVertex
 42
2.0770294E-003
 10
5.9881871E+001
 20
7.8299389E+001
 70
1
  0
VERTEX
  5
58e
100
AcDbEntity
  8
5
100
AcDbVertex
100
AcDb2dVertex
 42
2.120748E-003
 10
5.9878869E+001
 20
7.8319589E+001
 70
0
  0
VERTEX
  5
58f
100
AcDbEntity
  8
5
100
AcDbVertex
100
AcDb2dVertex
 42
2.0505677E-003
 10
5.9875665E+001
 20
7.8339945E+001
 70
1
  0
VERTEX
  5
590
100
AcDbEntity
  8
5
100
AcDbVertex
100
AcDb2dVertex
 42
1.9061891E-003
 10
5.9872294E+001
 20
7.8360329E+001
 70
0
  0
VERTEX
  5
591
100
AcDbEntity
  8
5
100
AcDbVertex
100
AcDb2dVertex
 42
2.111391E-003
 10
5.9868755E+001
 20
7.8380705E+001
 70
1
  0
VERTEX
  5
592
100
AcDbEntity
  8
5
100
AcDbVertex
100
AcDb2dVertex
 42
2.5304754E-003
 10
5.986494E+001
 20
7.8401537E+001
 70
0
  0
VERTEX
  5
593
100
AcDbEntity
  8
5
100
AcDbVertex
100
AcDb2dVertex
 42
1.8916014E-003
 10
5.9860796E+001
 20
7.8422992E+001
 70
1
  0
VERTEX
  5
594
100
AcDbEntity
  8
5
100
AcDbVertex
100
AcDb2dVertex
 42
6.028453E-004
 10
5.9856792E+001
 20
7.8443201E+001
 70
0
  0
VERTEX
  5
595
100
AcDbEntity
  8
5
100
AcDbVertex
100
AcDb2dVertex
 42
2.70545E-003
 10
5.9853074E+001
 20
7.8461529E+001
 70
1
  0
VERTEX
  5
596
100
AcDbEntity
  8
5
100
AcDbVertex
100
AcDb2dVertex
 42
4.6380853E-003
 10
5.9847835E+001
 20
7.8485307E+001
 70
0
  0
VERTEX
  5
597
100
AcDbEntity
  8
5
100
AcDbVertex
100
AcDb2dVertex
 42
2.221824E-003
 10
5.9839161E+001
 20
7.8522237E+001
 70
1
  0
VERTEX
  5
598
100
AcDbEntity
  8
5
100
AcDbVertex
100
AcDb2dVertex
 42
1.1591497E-003
 10
5.9827438E+001
 20
7.8570784E+001
 70
0
  0
SEQEND
  5
599
100
AcDbEntity
  0
POLYLINE
  5
59a
100
AcDbEntity
  8
5
100
AcDb2dPolyline
  6
CONTINUOUS
 62
6
 66
1
 40
0.0
 41
0.0
 70
2
  0
VERTEX
  5
59b
100
AcDbEntity
  8
5
100
AcDbVertex
100
AcDb2dVertex
 42
0.0
 10
5.7545933E+001
 20
8.0960174E+001
 70
0
  0
VERTEX
  5
59c
100
AcDbEntity
  8
5
100
AcDbVertex
100
AcDb2dVertex
 42
1.3538796E-002
 10
5.739197E+001
 20
8.1001297E+001
 70
1
  0
VERTEX
  5
59d
100
AcDbEntity
  8
5
100
AcDbVertex
100
AcDb2dVertex
 42
1.535493E-002
 10
5.7242958E+001
 20
8.1032146E+001
 70
0
  0
VERTEX
  5
59e
100
AcDbEntity
  8
5
100
AcDbVertex
100
AcDb2dVertex
 42
1.6349704E-002
 10
5.7099025E+001
 20
8.1052206E+001
 70
1
  0
VERTEX
  5
59f
100
AcDbEntity
  8
5
100
AcDbVertex
100
AcDb2dVertex
 42
1.6243176E-002
 10
5.6960489E+001
 20
8.106252E+001
 70
0
  0
VERTEX
  5
5a0
100
AcDbEntity
  8
5
100
AcDbVertex
100
AcDb2dVertex
 42
1.636329E-002
 10
5.6828289E+001
 20
8.1063499E+001
 70
1
  0
VERTEX
  5
5a1
100
AcDbEntity
  8
5
100
AcDbVertex
100
AcDb2dVertex
 42
1.6297721E-002
 10
5.6703035E+001
 20
8.1056373E+001
 70
0
  0
VERTEX
  5
5a2
100
AcDbEntity
  8
5
100
AcDbVertex
100
AcDb2dVertex
 42
1.71052E-002
 10
5.6585378E+001
 20
8.1041577E+001
 70
1
  0
VERTEX
  5
5a3
100
AcDbEntity
  8
5
100
AcDbVertex
100
AcDb2dVertex
 42
1.7222787E-002
 10
5.6472825E+001
 20
8.1019561E+001
 70
0
  0
VERTEX
  5
5a4
100
AcDbEntity
  8
5
100
AcDbVertex
100
AcDb2dVertex
 42
1.7684821E-002
 10
5.6363066E+001
 20
8.0989888E+001
 70
1
  0
VERTEX
  5
5a5
100
AcDbEntity
  8
5
100
AcDbVertex
100
AcDb2dVertex
 42
1.9103394E-002
 10
5.6255035E+001
 20
8.0952072E+001
 70
0
  0
VERTEX
  5
5a6
100
AcDbEntity
  8
5
100
AcDbVertex
100
AcDb2dVertex
 42
1.9905421E-002
 10
5.6148447E+001
 20
8.0904895E+001
 70
1
  0
VERTEX
  5
5a7
100
AcDbEntity
  8
5
100
AcDbVertex
100
AcDb2dVertex
 42
2.1212961E-002
 10
5.6044236E+001
 20
8.0848287E+001
 70
0
  0
VERTEX
  5
5a8
100
AcDbEntity
  8
5
100
AcDbVertex
100
AcDb2dVertex
 42
2.2148756E-002
 10
5.594378E+001
 20
8.0781502E+001
 70
1
  0
VERTEX
  5
5a9
100
AcDbEntity
  8
5
100
AcDbVertex
100
AcDb2dVertex
 42
2.3040795E-002
 10
5.5847926E+001
 20
8.0704662E+001
 70
0
  0
VERTEX
  5
5aa
100
AcDbEntity
  8
5
100
AcDbVertex
100
AcDb2dVertex
 42
2.3475726E-002
 10
5.5757872E+001
 20
8.0617116E+001
 70
1
  0
VERTEX
  5
5ab
100
AcDbEntity
  8
5
100
AcDbVertex
100
AcDb2dVertex
 42
2.39854E-002
 10
5.5674451E+001
 20
8.0519283E+001
 70
0
  0
VERTEX
  5
5ac
100
AcDbEntity
  8
5
100
AcDbVertex
100
AcDb2dVertex
 42
2.3957802E-002
 10
5.5599055E+001
 20
8.0410832E+001
 70
1
  0
VERTEX
  5
5ad
100
AcDbEntity
  8
5
100
AcDbVertex
100
AcDb2dVertex
 42
2.3882191E-002
 10
5.5532357E+001
 20
8.0292512E+001
 70
0
  0
VERTEX
  5
5ae
100
AcDbEntity
  8
5
100
AcDbVertex
100
AcDb2dVertex
 42
2.3340312E-002
 10
5.5475704E+001
 20
8.0164364E+001
 70
1
  0
VERTEX
  5
5af
100
AcDbEntity
  8
5
100
AcDbVertex
100
AcDb2dVertex
 42
2.2787303E-002
 10
5.5429506E+001
 20
8.0027465E+001
 70
0
  0
VERTEX
  5
5b0
100
AcDbEntity
  8
5
100
AcDbVertex
100
AcDb2dVertex
 42
2.1901628E-002
 10
5.5394955E+001
 20
7.9882278E+001
 70
1
  0
VERTEX
  5
5b1
100
AcDbEntity
  8
5
100
AcDbVertex
100
AcDb2dVertex
 42
2.1038794E-002
 10
5.5372095E+001
 20
7.9730149E+001
 70
0
  0
VERTEX
  5
5b2
100
AcDbEntity
  8
5
100
AcDbVertex
100
AcDb2dVertex
 42
2.0010078E-002
 10
5.5361826E+001
 20
7.9571937E+001
 70
1
  0
VERTEX
  5
5b3
100
AcDbEntity
  8
5
100
AcDbVertex
100
AcDb2dVertex
 42
1.9032515E-002
 10
5.5363774E+001
 20
7.9409143E+001
 70
0
  0
VERTEX
  5
5b4
100
AcDbEntity
  8
5
100
AcDbVertex
100
AcDb2dVertex
 42
1.8028489E-002
 10
5.5378452E+001
 20
7.9242939E+001
 70
1
  0
VERTEX
  5
5b5
100
AcDbEntity
  8
5
100
AcDbVertex
100
AcDb2dVertex
 42
1.7071656E-002
 10
5.5405081E+001
 20
7.9074828E+001
 70
0
  0
VERTEX
  5
5b6
100
AcDbEntity
  8
5
100
AcDbVertex
100
AcDb2dVertex
 42
1.6186126E-002
 10
5.5443754E+001
 20
7.8906162E+001
 70
1
  0
VERTEX
  5
5b7
100
AcDbEntity
  8
5
100
AcDbVertex
100
AcDb2dVertex
 42
1.5322029E-002
 10
5.5493363E+001
 20
7.8738291E+001
 70
0
  0
VERTEX
  5
5b8
100
AcDbEntity
  8
5
100
AcDbVertex
100
AcDb2dVertex
 42
1.458771E-002
 10
5.5553613E+001
 20
7.8572594E+001
 70
1
  0
VERTEX
  5
5b9
100
AcDbEntity
  8
5
100
AcDbVertex
100
AcDb2dVertex
 42
1.3838554E-002
 10
5.5623188E+001
 20
7.8410144E+001
 70
0
  0
VERTEX
  5
5ba
100
AcDbEntity
  8
5
100
AcDbVertex
100
AcDb2dVertex
 42
1.3255359E-002
 10
5.5701488E+001
 20
7.8252208E+001
 70
1
  0
VERTEX
  5
5bb
100
AcDbEntity
  8
5
100
AcDbVertex
100
AcDb2dVertex
 42
1.2625927E-002
 10
5.5787138E+001
 20
7.8099505E+001
 70
0
  0
VERTEX
  5
5bc
100
AcDbEntity
  8
5
100
AcDbVertex
100
AcDb2dVertex
 42
1.2166018E-002
 10
5.5879348E+001
 20
7.7953096E+001
 70
1
  0
VERTEX
  5
5bd
100
AcDbEntity
  8
5
100
AcDbVertex
100
AcDb2dVertex
 42
1.161853E-002
 10
5.597679E+001
 20
7.7813335E+001
 70
0
  0
VERTEX
  5
5be
100
AcDbEntity
  8
5
100
AcDbVertex
100
AcDb2dVertex
 42
1.1291766E-002
 10
5.6078592E+001
 20
7.7681029E+001
 70
1
  0
VERTEX
  5
5bf
100
AcDbEntity
  8
5
100
AcDbVertex
100
AcDb2dVertex
 42
1.0899575E-002
 10
5.6183644E+001
 20
7.755618E+001
 70
0
  0
VERTEX
  5
5c0
100
AcDbEntity
  8
5
100
AcDbVertex
100
AcDb2dVertex
 42
1.0561476E-002
 10
5.629111E+001
 20
7.7439335E+001
 70
1
  0
VERTEX
  5
5c1
100
AcDbEntity
  8
5
100
AcDbVertex
100
AcDb2dVertex
 42
9.9774031E-003
 10
5.6399866E+001
 20
7.7330282E+001
 70
0
  0
VERTEX
  5
5c2
100
AcDbEntity
  8
5
100
AcDbVertex
100
AcDb2dVertex
 42
1.0224E-002
 10
5.6509615E+001
 20
7.7228916E+001
 70
1
  0
VERTEX
  5
5c3
100
AcDbEntity
  8
5
100
AcDbVertex
100
AcDb2dVertex
 42
1.0341134E-002
 10
5.6623246E+001
 20
7.7132262E+001
 70
0
  0
VERTEX
  5
5c4
100
AcDbEntity
  8
5
100
AcDbVertex
100
AcDb2dVertex
 42
1.0244789E-002
 10
5.6744037E+001
 20
7.703794E+001
 70
1
  0
VERTEX
  5
5c5
100
AcDbEntity
  8
5
100
AcDbVertex
100
AcDb2dVertex
 42
1.1010098E-002
 10
5.6871735E+001
 20
7.694655E+001
 70
0
  0
VERTEX
  5
5c6
100
AcDbEntity
  8
5
100
AcDbVertex
100
AcDb2dVertex
 42
1.1571666E-002
 10
5.7006029E+001
 20
7.685957E+001
 70
1
  0
VERTEX
  5
5c7
100
AcDbEntity
  8
5
100
AcDbVertex
100
AcDb2dVertex
 42
1.2147677E-002
 10
5.7146262E+001
 20
7.677777E+001
 70
0
  0
VERTEX
  5
5c8
100
AcDbEntity
  8
5
100
AcDbVertex
100
AcDb2dVertex
 42
1.2681545E-002
 10
5.7292244E+001
 20
7.6702297E+001
 70
1
  0
VERTEX
  5
5c9
100
AcDbEntity
  8
5
100
AcDbVertex
100
AcDb2dVertex
 42
1.3483944E-002
 10
5.7443047E+001
 20
7.6633922E+001
 70
0
  0
VERTEX
  5
5ca
100
AcDbEntity
  8
5
100
AcDbVertex
100
AcDb2dVertex
 42
1.4212744E-002
 10
5.7598041E+001
 20
7.6574012E+001
 70
1
  0
VERTEX
  5
5cb
100
AcDbEntity
  8
5
100
AcDbVertex
100
AcDb2dVertex
 42
1.5124092E-002
 10
5.7756097E+001
 20
7.6523184E+001
 70
0
  0
VERTEX
  5
5cc
100
AcDbEntity
  8
5
100
AcDbVertex
100
AcDb2dVertex
 42
1.6005444E-002
 10
5.7916268E+001
 20
7.6482755E+001
 70
1
  0
VERTEX
  5
5cd
100
AcDbEntity
  8
5
100
AcDbVertex
100
AcDb2dVertex
 42
1.7069168E-002
 10
5.8077285E+001
 20
7.6453087E+001
 70
0
  0
VERTEX
  5
5ce
100
AcDbEntity
  8
5
100
AcDbVertex
100
AcDb2dVertex
 42
1.8113912E-002
 10
5.8237895E+001
 20
7.6435355E+001
 70
1
  0
VERTEX
  5
5cf
100
AcDbEntity
  8
5
100
AcDbVertex
100
AcDb2dVertex
 42
1.926716E-002
 10
5.8396804E+001
 20
7.6429559E+001
 70
0
  0
VERTEX
  5
5d0
100
AcDbEntity
  8
5
100
AcDbVertex
100
AcDb2dVertex
 42
2.0422736E-002
 10
5.8552565E+001
 20
7.6436583E+001
 70
1
  0
VERTEX
  5
5d1
100
AcDbEntity
  8
5
100
AcDbVertex
100
AcDb2dVertex
 42
2.159635E-002
 10
5.8704E+001
 20
7.6456028E+001
 70
0
  0
VERTEX
  5
5d2
100
AcDbEntity
  8
5
100
AcDbVertex
100
AcDb2dVertex
 42
2.2674046E-002
 10
5.8849604E+001
 20
7.6488391E+001
 70
1
  0
VERTEX
  5
5d3
100
AcDbEntity
  8
5
100
AcDbVertex
100
AcDb2dVertex
 42
2.3525345E-002
 10
5.8988455E+001
 20
7.653281E+001
 70
0
  0
VERTEX
  5
5d4
100
AcDbEntity
  8
5
100
AcDbVertex
100
AcDb2dVertex
 42
2.4487004E-002
 10
5.9119146E+001
 20
7.6589329E+001
 70
1
  0
VERTEX
  5
5d5
100
AcDbEntity
  8
5
100
AcDbVertex
100
AcDb2dVertex
 42
2.5309054E-002
 10
5.9241133E+001
 20
7.6656958E+001
 70
0
  0
VERTEX
  5
5d6
100
AcDbEntity
  8
5
100
AcDbVertex
100
AcDb2dVertex
 42
2.5183389E-002
 10
5.9353247E+001
 20
7.6735406E+001
 70
1
  0
VERTEX
  5
5d7
100
AcDbEntity
  8
5
100
AcDbVertex
100
AcDb2dVertex
 42
2.3899036E-002
 10
5.9455307E+001
 20
7.6822614E+001
 70
0
  0
VERTEX
  5
5d8
100
AcDbEntity
  8
5
100
AcDbVertex
100
AcDb2dVertex
 42
2.5252261E-002
 10
5.9546444E+001
 20
7.6917672E+001
 70
1
  0
VERTEX
  5
5d9
100
AcDbEntity
  8
5
100
AcDbVertex
100
AcDb2dVertex
 42
2.7934358E-002
 10
5.9627101E+001
 20
7.7021803E+001
 70
0
  0
VERTEX
  5
5da
100
AcDbEntity
  8
5
100
AcDbVertex
100
AcDb2dVertex
 42
2.1967732E-002
 10
5.9696832E+001
 20
7.7135045E+001
 70
1
  0
VERTEX
  5
5db
100
AcDbEntity
  8
5
100
AcDbVertex
100
AcDb2dVertex
 42
1.0550207E-002
 10
5.9755549E+001
 20
7.7245448E+001
 70
0
  0
VERTEX
  5
5dc
100
AcDbEntity
  8
5
100
AcDbVertex
100
AcDb2dVertex
 42
2.6251503E-002
 10
5.9802832E+001
 20
7.7348403E+001
 70
1
  0
VERTEX
  5
5dd
100
AcDbEntity
  8
5
100
AcDbVertex
100
AcDb2dVertex
 42
4.0193911E-002
 10
5.9842243E+001
 20
7.7484382E+001
 70
0
  0
VERTEX
  5
5de
100
AcDbEntity
  8
5
100
AcDbVertex
100
AcDb2dVertex
 42
1.9877993E-002
 10
5.9876607E+001
 20
7.769635E+001
 70
1
  0
VERTEX
  5
5df
100
AcDbEntity
  8
5
100
AcDbVertex
100
AcDb2dVertex
 42
1.0866032E-002
 10
5.9905697E+001
 20
7.7975656E+001
 70
0
  0
SEQEND
  5
5e0
100
AcDbEntity
  0
ELLIPSE
  5
5e1
100
AcDbEntity
  8
5
100
AcDbEllipse
  6
CONTINUOUS
 10
2.6154783E+001
 20
9.291098E+001
 11
3.5671708
 21
-3.7835555
 40
7.0710678E-001
 41
0.0
 42
6.2831853
 62
6
  0
POLYLINE
  5
5e2
100
AcDbEntity
  8
5
100
AcDb2dPolyline
  6
CONTINUOUS
 62
6
 66
1
 40
0.0
 41
0.0
 70
2
  0
VERTEX
  5
5e3
100
AcDbEntity
  8
5
100
AcDbVertex
100
AcDb2dVertex
 42
0.0
 10
2.2666271E+001
 20
9.6765722E+001
 70
0
  0
VERTEX
  5
5e4
100
AcDbEntity
  8
5
100
AcDbVertex
100
AcDb2dVertex
 42
2.2836503E-002
 10
2.2515913E+001
 20
9.659829E+001
 70
1
  0
VERTEX
  5
5e5
100
AcDbEntity
  8
5
100
AcDbVertex
100
AcDb2dVertex
 42
2.1683259E-002
 10
2.2378359E+001
 20
9.6415036E+001
 70
0
  0
VERTEX
  5
5e6
100
AcDbEntity
  8
5
100
AcDbVertex
100
AcDb2dVertex
 42
2.0941655E-002
 10
2.2253924E+001
 20
9.6215211E+001
 70
1
  0
VERTEX
  5
5e7
100
AcDbEntity
  8
5
100
AcDbVertex
100
AcDb2dVertex
 42
2.1207446E-002
 10
2.2143567E+001
 20
9.6000091E+001
 70
0
  0
VERTEX
  5
5e8
100
AcDbEntity
  8
5
100
AcDbVertex
100
AcDb2dVertex
 42
2.0876377E-002
 10
2.2049653E+001
 20
9.5769887E+001
 70
1
  0
VERTEX
  5
5e9
100
AcDbEntity
  8
5
100
AcDbVertex
100
AcDb2dVertex
 42
2.0268821E-002
 10
2.1972582E+001
 20
9.5526234E+001
 70
0
  0
VERTEX
  5
5ea
100
AcDbEntity
  8
5
100
AcDbVertex
100
AcDb2dVertex
 42
1.9502787E-002
 10
2.1913963E+001
 20
9.5269767E+001
 70
1
  0
VERTEX
  5
5eb
100
AcDbEntity
  8
5
100
AcDbVertex
100
AcDb2dVertex
 42
1.883732E-002
 10
2.1873762E+001
 20
9.5002449E+001
 70
0
  0
VERTEX
  5
5ec
100
AcDbEntity
  8
5
100
AcDbVertex
100
AcDb2dVertex
 42
1.802483E-002
 10
2.1853355E+001
 20
9.4725457E+001
 70
1
  0
VERTEX
  5
5ed
100
AcDbEntity
  8
5
100
AcDbVertex
100
AcDb2dVertex
 42
1.7234554E-002
 10
2.1852165E+001
 20
9.4440933E+001
 70
0
  0
VERTEX
  5
5ee
100
AcDbEntity
  8
5
100
AcDbVertex
100
AcDb2dVertex
 42
1.6418578E-002
 10
2.187105E+001
 20
9.4150462E+001
 70
1
  0
VERTEX
  5
5ef
100
AcDbEntity
  8
5
100
AcDbVertex
100
AcDb2dVertex
 42
1.5644715E-002
 10
2.1908919E+001
 20
9.3856198E+001
 70
0
  0
VERTEX
  5
5f0
100
AcDbEntity
  8
5
100
AcDbVertex
100
AcDb2dVertex
 42
1.4908142E-002
 10
2.1966104E+001
 20
9.3559999E+001
 70
1
  0
VERTEX
  5
5f1
100
AcDbEntity
  8
5
100
AcDbVertex
100
AcDb2dVertex
 42
1.4190461E-002
 10
2.2041076E+001
 20
9.3263851E+001
 70
0
  0
VERTEX
  5
5f2
100
AcDbEntity
  8
5
100
AcDbVertex
100
AcDb2dVertex
 42
1.3558509E-002
 10
2.2133651E+001
 20
9.2969709E+001
 70
1
  0
VERTEX
  5
5f3
100
AcDbEntity
  8
5
100
AcDbVertex
100
AcDb2dVertex
 42
1.2922928E-002
 10
2.2241992E+001
 20
9.2679237E+001
 70
0
  0
VERTEX
  5
5f4
100
AcDbEntity
  8
5
100
AcDbVertex
100
AcDb2dVertex
 42
1.2400378E-002
 10
2.2365478E+001
 20
9.2394323E+001
 70
1
  0
VERTEX
  5
5f5
100
AcDbEntity
  8
5
100
AcDbVertex
100
AcDb2dVertex
 42
1.184795E-002
 10
2.2502124E+001
 20
9.2116202E+001
 70
0
  0
VERTEX
  5
5f6
100
AcDbEntity
  8
5
100
AcDbVertex
100
AcDb2dVertex
 42
1.1428294E-002
 10
2.2650988E+001
 20
9.1846565E+001
 70
1
  0
VERTEX
  5
5f7
100
AcDbEntity
  8
5
100
AcDbVertex
100
AcDb2dVertex
 42
1.0959295E-002
 10
2.2810102E+001
 20
9.1586165E+001
 70
0
  0
VERTEX
  5
5f8
100
AcDbEntity
  8
5
100
AcDbVertex
100
AcDb2dVertex
 42
1.0620136E-002
 10
2.2978336E+001
 20
9.1336407E+001
 70
1
  0
VERTEX
  5
5f9
100
AcDbEntity
  8
5
100
AcDbVertex
100
AcDb2dVertex
 42
1.0202527E-002
 10
2.3153838E+001
 20
9.1097592E+001
 70
0
  0
VERTEX
  5
5fa
100
AcDbEntity
  8
5
100
AcDbVertex
100
AcDb2dVertex
 42
9.9590731E-003
 10
2.33354E+001
 20
9.0870806E+001
 70
1
  0
VERTEX
  5
5fb
100
AcDbEntity
  8
5
100
AcDbVertex
100
AcDb2dVertex
 42
9.6600918E-003
 10
2.3521517E+001
 20
9.0655894E+001
 70
0
  0
VERTEX
  5
5fc
100
AcDbEntity
  8
5
100
AcDbVertex
100
AcDb2dVertex
 42
9.390413E-003
 10
2.3711051E+001
 20
9.045361E+001
 70
1
  0
VERTEX
  5
5fd
100
AcDbEntity
  8
5
100
AcDbVertex
100
AcDb2dVertex
 42
8.924649E-003
 10
2.390235E+001
 20
9.0263652E+001
 70
0
  0
VERTEX
  5
5fe
100
AcDbEntity
  8
5
100
AcDbVertex
100
AcDb2dVertex
 42
9.1246951E-003
 10
2.4095021E+001
 20
9.0085896E+001
 70
1
  0
VERTEX
  5
5ff
100
AcDbEntity
  8
5
100
AcDbVertex
100
AcDb2dVertex
 42
9.2062939E-003
 10
2.4293672E+001
 20
8.9915575E+001
 70
0
  0
VERTEX
  5
600
100
AcDbEntity
  8
5
100
AcDbVertex
100
AcDb2dVertex
 42
9.123548E-003
 10
2.4503527E+001
 20
8.9748821E+001
 70
1
  0
VERTEX
  5
601
100
AcDbEntity
  8
5
100
AcDbVertex
100
AcDb2dVertex
 42
9.727842E-003
 10
2.4724306E+001
 20
8.9586366E+001
 70
0
  0
VERTEX
  5
602
100
AcDbEntity
  8
5
100
AcDbVertex
100
AcDb2dVertex
 42
1.015936E-002
 10
2.4955654E+001
 20
8.9430294E+001
 70
1
  0
VERTEX
  5
603
100
AcDbEntity
  8
5
100
AcDbVertex
100
AcDb2dVertex
 42
1.0594661E-002
 10
2.5196668E+001
 20
8.9281652E+001
 70
0
  0
VERTEX
  5
604
100
AcDbEntity
  8
5
100
AcDbVertex
100
AcDb2dVertex
 42
1.1003572E-002
 10
2.5447235E+001
 20
8.9142033E+001
 70
1
  0
VERTEX
  5
605
100
AcDbEntity
  8
5
100
AcDbVertex
100
AcDb2dVertex
 42
1.1630402E-002
 10
2.5706131E+001
 20
8.9012528E+001
 70
0
  0
VERTEX
  5
606
100
AcDbEntity
  8
5
100
AcDbVertex
100
AcDb2dVertex
 42
1.2139121E-002
 10
2.5972677E+001
 20
8.8895086E+001
 70
1
  0
VERTEX
  5
607
100
AcDbEntity
  8
5
100
AcDbVertex
100
AcDb2dVertex
 42
1.2739645E-002
 10
2.6245303E+001
 20
8.8790575E+001
 70
0
  0
VERTEX
  5
608
100
AcDbEntity
  8
5
100
AcDbVertex
100
AcDb2dVertex
 42
1.3487494E-002
 10
2.6522893E+001
 20
8.8700929E+001
 70
1
  0
VERTEX
  5
609
100
AcDbEntity
  8
5
100
AcDbVertex
100
AcDb2dVertex
 42
1.4563724E-002
 10
2.6803999E+001
 20
8.8626998E+001
 70
0
  0
VERTEX
  5
60a
100
AcDbEntity
  8
5
100
AcDbVertex
100
AcDb2dVertex
 42
1.4939302E-002
 10
2.7087185E+001
 20
8.8570718E+001
 70
1
  0
VERTEX
  5
60b
100
AcDbEntity
  8
5
100
AcDbVertex
100
AcDb2dVertex
 42
1.4800729E-002
 10
2.7369552E+001
 20
8.8531577E+001
 70
0
  0
VERTEX
  5
60c
100
AcDbEntity
  8
5
100
AcDbVertex
100
AcDb2dVertex
 42
1.7092033E-002
 10
2.7648851E+001
 20
8.8510923E+001
 70
1
  0
VERTEX
  5
60d
100
AcDbEntity
  8
5
100
AcDbVertex
100
AcDb2dVertex
 42
2.1447144E-002
 10
2.7927535E+001
 20
8.8511582E+001
 70
0
  0
VERTEX
  5
60e
100
AcDbEntity
  8
5
100
AcDbVertex
100
AcDb2dVertex
 42
1.7502961E-002
 10
2.8204967E+001
 20
8.853582E+001
 70
1
  0
VERTEX
  5
60f
100
AcDbEntity
  8
5
100
AcDbVertex
100
AcDb2dVertex
 42
6.9855119E-003
 10
2.8462829E+001
 20
8.8570835E+001
 70
0
  0
VERTEX
  5
610
100
AcDbEntity
  8
5
100
AcDbVertex
100
AcDb2dVertex
 42
2.551454E-002
 10
2.8693207E+001
 20
8.8613183E+001
 70
1
  0
VERTEX
  5
611
100
AcDbEntity
  8
5
100
AcDbVertex
100
AcDb2dVertex
 42
4.7205512E-002
 10
2.8960899E+001
 20
8.8709125E+001
 70
0
  0
VERTEX
  5
612
100
AcDbEntity
  8
5
100
AcDbVertex
100
AcDb2dVertex
 42
2.4788281E-002
 10
2.933341E+001
 20
8.8908858E+001
 70
1
  0
VERTEX
  5
613
100
AcDbEntity
  8
5
100
AcDbVertex
100
AcDb2dVertex
 42
1.3347061E-002
 10
2.9797644E+001
 20
8.9201759E+001
 70
0
  0
SEQEND
  5
614
100
AcDbEntity
  0
POLYLINE
  5
615
100
AcDbEntity
  8
5
100
AcDb2dPolyline
  6
CONTINUOUS
 62
1
 66
1
 40
0.0
 41
0.0
 70
2
  0
VERTEX
  5
616
100
AcDbEntity
  8
5
100
AcDbVertex
100
AcDb2dVertex
 42
0.0
 10
2.947684E+001
 20
9.2402428E+001
 70
0
  0
VERTEX
  5
617
100
AcDbEntity
  8
5
100
AcDbVertex
100
AcDb2dVertex
 42
-2.3310731E-002
 10
2.9381632E+001
 20
9.2326963E+001
 70
1
  0
VERTEX
  5
618
100
AcDbEntity
  8
5
100
AcDbVertex
100
AcDb2dVertex
 42
-2.27177E-002
 10
2.9278887E+001
 20
9.2259738E+001
 70
0
  0
VERTEX
  5
619
100
AcDbEntity
  8
5
100
AcDbVertex
100
AcDb2dVertex
 42
-2.1996996E-002
 10
2.9168201E+001
 20
9.2201005E+001
 70
1
  0
VERTEX
  5
61a
100
AcDbEntity
  8
5
100
AcDbVertex
100
AcDb2dVertex
 42
-2.1834693E-002
 10
2.905051E+001
 20
9.2151023E+001
 70
0
  0
VERTEX
  5
61b
100
AcDbEntity
  8
5
100
AcDbVertex
100
AcDb2dVertex
 42
-2.1282375E-002
 10
2.8926326E+001
 20
9.211085E+001
 70
1
  0
VERTEX
  5
61c
100
AcDbEntity
  8
5
100
AcDbVertex
100
AcDb2dVertex
 42
-2.0449867E-002
 10
2.8796672E+001
 20
9.2080391E+001
 70
0
  0
VERTEX
  5
61d
100
AcDbEntity
  8
5
100
AcDbVertex
100
AcDb2dVertex
 42
-1.9536206E-002
 10
2.866214E+001
 20
9.2060246E+001
 70
1
  0
VERTEX
  5
61e
100
AcDbEntity
  8
5
100
AcDbVertex
100
AcDb2dVertex
 42
-1.8651786E-002
 10
2.8523829E+001
 20
9.2050061E+001
 70
0
  0
VERTEX
  5
61f
100
AcDbEntity
  8
5
100
AcDbVertex
100
AcDb2dVertex
 42
-1.7733777E-002
 10
2.8382557E+001
 20
9.2050235E+001
 70
1
  0
VERTEX
  5
620
100
AcDbEntity
  8
5
100
AcDbVertex
100
AcDb2dVertex
 42
-1.6787422E-002
 10
2.8239394E+001
 20
9.2060148E+001
 70
0
  0
VERTEX
  5
621
100
AcDbEntity
  8
5
100
AcDbVertex
100
AcDb2dVertex
 42
-1.5912217E-002
 10
2.8095248E+001
 20
9.2079913E+001
 70
1
  0
VERTEX
  5
622
100
AcDbEntity
  8
5
100
AcDbVertex
100
AcDb2dVertex
 42
-1.5030884E-002
 10
2.7951079E+001
 20
9.2108708E+001
 70
0
  0
VERTEX
  5
623
100
AcDbEntity
  8
5
100
AcDbVertex
100
AcDb2dVertex
 42
-1.4264678E-002
 10
2.7807818E+001
 20
9.2146399E+001
 70
1
  0
VERTEX
  5
624
100
AcDbEntity
  8
5
100
AcDbVertex
100
AcDb2dVertex
 42
-1.347291E-002
 10
2.7666246E+001
 20
9.2192034E+001
 70
0
  0
VERTEX
  5
625
100
AcDbEntity
  8
5
100
AcDbVertex
100
AcDb2dVertex
 42
-1.283055E-002
 10
2.752724E+001
 20
9.224528E+001
 70
1
  0
VERTEX
  5
626
100
AcDbEntity
  8
5
100
AcDbVertex
100
AcDb2dVertex
 42
-1.2151106E-002
 10
2.7391358E+001
 20
9.2305141E+001
 70
0
  0
VERTEX
  5
627
100
AcDbEntity
  8
5
100
AcDbVertex
100
AcDb2dVertex
 42
-1.1613178E-002
 10
2.7259367E+001
 20
9.2371149E+001
 70
1
  0
VERTEX
  5
628
100
AcDbEntity
  8
5
100
AcDbVertex
100
AcDb2dVertex
 42
-1.1007013E-002
 10
2.7131616E+001
 20
9.2442312E+001
 70
0
  0
VERTEX
  5
629
100
AcDbEntity
  8
5
100
AcDbVertex
100
AcDb2dVertex
 42
-1.0605482E-002
 10
2.7008738E+001
 20
9.251808E+001
 70
1
  0
VERTEX
  5
62a
100
AcDbEntity
  8
5
100
AcDbVertex
100
AcDb2dVertex
 42
-1.0164079E-002
 10
2.689079E+001
 20
9.2597639E+001
 70
0
  0
VERTEX
  5
62b
100
AcDbEntity
  8
5
100
AcDbVertex
100
AcDb2dVertex
 42
-9.730081E-003
 10
2.6778231E+001
 20
9.2680454E+001
 70
1
  0
VERTEX
  5
62c
100
AcDbEntity
  8
5
100
AcDbVertex
100
AcDb2dVertex
 42
-9.1268663E-003
 10
2.6671243E+001
 20
9.2765462E+001
 70
0
  0
VERTEX
  5
62d
100
AcDbEntity
  8
5
100
AcDbVertex
100
AcDb2dVertex
 42
-9.2101921E-003
 10
2.6569969E+001
 20
9.2852289E+001
 70
1
  0
VERTEX
  5
62e
100
AcDbEntity
  8
5
100
AcDbVertex
100
AcDb2dVertex
 42
-9.1279447E-003
 10
2.6471746E+001
 20
9.2942907E+001
 70
0
  0
VERTEX
  5
62f
100
AcDbEntity
  8
5
100
AcDbVertex
100
AcDb2dVertex
 42
-8.9276587E-003
 10
2.6374223E+001
 20
9.3039747E+001
 70
1
  0
VERTEX
  5
630
100
AcDbEntity
  8
5
100
AcDbVertex
100
AcDb2dVertex
 42
-9.3939358E-003
 10
2.62776E+001
 20
9.3142873E+001
 70
0
  0
VERTEX
  5
631
100
AcDbEntity
  8
5
100
AcDbVertex
100
AcDb2dVertex
 42
-9.663661E-003
 10
2.618272E+001
 20
9.3252439E+001
 70
1
  0
VERTEX
  5
632
100
AcDbEntity
  8
5
100
AcDbVertex
100
AcDb2dVertex
 42
-9.962525E-003
 10
2.6090164E+001
 20
9.3368059E+001
 70
0
  0
VERTEX
  5
633
100
AcDbEntity
  8
5
100
AcDbVertex
100
AcDb2dVertex
 42
-1.0206688E-002
 10
2.60007E+001
 20
9.3489814E+001
 70
1
  0
VERTEX
  5
634
100
AcDbEntity
  8
5
100
AcDbVertex
100
AcDb2dVertex
 42
-1.0625985E-002
 10
2.5914943E+001
 20
9.361715E+001
 70
0
  0
VERTEX
  5
635
100
AcDbEntity
  8
5
100
AcDbVertex
100
AcDb2dVertex
 42
-1.0963642E-002
 10
2.5833839E+001
 20
9.3749912E+001
 70
1
  0
VERTEX
  5
636
100
AcDbEntity
  8
5
100
AcDbVertex
100
AcDb2dVertex
 42
-1.1428022E-002
 10
2.5757963E+001
 20
9.3887382E+001
 70
0
  0
VERTEX
  5
637
100
AcDbEntity
  8
5
100
AcDbVertex
100
AcDb2dVertex
 42
-1.1854866E-002
 10
2.5688318E+001
 20
9.4029175E+001
 70
1
  0
VERTEX
  5
638
100
AcDbEntity
  8
5
100
AcDbVertex
100
AcDb2dVertex
 42
-1.2426708E-002
 10
2.5625391E+001
 20
9.4174435E+001
 70
0
  0
VERTEX
  5
639
100
AcDbEntity
  8
5
100
AcDbVertex
100
AcDb2dVertex
 42
-1.2924425E-002
 10
2.5570197E+001
 20
9.4322536E+001
 70
1
  0
VERTEX
  5
63a
100
AcDbEntity
  8
5
100
AcDbVertex
100
AcDb2dVertex
 42
-1.3490027E-002
 10
2.5523028E+001
 20
9.4472482E+001
 70
0
  0
VERTEX
  5
63b
100
AcDbEntity
  8
5
100
AcDbVertex
100
AcDb2dVertex
 42
-1.4217766E-002
 10
2.5484809E+001
 20
9.4623413E+001
 70
1
  0
VERTEX
  5
63c
100
AcDbEntity
  8
5
100
AcDbVertex
100
AcDb2dVertex
 42
-1.5196565E-002
 10
2.5455737E+001
 20
9.4774457E+001
 70
0
  0
VERTEX
  5
63d
100
AcDbEntity
  8
5
100
AcDbVertex
100
AcDb2dVertex
 42
-1.5579972E-002
 10
2.5436628E+001
 20
9.4924644E+001
 70
1
  0
VERTEX
  5
63e
100
AcDbEntity
  8
5
100
AcDbVertex
100
AcDb2dVertex
 42
-1.5413894E-002
 10
2.5426907E+001
 20
9.5072531E+001
 70
0
  0
VERTEX
  5
63f
100
AcDbEntity
  8
5
100
AcDbVertex
100
AcDb2dVertex
 42
-1.7532022E-002
 10
2.5426989E+001
 20
9.5216849E+001
 70
1
  0
VERTEX
  5
640
100
AcDbEntity
  8
5
100
AcDbVertex
100
AcDb2dVertex
 42
-2.1498082E-002
 10
2.5438034E+001
 20
9.5358742E+001
 70
0
  0
VERTEX
  5
641
100
AcDbEntity
  8
5
100
AcDbVertex
100
AcDb2dVertex
 42
-1.77971E-002
 10
2.5460884E+001
 20
9.549779E+001
 70
1
  0
VERTEX
  5
642
100
AcDbEntity
  8
5
100
AcDbVertex
100
AcDb2dVertex
 42
-7.8224104E-003
 10
2.5488538E+001
 20
9.5625689E+001
 70
0
  0
VERTEX
  5
643
100
AcDbEntity
  8
5
100
AcDbVertex
100
AcDb2dVertex
 42
-2.4994184E-002
 10
2.5518842E+001
 20
9.5738785E+001
 70
1
  0
VERTEX
  5
644
100
AcDbEntity
  8
5
100
AcDbVertex
100
AcDb2dVertex
 42
-4.520104E-002
 10
2.5575832E+001
 20
9.5867157E+001
 70
0
  0
VERTEX
  5
645
100
AcDbEntity
  8
5
100
AcDbVertex
100
AcDb2dVertex
 42
-2.4144231E-002
 10
2.5685551E+001
 20
9.6041953E+001
 70
1
  0
VERTEX
  5
646
100
AcDbEntity
  8
5
100
AcDbVertex
100
AcDb2dVertex
 42
-1.3295277E-002
 10
2.5842526E+001
 20
9.6257199E+001
 70
0
  0
SEQEND
  5
647
100
AcDbEntity
  0
POLYLINE
  5
648
100
AcDbEntity
  8
5
100
AcDb2dPolyline
  6
CONTINUOUS
 62
6
 66
1
 40
0.0
 41
0.0
 70
2
  0
VERTEX
  5
649
100
AcDbEntity
  8
5
100
AcDbVertex
100
AcDb2dVertex
 42
0.0
 10
2.9893457E+001
 20
9.3522172E+001
 70
0
  0
VERTEX
  5
64a
100
AcDbEntity
  8
5
100
AcDbVertex
100
AcDb2dVertex
 42
2.1660267E-003
 10
2.9893379E+001
 20
9.3540157E+001
 70
1
  0
VERTEX
  5
64b
100
AcDbEntity
  8
5
100
AcDbVertex
100
AcDb2dVertex
 42
2.1206712E-003
 10
2.9893148E+001
 20
9.3558275E+001
 70
0
  0
VERTEX
  5
64c
100
AcDbEntity
  8
5
100
AcDbVertex
100
AcDb2dVertex
 42
2.1010104E-003
 10
2.9892757E+001
 20
9.3576532E+001
 70
1
  0
VERTEX
  5
64d
100
AcDbEntity
  8
5
100
AcDbVertex
100
AcDb2dVertex
 42
2.1123373E-003
 10
2.9892211E+001
 20
9.3594921E+001
 70
0
  0
VERTEX
  5
64e
100
AcDbEntity
  8
5
100
AcDbVertex
100
AcDb2dVertex
 42
2.111066E-003
 10
2.98915E+001
 20
9.3613448E+001
 70
1
  0
VERTEX
  5
64f
100
AcDbEntity
  8
5
100
AcDbVertex
100
AcDb2dVertex
 42
2.1079886E-003
 10
2.9890628E+001
 20
9.3632105E+001
 70
0
  0
VERTEX
  5
650
100
AcDbEntity
  8
5
100
AcDbVertex
100
AcDb2dVertex
 42
2.101909E-003
 10
2.9889587E+001
 20
9.3650898E+001
 70
1
  0
VERTEX
  5
651
100
AcDbEntity
  8
5
100
AcDbVertex
100
AcDb2dVertex
 42
2.1021061E-003
 10
2.9888382E+001
 20
9.3669821E+001
 70
0
  0
VERTEX
  5
652
100
AcDbEntity
  8
5
100
AcDbVertex
100
AcDb2dVertex
 42
2.0972518E-003
 10
2.9887004E+001
 20
9.3688877E+001
 70
1
  0
VERTEX
  5
653
100
AcDbEntity
  8
5
100
AcDbVertex
100
AcDb2dVertex
 42
2.0968327E-003
 10
2.9885457E+001
 20
9.3708061E+001
 70
0
  0
VERTEX
  5
654
100
AcDbEntity
  8
5
100
AcDbVertex
100
AcDb2dVertex
 42
2.0909846E-003
 10
2.9883732E+001
 20
9.3727378E+001
 70
1
  0
VERTEX
  5
655
100
AcDbEntity
  8
5
100
AcDbVertex
100
AcDb2dVertex
 42
2.0891123E-003
 10
2.9881835E+001
 20
9.374682E+001
 70
0
  0
VERTEX
  5
656
100
AcDbEntity
  8
5
100
AcDbVertex
100
AcDb2dVertex
 42
2.0853904E-003
 10
2.9879755E+001
 20
9.3766392E+001
 70
1
  0
VERTEX
  5
657
100
AcDbEntity
  8
5
100
AcDbVertex
100
AcDb2dVertex
 42
2.0885763E-003
 10
2.9877498E+001
 20
9.3786089E+001
 70
0
  0
VERTEX
  5
658
100
AcDbEntity
  8
5
100
AcDbVertex
100
AcDb2dVertex
 42
2.0773882E-003
 10
2.9875055E+001
 20
9.3805916E+001
 70
1
  0
VERTEX
  5
659
100
AcDbEntity
  8
5
100
AcDbVertex
100
AcDb2dVertex
 42
2.0627219E-003
 10
2.9872432E+001
 20
9.3825859E+001
 70
0
  0
VERTEX
  5
65a
100
AcDbEntity
  8
5
100
AcDbVertex
100
AcDb2dVertex
 42
2.0766707E-003
 10
2.986962E+001
 20
9.3845919E+001
 70
1
  0
VERTEX
  5
65b
100
AcDbEntity
  8
5
100
AcDbVertex
100
AcDb2dVertex
 42
2.1203908E-003
 10
2.9866618E+001
 20
9.386612E+001
 70
0
  0
VERTEX
  5
65c
100
AcDbEntity
  8
5
100
AcDbVertex
100
AcDb2dVertex
 42
2.0502317E-003
 10
2.9863414E+001
 20
9.3886476E+001
 70
1
  0
VERTEX
  5
65d
100
AcDbEntity
  8
5
100
AcDbVertex
100
AcDb2dVertex
 42
1.9058847E-003
 10
2.9860042E+001
 20
9.3906861E+001
 70
0
  0
VERTEX
  5
65e
100
AcDbEntity
  8
5
100
AcDbVertex
100
AcDb2dVertex
 42
2.111063E-003
 10
2.9856504E+001
 20
9.3927237E+001
 70
1
  0
VERTEX
  5
65f
100
AcDbEntity
  8
5
100
AcDbVertex
100
AcDb2dVertex
 42
2.530095E-003
 10
2.9852688E+001
 20
9.394807E+001
 70
0
  0
VERTEX
  5
660
100
AcDbEntity
  8
5
100
AcDbVertex
100
AcDb2dVertex
 42
1.891327E-003
 10
2.9848544E+001
 20
9.3969524E+001
 70
1
  0
VERTEX
  5
661
100
AcDbEntity
  8
5
100
AcDbVertex
100
AcDb2dVertex
 42
6.027596E-004
 10
2.9844539E+001
 20
9.3989734E+001
 70
0
  0
VERTEX
  5
662
100
AcDbEntity
  8
5
100
AcDbVertex
100
AcDb2dVertex
 42
2.7050716E-003
 10
2.9840822E+001
 20
9.4008062E+001
 70
1
  0
VERTEX
  5
663
100
AcDbEntity
  8
5
100
AcDbVertex
100
AcDb2dVertex
 42
4.6374791E-003
 10
2.9835582E+001
 20
9.403184E+001
 70
0
  0
VERTEX
  5
664
100
AcDbEntity
  8
5
100
AcDbVertex
100
AcDb2dVertex
 42
2.2215514E-003
 10
2.9826908E+001
 20
9.406877E+001
 70
1
  0
VERTEX
  5
665
100
AcDbEntity
  8
5
100
AcDbVertex
100
AcDb2dVertex
 42
1.1590118E-003
 10
2.9815186E+001
 20
9.4117317E+001
 70
0
  0
SEQEND
  5
666
100
AcDbEntity
  0
POLYLINE
  5
667
100
AcDbEntity
  8
5
100
AcDb2dPolyline
  6
CONTINUOUS
 62
6
 66
1
 40
0.0
 41
0.0
 70
2
  0
VERTEX
  5
668
100
AcDbEntity
  8
5
100
AcDbVertex
100
AcDb2dVertex
 42
0.0
 10
2.7533693E+001
 20
9.6506733E+001
 70
0
  0
VERTEX
  5
669
100
AcDbEntity
  8
5
100
AcDbVertex
100
AcDb2dVertex
 42
1.35375E-002
 10
2.7379726E+001
 20
9.6547849E+001
 70
1
  0
VERTEX
  5
66a
100
AcDbEntity
  8
5
100
AcDbVertex
100
AcDb2dVertex
 42
1.5353415E-002
 10
2.7230711E+001
 20
9.6578693E+001
 70
0
  0
VERTEX
  5
66b
100
AcDbEntity
  8
5
100
AcDbVertex
100
AcDb2dVertex
 42
1.6348084E-002
 10
2.7086777E+001
 20
9.6598749E+001
 70
1
  0
VERTEX
  5
66c
100
AcDbEntity
  8
5
100
AcDbVertex
100
AcDb2dVertex
 42
1.6241611E-002
 10
2.6948239E+001
 20
9.6609059E+001
 70
0
  0
VERTEX
  5
66d
100
AcDbEntity
  8
5
100
AcDbVertex
100
AcDb2dVertex
 42
1.6361707E-002
 10
2.6816037E+001
 20
9.6610036E+001
 70
1
  0
VERTEX
  5
66e
100
AcDbEntity
  8
5
100
AcDbVertex
100
AcDb2dVertex
 42
1.6296063E-002
 10
2.6690783E+001
 20
9.6602908E+001
 70
0
  0
VERTEX
  5
66f
100
AcDbEntity
  8
5
100
AcDbVertex
100
AcDb2dVertex
 42
1.7103764E-002
 10
2.6573125E+001
 20
9.6588111E+001
 70
1
  0
VERTEX
  5
670
100
AcDbEntity
  8
5
100
AcDbVertex
100
AcDb2dVertex
 42
1.7222046E-002
 10
2.6460573E+001
 20
9.6566095E+001
 70
0
  0
VERTEX
  5
671
100
AcDbEntity
  8
5
100
AcDbVertex
100
AcDb2dVertex
 42
1.7684539E-002
 10
2.6350813E+001
 20
9.6536421E+001
 70
1
  0
VERTEX
  5
672
100
AcDbEntity
  8
5
100
AcDbVertex
100
AcDb2dVertex
 42
1.9103385E-002
 10
2.6242782E+001
 20
9.6498606E+001
 70
0
  0
VERTEX
  5
673
100
AcDbEntity
  8
5
100
AcDbVertex
100
AcDb2dVertex
 42
1.9905481E-002
 10
2.6136194E+001
 20
9.6451428E+001
 70
1
  0
VERTEX
  5
674
100
AcDbEntity
  8
5
100
AcDbVertex
100
AcDb2dVertex
 42
2.1212962E-002
 10
2.6031983E+001
 20
9.6394821E+001
 70
0
  0
VERTEX
  5
675
100
AcDbEntity
  8
5
100
AcDbVertex
100
AcDb2dVertex
 42
2.2148744E-002
 10
2.5931528E+001
 20
9.6328036E+001
 70
1
  0
VERTEX
  5
676
100
AcDbEntity
  8
5
100
AcDbVertex
100
AcDb2dVertex
 42
2.3040795E-002
 10
2.5835673E+001
 20
9.6251196E+001
 70
0
  0
VERTEX
  5
677
100
AcDbEntity
  8
5
100
AcDbVertex
100
AcDb2dVertex
 42
2.3475728E-002
 10
2.5745619E+001
 20
9.616365E+001
 70
1
  0
VERTEX
  5
678
100
AcDbEntity
  8
5
100
AcDbVertex
100
AcDb2dVertex
 42
2.39854E-002
 10
2.5662198E+001
 20
9.6065817E+001
 70
0
  0
VERTEX
  5
679
100
AcDbEntity
  8
5
100
AcDbVertex
100
AcDb2dVertex
 42
2.3957802E-002
 10
2.5586802E+001
 20
9.5957366E+001
 70
1
  0
VERTEX
  5
67a
100
AcDbEntity
  8
5
100
AcDbVertex
100
AcDb2dVertex
 42
2.3882191E-002
 10
2.5520104E+001
 20
9.5839046E+001
 70
0
  0
VERTEX
  5
67b
100
AcDbEntity
  8
5
100
AcDbVertex
100
AcDb2dVertex
 42
2.3340312E-002
 10
2.5463451E+001
 20
9.5710897E+001
 70
1
  0
VERTEX
  5
67c
100
AcDbEntity
  8
5
100
AcDbVertex
100
AcDb2dVertex
 42
2.2787303E-002
 10
2.5417253E+001
 20
9.5573999E+001
 70
0
  0
VERTEX
  5
67d
100
AcDbEntity
  8
5
100
AcDbVertex
100
AcDb2dVertex
 42
2.1901628E-002
 10
2.5382703E+001
 20
9.5428812E+001
 70
1
  0
VERTEX
  5
67e
100
AcDbEntity
  8
5
100
AcDbVertex
100
AcDb2dVertex
 42
2.1038794E-002
 10
2.5359843E+001
 20
9.5276683E+001
 70
0
  0
VERTEX
  5
67f
100
AcDbEntity
  8
5
100
AcDbVertex
100
AcDb2dVertex
 42
2.0010079E-002
 10
2.5349573E+001
 20
9.5118471E+001
 70
1
  0
VERTEX
  5
680
100
AcDbEntity
  8
5
100
AcDbVertex
100
AcDb2dVertex
 42
1.9032516E-002
 10
2.5351521E+001
 20
9.4955677E+001
 70
0
  0
VERTEX
  5
681
100
AcDbEntity
  8
5
100
AcDbVertex
100
AcDb2dVertex
 42
1.802849E-002
 10
2.5366199E+001
 20
9.4789473E+001
 70
1
  0
VERTEX
  5
682
100
AcDbEntity
  8
5
100
AcDbVertex
100
AcDb2dVertex
 42
1.7071656E-002
 10
2.5392828E+001
 20
9.4621362E+001
 70
0
  0
VERTEX
  5
683
100
AcDbEntity
  8
5
100
AcDbVertex
100
AcDb2dVertex
 42
1.6186126E-002
 10
2.5431501E+001
 20
9.4452696E+001
 70
1
  0
VERTEX
  5
684
100
AcDbEntity
  8
5
100
AcDbVertex
100
AcDb2dVertex
 42
1.532203E-002
 10
2.548111E+001
 20
9.4284825E+001
 70
0
  0
VERTEX
  5
685
100
AcDbEntity
  8
5
100
AcDbVertex
100
AcDb2dVertex
 42
1.458771E-002
 10
2.554136E+001
 20
9.4119128E+001
 70
1
  0
VERTEX
  5
686
100
AcDbEntity
  8
5
100
AcDbVertex
100
AcDb2dVertex
 42
1.3838555E-002
 10
2.5610935E+001
 20
9.3956678E+001
 70
0
  0
VERTEX
  5
687
100
AcDbEntity
  8
5
100
AcDbVertex
100
AcDb2dVertex
 42
1.3255359E-002
 10
2.5689235E+001
 20
9.3798742E+001
 70
1
  0
VERTEX
  5
688
100
AcDbEntity
  8
5
100
AcDbVertex
100
AcDb2dVertex
 42
1.2625928E-002
 10
2.5774885E+001
 20
9.3646039E+001
 70
0
  0
VERTEX
  5
689
100
AcDbEntity
  8
5
100
AcDbVertex
100
AcDb2dVertex
 42
1.2166018E-002
 10
2.5867095E+001
 20
9.349963E+001
 70
1
  0
VERTEX
  5
68a
100
AcDbEntity
  8
5
100
AcDbVertex
100
AcDb2dVertex
 42
1.1618531E-002
 10
2.5964537E+001
 20
9.3359869E+001
 70
0
  0
VERTEX
  5
68b
100
AcDbEntity
  8
5
100
AcDbVertex
100
AcDb2dVertex
 42
1.1291766E-002
 10
2.6066339E+001
 20
9.3227562E+001
 70
1
  0
VERTEX
  5
68c
100
AcDbEntity
  8
5
100
AcDbVertex
100
AcDb2dVertex
 42
1.0899575E-002
 10
2.6171391E+001
 20
9.3102714E+001
 70
0
  0
VERTEX
  5
68d
100
AcDbEntity
  8
5
100
AcDbVertex
100
AcDb2dVertex
 42
1.0561476E-002
 10
2.6278857E+001
 20
9.2985869E+001
 70
1
  0
VERTEX
  5
68e
100
AcDbEntity
  8
5
100
AcDbVertex
100
AcDb2dVertex
 42
9.9774039E-003
 10
2.6387613E+001
 20
9.2876816E+001
 70
0
  0
VERTEX
  5
68f
100
AcDbEntity
  8
5
100
AcDbVertex
100
AcDb2dVertex
 42
1.0223996E-002
 10
2.6497362E+001
 20
9.277545E+001
 70
1
  0
VERTEX
  5
690
100
AcDbEntity
  8
5
100
AcDbVertex
100
AcDb2dVertex
 42
1.0341115E-002
 10
2.6610993E+001
 20
9.2678796E+001
 70
0
  0
VERTEX
  5
691
100
AcDbEntity
  8
5
100
AcDbVertex
100
AcDb2dVertex
 42
1.0244758E-002
 10
2.6731784E+001
 20
9.2584474E+001
 70
1
  0
VERTEX
  5
692
100
AcDbEntity
  8
5
100
AcDbVertex
100
AcDb2dVertex
 42
1.1010061E-002
 10
2.6859482E+001
 20
9.2493083E+001
 70
0
  0
VERTEX
  5
693
100
AcDbEntity
  8
5
100
AcDbVertex
100
AcDb2dVertex
 42
1.157162E-002
 10
2.6993777E+001
 20
9.2406103E+001
 70
1
  0
VERTEX
  5
694
100
AcDbEntity
  8
5
100
AcDbVertex
100
AcDb2dVertex
 42
1.214762E-002
 10
2.7134009E+001
 20
9.2324303E+001
 70
0
  0
VERTEX
  5
695
100
AcDbEntity
  8
5
100
AcDbVertex
100
AcDb2dVertex
 42
1.2681477E-002
 10
2.7279991E+001
 20
9.224883E+001
 70
1
  0
VERTEX
  5
696
100
AcDbEntity
  8
5
100
AcDbVertex
100
AcDb2dVertex
 42
1.3483864E-002
 10
2.7430795E+001
 20
9.2180454E+001
 70
0
  0
VERTEX
  5
697
100
AcDbEntity
  8
5
100
AcDbVertex
100
AcDb2dVertex
 42
1.4212653E-002
 10
2.7585789E+001
 20
9.2120545E+001
 70
1
  0
VERTEX
  5
698
100
AcDbEntity
  8
5
100
AcDbVertex
100
AcDb2dVertex
 42
1.5123987E-002
 10
2.7743846E+001
 20
9.2069715E+001
 70
0
  0
VERTEX
  5
699
100
AcDbEntity
  8
5
100
AcDbVertex
100
AcDb2dVertex
 42
1.6005326E-002
 10
2.7904017E+001
 20
9.2029286E+001
 70
1
  0
VERTEX
  5
69a
100
AcDbEntity
  8
5
100
AcDbVertex
100
AcDb2dVertex
 42
1.7069037E-002
 10
2.8065034E+001
 20
9.1999618E+001
 70
0
  0
VERTEX
  5
69b
100
AcDbEntity
  8
5
100
AcDbVertex
100
AcDb2dVertex
 42
1.8113769E-002
 10
2.8225644E+001
 20
9.1981885E+001
 70
1
  0
VERTEX
  5
69c
100
AcDbEntity
  8
5
100
AcDbVertex
100
AcDb2dVertex
 42
1.9267007E-002
 10
2.8384554E+001
 20
9.1976089E+001
 70
0
  0
VERTEX
  5
69d
100
AcDbEntity
  8
5
100
AcDbVertex
100
AcDb2dVertex
 42
2.0422577E-002
 10
2.8540315E+001
 20
9.1983112E+001
 70
1
  0
VERTEX
  5
69e
100
AcDbEntity
  8
5
100
AcDbVertex
100
AcDb2dVertex
 42
2.159619E-002
 10
2.8691751E+001
 20
9.2002556E+001
 70
0
  0
VERTEX
  5
69f
100
AcDbEntity
  8
5
100
AcDbVertex
100
AcDb2dVertex
 42
2.2673893E-002
 10
2.8837356E+001
 20
9.2034919E+001
 70
1
  0
VERTEX
  5
6a0
100
AcDbEntity
  8
5
100
AcDbVertex
100
AcDb2dVertex
 42
2.3525207E-002
 10
2.8976207E+001
 20
9.2079337E+001
 70
0
  0
VERTEX
  5
6a1
100
AcDbEntity
  8
5
100
AcDbVertex
100
AcDb2dVertex
 42
2.4486888E-002
 10
2.9106898E+001
 20
9.2135855E+001
 70
1
  0
VERTEX
  5
6a2
100
AcDbEntity
  8
5
100
AcDbVertex
100
AcDb2dVertex
 42
2.5308969E-002
 10
2.9228886E+001
 20
9.2203482E+001
 70
0
  0
VERTEX
  5
6a3
100
AcDbEntity
  8
5
100
AcDbVertex
100
AcDb2dVertex
 42
2.5183343E-002
 10
2.9341001E+001
 20
9.228193E+001
 70
1
  0
VERTEX
  5
6a4
100
AcDbEntity
  8
5
100
AcDbVertex
100
AcDb2dVertex
 42
2.3899029E-002
 10
2.9443061E+001
 20
9.2369137E+001
 70
0
  0
VERTEX
  5
6a5
100
AcDbEntity
  8
5
100
AcDbVertex
100
AcDb2dVertex
 42
2.5252293E-002
 10
2.9534199E+001
 20
9.2464194E+001
 70
1
  0
VERTEX
  5
6a6
100
AcDbEntity
  8
5
100
AcDbVertex
100
AcDb2dVertex
 42
2.7934439E-002
 10
2.9614857E+001
 20
9.2568324E+001
 70
0
  0
VERTEX
  5
6a7
100
AcDbEntity
  8
5
100
AcDbVertex
100
AcDb2dVertex
 42
2.1967828E-002
 10
2.9684589E+001
 20
9.2681565E+001
 70
1
  0
VERTEX
  5
6a8
100
AcDbEntity
  8
5
100
AcDbVertex
100
AcDb2dVertex
 42
1.0550262E-002
 10
2.9743306E+001
 20
9.2791967E+001
 70
0
  0
VERTEX
  5
6a9
100
AcDbEntity
  8
5
100
AcDbVertex
100
AcDb2dVertex
 42
2.6251657E-002
 10
2.979059E+001
 20
9.2894922E+001
 70
1
  0
VERTEX
  5
6aa
100
AcDbEntity
  8
5
100
AcDbVertex
100
AcDb2dVertex
 42
4.0194198E-002
 10
2.9830001E+001
 20
9.30309E+001
 70
0
  0
VERTEX
  5
6ab
100
AcDbEntity
  8
5
100
AcDbVertex
100
AcDb2dVertex
 42
1.9878148E-002
 10
2.9864365E+001
 20
9.3242867E+001
 70
1
  0
VERTEX
  5
6ac
100
AcDbEntity
  8
5
100
AcDbVertex
100
AcDb2dVertex
 42
1.0866118E-002
 10
2.9893457E+001
 20
9.3522172E+001
 70
0
  0
SEQEND
  5
6ad
100
AcDbEntity
  0
LINE
  5
6ae
100
AcDbEntity
  8
5
100
AcDbLine
  6
CONTINUOUS
 62
1
 10
1.9319439E+002
 20
2.2114837E+001
 11
1.9319439E+002
 21
4.2730352E+001
  0
LINE
  5
6af
100
AcDbEntity
  8
5
100
AcDbLine
  6
CONTINUOUS
 62
1
 10
1.9165091E+002
 20
2.0659629E+001
 11
1.9319439E+002
 21
2.2114837E+001
  0
LINE
  5
6b0
100
AcDbEntity
  8
5
100
AcDbLine
  6
CONTINUOUS
 62
1
 10
1.9165091E+002
 20
4.1275143E+001
 11
1.9165091E+002
 21
2.0659629E+001
  0
LINE
  5
6b1
100
AcDbEntity
  8
5
100
AcDbLine
  6
CONTINUOUS
 62
1
 10
1.9319439E+002
 20
4.2730352E+001
 11
1.9165091E+002
 21
4.1275143E+001
  0
LINE
  5
6b2
100
AcDbEntity
  8
5
100
AcDbLine
  6
CONTINUOUS
 62
1
 10
2.1695823E+001
 20
1.009389E+002
 11
2.0152345E+001
 21
9.9483688E+001
  0
LINE
  5
6b3
100
AcDbEntity
  8
5
100
AcDbLine
  6
CONTINUOUS
 62
1
 10
2.0152345E+001
 20
7.8868174E+001
 11
2.0152345E+001
 21
9.9483688E+001
  0
LINE
  5
6b4
100
AcDbEntity
  8
5
100
AcDbLine
  6
CONTINUOUS
 62
1
 10
2.0152345E+001
 20
7.8868174E+001
 11
1.9165091E+002
 21
2.0659629E+001
  0
LINE
  5
6b5
100
AcDbEntity
  8
5
100
AcDbLine
  6
CONTINUOUS
 62
1
 10
7.2931034E+001
 20
8.3549108E+001
 11
7.1387556E+001
 21
8.20939E+001
  0
LINE
  5
6b6
100
AcDbEntity
  8
5
100
AcDbLine
  6
CONTINUOUS
 62
1
 10
2.0152345E+001
 20
9.9483688E+001
 11
7.1387556E+001
 21
8.20939E+001
  0
LINE
  5
6b7
100
AcDbEntity
  8
5
100
AcDbLine
  6
CONTINUOUS
 62
1
 10
7.2931034E+001
 20
8.3549108E+001
 11
2.1695823E+001
 21
1.009389E+002
  0
LINE
  5
6b8
100
AcDbEntity
  8
5
100
AcDbLine
  6
CONTINUOUS
 62
1
 10
1.1297597E+002
 20
6.7978298E+001
 11
1.1451944E+002
 21
6.943355E+001
  0
LINE
  5
6b9
100
AcDbEntity
  8
5
100
AcDbLine
  6
CONTINUOUS
 62
1
 10
1.9319439E+002
 20
4.2730352E+001
 11
1.1451944E+002
 21
6.943355E+001
  0
LINE
  5
6ba
100
AcDbEntity
  8
5
100
AcDbLine
  6
CONTINUOUS
 62
1
 10
1.1297597E+002
 20
6.7978298E+001
 11
1.9165091E+002
 21
4.1275143E+001
  0
LINE
  5
6bb
100
AcDbEntity
  8
5
100
AcDbLine
  6
CONTINUOUS
 62
1
 10
1.1297594E+002
 20
5.4289606E+001
 11
7.2931034E+001
 21
6.7881293E+001
  0
LINE
  5
6bc
100
AcDbEntity
  8
5
100
AcDbLine
  6
CONTINUOUS
 62
6
 10
7.2931034E+001
 20
6.7881293E+001
 11
7.1387556E+001
 21
6.6426085E+001
  0
LINE
  5
6bd
100
AcDbEntity
  8
5
100
AcDbLine
  6
CONTINUOUS
 62
6
 10
7.1387556E+001
 20
6.6426085E+001
 11
1.1297592E+002
 21
5.2310526E+001
  0
LINE
  5
6be
100
AcDbEntity
  8
5
100
AcDbLine
  6
CONTINUOUS
 62
6
 10
7.1387556E+001
 20
8.20939E+001
 11
7.1387556E+001
 21
6.6426085E+001
  0
LINE
  5
6bf
100
AcDbEntity
  8
5
100
AcDbLine
  6
CONTINUOUS
 62
1
 10
7.2931034E+001
 20
6.7881293E+001
 11
7.2931034E+001
 21
8.3549108E+001
  0
LINE
  5
6c0
100
AcDbEntity
  8
5
100
AcDbLine
  6
CONTINUOUS
 62
6
 10
1.1297592E+002
 20
5.2310526E+001
 11
1.1297597E+002
 21
6.7978298E+001
  0
POLYLINE
  5
6c1
100
AcDbEntity
  8
5
100
AcDb2dPolyline
  6
CONTINUOUS
 62
6
 66
1
 40
0.0
 41
0.0
 70
2
  0
VERTEX
  5
6c2
100
AcDbEntity
  8
5
100
AcDbVertex
100
AcDb2dVertex
 42
0.0
 10
2.2666271E+001
 20
8.5221026E+001
 70
0
  0
VERTEX
  5
6c3
100
AcDbEntity
  8
5
100
AcDbVertex
100
AcDb2dVertex
 42
2.2836503E-002
 10
2.2515913E+001
 20
8.5053595E+001
 70
1
  0
VERTEX
  5
6c4
100
AcDbEntity
  8
5
100
AcDbVertex
100
AcDb2dVertex
 42
2.1683259E-002
 10
2.2378359E+001
 20
8.487034E+001
 70
0
  0
VERTEX
  5
6c5
100
AcDbEntity
  8
5
100
AcDbVertex
100
AcDb2dVertex
 42
2.0941655E-002
 10
2.2253924E+001
 20
8.4670516E+001
 70
1
  0
VERTEX
  5
6c6
100
AcDbEntity
  8
5
100
AcDbVertex
100
AcDb2dVertex
 42
2.1207446E-002
 10
2.2143567E+001
 20
8.4455395E+001
 70
0
  0
VERTEX
  5
6c7
100
AcDbEntity
  8
5
100
AcDbVertex
100
AcDb2dVertex
 42
2.0876377E-002
 10
2.2049653E+001
 20
8.4225192E+001
 70
1
  0
VERTEX
  5
6c8
100
AcDbEntity
  8
5
100
AcDbVertex
100
AcDb2dVertex
 42
2.0268821E-002
 10
2.1972582E+001
 20
8.3981538E+001
 70
0
  0
VERTEX
  5
6c9
100
AcDbEntity
  8
5
100
AcDbVertex
100
AcDb2dVertex
 42
1.9502787E-002
 10
2.1913962E+001
 20
8.3725072E+001
 70
1
  0
VERTEX
  5
6ca
100
AcDbEntity
  8
5
100
AcDbVertex
100
AcDb2dVertex
 42
1.883732E-002
 10
2.1873762E+001
 20
8.3457754E+001
 70
0
  0
VERTEX
  5
6cb
100
AcDbEntity
  8
5
100
AcDbVertex
100
AcDb2dVertex
 42
1.802483E-002
 10
2.1853355E+001
 20
8.3180762E+001
 70
1
  0
VERTEX
  5
6cc
100
AcDbEntity
  8
5
100
AcDbVertex
100
AcDb2dVertex
 42
1.7234554E-002
 10
2.1852165E+001
 20
8.2896238E+001
 70
0
  0
VERTEX
  5
6cd
100
AcDbEntity
  8
5
100
AcDbVertex
100
AcDb2dVertex
 42
1.6418578E-002
 10
2.187105E+001
 20
8.2605766E+001
 70
1
  0
VERTEX
  5
6ce
100
AcDbEntity
  8
5
100
AcDbVertex
100
AcDb2dVertex
 42
1.5644715E-002
 10
2.1908919E+001
 20
8.2311503E+001
 70
0
  0
VERTEX
  5
6cf
100
AcDbEntity
  8
5
100
AcDbVertex
100
AcDb2dVertex
 42
1.4908142E-002
 10
2.1966104E+001
 20
8.2015304E+001
 70
1
  0
VERTEX
  5
6d0
100
AcDbEntity
  8
5
100
AcDbVertex
100
AcDb2dVertex
 42
1.4190461E-002
 10
2.2041076E+001
 20
8.1719156E+001
 70
0
  0
VERTEX
  5
6d1
100
AcDbEntity
  8
5
100
AcDbVertex
100
AcDb2dVertex
 42
1.3558509E-002
 10
2.2133651E+001
 20
8.1425014E+001
 70
1
  0
VERTEX
  5
6d2
100
AcDbEntity
  8
5
100
AcDbVertex
100
AcDb2dVertex
 42
1.2922928E-002
 10
2.2241991E+001
 20
8.1134542E+001
 70
0
  0
VERTEX
  5
6d3
100
AcDbEntity
  8
5
100
AcDbVertex
100
AcDb2dVertex
 42
1.2400378E-002
 10
2.2365478E+001
 20
8.0849628E+001
 70
1
  0
VERTEX
  5
6d4
100
AcDbEntity
  8
5
100
AcDbVertex
100
AcDb2dVertex
 42
1.184795E-002
 10
2.2502124E+001
 20
8.0571507E+001
 70
0
  0
VERTEX
  5
6d5
100
AcDbEntity
  8
5
100
AcDbVertex
100
AcDb2dVertex
 42
1.1428294E-002
 10
2.2650988E+001
 20
8.0301869E+001
 70
1
  0
VERTEX
  5
6d6
100
AcDbEntity
  8
5
100
AcDbVertex
100
AcDb2dVertex
 42
1.0959295E-002
 10
2.2810102E+001
 20
8.0041469E+001
 70
0
  0
VERTEX
  5
6d7
100
AcDbEntity
  8
5
100
AcDbVertex
100
AcDb2dVertex
 42
1.0620136E-002
 10
2.2978336E+001
 20
7.9791711E+001
 70
1
  0
VERTEX
  5
6d8
100
AcDbEntity
  8
5
100
AcDbVertex
100
AcDb2dVertex
 42
1.0202527E-002
 10
2.3153838E+001
 20
7.9552896E+001
 70
0
  0
VERTEX
  5
6d9
100
AcDbEntity
  8
5
100
AcDbVertex
100
AcDb2dVertex
 42
9.9590731E-003
 10
2.33354E+001
 20
7.9326111E+001
 70
1
  0
VERTEX
  5
6da
100
AcDbEntity
  8
5
100
AcDbVertex
100
AcDb2dVertex
 42
9.6600918E-003
 10
2.3521517E+001
 20
7.9111199E+001
 70
0
  0
VERTEX
  5
6db
100
AcDbEntity
  8
5
100
AcDbVertex
100
AcDb2dVertex
 42
9.390413E-003
 10
2.3711051E+001
 20
7.8908915E+001
 70
1
  0
VERTEX
  5
6dc
100
AcDbEntity
  8
5
100
AcDbVertex
100
AcDb2dVertex
 42
8.924649E-003
 10
2.390235E+001
 20
7.8718957E+001
 70
0
  0
VERTEX
  5
6dd
100
AcDbEntity
  8
5
100
AcDbVertex
100
AcDb2dVertex
 42
9.1246951E-003
 10
2.4095021E+001
 20
7.85412E+001
 70
1
  0
VERTEX
  5
6de
100
AcDbEntity
  8
5
100
AcDbVertex
100
AcDb2dVertex
 42
9.2062939E-003
 10
2.4293672E+001
 20
7.837088E+001
 70
0
  0
VERTEX
  5
6df
100
AcDbEntity
  8
5
100
AcDbVertex
100
AcDb2dVertex
 42
9.123548E-003
 10
2.4503527E+001
 20
7.8204126E+001
 70
1
  0
VERTEX
  5
6e0
100
AcDbEntity
  8
5
100
AcDbVertex
100
AcDb2dVertex
 42
9.727842E-003
 10
2.4724306E+001
 20
7.8041671E+001
 70
0
  0
VERTEX
  5
6e1
100
AcDbEntity
  8
5
100
AcDbVertex
100
AcDb2dVertex
 42
1.015936E-002
 10
2.4955654E+001
 20
7.7885599E+001
 70
1
  0
VERTEX
  5
6e2
100
AcDbEntity
  8
5
100
AcDbVertex
100
AcDb2dVertex
 42
1.0594661E-002
 10
2.5196668E+001
 20
7.7736957E+001
 70
0
  0
VERTEX
  5
6e3
100
AcDbEntity
  8
5
100
AcDbVertex
100
AcDb2dVertex
 42
1.1003572E-002
 10
2.5447235E+001
 20
7.7597338E+001
 70
1
  0
VERTEX
  5
6e4
100
AcDbEntity
  8
5
100
AcDbVertex
100
AcDb2dVertex
 42
1.1630402E-002
 10
2.5706131E+001
 20
7.7467832E+001
 70
0
  0
VERTEX
  5
6e5
100
AcDbEntity
  8
5
100
AcDbVertex
100
AcDb2dVertex
 42
1.2139121E-002
 10
2.5972677E+001
 20
7.7350391E+001
 70
1
  0
VERTEX
  5
6e6
100
AcDbEntity
  8
5
100
AcDbVertex
100
AcDb2dVertex
 42
1.2739645E-002
 10
2.6245303E+001
 20
7.724588E+001
 70
0
  0
VERTEX
  5
6e7
100
AcDbEntity
  8
5
100
AcDbVertex
100
AcDb2dVertex
 42
1.3487494E-002
 10
2.6522893E+001
 20
7.7156234E+001
 70
1
  0
VERTEX
  5
6e8
100
AcDbEntity
  8
5
100
AcDbVertex
100
AcDb2dVertex
 42
1.4563724E-002
 10
2.6803999E+001
 20
7.7082303E+001
 70
0
  0
VERTEX
  5
6e9
100
AcDbEntity
  8
5
100
AcDbVertex
100
AcDb2dVertex
 42
1.4939302E-002
 10
2.7087185E+001
 20
7.7026023E+001
 70
1
  0
VERTEX
  5
6ea
100
AcDbEntity
  8
5
100
AcDbVertex
100
AcDb2dVertex
 42
1.4800729E-002
 10
2.7369552E+001
 20
7.6986882E+001
 70
0
  0
VERTEX
  5
6eb
100
AcDbEntity
  8
5
100
AcDbVertex
100
AcDb2dVertex
 42
1.7092033E-002
 10
2.7648851E+001
 20
7.6966227E+001
 70
1
  0
VERTEX
  5
6ec
100
AcDbEntity
  8
5
100
AcDbVertex
100
AcDb2dVertex
 42
2.1447144E-002
 10
2.7927535E+001
 20
7.6966887E+001
 70
0
  0
VERTEX
  5
6ed
100
AcDbEntity
  8
5
100
AcDbVertex
100
AcDb2dVertex
 42
1.7502961E-002
 10
2.8204967E+001
 20
7.6991125E+001
 70
1
  0
VERTEX
  5
6ee
100
AcDbEntity
  8
5
100
AcDbVertex
100
AcDb2dVertex
 42
6.9855119E-003
 10
2.8462829E+001
 20
7.702614E+001
 70
0
  0
VERTEX
  5
6ef
100
AcDbEntity
  8
5
100
AcDbVertex
100
AcDb2dVertex
 42
2.551454E-002
 10
2.8693206E+001
 20
7.7068488E+001
 70
1
  0
VERTEX
  5
6f0
100
AcDbEntity
  8
5
100
AcDbVertex
100
AcDb2dVertex
 42
4.7205512E-002
 10
2.8960899E+001
 20
7.716443E+001
 70
0
  0
VERTEX
  5
6f1
100
AcDbEntity
  8
5
100
AcDbVertex
100
AcDb2dVertex
 42
2.4788281E-002
 10
2.933341E+001
 20
7.7364163E+001
 70
1
  0
VERTEX
  5
6f2
100
AcDbEntity
  8
5
100
AcDbVertex
100
AcDb2dVertex
 42
1.3347061E-002
 10
2.9797644E+001
 20
7.7657064E+001
 70
0
  0
SEQEND
  5
6f3
100
AcDbEntity
  0
POLYLINE
  5
6f4
100
AcDbEntity
  8
5
100
AcDb2dPolyline
  6
CONTINUOUS
 62
6
 66
1
 40
0.0
 41
0.0
 70
2
  0
VERTEX
  5
6f5
100
AcDbEntity
  8
5
100
AcDbVertex
100
AcDb2dVertex
 42
0.0
 10
2.9893457E+001
 20
8.1977468E+001
 70
0
  0
VERTEX
  5
6f6
100
AcDbEntity
  8
5
100
AcDbVertex
100
AcDb2dVertex
 42
2.1659617E-003
 10
2.9893379E+001
 20
8.1995454E+001
 70
1
  0
VERTEX
  5
6f7
100
AcDbEntity
  8
5
100
AcDbVertex
100
AcDb2dVertex
 42
2.1206118E-003
 10
2.9893148E+001
 20
8.2013573E+001
 70
0
  0
VERTEX
  5
6f8
100
AcDbEntity
  8
5
100
AcDbVertex
100
AcDb2dVertex
 42
2.1009557E-003
 10
2.9892757E+001
 20
8.203183E+001
 70
1
  0
VERTEX
  5
6f9
100
AcDbEntity
  8
5
100
AcDbVertex
100
AcDb2dVertex
 42
2.1122861E-003
 10
2.9892211E+001
 20
8.205022E+001
 70
0
  0
VERTEX
  5
6fa
100
AcDbEntity
  8
5
100
AcDbVertex
100
AcDb2dVertex
 42
2.111019E-003
 10
2.9891499E+001
 20
8.2068746E+001
 70
1
  0
VERTEX
  5
6fb
100
AcDbEntity
  8
5
100
AcDbVertex
100
AcDb2dVertex
 42
2.1079458E-003
 10
2.9890628E+001
 20
8.2087404E+001
 70
0
  0
VERTEX
  5
6fc
100
AcDbEntity
  8
5
100
AcDbVertex
100
AcDb2dVertex
 42
2.1018704E-003
 10
2.9889587E+001
 20
8.2106198E+001
 70
1
  0
VERTEX
  5
6fd
100
AcDbEntity
  8
5
100
AcDbVertex
100
AcDb2dVertex
 42
2.1020717E-003
 10
2.9888382E+001
 20
8.212512E+001
 70
0
  0
VERTEX
  5
6fe
100
AcDbEntity
  8
5
100
AcDbVertex
100
AcDb2dVertex
 42
2.0972216E-003
 10
2.9887004E+001
 20
8.2144177E+001
 70
1
  0
VERTEX
  5
6ff
100
AcDbEntity
  8
5
100
AcDbVertex
100
AcDb2dVertex
 42
2.0968064E-003
 10
2.9885457E+001
 20
8.2163362E+001
 70
0
  0
VERTEX
  5
700
100
AcDbEntity
  8
5
100
AcDbVertex
100
AcDb2dVertex
 42
2.0909626E-003
 10
2.9883732E+001
 20
8.2182679E+001
 70
1
  0
VERTEX
  5
701
100
AcDbEntity
  8
5
100
AcDbVertex
100
AcDb2dVertex
 42
2.0890943E-003
 10
2.9881834E+001
 20
8.2202122E+001
 70
0
  0
VERTEX
  5
702
100
AcDbEntity
  8
5
100
AcDbVertex
100
AcDb2dVertex
 42
2.0853768E-003
 10
2.9879755E+001
 20
8.2221694E+001
 70
1
  0
VERTEX
  5
703
100
AcDbEntity
  8
5
100
AcDbVertex
100
AcDb2dVertex
 42
2.0885667E-003
 10
2.9877498E+001
 20
8.2241391E+001
 70
0
  0
VERTEX
  5
704
100
AcDbEntity
  8
5
100
AcDbVertex
100
AcDb2dVertex
 42
2.0773828E-003
 10
2.9875055E+001
 20
8.2261219E+001
 70
1
  0
VERTEX
  5
705
100
AcDbEntity
  8
5
100
AcDbVertex
100
AcDb2dVertex
 42
2.0627202E-003
 10
2.9872432E+001
 20
8.2281162E+001
 70
0
  0
VERTEX
  5
706
100
AcDbEntity
  8
5
100
AcDbVertex
100
AcDb2dVertex
 42
2.0766731E-003
 10
2.986962E+001
 20
8.2301222E+001
 70
1
  0
VERTEX
  5
707
100
AcDbEntity
  8
5
100
AcDbVertex
100
AcDb2dVertex
 42
2.1203974E-003
 10
2.9866618E+001
 20
8.2321423E+001
 70
0
  0
VERTEX
  5
708
100
AcDbEntity
  8
5
100
AcDbVertex
100
AcDb2dVertex
 42
2.0502422E-003
 10
2.9863414E+001
 20
8.2341779E+001
 70
1
  0
VERTEX
  5
709
100
AcDbEntity
  8
5
100
AcDbVertex
100
AcDb2dVertex
 42
1.905898E-003
 10
2.9860042E+001
 20
8.2362164E+001
 70
0
  0
VERTEX
  5
70a
100
AcDbEntity
  8
5
100
AcDbVertex
100
AcDb2dVertex
 42
2.1110817E-003
 10
2.9856504E+001
 20
8.2382541E+001
 70
1
  0
VERTEX
  5
70b
100
AcDbEntity
  8
5
100
AcDbVertex
100
AcDb2dVertex
 42
2.5301229E-003
 10
2.9852688E+001
 20
8.2403374E+001
 70
0
  0
VERTEX
  5
70c
100
AcDbEntity
  8
5
100
AcDbVertex
100
AcDb2dVertex
 42
1.8913521E-003
 10
2.9848544E+001
 20
8.2424828E+001
 70
1
  0
VERTEX
  5
70d
100
AcDbEntity
  8
5
100
AcDbVertex
100
AcDb2dVertex
 42
6.027681E-004
 10
2.9844539E+001
 20
8.2445038E+001
 70
0
  0
VERTEX
  5
70e
100
AcDbEntity
  8
5
100
AcDbVertex
100
AcDb2dVertex
 42
2.7051132E-003
 10
2.9840821E+001
 20
8.2463366E+001
 70
1
  0
VERTEX
  5
70f
100
AcDbEntity
  8
5
100
AcDbVertex
100
AcDb2dVertex
 42
4.637568E-003
 10
2.9835582E+001
 20
8.2487145E+001
 70
0
  0
VERTEX
  5
710
100
AcDbEntity
  8
5
100
AcDbVertex
100
AcDb2dVertex
 42
2.2216012E-003
 10
2.9826908E+001
 20
8.2524075E+001
 70
1
  0
VERTEX
  5
711
100
AcDbEntity
  8
5
100
AcDbVertex
100
AcDb2dVertex
 42
1.1590394E-003
 10
2.9815185E+001
 20
8.2572622E+001
 70
0
  0
SEQEND
  5
712
100
AcDbEntity
  0
POLYLINE
  5
713
100
AcDbEntity
  8
5
100
AcDb2dPolyline
  6
CONTINUOUS
 62
6
 66
1
 40
0.0
 41
0.0
 70
2
  0
VERTEX
  5
714
100
AcDbEntity
  8
5
100
AcDbVertex
100
AcDb2dVertex
 42
0.0
 10
2.7533693E+001
 20
8.4962029E+001
 70
0
  0
VERTEX
  5
715
100
AcDbEntity
  8
5
100
AcDbVertex
100
AcDb2dVertex
 42
1.3537791E-002
 10
2.7379726E+001
 20
8.5003148E+001
 70
1
  0
VERTEX
  5
716
100
AcDbEntity
  8
5
100
AcDbVertex
100
AcDb2dVertex
 42
1.5353781E-002
 10
2.7230711E+001
 20
8.5033994E+001
 70
0
  0
VERTEX
  5
717
100
AcDbEntity
  8
5
100
AcDbVertex
100
AcDb2dVertex
 42
1.6348505E-002
 10
2.7086777E+001
 20
8.505405E+001
 70
1
  0
VERTEX
  5
718
100
AcDbEntity
  8
5
100
AcDbVertex
100
AcDb2dVertex
 42
1.6242043E-002
 10
2.6948239E+001
 20
8.5064362E+001
 70
0
  0
VERTEX
  5
719
100
AcDbEntity
  8
5
100
AcDbVertex
100
AcDb2dVertex
 42
1.6362177E-002
 10
2.6816037E+001
 20
8.5065339E+001
 70
1
  0
VERTEX
  5
71a
100
AcDbEntity
  8
5
100
AcDbVertex
100
AcDb2dVertex
 42
1.6296593E-002
 10
2.6690783E+001
 20
8.5058212E+001
 70
0
  0
VERTEX
  5
71b
100
AcDbEntity
  8
5
100
AcDbVertex
100
AcDb2dVertex
 42
1.7104253E-002
 10
2.6573125E+001
 20
8.5043416E+001
 70
1
  0
VERTEX
  5
71c
100
AcDbEntity
  8
5
100
AcDbVertex
100
AcDb2dVertex
 42
1.7222313E-002
 10
2.6460572E+001
 20
8.5021399E+001
 70
0
  0
VERTEX
  5
71d
100
AcDbEntity
  8
5
100
AcDbVertex
100
AcDb2dVertex
 42
1.7684647E-002
 10
2.6350813E+001
 20
8.4991726E+001
 70
1
  0
VERTEX
  5
71e
100
AcDbEntity
  8
5
100
AcDbVertex
100
AcDb2dVertex
 42
1.910339E-002
 10
2.6242782E+001
 20
8.495391E+001
 70
0
  0
VERTEX
  5
71f
100
AcDbEntity
  8
5
100
AcDbVertex
100
AcDb2dVertex
 42
1.9905455E-002
 10
2.6136194E+001
 20
8.4906733E+001
 70
1
  0
VERTEX
  5
720
100
AcDbEntity
  8
5
100
AcDbVertex
100
AcDb2dVertex
 42
2.1212961E-002
 10
2.6031983E+001
 20
8.4850125E+001
 70
0
  0
VERTEX
  5
721
100
AcDbEntity
  8
5
100
AcDbVertex
100
AcDb2dVertex
 42
2.214875E-002
 10
2.5931527E+001
 20
8.4783341E+001
 70
1
  0
VERTEX
  5
722
100
AcDbEntity
  8
5
100
AcDbVertex
100
AcDb2dVertex
 42
2.3040795E-002
 10
2.5835673E+001
 20
8.4706501E+001
 70
0
  0
VERTEX
  5
723
100
AcDbEntity
  8
5
100
AcDbVertex
100
AcDb2dVertex
 42
2.3475727E-002
 10
2.5745619E+001
 20
8.4618954E+001
 70
1
  0
VERTEX
  5
724
100
AcDbEntity
  8
5
100
AcDbVertex
100
AcDb2dVertex
 42
2.39854E-002
 10
2.5662198E+001
 20
8.4521121E+001
 70
0
  0
VERTEX
  5
725
100
AcDbEntity
  8
5
100
AcDbVertex
100
AcDb2dVertex
 42
2.3957802E-002
 10
2.5586801E+001
 20
8.441267E+001
 70
1
  0
VERTEX
  5
726
100
AcDbEntity
  8
5
100
AcDbVertex
100
AcDb2dVertex
 42
2.3882191E-002
 10
2.5520104E+001
 20
8.429435E+001
 70
0
  0
VERTEX
  5
727
100
AcDbEntity
  8
5
100
AcDbVertex
100
AcDb2dVertex
 42
2.3340312E-002
 10
2.5463451E+001
 20
8.4166202E+001
 70
1
  0
VERTEX
  5
728
100
AcDbEntity
  8
5
100
AcDbVertex
100
AcDb2dVertex
 42
2.2787303E-002
 10
2.5417253E+001
 20
8.4029304E+001
 70
0
  0
VERTEX
  5
729
100
AcDbEntity
  8
5
100
AcDbVertex
100
AcDb2dVertex
 42
2.1901628E-002
 10
2.5382702E+001
 20
8.3884116E+001
 70
1
  0
VERTEX
  5
72a
100
AcDbEntity
  8
5
100
AcDbVertex
100
AcDb2dVertex
 42
2.1038794E-002
 10
2.5359842E+001
 20
8.3731987E+001
 70
0
  0
VERTEX
  5
72b
100
AcDbEntity
  8
5
100
AcDbVertex
100
AcDb2dVertex
 42
2.0010079E-002
 10
2.5349573E+001
 20
8.3573775E+001
 70
1
  0
VERTEX
  5
72c
100
AcDbEntity
  8
5
100
AcDbVertex
100
AcDb2dVertex
 42
1.9032516E-002
 10
2.535152E+001
 20
8.3410982E+001
 70
0
  0
VERTEX
  5
72d
100
AcDbEntity
  8
5
100
AcDbVertex
100
AcDb2dVertex
 42
1.802849E-002
 10
2.5366198E+001
 20
8.3244777E+001
 70
1
  0
VERTEX
  5
72e
100
AcDbEntity
  8
5
100
AcDbVertex
100
AcDb2dVertex
 42
1.7071656E-002
 10
2.5392827E+001
 20
8.3076667E+001
 70
0
  0
VERTEX
  5
72f
100
AcDbEntity
  8
5
100
AcDbVertex
100
AcDb2dVertex
 42
1.6186126E-002
 10
2.5431501E+001
 20
8.2908E+001
 70
1
  0
VERTEX
  5
730
100
AcDbEntity
  8
5
100
AcDbVertex
100
AcDb2dVertex
 42
1.532203E-002
 10
2.548111E+001
 20
8.274013E+001
 70
0
  0
VERTEX
  5
731
100
AcDbEntity
  8
5
100
AcDbVertex
100
AcDb2dVertex
 42
1.458771E-002
 10
2.554136E+001
 20
8.2574433E+001
 70
1
  0
VERTEX
  5
732
100
AcDbEntity
  8
5
100
AcDbVertex
100
AcDb2dVertex
 42
1.3838555E-002
 10
2.5610935E+001
 20
8.2411982E+001
 70
0
  0
VERTEX
  5
733
100
AcDbEntity
  8
5
100
AcDbVertex
100
AcDb2dVertex
 42
1.3255359E-002
 10
2.5689235E+001
 20
8.2254046E+001
 70
1
  0
VERTEX
  5
734
100
AcDbEntity
  8
5
100
AcDbVertex
100
AcDb2dVertex
 42
1.2625928E-002
 10
2.5774885E+001
 20
8.2101343E+001
 70
0
  0
VERTEX
  5
735
100
AcDbEntity
  8
5
100
AcDbVertex
100
AcDb2dVertex
 42
1.2166018E-002
 10
2.5867095E+001
 20
8.1954935E+001
 70
1
  0
VERTEX
  5
736
100
AcDbEntity
  8
5
100
AcDbVertex
100
AcDb2dVertex
 42
1.1618531E-002
 10
2.5964537E+001
 20
8.1815173E+001
 70
0
  0
VERTEX
  5
737
100
AcDbEntity
  8
5
100
AcDbVertex
100
AcDb2dVertex
 42
1.1291766E-002
 10
2.6066339E+001
 20
8.1682867E+001
 70
1
  0
VERTEX
  5
738
100
AcDbEntity
  8
5
100
AcDbVertex
100
AcDb2dVertex
 42
1.0899575E-002
 10
2.6171391E+001
 20
8.1558018E+001
 70
0
  0
VERTEX
  5
739
100
AcDbEntity
  8
5
100
AcDbVertex
100
AcDb2dVertex
 42
1.0561476E-002
 10
2.6278857E+001
 20
8.1441173E+001
 70
1
  0
VERTEX
  5
73a
100
AcDbEntity
  8
5
100
AcDbVertex
100
AcDb2dVertex
 42
9.9774046E-003
 10
2.6387613E+001
 20
8.1332121E+001
 70
0
  0
VERTEX
  5
73b
100
AcDbEntity
  8
5
100
AcDbVertex
100
AcDb2dVertex
 42
1.0223991E-002
 10
2.6497362E+001
 20
8.1230755E+001
 70
1
  0
VERTEX
  5
73c
100
AcDbEntity
  8
5
100
AcDbVertex
100
AcDb2dVertex
 42
1.0341095E-002
 10
2.6610993E+001
 20
8.11341E+001
 70
0
  0
VERTEX
  5
73d
100
AcDbEntity
  8
5
100
AcDbVertex
100
AcDb2dVertex
 42
1.0244732E-002
 10
2.6731783E+001
 20
8.1039779E+001
 70
1
  0
VERTEX
  5
73e
100
AcDbEntity
  8
5
100
AcDbVertex
100
AcDb2dVertex
 42
1.1010032E-002
 10
2.6859482E+001
 20
8.0948388E+001
 70
0
  0
VERTEX
  5
73f
100
AcDbEntity
  8
5
100
AcDbVertex
100
AcDb2dVertex
 42
1.1571589E-002
 10
2.6993776E+001
 20
8.0861408E+001
 70
1
  0
VERTEX
  5
740
100
AcDbEntity
  8
5
100
AcDbVertex
100
AcDb2dVertex
 42
1.2147586E-002
 10
2.7134009E+001
 20
8.0779608E+001
 70
0
  0
VERTEX
  5
741
100
AcDbEntity
  8
5
100
AcDbVertex
100
AcDb2dVertex
 42
1.268144E-002
 10
2.7279991E+001
 20
8.0704135E+001
 70
1
  0
VERTEX
  5
742
100
AcDbEntity
  8
5
100
AcDbVertex
100
AcDb2dVertex
 42
1.3483824E-002
 10
2.7430795E+001
 20
8.0635758E+001
 70
0
  0
VERTEX
  5
743
100
AcDbEntity
  8
5
100
AcDbVertex
100
AcDb2dVertex
 42
1.421261E-002
 10
2.7585789E+001
 20
8.0575848E+001
 70
1
  0
VERTEX
  5
744
100
AcDbEntity
  8
5
100
AcDbVertex
100
AcDb2dVertex
 42
1.5123942E-002
 10
2.7743845E+001
 20
8.0525019E+001
 70
0
  0
VERTEX
  5
745
100
AcDbEntity
  8
5
100
AcDbVertex
100
AcDb2dVertex
 42
1.600528E-002
 10
2.7904017E+001
 20
8.048459E+001
 70
1
  0
VERTEX
  5
746
100
AcDbEntity
  8
5
100
AcDbVertex
100
AcDb2dVertex
 42
1.7068989E-002
 10
2.8065034E+001
 20
8.0454921E+001
 70
0
  0
VERTEX
  5
747
100
AcDbEntity
  8
5
100
AcDbVertex
100
AcDb2dVertex
 42
1.8113721E-002
 10
2.8225644E+001
 20
8.0437188E+001
 70
1
  0
VERTEX
  5
748
100
AcDbEntity
  8
5
100
AcDbVertex
100
AcDb2dVertex
 42
1.9266961E-002
 10
2.8384554E+001
 20
8.0431391E+001
 70
0
  0
VERTEX
  5
749
100
AcDbEntity
  8
5
100
AcDbVertex
100
AcDb2dVertex
 42
2.0422535E-002
 10
2.8540315E+001
 20
8.0438414E+001
 70
1
  0
VERTEX
  5
74a
100
AcDbEntity
  8
5
100
AcDbVertex
100
AcDb2dVertex
 42
2.1596154E-002
 10
2.8691751E+001
 20
8.0457858E+001
 70
0
  0
VERTEX
  5
74b
100
AcDbEntity
  8
5
100
AcDbVertex
100
AcDb2dVertex
 42
2.2673866E-002
 10
2.8837355E+001
 20
8.049022E+001
 70
1
  0
VERTEX
  5
74c
100
AcDbEntity
  8
5
100
AcDbVertex
100
AcDb2dVertex
 42
2.352519E-002
 10
2.8976207E+001
 20
8.0534638E+001
 70
0
  0
VERTEX
  5
74d
100
AcDbEntity
  8
5
100
AcDbVertex
100
AcDb2dVertex
 42
2.4486885E-002
 10
2.9106898E+001
 20
8.0591155E+001
 70
1
  0
VERTEX
  5
74e
100
AcDbEntity
  8
5
100
AcDbVertex
100
AcDb2dVertex
 42
2.530898E-002
 10
2.9228886E+001
 20
8.0658783E+001
 70
0
  0
VERTEX
  5
74f
100
AcDbEntity
  8
5
100
AcDbVertex
100
AcDb2dVertex
 42
2.5183369E-002
 10
2.9341001E+001
 20
8.073723E+001
 70
1
  0
VERTEX
  5
750
100
AcDbEntity
  8
5
100
AcDbVertex
100
AcDb2dVertex
 42
2.3899066E-002
 10
2.9443061E+001
 20
8.0824436E+001
 70
0
  0
VERTEX
  5
751
100
AcDbEntity
  8
5
100
AcDbVertex
100
AcDb2dVertex
 42
2.5252345E-002
 10
2.9534199E+001
 20
8.0919493E+001
 70
1
  0
VERTEX
  5
752
100
AcDbEntity
  8
5
100
AcDbVertex
100
AcDb2dVertex
 42
2.7934507E-002
 10
2.9614857E+001
 20
8.1023623E+001
 70
0
  0
VERTEX
  5
753
100
AcDbEntity
  8
5
100
AcDbVertex
100
AcDb2dVertex
 42
2.1967888E-002
 10
2.9684589E+001
 20
8.1136864E+001
 70
1
  0
VERTEX
  5
754
100
AcDbEntity
  8
5
100
AcDbVertex
100
AcDb2dVertex
 42
1.0550292E-002
 10
2.9743306E+001
 20
8.1247266E+001
 70
0
  0
VERTEX
  5
755
100
AcDbEntity
  8
5
100
AcDbVertex
100
AcDb2dVertex
 42
2.6251734E-002
 10
2.979059E+001
 20
8.135022E+001
 70
1
  0
VERTEX
  5
756
100
AcDbEntity
  8
5
100
AcDbVertex
100
AcDb2dVertex
 42
4.0194317E-002
 10
2.9830001E+001
 20
8.1486197E+001
 70
0
  0
VERTEX
  5
757
100
AcDbEntity
  8
5
100
AcDbVertex
100
AcDb2dVertex
 42
1.9878202E-002
 10
2.9864365E+001
 20
8.1698164E+001
 70
1
  0
VERTEX
  5
758
100
AcDbEntity
  8
5
100
AcDbVertex
100
AcDb2dVertex
 42
1.0866147E-002
 10
2.9893457E+001
 20
8.1977468E+001
 70
0
  0
SEQEND
  5
759
100
AcDbEntity
  0
POLYLINE
  5
75a
100
AcDbEntity
  8
5
100
AcDb2dPolyline
  6
CONTINUOUS
 62
1
 66
1
 40
0.0
 41
0.0
 70
2
  0
VERTEX
  5
75b
100
AcDbEntity
  8
5
100
AcDbVertex
100
AcDb2dVertex
 42
0.0
 10
2.947684E+001
 20
8.0857732E+001
 70
0
  0
VERTEX
  5
75c
100
AcDbEntity
  8
5
100
AcDbVertex
100
AcDb2dVertex
 42
-2.3310731E-002
 10
2.9381632E+001
 20
8.0782268E+001
 70
1
  0
VERTEX
  5
75d
100
AcDbEntity
  8
5
100
AcDbVertex
100
AcDb2dVertex
 42
-2.27177E-002
 10
2.9278887E+001
 20
8.0715042E+001
 70
0
  0
VERTEX
  5
75e
100
AcDbEntity
  8
5
100
AcDbVertex
100
AcDb2dVertex
 42
-2.1996996E-002
 10
2.9168201E+001
 20
8.0656309E+001
 70
1
  0
VERTEX
  5
75f
100
AcDbEntity
  8
5
100
AcDbVertex
100
AcDb2dVertex
 42
-2.1834693E-002
 10
2.9050509E+001
 20
8.0606328E+001
 70
0
  0
VERTEX
  5
760
100
AcDbEntity
  8
5
100
AcDbVertex
100
AcDb2dVertex
 42
-2.1282375E-002
 10
2.8926326E+001
 20
8.0566154E+001
 70
1
  0
VERTEX
  5
761
100
AcDbEntity
  8
5
100
AcDbVertex
100
AcDb2dVertex
 42
-2.0449867E-002
 10
2.8796672E+001
 20
8.0535696E+001
 70
0
  0
VERTEX
  5
762
100
AcDbEntity
  8
5
100
AcDbVertex
100
AcDb2dVertex
 42
-1.9536206E-002
 10
2.866214E+001
 20
8.0515551E+001
 70
1
  0
VERTEX
  5
763
100
AcDbEntity
  8
5
100
AcDbVertex
100
AcDb2dVertex
 42
-1.8651786E-002
 10
2.8523829E+001
 20
8.0505366E+001
 70
0
  0
VERTEX
  5
764
100
AcDbEntity
  8
5
100
AcDbVertex
100
AcDb2dVertex
 42
-1.7733777E-002
 10
2.8382557E+001
 20
8.050554E+001
 70
1
  0
VERTEX
  5
765
100
AcDbEntity
  8
5
100
AcDbVertex
100
AcDb2dVertex
 42
-1.6787422E-002
 10
2.8239393E+001
 20
8.0515453E+001
 70
0
  0
VERTEX
  5
766
100
AcDbEntity
  8
5
100
AcDbVertex
100
AcDb2dVertex
 42
-1.5912217E-002
 10
2.8095248E+001
 20
8.0535218E+001
 70
1
  0
VERTEX
  5
767
100
AcDbEntity
  8
5
100
AcDbVertex
100
AcDb2dVertex
 42
-1.5030884E-002
 10
2.7951078E+001
 20
8.0564012E+001
 70
0
  0
VERTEX
  5
768
100
AcDbEntity
  8
5
100
AcDbVertex
100
AcDb2dVertex
 42
-1.4264678E-002
 10
2.7807817E+001
 20
8.0601704E+001
 70
1
  0
VERTEX
  5
769
100
AcDbEntity
  8
5
100
AcDbVertex
100
AcDb2dVertex
 42
-1.347291E-002
 10
2.7666246E+001
 20
8.0647339E+001
 70
0
  0
VERTEX
  5
76a
100
AcDbEntity
  8
5
100
AcDbVertex
100
AcDb2dVertex
 42
-1.283055E-002
 10
2.752724E+001
 20
8.0700585E+001
 70
1
  0
VERTEX
  5
76b
100
AcDbEntity
  8
5
100
AcDbVertex
100
AcDb2dVertex
 42
-1.2151106E-002
 10
2.7391358E+001
 20
8.0760445E+001
 70
0
  0
VERTEX
  5
76c
100
AcDbEntity
  8
5
100
AcDbVertex
100
AcDb2dVertex
 42
-1.1613178E-002
 10
2.7259367E+001
 20
8.0826454E+001
 70
1
  0
VERTEX
  5
76d
100
AcDbEntity
  8
5
100
AcDbVertex
100
AcDb2dVertex
 42
-1.1007013E-002
 10
2.7131616E+001
 20
8.0897616E+001
 70
0
  0
VERTEX
  5
76e
100
AcDbEntity
  8
5
100
AcDbVertex
100
AcDb2dVertex
 42
-1.0605482E-002
 10
2.7008737E+001
 20
8.0973384E+001
 70
1
  0
VERTEX
  5
76f
100
AcDbEntity
  8
5
100
AcDbVertex
100
AcDb2dVertex
 42
-1.0164079E-002
 10
2.689079E+001
 20
8.1052944E+001
 70
0
  0
VERTEX
  5
770
100
AcDbEntity
  8
5
100
AcDbVertex
100
AcDb2dVertex
 42
-9.730081E-003
 10
2.6778231E+001
 20
8.1135759E+001
 70
1
  0
VERTEX
  5
771
100
AcDbEntity
  8
5
100
AcDbVertex
100
AcDb2dVertex
 42
-9.1268663E-003
 10
2.6671243E+001
 20
8.1220767E+001
 70
0
  0
VERTEX
  5
772
100
AcDbEntity
  8
5
100
AcDbVertex
100
AcDb2dVertex
 42
-9.2101921E-003
 10
2.6569969E+001
 20
8.1307593E+001
 70
1
  0
VERTEX
  5
773
100
AcDbEntity
  8
5
100
AcDbVertex
100
AcDb2dVertex
 42
-9.1279447E-003
 10
2.6471746E+001
 20
8.1398212E+001
 70
0
  0
VERTEX
  5
774
100
AcDbEntity
  8
5
100
AcDbVertex
100
AcDb2dVertex
 42
-8.9276587E-003
 10
2.6374223E+001
 20
8.1495052E+001
 70
1
  0
VERTEX
  5
775
100
AcDbEntity
  8
5
100
AcDbVertex
100
AcDb2dVertex
 42
-9.3939358E-003
 10
2.62776E+001
 20
8.1598177E+001
 70
0
  0
VERTEX
  5
776
100
AcDbEntity
  8
5
100
AcDbVertex
100
AcDb2dVertex
 42
-9.663661E-003
 10
2.618272E+001
 20
8.1707743E+001
 70
1
  0
VERTEX
  5
777
100
AcDbEntity
  8
5
100
AcDbVertex
100
AcDb2dVertex
 42
-9.962525E-003
 10
2.6090164E+001
 20
8.1823364E+001
 70
0
  0
VERTEX
  5
778
100
AcDbEntity
  8
5
100
AcDbVertex
100
AcDb2dVertex
 42
-1.0206688E-002
 10
2.6000699E+001
 20
8.1945119E+001
 70
1
  0
VERTEX
  5
779
100
AcDbEntity
  8
5
100
AcDbVertex
100
AcDb2dVertex
 42
-1.0625985E-002
 10
2.5914942E+001
 20
8.2072454E+001
 70
0
  0
VERTEX
  5
77a
100
AcDbEntity
  8
5
100
AcDbVertex
100
AcDb2dVertex
 42
-1.0963642E-002
 10
2.5833839E+001
 20
8.2205217E+001
 70
1
  0
VERTEX
  5
77b
100
AcDbEntity
  8
5
100
AcDbVertex
100
AcDb2dVertex
 42
-1.1428022E-002
 10
2.5757963E+001
 20
8.2342687E+001
 70
0
  0
VERTEX
  5
77c
100
AcDbEntity
  8
5
100
AcDbVertex
100
AcDb2dVertex
 42
-1.1854866E-002
 10
2.5688318E+001
 20
8.248448E+001
 70
1
  0
VERTEX
  5
77d
100
AcDbEntity
  8
5
100
AcDbVertex
100
AcDb2dVertex
 42
-1.2426708E-002
 10
2.5625391E+001
 20
8.262974E+001
 70
0
  0
VERTEX
  5
77e
100
AcDbEntity
  8
5
100
AcDbVertex
100
AcDb2dVertex
 42
-1.2924425E-002
 10
2.5570197E+001
 20
8.2777841E+001
 70
1
  0
VERTEX
  5
77f
100
AcDbEntity
  8
5
100
AcDbVertex
100
AcDb2dVertex
 42
-1.3490027E-002
 10
2.5523027E+001
 20
8.2927787E+001
 70
0
  0
VERTEX
  5
780
100
AcDbEntity
  8
5
100
AcDbVertex
100
AcDb2dVertex
 42
-1.4217766E-002
 10
2.5484809E+001
 20
8.3078718E+001
 70
1
  0
VERTEX
  5
781
100
AcDbEntity
  8
5
100
AcDbVertex
100
AcDb2dVertex
 42
-1.5196565E-002
 10
2.5455737E+001
 20
8.3229762E+001
 70
0
  0
VERTEX
  5
782
100
AcDbEntity
  8
5
100
AcDbVertex
100
AcDb2dVertex
 42
-1.5579972E-002
 10
2.5436628E+001
 20
8.3379948E+001
 70
1
  0
VERTEX
  5
783
100
AcDbEntity
  8
5
100
AcDbVertex
100
AcDb2dVertex
 42
-1.5413894E-002
 10
2.5426907E+001
 20
8.3527835E+001
 70
0
  0
VERTEX
  5
784
100
AcDbEntity
  8
5
100
AcDbVertex
100
AcDb2dVertex
 42
-1.7532022E-002
 10
2.5426989E+001
 20
8.3672153E+001
 70
1
  0
VERTEX
  5
785
100
AcDbEntity
  8
5
100
AcDbVertex
100
AcDb2dVertex
 42
-2.1498082E-002
 10
2.5438034E+001
 20
8.3814047E+001
 70
0
  0
VERTEX
  5
786
100
AcDbEntity
  8
5
100
AcDbVertex
100
AcDb2dVertex
 42
-1.77971E-002
 10
2.5460884E+001
 20
8.3953095E+001
 70
1
  0
VERTEX
  5
787
100
AcDbEntity
  8
5
100
AcDbVertex
100
AcDb2dVertex
 42
-7.8224104E-003
 10
2.5488538E+001
 20
8.4080994E+001
 70
0
  0
VERTEX
  5
788
100
AcDbEntity
  8
5
100
AcDbVertex
100
AcDb2dVertex
 42
-2.4994184E-002
 10
2.5518842E+001
 20
8.419409E+001
 70
1
  0
VERTEX
  5
789
100
AcDbEntity
  8
5
100
AcDbVertex
100
AcDb2dVertex
 42
-4.520104E-002
 10
2.5575832E+001
 20
8.4322461E+001
 70
0
  0
VERTEX
  5
78a
100
AcDbEntity
  8
5
100
AcDbVertex
100
AcDb2dVertex
 42
-2.4144231E-002
 10
2.568555E+001
 20
8.4497258E+001
 70
1
  0
VERTEX
  5
78b
100
AcDbEntity
  8
5
100
AcDbVertex
100
AcDb2dVertex
 42
-1.3295277E-002
 10
2.5842526E+001
 20
8.4712504E+001
 70
0
  0
SEQEND
  5
78c
100
AcDbEntity
  0
ELLIPSE
  5
78d
100
AcDbEntity
  8
5
100
AcDbEllipse
  6
CONTINUOUS
 10
2.6154783E+001
 20
8.1366284E+001
 11
3.5671708
 21
-3.7835555
 40
7.0710678E-001
 41
0.0
 42
6.2831853
 62
6
  0
POLYLINE
  5
78e
100
AcDbEntity
  8
5
100
AcDb2dPolyline
  6
CONTINUOUS
 62
6
 66
1
 40
0.0
 41
0.0
 70
2
  0
VERTEX
  5
78f
100
AcDbEntity
  8
5
100
AcDbVertex
100
AcDb2dVertex
 42
0.0
 10
6.296844E+001
 20
7.7726675E+001
 70
0
  0
VERTEX
  5
790
100
AcDbEntity
  8
5
100
AcDbVertex
100
AcDb2dVertex
 42
2.2836503E-002
 10
6.2818081E+001
 20
7.7559243E+001
 70
1
  0
VERTEX
  5
791
100
AcDbEntity
  8
5
100
AcDbVertex
100
AcDb2dVertex
 42
2.1683259E-002
 10
6.2680527E+001
 20
7.7375989E+001
 70
0
  0
VERTEX
  5
792
100
AcDbEntity
  8
5
100
AcDbVertex
100
AcDb2dVertex
 42
2.0941655E-002
 10
6.2556092E+001
 20
7.7176164E+001
 70
1
  0
VERTEX
  5
793
100
AcDbEntity
  8
5
100
AcDbVertex
100
AcDb2dVertex
 42
2.1207446E-002
 10
6.2445735E+001
 20
7.6961044E+001
 70
0
  0
VERTEX
  5
794
100
AcDbEntity
  8
5
100
AcDbVertex
100
AcDb2dVertex
 42
2.0876377E-002
 10
6.2351822E+001
 20
7.673084E+001
 70
1
  0
VERTEX
  5
795
100
AcDbEntity
  8
5
100
AcDbVertex
100
AcDb2dVertex
 42
2.0268821E-002
 10
6.227475E+001
 20
7.6487187E+001
 70
0
  0
VERTEX
  5
796
100
AcDbEntity
  8
5
100
AcDbVertex
100
AcDb2dVertex
 42
1.9502787E-002
 10
6.2216131E+001
 20
7.623072E+001
 70
1
  0
VERTEX
  5
797
100
AcDbEntity
  8
5
100
AcDbVertex
100
AcDb2dVertex
 42
1.883732E-002
 10
6.2175931E+001
 20
7.5963403E+001
 70
0
  0
VERTEX
  5
798
100
AcDbEntity
  8
5
100
AcDbVertex
100
AcDb2dVertex
 42
1.802483E-002
 10
6.2155523E+001
 20
7.568641E+001
 70
1
  0
VERTEX
  5
799
100
AcDbEntity
  8
5
100
AcDbVertex
100
AcDb2dVertex
 42
1.7234554E-002
 10
6.2154334E+001
 20
7.5401886E+001
 70
0
  0
VERTEX
  5
79a
100
AcDbEntity
  8
5
100
AcDbVertex
100
AcDb2dVertex
 42
1.6418578E-002
 10
6.2173218E+001
 20
7.5111415E+001
 70
1
  0
VERTEX
  5
79b
100
AcDbEntity
  8
5
100
AcDbVertex
100
AcDb2dVertex
 42
1.5644715E-002
 10
6.2211087E+001
 20
7.4817152E+001
 70
0
  0
VERTEX
  5
79c
100
AcDbEntity
  8
5
100
AcDbVertex
100
AcDb2dVertex
 42
1.4908142E-002
 10
6.2268272E+001
 20
7.4520952E+001
 70
1
  0
VERTEX
  5
79d
100
AcDbEntity
  8
5
100
AcDbVertex
100
AcDb2dVertex
 42
1.4190461E-002
 10
6.2343245E+001
 20
7.4224804E+001
 70
0
  0
VERTEX
  5
79e
100
AcDbEntity
  8
5
100
AcDbVertex
100
AcDb2dVertex
 42
1.3558509E-002
 10
6.2435819E+001
 20
7.3930663E+001
 70
1
  0
VERTEX
  5
79f
100
AcDbEntity
  8
5
100
AcDbVertex
100
AcDb2dVertex
 42
1.2922928E-002
 10
6.254416E+001
 20
7.364019E+001
 70
0
  0
VERTEX
  5
7a0
100
AcDbEntity
  8
5
100
AcDbVertex
100
AcDb2dVertex
 42
1.2400378E-002
 10
6.2667646E+001
 20
7.3355276E+001
 70
1
  0
VERTEX
  5
7a1
100
AcDbEntity
  8
5
100
AcDbVertex
100
AcDb2dVertex
 42
1.184795E-002
 10
6.2804292E+001
 20
7.3077156E+001
 70
0
  0
VERTEX
  5
7a2
100
AcDbEntity
  8
5
100
AcDbVertex
100
AcDb2dVertex
 42
1.1428294E-002
 10
6.2953157E+001
 20
7.2807518E+001
 70
1
  0
VERTEX
  5
7a3
100
AcDbEntity
  8
5
100
AcDbVertex
100
AcDb2dVertex
 42
1.0959295E-002
 10
6.311227E+001
 20
7.2547118E+001
 70
0
  0
VERTEX
  5
7a4
100
AcDbEntity
  8
5
100
AcDbVertex
100
AcDb2dVertex
 42
1.0620136E-002
 10
6.3280505E+001
 20
7.229736E+001
 70
1
  0
VERTEX
  5
7a5
100
AcDbEntity
  8
5
100
AcDbVertex
100
AcDb2dVertex
 42
1.0202527E-002
 10
6.3456006E+001
 20
7.2058545E+001
 70
0
  0
VERTEX
  5
7a6
100
AcDbEntity
  8
5
100
AcDbVertex
100
AcDb2dVertex
 42
9.9590731E-003
 10
6.3637568E+001
 20
7.1831759E+001
 70
1
  0
VERTEX
  5
7a7
100
AcDbEntity
  8
5
100
AcDbVertex
100
AcDb2dVertex
 42
9.6600918E-003
 10
6.3823686E+001
 20
7.1616847E+001
 70
0
  0
VERTEX
  5
7a8
100
AcDbEntity
  8
5
100
AcDbVertex
100
AcDb2dVertex
 42
9.390413E-003
 10
6.401322E+001
 20
7.1414563E+001
 70
1
  0
VERTEX
  5
7a9
100
AcDbEntity
  8
5
100
AcDbVertex
100
AcDb2dVertex
 42
8.924649E-003
 10
6.4204519E+001
 20
7.1224606E+001
 70
0
  0
VERTEX
  5
7aa
100
AcDbEntity
  8
5
100
AcDbVertex
100
AcDb2dVertex
 42
9.1246951E-003
 10
6.4397189E+001
 20
7.1046849E+001
 70
1
  0
VERTEX
  5
7ab
100
AcDbEntity
  8
5
100
AcDbVertex
100
AcDb2dVertex
 42
9.2062939E-003
 10
6.4595841E+001
 20
7.0876529E+001
 70
0
  0
VERTEX
  5
7ac
100
AcDbEntity
  8
5
100
AcDbVertex
100
AcDb2dVertex
 42
9.123548E-003
 10
6.4805695E+001
 20
7.0709774E+001
 70
1
  0
VERTEX
  5
7ad
100
AcDbEntity
  8
5
100
AcDbVertex
100
AcDb2dVertex
 42
9.727842E-003
 10
6.5026475E+001
 20
7.054732E+001
 70
0
  0
VERTEX
  5
7ae
100
AcDbEntity
  8
5
100
AcDbVertex
100
AcDb2dVertex
 42
1.015936E-002
 10
6.5257822E+001
 20
7.0391247E+001
 70
1
  0
VERTEX
  5
7af
100
AcDbEntity
  8
5
100
AcDbVertex
100
AcDb2dVertex
 42
1.0594661E-002
 10
6.5498837E+001
 20
7.0242605E+001
 70
0
  0
VERTEX
  5
7b0
100
AcDbEntity
  8
5
100
AcDbVertex
100
AcDb2dVertex
 42
1.1003572E-002
 10
6.5749403E+001
 20
7.0102987E+001
 70
1
  0
VERTEX
  5
7b1
100
AcDbEntity
  8
5
100
AcDbVertex
100
AcDb2dVertex
 42
1.1630402E-002
 10
6.6008299E+001
 20
6.9973481E+001
 70
0
  0
VERTEX
  5
7b2
100
AcDbEntity
  8
5
100
AcDbVertex
100
AcDb2dVertex
 42
1.2139121E-002
 10
6.6274845E+001
 20
6.9856039E+001
 70
1
  0
VERTEX
  5
7b3
100
AcDbEntity
  8
5
100
AcDbVertex
100
AcDb2dVertex
 42
1.2739645E-002
 10
6.6547472E+001
 20
6.9751528E+001
 70
0
  0
VERTEX
  5
7b4
100
AcDbEntity
  8
5
100
AcDbVertex
100
AcDb2dVertex
 42
1.3487494E-002
 10
6.6825061E+001
 20
6.9661883E+001
 70
1
  0
VERTEX
  5
7b5
100
AcDbEntity
  8
5
100
AcDbVertex
100
AcDb2dVertex
 42
1.4563724E-002
 10
6.7106167E+001
 20
6.9587951E+001
 70
0
  0
VERTEX
  5
7b6
100
AcDbEntity
  8
5
100
AcDbVertex
100
AcDb2dVertex
 42
1.4939302E-002
 10
6.7389353E+001
 20
6.9531671E+001
 70
1
  0
VERTEX
  5
7b7
100
AcDbEntity
  8
5
100
AcDbVertex
100
AcDb2dVertex
 42
1.4800729E-002
 10
6.767172E+001
 20
6.949253E+001
 70
0
  0
VERTEX
  5
7b8
100
AcDbEntity
  8
5
100
AcDbVertex
100
AcDb2dVertex
 42
1.7092033E-002
 10
6.795102E+001
 20
6.9471876E+001
 70
1
  0
VERTEX
  5
7b9
100
AcDbEntity
  8
5
100
AcDbVertex
100
AcDb2dVertex
 42
2.1447144E-002
 10
6.8229704E+001
 20
6.9472535E+001
 70
0
  0
VERTEX
  5
7ba
100
AcDbEntity
  8
5
100
AcDbVertex
100
AcDb2dVertex
 42
1.7502961E-002
 10
6.8507135E+001
 20
6.9496773E+001
 70
1
  0
VERTEX
  5
7bb
100
AcDbEntity
  8
5
100
AcDbVertex
100
AcDb2dVertex
 42
6.9855119E-003
 10
6.8764997E+001
 20
6.9531789E+001
 70
0
  0
VERTEX
  5
7bc
100
AcDbEntity
  8
5
100
AcDbVertex
100
AcDb2dVertex
 42
2.551454E-002
 10
6.8995375E+001
 20
6.9574136E+001
 70
1
  0
VERTEX
  5
7bd
100
AcDbEntity
  8
5
100
AcDbVertex
100
AcDb2dVertex
 42
4.7205512E-002
 10
6.9263068E+001
 20
6.9670079E+001
 70
0
  0
VERTEX
  5
7be
100
AcDbEntity
  8
5
100
AcDbVertex
100
AcDb2dVertex
 42
2.4788281E-002
 10
6.9635578E+001
 20
6.9869811E+001
 70
1
  0
VERTEX
  5
7bf
100
AcDbEntity
  8
5
100
AcDbVertex
100
AcDb2dVertex
 42
1.3347061E-002
 10
7.0099812E+001
 20
7.0162713E+001
 70
0
  0
SEQEND
  5
7c0
100
AcDbEntity
  0
POLYLINE
  5
7c1
100
AcDbEntity
  8
5
100
AcDb2dPolyline
  6
CONTINUOUS
 62
6
 66
1
 40
0.0
 41
0.0
 70
2
  0
VERTEX
  5
7c2
100
AcDbEntity
  8
5
100
AcDbVertex
100
AcDb2dVertex
 42
0.0
 10
7.0195635E+001
 20
7.4483122E+001
 70
0
  0
VERTEX
  5
7c3
100
AcDbEntity
  8
5
100
AcDbVertex
100
AcDb2dVertex
 42
2.165713E-003
 10
7.0195557E+001
 20
7.4501107E+001
 70
1
  0
VERTEX
  5
7c4
100
AcDbEntity
  8
5
100
AcDbVertex
100
AcDb2dVertex
 42
2.1203644E-003
 10
7.0195325E+001
 20
7.4519226E+001
 70
0
  0
VERTEX
  5
7c5
100
AcDbEntity
  8
5
100
AcDbVertex
100
AcDb2dVertex
 42
2.1007069E-003
 10
7.0194934E+001
 20
7.4537483E+001
 70
1
  0
VERTEX
  5
7c6
100
AcDbEntity
  8
5
100
AcDbVertex
100
AcDb2dVertex
 42
2.1120326E-003
 10
7.0194387E+001
 20
7.4555872E+001
 70
0
  0
VERTEX
  5
7c7
100
AcDbEntity
  8
5
100
AcDbVertex
100
AcDb2dVertex
 42
2.110762E-003
 10
7.0193675E+001
 20
7.4574399E+001
 70
1
  0
VERTEX
  5
7c8
100
AcDbEntity
  8
5
100
AcDbVertex
100
AcDb2dVertex
 42
2.1076857E-003
 10
7.0192803E+001
 20
7.4593056E+001
 70
0
  0
VERTEX
  5
7c9
100
AcDbEntity
  8
5
100
AcDbVertex
100
AcDb2dVertex
 42
2.1016078E-003
 10
7.0191762E+001
 20
7.4611849E+001
 70
1
  0
VERTEX
  5
7ca
100
AcDbEntity
  8
5
100
AcDbVertex
100
AcDb2dVertex
 42
2.1018057E-003
 10
7.0190556E+001
 20
7.4630772E+001
 70
0
  0
VERTEX
  5
7cb
100
AcDbEntity
  8
5
100
AcDbVertex
100
AcDb2dVertex
 42
2.0969529E-003
 10
7.0189177E+001
 20
7.4649829E+001
 70
1
  0
VERTEX
  5
7cc
100
AcDbEntity
  8
5
100
AcDbVertex
100
AcDb2dVertex
 42
2.0965347E-003
 10
7.018763E+001
 20
7.4669013E+001
 70
0
  0
VERTEX
  5
7cd
100
AcDbEntity
  8
5
100
AcDbVertex
100
AcDb2dVertex
 42
2.0906886E-003
 10
7.0185905E+001
 20
7.468833E+001
 70
1
  0
VERTEX
  5
7ce
100
AcDbEntity
  8
5
100
AcDbVertex
100
AcDb2dVertex
 42
2.0888177E-003
 10
7.0184007E+001
 20
7.4707772E+001
 70
0
  0
VERTEX
  5
7cf
100
AcDbEntity
  8
5
100
AcDbVertex
100
AcDb2dVertex
 42
2.0850977E-003
 10
7.0181927E+001
 20
7.4727344E+001
 70
1
  0
VERTEX
  5
7d0
100
AcDbEntity
  8
5
100
AcDbVertex
100
AcDb2dVertex
 42
2.0882843E-003
 10
7.017967E+001
 20
7.4747042E+001
 70
0
  0
VERTEX
  5
7d1
100
AcDbEntity
  8
5
100
AcDbVertex
100
AcDb2dVertex
 42
2.0770992E-003
 10
7.0177226E+001
 20
7.4766869E+001
 70
1
  0
VERTEX
  5
7d2
100
AcDbEntity
  8
5
100
AcDbVertex
100
AcDb2dVertex
 42
2.0624362E-003
 10
7.0174602E+001
 20
7.4786812E+001
 70
0
  0
VERTEX
  5
7d3
100
AcDbEntity
  8
5
100
AcDbVertex
100
AcDb2dVertex
 42
2.0763847E-003
 10
7.0171791E+001
 20
7.4806872E+001
 70
1
  0
VERTEX
  5
7d4
100
AcDbEntity
  8
5
100
AcDbVertex
100
AcDb2dVertex
 42
2.1201003E-003
 10
7.0168788E+001
 20
7.4827073E+001
 70
0
  0
VERTEX
  5
7d5
100
AcDbEntity
  8
5
100
AcDbVertex
100
AcDb2dVertex
 42
2.0499527E-003
 10
7.0165584E+001
 20
7.4847428E+001
 70
1
  0
VERTEX
  5
7d6
100
AcDbEntity
  8
5
100
AcDbVertex
100
AcDb2dVertex
 42
1.9056268E-003
 10
7.0162212E+001
 20
7.4867813E+001
 70
0
  0
VERTEX
  5
7d7
100
AcDbEntity
  8
5
100
AcDbVertex
100
AcDb2dVertex
 42
2.1107791E-003
 10
7.0158673E+001
 20
7.488819E+001
 70
1
  0
VERTEX
  5
7d8
100
AcDbEntity
  8
5
100
AcDbVertex
100
AcDb2dVertex
 42
2.5297573E-003
 10
7.0154857E+001
 20
7.4909023E+001
 70
0
  0
VERTEX
  5
7d9
100
AcDbEntity
  8
5
100
AcDbVertex
100
AcDb2dVertex
 42
1.8910769E-003
 10
7.0150713E+001
 20
7.4930477E+001
 70
1
  0
VERTEX
  5
7da
100
AcDbEntity
  8
5
100
AcDbVertex
100
AcDb2dVertex
 42
6.026801E-004
 10
7.0146708E+001
 20
7.4950687E+001
 70
0
  0
VERTEX
  5
7db
100
AcDbEntity
  8
5
100
AcDbVertex
100
AcDb2dVertex
 42
2.7047167E-003
 10
7.014299E+001
 20
7.4969015E+001
 70
1
  0
VERTEX
  5
7dc
100
AcDbEntity
  8
5
100
AcDbVertex
100
AcDb2dVertex
 42
4.6368803E-003
 10
7.0137751E+001
 20
7.4992793E+001
 70
0
  0
VERTEX
  5
7dd
100
AcDbEntity
  8
5
100
AcDbVertex
100
AcDb2dVertex
 42
2.221269E-003
 10
7.0129076E+001
 20
7.5029723E+001
 70
1
  0
VERTEX
  5
7de
100
AcDbEntity
  8
5
100
AcDbVertex
100
AcDb2dVertex
 42
1.1588654E-003
 10
7.0117354E+001
 20
7.5078271E+001
 70
0
  0
SEQEND
  5
7df
100
AcDbEntity
  0
POLYLINE
  5
7e0
100
AcDbEntity
  8
5
100
AcDb2dPolyline
  6
CONTINUOUS
 62
6
 66
1
 40
0.0
 41
0.0
 70
2
  0
VERTEX
  5
7e1
100
AcDbEntity
  8
5
100
AcDbVertex
100
AcDb2dVertex
 42
0.0
 10
6.7835871E+001
 20
7.7467683E+001
 70
0
  0
VERTEX
  5
7e2
100
AcDbEntity
  8
5
100
AcDbVertex
100
AcDb2dVertex
 42
1.3537288E-002
 10
6.7681902E+001
 20
7.75088E+001
 70
1
  0
VERTEX
  5
7e3
100
AcDbEntity
  8
5
100
AcDbVertex
100
AcDb2dVertex
 42
1.5353233E-002
 10
6.7532885E+001
 20
7.7539645E+001
 70
0
  0
VERTEX
  5
7e4
100
AcDbEntity
  8
5
100
AcDbVertex
100
AcDb2dVertex
 42
1.6347966E-002
 10
6.7388949E+001
 20
7.7559701E+001
 70
1
  0
VERTEX
  5
7e5
100
AcDbEntity
  8
5
100
AcDbVertex
100
AcDb2dVertex
 42
1.6241565E-002
 10
6.725041E+001
 20
7.7570011E+001
 70
0
  0
VERTEX
  5
7e6
100
AcDbEntity
  8
5
100
AcDbVertex
100
AcDb2dVertex
 42
1.6361745E-002
 10
6.7118207E+001
 20
7.7570988E+001
 70
1
  0
VERTEX
  5
7e7
100
AcDbEntity
  8
5
100
AcDbVertex
100
AcDb2dVertex
 42
1.62962E-002
 10
6.6992951E+001
 20
7.7563861E+001
 70
0
  0
VERTEX
  5
7e8
100
AcDbEntity
  8
5
100
AcDbVertex
100
AcDb2dVertex
 42
1.7103963E-002
 10
6.6875293E+001
 20
7.7549064E+001
 70
1
  0
VERTEX
  5
7e9
100
AcDbEntity
  8
5
100
AcDbVertex
100
AcDb2dVertex
 42
1.7222185E-002
 10
6.6762741E+001
 20
7.7527048E+001
 70
0
  0
VERTEX
  5
7ea
100
AcDbEntity
  8
5
100
AcDbVertex
100
AcDb2dVertex
 42
1.7684609E-002
 10
6.6652981E+001
 20
7.7497375E+001
 70
1
  0
VERTEX
  5
7eb
100
AcDbEntity
  8
5
100
AcDbVertex
100
AcDb2dVertex
 42
1.9103392E-002
 10
6.654495E+001
 20
7.7459559E+001
 70
0
  0
VERTEX
  5
7ec
100
AcDbEntity
  8
5
100
AcDbVertex
100
AcDb2dVertex
 42
1.9905459E-002
 10
6.6438363E+001
 20
7.7412382E+001
 70
1
  0
VERTEX
  5
7ed
100
AcDbEntity
  8
5
100
AcDbVertex
100
AcDb2dVertex
 42
2.121296E-002
 10
6.6334152E+001
 20
7.7355774E+001
 70
0
  0
VERTEX
  5
7ee
100
AcDbEntity
  8
5
100
AcDbVertex
100
AcDb2dVertex
 42
2.2148751E-002
 10
6.6233696E+001
 20
7.7288989E+001
 70
1
  0
VERTEX
  5
7ef
100
AcDbEntity
  8
5
100
AcDbVertex
100
AcDb2dVertex
 42
2.3040795E-002
 10
6.6137842E+001
 20
7.7212149E+001
 70
0
  0
VERTEX
  5
7f0
100
AcDbEntity
  8
5
100
AcDbVertex
100
AcDb2dVertex
 42
2.3475726E-002
 10
6.6047787E+001
 20
7.7124603E+001
 70
1
  0
VERTEX
  5
7f1
100
AcDbEntity
  8
5
100
AcDbVertex
100
AcDb2dVertex
 42
2.39854E-002
 10
6.5964366E+001
 20
7.702677E+001
 70
0
  0
VERTEX
  5
7f2
100
AcDbEntity
  8
5
100
AcDbVertex
100
AcDb2dVertex
 42
2.3957802E-002
 10
6.588897E+001
 20
7.6918319E+001
 70
1
  0
VERTEX
  5
7f3
100
AcDbEntity
  8
5
100
AcDbVertex
100
AcDb2dVertex
 42
2.3882191E-002
 10
6.5822272E+001
 20
7.6799999E+001
 70
0
  0
VERTEX
  5
7f4
100
AcDbEntity
  8
5
100
AcDbVertex
100
AcDb2dVertex
 42
2.3340312E-002
 10
6.576562E+001
 20
7.667185E+001
 70
1
  0
VERTEX
  5
7f5
100
AcDbEntity
  8
5
100
AcDbVertex
100
AcDb2dVertex
 42
2.2787303E-002
 10
6.5719421E+001
 20
7.6534952E+001
 70
0
  0
VERTEX
  5
7f6
100
AcDbEntity
  8
5
100
AcDbVertex
100
AcDb2dVertex
 42
2.1901628E-002
 10
6.5684871E+001
 20
7.6389765E+001
 70
1
  0
VERTEX
  5
7f7
100
AcDbEntity
  8
5
100
AcDbVertex
100
AcDb2dVertex
 42
2.1038794E-002
 10
6.5662011E+001
 20
7.6237636E+001
 70
0
  0
VERTEX
  5
7f8
100
AcDbEntity
  8
5
100
AcDbVertex
100
AcDb2dVertex
 42
2.0010079E-002
 10
6.5651742E+001
 20
7.6079424E+001
 70
1
  0
VERTEX
  5
7f9
100
AcDbEntity
  8
5
100
AcDbVertex
100
AcDb2dVertex
 42
1.9032516E-002
 10
6.5653689E+001
 20
7.591663E+001
 70
0
  0
VERTEX
  5
7fa
100
AcDbEntity
  8
5
100
AcDbVertex
100
AcDb2dVertex
 42
1.802849E-002
 10
6.5668367E+001
 20
7.5750426E+001
 70
1
  0
VERTEX
  5
7fb
100
AcDbEntity
  8
5
100
AcDbVertex
100
AcDb2dVertex
 42
1.7071656E-002
 10
6.5694996E+001
 20
7.5582315E+001
 70
0
  0
VERTEX
  5
7fc
100
AcDbEntity
  8
5
100
AcDbVertex
100
AcDb2dVertex
 42
1.6186126E-002
 10
6.5733669E+001
 20
7.5413649E+001
 70
1
  0
VERTEX
  5
7fd
100
AcDbEntity
  8
5
100
AcDbVertex
100
AcDb2dVertex
 42
1.532203E-002
 10
6.5783278E+001
 20
7.5245778E+001
 70
0
  0
VERTEX
  5
7fe
100
AcDbEntity
  8
5
100
AcDbVertex
100
AcDb2dVertex
 42
1.458771E-002
 10
6.5843528E+001
 20
7.5080081E+001
 70
1
  0
VERTEX
  5
7ff
100
AcDbEntity
  8
5
100
AcDbVertex
100
AcDb2dVertex
 42
1.3838555E-002
 10
6.5913103E+001
 20
7.4917631E+001
 70
0
  0
VERTEX
  5
800
100
AcDbEntity
  8
5
100
AcDbVertex
100
AcDb2dVertex
 42
1.3255359E-002
 10
6.5991404E+001
 20
7.4759695E+001
 70
1
  0
VERTEX
  5
801
100
AcDbEntity
  8
5
100
AcDbVertex
100
AcDb2dVertex
 42
1.2625928E-002
 10
6.6077054E+001
 20
7.4606992E+001
 70
0
  0
VERTEX
  5
802
100
AcDbEntity
  8
5
100
AcDbVertex
100
AcDb2dVertex
 42
1.2166018E-002
 10
6.6169263E+001
 20
7.4460583E+001
 70
1
  0
VERTEX
  5
803
100
AcDbEntity
  8
5
100
AcDbVertex
100
AcDb2dVertex
 42
1.1618531E-002
 10
6.6266705E+001
 20
7.4320822E+001
 70
0
  0
VERTEX
  5
804
100
AcDbEntity
  8
5
100
AcDbVertex
100
AcDb2dVertex
 42
1.1291766E-002
 10
6.6368507E+001
 20
7.4188515E+001
 70
1
  0
VERTEX
  5
805
100
AcDbEntity
  8
5
100
AcDbVertex
100
AcDb2dVertex
 42
1.0899575E-002
 10
6.647356E+001
 20
7.4063667E+001
 70
0
  0
VERTEX
  5
806
100
AcDbEntity
  8
5
100
AcDbVertex
100
AcDb2dVertex
 42
1.0561476E-002
 10
6.6581026E+001
 20
7.3946822E+001
 70
1
  0
VERTEX
  5
807
100
AcDbEntity
  8
5
100
AcDbVertex
100
AcDb2dVertex
 42
9.9774031E-003
 10
6.6689781E+001
 20
7.3837769E+001
 70
0
  0
VERTEX
  5
808
100
AcDbEntity
  8
5
100
AcDbVertex
100
AcDb2dVertex
 42
1.0224E-002
 10
6.6799531E+001
 20
7.3736403E+001
 70
1
  0
VERTEX
  5
809
100
AcDbEntity
  8
5
100
AcDbVertex
100
AcDb2dVertex
 42
1.0341127E-002
 10
6.6913161E+001
 20
7.3639749E+001
 70
0
  0
VERTEX
  5
80a
100
AcDbEntity
  8
5
100
AcDbVertex
100
AcDb2dVertex
 42
1.0244771E-002
 10
6.7033952E+001
 20
7.3545427E+001
 70
1
  0
VERTEX
  5
80b
100
AcDbEntity
  8
5
100
AcDbVertex
100
AcDb2dVertex
 42
1.101007E-002
 10
6.7161651E+001
 20
7.3454036E+001
 70
0
  0
VERTEX
  5
80c
100
AcDbEntity
  8
5
100
AcDbVertex
100
AcDb2dVertex
 42
1.1571625E-002
 10
6.7295945E+001
 20
7.3367056E+001
 70
1
  0
VERTEX
  5
80d
100
AcDbEntity
  8
5
100
AcDbVertex
100
AcDb2dVertex
 42
1.2147622E-002
 10
6.7436178E+001
 20
7.3285256E+001
 70
0
  0
VERTEX
  5
80e
100
AcDbEntity
  8
5
100
AcDbVertex
100
AcDb2dVertex
 42
1.2681474E-002
 10
6.758216E+001
 20
7.3209783E+001
 70
1
  0
VERTEX
  5
80f
100
AcDbEntity
  8
5
100
AcDbVertex
100
AcDb2dVertex
 42
1.3483856E-002
 10
6.7732964E+001
 20
7.3141407E+001
 70
0
  0
VERTEX
  5
810
100
AcDbEntity
  8
5
100
AcDbVertex
100
AcDb2dVertex
 42
1.4212638E-002
 10
6.7887958E+001
 20
7.3081497E+001
 70
1
  0
VERTEX
  5
811
100
AcDbEntity
  8
5
100
AcDbVertex
100
AcDb2dVertex
 42
1.5123965E-002
 10
6.8046015E+001
 20
7.3030668E+001
 70
0
  0
VERTEX
  5
812
100
AcDbEntity
  8
5
100
AcDbVertex
100
AcDb2dVertex
 42
1.6005296E-002
 10
6.8206187E+001
 20
7.2990239E+001
 70
1
  0
VERTEX
  5
813
100
AcDbEntity
  8
5
100
AcDbVertex
100
AcDb2dVertex
 42
1.7068998E-002
 10
6.8367204E+001
 20
7.2960571E+001
 70
0
  0
VERTEX
  5
814
100
AcDbEntity
  8
5
100
AcDbVertex
100
AcDb2dVertex
 42
1.8113721E-002
 10
6.8527815E+001
 20
7.2942838E+001
 70
1
  0
VERTEX
  5
815
100
AcDbEntity
  8
5
100
AcDbVertex
100
AcDb2dVertex
 42
1.9266949E-002
 10
6.8686725E+001
 20
7.2937041E+001
 70
0
  0
VERTEX
  5
816
100
AcDbEntity
  8
5
100
AcDbVertex
100
AcDb2dVertex
 42
2.042251E-002
 10
6.8842486E+001
 20
7.2944064E+001
 70
1
  0
VERTEX
  5
817
100
AcDbEntity
  8
5
100
AcDbVertex
100
AcDb2dVertex
 42
2.1596114E-002
 10
6.8993922E+001
 20
7.2963508E+001
 70
0
  0
VERTEX
  5
818
100
AcDbEntity
  8
5
100
AcDbVertex
100
AcDb2dVertex
 42
2.267381E-002
 10
6.9139527E+001
 20
7.2995871E+001
 70
1
  0
VERTEX
  5
819
100
AcDbEntity
  8
5
100
AcDbVertex
100
AcDb2dVertex
 42
2.352512E-002
 10
6.927838E+001
 20
7.3040289E+001
 70
0
  0
VERTEX
  5
81a
100
AcDbEntity
  8
5
100
AcDbVertex
100
AcDb2dVertex
 42
2.4486801E-002
 10
6.9409071E+001
 20
7.3096806E+001
 70
1
  0
VERTEX
  5
81b
100
AcDbEntity
  8
5
100
AcDbVertex
100
AcDb2dVertex
 42
2.5308885E-002
 10
6.9531059E+001
 20
7.3164434E+001
 70
0
  0
VERTEX
  5
81c
100
AcDbEntity
  8
5
100
AcDbVertex
100
AcDb2dVertex
 42
2.518327E-002
 10
6.9643174E+001
 20
7.3242881E+001
 70
1
  0
VERTEX
  5
81d
100
AcDbEntity
  8
5
100
AcDbVertex
100
AcDb2dVertex
 42
2.3898972E-002
 10
6.9745235E+001
 20
7.3330088E+001
 70
0
  0
VERTEX
  5
81e
100
AcDbEntity
  8
5
100
AcDbVertex
100
AcDb2dVertex
 42
2.5252248E-002
 10
6.9836374E+001
 20
7.3425145E+001
 70
1
  0
VERTEX
  5
81f
100
AcDbEntity
  8
5
100
AcDbVertex
100
AcDb2dVertex
 42
2.7934408E-002
 10
6.9917032E+001
 20
7.3529275E+001
 70
0
  0
VERTEX
  5
820
100
AcDbEntity
  8
5
100
AcDbVertex
100
AcDb2dVertex
 42
2.1967821E-002
 10
6.9986764E+001
 20
7.3642516E+001
 70
1
  0
VERTEX
  5
821
100
AcDbEntity
  8
5
100
AcDbVertex
100
AcDb2dVertex
 42
1.0550264E-002
 10
7.0045482E+001
 20
7.3752918E+001
 70
0
  0
VERTEX
  5
822
100
AcDbEntity
  8
5
100
AcDbVertex
100
AcDb2dVertex
 42
2.6251672E-002
 10
7.0092766E+001
 20
7.3855873E+001
 70
1
  0
VERTEX
  5
823
100
AcDbEntity
  8
5
100
AcDbVertex
100
AcDb2dVertex
 42
4.0194262E-002
 10
7.0132178E+001
 20
7.399185E+001
 70
0
  0
VERTEX
  5
824
100
AcDbEntity
  8
5
100
AcDbVertex
100
AcDb2dVertex
 42
1.9878194E-002
 10
7.0166543E+001
 20
7.4203817E+001
 70
1
  0
VERTEX
  5
825
100
AcDbEntity
  8
5
100
AcDbVertex
100
AcDb2dVertex
 42
1.0866147E-002
 10
7.0195635E+001
 20
7.4483122E+001
 70
0
  0
SEQEND
  5
826
100
AcDbEntity
  0
POLYLINE
  5
827
100
AcDbEntity
  8
5
100
AcDb2dPolyline
  6
CONTINUOUS
 62
1
 66
1
 40
0.0
 41
0.0
 70
2
  0
VERTEX
  5
828
100
AcDbEntity
  8
5
100
AcDbVertex
100
AcDb2dVertex
 42
0.0
 10
6.9779008E+001
 20
7.3363381E+001
 70
0
  0
VERTEX
  5
829
100
AcDbEntity
  8
5
100
AcDbVertex
100
AcDb2dVertex
 42
-2.3310731E-002
 10
6.96838E+001
 20
7.3287917E+001
 70
1
  0
VERTEX
  5
82a
100
AcDbEntity
  8
5
100
AcDbVertex
100
AcDb2dVertex
 42
-2.27177E-002
 10
6.9581055E+001
 20
7.3220691E+001
 70
0
  0
VERTEX
  5
82b
100
AcDbEntity
  8
5
100
AcDbVertex
100
AcDb2dVertex
 42
-2.1996996E-002
 10
6.9470369E+001
 20
7.3161958E+001
 70
1
  0
VERTEX
  5
82c
100
AcDbEntity
  8
5
100
AcDbVertex
100
AcDb2dVertex
 42
-2.1834693E-002
 10
6.9352678E+001
 20
7.3111977E+001
 70
0
  0
VERTEX
  5
82d
100
AcDbEntity
  8
5
100
AcDbVertex
100
AcDb2dVertex
 42
-2.1282375E-002
 10
6.9228494E+001
 20
7.3071803E+001
 70
1
  0
VERTEX
  5
82e
100
AcDbEntity
  8
5
100
AcDbVertex
100
AcDb2dVertex
 42
-2.0449867E-002
 10
6.909884E+001
 20
7.3041344E+001
 70
0
  0
VERTEX
  5
82f
100
AcDbEntity
  8
5
100
AcDbVertex
100
AcDb2dVertex
 42
-1.9536206E-002
 10
6.8964308E+001
 20
7.3021199E+001
 70
1
  0
VERTEX
  5
830
100
AcDbEntity
  8
5
100
AcDbVertex
100
AcDb2dVertex
 42
-1.8651786E-002
 10
6.8825998E+001
 20
7.3011014E+001
 70
0
  0
VERTEX
  5
831
100
AcDbEntity
  8
5
100
AcDbVertex
100
AcDb2dVertex
 42
-1.7733777E-002
 10
6.8684726E+001
 20
7.3011188E+001
 70
1
  0
VERTEX
  5
832
100
AcDbEntity
  8
5
100
AcDbVertex
100
AcDb2dVertex
 42
-1.6787422E-002
 10
6.8541562E+001
 20
7.3021102E+001
 70
0
  0
VERTEX
  5
833
100
AcDbEntity
  8
5
100
AcDbVertex
100
AcDb2dVertex
 42
-1.5912217E-002
 10
6.8397416E+001
 20
7.3040867E+001
 70
1
  0
VERTEX
  5
834
100
AcDbEntity
  8
5
100
AcDbVertex
100
AcDb2dVertex
 42
-1.5030884E-002
 10
6.8253247E+001
 20
7.3069661E+001
 70
0
  0
VERTEX
  5
835
100
AcDbEntity
  8
5
100
AcDbVertex
100
AcDb2dVertex
 42
-1.4264678E-002
 10
6.8109986E+001
 20
7.3107352E+001
 70
1
  0
VERTEX
  5
836
100
AcDbEntity
  8
5
100
AcDbVertex
100
AcDb2dVertex
 42
-1.347291E-002
 10
6.7968414E+001
 20
7.3152987E+001
 70
0
  0
VERTEX
  5
837
100
AcDbEntity
  8
5
100
AcDbVertex
100
AcDb2dVertex
 42
-1.283055E-002
 10
6.7829408E+001
 20
7.3206233E+001
 70
1
  0
VERTEX
  5
838
100
AcDbEntity
  8
5
100
AcDbVertex
100
AcDb2dVertex
 42
-1.2151106E-002
 10
6.7693527E+001
 20
7.3266094E+001
 70
0
  0
VERTEX
  5
839
100
AcDbEntity
  8
5
100
AcDbVertex
100
AcDb2dVertex
 42
-1.1613178E-002
 10
6.7561535E+001
 20
7.3332102E+001
 70
1
  0
VERTEX
  5
83a
100
AcDbEntity
  8
5
100
AcDbVertex
100
AcDb2dVertex
 42
-1.1007013E-002
 10
6.7433784E+001
 20
7.3403265E+001
 70
0
  0
VERTEX
  5
83b
100
AcDbEntity
  8
5
100
AcDbVertex
100
AcDb2dVertex
 42
-1.0605482E-002
 10
6.7310906E+001
 20
7.3479033E+001
 70
1
  0
VERTEX
  5
83c
100
AcDbEntity
  8
5
100
AcDbVertex
100
AcDb2dVertex
 42
-1.0164079E-002
 10
6.7192958E+001
 20
7.3558592E+001
 70
0
  0
VERTEX
  5
83d
100
AcDbEntity
  8
5
100
AcDbVertex
100
AcDb2dVertex
 42
-9.730081E-003
 10
6.7080399E+001
 20
7.3641407E+001
 70
1
  0
VERTEX
  5
83e
100
AcDbEntity
  8
5
100
AcDbVertex
100
AcDb2dVertex
 42
-9.1268663E-003
 10
6.6973411E+001
 20
7.3726415E+001
 70
0
  0
VERTEX
  5
83f
100
AcDbEntity
  8
5
100
AcDbVertex
100
AcDb2dVertex
 42
-9.2101921E-003
 10
6.6872137E+001
 20
7.3813242E+001
 70
1
  0
VERTEX
  5
840
100
AcDbEntity
  8
5
100
AcDbVertex
100
AcDb2dVertex
 42
-9.1279447E-003
 10
6.6773914E+001
 20
7.390386E+001
 70
0
  0
VERTEX
  5
841
100
AcDbEntity
  8
5
100
AcDbVertex
100
AcDb2dVertex
 42
-8.9276587E-003
 10
6.6676391E+001
 20
7.40007E+001
 70
1
  0
VERTEX
  5
842
100
AcDbEntity
  8
5
100
AcDbVertex
100
AcDb2dVertex
 42
-9.3939358E-003
 10
6.6579769E+001
 20
7.4103826E+001
 70
0
  0
VERTEX
  5
843
100
AcDbEntity
  8
5
100
AcDbVertex
100
AcDb2dVertex
 42
-9.663661E-003
 10
6.6484889E+001
 20
7.4213392E+001
 70
1
  0
VERTEX
  5
844
100
AcDbEntity
  8
5
100
AcDbVertex
100
AcDb2dVertex
 42
-9.962525E-003
 10
6.6392332E+001
 20
7.4329013E+001
 70
0
  0
VERTEX
  5
845
100
AcDbEntity
  8
5
100
AcDbVertex
100
AcDb2dVertex
 42
-1.0206688E-002
 10
6.6302868E+001
 20
7.4450768E+001
 70
1
  0
VERTEX
  5
846
100
AcDbEntity
  8
5
100
AcDbVertex
100
AcDb2dVertex
 42
-1.0625985E-002
 10
6.6217111E+001
 20
7.4578103E+001
 70
0
  0
VERTEX
  5
847
100
AcDbEntity
  8
5
100
AcDbVertex
100
AcDb2dVertex
 42
-1.0963642E-002
 10
6.6136007E+001
 20
7.4710865E+001
 70
1
  0
VERTEX
  5
848
100
AcDbEntity
  8
5
100
AcDbVertex
100
AcDb2dVertex
 42
-1.1428022E-002
 10
6.6060131E+001
 20
7.4848335E+001
 70
0
  0
VERTEX
  5
849
100
AcDbEntity
  8
5
100
AcDbVertex
100
AcDb2dVertex
 42
-1.1854866E-002
 10
6.5990486E+001
 20
7.4990128E+001
 70
1
  0
VERTEX
  5
84a
100
AcDbEntity
  8
5
100
AcDbVertex
100
AcDb2dVertex
 42
-1.2426708E-002
 10
6.5927559E+001
 20
7.5135389E+001
 70
0
  0
VERTEX
  5
84b
100
AcDbEntity
  8
5
100
AcDbVertex
100
AcDb2dVertex
 42
-1.2924425E-002
 10
6.5872366E+001
 20
7.528349E+001
 70
1
  0
VERTEX
  5
84c
100
AcDbEntity
  8
5
100
AcDbVertex
100
AcDb2dVertex
 42
-1.3490027E-002
 10
6.5825196E+001
 20
7.5433435E+001
 70
0
  0
VERTEX
  5
84d
100
AcDbEntity
  8
5
100
AcDbVertex
100
AcDb2dVertex
 42
-1.4217766E-002
 10
6.5786977E+001
 20
7.5584366E+001
 70
1
  0
VERTEX
  5
84e
100
AcDbEntity
  8
5
100
AcDbVertex
100
AcDb2dVertex
 42
-1.5196565E-002
 10
6.5757906E+001
 20
7.573541E+001
 70
0
  0
VERTEX
  5
84f
100
AcDbEntity
  8
5
100
AcDbVertex
100
AcDb2dVertex
 42
-1.5579972E-002
 10
6.5738797E+001
 20
7.5885597E+001
 70
1
  0
VERTEX
  5
850
100
AcDbEntity
  8
5
100
AcDbVertex
100
AcDb2dVertex
 42
-1.5413894E-002
 10
6.5729075E+001
 20
7.6033484E+001
 70
0
  0
VERTEX
  5
851
100
AcDbEntity
  8
5
100
AcDbVertex
100
AcDb2dVertex
 42
-1.7532022E-002
 10
6.5729158E+001
 20
7.6177802E+001
 70
1
  0
VERTEX
  5
852
100
AcDbEntity
  8
5
100
AcDbVertex
100
AcDb2dVertex
 42
-2.1498082E-002
 10
6.5740203E+001
 20
7.6319695E+001
 70
0
  0
VERTEX
  5
853
100
AcDbEntity
  8
5
100
AcDbVertex
100
AcDb2dVertex
 42
-1.77971E-002
 10
6.5763052E+001
 20
7.6458743E+001
 70
1
  0
VERTEX
  5
854
100
AcDbEntity
  8
5
100
AcDbVertex
100
AcDb2dVertex
 42
-7.8224104E-003
 10
6.5790706E+001
 20
7.6586643E+001
 70
0
  0
VERTEX
  5
855
100
AcDbEntity
  8
5
100
AcDbVertex
100
AcDb2dVertex
 42
-2.4994184E-002
 10
6.582101E+001
 20
7.6699738E+001
 70
1
  0
VERTEX
  5
856
100
AcDbEntity
  8
5
100
AcDbVertex
100
AcDb2dVertex
 42
-4.520104E-002
 10
6.5878E+001
 20
7.682811E+001
 70
0
  0
VERTEX
  5
857
100
AcDbEntity
  8
5
100
AcDbVertex
100
AcDb2dVertex
 42
-2.4144231E-002
 10
6.5987719E+001
 20
7.7002906E+001
 70
1
  0
VERTEX
  5
858
100
AcDbEntity
  8
5
100
AcDbVertex
100
AcDb2dVertex
 42
-1.3295277E-002
 10
6.6144695E+001
 20
7.7218152E+001
 70
0
  0
SEQEND
  5
859
100
AcDbEntity
  0
ELLIPSE
  5
85a
100
AcDbEntity
  8
5
100
AcDbEllipse
  6
CONTINUOUS
 10
6.6456952E+001
 20
7.3871933E+001
 11
3.5671708
 21
-3.7835555
 40
7.0710678E-001
 41
0.0
 42
6.2831853
 62
6
  0
POLYLINE
  5
85b
100
AcDbEntity
  8
5
100
AcDb2dPolyline
  6
CONTINUOUS
 62
6
 66
1
 40
0.0
 41
0.0
 70
2
  0
VERTEX
  5
85c
100
AcDbEntity
  8
5
100
AcDbVertex
100
AcDb2dVertex
 42
0.0
 10
1.5986514E+002
 20
4.4838843E+001
 70
0
  0
VERTEX
  5
85d
100
AcDbEntity
  8
5
100
AcDbVertex
100
AcDb2dVertex
 42
2.2836503E-002
 10
1.5971478E+002
 20
4.4671411E+001
 70
1
  0
VERTEX
  5
85e
100
AcDbEntity
  8
5
100
AcDbVertex
100
AcDb2dVertex
 42
2.1683259E-002
 10
1.5957723E+002
 20
4.4488157E+001
 70
0
  0
VERTEX
  5
85f
100
AcDbEntity
  8
5
100
AcDbVertex
100
AcDb2dVertex
 42
2.0941655E-002
 10
1.5945279E+002
 20
4.4288333E+001
 70
1
  0
VERTEX
  5
860
100
AcDbEntity
  8
5
100
AcDbVertex
100
AcDb2dVertex
 42
2.1207446E-002
 10
1.5934244E+002
 20
4.4073212E+001
 70
0
  0
VERTEX
  5
861
100
AcDbEntity
  8
5
100
AcDbVertex
100
AcDb2dVertex
 42
2.0876377E-002
 10
1.5924852E+002
 20
4.3843008E+001
 70
1
  0
VERTEX
  5
862
100
AcDbEntity
  8
5
100
AcDbVertex
100
AcDb2dVertex
 42
2.0268821E-002
 10
1.5917145E+002
 20
4.3599355E+001
 70
0
  0
VERTEX
  5
863
100
AcDbEntity
  8
5
100
AcDbVertex
100
AcDb2dVertex
 42
1.9502787E-002
 10
1.5911283E+002
 20
4.3342888E+001
 70
1
  0
VERTEX
  5
864
100
AcDbEntity
  8
5
100
AcDbVertex
100
AcDb2dVertex
 42
1.883732E-002
 10
1.5907263E+002
 20
4.3075571E+001
 70
0
  0
VERTEX
  5
865
100
AcDbEntity
  8
5
100
AcDbVertex
100
AcDb2dVertex
 42
1.802483E-002
 10
1.5905223E+002
 20
4.2798578E+001
 70
1
  0
VERTEX
  5
866
100
AcDbEntity
  8
5
100
AcDbVertex
100
AcDb2dVertex
 42
1.7234554E-002
 10
1.5905104E+002
 20
4.2514054E+001
 70
0
  0
VERTEX
  5
867
100
AcDbEntity
  8
5
100
AcDbVertex
100
AcDb2dVertex
 42
1.6418578E-002
 10
1.5906992E+002
 20
4.2223583E+001
 70
1
  0
VERTEX
  5
868
100
AcDbEntity
  8
5
100
AcDbVertex
100
AcDb2dVertex
 42
1.5644715E-002
 10
1.5910779E+002
 20
4.192932E+001
 70
0
  0
VERTEX
  5
869
100
AcDbEntity
  8
5
100
AcDbVertex
100
AcDb2dVertex
 42
1.4908142E-002
 10
1.5916498E+002
 20
4.1633121E+001
 70
1
  0
VERTEX
  5
86a
100
AcDbEntity
  8
5
100
AcDbVertex
100
AcDb2dVertex
 42
1.4190461E-002
 10
1.5923995E+002
 20
4.1336973E+001
 70
0
  0
VERTEX
  5
86b
100
AcDbEntity
  8
5
100
AcDbVertex
100
AcDb2dVertex
 42
1.3558509E-002
 10
1.5933252E+002
 20
4.1042831E+001
 70
1
  0
VERTEX
  5
86c
100
AcDbEntity
  8
5
100
AcDbVertex
100
AcDb2dVertex
 42
1.2922928E-002
 10
1.5944086E+002
 20
4.0752358E+001
 70
0
  0
VERTEX
  5
86d
100
AcDbEntity
  8
5
100
AcDbVertex
100
AcDb2dVertex
 42
1.2400378E-002
 10
1.5956435E+002
 20
4.0467445E+001
 70
1
  0
VERTEX
  5
86e
100
AcDbEntity
  8
5
100
AcDbVertex
100
AcDb2dVertex
 42
1.184795E-002
 10
1.59701E+002
 20
4.0189324E+001
 70
0
  0
VERTEX
  5
86f
100
AcDbEntity
  8
5
100
AcDbVertex
100
AcDb2dVertex
 42
1.1428294E-002
 10
1.5984986E+002
 20
3.9919686E+001
 70
1
  0
VERTEX
  5
870
100
AcDbEntity
  8
5
100
AcDbVertex
100
AcDb2dVertex
 42
1.0959295E-002
 10
1.6000897E+002
 20
3.9659286E+001
 70
0
  0
VERTEX
  5
871
100
AcDbEntity
  8
5
100
AcDbVertex
100
AcDb2dVertex
 42
1.0620136E-002
 10
1.6017721E+002
 20
3.9409528E+001
 70
1
  0
VERTEX
  5
872
100
AcDbEntity
  8
5
100
AcDbVertex
100
AcDb2dVertex
 42
1.0202527E-002
 10
1.6035271E+002
 20
3.9170713E+001
 70
0
  0
VERTEX
  5
873
100
AcDbEntity
  8
5
100
AcDbVertex
100
AcDb2dVertex
 42
9.9590731E-003
 10
1.6053427E+002
 20
3.8943927E+001
 70
1
  0
VERTEX
  5
874
100
AcDbEntity
  8
5
100
AcDbVertex
100
AcDb2dVertex
 42
9.6600918E-003
 10
1.6072039E+002
 20
3.8729015E+001
 70
0
  0
VERTEX
  5
875
100
AcDbEntity
  8
5
100
AcDbVertex
100
AcDb2dVertex
 42
9.390413E-003
 10
1.6090992E+002
 20
3.8526731E+001
 70
1
  0
VERTEX
  5
876
100
AcDbEntity
  8
5
100
AcDbVertex
100
AcDb2dVertex
 42
8.924649E-003
 10
1.6110122E+002
 20
3.8336774E+001
 70
0
  0
VERTEX
  5
877
100
AcDbEntity
  8
5
100
AcDbVertex
100
AcDb2dVertex
 42
9.1246951E-003
 10
1.6129389E+002
 20
3.8159017E+001
 70
1
  0
VERTEX
  5
878
100
AcDbEntity
  8
5
100
AcDbVertex
100
AcDb2dVertex
 42
9.2062939E-003
 10
1.6149254E+002
 20
3.7988697E+001
 70
0
  0
VERTEX
  5
879
100
AcDbEntity
  8
5
100
AcDbVertex
100
AcDb2dVertex
 42
9.123548E-003
 10
1.617024E+002
 20
3.7821943E+001
 70
1
  0
VERTEX
  5
87a
100
AcDbEntity
  8
5
100
AcDbVertex
100
AcDb2dVertex
 42
9.727842E-003
 10
1.6192318E+002
 20
3.7659488E+001
 70
0
  0
VERTEX
  5
87b
100
AcDbEntity
  8
5
100
AcDbVertex
100
AcDb2dVertex
 42
1.015936E-002
 10
1.6215453E+002
 20
3.7503416E+001
 70
1
  0
VERTEX
  5
87c
100
AcDbEntity
  8
5
100
AcDbVertex
100
AcDb2dVertex
 42
1.0594661E-002
 10
1.6239554E+002
 20
3.7354773E+001
 70
0
  0
VERTEX
  5
87d
100
AcDbEntity
  8
5
100
AcDbVertex
100
AcDb2dVertex
 42
1.1003572E-002
 10
1.6264611E+002
 20
3.7215155E+001
 70
1
  0
VERTEX
  5
87e
100
AcDbEntity
  8
5
100
AcDbVertex
100
AcDb2dVertex
 42
1.1630402E-002
 10
1.62905E+002
 20
3.7085649E+001
 70
0
  0
VERTEX
  5
87f
100
AcDbEntity
  8
5
100
AcDbVertex
100
AcDb2dVertex
 42
1.2139121E-002
 10
1.6317155E+002
 20
3.6968207E+001
 70
1
  0
VERTEX
  5
880
100
AcDbEntity
  8
5
100
AcDbVertex
100
AcDb2dVertex
 42
1.2739645E-002
 10
1.6344417E+002
 20
3.6863696E+001
 70
0
  0
VERTEX
  5
881
100
AcDbEntity
  8
5
100
AcDbVertex
100
AcDb2dVertex
 42
1.3487494E-002
 10
1.6372176E+002
 20
3.6774051E+001
 70
1
  0
VERTEX
  5
882
100
AcDbEntity
  8
5
100
AcDbVertex
100
AcDb2dVertex
 42
1.4563724E-002
 10
1.6400287E+002
 20
3.6700119E+001
 70
0
  0
VERTEX
  5
883
100
AcDbEntity
  8
5
100
AcDbVertex
100
AcDb2dVertex
 42
1.4939302E-002
 10
1.6428606E+002
 20
3.6643839E+001
 70
1
  0
VERTEX
  5
884
100
AcDbEntity
  8
5
100
AcDbVertex
100
AcDb2dVertex
 42
1.4800729E-002
 10
1.6456842E+002
 20
3.6604699E+001
 70
0
  0
VERTEX
  5
885
100
AcDbEntity
  8
5
100
AcDbVertex
100
AcDb2dVertex
 42
1.7092033E-002
 10
1.6484772E+002
 20
3.6584044E+001
 70
1
  0
VERTEX
  5
886
100
AcDbEntity
  8
5
100
AcDbVertex
100
AcDb2dVertex
 42
2.1447144E-002
 10
1.6512641E+002
 20
3.6584704E+001
 70
0
  0
VERTEX
  5
887
100
AcDbEntity
  8
5
100
AcDbVertex
100
AcDb2dVertex
 42
1.7502961E-002
 10
1.6540384E+002
 20
3.6608942E+001
 70
1
  0
VERTEX
  5
888
100
AcDbEntity
  8
5
100
AcDbVertex
100
AcDb2dVertex
 42
6.9855119E-003
 10
1.656617E+002
 20
3.6643957E+001
 70
0
  0
VERTEX
  5
889
100
AcDbEntity
  8
5
100
AcDbVertex
100
AcDb2dVertex
 42
2.551454E-002
 10
1.6589208E+002
 20
3.6686304E+001
 70
1
  0
VERTEX
  5
88a
100
AcDbEntity
  8
5
100
AcDbVertex
100
AcDb2dVertex
 42
4.7205512E-002
 10
1.6615977E+002
 20
3.6782247E+001
 70
0
  0
VERTEX
  5
88b
100
AcDbEntity
  8
5
100
AcDbVertex
100
AcDb2dVertex
 42
2.4788281E-002
 10
1.6653228E+002
 20
3.6981979E+001
 70
1
  0
VERTEX
  5
88c
100
AcDbEntity
  8
5
100
AcDbVertex
100
AcDb2dVertex
 42
1.3347061E-002
 10
1.6699652E+002
 20
3.7274881E+001
 70
0
  0
SEQEND
  5
88d
100
AcDbEntity
  0
POLYLINE
  5
88e
100
AcDbEntity
  8
5
100
AcDb2dPolyline
  6
CONTINUOUS
 62
6
 66
1
 40
0.0
 41
0.0
 70
2
  0
VERTEX
  5
88f
100
AcDbEntity
  8
5
100
AcDbVertex
100
AcDb2dVertex
 42
0.0
 10
1.6709234E+002
 20
4.1595278E+001
 70
0
  0
VERTEX
  5
890
100
AcDbEntity
  8
5
100
AcDbVertex
100
AcDb2dVertex
 42
2.1654692E-003
 10
1.6709226E+002
 20
4.1613264E+001
 70
1
  0
VERTEX
  5
891
100
AcDbEntity
  8
5
100
AcDbVertex
100
AcDb2dVertex
 42
2.1201312E-003
 10
1.6709203E+002
 20
4.1631383E+001
 70
0
  0
VERTEX
  5
892
100
AcDbEntity
  8
5
100
AcDbVertex
100
AcDb2dVertex
 42
2.1004812E-003
 10
1.6709164E+002
 20
4.1649641E+001
 70
1
  0
VERTEX
  5
893
100
AcDbEntity
  8
5
100
AcDbVertex
100
AcDb2dVertex
 42
2.1118111E-003
 10
1.6709109E+002
 20
4.1668031E+001
 70
0
  0
VERTEX
  5
894
100
AcDbEntity
  8
5
100
AcDbVertex
100
AcDb2dVertex
 42
2.1105462E-003
 10
1.6709038E+002
 20
4.1686558E+001
 70
1
  0
VERTEX
  5
895
100
AcDbEntity
  8
5
100
AcDbVertex
100
AcDb2dVertex
 42
2.1074758E-003
 10
1.6708951E+002
 20
4.1705216E+001
 70
0
  0
VERTEX
  5
896
100
AcDbEntity
  8
5
100
AcDbVertex
100
AcDb2dVertex
 42
2.1014041E-003
 10
1.6708847E+002
 20
4.172401E+001
 70
1
  0
VERTEX
  5
897
100
AcDbEntity
  8
5
100
AcDbVertex
100
AcDb2dVertex
 42
2.1016076E-003
 10
1.6708726E+002
 20
4.1742933E+001
 70
0
  0
VERTEX
  5
898
100
AcDbEntity
  8
5
100
AcDbVertex
100
AcDb2dVertex
 42
2.096761E-003
 10
1.6708588E+002
 20
4.1761991E+001
 70
1
  0
VERTEX
  5
899
100
AcDbEntity
  8
5
100
AcDbVertex
100
AcDb2dVertex
 42
2.0963486E-003
 10
1.6708434E+002
 20
4.1781176E+001
 70
0
  0
VERTEX
  5
89a
100
AcDbEntity
  8
5
100
AcDbVertex
100
AcDb2dVertex
 42
2.0905089E-003
 10
1.6708261E+002
 20
4.1800493E+001
 70
1
  0
VERTEX
  5
89b
100
AcDbEntity
  8
5
100
AcDbVertex
100
AcDb2dVertex
 42
2.0886439E-003
 10
1.6708071E+002
 20
4.1819936E+001
 70
0
  0
VERTEX
  5
89c
100
AcDbEntity
  8
5
100
AcDbVertex
100
AcDb2dVertex
 42
2.08493E-003
 10
1.6707863E+002
 20
4.1839508E+001
 70
1
  0
VERTEX
  5
89d
100
AcDbEntity
  8
5
100
AcDbVertex
100
AcDb2dVertex
 42
2.0881222E-003
 10
1.6707637E+002
 20
4.1859206E+001
 70
0
  0
VERTEX
  5
89e
100
AcDbEntity
  8
5
100
AcDbVertex
100
AcDb2dVertex
 42
2.076944E-003
 10
1.6707393E+002
 20
4.1879034E+001
 70
1
  0
VERTEX
  5
89f
100
AcDbEntity
  8
5
100
AcDbVertex
100
AcDb2dVertex
 42
2.062288E-003
 10
1.6707131E+002
 20
4.1898977E+001
 70
0
  0
VERTEX
  5
8a0
100
AcDbEntity
  8
5
100
AcDbVertex
100
AcDb2dVertex
 42
2.0762413E-003
 10
1.6706849E+002
 20
4.1919037E+001
 70
1
  0
VERTEX
  5
8a1
100
AcDbEntity
  8
5
100
AcDbVertex
100
AcDb2dVertex
 42
2.1199601E-003
 10
1.6706549E+002
 20
4.1939239E+001
 70
0
  0
VERTEX
  5
8a2
100
AcDbEntity
  8
5
100
AcDbVertex
100
AcDb2dVertex
 42
2.0498231E-003
 10
1.6706229E+002
 20
4.1959595E+001
 70
1
  0
VERTEX
  5
8a3
100
AcDbEntity
  8
5
100
AcDbVertex
100
AcDb2dVertex
 42
1.9055117E-003
 10
1.6705892E+002
 20
4.197998E+001
 70
0
  0
VERTEX
  5
8a4
100
AcDbEntity
  8
5
100
AcDbVertex
100
AcDb2dVertex
 42
2.1106576E-003
 10
1.6705538E+002
 20
4.2000357E+001
 70
1
  0
VERTEX
  5
8a5
100
AcDbEntity
  8
5
100
AcDbVertex
100
AcDb2dVertex
 42
2.52962E-003
 10
1.6705156E+002
 20
4.202119E+001
 70
0
  0
VERTEX
  5
8a6
100
AcDbEntity
  8
5
100
AcDbVertex
100
AcDb2dVertex
 42
1.8909806E-003
 10
1.6704742E+002
 20
4.2042645E+001
 70
1
  0
VERTEX
  5
8a7
100
AcDbEntity
  8
5
100
AcDbVertex
100
AcDb2dVertex
 42
6.026506E-004
 10
1.6704341E+002
 20
4.2062855E+001
 70
0
  0
VERTEX
  5
8a8
100
AcDbEntity
  8
5
100
AcDbVertex
100
AcDb2dVertex
 42
2.704588E-003
 10
1.6703969E+002
 20
4.2081183E+001
 70
1
  0
VERTEX
  5
8a9
100
AcDbEntity
  8
5
100
AcDbVertex
100
AcDb2dVertex
 42
4.6366871E-003
 10
1.6703445E+002
 20
4.2104961E+001
 70
0
  0
VERTEX
  5
8aa
100
AcDbEntity
  8
5
100
AcDbVertex
100
AcDb2dVertex
 42
2.2211878E-003
 10
1.6702578E+002
 20
4.2141891E+001
 70
1
  0
VERTEX
  5
8ab
100
AcDbEntity
  8
5
100
AcDbVertex
100
AcDb2dVertex
 42
1.1588258E-003
 10
1.6701406E+002
 20
4.2190439E+001
 70
0
  0
SEQEND
  5
8ac
100
AcDbEntity
  0
POLYLINE
  5
8ad
100
AcDbEntity
  8
5
100
AcDb2dPolyline
  6
CONTINUOUS
 62
6
 66
1
 40
0.0
 41
0.0
 70
2
  0
VERTEX
  5
8ae
100
AcDbEntity
  8
5
100
AcDbVertex
100
AcDb2dVertex
 42
0.0
 10
1.6473258E+002
 20
4.4579839E+001
 70
0
  0
VERTEX
  5
8af
100
AcDbEntity
  8
5
100
AcDbVertex
100
AcDb2dVertex
 42
1.3537549E-002
 10
1.6457861E+002
 20
4.4620959E+001
 70
1
  0
VERTEX
  5
8b0
100
AcDbEntity
  8
5
100
AcDbVertex
100
AcDb2dVertex
 42
1.5353606E-002
 10
1.6442959E+002
 20
4.4651807E+001
 70
0
  0
VERTEX
  5
8b1
100
AcDbEntity
  8
5
100
AcDbVertex
100
AcDb2dVertex
 42
1.6348442E-002
 10
1.6428565E+002
 20
4.4671865E+001
 70
1
  0
VERTEX
  5
8b2
100
AcDbEntity
  8
5
100
AcDbVertex
100
AcDb2dVertex
 42
1.6242094E-002
 10
1.6414711E+002
 20
4.4682177E+001
 70
0
  0
VERTEX
  5
8b3
100
AcDbEntity
  8
5
100
AcDbVertex
100
AcDb2dVertex
 42
1.6362364E-002
 10
1.6401491E+002
 20
4.4683155E+001
 70
1
  0
VERTEX
  5
8b4
100
AcDbEntity
  8
5
100
AcDbVertex
100
AcDb2dVertex
 42
1.6296947E-002
 10
1.6388965E+002
 20
4.4676028E+001
 70
0
  0
VERTEX
  5
8b5
100
AcDbEntity
  8
5
100
AcDbVertex
100
AcDb2dVertex
 42
1.7104691E-002
 10
1.63772E+002
 20
4.4661232E+001
 70
1
  0
VERTEX
  5
8b6
100
AcDbEntity
  8
5
100
AcDbVertex
100
AcDb2dVertex
 42
1.7222597E-002
 10
1.6365944E+002
 20
4.4639216E+001
 70
0
  0
VERTEX
  5
8b7
100
AcDbEntity
  8
5
100
AcDbVertex
100
AcDb2dVertex
 42
1.7684784E-002
 10
1.6354968E+002
 20
4.4609543E+001
 70
1
  0
VERTEX
  5
8b8
100
AcDbEntity
  8
5
100
AcDbVertex
100
AcDb2dVertex
 42
1.9103402E-002
 10
1.6344165E+002
 20
4.4571727E+001
 70
0
  0
VERTEX
  5
8b9
100
AcDbEntity
  8
5
100
AcDbVertex
100
AcDb2dVertex
 42
1.9905416E-002
 10
1.6333507E+002
 20
4.452455E+001
 70
1
  0
VERTEX
  5
8ba
100
AcDbEntity
  8
5
100
AcDbVertex
100
AcDb2dVertex
 42
2.1212958E-002
 10
1.6323085E+002
 20
4.4467942E+001
 70
0
  0
VERTEX
  5
8bb
100
AcDbEntity
  8
5
100
AcDbVertex
100
AcDb2dVertex
 42
2.2148761E-002
 10
1.631304E+002
 20
4.4401157E+001
 70
1
  0
VERTEX
  5
8bc
100
AcDbEntity
  8
5
100
AcDbVertex
100
AcDb2dVertex
 42
2.3040796E-002
 10
1.6303454E+002
 20
4.4324317E+001
 70
0
  0
VERTEX
  5
8bd
100
AcDbEntity
  8
5
100
AcDbVertex
100
AcDb2dVertex
 42
2.3475724E-002
 10
1.6294449E+002
 20
4.4236771E+001
 70
1
  0
VERTEX
  5
8be
100
AcDbEntity
  8
5
100
AcDbVertex
100
AcDb2dVertex
 42
2.39854E-002
 10
1.6286107E+002
 20
4.4138938E+001
 70
0
  0
VERTEX
  5
8bf
100
AcDbEntity
  8
5
100
AcDbVertex
100
AcDb2dVertex
 42
2.3957803E-002
 10
1.6278567E+002
 20
4.4030487E+001
 70
1
  0
VERTEX
  5
8c0
100
AcDbEntity
  8
5
100
AcDbVertex
100
AcDb2dVertex
 42
2.3882191E-002
 10
1.6271897E+002
 20
4.3912167E+001
 70
0
  0
VERTEX
  5
8c1
100
AcDbEntity
  8
5
100
AcDbVertex
100
AcDb2dVertex
 42
2.3340312E-002
 10
1.6266232E+002
 20
4.3784019E+001
 70
1
  0
VERTEX
  5
8c2
100
AcDbEntity
  8
5
100
AcDbVertex
100
AcDb2dVertex
 42
2.2787303E-002
 10
1.6261612E+002
 20
4.364712E+001
 70
0
  0
VERTEX
  5
8c3
100
AcDbEntity
  8
5
100
AcDbVertex
100
AcDb2dVertex
 42
2.1901628E-002
 10
1.6258157E+002
 20
4.3501933E+001
 70
1
  0
VERTEX
  5
8c4
100
AcDbEntity
  8
5
100
AcDbVertex
100
AcDb2dVertex
 42
2.1038794E-002
 10
1.6255871E+002
 20
4.3349804E+001
 70
0
  0
VERTEX
  5
8c5
100
AcDbEntity
  8
5
100
AcDbVertex
100
AcDb2dVertex
 42
2.0010079E-002
 10
1.6254844E+002
 20
4.3191592E+001
 70
1
  0
VERTEX
  5
8c6
100
AcDbEntity
  8
5
100
AcDbVertex
100
AcDb2dVertex
 42
1.9032516E-002
 10
1.6255039E+002
 20
4.3028798E+001
 70
0
  0
VERTEX
  5
8c7
100
AcDbEntity
  8
5
100
AcDbVertex
100
AcDb2dVertex
 42
1.8028489E-002
 10
1.6256507E+002
 20
4.2862594E+001
 70
1
  0
VERTEX
  5
8c8
100
AcDbEntity
  8
5
100
AcDbVertex
100
AcDb2dVertex
 42
1.7071656E-002
 10
1.625917E+002
 20
4.2694483E+001
 70
0
  0
VERTEX
  5
8c9
100
AcDbEntity
  8
5
100
AcDbVertex
100
AcDb2dVertex
 42
1.6186126E-002
 10
1.6263037E+002
 20
4.2525817E+001
 70
1
  0
VERTEX
  5
8ca
100
AcDbEntity
  8
5
100
AcDbVertex
100
AcDb2dVertex
 42
1.5322029E-002
 10
1.6267998E+002
 20
4.2357946E+001
 70
0
  0
VERTEX
  5
8cb
100
AcDbEntity
  8
5
100
AcDbVertex
100
AcDb2dVertex
 42
1.458771E-002
 10
1.6274023E+002
 20
4.2192249E+001
 70
1
  0
VERTEX
  5
8cc
100
AcDbEntity
  8
5
100
AcDbVertex
100
AcDb2dVertex
 42
1.3838554E-002
 10
1.6280981E+002
 20
4.2029799E+001
 70
0
  0
VERTEX
  5
8cd
100
AcDbEntity
  8
5
100
AcDbVertex
100
AcDb2dVertex
 42
1.3255359E-002
 10
1.6288811E+002
 20
4.1871863E+001
 70
1
  0
VERTEX
  5
8ce
100
AcDbEntity
  8
5
100
AcDbVertex
100
AcDb2dVertex
 42
1.2625927E-002
 10
1.6297376E+002
 20
4.171916E+001
 70
0
  0
VERTEX
  5
8cf
100
AcDbEntity
  8
5
100
AcDbVertex
100
AcDb2dVertex
 42
1.2166018E-002
 10
1.6306597E+002
 20
4.1572751E+001
 70
1
  0
VERTEX
  5
8d0
100
AcDbEntity
  8
5
100
AcDbVertex
100
AcDb2dVertex
 42
1.161853E-002
 10
1.6316341E+002
 20
4.143299E+001
 70
0
  0
VERTEX
  5
8d1
100
AcDbEntity
  8
5
100
AcDbVertex
100
AcDb2dVertex
 42
1.1291766E-002
 10
1.6326521E+002
 20
4.1300684E+001
 70
1
  0
VERTEX
  5
8d2
100
AcDbEntity
  8
5
100
AcDbVertex
100
AcDb2dVertex
 42
1.0899575E-002
 10
1.6337026E+002
 20
4.1175835E+001
 70
0
  0
VERTEX
  5
8d3
100
AcDbEntity
  8
5
100
AcDbVertex
100
AcDb2dVertex
 42
1.0561476E-002
 10
1.6347773E+002
 20
4.105899E+001
 70
1
  0
VERTEX
  5
8d4
100
AcDbEntity
  8
5
100
AcDbVertex
100
AcDb2dVertex
 42
9.9774038E-003
 10
1.6358648E+002
 20
4.0949937E+001
 70
0
  0
VERTEX
  5
8d5
100
AcDbEntity
  8
5
100
AcDbVertex
100
AcDb2dVertex
 42
1.0223995E-002
 10
1.6369623E+002
 20
4.0848571E+001
 70
1
  0
VERTEX
  5
8d6
100
AcDbEntity
  8
5
100
AcDbVertex
100
AcDb2dVertex
 42
1.0341108E-002
 10
1.6380986E+002
 20
4.0751917E+001
 70
0
  0
VERTEX
  5
8d7
100
AcDbEntity
  8
5
100
AcDbVertex
100
AcDb2dVertex
 42
1.0244743E-002
 10
1.6393065E+002
 20
4.0657595E+001
 70
1
  0
VERTEX
  5
8d8
100
AcDbEntity
  8
5
100
AcDbVertex
100
AcDb2dVertex
 42
1.1010038E-002
 10
1.6405835E+002
 20
4.0566204E+001
 70
0
  0
VERTEX
  5
8d9
100
AcDbEntity
  8
5
100
AcDbVertex
100
AcDb2dVertex
 42
1.1571589E-002
 10
1.6419265E+002
 20
4.0479224E+001
 70
1
  0
VERTEX
  5
8da
100
AcDbEntity
  8
5
100
AcDbVertex
100
AcDb2dVertex
 42
1.2147579E-002
 10
1.6433288E+002
 20
4.0397424E+001
 70
0
  0
VERTEX
  5
8db
100
AcDbEntity
  8
5
100
AcDbVertex
100
AcDb2dVertex
 42
1.2681425E-002
 10
1.6447886E+002
 20
4.0321951E+001
 70
1
  0
VERTEX
  5
8dc
100
AcDbEntity
  8
5
100
AcDbVertex
100
AcDb2dVertex
 42
1.3483801E-002
 10
1.6462967E+002
 20
4.0253574E+001
 70
0
  0
VERTEX
  5
8dd
100
AcDbEntity
  8
5
100
AcDbVertex
100
AcDb2dVertex
 42
1.4212577E-002
 10
1.6478466E+002
 20
4.0193665E+001
 70
1
  0
VERTEX
  5
8de
100
AcDbEntity
  8
5
100
AcDbVertex
100
AcDb2dVertex
 42
1.5123897E-002
 10
1.6494272E+002
 20
4.0142835E+001
 70
0
  0
VERTEX
  5
8df
100
AcDbEntity
  8
5
100
AcDbVertex
100
AcDb2dVertex
 42
1.6005222E-002
 10
1.6510289E+002
 20
4.0102406E+001
 70
1
  0
VERTEX
  5
8e0
100
AcDbEntity
  8
5
100
AcDbVertex
100
AcDb2dVertex
 42
1.7068918E-002
 10
1.6526391E+002
 20
4.0072737E+001
 70
0
  0
VERTEX
  5
8e1
100
AcDbEntity
  8
5
100
AcDbVertex
100
AcDb2dVertex
 42
1.8113636E-002
 10
1.6542452E+002
 20
4.0055003E+001
 70
1
  0
VERTEX
  5
8e2
100
AcDbEntity
  8
5
100
AcDbVertex
100
AcDb2dVertex
 42
1.9266861E-002
 10
1.6558343E+002
 20
4.0049206E+001
 70
0
  0
VERTEX
  5
8e3
100
AcDbEntity
  8
5
100
AcDbVertex
100
AcDb2dVertex
 42
2.0422421E-002
 10
1.6573919E+002
 20
4.0056229E+001
 70
1
  0
VERTEX
  5
8e4
100
AcDbEntity
  8
5
100
AcDbVertex
100
AcDb2dVertex
 42
2.1596028E-002
 10
1.6589063E+002
 20
4.0075672E+001
 70
0
  0
VERTEX
  5
8e5
100
AcDbEntity
  8
5
100
AcDbVertex
100
AcDb2dVertex
 42
2.2673732E-002
 10
1.6603623E+002
 20
4.0108034E+001
 70
1
  0
VERTEX
  5
8e6
100
AcDbEntity
  8
5
100
AcDbVertex
100
AcDb2dVertex
 42
2.3525055E-002
 10
1.6617508E+002
 20
4.0152452E+001
 70
0
  0
VERTEX
  5
8e7
100
AcDbEntity
  8
5
100
AcDbVertex
100
AcDb2dVertex
 42
2.4486752E-002
 10
1.6630578E+002
 20
4.0208969E+001
 70
1
  0
VERTEX
  5
8e8
100
AcDbEntity
  8
5
100
AcDbVertex
100
AcDb2dVertex
 42
2.5308857E-002
 10
1.6642776E+002
 20
4.0276596E+001
 70
0
  0
VERTEX
  5
8e9
100
AcDbEntity
  8
5
100
AcDbVertex
100
AcDb2dVertex
 42
2.5183266E-002
 10
1.6653988E+002
 20
4.0355043E+001
 70
1
  0
VERTEX
  5
8ea
100
AcDbEntity
  8
5
100
AcDbVertex
100
AcDb2dVertex
 42
2.389899E-002
 10
1.6664194E+002
 20
4.0442249E+001
 70
0
  0
VERTEX
  5
8eb
100
AcDbEntity
  8
5
100
AcDbVertex
100
AcDb2dVertex
 42
2.525229E-002
 10
1.6673308E+002
 20
4.0537305E+001
 70
1
  0
VERTEX
  5
8ec
100
AcDbEntity
  8
5
100
AcDbVertex
100
AcDb2dVertex
 42
2.793448E-002
 10
1.6681374E+002
 20
4.0641435E+001
 70
0
  0
VERTEX
  5
8ed
100
AcDbEntity
  8
5
100
AcDbVertex
100
AcDb2dVertex
 42
2.1967895E-002
 10
1.6688347E+002
 20
4.0754676E+001
 70
1
  0
VERTEX
  5
8ee
100
AcDbEntity
  8
5
100
AcDbVertex
100
AcDb2dVertex
 42
1.0550303E-002
 10
1.6694219E+002
 20
4.0865077E+001
 70
0
  0
VERTEX
  5
8ef
100
AcDbEntity
  8
5
100
AcDbVertex
100
AcDb2dVertex
 42
2.6251778E-002
 10
1.6698947E+002
 20
4.0968031E+001
 70
1
  0
VERTEX
  5
8f0
100
AcDbEntity
  8
5
100
AcDbVertex
100
AcDb2dVertex
 42
4.0194446E-002
 10
1.6702889E+002
 20
4.1104008E+001
 70
0
  0
VERTEX
  5
8f1
100
AcDbEntity
  8
5
100
AcDbVertex
100
AcDb2dVertex
 42
1.9878288E-002
 10
1.6706325E+002
 20
4.1315974E+001
 70
1
  0
VERTEX
  5
8f2
100
AcDbEntity
  8
5
100
AcDbVertex
100
AcDb2dVertex
 42
1.0866198E-002
 10
1.6709234E+002
 20
4.1595278E+001
 70
0
  0
SEQEND
  5
8f3
100
AcDbEntity
  0
POLYLINE
  5
8f4
100
AcDbEntity
  8
5
100
AcDb2dPolyline
  6
CONTINUOUS
 62
1
 66
1
 40
0.0
 41
0.0
 70
2
  0
VERTEX
  5
8f5
100
AcDbEntity
  8
5
100
AcDbVertex
100
AcDb2dVertex
 42
0.0
 10
1.6667571E+002
 20
4.0475549E+001
 70
0
  0
VERTEX
  5
8f6
100
AcDbEntity
  8
5
100
AcDbVertex
100
AcDb2dVertex
 42
-2.3310731E-002
 10
1.665805E+002
 20
4.0400085E+001
 70
1
  0
VERTEX
  5
8f7
100
AcDbEntity
  8
5
100
AcDbVertex
100
AcDb2dVertex
 42
-2.27177E-002
 10
1.6647776E+002
 20
4.0332859E+001
 70
0
  0
VERTEX
  5
8f8
100
AcDbEntity
  8
5
100
AcDbVertex
100
AcDb2dVertex
 42
-2.1996996E-002
 10
1.6636707E+002
 20
4.0274126E+001
 70
1
  0
VERTEX
  5
8f9
100
AcDbEntity
  8
5
100
AcDbVertex
100
AcDb2dVertex
 42
-2.1834693E-002
 10
1.6624938E+002
 20
4.0224145E+001
 70
0
  0
VERTEX
  5
8fa
100
AcDbEntity
  8
5
100
AcDbVertex
100
AcDb2dVertex
 42
-2.1282375E-002
 10
1.661252E+002
 20
4.0183971E+001
 70
1
  0
VERTEX
  5
8fb
100
AcDbEntity
  8
5
100
AcDbVertex
100
AcDb2dVertex
 42
-2.0449867E-002
 10
1.6599554E+002
 20
4.0153512E+001
 70
0
  0
VERTEX
  5
8fc
100
AcDbEntity
  8
5
100
AcDbVertex
100
AcDb2dVertex
 42
-1.9536206E-002
 10
1.6586101E+002
 20
4.0133367E+001
 70
1
  0
VERTEX
  5
8fd
100
AcDbEntity
  8
5
100
AcDbVertex
100
AcDb2dVertex
 42
-1.8651786E-002
 10
1.657227E+002
 20
4.0123183E+001
 70
0
  0
VERTEX
  5
8fe
100
AcDbEntity
  8
5
100
AcDbVertex
100
AcDb2dVertex
 42
-1.7733777E-002
 10
1.6558143E+002
 20
4.0123356E+001
 70
1
  0
VERTEX
  5
8ff
100
AcDbEntity
  8
5
100
AcDbVertex
100
AcDb2dVertex
 42
-1.6787422E-002
 10
1.6543826E+002
 20
4.013327E+001
 70
0
  0
VERTEX
  5
900
100
AcDbEntity
  8
5
100
AcDbVertex
100
AcDb2dVertex
 42
-1.5912217E-002
 10
1.6529412E+002
 20
4.0153035E+001
 70
1
  0
VERTEX
  5
901
100
AcDbEntity
  8
5
100
AcDbVertex
100
AcDb2dVertex
 42
-1.5030884E-002
 10
1.6514995E+002
 20
4.0181829E+001
 70
0
  0
VERTEX
  5
902
100
AcDbEntity
  8
5
100
AcDbVertex
100
AcDb2dVertex
 42
-1.4264678E-002
 10
1.6500669E+002
 20
4.0219521E+001
 70
1
  0
VERTEX
  5
903
100
AcDbEntity
  8
5
100
AcDbVertex
100
AcDb2dVertex
 42
-1.347291E-002
 10
1.6486512E+002
 20
4.0265156E+001
 70
0
  0
VERTEX
  5
904
100
AcDbEntity
  8
5
100
AcDbVertex
100
AcDb2dVertex
 42
-1.283055E-002
 10
1.6472611E+002
 20
4.0318401E+001
 70
1
  0
VERTEX
  5
905
100
AcDbEntity
  8
5
100
AcDbVertex
100
AcDb2dVertex
 42
-1.2151106E-002
 10
1.6459023E+002
 20
4.0378262E+001
 70
0
  0
VERTEX
  5
906
100
AcDbEntity
  8
5
100
AcDbVertex
100
AcDb2dVertex
 42
-1.1613178E-002
 10
1.6445824E+002
 20
4.044427E+001
 70
1
  0
VERTEX
  5
907
100
AcDbEntity
  8
5
100
AcDbVertex
100
AcDb2dVertex
 42
-1.1007013E-002
 10
1.6433049E+002
 20
4.0515433E+001
 70
0
  0
VERTEX
  5
908
100
AcDbEntity
  8
5
100
AcDbVertex
100
AcDb2dVertex
 42
-1.0605482E-002
 10
1.6420761E+002
 20
4.0591201E+001
 70
1
  0
VERTEX
  5
909
100
AcDbEntity
  8
5
100
AcDbVertex
100
AcDb2dVertex
 42
-1.0164079E-002
 10
1.6408966E+002
 20
4.067076E+001
 70
0
  0
VERTEX
  5
90a
100
AcDbEntity
  8
5
100
AcDbVertex
100
AcDb2dVertex
 42
-9.730081E-003
 10
1.639771E+002
 20
4.0753575E+001
 70
1
  0
VERTEX
  5
90b
100
AcDbEntity
  8
5
100
AcDbVertex
100
AcDb2dVertex
 42
-9.1268663E-003
 10
1.6387011E+002
 20
4.0838583E+001
 70
0
  0
VERTEX
  5
90c
100
AcDbEntity
  8
5
100
AcDbVertex
100
AcDb2dVertex
 42
-9.2101921E-003
 10
1.6376884E+002
 20
4.092541E+001
 70
1
  0
VERTEX
  5
90d
100
AcDbEntity
  8
5
100
AcDbVertex
100
AcDb2dVertex
 42
-9.1279447E-003
 10
1.6367062E+002
 20
4.1016028E+001
 70
0
  0
VERTEX
  5
90e
100
AcDbEntity
  8
5
100
AcDbVertex
100
AcDb2dVertex
 42
-8.9276587E-003
 10
1.6357309E+002
 20
4.1112868E+001
 70
1
  0
VERTEX
  5
90f
100
AcDbEntity
  8
5
100
AcDbVertex
100
AcDb2dVertex
 42
-9.3939358E-003
 10
1.6347647E+002
 20
4.1215994E+001
 70
0
  0
VERTEX
  5
910
100
AcDbEntity
  8
5
100
AcDbVertex
100
AcDb2dVertex
 42
-9.663661E-003
 10
1.6338159E+002
 20
4.132556E+001
 70
1
  0
VERTEX
  5
911
100
AcDbEntity
  8
5
100
AcDbVertex
100
AcDb2dVertex
 42
-9.962525E-003
 10
1.6328904E+002
 20
4.1441181E+001
 70
0
  0
VERTEX
  5
912
100
AcDbEntity
  8
5
100
AcDbVertex
100
AcDb2dVertex
 42
-1.0206688E-002
 10
1.6319957E+002
 20
4.1562936E+001
 70
1
  0
VERTEX
  5
913
100
AcDbEntity
  8
5
100
AcDbVertex
100
AcDb2dVertex
 42
-1.0625985E-002
 10
1.6311381E+002
 20
4.1690271E+001
 70
0
  0
VERTEX
  5
914
100
AcDbEntity
  8
5
100
AcDbVertex
100
AcDb2dVertex
 42
-1.0963642E-002
 10
1.6303271E+002
 20
4.1823033E+001
 70
1
  0
VERTEX
  5
915
100
AcDbEntity
  8
5
100
AcDbVertex
100
AcDb2dVertex
 42
-1.1428022E-002
 10
1.6295683E+002
 20
4.1960504E+001
 70
0
  0
VERTEX
  5
916
100
AcDbEntity
  8
5
100
AcDbVertex
100
AcDb2dVertex
 42
-1.1854866E-002
 10
1.6288719E+002
 20
4.2102296E+001
 70
1
  0
VERTEX
  5
917
100
AcDbEntity
  8
5
100
AcDbVertex
100
AcDb2dVertex
 42
-1.2426708E-002
 10
1.6282426E+002
 20
4.2247557E+001
 70
0
  0
VERTEX
  5
918
100
AcDbEntity
  8
5
100
AcDbVertex
100
AcDb2dVertex
 42
-1.2924425E-002
 10
1.6276907E+002
 20
4.2395658E+001
 70
1
  0
VERTEX
  5
919
100
AcDbEntity
  8
5
100
AcDbVertex
100
AcDb2dVertex
 42
-1.3490027E-002
 10
1.627219E+002
 20
4.2545604E+001
 70
0
  0
VERTEX
  5
91a
100
AcDbEntity
  8
5
100
AcDbVertex
100
AcDb2dVertex
 42
-1.4217766E-002
 10
1.6268368E+002
 20
4.2696535E+001
 70
1
  0
VERTEX
  5
91b
100
AcDbEntity
  8
5
100
AcDbVertex
100
AcDb2dVertex
 42
-1.5196565E-002
 10
1.6265461E+002
 20
4.2847578E+001
 70
0
  0
VERTEX
  5
91c
100
AcDbEntity
  8
5
100
AcDbVertex
100
AcDb2dVertex
 42
-1.5579972E-002
 10
1.626355E+002
 20
4.2997765E+001
 70
1
  0
VERTEX
  5
91d
100
AcDbEntity
  8
5
100
AcDbVertex
100
AcDb2dVertex
 42
-1.5413894E-002
 10
1.6262578E+002
 20
4.3145652E+001
 70
0
  0
VERTEX
  5
91e
100
AcDbEntity
  8
5
100
AcDbVertex
100
AcDb2dVertex
 42
-1.7532022E-002
 10
1.6262586E+002
 20
4.328997E+001
 70
1
  0
VERTEX
  5
91f
100
AcDbEntity
  8
5
100
AcDbVertex
100
AcDb2dVertex
 42
-2.1498082E-002
 10
1.6263691E+002
 20
4.3431863E+001
 70
0
  0
VERTEX
  5
920
100
AcDbEntity
  8
5
100
AcDbVertex
100
AcDb2dVertex
 42
-1.77971E-002
 10
1.6265975E+002
 20
4.3570912E+001
 70
1
  0
VERTEX
  5
921
100
AcDbEntity
  8
5
100
AcDbVertex
100
AcDb2dVertex
 42
-7.8224104E-003
 10
1.6268741E+002
 20
4.3698811E+001
 70
0
  0
VERTEX
  5
922
100
AcDbEntity
  8
5
100
AcDbVertex
100
AcDb2dVertex
 42
-2.4994184E-002
 10
1.6271771E+002
 20
4.3811906E+001
 70
1
  0
VERTEX
  5
923
100
AcDbEntity
  8
5
100
AcDbVertex
100
AcDb2dVertex
 42
-4.520104E-002
 10
1.627747E+002
 20
4.3940278E+001
 70
0
  0
VERTEX
  5
924
100
AcDbEntity
  8
5
100
AcDbVertex
100
AcDb2dVertex
 42
-2.4144231E-002
 10
1.6288442E+002
 20
4.4115075E+001
 70
1
  0
VERTEX
  5
925
100
AcDbEntity
  8
5
100
AcDbVertex
100
AcDb2dVertex
 42
-1.3295277E-002
 10
1.630414E+002
 20
4.433032E+001
 70
0
  0
SEQEND
  5
926
100
AcDbEntity
  0
ELLIPSE
  5
927
100
AcDbEntity
  8
5
100
AcDbEllipse
  6
CONTINUOUS
 10
1.6335365E+002
 20
4.0984101E+001
 11
3.5671708
 21
-3.7835555
 40
7.0710678E-001
 41
0.0
 42
6.2831853
 62
6
  0
POLYLINE
  5
928
100
AcDbEntity
  8
5
100
AcDb2dPolyline
  6
CONTINUOUS
 62
6
 66
1
 40
0.0
 41
0.0
 70
2
  0
VERTEX
  5
929
100
AcDbEntity
  8
5
100
AcDbVertex
100
AcDb2dVertex
 42
0.0
 10
1.8215996E+002
 20
3.1087073E+001
 70
0
  0
VERTEX
  5
92a
100
AcDbEntity
  8
5
100
AcDbVertex
100
AcDb2dVertex
 42
2.2836503E-002
 10
1.820096E+002
 20
3.0919641E+001
 70
1
  0
VERTEX
  5
92b
100
AcDbEntity
  8
5
100
AcDbVertex
100
AcDb2dVertex
 42
2.1683259E-002
 10
1.8187205E+002
 20
3.0736387E+001
 70
0
  0
VERTEX
  5
92c
100
AcDbEntity
  8
5
100
AcDbVertex
100
AcDb2dVertex
 42
2.0941655E-002
 10
1.8174761E+002
 20
3.0536563E+001
 70
1
  0
VERTEX
  5
92d
100
AcDbEntity
  8
5
100
AcDbVertex
100
AcDb2dVertex
 42
2.1207446E-002
 10
1.8163725E+002
 20
3.0321442E+001
 70
0
  0
VERTEX
  5
92e
100
AcDbEntity
  8
5
100
AcDbVertex
100
AcDb2dVertex
 42
2.0876377E-002
 10
1.8154334E+002
 20
3.0091238E+001
 70
1
  0
VERTEX
  5
92f
100
AcDbEntity
  8
5
100
AcDbVertex
100
AcDb2dVertex
 42
2.0268821E-002
 10
1.8146627E+002
 20
2.9847585E+001
 70
0
  0
VERTEX
  5
930
100
AcDbEntity
  8
5
100
AcDbVertex
100
AcDb2dVertex
 42
1.9502787E-002
 10
1.8140765E+002
 20
2.9591118E+001
 70
1
  0
VERTEX
  5
931
100
AcDbEntity
  8
5
100
AcDbVertex
100
AcDb2dVertex
 42
1.883732E-002
 10
1.8136745E+002
 20
2.9323801E+001
 70
0
  0
VERTEX
  5
932
100
AcDbEntity
  8
5
100
AcDbVertex
100
AcDb2dVertex
 42
1.802483E-002
 10
1.8134704E+002
 20
2.9046808E+001
 70
1
  0
VERTEX
  5
933
100
AcDbEntity
  8
5
100
AcDbVertex
100
AcDb2dVertex
 42
1.7234554E-002
 10
1.8134585E+002
 20
2.8762284E+001
 70
0
  0
VERTEX
  5
934
100
AcDbEntity
  8
5
100
AcDbVertex
100
AcDb2dVertex
 42
1.6418578E-002
 10
1.8136474E+002
 20
2.8471813E+001
 70
1
  0
VERTEX
  5
935
100
AcDbEntity
  8
5
100
AcDbVertex
100
AcDb2dVertex
 42
1.5644715E-002
 10
1.8140261E+002
 20
2.817755E+001
 70
0
  0
VERTEX
  5
936
100
AcDbEntity
  8
5
100
AcDbVertex
100
AcDb2dVertex
 42
1.4908142E-002
 10
1.8145979E+002
 20
2.7881351E+001
 70
1
  0
VERTEX
  5
937
100
AcDbEntity
  8
5
100
AcDbVertex
100
AcDb2dVertex
 42
1.4190461E-002
 10
1.8153476E+002
 20
2.7585203E+001
 70
0
  0
VERTEX
  5
938
100
AcDbEntity
  8
5
100
AcDbVertex
100
AcDb2dVertex
 42
1.3558509E-002
 10
1.8162734E+002
 20
2.7291061E+001
 70
1
  0
VERTEX
  5
939
100
AcDbEntity
  8
5
100
AcDbVertex
100
AcDb2dVertex
 42
1.2922928E-002
 10
1.8173568E+002
 20
2.7000588E+001
 70
0
  0
VERTEX
  5
93a
100
AcDbEntity
  8
5
100
AcDbVertex
100
AcDb2dVertex
 42
1.2400378E-002
 10
1.8185917E+002
 20
2.6715675E+001
 70
1
  0
VERTEX
  5
93b
100
AcDbEntity
  8
5
100
AcDbVertex
100
AcDb2dVertex
 42
1.184795E-002
 10
1.8199581E+002
 20
2.6437554E+001
 70
0
  0
VERTEX
  5
93c
100
AcDbEntity
  8
5
100
AcDbVertex
100
AcDb2dVertex
 42
1.1428294E-002
 10
1.8214468E+002
 20
2.6167916E+001
 70
1
  0
VERTEX
  5
93d
100
AcDbEntity
  8
5
100
AcDbVertex
100
AcDb2dVertex
 42
1.0959295E-002
 10
1.8230379E+002
 20
2.5907516E+001
 70
0
  0
VERTEX
  5
93e
100
AcDbEntity
  8
5
100
AcDbVertex
100
AcDb2dVertex
 42
1.0620136E-002
 10
1.8247202E+002
 20
2.5657758E+001
 70
1
  0
VERTEX
  5
93f
100
AcDbEntity
  8
5
100
AcDbVertex
100
AcDb2dVertex
 42
1.0202527E-002
 10
1.8264753E+002
 20
2.5418943E+001
 70
0
  0
VERTEX
  5
940
100
AcDbEntity
  8
5
100
AcDbVertex
100
AcDb2dVertex
 42
9.9590731E-003
 10
1.8282909E+002
 20
2.5192157E+001
 70
1
  0
VERTEX
  5
941
100
AcDbEntity
  8
5
100
AcDbVertex
100
AcDb2dVertex
 42
9.6600918E-003
 10
1.830152E+002
 20
2.4977245E+001
 70
0
  0
VERTEX
  5
942
100
AcDbEntity
  8
5
100
AcDbVertex
100
AcDb2dVertex
 42
9.390413E-003
 10
1.8320474E+002
 20
2.4774961E+001
 70
1
  0
VERTEX
  5
943
100
AcDbEntity
  8
5
100
AcDbVertex
100
AcDb2dVertex
 42
8.924649E-003
 10
1.8339604E+002
 20
2.4585004E+001
 70
0
  0
VERTEX
  5
944
100
AcDbEntity
  8
5
100
AcDbVertex
100
AcDb2dVertex
 42
9.1246951E-003
 10
1.8358871E+002
 20
2.4407247E+001
 70
1
  0
VERTEX
  5
945
100
AcDbEntity
  8
5
100
AcDbVertex
100
AcDb2dVertex
 42
9.2062939E-003
 10
1.8378736E+002
 20
2.4236927E+001
 70
0
  0
VERTEX
  5
946
100
AcDbEntity
  8
5
100
AcDbVertex
100
AcDb2dVertex
 42
9.123548E-003
 10
1.8399721E+002
 20
2.4070173E+001
 70
1
  0
VERTEX
  5
947
100
AcDbEntity
  8
5
100
AcDbVertex
100
AcDb2dVertex
 42
9.727842E-003
 10
1.8421799E+002
 20
2.3907718E+001
 70
0
  0
VERTEX
  5
948
100
AcDbEntity
  8
5
100
AcDbVertex
100
AcDb2dVertex
 42
1.015936E-002
 10
1.8444934E+002
 20
2.3751646E+001
 70
1
  0
VERTEX
  5
949
100
AcDbEntity
  8
5
100
AcDbVertex
100
AcDb2dVertex
 42
1.0594661E-002
 10
1.8469036E+002
 20
2.3603003E+001
 70
0
  0
VERTEX
  5
94a
100
AcDbEntity
  8
5
100
AcDbVertex
100
AcDb2dVertex
 42
1.1003572E-002
 10
1.8494092E+002
 20
2.3463385E+001
 70
1
  0
VERTEX
  5
94b
100
AcDbEntity
  8
5
100
AcDbVertex
100
AcDb2dVertex
 42
1.1630402E-002
 10
1.8519982E+002
 20
2.3333879E+001
 70
0
  0
VERTEX
  5
94c
100
AcDbEntity
  8
5
100
AcDbVertex
100
AcDb2dVertex
 42
1.2139121E-002
 10
1.8546636E+002
 20
2.3216437E+001
 70
1
  0
VERTEX
  5
94d
100
AcDbEntity
  8
5
100
AcDbVertex
100
AcDb2dVertex
 42
1.2739645E-002
 10
1.8573899E+002
 20
2.3111926E+001
 70
0
  0
VERTEX
  5
94e
100
AcDbEntity
  8
5
100
AcDbVertex
100
AcDb2dVertex
 42
1.3487494E-002
 10
1.8601658E+002
 20
2.3022281E+001
 70
1
  0
VERTEX
  5
94f
100
AcDbEntity
  8
5
100
AcDbVertex
100
AcDb2dVertex
 42
1.4563724E-002
 10
1.8629769E+002
 20
2.2948349E+001
 70
0
  0
VERTEX
  5
950
100
AcDbEntity
  8
5
100
AcDbVertex
100
AcDb2dVertex
 42
1.4939302E-002
 10
1.8658087E+002
 20
2.2892069E+001
 70
1
  0
VERTEX
  5
951
100
AcDbEntity
  8
5
100
AcDbVertex
100
AcDb2dVertex
 42
1.4800729E-002
 10
1.8686324E+002
 20
2.2852929E+001
 70
0
  0
VERTEX
  5
952
100
AcDbEntity
  8
5
100
AcDbVertex
100
AcDb2dVertex
 42
1.7092033E-002
 10
1.8714254E+002
 20
2.2832274E+001
 70
1
  0
VERTEX
  5
953
100
AcDbEntity
  8
5
100
AcDbVertex
100
AcDb2dVertex
 42
2.1447144E-002
 10
1.8742122E+002
 20
2.2832934E+001
 70
0
  0
VERTEX
  5
954
100
AcDbEntity
  8
5
100
AcDbVertex
100
AcDb2dVertex
 42
1.7502961E-002
 10
1.8769865E+002
 20
2.2857172E+001
 70
1
  0
VERTEX
  5
955
100
AcDbEntity
  8
5
100
AcDbVertex
100
AcDb2dVertex
 42
6.9855119E-003
 10
1.8795652E+002
 20
2.2892187E+001
 70
0
  0
VERTEX
  5
956
100
AcDbEntity
  8
5
100
AcDbVertex
100
AcDb2dVertex
 42
2.551454E-002
 10
1.8818689E+002
 20
2.2934534E+001
 70
1
  0
VERTEX
  5
957
100
AcDbEntity
  8
5
100
AcDbVertex
100
AcDb2dVertex
 42
4.7205512E-002
 10
1.8845459E+002
 20
2.3030477E+001
 70
0
  0
VERTEX
  5
958
100
AcDbEntity
  8
5
100
AcDbVertex
100
AcDb2dVertex
 42
2.4788281E-002
 10
1.888271E+002
 20
2.3230209E+001
 70
1
  0
VERTEX
  5
959
100
AcDbEntity
  8
5
100
AcDbVertex
100
AcDb2dVertex
 42
1.3347061E-002
 10
1.8929133E+002
 20
2.3523111E+001
 70
0
  0
SEQEND
  5
95a
100
AcDbEntity
  0
POLYLINE
  5
95b
100
AcDbEntity
  8
5
100
AcDb2dPolyline
  6
CONTINUOUS
 62
6
 66
1
 40
0.0
 41
0.0
 70
2
  0
VERTEX
  5
95c
100
AcDbEntity
  8
5
100
AcDbVertex
100
AcDb2dVertex
 42
0.0
 10
1.8938715E+002
 20
2.7843532E+001
 70
0
  0
VERTEX
  5
95d
100
AcDbEntity
  8
5
100
AcDbVertex
100
AcDb2dVertex
 42
2.1658897E-003
 10
1.8938707E+002
 20
2.7861517E+001
 70
1
  0
VERTEX
  5
95e
100
AcDbEntity
  8
5
100
AcDbVertex
100
AcDb2dVertex
 42
2.1205319E-003
 10
1.8938684E+002
 20
2.7879635E+001
 70
0
  0
VERTEX
  5
95f
100
AcDbEntity
  8
5
100
AcDbVertex
100
AcDb2dVertex
 42
2.100867E-003
 10
1.8938645E+002
 20
2.7897891E+001
 70
1
  0
VERTEX
  5
960
100
AcDbEntity
  8
5
100
AcDbVertex
100
AcDb2dVertex
 42
2.1121881E-003
 10
1.893859E+002
 20
2.791628E+001
 70
0
  0
VERTEX
  5
961
100
AcDbEntity
  8
5
100
AcDbVertex
100
AcDb2dVertex
 42
2.1109117E-003
 10
1.8938519E+002
 20
2.7934806E+001
 70
1
  0
VERTEX
  5
962
100
AcDbEntity
  8
5
100
AcDbVertex
100
AcDb2dVertex
 42
2.1078294E-003
 10
1.8938432E+002
 20
2.7953462E+001
 70
0
  0
VERTEX
  5
963
100
AcDbEntity
  8
5
100
AcDbVertex
100
AcDb2dVertex
 42
2.1017452E-003
 10
1.8938328E+002
 20
2.7972255E+001
 70
1
  0
VERTEX
  5
964
100
AcDbEntity
  8
5
100
AcDbVertex
100
AcDb2dVertex
 42
2.1019374E-003
 10
1.8938207E+002
 20
2.7991177E+001
 70
0
  0
VERTEX
  5
965
100
AcDbEntity
  8
5
100
AcDbVertex
100
AcDb2dVertex
 42
2.0970784E-003
 10
1.893807E+002
 20
2.8010233E+001
 70
1
  0
VERTEX
  5
966
100
AcDbEntity
  8
5
100
AcDbVertex
100
AcDb2dVertex
 42
2.0966547E-003
 10
1.8937915E+002
 20
2.8029417E+001
 70
0
  0
VERTEX
  5
967
100
AcDbEntity
  8
5
100
AcDbVertex
100
AcDb2dVertex
 42
2.0908022E-003
 10
1.8937742E+002
 20
2.8048733E+001
 70
1
  0
VERTEX
  5
968
100
AcDbEntity
  8
5
100
AcDbVertex
100
AcDb2dVertex
 42
2.0889256E-003
 10
1.8937552E+002
 20
2.8068175E+001
 70
0
  0
VERTEX
  5
969
100
AcDbEntity
  8
5
100
AcDbVertex
100
AcDb2dVertex
 42
2.0851992E-003
 10
1.8937344E+002
 20
2.8087747E+001
 70
1
  0
VERTEX
  5
96a
100
AcDbEntity
  8
5
100
AcDbVertex
100
AcDb2dVertex
 42
2.0883803E-003
 10
1.8937119E+002
 20
2.8107443E+001
 70
0
  0
VERTEX
  5
96b
100
AcDbEntity
  8
5
100
AcDbVertex
100
AcDb2dVertex
 42
2.0771888E-003
 10
1.8936874E+002
 20
2.812727E+001
 70
1
  0
VERTEX
  5
96c
100
AcDbEntity
  8
5
100
AcDbVertex
100
AcDb2dVertex
 42
2.0625194E-003
 10
1.8936612E+002
 20
2.8147213E+001
 70
0
  0
VERTEX
  5
96d
100
AcDbEntity
  8
5
100
AcDbVertex
100
AcDb2dVertex
 42
2.0764624E-003
 10
1.8936331E+002
 20
2.8167272E+001
 70
1
  0
VERTEX
  5
96e
100
AcDbEntity
  8
5
100
AcDbVertex
100
AcDb2dVertex
 42
2.1201738E-003
 10
1.8936031E+002
 20
2.8187473E+001
 70
0
  0
VERTEX
  5
96f
100
AcDbEntity
  8
5
100
AcDbVertex
100
AcDb2dVertex
 42
2.0500176E-003
 10
1.893571E+002
 20
2.8207828E+001
 70
1
  0
VERTEX
  5
970
100
AcDbEntity
  8
5
100
AcDbVertex
100
AcDb2dVertex
 42
1.905682E-003
 10
1.8935373E+002
 20
2.8228213E+001
 70
0
  0
VERTEX
  5
971
100
AcDbEntity
  8
5
100
AcDbVertex
100
AcDb2dVertex
 42
2.1108344E-003
 10
1.8935019E+002
 20
2.8248589E+001
 70
1
  0
VERTEX
  5
972
100
AcDbEntity
  8
5
100
AcDbVertex
100
AcDb2dVertex
 42
2.5298157E-003
 10
1.8934638E+002
 20
2.8269422E+001
 70
0
  0
VERTEX
  5
973
100
AcDbEntity
  8
5
100
AcDbVertex
100
AcDb2dVertex
 42
1.891114E-003
 10
1.8934223E+002
 20
2.8290876E+001
 70
1
  0
VERTEX
  5
974
100
AcDbEntity
  8
5
100
AcDbVertex
100
AcDb2dVertex
 42
6.02691E-004
 10
1.8933823E+002
 20
2.8311086E+001
 70
0
  0
VERTEX
  5
975
100
AcDbEntity
  8
5
100
AcDbVertex
100
AcDb2dVertex
 42
2.7047612E-003
 10
1.8933451E+002
 20
2.8329414E+001
 70
1
  0
VERTEX
  5
976
100
AcDbEntity
  8
5
100
AcDbVertex
100
AcDb2dVertex
 42
4.6369304E-003
 10
1.8932927E+002
 20
2.8353192E+001
 70
0
  0
VERTEX
  5
977
100
AcDbEntity
  8
5
100
AcDbVertex
100
AcDb2dVertex
 42
2.221282E-003
 10
1.893206E+002
 20
2.8390122E+001
 70
1
  0
VERTEX
  5
978
100
AcDbEntity
  8
5
100
AcDbVertex
100
AcDb2dVertex
 42
1.1588697E-003
 10
1.8930887E+002
 20
2.8438669E+001
 70
0
  0
SEQEND
  5
979
100
AcDbEntity
  0
POLYLINE
  5
97a
100
AcDbEntity
  8
5
100
AcDb2dPolyline
  6
CONTINUOUS
 62
6
 66
1
 40
0.0
 41
0.0
 70
2
  0
VERTEX
  5
97b
100
AcDbEntity
  8
5
100
AcDbVertex
100
AcDb2dVertex
 42
0.0
 10
1.8702739E+002
 20
3.0828093E+001
 70
0
  0
VERTEX
  5
97c
100
AcDbEntity
  8
5
100
AcDbVertex
100
AcDb2dVertex
 42
1.3536956E-002
 10
1.8687342E+002
 20
3.0869208E+001
 70
1
  0
VERTEX
  5
97d
100
AcDbEntity
  8
5
100
AcDbVertex
100
AcDb2dVertex
 42
1.5352791E-002
 10
1.867244E+002
 20
3.090005E+001
 70
0
  0
VERTEX
  5
97e
100
AcDbEntity
  8
5
100
AcDbVertex
100
AcDb2dVertex
 42
1.6347432E-002
 10
1.8658047E+002
 20
3.0920103E+001
 70
1
  0
VERTEX
  5
97f
100
AcDbEntity
  8
5
100
AcDbVertex
100
AcDb2dVertex
 42
1.6240994E-002
 10
1.8644193E+002
 20
3.0930412E+001
 70
0
  0
VERTEX
  5
980
100
AcDbEntity
  8
5
100
AcDbVertex
100
AcDb2dVertex
 42
1.63611E-002
 10
1.8630973E+002
 20
3.0931388E+001
 70
1
  0
VERTEX
  5
981
100
AcDbEntity
  8
5
100
AcDbVertex
100
AcDb2dVertex
 42
1.6295447E-002
 10
1.8618447E+002
 20
3.0924259E+001
 70
0
  0
VERTEX
  5
982
100
AcDbEntity
  8
5
100
AcDbVertex
100
AcDb2dVertex
 42
1.7103246E-002
 10
1.8606681E+002
 20
3.0909462E+001
 70
1
  0
VERTEX
  5
983
100
AcDbEntity
  8
5
100
AcDbVertex
100
AcDb2dVertex
 42
1.7221786E-002
 10
1.8595426E+002
 20
3.0887446E+001
 70
0
  0
VERTEX
  5
984
100
AcDbEntity
  8
5
100
AcDbVertex
100
AcDb2dVertex
 42
1.7684444E-002
 10
1.858445E+002
 20
3.0857773E+001
 70
1
  0
VERTEX
  5
985
100
AcDbEntity
  8
5
100
AcDbVertex
100
AcDb2dVertex
 42
1.9103383E-002
 10
1.8573647E+002
 20
3.0819957E+001
 70
0
  0
VERTEX
  5
986
100
AcDbEntity
  8
5
100
AcDbVertex
100
AcDb2dVertex
 42
1.99055E-002
 10
1.8562988E+002
 20
3.077278E+001
 70
1
  0
VERTEX
  5
987
100
AcDbEntity
  8
5
100
AcDbVertex
100
AcDb2dVertex
 42
2.1212962E-002
 10
1.8552567E+002
 20
3.0716172E+001
 70
0
  0
VERTEX
  5
988
100
AcDbEntity
  8
5
100
AcDbVertex
100
AcDb2dVertex
 42
2.2148741E-002
 10
1.8542521E+002
 20
3.0649387E+001
 70
1
  0
VERTEX
  5
989
100
AcDbEntity
  8
5
100
AcDbVertex
100
AcDb2dVertex
 42
2.3040795E-002
 10
1.8532936E+002
 20
3.0572547E+001
 70
0
  0
VERTEX
  5
98a
100
AcDbEntity
  8
5
100
AcDbVertex
100
AcDb2dVertex
 42
2.3475728E-002
 10
1.8523931E+002
 20
3.0485001E+001
 70
1
  0
VERTEX
  5
98b
100
AcDbEntity
  8
5
100
AcDbVertex
100
AcDb2dVertex
 42
2.39854E-002
 10
1.8515589E+002
 20
3.0387168E+001
 70
0
  0
VERTEX
  5
98c
100
AcDbEntity
  8
5
100
AcDbVertex
100
AcDb2dVertex
 42
2.3957802E-002
 10
1.8508049E+002
 20
3.0278717E+001
 70
1
  0
VERTEX
  5
98d
100
AcDbEntity
  8
5
100
AcDbVertex
100
AcDb2dVertex
 42
2.3882191E-002
 10
1.8501379E+002
 20
3.0160397E+001
 70
0
  0
VERTEX
  5
98e
100
AcDbEntity
  8
5
100
AcDbVertex
100
AcDb2dVertex
 42
2.3340312E-002
 10
1.8495714E+002
 20
3.0032249E+001
 70
1
  0
VERTEX
  5
98f
100
AcDbEntity
  8
5
100
AcDbVertex
100
AcDb2dVertex
 42
2.2787303E-002
 10
1.8491094E+002
 20
2.989535E+001
 70
0
  0
VERTEX
  5
990
100
AcDbEntity
  8
5
100
AcDbVertex
100
AcDb2dVertex
 42
2.1901628E-002
 10
1.8487639E+002
 20
2.9750163E+001
 70
1
  0
VERTEX
  5
991
100
AcDbEntity
  8
5
100
AcDbVertex
100
AcDb2dVertex
 42
2.1038794E-002
 10
1.8485353E+002
 20
2.9598034E+001
 70
0
  0
VERTEX
  5
992
100
AcDbEntity
  8
5
100
AcDbVertex
100
AcDb2dVertex
 42
2.0010079E-002
 10
1.8484326E+002
 20
2.9439822E+001
 70
1
  0
VERTEX
  5
993
100
AcDbEntity
  8
5
100
AcDbVertex
100
AcDb2dVertex
 42
1.9032516E-002
 10
1.8484521E+002
 20
2.9277028E+001
 70
0
  0
VERTEX
  5
994
100
AcDbEntity
  8
5
100
AcDbVertex
100
AcDb2dVertex
 42
1.802849E-002
 10
1.8485989E+002
 20
2.9110824E+001
 70
1
  0
VERTEX
  5
995
100
AcDbEntity
  8
5
100
AcDbVertex
100
AcDb2dVertex
 42
1.7071656E-002
 10
1.8488651E+002
 20
2.8942713E+001
 70
0
  0
VERTEX
  5
996
100
AcDbEntity
  8
5
100
AcDbVertex
100
AcDb2dVertex
 42
1.6186126E-002
 10
1.8492519E+002
 20
2.8774047E+001
 70
1
  0
VERTEX
  5
997
100
AcDbEntity
  8
5
100
AcDbVertex
100
AcDb2dVertex
 42
1.532203E-002
 10
1.849748E+002
 20
2.8606177E+001
 70
0
  0
VERTEX
  5
998
100
AcDbEntity
  8
5
100
AcDbVertex
100
AcDb2dVertex
 42
1.458771E-002
 10
1.8503505E+002
 20
2.844048E+001
 70
1
  0
VERTEX
  5
999
100
AcDbEntity
  8
5
100
AcDbVertex
100
AcDb2dVertex
 42
1.3838555E-002
 10
1.8510462E+002
 20
2.8278029E+001
 70
0
  0
VERTEX
  5
99a
100
AcDbEntity
  8
5
100
AcDbVertex
100
AcDb2dVertex
 42
1.3255359E-002
 10
1.8518292E+002
 20
2.8120093E+001
 70
1
  0
VERTEX
  5
99b
100
AcDbEntity
  8
5
100
AcDbVertex
100
AcDb2dVertex
 42
1.2625928E-002
 10
1.8526857E+002
 20
2.796739E+001
 70
0
  0
VERTEX
  5
99c
100
AcDbEntity
  8
5
100
AcDbVertex
100
AcDb2dVertex
 42
1.2166018E-002
 10
1.8536078E+002
 20
2.7820981E+001
 70
1
  0
VERTEX
  5
99d
100
AcDbEntity
  8
5
100
AcDbVertex
100
AcDb2dVertex
 42
1.1618531E-002
 10
1.8545822E+002
 20
2.768122E+001
 70
0
  0
VERTEX
  5
99e
100
AcDbEntity
  8
5
100
AcDbVertex
100
AcDb2dVertex
 42
1.1291766E-002
 10
1.8556003E+002
 20
2.7548914E+001
 70
1
  0
VERTEX
  5
99f
100
AcDbEntity
  8
5
100
AcDbVertex
100
AcDb2dVertex
 42
1.0899575E-002
 10
1.8566508E+002
 20
2.7424065E+001
 70
0
  0
VERTEX
  5
9a0
100
AcDbEntity
  8
5
100
AcDbVertex
100
AcDb2dVertex
 42
1.0561476E-002
 10
1.8577254E+002
 20
2.730722E+001
 70
1
  0
VERTEX
  5
9a1
100
AcDbEntity
  8
5
100
AcDbVertex
100
AcDb2dVertex
 42
9.9774023E-003
 10
1.858813E+002
 20
2.7198167E+001
 70
0
  0
VERTEX
  5
9a2
100
AcDbEntity
  8
5
100
AcDbVertex
100
AcDb2dVertex
 42
1.0224006E-002
 10
1.8599105E+002
 20
2.7096801E+001
 70
1
  0
VERTEX
  5
9a3
100
AcDbEntity
  8
5
100
AcDbVertex
100
AcDb2dVertex
 42
1.0341151E-002
 10
1.8610468E+002
 20
2.7000147E+001
 70
0
  0
VERTEX
  5
9a4
100
AcDbEntity
  8
5
100
AcDbVertex
100
AcDb2dVertex
 42
1.0244803E-002
 10
1.8622547E+002
 20
2.6905825E+001
 70
1
  0
VERTEX
  5
9a5
100
AcDbEntity
  8
5
100
AcDbVertex
100
AcDb2dVertex
 42
1.1010105E-002
 10
1.8635317E+002
 20
2.6814435E+001
 70
0
  0
VERTEX
  5
9a6
100
AcDbEntity
  8
5
100
AcDbVertex
100
AcDb2dVertex
 42
1.1571665E-002
 10
1.8648746E+002
 20
2.6727455E+001
 70
1
  0
VERTEX
  5
9a7
100
AcDbEntity
  8
5
100
AcDbVertex
100
AcDb2dVertex
 42
1.2147667E-002
 10
1.866277E+002
 20
2.6645655E+001
 70
0
  0
VERTEX
  5
9a8
100
AcDbEntity
  8
5
100
AcDbVertex
100
AcDb2dVertex
 42
1.2681524E-002
 10
1.8677368E+002
 20
2.6570182E+001
 70
1
  0
VERTEX
  5
9a9
100
AcDbEntity
  8
5
100
AcDbVertex
100
AcDb2dVertex
 42
1.3483912E-002
 10
1.8692448E+002
 20
2.6501806E+001
 70
0
  0
VERTEX
  5
9aa
100
AcDbEntity
  8
5
100
AcDbVertex
100
AcDb2dVertex
 42
1.4212699E-002
 10
1.8707948E+002
 20
2.6441897E+001
 70
1
  0
VERTEX
  5
9ab
100
AcDbEntity
  8
5
100
AcDbVertex
100
AcDb2dVertex
 42
1.5124032E-002
 10
1.8723753E+002
 20
2.6391068E+001
 70
0
  0
VERTEX
  5
9ac
100
AcDbEntity
  8
5
100
AcDbVertex
100
AcDb2dVertex
 42
1.6005368E-002
 10
1.8739771E+002
 20
2.6350639E+001
 70
1
  0
VERTEX
  5
9ad
100
AcDbEntity
  8
5
100
AcDbVertex
100
AcDb2dVertex
 42
1.7069074E-002
 10
1.8755872E+002
 20
2.6320971E+001
 70
0
  0
VERTEX
  5
9ae
100
AcDbEntity
  8
5
100
AcDbVertex
100
AcDb2dVertex
 42
1.8113798E-002
 10
1.8771933E+002
 20
2.6303238E+001
 70
1
  0
VERTEX
  5
9af
100
AcDbEntity
  8
5
100
AcDbVertex
100
AcDb2dVertex
 42
1.9267027E-002
 10
1.8787824E+002
 20
2.6297442E+001
 70
0
  0
VERTEX
  5
9b0
100
AcDbEntity
  8
5
100
AcDbVertex
100
AcDb2dVertex
 42
2.0422586E-002
 10
1.88034E+002
 20
2.6304465E+001
 70
1
  0
VERTEX
  5
9b1
100
AcDbEntity
  8
5
100
AcDbVertex
100
AcDb2dVertex
 42
2.1596185E-002
 10
1.8818544E+002
 20
2.632391E+001
 70
0
  0
VERTEX
  5
9b2
100
AcDbEntity
  8
5
100
AcDbVertex
100
AcDb2dVertex
 42
2.2673871E-002
 10
1.8833105E+002
 20
2.6356273E+001
 70
1
  0
VERTEX
  5
9b3
100
AcDbEntity
  8
5
100
AcDbVertex
100
AcDb2dVertex
 42
2.3525167E-002
 10
1.884699E+002
 20
2.6400692E+001
 70
0
  0
VERTEX
  5
9b4
100
AcDbEntity
  8
5
100
AcDbVertex
100
AcDb2dVertex
 42
2.448683E-002
 10
1.8860059E+002
 20
2.645721E+001
 70
1
  0
VERTEX
  5
9b5
100
AcDbEntity
  8
5
100
AcDbVertex
100
AcDb2dVertex
 42
2.5308893E-002
 10
1.8872258E+002
 20
2.6524838E+001
 70
0
  0
VERTEX
  5
9b6
100
AcDbEntity
  8
5
100
AcDbVertex
100
AcDb2dVertex
 42
2.5183255E-002
 10
1.8883469E+002
 20
2.6603286E+001
 70
1
  0
VERTEX
  5
9b7
100
AcDbEntity
  8
5
100
AcDbVertex
100
AcDb2dVertex
 42
2.3898937E-002
 10
1.8893675E+002
 20
2.6690493E+001
 70
0
  0
VERTEX
  5
9b8
100
AcDbEntity
  8
5
100
AcDbVertex
100
AcDb2dVertex
 42
2.5252191E-002
 10
1.8902789E+002
 20
2.6785551E+001
 70
1
  0
VERTEX
  5
9b9
100
AcDbEntity
  8
5
100
AcDbVertex
100
AcDb2dVertex
 42
2.7934325E-002
 10
1.8910855E+002
 20
2.6889682E+001
 70
0
  0
VERTEX
  5
9ba
100
AcDbEntity
  8
5
100
AcDbVertex
100
AcDb2dVertex
 42
2.1967742E-002
 10
1.8917828E+002
 20
2.7002923E+001
 70
1
  0
VERTEX
  5
9bb
100
AcDbEntity
  8
5
100
AcDbVertex
100
AcDb2dVertex
 42
1.0550222E-002
 10
1.89237E+002
 20
2.7113326E+001
 70
0
  0
VERTEX
  5
9bc
100
AcDbEntity
  8
5
100
AcDbVertex
100
AcDb2dVertex
 42
2.6251564E-002
 10
1.8928428E+002
 20
2.7216281E+001
 70
1
  0
VERTEX
  5
9bd
100
AcDbEntity
  8
5
100
AcDbVertex
100
AcDb2dVertex
 42
4.0194085E-002
 10
1.8932369E+002
 20
2.7352259E+001
 70
0
  0
VERTEX
  5
9be
100
AcDbEntity
  8
5
100
AcDbVertex
100
AcDb2dVertex
 42
1.9878107E-002
 10
1.8935806E+002
 20
2.7564227E+001
 70
1
  0
VERTEX
  5
9bf
100
AcDbEntity
  8
5
100
AcDbVertex
100
AcDb2dVertex
 42
1.0866101E-002
 10
1.8938715E+002
 20
2.7843532E+001
 70
0
  0
SEQEND
  5
9c0
100
AcDbEntity
  0
POLYLINE
  5
9c1
100
AcDbEntity
  8
5
100
AcDb2dPolyline
  6
CONTINUOUS
 62
1
 66
1
 40
0.0
 41
0.0
 70
2
  0
VERTEX
  5
9c2
100
AcDbEntity
  8
5
100
AcDbVertex
100
AcDb2dVertex
 42
0.0
 10
1.8897053E+002
 20
2.6723779E+001
 70
0
  0
VERTEX
  5
9c3
100
AcDbEntity
  8
5
100
AcDbVertex
100
AcDb2dVertex
 42
-2.3310731E-002
 10
1.8887532E+002
 20
2.6648315E+001
 70
1
  0
VERTEX
  5
9c4
100
AcDbEntity
  8
5
100
AcDbVertex
100
AcDb2dVertex
 42
-2.27177E-002
 10
1.8877257E+002
 20
2.6581089E+001
 70
0
  0
VERTEX
  5
9c5
100
AcDbEntity
  8
5
100
AcDbVertex
100
AcDb2dVertex
 42
-2.1996996E-002
 10
1.8866189E+002
 20
2.6522356E+001
 70
1
  0
VERTEX
  5
9c6
100
AcDbEntity
  8
5
100
AcDbVertex
100
AcDb2dVertex
 42
-2.1834693E-002
 10
1.885442E+002
 20
2.6472375E+001
 70
0
  0
VERTEX
  5
9c7
100
AcDbEntity
  8
5
100
AcDbVertex
100
AcDb2dVertex
 42
-2.1282375E-002
 10
1.8842001E+002
 20
2.6432201E+001
 70
1
  0
VERTEX
  5
9c8
100
AcDbEntity
  8
5
100
AcDbVertex
100
AcDb2dVertex
 42
-2.0449867E-002
 10
1.8829036E+002
 20
2.6401742E+001
 70
0
  0
VERTEX
  5
9c9
100
AcDbEntity
  8
5
100
AcDbVertex
100
AcDb2dVertex
 42
-1.9536206E-002
 10
1.8815583E+002
 20
2.6381597E+001
 70
1
  0
VERTEX
  5
9ca
100
AcDbEntity
  8
5
100
AcDbVertex
100
AcDb2dVertex
 42
-1.8651786E-002
 10
1.8801752E+002
 20
2.6371413E+001
 70
0
  0
VERTEX
  5
9cb
100
AcDbEntity
  8
5
100
AcDbVertex
100
AcDb2dVertex
 42
-1.7733777E-002
 10
1.8787624E+002
 20
2.6371586E+001
 70
1
  0
VERTEX
  5
9cc
100
AcDbEntity
  8
5
100
AcDbVertex
100
AcDb2dVertex
 42
-1.6787422E-002
 10
1.8773308E+002
 20
2.63815E+001
 70
0
  0
VERTEX
  5
9cd
100
AcDbEntity
  8
5
100
AcDbVertex
100
AcDb2dVertex
 42
-1.5912217E-002
 10
1.8758894E+002
 20
2.6401265E+001
 70
1
  0
VERTEX
  5
9ce
100
AcDbEntity
  8
5
100
AcDbVertex
100
AcDb2dVertex
 42
-1.5030884E-002
 10
1.8744477E+002
 20
2.6430059E+001
 70
0
  0
VERTEX
  5
9cf
100
AcDbEntity
  8
5
100
AcDbVertex
100
AcDb2dVertex
 42
-1.4264678E-002
 10
1.873015E+002
 20
2.6467751E+001
 70
1
  0
VERTEX
  5
9d0
100
AcDbEntity
  8
5
100
AcDbVertex
100
AcDb2dVertex
 42
-1.347291E-002
 10
1.8715993E+002
 20
2.6513386E+001
 70
0
  0
VERTEX
  5
9d1
100
AcDbEntity
  8
5
100
AcDbVertex
100
AcDb2dVertex
 42
-1.283055E-002
 10
1.8702093E+002
 20
2.6566631E+001
 70
1
  0
VERTEX
  5
9d2
100
AcDbEntity
  8
5
100
AcDbVertex
100
AcDb2dVertex
 42
-1.2151106E-002
 10
1.8688505E+002
 20
2.6626492E+001
 70
0
  0
VERTEX
  5
9d3
100
AcDbEntity
  8
5
100
AcDbVertex
100
AcDb2dVertex
 42
-1.1613178E-002
 10
1.8675305E+002
 20
2.66925E+001
 70
1
  0
VERTEX
  5
9d4
100
AcDbEntity
  8
5
100
AcDbVertex
100
AcDb2dVertex
 42
-1.1007013E-002
 10
1.866253E+002
 20
2.6763663E+001
 70
0
  0
VERTEX
  5
9d5
100
AcDbEntity
  8
5
100
AcDbVertex
100
AcDb2dVertex
 42
-1.0605482E-002
 10
1.8650243E+002
 20
2.6839431E+001
 70
1
  0
VERTEX
  5
9d6
100
AcDbEntity
  8
5
100
AcDbVertex
100
AcDb2dVertex
 42
-1.0164079E-002
 10
1.8638448E+002
 20
2.691899E+001
 70
0
  0
VERTEX
  5
9d7
100
AcDbEntity
  8
5
100
AcDbVertex
100
AcDb2dVertex
 42
-9.730081E-003
 10
1.8627192E+002
 20
2.7001805E+001
 70
1
  0
VERTEX
  5
9d8
100
AcDbEntity
  8
5
100
AcDbVertex
100
AcDb2dVertex
 42
-9.1268663E-003
 10
1.8616493E+002
 20
2.7086813E+001
 70
0
  0
VERTEX
  5
9d9
100
AcDbEntity
  8
5
100
AcDbVertex
100
AcDb2dVertex
 42
-9.2101921E-003
 10
1.8606366E+002
 20
2.717364E+001
 70
1
  0
VERTEX
  5
9da
100
AcDbEntity
  8
5
100
AcDbVertex
100
AcDb2dVertex
 42
-9.1279447E-003
 10
1.8596543E+002
 20
2.7264258E+001
 70
0
  0
VERTEX
  5
9db
100
AcDbEntity
  8
5
100
AcDbVertex
100
AcDb2dVertex
 42
-8.9276587E-003
 10
1.8586791E+002
 20
2.7361098E+001
 70
1
  0
VERTEX
  5
9dc
100
AcDbEntity
  8
5
100
AcDbVertex
100
AcDb2dVertex
 42
-9.3939358E-003
 10
1.8577129E+002
 20
2.7464224E+001
 70
0
  0
VERTEX
  5
9dd
100
AcDbEntity
  8
5
100
AcDbVertex
100
AcDb2dVertex
 42
-9.663661E-003
 10
1.8567641E+002
 20
2.757379E+001
 70
1
  0
VERTEX
  5
9de
100
AcDbEntity
  8
5
100
AcDbVertex
100
AcDb2dVertex
 42
-9.962525E-003
 10
1.8558385E+002
 20
2.7689411E+001
 70
0
  0
VERTEX
  5
9df
100
AcDbEntity
  8
5
100
AcDbVertex
100
AcDb2dVertex
 42
-1.0206688E-002
 10
1.8549439E+002
 20
2.7811166E+001
 70
1
  0
VERTEX
  5
9e0
100
AcDbEntity
  8
5
100
AcDbVertex
100
AcDb2dVertex
 42
-1.0625985E-002
 10
1.8540863E+002
 20
2.7938501E+001
 70
0
  0
VERTEX
  5
9e1
100
AcDbEntity
  8
5
100
AcDbVertex
100
AcDb2dVertex
 42
-1.0963642E-002
 10
1.8532753E+002
 20
2.8071263E+001
 70
1
  0
VERTEX
  5
9e2
100
AcDbEntity
  8
5
100
AcDbVertex
100
AcDb2dVertex
 42
-1.1428022E-002
 10
1.8525165E+002
 20
2.8208734E+001
 70
0
  0
VERTEX
  5
9e3
100
AcDbEntity
  8
5
100
AcDbVertex
100
AcDb2dVertex
 42
-1.1854866E-002
 10
1.8518201E+002
 20
2.8350526E+001
 70
1
  0
VERTEX
  5
9e4
100
AcDbEntity
  8
5
100
AcDbVertex
100
AcDb2dVertex
 42
-1.2426708E-002
 10
1.8511908E+002
 20
2.8495787E+001
 70
0
  0
VERTEX
  5
9e5
100
AcDbEntity
  8
5
100
AcDbVertex
100
AcDb2dVertex
 42
-1.2924425E-002
 10
1.8506388E+002
 20
2.8643888E+001
 70
1
  0
VERTEX
  5
9e6
100
AcDbEntity
  8
5
100
AcDbVertex
100
AcDb2dVertex
 42
-1.3490027E-002
 10
1.8501671E+002
 20
2.8793834E+001
 70
0
  0
VERTEX
  5
9e7
100
AcDbEntity
  8
5
100
AcDbVertex
100
AcDb2dVertex
 42
-1.4217766E-002
 10
1.849785E+002
 20
2.8944765E+001
 70
1
  0
VERTEX
  5
9e8
100
AcDbEntity
  8
5
100
AcDbVertex
100
AcDb2dVertex
 42
-1.5196565E-002
 10
1.8494942E+002
 20
2.9095808E+001
 70
0
  0
VERTEX
  5
9e9
100
AcDbEntity
  8
5
100
AcDbVertex
100
AcDb2dVertex
 42
-1.5579972E-002
 10
1.8493032E+002
 20
2.9245995E+001
 70
1
  0
VERTEX
  5
9ea
100
AcDbEntity
  8
5
100
AcDbVertex
100
AcDb2dVertex
 42
-1.5413894E-002
 10
1.8492059E+002
 20
2.9393882E+001
 70
0
  0
VERTEX
  5
9eb
100
AcDbEntity
  8
5
100
AcDbVertex
100
AcDb2dVertex
 42
-1.7532022E-002
 10
1.8492068E+002
 20
2.95382E+001
 70
1
  0
VERTEX
  5
9ec
100
AcDbEntity
  8
5
100
AcDbVertex
100
AcDb2dVertex
 42
-2.1498082E-002
 10
1.8493172E+002
 20
2.9680093E+001
 70
0
  0
VERTEX
  5
9ed
100
AcDbEntity
  8
5
100
AcDbVertex
100
AcDb2dVertex
 42
-1.77971E-002
 10
1.8495457E+002
 20
2.9819142E+001
 70
1
  0
VERTEX
  5
9ee
100
AcDbEntity
  8
5
100
AcDbVertex
100
AcDb2dVertex
 42
-7.8224104E-003
 10
1.8498223E+002
 20
2.9947041E+001
 70
0
  0
VERTEX
  5
9ef
100
AcDbEntity
  8
5
100
AcDbVertex
100
AcDb2dVertex
 42
-2.4994184E-002
 10
1.8501253E+002
 20
3.0060136E+001
 70
1
  0
VERTEX
  5
9f0
100
AcDbEntity
  8
5
100
AcDbVertex
100
AcDb2dVertex
 42
-4.520104E-002
 10
1.8506952E+002
 20
3.0188508E+001
 70
0
  0
VERTEX
  5
9f1
100
AcDbEntity
  8
5
100
AcDbVertex
100
AcDb2dVertex
 42
-2.4144231E-002
 10
1.8517924E+002
 20
3.0363305E+001
 70
1
  0
VERTEX
  5
9f2
100
AcDbEntity
  8
5
100
AcDbVertex
100
AcDb2dVertex
 42
-1.3295277E-002
 10
1.8533621E+002
 20
3.057855E+001
 70
0
  0
SEQEND
  5
9f3
100
AcDbEntity
  0
ELLIPSE
  5
9f4
100
AcDbEntity
  8
5
100
AcDbEllipse
  6
CONTINUOUS
 10
1.8564847E+002
 20
2.7232331E+001
 11
3.5671708
 21
-3.7835555
 40
7.0710678E-001
 41
0.0
 42
6.2831853
 62
6
  0
LINE
  5
9f5
100
AcDbEntity
  8
3
100
AcDbLine
  6
CONTINUOUS
 62
1
 10
3.5407597E+002
 20
2.1423197E+002
 11
3.5707597E+002
 21
2.1423197E+002
  0
LINE
  5
9f6
100
AcDbEntity
  8
3
100
AcDbLine
  6
CONTINUOUS
 62
1
 10
3.5407597E+002
 20
2.3923197E+002
 11
3.5707597E+002
 21
2.3923197E+002
  0
LINE
  5
9f7
100
AcDbEntity
  8
3
100
AcDbLine
  6
CONTINUOUS
 62
1
 10
3.5407597E+002
 20
2.3923197E+002
 11
3.5407597E+002
 21
2.1423197E+002
  0
LINE
  5
9f8
100
AcDbEntity
  8
3
100
AcDbLine
  6
CONTINUOUS
 62
1
 10
3.5707597E+002
 20
2.1423197E+002
 11
3.5707597E+002
 21
2.3923197E+002
  0
LINE
  5
9f9
100
AcDbEntity
  8
4
100
AcDbLine
  6
CENTERLINE
 62
3
 10
1.5802307E+002
 20
1.3640754E+002
 11
1.5802307E+002
 21
1.474595E+002
  0
DIMENSION
  5
9fa
100
AcDbEntity
  8
2
100
AcDbDimension
  6
CONTINUOUS
 62
3
  2
*D1365
  3
DSTYLE3
 10
7.4023066E+001
 20
2.5641258E+002
 11
1.8005845E+002
 21
2.6053858E+002
 70
128
100
AcDbAlignedDimension
 13
2.7402307E+002
 23
2.3923197E+002
 14
7.4023066E+001
 24
2.3923197E+002
 40
3.0
 50
0.0
100
AcDbRotatedDimension
1001
ACAD
1000
DSTYLE
1002
{
1070
173
1070
0
1070
5
1000
_AH1
1070
47
1040
1.0E-001
1070
48
1040
-1.0E-001
1002
}
  0
DIMENSION
  5
9fb
100
AcDbEntity
  8
2
100
AcDbDimension
  6
CONTINUOUS
 62
3
  2
*D1366
  3
DSTYLE2
 10
6.4799076E+001
 20
2.3108197E+002
 11
6.1798076E+001
 21
2.4596798E+002
 70
129
100
AcDbAlignedDimension
 13
8.1023066E+001
 23
2.3638197E+002
 14
8.1023066E+001
 24
2.3108197E+002
 40
3.0
1001
ACAD
1000
DSTYLE
1002
{
1070
173
1070
0
1070
5
1000
_AH1
1002
}
  0
DIMENSION
  5
9fc
100
AcDbEntity
  8
2
100
AcDbDimension
  6
CONTINUOUS
 62
3
  2
*D1368
  3
DSTYLE2
 10
5.5624806E+001
 20
2.2853197E+002
 11
5.2623806E+001
 21
2.4840587E+002
 70
129
100
AcDbAlignedDimension
 13
8.1023066E+001
 23
2.3893197E+002
 14
8.1023066E+001
 24
2.2853197E+002
 40
3.0
1001
ACAD
1000
DSTYLE
1002
{
1070
173
1070
0
1070
5
1000
_AH1
1002
}
  0
INSERT
  5
9fd
100
AcDbEntity
100
AcDbBlockReference
  2
*D1369
  8
2
 62
3
 10
0.0
 20
0.0
  0
VIEWPORT
  5
9fe
100
AcDbEntity
 67
1
  8
0
  6
CONTINUOUS
 62
3
100
AcDbViewport
 10
2.1E+002
 20
1.485E+002
 30
0.0
 40
2.97E+002
 41
2.97E+002
 68
1
 69
1
1001
ACAD
1000
MVIEW
1002
{
1070
16
1010
0.0
1020
0.0
1030
0.0
1010
0.0
1020
0.0
1030
1.0
1040
0.0
1040
2.97E+002
1040
1.155E+002
1040
1.485E+002
1040
5.0E+001
1040
0.0
1040
0.0
1070
0
1070
1000
1070
1
1070
0
1070
0
1070
0
1070
0
1070
0
1040
0.0
1040
0.0
1040
0.0
1040
5.0E-001
1040
5.0E-001
1040
5.0E-001
1040
5.0E-001
1070
0
1002
{
1002
}
1002
}
  0
VIEWPORT
  5
9ff
100
AcDbEntity
 67
1
  8
0
  6
CONTINUOUS
 62
3
100
AcDbViewport
 10
2.1E+002
 20
1.485E+002
 30
0.0
 40
4.2E+002
 41
2.97E+002
 68
2
 69
2
1001
ACAD
1000
MVIEW
1002
{
1070
16
1010
0.0
1020
0.0
1030
0.0
1010
0.0
1020
0.0
1030
1.0
1040
0.0
1040
2.97E+002
1040
2.1E+002
1040
1.485E+002
1040
5.0E+001
1040
0.0
1040
0.0
1070
0
1070
1000
1070
1
1070
0
1070
0
1070
0
1070
0
1070
0
1040
0.0
1040
0.0
1040
0.0
1040
5.0E-001
1040
5.0E-001
1040
5.0E-001
1040
5.0E-001
1070
0
1002
{
1003
5
1003
4
1003
3
1003
2
1002
}
1002
}
  0
VIEWPORT
  5
a00
100
AcDbEntity
 67
1
  8
0
  6
CONTINUOUS
 62
3
100
AcDbViewport
 10
1.7402306E+002
 20
2.2673197E+002
 30
0.0
 40
2.8529742E+002
 41
1.2591572E+002
 68
3
 69
3
1001
ACAD
1000
MVIEW
1002
{
1070
16
1010
0.0
1020
0.0
1030
0.0
1010
0.0
1020
0.0
1030
1.0
1040
0.0
1040
1.2591572E+002
1040
1.7402306E+002
1040
2.2673197E+002
1040
5.0E+001
1040
0.0
1040
0.0
1070
0
1070
1000
1070
1
1070
0
1070
0
1070
0
1070
0
1070
0
1040
0.0
1040
0.0
1040
0.0
1040
5.0E-001
1040
5.0E-001
1040
5.0E-001
1040
5.0E-001
1070
0
1002
{
1003
5
1003
4
1003
3
1003
1
1002
}
1002
}
  0
VIEWPORT
  5
a01
100
AcDbEntity
 67
1
  8
0
  6
CONTINUOUS
 62
3
100
AcDbViewport
 10
3.5557597E+002
 20
2.2673197E+002
 30
0.0
 40
7.5696995E+001
 41
1.2591572E+002
 68
4
 69
4
1001
ACAD
1000
MVIEW
1002
{
1070
16
1010
0.0
1020
0.0
1030
0.0
1010
0.0
1020
0.0
1030
1.0
1040
0.0
1040
1.2591572E+002
1040
3.5557597E+002
1040
2.2673197E+002
1040
5.0E+001
1040
0.0
1040
0.0
1070
0
1070
1000
1070
1
1070
0
1070
0
1070
0
1070
0
1070
0
1040
0.0
1040
0.0
1040
0.0
1040
5.0E-001
1040
5.0E-001
1040
5.0E-001
1040
5.0E-001
1070
0
1002
{
1003
5
1003
4
1003
2
1003
1
1002
}
1002
}
  0
VIEWPORT
  5
a02
100
AcDbEntity
 67
1
  8
0
  6
CONTINUOUS
 62
3
100
AcDbViewport
 10
1.7402306E+002
 20
1.391332E+002
 30
0.0
 40
2.8529742E+002
 41
4.9281821E+001
 68
5
 69
5
1001
ACAD
1000
MVIEW
1002
{
1070
16
1010
0.0
1020
0.0
1030
0.0
1010
0.0
1020
0.0
1030
1.0
1040
0.0
1040
4.9281821E+001
1040
1.7402306E+002
1040
1.391332E+002
1040
5.0E+001
1040
0.0
1040
0.0
1070
0
1070
1000
1070
1
1070
0
1070
0
1070
0
1070
0
1070
0
1040
0.0
1040
0.0
1040
0.0
1040
5.0E-001
1040
5.0E-001
1040
5.0E-001
1040
5.0E-001
1070
0
1002
{
1003
5
1003
3
1003
2
1003
1
1002
}
1002
}
  0
VIEWPORT
  5
a03
100
AcDbEntity
 67
1
  8
0
  6
CONTINUOUS
 62
3
100
AcDbViewport
 10
1.3262968E+002
 20
4.9193932E+001
 30
0.0
 40
1.4056479E+002
 41
7.6471847E+001
 68
6
 69
6
1001
ACAD
1000
MVIEW
1002
{
1070
16
1010
0.0
1020
0.0
1030
0.0
1010
0.0
1020
0.0
1030
1.0
1040
0.0
1040
1.092455E+002
1040
1.0667336E+002
1040
6.0799261E+001
1040
5.0E+001
1040
0.0
1040
0.0
1070
0
1070
1000
1070
1
1070
0
1070
0
1070
0
1070
0
1070
0
1040
0.0
1040
0.0
1040
0.0
1040
5.0E-001
1040
5.0E-001
1040
5.0E-001
1040
5.0E-001
1070
0
1002
{
1003
4
1003
3
1003
2
1003
1
1002
}
1002
}
  0
ENDSEC
  0
SECTION
  2
OBJECTS
  0
DICTIONARY
  5
a04
100
AcDbDictionary
  3
ACAD_GROUP
350
a05
  3
ACAD_MLINESTYLE
350
a06
  0
DICTIONARY
  5
a05
102
{ACAD_REACTORS
330
a04
102
}
100
AcDbDictionary
  0
DICTIONARY
  5
a06
102
{ACAD_REACTORS
330
a04
102
}
100
AcDbDictionary
  3
STANDARD
350
a07
  0
MLINESTYLE
  5
a07
102
{ACAD_REACTORS
330
a06
102
}
100
AcDbMlineStyle
  2
STANDARD
 70
0
  3

 62
256
 51
9.0E+001
 52
9.0E+001
 71
2
 49
5.0E-001
 62
256
  6
BYLAYER
 49
-5.0E-001
 62
256
  6
BYLAYER
  0
ENDSEC
  0
EOF
