  0
SECTION
  2
HEADER
  9
$ACADVER
  1
AC1014
999
I-DEAS 11 NX Not Encoded
  9
$EXTMIN
 10
0.0
 20
0.0
  9
$EXTMAX
 10
2.97E+002
 20
2.1E+002
  9
$TEXTSIZE
 40
1.25E-001
  9
$LTSCALE
 40
1.0
  9
$CLAYER
  8
100
  9
$CECOLOR
 62
1
  9
$DIMASZ
 40
1.25E-001
  9
$DIMEXO
 40
6.25E-002
  9
$DIMDLI
 40
2.5E-001
  9
$DIMEXE
 40
1.25E-001
  9
$DIMTP
 40
5.0E-003
  9
$DIMTM
 40
-5.0E-003
  9
$DIMTXT
 40
3.0
  9
$DIMLIM
 70
0
  9
$DIMTIH
 70
1
  9
$DIMTOH
 70
1
  9
$DIMSE1
 70
0
  9
$DIMSE2
 70
0
  9
$DIMTAD
 70
0
  9
$DIMASO
 70
1
  9
$DIMALT
 70
0
  9
$DIMALTD
 70
0
  9
$DIMTOFL
 70
1
  9
$DIMTIX
 70
0
  9
$DIMSAH
 70
0
  9
$DIMTFAC
 40
1.0
  9
$DIMGAP
 40
6.25E-002
  9
$LUNITS
 70
2
  9
$LUPREC
 70
3
  9
$FILLETRAD
 40
1.0E+001
  9
$AUNITS
 70
0
  9
$AUPREC
 70
1
  9
$CHAMFERA
 40
6.0
  9
$CHAMFERB
 40
6.0
  9
$ANGBASE
 50
0.0
  9
$ANGDIR
 70
0
  9
$PEXTMIN
 10
0.0
 20
0.0
 30
0.0
  9
$PEXTMAX
 10
2.97E+002
 20
2.1E+002
 30
0.0
  9
$PLIMMIN
 10
0.0
 20
0.0
  9
$PLIMMAX
 10
2.97E+002
 20
2.1E+002
  9
$PDMODE
 70
2
  9
$PDSIZE
 40
-1.0E-002
  9
$SPLINETYPE
 70
6
  9
$TILEMODE
 70
0
  9
$HANDLING
 70
1
  9
$HANDSEED
  5
f4240
  0
ENDSEC
  0
SECTION
  2
TABLES
  0
TABLE
  2
VPORT
  5
64
100
AcDbSymbolTable
 70
2
  0
VPORT
  5
65
100
AcDbSymbolTableRecord
100
AcDbViewportTableRecord
  2
*Active
 70
0
 10
0.0
 20
0.0
 11
2.97E+002
 21
2.1E+002
 12
1.485E+002
 22
1.05E+002
 13
0.0
 23
0.0
 14
1.0
 24
1.0
 15
0.0
 25
0.0
 16
0.0
 26
0.0
 36
1.0
 17
0.0
 27
0.0
 37
0.0
 40
2.1E+002
 41
1.4142857
 42
5.0E+001
 43
0.0
 44
0.0
 50
0.0
 51
0.0
 71
0
 72
1000
 73
1
 74
3
 75
0
 76
0
 77
0
 78
0
  0
ENDTAB
  0
TABLE
  2
LTYPE
  5
66
100
AcDbSymbolTable
 70
7
  0
LTYPE
  5
67
100
AcDbSymbolTableRecord
100
AcDbLinetypeTableRecord
  2
BYBLOCK
 70
0
  3

 72
65
 73
0
 40
0.0
  0
LTYPE
  5
68
100
AcDbSymbolTableRecord
100
AcDbLinetypeTableRecord
  2
BYLAYER
 70
0
  3

 72
65
 73
0
 40
0.0
  0
LTYPE
  5
69
100
AcDbSymbolTableRecord
100
AcDbLinetypeTableRecord
  2
CONTINUOUS
 70
0
  3

 72
65
 73
0
 40
0.0
  0
LTYPE
  5
6a
100
AcDbSymbolTableRecord
100
AcDbLinetypeTableRecord
  2
HIDDENNEW0
  3
_ 
 70
64
 72
65
 73
3
 40
4.5
 49
1.5
 74
0
 49
-1.5
 74
0
 49
1.5
 74
0
  0
LTYPE
  5
6b
100
AcDbSymbolTableRecord
100
AcDbLinetypeTableRecord
  2
HIDDENNEW1
  3
_ 
 70
64
 72
65
 73
3
 40
4.5
 49
1.5
 74
0
 49
-1.5
 74
0
 49
1.5
 74
0
  0
LTYPE
  5
6c
100
AcDbSymbolTableRecord
100
AcDbLinetypeTableRecord
  2
HIDDEN
  3
_ 
 70
64
 72
65
 73
3
 40
4.5
 49
1.5
 74
0
 49
-1.5
 74
0
 49
1.5
 74
0
  0
LTYPE
  5
6d
100
AcDbSymbolTableRecord
100
AcDbLinetypeTableRecord
  2
CENTERLINE
  3
_ 
 70
64
 72
65
 73
5
 40
3.0E+001
 49
1.2E+001
 74
0
 49
-1.5
 74
0
 49
3.0
 74
0
 49
-1.5
 74
0
 49
1.2E+001
 74
0
  0
LTYPE
  5
6e
100
AcDbSymbolTableRecord
100
AcDbLinetypeTableRecord
  2
PHANTOM
  3
_ 
 70
64
 72
65
 73
7
 40
2.95E+001
 49
9.5
 74
0
 49
-1.5
 74
0
 49
3.0
 74
0
 49
-1.5
 74
0
 49
3.0
 74
0
 49
-1.5
 74
0
 49
9.5
 74
0
  0
LTYPE
  5
6f
100
AcDbSymbolTableRecord
100
AcDbLinetypeTableRecord
  2
SHORT_DASH
  3
_ 
 70
64
 72
65
 73
3
 40
3.0
 49
7.5E-001
 74
0
 49
-1.5
 74
0
 49
7.5E-001
 74
0
  0
LTYPE
  5
70
100
AcDbSymbolTableRecord
100
AcDbLinetypeTableRecord
  2
LONG_DASH
  3
_ 
 70
64
 72
65
 73
3
 40
9.0
 49
2.25
 74
0
 49
-4.5
 74
0
 49
2.25
 74
0
  0
ENDTAB
  0
TABLE
  2
LAYER
  5
71
100
AcDbSymbolTable
 70
258
  0
LAYER
  5
72
100
AcDbSymbolTableRecord
100
AcDbLayerTableRecord
  2
0
 70
0
 62
-7
  6
CONTINUOUS
  0
LAYER
  5
73
100
AcDbSymbolTableRecord
100
AcDbLayerTableRecord
  2
1
 70
0
 62
7
  6
CONTINUOUS
  0
LAYER
  5
74
100
AcDbSymbolTableRecord
100
AcDbLayerTableRecord
  2
2
 70
0
 62
7
  6
CONTINUOUS
  0
LAYER
  5
75
100
AcDbSymbolTableRecord
100
AcDbLayerTableRecord
  2
3
 70
0
 62
7
  6
CONTINUOUS
  0
LAYER
  5
76
100
AcDbSymbolTableRecord
100
AcDbLayerTableRecord
  2
4
 70
0
 62
7
  6
CONTINUOUS
  0
LAYER
  5
77
100
AcDbSymbolTableRecord
100
AcDbLayerTableRecord
  2
5
 70
0
 62
7
  6
CONTINUOUS
  0
LAYER
  5
78
100
AcDbSymbolTableRecord
100
AcDbLayerTableRecord
  2
Drafting_Hidden_Entities
 70
1
 62
7
  6
CONTINUOUS
  0
ENDTAB
  0
TABLE
  2
STYLE
  5
79
100
AcDbSymbolTable
 70
1
  0
STYLE
  5
7a
100
AcDbSymbolTableRecord
100
AcDbTextStyleTableRecord
  2
STANDARD
 70
64
 40
0.0
 41
1.0
 50
0.0
 71
0
 42
1.0
  3
monotxt.shx
  4

  0
ENDTAB
  0
TABLE
  2
VIEW
  5
7b
100
AcDbSymbolTable
 70
0
  0
ENDTAB
  0
TABLE
  2
UCS
  5
7c
100
AcDbSymbolTable
 70
0
  0
ENDTAB
  0
TABLE
  2
APPID
  5
7d
100
AcDbSymbolTable
 70
1
  0
APPID
  5
7e
100
AcDbSymbolTableRecord
100
AcDbRegAppTableRecord
  2
ACAD
 70
1
  0
ENDTAB
  0
TABLE
  2
DIMSTYLE
  5
7f
100
AcDbSymbolTable
 70
4
  0
DIMSTYLE
105
80
100
AcDbSymbolTableRecord
100
AcDbDimStyleTableRecord
  2
DSTYLE1
 70
0
  3

  4

  5

  6

  7

 40
1.0
 41
3.0
 42
0.0
 43
3.8E-001
 44
3.0
 45
1.0E-002
 46
0.0
 47
1.0E-001
 48
1.0E-001
 71
0
 72
0
 73
0
 74
0
 75
0
 76
0
 77
1
 78
11
140
3.0
141
9.0E-002
142
0.0
143
3.9370079E-002
144
1.0
145
0.0
146
1.0
147
1.5
170
0
171
2
172
0
173
0
174
0
175
0
176
0
177
0
178
0
270
2
271
2
272
4
273
2
274
2
275
0
280
0
281
0
282
0
283
1
284
0
285
0
286
0
287
3
288
0
  0
DIMSTYLE
105
81
100
AcDbSymbolTableRecord
100
AcDbDimStyleTableRecord
  2
DSTYLE2
 70
0
  3

  4

  5

  6

  7

 40
1.0
 41
3.0
 42
0.0
 43
3.8E-001
 44
3.0
 45
1.0E-002
 46
0.0
 47
0.0
 48
3.0E-001
 71
1
 72
0
 73
0
 74
0
 75
0
 76
0
 77
1
 78
11
140
3.0
141
9.0E-002
142
0.0
143
3.9370079E-002
144
1.0
145
0.0
146
1.0
147
1.5
170
0
171
2
172
0
173
0
174
0
175
0
176
0
177
0
178
0
270
2
271
2
272
4
273
2
274
2
275
0
280
0
281
0
282
0
283
1
284
0
285
0
286
0
287
3
288
0
  0
DIMSTYLE
105
82
100
AcDbSymbolTableRecord
100
AcDbDimStyleTableRecord
  2
DSTYLE3
 70
0
  3

  4

  5

  6

  7

 40
1.0
 41
3.0
 42
0.0
 43
3.8E-001
 44
3.0
 45
1.0E-002
 46
0.0
 47
2.0E-001
 48
1.0E-001
 71
1
 72
0
 73
0
 74
0
 75
0
 76
0
 77
1
 78
11
140
3.0
141
9.0E-002
142
0.0
143
3.9370079E-002
144
1.0
145
0.0
146
1.0
147
1.5
170
0
171
2
172
0
173
0
174
0
175
0
176
0
177
0
178
0
270
2
271
2
272
4
273
2
274
2
275
0
280
0
281
0
282
0
283
1
284
0
285
0
286
0
287
3
288
0
  0
DIMSTYLE
105
83
100
AcDbSymbolTableRecord
100
AcDbDimStyleTableRecord
  2
DSTYLE4
 70
0
  3

  4

  5

  6

  7

 40
1.0
 41
2.0
 42
0.0
 43
3.8E-001
 44
5.0
 45
0.0
 46
0.0
 47
0.0
 48
0.0
 71
0
 72
0
 73
1
 74
1
 75
1
 76
0
 77
1
 78
3
140
3.0
141
9.0E-002
142
0.0
143
1.0
144
1.0
145
0.0
146
1.0
147
1.5
170
0
171
2
172
0
173
0
174
0
175
0
176
0
177
0
178
0
270
2
271
0
272
4
273
2
274
2
275
0
280
0
281
0
282
0
283
1
284
0
285
0
286
0
287
3
288
0
  0
ENDTAB
  0
TABLE
  2
BLOCK_RECORD
  5
84
100
AcDbSymbolTable
 70
0
  0
BLOCK_RECORD
  5
85
100
AcDbSymbolTableRecord
100
AcDbBlockTableRecord
  2
*MODEL_SPACE
  0
BLOCK_RECORD
  5
86
100
AcDbSymbolTableRecord
100
AcDbBlockTableRecord
  2
*PAPER_SPACE
  0
BLOCK_RECORD
  5
87
100
AcDbSymbolTableRecord
100
AcDbBlockTableRecord
  2
*D120
  0
BLOCK_RECORD
  5
88
100
AcDbSymbolTableRecord
100
AcDbBlockTableRecord
  2
*D121
  0
BLOCK_RECORD
  5
89
100
AcDbSymbolTableRecord
100
AcDbBlockTableRecord
  2
*D122
  0
BLOCK_RECORD
  5
8a
100
AcDbSymbolTableRecord
100
AcDbBlockTableRecord
  2
*D123
  0
BLOCK_RECORD
  5
8b
100
AcDbSymbolTableRecord
100
AcDbBlockTableRecord
  2
*D124
  0
BLOCK_RECORD
  5
8c
100
AcDbSymbolTableRecord
100
AcDbBlockTableRecord
  2
*D125
  0
BLOCK_RECORD
  5
8d
100
AcDbSymbolTableRecord
100
AcDbBlockTableRecord
  2
*D126
  0
BLOCK_RECORD
  5
8e
100
AcDbSymbolTableRecord
100
AcDbBlockTableRecord
  2
*D175
  0
BLOCK_RECORD
  5
8f
100
AcDbSymbolTableRecord
100
AcDbBlockTableRecord
  2
*D1697
  0
BLOCK_RECORD
  5
90
100
AcDbSymbolTableRecord
100
AcDbBlockTableRecord
  2
*D1698
  0
BLOCK_RECORD
  5
91
100
AcDbSymbolTableRecord
100
AcDbBlockTableRecord
  2
*D1699
  0
BLOCK_RECORD
  5
92
100
AcDbSymbolTableRecord
100
AcDbBlockTableRecord
  2
_AH1
  0
BLOCK_RECORD
  5
93
100
AcDbSymbolTableRecord
100
AcDbBlockTableRecord
  2
_AH2
  0
BLOCK_RECORD
  5
94
100
AcDbSymbolTableRecord
100
AcDbBlockTableRecord
  2
_AH12
  3
_AH
  0
BLOCK_RECORD
  5
95
100
AcDbSymbolTableRecord
100
AcDbBlockTableRecord
  2
_AH13
  3
_AH
  0
BLOCK_RECORD
  5
96
100
AcDbSymbolTableRecord
100
AcDbBlockTableRecord
  2
_AH14
  3
_AH
  0
BLOCK_RECORD
  5
97
100
AcDbSymbolTableRecord
100
AcDbBlockTableRecord
  2
_AH15
  3
_AH
  0
BLOCK_RECORD
  5
98
100
AcDbSymbolTableRecord
100
AcDbBlockTableRecord
  2
_AH16
  3
_AH
  0
BLOCK_RECORD
  5
99
100
AcDbSymbolTableRecord
100
AcDbBlockTableRecord
  2
_AH17
  3
_AH
  0
BLOCK_RECORD
  5
9a
100
AcDbSymbolTableRecord
100
AcDbBlockTableRecord
  2
_AH18
  3
_AH
  0
BLOCK_RECORD
  5
9b
100
AcDbSymbolTableRecord
100
AcDbBlockTableRecord
  2
_AH19
  3
_AH
  0
BLOCK_RECORD
  5
9c
100
AcDbSymbolTableRecord
100
AcDbBlockTableRecord
  2
_AH20
  3
_AH
  0
BLOCK_RECORD
  5
9d
100
AcDbSymbolTableRecord
100
AcDbBlockTableRecord
  2
_AH21
  3
_AH
  0
BLOCK_RECORD
  5
9e
100
AcDbSymbolTableRecord
100
AcDbBlockTableRecord
  2
A4
  0
BLOCK_RECORD
  5
9f
100
AcDbSymbolTableRecord
100
AcDbBlockTableRecord
  2
ASSANEW00
  0
BLOCK_RECORD
  5
a0
100
AcDbSymbolTableRecord
100
AcDbBlockTableRecord
  2
ENGL
  0
BLOCK_RECORD
  5
a1
100
AcDbSymbolTableRecord
100
AcDbBlockTableRecord
  2
M11
  0
BLOCK_RECORD
  5
a2
100
AcDbSymbolTableRecord
100
AcDbBlockTableRecord
  2
ASSA
  0
BLOCK_RECORD
  5
a3
100
AcDbSymbolTableRecord
100
AcDbBlockTableRecord
  2
*TX262
  3
*TX
  0
BLOCK_RECORD
  5
a4
100
AcDbSymbolTableRecord
100
AcDbBlockTableRecord
  2
*TX263
  3
*TX
  0
BLOCK_RECORD
  5
a5
100
AcDbSymbolTableRecord
100
AcDbBlockTableRecord
  2
*TX264
  3
*TX
  0
BLOCK_RECORD
  5
a6
100
AcDbSymbolTableRecord
100
AcDbBlockTableRecord
  2
*TX265
  3
*TX
  0
BLOCK_RECORD
  5
a7
100
AcDbSymbolTableRecord
100
AcDbBlockTableRecord
  2
*TX266
  3
*TX
  0
BLOCK_RECORD
  5
a8
100
AcDbSymbolTableRecord
100
AcDbBlockTableRecord
  2
*TX267
  3
*TX
  0
BLOCK_RECORD
  5
a9
100
AcDbSymbolTableRecord
100
AcDbBlockTableRecord
  2
*TX268
  3
*TX
  0
BLOCK_RECORD
  5
aa
100
AcDbSymbolTableRecord
100
AcDbBlockTableRecord
  2
*TX269
  3
*TX
  0
BLOCK_RECORD
  5
ab
100
AcDbSymbolTableRecord
100
AcDbBlockTableRecord
  2
*TX270
  3
*TX
  0
BLOCK_RECORD
  5
ac
100
AcDbSymbolTableRecord
100
AcDbBlockTableRecord
  2
*TX271
  3
*TX
  0
ENDTAB
  0
ENDSEC
  0
SECTION
  2
BLOCKS
  0
BLOCK
  5
ad
100
AcDbEntity
100
AcDbBlockBegin
  2
*MODEL_SPACE
 70
0
 10
0.0
 20
0.0
 30
0.0
  3
*MODEL_SPACE
  1

  0
ENDBLK
  5
ae
100
AcDbEntity
100
AcDbBlockEnd
  0
BLOCK
  5
af
100
AcDbEntity
100
AcDbBlockBegin
  2
*PAPER_SPACE
 70
0
 10
0.0
 20
0.0
 30
0.0
  3
*PAPER_SPACE
  1

  0
ENDBLK
  5
b0
100
AcDbEntity
100
AcDbBlockEnd
  0
BLOCK
  5
b1
100
AcDbEntity
100
AcDbBlockBegin
  2
_AH12
  3
_AH
 10
0.0
 20
0.0
 70
64
  0
LINE
  5
b2
100
AcDbEntity
  8
0
100
AcDbLine
  6
CONTINUOUS
 62
0
 10
0.0
 20
0.0
 11
1.0
 21
0.0
  0
LINE
  5
b3
100
AcDbEntity
  8
0
100
AcDbLine
  6
CONTINUOUS
 62
0
 10
0.0
 20
0.0
 11
-1.0
 21
0.0
  0
ENDBLK
  5
b4
100
AcDbEntity
100
AcDbBlockEnd
  0
BLOCK
  5
b5
100
AcDbEntity
100
AcDbBlockBegin
  2
_AH13
  3
_AH
 10
0.0
 20
0.0
 70
64
  0
SOLID
  5
b6
100
AcDbEntity
  8
0
100
AcDbTrace
  6
CONTINUOUS
 62
0
 10
0.0
 20
0.0
 11
1.0
 21
-1.66667E-001
 12
1.0
 22
1.66667E-001
 13
0.0
 23
0.0
  0
ENDBLK
  5
b7
100
AcDbEntity
100
AcDbBlockEnd
  0
BLOCK
  5
b8
100
AcDbEntity
100
AcDbBlockBegin
  2
_AH14
  3
_AH
 10
0.0
 20
0.0
 70
64
  0
ENDBLK
  5
b9
100
AcDbEntity
100
AcDbBlockEnd
  0
BLOCK
  5
ba
100
AcDbEntity
100
AcDbBlockBegin
  2
_AH15
  3
_AH
 10
0.0
 20
0.0
 70
64
  0
CIRCLE
  5
bb
100
AcDbEntity
  8
0
100
AcDbCircle
  6
CONTINUOUS
 62
0
 10
0.0
 20
0.0
 40
1.66667E-001
  0
LINE
  5
bc
100
AcDbEntity
  8
0
100
AcDbLine
  6
CONTINUOUS
 62
0
 10
0.0
 20
0.0
 11
-1.0
 21
0.0
  0
ENDBLK
  5
bd
100
AcDbEntity
100
AcDbBlockEnd
  0
BLOCK
  5
be
100
AcDbEntity
100
AcDbBlockBegin
  2
_AH16
  3
_AH
 10
0.0
 20
0.0
 70
64
  0
POLYLINE
  5
bf
100
AcDbEntity
  8
0
100
AcDb2dPolyline
  6
CONTINUOUS
 62
0
 66
1
 40
1.66667E-001
 41
1.66667E-001
 70
0
  0
VERTEX
  5
c0
100
AcDbEntity
  8
0
100
AcDbVertex
100
AcDb2dVertex
 42
1.0
 10
8.3335E-002
 20
0.0
 70
0
  0
VERTEX
  5
c1
100
AcDbEntity
  8
0
100
AcDbVertex
100
AcDb2dVertex
 42
1.0
 10
-8.3335E-002
 20
0.0
 70
0
  0
VERTEX
  5
c2
100
AcDbEntity
  8
0
100
AcDbVertex
100
AcDb2dVertex
 42
0.0
 10
8.3335E-002
 20
0.0
 70
0
  0
SEQEND
  5
c3
100
AcDbEntity
  0
LINE
  5
c4
100
AcDbEntity
  8
0
100
AcDbLine
  6
CONTINUOUS
 62
0
 10
0.0
 20
0.0
 11
-1.0
 21
0.0
  0
ENDBLK
  5
c5
100
AcDbEntity
100
AcDbBlockEnd
  0
BLOCK
  5
c6
100
AcDbEntity
100
AcDbBlockBegin
  2
_AH17
  3
_AH
 10
0.0
 20
0.0
 70
64
  0
LINE
  5
c7
100
AcDbEntity
  8
0
100
AcDbLine
  6
CONTINUOUS
 62
0
 10
-1.66667E-001
 20
-1.66667E-001
 11
1.66667E-001
 21
-1.66667E-001
  0
LINE
  5
c8
100
AcDbEntity
  8
0
100
AcDbLine
  6
CONTINUOUS
 62
0
 10
1.66667E-001
 20
-1.66667E-001
 11
1.66667E-001
 21
1.66667E-001
  0
LINE
  5
c9
100
AcDbEntity
  8
0
100
AcDbLine
  6
CONTINUOUS
 62
0
 10
1.66667E-001
 20
1.66667E-001
 11
-1.66667E-001
 21
1.66667E-001
  0
LINE
  5
ca
100
AcDbEntity
  8
0
100
AcDbLine
  6
CONTINUOUS
 62
0
 10
-1.66667E-001
 20
1.66667E-001
 11
-1.66667E-001
 21
-1.66667E-001
  0
LINE
  5
cb
100
AcDbEntity
  8
0
100
AcDbLine
  6
CONTINUOUS
 62
0
 10
0.0
 20
0.0
 11
-1.0
 21
0.0
  0
ENDBLK
  5
cc
100
AcDbEntity
100
AcDbBlockEnd
  0
BLOCK
  5
cd
100
AcDbEntity
100
AcDbBlockBegin
  2
_AH18
  3
_AH
 10
0.0
 20
0.0
 70
64
  0
SOLID
  5
ce
100
AcDbEntity
  8
0
100
AcDbTrace
  6
CONTINUOUS
 62
0
 10
-1.66667E-001
 20
-1.66667E-001
 11
1.66667E-001
 21
-1.66667E-001
 12
-1.66667E-001
 22
1.66667E-001
 13
1.66667E-001
 23
1.66667E-001
  0
LINE
  5
cf
100
AcDbEntity
  8
0
100
AcDbLine
  6
CONTINUOUS
 62
0
 10
0.0
 20
0.0
 11
-1.0
 21
0.0
  0
ENDBLK
  5
d0
100
AcDbEntity
100
AcDbBlockEnd
  0
BLOCK
  5
d1
100
AcDbEntity
100
AcDbBlockBegin
  2
_AH19
  3
_AH
 10
0.0
 20
0.0
 70
64
  0
LINE
  5
d2
100
AcDbEntity
  8
0
100
AcDbLine
  6
CONTINUOUS
 62
0
 10
-5.0E-001
 20
-5.0E-001
 11
5.0E-001
 21
5.0E-001
  0
LINE
  5
d3
100
AcDbEntity
  8
0
100
AcDbLine
  6
CONTINUOUS
 62
0
 10
0.0
 20
0.0
 11
-1.0
 21
0.0
  0
ENDBLK
  5
d4
100
AcDbEntity
100
AcDbBlockEnd
  0
BLOCK
  5
d5
100
AcDbEntity
100
AcDbBlockBegin
  2
_AH20
  3
_AH
 10
0.0
 20
0.0
 70
64
  0
POLYLINE
  5
d6
100
AcDbEntity
  8
0
100
AcDb2dPolyline
  6
CONTINUOUS
 62
0
 66
1
 40
5.0E-001
 41
5.0E-001
 70
0
  0
VERTEX
  5
d7
100
AcDbEntity
  8
0
100
AcDbVertex
100
AcDb2dVertex
 42
4.1421356E-001
 10
-1.66667E-001
 20
-1.66667E-001
 70
0
  0
VERTEX
  5
d8
100
AcDbEntity
  8
0
100
AcDbVertex
100
AcDb2dVertex
 42
0.0
 10
0.0
 20
0.0
 70
0
  0
SEQEND
  5
d9
100
AcDbEntity
  0
POLYLINE
  5
da
100
AcDbEntity
  8
0
100
AcDb2dPolyline
  6
CONTINUOUS
 62
0
 66
1
 40
5.0E-001
 41
5.0E-001
 70
0
  0
VERTEX
  5
db
100
AcDbEntity
  8
0
100
AcDbVertex
100
AcDb2dVertex
 42
4.1421356E-001
 10
1.66667E-001
 20
1.66667E-001
 70
0
  0
VERTEX
  5
dc
100
AcDbEntity
  8
0
100
AcDbVertex
100
AcDb2dVertex
 42
0.0
 10
0.0
 20
0.0
 70
0
  0
SEQEND
  5
dd
100
AcDbEntity
  0
LINE
  5
de
100
AcDbEntity
  8
0
100
AcDbLine
  6
CONTINUOUS
 62
0
 10
0.0
 20
0.0
 11
-1.0
 21
0.0
  0
ENDBLK
  5
df
100
AcDbEntity
100
AcDbBlockEnd
  0
BLOCK
  5
e0
100
AcDbEntity
100
AcDbBlockBegin
  2
_AH21
  3
_AH
 10
0.0
 20
0.0
 70
64
  0
LINE
  5
e1
100
AcDbEntity
  8
0
100
AcDbLine
  6
CONTINUOUS
 62
0
 10
0.0
 20
0.0
 11
-1.0
 21
-1.66667E-001
  0
LINE
  5
e2
100
AcDbEntity
  8
0
100
AcDbLine
  6
CONTINUOUS
 62
0
 10
-1.0
 20
-1.66667E-001
 11
-1.0
 21
1.66667E-001
  0
LINE
  5
e3
100
AcDbEntity
  8
0
100
AcDbLine
  6
CONTINUOUS
 62
0
 10
-1.0
 20
1.66667E-001
 11
0.0
 21
0.0
  0
ENDBLK
  5
e4
100
AcDbEntity
100
AcDbBlockEnd
  0
BLOCK
  5
e5
100
AcDbEntity
100
AcDbBlockBegin
  2
A4
 10
0.0
 20
0.0
 70
0
  0
ATTDEF
  5
e6
100
AcDbEntity
  8
1
100
AcDbText
  6
CONTINUOUS
 62
6
 10
2.5007431E+002
 20
3.4889971E+001
 40
4.0
  1
 
 41
7.0E-001
 72
1
 11
2.4867431E+002
 21
3.4889971E+001
100
AcDbAttributeDefinition
  3
1
  2
1
 70
0
  0
ATTDEF
  5
e7
100
AcDbEntity
  8
1
100
AcDbText
  6
CONTINUOUS
 62
6
 10
2.5007431E+002
 20
2.3778525E+001
 40
4.0
  1
 
 41
7.0E-001
 72
1
 11
2.4867431E+002
 21
2.3778525E+001
100
AcDbAttributeDefinition
  3
2
  2
2
 70
0
  0
ATTDEF
  5
e8
100
AcDbEntity
  8
1
100
AcDbText
  6
CONTINUOUS
 62
6
 10
2.4372431E+002
 20
1.0458917E+001
 40
4.0
  1
 
 41
7.0E-001
 72
1
 11
2.4232431E+002
 21
1.0458917E+001
100
AcDbAttributeDefinition
  3
3
  2
3
 70
0
  0
ATTDEF
  5
e9
100
AcDbEntity
  8
1
100
AcDbText
  6
CONTINUOUS
 62
6
 10
2.5972431E+002
 20
4.96425E+001
 40
3.0
  1
 
 41
7.0E-001
 72
1
 11
2.5867431E+002
 21
4.96425E+001
100
AcDbAttributeDefinition
  3
4
  2
4
 70
0
  0
ATTDEF
  5
ea
100
AcDbEntity
  8
1
100
AcDbText
  6
CONTINUOUS
 62
6
 10
2.5972431E+002
 20
4.4355E+001
 40
3.0
  1
 
 41
7.0E-001
 72
1
 11
2.5867431E+002
 21
4.4355E+001
100
AcDbAttributeDefinition
  3
5
  2
5
 70
0
  0
ATTDEF
  5
eb
100
AcDbEntity
  8
1
100
AcDbText
  6
CONTINUOUS
 62
6
 10
2.7512431E+002
 20
5.51425E+001
 40
3.0
  1
 
 41
7.0E-001
 72
1
 11
2.7407431E+002
 21
5.51425E+001
100
AcDbAttributeDefinition
  3
6
  2
6
 70
0
  0
ATTDEF
  5
ec
100
AcDbEntity
  8
1
100
AcDbText
  6
CONTINUOUS
 62
6
 10
1.7004883E+002
 20
5.92056
 40
2.5
  1
 
 41
7.0E-001
100
AcDbAttributeDefinition
  3
7
  2
7
 70
0
  0
ATTDEF
  5
ed
100
AcDbEntity
  8
1
100
AcDbText
  6
CONTINUOUS
 62
6
 10
2.1322883E+002
 20
5.92056
 40
2.5
  1
 
 41
7.0E-001
100
AcDbAttributeDefinition
  3
8
  2
8
 70
0
  0
ATTDEF
  5
ee
100
AcDbEntity
  8
1
100
AcDbText
  6
CONTINUOUS
 62
6
 10
1.6373365E+002
 20
3.9889149E+001
 40
2.0
  1
 
 41
7.0E-001
100
AcDbAttributeDefinition
  3
9
  2
9
 70
0
  0
ATTDEF
  5
ef
100
AcDbEntity
  8
1
100
AcDbText
  6
CONTINUOUS
 62
6
 10
1.7347431E+002
 20
3.54075E+001
 40
2.2
  1
 
 41
7.0E-001
100
AcDbAttributeDefinition
  3
10
  2
10
 70
0
  0
ATTDEF
  5
f0
100
AcDbEntity
  8
1
100
AcDbText
  6
CONTINUOUS
 62
6
 10
1.8871431E+002
 20
3.54075E+001
 40
2.2
  1
 
 41
7.0E-001
100
AcDbAttributeDefinition
  3
11
  2
11
 70
0
  0
ATTDEF
  5
f1
100
AcDbEntity
  8
1
100
AcDbText
  6
CONTINUOUS
 62
6
 10
1.7347431E+002
 20
3.11775E+001
 40
2.2
  1
 
 41
7.0E-001
100
AcDbAttributeDefinition
  3
12
  2
12
 70
0
  0
ATTDEF
  5
f2
100
AcDbEntity
  8
1
100
AcDbText
  6
CONTINUOUS
 62
6
 10
1.8871431E+002
 20
3.11775E+001
 40
2.2
  1
 
 41
7.0E-001
100
AcDbAttributeDefinition
  3
13
  2
13
 70
0
  0
ATTDEF
  5
f3
100
AcDbEntity
  8
1
100
AcDbText
  6
CONTINUOUS
 62
6
 10
1.7347431E+002
 20
2.69475E+001
 40
2.2
  1
 
 41
7.0E-001
100
AcDbAttributeDefinition
  3
14
  2
14
 70
0
  0
ATTDEF
  5
f4
100
AcDbEntity
  8
1
100
AcDbText
  6
CONTINUOUS
 62
6
 10
1.8871431E+002
 20
2.69475E+001
 40
2.2
  1
 
 41
7.0E-001
100
AcDbAttributeDefinition
  3
15
  2
15
 70
0
  0
ATTDEF
  5
f5
100
AcDbEntity
  8
1
100
AcDbText
  6
CONTINUOUS
 62
6
 10
1.7347431E+002
 20
2.27175E+001
 40
2.2
  1
 
 41
7.0E-001
100
AcDbAttributeDefinition
  3
16
  2
16
 70
0
  0
ATTDEF
  5
f6
100
AcDbEntity
  8
1
100
AcDbText
  6
CONTINUOUS
 62
6
 10
2.5163673E+002
 20
2.9500496E+001
 40
4.0
  1
17
 41
7.0E-001
 72
1
 11
2.4883673E+002
 21
2.9500496E+001
100
AcDbAttributeDefinition
  3
17
  2
17
 70
0
  0
ATTDEF
  5
f7
100
AcDbEntity
  8
1
100
AcDbText
  6
CONTINUOUS
 62
6
 10
2.8472753E+002
 20
3.8535527E+001
 40
1.0
  1
 
100
AcDbAttributeDefinition
  3
18
  2
18
 70
0
  0
ATTDEF
  5
f8
100
AcDbEntity
  8
1
100
AcDbText
  6
CONTINUOUS
 62
6
 10
2.8472753E+002
 20
3.7035527E+001
 40
1.0
  1
 
100
AcDbAttributeDefinition
  3
19
  2
19
 70
0
  0
ATTDEF
  5
f9
100
AcDbEntity
  8
1
100
AcDbText
  6
CONTINUOUS
 62
6
 10
2.8472753E+002
 20
3.5535527E+001
 40
1.0
  1
 
100
AcDbAttributeDefinition
  3
20
  2
20
 70
0
  0
ATTDEF
  5
fa
100
AcDbEntity
  8
1
100
AcDbText
  6
CONTINUOUS
 62
6
 10
1.0997431E+002
 20
3.96375E+001
 40
2.0
  1
 
 41
7.0E-001
100
AcDbAttributeDefinition
  3
21
  2
21
 70
0
  0
ATTDEF
  5
fb
100
AcDbEntity
  8
1
100
AcDbText
  6
CONTINUOUS
 62
6
 10
1.1759431E+002
 20
3.96375E+001
 40
2.0
  1
 
 41
7.0E-001
100
AcDbAttributeDefinition
  3
22
  2
22
 70
0
  0
ATTDEF
  5
fc
100
AcDbEntity
  8
1
100
AcDbText
  6
CONTINUOUS
 62
6
 10
1.4299431E+002
 20
3.96375E+001
 40
2.0
  1
 
 41
7.0E-001
100
AcDbAttributeDefinition
  3
23
  2
23
 70
0
  0
ATTDEF
  5
fd
100
AcDbEntity
  8
1
100
AcDbText
  6
CONTINUOUS
 62
6
 10
1.5519431E+002
 20
3.96375E+001
 40
2.0
  1
 
 41
7.0E-001
100
AcDbAttributeDefinition
  3
24
  2
24
 70
0
  0
ATTDEF
  5
fe
100
AcDbEntity
  8
1
100
AcDbText
  6
CONTINUOUS
 62
6
 10
1.0997431E+002
 20
3.54075E+001
 40
2.0
  1
 
 41
7.0E-001
100
AcDbAttributeDefinition
  3
25
  2
25
 70
0
  0
ATTDEF
  5
ff
100
AcDbEntity
  8
1
100
AcDbText
  6
CONTINUOUS
 62
6
 10
1.1759431E+002
 20
3.54075E+001
 40
2.0
  1
 
 41
7.0E-001
100
AcDbAttributeDefinition
  3
26
  2
26
 70
0
  0
ATTDEF
  5
100
100
AcDbEntity
  8
1
100
AcDbText
  6
CONTINUOUS
 62
6
 10
1.4299431E+002
 20
3.54075E+001
 40
2.0
  1
 
 41
7.0E-001
100
AcDbAttributeDefinition
  3
27
  2
27
 70
0
  0
ATTDEF
  5
101
100
AcDbEntity
  8
1
100
AcDbText
  6
CONTINUOUS
 62
6
 10
1.5519431E+002
 20
3.54075E+001
 40
2.0
  1
 
 41
7.0E-001
100
AcDbAttributeDefinition
  3
28
  2
28
 70
0
  0
ATTDEF
  5
102
100
AcDbEntity
  8
1
100
AcDbText
  6
CONTINUOUS
 62
6
 10
1.0997431E+002
 20
3.11775E+001
 40
2.0
  1
 
 41
7.0E-001
100
AcDbAttributeDefinition
  3
29
  2
29
 70
0
  0
ATTDEF
  5
103
100
AcDbEntity
  8
1
100
AcDbText
  6
CONTINUOUS
 62
6
 10
1.1759431E+002
 20
3.11775E+001
 40
2.0
  1
 
 41
7.0E-001
100
AcDbAttributeDefinition
  3
30
  2
30
 70
0
  0
ATTDEF
  5
104
100
AcDbEntity
  8
1
100
AcDbText
  6
CONTINUOUS
 62
6
 10
1.4299431E+002
 20
3.11775E+001
 40
2.0
  1
 
 41
7.0E-001
100
AcDbAttributeDefinition
  3
31
  2
31
 70
0
  0
ATTDEF
  5
105
100
AcDbEntity
  8
1
100
AcDbText
  6
CONTINUOUS
 62
6
 10
1.5519431E+002
 20
3.11775E+001
 40
2.0
  1
 
 41
7.0E-001
100
AcDbAttributeDefinition
  3
32
  2
32
 70
0
  0
ATTDEF
  5
106
100
AcDbEntity
  8
1
100
AcDbText
  6
CONTINUOUS
 62
6
 10
1.0997431E+002
 20
2.69475E+001
 40
2.0
  1
 
 41
7.0E-001
100
AcDbAttributeDefinition
  3
33
  2
33
 70
0
  0
ATTDEF
  5
107
100
AcDbEntity
  8
1
100
AcDbText
  6
CONTINUOUS
 62
6
 10
1.1759431E+002
 20
2.69475E+001
 40
2.0
  1
 
 41
7.0E-001
100
AcDbAttributeDefinition
  3
34
  2
34
 70
0
  0
ATTDEF
  5
108
100
AcDbEntity
  8
1
100
AcDbText
  6
CONTINUOUS
 62
6
 10
1.4299431E+002
 20
2.69475E+001
 40
2.0
  1
 
 41
7.0E-001
100
AcDbAttributeDefinition
  3
35
  2
35
 70
0
  0
ATTDEF
  5
109
100
AcDbEntity
  8
1
100
AcDbText
  6
CONTINUOUS
 62
6
 10
1.5519431E+002
 20
2.69475E+001
 40
2.0
  1
 
 41
7.0E-001
100
AcDbAttributeDefinition
  3
36
  2
36
 70
0
  0
ATTDEF
  5
10a
100
AcDbEntity
  8
1
100
AcDbText
  6
CONTINUOUS
 62
6
 10
1.0997431E+002
 20
2.27175E+001
 40
2.0
  1
 
 41
7.0E-001
100
AcDbAttributeDefinition
  3
37
  2
37
 70
0
  0
ATTDEF
  5
10b
100
AcDbEntity
  8
1
100
AcDbText
  6
CONTINUOUS
 62
6
 10
1.1759431E+002
 20
2.27175E+001
 40
2.0
  1
 
 41
7.0E-001
100
AcDbAttributeDefinition
  3
38
  2
38
 70
0
  0
ATTDEF
  5
10c
100
AcDbEntity
  8
1
100
AcDbText
  6
CONTINUOUS
 62
6
 10
1.4299431E+002
 20
2.27175E+001
 40
2.0
  1
 
 41
7.0E-001
100
AcDbAttributeDefinition
  3
39
  2
39
 70
0
  0
ATTDEF
  5
10d
100
AcDbEntity
  8
1
100
AcDbText
  6
CONTINUOUS
 62
6
 10
1.5519431E+002
 20
2.27175E+001
 40
2.0
  1
 
 41
7.0E-001
100
AcDbAttributeDefinition
  3
40
  2
40
 70
0
  0
ATTDEF
  5
10e
100
AcDbEntity
  8
1
100
AcDbText
  6
CONTINUOUS
 62
6
 10
1.0997431E+002
 20
1.84875E+001
 40
2.0
  1
 
 41
7.0E-001
100
AcDbAttributeDefinition
  3
41
  2
41
 70
0
  0
ATTDEF
  5
10f
100
AcDbEntity
  8
1
100
AcDbText
  6
CONTINUOUS
 62
6
 10
1.1759431E+002
 20
1.84875E+001
 40
2.0
  1
 
 41
7.0E-001
100
AcDbAttributeDefinition
  3
42
  2
42
 70
0
  0
ATTDEF
  5
110
100
AcDbEntity
  8
1
100
AcDbText
  6
CONTINUOUS
 62
6
 10
1.4299431E+002
 20
1.84875E+001
 40
2.0
  1
 
 41
7.0E-001
100
AcDbAttributeDefinition
  3
43
  2
43
 70
0
  0
ATTDEF
  5
111
100
AcDbEntity
  8
1
100
AcDbText
  6
CONTINUOUS
 62
6
 10
1.5519431E+002
 20
1.84875E+001
 40
2.0
  1
 
 41
7.0E-001
100
AcDbAttributeDefinition
  3
44
  2
44
 70
0
  0
ATTDEF
  5
112
100
AcDbEntity
  8
1
100
AcDbText
  6
CONTINUOUS
 62
6
 10
1.0997431E+002
 20
1.42575E+001
 40
2.0
  1
 
 41
7.0E-001
100
AcDbAttributeDefinition
  3
45
  2
45
 70
0
  0
ATTDEF
  5
113
100
AcDbEntity
  8
1
100
AcDbText
  6
CONTINUOUS
 62
6
 10
1.1759431E+002
 20
1.42575E+001
 40
2.0
  1
 
 41
7.0E-001
100
AcDbAttributeDefinition
  3
46
  2
46
 70
0
  0
ATTDEF
  5
114
100
AcDbEntity
  8
1
100
AcDbText
  6
CONTINUOUS
 62
6
 10
1.4299431E+002
 20
1.42575E+001
 40
2.0
  1
 
 41
7.0E-001
100
AcDbAttributeDefinition
  3
47
  2
47
 70
0
  0
ATTDEF
  5
115
100
AcDbEntity
  8
1
100
AcDbText
  6
CONTINUOUS
 62
6
 10
1.5519431E+002
 20
1.42575E+001
 40
2.0
  1
 
 41
7.0E-001
100
AcDbAttributeDefinition
  3
48
  2
48
 70
0
  0
ATTDEF
  5
116
100
AcDbEntity
  8
1
100
AcDbText
  6
CONTINUOUS
 62
6
 10
1.0997431E+002
 20
1.00275E+001
 40
2.0
  1
 
 41
7.0E-001
100
AcDbAttributeDefinition
  3
49
  2
49
 70
0
  0
ATTDEF
  5
117
100
AcDbEntity
  8
1
100
AcDbText
  6
CONTINUOUS
 62
6
 10
1.1759431E+002
 20
1.00275E+001
 40
2.0
  1
 
 41
7.0E-001
100
AcDbAttributeDefinition
  3
50
  2
50
 70
0
  0
ATTDEF
  5
118
100
AcDbEntity
  8
1
100
AcDbText
  6
CONTINUOUS
 62
6
 10
1.4299431E+002
 20
1.00275E+001
 40
2.0
  1
 
 41
7.0E-001
100
AcDbAttributeDefinition
  3
51
  2
51
 70
0
  0
ATTDEF
  5
119
100
AcDbEntity
  8
1
100
AcDbText
  6
CONTINUOUS
 62
6
 10
1.5519431E+002
 20
1.00275E+001
 40
2.0
  1
 
 41
7.0E-001
100
AcDbAttributeDefinition
  3
52
  2
52
 70
0
  0
POLYLINE
  5
11a
100
AcDbEntity
  8
1
100
AcDb2dPolyline
  6
CONTINUOUS
 62
2
 66
1
 40
5.0E-001
 41
5.0E-001
 70
0
  0
VERTEX
  5
11b
100
AcDbEntity
  8
1
100
AcDbVertex
100
AcDb2dVertex
 42
0.0
 10
4.9975
 20
4.9975
 70
0
  0
VERTEX
  5
11c
100
AcDbEntity
  8
1
100
AcDbVertex
100
AcDb2dVertex
 42
0.0
 10
2.91854E+002
 20
4.9975
 70
0
  0
SEQEND
  5
11d
100
AcDbEntity
  0
LINE
  5
11e
100
AcDbEntity
  8
1
100
AcDbLine
  6
CONTINUOUS
 62
2
 10
2.9675155E+002
 20
9.995E-002
 11
2.9675155E+002
 21
2.0979505E+002
  0
LINE
  5
11f
100
AcDbEntity
  8
1
100
AcDbLine
  6
CONTINUOUS
 62
2
 10
2.9675155E+002
 20
2.0979505E+002
 11
9.995E-002
 21
2.0979505E+002
  0
LINE
  5
120
100
AcDbEntity
  8
1
100
AcDbLine
  6
CONTINUOUS
 62
2
 10
9.995E-002
 20
2.0979505E+002
 11
9.995E-002
 21
9.995E-002
  0
LINE
  5
121
100
AcDbEntity
  8
1
100
AcDbLine
  6
CONTINUOUS
 62
2
 10
9.995E-002
 20
9.995E-002
 11
2.9675155E+002
 21
9.995E-002
  0
POLYLINE
  5
122
100
AcDbEntity
  8
1
100
AcDb2dPolyline
  6
CONTINUOUS
 62
2
 66
1
 40
5.0E-001
 41
5.0E-001
 70
0
  0
VERTEX
  5
123
100
AcDbEntity
  8
1
100
AcDbVertex
100
AcDb2dVertex
 42
0.0
 10
2.91854E+002
 20
4.9975
 70
0
  0
VERTEX
  5
124
100
AcDbEntity
  8
1
100
AcDbVertex
100
AcDb2dVertex
 42
0.0
 10
2.91854E+002
 20
2.048975E+002
 70
0
  0
SEQEND
  5
125
100
AcDbEntity
  0
POLYLINE
  5
126
100
AcDbEntity
  8
1
100
AcDb2dPolyline
  6
CONTINUOUS
 62
2
 66
1
 40
5.0E-001
 41
5.0E-001
 70
0
  0
VERTEX
  5
127
100
AcDbEntity
  8
1
100
AcDbVertex
100
AcDb2dVertex
 42
0.0
 10
2.91854E+002
 20
2.048975E+002
 70
0
  0
VERTEX
  5
128
100
AcDbEntity
  8
1
100
AcDbVertex
100
AcDb2dVertex
 42
0.0
 10
4.9975
 20
2.048975E+002
 70
0
  0
SEQEND
  5
129
100
AcDbEntity
  0
POLYLINE
  5
12a
100
AcDbEntity
  8
1
100
AcDb2dPolyline
  6
CONTINUOUS
 62
2
 66
1
 40
5.0E-001
 41
5.0E-001
 70
0
  0
VERTEX
  5
12b
100
AcDbEntity
  8
1
100
AcDbVertex
100
AcDb2dVertex
 42
0.0
 10
4.9975
 20
2.048975E+002
 70
0
  0
VERTEX
  5
12c
100
AcDbEntity
  8
1
100
AcDbVertex
100
AcDb2dVertex
 42
0.0
 10
4.9975
 20
4.9975
 70
0
  0
SEQEND
  5
12d
100
AcDbEntity
  0
LINE
  5
12e
100
AcDbEntity
  8
1
100
AcDbLine
  6
CONTINUOUS
 62
2
 10
1.4842575E+002
 20
9.995E-002
 11
1.4842575E+002
 21
4.9975
  0
LINE
  5
12f
100
AcDbEntity
  8
1
100
AcDbLine
  6
CONTINUOUS
 62
2
 10
2.9675155E+002
 20
1.049475E+002
 11
2.91854E+002
 21
1.049475E+002
  0
POINT
  5
130
100
AcDbEntity
  8
1
100
AcDbPoint
  6
CONTINUOUS
 62
2
 10
0.0
 20
0.0
  0
LINE
  5
131
100
AcDbEntity
  8
1
100
AcDbLine
  6
CONTINUOUS
 62
2
 10
1.4842575E+002
 20
2.048975E+002
 11
1.4842575E+002
 21
2.0979505E+002
  0
LINE
  5
132
100
AcDbEntity
  8
1
100
AcDbLine
  6
CONTINUOUS
 62
2
 10
4.9975
 20
1.049475E+002
 11
9.995E-002
 21
1.049475E+002
  0
POLYLINE
  5
133
100
AcDbEntity
  8
1
100
AcDb2dPolyline
  6
CONTINUOUS
 62
2
 66
1
 40
5.0E-001
 41
5.0E-001
 70
0
  0
VERTEX
  5
134
100
AcDbEntity
  8
1
100
AcDbVertex
100
AcDb2dVertex
 42
0.0
 10
1.0897418E+002
 20
5.998734E+001
 70
0
  0
VERTEX
  5
135
100
AcDbEntity
  8
1
100
AcDbVertex
100
AcDb2dVertex
 42
0.0
 10
2.9185369E+002
 20
5.998734E+001
 70
0
  0
SEQEND
  5
136
100
AcDbEntity
  0
POLYLINE
  5
137
100
AcDbEntity
  8
1
100
AcDb2dPolyline
  6
CONTINUOUS
 62
2
 66
1
 40
5.0E-001
 41
5.0E-001
 70
0
  0
VERTEX
  5
138
100
AcDbEntity
  8
1
100
AcDbVertex
100
AcDb2dVertex
 42
0.0
 10
1.0897418E+002
 20
5.998734E+001
 70
0
  0
VERTEX
  5
139
100
AcDbEntity
  8
1
100
AcDbVertex
100
AcDb2dVertex
 42
0.0
 10
1.0897418E+002
 20
4.9977919
 70
0
  0
SEQEND
  5
13a
100
AcDbEntity
  0
POLYLINE
  5
13b
100
AcDbEntity
  8
1
100
AcDb2dPolyline
  6
CONTINUOUS
 62
2
 66
1
 40
5.0E-001
 41
5.0E-001
 70
0
  0
VERTEX
  5
13c
100
AcDbEntity
  8
1
100
AcDbVertex
100
AcDb2dVertex
 42
0.0
 10
2.91854E+002
 20
4.30675E+001
 70
0
  0
VERTEX
  5
13d
100
AcDbEntity
  8
1
100
AcDbVertex
100
AcDb2dVertex
 42
0.0
 10
1.08974E+002
 20
4.30675E+001
 70
0
  0
SEQEND
  5
13e
100
AcDbEntity
  0
POLYLINE
  5
13f
100
AcDbEntity
  8
1
100
AcDb2dPolyline
  6
CONTINUOUS
 62
2
 66
1
 40
5.0E-001
 41
5.0E-001
 70
0
  0
VERTEX
  5
140
100
AcDbEntity
  8
1
100
AcDbVertex
100
AcDb2dVertex
 42
0.0
 10
1.62314E+002
 20
2.19175E+001
 70
0
  0
VERTEX
  5
141
100
AcDbEntity
  8
1
100
AcDbVertex
100
AcDb2dVertex
 42
0.0
 10
2.91854E+002
 20
2.19175E+001
 70
0
  0
SEQEND
  5
142
100
AcDbEntity
  0
POLYLINE
  5
143
100
AcDbEntity
  8
1
100
AcDb2dPolyline
  6
CONTINUOUS
 62
2
 66
1
 40
5.0E-001
 41
5.0E-001
 70
0
  0
VERTEX
  5
144
100
AcDbEntity
  8
1
100
AcDbVertex
100
AcDb2dVertex
 42
0.0
 10
2.79154E+002
 20
2.19175E+001
 70
0
  0
VERTEX
  5
145
100
AcDbEntity
  8
1
100
AcDbVertex
100
AcDb2dVertex
 42
0.0
 10
2.79154E+002
 20
9.2275
 70
0
  0
SEQEND
  5
146
100
AcDbEntity
  0
POLYLINE
  5
147
100
AcDbEntity
  8
1
100
AcDb2dPolyline
  6
CONTINUOUS
 62
2
 66
1
 40
5.0E-001
 41
5.0E-001
 70
0
  0
VERTEX
  5
148
100
AcDbEntity
  8
1
100
AcDbVertex
100
AcDb2dVertex
 42
0.0
 10
2.05494E+002
 20
4.9975
 70
0
  0
VERTEX
  5
149
100
AcDbEntity
  8
1
100
AcDbVertex
100
AcDb2dVertex
 42
0.0
 10
2.05494E+002
 20
5.99875E+001
 70
0
  0
SEQEND
  5
14a
100
AcDbEntity
  0
POLYLINE
  5
14b
100
AcDbEntity
  8
1
100
AcDb2dPolyline
  6
CONTINUOUS
 62
2
 66
1
 40
5.0E-001
 41
5.0E-001
 70
0
  0
VERTEX
  5
14c
100
AcDbEntity
  8
1
100
AcDbVertex
100
AcDb2dVertex
 42
0.0
 10
1.62314E+002
 20
5.99875E+001
 70
0
  0
VERTEX
  5
14d
100
AcDbEntity
  8
1
100
AcDbVertex
100
AcDb2dVertex
 42
0.0
 10
1.62314E+002
 20
4.9975
 70
0
  0
SEQEND
  5
14e
100
AcDbEntity
  0
LINE
  5
14f
100
AcDbEntity
  8
1
100
AcDbLine
  6
CONTINUOUS
 62
150
 10
1.08974E+002
 20
9.2275
 11
2.91854E+002
 21
9.2275
  0
LINE
  5
150
100
AcDbEntity
  8
1
100
AcDbLine
  6
CONTINUOUS
 62
150
 10
2.91854E+002
 20
1.34575E+001
 11
2.79154E+002
 21
1.34575E+001
  0
LINE
  5
151
100
AcDbEntity
  8
1
100
AcDbLine
  6
CONTINUOUS
 62
150
 10
1.62314E+002
 20
1.34575E+001
 11
1.08974E+002
 21
1.34575E+001
  0
LINE
  5
152
100
AcDbEntity
  8
1
100
AcDbLine
  6
CONTINUOUS
 62
150
 10
1.08974E+002
 20
1.76875E+001
 11
1.62314E+002
 21
1.76875E+001
  0
LINE
  5
153
100
AcDbEntity
  8
1
100
AcDbLine
  6
CONTINUOUS
 62
150
 10
1.62314E+002
 20
2.19175E+001
 11
1.08974E+002
 21
2.19175E+001
  0
LINE
  5
154
100
AcDbEntity
  8
1
100
AcDbLine
  6
CONTINUOUS
 62
150
 10
1.08974E+002
 20
2.61475E+001
 11
2.05494E+002
 21
2.61475E+001
  0
LINE
  5
155
100
AcDbEntity
  8
1
100
AcDbLine
  6
CONTINUOUS
 62
150
 10
2.05494E+002
 20
3.03775E+001
 11
1.08974E+002
 21
3.03775E+001
  0
LINE
  5
156
100
AcDbEntity
  8
1
100
AcDbLine
  6
CONTINUOUS
 62
150
 10
1.08974E+002
 20
3.46075E+001
 11
2.05494E+002
 21
3.46075E+001
  0
LINE
  5
157
100
AcDbEntity
  8
1
100
AcDbLine
  6
CONTINUOUS
 62
150
 10
2.05494E+002
 20
3.88375E+001
 11
1.08974E+002
 21
3.88375E+001
  0
LINE
  5
158
100
AcDbEntity
  8
1
100
AcDbLine
  6
CONTINUOUS
 62
150
 10
2.05494E+002
 20
5.36425E+001
 11
2.91854E+002
 21
5.36425E+001
  0
LINE
  5
159
100
AcDbEntity
  8
1
100
AcDbLine
  6
CONTINUOUS
 62
150
 10
2.56294E+002
 20
5.99875E+001
 11
2.56294E+002
 21
5.36425E+001
  0
LINE
  5
15a
100
AcDbEntity
  8
1
100
AcDbLine
  6
CONTINUOUS
 62
150
 10
2.48674E+002
 20
9.2275
 11
2.48674E+002
 21
4.9975
  0
LINE
  5
15b
100
AcDbEntity
  8
1
100
AcDbLine
  6
CONTINUOUS
 62
150
 10
1.87714E+002
 20
2.19175E+001
 11
1.87714E+002
 21
5.99875E+001
  0
LINE
  5
15c
100
AcDbEntity
  8
1
100
AcDbLine
  6
CONTINUOUS
 62
150
 10
1.72474E+002
 20
4.30675E+001
 11
1.72474E+002
 21
2.19175E+001
  0
LINE
  5
15d
100
AcDbEntity
  8
1
100
AcDbLine
  6
CONTINUOUS
 62
150
 10
1.54694E+002
 20
4.9975
 11
1.54694E+002
 21
4.30675E+001
  0
LINE
  5
15e
100
AcDbEntity
  8
1
100
AcDbLine
  6
CONTINUOUS
 62
150
 10
1.41994E+002
 20
4.30675E+001
 11
1.41994E+002
 21
4.9975
  0
LINE
  5
15f
100
AcDbEntity
  8
1
100
AcDbLine
  6
CONTINUOUS
 62
150
 10
1.16594E+002
 20
4.9975
 11
1.16594E+002
 21
4.30675E+001
  0
LINE
  5
160
100
AcDbEntity
  8
1
100
AcDbLine
  6
CONTINUOUS
 62
150
 10
2.19975E+001
 20
2.048975E+002
 11
2.19975E+001
 21
4.9975
  0
INSERT
  5
161
100
AcDbEntity
100
AcDbBlockReference
  2
ASSANEW00
  8
1
 10
1.6189726E+002
 20
6.029866
  0
INSERT
  5
162
100
AcDbEntity
100
AcDbBlockReference
  2
ENGL
  8
1
 10
2.91854E+002
 20
4.9975
  0
POINT
  5
163
100
AcDbEntity
  8
1
100
AcDbPoint
  6
CONTINUOUS
 62
1
 10
2.91854E+002
 20
4.9975
  0
POINT
  5
164
100
AcDbEntity
  8
Drafting_Hidden_Entities
100
AcDbPoint
  6
CONTINUOUS
 62
1
 10
0.0
 20
0.0
  0
ENDBLK
  5
165
100
AcDbEntity
100
AcDbBlockEnd
  0
BLOCK
  5
166
100
AcDbEntity
100
AcDbBlockBegin
  2
ASSANEW00
 10
0.0
 20
0.0
 70
0
  0
LINE
  5
167
100
AcDbEntity
  8
100
100
AcDbLine
  6
CONTINUOUS
 62
2
 10
2.3522184
 20
1.5317271E+001
 11
2.3522184
 21
6.1264705
  0
LINE
  5
168
100
AcDbEntity
  8
100
100
AcDbLine
  6
CONTINUOUS
 62
2
 10
1.1543046E+001
 20
1.5317271E+001
 11
2.3522184
 21
1.5317271E+001
  0
LINE
  5
169
100
AcDbEntity
  8
100
100
AcDbLine
  6
CONTINUOUS
 62
2
 10
1.1543046E+001
 20
6.1264705
 11
1.1543046E+001
 21
1.5317271E+001
  0
LINE
  5
16a
100
AcDbEntity
  8
100
100
AcDbLine
  6
CONTINUOUS
 62
2
 10
1.1083534E+001
 20
6.5860035
 11
1.1083534E+001
 21
1.4857738E+001
  0
LINE
  5
16b
100
AcDbEntity
  8
100
100
AcDbLine
  6
CONTINUOUS
 62
2
 10
1.1083534E+001
 20
1.4857738E+001
 11
2.8117864
 21
1.4857738E+001
  0
LINE
  5
16c
100
AcDbEntity
  8
100
100
AcDbLine
  6
CONTINUOUS
 62
1
 10
3.366157
 20
9.0031884
 11
3.366157
 21
9.7990882
  0
LINE
  5
16d
100
AcDbEntity
  8
100
100
AcDbLine
  6
CONTINUOUS
 62
2
 10
2.8117864
 20
1.4857738E+001
 11
2.8117864
 21
6.5860035
  0
LINE
  5
16e
100
AcDbEntity
  8
100
100
AcDbLine
  6
CONTINUOUS
 62
2
 10
2.8117864
 20
6.5860035
 11
1.1083534E+001
 21
6.5860035
  0
LINE
  5
16f
100
AcDbEntity
  8
100
100
AcDbLine
  6
CONTINUOUS
 62
2
 10
2.3522184
 20
6.1264705
 11
1.1543046E+001
 21
6.1264705
  0
LINE
  5
170
100
AcDbEntity
  8
100
100
AcDbLine
  6
CONTINUOUS
 62
1
 10
4.6155594
 20
9.6602992
 11
2.8117864
 21
8.8194173
  0
LINE
  5
171
100
AcDbEntity
  8
100
100
AcDbLine
  6
CONTINUOUS
 62
1
 10
3.5500123
 20
1.016675E+001
 11
3.5500123
 21
9.1640793
  0
LINE
  5
172
100
AcDbEntity
  8
100
100
AcDbLine
  6
CONTINUOUS
 62
1
 10
3.7338115
 20
1.0263235E+001
 11
3.7338115
 21
9.2494507
  0
ARC
  5
173
100
AcDbEntity
  8
100
100
AcDbCircle
  6
CONTINUOUS
 62
1
 10
3.8257251
 20
9.7990882
 40
4.5953753E-001
100
AcDbArc
 50
1.1500681E+002
 51
1.8E+002
  0
LINE
  5
174
100
AcDbEntity
  8
100
100
AcDbLine
  6
CONTINUOUS
 62
1
 10
3.631492
 20
1.0215427E+001
 11
4.2233068
 21
1.0492108E+001
  0
ARC
  5
175
100
AcDbEntity
  8
100
100
AcDbCircle
  6
CONTINUOUS
 62
1
 10
4.3398467
 20
1.0242143E+001
 40
2.7571278E-001
100
AcDbArc
 50
0.0
 51
1.14997E+002
  0
LINE
  5
176
100
AcDbEntity
  8
100
100
AcDbLine
  6
CONTINUOUS
 62
1
 10
4.6155594
 20
9.6602992
 11
4.6155594
 21
1.0242143E+001
  0
LINE
  5
177
100
AcDbEntity
  8
100
100
AcDbLine
  6
CONTINUOUS
 62
1
 10
4.2479611
 20
1.0503095E+001
 11
4.2479611
 21
9.4894372
  0
LINE
  5
178
100
AcDbEntity
  8
100
100
AcDbLine
  6
CONTINUOUS
 62
1
 10
4.4317603
 20
9.5748086
 11
4.4317603
 21
1.0501307E+001
  0
ARC
  5
179
100
AcDbEntity
  8
100
100
AcDbCircle
  6
CONTINUOUS
 62
1
 10
3.6418698
 20
9.0031884
 40
2.7572995E-001
100
AcDbArc
 50
1.8E+002
 51
2.9508511E+002
  0
LINE
  5
17a
100
AcDbEntity
  8
100
100
AcDbLine
  6
CONTINUOUS
 62
1
 10
8.4646838
 20
1.0947938E+001
 11
3.7584096
 21
8.7541213
  0
LINE
  5
17b
100
AcDbEntity
  8
100
100
AcDbLine
  6
CONTINUOUS
 62
1
 10
6.7008512
 20
1.1140019E+001
 11
4.7994147
 21
1.0253138E+001
  0
LINE
  5
17c
100
AcDbEntity
  8
100
100
AcDbLine
  6
CONTINUOUS
 62
1
 10
5.0751275
 20
1.109782E+001
 11
5.0751275
 21
8.3717697
  0
LINE
  5
17d
100
AcDbEntity
  8
100
100
AcDbLine
  6
CONTINUOUS
 62
1
 10
5.2588986
 20
1.1509566E+001
 11
5.2588986
 21
8.175994
  0
LINE
  5
17e
100
AcDbEntity
  8
100
100
AcDbLine
  6
CONTINUOUS
 62
1
 10
5.4083389
 20
1.1279796E+001
 11
5.4083389
 21
8.5537527
  0
LINE
  5
17f
100
AcDbEntity
  8
100
100
AcDbLine
  6
CONTINUOUS
 62
1
 10
6.2413673
 20
1.1667652E+001
 11
6.2413673
 21
8.9416088
  0
LINE
  5
180
100
AcDbEntity
  8
100
100
AcDbLine
  6
CONTINUOUS
 62
1
 10
6.057512
 20
8.5307533
 11
6.057512
 21
1.1864319E+001
  0
ARC
  5
181
100
AcDbEntity
  8
100
100
AcDbCircle
  6
CONTINUOUS
 62
1
 10
6.6089376
 20
1.1667652E+001
 40
3.6762675E-001
100
AcDbArc
 50
9.9286249E+001
 51
1.8E+002
  0
ARC
  5
182
100
AcDbEntity
  8
100
100
AcDbCircle
  6
CONTINUOUS
 62
1
 10
6.4595815
 20
1.1486567E+001
 40
5.5145542E-001
100
AcDbArc
 50
8.0603552E+001
 51
1.8E+002
  0
LINE
  5
183
100
AcDbEntity
  8
100
100
AcDbLine
  6
CONTINUOUS
 62
1
 10
5.9080998
 20
1.1486567E+001
 11
5.9080998
 21
8.7605163
  0
ARC
  5
184
100
AcDbEntity
  8
100
100
AcDbCircle
  6
CONTINUOUS
 62
1
 10
5.7760214
 20
1.1279796E+001
 40
3.6763313E-001
100
AcDbArc
 50
9.9325427E+001
 51
1.8E+002
  0
ARC
  5
185
100
AcDbEntity
  8
100
100
AcDbCircle
  6
CONTINUOUS
 62
1
 10
5.6265531
 20
1.109782E+001
 40
5.5145542E-001
100
AcDbArc
 50
8.0603552E+001
 51
1.8E+002
  0
ARC
  5
186
100
AcDbEntity
  8
100
100
AcDbCircle
  6
CONTINUOUS
 62
1
 10
4.7074731
 20
8.3717697
 40
3.6764041E-001
100
AcDbArc
 50
2.7E+002
 51
3.6E+002
  0
ARC
  5
187
100
AcDbEntity
  8
100
100
AcDbCircle
  6
CONTINUOUS
 62
1
 10
4.8569133
 20
8.5537527
 40
5.5145306E-001
100
AcDbArc
 50
2.6060319E+002
 51
3.6E+002
  0
ARC
  5
188
100
AcDbEntity
  8
100
100
AcDbCircle
  6
CONTINUOUS
 62
1
 10
5.5405015
 20
8.7605163
 40
3.6762642E-001
100
AcDbArc
 50
2.7E+002
 51
3.6E+002
  0
ARC
  5
189
100
AcDbEntity
  8
100
100
AcDbCircle
  6
CONTINUOUS
 62
1
 10
5.6898857
 20
8.9416088
 40
5.5145087E-001
100
AcDbArc
 50
2.606093E+002
 51
3.6E+002
  0
LINE
  5
18a
100
AcDbEntity
  8
100
100
AcDbLine
  6
CONTINUOUS
 62
1
 10
7.2151972
 20
1.0291718E+001
 11
7.2151972
 21
1.1086727E+001
  0
LINE
  5
18b
100
AcDbEntity
  8
100
100
AcDbLine
  6
CONTINUOUS
 62
1
 10
7.3990525
 20
1.1454382E+001
 11
7.3990525
 21
1.0451718E+001
  0
LINE
  5
18c
100
AcDbEntity
  8
100
100
AcDbLine
  6
CONTINUOUS
 62
1
 10
7.5828516
 20
1.1550867E+001
 11
7.5828516
 21
1.0537083E+001
  0
LINE
  5
18d
100
AcDbEntity
  8
100
100
AcDbLine
  6
CONTINUOUS
 62
1
 10
8.0970293
 20
1.1790734E+001
 11
8.0970293
 21
1.0777076E+001
  0
LINE
  5
18e
100
AcDbEntity
  8
100
100
AcDbLine
  6
CONTINUOUS
 62
1
 10
8.2808846
 20
1.0862441E+001
 11
8.2808846
 21
1.1789837E+001
  0
LINE
  5
18f
100
AcDbEntity
  8
100
100
AcDbLine
  6
CONTINUOUS
 62
1
 10
8.4646838
 20
1.0947938E+001
 11
8.4646838
 21
1.1529761E+001
  0
ARC
  5
190
100
AcDbEntity
  8
100
100
AcDbCircle
  6
CONTINUOUS
 62
1
 10
8.188971
 20
1.1529761E+001
 40
2.7571278E-001
100
AcDbArc
 50
0.0
 51
1.1499049E+002
  0
LINE
  5
191
100
AcDbEntity
  8
100
100
AcDbLine
  6
CONTINUOUS
 62
1
 10
7.4805322
 20
1.1503059E+001
 11
8.0724031
 21
1.177974E+001
  0
ARC
  5
192
100
AcDbEntity
  8
100
100
AcDbCircle
  6
CONTINUOUS
 62
1
 10
7.6747652
 20
1.1086727E+001
 40
4.5954345E-001
100
AcDbArc
 50
1.1501034E+002
 51
1.8E+002
  0
LINE
  5
193
100
AcDbEntity
  8
100
100
AcDbLine
  6
CONTINUOUS
 62
1
 10
7.6074498
 20
1.0041753E+001
 11
1.1083534E+001
 21
1.1662043E+001
  0
ARC
  5
194
100
AcDbEntity
  8
100
100
AcDbCircle
  6
CONTINUOUS
 62
1
 10
7.49091
 20
1.0291718E+001
 40
2.7573404E-001
100
AcDbArc
 50
1.8E+002
 51
2.9499577E+002
  0
ARC
  5
195
100
AcDbEntity
  8
100
100
AcDbCircle
  6
CONTINUOUS
 62
1
 10
9.4756493
 20
1.238635E+001
 40
5.5145071E-001
100
AcDbArc
 50
8.0591814E+001
 51
1.8E+002
  0
ARC
  5
196
100
AcDbEntity
  8
100
100
AcDbCircle
  6
CONTINUOUS
 62
1
 10
9.6250335
 20
1.2567435E+001
 40
3.6763562E-001
100
AcDbArc
 50
9.9308349E+001
 51
1.8E+002
  0
LINE
  5
197
100
AcDbEntity
  8
100
100
AcDbLine
  6
CONTINUOUS
 62
1
 10
9.108051
 20
1.2797198E+001
 11
9.108051
 21
9.4636329
  0
LINE
  5
198
100
AcDbEntity
  8
100
100
AcDbLine
  6
CONTINUOUS
 62
1
 10
9.2574071
 20
1.2567435E+001
 11
9.257379
 21
9.8413917
  0
LINE
  5
199
100
AcDbEntity
  8
100
100
AcDbLine
  6
CONTINUOUS
 62
1
 10
8.9242238
 20
1.238635E+001
 11
8.9242238
 21
9.6602992
  0
LINE
  5
19a
100
AcDbEntity
  8
100
100
AcDbLine
  6
CONTINUOUS
 62
1
 10
1.0549891E+001
 20
1.2427651E+001
 11
8.648511
 21
1.154077E+001
  0
LINE
  5
19b
100
AcDbEntity
  8
100
100
AcDbLine
  6
CONTINUOUS
 62
1
 10
9.7571961
 20
1.2774199E+001
 11
9.7571961
 21
1.0048155E+001
  0
LINE
  5
19c
100
AcDbEntity
  8
100
100
AcDbLine
  6
CONTINUOUS
 62
1
 10
9.9065522
 20
9.8183923
 11
9.9065522
 21
1.3151958E+001
  0
LINE
  5
19d
100
AcDbEntity
  8
100
100
AcDbLine
  6
CONTINUOUS
 62
1
 10
1.0090351E+001
 20
1.2955291E+001
 11
1.0090351E+001
 21
1.0229241E+001
  0
ARC
  5
19e
100
AcDbEntity
  8
100
100
AcDbCircle
  6
CONTINUOUS
 62
1
 10
1.0457978E+001
 20
1.2955291E+001
 40
3.6763609E-001
100
AcDbArc
 50
9.9285896E+001
 51
1.8E+002
  0
ARC
  5
19f
100
AcDbEntity
  8
100
100
AcDbCircle
  6
CONTINUOUS
 62
1
 10
1.030865E+001
 20
1.2774199E+001
 40
5.5143931E-001
100
AcDbArc
 50
8.0606189E+001
 51
1.8E+002
  0
ARC
  5
1a0
100
AcDbEntity
  8
100
100
AcDbCircle
  6
CONTINUOUS
 62
1
 10
8.5565974
 20
9.6602992
 40
3.6764041E-001
100
AcDbArc
 50
2.7E+002
 51
3.6E+002
  0
ARC
  5
1a1
100
AcDbEntity
  8
100
100
AcDbCircle
  6
CONTINUOUS
 62
1
 10
8.7059535
 20
9.8413917
 40
5.5145317E-001
100
AcDbArc
 50
2.606093E+002
 51
3.6E+002
  0
ARC
  5
1a2
100
AcDbEntity
  8
100
100
AcDbCircle
  6
CONTINUOUS
 62
1
 10
9.3895417
 20
1.0048155E+001
 40
3.6764041E-001
100
AcDbArc
 50
2.7E+002
 51
3.6E+002
  0
ARC
  5
1a3
100
AcDbEntity
  8
100
100
AcDbCircle
  6
CONTINUOUS
 62
1
 10
9.5389258
 20
1.0229241E+001
 40
5.5145071E-001
100
AcDbArc
 50
2.6059181E+002
 51
3.6E+002
  0
TEXT
  5
1a4
100
AcDbEntity
  8
100
100
AcDbText
  6
CONTINUOUS
 62
1
 10
1.260589E+001
 20
1.268055E+001
 40
2.024
  1
ASSA ABLOY
 41
7.0E-001
100
AcDbText
  0
TEXT
  5
1a5
100
AcDbEntity
  8
100
100
AcDbText
  6
CONTINUOUS
 62
1
 10
1.260589E+001
 20
6.5797544
 40
2.024
  1
D-72458 Albstadt
 41
7.0E-001
100
AcDbText
  0
TEXT
  5
1a6
100
AcDbEntity
  8
100
100
AcDbText
  6
CONTINUOUS
 62
1
 10
1.260589E+001
 20
9.8404184
 40
2.024
  1
Sicherheitstechnik GmbH
 41
6.0E-001
100
AcDbText
  0
TEXT
  5
1a7
100
AcDbEntity
  8
100
100
AcDbText
  6
CONTINUOUS
 62
1
 10
2.4184657
 20
3.7344036
 40
9.2E-001
  1
ASSA ABLOY
100
AcDbText
  0
POLYLINE
  5
1a8
100
AcDbEntity
  8
100
100
AcDb2dPolyline
  6
CONTINUOUS
 62
1
 66
1
 40
5.0E-001
 41
5.0E-001
 70
0
  0
VERTEX
  5
1a9
100
AcDbEntity
  8
100
100
AcDbVertex
100
AcDb2dVertex
 42
0.0
 10
1.9788336
 20
5.8543596
 70
0
  0
VERTEX
  5
1aa
100
AcDbEntity
  8
100
100
AcDbVertex
100
AcDb2dVertex
 42
0.0
 10
1.9788336
 20
5.444576
 70
0
  0
SEQEND
  5
1ab
100
AcDbEntity
  0
POLYLINE
  5
1ac
100
AcDbEntity
  8
100
100
AcDb2dPolyline
  6
CONTINUOUS
 62
1
 66
1
 40
5.0E-001
 41
5.0E-001
 70
0
  0
VERTEX
  5
1ad
100
AcDbEntity
  8
100
100
AcDbVertex
100
AcDb2dVertex
 42
0.0
 10
1.9788336
 20
5.444576
 70
0
  0
VERTEX
  5
1ae
100
AcDbEntity
  8
100
100
AcDbVertex
100
AcDb2dVertex
 42
0.0
 10
1.1973716E+001
 20
5.444576
 70
0
  0
SEQEND
  5
1af
100
AcDbEntity
  0
POLYLINE
  5
1b0
100
AcDbEntity
  8
100
100
AcDb2dPolyline
  6
CONTINUOUS
 62
1
 66
1
 40
5.0E-001
 41
5.0E-001
 70
0
  0
VERTEX
  5
1b1
100
AcDbEntity
  8
100
100
AcDbVertex
100
AcDb2dVertex
 42
0.0
 10
1.1973716E+001
 20
5.444576
 70
0
  0
VERTEX
  5
1b2
100
AcDbEntity
  8
100
100
AcDbVertex
100
AcDb2dVertex
 42
0.0
 10
1.1973716E+001
 20
5.0102458
 70
0
  0
SEQEND
  5
1b3
100
AcDbEntity
  0
POINT
  5
1b4
100
AcDbEntity
  8
Drafting_Hidden_Entities
100
AcDbPoint
  6
CONTINUOUS
 62
1
 10
0.0
 20
0.0
  0
ENDBLK
  5
1b5
100
AcDbEntity
100
AcDbBlockEnd
  0
BLOCK
  5
1b6
100
AcDbEntity
100
AcDbBlockBegin
  2
ENGL
 10
0.0
 20
0.0
 70
0
  0
TEXT
  5
1b7
100
AcDbEntity
  8
100
100
AcDbText
  6
CONTINUOUS
 62
1
 10
-8.536E+001
 20
4.5645E+001
 40
2.0
  1
Werkstoff
 41
7.0E-001
100
AcDbText
  0
TEXT
  5
1b8
100
AcDbEntity
  8
100
100
AcDbText
  6
CONTINUOUS
 62
1
 10
-8.5261357E+001
 20
4.2906381E+001
 40
2.0
  1
material
 41
7.5E-001
100
AcDbText
  0
TEXT
  5
1b9
100
AcDbEntity
  8
100
100
AcDbText
  6
CONTINUOUS
 62
1
 10
-8.536E+001
 20
3.507E+001
 40
2.0
  1
Benennung
 41
7.0E-001
100
AcDbText
  0
TEXT
  5
1ba
100
AcDbEntity
  8
100
100
AcDbText
  6
CONTINUOUS
 62
1
 10
-8.5514812E+001
 20
3.276902E+001
 40
2.0
  1
name
 41
7.5E-001
100
AcDbText
  0
TEXT
  5
1bb
100
AcDbEntity
  8
100
100
AcDbText
  6
CONTINUOUS
 62
1
 10
-8.5624253E+001
 20
1.387293E+001
 40
2.0
  1
Zeichnungsnummer
 41
7.0E-001
100
AcDbText
  0
TEXT
  5
1bc
100
AcDbEntity
  8
100
100
AcDbText
  6
CONTINUOUS
 62
1
 10
-8.5799829E+001
 20
1.1151507E+001
 40
2.0
  1
drawing number
 41
7.5E-001
100
AcDbText
  0
TEXT
  5
1bd
100
AcDbEntity
  8
100
100
AcDbText
  6
CONTINUOUS
 62
1
 10
-1.0246863E+002
 20
3.4864044E+001
 40
2.0
  1
Name/name
 41
6.607E-001
 51
-2.104591E-004
100
AcDbText
  0
TEXT
  5
1be
100
AcDbEntity
  8
100
100
AcDbText
  6
CONTINUOUS
 62
1
 10
-1.184521E+002
 20
3.4864044E+001
 40
2.0
  1
Datum/date
 41
6.2856E-001
 51
-2.104591E-004
100
AcDbText
  0
INSERT
  5
1bf
100
AcDbEntity
100
AcDbBlockReference
  2
*TX262
  8
100
 10
-8.5682805E+001
 20
5.2351367E+001
  0
INSERT
  5
1c0
100
AcDbEntity
100
AcDbBlockReference
  2
*TX263
  8
100
 10
-1.2784696E+002
 20
3.1813764E+001
  0
INSERT
  5
1c1
100
AcDbEntity
100
AcDbBlockReference
  2
*TX264
  8
100
 10
-1.2784696E+002
 20
2.7787394E+001
  0
INSERT
  5
1c2
100
AcDbEntity
100
AcDbBlockReference
  2
*TX265
  8
100
 10
-1.28213E+002
 20
1.9246609E+001
  0
INSERT
  5
1c3
100
AcDbEntity
100
AcDbBlockReference
  2
*TX266
  8
100
 10
-1.3585107E+002
 20
2.105119
  0
INSERT
  5
1c4
100
AcDbEntity
100
AcDbBlockReference
  2
*TX267
  8
100
 10
-1.4663644E+002
 20
2.241643
  0
INSERT
  5
1c5
100
AcDbEntity
100
AcDbBlockReference
  2
*TX268
  8
100
 10
-1.6970893E+002
 20
2.241643
  0
INSERT
  5
1c6
100
AcDbEntity
100
AcDbBlockReference
  2
*TX269
  8
100
 10
-1.8172301E+002
 20
2.105119
  0
INSERT
  5
1c7
100
AcDbEntity
100
AcDbBlockReference
  2
*TX270
  8
100
 10
-1.2169835E+001
 20
1.4485099E+001
  0
POINT
  5
1c8
100
AcDbEntity
  8
Drafting_Hidden_Entities
100
AcDbPoint
  6
CONTINUOUS
 62
1
 10
0.0
 20
0.0
  0
ENDBLK
  5
1c9
100
AcDbEntity
100
AcDbBlockEnd
  0
BLOCK
  5
1ca
100
AcDbEntity
100
AcDbBlockBegin
  2
M11
 10
0.0
 20
0.0
 70
0
  0
TEXT
  5
1cb
100
AcDbEntity
  8
1
100
AcDbText
  6
CONTINUOUS
 62
1
 10
-3.7549647
 20
1.445907
 40
3.5
  1
1:1
 41
7.0E-001
100
AcDbText
  0
POINT
  5
1cc
100
AcDbEntity
  8
Drafting_Hidden_Entities
100
AcDbPoint
  6
CONTINUOUS
 62
1
 10
0.0
 20
0.0
  0
ENDBLK
  5
1cd
100
AcDbEntity
100
AcDbBlockEnd
  0
BLOCK
  5
1ce
100
AcDbEntity
100
AcDbBlockBegin
  2
ASSA
 10
0.0
 20
0.0
 70
0
  0
LINE
  5
1cf
100
AcDbEntity
  8
3
100
AcDbLine
  6
CONTINUOUS
 62
2
 10
1.084882
 20
1.5782222E+001
 11
1.084882
 21
5.7922217
  0
LINE
  5
1d0
100
AcDbEntity
  8
3
100
AcDbLine
  6
CONTINUOUS
 62
2
 10
1.1074913E+001
 20
1.5782222E+001
 11
1.084882
 21
1.5782222E+001
  0
LINE
  5
1d1
100
AcDbEntity
  8
3
100
AcDbLine
  6
CONTINUOUS
 62
2
 10
1.1074913E+001
 20
5.7922217
 11
1.1074913E+001
 21
1.5782222E+001
  0
LINE
  5
1d2
100
AcDbEntity
  8
3
100
AcDbLine
  6
CONTINUOUS
 62
2
 10
1.0575443E+001
 20
6.2917141
 11
1.0575443E+001
 21
1.5282729E+001
  0
LINE
  5
1d3
100
AcDbEntity
  8
3
100
AcDbLine
  6
CONTINUOUS
 62
2
 10
1.0575443E+001
 20
1.5282729E+001
 11
1.5844125
 21
1.5282729E+001
  0
LINE
  5
1d4
100
AcDbEntity
  8
1
100
AcDbLine
  6
CONTINUOUS
 62
1
 10
2.1869893
 20
8.919089
 11
2.1869893
 21
9.7841974
  0
LINE
  5
1d5
100
AcDbEntity
  8
3
100
AcDbLine
  6
CONTINUOUS
 62
2
 10
1.5844125
 20
1.5282729E+001
 11
1.5844125
 21
6.2917141
  0
LINE
  5
1d6
100
AcDbEntity
  8
3
100
AcDbLine
  6
CONTINUOUS
 62
2
 10
1.5844125
 20
6.2917141
 11
1.0575443E+001
 21
6.2917141
  0
LINE
  5
1d7
100
AcDbEntity
  8
3
100
AcDbLine
  6
CONTINUOUS
 62
2
 10
1.084882
 20
5.7922217
 11
1.1074913E+001
 21
5.7922217
  0
LINE
  5
1d8
100
AcDbEntity
  8
1
100
AcDbLine
  6
CONTINUOUS
 62
1
 10
3.5450354
 20
9.6333398
 11
1.5844125
 21
8.7193377
  0
LINE
  5
1d9
100
AcDbEntity
  8
1
100
AcDbLine
  6
CONTINUOUS
 62
1
 10
2.386832
 20
1.0183829E+001
 11
2.386832
 21
9.0939704
  0
LINE
  5
1da
100
AcDbEntity
  8
1
100
AcDbLine
  6
CONTINUOUS
 62
1
 10
2.5866137
 20
1.0288705E+001
 11
2.5866137
 21
9.1867653
  0
ARC
  5
1db
100
AcDbEntity
  8
1
100
AcDbCircle
  6
CONTINUOUS
 62
1
 10
2.6865198
 20
9.7841974
 40
4.9949732E-001
100
AcDbArc
 50
1.1500681E+002
 51
1.8E+002
  0
LINE
  5
1dc
100
AcDbEntity
  8
1
100
AcDbLine
  6
CONTINUOUS
 62
1
 10
2.4753969
 20
1.023674E+001
 11
3.1186739
 21
1.0537479E+001
  0
ARC
  5
1dd
100
AcDbEntity
  8
1
100
AcDbCircle
  6
CONTINUOUS
 62
1
 10
3.2453476
 20
1.0265779E+001
 40
2.9968781E-001
100
AcDbArc
 50
0.0
 51
1.14997E+002
  0
LINE
  5
1de
100
AcDbEntity
  8
1
100
AcDbLine
  6
CONTINUOUS
 62
1
 10
3.5450354
 20
9.6333398
 11
3.5450354
 21
1.0265779E+001
  0
LINE
  5
1df
100
AcDbEntity
  8
1
100
AcDbLine
  6
CONTINUOUS
 62
1
 10
3.145472
 20
1.0549423E+001
 11
3.145472
 21
9.4476203
  0
LINE
  5
1e0
100
AcDbEntity
  8
1
100
AcDbLine
  6
CONTINUOUS
 62
1
 10
3.3452537
 20
9.5404152
 11
3.3452537
 21
1.0547479E+001
  0
ARC
  5
1e1
100
AcDbEntity
  8
1
100
AcDbCircle
  6
CONTINUOUS
 62
1
 10
2.4866771
 20
8.919089
 40
2.9970647E-001
100
AcDbArc
 50
1.8E+002
 51
2.9508511E+002
  0
LINE
  5
1e2
100
AcDbEntity
  8
1
100
AcDbLine
  6
CONTINUOUS
 62
1
 10
7.7288662
 20
1.1032947E+001
 11
2.6133508
 21
8.6483639
  0
LINE
  5
1e3
100
AcDbEntity
  8
1
100
AcDbLine
  6
CONTINUOUS
 62
1
 10
5.8116569
 20
1.124173E+001
 11
3.7448781
 21
1.027773E+001
  0
LINE
  5
1e4
100
AcDbEntity
  8
1
100
AcDbLine
  6
CONTINUOUS
 62
1
 10
4.0445659
 20
1.1195863E+001
 11
4.0445659
 21
8.2327642
  0
LINE
  5
1e5
100
AcDbEntity
  8
1
100
AcDbLine
  6
CONTINUOUS
 62
1
 10
4.2443171
 20
1.1643413E+001
 11
4.2443171
 21
8.0199646
  0
LINE
  5
1e6
100
AcDbEntity
  8
1
100
AcDbLine
  6
CONTINUOUS
 62
1
 10
4.4067522
 20
1.1393663E+001
 11
4.4067522
 21
8.4305719
  0
LINE
  5
1e7
100
AcDbEntity
  8
1
100
AcDbLine
  6
CONTINUOUS
 62
1
 10
5.3122179
 20
1.1815245E+001
 11
5.3122179
 21
8.8521546
  0
LINE
  5
1e8
100
AcDbEntity
  8
1
100
AcDbLine
  6
CONTINUOUS
 62
1
 10
5.1123752
 20
8.4055725
 11
5.1123752
 21
1.2029013E+001
  0
ARC
  5
1e9
100
AcDbEntity
  8
1
100
AcDbCircle
  6
CONTINUOUS
 62
1
 10
5.7117508
 20
1.1815245E+001
 40
3.9959429E-001
100
AcDbArc
 50
9.9286249E+001
 51
1.8E+002
  0
ARC
  5
1ea
100
AcDbEntity
  8
1
100
AcDbCircle
  6
CONTINUOUS
 62
1
 10
5.5494072
 20
1.1618413E+001
 40
5.9940806E-001
100
AcDbArc
 50
8.0603552E+001
 51
1.8E+002
  0
LINE
  5
1eb
100
AcDbEntity
  8
1
100
AcDbLine
  6
CONTINUOUS
 62
1
 10
4.9499706
 20
1.1618413E+001
 11
4.9499706
 21
8.6553149
  0
ARC
  5
1ec
100
AcDbEntity
  8
1
100
AcDbCircle
  6
CONTINUOUS
 62
1
 10
4.806407
 20
1.1393663E+001
 40
3.9960123E-001
100
AcDbArc
 50
9.9325427E+001
 51
1.8E+002
  0
ARC
  5
1ed
100
AcDbEntity
  8
1
100
AcDbCircle
  6
CONTINUOUS
 62
1
 10
4.6439415
 20
1.1195863E+001
 40
5.9940806E-001
100
AcDbArc
 50
8.0603552E+001
 51
1.8E+002
  0
ARC
  5
1ee
100
AcDbEntity
  8
1
100
AcDbCircle
  6
CONTINUOUS
 62
1
 10
3.6449415
 20
8.2327642
 40
3.9960915E-001
100
AcDbArc
 50
2.7E+002
 51
3.6E+002
  0
ARC
  5
1ef
100
AcDbEntity
  8
1
100
AcDbCircle
  6
CONTINUOUS
 62
1
 10
3.8073766
 20
8.4305719
 40
5.994055E-001
100
AcDbArc
 50
2.6060319E+002
 51
3.6E+002
  0
ARC
  5
1f0
100
AcDbEntity
  8
1
100
AcDbCircle
  6
CONTINUOUS
 62
1
 10
4.5504072
 20
8.6553149
 40
3.9959393E-001
100
AcDbArc
 50
2.7E+002
 51
3.6E+002
  0
ARC
  5
1f1
100
AcDbEntity
  8
1
100
AcDbCircle
  6
CONTINUOUS
 62
1
 10
4.7127813
 20
8.8521546
 40
5.9940312E-001
100
AcDbArc
 50
2.606093E+002
 51
3.6E+002
  0
LINE
  5
1f2
100
AcDbEntity
  8
1
100
AcDbLine
  6
CONTINUOUS
 62
1
 10
6.3707286
 20
1.0319665E+001
 11
6.3707286
 21
1.1183805E+001
  0
LINE
  5
1f3
100
AcDbEntity
  8
1
100
AcDbLine
  6
CONTINUOUS
 62
1
 10
6.5705713
 20
1.1583429E+001
 11
6.5705713
 21
1.0493578E+001
  0
LINE
  5
1f4
100
AcDbEntity
  8
1
100
AcDbLine
  6
CONTINUOUS
 62
1
 10
6.770353
 20
1.1688305E+001
 11
6.770353
 21
1.0586365E+001
  0
LINE
  5
1f5
100
AcDbEntity
  8
1
100
AcDbLine
  6
CONTINUOUS
 62
1
 10
7.3292418
 20
1.194903E+001
 11
7.3292418
 21
1.0847228E+001
  0
LINE
  5
1f6
100
AcDbEntity
  8
1
100
AcDbLine
  6
CONTINUOUS
 62
1
 10
7.5290845
 20
1.0940015E+001
 11
7.5290845
 21
1.1948055E+001
  0
LINE
  5
1f7
100
AcDbEntity
  8
1
100
AcDbLine
  6
CONTINUOUS
 62
1
 10
7.7288662
 20
1.1032947E+001
 11
7.7288662
 21
1.1665363E+001
  0
ARC
  5
1f8
100
AcDbEntity
  8
1
100
AcDbCircle
  6
CONTINUOUS
 62
1
 10
7.4291784
 20
1.1665363E+001
 40
2.9968781E-001
100
AcDbArc
 50
0.0
 51
1.1499049E+002
  0
LINE
  5
1f9
100
AcDbEntity
  8
1
100
AcDbLine
  6
CONTINUOUS
 62
1
 10
6.6591362
 20
1.163634E+001
 11
7.3024742
 21
1.1937079E+001
  0
ARC
  5
1fa
100
AcDbEntity
  8
1
100
AcDbCircle
  6
CONTINUOUS
 62
1
 10
6.8702591
 20
1.1183805E+001
 40
4.9950375E-001
100
AcDbArc
 50
1.1501034E+002
 51
1.8E+002
  0
LINE
  5
1fb
100
AcDbEntity
  8
1
100
AcDbLine
  6
CONTINUOUS
 62
1
 10
6.7970901
 20
1.0047964E+001
 11
1.0575443E+001
 21
1.1809148E+001
  0
ARC
  5
1fc
100
AcDbEntity
  8
1
100
AcDbCircle
  6
CONTINUOUS
 62
1
 10
6.6704164
 20
1.0319665E+001
 40
2.9971091E-001
100
AcDbArc
 50
1.8E+002
 51
2.9499577E+002
  0
ARC
  5
1fd
100
AcDbEntity
  8
1
100
AcDbCircle
  6
CONTINUOUS
 62
1
 10
8.8277418
 20
1.2596438E+001
 40
5.9940294E-001
100
AcDbArc
 50
8.0591814E+001
 51
1.8E+002
  0
ARC
  5
1fe
100
AcDbEntity
  8
1
100
AcDbCircle
  6
CONTINUOUS
 62
1
 10
8.9901159
 20
1.279327E+001
 40
3.9960394E-001
100
AcDbArc
 50
9.9308349E+001
 51
1.8E+002
  0
LINE
  5
1ff
100
AcDbEntity
  8
1
100
AcDbLine
  6
CONTINUOUS
 62
1
 10
8.4281784
 20
1.3043013E+001
 11
8.4281784
 21
9.4195722
  0
LINE
  5
200
100
AcDbEntity
  8
1
100
AcDbLine
  6
CONTINUOUS
 62
1
 10
8.590522
 20
1.279327E+001
 11
8.5904915
 21
9.8301795
  0
LINE
  5
201
100
AcDbEntity
  8
1
100
AcDbLine
  6
CONTINUOUS
 62
1
 10
8.2283662
 20
1.2596438E+001
 11
8.2283662
 21
9.6333398
  0
LINE
  5
202
100
AcDbEntity
  8
1
100
AcDbLine
  6
CONTINUOUS
 62
1
 10
9.9953962
 20
1.264133E+001
 11
7.9286784
 21
1.167733E+001
  0
LINE
  5
203
100
AcDbEntity
  8
1
100
AcDbLine
  6
CONTINUOUS
 62
1
 10
9.1337709
 20
1.3018013E+001
 11
9.1337709
 21
1.0054923E+001
  0
LINE
  5
204
100
AcDbEntity
  8
1
100
AcDbLine
  6
CONTINUOUS
 62
1
 10
9.2961145
 20
9.8051801
 11
9.2961145
 21
1.3428621E+001
  0
LINE
  5
205
100
AcDbEntity
  8
1
100
AcDbLine
  6
CONTINUOUS
 62
1
 10
9.4958962
 20
1.3214853E+001
 11
9.4958962
 21
1.0251755E+001
  0
ARC
  5
206
100
AcDbEntity
  8
1
100
AcDbCircle
  6
CONTINUOUS
 62
1
 10
9.8954901
 20
1.3214853E+001
 40
3.9960444E-001
100
AcDbArc
 50
9.9285896E+001
 51
1.8E+002
  0
ARC
  5
207
100
AcDbEntity
  8
1
100
AcDbCircle
  6
CONTINUOUS
 62
1
 10
9.733177
 20
1.3018013E+001
 40
5.9939056E-001
100
AcDbArc
 50
8.0606189E+001
 51
1.8E+002
  0
ARC
  5
208
100
AcDbEntity
  8
1
100
AcDbCircle
  6
CONTINUOUS
 62
1
 10
7.8287723
 20
9.6333398
 40
3.9960915E-001
100
AcDbArc
 50
2.7E+002
 51
3.6E+002
  0
ARC
  5
209
100
AcDbEntity
  8
1
100
AcDbCircle
  6
CONTINUOUS
 62
1
 10
7.9911159
 20
9.8301795
 40
5.9940562E-001
100
AcDbArc
 50
2.606093E+002
 51
3.6E+002
  0
ARC
  5
20a
100
AcDbEntity
  8
1
100
AcDbCircle
  6
CONTINUOUS
 62
1
 10
8.7341465
 20
1.0054923E+001
 40
3.9960915E-001
100
AcDbArc
 50
2.7E+002
 51
3.6E+002
  0
ARC
  5
20b
100
AcDbEntity
  8
1
100
AcDbCircle
  6
CONTINUOUS
 62
1
 10
8.8965206
 20
1.0251755E+001
 40
5.9940294E-001
100
AcDbArc
 50
2.6059181E+002
 51
3.6E+002
  0
TEXT
  5
20c
100
AcDbEntity
  8
4
100
AcDbText
  6
CONTINUOUS
 62
1
 10
1.2230177E+001
 20
1.2916222E+001
 40
2.2
  1
ASSA ABLOY
 41
7.0E-001
100
AcDbText
  0
TEXT
  5
20d
100
AcDbEntity
  8
4
100
AcDbText
  6
CONTINUOUS
 62
1
 10
1.2230177E+001
 20
6.2849216
 40
2.2
  1
D-72458 Albstadt
 41
7.0E-001
100
AcDbText
  0
TEXT
  5
20e
100
AcDbEntity
  8
4
100
AcDbText
  6
CONTINUOUS
 62
1
 10
1.2230177E+001
 20
9.8291216
 40
2.2
  1
Sicherheitstechnik GmbH
 41
6.0E-001
100
AcDbText
  0
POINT
  5
20f
100
AcDbEntity
  8
Drafting_Hidden_Entities
100
AcDbPoint
  6
CONTINUOUS
 62
1
 10
0.0
 20
0.0
  0
ENDBLK
  5
210
100
AcDbEntity
100
AcDbBlockEnd
  0
BLOCK
  5
211
100
AcDbEntity
100
AcDbBlockBegin
  2
*TX262
  3
*TX
 10
0.0
 20
0.0
 70
65
  0
TEXT
  5
212
100
AcDbEntity
  8
1
100
AcDbText
  6
CONTINUOUS
 62
1
 10
0.0
 20
0.0
 40
2.0
  1
Maßstab:
 41
6.2244898E-001
 51
-2.104591E-004
100
AcDbText
  0
TEXT
  5
213
100
AcDbEntity
  8
1
100
AcDbText
  6
CONTINUOUS
 62
1
 10
0.0
 20
-2.8
 40
2.0
  1
scale:
 41
6.2244898E-001
 51
-2.104591E-004
100
AcDbText
  0
ENDBLK
  5
214
100
AcDbEntity
100
AcDbBlockEnd
  0
BLOCK
  5
215
100
AcDbEntity
100
AcDbBlockBegin
  2
*TX263
  3
*TX
 10
0.0
 20
0.0
 70
65
  0
TEXT
  5
216
100
AcDbEntity
  8
1
100
AcDbText
  6
CONTINUOUS
 62
1
 10
0.0
 20
0.0
 40
2.0
  1
Bearb.
 41
5.476E-001
 51
-2.104591E-004
100
AcDbText
  0
TEXT
  5
217
100
AcDbEntity
  8
1
100
AcDbText
  6
CONTINUOUS
 62
1
 10
0.0
 20
-2.2
 40
2.0
  1
author
 41
5.476E-001
 51
-2.104591E-004
100
AcDbText
  0
ENDBLK
  5
218
100
AcDbEntity
100
AcDbBlockEnd
  0
BLOCK
  5
219
100
AcDbEntity
100
AcDbBlockBegin
  2
*TX264
  3
*TX
 10
0.0
 20
0.0
 70
65
  0
TEXT
  5
21a
100
AcDbEntity
  8
1
100
AcDbText
  6
CONTINUOUS
 62
1
 10
0.0
 20
0.0
 40
2.0
  1
gepr.
 41
5.2856E-001
 51
-2.104591E-004
100
AcDbText
  0
TEXT
  5
21b
100
AcDbEntity
  8
1
100
AcDbText
  6
CONTINUOUS
 62
1
 10
0.0
 20
-2.1
 40
2.0
  1
checked
 41
5.2856E-001
 51
-2.104591E-004
100
AcDbText
  0
ENDBLK
  5
21c
100
AcDbEntity
100
AcDbBlockEnd
  0
BLOCK
  5
21d
100
AcDbEntity
100
AcDbBlockBegin
  2
*TX265
  3
*TX
 10
0.0
 20
0.0
 70
65
  0
TEXT
  5
21e
100
AcDbEntity
  8
1
100
AcDbText
  6
CONTINUOUS
 62
1
 10
0.0
 20
0.0
 40
1.8
  1
freig.
 41
6.0E-001
 51
-2.104591E-004
100
AcDbText
  0
TEXT
  5
21f
100
AcDbEntity
  8
1
100
AcDbText
  6
CONTINUOUS
 62
1
 10
0.0
 20
-1.89
 40
1.8
  1
approved
 41
6.0E-001
 51
-2.104591E-004
100
AcDbText
  0
ENDBLK
  5
220
100
AcDbEntity
100
AcDbBlockEnd
  0
BLOCK
  5
221
100
AcDbEntity
100
AcDbBlockBegin
  2
*TX266
  3
*TX
 10
0.0
 20
0.0
 70
65
  0
TEXT
  5
222
100
AcDbEntity
  8
1
100
AcDbText
  6
CONTINUOUS
 62
1
 10
0.0
 20
0.0
 40
1.8
  1
Name
 41
6.607E-001
 51
-2.104591E-004
100
AcDbText
  0
TEXT
  5
223
100
AcDbEntity
  8
1
100
AcDbText
  6
CONTINUOUS
 62
1
 10
0.0
 20
-1.9
 40
1.8
  1
name
 41
6.607E-001
 51
-2.104591E-004
100
AcDbText
  0
ENDBLK
  5
224
100
AcDbEntity
100
AcDbBlockEnd
  0
BLOCK
  5
225
100
AcDbEntity
100
AcDbBlockBegin
  2
*TX267
  3
*TX
 10
0.0
 20
0.0
 70
65
  0
TEXT
  5
226
100
AcDbEntity
  8
1
100
AcDbText
  6
CONTINUOUS
 62
1
 10
0.0
 20
0.0
 40
1.8
  1
Datum
 41
6.2856E-001
 51
-2.104591E-004
100
AcDbText
  0
TEXT
  5
227
100
AcDbEntity
  8
1
100
AcDbText
  6
CONTINUOUS
 62
1
 10
0.0
 20
-1.9
 40
1.8
  1
date
 41
6.2856E-001
 51
-2.104591E-004
100
AcDbText
  0
ENDBLK
  5
228
100
AcDbEntity
100
AcDbBlockEnd
  0
BLOCK
  5
229
100
AcDbEntity
100
AcDbBlockBegin
  2
*TX268
  3
*TX
 10
0.0
 20
0.0
 70
65
  0
TEXT
  5
22a
100
AcDbEntity
  8
1
100
AcDbText
  6
CONTINUOUS
 62
1
 10
0.0
 20
0.0
 40
1.8
  1
Aenderung
 41
5.9524444E-001
 51
-2.104591E-004
100
AcDbText
  0
TEXT
  5
22b
100
AcDbEntity
  8
1
100
AcDbText
  6
CONTINUOUS
 62
1
 10
0.0
 20
-1.89
 40
1.8
  1
description
 41
5.9524444E-001
 51
-2.104591E-004
100
AcDbText
  0
ENDBLK
  5
22c
100
AcDbEntity
100
AcDbBlockEnd
  0
BLOCK
  5
22d
100
AcDbEntity
100
AcDbBlockBegin
  2
*TX269
  3
*TX
 10
0.0
 20
0.0
 70
65
  0
TEXT
  5
22e
100
AcDbEntity
  8
1
100
AcDbText
  6
CONTINUOUS
 62
1
 10
0.0
 20
0.0
 40
1.8
  1
Stand
 41
5.714E-001
 51
-2.104591E-004
100
AcDbText
  0
TEXT
  5
22f
100
AcDbEntity
  8
1
100
AcDbText
  6
CONTINUOUS
 62
1
 10
0.0
 20
-1.89
 40
1.8
  1
state
 41
5.714E-001
 51
-2.104591E-004
100
AcDbText
  0
ENDBLK
  5
230
100
AcDbEntity
100
AcDbBlockEnd
  0
BLOCK
  5
231
100
AcDbEntity
100
AcDbBlockBegin
  2
*TX270
  3
*TX
 10
0.0
 20
0.0
 70
65
  0
TEXT
  5
232
100
AcDbEntity
  8
1
100
AcDbText
  6
CONTINUOUS
 62
6
 10
0.0
 20
0.0
 40
1.8
  1
Blatt
 41
5.4288E-001
 51
-2.104591E-004
100
AcDbText
  0
TEXT
  5
233
100
AcDbEntity
  8
1
100
AcDbText
  6
CONTINUOUS
 62
6
 10
0.0
 20
-1.9
 40
1.8
  1
sheet No.
 41
5.4288E-001
 51
-2.104591E-004
100
AcDbText
  0
ENDBLK
  5
234
100
AcDbEntity
100
AcDbBlockEnd
  0
BLOCK
  5
235
100
AcDbEntity
100
AcDbBlockBegin
  2
*TX271
  3
*TX
 10
0.0
 20
0.0
 70
65
  0
TEXT
  5
236
100
AcDbEntity
  8
1
100
AcDbText
  6
CONTINUOUS
 62
1
 10
0.0
 20
0.0
 40
3.0
  1
-------096..-01
 41
7.5E-001
100
AcDbText
  0
TEXT
  5
237
100
AcDbEntity
  8
1
100
AcDbText
  6
CONTINUOUS
 62
1
 10
0.0
 20
-4.2
 40
3.0
  1
-------191..-01
 41
7.5E-001
100
AcDbText
  0
TEXT
  5
238
100
AcDbEntity
  8
1
100
AcDbText
  6
CONTINUOUS
 62
1
 10
0.0
 20
-8.4
 40
3.0
  1
-------245..-01
 41
7.5E-001
100
AcDbText
  0
ENDBLK
  5
239
100
AcDbEntity
100
AcDbBlockEnd
  0
BLOCK
  5
23a
100
AcDbEntity
100
AcDbBlockBegin
  2
_AH1
 70
0
 10
0.0
 20
0.0
  3
_AH1
  0
LINE
  5
23b
100
AcDbEntity
  8
0
100
AcDbLine
  6
CONTINUOUS
 62
0
 10
-1.0
 20
1.66667E-001
 11
0.0
 21
0.0
  0
LINE
  5
23c
100
AcDbEntity
  8
0
100
AcDbLine
  6
CONTINUOUS
 62
0
 10
0.0
 20
0.0
 11
-1.0
 21
-1.66667E-001
  0
LINE
  5
23d
100
AcDbEntity
  8
0
100
AcDbLine
  6
CONTINUOUS
 62
0
 10
-1.0
 20
1.66667E-001
 11
-1.0
 21
-1.66667E-001
  0
LINE
  5
23e
100
AcDbEntity
  8
0
100
AcDbLine
  6
CONTINUOUS
 62
0
 10
0.0
 20
0.0
 11
-1.0
 21
0.0
  0
ENDBLK
  5
23f
100
AcDbEntity
100
AcDbBlockEnd
  0
BLOCK
  5
240
100
AcDbEntity
100
AcDbBlockBegin
  2
_AH2
 70
0
 10
0.0
 20
0.0
  3
_AH2
  0
LINE
  5
241
100
AcDbEntity
  8
0
100
AcDbLine
  6
CONTINUOUS
 62
0
 10
-1.0
 20
1.66667E-001
 11
0.0
 21
0.0
  0
LINE
  5
242
100
AcDbEntity
  8
0
100
AcDbLine
  6
CONTINUOUS
 62
0
 10
0.0
 20
0.0
 11
-1.0
 21
-1.66667E-001
  0
LINE
  5
243
100
AcDbEntity
  8
0
100
AcDbLine
  6
CONTINUOUS
 62
0
 10
0.0
 20
0.0
 11
-1.0
 21
0.0
  0
ENDBLK
  5
244
100
AcDbEntity
100
AcDbBlockEnd
  0
BLOCK
  5
245
100
AcDbEntity
100
AcDbBlockBegin
  2
*D120
  3
*D
 10
0.0
 20
0.0
 70
65
  0
LINE
  5
246
100
AcDbEntity
  8
2
100
AcDbLine
  6
CONTINUOUS
 62
3
 10
9.7266897E+001
 20
1.7236765E+002
 11
7.9351857E+001
 21
1.7236765E+002
  0
LINE
  5
247
100
AcDbEntity
  8
2
100
AcDbLine
  6
CONTINUOUS
 62
3
 10
8.8366897E+001
 20
1.6216765E+002
 11
7.9351857E+001
 21
1.6216765E+002
  0
LINE
  5
248
100
AcDbEntity
  8
2
100
AcDbLine
  6
CONTINUOUS
 62
3
 10
8.2351857E+001
 20
1.7836765E+002
 11
8.2351857E+001
 21
1.7236765E+002
  0
LINE
  5
249
100
AcDbEntity
  8
2
100
AcDbLine
  6
CONTINUOUS
 62
3
 10
8.2351857E+001
 20
1.5616765E+002
 11
8.2351857E+001
 21
1.7236765E+002
  0
TEXT
  5
24a
100
AcDbEntity
  8
2
100
AcDbText
  6
CONTINUOUS
 62
3
 10
8.0850857E+001
 20
1.6248412E+002
 40
3.0
  1
10,2
 41
7.5E-001
 50
9.0E+001
100
AcDbText
  0
INSERT
  5
24b
100
AcDbEntity
100
AcDbBlockReference
  2
_AH1
  8
2
 62
3
 10
8.2351857E+001
 20
1.7236765E+002
 41
3.0
 42
3.0
 43
3.0
 50
2.7E+002
  0
INSERT
  5
24c
100
AcDbEntity
100
AcDbBlockReference
  2
_AH1
  8
2
 62
3
 10
8.2351857E+001
 20
1.6216765E+002
 41
3.0
 42
3.0
 43
3.0
 50
9.0E+001
  0
ENDBLK
  5
24d
100
AcDbEntity
100
AcDbBlockEnd
  0
BLOCK
  5
24e
100
AcDbEntity
100
AcDbBlockBegin
  2
*D121
  3
*D
 10
0.0
 20
0.0
 70
65
  0
LINE
  5
24f
100
AcDbEntity
  8
2
100
AcDbLine
  6
CONTINUOUS
 62
3
 10
5.6516897E+001
 20
1.7236765E+002
 11
4.5131788E+001
 21
1.7236765E+002
  0
LINE
  5
250
100
AcDbEntity
  8
2
100
AcDbLine
  6
CONTINUOUS
 62
3
 10
5.3516897E+001
 20
1.6036765E+002
 11
4.5131788E+001
 21
1.6036765E+002
  0
LINE
  5
251
100
AcDbEntity
  8
2
100
AcDbLine
  6
CONTINUOUS
 62
3
 10
4.8131788E+001
 20
1.7836765E+002
 11
4.8131788E+001
 21
1.7236765E+002
  0
LINE
  5
252
100
AcDbEntity
  8
2
100
AcDbLine
  6
CONTINUOUS
 62
3
 10
4.8131788E+001
 20
1.5436765E+002
 11
4.8131788E+001
 21
1.7236765E+002
  0
TEXT
  5
253
100
AcDbEntity
  8
2
100
AcDbText
  6
CONTINUOUS
 62
3
 10
4.6630788E+001
 20
1.6391652E+002
 40
3.0
  1
12
 41
7.5E-001
 50
9.0E+001
100
AcDbText
  0
INSERT
  5
254
100
AcDbEntity
100
AcDbBlockReference
  2
_AH1
  8
2
 62
3
 10
4.8131788E+001
 20
1.7236765E+002
 41
3.0
 42
3.0
 43
3.0
 50
2.7E+002
  0
INSERT
  5
255
100
AcDbEntity
100
AcDbBlockReference
  2
_AH1
  8
2
 62
3
 10
4.8131788E+001
 20
1.6036765E+002
 41
3.0
 42
3.0
 43
3.0
 50
9.0E+001
  0
ENDBLK
  5
256
100
AcDbEntity
100
AcDbBlockEnd
  0
BLOCK
  5
257
100
AcDbEntity
100
AcDbBlockBegin
  2
*D122
  3
*D
 10
0.0
 20
0.0
 70
65
  0
LINE
  5
258
100
AcDbEntity
  8
2
100
AcDbLine
  6
CONTINUOUS
 62
3
 10
5.6516897E+001
 20
1.7236765E+002
 11
3.726536E+001
 21
1.7236765E+002
  0
LINE
  5
259
100
AcDbEntity
  8
2
100
AcDbLine
  6
CONTINUOUS
 62
3
 10
5.6516897E+001
 20
1.4836765E+002
 11
3.726536E+001
 21
1.4836765E+002
  0
LINE
  5
25a
100
AcDbEntity
  8
2
100
AcDbLine
  6
CONTINUOUS
 62
3
 10
4.026536E+001
 20
1.7236765E+002
 11
4.026536E+001
 21
1.6052484E+002
  0
LINE
  5
25b
100
AcDbEntity
  8
2
100
AcDbLine
  6
CONTINUOUS
 62
3
 10
4.026536E+001
 20
1.4836765E+002
 11
4.026536E+001
 21
1.6052484E+002
  0
TEXT
  5
25c
100
AcDbEntity
  8
2
100
AcDbText
  6
CONTINUOUS
 62
3
 10
3.763936E+001
 20
1.5474984E+002
 40
3.0
  1
24
 41
7.5E-001
 50
9.0E+001
100
AcDbText
  0
TEXT
  5
25d
100
AcDbEntity
  8
2
100
AcDbText
  6
CONTINUOUS
 62
3
 10
3.561436E+001
 20
1.5999984E+002
 40
2.1
  1
 
 41
7.5E-001
 50
9.0E+001
100
AcDbText
  0
TEXT
  5
25e
100
AcDbEntity
  8
2
100
AcDbText
  6
CONTINUOUS
 62
3
 10
3.876436E+001
 20
1.5999984E+002
 40
2.1
  1
-0,3
 41
7.5E-001
 50
9.0E+001
100
AcDbText
  0
INSERT
  5
25f
100
AcDbEntity
100
AcDbBlockReference
  2
_AH1
  8
2
 62
3
 10
4.026536E+001
 20
1.7236765E+002
 41
3.0
 42
3.0
 43
3.0
 50
9.0E+001
  0
INSERT
  5
260
100
AcDbEntity
100
AcDbBlockReference
  2
_AH1
  8
2
 62
3
 10
4.026536E+001
 20
1.4836765E+002
 41
3.0
 42
3.0
 43
3.0
 50
2.7E+002
  0
ENDBLK
  5
261
100
AcDbEntity
100
AcDbBlockEnd
  0
BLOCK
  5
262
100
AcDbEntity
100
AcDbBlockBegin
  2
*D123
  3
*D
 10
0.0
 20
0.0
 70
65
  0
LINE
  5
263
100
AcDbEntity
  8
2
100
AcDbLine
  6
CONTINUOUS
 62
3
 10
5.6516897E+001
 20
1.7236765E+002
 11
5.6516897E+001
 21
1.9140975E+002
  0
LINE
  5
264
100
AcDbEntity
  8
2
100
AcDbLine
  6
CONTINUOUS
 62
3
 10
1.865169E+002
 20
1.7236765E+002
 11
1.865169E+002
 21
1.9140975E+002
  0
LINE
  5
265
100
AcDbEntity
  8
2
100
AcDbLine
  6
CONTINUOUS
 62
3
 10
5.6516897E+001
 20
1.8840975E+002
 11
1.2231245E+002
 21
1.8840975E+002
  0
LINE
  5
266
100
AcDbEntity
  8
2
100
AcDbLine
  6
CONTINUOUS
 62
3
 10
1.865169E+002
 20
1.8840975E+002
 11
1.2231245E+002
 21
1.8840975E+002
  0
TEXT
  5
267
100
AcDbEntity
  8
2
100
AcDbText
  6
CONTINUOUS
 62
3
 10
1.1541245E+002
 20
1.9103575E+002
 40
3.0
  1
130
 41
7.5E-001
100
AcDbText
  0
TEXT
  5
268
100
AcDbEntity
  8
2
100
AcDbText
  6
CONTINUOUS
 62
3
 10
1.2291245E+002
 20
1.9306075E+002
 40
2.1
  1
 
 41
7.5E-001
100
AcDbText
  0
TEXT
  5
269
100
AcDbEntity
  8
2
100
AcDbText
  6
CONTINUOUS
 62
3
 10
1.2291245E+002
 20
1.8991075E+002
 40
2.1
  1
-0,3
 41
7.5E-001
100
AcDbText
  0
INSERT
  5
26a
100
AcDbEntity
100
AcDbBlockReference
  2
_AH1
  8
2
 62
3
 10
5.6516897E+001
 20
1.8840975E+002
 41
3.0
 42
3.0
 43
3.0
 50
1.8E+002
  0
INSERT
  5
26b
100
AcDbEntity
100
AcDbBlockReference
  2
_AH1
  8
2
 62
3
 10
1.865169E+002
 20
1.8840975E+002
 41
3.0
 42
3.0
 43
3.0
 50
0.0
  0
ENDBLK
  5
26c
100
AcDbEntity
100
AcDbBlockEnd
  0
BLOCK
  5
26d
100
AcDbEntity
100
AcDbBlockBegin
  2
*D124
  3
*D
 10
0.0
 20
0.0
 70
65
  0
LINE
  5
26e
100
AcDbEntity
  8
2
100
AcDbLine
  6
CONTINUOUS
 62
3
 10
5.6516897E+001
 20
1.7236765E+002
 11
5.6516897E+001
 21
1.843195E+002
  0
LINE
  5
26f
100
AcDbEntity
  8
2
100
AcDbLine
  6
CONTINUOUS
 62
3
 10
1.215169E+002
 20
1.7377544E+002
 11
1.215169E+002
 21
1.843195E+002
  0
LINE
  5
270
100
AcDbEntity
  8
2
100
AcDbLine
  6
CONTINUOUS
 62
3
 10
5.6516897E+001
 20
1.813195E+002
 11
8.8470181E+001
 21
1.813195E+002
  0
LINE
  5
271
100
AcDbEntity
  8
2
100
AcDbLine
  6
CONTINUOUS
 62
3
 10
1.215169E+002
 20
1.813195E+002
 11
8.8470181E+001
 21
1.813195E+002
  0
TEXT
  5
272
100
AcDbEntity
  8
2
100
AcDbText
  6
CONTINUOUS
 62
3
 10
8.2695181E+001
 20
1.828205E+002
 40
3.0
  1
65
 41
7.5E-001
100
AcDbText
  0
TEXT
  5
273
100
AcDbEntity
  8
2
100
AcDbText
  6
CONTINUOUS
 62
3
 10
8.7945181E+001
 20
1.832705E+002
 40
2.1
  1
%%p0,2
 41
7.5E-001
100
AcDbText
  0
INSERT
  5
274
100
AcDbEntity
100
AcDbBlockReference
  2
_AH1
  8
2
 62
3
 10
5.6516897E+001
 20
1.813195E+002
 41
3.0
 42
3.0
 43
3.0
 50
1.8E+002
  0
INSERT
  5
275
100
AcDbEntity
100
AcDbBlockReference
  2
_AH1
  8
2
 62
3
 10
1.215169E+002
 20
1.813195E+002
 41
3.0
 42
3.0
 43
3.0
 50
0.0
  0
ENDBLK
  5
276
100
AcDbEntity
100
AcDbBlockEnd
  0
BLOCK
  5
277
100
AcDbEntity
100
AcDbBlockBegin
  2
*D125
  3
*D
 10
0.0
 20
0.0
 70
65
  0
LINE
  5
278
100
AcDbEntity
  8
2
100
AcDbLine
  6
CONTINUOUS
 62
3
 10
6.0516897E+001
 20
1.5336765E+002
 11
6.0516897E+001
 21
1.3580959E+002
  0
LINE
  5
279
100
AcDbEntity
  8
2
100
AcDbLine
  6
CONTINUOUS
 62
3
 10
1.825169E+002
 20
1.5336765E+002
 11
1.825169E+002
 21
1.3580959E+002
  0
LINE
  5
27a
100
AcDbEntity
  8
2
100
AcDbLine
  6
CONTINUOUS
 62
3
 10
6.0516897E+001
 20
1.3880959E+002
 11
1.2088845E+002
 21
1.3880959E+002
  0
LINE
  5
27b
100
AcDbEntity
  8
2
100
AcDbLine
  6
CONTINUOUS
 62
3
 10
1.825169E+002
 20
1.3880959E+002
 11
1.2088845E+002
 21
1.3880959E+002
  0
TEXT
  5
27c
100
AcDbEntity
  8
2
100
AcDbText
  6
CONTINUOUS
 62
3
 10
1.1398845E+002
 20
1.4031059E+002
 40
3.0
  1
122
 41
7.5E-001
100
AcDbText
  0
TEXT
  5
27d
100
AcDbEntity
  8
2
100
AcDbText
  6
CONTINUOUS
 62
3
 10
1.2148845E+002
 20
1.4076059E+002
 40
2.1
  1
%%p0,2
 41
7.5E-001
100
AcDbText
  0
INSERT
  5
27e
100
AcDbEntity
100
AcDbBlockReference
  2
_AH1
  8
2
 62
3
 10
6.0516897E+001
 20
1.3880959E+002
 41
3.0
 42
3.0
 43
3.0
 50
1.8E+002
  0
INSERT
  5
27f
100
AcDbEntity
100
AcDbBlockReference
  2
_AH1
  8
2
 62
3
 10
1.825169E+002
 20
1.3880959E+002
 41
3.0
 42
3.0
 43
3.0
 50
0.0
  0
ENDBLK
  5
280
100
AcDbEntity
100
AcDbBlockEnd
  0
BLOCK
  5
281
100
AcDbEntity
100
AcDbBlockBegin
  2
*D126
  3
*D
 10
0.0
 20
0.0
 70
65
  0
LINE
  5
282
100
AcDbEntity
  8
2
100
AcDbLine
  6
CONTINUOUS
 62
3
 10
5.6516897E+001
 20
1.4836765E+002
 11
5.6516897E+001
 21
1.3578273E+002
  0
LINE
  5
283
100
AcDbEntity
  8
2
100
AcDbLine
  6
CONTINUOUS
 62
3
 10
6.0516897E+001
 20
1.5336765E+002
 11
6.0516897E+001
 21
1.3578273E+002
  0
LINE
  5
284
100
AcDbEntity
  8
2
100
AcDbLine
  6
CONTINUOUS
 62
3
 10
5.6516897E+001
 20
1.3878273E+002
 11
4.8168041E+001
 21
1.3878273E+002
  0
LINE
  5
285
100
AcDbEntity
  8
2
100
AcDbLine
  6
CONTINUOUS
 62
3
 10
6.6516897E+001
 20
1.3878273E+002
 11
5.6516897E+001
 21
1.3878273E+002
  0
TEXT
  5
286
100
AcDbEntity
  8
2
100
AcDbText
  6
CONTINUOUS
 62
3
 10
4.9668041E+001
 20
1.4028373E+002
 40
3.0
  1
4
 41
7.5E-001
100
AcDbText
  0
INSERT
  5
287
100
AcDbEntity
100
AcDbBlockReference
  2
_AH1
  8
2
 62
3
 10
5.6516897E+001
 20
1.3878273E+002
 41
3.0
 42
3.0
 43
3.0
 50
0.0
  0
INSERT
  5
288
100
AcDbEntity
100
AcDbBlockReference
  2
_AH1
  8
2
 62
3
 10
6.0516897E+001
 20
1.3878273E+002
 41
3.0
 42
3.0
 43
3.0
 50
1.8E+002
  0
ENDBLK
  5
289
100
AcDbEntity
100
AcDbBlockEnd
  0
BLOCK
  5
28a
100
AcDbEntity
100
AcDbBlockBegin
  2
*D175
  3
*D
 10
0.0
 20
0.0
 70
65
  0
LINE
  5
28b
100
AcDbEntity
  8
4
100
AcDbLine
  6
CONTINUOUS
 62
3
 10
5.6516897E+001
 20
1.0209668E+002
 11
4.732934E+001
 21
1.0209668E+002
  0
LINE
  5
28c
100
AcDbEntity
  8
4
100
AcDbLine
  6
CONTINUOUS
 62
3
 10
5.6516897E+001
 20
9.9096682E+001
 11
4.732934E+001
 21
9.9096682E+001
  0
LINE
  5
28d
100
AcDbEntity
  8
4
100
AcDbLine
  6
CONTINUOUS
 62
3
 10
5.032934E+001
 20
1.0209668E+002
 11
5.032934E+001
 21
1.1077503E+002
  0
LINE
  5
28e
100
AcDbEntity
  8
4
100
AcDbLine
  6
CONTINUOUS
 62
3
 10
5.032934E+001
 20
9.3096682E+001
 11
5.032934E+001
 21
1.0209668E+002
  0
TEXT
  5
28f
100
AcDbEntity
  8
4
100
AcDbText
  6
CONTINUOUS
 62
3
 10
4.882834E+001
 20
1.0702503E+002
 40
3.0
  1
3
 41
7.5E-001
 50
9.0E+001
100
AcDbText
  0
INSERT
  5
290
100
AcDbEntity
100
AcDbBlockReference
  2
_AH1
  8
4
 62
3
 10
5.032934E+001
 20
1.0209668E+002
 41
3.0
 42
3.0
 43
3.0
 50
2.7E+002
  0
INSERT
  5
291
100
AcDbEntity
100
AcDbBlockReference
  2
_AH1
  8
4
 62
3
 10
5.032934E+001
 20
9.9096682E+001
 41
3.0
 42
3.0
 43
3.0
 50
9.0E+001
  0
ENDBLK
  5
292
100
AcDbEntity
100
AcDbBlockEnd
  0
BLOCK
  5
293
100
AcDbEntity
100
AcDbBlockBegin
  2
*D1697
  3
*D
 10
0.0
 20
0.0
 70
65
  0
LINE
  5
294
100
AcDbEntity
  8
2
100
AcDbLine
  6
CONTINUOUS
 62
3
 10
1.825169E+002
 20
1.5821765E+002
 11
1.9907684E+002
 21
1.5821765E+002
  0
LINE
  5
295
100
AcDbEntity
  8
2
100
AcDbLine
  6
CONTINUOUS
 62
3
 10
1.825169E+002
 20
1.6251765E+002
 11
1.9907684E+002
 21
1.6251765E+002
  0
LINE
  5
296
100
AcDbEntity
  8
2
100
AcDbLine
  6
CONTINUOUS
 62
3
 10
1.9607684E+002
 20
1.5821765E+002
 11
1.9607684E+002
 21
1.4470347E+002
  0
LINE
  5
297
100
AcDbEntity
  8
2
100
AcDbLine
  6
CONTINUOUS
 62
3
 10
1.9607684E+002
 20
1.6851765E+002
 11
1.9607684E+002
 21
1.5821765E+002
  0
TEXT
  5
298
100
AcDbEntity
  8
2
100
AcDbText
  6
CONTINUOUS
 62
3
 10
1.9457584E+002
 20
1.4620347E+002
 40
3.0
  1
%%c4,3
 41
7.5E-001
 50
9.0E+001
100
AcDbText
  0
INSERT
  5
299
100
AcDbEntity
100
AcDbBlockReference
  2
_AH1
  8
2
 62
3
 10
1.9607684E+002
 20
1.5821765E+002
 41
3.0
 42
3.0
 43
3.0
 50
9.0E+001
  0
INSERT
  5
29a
100
AcDbEntity
100
AcDbBlockReference
  2
_AH1
  8
2
 62
3
 10
1.9607684E+002
 20
1.6251765E+002
 41
3.0
 42
3.0
 43
3.0
 50
2.7E+002
  0
ENDBLK
  5
29b
100
AcDbEntity
100
AcDbBlockEnd
  0
BLOCK
  5
29c
100
AcDbEntity
100
AcDbBlockBegin
  2
*D1698
  3
*D
 10
0.0
 20
0.0
 70
65
  0
LINE
  5
29d
100
AcDbEntity
  8
2
100
AcDbLine
  6
CONTINUOUS
 62
3
 10
1.825169E+002
 20
1.6436765E+002
 11
2.091524E+002
 21
1.6436765E+002
  0
LINE
  5
29e
100
AcDbEntity
  8
2
100
AcDbLine
  6
CONTINUOUS
 62
3
 10
1.825169E+002
 20
1.5636765E+002
 11
2.091524E+002
 21
1.5636765E+002
  0
LINE
  5
29f
100
AcDbEntity
  8
2
100
AcDbLine
  6
CONTINUOUS
 62
3
 10
2.061524E+002
 20
1.7036765E+002
 11
2.061524E+002
 21
1.6436765E+002
  0
LINE
  5
2a0
100
AcDbEntity
  8
2
100
AcDbLine
  6
CONTINUOUS
 62
3
 10
2.061524E+002
 20
1.5036765E+002
 11
2.061524E+002
 21
1.6436765E+002
  0
TEXT
  5
2a1
100
AcDbEntity
  8
2
100
AcDbText
  6
CONTINUOUS
 62
3
 10
2.046514E+002
 20
1.5797339E+002
 40
3.0
  1
%%c8
 41
7.5E-001
 50
9.0E+001
100
AcDbText
  0
INSERT
  5
2a2
100
AcDbEntity
100
AcDbBlockReference
  2
_AH1
  8
2
 62
3
 10
2.061524E+002
 20
1.6436765E+002
 41
3.0
 42
3.0
 43
3.0
 50
2.7E+002
  0
INSERT
  5
2a3
100
AcDbEntity
100
AcDbBlockReference
  2
_AH1
  8
2
 62
3
 10
2.061524E+002
 20
1.5636765E+002
 41
3.0
 42
3.0
 43
3.0
 50
9.0E+001
  0
ENDBLK
  5
2a4
100
AcDbEntity
100
AcDbBlockEnd
  0
BLOCK
  5
2a5
100
AcDbEntity
100
AcDbBlockBegin
  2
*D1699
  3
*D
 10
0.0
 20
0.0
 70
65
  0
LINE
  5
2a6
100
AcDbEntity
  8
2
100
AcDbLine
  6
CONTINUOUS
 62
3
 10
1.825169E+002
 20
1.6036765E+002
 11
1.9487294E+002
 21
1.7597304E+002
  0
CIRCLE
  5
2a7
100
AcDbEntity
  8
2
100
AcDbCircle
  6
CONTINUOUS
 62
3
 10
1.825169E+002
 20
1.6036765E+002
 40
3.333336E-001
  0
LINE
  5
2a8
100
AcDbEntity
  8
2
100
AcDbLine
  6
CONTINUOUS
 62
3
 10
2.2562294E+002
 20
1.7597304E+002
 11
1.9487294E+002
 21
1.7597304E+002
  0
TEXT
  5
2a9
100
AcDbEntity
  8
2
100
AcDbText
  6
CONTINUOUS
 62
3
 10
1.9937294E+002
 20
1.7747304E+002
 40
3.0
  1
Senkung 85°
 41
7.5E-001
100
AcDbText
  0
ENDBLK
  5
2aa
100
AcDbEntity
100
AcDbBlockEnd
  0
ENDSEC
  0
SECTION
  2
ENTITIES
  0
CIRCLE
  5
2ab
100
AcDbEntity
  8
2
100
AcDbCircle
  6
CONTINUOUS
 62
1
 10
6.0516897E+001
 20
1.6036765E+002
 40
2.15
  0
CIRCLE
  5
2ac
100
AcDbEntity
  8
2
100
AcDbCircle
  6
CONTINUOUS
 62
1
 10
6.0516897E+001
 20
1.6036765E+002
 40
4.0
  0
LINE
  5
2ad
100
AcDbEntity
  8
2
100
AcDbLine
  6
CONTINUOUS
 62
30
 10
5.6516897E+001
 20
1.7236765E+002
 11
5.6516897E+001
 21
1.6036765E+002
  0
LINE
  5
2ae
100
AcDbEntity
  8
2
100
AcDbLine
  6
CONTINUOUS
 62
30
 10
5.6516897E+001
 20
1.6036765E+002
 11
5.6516897E+001
 21
1.4836765E+002
  0
LINE
  5
2af
100
AcDbEntity
  8
2
100
AcDbLine
  6
CONTINUOUS
 62
30
 10
1.335169E+002
 20
1.5566765E+002
 11
1.095169E+002
 21
1.5566765E+002
  0
LINE
  5
2b0
100
AcDbEntity
  8
2
100
AcDbLine
  6
CONTINUOUS
 62
30
 10
1.335169E+002
 20
1.5416765E+002
 11
1.335169E+002
 21
1.5566765E+002
  0
LINE
  5
2b1
100
AcDbEntity
  8
2
100
AcDbLine
  6
CONTINUOUS
 62
30
 10
1.435169E+002
 20
1.5416765E+002
 11
1.335169E+002
 21
1.5416765E+002
  0
LINE
  5
2b2
100
AcDbEntity
  8
2
100
AcDbLine
  6
CONTINUOUS
 62
30
 10
1.435169E+002
 20
1.6611765E+002
 11
1.435169E+002
 21
1.5416765E+002
  0
LINE
  5
2b3
100
AcDbEntity
  8
2
100
AcDbLine
  6
CONTINUOUS
 62
30
 10
1.457669E+002
 20
1.6836765E+002
 11
1.435169E+002
 21
1.6611765E+002
  0
LINE
  5
2b4
100
AcDbEntity
  8
2
100
AcDbLine
  6
CONTINUOUS
 62
30
 10
1.457669E+002
 20
1.7236765E+002
 11
1.457669E+002
 21
1.6836765E+002
  0
LINE
  5
2b5
100
AcDbEntity
  8
2
100
AcDbLine
  6
CONTINUOUS
 62
30
 10
1.865169E+002
 20
1.7236765E+002
 11
1.457669E+002
 21
1.7236765E+002
  0
LINE
  5
2b6
100
AcDbEntity
  8
2
100
AcDbLine
  6
CONTINUOUS
 62
30
 10
5.6516897E+001
 20
1.4836765E+002
 11
1.865169E+002
 21
1.4836765E+002
  0
LINE
  5
2b7
100
AcDbEntity
  8
2
100
AcDbLine
  6
CONTINUOUS
 62
30
 10
9.7266897E+001
 20
1.7236765E+002
 11
5.6516897E+001
 21
1.7236765E+002
  0
LINE
  5
2b8
100
AcDbEntity
  8
2
100
AcDbLine
  6
CONTINUOUS
 62
30
 10
9.7266897E+001
 20
1.6816765E+002
 11
9.7266897E+001
 21
1.7236765E+002
  0
LINE
  5
2b9
100
AcDbEntity
  8
2
100
AcDbLine
  6
CONTINUOUS
 62
30
 10
9.9516897E+001
 20
1.6611765E+002
 11
9.7266897E+001
 21
1.6816765E+002
  0
LINE
  5
2ba
100
AcDbEntity
  8
2
100
AcDbLine
  6
CONTINUOUS
 62
30
 10
9.9516897E+001
 20
1.6611765E+002
 11
9.9516897E+001
 21
1.5416765E+002
  0
LINE
  5
2bb
100
AcDbEntity
  8
2
100
AcDbLine
  6
CONTINUOUS
 62
30
 10
1.095169E+002
 20
1.5416765E+002
 11
9.9516897E+001
 21
1.5416765E+002
  0
LINE
  5
2bc
100
AcDbEntity
  8
2
100
AcDbLine
  6
CONTINUOUS
 62
30
 10
1.095169E+002
 20
1.5566765E+002
 11
1.095169E+002
 21
1.5416765E+002
  0
CIRCLE
  5
2bd
100
AcDbEntity
  8
2
100
AcDbCircle
  6
CONTINUOUS
 62
30
 10
9.5266897E+001
 20
1.6216765E+002
 40
3.9
  0
CIRCLE
  5
2be
100
AcDbEntity
  8
2
100
AcDbCircle
  6
CONTINUOUS
 62
30
 10
9.5266897E+001
 20
1.6216765E+002
 40
2.15
  0
CIRCLE
  5
2bf
100
AcDbEntity
  8
2
100
AcDbCircle
  6
CONTINUOUS
 62
30
 10
1.477669E+002
 20
1.6216765E+002
 40
3.9
  0
CIRCLE
  5
2c0
100
AcDbEntity
  8
2
100
AcDbCircle
  6
CONTINUOUS
 62
30
 10
1.477669E+002
 20
1.6216765E+002
 40
2.15
  0
LINE
  5
2c1
100
AcDbEntity
  8
2
100
AcDbLine
  6
CONTINUOUS
 62
30
 10
1.865169E+002
 20
1.6036765E+002
 11
1.865169E+002
 21
1.7236765E+002
  0
LINE
  5
2c2
100
AcDbEntity
  8
2
100
AcDbLine
  6
CONTINUOUS
 62
30
 10
1.865169E+002
 20
1.4836765E+002
 11
1.865169E+002
 21
1.6036765E+002
  0
CIRCLE
  5
2c3
100
AcDbEntity
  8
2
100
AcDbCircle
  6
CONTINUOUS
 62
1
 10
1.825169E+002
 20
1.6036765E+002
 40
4.0
  0
CIRCLE
  5
2c4
100
AcDbEntity
  8
2
100
AcDbCircle
  6
CONTINUOUS
 62
1
 10
1.825169E+002
 20
1.6036765E+002
 40
2.15
  0
POLYLINE
  5
2c5
100
AcDbEntity
  8
5
100
AcDb2dPolyline
  6
CONTINUOUS
 62
1
 66
1
 40
0.0
 41
0.0
 70
2
  0
VERTEX
  5
2c6
100
AcDbEntity
  8
5
100
AcDbVertex
100
AcDb2dVertex
 42
0.0
 10
2.762995E+001
 20
5.5626688E+001
 70
0
  0
VERTEX
  5
2c7
100
AcDbEntity
  8
5
100
AcDbVertex
100
AcDb2dVertex
 42
2.0579057E-002
 10
2.7582902E+001
 20
5.5550323E+001
 70
1
  0
VERTEX
  5
2c8
100
AcDbEntity
  8
5
100
AcDbVertex
100
AcDb2dVertex
 42
1.9583083E-002
 10
2.7541221E+001
 20
5.5468868E+001
 70
0
  0
VERTEX
  5
2c9
100
AcDbEntity
  8
5
100
AcDbVertex
100
AcDb2dVertex
 42
1.8781813E-002
 10
2.7505073E+001
 20
5.5382061E+001
 70
1
  0
VERTEX
  5
2ca
100
AcDbEntity
  8
5
100
AcDbVertex
100
AcDb2dVertex
 42
1.8660745E-002
 10
2.7474628E+001
 20
5.5290463E+001
 70
0
  0
VERTEX
  5
2cb
100
AcDbEntity
  8
5
100
AcDbVertex
100
AcDb2dVertex
 42
1.8178542E-002
 10
2.745058E+001
 20
5.5194325E+001
 70
1
  0
VERTEX
  5
2cc
100
AcDbEntity
  8
5
100
AcDbVertex
100
AcDb2dVertex
 42
1.7529172E-002
 10
2.7432908E+001
 20
5.5094271E+001
 70
0
  0
VERTEX
  5
2cd
100
AcDbEntity
  8
5
100
AcDbVertex
100
AcDb2dVertex
 42
1.681443E-002
 10
2.7422054E+001
 20
5.4990618E+001
 70
1
  0
VERTEX
  5
2ce
100
AcDbEntity
  8
5
100
AcDbVertex
100
AcDb2dVertex
 42
1.6186101E-002
 10
2.7417852E+001
 20
5.4884055E+001
 70
0
  0
VERTEX
  5
2cf
100
AcDbEntity
  8
5
100
AcDbVertex
100
AcDb2dVertex
 42
1.5499917E-002
 10
2.742065E+001
 20
5.4775056E+001
 70
1
  0
VERTEX
  5
2d0
100
AcDbEntity
  8
5
100
AcDbVertex
100
AcDb2dVertex
 42
1.4832781E-002
 10
2.7430123E+001
 20
5.4664319E+001
 70
0
  0
VERTEX
  5
2d1
100
AcDbEntity
  8
5
100
AcDbVertex
100
AcDb2dVertex
 42
1.4182893E-002
 10
2.7446454E+001
 20
5.455241E+001
 70
1
  0
VERTEX
  5
2d2
100
AcDbEntity
  8
5
100
AcDbVertex
100
AcDb2dVertex
 42
1.3557944E-002
 10
2.7469181E+001
 20
5.4439993E+001
 70
0
  0
VERTEX
  5
2d3
100
AcDbEntity
  8
5
100
AcDbVertex
100
AcDb2dVertex
 42
1.2985735E-002
 10
2.7498332E+001
 20
5.4327685E+001
 70
1
  0
VERTEX
  5
2d4
100
AcDbEntity
  8
5
100
AcDbVertex
100
AcDb2dVertex
 42
1.2416519E-002
 10
2.7533341E+001
 20
5.4216069E+001
 70
0
  0
VERTEX
  5
2d5
100
AcDbEntity
  8
5
100
AcDbVertex
100
AcDb2dVertex
 42
1.1928631E-002
 10
2.7574093E+001
 20
5.4105769E+001
 70
1
  0
VERTEX
  5
2d6
100
AcDbEntity
  8
5
100
AcDbVertex
100
AcDb2dVertex
 42
1.1425887E-002
 10
2.7619955E+001
 20
5.3997251E+001
 70
0
  0
VERTEX
  5
2d7
100
AcDbEntity
  8
5
100
AcDbVertex
100
AcDb2dVertex
 42
1.1020117E-002
 10
2.7670697E+001
 20
5.3891102E+001
 70
1
  0
VERTEX
  5
2d8
100
AcDbEntity
  8
5
100
AcDbVertex
100
AcDb2dVertex
 42
1.0579883E-002
 10
2.7725665E+001
 20
5.3787653E+001
 70
0
  0
VERTEX
  5
2d9
100
AcDbEntity
  8
5
100
AcDbVertex
100
AcDb2dVertex
 42
1.0250784E-002
 10
2.7784548E+001
 20
5.3687425E+001
 70
1
  0
VERTEX
  5
2da
100
AcDbEntity
  8
5
100
AcDbVertex
100
AcDb2dVertex
 42
9.8745246E-003
 10
2.7846713E+001
 20
5.3590602E+001
 70
0
  0
VERTEX
  5
2db
100
AcDbEntity
  8
5
100
AcDbVertex
100
AcDb2dVertex
 42
9.6018427E-003
 10
2.7911804E+001
 20
5.3497617E+001
 70
1
  0
VERTEX
  5
2dc
100
AcDbEntity
  8
5
100
AcDbVertex
100
AcDb2dVertex
 42
9.2580749E-003
 10
2.7979227E+001
 20
5.340853E+001
 70
0
  0
VERTEX
  5
2dd
100
AcDbEntity
  8
5
100
AcDbVertex
100
AcDb2dVertex
 42
9.0651941E-003
 10
2.8048603E+001
 20
5.3323684E+001
 70
1
  0
VERTEX
  5
2de
100
AcDbEntity
  8
5
100
AcDbVertex
100
AcDb2dVertex
 42
8.8254556E-003
 10
2.8119476E+001
 20
5.3242983E+001
 70
0
  0
VERTEX
  5
2df
100
AcDbEntity
  8
5
100
AcDbVertex
100
AcDb2dVertex
 42
8.5886378E-003
 10
2.8191497E+001
 20
5.3166666E+001
 70
1
  0
VERTEX
  5
2e0
100
AcDbEntity
  8
5
100
AcDbVertex
100
AcDb2dVertex
 42
8.1931778E-003
 10
2.8264058E+001
 20
5.3094691E+001
 70
0
  0
VERTEX
  5
2e1
100
AcDbEntity
  8
5
100
AcDbVertex
100
AcDb2dVertex
 42
8.3605519E-003
 10
2.8336977E+001
 20
5.3027083E+001
 70
1
  0
VERTEX
  5
2e2
100
AcDbEntity
  8
5
100
AcDbVertex
100
AcDb2dVertex
 42
8.3969443E-003
 10
2.8411855E+001
 20
5.2962152E+001
 70
0
  0
VERTEX
  5
2e3
100
AcDbEntity
  8
5
100
AcDbVertex
100
AcDb2dVertex
 42
8.3208169E-003
 10
2.8490519E+001
 20
5.2898496E+001
 70
1
  0
VERTEX
  5
2e4
100
AcDbEntity
  8
5
100
AcDbVertex
100
AcDb2dVertex
 42
8.8180977E-003
 10
2.8572961E+001
 20
5.2836264E+001
 70
0
  0
VERTEX
  5
2e5
100
AcDbEntity
  8
5
100
AcDbVertex
100
AcDb2dVertex
 42
9.1598533E-003
 10
2.865915E+001
 20
5.2776068E+001
 70
1
  0
VERTEX
  5
2e6
100
AcDbEntity
  8
5
100
AcDbVertex
100
AcDb2dVertex
 42
9.5161736E-003
 10
2.8748798E+001
 20
5.271824E+001
 70
0
  0
VERTEX
  5
2e7
100
AcDbEntity
  8
5
100
AcDbVertex
100
AcDb2dVertex
 42
9.8469412E-003
 10
2.8841896E+001
 20
5.2663291E+001
 70
1
  0
VERTEX
  5
2e8
100
AcDbEntity
  8
5
100
AcDbVertex
100
AcDb2dVertex
 42
1.0350281E-002
 10
2.8938072E+001
 20
5.2611565E+001
 70
0
  0
VERTEX
  5
2e9
100
AcDbEntity
  8
5
100
AcDbVertex
100
AcDb2dVertex
 42
1.0743914E-002
 10
2.9037168E+001
 20
5.2563679E+001
 70
1
  0
VERTEX
  5
2ea
100
AcDbEntity
  8
5
100
AcDbVertex
100
AcDb2dVertex
 42
1.1209577E-002
 10
2.9138697E+001
 20
5.251992E+001
 70
0
  0
VERTEX
  5
2eb
100
AcDbEntity
  8
5
100
AcDbVertex
100
AcDb2dVertex
 42
1.1808734E-002
 10
2.9242364E+001
 20
5.2480921E+001
 70
1
  0
VERTEX
  5
2ec
100
AcDbEntity
  8
5
100
AcDbVertex
100
AcDb2dVertex
 42
1.2694729E-002
 10
2.9347759E+001
 20
5.2446974E+001
 70
0
  0
VERTEX
  5
2ed
100
AcDbEntity
  8
5
100
AcDbVertex
100
AcDb2dVertex
 42
1.2926757E-002
 10
2.9454503E+001
 20
5.2418736E+001
 70
1
  0
VERTEX
  5
2ee
100
AcDbEntity
  8
5
100
AcDbVertex
100
AcDb2dVertex
 42
1.2704591E-002
 10
2.9561556E+001
 20
5.2396115E+001
 70
0
  0
VERTEX
  5
2ef
100
AcDbEntity
  8
5
100
AcDbVertex
100
AcDb2dVertex
 42
1.4682622E-002
 10
2.9668217E+001
 20
5.237962E+001
 70
1
  0
VERTEX
  5
2f0
100
AcDbEntity
  8
5
100
AcDbVertex
100
AcDb2dVertex
 42
1.8487794E-002
 10
2.9775751E+001
 20
5.2370154E+001
 70
0
  0
VERTEX
  5
2f1
100
AcDbEntity
  8
5
100
AcDbVertex
100
AcDb2dVertex
 42
1.488637E-002
 10
2.9884161E+001
 20
5.236852E+001
 70
1
  0
VERTEX
  5
2f2
100
AcDbEntity
  8
5
100
AcDbVertex
100
AcDb2dVertex
 42
5.5671773E-003
 10
2.9985601E+001
 20
5.2371042E+001
 70
0
  0
VERTEX
  5
2f3
100
AcDbEntity
  8
5
100
AcDbVertex
100
AcDb2dVertex
 42
2.2023784E-002
 10
3.0076874E+001
 20
5.2376873E+001
 70
1
  0
VERTEX
  5
2f4
100
AcDbEntity
  8
5
100
AcDbVertex
100
AcDb2dVertex
 42
4.1193828E-002
 10
3.0186281E+001
 20
5.2399651E+001
 70
0
  0
VERTEX
  5
2f5
100
AcDbEntity
  8
5
100
AcDbVertex
100
AcDb2dVertex
 42
2.1618275E-002
 10
3.034342E+001
 20
5.2454245E+001
 70
1
  0
VERTEX
  5
2f6
100
AcDbEntity
  8
5
100
AcDbVertex
100
AcDb2dVertex
 42
1.1628359E-002
 10
3.054249E+001
 20
5.2537474E+001
 70
0
  0
SEQEND
  5
2f7
100
AcDbEntity
  0
POLYLINE
  5
2f8
100
AcDbEntity
  8
5
100
AcDb2dPolyline
  6
CONTINUOUS
 62
1
 66
1
 40
0.0
 41
0.0
 70
2
  0
VERTEX
  5
2f9
100
AcDbEntity
  8
5
100
AcDbVertex
100
AcDb2dVertex
 42
0.0
 10
3.0754618E+001
 20
5.329114E+001
 70
0
  0
VERTEX
  5
2fa
100
AcDbEntity
  8
5
100
AcDbVertex
100
AcDb2dVertex
 42
-1.6025469E-002
 10
3.0752109E+001
 20
5.3196944E+001
 70
1
  0
VERTEX
  5
2fb
100
AcDbEntity
  8
5
100
AcDbVertex
100
AcDb2dVertex
 42
-1.5294577E-002
 10
3.0743743E+001
 20
5.3102545E+001
 70
0
  0
VERTEX
  5
2fc
100
AcDbEntity
  8
5
100
AcDbVertex
100
AcDb2dVertex
 42
-1.5551511E-002
 10
3.0729345E+001
 20
5.3007842E+001
 70
1
  0
VERTEX
  5
2fd
100
AcDbEntity
  8
5
100
AcDbVertex
100
AcDb2dVertex
 42
-1.7256817E-002
 10
3.0708694E+001
 20
5.2913472E+001
 70
0
  0
VERTEX
  5
2fe
100
AcDbEntity
  8
5
100
AcDbVertex
100
AcDb2dVertex
 42
-1.8479225E-002
 10
3.0680975E+001
 20
5.2820242E+001
 70
1
  0
VERTEX
  5
2ff
100
AcDbEntity
  8
5
100
AcDbVertex
100
AcDb2dVertex
 42
-1.9568934E-002
 10
3.0646143E+001
 20
5.2728783E+001
 70
0
  0
VERTEX
  5
300
100
AcDbEntity
  8
5
100
AcDbVertex
100
AcDb2dVertex
 42
-2.0513266E-002
 10
3.0603622E+001
 20
5.2639879E+001
 70
1
  0
VERTEX
  5
301
100
AcDbEntity
  8
5
100
AcDbVertex
100
AcDb2dVertex
 42
-2.1668732E-002
 10
3.0553515E+001
 20
5.2554197E+001
 70
0
  0
VERTEX
  5
302
100
AcDbEntity
  8
5
100
AcDbVertex
100
AcDb2dVertex
 42
-2.2472343E-002
 10
3.0495344E+001
 20
5.2472692E+001
 70
1
  0
VERTEX
  5
303
100
AcDbEntity
  8
5
100
AcDbVertex
100
AcDb2dVertex
 42
-2.3261865E-002
 10
3.0429422E+001
 20
5.2395984E+001
 70
0
  0
VERTEX
  5
304
100
AcDbEntity
  8
5
100
AcDbVertex
100
AcDb2dVertex
 42
-2.364883E-002
 10
3.0355488E+001
 20
5.2325082E+001
 70
1
  0
VERTEX
  5
305
100
AcDbEntity
  8
5
100
AcDbVertex
100
AcDb2dVertex
 42
-2.3953181E-002
 10
3.0274078E+001
 20
5.2260487E+001
 70
0
  0
VERTEX
  5
306
100
AcDbEntity
  8
5
100
AcDbVertex
100
AcDb2dVertex
 42
-2.3827839E-002
 10
3.0185185E+001
 20
5.2203193E+001
 70
1
  0
VERTEX
  5
307
100
AcDbEntity
  8
5
100
AcDbVertex
100
AcDb2dVertex
 42
-2.3572273E-002
 10
3.0089562E+001
 20
5.2153509E+001
 70
0
  0
VERTEX
  5
308
100
AcDbEntity
  8
5
100
AcDbVertex
100
AcDb2dVertex
 42
-2.2965284E-002
 10
2.9987478E+001
 20
5.2112316E+001
 70
1
  0
VERTEX
  5
309
100
AcDbEntity
  8
5
100
AcDbVertex
100
AcDb2dVertex
 42
-2.2254354E-002
 10
2.9879864E+001
 20
5.207967E+001
 70
0
  0
VERTEX
  5
30a
100
AcDbEntity
  8
5
100
AcDbVertex
100
AcDb2dVertex
 42
-2.1333732E-002
 10
2.9767247E+001
 20
5.2056258E+001
 70
1
  0
VERTEX
  5
30b
100
AcDbEntity
  8
5
100
AcDbVertex
100
AcDb2dVertex
 42
-2.0358997E-002
 10
2.9650656E+001
 20
5.2041851E+001
 70
0
  0
VERTEX
  5
30c
100
AcDbEntity
  8
5
100
AcDbVertex
100
AcDb2dVertex
 42
-1.932397E-002
 10
2.9530827E+001
 20
5.2036883E+001
 70
1
  0
VERTEX
  5
30d
100
AcDbEntity
  8
5
100
AcDbVertex
100
AcDb2dVertex
 42
-1.8270779E-002
 10
2.9408796E+001
 20
5.2040852E+001
 70
0
  0
VERTEX
  5
30e
100
AcDbEntity
  8
5
100
AcDbVertex
100
AcDb2dVertex
 42
-1.7272558E-002
 10
2.9285423E+001
 20
5.2053917E+001
 70
1
  0
VERTEX
  5
30f
100
AcDbEntity
  8
5
100
AcDbVertex
100
AcDb2dVertex
 42
-1.6264928E-002
 10
2.9161657E+001
 20
5.2075348E+001
 70
0
  0
VERTEX
  5
310
100
AcDbEntity
  8
5
100
AcDbVertex
100
AcDb2dVertex
 42
-1.5383283E-002
 10
2.9038394E+001
 20
5.2105046E+001
 70
1
  0
VERTEX
  5
311
100
AcDbEntity
  8
5
100
AcDbVertex
100
AcDb2dVertex
 42
-1.4479942E-002
 10
2.8916419E+001
 20
5.2142132E+001
 70
0
  0
VERTEX
  5
312
100
AcDbEntity
  8
5
100
AcDbVertex
100
AcDb2dVertex
 42
-1.3742572E-002
 10
2.879658E+001
 20
5.2186295E+001
 70
1
  0
VERTEX
  5
313
100
AcDbEntity
  8
5
100
AcDbVertex
100
AcDb2dVertex
 42
-1.2966158E-002
 10
2.8679448E+001
 20
5.2236596E+001
 70
0
  0
VERTEX
  5
314
100
AcDbEntity
  8
5
100
AcDbVertex
100
AcDb2dVertex
 42
-1.2360652E-002
 10
2.8565765E+001
 20
5.229258E+001
 70
1
  0
VERTEX
  5
315
100
AcDbEntity
  8
5
100
AcDbVertex
100
AcDb2dVertex
 42
-1.1685319E-002
 10
2.8455873E+001
 20
5.2353316E+001
 70
0
  0
VERTEX
  5
316
100
AcDbEntity
  8
5
100
AcDbVertex
100
AcDb2dVertex
 42
-1.122095E-002
 10
2.8350372E+001
 20
5.2418273E+001
 70
1
  0
VERTEX
  5
317
100
AcDbEntity
  8
5
100
AcDbVertex
100
AcDb2dVertex
 42
-1.0708742E-002
 10
2.8249383E+001
 20
5.2486629E+001
 70
0
  0
VERTEX
  5
318
100
AcDbEntity
  8
5
100
AcDbVertex
100
AcDb2dVertex
 42
-1.0261526E-002
 10
2.8153353E+001
 20
5.2557849E+001
 70
1
  0
VERTEX
  5
319
100
AcDbEntity
  8
5
100
AcDbVertex
100
AcDb2dVertex
 42
-9.605326E-003
 10
2.8062239E+001
 20
5.2631112E+001
 70
0
  0
VERTEX
  5
31a
100
AcDbEntity
  8
5
100
AcDbVertex
100
AcDb2dVertex
 42
-9.7038268E-003
 10
2.7975954E+001
 20
5.2706255E+001
 70
1
  0
VERTEX
  5
31b
100
AcDbEntity
  8
5
100
AcDbVertex
100
AcDb2dVertex
 42
-9.6990584E-003
 10
2.7892142E+001
 20
5.2785124E+001
 70
0
  0
VERTEX
  5
31c
100
AcDbEntity
  8
5
100
AcDbVertex
100
AcDb2dVertex
 42
-9.4900333E-003
 10
2.7808786E+001
 20
5.286994E+001
 70
1
  0
VERTEX
  5
31d
100
AcDbEntity
  8
5
100
AcDbVertex
100
AcDb2dVertex
 42
-1.0028811E-002
 10
2.7726312E+001
 20
5.2960569E+001
 70
0
  0
VERTEX
  5
31e
100
AcDbEntity
  8
5
100
AcDbVertex
100
AcDb2dVertex
 42
-1.0369306E-002
 10
2.7645717E+001
 20
5.3056958E+001
 70
1
  0
VERTEX
  5
31f
100
AcDbEntity
  8
5
100
AcDbVertex
100
AcDb2dVertex
 42
-1.0704315E-002
 10
2.7567557E+001
 20
5.3158733E+001
 70
0
  0
VERTEX
  5
320
100
AcDbEntity
  8
5
100
AcDbVertex
100
AcDb2dVertex
 42
-1.0984856E-002
 10
2.7492552E+001
 20
5.326595E+001
 70
1
  0
VERTEX
  5
321
100
AcDbEntity
  8
5
100
AcDbVertex
100
AcDb2dVertex
 42
-1.1480904E-002
 10
2.74213E+001
 20
5.337804E+001
 70
0
  0
VERTEX
  5
322
100
AcDbEntity
  8
5
100
AcDbVertex
100
AcDb2dVertex
 42
-1.1893031E-002
 10
2.7354736E+001
 20
5.3494768E+001
 70
1
  0
VERTEX
  5
323
100
AcDbEntity
  8
5
100
AcDbVertex
100
AcDb2dVertex
 42
-1.24459E-002
 10
2.7293398E+001
 20
5.3615406E+001
 70
0
  0
VERTEX
  5
324
100
AcDbEntity
  8
5
100
AcDbVertex
100
AcDb2dVertex
 42
-1.2954795E-002
 10
2.7238245E+001
 20
5.3739494E+001
 70
1
  0
VERTEX
  5
325
100
AcDbEntity
  8
5
100
AcDbVertex
100
AcDb2dVertex
 42
-1.361282E-002
 10
2.7189697E+001
 20
5.3866165E+001
 70
0
  0
VERTEX
  5
326
100
AcDbEntity
  8
5
100
AcDbVertex
100
AcDb2dVertex
 42
-1.4250555E-002
 10
2.7148689E+001
 20
5.3994717E+001
 70
1
  0
VERTEX
  5
327
100
AcDbEntity
  8
5
100
AcDbVertex
100
AcDb2dVertex
 42
-1.5006101E-002
 10
2.7115452E+001
 20
5.4124205E+001
 70
0
  0
VERTEX
  5
328
100
AcDbEntity
  8
5
100
AcDbVertex
100
AcDb2dVertex
 42
-1.5772735E-002
 10
2.7090802E+001
 20
5.4253729E+001
 70
1
  0
VERTEX
  5
329
100
AcDbEntity
  8
5
100
AcDbVertex
100
AcDb2dVertex
 42
-1.6614594E-002
 10
2.7074722E+001
 20
5.4382346E+001
 70
0
  0
VERTEX
  5
32a
100
AcDbEntity
  8
5
100
AcDbVertex
100
AcDb2dVertex
 42
-1.7493455E-002
 10
2.7067832E+001
 20
5.4509033E+001
 70
1
  0
VERTEX
  5
32b
100
AcDbEntity
  8
5
100
AcDbVertex
100
AcDb2dVertex
 42
-1.8376928E-002
 10
2.7069841E+001
 20
5.4632941E+001
 70
0
  0
VERTEX
  5
32c
100
AcDbEntity
  8
5
100
AcDbVertex
100
AcDb2dVertex
 42
-1.9303577E-002
 10
2.7081115E+001
 20
5.4753017E+001
 70
1
  0
VERTEX
  5
32d
100
AcDbEntity
  8
5
100
AcDbVertex
100
AcDb2dVertex
 42
-2.012469E-002
 10
2.7101095E+001
 20
5.4868595E+001
 70
0
  0
VERTEX
  5
32e
100
AcDbEntity
  8
5
100
AcDbVertex
100
AcDb2dVertex
 42
-2.0996785E-002
 10
2.712987E+001
 20
5.4978689E+001
 70
1
  0
VERTEX
  5
32f
100
AcDbEntity
  8
5
100
AcDbVertex
100
AcDb2dVertex
 42
-2.165522E-002
 10
2.7166678E+001
 20
5.508288E+001
 70
0
  0
VERTEX
  5
330
100
AcDbEntity
  8
5
100
AcDbVertex
100
AcDb2dVertex
 42
-2.2256496E-002
 10
2.7211354E+001
 20
5.5180329E+001
 70
1
  0
VERTEX
  5
331
100
AcDbEntity
  8
5
100
AcDbVertex
100
AcDb2dVertex
 42
-2.2429355E-002
 10
2.7262949E+001
 20
5.5270895E+001
 70
0
  0
VERTEX
  5
332
100
AcDbEntity
  8
5
100
AcDbVertex
100
AcDb2dVertex
 42
-2.2826168E-002
 10
2.7321074E+001
 20
5.5353939E+001
 70
1
  0
VERTEX
  5
333
100
AcDbEntity
  8
5
100
AcDbVertex
100
AcDb2dVertex
 42
-2.3009773E-002
 10
2.7384915E+001
 20
5.5429586E+001
 70
0
  0
VERTEX
  5
334
100
AcDbEntity
  8
5
100
AcDbVertex
100
AcDb2dVertex
 42
-2.2307842E-002
 10
2.7454009E+001
 20
5.5497417E+001
 70
1
  0
VERTEX
  5
335
100
AcDbEntity
  8
5
100
AcDbVertex
100
AcDb2dVertex
 42
-2.0429182E-002
 10
2.7526828E+001
 20
5.5557776E+001
 70
0
  0
VERTEX
  5
336
100
AcDbEntity
  8
5
100
AcDbVertex
100
AcDb2dVertex
 42
-2.1636116E-002
 10
2.7602586E+001
 20
5.5610448E+001
 70
1
  0
VERTEX
  5
337
100
AcDbEntity
  8
5
100
AcDbVertex
100
AcDb2dVertex
 42
-2.442266E-002
 10
2.7682785E+001
 20
5.5655964E+001
 70
0
  0
VERTEX
  5
338
100
AcDbEntity
  8
5
100
AcDbVertex
100
AcDb2dVertex
 42
-1.7998978E-002
 10
2.7767644E+001
 20
5.5694287E+001
 70
1
  0
VERTEX
  5
339
100
AcDbEntity
  8
5
100
AcDbVertex
100
AcDb2dVertex
 42
-5.1908674E-003
 10
2.7847211E+001
 20
5.5725969E+001
 70
0
  0
VERTEX
  5
33a
100
AcDbEntity
  8
5
100
AcDbVertex
100
AcDb2dVertex
 42
-2.3368742E-002
 10
2.7917777E+001
 20
5.5751083E+001
 70
1
  0
VERTEX
  5
33b
100
AcDbEntity
  8
5
100
AcDbVertex
100
AcDb2dVertex
 42
-3.8919574E-002
 10
2.8015447E+001
 20
5.5770561E+001
 70
0
  0
VERTEX
  5
33c
100
AcDbEntity
  8
5
100
AcDbVertex
100
AcDb2dVertex
 42
-1.6682108E-002
 10
2.8178265E+001
 20
5.5784789E+001
 70
1
  0
VERTEX
  5
33d
100
AcDbEntity
  8
5
100
AcDbVertex
100
AcDb2dVertex
 42
-8.4489674E-003
 10
2.8398644E+001
 20
5.579389E+001
 70
0
  0
SEQEND
  5
33e
100
AcDbEntity
  0
POLYLINE
  5
33f
100
AcDbEntity
  8
5
100
AcDb2dPolyline
  6
CONTINUOUS
 62
1
 66
1
 40
0.0
 41
0.0
 70
2
  0
VERTEX
  5
340
100
AcDbEntity
  8
5
100
AcDbVertex
100
AcDb2dVertex
 42
0.0
 10
3.0754619E+001
 20
5.3295001E+001
 70
0
  0
VERTEX
  5
341
100
AcDbEntity
  8
5
100
AcDbVertex
100
AcDb2dVertex
 42
-4.43307E-005
 10
3.075462E+001
 20
5.3294872E+001
 70
1
  0
VERTEX
  5
342
100
AcDbEntity
  8
5
100
AcDbVertex
100
AcDb2dVertex
 42
-4.43197E-005
 10
3.075462E+001
 20
5.3294744E+001
 70
0
  0
VERTEX
  5
343
100
AcDbEntity
  8
5
100
AcDbVertex
100
AcDb2dVertex
 42
-4.4303E-005
 10
3.075462E+001
 20
5.3294616E+001
 70
1
  0
VERTEX
  5
344
100
AcDbEntity
  8
5
100
AcDbVertex
100
AcDb2dVertex
 42
-4.42813E-005
 10
3.075462E+001
 20
5.3294487E+001
 70
0
  0
VERTEX
  5
345
100
AcDbEntity
  8
5
100
AcDbVertex
100
AcDb2dVertex
 42
-4.42614E-005
 10
3.0754621E+001
 20
5.3294359E+001
 70
1
  0
VERTEX
  5
346
100
AcDbEntity
  8
5
100
AcDbVertex
100
AcDb2dVertex
 42
-4.42431E-005
 10
3.0754621E+001
 20
5.329423E+001
 70
0
  0
VERTEX
  5
347
100
AcDbEntity
  8
5
100
AcDbVertex
100
AcDb2dVertex
 42
-4.42233E-005
 10
3.0754621E+001
 20
5.3294102E+001
 70
1
  0
VERTEX
  5
348
100
AcDbEntity
  8
5
100
AcDbVertex
100
AcDb2dVertex
 42
-4.4202E-005
 10
3.0754621E+001
 20
5.3293973E+001
 70
0
  0
VERTEX
  5
349
100
AcDbEntity
  8
5
100
AcDbVertex
100
AcDb2dVertex
 42
-4.4185E-005
 10
3.0754621E+001
 20
5.3293844E+001
 70
1
  0
VERTEX
  5
34a
100
AcDbEntity
  8
5
100
AcDbVertex
100
AcDb2dVertex
 42
-4.41721E-005
 10
3.0754621E+001
 20
5.3293716E+001
 70
0
  0
VERTEX
  5
34b
100
AcDbEntity
  8
5
100
AcDbVertex
100
AcDb2dVertex
 42
-4.4144E-005
 10
3.0754621E+001
 20
5.3293587E+001
 70
1
  0
VERTEX
  5
34c
100
AcDbEntity
  8
5
100
AcDbVertex
100
AcDb2dVertex
 42
-4.41021E-005
 10
3.0754621E+001
 20
5.3293459E+001
 70
0
  0
VERTEX
  5
34d
100
AcDbEntity
  8
5
100
AcDbVertex
100
AcDb2dVertex
 42
-4.41141E-005
 10
3.0754621E+001
 20
5.329333E+001
 70
1
  0
VERTEX
  5
34e
100
AcDbEntity
  8
5
100
AcDbVertex
100
AcDb2dVertex
 42
-4.41734E-005
 10
3.0754621E+001
 20
5.3293201E+001
 70
0
  0
VERTEX
  5
34f
100
AcDbEntity
  8
5
100
AcDbVertex
100
AcDb2dVertex
 42
-4.40443E-005
 10
3.0754621E+001
 20
5.3293073E+001
 70
1
  0
VERTEX
  5
350
100
AcDbEntity
  8
5
100
AcDbVertex
100
AcDb2dVertex
 42
-4.37568E-005
 10
3.0754621E+001
 20
5.3292944E+001
 70
0
  0
VERTEX
  5
351
100
AcDbEntity
  8
5
100
AcDbVertex
100
AcDb2dVertex
 42
-4.41164E-005
 10
3.0754621E+001
 20
5.3292815E+001
 70
1
  0
VERTEX
  5
352
100
AcDbEntity
  8
5
100
AcDbVertex
100
AcDb2dVertex
 42
-4.49897E-005
 10
3.0754621E+001
 20
5.3292687E+001
 70
0
  0
VERTEX
  5
353
100
AcDbEntity
  8
5
100
AcDbVertex
100
AcDb2dVertex
 42
-4.36932E-005
 10
3.0754621E+001
 20
5.3292558E+001
 70
1
  0
VERTEX
  5
354
100
AcDbEntity
  8
5
100
AcDbVertex
100
AcDb2dVertex
 42
-4.07832E-005
 10
3.0754621E+001
 20
5.3292429E+001
 70
0
  0
VERTEX
  5
355
100
AcDbEntity
  8
5
100
AcDbVertex
100
AcDb2dVertex
 42
-4.499E-005
 10
3.0754621E+001
 20
5.3292301E+001
 70
1
  0
VERTEX
  5
356
100
AcDbEntity
  8
5
100
AcDbVertex
100
AcDb2dVertex
 42
-5.35961E-005
 10
3.075462E+001
 20
5.3292171E+001
 70
0
  0
VERTEX
  5
357
100
AcDbEntity
  8
5
100
AcDbVertex
100
AcDb2dVertex
 42
-4.067E-005
 10
3.075462E+001
 20
5.3292039E+001
 70
1
  0
VERTEX
  5
358
100
AcDbEntity
  8
5
100
AcDbVertex
100
AcDb2dVertex
 42
-1.39736E-005
 10
3.075462E+001
 20
5.3291914E+001
 70
0
  0
VERTEX
  5
359
100
AcDbEntity
  8
5
100
AcDbVertex
100
AcDb2dVertex
 42
-5.73221E-005
 10
3.075462E+001
 20
5.3291801E+001
 70
1
  0
VERTEX
  5
35a
100
AcDbEntity
  8
5
100
AcDbVertex
100
AcDb2dVertex
 42
-9.85491E-005
 10
3.0754619E+001
 20
5.3291656E+001
 70
0
  0
VERTEX
  5
35b
100
AcDbEntity
  8
5
100
AcDbVertex
100
AcDb2dVertex
 42
-4.816E-005
 10
3.0754619E+001
 20
5.3291433E+001
 70
1
  0
VERTEX
  5
35c
100
AcDbEntity
  8
5
100
AcDbVertex
100
AcDb2dVertex
 42
-2.55173E-005
 10
3.0754618E+001
 20
5.329114E+001
 70
0
  0
SEQEND
  5
35d
100
AcDbEntity
  0
POLYLINE
  5
35e
100
AcDbEntity
  8
5
100
AcDb2dPolyline
  6
CONTINUOUS
 62
1
 66
1
 40
0.0
 41
0.0
 70
2
  0
VERTEX
  5
35f
100
AcDbEntity
  8
5
100
AcDbVertex
100
AcDb2dVertex
 42
0.0
 10
2.4442325E+001
 20
5.4101754E+001
 70
0
  0
VERTEX
  5
360
100
AcDbEntity
  8
5
100
AcDbVertex
100
AcDb2dVertex
 42
-4.8375738E-003
 10
2.4442862E+001
 20
5.4160113E+001
 70
1
  0
VERTEX
  5
361
100
AcDbEntity
  8
5
100
AcDbVertex
100
AcDb2dVertex
 42
-4.7428977E-003
 10
2.4444506E+001
 20
5.4218643E+001
 70
0
  0
VERTEX
  5
362
100
AcDbEntity
  8
5
100
AcDbVertex
100
AcDb2dVertex
 42
-4.769537E-003
 10
2.4447297E+001
 20
5.4277356E+001
 70
1
  0
VERTEX
  5
363
100
AcDbEntity
  8
5
100
AcDbVertex
100
AcDb2dVertex
 42
-4.9446736E-003
 10
2.4451224E+001
 20
5.4336208E+001
 70
0
  0
VERTEX
  5
364
100
AcDbEntity
  8
5
100
AcDbVertex
100
AcDb2dVertex
 42
-5.0674048E-003
 10
2.4456377E+001
 20
5.4395161E+001
 70
1
  0
VERTEX
  5
365
100
AcDbEntity
  8
5
100
AcDbVertex
100
AcDb2dVertex
 42
-5.17851E-003
 10
2.4462738E+001
 20
5.4454177E+001
 70
0
  0
VERTEX
  5
366
100
AcDbEntity
  8
5
100
AcDbVertex
100
AcDb2dVertex
 42
-5.2816622E-003
 10
2.4470387E+001
 20
5.4513223E+001
 70
1
  0
VERTEX
  5
367
100
AcDbEntity
  8
5
100
AcDbVertex
100
AcDb2dVertex
 42
-5.4147019E-003
 10
2.4479302E+001
 20
5.4572258E+001
 70
0
  0
VERTEX
  5
368
100
AcDbEntity
  8
5
100
AcDbVertex
100
AcDb2dVertex
 42
-5.5282682E-003
 10
2.4489569E+001
 20
5.4631241E+001
 70
1
  0
VERTEX
  5
369
100
AcDbEntity
  8
5
100
AcDbVertex
100
AcDb2dVertex
 42
-5.6615263E-003
 10
2.4501162E+001
 20
5.4690132E+001
 70
0
  0
VERTEX
  5
36a
100
AcDbEntity
  8
5
100
AcDbVertex
100
AcDb2dVertex
 42
-5.7747042E-003
 10
2.4514167E+001
 20
5.4748885E+001
 70
1
  0
VERTEX
  5
36b
100
AcDbEntity
  8
5
100
AcDbVertex
100
AcDb2dVertex
 42
-5.9071897E-003
 10
2.4528553E+001
 20
5.4807459E+001
 70
0
  0
VERTEX
  5
36c
100
AcDbEntity
  8
5
100
AcDbVertex
100
AcDb2dVertex
 42
-6.0290071E-003
 10
2.4544406E+001
 20
5.48658E+001
 70
1
  0
VERTEX
  5
36d
100
AcDbEntity
  8
5
100
AcDbVertex
100
AcDb2dVertex
 42
-6.1789728E-003
 10
2.4561696E+001
 20
5.4923876E+001
 70
0
  0
VERTEX
  5
36e
100
AcDbEntity
  8
5
100
AcDbVertex
100
AcDb2dVertex
 42
-6.2785169E-003
 10
2.458051E+001
 20
5.4981626E+001
 70
1
  0
VERTEX
  5
36f
100
AcDbEntity
  8
5
100
AcDbVertex
100
AcDb2dVertex
 42
-6.3708684E-003
 10
2.4600795E+001
 20
5.5038998E+001
 70
0
  0
VERTEX
  5
370
100
AcDbEntity
  8
5
100
AcDbVertex
100
AcDb2dVertex
 42
-6.5495363E-003
 10
2.462263E+001
 20
5.5095921E+001
 70
1
  0
VERTEX
  5
371
100
AcDbEntity
  8
5
100
AcDbVertex
100
AcDb2dVertex
 42
-6.8357049E-003
 10
2.4646032E+001
 20
5.5152425E+001
 70
0
  0
VERTEX
  5
372
100
AcDbEntity
  8
5
100
AcDbVertex
100
AcDb2dVertex
 42
-6.734159E-003
 10
2.4671105E+001
 20
5.5208462E+001
 70
1
  0
VERTEX
  5
373
100
AcDbEntity
  8
5
100
AcDbVertex
100
AcDb2dVertex
 42
-6.3666128E-003
 10
2.4697566E+001
 20
5.5263737E+001
 70
0
  0
VERTEX
  5
374
100
AcDbEntity
  8
5
100
AcDbVertex
100
AcDb2dVertex
 42
-7.1969434E-003
 10
2.4725416E+001
 20
5.5318083E+001
 70
1
  0
VERTEX
  5
375
100
AcDbEntity
  8
5
100
AcDbVertex
100
AcDb2dVertex
 42
-8.8290162E-003
 10
2.4755527E+001
 20
5.5372503E+001
 70
0
  0
VERTEX
  5
376
100
AcDbEntity
  8
5
100
AcDbVertex
100
AcDb2dVertex
 42
-6.6872528E-003
 10
2.4788295E+001
 20
5.5427267E+001
 70
1
  0
VERTEX
  5
377
100
AcDbEntity
  8
5
100
AcDbVertex
100
AcDb2dVertex
 42
-2.0817744E-003
 10
2.4820013E+001
 20
5.547828E+001
 70
0
  0
VERTEX
  5
378
100
AcDbEntity
  8
5
100
AcDbVertex
100
AcDb2dVertex
 42
-9.8044461E-003
 10
2.4849496E+001
 20
5.5524048E+001
 70
1
  0
VERTEX
  5
379
100
AcDbEntity
  8
5
100
AcDbVertex
100
AcDb2dVertex
 42
-1.7289965E-002
 10
2.4891088E+001
 20
5.558062E+001
 70
0
  0
VERTEX
  5
37a
100
AcDbEntity
  8
5
100
AcDbVertex
100
AcDb2dVertex
 42
-8.3973116E-003
 10
2.4959968E+001
 20
5.5664771E+001
 70
1
  0
VERTEX
  5
37b
100
AcDbEntity
  8
5
100
AcDbVertex
100
AcDb2dVertex
 42
-4.384992E-003
 10
2.5053066E+001
 20
5.5773194E+001
 70
0
  0
SEQEND
  5
37c
100
AcDbEntity
  0
POLYLINE
  5
37d
100
AcDbEntity
  8
5
100
AcDb2dPolyline
  6
CONTINUOUS
 62
1
 66
1
 40
0.0
 41
0.0
 70
2
  0
VERTEX
  5
37e
100
AcDbEntity
  8
5
100
AcDbVertex
100
AcDb2dVertex
 42
0.0
 10
3.0537161E+001
 20
4.9956434E+001
 70
0
  0
VERTEX
  5
37f
100
AcDbEntity
  8
5
100
AcDbVertex
100
AcDb2dVertex
 42
-1.5478865E-002
 10
3.042895E+001
 20
4.9871336E+001
 70
1
  0
VERTEX
  5
380
100
AcDbEntity
  8
5
100
AcDbVertex
100
AcDb2dVertex
 42
-1.6434183E-002
 10
3.0317464E+001
 20
4.9794491E+001
 70
0
  0
VERTEX
  5
381
100
AcDbEntity
  8
5
100
AcDbVertex
100
AcDb2dVertex
 42
-1.6453409E-002
 10
3.0202483E+001
 20
4.9726278E+001
 70
1
  0
VERTEX
  5
382
100
AcDbEntity
  8
5
100
AcDbVertex
100
AcDb2dVertex
 42
-1.5509146E-002
 10
3.0084723E+001
 20
4.9666089E+001
 70
0
  0
VERTEX
  5
383
100
AcDbEntity
  8
5
100
AcDbVertex
100
AcDb2dVertex
 42
-1.4802493E-002
 10
2.9964842E+001
 20
4.9613931E+001
 70
1
  0
VERTEX
  5
384
100
AcDbEntity
  8
5
100
AcDbVertex
100
AcDb2dVertex
 42
-1.4105802E-002
 10
2.9843761E+001
 20
4.9569254E+001
 70
0
  0
VERTEX
  5
385
100
AcDbEntity
  8
5
100
AcDbVertex
100
AcDb2dVertex
 42
-1.3722643E-002
 10
2.9722021E+001
 20
4.953207E+001
 70
1
  0
VERTEX
  5
386
100
AcDbEntity
  8
5
100
AcDbVertex
100
AcDb2dVertex
 42
-1.296972E-002
 10
2.9598885E+001
 20
4.9501453E+001
 70
0
  0
VERTEX
  5
387
100
AcDbEntity
  8
5
100
AcDbVertex
100
AcDb2dVertex
 42
-1.2664014E-002
 10
2.9473041E+001
 20
4.947705E+001
 70
1
  0
VERTEX
  5
388
100
AcDbEntity
  8
5
100
AcDbVertex
100
AcDb2dVertex
 42
-1.2644879E-002
 10
2.934272E+001
 20
4.9458489E+001
 70
0
  0
VERTEX
  5
389
100
AcDbEntity
  8
5
100
AcDbVertex
100
AcDb2dVertex
 42
-1.2267692E-002
 10
2.9206047E+001
 20
4.9446088E+001
 70
1
  0
VERTEX
  5
38a
100
AcDbEntity
  8
5
100
AcDbVertex
100
AcDb2dVertex
 42
-1.2349399E-002
 10
2.906352E+001
 20
4.9440091E+001
 70
0
  0
VERTEX
  5
38b
100
AcDbEntity
  8
5
100
AcDbVertex
100
AcDb2dVertex
 42
-1.2232559E-002
 10
2.8915488E+001
 20
4.9441342E+001
 70
1
  0
VERTEX
  5
38c
100
AcDbEntity
  8
5
100
AcDbVertex
100
AcDb2dVertex
 42
-1.2098349E-002
 10
2.8762366E+001
 20
4.9449984E+001
 70
0
  0
VERTEX
  5
38d
100
AcDbEntity
  8
5
100
AcDbVertex
100
AcDb2dVertex
 42
-1.1846057E-002
 10
2.8604107E+001
 20
4.9466739E+001
 70
1
  0
VERTEX
  5
38e
100
AcDbEntity
  8
5
100
AcDbVertex
100
AcDb2dVertex
 42
-1.1750827E-002
 10
2.8441274E+001
 20
4.9491671E+001
 70
0
  0
VERTEX
  5
38f
100
AcDbEntity
  8
5
100
AcDbVertex
100
AcDb2dVertex
 42
-1.1521546E-002
 10
2.827411E+001
 20
4.9525504E+001
 70
1
  0
VERTEX
  5
390
100
AcDbEntity
  8
5
100
AcDbVertex
100
AcDb2dVertex
 42
-1.1385311E-002
 10
2.8103263E+001
 20
4.9568182E+001
 70
0
  0
VERTEX
  5
391
100
AcDbEntity
  8
5
100
AcDbVertex
100
AcDb2dVertex
 42
-1.115001E-002
 10
2.7929111E+001
 20
4.9620348E+001
 70
1
  0
VERTEX
  5
392
100
AcDbEntity
  8
5
100
AcDbVertex
100
AcDb2dVertex
 42
-1.1015245E-002
 10
2.7752385E+001
 20
4.9681804E+001
 70
0
  0
VERTEX
  5
393
100
AcDbEntity
  8
5
100
AcDbVertex
100
AcDb2dVertex
 42
-1.0798734E-002
 10
2.7573642E+001
 20
4.9753078E+001
 70
1
  0
VERTEX
  5
394
100
AcDbEntity
  8
5
100
AcDbVertex
100
AcDb2dVertex
 42
-1.0666142E-002
 10
2.7393666E+001
 20
4.9833813E+001
 70
0
  0
VERTEX
  5
395
100
AcDbEntity
  8
5
100
AcDbVertex
100
AcDb2dVertex
 42
-1.0474186E-002
 10
2.7213169E+001
 20
4.9924381E+001
 70
1
  0
VERTEX
  5
396
100
AcDbEntity
  8
5
100
AcDbVertex
100
AcDb2dVertex
 42
-1.0353594E-002
 10
2.7032954E+001
 20
5.0024254E+001
 70
0
  0
VERTEX
  5
397
100
AcDbEntity
  8
5
100
AcDbVertex
100
AcDb2dVertex
 42
-1.0193701E-002
 10
2.6853863E+001
 20
5.013362E+001
 70
1
  0
VERTEX
  5
398
100
AcDbEntity
  8
5
100
AcDbVertex
100
AcDb2dVertex
 42
-1.0089534E-002
 10
2.6676668E+001
 20
5.0251785E+001
 70
0
  0
VERTEX
  5
399
100
AcDbEntity
  8
5
100
AcDbVertex
100
AcDb2dVertex
 42
-9.9654163E-003
 10
2.6502302E+001
 20
5.0378732E+001
 70
1
  0
VERTEX
  5
39a
100
AcDbEntity
  8
5
100
AcDbVertex
100
AcDb2dVertex
 42
-9.880589E-003
 10
2.6331457E+001
 20
5.0513628E+001
 70
0
  0
VERTEX
  5
39b
100
AcDbEntity
  8
5
100
AcDbVertex
100
AcDb2dVertex
 42
-9.7949621E-003
 10
2.6165106E+001
 20
5.0656248E+001
 70
1
  0
VERTEX
  5
39c
100
AcDbEntity
  8
5
100
AcDbVertex
100
AcDb2dVertex
 42
-9.7323342E-003
 10
2.6003815E+001
 20
5.0805655E+001
 70
0
  0
VERTEX
  5
39d
100
AcDbEntity
  8
5
100
AcDbVertex
100
AcDb2dVertex
 42
-9.6838652E-003
 10
2.5848539E+001
 20
5.0961435E+001
 70
1
  0
VERTEX
  5
39e
100
AcDbEntity
  8
5
100
AcDbVertex
100
AcDb2dVertex
 42
-9.638771E-003
 10
2.5699679E+001
 20
5.1122592E+001
 70
0
  0
VERTEX
  5
39f
100
AcDbEntity
  8
5
100
AcDbVertex
100
AcDb2dVertex
 42
-9.6335052E-003
 10
2.5558125E+001
 20
5.1288553E+001
 70
1
  0
VERTEX
  5
3a0
100
AcDbEntity
  8
5
100
AcDbVertex
100
AcDb2dVertex
 42
-9.6231721E-003
 10
2.5424082E+001
 20
5.1458336E+001
 70
0
  0
VERTEX
  5
3a1
100
AcDbEntity
  8
5
100
AcDbVertex
100
AcDb2dVertex
 42
-9.6346787E-003
 10
2.5298329E+001
 20
5.1631258E+001
 70
1
  0
VERTEX
  5
3a2
100
AcDbEntity
  8
5
100
AcDbVertex
100
AcDb2dVertex
 42
-9.5925884E-003
 10
2.5180874E+001
 20
5.180633E+001
 70
0
  0
VERTEX
  5
3a3
100
AcDbEntity
  8
5
100
AcDbVertex
100
AcDb2dVertex
 42
-9.7069597E-003
 10
2.5072356E+001
 20
5.198278E+001
 70
1
  0
VERTEX
  5
3a4
100
AcDbEntity
  8
5
100
AcDbVertex
100
AcDb2dVertex
 42
-9.8611408E-003
 10
2.4972578E+001
 20
5.2159971E+001
 70
0
  0
VERTEX
  5
3a5
100
AcDbEntity
  8
5
100
AcDbVertex
100
AcDb2dVertex
 42
-9.755528E-003
 10
2.4882019E+001
 20
5.2337199E+001
 70
1
  0
VERTEX
  5
3a6
100
AcDbEntity
  8
5
100
AcDbVertex
100
AcDb2dVertex
 42
-9.2969838E-003
 10
2.4800354E+001
 20
5.2512977E+001
 70
0
  0
VERTEX
  5
3a7
100
AcDbEntity
  8
5
100
AcDbVertex
100
AcDb2dVertex
 42
-1.0095888E-002
 10
2.4727924E+001
 20
5.268629E+001
 70
1
  0
VERTEX
  5
3a8
100
AcDbEntity
  8
5
100
AcDbVertex
100
AcDb2dVertex
 42
-1.1701977E-002
 10
2.4664085E+001
 20
5.2859695E+001
 70
0
  0
VERTEX
  5
3a9
100
AcDbEntity
  8
5
100
AcDbVertex
100
AcDb2dVertex
 42
-9.5616721E-003
 10
2.4608973E+001
 20
5.3033572E+001
 70
1
  0
VERTEX
  5
3aa
100
AcDbEntity
  8
5
100
AcDbVertex
100
AcDb2dVertex
 42
-4.4653523E-003
 10
2.4562546E+001
 20
5.3195307E+001
 70
0
  0
VERTEX
  5
3ab
100
AcDbEntity
  8
5
100
AcDbVertex
100
AcDb2dVertex
 42
-1.2620427E-002
 10
2.4525055E+001
 20
5.3340077E+001
 70
1
  0
VERTEX
  5
3ac
100
AcDbEntity
  8
5
100
AcDbVertex
100
AcDb2dVertex
 42
-2.1939656E-002
 10
2.4493631E+001
 20
5.3515954E+001
 70
0
  0
VERTEX
  5
3ad
100
AcDbEntity
  8
5
100
AcDbVertex
100
AcDb2dVertex
 42
-1.1975517E-002
 10
2.446599E+001
 20
5.377313E+001
 70
1
  0
VERTEX
  5
3ae
100
AcDbEntity
  8
5
100
AcDbVertex
100
AcDb2dVertex
 42
-6.8739676E-003
 10
2.4442325E+001
 20
5.4101754E+001
 70
0
  0
SEQEND
  5
3af
100
AcDbEntity
  0
LINE
  5
3b0
100
AcDbEntity
  8
2
100
AcDbLine
  6
CENTERLINE
 62
3
 10
1.215169E+002
 20
1.507044E+002
 11
1.215169E+002
 21
1.7377544E+002
  0
LINE
  5
3b1
100
AcDbEntity
  8
2
100
AcDbLine
  6
CENTERLINE
 62
3
 10
6.3516897E+001
 20
1.6036765E+002
 11
5.7516897E+001
 21
1.6036765E+002
  0
LINE
  5
3b2
100
AcDbEntity
  8
2
100
AcDbLine
  6
CENTERLINE
 62
3
 10
6.0516897E+001
 20
1.6336765E+002
 11
6.0516897E+001
 21
1.5736765E+002
  0
LINE
  5
3b3
100
AcDbEntity
  8
2
100
AcDbLine
  6
CENTERLINE
 62
3
 10
6.5016897E+001
 20
1.6036765E+002
 11
6.7516897E+001
 21
1.6036765E+002
  0
LINE
  5
3b4
100
AcDbEntity
  8
2
100
AcDbLine
  6
CENTERLINE
 62
3
 10
6.0516897E+001
 20
1.6486765E+002
 11
6.0516897E+001
 21
1.6736765E+002
  0
LINE
  5
3b5
100
AcDbEntity
  8
2
100
AcDbLine
  6
CENTERLINE
 62
3
 10
5.6016897E+001
 20
1.6036765E+002
 11
5.3516897E+001
 21
1.6036765E+002
  0
LINE
  5
3b6
100
AcDbEntity
  8
2
100
AcDbLine
  6
CENTERLINE
 62
3
 10
6.0516897E+001
 20
1.5586765E+002
 11
6.0516897E+001
 21
1.5336765E+002
  0
LINE
  5
3b7
100
AcDbEntity
  8
2
100
AcDbLine
  6
CENTERLINE
 62
3
 10
9.8266897E+001
 20
1.6216765E+002
 11
9.2266897E+001
 21
1.6216765E+002
  0
LINE
  5
3b8
100
AcDbEntity
  8
2
100
AcDbLine
  6
CENTERLINE
 62
3
 10
9.5266897E+001
 20
1.6516765E+002
 11
9.5266897E+001
 21
1.5916765E+002
  0
LINE
  5
3b9
100
AcDbEntity
  8
2
100
AcDbLine
  6
CENTERLINE
 62
3
 10
9.9766897E+001
 20
1.6216765E+002
 11
1.021669E+002
 21
1.6216765E+002
  0
LINE
  5
3ba
100
AcDbEntity
  8
2
100
AcDbLine
  6
CENTERLINE
 62
3
 10
9.5266897E+001
 20
1.6666765E+002
 11
9.5266897E+001
 21
1.6906765E+002
  0
LINE
  5
3bb
100
AcDbEntity
  8
2
100
AcDbLine
  6
CENTERLINE
 62
3
 10
9.0766897E+001
 20
1.6216765E+002
 11
8.8366897E+001
 21
1.6216765E+002
  0
LINE
  5
3bc
100
AcDbEntity
  8
2
100
AcDbLine
  6
CENTERLINE
 62
3
 10
9.5266897E+001
 20
1.5766765E+002
 11
9.5266897E+001
 21
1.5526765E+002
  0
LINE
  5
3bd
100
AcDbEntity
  8
2
100
AcDbLine
  6
CENTERLINE
 62
3
 10
1.507669E+002
 20
1.6216765E+002
 11
1.447669E+002
 21
1.6216765E+002
  0
LINE
  5
3be
100
AcDbEntity
  8
2
100
AcDbLine
  6
CENTERLINE
 62
3
 10
1.477669E+002
 20
1.6516765E+002
 11
1.477669E+002
 21
1.5916765E+002
  0
LINE
  5
3bf
100
AcDbEntity
  8
2
100
AcDbLine
  6
CENTERLINE
 62
3
 10
1.522669E+002
 20
1.6216765E+002
 11
1.546669E+002
 21
1.6216765E+002
  0
LINE
  5
3c0
100
AcDbEntity
  8
2
100
AcDbLine
  6
CENTERLINE
 62
3
 10
1.477669E+002
 20
1.6666765E+002
 11
1.477669E+002
 21
1.6906765E+002
  0
LINE
  5
3c1
100
AcDbEntity
  8
2
100
AcDbLine
  6
CENTERLINE
 62
3
 10
1.432669E+002
 20
1.6216765E+002
 11
1.408669E+002
 21
1.6216765E+002
  0
LINE
  5
3c2
100
AcDbEntity
  8
2
100
AcDbLine
  6
CENTERLINE
 62
3
 10
1.477669E+002
 20
1.5766765E+002
 11
1.477669E+002
 21
1.5526765E+002
  0
LINE
  5
3c3
100
AcDbEntity
  8
2
100
AcDbLine
  6
CENTERLINE
 62
3
 10
1.855169E+002
 20
1.6036765E+002
 11
1.795169E+002
 21
1.6036765E+002
  0
LINE
  5
3c4
100
AcDbEntity
  8
2
100
AcDbLine
  6
CENTERLINE
 62
3
 10
1.825169E+002
 20
1.6336765E+002
 11
1.825169E+002
 21
1.5736765E+002
  0
LINE
  5
3c5
100
AcDbEntity
  8
2
100
AcDbLine
  6
CENTERLINE
 62
3
 10
1.870169E+002
 20
1.6036765E+002
 11
1.895169E+002
 21
1.6036765E+002
  0
LINE
  5
3c6
100
AcDbEntity
  8
2
100
AcDbLine
  6
CENTERLINE
 62
3
 10
1.825169E+002
 20
1.6486765E+002
 11
1.825169E+002
 21
1.6736765E+002
  0
LINE
  5
3c7
100
AcDbEntity
  8
2
100
AcDbLine
  6
CENTERLINE
 62
3
 10
1.780169E+002
 20
1.6036765E+002
 11
1.755169E+002
 21
1.6036765E+002
  0
LINE
  5
3c8
100
AcDbEntity
  8
2
100
AcDbLine
  6
CENTERLINE
 62
3
 10
1.825169E+002
 20
1.5586765E+002
 11
1.825169E+002
 21
1.5336765E+002
  0
DIMENSION
  5
3c9
100
AcDbEntity
  8
2
100
AcDbDimension
  6
CONTINUOUS
 62
3
  2
*D120
  3
DSTYLE1
 10
8.2351857E+001
 20
1.6216765E+002
 11
7.9350857E+001
 21
1.6698412E+002
 70
128
100
AcDbAlignedDimension
 13
9.7266897E+001
 23
1.7236765E+002
 14
8.8366897E+001
 24
1.6216765E+002
 40
3.0
 50
2.7E+002
100
AcDbRotatedDimension
1001
ACAD
1000
DSTYLE
1002
{
1070
173
1070
0
1070
5
1000
_AH1
1002
}
  0
DIMENSION
  5
3ca
100
AcDbEntity
  8
2
100
AcDbDimension
  6
CONTINUOUS
 62
3
  2
*D121
  3
DSTYLE1
 10
4.8131788E+001
 20
1.6036765E+002
 11
4.5130788E+001
 21
1.6616652E+002
 70
128
100
AcDbAlignedDimension
 13
5.6516897E+001
 23
1.7236765E+002
 14
5.3516897E+001
 24
1.6036765E+002
 40
3.0
 50
2.7E+002
100
AcDbRotatedDimension
1001
ACAD
1000
DSTYLE
1002
{
1070
173
1070
0
1070
5
1000
_AH1
1002
}
  0
DIMENSION
  5
3cb
100
AcDbEntity
  8
2
100
AcDbDimension
  6
CONTINUOUS
 62
3
  2
*D122
  3
DSTYLE2
 10
4.026536E+001
 20
1.4836765E+002
 11
3.613936E+001
 21
1.6052484E+002
 70
128
100
AcDbAlignedDimension
 13
5.6516897E+001
 23
1.7236765E+002
 14
5.6516897E+001
 24
1.4836765E+002
 40
3.0
 50
2.7E+002
100
AcDbRotatedDimension
1001
ACAD
1000
DSTYLE
1002
{
1070
173
1070
0
1070
5
1000
_AH1
1070
47
1040
0.0
1070
48
1040
-3.0E-001
1002
}
  0
DIMENSION
  5
3cc
100
AcDbEntity
  8
2
100
AcDbDimension
  6
CONTINUOUS
 62
3
  2
*D123
  3
DSTYLE2
 10
1.865169E+002
 20
1.8840975E+002
 11
1.2231245E+002
 21
1.9253575E+002
 70
128
100
AcDbAlignedDimension
 13
5.6516897E+001
 23
1.7236765E+002
 14
1.865169E+002
 24
1.7236765E+002
 40
3.0
 50
0.0
100
AcDbRotatedDimension
1001
ACAD
1000
DSTYLE
1002
{
1070
173
1070
0
1070
5
1000
_AH1
1070
47
1040
0.0
1070
48
1040
-3.0E-001
1002
}
  0
DIMENSION
  5
3cd
100
AcDbEntity
  8
2
100
AcDbDimension
  6
CONTINUOUS
 62
3
  2
*D124
  3
DSTYLE3
 10
1.215169E+002
 20
1.813195E+002
 11
8.8470181E+001
 21
1.843205E+002
 70
128
100
AcDbAlignedDimension
 13
5.6516897E+001
 23
1.7236765E+002
 14
1.215169E+002
 24
1.7377544E+002
 40
3.0
 50
0.0
100
AcDbRotatedDimension
1001
ACAD
1000
DSTYLE
1002
{
1070
173
1070
0
1070
5
1000
_AH1
1070
47
1040
2.0E-001
1070
48
1040
2.0E-001
1002
}
  0
DIMENSION
  5
3ce
100
AcDbEntity
  8
2
100
AcDbDimension
  6
CONTINUOUS
 62
3
  2
*D125
  3
DSTYLE3
 10
1.825169E+002
 20
1.3880959E+002
 11
1.2088845E+002
 21
1.4181059E+002
 70
128
100
AcDbAlignedDimension
 13
6.0516897E+001
 23
1.5336765E+002
 14
1.825169E+002
 24
1.5336765E+002
 40
3.0
 50
0.0
100
AcDbRotatedDimension
1001
ACAD
1000
DSTYLE
1002
{
1070
173
1070
0
1070
5
1000
_AH1
1070
47
1040
2.0E-001
1070
48
1040
2.0E-001
1002
}
  0
DIMENSION
  5
3cf
100
AcDbEntity
  8
2
100
AcDbDimension
  6
CONTINUOUS
 62
3
  2
*D126
  3
DSTYLE1
 10
6.0516897E+001
 20
1.3878273E+002
 11
5.0793041E+001
 21
1.4178373E+002
 70
128
100
AcDbAlignedDimension
 13
5.6516897E+001
 23
1.4836765E+002
 14
6.0516897E+001
 24
1.5336765E+002
 40
3.0
 50
0.0
100
AcDbRotatedDimension
1001
ACAD
1000
DSTYLE
1002
{
1070
173
1070
0
1070
5
1000
_AH1
1002
}
  0
LINE
  5
3d0
100
AcDbEntity
  8
5
100
AcDbLine
  6
CONTINUOUS
 62
30
 10
2.4287975E+001
 20
5.3956211E+001
 11
2.4442325E+001
 21
5.4101754E+001
  0
ELLIPSE
  5
3d1
100
AcDbEntity
  8
5
100
AcDbEllipse
  6
CONTINUOUS
 10
2.7717939E+001
 20
5.2792053E+001
 11
2.7439776
 21
-2.9104273
 40
7.0710678E-001
 41
0.0
 42
6.2831853
 62
1
  0
LINE
  5
3d2
100
AcDbEntity
  8
5
100
AcDbLine
  6
CONTINUOUS
 62
30
 10
2.4287975E+001
 20
6.3851677E+001
 11
2.4287975E+001
 21
5.3956211E+001
  0
LINE
  5
3d3
100
AcDbEntity
  8
5
100
AcDbLine
  6
CONTINUOUS
 62
30
 10
2.5831445E+001
 20
6.5306878E+001
 11
2.4287975E+001
 21
6.3851677E+001
  0
LINE
  5
3d4
100
AcDbEntity
  8
5
100
AcDbLine
  6
CONTINUOUS
 62
30
 10
2.4287975E+001
 20
5.3956211E+001
 11
2.4288003E+001
 21
4.4060774E+001
  0
LINE
  5
3d5
100
AcDbEntity
  8
5
100
AcDbLine
  6
CONTINUOUS
 62
30
 10
7.1278574E+001
 20
3.6110463E+001
 11
9.1858414E+001
 21
2.9125429E+001
  0
LINE
  5
3d6
100
AcDbEntity
  8
5
100
AcDbLine
  6
CONTINUOUS
 62
30
 10
7.1278574E+001
 20
3.6110463E+001
 11
6.9735104E+001
 21
3.4655233E+001
  0
LINE
  5
3d7
100
AcDbEntity
  8
5
100
AcDbLine
  6
CONTINUOUS
 62
30
 10
9.0314915E+001
 20
2.7670199E+001
 11
6.9735104E+001
 21
3.4655233E+001
  0
LINE
  5
3d8
100
AcDbEntity
  8
5
100
AcDbLine
  6
CONTINUOUS
 62
30
 10
9.0314915E+001
 20
2.7670199E+001
 11
9.1858414E+001
 21
2.9125429E+001
  0
LINE
  5
3d9
100
AcDbEntity
  8
5
100
AcDbLine
  6
CONTINUOUS
 62
30
 10
9.1858414E+001
 20
2.9125429E+001
 11
9.1858414E+001
 21
2.7888499E+001
  0
LINE
  5
3da
100
AcDbEntity
  8
5
100
AcDbLine
  6
CONTINUOUS
 62
30
 10
9.0314915E+001
 20
2.6433269E+001
 11
9.0314915E+001
 21
2.7670199E+001
  0
LINE
  5
3db
100
AcDbEntity
  8
5
100
AcDbLine
  6
CONTINUOUS
 62
30
 10
9.1858414E+001
 20
2.7888499E+001
 11
9.0314915E+001
 21
2.6433269E+001
  0
LINE
  5
3dc
100
AcDbEntity
  8
5
100
AcDbLine
  6
CONTINUOUS
 62
30
 10
9.1858414E+001
 20
2.7888499E+001
 11
9.8889853E+001
 21
2.5501944E+001
  0
LINE
  5
3dd
100
AcDbEntity
  8
5
100
AcDbLine
  6
CONTINUOUS
 62
30
 10
9.8889842E+001
 20
2.3522867E+001
 11
9.0314915E+001
 21
2.6433269E+001
  0
LINE
  5
3de
100
AcDbEntity
  8
5
100
AcDbLine
  6
CONTINUOUS
 62
30
 10
9.8889842E+001
 20
3.3377081E+001
 11
9.8889842E+001
 21
2.3522867E+001
  0
LINE
  5
3df
100
AcDbEntity
  8
5
100
AcDbLine
  6
CONTINUOUS
 62
30
 10
1.0043334E+002
 20
3.4832283E+001
 11
9.8889842E+001
 21
3.3377081E+001
  0
LINE
  5
3e0
100
AcDbEntity
  8
5
100
AcDbLine
  6
CONTINUOUS
 62
30
 10
1.0043334E+002
 20
3.4832283E+001
 11
1.0081921E+002
 21
3.50724E+001
  0
LINE
  5
3e1
100
AcDbEntity
  8
5
100
AcDbLine
  6
CONTINUOUS
 62
30
 10
1.008192E+002
 20
3.4577618E+001
 11
9.8889842E+001
 21
3.3377081E+001
  0
LINE
  5
3e2
100
AcDbEntity
  8
5
100
AcDbLine
  6
CONTINUOUS
 62
30
 10
1.008192E+002
 20
3.7876097E+001
 11
1.008192E+002
 21
3.4577618E+001
  0
LINE
  5
3e3
100
AcDbEntity
  8
5
100
AcDbLine
  6
CONTINUOUS
 62
30
 10
1.023627E+002
 20
3.9331327E+001
 11
1.008192E+002
 21
3.7876097E+001
  0
LINE
  5
3e4
100
AcDbEntity
  8
5
100
AcDbLine
  6
CONTINUOUS
 62
30
 10
1.023627E+002
 20
3.9331327E+001
 11
1.3730554E+002
 21
2.7471331E+001
  0
LINE
  5
3e5
100
AcDbEntity
  8
5
100
AcDbLine
  6
CONTINUOUS
 62
30
 10
1.3576204E+002
 20
2.601613E+001
 11
1.008192E+002
 21
3.7876097E+001
  0
LINE
  5
3e6
100
AcDbEntity
  8
5
100
AcDbLine
  6
CONTINUOUS
 62
30
 10
1.3730554E+002
 20
2.7471331E+001
 11
1.3576204E+002
 21
2.601613E+001
  0
LINE
  5
3e7
100
AcDbEntity
  8
5
100
AcDbLine
  6
CONTINUOUS
 62
30
 10
1.3730554E+002
 20
7.6804284
 11
1.3576204E+002
 21
6.2251986
  0
LINE
  5
3e8
100
AcDbEntity
  8
5
100
AcDbLine
  6
CONTINUOUS
 62
30
 10
2.4288003E+001
 20
4.4060774E+001
 11
1.3576204E+002
 21
6.2251986
  0
LINE
  5
3e9
100
AcDbEntity
  8
5
100
AcDbLine
  6
CONTINUOUS
 62
30
 10
2.5831445E+001
 20
6.5306878E+001
 11
6.0774289E+001
 21
5.344691E+001
  0
LINE
  5
3ea
100
AcDbEntity
  8
5
100
AcDbLine
  6
CONTINUOUS
 62
30
 10
5.9230818E+001
 20
5.1991681E+001
 11
2.4287975E+001
 21
6.3851677E+001
  0
LINE
  5
3eb
100
AcDbEntity
  8
5
100
AcDbLine
  6
CONTINUOUS
 62
30
 10
6.0774289E+001
 20
5.344691E+001
 11
5.9230818E+001
 21
5.1991681E+001
  0
LINE
  5
3ec
100
AcDbEntity
  8
5
100
AcDbLine
  6
CONTINUOUS
 62
30
 10
6.0774289E+001
 20
5.344691E+001
 11
6.0774289E+001
 21
4.9983485E+001
  0
LINE
  5
3ed
100
AcDbEntity
  8
5
100
AcDbLine
  6
CONTINUOUS
 62
30
 10
5.9230818E+001
 20
4.8528283E+001
 11
5.9230818E+001
 21
5.1991681E+001
  0
LINE
  5
3ee
100
AcDbEntity
  8
5
100
AcDbLine
  6
CONTINUOUS
 62
30
 10
6.0774289E+001
 20
4.9983485E+001
 11
5.9230818E+001
 21
4.8528283E+001
  0
LINE
  5
3ef
100
AcDbEntity
  8
5
100
AcDbLine
  6
CONTINUOUS
 62
30
 10
6.0774289E+001
 20
4.9983485E+001
 11
6.2703648E+001
 21
4.7638179E+001
  0
LINE
  5
3f0
100
AcDbEntity
  8
5
100
AcDbLine
  6
CONTINUOUS
 62
30
 10
6.1160178E+001
 20
4.618295E+001
 11
5.9230818E+001
 21
4.8528283E+001
  0
LINE
  5
3f1
100
AcDbEntity
  8
5
100
AcDbLine
  6
CONTINUOUS
 62
30
 10
6.2703648E+001
 20
4.7638179E+001
 11
6.1160178E+001
 21
4.618295E+001
  0
LINE
  5
3f2
100
AcDbEntity
  8
5
100
AcDbLine
  6
CONTINUOUS
 62
30
 10
6.2703648E+001
 20
3.7783936E+001
 11
6.2703648E+001
 21
4.7638179E+001
  0
LINE
  5
3f3
100
AcDbEntity
  8
5
100
AcDbLine
  6
CONTINUOUS
 62
30
 10
6.1160178E+001
 20
4.618295E+001
 11
6.1160178E+001
 21
3.6328735E+001
  0
LINE
  5
3f4
100
AcDbEntity
  8
5
100
AcDbLine
  6
CONTINUOUS
 62
30
 10
6.1160178E+001
 20
3.6328735E+001
 11
6.2703648E+001
 21
3.7783936E+001
  0
LINE
  5
3f5
100
AcDbEntity
  8
5
100
AcDbLine
  6
CONTINUOUS
 62
30
 10
6.2703648E+001
 20
3.7783936E+001
 11
7.0313901E+001
 21
3.5200944E+001
  0
LINE
  5
3f6
100
AcDbEntity
  8
5
100
AcDbLine
  6
CONTINUOUS
 62
30
 10
6.9735104E+001
 20
3.3418304E+001
 11
6.1160178E+001
 21
3.6328735E+001
  0
LINE
  5
3f7
100
AcDbEntity
  8
5
100
AcDbLine
  6
CONTINUOUS
 62
30
 10
6.9735104E+001
 20
3.4655233E+001
 11
6.9735104E+001
 21
3.3418304E+001
  0
POLYLINE
  5
3f8
100
AcDbEntity
  8
5
100
AcDb2dPolyline
  6
CONTINUOUS
 62
30
 66
1
 40
0.0
 41
0.0
 70
2
  0
VERTEX
  5
3f9
100
AcDbEntity
  8
5
100
AcDbVertex
100
AcDb2dVertex
 42
0.0
 10
6.0266392E+001
 20
4.1399829E+001
 70
0
  0
VERTEX
  5
3fa
100
AcDbEntity
  8
5
100
AcDbVertex
100
AcDb2dVertex
 42
-2.3130949E-002
 10
6.0125314E+001
 20
4.1291218E+001
 70
1
  0
VERTEX
  5
3fb
100
AcDbEntity
  8
5
100
AcDbVertex
100
AcDb2dVertex
 42
-2.2540633E-002
 10
5.9973392E+001
 20
4.1194704E+001
 70
0
  0
VERTEX
  5
3fc
100
AcDbEntity
  8
5
100
AcDbVertex
100
AcDb2dVertex
 42
-2.1810677E-002
 10
5.9810042E+001
 20
4.1110666E+001
 70
1
  0
VERTEX
  5
3fd
100
AcDbEntity
  8
5
100
AcDbVertex
100
AcDb2dVertex
 42
-2.1615189E-002
 10
5.9636635E+001
 20
4.1039446E+001
 70
0
  0
VERTEX
  5
3fe
100
AcDbEntity
  8
5
100
AcDbVertex
100
AcDb2dVertex
 42
-2.1049196E-002
 10
5.9453944E+001
 20
4.0982548E+001
 70
1
  0
VERTEX
  5
3ff
100
AcDbEntity
  8
5
100
AcDbVertex
100
AcDb2dVertex
 42
-2.0214752E-002
 10
5.9263453E+001
 20
4.093981E+001
 70
0
  0
VERTEX
  5
400
100
AcDbEntity
  8
5
100
AcDbVertex
100
AcDb2dVertex
 42
-1.9306826E-002
 10
5.9066034E+001
 20
4.0912078E+001
 70
1
  0
VERTEX
  5
401
100
AcDbEntity
  8
5
100
AcDbVertex
100
AcDb2dVertex
 42
-1.8428679E-002
 10
5.8863276E+001
 20
4.0898815E+001
 70
0
  0
VERTEX
  5
402
100
AcDbEntity
  8
5
100
AcDbVertex
100
AcDb2dVertex
 42
-1.752319E-002
 10
5.8656368E+001
 20
4.0900579E+001
 70
1
  0
VERTEX
  5
403
100
AcDbEntity
  8
5
100
AcDbVertex
100
AcDb2dVertex
 42
-1.6590464E-002
 10
5.8446849E+001
 20
4.0916455E+001
 70
0
  0
VERTEX
  5
404
100
AcDbEntity
  8
5
100
AcDbVertex
100
AcDb2dVertex
 42
-1.5730707E-002
 10
5.8236037E+001
 20
4.094659E+001
 70
1
  0
VERTEX
  5
405
100
AcDbEntity
  8
5
100
AcDbVertex
100
AcDb2dVertex
 42
-1.4864358E-002
 10
5.8025304E+001
 20
4.0989782E+001
 70
0
  0
VERTEX
  5
406
100
AcDbEntity
  8
5
100
AcDbVertex
100
AcDb2dVertex
 42
-1.4112737E-002
 10
5.7815994E+001
 20
4.1045832E+001
 70
1
  0
VERTEX
  5
407
100
AcDbEntity
  8
5
100
AcDbVertex
100
AcDb2dVertex
 42
-1.3335103E-002
 10
5.7609223E+001
 20
4.1113354E+001
 70
0
  0
VERTEX
  5
408
100
AcDbEntity
  8
5
100
AcDbVertex
100
AcDb2dVertex
 42
-1.2704945E-002
 10
5.7406252E+001
 20
4.1191862E+001
 70
1
  0
VERTEX
  5
409
100
AcDbEntity
  8
5
100
AcDbVertex
100
AcDb2dVertex
 42
-1.2037405E-002
 10
5.7207875E+001
 20
4.1279918E+001
 70
0
  0
VERTEX
  5
40a
100
AcDbEntity
  8
5
100
AcDbVertex
100
AcDb2dVertex
 42
-1.1509385E-002
 10
5.7015194E+001
 20
4.1376843E+001
 70
1
  0
VERTEX
  5
40b
100
AcDbEntity
  8
5
100
AcDbVertex
100
AcDb2dVertex
 42
-1.0913539E-002
 10
5.6828703E+001
 20
4.1481207E+001
 70
0
  0
VERTEX
  5
40c
100
AcDbEntity
  8
5
100
AcDbVertex
100
AcDb2dVertex
 42
-1.051868E-002
 10
5.6649313E+001
 20
4.1592215E+001
 70
1
  0
VERTEX
  5
40d
100
AcDbEntity
  8
5
100
AcDbVertex
100
AcDb2dVertex
 42
-1.0084043E-002
 10
5.64771E+001
 20
4.1708695E+001
 70
0
  0
VERTEX
  5
40e
100
AcDbEntity
  8
5
100
AcDbVertex
100
AcDb2dVertex
 42
-9.6574037E-003
 10
5.6312727E+001
 20
4.1829874E+001
 70
1
  0
VERTEX
  5
40f
100
AcDbEntity
  8
5
100
AcDbVertex
100
AcDb2dVertex
 42
-9.0629568E-003
 10
5.6156443E+001
 20
4.1954224E+001
 70
0
  0
VERTEX
  5
410
100
AcDbEntity
  8
5
100
AcDbVertex
100
AcDb2dVertex
 42
-9.1459078E-003
 10
5.6008444E+001
 20
4.2081219E+001
 70
1
  0
VERTEX
  5
411
100
AcDbEntity
  8
5
100
AcDbVertex
100
AcDb2dVertex
 42
-9.0673112E-003
 10
5.5864859E+001
 20
4.2213733E+001
 70
0
  0
VERTEX
  5
412
100
AcDbEntity
  8
5
100
AcDbVertex
100
AcDb2dVertex
 42
-8.8695592E-003
 10
5.5722272E+001
 20
4.2355302E+001
 70
1
  0
VERTEX
  5
413
100
AcDbEntity
  8
5
100
AcDbVertex
100
AcDb2dVertex
 42
-9.3301116E-003
 10
5.5580981E+001
 20
4.250601E+001
 70
0
  0
VERTEX
  5
414
100
AcDbEntity
  8
5
100
AcDbVertex
100
AcDb2dVertex
 42
-9.597162E-003
 10
5.5442213E+001
 20
4.2666071E+001
 70
1
  0
VERTEX
  5
415
100
AcDbEntity
  8
5
100
AcDbVertex
100
AcDb2dVertex
 42
-9.891023E-003
 10
5.5306805E+001
 20
4.283493E+001
 70
0
  0
VERTEX
  5
416
100
AcDbEntity
  8
5
100
AcDbVertex
100
AcDb2dVertex
 42
-1.0130894E-002
 10
5.517586E+001
 20
4.3012709E+001
 70
1
  0
VERTEX
  5
417
100
AcDbEntity
  8
5
100
AcDbVertex
100
AcDb2dVertex
 42
-1.0543976E-002
 10
5.5050267E+001
 20
4.3198609E+001
 70
0
  0
VERTEX
  5
418
100
AcDbEntity
  8
5
100
AcDbVertex
100
AcDb2dVertex
 42
-1.0875963E-002
 10
5.493139E+001
 20
4.3392417E+001
 70
1
  0
VERTEX
  5
419
100
AcDbEntity
  8
5
100
AcDbVertex
100
AcDb2dVertex
 42
-1.1332467E-002
 10
5.4820058E+001
 20
4.3593097E+001
 70
0
  0
VERTEX
  5
41a
100
AcDbEntity
  8
5
100
AcDbVertex
100
AcDb2dVertex
 42
-1.1751521E-002
 10
5.4717719E+001
 20
4.3800103E+001
 70
1
  0
VERTEX
  5
41b
100
AcDbEntity
  8
5
100
AcDbVertex
100
AcDb2dVertex
 42
-1.2313758E-002
 10
5.462508E+001
 20
4.4012206E+001
 70
0
  0
VERTEX
  5
41c
100
AcDbEntity
  8
5
100
AcDbVertex
100
AcDb2dVertex
 42
-1.2801445E-002
 10
5.4543608E+001
 20
4.4228513E+001
 70
1
  0
VERTEX
  5
41d
100
AcDbEntity
  8
5
100
AcDbVertex
100
AcDb2dVertex
 42
-1.3356012E-002
 10
5.4473731E+001
 20
4.4447587E+001
 70
0
  0
VERTEX
  5
41e
100
AcDbEntity
  8
5
100
AcDbVertex
100
AcDb2dVertex
 42
-1.4071109E-002
 10
5.4416795E+001
 20
4.4668198E+001
 70
1
  0
VERTEX
  5
41f
100
AcDbEntity
  8
5
100
AcDbVertex
100
AcDb2dVertex
 42
-1.5036122E-002
 10
5.4373094E+001
 20
4.4889093E+001
 70
0
  0
VERTEX
  5
420
100
AcDbEntity
  8
5
100
AcDbVertex
100
AcDb2dVertex
 42
-1.5407284E-002
 10
5.434382E+001
 20
4.5108881E+001
 70
1
  0
VERTEX
  5
421
100
AcDbEntity
  8
5
100
AcDbVertex
100
AcDb2dVertex
 42
-1.523538E-002
 10
5.432816E+001
 20
4.5325455E+001
 70
0
  0
VERTEX
  5
422
100
AcDbEntity
  8
5
100
AcDbVertex
100
AcDb2dVertex
 42
-1.7332568E-002
 10
5.4326734E+001
 20
4.5536977E+001
 70
1
  0
VERTEX
  5
423
100
AcDbEntity
  8
5
100
AcDbVertex
100
AcDb2dVertex
 42
-2.126587E-002
 10
5.434123E+001
 20
4.5745168E+001
 70
0
  0
VERTEX
  5
424
100
AcDbEntity
  8
5
100
AcDbVertex
100
AcDb2dVertex
 42
-1.7589137E-002
 10
5.4372891E+001
 20
4.5949442E+001
 70
1
  0
VERTEX
  5
425
100
AcDbEntity
  8
5
100
AcDbVertex
100
AcDb2dVertex
 42
-7.6965848E-003
 10
5.4411632E+001
 20
4.6137481E+001
 70
0
  0
VERTEX
  5
426
100
AcDbEntity
  8
5
100
AcDbVertex
100
AcDb2dVertex
 42
-2.4742969E-002
 10
5.4454371E+001
 20
4.6303888E+001
 70
1
  0
VERTEX
  5
427
100
AcDbEntity
  8
5
100
AcDbVertex
100
AcDb2dVertex
 42
-4.4815541E-002
 10
5.4535798E+001
 20
4.6493296E+001
 70
0
  0
VERTEX
  5
428
100
AcDbEntity
  8
5
100
AcDbVertex
100
AcDb2dVertex
 42
-2.3944166E-002
 10
5.4693507E+001
 20
4.6751948E+001
 70
1
  0
VERTEX
  5
429
100
AcDbEntity
  8
5
100
AcDbVertex
100
AcDb2dVertex
 42
-1.3183346E-002
 10
5.4919595E+001
 20
4.7070963E+001
 70
0
  0
SEQEND
  5
42a
100
AcDbEntity
  0
POLYLINE
  5
42b
100
AcDbEntity
  8
5
100
AcDb2dPolyline
  6
CONTINUOUS
 62
30
 66
1
 40
0.0
 41
0.0
 70
2
  0
VERTEX
  5
42c
100
AcDbEntity
  8
5
100
AcDbVertex
100
AcDb2dVertex
 42
0.0
 10
6.0414139E+001
 20
4.4531295E+001
 70
0
  0
VERTEX
  5
42d
100
AcDbEntity
  8
5
100
AcDbVertex
100
AcDb2dVertex
 42
-1.6728154E-002
 10
6.0411439E+001
 20
4.4433464E+001
 70
1
  0
VERTEX
  5
42e
100
AcDbEntity
  8
5
100
AcDbVertex
100
AcDb2dVertex
 42
-1.5949674E-002
 10
6.0402392E+001
 20
4.4335455E+001
 70
0
  0
VERTEX
  5
42f
100
AcDbEntity
  8
5
100
AcDbVertex
100
AcDb2dVertex
 42
-1.6226702E-002
 10
6.0386811E+001
 20
4.4237158E+001
 70
1
  0
VERTEX
  5
430
100
AcDbEntity
  8
5
100
AcDbVertex
100
AcDb2dVertex
 42
-1.8071984E-002
 10
6.0364444E+001
 20
4.4139289E+001
 70
0
  0
VERTEX
  5
431
100
AcDbEntity
  8
5
100
AcDbVertex
100
AcDb2dVertex
 42
-1.9392326E-002
 10
6.0334394E+001
 20
4.4042763E+001
 70
1
  0
VERTEX
  5
432
100
AcDbEntity
  8
5
100
AcDbVertex
100
AcDb2dVertex
 42
-2.0563177E-002
 10
6.0296612E+001
 20
4.3948294E+001
 70
0
  0
VERTEX
  5
433
100
AcDbEntity
  8
5
100
AcDbVertex
100
AcDb2dVertex
 42
-2.1564259E-002
 10
6.0250478E+001
 20
4.3856772E+001
 70
1
  0
VERTEX
  5
434
100
AcDbEntity
  8
5
100
AcDbVertex
100
AcDb2dVertex
 42
-2.2778473E-002
 10
6.0196122E+001
 20
4.3768946E+001
 70
0
  0
VERTEX
  5
435
100
AcDbEntity
  8
5
100
AcDbVertex
100
AcDb2dVertex
 42
-2.3590267E-002
 10
6.0133052E+001
 20
4.3685894E+001
 70
1
  0
VERTEX
  5
436
100
AcDbEntity
  8
5
100
AcDbVertex
100
AcDb2dVertex
 42
-2.4361269E-002
 10
6.0061644E+001
 20
4.3608301E+001
 70
0
  0
VERTEX
  5
437
100
AcDbEntity
  8
5
100
AcDbVertex
100
AcDb2dVertex
 42
-2.4676122E-002
 10
5.9981667E+001
 20
4.353729E+001
 70
1
  0
VERTEX
  5
438
100
AcDbEntity
  8
5
100
AcDbVertex
100
AcDb2dVertex
 42
-2.487831E-002
 10
5.9893761E+001
 20
4.3473397E+001
 70
0
  0
VERTEX
  5
439
100
AcDbEntity
  8
5
100
AcDbVertex
100
AcDb2dVertex
 42
-2.4613847E-002
 10
5.9797995E+001
 20
4.3417704E+001
 70
1
  0
VERTEX
  5
43a
100
AcDbEntity
  8
5
100
AcDbVertex
100
AcDb2dVertex
 42
-2.4201215E-002
 10
5.9695256E+001
 20
4.3370503E+001
 70
0
  0
VERTEX
  5
43b
100
AcDbEntity
  8
5
100
AcDbVertex
100
AcDb2dVertex
 42
-2.3435088E-002
 10
5.9585932E+001
 20
4.3332723E+001
 70
1
  0
VERTEX
  5
43c
100
AcDbEntity
  8
5
100
AcDbVertex
100
AcDb2dVertex
 42
-2.256534E-002
 10
5.9471095E+001
 20
4.3304351E+001
 70
0
  0
VERTEX
  5
43d
100
AcDbEntity
  8
5
100
AcDbVertex
100
AcDb2dVertex
 42
-2.1513825E-002
 10
5.9351419E+001
 20
4.3286063E+001
 70
1
  0
VERTEX
  5
43e
100
AcDbEntity
  8
5
100
AcDbVertex
100
AcDb2dVertex
 42
-2.0416308E-002
 10
5.9228066E+001
 20
4.3277518E+001
 70
0
  0
VERTEX
  5
43f
100
AcDbEntity
  8
5
100
AcDbVertex
100
AcDb2dVertex
 42
-1.9300773E-002
 10
5.9101918E+001
 20
4.3279086E+001
 70
1
  0
VERTEX
  5
440
100
AcDbEntity
  8
5
100
AcDbVertex
100
AcDb2dVertex
 42
-1.8172636E-002
 10
5.897411E+001
 20
4.3290119E+001
 70
0
  0
VERTEX
  5
441
100
AcDbEntity
  8
5
100
AcDbVertex
100
AcDb2dVertex
 42
-1.71375E-002
 10
5.8845631E+001
 20
4.3310672E+001
 70
1
  0
VERTEX
  5
442
100
AcDbEntity
  8
5
100
AcDbVertex
100
AcDb2dVertex
 42
-1.608842E-002
 10
5.8717482E+001
 20
4.3339862E+001
 70
0
  0
VERTEX
  5
443
100
AcDbEntity
  8
5
100
AcDbVertex
100
AcDb2dVertex
 42
-1.520758E-002
 10
5.8590654E+001
 20
4.337746E+001
 70
1
  0
VERTEX
  5
444
100
AcDbEntity
  8
5
100
AcDbVertex
100
AcDb2dVertex
 42
-1.4301637E-002
 10
5.846592E+001
 20
4.3422461E+001
 70
0
  0
VERTEX
  5
445
100
AcDbEntity
  8
5
100
AcDbVertex
100
AcDb2dVertex
 42
-1.3561606E-002
 10
5.8344177E+001
 20
4.3474426E+001
 70
1
  0
VERTEX
  5
446
100
AcDbEntity
  8
5
100
AcDbVertex
100
AcDb2dVertex
 42
-1.2753552E-002
 10
5.8225977E+001
 20
4.3532282E+001
 70
0
  0
VERTEX
  5
447
100
AcDbEntity
  8
5
100
AcDbVertex
100
AcDb2dVertex
 42
-1.2217289E-002
 10
5.8112082E+001
 20
4.3595451E+001
 70
1
  0
VERTEX
  5
448
100
AcDbEntity
  8
5
100
AcDbVertex
100
AcDb2dVertex
 42
-1.1640072E-002
 10
5.8002637E+001
 20
4.3663057E+001
 70
0
  0
VERTEX
  5
449
100
AcDbEntity
  8
5
100
AcDbVertex
100
AcDb2dVertex
 42
-1.105525E-002
 10
5.7898177E+001
 20
4.3734522E+001
 70
1
  0
VERTEX
  5
44a
100
AcDbEntity
  8
5
100
AcDbVertex
100
AcDb2dVertex
 42
-1.0326498E-002
 10
5.779919E+001
 20
4.3808534E+001
 70
0
  0
VERTEX
  5
44b
100
AcDbEntity
  8
5
100
AcDbVertex
100
AcDb2dVertex
 42
-1.0306058E-002
 10
5.7706187E+001
 20
4.3884378E+001
 70
1
  0
VERTEX
  5
44c
100
AcDbEntity
  8
5
100
AcDbVertex
100
AcDb2dVertex
 42
-9.9784324E-003
 10
5.761699E+001
 20
4.3963301E+001
 70
0
  0
VERTEX
  5
44d
100
AcDbEntity
  8
5
100
AcDbVertex
100
AcDb2dVertex
 42
-9.7995222E-003
 10
5.7529585E+001
 20
4.4047128E+001
 70
1
  0
VERTEX
  5
44e
100
AcDbEntity
  8
5
100
AcDbVertex
100
AcDb2dVertex
 42
-1.0259196E-002
 10
5.7443401E+001
 20
4.4136595E+001
 70
0
  0
VERTEX
  5
44f
100
AcDbEntity
  8
5
100
AcDbVertex
100
AcDb2dVertex
 42
-1.0435198E-002
 10
5.7358498E+001
 20
4.4232569E+001
 70
1
  0
VERTEX
  5
450
100
AcDbEntity
  8
5
100
AcDbVertex
100
AcDb2dVertex
 42
-1.0867766E-002
 10
5.7275573E+001
 20
4.4334621E+001
 70
0
  0
VERTEX
  5
451
100
AcDbEntity
  8
5
100
AcDbVertex
100
AcDb2dVertex
 42
-1.1206939E-002
 10
5.719563E+001
 20
4.4442657E+001
 70
1
  0
VERTEX
  5
452
100
AcDbEntity
  8
5
100
AcDbVertex
100
AcDb2dVertex
 42
-1.1677888E-002
 10
5.7119326E+001
 20
4.4556123E+001
 70
0
  0
VERTEX
  5
453
100
AcDbEntity
  8
5
100
AcDbVertex
100
AcDb2dVertex
 42
-1.2071018E-002
 10
5.7047608E+001
 20
4.467488E+001
 70
1
  0
VERTEX
  5
454
100
AcDbEntity
  8
5
100
AcDbVertex
100
AcDb2dVertex
 42
-1.2657159E-002
 10
5.6981113E+001
 20
4.479816E+001
 70
0
  0
VERTEX
  5
455
100
AcDbEntity
  8
5
100
AcDbVertex
100
AcDb2dVertex
 42
-1.3182538E-002
 10
5.6920915E+001
 20
4.4925497E+001
 70
1
  0
VERTEX
  5
456
100
AcDbEntity
  8
5
100
AcDbVertex
100
AcDb2dVertex
 42
-1.3864377E-002
 10
5.6867529E+001
 20
4.5055958E+001
 70
0
  0
VERTEX
  5
457
100
AcDbEntity
  8
5
100
AcDbVertex
100
AcDb2dVertex
 42
-1.4521332E-002
 10
5.6822002E+001
 20
4.518881E+001
 70
1
  0
VERTEX
  5
458
100
AcDbEntity
  8
5
100
AcDbVertex
100
AcDb2dVertex
 42
-1.5318673E-002
 10
5.678465E+001
 20
4.5323006E+001
 70
0
  0
VERTEX
  5
459
100
AcDbEntity
  8
5
100
AcDbVertex
100
AcDb2dVertex
 42
-1.6123525E-002
 10
5.6756402E+001
 20
4.5457572E+001
 70
1
  0
VERTEX
  5
45a
100
AcDbEntity
  8
5
100
AcDbVertex
100
AcDb2dVertex
 42
-1.7020184E-002
 10
5.6737298E+001
 20
4.5591445E+001
 70
0
  0
VERTEX
  5
45b
100
AcDbEntity
  8
5
100
AcDbVertex
100
AcDb2dVertex
 42
-1.7954267E-002
 10
5.6728051E+001
 20
4.5723495E+001
 70
1
  0
VERTEX
  5
45c
100
AcDbEntity
  8
5
100
AcDbVertex
100
AcDb2dVertex
 42
-1.8903646E-002
 10
5.6728382E+001
 20
4.5852752E+001
 70
0
  0
VERTEX
  5
45d
100
AcDbEntity
  8
5
100
AcDbVertex
100
AcDb2dVertex
 42
-1.9904766E-002
 10
5.6738715E+001
 20
4.5978041E+001
 70
1
  0
VERTEX
  5
45e
100
AcDbEntity
  8
5
100
AcDbVertex
100
AcDb2dVertex
 42
-2.0805996E-002
 10
5.6758462E+001
 20
4.6098593E+001
 70
0
  0
VERTEX
  5
45f
100
AcDbEntity
  8
5
100
AcDbVertex
100
AcDb2dVertex
 42
-2.1741553E-002
 10
5.6787726E+001
 20
4.6213304E+001
 70
1
  0
VERTEX
  5
460
100
AcDbEntity
  8
5
100
AcDbVertex
100
AcDb2dVertex
 42
-2.2422237E-002
 10
5.6825663E+001
 20
4.6321689E+001
 70
0
  0
VERTEX
  5
461
100
AcDbEntity
  8
5
100
AcDbVertex
100
AcDb2dVertex
 42
-2.3120222E-002
 10
5.6872076E+001
 20
4.6422815E+001
 70
1
  0
VERTEX
  5
462
100
AcDbEntity
  8
5
100
AcDbVertex
100
AcDb2dVertex
 42
-2.3436682E-002
 10
5.6925964E+001
 20
4.6516512E+001
 70
0
  0
VERTEX
  5
463
100
AcDbEntity
  8
5
100
AcDbVertex
100
AcDb2dVertex
 42
-2.3666817E-002
 10
5.6986896E+001
 20
4.6602082E+001
 70
1
  0
VERTEX
  5
464
100
AcDbEntity
  8
5
100
AcDbVertex
100
AcDb2dVertex
 42
-2.3341647E-002
 10
5.7053769E+001
 20
4.667967E+001
 70
0
  0
VERTEX
  5
465
100
AcDbEntity
  8
5
100
AcDbVertex
100
AcDb2dVertex
 42
-2.3238676E-002
 10
5.7125977E+001
 20
4.6748835E+001
 70
1
  0
VERTEX
  5
466
100
AcDbEntity
  8
5
100
AcDbVertex
100
AcDb2dVertex
 42
-2.2863239E-002
 10
5.7202628E+001
 20
4.6809945E+001
 70
0
  0
VERTEX
  5
467
100
AcDbEntity
  8
5
100
AcDbVertex
100
AcDb2dVertex
 42
-2.1714413E-002
 10
5.7283105E+001
 20
4.6862783E+001
 70
1
  0
VERTEX
  5
468
100
AcDbEntity
  8
5
100
AcDbVertex
100
AcDb2dVertex
 42
-1.9451634E-002
 10
5.7365953E+001
 20
4.6908042E+001
 70
0
  0
VERTEX
  5
469
100
AcDbEntity
  8
5
100
AcDbVertex
100
AcDb2dVertex
 42
-2.0229431E-002
 10
5.7450323E+001
 20
4.6945751E+001
 70
1
  0
VERTEX
  5
46a
100
AcDbEntity
  8
5
100
AcDbVertex
100
AcDb2dVertex
 42
-2.272733E-002
 10
5.7537585E+001
 20
4.6976146E+001
 70
0
  0
VERTEX
  5
46b
100
AcDbEntity
  8
5
100
AcDbVertex
100
AcDb2dVertex
 42
-1.6390395E-002
 10
5.7628041E+001
 20
4.6999236E+001
 70
1
  0
VERTEX
  5
46c
100
AcDbEntity
  8
5
100
AcDbVertex
100
AcDb2dVertex
 42
-2.9141344E-003
 10
5.7713677E+001
 20
4.701767E+001
 70
0
  0
VERTEX
  5
46d
100
AcDbEntity
  8
5
100
AcDbVertex
100
AcDb2dVertex
 42
-2.3136167E-002
 10
5.7793481E+001
 20
4.7032342E+001
 70
1
  0
VERTEX
  5
46e
100
AcDbEntity
  8
5
100
AcDbVertex
100
AcDb2dVertex
 42
-3.9441325E-002
 10
5.7907414E+001
 20
4.7036381E+001
 70
0
  0
VERTEX
  5
46f
100
AcDbEntity
  8
5
100
AcDbVertex
100
AcDb2dVertex
 42
-1.6673774E-002
 10
5.8097391E+001
 20
4.7022021E+001
 70
1
  0
VERTEX
  5
470
100
AcDbEntity
  8
5
100
AcDbVertex
100
AcDb2dVertex
 42
-7.8503777E-003
 10
5.8354907E+001
 20
4.6990985E+001
 70
0
  0
SEQEND
  5
471
100
AcDbEntity
  0
LINE
  5
472
100
AcDbEntity
  8
4
100
AcDbLine
  6
CENTERLINE
 62
3
 10
6.0516897E+001
 20
1.052123E+002
 11
6.0516897E+001
 21
9.6288241E+001
  0
LINE
  5
473
100
AcDbEntity
  8
4
100
AcDbLine
  6
CENTERLINE
 62
3
 10
9.5266897E+001
 20
1.0474698E+002
 11
9.5266897E+001
 21
9.6574447E+001
  0
LINE
  5
474
100
AcDbEntity
  8
4
100
AcDbLine
  6
CENTERLINE
 62
3
 10
1.477669E+002
 20
1.0479534E+002
 11
1.477669E+002
 21
9.6598626E+001
  0
LINE
  5
475
100
AcDbEntity
  8
4
100
AcDbLine
  6
CENTERLINE
 62
3
 10
1.825169E+002
 20
1.0443265E+002
 11
1.825169E+002
 21
9.6550268E+001
  0
DIMENSION
  5
476
100
AcDbEntity
  8
4
100
AcDbDimension
  6
CONTINUOUS
 62
3
  2
*D175
  3
DSTYLE1
 10
5.032934E+001
 20
9.9096682E+001
 11
4.732834E+001
 21
1.0815003E+002
 70
128
100
AcDbAlignedDimension
 13
5.6516897E+001
 23
1.0209668E+002
 14
5.6516897E+001
 24
9.9096682E+001
 40
3.0
 50
9.0E+001
100
AcDbRotatedDimension
1001
ACAD
1000
DSTYLE
1002
{
1070
173
1070
0
1070
5
1000
_AH1
1002
}
  0
POLYLINE
  5
477
100
AcDbEntity
  8
5
100
AcDb2dPolyline
  6
CONTINUOUS
 62
30
 66
1
 40
0.0
 41
0.0
 70
2
  0
VERTEX
  5
478
100
AcDbEntity
  8
5
100
AcDbVertex
100
AcDb2dVertex
 42
0.0
 10
6.0388629E+001
 20
4.4833897E+001
 70
0
  0
VERTEX
  5
479
100
AcDbEntity
  8
5
100
AcDbVertex
100
AcDb2dVertex
 42
-1.3201418E-003
 10
6.0390366E+001
 20
4.4823188E+001
 70
1
  0
VERTEX
  5
47a
100
AcDbEntity
  8
5
100
AcDbVertex
100
AcDb2dVertex
 42
-1.3372779E-003
 10
6.039204E+001
 20
4.4812519E+001
 70
0
  0
VERTEX
  5
47b
100
AcDbEntity
  8
5
100
AcDbVertex
100
AcDb2dVertex
 42
-1.3451434E-003
 10
6.0393646E+001
 20
4.4801892E+001
 70
1
  0
VERTEX
  5
47c
100
AcDbEntity
  8
5
100
AcDbVertex
100
AcDb2dVertex
 42
-1.3413887E-003
 10
6.039519E+001
 20
4.4791304E+001
 70
0
  0
VERTEX
  5
47d
100
AcDbEntity
  8
5
100
AcDbVertex
100
AcDb2dVertex
 42
-1.342307E-003
 10
6.0396668E+001
 20
4.4780759E+001
 70
1
  0
VERTEX
  5
47e
100
AcDbEntity
  8
5
100
AcDbVertex
100
AcDb2dVertex
 42
-1.3438462E-003
 10
6.0398084E+001
 20
4.4770255E+001
 70
0
  0
VERTEX
  5
47f
100
AcDbEntity
  8
5
100
AcDbVertex
100
AcDb2dVertex
 42
-1.3464956E-003
 10
6.0399435E+001
 20
4.4759794E+001
 70
1
  0
VERTEX
  5
480
100
AcDbEntity
  8
5
100
AcDbVertex
100
AcDb2dVertex
 42
-1.34659E-003
 10
6.0400725E+001
 20
4.4749374E+001
 70
0
  0
VERTEX
  5
481
100
AcDbEntity
  8
5
100
AcDbVertex
100
AcDb2dVertex
 42
-1.3488629E-003
 10
6.0401951E+001
 20
4.4738997E+001
 70
1
  0
VERTEX
  5
482
100
AcDbEntity
  8
5
100
AcDbVertex
100
AcDb2dVertex
 42
-1.349497E-003
 10
6.0403116E+001
 20
4.4728663E+001
 70
0
  0
VERTEX
  5
483
100
AcDbEntity
  8
5
100
AcDbVertex
100
AcDb2dVertex
 42
-1.3515522E-003
 10
6.0404219E+001
 20
4.4718372E+001
 70
1
  0
VERTEX
  5
484
100
AcDbEntity
  8
5
100
AcDbVertex
100
AcDb2dVertex
 42
-1.3512404E-003
 10
6.0405262E+001
 20
4.4708124E+001
 70
0
  0
VERTEX
  5
485
100
AcDbEntity
  8
5
100
AcDbVertex
100
AcDb2dVertex
 42
-1.3543812E-003
 10
6.0406244E+001
 20
4.469792E+001
 70
1
  0
VERTEX
  5
486
100
AcDbEntity
  8
5
100
AcDbVertex
100
AcDb2dVertex
 42
-1.3569568E-003
 10
6.0407167E+001
 20
4.4687759E+001
 70
0
  0
VERTEX
  5
487
100
AcDbEntity
  8
5
100
AcDbVertex
100
AcDb2dVertex
 42
-1.3560546E-003
 10
6.0408028E+001
 20
4.4677641E+001
 70
1
  0
VERTEX
  5
488
100
AcDbEntity
  8
5
100
AcDbVertex
100
AcDb2dVertex
 42
-1.3485164E-003
 10
6.0408832E+001
 20
4.466757E+001
 70
0
  0
VERTEX
  5
489
100
AcDbEntity
  8
5
100
AcDbVertex
100
AcDb2dVertex
 42
-1.361696E-003
 10
6.0409577E+001
 20
4.4657547E+001
 70
1
  0
VERTEX
  5
48a
100
AcDbEntity
  8
5
100
AcDbVertex
100
AcDb2dVertex
 42
-1.3882011E-003
 10
6.0410264E+001
 20
4.4647558E+001
 70
0
  0
VERTEX
  5
48b
100
AcDbEntity
  8
5
100
AcDbVertex
100
AcDb2dVertex
 42
-1.3529939E-003
 10
6.0410892E+001
 20
4.46376E+001
 70
1
  0
VERTEX
  5
48c
100
AcDbEntity
  8
5
100
AcDbVertex
100
AcDb2dVertex
 42
-1.2671189E-003
 10
6.0411464E+001
 20
4.4627725E+001
 70
0
  0
VERTEX
  5
48d
100
AcDbEntity
  8
5
100
AcDbVertex
100
AcDb2dVertex
 42
-1.3943878E-003
 10
6.0411978E+001
 20
4.4617953E+001
 70
1
  0
VERTEX
  5
48e
100
AcDbEntity
  8
5
100
AcDbVertex
100
AcDb2dVertex
 42
-1.654515E-003
 10
6.0412438E+001
 20
4.4608073E+001
 70
0
  0
VERTEX
  5
48f
100
AcDbEntity
  8
5
100
AcDbVertex
100
AcDb2dVertex
 42
-1.269616E-003
 10
6.0412842E+001
 20
4.4598018E+001
 70
1
  0
VERTEX
  5
490
100
AcDbEntity
  8
5
100
AcDbVertex
100
AcDb2dVertex
 42
-4.592913E-004
 10
6.0413189E+001
 20
4.4588603E+001
 70
0
  0
VERTEX
  5
491
100
AcDbEntity
  8
5
100
AcDbVertex
100
AcDb2dVertex
 42
-1.771315E-003
 10
6.0413474E+001
 20
4.4580114E+001
 70
1
  0
VERTEX
  5
492
100
AcDbEntity
  8
5
100
AcDbVertex
100
AcDb2dVertex
 42
-3.052352E-003
 10
6.041372E+001
 20
4.4569316E+001
 70
0
  0
VERTEX
  5
493
100
AcDbEntity
  8
5
100
AcDbVertex
100
AcDb2dVertex
 42
-1.5145786E-003
 10
6.0413942E+001
 20
4.4552819E+001
 70
1
  0
VERTEX
  5
494
100
AcDbEntity
  8
5
100
AcDbVertex
100
AcDb2dVertex
 42
-8.11818E-004
 10
6.0414139E+001
 20
4.4531295E+001
 70
0
  0
SEQEND
  5
495
100
AcDbEntity
  0
POLYLINE
  5
496
100
AcDbEntity
  8
5
100
AcDb2dPolyline
  6
CONTINUOUS
 62
30
 66
1
 40
0.0
 41
0.0
 70
2
  0
VERTEX
  5
497
100
AcDbEntity
  8
5
100
AcDbVertex
100
AcDb2dVertex
 42
0.0
 10
9.9344311E+001
 20
3.016349E+001
 70
0
  0
VERTEX
  5
498
100
AcDbEntity
  8
5
100
AcDbVertex
100
AcDb2dVertex
 42
-4.830168E-003
 10
9.9344835E+001
 20
3.0220309E+001
 70
1
  0
VERTEX
  5
499
100
AcDbEntity
  8
5
100
AcDbVertex
100
AcDb2dVertex
 42
-4.7357534E-003
 10
9.9346434E+001
 20
3.0277294E+001
 70
0
  0
VERTEX
  5
49a
100
AcDbEntity
  8
5
100
AcDbVertex
100
AcDb2dVertex
 42
-4.762309E-003
 10
9.9349148E+001
 20
3.0334455E+001
 70
1
  0
VERTEX
  5
49b
100
AcDbEntity
  8
5
100
AcDbVertex
100
AcDb2dVertex
 42
-4.9369234E-003
 10
9.9352967E+001
 20
3.0391753E+001
 70
0
  0
VERTEX
  5
49c
100
AcDbEntity
  8
5
100
AcDbVertex
100
AcDb2dVertex
 42
-5.0592818E-003
 10
9.9357978E+001
 20
3.044915E+001
 70
1
  0
VERTEX
  5
49d
100
AcDbEntity
  8
5
100
AcDbVertex
100
AcDb2dVertex
 42
-5.1700466E-003
 10
9.9364163E+001
 20
3.0506608E+001
 70
0
  0
VERTEX
  5
49e
100
AcDbEntity
  8
5
100
AcDbVertex
100
AcDb2dVertex
 42
-5.27288E-003
 10
9.9371599E+001
 20
3.0564094E+001
 70
1
  0
VERTEX
  5
49f
100
AcDbEntity
  8
5
100
AcDbVertex
100
AcDb2dVertex
 42
-5.4055101E-003
 10
9.9380267E+001
 20
3.0621571E+001
 70
0
  0
VERTEX
  5
4a0
100
AcDbEntity
  8
5
100
AcDbVertex
100
AcDb2dVertex
 42
-5.5187253E-003
 10
9.9390247E+001
 20
3.0678998E+001
 70
1
  0
VERTEX
  5
4a1
100
AcDbEntity
  8
5
100
AcDbVertex
100
AcDb2dVertex
 42
-5.6515749E-003
 10
9.9401518E+001
 20
3.0736336E+001
 70
0
  0
VERTEX
  5
4a2
100
AcDbEntity
  8
5
100
AcDbVertex
100
AcDb2dVertex
 42
-5.764403E-003
 10
9.9414159E+001
 20
3.079354E+001
 70
1
  0
VERTEX
  5
4a3
100
AcDbEntity
  8
5
100
AcDbVertex
100
AcDb2dVertex
 42
-5.8964816E-003
 10
9.9428144E+001
 20
3.0850571E+001
 70
0
  0
VERTEX
  5
4a4
100
AcDbEntity
  8
5
100
AcDbVertex
100
AcDb2dVertex
 42
-6.0179378E-003
 10
9.9443554E+001
 20
3.0907377E+001
 70
1
  0
VERTEX
  5
4a5
100
AcDbEntity
  8
5
100
AcDbVertex
100
AcDb2dVertex
 42
-6.1674729E-003
 10
9.9460361E+001
 20
3.0963925E+001
 70
0
  0
VERTEX
  5
4a6
100
AcDbEntity
  8
5
100
AcDbVertex
100
AcDb2dVertex
 42
-6.266711E-003
 10
9.9478648E+001
 20
3.1020158E+001
 70
1
  0
VERTEX
  5
4a7
100
AcDbEntity
  8
5
100
AcDbVertex
100
AcDb2dVertex
 42
-6.3587614E-003
 10
9.9498366E+001
 20
3.1076024E+001
 70
0
  0
VERTEX
  5
4a8
100
AcDbEntity
  8
5
100
AcDbVertex
100
AcDb2dVertex
 42
-6.5369947E-003
 10
9.951959E+001
 20
3.1131454E+001
 70
1
  0
VERTEX
  5
4a9
100
AcDbEntity
  8
5
100
AcDbVertex
100
AcDb2dVertex
 42
-6.8225146E-003
 10
9.9542337E+001
 20
3.1186479E+001
 70
0
  0
VERTEX
  5
4aa
100
AcDbEntity
  8
5
100
AcDbVertex
100
AcDb2dVertex
 42
-6.7211106E-003
 10
9.9566707E+001
 20
3.1241051E+001
 70
1
  0
VERTEX
  5
4ab
100
AcDbEntity
  8
5
100
AcDbVertex
100
AcDb2dVertex
 42
-6.3542302E-003
 10
9.9592427E+001
 20
3.1294884E+001
 70
0
  0
VERTEX
  5
4ac
100
AcDbEntity
  8
5
100
AcDbVertex
100
AcDb2dVertex
 42
-7.1829346E-003
 10
9.9619497E+001
 20
3.1347814E+001
 70
1
  0
VERTEX
  5
4ad
100
AcDbEntity
  8
5
100
AcDbVertex
100
AcDb2dVertex
 42
-8.8118457E-003
 10
9.9648765E+001
 20
3.1400819E+001
 70
0
  0
VERTEX
  5
4ae
100
AcDbEntity
  8
5
100
AcDbVertex
100
AcDb2dVertex
 42
-6.6742978E-003
 10
9.9680615E+001
 20
3.1454164E+001
 70
1
  0
VERTEX
  5
4af
100
AcDbEntity
  8
5
100
AcDbVertex
100
AcDb2dVertex
 42
-2.0777033E-003
 10
9.9711444E+001
 20
3.1503855E+001
 70
0
  0
VERTEX
  5
4b0
100
AcDbEntity
  8
5
100
AcDbVertex
100
AcDb2dVertex
 42
-9.7856058E-003
 10
9.9740102E+001
 20
3.154844E+001
 70
1
  0
VERTEX
  5
4b1
100
AcDbEntity
  8
5
100
AcDbVertex
100
AcDb2dVertex
 42
-1.7257375E-002
 10
9.9780529E+001
 20
3.1603558E+001
 70
0
  0
VERTEX
  5
4b2
100
AcDbEntity
  8
5
100
AcDbVertex
100
AcDb2dVertex
 42
-8.3818539E-003
 10
9.9847482E+001
 20
3.1685558E+001
 70
1
  0
VERTEX
  5
4b3
100
AcDbEntity
  8
5
100
AcDbVertex
100
AcDb2dVertex
 42
-4.3770509E-003
 10
9.9937974E+001
 20
3.1791218E+001
 70
0
  0
SEQEND
  5
4b4
100
AcDbEntity
  0
POLYLINE
  5
4b5
100
AcDbEntity
  8
5
100
AcDb2dPolyline
  6
CONTINUOUS
 62
30
 66
1
 40
0.0
 41
0.0
 70
2
  0
VERTEX
  5
4b6
100
AcDbEntity
  8
5
100
AcDbVertex
100
AcDb2dVertex
 42
0.0
 10
1.0528477E+002
 20
2.6120084E+001
 70
0
  0
VERTEX
  5
4b7
100
AcDbEntity
  8
5
100
AcDbVertex
100
AcDb2dVertex
 42
-1.546507E-002
 10
1.0517923E+002
 20
2.6037311E+001
 70
1
  0
VERTEX
  5
4b8
100
AcDbEntity
  8
5
100
AcDbVertex
100
AcDb2dVertex
 42
-1.6417831E-002
 10
1.050705E+002
 20
2.5962573E+001
 70
0
  0
VERTEX
  5
4b9
100
AcDbEntity
  8
5
100
AcDbVertex
100
AcDb2dVertex
 42
-1.6437003E-002
 10
1.0495839E+002
 20
2.5896243E+001
 70
1
  0
VERTEX
  5
4ba
100
AcDbEntity
  8
5
100
AcDbVertex
100
AcDb2dVertex
 42
-1.5494279E-002
 10
1.0484358E+002
 20
2.5837725E+001
 70
0
  0
VERTEX
  5
4bb
100
AcDbEntity
  8
5
100
AcDbVertex
100
AcDb2dVertex
 42
-1.4784797E-002
 10
1.047267E+002
 20
2.5787026E+001
 70
1
  0
VERTEX
  5
4bc
100
AcDbEntity
  8
5
100
AcDbVertex
100
AcDb2dVertex
 42
-1.4084328E-002
 10
1.0460868E+002
 20
2.574361E+001
 70
0
  0
VERTEX
  5
4bd
100
AcDbEntity
  8
5
100
AcDbVertex
100
AcDb2dVertex
 42
-1.3708645E-002
 10
1.0449003E+002
 20
2.570749E+001
 70
1
  0
VERTEX
  5
4be
100
AcDbEntity
  8
5
100
AcDbVertex
100
AcDb2dVertex
 42
-1.2961886E-002
 10
1.0437E+002
 20
2.5677757E+001
 70
0
  0
VERTEX
  5
4bf
100
AcDbEntity
  8
5
100
AcDbVertex
100
AcDb2dVertex
 42
-1.2650036E-002
 10
1.0424728E+002
 20
2.5654066E+001
 70
1
  0
VERTEX
  5
4c0
100
AcDbEntity
  8
5
100
AcDbVertex
100
AcDb2dVertex
 42
-1.2636609E-002
 10
1.0412016E+002
 20
2.5636064E+001
 70
0
  0
VERTEX
  5
4c1
100
AcDbEntity
  8
5
100
AcDbVertex
100
AcDb2dVertex
 42
-1.226567E-002
 10
1.0398687E+002
 20
2.5624073E+001
 70
1
  0
VERTEX
  5
4c2
100
AcDbEntity
  8
5
100
AcDbVertex
100
AcDb2dVertex
 42
-1.2343219E-002
 10
1.0384788E+002
 20
2.5618331E+001
 70
0
  0
VERTEX
  5
4c3
100
AcDbEntity
  8
5
100
AcDbVertex
100
AcDb2dVertex
 42
-1.2224233E-002
 10
1.0370353E+002
 20
2.5619655E+001
 70
1
  0
VERTEX
  5
4c4
100
AcDbEntity
  8
5
100
AcDbVertex
100
AcDb2dVertex
 42
-1.2091169E-002
 10
1.0355422E+002
 20
2.5628186E+001
 70
0
  0
VERTEX
  5
4c5
100
AcDbEntity
  8
5
100
AcDbVertex
100
AcDb2dVertex
 42
-1.1839533E-002
 10
1.0339991E+002
 20
2.5644626E+001
 70
1
  0
VERTEX
  5
4c6
100
AcDbEntity
  8
5
100
AcDbVertex
100
AcDb2dVertex
 42
-1.1743787E-002
 10
1.0324116E+002
 20
2.5669039E+001
 70
0
  0
VERTEX
  5
4c7
100
AcDbEntity
  8
5
100
AcDbVertex
100
AcDb2dVertex
 42
-1.1514498E-002
 10
1.0307818E+002
 20
2.5702128E+001
 70
1
  0
VERTEX
  5
4c8
100
AcDbEntity
  8
5
100
AcDbVertex
100
AcDb2dVertex
 42
-1.1378412E-002
 10
1.0291163E+002
 20
2.5743837E+001
 70
0
  0
VERTEX
  5
4c9
100
AcDbEntity
  8
5
100
AcDbVertex
100
AcDb2dVertex
 42
-1.1143408E-002
 10
1.0274186E+002
 20
2.5794792E+001
 70
1
  0
VERTEX
  5
4ca
100
AcDbEntity
  8
5
100
AcDbVertex
100
AcDb2dVertex
 42
-1.1008707E-002
 10
1.0256959E+002
 20
2.5854799E+001
 70
0
  0
VERTEX
  5
4cb
100
AcDbEntity
  8
5
100
AcDbVertex
100
AcDb2dVertex
 42
-1.0792479E-002
 10
1.0239537E+002
 20
2.5924374E+001
 70
1
  0
VERTEX
  5
4cc
100
AcDbEntity
  8
5
100
AcDbVertex
100
AcDb2dVertex
 42
-1.0660043E-002
 10
1.0221995E+002
 20
2.6003165E+001
 70
0
  0
VERTEX
  5
4cd
100
AcDbEntity
  8
5
100
AcDbVertex
100
AcDb2dVertex
 42
-1.0468401E-002
 10
1.0204404E+002
 20
2.6091535E+001
 70
1
  0
VERTEX
  5
4ce
100
AcDbEntity
  8
5
100
AcDbVertex
100
AcDb2dVertex
 42
-1.0347974E-002
 10
1.018684E+002
 20
2.6188969E+001
 70
0
  0
VERTEX
  5
4cf
100
AcDbEntity
  8
5
100
AcDbVertex
100
AcDb2dVertex
 42
-1.0188382E-002
 10
1.0169387E+002
 20
2.6295648E+001
 70
1
  0
VERTEX
  5
4d0
100
AcDbEntity
  8
5
100
AcDbVertex
100
AcDb2dVertex
 42
-1.0084386E-002
 10
1.0152119E+002
 20
2.6410896E+001
 70
0
  0
VERTEX
  5
4d1
100
AcDbEntity
  8
5
100
AcDbVertex
100
AcDb2dVertex
 42
-9.9605418E-003
 10
1.0135128E+002
 20
2.6534697E+001
 70
1
  0
VERTEX
  5
4d2
100
AcDbEntity
  8
5
100
AcDbVertex
100
AcDb2dVertex
 42
-9.8758729E-003
 10
1.0118481E+002
 20
2.6666236E+001
 70
0
  0
VERTEX
  5
4d3
100
AcDbEntity
  8
5
100
AcDbVertex
100
AcDb2dVertex
 42
-9.7904802E-003
 10
1.0102272E+002
 20
2.6805296E+001
 70
1
  0
VERTEX
  5
4d4
100
AcDbEntity
  8
5
100
AcDbVertex
100
AcDb2dVertex
 42
-9.7279906E-003
 10
1.0086556E+002
 20
2.6950962E+001
 70
0
  0
VERTEX
  5
4d5
100
AcDbEntity
  8
5
100
AcDbVertex
100
AcDb2dVertex
 42
-9.67971E-003
 10
1.0071428E+002
 20
2.7102833E+001
 70
1
  0
VERTEX
  5
4d6
100
AcDbEntity
  8
5
100
AcDbVertex
100
AcDb2dVertex
 42
-9.6347299E-003
 10
1.0056924E+002
 20
2.7259935E+001
 70
0
  0
VERTEX
  5
4d7
100
AcDbEntity
  8
5
100
AcDbVertex
100
AcDb2dVertex
 42
-9.6296011E-003
 10
1.0043133E+002
 20
2.7421712E+001
 70
1
  0
VERTEX
  5
4d8
100
AcDbEntity
  8
5
100
AcDbVertex
100
AcDb2dVertex
 42
-9.6193504E-003
 10
1.0030074E+002
 20
2.7587208E+001
 70
0
  0
VERTEX
  5
4d9
100
AcDbEntity
  8
5
100
AcDbVertex
100
AcDb2dVertex
 42
-9.630949E-003
 10
1.0017823E+002
 20
2.7755756E+001
 70
1
  0
VERTEX
  5
4da
100
AcDbEntity
  8
5
100
AcDbVertex
100
AcDb2dVertex
 42
-9.5889261E-003
 10
1.000638E+002
 20
2.7926394E+001
 70
0
  0
VERTEX
  5
4db
100
AcDbEntity
  8
5
100
AcDbVertex
100
AcDb2dVertex
 42
-9.7033216E-003
 10
9.9958082E+001
 20
2.8098372E+001
 70
1
  0
VERTEX
  5
4dc
100
AcDbEntity
  8
5
100
AcDbVertex
100
AcDb2dVertex
 42
-9.8574968E-003
 10
9.9860878E+001
 20
2.8271065E+001
 70
0
  0
VERTEX
  5
4dd
100
AcDbEntity
  8
5
100
AcDbVertex
100
AcDb2dVertex
 42
-9.7519269E-003
 10
9.9772657E+001
 20
2.8443793E+001
 70
1
  0
VERTEX
  5
4de
100
AcDbEntity
  8
5
100
AcDbVertex
100
AcDb2dVertex
 42
-9.2935186E-003
 10
9.9693101E+001
 20
2.8615104E+001
 70
0
  0
VERTEX
  5
4df
100
AcDbEntity
  8
5
100
AcDbVertex
100
AcDb2dVertex
 42
-1.0092196E-002
 10
9.9622541E+001
 20
2.8784011E+001
 70
1
  0
VERTEX
  5
4e0
100
AcDbEntity
  8
5
100
AcDbVertex
100
AcDb2dVertex
 42
-1.1697821E-002
 10
9.9560351E+001
 20
2.8953006E+001
 70
0
  0
VERTEX
  5
4e1
100
AcDbEntity
  8
5
100
AcDbVertex
100
AcDb2dVertex
 42
-9.5580683E-003
 10
9.9506661E+001
 20
2.9122461E+001
 70
1
  0
VERTEX
  5
4e2
100
AcDbEntity
  8
5
100
AcDbVertex
100
AcDb2dVertex
 42
-4.4632852E-003
 10
9.9461433E+001
 20
2.9280082E+001
 70
0
  0
VERTEX
  5
4e3
100
AcDbEntity
  8
5
100
AcDbVertex
100
AcDb2dVertex
 42
-1.2615926E-002
 10
9.942491E+001
 20
2.9421169E+001
 70
1
  0
VERTEX
  5
4e4
100
AcDbEntity
  8
5
100
AcDbVertex
100
AcDb2dVertex
 42
-2.1931796E-002
 10
9.9394296E+001
 20
2.9592574E+001
 70
0
  0
VERTEX
  5
4e5
100
AcDbEntity
  8
5
100
AcDbVertex
100
AcDb2dVertex
 42
-1.1970748E-002
 10
9.9367368E+001
 20
2.9843215E+001
 70
1
  0
VERTEX
  5
4e6
100
AcDbEntity
  8
5
100
AcDbVertex
100
AcDb2dVertex
 42
-6.871051E-003
 10
9.9344311E+001
 20
3.016349E+001
 70
0
  0
SEQEND
  5
4e7
100
AcDbEntity
  0
POLYLINE
  5
4e8
100
AcDbEntity
  8
5
100
AcDb2dPolyline
  6
CONTINUOUS
 62
30
 66
1
 40
0.0
 41
0.0
 70
2
  0
VERTEX
  5
4e9
100
AcDbEntity
  8
5
100
AcDbVertex
100
AcDb2dVertex
 42
0.0
 10
1.017453E+002
 20
3.0503015E+001
 70
0
  0
VERTEX
  5
4ea
100
AcDbEntity
  8
5
100
AcDbVertex
100
AcDb2dVertex
 42
-1.1458571E-002
 10
1.017467E+002
 20
3.0572824E+001
 70
1
  0
VERTEX
  5
4eb
100
AcDbEntity
  8
5
100
AcDbVertex
100
AcDb2dVertex
 42
-1.1026586E-002
 10
1.0175121E+002
 20
3.0642883E+001
 70
0
  0
VERTEX
  5
4ec
100
AcDbEntity
  8
5
100
AcDbVertex
100
AcDb2dVertex
 42
-1.1166242E-002
 10
1.0175894E+002
 20
3.0713237E+001
 70
1
  0
VERTEX
  5
4ed
100
AcDbEntity
  8
5
100
AcDbVertex
100
AcDb2dVertex
 42
-1.2079349E-002
 10
1.0176996E+002
 20
3.0783638E+001
 70
0
  0
VERTEX
  5
4ee
100
AcDbEntity
  8
5
100
AcDbVertex
100
AcDb2dVertex
 42
-1.2735249E-002
 10
1.0178463E+002
 20
3.0853786E+001
 70
1
  0
VERTEX
  5
4ef
100
AcDbEntity
  8
5
100
AcDbVertex
100
AcDb2dVertex
 42
-1.333194E-002
 10
1.0180298E+002
 20
3.0923439E+001
 70
0
  0
VERTEX
  5
4f0
100
AcDbEntity
  8
5
100
AcDbVertex
100
AcDb2dVertex
 42
-1.3878788E-002
 10
1.018253E+002
 20
3.0992316E+001
 70
1
  0
VERTEX
  5
4f1
100
AcDbEntity
  8
5
100
AcDbVertex
100
AcDb2dVertex
 42
-1.4573115E-002
 10
1.0185156E+002
 20
3.1060156E+001
 70
0
  0
VERTEX
  5
4f2
100
AcDbEntity
  8
5
100
AcDbVertex
100
AcDb2dVertex
 42
-1.5136438E-002
 10
1.0188206E+002
 20
3.1126606E+001
 70
1
  0
VERTEX
  5
4f3
100
AcDbEntity
  8
5
100
AcDbVertex
100
AcDb2dVertex
 42
-1.576395E-002
 10
1.0191673E+002
 20
3.1191408E+001
 70
0
  0
VERTEX
  5
4f4
100
AcDbEntity
  8
5
100
AcDbVertex
100
AcDb2dVertex
 42
-1.6242896E-002
 10
1.019558E+002
 20
3.1254166E+001
 70
1
  0
VERTEX
  5
4f5
100
AcDbEntity
  8
5
100
AcDbVertex
100
AcDb2dVertex
 42
-1.6761398E-002
 10
1.0199914E+002
 20
3.1314638E+001
 70
0
  0
VERTEX
  5
4f6
100
AcDbEntity
  8
5
100
AcDbVertex
100
AcDb2dVertex
 42
-1.7124658E-002
 10
1.0204695E+002
 20
3.1372393E+001
 70
1
  0
VERTEX
  5
4f7
100
AcDbEntity
  8
5
100
AcDbVertex
100
AcDb2dVertex
 42
-1.7511131E-002
 10
1.0209903E+002
 20
3.1427219E+001
 70
0
  0
VERTEX
  5
4f8
100
AcDbEntity
  8
5
100
AcDbVertex
100
AcDb2dVertex
 42
-1.7635082E-002
 10
1.0215549E+002
 20
3.1478667E+001
 70
1
  0
VERTEX
  5
4f9
100
AcDbEntity
  8
5
100
AcDbVertex
100
AcDb2dVertex
 42
-1.7676242E-002
 10
1.0221605E+002
 20
3.152658E+001
 70
0
  0
VERTEX
  5
4fa
100
AcDbEntity
  8
5
100
AcDbVertex
100
AcDb2dVertex
 42
-1.7769373E-002
 10
1.0228072E+002
 20
3.1570515E+001
 70
1
  0
VERTEX
  5
4fb
100
AcDbEntity
  8
5
100
AcDbVertex
100
AcDb2dVertex
 42
-1.8011528E-002
 10
1.023493E+002
 20
3.1610352E+001
 70
0
  0
VERTEX
  5
4fc
100
AcDbEntity
  8
5
100
AcDbVertex
100
AcDb2dVertex
 42
-1.7276888E-002
 10
1.0242179E+002
 20
3.1645664E+001
 70
1
  0
VERTEX
  5
4fd
100
AcDbEntity
  8
5
100
AcDbVertex
100
AcDb2dVertex
 42
-1.59543E-002
 10
1.0249728E+002
 20
3.1676521E+001
 70
0
  0
VERTEX
  5
4fe
100
AcDbEntity
  8
5
100
AcDbVertex
100
AcDb2dVertex
 42
-1.706577E-002
 10
1.0257548E+002
 20
3.1702579E+001
 70
1
  0
VERTEX
  5
4ff
100
AcDbEntity
  8
5
100
AcDbVertex
100
AcDb2dVertex
 42
-1.952781E-002
 10
1.0265795E+002
 20
3.1723553E+001
 70
0
  0
VERTEX
  5
500
100
AcDbEntity
  8
5
100
AcDbVertex
100
AcDb2dVertex
 42
-1.453082E-002
 10
1.0274519E+002
 20
3.1739012E+001
 70
1
  0
VERTEX
  5
501
100
AcDbEntity
  8
5
100
AcDbVertex
100
AcDb2dVertex
 42
-5.5022756E-003
 10
1.028288E+002
 20
3.1750509E+001
 70
0
  0
VERTEX
  5
502
100
AcDbEntity
  8
5
100
AcDbVertex
100
AcDb2dVertex
 42
-1.9115062E-002
 10
1.0290578E+002
 20
3.1758295E+001
 70
1
  0
VERTEX
  5
503
100
AcDbEntity
  8
5
100
AcDbVertex
100
AcDb2dVertex
 42
-3.0495844E-002
 10
1.0300699E+002
 20
3.1757097E+001
 70
0
  0
VERTEX
  5
504
100
AcDbEntity
  8
5
100
AcDbVertex
100
AcDb2dVertex
 42
-1.4307307E-002
 10
1.03165E+002
 20
3.1740962E+001
 70
1
  0
VERTEX
  5
505
100
AcDbEntity
  8
5
100
AcDbVertex
100
AcDb2dVertex
 42
-7.427692E-003
 10
1.0337329E+002
 20
3.171124E+001
 70
0
  0
SEQEND
  5
506
100
AcDbEntity
  0
POLYLINE
  5
507
100
AcDbEntity
  8
5
100
AcDb2dPolyline
  6
CONTINUOUS
 62
30
 66
1
 40
0.0
 41
0.0
 70
2
  0
VERTEX
  5
508
100
AcDbEntity
  8
5
100
AcDbVertex
100
AcDb2dVertex
 42
0.0
 10
1.0540701E+002
 20
2.9554152E+001
 70
0
  0
VERTEX
  5
509
100
AcDbEntity
  8
5
100
AcDbVertex
100
AcDb2dVertex
 42
-1.6994833E-002
 10
1.0542429E+002
 20
2.942078E+001
 70
1
  0
VERTEX
  5
50a
100
AcDbEntity
  8
5
100
AcDbVertex
100
AcDb2dVertex
 42
-1.807829E-002
 10
1.0543209E+002
 20
2.9290178E+001
 70
0
  0
VERTEX
  5
50b
100
AcDbEntity
  8
5
100
AcDbVertex
100
AcDb2dVertex
 42
-1.8884061E-002
 10
1.0543002E+002
 20
2.9162306E+001
 70
1
  0
VERTEX
  5
50c
100
AcDbEntity
  8
5
100
AcDbVertex
100
AcDb2dVertex
 42
-1.9878508E-002
 10
1.0541851E+002
 20
2.9038119E+001
 70
0
  0
VERTEX
  5
50d
100
AcDbEntity
  8
5
100
AcDbVertex
100
AcDb2dVertex
 42
-2.0942368E-002
 10
1.053973E+002
 20
2.8919051E+001
 70
1
  0
VERTEX
  5
50e
100
AcDbEntity
  8
5
100
AcDbVertex
100
AcDb2dVertex
 42
-2.1686499E-002
 10
1.0536712E+002
 20
2.8805679E+001
 70
0
  0
VERTEX
  5
50f
100
AcDbEntity
  8
5
100
AcDbVertex
100
AcDb2dVertex
 42
-2.2461656E-002
 10
1.0532804E+002
 20
2.8698929E+001
 70
1
  0
VERTEX
  5
510
100
AcDbEntity
  8
5
100
AcDbVertex
100
AcDb2dVertex
 42
-2.2960454E-002
 10
1.0528101E+002
 20
2.8599108E+001
 70
0
  0
VERTEX
  5
511
100
AcDbEntity
  8
5
100
AcDbVertex
100
AcDb2dVertex
 42
-2.3438811E-002
 10
1.0522636E+002
 20
2.850703E+001
 70
1
  0
VERTEX
  5
512
100
AcDbEntity
  8
5
100
AcDbVertex
100
AcDb2dVertex
 42
-2.3445223E-002
 10
1.0516512E+002
 20
2.8422683E+001
 70
0
  0
VERTEX
  5
513
100
AcDbEntity
  8
5
100
AcDbVertex
100
AcDb2dVertex
 42
-2.3414842E-002
 10
1.0509782E+002
 20
2.8346609E+001
 70
1
  0
VERTEX
  5
514
100
AcDbEntity
  8
5
100
AcDbVertex
100
AcDb2dVertex
 42
-2.2883837E-002
 10
1.0502552E+002
 20
2.8278527E+001
 70
0
  0
VERTEX
  5
515
100
AcDbEntity
  8
5
100
AcDbVertex
100
AcDb2dVertex
 42
-2.2435973E-002
 10
1.0494884E+002
 20
2.8218743E+001
 70
1
  0
VERTEX
  5
516
100
AcDbEntity
  8
5
100
AcDbVertex
100
AcDb2dVertex
 42
-2.1561958E-002
 10
1.048687E+002
 20
2.8166742E+001
 70
0
  0
VERTEX
  5
517
100
AcDbEntity
  8
5
100
AcDbVertex
100
AcDb2dVertex
 42
-2.0644687E-002
 10
1.0478573E+002
 20
2.812261E+001
 70
1
  0
VERTEX
  5
518
100
AcDbEntity
  8
5
100
AcDbVertex
100
AcDb2dVertex
 42
-1.9377693E-002
 10
1.0470099E+002
 20
2.8085769E+001
 70
0
  0
VERTEX
  5
519
100
AcDbEntity
  8
5
100
AcDbVertex
100
AcDb2dVertex
 42
-1.8622968E-002
 10
1.046152E+002
 20
2.805617E+001
 70
1
  0
VERTEX
  5
51a
100
AcDbEntity
  8
5
100
AcDbVertex
100
AcDb2dVertex
 42
-1.7281552E-002
 10
1.0452805E+002
 20
2.803287E+001
 70
0
  0
VERTEX
  5
51b
100
AcDbEntity
  8
5
100
AcDbVertex
100
AcDb2dVertex
 42
-1.6821313E-002
 10
1.0443868E+002
 20
2.8015495E+001
 70
1
  0
VERTEX
  5
51c
100
AcDbEntity
  8
5
100
AcDbVertex
100
AcDb2dVertex
 42
-1.6702297E-002
 10
1.0434529E+002
 20
2.800371E+001
 70
0
  0
VERTEX
  5
51d
100
AcDbEntity
  8
5
100
AcDbVertex
100
AcDb2dVertex
 42
-1.596782E-002
 10
1.04246E+002
 20
2.7997865E+001
 70
1
  0
VERTEX
  5
51e
100
AcDbEntity
  8
5
100
AcDbVertex
100
AcDb2dVertex
 42
-1.6115854E-002
 10
1.0414134E+002
 20
2.7998316E+001
 70
0
  0
VERTEX
  5
51f
100
AcDbEntity
  8
5
100
AcDbVertex
100
AcDb2dVertex
 42
-1.5887607E-002
 10
1.0403178E+002
 20
2.800601E+001
 70
1
  0
VERTEX
  5
520
100
AcDbEntity
  8
5
100
AcDbVertex
100
AcDb2dVertex
 42
-1.5610244E-002
 10
1.0391787E+002
 20
2.802115E+001
 70
0
  0
VERTEX
  5
521
100
AcDbEntity
  8
5
100
AcDbVertex
100
AcDb2dVertex
 42
-1.5148344E-002
 10
1.0379978E+002
 20
2.8044502E+001
 70
1
  0
VERTEX
  5
522
100
AcDbEntity
  8
5
100
AcDbVertex
100
AcDb2dVertex
 42
-1.4958014E-002
 10
1.0367825E+002
 20
2.8076111E+001
 70
0
  0
VERTEX
  5
523
100
AcDbEntity
  8
5
100
AcDbVertex
100
AcDb2dVertex
 42
-1.4565295E-002
 10
1.0355386E+002
 20
2.8116656E+001
 70
1
  0
VERTEX
  5
524
100
AcDbEntity
  8
5
100
AcDbVertex
100
AcDb2dVertex
 42
-1.4323907E-002
 10
1.0342749E+002
 20
2.8165949E+001
 70
0
  0
VERTEX
  5
525
100
AcDbEntity
  8
5
100
AcDbVertex
100
AcDb2dVertex
 42
-1.3960214E-002
 10
1.0329991E+002
 20
2.8224454E+001
 70
1
  0
VERTEX
  5
526
100
AcDbEntity
  8
5
100
AcDbVertex
100
AcDb2dVertex
 42
-1.3750012E-002
 10
1.0317212E+002
 20
2.8291716E+001
 70
0
  0
VERTEX
  5
527
100
AcDbEntity
  8
5
100
AcDbVertex
100
AcDb2dVertex
 42
-1.3458316E-002
 10
1.0304509E+002
 20
2.8367921E+001
 70
1
  0
VERTEX
  5
528
100
AcDbEntity
  8
5
100
AcDbVertex
100
AcDb2dVertex
 42
-1.3274478E-002
 10
1.0291981E+002
 20
2.8452338E+001
 70
0
  0
VERTEX
  5
529
100
AcDbEntity
  8
5
100
AcDbVertex
100
AcDb2dVertex
 42
-1.3071744E-002
 10
1.0279738E+002
 20
2.854483E+001
 70
1
  0
VERTEX
  5
52a
100
AcDbEntity
  8
5
100
AcDbVertex
100
AcDb2dVertex
 42
-1.2950332E-002
 10
1.0267869E+002
 20
2.8644441E+001
 70
0
  0
VERTEX
  5
52b
100
AcDbEntity
  8
5
100
AcDbVertex
100
AcDb2dVertex
 42
-1.2812938E-002
 10
1.0256486E+002
 20
2.8750724E+001
 70
1
  0
VERTEX
  5
52c
100
AcDbEntity
  8
5
100
AcDbVertex
100
AcDb2dVertex
 42
-1.2677233E-002
 10
1.0245655E+002
 20
2.8862521E+001
 70
0
  0
VERTEX
  5
52d
100
AcDbEntity
  8
5
100
AcDbVertex
100
AcDb2dVertex
 42
-1.2714053E-002
 10
1.0235481E+002
 20
2.8979106E+001
 70
1
  0
VERTEX
  5
52e
100
AcDbEntity
  8
5
100
AcDbVertex
100
AcDb2dVertex
 42
-1.284083E-002
 10
1.0226001E+002
 20
2.9099449E+001
 70
0
  0
VERTEX
  5
52f
100
AcDbEntity
  8
5
100
AcDbVertex
100
AcDb2dVertex
 42
-1.2661369E-002
 10
1.0217301E+002
 20
2.9222715E+001
 70
1
  0
VERTEX
  5
530
100
AcDbEntity
  8
5
100
AcDbVertex
100
AcDb2dVertex
 42
-1.2080342E-002
 10
1.0209391E+002
 20
2.9347232E+001
 70
0
  0
VERTEX
  5
531
100
AcDbEntity
  8
5
100
AcDbVertex
100
AcDb2dVertex
 42
-1.3029638E-002
 10
1.0202333E+002
 20
2.9471852E+001
 70
1
  0
VERTEX
  5
532
100
AcDbEntity
  8
5
100
AcDbVertex
100
AcDb2dVertex
 42
-1.4968775E-002
 10
1.0196091E+002
 20
2.9597846E+001
 70
0
  0
VERTEX
  5
533
100
AcDbEntity
  8
5
100
AcDbVertex
100
AcDb2dVertex
 42
-1.2418904E-002
 10
1.0190696E+002
 20
2.9725051E+001
 70
1
  0
VERTEX
  5
534
100
AcDbEntity
  8
5
100
AcDbVertex
100
AcDb2dVertex
 42
-6.1780856E-003
 10
1.0186154E+002
 20
2.9843995E+001
 70
0
  0
VERTEX
  5
535
100
AcDbEntity
  8
5
100
AcDbVertex
100
AcDb2dVertex
 42
-1.6142381E-002
 10
1.0182496E+002
 20
2.9950843E+001
 70
1
  0
VERTEX
  5
536
100
AcDbEntity
  8
5
100
AcDbVertex
100
AcDb2dVertex
 42
-2.8086826E-002
 10
1.0179446E+002
 20
3.0079647E+001
 70
0
  0
VERTEX
  5
537
100
AcDbEntity
  8
5
100
AcDbVertex
100
AcDb2dVertex
 42
-1.5825876E-002
 10
1.0176785E+002
 20
3.0266033E+001
 70
1
  0
VERTEX
  5
538
100
AcDbEntity
  8
5
100
AcDbVertex
100
AcDb2dVertex
 42
-9.2629008E-003
 10
1.017453E+002
 20
3.0503015E+001
 70
0
  0
SEQEND
  5
539
100
AcDbEntity
  0
ELLIPSE
  5
53a
100
AcDbEntity
  8
5
100
AcDbEllipse
  6
CONTINUOUS
 10
5.7515819E+001
 20
4.4162635E+001
 11
2.6753781
 21
-2.8376666
 40
7.0710678E-001
 41
0.0
 42
6.2831853
 62
30
  0
POLYLINE
  5
53b
100
AcDbEntity
  8
5
100
AcDb2dPolyline
  6
CONTINUOUS
 62
30
 66
1
 40
0.0
 41
0.0
 70
2
  0
VERTEX
  5
53c
100
AcDbEntity
  8
5
100
AcDbVertex
100
AcDb2dVertex
 42
0.0
 10
5.7376478E+001
 20
4.6913139E+001
 70
0
  0
VERTEX
  5
53d
100
AcDbEntity
  8
5
100
AcDbVertex
100
AcDb2dVertex
 42
1.9271395E-002
 10
5.7336803E+001
 20
4.6834478E+001
 70
1
  0
VERTEX
  5
53e
100
AcDbEntity
  8
5
100
AcDbVertex
100
AcDb2dVertex
 42
1.8379355E-002
 10
5.7302387E+001
 20
4.6751437E+001
 70
0
  0
VERTEX
  5
53f
100
AcDbEntity
  8
5
100
AcDbVertex
100
AcDb2dVertex
 42
1.7599426E-002
 10
5.7273405E+001
 20
4.6663782E+001
 70
1
  0
VERTEX
  5
540
100
AcDbEntity
  8
5
100
AcDbVertex
100
AcDb2dVertex
 42
1.7362056E-002
 10
5.7249933E+001
 20
4.6572061E+001
 70
0
  0
VERTEX
  5
541
100
AcDbEntity
  8
5
100
AcDbVertex
100
AcDb2dVertex
 42
1.6859488E-002
 10
5.7232542E+001
 20
4.6476571E+001
 70
1
  0
VERTEX
  5
542
100
AcDbEntity
  8
5
100
AcDbVertex
100
AcDb2dVertex
 42
1.623153E-002
 10
5.722114E+001
 20
4.6377891E+001
 70
0
  0
VERTEX
  5
543
100
AcDbEntity
  8
5
100
AcDbVertex
100
AcDb2dVertex
 42
1.5568424E-002
 10
5.7216083E+001
 20
4.6276343E+001
 70
1
  0
VERTEX
  5
544
100
AcDbEntity
  8
5
100
AcDbVertex
100
AcDb2dVertex
 42
1.4980402E-002
 10
5.7217157E+001
 20
4.6172545E+001
 70
0
  0
VERTEX
  5
545
100
AcDbEntity
  8
5
100
AcDbVertex
100
AcDb2dVertex
 42
1.4362929E-002
 10
5.7224624E+001
 20
4.6066945E+001
 70
1
  0
VERTEX
  5
546
100
AcDbEntity
  8
5
100
AcDbVertex
100
AcDb2dVertex
 42
1.3760306E-002
 10
5.7238143E+001
 20
4.5960155E+001
 70
0
  0
VERTEX
  5
547
100
AcDbEntity
  8
5
100
AcDbVertex
100
AcDb2dVertex
 42
1.3186321E-002
 10
5.7257837E+001
 20
4.5852685E+001
 70
1
  0
VERTEX
  5
548
100
AcDbEntity
  8
5
100
AcDbVertex
100
AcDb2dVertex
 42
1.2629237E-002
 10
5.7283257E+001
 20
4.5745101E+001
 70
0
  0
VERTEX
  5
549
100
AcDbEntity
  8
5
100
AcDbVertex
100
AcDb2dVertex
 42
1.2127359E-002
 10
5.7314399E+001
 20
4.5637949E+001
 70
1
  0
VERTEX
  5
54a
100
AcDbEntity
  8
5
100
AcDbVertex
100
AcDb2dVertex
 42
1.1622334E-002
 10
5.7350736E+001
 20
4.5531714E+001
 70
0
  0
VERTEX
  5
54b
100
AcDbEntity
  8
5
100
AcDbVertex
100
AcDb2dVertex
 42
1.1194586E-002
 10
5.7392148E+001
 20
4.5426937E+001
 70
1
  0
VERTEX
  5
54c
100
AcDbEntity
  8
5
100
AcDbVertex
100
AcDb2dVertex
 42
1.0748237E-002
 10
5.7438065E+001
 20
4.5323999E+001
 70
0
  0
VERTEX
  5
54d
100
AcDbEntity
  8
5
100
AcDbVertex
100
AcDb2dVertex
 42
1.0390997E-002
 10
5.7488274E+001
 20
4.5223406E+001
 70
1
  0
VERTEX
  5
54e
100
AcDbEntity
  8
5
100
AcDbVertex
100
AcDb2dVertex
 42
9.9983572E-003
 10
5.7542197E+001
 20
4.512542E+001
 70
0
  0
VERTEX
  5
54f
100
AcDbEntity
  8
5
100
AcDbVertex
100
AcDb2dVertex
 42
9.7071019E-003
 10
5.7599555E+001
 20
4.5030488E+001
 70
1
  0
VERTEX
  5
550
100
AcDbEntity
  8
5
100
AcDbVertex
100
AcDb2dVertex
 42
9.370386E-003
 10
5.7659798E+001
 20
4.493875E+001
 70
0
  0
VERTEX
  5
551
100
AcDbEntity
  8
5
100
AcDbVertex
100
AcDb2dVertex
 42
9.1259612E-003
 10
5.7722613E+001
 20
4.4850578E+001
 70
1
  0
VERTEX
  5
552
100
AcDbEntity
  8
5
100
AcDbVertex
100
AcDb2dVertex
 42
8.8143112E-003
 10
5.778748E+001
 20
4.4766011E+001
 70
0
  0
VERTEX
  5
553
100
AcDbEntity
  8
5
100
AcDbVertex
100
AcDb2dVertex
 42
8.6429191E-003
 10
5.785407E+001
 20
4.4685348E+001
 70
1
  0
VERTEX
  5
554
100
AcDbEntity
  8
5
100
AcDbVertex
100
AcDb2dVertex
 42
8.4285099E-003
 10
5.7921995E+001
 20
4.4608483E+001
 70
0
  0
VERTEX
  5
555
100
AcDbEntity
  8
5
100
AcDbVertex
100
AcDb2dVertex
 42
8.2071281E-003
 10
5.7990955E+001
 20
4.4535625E+001
 70
1
  0
VERTEX
  5
556
100
AcDbEntity
  8
5
100
AcDbVertex
100
AcDb2dVertex
 42
7.8441958E-003
 10
5.8060379E+001
 20
4.4466767E+001
 70
0
  0
VERTEX
  5
557
100
AcDbEntity
  8
5
100
AcDbVertex
100
AcDb2dVertex
 42
7.9950689E-003
 10
5.8130074E+001
 20
4.4401967E+001
 70
1
  0
VERTEX
  5
558
100
AcDbEntity
  8
5
100
AcDbVertex
100
AcDb2dVertex
 42
8.0106843E-003
 10
5.8201494E+001
 20
4.4339671E+001
 70
0
  0
VERTEX
  5
559
100
AcDbEntity
  8
5
100
AcDbVertex
100
AcDb2dVertex
 42
7.9395408E-003
 10
5.8276308E+001
 20
4.4278577E+001
 70
1
  0
VERTEX
  5
55a
100
AcDbEntity
  8
5
100
AcDbVertex
100
AcDb2dVertex
 42
8.3880737E-003
 10
5.835456E+001
 20
4.4218761E+001
 70
0
  0
VERTEX
  5
55b
100
AcDbEntity
  8
5
100
AcDbVertex
100
AcDb2dVertex
 42
8.6889471E-003
 10
5.8436274E+001
 20
4.4160725E+001
 70
1
  0
VERTEX
  5
55c
100
AcDbEntity
  8
5
100
AcDbVertex
100
AcDb2dVertex
 42
9.0121632E-003
 10
5.8521196E+001
 20
4.4104756E+001
 70
0
  0
VERTEX
  5
55d
100
AcDbEntity
  8
5
100
AcDbVertex
100
AcDb2dVertex
 42
9.310154E-003
 10
5.8609327E+001
 20
4.4051308E+001
 70
1
  0
VERTEX
  5
55e
100
AcDbEntity
  8
5
100
AcDbVertex
100
AcDb2dVertex
 42
9.7599236E-003
 10
5.8700349E+001
 20
4.4000678E+001
 70
0
  0
VERTEX
  5
55f
100
AcDbEntity
  8
5
100
AcDbVertex
100
AcDb2dVertex
 42
1.0104945E-002
 10
5.8794149E+001
 20
4.3953404E+001
 70
1
  0
VERTEX
  5
560
100
AcDbEntity
  8
5
100
AcDbVertex
100
AcDb2dVertex
 42
1.0513952E-002
 10
5.8890307E+001
 20
4.3909739E+001
 70
0
  0
VERTEX
  5
561
100
AcDbEntity
  8
5
100
AcDbVertex
100
AcDb2dVertex
 42
1.1049809E-002
 10
5.8988589E+001
 20
4.3870242E+001
 70
1
  0
VERTEX
  5
562
100
AcDbEntity
  8
5
100
AcDbVertex
100
AcDb2dVertex
 42
1.1852373E-002
 10
5.9088663E+001
 20
4.3835174E+001
 70
0
  0
VERTEX
  5
563
100
AcDbEntity
  8
5
100
AcDbVertex
100
AcDb2dVertex
 42
1.2026411E-002
 10
5.9190236E+001
 20
4.3805122E+001
 70
1
  0
VERTEX
  5
564
100
AcDbEntity
  8
5
100
AcDbVertex
100
AcDb2dVertex
 42
1.1773225E-002
 10
5.9292339E+001
 20
4.378004E+001
 70
0
  0
VERTEX
  5
565
100
AcDbEntity
  8
5
100
AcDbVertex
100
AcDb2dVertex
 42
1.360509E-002
 10
5.9394367E+001
 20
4.3760405E+001
 70
1
  0
VERTEX
  5
566
100
AcDbEntity
  8
5
100
AcDbVertex
100
AcDb2dVertex
 42
1.7144259E-002
 10
5.9497675E+001
 20
4.3746975E+001
 70
0
  0
VERTEX
  5
567
100
AcDbEntity
  8
5
100
AcDbVertex
100
AcDb2dVertex
 42
1.3710381E-002
 10
5.9602376E+001
 20
4.3740477E+001
 70
1
  0
VERTEX
  5
568
100
AcDbEntity
  8
5
100
AcDbVertex
100
AcDb2dVertex
 42
4.9696422E-003
 10
5.9700604E+001
 20
4.3737969E+001
 70
0
  0
VERTEX
  5
569
100
AcDbEntity
  8
5
100
AcDbVertex
100
AcDb2dVertex
 42
2.0392561E-002
 10
5.978923E+001
 20
4.3738849E+001
 70
1
  0
VERTEX
  5
56a
100
AcDbEntity
  8
5
100
AcDbVertex
100
AcDb2dVertex
 42
3.8224607E-002
 10
5.9896887E+001
 20
4.3754162E+001
 70
0
  0
VERTEX
  5
56b
100
AcDbEntity
  8
5
100
AcDbVertex
100
AcDb2dVertex
 42
2.0005433E-002
 10
6.0053565E+001
 20
4.3795996E+001
 70
1
  0
VERTEX
  5
56c
100
AcDbEntity
  8
5
100
AcDbVertex
100
AcDb2dVertex
 42
1.0745369E-002
 10
6.0253364E+001
 20
4.3861741E+001
 70
0
  0
SEQEND
  5
56d
100
AcDbEntity
  0
ELLIPSE
  5
56e
100
AcDbEntity
  8
5
100
AcDbEllipse
  6
CONTINUOUS
 10
1.025342E+002
 20
2.888289E+001
 11
2.6753781
 21
-2.8376666
 40
7.0710678E-001
 41
0.0
 42
6.2831853
 62
30
  0
POLYLINE
  5
56f
100
AcDbEntity
  8
5
100
AcDb2dPolyline
  6
CONTINUOUS
 62
30
 66
1
 40
0.0
 41
0.0
 70
2
  0
VERTEX
  5
570
100
AcDbEntity
  8
5
100
AcDbVertex
100
AcDb2dVertex
 42
0.0
 10
1.0223409E+002
 20
3.0963848E+001
 70
0
  0
VERTEX
  5
571
100
AcDbEntity
  8
5
100
AcDbVertex
100
AcDb2dVertex
 42
1.0820275E-002
 10
1.0223541E+002
 20
3.0895078E+001
 70
1
  0
VERTEX
  5
572
100
AcDbEntity
  8
5
100
AcDbVertex
100
AcDb2dVertex
 42
9.8474191E-003
 10
1.0223967E+002
 20
3.0824067E+001
 70
0
  0
VERTEX
  5
573
100
AcDbEntity
  8
5
100
AcDbVertex
100
AcDb2dVertex
 42
9.4312303E-003
 10
1.0224697E+002
 20
3.0750709E+001
 70
1
  0
VERTEX
  5
574
100
AcDbEntity
  8
5
100
AcDbVertex
100
AcDb2dVertex
 42
9.6487012E-003
 10
1.0225735E+002
 20
3.0675192E+001
 70
0
  0
VERTEX
  5
575
100
AcDbEntity
  8
5
100
AcDbVertex
100
AcDb2dVertex
 42
9.5989213E-003
 10
1.0227118E+002
 20
3.0597549E+001
 70
1
  0
VERTEX
  5
576
100
AcDbEntity
  8
5
100
AcDbVertex
100
AcDb2dVertex
 42
9.5144462E-003
 10
1.0228846E+002
 20
3.0517997E+001
 70
0
  0
VERTEX
  5
577
100
AcDbEntity
  8
5
100
AcDbVertex
100
AcDb2dVertex
 42
9.375586E-003
 10
1.0230947E+002
 20
3.0436602E+001
 70
1
  0
VERTEX
  5
578
100
AcDbEntity
  8
5
100
AcDbVertex
100
AcDb2dVertex
 42
9.3572412E-003
 10
1.0233419E+002
 20
3.0353616E+001
 70
0
  0
VERTEX
  5
579
100
AcDbEntity
  8
5
100
AcDbVertex
100
AcDb2dVertex
 42
9.2466336E-003
 10
1.0236289E+002
 20
3.0269175E+001
 70
1
  0
VERTEX
  5
57a
100
AcDbEntity
  8
5
100
AcDbVertex
100
AcDb2dVertex
 42
9.2118841E-003
 10
1.0239551E+002
 20
3.018356E+001
 70
0
  0
VERTEX
  5
57b
100
AcDbEntity
  8
5
100
AcDbVertex
100
AcDb2dVertex
 42
9.1083494E-003
 10
1.0243228E+002
 20
3.0096971E+001
 70
1
  0
VERTEX
  5
57c
100
AcDbEntity
  8
5
100
AcDbVertex
100
AcDb2dVertex
 42
9.082506E-003
 10
1.0247308E+002
 20
3.0009715E+001
 70
0
  0
VERTEX
  5
57d
100
AcDbEntity
  8
5
100
AcDbVertex
100
AcDb2dVertex
 42
8.9972141E-003
 10
1.0251811E+002
 20
2.9922057E+001
 70
1
  0
VERTEX
  5
57e
100
AcDbEntity
  8
5
100
AcDbVertex
100
AcDb2dVertex
 42
8.9788573E-003
 10
1.0256718E+002
 20
2.9834319E+001
 70
0
  0
VERTEX
  5
57f
100
AcDbEntity
  8
5
100
AcDbVertex
100
AcDb2dVertex
 42
8.9142493E-003
 10
1.0262041E+002
 20
2.9746824E+001
 70
1
  0
VERTEX
  5
580
100
AcDbEntity
  8
5
100
AcDbVertex
100
AcDb2dVertex
 42
8.9075416E-003
 10
1.0267758E+002
 20
2.9659894E+001
 70
0
  0
VERTEX
  5
581
100
AcDbEntity
  8
5
100
AcDbVertex
100
AcDb2dVertex
 42
8.8672178E-003
 10
1.0273873E+002
 20
2.9573904E+001
 70
1
  0
VERTEX
  5
582
100
AcDbEntity
  8
5
100
AcDbVertex
100
AcDb2dVertex
 42
8.8741668E-003
 10
1.0280357E+002
 20
2.9489159E+001
 70
0
  0
VERTEX
  5
583
100
AcDbEntity
  8
5
100
AcDbVertex
100
AcDb2dVertex
 42
8.8605564E-003
 10
1.0287207E+002
 20
2.9406069E+001
 70
1
  0
VERTEX
  5
584
100
AcDbEntity
  8
5
100
AcDbVertex
100
AcDb2dVertex
 42
8.8829083E-003
 10
1.0294389E+002
 20
2.9324906E+001
 70
0
  0
VERTEX
  5
585
100
AcDbEntity
  8
5
100
AcDbVertex
100
AcDb2dVertex
 42
8.8978754E-003
 10
1.0301893E+002
 20
2.9246098E+001
 70
1
  0
VERTEX
  5
586
100
AcDbEntity
  8
5
100
AcDbVertex
100
AcDb2dVertex
 42
8.9366879E-003
 10
1.030968E+002
 20
2.9169864E+001
 70
0
  0
VERTEX
  5
587
100
AcDbEntity
  8
5
100
AcDbVertex
100
AcDb2dVertex
 42
8.9813717E-003
 10
1.0317732E+002
 20
2.9096631E+001
 70
1
  0
VERTEX
  5
588
100
AcDbEntity
  8
5
100
AcDbVertex
100
AcDb2dVertex
 42
9.0370523E-003
 10
1.0326009E+002
 20
2.9026553E+001
 70
0
  0
VERTEX
  5
589
100
AcDbEntity
  8
5
100
AcDbVertex
100
AcDb2dVertex
 42
9.1119006E-003
 10
1.0334486E+002
 20
2.8960033E+001
 70
1
  0
VERTEX
  5
58a
100
AcDbEntity
  8
5
100
AcDbVertex
100
AcDb2dVertex
 42
9.1842688E-003
 10
1.0343123E+002
 20
2.8897151E+001
 70
0
  0
VERTEX
  5
58b
100
AcDbEntity
  8
5
100
AcDbVertex
100
AcDb2dVertex
 42
9.2886902E-003
 10
1.0351891E+002
 20
2.883827E+001
 70
1
  0
VERTEX
  5
58c
100
AcDbEntity
  8
5
100
AcDbVertex
100
AcDb2dVertex
 42
9.3762149E-003
 10
1.036075E+002
 20
2.8783387E+001
 70
0
  0
VERTEX
  5
58d
100
AcDbEntity
  8
5
100
AcDbVertex
100
AcDb2dVertex
 42
9.5092354E-003
 10
1.0369667E+002
 20
2.8732813E+001
 70
1
  0
VERTEX
  5
58e
100
AcDbEntity
  8
5
100
AcDbVertex
100
AcDb2dVertex
 42
9.6112829E-003
 10
1.0378608E+002
 20
2.8686465E+001
 70
0
  0
VERTEX
  5
58f
100
AcDbEntity
  8
5
100
AcDbVertex
100
AcDb2dVertex
 42
9.768076E-003
 10
1.0387537E+002
 20
2.864459E+001
 70
1
  0
VERTEX
  5
590
100
AcDbEntity
  8
5
100
AcDbVertex
100
AcDb2dVertex
 42
9.875337E-003
 10
1.0396425E+002
 20
2.8607032E+001
 70
0
  0
VERTEX
  5
591
100
AcDbEntity
  8
5
100
AcDbVertex
100
AcDb2dVertex
 42
1.0059367E-002
 10
1.0405237E+002
 20
2.8573971E+001
 70
1
  0
VERTEX
  5
592
100
AcDbEntity
  8
5
100
AcDbVertex
100
AcDb2dVertex
 42
1.0189329E-002
 10
1.0413948E+002
 20
2.8545191E+001
 70
0
  0
VERTEX
  5
593
100
AcDbEntity
  8
5
100
AcDbVertex
100
AcDb2dVertex
 42
1.0364567E-002
 10
1.0422528E+002
 20
2.8520809E+001
 70
1
  0
VERTEX
  5
594
100
AcDbEntity
  8
5
100
AcDbVertex
100
AcDb2dVertex
 42
1.0426498E-002
 10
1.0430956E+002
 20
2.8500547E+001
 70
0
  0
VERTEX
  5
595
100
AcDbEntity
  8
5
100
AcDbVertex
100
AcDb2dVertex
 42
1.0698103E-002
 10
1.0439202E+002
 20
2.848446E+001
 70
1
  0
VERTEX
  5
596
100
AcDbEntity
  8
5
100
AcDbVertex
100
AcDb2dVertex
 42
1.0994485E-002
 10
1.0447262E+002
 20
2.8472281E+001
 70
0
  0
VERTEX
  5
597
100
AcDbEntity
  8
5
100
AcDbVertex
100
AcDb2dVertex
 42
1.0930184E-002
 10
1.0455114E+002
 20
2.8464031E+001
 70
1
  0
VERTEX
  5
598
100
AcDbEntity
  8
5
100
AcDbVertex
100
AcDb2dVertex
 42
1.0334587E-002
 10
1.0462718E+002
 20
2.8459245E+001
 70
0
  0
VERTEX
  5
599
100
AcDbEntity
  8
5
100
AcDbVertex
100
AcDb2dVertex
 42
1.1469087E-002
 10
1.0470041E+002
 20
2.8457843E+001
 70
1
  0
VERTEX
  5
59a
100
AcDbEntity
  8
5
100
AcDbVertex
100
AcDb2dVertex
 42
1.3768205E-002
 10
1.047722E+002
 20
2.8460056E+001
 70
0
  0
VERTEX
  5
59b
100
AcDbEntity
  8
5
100
AcDbVertex
100
AcDb2dVertex
 42
1.0715287E-002
 10
1.0484282E+002
 20
2.8466013E+001
 70
1
  0
VERTEX
  5
59c
100
AcDbEntity
  8
5
100
AcDbVertex
100
AcDb2dVertex
 42
3.1486081E-003
 10
1.0490696E+002
 20
2.8473187E+001
 70
0
  0
VERTEX
  5
59d
100
AcDbEntity
  8
5
100
AcDbVertex
100
AcDb2dVertex
 42
1.5106419E-002
 10
1.0496263E+002
 20
2.8480743E+001
 70
1
  0
VERTEX
  5
59e
100
AcDbEntity
  8
5
100
AcDbVertex
100
AcDb2dVertex
 42
2.810173E-002
 10
1.0503148E+002
 20
2.8497146E+001
 70
0
  0
VERTEX
  5
59f
100
AcDbEntity
  8
5
100
AcDbVertex
100
AcDb2dVertex
 42
1.3487166E-002
 10
1.0513598E+002
 20
2.8531531E+001
 70
1
  0
VERTEX
  5
5a0
100
AcDbEntity
  8
5
100
AcDbVertex
100
AcDb2dVertex
 42
7.1439572E-003
 10
1.0527174E+002
 20
2.8581996E+001
 70
0
  0
SEQEND
  5
5a1
100
AcDbEntity
  0
POLYLINE
  5
5a2
100
AcDbEntity
  8
5
100
AcDb2dPolyline
  6
CONTINUOUS
 62
30
 66
1
 40
0.0
 41
0.0
 70
2
  0
VERTEX
  5
5a3
100
AcDbEntity
  8
5
100
AcDbVertex
100
AcDb2dVertex
 42
0.0
 10
1.0239486E+002
 20
3.1633394E+001
 70
0
  0
VERTEX
  5
5a4
100
AcDbEntity
  8
5
100
AcDbVertex
100
AcDb2dVertex
 42
4.975115E-003
 10
1.0238357E+002
 20
3.161245E+001
 70
1
  0
VERTEX
  5
5a5
100
AcDbEntity
  8
5
100
AcDbVertex
100
AcDb2dVertex
 42
5.0315517E-003
 10
1.0237273E+002
 20
3.1591329E+001
 70
0
  0
VERTEX
  5
5a6
100
AcDbEntity
  8
5
100
AcDbVertex
100
AcDb2dVertex
 42
5.013534E-003
 10
1.0236233E+002
 20
3.1570024E+001
 70
1
  0
VERTEX
  5
5a7
100
AcDbEntity
  8
5
100
AcDbVertex
100
AcDb2dVertex
 42
4.9175464E-003
 10
1.0235237E+002
 20
3.1548554E+001
 70
0
  0
VERTEX
  5
5a8
100
AcDbEntity
  8
5
100
AcDbVertex
100
AcDb2dVertex
 42
4.850978E-003
 10
1.0234286E+002
 20
3.1526924E+001
 70
1
  0
VERTEX
  5
5a9
100
AcDbEntity
  8
5
100
AcDbVertex
100
AcDb2dVertex
 42
4.7895486E-003
 10
1.0233378E+002
 20
3.1505153E+001
 70
0
  0
VERTEX
  5
5aa
100
AcDbEntity
  8
5
100
AcDbVertex
100
AcDb2dVertex
 42
4.732605E-003
 10
1.0232514E+002
 20
3.1483244E+001
 70
1
  0
VERTEX
  5
5ab
100
AcDbEntity
  8
5
100
AcDbVertex
100
AcDb2dVertex
 42
4.6609093E-003
 10
1.0231692E+002
 20
3.1461212E+001
 70
0
  0
VERTEX
  5
5ac
100
AcDbEntity
  8
5
100
AcDbVertex
100
AcDb2dVertex
 42
4.6005777E-003
 10
1.0230913E+002
 20
3.1439064E+001
 70
1
  0
VERTEX
  5
5ad
100
AcDbEntity
  8
5
100
AcDbVertex
100
AcDb2dVertex
 42
4.5309924E-003
 10
1.0230175E+002
 20
3.1416814E+001
 70
0
  0
VERTEX
  5
5ae
100
AcDbEntity
  8
5
100
AcDbVertex
100
AcDb2dVertex
 42
4.4699222E-003
 10
1.0229479E+002
 20
3.1394467E+001
 70
1
  0
VERTEX
  5
5af
100
AcDbEntity
  8
5
100
AcDbVertex
100
AcDb2dVertex
 42
4.3972224E-003
 10
1.0228824E+002
 20
3.1372037E+001
 70
0
  0
VERTEX
  5
5b0
100
AcDbEntity
  8
5
100
AcDbVertex
100
AcDb2dVertex
 42
4.339367E-003
 10
1.022821E+002
 20
3.1349532E+001
 70
1
  0
VERTEX
  5
5b1
100
AcDbEntity
  8
5
100
AcDbVertex
100
AcDb2dVertex
 42
4.2753537E-003
 10
1.0227635E+002
 20
3.1326961E+001
 70
0
  0
VERTEX
  5
5b2
100
AcDbEntity
  8
5
100
AcDbVertex
100
AcDb2dVertex
 42
4.2062912E-003
 10
1.02271E+002
 20
3.1304331E+001
 70
1
  0
VERTEX
  5
5b3
100
AcDbEntity
  8
5
100
AcDbVertex
100
AcDb2dVertex
 42
4.1146679E-003
 10
1.0226603E+002
 20
3.128166E+001
 70
0
  0
VERTEX
  5
5b4
100
AcDbEntity
  8
5
100
AcDbVertex
100
AcDb2dVertex
 42
4.0863204E-003
 10
1.0226146E+002
 20
3.1258958E+001
 70
1
  0
VERTEX
  5
5b5
100
AcDbEntity
  8
5
100
AcDbVertex
100
AcDb2dVertex
 42
4.0891142E-003
 10
1.0225725E+002
 20
3.1236204E+001
 70
0
  0
VERTEX
  5
5b6
100
AcDbEntity
  8
5
100
AcDbVertex
100
AcDb2dVertex
 42
3.9277703E-003
 10
1.0225343E+002
 20
3.1213395E+001
 70
1
  0
VERTEX
  5
5b7
100
AcDbEntity
  8
5
100
AcDbVertex
100
AcDb2dVertex
 42
3.6305517E-003
 10
1.0224996E+002
 20
3.1190664E+001
 70
0
  0
VERTEX
  5
5b8
100
AcDbEntity
  8
5
100
AcDbVertex
100
AcDb2dVertex
 42
3.9110241E-003
 10
1.0224687E+002
 20
3.1168062E+001
 70
1
  0
VERTEX
  5
5b9
100
AcDbEntity
  8
5
100
AcDbVertex
100
AcDb2dVertex
 42
4.5224568E-003
 10
1.0224411E+002
 20
3.1145103E+001
 70
0
  0
VERTEX
  5
5ba
100
AcDbEntity
  8
5
100
AcDbVertex
100
AcDb2dVertex
 42
3.4470603E-003
 10
1.022417E+002
 20
3.1121625E+001
 70
1
  0
VERTEX
  5
5bb
100
AcDbEntity
  8
5
100
AcDbVertex
100
AcDb2dVertex
 42
1.314953E-003
 10
1.0223965E+002
 20
3.1099585E+001
 70
0
  0
VERTEX
  5
5bc
100
AcDbEntity
  8
5
100
AcDbVertex
100
AcDb2dVertex
 42
4.6387519E-003
 10
1.0223796E+002
 20
3.1079663E+001
 70
1
  0
VERTEX
  5
5bd
100
AcDbEntity
  8
5
100
AcDbVertex
100
AcDb2dVertex
 42
7.7354607E-003
 10
1.0223652E+002
 20
3.1054167E+001
 70
0
  0
VERTEX
  5
5be
100
AcDbEntity
  8
5
100
AcDbVertex
100
AcDb2dVertex
 42
3.7962912E-003
 10
1.0223523E+002
 20
3.1015027E+001
 70
1
  0
VERTEX
  5
5bf
100
AcDbEntity
  8
5
100
AcDbVertex
100
AcDb2dVertex
 42
2.0362478E-003
 10
1.0223409E+002
 20
3.0963848E+001
 70
0
  0
SEQEND
  5
5c0
100
AcDbEntity
  0
LINE
  5
5c1
100
AcDbEntity
  8
5
100
AcDbLine
  6
CONTINUOUS
 62
30
 10
1.3730554E+002
 20
2.7471331E+001
 11
1.3730554E+002
 21
7.6804284
  0
LINE
  5
5c2
100
AcDbEntity
  8
5
100
AcDbLine
  6
CONTINUOUS
 62
30
 10
1.3576204E+002
 20
1.6120664E+001
 11
1.3576204E+002
 21
2.601613E+001
  0
LINE
  5
5c3
100
AcDbEntity
  8
5
100
AcDbLine
  6
CONTINUOUS
 62
30
 10
1.3576204E+002
 20
6.2251986
 11
1.3576204E+002
 21
1.6120664E+001
  0
LINE
  5
5c4
100
AcDbEntity
  8
5
100
AcDbLine
  6
CONTINUOUS
 62
30
 10
1.3576204E+002
 20
1.6120664E+001
 11
1.3591639E+002
 21
1.6266179E+001
  0
POLYLINE
  5
5c5
100
AcDbEntity
  8
5
100
AcDb2dPolyline
  6
CONTINUOUS
 62
1
 66
1
 40
0.0
 41
0.0
 70
2
  0
VERTEX
  5
5c6
100
AcDbEntity
  8
5
100
AcDbVertex
100
AcDb2dVertex
 42
0.0
 10
1.351513E+002
 20
1.4449217E+001
 70
0
  0
VERTEX
  5
5c7
100
AcDbEntity
  8
5
100
AcDbVertex
100
AcDb2dVertex
 42
-2.3148162E-002
 10
1.350067E+002
 20
1.4337583E+001
 70
1
  0
VERTEX
  5
5c8
100
AcDbEntity
  8
5
100
AcDbVertex
100
AcDb2dVertex
 42
-2.255757E-002
 10
1.3485095E+002
 20
1.423836E+001
 70
0
  0
VERTEX
  5
5c9
100
AcDbEntity
  8
5
100
AcDbVertex
100
AcDb2dVertex
 42
-2.1828447E-002
 10
1.3468345E+002
 20
1.4151935E+001
 70
1
  0
VERTEX
  5
5ca
100
AcDbEntity
  8
5
100
AcDbVertex
100
AcDb2dVertex
 42
-2.1636034E-002
 10
1.3450562E+002
 20
1.4078662E+001
 70
0
  0
VERTEX
  5
5cb
100
AcDbEntity
  8
5
100
AcDbVertex
100
AcDb2dVertex
 42
-2.1071284E-002
 10
1.3431823E+002
 20
1.4020091E+001
 70
1
  0
VERTEX
  5
5cc
100
AcDbEntity
  8
5
100
AcDbVertex
100
AcDb2dVertex
 42
-2.0236983E-002
 10
1.3412282E+002
 20
1.3976054E+001
 70
0
  0
VERTEX
  5
5cd
100
AcDbEntity
  8
5
100
AcDbVertex
100
AcDb2dVertex
 42
-1.9328489E-002
 10
1.3392029E+002
 20
1.3947427E+001
 70
1
  0
VERTEX
  5
5ce
100
AcDbEntity
  8
5
100
AcDbVertex
100
AcDb2dVertex
 42
-1.8449728E-002
 10
1.3371225E+002
 20
1.3933658E+001
 70
0
  0
VERTEX
  5
5cf
100
AcDbEntity
  8
5
100
AcDbVertex
100
AcDb2dVertex
 42
-1.7543047E-002
 10
1.3349994E+002
 20
1.3935321E+001
 70
1
  0
VERTEX
  5
5d0
100
AcDbEntity
  8
5
100
AcDbVertex
100
AcDb2dVertex
 42
-1.6609029E-002
 10
1.3328493E+002
 20
1.395148E+001
 70
0
  0
VERTEX
  5
5d1
100
AcDbEntity
  8
5
100
AcDbVertex
100
AcDb2dVertex
 42
-1.5747814E-002
 10
1.3306859E+002
 20
1.3982287E+001
 70
1
  0
VERTEX
  5
5d2
100
AcDbEntity
  8
5
100
AcDbVertex
100
AcDb2dVertex
 42
-1.4880053E-002
 10
1.3285231E+002
 20
1.4026509E+001
 70
0
  0
VERTEX
  5
5d3
100
AcDbEntity
  8
5
100
AcDbVertex
100
AcDb2dVertex
 42
-1.412706E-002
 10
1.3263749E+002
 20
1.408394E+001
 70
1
  0
VERTEX
  5
5d4
100
AcDbEntity
  8
5
100
AcDbVertex
100
AcDb2dVertex
 42
-1.3348095E-002
 10
1.3242526E+002
 20
1.4153159E+001
 70
0
  0
VERTEX
  5
5d5
100
AcDbEntity
  8
5
100
AcDbVertex
100
AcDb2dVertex
 42
-1.2716791E-002
 10
1.3221693E+002
 20
1.4233667E+001
 70
1
  0
VERTEX
  5
5d6
100
AcDbEntity
  8
5
100
AcDbVertex
100
AcDb2dVertex
 42
-1.2048131E-002
 10
1.3201331E+002
 20
1.4323985E+001
 70
0
  0
VERTEX
  5
5d7
100
AcDbEntity
  8
5
100
AcDbVertex
100
AcDb2dVertex
 42
-1.151918E-002
 10
1.3181554E+002
 20
1.4423417E+001
 70
1
  0
VERTEX
  5
5d8
100
AcDbEntity
  8
5
100
AcDbVertex
100
AcDb2dVertex
 42
-1.0922363E-002
 10
1.3162412E+002
 20
1.4530492E+001
 70
0
  0
VERTEX
  5
5d9
100
AcDbEntity
  8
5
100
AcDbVertex
100
AcDb2dVertex
 42
-1.0526877E-002
 10
1.3143999E+002
 20
1.4644396E+001
 70
1
  0
VERTEX
  5
5da
100
AcDbEntity
  8
5
100
AcDbVertex
100
AcDb2dVertex
 42
-1.0091604E-002
 10
1.3126322E+002
 20
1.4763921E+001
 70
0
  0
VERTEX
  5
5db
100
AcDbEntity
  8
5
100
AcDbVertex
100
AcDb2dVertex
 42
-9.6642704E-003
 10
1.3109451E+002
 20
1.4888275E+001
 70
1
  0
VERTEX
  5
5dc
100
AcDbEntity
  8
5
100
AcDbVertex
100
AcDb2dVertex
 42
-9.0689969E-003
 10
1.3093411E+002
 20
1.5015887E+001
 70
0
  0
VERTEX
  5
5dd
100
AcDbEntity
  8
5
100
AcDbVertex
100
AcDb2dVertex
 42
-9.1519842E-003
 10
1.3078221E+002
 20
1.5146214E+001
 70
1
  0
VERTEX
  5
5de
100
AcDbEntity
  8
5
100
AcDbVertex
100
AcDb2dVertex
 42
-9.073043E-003
 10
1.3063485E+002
 20
1.5282208E+001
 70
0
  0
VERTEX
  5
5df
100
AcDbEntity
  8
5
100
AcDbVertex
100
AcDb2dVertex
 42
-8.8750511E-003
 10
1.3048852E+002
 20
1.54275E+001
 70
1
  0
VERTEX
  5
5e0
100
AcDbEntity
  8
5
100
AcDbVertex
100
AcDb2dVertex
 42
-9.3361433E-003
 10
1.3034352E+002
 20
1.5582175E+001
 70
0
  0
VERTEX
  5
5e1
100
AcDbEntity
  8
5
100
AcDbVertex
100
AcDb2dVertex
 42
-9.603446E-003
 10
1.3020111E+002
 20
1.5746455E+001
 70
1
  0
VERTEX
  5
5e2
100
AcDbEntity
  8
5
100
AcDbVertex
100
AcDb2dVertex
 42
-9.8977778E-003
 10
1.3006215E+002
 20
1.591977E+001
 70
0
  0
VERTEX
  5
5e3
100
AcDbEntity
  8
5
100
AcDbVertex
100
AcDb2dVertex
 42
-1.0138052E-002
 10
1.2992778E+002
 20
1.6102243E+001
 70
1
  0
VERTEX
  5
5e4
100
AcDbEntity
  8
5
100
AcDbVertex
100
AcDb2dVertex
 42
-1.0551719E-002
 10
1.297989E+002
 20
1.6293056E+001
 70
0
  0
VERTEX
  5
5e5
100
AcDbEntity
  8
5
100
AcDbVertex
100
AcDb2dVertex
 42
-1.0884239E-002
 10
1.2967693E+002
 20
1.6491985E+001
 70
1
  0
VERTEX
  5
5e6
100
AcDbEntity
  8
5
100
AcDbVertex
100
AcDb2dVertex
 42
-1.1341484E-002
 10
1.2956271E+002
 20
1.669797E+001
 70
0
  0
VERTEX
  5
5e7
100
AcDbEntity
  8
5
100
AcDbVertex
100
AcDb2dVertex
 42
-1.176127E-002
 10
1.2945773E+002
 20
1.6910445E+001
 70
1
  0
VERTEX
  5
5e8
100
AcDbEntity
  8
5
100
AcDbVertex
100
AcDb2dVertex
 42
-1.232441E-002
 10
1.2936272E+002
 20
1.712815E+001
 70
0
  0
VERTEX
  5
5e9
100
AcDbEntity
  8
5
100
AcDbVertex
100
AcDb2dVertex
 42
-1.2813039E-002
 10
1.2927918E+002
 20
1.7350163E+001
 70
1
  0
VERTEX
  5
5ea
100
AcDbEntity
  8
5
100
AcDbVertex
100
AcDb2dVertex
 42
-1.3368643E-002
 10
1.2920756E+002
 20
1.757501E+001
 70
0
  0
VERTEX
  5
5eb
100
AcDbEntity
  8
5
100
AcDbVertex
100
AcDb2dVertex
 42
-1.4084929E-002
 10
1.2914923E+002
 20
1.7801425E+001
 70
1
  0
VERTEX
  5
5ec
100
AcDbEntity
  8
5
100
AcDbVertex
100
AcDb2dVertex
 42
-1.5051241E-002
 10
1.2910449E+002
 20
1.802812E+001
 70
0
  0
VERTEX
  5
5ed
100
AcDbEntity
  8
5
100
AcDbVertex
100
AcDb2dVertex
 42
-1.5423555E-002
 10
1.2907458E+002
 20
1.8253664E+001
 70
1
  0
VERTEX
  5
5ee
100
AcDbEntity
  8
5
100
AcDbVertex
100
AcDb2dVertex
 42
-1.52522E-002
 10
1.2905865E+002
 20
1.8475896E+001
 70
0
  0
VERTEX
  5
5ef
100
AcDbEntity
  8
5
100
AcDbVertex
100
AcDb2dVertex
 42
-1.7351371E-002
 10
1.2905733E+002
 20
1.8692927E+001
 70
1
  0
VERTEX
  5
5f0
100
AcDbEntity
  8
5
100
AcDbVertex
100
AcDb2dVertex
 42
-2.1287788E-002
 10
1.2907237E+002
 20
1.8906519E+001
 70
0
  0
VERTEX
  5
5f1
100
AcDbEntity
  8
5
100
AcDbVertex
100
AcDb2dVertex
 42
-1.7608769E-002
 10
1.2910503E+002
 20
1.9116067E+001
 70
1
  0
VERTEX
  5
5f2
100
AcDbEntity
  8
5
100
AcDbVertex
100
AcDb2dVertex
 42
-7.7084379E-003
 10
1.2914496E+002
 20
1.9308948E+001
 70
0
  0
VERTEX
  5
5f3
100
AcDbEntity
  8
5
100
AcDbVertex
100
AcDb2dVertex
 42
-2.4766756E-002
 10
1.2918897E+002
 20
1.9479626E+001
 70
1
  0
VERTEX
  5
5f4
100
AcDbEntity
  8
5
100
AcDbVertex
100
AcDb2dVertex
 42
-4.4852224E-002
 10
1.2927272E+002
 20
1.9673846E+001
 70
0
  0
VERTEX
  5
5f5
100
AcDbEntity
  8
5
100
AcDbVertex
100
AcDb2dVertex
 42
-2.3963257E-002
 10
1.2943484E+002
 20
1.9938996E+001
 70
1
  0
VERTEX
  5
5f6
100
AcDbEntity
  8
5
100
AcDbVertex
100
AcDb2dVertex
 42
-1.3194032E-002
 10
1.2966721E+002
 20
2.0265977E+001
 70
0
  0
SEQEND
  5
5f7
100
AcDbEntity
  0
ELLIPSE
  5
5f8
100
AcDbEntity
  8
5
100
AcDbEllipse
  6
CONTINUOUS
 10
1.3233208E+002
 20
1.7284836E+001
 11
2.7439776
 21
-2.9104273
 40
7.0710678E-001
 41
0.0
 42
6.2831853
 62
1
  0
POLYLINE
  5
5f9
100
AcDbEntity
  8
5
100
AcDb2dPolyline
  6
CONTINUOUS
 62
1
 66
1
 40
0.0
 41
0.0
 70
2
  0
VERTEX
  5
5fa
100
AcDbEntity
  8
5
100
AcDbVertex
100
AcDb2dVertex
 42
0.0
 10
1.3536877E+002
 20
1.7783938E+001
 70
0
  0
VERTEX
  5
5fb
100
AcDbEntity
  8
5
100
AcDbVertex
100
AcDb2dVertex
 42
-1.602544E-002
 10
1.3536626E+002
 20
1.7689742E+001
 70
1
  0
VERTEX
  5
5fc
100
AcDbEntity
  8
5
100
AcDbVertex
100
AcDb2dVertex
 42
-1.5294534E-002
 10
1.3535789E+002
 20
1.7595342E+001
 70
0
  0
VERTEX
  5
5fd
100
AcDbEntity
  8
5
100
AcDbVertex
100
AcDb2dVertex
 42
-1.5551453E-002
 10
1.3534349E+002
 20
1.7500639E+001
 70
1
  0
VERTEX
  5
5fe
100
AcDbEntity
  8
5
100
AcDbVertex
100
AcDb2dVertex
 42
-1.7256737E-002
 10
1.3532284E+002
 20
1.7406268E+001
 70
0
  0
VERTEX
  5
5ff
100
AcDbEntity
  8
5
100
AcDbVertex
100
AcDb2dVertex
 42
-1.8479123E-002
 10
1.3529512E+002
 20
1.7313037E+001
 70
1
  0
VERTEX
  5
600
100
AcDbEntity
  8
5
100
AcDbVertex
100
AcDb2dVertex
 42
-1.9568809E-002
 10
1.3526029E+002
 20
1.7221578E+001
 70
0
  0
VERTEX
  5
601
100
AcDbEntity
  8
5
100
AcDbVertex
100
AcDb2dVertex
 42
-2.0513119E-002
 10
1.3521777E+002
 20
1.7132673E+001
 70
1
  0
VERTEX
  5
602
100
AcDbEntity
  8
5
100
AcDbVertex
100
AcDb2dVertex
 42
-2.1668564E-002
 10
1.3516766E+002
 20
1.7046991E+001
 70
0
  0
VERTEX
  5
603
100
AcDbEntity
  8
5
100
AcDbVertex
100
AcDb2dVertex
 42
-2.2472161E-002
 10
1.3510949E+002
 20
1.6965485E+001
 70
1
  0
VERTEX
  5
604
100
AcDbEntity
  8
5
100
AcDbVertex
100
AcDb2dVertex
 42
-2.3261675E-002
 10
1.3504357E+002
 20
1.6888777E+001
 70
0
  0
VERTEX
  5
605
100
AcDbEntity
  8
5
100
AcDbVertex
100
AcDb2dVertex
 42
-2.364864E-002
 10
1.3496963E+002
 20
1.6817873E+001
 70
1
  0
VERTEX
  5
606
100
AcDbEntity
  8
5
100
AcDbVertex
100
AcDb2dVertex
 42
-2.3953E-002
 10
1.3488822E+002
 20
1.6753278E+001
 70
0
  0
VERTEX
  5
607
100
AcDbEntity
  8
5
100
AcDbVertex
100
AcDb2dVertex
 42
-2.3827677E-002
 10
1.3479933E+002
 20
1.6695983E+001
 70
1
  0
VERTEX
  5
608
100
AcDbEntity
  8
5
100
AcDbVertex
100
AcDb2dVertex
 42
-2.3572136E-002
 10
1.3470371E+002
 20
1.6646299E+001
 70
0
  0
VERTEX
  5
609
100
AcDbEntity
  8
5
100
AcDbVertex
100
AcDb2dVertex
 42
-2.2965178E-002
 10
1.3460162E+002
 20
1.6605105E+001
 70
1
  0
VERTEX
  5
60a
100
AcDbEntity
  8
5
100
AcDbVertex
100
AcDb2dVertex
 42
-2.225428E-002
 10
1.3449401E+002
 20
1.6572458E+001
 70
0
  0
VERTEX
  5
60b
100
AcDbEntity
  8
5
100
AcDbVertex
100
AcDb2dVertex
 42
-2.1333691E-002
 10
1.3438139E+002
 20
1.6549046E+001
 70
1
  0
VERTEX
  5
60c
100
AcDbEntity
  8
5
100
AcDbVertex
100
AcDb2dVertex
 42
-2.0358985E-002
 10
1.342648E+002
 20
1.6534638E+001
 70
0
  0
VERTEX
  5
60d
100
AcDbEntity
  8
5
100
AcDbVertex
100
AcDb2dVertex
 42
-1.9323983E-002
 10
1.3414497E+002
 20
1.652967E+001
 70
1
  0
VERTEX
  5
60e
100
AcDbEntity
  8
5
100
AcDbVertex
100
AcDb2dVertex
 42
-1.8270813E-002
 10
1.3402294E+002
 20
1.6533639E+001
 70
0
  0
VERTEX
  5
60f
100
AcDbEntity
  8
5
100
AcDbVertex
100
AcDb2dVertex
 42
-1.7272611E-002
 10
1.3389956E+002
 20
1.6546702E+001
 70
1
  0
VERTEX
  5
610
100
AcDbEntity
  8
5
100
AcDbVertex
100
AcDb2dVertex
 42
-1.6264993E-002
 10
1.337758E+002
 20
1.6568133E+001
 70
0
  0
VERTEX
  5
611
100
AcDbEntity
  8
5
100
AcDbVertex
100
AcDb2dVertex
 42
-1.5383359E-002
 10
1.3365253E+002
 20
1.6597831E+001
 70
1
  0
VERTEX
  5
612
100
AcDbEntity
  8
5
100
AcDbVertex
100
AcDb2dVertex
 42
-1.4480023E-002
 10
1.3353056E+002
 20
1.6634916E+001
 70
0
  0
VERTEX
  5
613
100
AcDbEntity
  8
5
100
AcDbVertex
100
AcDb2dVertex
 42
-1.3742658E-002
 10
1.3341072E+002
 20
1.667908E+001
 70
1
  0
VERTEX
  5
614
100
AcDbEntity
  8
5
100
AcDbVertex
100
AcDb2dVertex
 42
-1.2966246E-002
 10
1.3329359E+002
 20
1.672938E+001
 70
0
  0
VERTEX
  5
615
100
AcDbEntity
  8
5
100
AcDbVertex
100
AcDb2dVertex
 42
-1.2360742E-002
 10
1.331799E+002
 20
1.6785364E+001
 70
1
  0
VERTEX
  5
616
100
AcDbEntity
  8
5
100
AcDbVertex
100
AcDb2dVertex
 42
-1.1685408E-002
 10
1.3307001E+002
 20
1.68461E+001
 70
0
  0
VERTEX
  5
617
100
AcDbEntity
  8
5
100
AcDbVertex
100
AcDb2dVertex
 42
-1.1221038E-002
 10
1.3296451E+002
 20
1.6911056E+001
 70
1
  0
VERTEX
  5
618
100
AcDbEntity
  8
5
100
AcDbVertex
100
AcDb2dVertex
 42
-1.0708827E-002
 10
1.3286352E+002
 20
1.6979413E+001
 70
0
  0
VERTEX
  5
619
100
AcDbEntity
  8
5
100
AcDbVertex
100
AcDb2dVertex
 42
-1.026161E-002
 10
1.3276749E+002
 20
1.7050632E+001
 70
1
  0
VERTEX
  5
61a
100
AcDbEntity
  8
5
100
AcDbVertex
100
AcDb2dVertex
 42
-9.6054064E-003
 10
1.3267638E+002
 20
1.7123896E+001
 70
0
  0
VERTEX
  5
61b
100
AcDbEntity
  8
5
100
AcDbVertex
100
AcDb2dVertex
 42
-9.7038868E-003
 10
1.3259009E+002
 20
1.7199038E+001
 70
1
  0
VERTEX
  5
61c
100
AcDbEntity
  8
5
100
AcDbVertex
100
AcDb2dVertex
 42
-9.69907E-003
 10
1.3250628E+002
 20
1.7277907E+001
 70
0
  0
VERTEX
  5
61d
100
AcDbEntity
  8
5
100
AcDbVertex
100
AcDb2dVertex
 42
-9.4900267E-003
 10
1.3242293E+002
 20
1.7362723E+001
 70
1
  0
VERTEX
  5
61e
100
AcDbEntity
  8
5
100
AcDbVertex
100
AcDb2dVertex
 42
-1.002881E-002
 10
1.3234045E+002
 20
1.7453352E+001
 70
0
  0
VERTEX
  5
61f
100
AcDbEntity
  8
5
100
AcDbVertex
100
AcDb2dVertex
 42
-1.0369307E-002
 10
1.3225986E+002
 20
1.7549742E+001
 70
1
  0
VERTEX
  5
620
100
AcDbEntity
  8
5
100
AcDbVertex
100
AcDb2dVertex
 42
-1.0704315E-002
 10
1.321817E+002
 20
1.7651516E+001
 70
0
  0
VERTEX
  5
621
100
AcDbEntity
  8
5
100
AcDbVertex
100
AcDb2dVertex
 42
-1.0984856E-002
 10
1.3210669E+002
 20
1.7758733E+001
 70
1
  0
VERTEX
  5
622
100
AcDbEntity
  8
5
100
AcDbVertex
100
AcDb2dVertex
 42
-1.1480904E-002
 10
1.3203544E+002
 20
1.7870823E+001
 70
0
  0
VERTEX
  5
623
100
AcDbEntity
  8
5
100
AcDbVertex
100
AcDb2dVertex
 42
-1.1893031E-002
 10
1.3196887E+002
 20
1.7987551E+001
 70
1
  0
VERTEX
  5
624
100
AcDbEntity
  8
5
100
AcDbVertex
100
AcDb2dVertex
 42
-1.24459E-002
 10
1.3190754E+002
 20
1.8108189E+001
 70
0
  0
VERTEX
  5
625
100
AcDbEntity
  8
5
100
AcDbVertex
100
AcDb2dVertex
 42
-1.2954795E-002
 10
1.3185238E+002
 20
1.8232277E+001
 70
1
  0
VERTEX
  5
626
100
AcDbEntity
  8
5
100
AcDbVertex
100
AcDb2dVertex
 42
-1.361282E-002
 10
1.3180384E+002
 20
1.8358948E+001
 70
0
  0
VERTEX
  5
627
100
AcDbEntity
  8
5
100
AcDbVertex
100
AcDb2dVertex
 42
-1.4250555E-002
 10
1.3176283E+002
 20
1.84875E+001
 70
1
  0
VERTEX
  5
628
100
AcDbEntity
  8
5
100
AcDbVertex
100
AcDb2dVertex
 42
-1.5006101E-002
 10
1.3172959E+002
 20
1.8616988E+001
 70
0
  0
VERTEX
  5
629
100
AcDbEntity
  8
5
100
AcDbVertex
100
AcDb2dVertex
 42
-1.5772735E-002
 10
1.3170494E+002
 20
1.8746512E+001
 70
1
  0
VERTEX
  5
62a
100
AcDbEntity
  8
5
100
AcDbVertex
100
AcDb2dVertex
 42
-1.6614594E-002
 10
1.3168886E+002
 20
1.887513E+001
 70
0
  0
VERTEX
  5
62b
100
AcDbEntity
  8
5
100
AcDbVertex
100
AcDb2dVertex
 42
-1.7493455E-002
 10
1.3168197E+002
 20
1.9001816E+001
 70
1
  0
VERTEX
  5
62c
100
AcDbEntity
  8
5
100
AcDbVertex
100
AcDb2dVertex
 42
-1.8376928E-002
 10
1.3168398E+002
 20
1.9125725E+001
 70
0
  0
VERTEX
  5
62d
100
AcDbEntity
  8
5
100
AcDbVertex
100
AcDb2dVertex
 42
-1.9303577E-002
 10
1.3169525E+002
 20
1.92458E+001
 70
1
  0
VERTEX
  5
62e
100
AcDbEntity
  8
5
100
AcDbVertex
100
AcDb2dVertex
 42
-2.012469E-002
 10
1.3171523E+002
 20
1.9361379E+001
 70
0
  0
VERTEX
  5
62f
100
AcDbEntity
  8
5
100
AcDbVertex
100
AcDb2dVertex
 42
-2.0996785E-002
 10
1.3174401E+002
 20
1.9471472E+001
 70
1
  0
VERTEX
  5
630
100
AcDbEntity
  8
5
100
AcDbVertex
100
AcDb2dVertex
 42
-2.165522E-002
 10
1.3178082E+002
 20
1.9575663E+001
 70
0
  0
VERTEX
  5
631
100
AcDbEntity
  8
5
100
AcDbVertex
100
AcDb2dVertex
 42
-2.2256496E-002
 10
1.3182549E+002
 20
1.9673112E+001
 70
1
  0
VERTEX
  5
632
100
AcDbEntity
  8
5
100
AcDbVertex
100
AcDb2dVertex
 42
-2.2429355E-002
 10
1.3187709E+002
 20
1.9763679E+001
 70
0
  0
VERTEX
  5
633
100
AcDbEntity
  8
5
100
AcDbVertex
100
AcDb2dVertex
 42
-2.2826168E-002
 10
1.3193521E+002
 20
1.9846723E+001
 70
1
  0
VERTEX
  5
634
100
AcDbEntity
  8
5
100
AcDbVertex
100
AcDb2dVertex
 42
-2.3009773E-002
 10
1.3199905E+002
 20
1.992237E+001
 70
0
  0
VERTEX
  5
635
100
AcDbEntity
  8
5
100
AcDbVertex
100
AcDb2dVertex
 42
-2.2307842E-002
 10
1.3206815E+002
 20
1.99902E+001
 70
1
  0
VERTEX
  5
636
100
AcDbEntity
  8
5
100
AcDbVertex
100
AcDb2dVertex
 42
-2.0429182E-002
 10
1.3214097E+002
 20
2.0050559E+001
 70
0
  0
VERTEX
  5
637
100
AcDbEntity
  8
5
100
AcDbVertex
100
AcDb2dVertex
 42
-2.1636116E-002
 10
1.3221672E+002
 20
2.0103232E+001
 70
1
  0
VERTEX
  5
638
100
AcDbEntity
  8
5
100
AcDbVertex
100
AcDb2dVertex
 42
-2.442266E-002
 10
1.3229692E+002
 20
2.0148747E+001
 70
0
  0
VERTEX
  5
639
100
AcDbEntity
  8
5
100
AcDbVertex
100
AcDb2dVertex
 42
-1.7998978E-002
 10
1.3238178E+002
 20
2.0187071E+001
 70
1
  0
VERTEX
  5
63a
100
AcDbEntity
  8
5
100
AcDbVertex
100
AcDb2dVertex
 42
-5.1908674E-003
 10
1.3246135E+002
 20
2.0218752E+001
 70
0
  0
VERTEX
  5
63b
100
AcDbEntity
  8
5
100
AcDbVertex
100
AcDb2dVertex
 42
-2.3368742E-002
 10
1.3253192E+002
 20
2.0243866E+001
 70
1
  0
VERTEX
  5
63c
100
AcDbEntity
  8
5
100
AcDbVertex
100
AcDb2dVertex
 42
-3.8919574E-002
 10
1.3262959E+002
 20
2.0263345E+001
 70
0
  0
VERTEX
  5
63d
100
AcDbEntity
  8
5
100
AcDbVertex
100
AcDb2dVertex
 42
-1.6682108E-002
 10
1.327924E+002
 20
2.0277572E+001
 70
1
  0
VERTEX
  5
63e
100
AcDbEntity
  8
5
100
AcDbVertex
100
AcDb2dVertex
 42
-8.4489674E-003
 10
1.3301278E+002
 20
2.0286673E+001
 70
0
  0
SEQEND
  5
63f
100
AcDbEntity
  0
POLYLINE
  5
640
100
AcDbEntity
  8
5
100
AcDb2dPolyline
  6
CONTINUOUS
 62
1
 66
1
 40
0.0
 41
0.0
 70
2
  0
VERTEX
  5
641
100
AcDbEntity
  8
5
100
AcDbVertex
100
AcDb2dVertex
 42
0.0
 10
1.3536876E+002
 20
1.7787784E+001
 70
0
  0
VERTEX
  5
642
100
AcDbEntity
  8
5
100
AcDbVertex
100
AcDb2dVertex
 42
6.127E-006
 10
1.3536876E+002
 20
1.7787656E+001
 70
1
  0
VERTEX
  5
643
100
AcDbEntity
  8
5
100
AcDbVertex
100
AcDb2dVertex
 42
6.1283E-006
 10
1.3536876E+002
 20
1.7787527E+001
 70
0
  0
VERTEX
  5
644
100
AcDbEntity
  8
5
100
AcDbVertex
100
AcDb2dVertex
 42
6.1292E-006
 10
1.3536876E+002
 20
1.7787399E+001
 70
1
  0
VERTEX
  5
645
100
AcDbEntity
  8
5
100
AcDbVertex
100
AcDb2dVertex
 42
6.1293E-006
 10
1.3536876E+002
 20
1.7787271E+001
 70
0
  0
VERTEX
  5
646
100
AcDbEntity
  8
5
100
AcDbVertex
100
AcDb2dVertex
 42
6.1297E-006
 10
1.3536876E+002
 20
1.7787142E+001
 70
1
  0
VERTEX
  5
647
100
AcDbEntity
  8
5
100
AcDbVertex
100
AcDb2dVertex
 42
6.1303E-006
 10
1.3536876E+002
 20
1.7787014E+001
 70
0
  0
VERTEX
  5
648
100
AcDbEntity
  8
5
100
AcDbVertex
100
AcDb2dVertex
 42
6.1308E-006
 10
1.3536876E+002
 20
1.7786886E+001
 70
1
  0
VERTEX
  5
649
100
AcDbEntity
  8
5
100
AcDbVertex
100
AcDb2dVertex
 42
6.1309E-006
 10
1.3536876E+002
 20
1.7786757E+001
 70
0
  0
VERTEX
  5
64a
100
AcDbEntity
  8
5
100
AcDbVertex
100
AcDb2dVertex
 42
6.1318E-006
 10
1.3536876E+002
 20
1.7786629E+001
 70
1
  0
VERTEX
  5
64b
100
AcDbEntity
  8
5
100
AcDbVertex
100
AcDb2dVertex
 42
6.133E-006
 10
1.3536876E+002
 20
1.7786501E+001
 70
0
  0
VERTEX
  5
64c
100
AcDbEntity
  8
5
100
AcDbVertex
100
AcDb2dVertex
 42
6.132E-006
 10
1.3536876E+002
 20
1.7786373E+001
 70
1
  0
VERTEX
  5
64d
100
AcDbEntity
  8
5
100
AcDbVertex
100
AcDb2dVertex
 42
6.1293E-006
 10
1.3536876E+002
 20
1.7786244E+001
 70
0
  0
VERTEX
  5
64e
100
AcDbEntity
  8
5
100
AcDbVertex
100
AcDb2dVertex
 42
6.1341E-006
 10
1.3536876E+002
 20
1.7786116E+001
 70
1
  0
VERTEX
  5
64f
100
AcDbEntity
  8
5
100
AcDbVertex
100
AcDb2dVertex
 42
6.1454E-006
 10
1.3536876E+002
 20
1.7785988E+001
 70
0
  0
VERTEX
  5
650
100
AcDbEntity
  8
5
100
AcDbVertex
100
AcDb2dVertex
 42
6.1307E-006
 10
1.3536876E+002
 20
1.778586E+001
 70
1
  0
VERTEX
  5
651
100
AcDbEntity
  8
5
100
AcDbVertex
100
AcDb2dVertex
 42
6.0939E-006
 10
1.3536876E+002
 20
1.7785732E+001
 70
0
  0
VERTEX
  5
652
100
AcDbEntity
  8
5
100
AcDbVertex
100
AcDb2dVertex
 42
6.147E-006
 10
1.3536876E+002
 20
1.7785603E+001
 70
1
  0
VERTEX
  5
653
100
AcDbEntity
  8
5
100
AcDbVertex
100
AcDb2dVertex
 42
6.272E-006
 10
1.3536876E+002
 20
1.7785475E+001
 70
0
  0
VERTEX
  5
654
100
AcDbEntity
  8
5
100
AcDbVertex
100
AcDb2dVertex
 42
6.0944E-006
 10
1.3536876E+002
 20
1.7785347E+001
 70
1
  0
VERTEX
  5
655
100
AcDbEntity
  8
5
100
AcDbVertex
100
AcDb2dVertex
 42
5.6911E-006
 10
1.3536877E+002
 20
1.7785219E+001
 70
0
  0
VERTEX
  5
656
100
AcDbEntity
  8
5
100
AcDbVertex
100
AcDb2dVertex
 42
6.2813E-006
 10
1.3536877E+002
 20
1.7785092E+001
 70
1
  0
VERTEX
  5
657
100
AcDbEntity
  8
5
100
AcDbVertex
100
AcDb2dVertex
 42
7.487E-006
 10
1.3536877E+002
 20
1.7784963E+001
 70
0
  0
VERTEX
  5
658
100
AcDbEntity
  8
5
100
AcDbVertex
100
AcDb2dVertex
 42
5.6847E-006
 10
1.3536877E+002
 20
1.778483E+001
 70
1
  0
VERTEX
  5
659
100
AcDbEntity
  8
5
100
AcDbVertex
100
AcDb2dVertex
 42
1.9536E-006
 10
1.3536877E+002
 20
1.7784706E+001
 70
0
  0
VERTEX
  5
65a
100
AcDbEntity
  8
5
100
AcDbVertex
100
AcDb2dVertex
 42
8.0167E-006
 10
1.3536877E+002
 20
1.7784594E+001
 70
1
  0
VERTEX
  5
65b
100
AcDbEntity
  8
5
100
AcDbVertex
100
AcDb2dVertex
 42
1.37967E-005
 10
1.3536877E+002
 20
1.778445E+001
 70
0
  0
VERTEX
  5
65c
100
AcDbEntity
  8
5
100
AcDbVertex
100
AcDb2dVertex
 42
6.7482E-006
 10
1.3536877E+002
 20
1.7784229E+001
 70
1
  0
VERTEX
  5
65d
100
AcDbEntity
  8
5
100
AcDbVertex
100
AcDb2dVertex
 42
3.5769E-006
 10
1.3536877E+002
 20
1.7783938E+001
 70
0
  0
SEQEND
  5
65e
100
AcDbEntity
  0
POLYLINE
  5
65f
100
AcDbEntity
  8
5
100
AcDb2dPolyline
  6
CONTINUOUS
 62
1
 66
1
 40
0.0
 41
0.0
 70
2
  0
VERTEX
  5
660
100
AcDbEntity
  8
5
100
AcDbVertex
100
AcDb2dVertex
 42
0.0
 10
1.3224409E+002
 20
2.0119471E+001
 70
0
  0
VERTEX
  5
661
100
AcDbEntity
  8
5
100
AcDbVertex
100
AcDb2dVertex
 42
2.0579057E-002
 10
1.3219704E+002
 20
2.0043106E+001
 70
1
  0
VERTEX
  5
662
100
AcDbEntity
  8
5
100
AcDbVertex
100
AcDb2dVertex
 42
1.9583083E-002
 10
1.3215536E+002
 20
1.9961651E+001
 70
0
  0
VERTEX
  5
663
100
AcDbEntity
  8
5
100
AcDbVertex
100
AcDb2dVertex
 42
1.8781813E-002
 10
1.3211921E+002
 20
1.9874845E+001
 70
1
  0
VERTEX
  5
664
100
AcDbEntity
  8
5
100
AcDbVertex
100
AcDb2dVertex
 42
1.8660745E-002
 10
1.3208877E+002
 20
1.9783246E+001
 70
0
  0
VERTEX
  5
665
100
AcDbEntity
  8
5
100
AcDbVertex
100
AcDb2dVertex
 42
1.8178542E-002
 10
1.3206472E+002
 20
1.9687109E+001
 70
1
  0
VERTEX
  5
666
100
AcDbEntity
  8
5
100
AcDbVertex
100
AcDb2dVertex
 42
1.7529172E-002
 10
1.3204705E+002
 20
1.9587054E+001
 70
0
  0
VERTEX
  5
667
100
AcDbEntity
  8
5
100
AcDbVertex
100
AcDb2dVertex
 42
1.681443E-002
 10
1.3203619E+002
 20
1.9483401E+001
 70
1
  0
VERTEX
  5
668
100
AcDbEntity
  8
5
100
AcDbVertex
100
AcDb2dVertex
 42
1.6186101E-002
 10
1.3203199E+002
 20
1.9376838E+001
 70
0
  0
VERTEX
  5
669
100
AcDbEntity
  8
5
100
AcDbVertex
100
AcDb2dVertex
 42
1.5499917E-002
 10
1.3203479E+002
 20
1.9267839E+001
 70
1
  0
VERTEX
  5
66a
100
AcDbEntity
  8
5
100
AcDbVertex
100
AcDb2dVertex
 42
1.4832781E-002
 10
1.3204426E+002
 20
1.9157102E+001
 70
0
  0
VERTEX
  5
66b
100
AcDbEntity
  8
5
100
AcDbVertex
100
AcDb2dVertex
 42
1.4182893E-002
 10
1.3206059E+002
 20
1.9045193E+001
 70
1
  0
VERTEX
  5
66c
100
AcDbEntity
  8
5
100
AcDbVertex
100
AcDb2dVertex
 42
1.3557944E-002
 10
1.3208332E+002
 20
1.8932776E+001
 70
0
  0
VERTEX
  5
66d
100
AcDbEntity
  8
5
100
AcDbVertex
100
AcDb2dVertex
 42
1.2985735E-002
 10
1.3211247E+002
 20
1.8820468E+001
 70
1
  0
VERTEX
  5
66e
100
AcDbEntity
  8
5
100
AcDbVertex
100
AcDb2dVertex
 42
1.2416519E-002
 10
1.3214748E+002
 20
1.8708852E+001
 70
0
  0
VERTEX
  5
66f
100
AcDbEntity
  8
5
100
AcDbVertex
100
AcDb2dVertex
 42
1.1928631E-002
 10
1.3218823E+002
 20
1.8598552E+001
 70
1
  0
VERTEX
  5
670
100
AcDbEntity
  8
5
100
AcDbVertex
100
AcDb2dVertex
 42
1.1425887E-002
 10
1.3223409E+002
 20
1.8490034E+001
 70
0
  0
VERTEX
  5
671
100
AcDbEntity
  8
5
100
AcDbVertex
100
AcDb2dVertex
 42
1.1020117E-002
 10
1.3228484E+002
 20
1.8383885E+001
 70
1
  0
VERTEX
  5
672
100
AcDbEntity
  8
5
100
AcDbVertex
100
AcDb2dVertex
 42
1.0579883E-002
 10
1.323398E+002
 20
1.8280437E+001
 70
0
  0
VERTEX
  5
673
100
AcDbEntity
  8
5
100
AcDbVertex
100
AcDb2dVertex
 42
1.0250784E-002
 10
1.3239869E+002
 20
1.8180208E+001
 70
1
  0
VERTEX
  5
674
100
AcDbEntity
  8
5
100
AcDbVertex
100
AcDb2dVertex
 42
9.8745246E-003
 10
1.3246085E+002
 20
1.8083385E+001
 70
0
  0
VERTEX
  5
675
100
AcDbEntity
  8
5
100
AcDbVertex
100
AcDb2dVertex
 42
9.6018427E-003
 10
1.3252594E+002
 20
1.79904E+001
 70
1
  0
VERTEX
  5
676
100
AcDbEntity
  8
5
100
AcDbVertex
100
AcDb2dVertex
 42
9.2580749E-003
 10
1.3259337E+002
 20
1.7901313E+001
 70
0
  0
VERTEX
  5
677
100
AcDbEntity
  8
5
100
AcDbVertex
100
AcDb2dVertex
 42
9.0651941E-003
 10
1.3266274E+002
 20
1.7816468E+001
 70
1
  0
VERTEX
  5
678
100
AcDbEntity
  8
5
100
AcDbVertex
100
AcDb2dVertex
 42
8.8254556E-003
 10
1.3273362E+002
 20
1.7735766E+001
 70
0
  0
VERTEX
  5
679
100
AcDbEntity
  8
5
100
AcDbVertex
100
AcDb2dVertex
 42
8.5886378E-003
 10
1.3280564E+002
 20
1.7659449E+001
 70
1
  0
VERTEX
  5
67a
100
AcDbEntity
  8
5
100
AcDbVertex
100
AcDb2dVertex
 42
8.1931778E-003
 10
1.328782E+002
 20
1.7587474E+001
 70
0
  0
VERTEX
  5
67b
100
AcDbEntity
  8
5
100
AcDbVertex
100
AcDb2dVertex
 42
8.3605519E-003
 10
1.3295112E+002
 20
1.7519866E+001
 70
1
  0
VERTEX
  5
67c
100
AcDbEntity
  8
5
100
AcDbVertex
100
AcDb2dVertex
 42
8.3969443E-003
 10
1.3302599E+002
 20
1.7454935E+001
 70
0
  0
VERTEX
  5
67d
100
AcDbEntity
  8
5
100
AcDbVertex
100
AcDb2dVertex
 42
8.3208169E-003
 10
1.3310466E+002
 20
1.739128E+001
 70
1
  0
VERTEX
  5
67e
100
AcDbEntity
  8
5
100
AcDbVertex
100
AcDb2dVertex
 42
8.8180977E-003
 10
1.331871E+002
 20
1.7329047E+001
 70
0
  0
VERTEX
  5
67f
100
AcDbEntity
  8
5
100
AcDbVertex
100
AcDb2dVertex
 42
9.1598533E-003
 10
1.3327329E+002
 20
1.7268852E+001
 70
1
  0
VERTEX
  5
680
100
AcDbEntity
  8
5
100
AcDbVertex
100
AcDb2dVertex
 42
9.5161736E-003
 10
1.3336294E+002
 20
1.7211023E+001
 70
0
  0
VERTEX
  5
681
100
AcDbEntity
  8
5
100
AcDbVertex
100
AcDb2dVertex
 42
9.8469412E-003
 10
1.3345603E+002
 20
1.7156074E+001
 70
1
  0
VERTEX
  5
682
100
AcDbEntity
  8
5
100
AcDbVertex
100
AcDb2dVertex
 42
1.0350281E-002
 10
1.3355221E+002
 20
1.7104348E+001
 70
0
  0
VERTEX
  5
683
100
AcDbEntity
  8
5
100
AcDbVertex
100
AcDb2dVertex
 42
1.0743914E-002
 10
1.3365131E+002
 20
1.7056462E+001
 70
1
  0
VERTEX
  5
684
100
AcDbEntity
  8
5
100
AcDbVertex
100
AcDb2dVertex
 42
1.1209577E-002
 10
1.3375284E+002
 20
1.7012703E+001
 70
0
  0
VERTEX
  5
685
100
AcDbEntity
  8
5
100
AcDbVertex
100
AcDb2dVertex
 42
1.1808734E-002
 10
1.338565E+002
 20
1.6973704E+001
 70
1
  0
VERTEX
  5
686
100
AcDbEntity
  8
5
100
AcDbVertex
100
AcDb2dVertex
 42
1.2694729E-002
 10
1.339619E+002
 20
1.6939758E+001
 70
0
  0
VERTEX
  5
687
100
AcDbEntity
  8
5
100
AcDbVertex
100
AcDb2dVertex
 42
1.2926757E-002
 10
1.3406864E+002
 20
1.691152E+001
 70
1
  0
VERTEX
  5
688
100
AcDbEntity
  8
5
100
AcDbVertex
100
AcDb2dVertex
 42
1.2704591E-002
 10
1.341757E+002
 20
1.6888898E+001
 70
0
  0
VERTEX
  5
689
100
AcDbEntity
  8
5
100
AcDbVertex
100
AcDb2dVertex
 42
1.4682622E-002
 10
1.3428236E+002
 20
1.6872404E+001
 70
1
  0
VERTEX
  5
68a
100
AcDbEntity
  8
5
100
AcDbVertex
100
AcDb2dVertex
 42
1.8487794E-002
 10
1.3438989E+002
 20
1.6862937E+001
 70
0
  0
VERTEX
  5
68b
100
AcDbEntity
  8
5
100
AcDbVertex
100
AcDb2dVertex
 42
1.488637E-002
 10
1.344983E+002
 20
1.6861303E+001
 70
1
  0
VERTEX
  5
68c
100
AcDbEntity
  8
5
100
AcDbVertex
100
AcDb2dVertex
 42
5.5671773E-003
 10
1.3459974E+002
 20
1.6863825E+001
 70
0
  0
VERTEX
  5
68d
100
AcDbEntity
  8
5
100
AcDbVertex
100
AcDb2dVertex
 42
2.2023784E-002
 10
1.3469101E+002
 20
1.6869656E+001
 70
1
  0
VERTEX
  5
68e
100
AcDbEntity
  8
5
100
AcDbVertex
100
AcDb2dVertex
 42
4.1193828E-002
 10
1.3480042E+002
 20
1.6892434E+001
 70
0
  0
VERTEX
  5
68f
100
AcDbEntity
  8
5
100
AcDbVertex
100
AcDb2dVertex
 42
2.1618275E-002
 10
1.3495756E+002
 20
1.6947029E+001
 70
1
  0
VERTEX
  5
690
100
AcDbEntity
  8
5
100
AcDbVertex
100
AcDb2dVertex
 42
1.1628359E-002
 10
1.3515663E+002
 20
1.7030257E+001
 70
0
  0
SEQEND
  5
691
100
AcDbEntity
  0
LINE
  5
692
100
AcDbEntity
  8
3
100
AcDbLine
  6
CONTINUOUS
 62
30
 10
2.5182639E+002
 20
1.4836765E+002
 11
2.5482639E+002
 21
1.4836765E+002
  0
LINE
  5
693
100
AcDbEntity
  8
3
100
AcDbLine
  6
CONTINUOUS
 62
30
 10
2.5182639E+002
 20
1.7236765E+002
 11
2.5482639E+002
 21
1.7236765E+002
  0
LINE
  5
694
100
AcDbEntity
  8
3
100
AcDbLine
  6
CONTINUOUS
 62
30
 10
2.5182639E+002
 20
1.4836765E+002
 11
2.5182639E+002
 21
1.7236765E+002
  0
LINE
  5
695
100
AcDbEntity
  8
3
100
AcDbLine
  6
CONTINUOUS
 62
30
 10
2.5482639E+002
 20
1.7236765E+002
 11
2.5482639E+002
 21
1.6036765E+002
  0
LINE
  5
696
100
AcDbEntity
  8
3
100
AcDbLine
  6
CONTINUOUS
 62
30
 10
2.5482639E+002
 20
1.6036765E+002
 11
2.5482639E+002
 21
1.4836765E+002
  0
LINE
  5
697
100
AcDbEntity
  8
3
100
AcDbLine
  6
CONTINUOUS
 62
30
 10
2.5482639E+002
 20
1.6036765E+002
 11
2.5452639E+002
 21
1.6036765E+002
  0
LINE
  5
698
100
AcDbEntity
  8
4
100
AcDbLine
  6
CONTINUOUS
 62
30
 10
5.6516897E+001
 20
1.0209668E+002
 11
5.6516897E+001
 21
9.9096682E+001
  0
LINE
  5
699
100
AcDbEntity
  8
4
100
AcDbLine
  6
CONTINUOUS
 62
30
 10
1.335169E+002
 20
9.9096682E+001
 11
1.335169E+002
 21
1.0209668E+002
  0
LINE
  5
69a
100
AcDbEntity
  8
4
100
AcDbLine
  6
CONTINUOUS
 62
30
 10
1.435169E+002
 20
1.0209668E+002
 11
1.435169E+002
 21
9.9096682E+001
  0
LINE
  5
69b
100
AcDbEntity
  8
4
100
AcDbLine
  6
CONTINUOUS
 62
30
 10
1.457669E+002
 20
1.0209668E+002
 11
1.457669E+002
 21
9.9096682E+001
  0
LINE
  5
69c
100
AcDbEntity
  8
4
100
AcDbLine
  6
CONTINUOUS
 62
30
 10
9.7266897E+001
 20
1.0209668E+002
 11
9.7266897E+001
 21
9.9096682E+001
  0
LINE
  5
69d
100
AcDbEntity
  8
4
100
AcDbLine
  6
CONTINUOUS
 62
30
 10
9.9516897E+001
 20
1.0209668E+002
 11
9.9516897E+001
 21
9.9096682E+001
  0
LINE
  5
69e
100
AcDbEntity
  8
4
100
AcDbLine
  6
CONTINUOUS
 62
30
 10
1.095169E+002
 20
1.0209668E+002
 11
1.095169E+002
 21
9.9096682E+001
  0
LINE
  5
69f
100
AcDbEntity
  8
4
100
AcDbLine
  6
CONTINUOUS
 62
30
 10
1.865169E+002
 20
1.0209668E+002
 11
1.865169E+002
 21
9.9096682E+001
  0
LINE
  5
6a0
100
AcDbEntity
  8
4
100
AcDbLine
  6
CONTINUOUS
 62
30
 10
1.095169E+002
 20
1.0209668E+002
 11
1.335169E+002
 21
1.0209668E+002
  0
LINE
  5
6a1
100
AcDbEntity
  8
4
100
AcDbLine
  6
CONTINUOUS
 62
30
 10
1.335169E+002
 20
1.0209668E+002
 11
1.435169E+002
 21
1.0209668E+002
  0
LINE
  5
6a2
100
AcDbEntity
  8
4
100
AcDbLine
  6
CONTINUOUS
 62
30
 10
1.435169E+002
 20
1.0209668E+002
 11
1.457669E+002
 21
1.0209668E+002
  0
LINE
  5
6a3
100
AcDbEntity
  8
4
100
AcDbLine
  6
CONTINUOUS
 62
30
 10
1.457669E+002
 20
1.0209668E+002
 11
1.865169E+002
 21
1.0209668E+002
  0
LINE
  5
6a4
100
AcDbEntity
  8
4
100
AcDbLine
  6
CONTINUOUS
 62
30
 10
5.6516897E+001
 20
1.0209668E+002
 11
9.7266897E+001
 21
1.0209668E+002
  0
LINE
  5
6a5
100
AcDbEntity
  8
4
100
AcDbLine
  6
CONTINUOUS
 62
30
 10
9.7266897E+001
 20
1.0209668E+002
 11
9.9516897E+001
 21
1.0209668E+002
  0
LINE
  5
6a6
100
AcDbEntity
  8
4
100
AcDbLine
  6
CONTINUOUS
 62
30
 10
9.9516897E+001
 20
1.0209668E+002
 11
1.095169E+002
 21
1.0209668E+002
  0
LINE
  5
6a7
100
AcDbEntity
  8
4
100
AcDbLine
  6
CONTINUOUS
 62
30
 10
1.095169E+002
 20
9.9096682E+001
 11
9.9516897E+001
 21
9.9096682E+001
  0
LINE
  5
6a8
100
AcDbEntity
  8
4
100
AcDbLine
  6
CONTINUOUS
 62
30
 10
9.9516897E+001
 20
9.9096682E+001
 11
9.7266897E+001
 21
9.9096682E+001
  0
LINE
  5
6a9
100
AcDbEntity
  8
4
100
AcDbLine
  6
CONTINUOUS
 62
30
 10
9.7266897E+001
 20
9.9096682E+001
 11
5.6516897E+001
 21
9.9096682E+001
  0
LINE
  5
6aa
100
AcDbEntity
  8
4
100
AcDbLine
  6
CONTINUOUS
 62
30
 10
1.865169E+002
 20
9.9096682E+001
 11
1.457669E+002
 21
9.9096682E+001
  0
LINE
  5
6ab
100
AcDbEntity
  8
4
100
AcDbLine
  6
CONTINUOUS
 62
30
 10
1.457669E+002
 20
9.9096682E+001
 11
1.435169E+002
 21
9.9096682E+001
  0
LINE
  5
6ac
100
AcDbEntity
  8
4
100
AcDbLine
  6
CONTINUOUS
 62
30
 10
1.435169E+002
 20
9.9096682E+001
 11
1.335169E+002
 21
9.9096682E+001
  0
LINE
  5
6ad
100
AcDbEntity
  8
4
100
AcDbLine
  6
CONTINUOUS
 62
30
 10
1.335169E+002
 20
9.9096682E+001
 11
1.095169E+002
 21
9.9096682E+001
  0
LINE
  5
6ae
100
AcDbEntity
  8
4
100
AcDbLine
  6
HIDDEN
 62
1
 10
6.266689E+001
 20
1.0141562E+002
 11
6.266689E+001
 21
1.0209668E+002
  0
LINE
  5
6af
100
AcDbEntity
  8
4
100
AcDbLine
  6
HIDDEN
 62
1
 10
5.8366886E+001
 20
1.0209668E+002
 11
5.8366886E+001
 21
1.0141562E+002
  0
LINE
  5
6b0
100
AcDbEntity
  8
4
100
AcDbLine
  6
HIDDEN
 62
1
 10
5.8366886E+001
 20
1.0141562E+002
 11
6.266689E+001
 21
1.0141562E+002
  0
LINE
  5
6b1
100
AcDbEntity
  8
4
100
AcDbLine
  6
HIDDEN
 62
1
 10
6.4516881E+001
 20
9.939668E+001
 11
6.266689E+001
 21
1.0141562E+002
  0
LINE
  5
6b2
100
AcDbEntity
  8
4
100
AcDbLine
  6
HIDDEN
 62
1
 10
5.8366886E+001
 20
1.0141562E+002
 11
5.6516895E+001
 21
9.939668E+001
  0
LINE
  5
6b3
100
AcDbEntity
  8
4
100
AcDbLine
  6
HIDDEN
 62
1
 10
5.6516895E+001
 20
9.939668E+001
 11
6.4516881E+001
 21
9.939668E+001
  0
LINE
  5
6b4
100
AcDbEntity
  8
4
100
AcDbLine
  6
HIDDEN
 62
1
 10
6.4516881E+001
 20
9.9096669E+001
 11
6.4516881E+001
 21
9.939668E+001
  0
LINE
  5
6b5
100
AcDbEntity
  8
4
100
AcDbLine
  6
HIDDEN
 62
30
 10
9.7416891E+001
 20
1.0114669E+002
 11
9.91669E+001
 21
9.939668E+001
  0
LINE
  5
6b6
100
AcDbEntity
  8
4
100
AcDbLine
  6
HIDDEN
 62
30
 10
9.1366911E+001
 20
9.939668E+001
 11
9.91669E+001
 21
9.939668E+001
  0
LINE
  5
6b7
100
AcDbEntity
  8
4
100
AcDbLine
  6
HIDDEN
 62
30
 10
9.3116887E+001
 20
1.0114669E+002
 11
9.1366911E+001
 21
9.939668E+001
  0
LINE
  5
6b8
100
AcDbEntity
  8
4
100
AcDbLine
  6
HIDDEN
 62
30
 10
9.3116887E+001
 20
1.0114669E+002
 11
9.7416891E+001
 21
1.0114669E+002
  0
LINE
  5
6b9
100
AcDbEntity
  8
4
100
AcDbLine
  6
HIDDEN
 62
30
 10
1.456169E+002
 20
1.0114669E+002
 11
1.4386689E+002
 21
9.939668E+001
  0
LINE
  5
6ba
100
AcDbEntity
  8
4
100
AcDbLine
  6
HIDDEN
 62
30
 10
1.4386689E+002
 20
9.939668E+001
 11
1.5166688E+002
 21
9.939668E+001
  0
LINE
  5
6bb
100
AcDbEntity
  8
4
100
AcDbLine
  6
HIDDEN
 62
30
 10
1.5166688E+002
 20
9.939668E+001
 11
1.4991691E+002
 21
1.0114669E+002
  0
LINE
  5
6bc
100
AcDbEntity
  8
4
100
AcDbLine
  6
HIDDEN
 62
30
 10
1.456169E+002
 20
1.0114669E+002
 11
1.4991691E+002
 21
1.0114669E+002
  0
LINE
  5
6bd
100
AcDbEntity
  8
4
100
AcDbLine
  6
HIDDEN
 62
30
 10
9.91669E+001
 20
9.939668E+001
 11
9.91669E+001
 21
9.9096669E+001
  0
LINE
  5
6be
100
AcDbEntity
  8
4
100
AcDbLine
  6
HIDDEN
 62
30
 10
9.1366911E+001
 20
9.939668E+001
 11
9.1366911E+001
 21
9.9096669E+001
  0
LINE
  5
6bf
100
AcDbEntity
  8
4
100
AcDbLine
  6
HIDDEN
 62
30
 10
9.3116887E+001
 20
1.0209668E+002
 11
9.3116887E+001
 21
1.0114669E+002
  0
LINE
  5
6c0
100
AcDbEntity
  8
4
100
AcDbLine
  6
HIDDEN
 62
30
 10
9.7416891E+001
 20
1.0209668E+002
 11
9.7416891E+001
 21
1.0114669E+002
  0
LINE
  5
6c1
100
AcDbEntity
  8
4
100
AcDbLine
  6
HIDDEN
 62
30
 10
1.4386689E+002
 20
9.939668E+001
 11
1.4386689E+002
 21
9.9096669E+001
  0
LINE
  5
6c2
100
AcDbEntity
  8
4
100
AcDbLine
  6
HIDDEN
 62
30
 10
1.5166688E+002
 20
9.9096669E+001
 11
1.5166688E+002
 21
9.939668E+001
  0
LINE
  5
6c3
100
AcDbEntity
  8
4
100
AcDbLine
  6
HIDDEN
 62
30
 10
1.4991691E+002
 20
1.0114669E+002
 11
1.4991691E+002
 21
1.0209668E+002
  0
LINE
  5
6c4
100
AcDbEntity
  8
4
100
AcDbLine
  6
HIDDEN
 62
30
 10
1.456169E+002
 20
1.0209668E+002
 11
1.456169E+002
 21
1.0114669E+002
  0
LINE
  5
6c5
100
AcDbEntity
  8
4
100
AcDbLine
  6
HIDDEN
 62
1
 10
1.7851691E+002
 20
9.939668E+001
 11
1.865169E+002
 21
9.939668E+001
  0
LINE
  5
6c6
100
AcDbEntity
  8
4
100
AcDbLine
  6
HIDDEN
 62
1
 10
1.7851691E+002
 20
9.939668E+001
 11
1.7851691E+002
 21
9.9096669E+001
  0
LINE
  5
6c7
100
AcDbEntity
  8
4
100
AcDbLine
  6
HIDDEN
 62
1
 10
1.865169E+002
 20
9.939668E+001
 11
1.8466691E+002
 21
1.0141562E+002
  0
LINE
  5
6c8
100
AcDbEntity
  8
4
100
AcDbLine
  6
HIDDEN
 62
1
 10
1.803669E+002
 20
1.0141562E+002
 11
1.8466691E+002
 21
1.0141562E+002
  0
LINE
  5
6c9
100
AcDbEntity
  8
4
100
AcDbLine
  6
HIDDEN
 62
1
 10
1.803669E+002
 20
1.0141562E+002
 11
1.7851691E+002
 21
9.939668E+001
  0
LINE
  5
6ca
100
AcDbEntity
  8
4
100
AcDbLine
  6
HIDDEN
 62
1
 10
1.8466691E+002
 20
1.0141562E+002
 11
1.8466691E+002
 21
1.0209668E+002
  0
LINE
  5
6cb
100
AcDbEntity
  8
4
100
AcDbLine
  6
HIDDEN
 62
1
 10
1.803669E+002
 20
1.0209668E+002
 11
1.803669E+002
 21
1.0141562E+002
  0
LINE
  5
6cc
100
AcDbEntity
  8
4
100
AcDbLine
  6
CENTERLINE
 62
3
 10
1.215169E+002
 20
1.0481864E+002
 11
1.215169E+002
 21
9.6519157E+001
  0
INSERT
  5
6cd
100
AcDbEntity
100
AcDbBlockReference
  2
A4
  8
1
 10
0.0
 20
0.0
 66
1
  0
ATTRIB
  5
6ce
100
AcDbEntity
  8
1
100
AcDbText
  6
CONTINUOUS
 62
6
 10
2.6687431E+002
 20
3.4889971E+001
 40
4.0
  1
Schliessblech
 41
7.0E-001
 72
1
 11
2.4867431E+002
 21
3.4889971E+001
100
AcDbAttribute
  2
1
 70
0
  0
ATTRIB
  5
6cf
100
AcDbEntity
  8
1
100
AcDbText
  6
CONTINUOUS
 62
6
 10
2.6687431E+002
 20
2.3778525E+001
 40
4.0
  1
Masszeichnung
 41
7.0E-001
 72
1
 11
2.4867431E+002
 21
2.3778525E+001
100
AcDbAttribute
  2
2
 70
0
  0
ATTRIB
  5
6d0
100
AcDbEntity
  8
1
100
AcDbText
  6
CONTINUOUS
 62
6
 10
2.6472431E+002
 20
1.0458917E+001
 40
4.0
  1
14.00-00-18-1000
 41
7.0E-001
 72
1
 11
2.4232431E+002
 21
1.0458917E+001
100
AcDbAttribute
  2
3
 70
0
  0
ATTRIB
  5
6d1
100
AcDbEntity
  8
1
100
AcDbText
  6
CONTINUOUS
 62
6
 10
2.5972431E+002
 20
4.96425E+001
 40
3.0
  1
 
 41
7.0E-001
 72
1
 11
2.5867431E+002
 21
4.96425E+001
100
AcDbAttribute
  2
4
 70
0
  0
ATTRIB
  5
6d2
100
AcDbEntity
  8
1
100
AcDbText
  6
CONTINUOUS
 62
6
 10
2.5972431E+002
 20
4.4355E+001
 40
3.0
  1
 
 41
7.0E-001
 72
1
 11
2.5867431E+002
 21
4.4355E+001
100
AcDbAttribute
  2
5
 70
0
  0
ATTRIB
  5
6d3
100
AcDbEntity
  8
1
100
AcDbText
  6
CONTINUOUS
 62
6
 10
2.7932431E+002
 20
5.51425E+001
 40
3.0
  1
80415
 41
7.0E-001
 72
1
 11
2.7407431E+002
 21
5.51425E+001
100
AcDbAttribute
  2
6
 70
0
  0
ATTRIB
  5
6d4
100
AcDbEntity
  8
1
100
AcDbText
  6
CONTINUOUS
 62
6
 10
1.7004883E+002
 20
5.92056
 40
2.5
  1
 
 41
7.0E-001
100
AcDbAttribute
  2
7
 70
0
  0
ATTRIB
  5
6d5
100
AcDbEntity
  8
1
100
AcDbText
  6
CONTINUOUS
 62
6
 10
2.1322883E+002
 20
5.92056
 40
2.5
  1
-------096..-01
 41
7.0E-001
100
AcDbAttribute
  2
8
 70
0
  0
ATTRIB
  5
6d6
100
AcDbEntity
  8
1
100
AcDbText
  6
CONTINUOUS
 62
6
 10
1.6373365E+002
 20
3.9889149E+001
 40
2.0
  1
 
 41
7.0E-001
100
AcDbAttribute
  2
9
 70
0
  0
ATTRIB
  5
6d7
100
AcDbEntity
  8
1
100
AcDbText
  6
CONTINUOUS
 62
6
 10
1.7347431E+002
 20
3.54075E+001
 40
2.2
  1
12.07.06
 41
7.0E-001
100
AcDbAttribute
  2
10
 70
0
  0
ATTRIB
  5
6d8
100
AcDbEntity
  8
1
100
AcDbText
  6
CONTINUOUS
 62
6
 10
1.8871431E+002
 20
3.54075E+001
 40
2.2
  1
Nolle
 41
7.0E-001
100
AcDbAttribute
  2
11
 70
0
  0
ATTRIB
  5
6d9
100
AcDbEntity
  8
1
100
AcDbText
  6
CONTINUOUS
 62
6
 10
1.7347431E+002
 20
3.11775E+001
 40
2.2
  1
 
 41
7.0E-001
100
AcDbAttribute
  2
12
 70
0
  0
ATTRIB
  5
6da
100
AcDbEntity
  8
1
100
AcDbText
  6
CONTINUOUS
 62
6
 10
1.8871431E+002
 20
3.11775E+001
 40
2.2
  1
 
 41
7.0E-001
100
AcDbAttribute
  2
13
 70
0
  0
ATTRIB
  5
6db
100
AcDbEntity
  8
1
100
AcDbText
  6
CONTINUOUS
 62
6
 10
1.7347431E+002
 20
2.69475E+001
 40
2.2
  1
 
 41
7.0E-001
100
AcDbAttribute
  2
14
 70
0
  0
ATTRIB
  5
6dc
100
AcDbEntity
  8
1
100
AcDbText
  6
CONTINUOUS
 62
6
 10
1.8871431E+002
 20
2.69475E+001
 40
2.2
  1
 
 41
7.0E-001
100
AcDbAttribute
  2
15
 70
0
  0
ATTRIB
  5
6dd
100
AcDbEntity
  8
1
100
AcDbText
  6
CONTINUOUS
 62
6
 10
1.7347431E+002
 20
2.27175E+001
 40
2.2
  1
 
 41
7.0E-001
100
AcDbAttribute
  2
16
 70
0
  0
ATTRIB
  5
6de
100
AcDbEntity
  8
1
100
AcDbText
  6
CONTINUOUS
 62
6
 10
2.6283673E+002
 20
2.9500496E+001
 40
4.0
  1
face plate
 41
7.0E-001
 72
1
 11
2.4883673E+002
 21
2.9500496E+001
100
AcDbAttribute
  2
17
 70
0
  0
ATTRIB
  5
6df
100
AcDbEntity
  8
1
100
AcDbText
  6
CONTINUOUS
 62
6
 10
2.8472753E+002
 20
3.8535527E+001
 40
1.0
  1
 
100
AcDbAttribute
  2
18
 70
0
  0
ATTRIB
  5
6e0
100
AcDbEntity
  8
1
100
AcDbText
  6
CONTINUOUS
 62
6
 10
2.8472753E+002
 20
3.7035527E+001
 40
1.0
  1
 
100
AcDbAttribute
  2
19
 70
0
  0
ATTRIB
  5
6e1
100
AcDbEntity
  8
1
100
AcDbText
  6
CONTINUOUS
 62
6
 10
2.8472753E+002
 20
3.5535527E+001
 40
1.0
  1
 
100
AcDbAttribute
  2
20
 70
0
  0
ATTRIB
  5
6e2
100
AcDbEntity
  8
1
100
AcDbText
  6
CONTINUOUS
 62
6
 10
1.0997431E+002
 20
3.96375E+001
 40
2.0
  1
 
 41
7.0E-001
100
AcDbAttribute
  2
21
 70
0
  0
ATTRIB
  5
6e3
100
AcDbEntity
  8
1
100
AcDbText
  6
CONTINUOUS
 62
6
 10
1.1759431E+002
 20
3.96375E+001
 40
2.0
  1
 
 41
7.0E-001
100
AcDbAttribute
  2
22
 70
0
  0
ATTRIB
  5
6e4
100
AcDbEntity
  8
1
100
AcDbText
  6
CONTINUOUS
 62
6
 10
1.4299431E+002
 20
3.96375E+001
 40
2.0
  1
 
 41
7.0E-001
100
AcDbAttribute
  2
23
 70
0
  0
ATTRIB
  5
6e5
100
AcDbEntity
  8
1
100
AcDbText
  6
CONTINUOUS
 62
6
 10
1.5519431E+002
 20
3.96375E+001
 40
2.0
  1
 
 41
7.0E-001
100
AcDbAttribute
  2
24
 70
0
  0
ATTRIB
  5
6e6
100
AcDbEntity
  8
1
100
AcDbText
  6
CONTINUOUS
 62
6
 10
1.0997431E+002
 20
3.54075E+001
 40
2.0
  1
 
 41
7.0E-001
100
AcDbAttribute
  2
25
 70
0
  0
ATTRIB
  5
6e7
100
AcDbEntity
  8
1
100
AcDbText
  6
CONTINUOUS
 62
6
 10
1.1759431E+002
 20
3.54075E+001
 40
2.0
  1
 
 41
7.0E-001
100
AcDbAttribute
  2
26
 70
0
  0
ATTRIB
  5
6e8
100
AcDbEntity
  8
1
100
AcDbText
  6
CONTINUOUS
 62
6
 10
1.4299431E+002
 20
3.54075E+001
 40
2.0
  1
 
 41
7.0E-001
100
AcDbAttribute
  2
27
 70
0
  0
ATTRIB
  5
6e9
100
AcDbEntity
  8
1
100
AcDbText
  6
CONTINUOUS
 62
6
 10
1.5519431E+002
 20
3.54075E+001
 40
2.0
  1
 
 41
7.0E-001
100
AcDbAttribute
  2
28
 70
0
  0
ATTRIB
  5
6ea
100
AcDbEntity
  8
1
100
AcDbText
  6
CONTINUOUS
 62
6
 10
1.0997431E+002
 20
3.11775E+001
 40
2.0
  1
 
 41
7.0E-001
100
AcDbAttribute
  2
29
 70
0
  0
ATTRIB
  5
6eb
100
AcDbEntity
  8
1
100
AcDbText
  6
CONTINUOUS
 62
6
 10
1.1759431E+002
 20
3.11775E+001
 40
2.0
  1
 
 41
7.0E-001
100
AcDbAttribute
  2
30
 70
0
  0
ATTRIB
  5
6ec
100
AcDbEntity
  8
1
100
AcDbText
  6
CONTINUOUS
 62
6
 10
1.4299431E+002
 20
3.11775E+001
 40
2.0
  1
 
 41
7.0E-001
100
AcDbAttribute
  2
31
 70
0
  0
ATTRIB
  5
6ed
100
AcDbEntity
  8
1
100
AcDbText
  6
CONTINUOUS
 62
6
 10
1.5519431E+002
 20
3.11775E+001
 40
2.0
  1
 
 41
7.0E-001
100
AcDbAttribute
  2
32
 70
0
  0
ATTRIB
  5
6ee
100
AcDbEntity
  8
1
100
AcDbText
  6
CONTINUOUS
 62
6
 10
1.0997431E+002
 20
2.69475E+001
 40
2.0
  1
 
 41
7.0E-001
100
AcDbAttribute
  2
33
 70
0
  0
ATTRIB
  5
6ef
100
AcDbEntity
  8
1
100
AcDbText
  6
CONTINUOUS
 62
6
 10
1.1759431E+002
 20
2.69475E+001
 40
2.0
  1
 
 41
7.0E-001
100
AcDbAttribute
  2
34
 70
0
  0
ATTRIB
  5
6f0
100
AcDbEntity
  8
1
100
AcDbText
  6
CONTINUOUS
 62
6
 10
1.4299431E+002
 20
2.69475E+001
 40
2.0
  1
 
 41
7.0E-001
100
AcDbAttribute
  2
35
 70
0
  0
ATTRIB
  5
6f1
100
AcDbEntity
  8
1
100
AcDbText
  6
CONTINUOUS
 62
6
 10
1.5519431E+002
 20
2.69475E+001
 40
2.0
  1
 
 41
7.0E-001
100
AcDbAttribute
  2
36
 70
0
  0
ATTRIB
  5
6f2
100
AcDbEntity
  8
1
100
AcDbText
  6
CONTINUOUS
 62
6
 10
1.0997431E+002
 20
2.27175E+001
 40
2.0
  1
 
 41
7.0E-001
100
AcDbAttribute
  2
37
 70
0
  0
ATTRIB
  5
6f3
100
AcDbEntity
  8
1
100
AcDbText
  6
CONTINUOUS
 62
6
 10
1.1759431E+002
 20
2.27175E+001
 40
2.0
  1
 
 41
7.0E-001
100
AcDbAttribute
  2
38
 70
0
  0
ATTRIB
  5
6f4
100
AcDbEntity
  8
1
100
AcDbText
  6
CONTINUOUS
 62
6
 10
1.4299431E+002
 20
2.27175E+001
 40
2.0
  1
 
 41
7.0E-001
100
AcDbAttribute
  2
39
 70
0
  0
ATTRIB
  5
6f5
100
AcDbEntity
  8
1
100
AcDbText
  6
CONTINUOUS
 62
6
 10
1.5519431E+002
 20
2.27175E+001
 40
2.0
  1
 
 41
7.0E-001
100
AcDbAttribute
  2
40
 70
0
  0
ATTRIB
  5
6f6
100
AcDbEntity
  8
1
100
AcDbText
  6
CONTINUOUS
 62
6
 10
1.0997431E+002
 20
1.84875E+001
 40
2.0
  1
 
 41
7.0E-001
100
AcDbAttribute
  2
41
 70
0
  0
ATTRIB
  5
6f7
100
AcDbEntity
  8
1
100
AcDbText
  6
CONTINUOUS
 62
6
 10
1.1759431E+002
 20
1.84875E+001
 40
2.0
  1
 
 41
7.0E-001
100
AcDbAttribute
  2
42
 70
0
  0
ATTRIB
  5
6f8
100
AcDbEntity
  8
1
100
AcDbText
  6
CONTINUOUS
 62
6
 10
1.4299431E+002
 20
1.84875E+001
 40
2.0
  1
 
 41
7.0E-001
100
AcDbAttribute
  2
43
 70
0
  0
ATTRIB
  5
6f9
100
AcDbEntity
  8
1
100
AcDbText
  6
CONTINUOUS
 62
6
 10
1.5519431E+002
 20
1.84875E+001
 40
2.0
  1
 
 41
7.0E-001
100
AcDbAttribute
  2
44
 70
0
  0
ATTRIB
  5
6fa
100
AcDbEntity
  8
1
100
AcDbText
  6
CONTINUOUS
 62
6
 10
1.0997431E+002
 20
1.42575E+001
 40
2.0
  1
 
 41
7.0E-001
100
AcDbAttribute
  2
45
 70
0
  0
ATTRIB
  5
6fb
100
AcDbEntity
  8
1
100
AcDbText
  6
CONTINUOUS
 62
6
 10
1.1759431E+002
 20
1.42575E+001
 40
2.0
  1
 
 41
7.0E-001
100
AcDbAttribute
  2
46
 70
0
  0
ATTRIB
  5
6fc
100
AcDbEntity
  8
1
100
AcDbText
  6
CONTINUOUS
 62
6
 10
1.4299431E+002
 20
1.42575E+001
 40
2.0
  1
 
 41
7.0E-001
100
AcDbAttribute
  2
47
 70
0
  0
ATTRIB
  5
6fd
100
AcDbEntity
  8
1
100
AcDbText
  6
CONTINUOUS
 62
6
 10
1.5519431E+002
 20
1.42575E+001
 40
2.0
  1
 
 41
7.0E-001
100
AcDbAttribute
  2
48
 70
0
  0
ATTRIB
  5
6fe
100
AcDbEntity
  8
1
100
AcDbText
  6
CONTINUOUS
 62
6
 10
1.0997431E+002
 20
1.00275E+001
 40
2.0
  1
 
 41
7.0E-001
100
AcDbAttribute
  2
49
 70
0
  0
ATTRIB
  5
6ff
100
AcDbEntity
  8
1
100
AcDbText
  6
CONTINUOUS
 62
6
 10
1.1759431E+002
 20
1.00275E+001
 40
2.0
  1
 
 41
7.0E-001
100
AcDbAttribute
  2
50
 70
0
  0
ATTRIB
  5
700
100
AcDbEntity
  8
1
100
AcDbText
  6
CONTINUOUS
 62
6
 10
1.4299431E+002
 20
1.00275E+001
 40
2.0
  1
 
 41
7.0E-001
100
AcDbAttribute
  2
51
 70
0
  0
ATTRIB
  5
701
100
AcDbEntity
  8
1
100
AcDbText
  6
CONTINUOUS
 62
6
 10
1.5519431E+002
 20
1.00275E+001
 40
2.0
  1
 
 41
7.0E-001
100
AcDbAttribute
  2
52
 70
0
  0
SEQEND
  5
702
100
AcDbEntity
  0
INSERT
  5
703
100
AcDbEntity
100
AcDbBlockReference
  2
*TX271
  8
1
 10
2.554772E+002
 20
7.2512675E+001
  0
TEXT
  5
704
100
AcDbEntity
  8
1
100
AcDbText
  6
CONTINUOUS
 62
221
 10
2.369139E+002
 20
1.0194548E+002
 40
3.5
  1
  
 41
7.5E-001
100
AcDbText
  0
INSERT
  5
705
100
AcDbEntity
100
AcDbBlockReference
  2
M11
  8
1
 10
2.3801655E+002
 20
5.36425E+001
  0
DIMENSION
  5
706
100
AcDbEntity
  8
2
100
AcDbDimension
  6
CONTINUOUS
 62
3
  2
*D1697
  3
DSTYLE1
 10
1.9607684E+002
 20
1.6251765E+002
 11
1.9307584E+002
 21
1.5070347E+002
 70
129
100
AcDbAlignedDimension
 13
1.825169E+002
 23
1.5821765E+002
 14
1.825169E+002
 24
1.6251765E+002
 40
3.0
1001
ACAD
1000
DSTYLE
1002
{
1070
173
1070
0
1070
5
1000
_AH1
1002
}
  0
DIMENSION
  5
707
100
AcDbEntity
  8
2
100
AcDbDimension
  6
CONTINUOUS
 62
3
  2
*D1698
  3
DSTYLE1
 10
2.061524E+002
 20
1.5636765E+002
 11
2.031514E+002
 21
1.6022339E+002
 70
129
100
AcDbAlignedDimension
 13
1.825169E+002
 23
1.6436765E+002
 14
1.825169E+002
 24
1.5636765E+002
 40
3.0
1001
ACAD
1000
DSTYLE
1002
{
1070
173
1070
0
1070
5
1000
_AH1
1002
}
  0
INSERT
  5
708
100
AcDbEntity
100
AcDbBlockReference
  2
*D1699
  8
2
 62
3
 10
0.0
 20
0.0
  0
VIEWPORT
  5
709
100
AcDbEntity
 67
1
  8
0
  6
CONTINUOUS
 62
3
100
AcDbViewport
 10
1.485E+002
 20
1.05E+002
 30
0.0
 40
2.1E+002
 41
2.1E+002
 68
1
 69
1
1001
ACAD
1000
MVIEW
1002
{
1070
16
1010
0.0
1020
0.0
1030
0.0
1010
0.0
1020
0.0
1030
1.0
1040
0.0
1040
2.1E+002
1040
8.1675E+001
1040
1.05E+002
1040
5.0E+001
1040
0.0
1040
0.0
1070
0
1070
1000
1070
1
1070
0
1070
0
1070
0
1070
0
1070
0
1040
0.0
1040
0.0
1040
0.0
1040
5.0E-001
1040
5.0E-001
1040
5.0E-001
1040
5.0E-001
1070
0
1002
{
1002
}
1002
}
  0
VIEWPORT
  5
70a
100
AcDbEntity
 67
1
  8
0
  6
CONTINUOUS
 62
3
100
AcDbViewport
 10
1.485E+002
 20
1.05E+002
 30
0.0
 40
2.97E+002
 41
2.1E+002
 68
2
 69
2
1001
ACAD
1000
MVIEW
1002
{
1070
16
1010
0.0
1020
0.0
1030
0.0
1010
0.0
1020
0.0
1030
1.0
1040
0.0
1040
2.1E+002
1040
1.485E+002
1040
1.05E+002
1040
5.0E+001
1040
0.0
1040
0.0
1070
0
1070
1000
1070
1
1070
0
1070
0
1070
0
1070
0
1070
0
1040
0.0
1040
0.0
1040
0.0
1040
5.0E-001
1040
5.0E-001
1040
5.0E-001
1040
5.0E-001
1070
0
1002
{
1003
5
1003
4
1003
3
1003
2
1002
}
1002
}
  0
VIEWPORT
  5
70b
100
AcDbEntity
 67
1
  8
0
  6
CONTINUOUS
 62
3
100
AcDbViewport
 10
1.3036544E+002
 20
1.6412538E+002
 30
0.0
 40
2.0576294E+002
 41
7.430321E+001
 68
3
 69
3
1001
ACAD
1000
MVIEW
1002
{
1070
16
1010
0.0
1020
0.0
1030
0.0
1010
0.0
1020
0.0
1030
1.0
1040
0.0
1040
7.430321E+001
1040
1.3036544E+002
1040
1.6412538E+002
1040
5.0E+001
1040
0.0
1040
0.0
1070
0
1070
1000
1070
1
1070
0
1070
0
1070
0
1070
0
1070
0
1040
0.0
1040
0.0
1040
0.0
1040
5.0E-001
1040
5.0E-001
1040
5.0E-001
1040
5.0E-001
1070
0
1002
{
1003
5
1003
4
1003
3
1003
1
1002
}
1002
}
  0
VIEWPORT
  5
70c
100
AcDbEntity
 67
1
  8
0
  6
CONTINUOUS
 62
3
100
AcDbViewport
 10
2.5366847E+002
 20
1.6412538E+002
 30
0.0
 40
4.0843118E+001
 41
7.430321E+001
 68
4
 69
4
1001
ACAD
1000
MVIEW
1002
{
1070
16
1010
0.0
1020
0.0
1030
0.0
1010
0.0
1020
0.0
1030
1.0
1040
0.0
1040
7.430321E+001
1040
2.5366847E+002
1040
1.6412538E+002
1040
5.0E+001
1040
0.0
1040
0.0
1070
0
1070
1000
1070
1
1070
0
1070
0
1070
0
1070
0
1070
0
1040
0.0
1040
0.0
1040
0.0
1040
5.0E-001
1040
5.0E-001
1040
5.0E-001
1040
5.0E-001
1070
0
1002
{
1003
5
1003
4
1003
2
1003
1
1002
}
1002
}
  0
VIEWPORT
  5
70d
100
AcDbEntity
 67
1
  8
0
  6
CONTINUOUS
 62
3
100
AcDbViewport
 10
1.3036544E+002
 20
1.0578019E+002
 30
0.0
 40
2.0576294E+002
 41
4.2387174E+001
 68
5
 69
5
1001
ACAD
1000
MVIEW
1002
{
1070
16
1010
0.0
1020
0.0
1030
0.0
1010
0.0
1020
0.0
1030
1.0
1040
0.0
1040
4.2387174E+001
1040
1.3036544E+002
1040
1.0578019E+002
1040
5.0E+001
1040
0.0
1040
0.0
1070
0
1070
1000
1070
1
1070
0
1070
0
1070
0
1070
0
1070
0
1040
0.0
1040
0.0
1040
0.0
1040
5.0E-001
1040
5.0E-001
1040
5.0E-001
1040
5.0E-001
1070
0
1002
{
1003
5
1003
3
1003
2
1003
1
1002
}
1002
}
  0
VIEWPORT
  5
70e
100
AcDbEntity
 67
1
  8
0
  6
CONTINUOUS
 62
3
100
AcDbViewport
 10
6.3521263E+001
 20
3.8691031E+001
 30
0.0
 40
8.7492571E+001
 41
6.2791789E+001
 68
6
 69
6
1001
ACAD
1000
MVIEW
1002
{
1070
16
1010
0.0
1020
0.0
1030
0.0
1010
0.0
1020
0.0
1030
1.0
1040
0.0
1040
8.9702556E+001
1040
7.9674039E+001
1040
3.5766051E+001
1040
5.0E+001
1040
0.0
1040
0.0
1070
0
1070
1000
1070
1
1070
0
1070
0
1070
0
1070
0
1070
0
1040
0.0
1040
0.0
1040
0.0
1040
5.0E-001
1040
5.0E-001
1040
5.0E-001
1040
5.0E-001
1070
0
1002
{
1003
4
1003
3
1003
2
1003
1
1002
}
1002
}
  0
ENDSEC
  0
SECTION
  2
OBJECTS
  0
DICTIONARY
  5
70f
100
AcDbDictionary
  3
ACAD_GROUP
350
710
  3
ACAD_MLINESTYLE
350
711
  0
DICTIONARY
  5
710
102
{ACAD_REACTORS
330
70f
102
}
100
AcDbDictionary
  0
DICTIONARY
  5
711
102
{ACAD_REACTORS
330
70f
102
}
100
AcDbDictionary
  3
STANDARD
350
712
  0
MLINESTYLE
  5
712
102
{ACAD_REACTORS
330
711
102
}
100
AcDbMlineStyle
  2
STANDARD
 70
0
  3

 62
256
 51
9.0E+001
 52
9.0E+001
 71
2
 49
5.0E-001
 62
256
  6
BYLAYER
 49
-5.0E-001
 62
256
  6
BYLAYER
  0
ENDSEC
  0
EOF
