  0
SECTION
  2
HEADER
  9
$ACADVER
  1
AC1015
  9
$ACADMAINTVER
 70
     6
  9
$DWGCODEPAGE
  3
ANSI_1252
  9
$INSBASE
 10
0.0
 20
0.0
 30
0.0
  9
$EXTMIN
 10
0.0
 20
0.0
 30
0.0
  9
$EXTMAX
 10
297.0
 20
210.0
 30
0.0
  9
$LIMMIN
 10
0.0
 20
0.0
  9
$LIMMAX
 10
297.0
 20
210.0
  9
$ORTHOMODE
 70
     0
  9
$REGENMODE
 70
     1
  9
$FILLMODE
 70
     1
  9
$QTEXTMODE
 70
     0
  9
$MIRRTEXT
 70
     1
  9
$LTSCALE
 40
1.0
  9
$ATTMODE
 70
     1
  9
$TEXTSIZE
 40
3.5
  9
$TRACEWID
 40
1.0
  9
$TEXTSTYLE
  7
Standard
  9
$CLAYER
  8
0
  9
$CELTYPE
  6
ByLayer
  9
$CECOLOR
 62
   256
  9
$CELTSCALE
 40
1.0
  9
$DISPSILH
 70
     0
  9
$DIMSCALE
 40
1.0
  9
$DIMASZ
 40
3.3
  9
$DIMEXO
 40
0.0
  9
$DIMDLI
 40
3.75
  9
$DIMRND
 40
0.0
  9
$DIMDLE
 40
0.0
  9
$DIMEXE
 40
1.0
  9
$DIMTP
 40
0.0
  9
$DIMTM
 40
0.0
  9
$DIMTXT
 40
3.5
  9
$DIMCEN
 40
2.5
  9
$DIMTSZ
 40
0.0
  9
$DIMTOL
 70
     0
  9
$DIMLIM
 70
     0
  9
$DIMTIH
 70
     1
  9
$DIMTOH
 70
     1
  9
$DIMSE1
 70
     0
  9
$DIMSE2
 70
     0
  9
$DIMTAD
 70
     1
  9
$DIMZIN
 70
     0
  9
$DIMBLK
  1

  9
$DIMASO
 70
     1
  9
$DIMSHO
 70
     1
  9
$DIMPOST
  1

  9
$DIMAPOST
  1

  9
$DIMALT
 70
     0
  9
$DIMALTD
 70
     3
  9
$DIMALTF
 40
0.0393700787
  9
$DIMLFAC
 40
1.0
  9
$DIMTOFL
 70
     1
  9
$DIMTVP
 40
0.0
  9
$DIMTIX
 70
     0
  9
$DIMSOXD
 70
     0
  9
$DIMSAH
 70
     0
  9
$DIMBLK1
  1

  9
$DIMBLK2
  1

  9
$DIMSTYLE
  2
ISO-25
  9
$DIMCLRD
 70
     0
  9
$DIMCLRE
 70
     0
  9
$DIMCLRT
 70
     0
  9
$DIMTFAC
 40
1.0
  9
$DIMGAP
 40
1.524
  9
$DIMJUST
 70
     0
  9
$DIMSD1
 70
     0
  9
$DIMSD2
 70
     0
  9
$DIMTOLJ
 70
     0
  9
$DIMTZIN
 70
     0
  9
$DIMALTZ
 70
     0
  9
$DIMALTTZ
 70
     0
  9
$DIMUPT
 70
     0
  9
$DIMDEC
 70
     2
  9
$DIMTDEC
 70
     2
  9
$DIMALTU
 70
     2
  9
$DIMALTTD
 70
     3
  9
$DIMTXSTY
  7
Standard
  9
$DIMAUNIT
 70
     0
  9
$DIMADEC
 70
     2
  9
$DIMALTRND
 40
0.0
  9
$DIMAZIN
 70
     0
  9
$DIMDSEP
 70
    44
  9
$DIMATFIT
 70
     3
  9
$DIMFRAC
 70
     0
  9
$DIMLDRBLK
  1

  9
$DIMLUNIT
 70
     2
  9
$DIMLWD
 70
    -2
  9
$DIMLWE
 70
    -2
  9
$DIMTMOVE
 70
     0
  9
$LUNITS
 70
     2
  9
$LUPREC
 70
     2
  9
$SKETCHINC
 40
1.0
  9
$FILLETRAD
 40
10.0
  9
$AUNITS
 70
     0
  9
$AUPREC
 70
     2
  9
$MENU
  1
.
  9
$ELEVATION
 40
0.0
  9
$PELEVATION
 40
0.0
  9
$THICKNESS
 40
0.0
  9
$LIMCHECK
 70
     0
  9
$CHAMFERA
 40
10.0
  9
$CHAMFERB
 40
10.0
  9
$CHAMFERC
 40
20.0
  9
$CHAMFERD
 40
0.0
  9
$SKPOLY
 70
     0
  9
$TDCREATE
 40
2456450.448020718
  9
$TDUCREATE
 40
2456450.364687384
  9
$TDUPDATE
 40
2456450.448020729
  9
$TDUUPDATE
 40
2456450.364687396
  9
$TDINDWG
 40
0.0000000116
  9
$TDUSRTIMER
 40
0.0000000116
  9
$USRTIMER
 70
     1
  9
$ANGBASE
 50
0.0
  9
$ANGDIR
 70
     0
  9
$PDMODE
 70
     0
  9
$PDSIZE
 40
-1.0
  9
$PLINEWID
 40
0.0
  9
$SPLFRAME
 70
     0
  9
$SPLINETYPE
 70
     6
  9
$SPLINESEGS
 70
     8
  9
$HANDSEED
  5
390
  9
$SURFTAB1
 70
     6
  9
$SURFTAB2
 70
     6
  9
$SURFTYPE
 70
     6
  9
$SURFU
 70
     6
  9
$SURFV
 70
     6
  9
$UCSBASE
  2

  9
$UCSNAME
  2

  9
$UCSORG
 10
0.0
 20
0.0
 30
0.0
  9
$UCSXDIR
 10
1.0
 20
0.0
 30
0.0
  9
$UCSYDIR
 10
0.0
 20
1.0
 30
0.0
  9
$UCSORTHOREF
  2

  9
$UCSORTHOVIEW
 70
     0
  9
$UCSORGTOP
 10
0.0
 20
0.0
 30
0.0
  9
$UCSORGBOTTOM
 10
0.0
 20
0.0
 30
0.0
  9
$UCSORGLEFT
 10
0.0
 20
0.0
 30
0.0
  9
$UCSORGRIGHT
 10
0.0
 20
0.0
 30
0.0
  9
$UCSORGFRONT
 10
0.0
 20
0.0
 30
0.0
  9
$UCSORGBACK
 10
0.0
 20
0.0
 30
0.0
  9
$PUCSBASE
  2

  9
$PUCSNAME
  2

  9
$PUCSORG
 10
0.0
 20
0.0
 30
0.0
  9
$PUCSXDIR
 10
1.0
 20
0.0
 30
0.0
  9
$PUCSYDIR
 10
0.0
 20
1.0
 30
0.0
  9
$PUCSORTHOREF
  2

  9
$PUCSORTHOVIEW
 70
     0
  9
$PUCSORGTOP
 10
0.0
 20
0.0
 30
0.0
  9
$PUCSORGBOTTOM
 10
0.0
 20
0.0
 30
0.0
  9
$PUCSORGLEFT
 10
0.0
 20
0.0
 30
0.0
  9
$PUCSORGRIGHT
 10
0.0
 20
0.0
 30
0.0
  9
$PUCSORGFRONT
 10
0.0
 20
0.0
 30
0.0
  9
$PUCSORGBACK
 10
0.0
 20
0.0
 30
0.0
  9
$USERI1
 70
     0
  9
$USERI2
 70
     0
  9
$USERI3
 70
     0
  9
$USERI4
 70
     0
  9
$USERI5
 70
     0
  9
$USERR1
 40
0.0
  9
$USERR2
 40
0.0
  9
$USERR3
 40
0.0
  9
$USERR4
 40
0.0
  9
$USERR5
 40
0.0
  9
$WORLDVIEW
 70
     1
  9
$SHADEDGE
 70
     3
  9
$SHADEDIF
 70
    70
  9
$TILEMODE
 70
     1
  9
$MAXACTVP
 70
    64
  9
$PINSBASE
 10
0.0
 20
0.0
 30
0.0
  9
$PLIMCHECK
 70
     0
  9
$PEXTMIN
 10
1.0000000000E+20
 20
1.0000000000E+20
 30
1.0000000000E+20
  9
$PEXTMAX
 10
-1.0000000000E+20
 20
-1.0000000000E+20
 30
-1.0000000000E+20
  9
$PLIMMIN
 10
0.0
 20
0.0
  9
$PLIMMAX
 10
420.0
 20
297.0
  9
$UNITMODE
 70
     0
  9
$VISRETAIN
 70
     1
  9
$PLINEGEN
 70
     0
  9
$PSLTSCALE
 70
     1
  9
$TREEDEPTH
 70
  3020
  9
$CMLSTYLE
  2
Standard
  9
$CMLJUST
 70
     0
  9
$CMLSCALE
 40
20.0
  9
$PROXYGRAPHICS
 70
     1
  9
$MEASUREMENT
 70
     1
  9
$CELWEIGHT
370
    -1
  9
$ENDCAPS
280
     0
  9
$JOINSTYLE
280
     0
  9
$LWDISPLAY
290
     1
  9
$INSUNITS
 70
     4
  9
$HYPERLINKBASE
  1

  9
$STYLESHEET
  1

  9
$XEDIT
290
     1
  9
$CEPSNTYPE
380
     0
  9
$PSTYLEMODE
290
     1
  9
$FINGERPRINTGUID
  2
{58AB923B-E603-460F-B6CB-F1685B16B08C}
  9
$VERSIONGUID
  2
{FAEB1C32-E019-11D5-929B-00C0DF256EC4}
  9
$EXTNAMES
290
     1
  9
$PSVPSCALE
 40
0.0
  9
$OLESTARTUP
290
     0
  0
ENDSEC
  0
SECTION
  2
CLASSES
  0
CLASS
  1
ACDBDICTIONARYWDFLT
  2
AcDbDictionaryWithDefault
  3
ObjectDBX Classes
 90
        0
280
     0
281
     0
  0
CLASS
  1
VISUALSTYLE
  2
AcDbVisualStyle
  3
ObjectDBX Classes
 90
     4095
280
     0
281
     0
  0
CLASS
  1
DICTIONARYVAR
  2
AcDbDictionaryVar
  3
ObjectDBX Classes
 90
        0
280
     0
281
     0
  0
CLASS
  1
ACDBPLACEHOLDER
  2
AcDbPlaceHolder
  3
ObjectDBX Classes
 90
        0
280
     0
281
     0
  0
CLASS
  1
LAYOUT
  2
AcDbLayout
  3
ObjectDBX Classes
 90
        0
280
     0
281
     0
  0
ENDSEC
  0
SECTION
  2
TABLES
  0
TABLE
  2
VPORT
  5
8
330
0
100
AcDbSymbolTable
 70
     1
  0
VPORT
  5
29
330
8
100
AcDbSymbolTableRecord
100
AcDbViewportTableRecord
  2
*Active
 70
     0
 10
0.0
 20
0.0
 11
1.0
 21
1.0
 12
148.5
 22
105.0
 13
0.0
 23
0.0
 14
10.0
 24
10.0
 15
10.0
 25
10.0
 16
0.0
 26
0.0
 36
1.0
 17
0.0
 27
0.0
 37
0.0
 40
210.0
 41
1.4142857143
 42
50.0
 43
0.0
 44
0.0
 50
0.0
 51
0.0
 71
     0
 72
  2000
 73
     1
 74
     3
 75
     0
 76
     0
 77
     0
 78
     0
281
     0
 65
     1
110
0.0
120
0.0
130
0.0
111
1.0
121
0.0
131
0.0
112
0.0
122
1.0
132
0.0
 79
     0
146
0.0
  0
ENDTAB
  0
TABLE
  2
LTYPE
  5
5
330
0
100
AcDbSymbolTable
 70
     6
  0
LTYPE
  5
14
330
5
100
AcDbSymbolTableRecord
100
AcDbLinetypeTableRecord
  2
ByBlock
 70
     0
  3

 72
    65
 73
     0
 40
0.0
  0
LTYPE
  5
15
330
5
100
AcDbSymbolTableRecord
100
AcDbLinetypeTableRecord
  2
ByLayer
 70
     0
  3

 72
    65
 73
     0
 40
0.0
  0
LTYPE
  5
16
330
5
100
AcDbSymbolTableRecord
100
AcDbLinetypeTableRecord
  2
Continuous
 70
     0
  3
Solid line
 72
    65
 73
     0
 40
0.0
  0
LTYPE
  5
3B
330
5
100
AcDbSymbolTableRecord
100
AcDbLinetypeTableRecord
  2
HIDDEN
 70
     0
  3
Hidden __ __ __ __ __ __ __ __ __ __ __ __ __ __
 72
    65
 73
     2
 40
1.905
 49
1.27
 74
     0
 49
-0.635
 74
     0
  0
LTYPE
  5
3C
330
5
100
AcDbSymbolTableRecord
100
AcDbLinetypeTableRecord
  2
PHANTOM
 70
     0
  3
Phantom ______  __  __  ______  __  __  ______
 72
    65
 73
     6
 40
12.7
 49
6.35
 74
     0
 49
-1.27
 74
     0
 49
1.27
 74
     0
 49
-1.27
 74
     0
 49
1.27
 74
     0
 49
-1.27
 74
     0
  0
LTYPE
  5
3D
330
5
100
AcDbSymbolTableRecord
100
AcDbLinetypeTableRecord
  2
CENTER
 70
     0
  3
Center ____ _ ____ _ ____ _ ____ _ ____ _ ____
 72
    65
 73
     4
 40
10.16
 49
6.35
 74
     0
 49
-1.27
 74
     0
 49
1.27
 74
     0
 49
-1.27
 74
     0
  0
LTYPE
  5
3E
330
5
100
AcDbSymbolTableRecord
100
AcDbLinetypeTableRecord
  2
CENTERX2
 70
     0
  3
Center (2x) ________  __  ________  __  _____
 72
    65
 73
     4
 40
20.32
 49
12.7
 74
     0
 49
-2.54
 74
     0
 49
2.54
 74
     0
 49
-2.54
 74
     0
  0
LTYPE
  5
3F
330
5
100
AcDbSymbolTableRecord
100
AcDbLinetypeTableRecord
  2
DOT2
 70
     0
  3
Dot (.5x) ........................................
 72
    65
 73
     2
 40
0.635
 49
0.0
 74
     0
 49
-0.635
 74
     0
  0
ENDTAB
  0
TABLE
  2
LAYER
  5
2
330
0
100
AcDbSymbolTable
 70
     9
  0
LAYER
  5
10
330
2
100
AcDbSymbolTableRecord
100
AcDbLayerTableRecord
  2
0
 70
     0
 62
     7
  6
Continuous
370
    -3
390
F
  0
LAYER
  5
40
330
2
100
AcDbSymbolTableRecord
100
AcDbLayerTableRecord
  2
VORLAGE_TEXT
 70
     0
 62
     7
  6
Continuous
370
    -3
390
F
  0
LAYER
  5
41
330
2
100
AcDbSymbolTableRecord
100
AcDbLayerTableRecord
  2
VORLAGE_BEMASSUNG
 70
     0
 62
    -5
  6
Continuous
370
    -3
390
F
  0
LAYER
  5
42
330
2
100
AcDbSymbolTableRecord
100
AcDbLayerTableRecord
  2
TEXT
 70
     0
 62
     7
  6
Continuous
370
    -3
390
F
  0
LAYER
  5
43
330
2
100
AcDbSymbolTableRecord
100
AcDbLayerTableRecord
  2
LINIEN-DICK
 70
     0
 62
     7
  6
Continuous
370
    30
390
F
  0
LAYER
  5
44
330
2
100
AcDbSymbolTableRecord
100
AcDbLayerTableRecord
  2
LINIEN-NORMAL
 70
     0
 62
     7
  6
Continuous
370
    15
390
F
  0
LAYER
  5
45
330
2
100
AcDbSymbolTableRecord
100
AcDbLayerTableRecord
  2
LINIEN-DÜNN
 70
     0
 62
     7
  6
Continuous
370
    -3
390
F
  0
LAYER
  5
46
330
2
100
AcDbSymbolTableRecord
100
AcDbLayerTableRecord
  2
TEXT-DEUTSCH
 70
     0
 62
     7
  6
Continuous
370
    -3
390
F
  0
LAYER
  5
47
330
2
100
AcDbSymbolTableRecord
100
AcDbLayerTableRecord
  2
TEXT-ENGLISCH
 70
     0
 62
    -7
  6
Continuous
370
    -3
390
F
  0
ENDTAB
  0
TABLE
  2
STYLE
  5
3
330
0
100
AcDbSymbolTable
 70
     8
  0
STYLE
  5
11
330
3
100
AcDbSymbolTableRecord
100
AcDbTextStyleTableRecord
  2
Standard
 70
     0
 40
0.0
 41
1.0
 50
0.0
 71
     0
 42
2.5
  3
txt
  4

  0
STYLE
  5
54
330
3
100
AcDbSymbolTableRecord
100
AcDbTextStyleTableRecord
  2
SLDTEXTSTYLE0
 70
     0
 40
0.0
 41
0.57
 50
0.0
 71
     0
 42
0.2
  3
TXT
  4

  0
STYLE
  5
56
330
3
100
AcDbSymbolTableRecord
100
AcDbTextStyleTableRecord
  2
SLDTEXTSTYLE1
 70
     0
 40
0.0
 41
0.605
 50
0.0
 71
     0
 42
0.2
  3
TXT
  4

  0
STYLE
  5
67
330
3
100
AcDbSymbolTableRecord
100
AcDbTextStyleTableRecord
  2
SLDTEXTSTYLE2
 70
     0
 40
0.0
 41
0.563
 50
0.0
 71
     0
 42
0.2
  3
TXT
  4

  0
STYLE
  5
74
330
3
100
AcDbSymbolTableRecord
100
AcDbTextStyleTableRecord
  2
SLDTEXTSTYLE3
 70
     0
 40
0.0
 41
0.5525
 50
0.0
 71
     0
 42
0.2
  3
TXT
  4

  0
STYLE
  5
98
330
3
100
AcDbSymbolTableRecord
100
AcDbTextStyleTableRecord
  2
SLDTEXTSTYLE4
 70
     0
 40
0.0
 41
0.7
 50
0.0
 71
     0
 42
0.2
  3
TXT
  4

  0
STYLE
  5
1BF
330
3
100
AcDbSymbolTableRecord
100
AcDbTextStyleTableRecord
  2
SLDTEXTSTYLE5
 70
     0
 40
0.0
 41
0.575
 50
0.0
 71
     0
 42
0.2
  3
TXT
  4

  0
STYLE
  5
1F2
330
3
100
AcDbSymbolTableRecord
100
AcDbTextStyleTableRecord
  2
SLDTEXTSTYLE6
 70
     0
 40
0.0
 41
0.6333333333
 50
0.0
 71
     0
 42
0.2
  3
TXT
  4

  0
ENDTAB
  0
TABLE
  2
VIEW
  5
6
330
0
100
AcDbSymbolTable
 70
     0
  0
ENDTAB
  0
TABLE
  2
UCS
  5
7
330
0
100
AcDbSymbolTable
 70
     0
  0
ENDTAB
  0
TABLE
  2
APPID
  5
9
330
0
100
AcDbSymbolTable
 70
     1
  0
APPID
  5
12
330
9
100
AcDbSymbolTableRecord
100
AcDbRegAppTableRecord
  2
ACAD
 70
     0
  0
ENDTAB
  0
TABLE
  2
DIMSTYLE
  5
A
330
0
100
AcDbSymbolTable
 70
     9
100
AcDbDimStyleTable
  0
DIMSTYLE
105
27
330
A
100
AcDbSymbolTableRecord
100
AcDbDimStyleTableRecord
  2
ISO-25
 70
     0
 41
2.5
 42
0.625
 43
3.75
 44
1.25
 73
     0
 74
     0
 77
     1
 78
     8
140
2.5
141
2.5
143
0.0393700787
147
0.625
171
     3
172
     1
271
     2
272
     2
274
     3
278
    44
283
     0
284
     8
340
11
  0
DIMSTYLE
105
21F
102
{ACAD_REACTORS
330
21E
102
}
330
A
100
AcDbSymbolTableRecord
100
AcDbDimStyleTableRecord
  2
SLDDIMSTYLE0
 70
     0
 41
3.3
 44
0.0
 45
0.000000001
 47
0.5
 48
0.5
 71
     1
 73
     0
 74
     0
 77
     2
 78
    12
140
3.5
147
0.875
173
     1
271
     2
272
     1
284
     8
340
56
  0
DIMSTYLE
105
22B
102
{ACAD_REACTORS
330
22A
330
254
330
25F
102
}
330
A
100
AcDbSymbolTableRecord
100
AcDbDimStyleTableRecord
  2
SLDDIMSTYLE1
 70
     0
 41
3.3
 44
0.0
 45
0.000000001
 47
0.2
 48
0.2
 71
     1
 73
     0
 74
     0
 77
     2
 78
    12
140
3.5
147
0.875
173
     1
271
     2
272
     1
284
     8
340
56
  0
DIMSTYLE
105
237
102
{ACAD_REACTORS
330
236
102
}
330
A
100
AcDbSymbolTableRecord
100
AcDbDimStyleTableRecord
  2
SLDDIMSTYLE2
 70
     0
 41
3.3
 44
0.0
 45
0.000000001
 48
0.3
 71
     1
 73
     0
 74
     0
 77
     2
 78
    12
140
3.5
147
0.875
173
     1
271
     2
272
     1
284
     8
340
56
  0
DIMSTYLE
105
245
102
{ACAD_REACTORS
330
244
330
26A
102
}
330
A
100
AcDbSymbolTableRecord
100
AcDbDimStyleTableRecord
  2
SLDDIMSTYLE3
 70
     0
 41
3.3
 44
0.0
 45
0.000000001
 47
0.5
 71
     1
 73
     0
 74
     0
 77
     2
 78
    12
140
3.5
147
0.875
173
     1
271
     2
272
     1
284
     8
340
56
  0
DIMSTYLE
105
27A
102
{ACAD_REACTORS
330
279
102
}
330
A
100
AcDbSymbolTableRecord
100
AcDbDimStyleTableRecord
  2
SLDDIMSTYLE4
 70
     0
 41
3.3
 44
0.0
 45
0.000000001
 47
0.5
 71
     1
 73
     0
 74
     0
 77
     2
 78
    12
140
3.5
147
0.875
173
     1
271
     2
272
     1
284
     8
340
56
  0
DIMSTYLE
105
288
102
{ACAD_REACTORS
330
287
102
}
330
A
100
AcDbSymbolTableRecord
100
AcDbDimStyleTableRecord
  2
SLDDIMSTYLE5
 70
     0
 41
3.3
 44
0.0
 45
0.000000001
 48
0.3
 71
     1
 73
     0
 74
     0
 77
     2
 78
    12
140
3.5
147
0.875
173
     1
271
     2
272
     1
284
     8
340
56
  0
DIMSTYLE
105
298
102
{ACAD_REACTORS
330
297
102
}
330
A
100
AcDbSymbolTableRecord
100
AcDbDimStyleTableRecord
  2
SLDDIMSTYLE6
 70
     0
 41
3.3
 44
0.0
 45
0.000000001
 47
0.3
 71
     1
 73
     0
 74
     0
 77
     2
 78
    12
140
3.5
147
0.875
173
     1
271
     2
272
     1
284
     8
340
56
  0
DIMSTYLE
105
377
102
{ACAD_REACTORS
330
376
102
}
330
A
100
AcDbSymbolTableRecord
100
AcDbDimStyleTableRecord
  2
SLDDIMSTYLE7
 70
     0
 41
3.3
 44
0.0
 45
0.000000001
 73
     0
 74
     0
 77
     2
 78
    12
140
3.5
147
0.875
173
     1
271
     2
272
     2
284
    12
340
56
  0
ENDTAB
  0
TABLE
  2
BLOCK_RECORD
  5
1
330
0
100
AcDbSymbolTable
 70
    39
  0
BLOCK_RECORD
  5
1F
330
1
100
AcDbSymbolTableRecord
100
AcDbBlockTableRecord
  2
*Model_Space
340
22
  0
BLOCK_RECORD
  5
1B
330
1
100
AcDbSymbolTableRecord
100
AcDbBlockTableRecord
  2
*Paper_Space
340
1E
  0
BLOCK_RECORD
  5
23
330
1
100
AcDbSymbolTableRecord
100
AcDbBlockTableRecord
  2
*Paper_Space0
340
26
  0
BLOCK_RECORD
  5
48
330
1
100
AcDbSymbolTableRecord
100
AcDbBlockTableRecord
  2
Masswerte Freimasstoleranz mittel
340
0
102
{BLKREFS
331
1BA
102
}
  0
BLOCK_RECORD
  5
51
330
1
100
AcDbSymbolTableRecord
100
AcDbBlockTableRecord
  2
SW_NOTE_0
340
0
102
{BLKREFS
331
58
102
}
  0
BLOCK_RECORD
  5
5E
330
1
100
AcDbSymbolTableRecord
100
AcDbBlockTableRecord
  2
SW_NOTE_1
340
0
102
{BLKREFS
331
63
102
}
  0
BLOCK_RECORD
  5
64
330
1
100
AcDbSymbolTableRecord
100
AcDbBlockTableRecord
  2
SW_NOTE_2
340
0
102
{BLKREFS
331
6A
102
}
  0
BLOCK_RECORD
  5
6B
330
1
100
AcDbSymbolTableRecord
100
AcDbBlockTableRecord
  2
SW_NOTE_3
340
0
102
{BLKREFS
331
70
102
}
  0
BLOCK_RECORD
  5
71
330
1
100
AcDbSymbolTableRecord
100
AcDbBlockTableRecord
  2
SW_NOTE_4
340
0
102
{BLKREFS
331
77
102
}
  0
BLOCK_RECORD
  5
79
330
1
100
AcDbSymbolTableRecord
100
AcDbBlockTableRecord
  2
SW_NOTE_5
340
0
102
{BLKREFS
331
7E
102
}
  0
BLOCK_RECORD
  5
80
330
1
100
AcDbSymbolTableRecord
100
AcDbBlockTableRecord
  2
Symbol Werkstueckkanten
340
0
102
{BLKREFS
331
1B9
102
}
  0
BLOCK_RECORD
  5
9C
330
1
100
AcDbSymbolTableRecord
100
AcDbBlockTableRecord
  2
effeff Logo fuer Schriftkopf
340
0
102
{BLKREFS
331
1BB
102
}
  0
BLOCK_RECORD
  5
18B
330
1
100
AcDbSymbolTableRecord
100
AcDbBlockTableRecord
  2
SW_NOTE_6
340
0
102
{BLKREFS
331
192
102
}
  0
BLOCK_RECORD
  5
1C2
330
1
100
AcDbSymbolTableRecord
100
AcDbBlockTableRecord
  2
SW_NOTE_7
340
0
102
{BLKREFS
331
1C7
102
}
  0
BLOCK_RECORD
  5
1CB
330
1
100
AcDbSymbolTableRecord
100
AcDbBlockTableRecord
  2
SW_NOTE_8
340
0
102
{BLKREFS
331
1D0
102
}
  0
BLOCK_RECORD
  5
1D1
330
1
100
AcDbSymbolTableRecord
100
AcDbBlockTableRecord
  2
SW_NOTE_9
340
0
102
{BLKREFS
331
1D6
102
}
  0
BLOCK_RECORD
  5
1D7
330
1
100
AcDbSymbolTableRecord
100
AcDbBlockTableRecord
  2
SW_NOTE_10
340
0
102
{BLKREFS
331
1DC
102
}
  0
BLOCK_RECORD
  5
1DD
330
1
100
AcDbSymbolTableRecord
100
AcDbBlockTableRecord
  2
SW_NOTE_11
340
0
102
{BLKREFS
331
1E2
102
}
  0
BLOCK_RECORD
  5
1E3
330
1
100
AcDbSymbolTableRecord
100
AcDbBlockTableRecord
  2
SW_NOTE_12
340
0
102
{BLKREFS
331
1E8
102
}
  0
BLOCK_RECORD
  5
1E9
330
1
100
AcDbSymbolTableRecord
100
AcDbBlockTableRecord
  2
SW_NOTE_13
340
0
102
{BLKREFS
331
1EE
102
}
  0
BLOCK_RECORD
  5
1FB
330
1
100
AcDbSymbolTableRecord
100
AcDbBlockTableRecord
  2
SW_NOTE_14
340
0
102
{BLKREFS
331
200
102
}
  0
BLOCK_RECORD
  5
201
330
1
100
AcDbSymbolTableRecord
100
AcDbBlockTableRecord
  2
SW_NOTE_15
340
0
102
{BLKREFS
331
206
102
}
  0
BLOCK_RECORD
  5
220
330
1
100
AcDbSymbolTableRecord
100
AcDbBlockTableRecord
  2
*D20
340
0
  0
BLOCK_RECORD
  5
22C
330
1
100
AcDbSymbolTableRecord
100
AcDbBlockTableRecord
  2
*D21
340
0
  0
BLOCK_RECORD
  5
238
330
1
100
AcDbSymbolTableRecord
100
AcDbBlockTableRecord
  2
*D22
340
0
  0
BLOCK_RECORD
  5
246
330
1
100
AcDbSymbolTableRecord
100
AcDbBlockTableRecord
  2
*D23
340
0
  0
BLOCK_RECORD
  5
255
330
1
100
AcDbSymbolTableRecord
100
AcDbBlockTableRecord
  2
*D24
340
0
  0
BLOCK_RECORD
  5
260
330
1
100
AcDbSymbolTableRecord
100
AcDbBlockTableRecord
  2
*D25
340
0
  0
BLOCK_RECORD
  5
26B
330
1
100
AcDbSymbolTableRecord
100
AcDbBlockTableRecord
  2
*D26
340
0
  0
BLOCK_RECORD
  5
27B
330
1
100
AcDbSymbolTableRecord
100
AcDbBlockTableRecord
  2
*D27
340
0
  0
BLOCK_RECORD
  5
289
330
1
100
AcDbSymbolTableRecord
100
AcDbBlockTableRecord
  2
*D28
340
0
  0
BLOCK_RECORD
  5
299
330
1
100
AcDbSymbolTableRecord
100
AcDbBlockTableRecord
  2
*D29
340
0
  0
BLOCK_RECORD
  5
2A8
330
1
100
AcDbSymbolTableRecord
100
AcDbBlockTableRecord
  2
SW_CENTERMARKSYMBOL_0
340
0
102
{BLKREFS
331
2B3
102
}
  0
BLOCK_RECORD
  5
2B4
330
1
100
AcDbSymbolTableRecord
100
AcDbBlockTableRecord
  2
SW_CENTERMARKSYMBOL_1
340
0
102
{BLKREFS
331
2BF
102
}
  0
BLOCK_RECORD
  5
2C0
330
1
100
AcDbSymbolTableRecord
100
AcDbBlockTableRecord
  2
SW_CENTERMARKSYMBOL_2
340
0
102
{BLKREFS
331
2CB
102
}
  0
BLOCK_RECORD
  5
2CC
330
1
100
AcDbSymbolTableRecord
100
AcDbBlockTableRecord
  2
SW_CENTERMARKSYMBOL_3
340
0
102
{BLKREFS
331
2D7
102
}
  0
BLOCK_RECORD
  5
2D8
330
1
100
AcDbSymbolTableRecord
100
AcDbBlockTableRecord
  2
SW_CENTERMARKSYMBOL_4
340
0
102
{BLKREFS
331
2E3
102
}
  0
BLOCK_RECORD
  5
2E4
330
1
100
AcDbSymbolTableRecord
100
AcDbBlockTableRecord
  2
SW_CENTERMARKSYMBOL_5
340
0
102
{BLKREFS
331
2EF
102
}
  0
BLOCK_RECORD
  5
2F0
330
1
100
AcDbSymbolTableRecord
100
AcDbBlockTableRecord
  2
SW_CENTERMARKSYMBOL_6
340
0
102
{BLKREFS
331
2FB
102
}
  0
BLOCK_RECORD
  5
2FC
330
1
100
AcDbSymbolTableRecord
100
AcDbBlockTableRecord
  2
SW_CENTERMARKSYMBOL_7
340
0
102
{BLKREFS
331
307
102
}
  0
BLOCK_RECORD
  5
378
330
1
100
AcDbSymbolTableRecord
100
AcDbBlockTableRecord
  2
*D38
340
0
  0
ENDTAB
  0
ENDSEC
  0
SECTION
  2
BLOCKS
  0
BLOCK
  5
20
330
1F
100
AcDbEntity
  8
0
100
AcDbBlockBegin
  2
*Model_Space
 70
     0
 10
0.0
 20
0.0
 30
0.0
  3
*Model_Space
  1

  0
ENDBLK
  5
21
330
1F
100
AcDbEntity
  8
0
100
AcDbBlockEnd
  0
BLOCK
  5
1C
330
1B
100
AcDbEntity
 67
     1
  8
0
100
AcDbBlockBegin
  2
*Paper_Space
 70
     0
 10
0.0
 20
0.0
 30
0.0
  3
*Paper_Space
  1

  0
ENDBLK
  5
1D
330
1B
100
AcDbEntity
 67
     1
  8
0
100
AcDbBlockEnd
  0
BLOCK
  5
24
330
23
100
AcDbEntity
  8
0
100
AcDbBlockBegin
  2
*Paper_Space0
 70
     0
 10
0.0
 20
0.0
 30
0.0
  3
*Paper_Space0
  1

  0
ENDBLK
  5
25
330
23
100
AcDbEntity
  8
0
100
AcDbBlockEnd
  0
BLOCK
  5
49
330
48
100
AcDbEntity
  8
0
100
AcDbBlockBegin
  2
Masswerte Freimasstoleranz mittel
 70
     0
 10
0.0
 20
0.0
 30
0.0
  3
Masswerte Freimasstoleranz mittel
  1

  0
LINE
  5
4B
330
48
100
AcDbEntity
  8
0
  6
Continuous
 62
     7
370
     0
100
AcDbLine
 10
165.6026262872
 20
184.1502177106
 30
0.0
 11
112.8673196416
 21
184.1502177106
 31
0.0
  0
LINE
  5
4C
330
48
100
AcDbEntity
  8
0
  6
Continuous
 62
     7
370
     0
100
AcDbLine
 10
120.5026262872
 20
190.7002235013
 30
0.0
 11
120.5026262872
 21
179.5647319831
 31
0.0
  0
LINE
  5
4D
330
48
100
AcDbEntity
  8
0
  6
Continuous
 62
     7
370
     0
100
AcDbLine
 10
129.3026262872
 20
190.7002235013
 30
0.0
 11
129.3026262872
 21
179.5647319831
 31
0.0
  0
LINE
  5
4E
330
48
100
AcDbEntity
  8
0
  6
Continuous
 62
     7
370
     0
100
AcDbLine
 10
138.1026262872
 20
190.7002235013
 30
0.0
 11
138.1026262872
 21
179.5647319831
 31
0.0
  0
LINE
  5
4F
330
48
100
AcDbEntity
  8
0
  6
Continuous
 62
     7
370
     0
100
AcDbLine
 10
146.9026262872
 20
190.7002235013
 30
0.0
 11
146.9026262872
 21
179.5647319831
 31
0.0
  0
LINE
  5
50
330
48
100
AcDbEntity
  8
0
  6
Continuous
 62
     7
370
     0
100
AcDbLine
 10
155.7026262872
 20
190.7002235013
 30
0.0
 11
155.7026262872
 21
179.5647319831
 31
0.0
  0
INSERT
  5
58
330
48
100
AcDbEntity
  8
0
  6
Continuous
 62
     7
370
     0
100
AcDbBlockReference
  2
SW_NOTE_0
 10
147.6255881065
 20
187.200606177
 30
0.0
  0
MTEXT
  5
59
330
48
100
AcDbEntity
  8
0
  6
Continuous
 62
     7
370
     0
100
AcDbMText
 10
122.0385589099
 20
183.0004034049
 30
0.0
 40
1.98
 41
0.0
 71
     1
 72
     1
  1
± 0.1
  7
SLDTEXTSTYLE1
 73
     1
 44
1.0
  0
MTEXT
  5
5A
330
48
100
AcDbEntity
  8
0
  6
Continuous
 62
     7
370
     0
100
AcDbMText
 10
139.5862145612
 20
182.9847884397
 30
0.0
 40
1.98
 41
0.0
 71
     1
 72
     1
  1
± 0.3
  7
SLDTEXTSTYLE1
 73
     1
 44
1.0
  0
MTEXT
  5
5B
330
48
100
AcDbEntity
  8
0
  6
Continuous
 62
     7
370
     0
100
AcDbMText
 10
148.384366744
 20
182.99771301
 30
0.0
 40
1.98
 41
0.0
 71
     1
 72
     1
  1
± 0.5
  7
SLDTEXTSTYLE1
 73
     1
 44
1.0
  0
MTEXT
  5
5C
330
48
100
AcDbEntity
  8
0
  6
Continuous
 62
     7
370
     0
100
AcDbMText
 10
157.7406939896
 20
182.9989058912
 30
0.0
 40
1.98
 41
0.0
 71
     1
 72
     1
  1
± 0.8
  7
SLDTEXTSTYLE1
 73
     1
 44
1.0
  0
MTEXT
  5
5D
330
48
100
AcDbEntity
  8
0
  6
Continuous
 62
     7
370
     0
100
AcDbMText
 10
113.2127479977
 20
182.9994673889
 30
0.0
 40
1.98
 41
0.0
 71
     1
 72
     1
  1
± 0.1
  7
SLDTEXTSTYLE1
 73
     1
 44
1.0
  0
INSERT
  5
63
330
48
100
AcDbEntity
  8
0
  6
Continuous
 62
     7
370
     0
100
AcDbBlockReference
  2
SW_NOTE_1
 10
157.5050758515
 20
187.1824642426
 30
0.0
  0
INSERT
  5
6A
330
48
100
AcDbEntity
  8
0
  6
Continuous
 62
     7
370
     0
100
AcDbBlockReference
  2
SW_NOTE_2
 10
140.1202345069
 20
187.2223860268
 30
0.0
  0
INSERT
  5
70
330
48
100
AcDbEntity
  8
0
  6
Continuous
 62
     7
370
     0
100
AcDbBlockReference
  2
SW_NOTE_3
 10
114.6176551453
 20
187.219017448
 30
0.0
  0
INSERT
  5
77
330
48
100
AcDbEntity
  8
0
  6
Continuous
 62
     7
370
     0
100
AcDbBlockReference
  2
SW_NOTE_4
 10
132.0798751383
 20
187.2197677042
 30
0.0
  0
MTEXT
  5
78
330
48
100
AcDbEntity
  8
0
  6
Continuous
 62
     7
370
     0
100
AcDbMText
 10
115.6966101682
 20
195.9918256147
 30
0.0
 40
3.175
 41
0.0
 71
     1
 72
     1
  1
Tolerances ISO 2768 mK
  7
SLDTEXTSTYLE1
 73
     1
 44
1.0
  0
INSERT
  5
7E
330
48
100
AcDbEntity
  8
0
  6
Continuous
 62
     7
370
     0
100
AcDbBlockReference
  2
SW_NOTE_5
 10
122.6368110536
 20
187.2048235875
 30
0.0
  0
MTEXT
  5
7F
330
48
100
AcDbEntity
  8
0
  6
Continuous
 62
     7
370
     0
100
AcDbMText
 10
130.7811631512
 20
182.9997793942
 30
0.0
 40
1.98
 41
0.0
 71
     1
 72
     1
  1
± 0.2
  7
SLDTEXTSTYLE1
 73
     1
 44
1.0
  0
ENDBLK
  5
4A
330
48
100
AcDbEntity
  8
0
100
AcDbBlockEnd
  0
BLOCK
  5
52
330
51
100
AcDbEntity
  8
0
100
AcDbBlockBegin
  2
SW_NOTE_0
 70
     0
 10
0.0
 20
0.0
 30
0.0
  3
SW_NOTE_0
  1

  0
MTEXT
  5
55
330
51
100
AcDbEntity
  8
0
  6
Continuous
 62
     0
370
     0
100
AcDbMText
 10
0.0
 20
2.5523541247
 30
0.0
 40
1.98
 41
0.0
 71
     1
 72
     1
  1
>  120
  7
SLDTEXTSTYLE0
 73
     1
 44
1.0
  0
MTEXT
  5
57
330
51
100
AcDbEntity
  8
0
  6
Continuous
 62
     0
370
     0
100
AcDbMText
 10
0.1447182149
 20
0.0003540175
 30
0.0
 40
1.98
 41
0.0
 71
     1
 72
     1
  1
... 400
  7
SLDTEXTSTYLE1
 73
     1
 44
1.0
  0
ENDBLK
  5
53
330
51
100
AcDbEntity
  8
0
100
AcDbBlockEnd
  0
BLOCK
  5
5F
330
5E
100
AcDbEntity
  8
0
100
AcDbBlockBegin
  2
SW_NOTE_1
 70
     0
 10
0.0
 20
0.0
 30
0.0
  3
SW_NOTE_1
  1

  0
MTEXT
  5
61
330
5E
100
AcDbEntity
  8
0
  6
Continuous
 62
     0
370
     0
100
AcDbMText
 10
0.0
 20
2.5523541247
 30
0.0
 40
1.98
 41
0.0
 71
     1
 72
     1
  1
>  400
  7
SLDTEXTSTYLE0
 73
     1
 44
1.0
  0
MTEXT
  5
62
330
5E
100
AcDbEntity
  8
0
  6
Continuous
 62
     0
370
     0
100
AcDbMText
 10
-1.182843931
 20
0.0003540175
 30
0.0
 40
1.98
 41
0.0
 71
     1
 72
     1
  1
... 1000
  7
SLDTEXTSTYLE1
 73
     1
 44
1.0
  0
ENDBLK
  5
60
330
5E
100
AcDbEntity
  8
0
100
AcDbBlockEnd
  0
BLOCK
  5
65
330
64
100
AcDbEntity
  8
0
100
AcDbBlockBegin
  2
SW_NOTE_2
 70
     0
 10
0.0
 20
0.0
 30
0.0
  3
SW_NOTE_2
  1

  0
MTEXT
  5
68
330
64
100
AcDbEntity
  8
0
  6
Continuous
 62
     0
370
     0
100
AcDbMText
 10
0.0
 20
2.5523541247
 30
0.0
 40
1.98
 41
0.0
 71
     1
 72
     1
  1
>  30
  7
SLDTEXTSTYLE2
 73
     1
 44
1.0
  0
MTEXT
  5
69
330
64
100
AcDbEntity
  8
0
  6
Continuous
 62
     0
370
     0
100
AcDbMText
 10
-1.1948752217
 20
0.0003540175
 30
0.0
 40
1.98
 41
0.0
 71
     1
 72
     1
  1
... 120
  7
SLDTEXTSTYLE1
 73
     1
 44
1.0
  0
ENDBLK
  5
66
330
64
100
AcDbEntity
  8
0
100
AcDbBlockEnd
  0
BLOCK
  5
6C
330
6B
100
AcDbEntity
  8
0
100
AcDbBlockBegin
  2
SW_NOTE_3
 70
     0
 10
0.0
 20
0.0
 30
0.0
  3
SW_NOTE_3
  1

  0
MTEXT
  5
6E
330
6B
100
AcDbEntity
  8
0
  6
Continuous
 62
     0
370
     0
100
AcDbMText
 10
0.0
 20
2.5523541247
 30
0.0
 40
1.98
 41
0.0
 71
     1
 72
     1
  1
0.5
  7
SLDTEXTSTYLE1
 73
     1
 44
1.0
  0
MTEXT
  5
6F
330
6B
100
AcDbEntity
  8
0
  6
Continuous
 62
     0
370
     0
100
AcDbMText
 10
-0.6634371821
 20
0.0003540175
 30
0.0
 40
1.98
 41
0.0
 71
     1
 72
     1
  1
... 3
  7
SLDTEXTSTYLE1
 73
     1
 44
1.0
  0
ENDBLK
  5
6D
330
6B
100
AcDbEntity
  8
0
100
AcDbBlockEnd
  0
BLOCK
  5
72
330
71
100
AcDbEntity
  8
0
100
AcDbBlockBegin
  2
SW_NOTE_4
 70
     0
 10
0.0
 20
0.0
 30
0.0
  3
SW_NOTE_4
  1

  0
MTEXT
  5
75
330
71
100
AcDbEntity
  8
0
  6
Continuous
 62
     0
370
     0
100
AcDbMText
 10
0.0
 20
2.5523541247
 30
0.0
 40
1.98
 41
0.0
 71
     1
 72
     1
  1
>  6
  7
SLDTEXTSTYLE3
 73
     1
 44
1.0
  0
MTEXT
  5
76
330
71
100
AcDbEntity
  8
0
  6
Continuous
 62
     0
370
     0
100
AcDbMText
 10
-1.2598438188
 20
0.0003540175
 30
0.0
 40
1.98
 41
0.0
 71
     1
 72
     1
  1
... 30
  7
SLDTEXTSTYLE1
 73
     1
 44
1.0
  0
ENDBLK
  5
73
330
71
100
AcDbEntity
  8
0
100
AcDbBlockEnd
  0
BLOCK
  5
7A
330
79
100
AcDbEntity
  8
0
100
AcDbBlockBegin
  2
SW_NOTE_5
 70
     0
 10
0.0
 20
0.0
 30
0.0
  3
SW_NOTE_5
  1

  0
MTEXT
  5
7C
330
79
100
AcDbEntity
  8
0
  6
Continuous
 62
     0
370
     0
100
AcDbMText
 10
0.0
 20
2.5523541247
 30
0.0
 40
1.98
 41
0.0
 71
     1
 72
     1
  1
>  3
  7
SLDTEXTSTYLE3
 73
     1
 44
1.0
  0
MTEXT
  5
7D
330
79
100
AcDbEntity
  8
0
  6
Continuous
 62
     0
370
     0
100
AcDbMText
 10
0.2189688385
 20
0.0003540175
 30
0.0
 40
1.98
 41
0.0
 71
     1
 72
     1
  1
... 6
  7
SLDTEXTSTYLE1
 73
     1
 44
1.0
  0
ENDBLK
  5
7B
330
79
100
AcDbEntity
  8
0
100
AcDbBlockEnd
  0
BLOCK
  5
81
330
80
100
AcDbEntity
  8
0
100
AcDbBlockBegin
  2
Symbol Werkstueckkanten
 70
     0
 10
0.0
 20
0.0
 30
0.0
  3
Symbol Werkstueckkanten
  1

  0
LINE
  5
83
330
80
100
AcDbEntity
  8
0
  6
CENTERX2
 62
     7
370
     0
100
AcDbLine
 10
118.1471737647
 20
181.3932943114
 30
0.0
 11
123.5867186448
 21
186.5924486876
 31
0.0
  0
LINE
  5
84
330
80
100
AcDbEntity
  8
0
  6
Continuous
 62
     7
370
     0
100
AcDbLine
 10
123.5867186448
 20
191.0818253728
 30
0.0
 11
123.5867186448
 21
187.0532078111
 31
0.0
  0
LINE
  5
85
330
80
100
AcDbEntity
  8
0
  6
Continuous
 62
     7
370
     0
100
AcDbLine
 10
123.5867186448
 20
187.0532078111
 30
0.0
 11
129.7440240071
 21
187.0532078111
 31
0.0
  0
LINE
  5
86
330
80
100
AcDbEntity
  8
0
  6
Continuous
 62
     7
370
     0
100
AcDbLine
 10
120.2519619149
 20
182.9861389816
 30
0.0
 11
119.7611612327
 21
183.4253247005
 31
0.0
  0
LINE
  5
87
330
80
100
AcDbEntity
  8
0
  6
Continuous
 62
     7
370
     0
100
AcDbLine
 10
118.1471737647
 20
181.3932943114
 30
0.0
 11
119.7611612327
 21
183.4253247005
 31
0.0
  0
LINE
  5
88
330
80
100
AcDbEntity
  8
0
  6
Continuous
 62
     7
370
     0
100
AcDbLine
 10
118.1471737647
 20
181.3932943114
 30
0.0
 11
120.2519619149
 21
182.9861389816
 31
0.0
  0
LINE
  5
89
330
80
100
AcDbEntity
  8
0
  6
Continuous
 62
     7
370
     0
100
AcDbLine
 10
118.1471737647
 20
181.3932943114
 30
0.0
 11
123.5867186448
 21
186.5924486876
 31
0.0
  0
LINE
  5
8A
330
80
100
AcDbEntity
  8
0
  6
Continuous
 62
     7
370
     0
100
AcDbLine
 10
118.1471737647
 20
181.3932943114
 30
0.0
 11
118.1471737647
 21
175.9414182744
 31
0.0
  0
LINE
  5
8B
330
80
100
AcDbEntity
  8
0
  6
Continuous
 62
     7
370
     0
100
AcDbLine
 10
118.1471737647
 20
181.3932943114
 30
0.0
 11
112.2956023252
 21
181.3932943114
 31
0.0
  0
LINE
  5
8C
330
80
100
AcDbEntity
  8
0
  6
Continuous
 62
     7
370
     0
100
AcDbLine
 10
123.5867186448
 20
186.5924486876
 30
0.0
 11
129.7440240071
 21
186.5924486876
 31
0.0
  0
LINE
  5
8D
330
80
100
AcDbEntity
  8
0
  6
Continuous
 62
     7
370
     0
100
AcDbLine
 10
141.9134206797
 20
185.6824420368
 30
0.0
 11
148.4485660604
 21
185.6824420368
 31
0.0
  0
LINE
  5
8E
330
80
100
AcDbEntity
  8
0
  6
CENTERX2
 62
     7
370
     0
100
AcDbLine
 10
136.1300354046
 20
179.5837596661
 30
0.0
 11
141.8707232223
 21
185.2144607955
 31
0.0
  0
LINE
  5
8F
330
80
100
AcDbEntity
  8
0
  6
Continuous
 62
     7
370
     0
100
AcDbLine
 10
141.8707232223
 20
185.2144607955
 30
0.0
 11
148.4485660604
 21
185.2144607955
 31
0.0
  0
LINE
  5
90
330
80
100
AcDbEntity
  8
0
  6
Continuous
 62
     7
370
     0
100
AcDbLine
 10
141.9134206797
 20
185.6824420368
 30
0.0
 11
141.9134206797
 21
189.592671436
 31
0.0
  0
LINE
  5
91
330
80
100
AcDbEntity
  8
0
  6
Continuous
 62
     7
370
     0
100
AcDbLine
 10
139.2367359833
 20
182.0191107677
 30
0.0
 11
138.5653865063
 21
182.6904602448
 31
0.0
  0
LINE
  5
92
330
80
100
AcDbEntity
  8
0
  6
Continuous
 62
     7
370
     0
100
AcDbLine
 10
136.1300354046
 20
179.5837596661
 30
0.0
 11
138.5653865063
 21
182.6904602448
 31
0.0
  0
LINE
  5
93
330
80
100
AcDbEntity
  8
0
  6
Continuous
 62
     7
370
     0
100
AcDbLine
 10
136.1300354046
 20
179.5837596661
 30
0.0
 11
139.2367359833
 21
182.0191107677
 31
0.0
  0
LINE
  5
94
330
80
100
AcDbEntity
  8
0
  6
Continuous
 62
     7
370
     0
100
AcDbLine
 10
136.1300354046
 20
179.5837596661
 30
0.0
 11
141.8707232223
 21
185.2144607955
 31
0.0
  0
LINE
  5
95
330
80
100
AcDbEntity
  8
0
  6
Continuous
 62
     7
370
     0
100
AcDbLine
 10
136.1300354046
 20
186.1022628125
 30
0.0
 11
136.1300354046
 21
179.5837596661
 31
0.0
  0
LINE
  5
96
330
80
100
AcDbEntity
  8
0
  6
Continuous
 62
     7
370
     0
100
AcDbLine
 10
136.1300354046
 20
179.5837596661
 30
0.0
 11
142.7546471214
 21
179.5837596661
 31
0.0
  0
LINE
  5
97
330
80
100
AcDbEntity
  8
0
  6
Continuous
 62
     7
370
     0
100
AcDbLine
 10
141.8707232223
 20
185.2144607955
 30
0.0
 11
148.4485660604
 21
185.2144607955
 31
0.0
  0
MTEXT
  5
99
330
80
100
AcDbEntity
  8
0
  6
Continuous
 62
     7
370
     0
100
AcDbMText
 10
126.1436114609
 20
197.5683356532
 30
0.0
 40
2.6458333333
 41
0.0
 71
     1
 72
     1
  1
ISO 13715
  7
SLDTEXTSTYLE4
 73
     1
 44
1.0
  0
MTEXT
  5
9A
330
80
100
AcDbEntity
  8
0
  6
Continuous
 62
     7
370
     0
100
AcDbMText
 10
124.3026421188
 20
189.8656698088
 30
0.0
 40
1.8520833333
 41
0.0
 71
     1
 72
     1
  1
-0,1
  7
SLDTEXTSTYLE4
 73
     1
 44
1.0
  0
MTEXT
  5
9B
330
80
100
AcDbEntity
  8
0
  6
Continuous
 62
     7
370
     0
100
AcDbMText
 10
142.8253141727
 20
188.5232548467
 30
0.0
 40
1.5875
 41
0.0
 71
     1
 72
     1
  1
+0,1
  7
SLDTEXTSTYLE4
 73
     1
 44
1.0
  0
ENDBLK
  5
82
330
80
100
AcDbEntity
  8
0
100
AcDbBlockEnd
  0
BLOCK
  5
9D
330
9C
100
AcDbEntity
  8
0
100
AcDbBlockBegin
  2
effeff Logo fuer Schriftkopf
 70
     0
 10
0.0
 20
0.0
 30
0.0
  3
effeff Logo fuer Schriftkopf
  1

  0
ARC
  5
9F
330
9C
100
AcDbEntity
  8
0
  6
Continuous
 62
     7
370
     0
100
AcDbCircle
 10
1.5461354142
 20
5.6065013727
 30
0.0
 40
0.0525253275120075
100
AcDbArc
 50
14.042087
 51
119.12115
  0
ARC
  5
A0
330
9C
100
AcDbEntity
  8
0
  6
Continuous
 62
     7
370
     0
100
AcDbCircle
 10
1.4511135489
 20
6.0184804828
 30
0.0
 40
0.114299991925452
100
AcDbArc
 50
294.9922136483
 51
359.3292419917
  0
ARC
  5
A1
330
9C
100
AcDbEntity
  8
0
  6
Continuous
 62
     7
370
     0
100
AcDbCircle
 10
1.9291769646
 20
5.7452059467
 30
0.0
 40
0.0972990179999973
100
AcDbArc
 50
109.81992
 51
294.69529
  0
ARC
  5
A2
330
9C
100
AcDbEntity
  8
0
  6
Continuous
 62
     7
370
     0
100
AcDbCircle
 10
2.3825167488
 20
6.9999303867
 30
0.0
 40
0.3048000000000165
100
AcDbArc
 50
359.90917
 51
114.3759
  0
ARC
  5
A3
330
9C
100
AcDbEntity
  8
0
  6
Continuous
 62
     7
370
     0
100
AcDbCircle
 10
1.9546890294
 20
6.7224183687
 30
0.0
 40
0.3810000000000072
100
AcDbArc
 50
114.3759
 51
179.32923
  0
ARC
  5
A4
330
9C
100
AcDbEntity
  8
0
  6
Continuous
 62
     7
370
     0
100
AcDbCircle
 10
2.0442324876
 20
6.6461391207
 30
0.0
 40
0.2314318434600052
100
AcDbArc
 50
114.7393
 51
175.97808
  0
ARC
  5
A5
330
9C
100
AcDbEntity
  8
0
  6
Continuous
 62
     7
370
     0
100
AcDbCircle
 10
2.392905933
 20
6.4019059287
 30
0.0
 40
0.057149999999992
100
AcDbArc
 50
295.35791
 51
0.0
  0
ARC
  5
A6
330
9C
100
AcDbEntity
  8
0
  6
Continuous
 62
     7
370
     0
100
AcDbCircle
 10
1.9760366118
 20
5.8175006967
 30
0.0
 40
0.4276628226000012
100
AcDbArc
 50
207.77528
 51
296.18968
  0
ARC
  5
A7
330
9C
100
AcDbEntity
  8
0
  6
Continuous
 62
     7
370
     0
100
AcDbCircle
 10
3.181460871
 20
7.3253363907
 30
0.0
 40
0.1071587036399999
100
AcDbArc
 50
287.70296
 51
1.02601
  0
ARC
  5
A8
330
9C
100
AcDbEntity
  8
0
  6
Continuous
 62
     7
370
     0
100
AcDbCircle
 10
3.7758697914
 20
8.3563513467
 30
0.0
 40
0.1282890627000104
100
AcDbArc
 50
281.08067
 51
84.3963
  0
ARC
  5
A9
330
9C
100
AcDbEntity
  8
0
  6
Continuous
 62
     7
370
     0
100
AcDbCircle
 10
3.7605388848
 20
8.0430946707
 30
0.0
 40
0.4418115014400044
100
AcDbArc
 50
86.384874
 51
170.97251
  0
ARC
  5
AA
330
9C
100
AcDbEntity
  8
0
  6
Continuous
 62
     7
370
     0
100
AcDbCircle
 10
3.8092088154
 20
7.9509437247
 30
0.0
 40
0.279644482620006
100
AcDbArc
 50
91.779404
 51
182.92195
  0
ARC
  5
AB
330
9C
100
AcDbEntity
  8
0
  6
Continuous
 62
     7
370
     0
100
AcDbCircle
 10
4.5776149494
 20
8.3694295527
 30
0.0
 40
0.4926781103999948
100
AcDbArc
 50
91.783522
 51
177.30533
  0
ARC
  5
AC
330
9C
100
AcDbEntity
  8
0
  6
Continuous
 62
     7
370
     0
100
AcDbCircle
 10
4.5594549654
 20
8.7243706767
 30
0.0
 40
0.1375270401600086
100
AcDbArc
 50
272.72508
 51
88.82243
  0
ARC
  5
AD
330
9C
100
AcDbEntity
  8
0
  6
Continuous
 62
     7
370
     0
100
AcDbCircle
 10
4.5716431554
 20
8.3538961827
 30
0.0
 40
0.2331714894600071
100
AcDbArc
 50
91.388437
 51
181.80322
  0
ARC
  5
AE
330
9C
100
AcDbEntity
  8
0
  6
Continuous
 62
     7
370
     0
100
AcDbCircle
 10
4.8465224634
 20
7.8564610587
 30
0.0
 40
0.1197246780000045
100
AcDbArc
 50
295.29521
 51
125.42294
  0
ARC
  5
AF
330
9C
100
AcDbEntity
  8
0
  6
Continuous
 62
     7
370
     0
100
AcDbCircle
 10
3.0269873166
 20
4.8781886307
 30
0.0
 40
0.284246520660011
100
AcDbArc
 50
251.71354
 51
299.26417
  0
ARC
  5
B0
330
9C
100
AcDbEntity
  8
0
  6
Continuous
 62
     7
370
     0
100
AcDbCircle
 10
2.8778631546
 20
5.2212044547
 30
0.0
 40
0.6574574100000007
100
AcDbArc
 50
291.00666
 51
357.16247
  0
ARC
  5
B1
330
9C
100
AcDbEntity
  8
0
  6
Continuous
 62
     7
370
     0
100
AcDbCircle
 10
3.6840946638
 20
5.5983426387
 30
0.0
 40
0.6600926345999976
100
AcDbArc
 50
286.42885
 51
355.30262
  0
ARC
  5
B2
330
9C
100
AcDbEntity
  8
0
  6
Continuous
 62
     7
370
     0
100
AcDbCircle
 10
2.994634854
 20
4.7281493067
 30
0.0
 40
0.132248132760019
100
AcDbArc
 50
103.02671
 51
269.56768
  0
ARC
  5
B3
330
9C
100
AcDbEntity
  8
0
  6
Continuous
 62
     7
370
     0
100
AcDbCircle
 10
2.9418569052
 20
5.1962794347
 30
0.0
 40
0.3400614204600096
100
AcDbArc
 50
273.87284
 51
1.52447
  0
ARC
  5
B4
330
9C
100
AcDbEntity
  8
0
  6
Continuous
 62
     7
370
     0
100
AcDbCircle
 10
5.8290361194
 20
7.0548004827
 30
0.0
 40
0.3693632922599989
100
AcDbArc
 50
200.58087
 51
290.78248
  0
ARC
  5
B5
330
9C
100
AcDbEntity
  8
0
  6
Continuous
 62
     7
370
     0
100
AcDbCircle
 10
5.9163872274
 20
7.9538919027
 30
0.0
 40
0.2403264179999927
100
AcDbArc
 50
114.61159
 51
180.35762
  0
ARC
  5
B6
330
9C
100
AcDbEntity
  8
0
  6
Continuous
 62
     7
370
     0
100
AcDbCircle
 10
6.2384350974
 20
8.2807670427
 30
0.0
 40
0.0772823905199964
100
AcDbArc
 50
357.28465
 51
113.30025
  0
ARC
  5
B7
330
9C
100
AcDbEntity
  8
0
  6
Continuous
 62
     7
370
     0
100
AcDbCircle
 10
5.9385560934
 20
7.9766292207
 30
0.0
 40
0.5044695117600148
100
AcDbArc
 50
112.41504
 51
183.43965
  0
ARC
  5
B8
330
9C
100
AcDbEntity
  8
0
  6
Continuous
 62
     7
370
     0
100
AcDbCircle
 10
6.2380533354
 20
8.3165498007
 30
0.0
 40
0.3055048500000221
100
AcDbArc
 50
0.0
 51
106.97704
  0
ARC
  5
B9
330
9C
100
AcDbEntity
  8
0
  6
Continuous
 62
     7
370
     0
100
AcDbCircle
 10
6.4009971294
 20
7.6014013707
 30
0.0
 40
0.1452288179999985
100
AcDbArc
 50
295.94359
 51
0.42713
  0
ARC
  5
BA
330
9C
100
AcDbEntity
  8
0
  6
Continuous
 62
     7
370
     0
100
AcDbCircle
 10
6.8115970194
 20
8.2691564487
 30
0.0
 40
0.1202265388200076
100
AcDbArc
 50
113.66313
 51
294.00122
  0
ARC
  5
BB
330
9C
100
AcDbEntity
  8
0
  6
Continuous
 62
     7
370
     0
100
AcDbCircle
 10
7.6719194034
 20
9.2364872547
 30
0.0
 40
0.5536150980000052
100
AcDbArc
 50
96.428599
 51
180.0
  0
ARC
  5
BC
330
9C
100
AcDbEntity
  8
0
  6
Continuous
 62
     7
370
     0
100
AcDbCircle
 10
7.6290523314
 20
9.6554630487
 30
0.0
 40
0.1325450003400153
100
AcDbArc
 50
272.34792
 51
98.29338
  0
ARC
  5
BD
330
9C
100
AcDbEntity
  8
0
  6
Continuous
 62
     7
370
     0
100
AcDbCircle
 10
7.6582163574
 20
9.2543104347
 30
0.0
 40
0.2701858985399985
100
AcDbArc
 50
95.043217
 51
180.0
  0
ARC
  5
BE
330
9C
100
AcDbEntity
  8
0
  6
Continuous
 62
     7
370
     0
100
AcDbCircle
 10
8.4764115714
 20
9.6384140607
 30
0.0
 40
0.534495504539993
100
AcDbArc
 50
94.705414
 51
178.23325
  0
ARC
  5
BF
330
9C
100
AcDbEntity
  8
0
  6
Continuous
 62
     7
370
     0
100
AcDbCircle
 10
8.4356224734
 20
10.0395072387
 30
0.0
 40
0.1316358962400024
100
AcDbArc
 50
290.29752
 51
91.33061
  0
ARC
  5
C0
330
9C
100
AcDbEntity
  8
0
  6
Continuous
 62
     7
370
     0
100
AcDbCircle
 10
8.4973040874
 20
9.6027715107
 30
0.0
 40
0.3140012338200112
100
AcDbArc
 50
103.33264
 51
180.0
  0
ARC
  5
C1
330
9C
100
AcDbEntity
  8
0
  6
Continuous
 62
     7
370
     0
100
AcDbCircle
 10
8.6895665934
 20
9.1341681807
 30
0.0
 40
0.1138229880000028
100
AcDbArc
 50
294.19729
 51
111.34859
  0
ARC
  5
C2
330
9C
100
AcDbEntity
  8
0
  6
Continuous
 62
     7
370
     0
100
AcDbCircle
 10
6.7133028294
 20
6.5466295407
 30
0.0
 40
0.4307737409400149
100
AcDbArc
 50
279.16205
 51
358.88757
  0
ARC
  5
C3
330
9C
100
AcDbEntity
  8
0
  6
Continuous
 62
     7
370
     0
100
AcDbCircle
 10
6.7241948574
 20
6.5243501847
 30
0.0
 40
0.6634968619800019
100
AcDbArc
 50
286.92178
 51
6.06447
  0
ARC
  5
C4
330
9C
100
AcDbEntity
  8
0
  6
Continuous
 62
     7
370
     0
100
AcDbCircle
 10
6.8711572254
 20
6.0180590967
 30
0.0
 40
0.136518441720009
100
AcDbArc
 50
130.83302
 51
289.76215
  0
ARC
  5
C5
330
9C
100
AcDbEntity
  8
0
  6
Continuous
 62
     7
370
     0
100
AcDbCircle
 10
7.6636989474
 20
6.4068993147
 30
0.0
 40
0.1232306400000105
100
AcDbArc
 50
92.959037
 51
252.07449
  0
ARC
  5
C6
330
9C
100
AcDbEntity
  8
0
  6
Continuous
 62
     7
370
     0
100
AcDbCircle
 10
7.5723572454
 20
6.8954601867
 30
0.0
 40
0.3752438520000135
100
AcDbArc
 50
278.0904
 51
0.0
  0
ARC
  5
C7
330
9C
100
AcDbEntity
  8
0
  6
Continuous
 62
     7
370
     0
100
AcDbCircle
 10
7.4687923014
 20
6.9344181987
 30
0.0
 40
0.7202644980000031
100
AcDbArc
 50
293.25446
 51
355.30477
  0
ARC
  5
C8
330
9C
100
AcDbEntity
  8
0
  6
Continuous
 62
     7
370
     0
100
AcDbCircle
 10
7.7169299814
 20
6.4871760147
 30
0.0
 40
0.2175467785200011
100
AcDbArc
 50
227.67709
 51
279.58748
  0
ARC
  5
C9
330
9C
100
AcDbEntity
  8
0
  6
Continuous
 62
     7
370
     0
100
AcDbCircle
 10
5.4333112314
 20
6.9062081967
 30
0.0
 40
0.0533400000000208
100
AcDbArc
 50
20.580869
 51
114.22398
  0
ARC
  5
CA
330
9C
100
AcDbEntity
  8
0
  6
Continuous
 62
     7
370
     0
100
AcDbCircle
 10
2.373855933
 20
6.9831054267
 30
0.0
 40
0.0761999999999987
100
AcDbArc
 50
0.0
 51
116.41669
  0
ARC
  5
CB
330
9C
100
AcDbEntity
  8
0
  6
Continuous
 62
     7
370
     0
100
AcDbCircle
 10
5.8147333794
 20
7.0364218047
 30
0.0
 40
0.0990600000000057
100
AcDbArc
 50
116.48141
 51
294.93437
  0
ARC
  5
CC
330
9C
100
AcDbEntity
  8
0
  6
Continuous
 62
     7
370
     0
100
AcDbCircle
 10
5.3271905394
 20
7.3243305507
 30
0.0
 40
0.1142999999999977
100
AcDbArc
 50
295.31863
 51
0.5988
  0
ARC
  5
CD
330
9C
100
AcDbEntity
  8
0
  6
Continuous
 62
     7
370
     0
100
AcDbCircle
 10
2.9579764056
 20
6.9770673387
 30
0.0
 40
0.1219199999999969
100
AcDbArc
 50
113.79896
 51
292.78069
  0
ARC
  5
CE
330
9C
100
AcDbEntity
  8
0
  6
Continuous
 62
     7
370
     0
100
AcDbCircle
 10
3.8201031294
 20
5.1016001727
 30
0.0
 40
0.1455113599799995
100
AcDbArc
 50
104.6236
 51
290.38355
  0
ARC
  5
CF
330
9C
100
AcDbEntity
  8
0
  6
Continuous
 62
     7
370
     0
100
AcDbCircle
 10
3.6706753104
 20
5.6548533207
 30
0.0
 40
0.427512228539999
100
AcDbArc
 50
285.03861
 51
359.88519
  0
ARC
  5
D0
330
9C
100
AcDbEntity
  8
0
  6
Continuous
 62
     7
370
     0
100
AcDbCircle
 10
7.0421934594
 20
8.6357691267
 30
0.0
 40
0.106679999999992
100
AcDbArc
 50
296.25486
 51
2.92638
  0
LINE
  5
D1
330
9C
100
AcDbEntity
  8
0
  6
Continuous
 62
     7
370
     0
100
AcDbLine
 10
0.6113440656
 20
2.9625495867
 30
0.0
 11
9.5832371454
 21
2.9625495867
 31
0.0
  0
LINE
  5
D2
330
9C
100
AcDbEntity
  8
0
  6
Continuous
 62
     7
370
     0
100
AcDbLine
 10
0.0
 20
1.9513161507
 30
0.0
 11
9.9297086394
 21
1.9569625707
 31
0.0
  0
LINE
  5
D3
330
9C
100
AcDbEntity
  8
0
  6
Continuous
 62
     7
370
     0
100
AcDbLine
 10
0.6113440656
 20
11.9340906987
 30
0.0
 11
9.5832371454
 21
11.9340906987
 31
0.0
  0
LINE
  5
D4
330
9C
100
AcDbEntity
  8
0
  6
Continuous
 62
     7
370
     0
100
AcDbLine
 10
0.90469212
 20
11.6286338547
 30
0.0
 11
9.3048709254
 21
11.6286338547
 31
0.0
  0
LINE
  5
D5
330
9C
100
AcDbEntity
  8
0
  6
Continuous
 62
     7
370
     0
100
AcDbLine
 10
0.90469212
 20
3.2628065427
 30
0.0
 11
9.3048709254
 21
3.2628065427
 31
0.0
  0
LINE
  5
D6
330
9C
100
AcDbEntity
  8
0
  6
Continuous
 62
     7
370
     0
100
AcDbLine
 10
9.5832371454
 20
2.9625495867
 30
0.0
 11
9.5832371454
 21
11.9340906987
 31
0.0
  0
LINE
  5
D7
330
9C
100
AcDbEntity
  8
0
  6
Continuous
 62
     7
370
     0
100
AcDbLine
 10
0.90469212
 20
11.6286338547
 30
0.0
 11
0.90469212
 21
3.2628065427
 31
0.0
  0
LINE
  5
D8
330
9C
100
AcDbEntity
  8
0
  6
Continuous
 62
     7
370
     0
100
AcDbLine
 10
0.6113440656
 20
11.9340906987
 30
0.0
 11
0.6113440656
 21
2.9625495867
 31
0.0
  0
LINE
  5
D9
330
9C
100
AcDbEntity
  8
0
  6
Continuous
 62
     7
370
     0
100
AcDbLine
 10
0.90469212
 20
5.6376626007
 30
0.0
 11
1.4994046974
 21
5.9148835347
 31
0.0
  0
LINE
  5
DA
330
9C
100
AcDbEntity
  8
0
  6
Continuous
 62
     7
370
     0
100
AcDbLine
 10
0.90469212
 20
5.3665224267
 30
0.0
 11
1.5205735146
 21
5.6523874887
 31
0.0
  0
LINE
  5
DB
330
9C
100
AcDbEntity
  8
0
  6
Continuous
 62
     7
370
     0
100
AcDbLine
 10
1.5654057084
 20
6.0171424107
 30
0.0
 11
1.5737150898
 21
6.7268791167
 31
0.0
  0
LINE
  5
DC
330
9C
100
AcDbEntity
  8
0
  6
Continuous
 62
     7
370
     0
100
AcDbLine
 10
1.797442176
 20
7.0694552667
 30
0.0
 11
2.2567193118
 21
7.2775597527
 31
0.0
  0
LINE
  5
DD
330
9C
100
AcDbEntity
  8
0
  6
Continuous
 62
     7
370
     0
100
AcDbLine
 10
2.6873163678
 20
6.9994472787
 30
0.0
 11
2.686127724
 21
6.2496430887
 31
0.0
  0
LINE
  5
DE
330
9C
100
AcDbEntity
  8
0
  6
Continuous
 62
     7
370
     0
100
AcDbLine
 10
1.8220223148
 20
6.0681011607
 30
0.0
 11
2.4173816778
 21
6.3502629027
 31
0.0
  0
LINE
  5
DF
330
9C
100
AcDbEntity
  8
0
  6
Continuous
 62
     7
370
     0
100
AcDbLine
 10
2.450055933
 20
6.4019059287
 30
0.0
 11
2.450055933
 21
6.9831054267
 31
0.0
  0
LINE
  5
E0
330
9C
100
AcDbEntity
  8
0
  6
Continuous
 62
     7
370
     0
100
AcDbLine
 10
1.813370643
 20
6.6623720067
 30
0.0
 11
1.8220223148
 21
6.0681011607
 31
0.0
  0
LINE
  5
E1
330
9C
100
AcDbEntity
  8
0
  6
Continuous
 62
     7
370
     0
100
AcDbLine
 10
1.947380535
 20
6.8563307247
 30
0.0
 11
2.3399548578
 21
7.0513486227
 31
0.0
  0
LINE
  5
E2
330
9C
100
AcDbEntity
  8
0
  6
Continuous
 62
     7
370
     0
100
AcDbLine
 10
2.6418354834
 20
6.1805662647
 30
0.0
 11
1.8809845794
 21
5.8297323207
 31
0.0
  0
LINE
  5
E3
330
9C
100
AcDbEntity
  8
0
  6
Continuous
 62
     7
370
     0
100
AcDbLine
 10
1.9695131298
 20
5.6566623087
 30
0.0
 11
3.2896302762
 21
6.2608757307
 31
0.0
  0
LINE
  5
E4
330
9C
100
AcDbEntity
  8
0
  6
Continuous
 62
     7
370
     0
100
AcDbLine
 10
2.1588398022
 20
5.4308763747
 30
0.0
 11
3.281797983
 21
5.9724709227
 31
0.0
  0
LINE
  5
E5
330
9C
100
AcDbEntity
  8
0
  6
Continuous
 62
     7
370
     0
100
AcDbLine
 10
3.281797983
 20
5.9724709227
 30
0.0
 11
3.281797983
 21
5.1877031247
 31
0.0
  0
LINE
  5
E6
330
9C
100
AcDbEntity
  8
0
  6
Continuous
 62
     7
370
     0
100
AcDbLine
 10
3.5345144448
 20
6.0959865507
 30
0.0
 11
3.5345144448
 21
5.1886571487
 31
0.0
  0
LINE
  5
E7
330
9C
100
AcDbEntity
  8
0
  6
Continuous
 62
     7
370
     0
100
AcDbLine
 10
3.2896302762
 20
6.2608757307
 30
0.0
 11
3.2876616492
 21
6.9958422567
 31
0.0
  0
LINE
  5
E8
330
9C
100
AcDbEntity
  8
0
  6
Continuous
 62
     7
370
     0
100
AcDbLine
 10
3.5290717074
 20
7.1107350927
 30
0.0
 11
3.5311216398
 21
6.3581404587
 31
0.0
  0
LINE
  5
E9
330
9C
100
AcDbEntity
  8
0
  6
Continuous
 62
     7
370
     0
100
AcDbLine
 10
3.5311216398
 20
6.3581404587
 30
0.0
 11
4.0981866474
 21
6.6152910747
 31
0.0
  0
LINE
  5
EA
330
9C
100
AcDbEntity
  8
0
  6
Continuous
 62
     7
370
     0
100
AcDbLine
 10
3.5290717074
 20
7.1107350927
 30
0.0
 11
4.0818752754
 21
7.3661940687
 31
0.0
  0
LINE
  5
EB
330
9C
100
AcDbEntity
  8
0
  6
Continuous
 62
     7
370
     0
100
AcDbLine
 10
2.9087781804
 20
7.0886195667
 30
0.0
 11
3.214045896
 21
7.2232520127
 31
0.0
  0
LINE
  5
EC
330
9C
100
AcDbEntity
  8
0
  6
Continuous
 62
     7
370
     0
100
AcDbLine
 10
3.2886023382
 20
7.3272551067
 30
0.0
 11
3.3242000064
 21
8.1124183827
 31
0.0
  0
LINE
  5
ED
330
9C
100
AcDbEntity
  8
0
  6
Continuous
 62
     7
370
     0
100
AcDbLine
 10
3.5138717124
 20
7.3659685167
 30
0.0
 11
3.5299282716
 21
7.9366889907
 31
0.0
  0
LINE
  5
EE
330
9C
100
AcDbEntity
  8
0
  6
Continuous
 62
     7
370
     0
100
AcDbLine
 10
3.5138717124
 20
7.3659685167
 30
0.0
 11
4.0846931514
 21
7.6341864207
 31
0.0
  0
LINE
  5
EF
330
9C
100
AcDbEntity
  8
0
  6
Continuous
 62
     7
370
     0
100
AcDbLine
 10
4.0846931514
 20
7.6341864207
 30
0.0
 11
4.0846931514
 21
8.3925920667
 31
0.0
  0
LINE
  5
F0
330
9C
100
AcDbEntity
  8
0
  6
Continuous
 62
     7
370
     0
100
AcDbLine
 10
4.3203622254
 20
7.7516121447
 30
0.0
 11
4.3385877414
 21
8.3465596467
 31
0.0
  0
LINE
  5
F1
330
9C
100
AcDbEntity
  8
0
  6
Continuous
 62
     7
370
     0
100
AcDbLine
 10
4.0818752754
 20
7.3661940687
 30
0.0
 11
4.0981866474
 21
6.6152910747
 31
0.0
  0
LINE
  5
F2
330
9C
100
AcDbEntity
  8
0
  6
Continuous
 62
     7
370
     0
100
AcDbLine
 10
3.5345144448
 20
6.0959865507
 30
0.0
 11
4.0981866474
 21
6.3411463347
 31
0.0
  0
LINE
  5
F3
330
9C
100
AcDbEntity
  8
0
  6
Continuous
 62
     7
370
     0
100
AcDbLine
 10
4.3293812574
 20
6.7258252707
 30
0.0
 11
5.3760705534
 21
7.2210094467
 31
0.0
  0
LINE
  5
F4
330
9C
100
AcDbEntity
  8
0
  6
Continuous
 62
     7
370
     0
100
AcDbLine
 10
5.4414844434
 20
7.3255246047
 30
0.0
 11
5.4349952514
 21
7.9463625807
 31
0.0
  0
LINE
  5
F5
330
9C
100
AcDbEntity
  8
0
  6
Continuous
 62
     7
370
     0
100
AcDbLine
 10
5.6797641294
 20
7.3597376427
 30
0.0
 11
6.3145840434
 21
7.6601226147
 31
0.0
  0
LINE
  5
F6
330
9C
100
AcDbEntity
  8
0
  6
Continuous
 62
     7
370
     0
100
AcDbLine
 10
6.3145840434
 20
7.6601226147
 30
0.0
 11
6.3156302694
 21
8.2771063947
 31
0.0
  0
LINE
  5
F7
330
9C
100
AcDbEntity
  8
0
  6
Continuous
 62
     7
370
     0
100
AcDbLine
 10
5.4114258294
 20
6.9548512287
 30
0.0
 11
4.3395326214
 21
6.4725844767
 31
0.0
  0
LINE
  5
F8
330
9C
100
AcDbEntity
  8
0
  6
Continuous
 62
     7
370
     0
100
AcDbLine
 10
4.3395326214
 20
6.4725844767
 30
0.0
 11
4.3419908334
 21
5.5363021227
 31
0.0
  0
LINE
  5
F9
330
9C
100
AcDbEntity
  8
0
  6
Continuous
 62
     7
370
     0
100
AcDbLine
 10
4.3293812574
 20
6.7258252707
 30
0.0
 11
4.3273154754
 21
7.4786652687
 31
0.0
  0
LINE
  5
FA
330
9C
100
AcDbEntity
  8
0
  6
Continuous
 62
     7
370
     0
100
AcDbLine
 10
4.3273154754
 20
7.4786652687
 30
0.0
 11
4.8976785714
 21
7.7482159107
 31
0.0
  0
LINE
  5
FB
330
9C
100
AcDbEntity
  8
0
  6
Continuous
 62
     7
370
     0
100
AcDbLine
 10
4.3203622254
 20
7.7516121447
 30
0.0
 11
4.8157559514
 21
7.9721654247
 31
0.0
  0
LINE
  5
FC
330
9C
100
AcDbEntity
  8
0
  6
Continuous
 62
     7
370
     0
100
AcDbLine
 10
5.9600940234
 20
6.7094704647
 30
0.0
 11
7.1439951354
 21
7.2827885967
 31
0.0
  0
LINE
  5
FD
330
9C
100
AcDbEntity
  8
0
  6
Continuous
 62
     7
370
     0
100
AcDbLine
 10
6.2075939094
 20
8.3516292327
 30
0.0
 11
5.8162992894
 21
8.1723847347
 31
0.0
  0
LINE
  5
FE
330
9C
100
AcDbEntity
  8
0
  6
Continuous
 62
     7
370
     0
100
AcDbLine
 10
6.1487332194
 20
8.6090221647
 30
0.0
 11
5.7461952894
 21
8.4429846507
 31
0.0
  0
LINE
  5
FF
330
9C
100
AcDbEntity
  8
0
  6
Continuous
 62
     7
370
     0
100
AcDbLine
 10
6.4645326894
 20
7.4708082867
 30
0.0
 11
5.7705617634
 21
7.1250881247
 31
0.0
  0
LINE
  5
100
330
9C
100
AcDbEntity
  8
0
  6
Continuous
 62
     7
370
     0
100
AcDbLine
 10
6.5462259474
 20
7.6014013707
 30
0.0
 11
6.5435558994
 21
8.3176882287
 31
0.0
  0
LINE
  5
101
330
9C
100
AcDbEntity
  8
0
  6
Continuous
 62
     7
370
     0
100
AcDbLine
 10
7.1558411874
 20
7.5506788407
 30
0.0
 11
5.8564947894
 21
6.9465949587
 31
0.0
  0
LINE
  5
102
330
9C
100
AcDbEntity
  8
0
  6
Continuous
 62
     7
370
     0
100
AcDbLine
 10
7.1558411874
 20
7.5506788407
 30
0.0
 11
7.1537670234
 21
8.2899034227
 31
0.0
  0
LINE
  5
103
330
9C
100
AcDbEntity
  8
0
  6
Continuous
 62
     7
370
     0
100
AcDbLine
 10
7.0893848814
 20
8.5400946927
 30
0.0
 11
6.7535920554
 21
8.3744648487
 31
0.0
  0
LINE
  5
104
330
9C
100
AcDbEntity
  8
0
  6
Continuous
 62
     7
370
     0
100
AcDbLine
 10
7.1537670234
 20
8.2899034227
 30
0.0
 11
6.8604998934
 21
8.1593248167
 31
0.0
  0
LINE
  5
105
330
9C
100
AcDbEntity
  8
0
  6
Continuous
 62
     7
370
     0
100
AcDbLine
 10
7.3736726034
 20
7.6270213347
 30
0.0
 11
7.3716342534
 21
8.4012354327
 31
0.0
  0
LINE
  5
106
330
9C
100
AcDbEntity
  8
0
  6
Continuous
 62
     7
370
     0
100
AcDbLine
 10
7.3716342534
 20
8.4012354327
 30
0.0
 11
7.9452305154
 21
8.6731337967
 31
0.0
  0
LINE
  5
107
330
9C
100
AcDbEntity
  8
0
  6
Continuous
 62
     7
370
     0
100
AcDbLine
 10
7.9452305154
 20
8.6731337967
 30
0.0
 11
7.9595827854
 21
7.9119994287
 31
0.0
  0
LINE
  5
108
330
9C
100
AcDbEntity
  8
0
  6
Continuous
 62
     7
370
     0
100
AcDbLine
 10
7.9595827854
 20
7.9119994287
 30
0.0
 11
7.3736726034
 21
7.6270213347
 31
0.0
  0
LINE
  5
109
330
9C
100
AcDbEntity
  8
0
  6
Continuous
 62
     7
370
     0
100
AcDbLine
 10
7.1487340134
 20
8.6412151407
 30
0.0
 11
7.1183043054
 21
9.2364872547
 31
0.0
  0
LINE
  5
10A
330
9C
100
AcDbEntity
  8
0
  6
Continuous
 62
     7
370
     0
100
AcDbLine
 10
7.3852984374
 20
8.6734683147
 30
0.0
 11
7.9421703234
 21
8.9259158667
 31
0.0
  0
LINE
  5
10B
330
9C
100
AcDbEntity
  8
0
  6
Continuous
 62
     7
370
     0
100
AcDbLine
 10
7.3852984374
 20
8.6734683147
 30
0.0
 11
7.3880332554
 21
9.2555799267
 31
0.0
  0
LINE
  5
10C
330
9C
100
AcDbEntity
  8
0
  6
Continuous
 62
     7
370
     0
100
AcDbLine
 10
7.9421703234
 20
9.6548930727
 30
0.0
 11
7.9421703234
 21
8.9259158667
 31
0.0
  0
LINE
  5
10D
330
9C
100
AcDbEntity
  8
0
  6
Continuous
 62
     7
370
     0
100
AcDbLine
 10
8.1833798994
 20
9.6097491447
 30
0.0
 11
8.1833798994
 21
9.0585290127
 31
0.0
  0
LINE
  5
10E
330
9C
100
AcDbEntity
  8
0
  6
Continuous
 62
     7
370
     0
100
AcDbLine
 10
8.1833798994
 20
9.0585290127
 30
0.0
 11
8.6481297954
 21
9.2401814307
 31
0.0
  0
LINE
  5
10F
330
9C
100
AcDbEntity
  8
0
  6
Continuous
 62
     7
370
     0
100
AcDbLine
 10
8.1815229054
 20
8.7810870987
 30
0.0
 11
8.7362200434
 21
9.0303464427
 31
0.0
  0
LINE
  5
110
330
9C
100
AcDbEntity
  8
0
  6
Continuous
 62
     7
370
     0
100
AcDbLine
 10
8.1815229054
 20
8.7810870987
 30
0.0
 11
8.1762361494
 21
8.0258460387
 31
0.0
  0
LINE
  5
111
330
9C
100
AcDbEntity
  8
0
  6
Continuous
 62
     7
370
     0
100
AcDbLine
 10
8.1762361494
 20
8.0258460387
 30
0.0
 11
9.3048709254
 21
8.5443062667
 31
0.0
  0
LINE
  5
112
330
9C
100
AcDbEntity
  8
0
  6
Continuous
 62
     7
370
     0
100
AcDbLine
 10
9.3048709254
 20
8.2820654907
 30
0.0
 11
8.1866397354
 21
7.7701173147
 31
0.0
  0
LINE
  5
113
330
9C
100
AcDbEntity
  8
0
  6
Continuous
 62
     7
370
     0
100
AcDbLine
 10
8.1866397354
 20
7.7701173147
 30
0.0
 11
8.1866397354
 21
6.8754607347
 31
0.0
  0
LINE
  5
114
330
9C
100
AcDbEntity
  8
0
  6
Continuous
 62
     7
370
     0
100
AcDbLine
 10
7.9514926314
 20
7.6587868287
 30
0.0
 11
7.3839786534
 21
7.3976745747
 31
0.0
  0
LINE
  5
115
330
9C
100
AcDbEntity
  8
0
  6
Continuous
 62
     7
370
     0
100
AcDbLine
 10
7.1439951354
 20
6.5382658287
 30
0.0
 11
7.1439951354
 21
7.2827885967
 31
0.0
  0
LINE
  5
116
330
9C
100
AcDbEntity
  8
0
  6
Continuous
 62
     7
370
     0
100
AcDbLine
 10
7.3839786534
 20
6.5944473267
 30
0.0
 11
7.3839786534
 21
7.3976745747
 31
0.0
  0
LINE
  5
117
330
9C
100
AcDbEntity
  8
0
  6
Continuous
 62
     7
370
     0
100
AcDbLine
 10
7.9514926314
 20
7.6587868287
 30
0.0
 11
7.9476010974
 21
6.8954601867
 31
0.0
  0
LINE
  5
118
330
9C
100
AcDbEntity
  8
0
  6
Continuous
 62
     7
370
     0
100
AcDbLine
 10
9.3048709254
 20
3.2628065427
 30
0.0
 11
9.3048709254
 21
11.6286338547
 31
0.0
  0
LINE
  5
119
330
9C
100
AcDbEntity
  8
0
  6
Continuous
 62
     7
370
     0
100
AcDbLine
 10
3.2876616492
 20
6.9958422567
 30
0.0
 11
3.005184363
 21
6.8646578607
 31
0.0
  0
LINE
  5
11A
330
9C
100
AcDbEntity
  8
0
  6
Continuous
 62
     7
370
     0
100
AcDbLine
 10
4.0981866474
 20
6.3411463347
 30
0.0
 11
4.0981866474
 21
5.6539968327
 31
0.0
  0
LINE
  5
11B
330
9C
100
AcDbEntity
  8
0
  6
Continuous
 62
     7
370
     0
100
AcDbLine
 10
5.6760653814
 20
7.9523915247
 30
0.0
 11
5.6797641294
 21
7.3597376427
 31
0.0
  0
LINE
  5
11C
330
9C
100
AcDbEntity
  8
0
  6
Continuous
 62
     7
370
     0
100
AcDbLine
 10
3.6643808094
 20
1.2430165767
 30
0.0
 11
3.340641528
 21
0.3898178259
 31
0.0
  0
LINE
  5
11D
330
9C
100
AcDbEntity
  8
0
  6
Continuous
 62
     7
370
     0
100
AcDbLine
 10
3.0413603892
 20
0.8813241327
 30
0.0
 11
3.2997772206
 21
0.8813241327
 31
0.0
  0
LINE
  5
11E
330
9C
100
AcDbEntity
  8
0
  6
Continuous
 62
     7
370
     0
100
AcDbLine
 10
1.6392714738
 20
0.4317027561
 30
0.0
 11
1.384067844
 21
0.4317027561
 31
0.0
  0
LINE
  5
11F
330
9C
100
AcDbEntity
  8
0
  6
Continuous
 62
     7
370
     0
100
AcDbLine
 10
1.384067844
 20
0.4317027561
 30
0.0
 11
1.0801369812
 21
1.2427895007
 31
0.0
  0
LINE
  5
120
330
9C
100
AcDbEntity
  8
0
  6
Continuous
 62
     7
370
     0
100
AcDbLine
 10
1.0801369812
 20
1.2427895007
 30
0.0
 11
0.8068260216
 21
1.2427895007
 31
0.0
  0
LINE
  5
121
330
9C
100
AcDbEntity
  8
0
  6
Continuous
 62
     7
370
     0
100
AcDbLine
 10
0.8068260216
 20
1.2427895007
 30
0.0
 11
0.3468470838
 21
0.0288053907
 31
0.0
  0
LINE
  5
122
330
9C
100
AcDbEntity
  8
0
  6
Continuous
 62
     7
370
     0
100
AcDbLine
 10
0.3468470838
 20
0.0288053907
 30
0.0
 11
0.6169070466
 21
0.0288053907
 31
0.0
  0
LINE
  5
123
330
9C
100
AcDbEntity
  8
0
  6
Continuous
 62
     7
370
     0
100
AcDbLine
 10
0.6169070466
 20
0.0288053907
 30
0.0
 11
0.712017753
 21
0.2990165343
 31
0.0
  0
LINE
  5
124
330
9C
100
AcDbEntity
  8
0
  6
Continuous
 62
     7
370
     0
100
AcDbLine
 10
0.712017753
 20
0.2990165343
 30
0.0
 11
1.1663641392
 21
0.2990922009
 31
0.0
  0
LINE
  5
125
330
9C
100
AcDbEntity
  8
0
  6
Continuous
 62
     7
370
     0
100
AcDbLine
 10
1.1663641392
 20
0.2990922009
 30
0.0
 11
1.2580347966
 21
0.0288053907
 31
0.0
  0
LINE
  5
126
330
9C
100
AcDbEntity
  8
0
  6
Continuous
 62
     7
370
     0
100
AcDbLine
 10
1.2580347966
 20
0.0288053907
 30
0.0
 11
1.5349747812
 21
0.0288053907
 31
0.0
  0
LINE
  5
127
330
9C
100
AcDbEntity
  8
0
  6
Continuous
 62
     7
370
     0
100
AcDbLine
 10
1.5349747812
 20
0.0288053907
 30
0.0
 11
1.4924093088
 21
0.1422880695
 31
0.0
  0
LINE
  5
128
330
9C
100
AcDbEntity
  8
0
  6
Continuous
 62
     7
370
     0
100
AcDbLine
 10
3.2484793806
 20
0.1466731509
 30
0.0
 11
3.2040994338
 21
0.0289566477
 31
0.0
  0
LINE
  5
129
330
9C
100
AcDbEntity
  8
0
  6
Continuous
 62
     7
370
     0
100
AcDbLine
 10
3.2040994338
 20
0.0289566477
 30
0.0
 11
3.474386244
 21
0.0289566477
 31
0.0
  0
LINE
  5
12A
330
9C
100
AcDbEntity
  8
0
  6
Continuous
 62
     7
370
     0
100
AcDbLine
 10
3.474386244
 20
0.0289566477
 30
0.0
 11
3.5695725408
 21
0.3001506189
 31
0.0
  0
LINE
  5
12B
330
9C
100
AcDbEntity
  8
0
  6
Continuous
 62
     7
370
     0
100
AcDbLine
 10
3.5695725408
 20
0.3001506189
 30
0.0
 11
4.0237674414
 21
0.3002262093
 31
0.0
  0
LINE
  5
12C
330
9C
100
AcDbEntity
  8
0
  6
Continuous
 62
     7
370
     0
100
AcDbLine
 10
4.0237674414
 20
0.3002262093
 30
0.0
 11
4.1157027414
 21
0.0285786195
 31
0.0
  0
LINE
  5
12D
330
9C
100
AcDbEntity
  8
0
  6
Continuous
 62
     7
370
     0
100
AcDbLine
 10
4.1157027414
 20
0.0285786195
 30
0.0
 11
4.3929831114
 21
0.0286542099
 31
0.0
  0
LINE
  5
12E
330
9C
100
AcDbEntity
  8
0
  6
Continuous
 62
     7
370
     0
100
AcDbLine
 10
4.3929831114
 20
0.0286542099
 30
0.0
 11
3.9383723874
 21
1.2430165767
 31
0.0
  0
LINE
  5
12F
330
9C
100
AcDbEntity
  8
0
  6
Continuous
 62
     7
370
     0
100
AcDbLine
 10
3.9383723874
 20
1.2430165767
 30
0.0
 11
3.6643808094
 21
1.2430165767
 31
0.0
  0
LINE
  5
130
330
9C
100
AcDbEntity
  8
0
  6
Continuous
 62
     7
370
     0
100
AcDbLine
 10
0.7814606418
 20
0.4980837003
 30
0.0
 11
0.939625629
 21
0.9433196907
 31
0.0
  0
LINE
  5
131
330
9C
100
AcDbEntity
  8
0
  6
Continuous
 62
     7
370
     0
100
AcDbLine
 10
0.9431790636
 20
0.9433196907
 30
0.0
 11
1.0962407844
 21
0.4980081099
 31
0.0
  0
LINE
  5
132
330
9C
100
AcDbEntity
  8
0
  6
Continuous
 62
     7
370
     0
100
AcDbLine
 10
1.0962407844
 20
0.4980081099
 30
0.0
 11
0.7814606418
 21
0.4980837003
 31
0.0
  0
LINE
  5
133
330
9C
100
AcDbEntity
  8
0
  6
Continuous
 62
     7
370
     0
100
AcDbLine
 10
2.576807394
 20
0.4317027561
 30
0.0
 11
2.3998924062
 21
0.4319296035
 31
0.0
  0
LINE
  5
134
330
9C
100
AcDbEntity
  8
0
  6
Continuous
 62
     7
370
     0
100
AcDbLine
 10
2.1032573886
 20
0.8810216187
 30
0.0
 11
2.3606535972
 21
0.8810216187
 31
0.0
  0
LINE
  5
135
330
9C
100
AcDbEntity
  8
0
  6
Continuous
 62
     7
370
     0
100
AcDbLine
 10
3.6389776344
 20
0.4989909375
 30
0.0
 11
3.7972179834
 21
0.9443781087
 31
0.0
  0
LINE
  5
136
330
9C
100
AcDbEntity
  8
0
  6
Continuous
 62
     7
370
     0
100
AcDbLine
 10
3.8005448754
 20
0.9443781087
 30
0.0
 11
3.9540223434
 21
0.4991421945
 31
0.0
  0
LINE
  5
137
330
9C
100
AcDbEntity
  8
0
  6
Continuous
 62
     7
370
     0
100
AcDbLine
 10
3.9540223434
 20
0.4991421945
 30
0.0
 11
3.6389776344
 21
0.4989909375
 31
0.0
  0
LINE
  5
138
330
9C
100
AcDbEntity
  8
0
  6
Continuous
 62
     7
370
     0
100
AcDbLine
 10
6.3224524554
 20
1.2425631867
 30
0.0
 11
5.7511833414
 21
1.2424877487
 31
0.0
  0
LINE
  5
139
330
9C
100
AcDbEntity
  8
0
  6
Continuous
 62
     7
370
     0
100
AcDbLine
 10
5.7511833414
 20
1.2424877487
 30
0.0
 11
5.7517129314
 21
0.1186993689
 31
0.0
  0
LINE
  5
13A
330
9C
100
AcDbEntity
  8
0
  6
Continuous
 62
     7
370
     0
100
AcDbLine
 10
5.7517129314
 20
0.1186993689
 30
0.0
 11
5.3308969074
 21
1.2427140627
 31
0.0
  0
LINE
  5
13B
330
9C
100
AcDbEntity
  8
0
  6
Continuous
 62
     7
370
     0
100
AcDbLine
 10
5.3308969074
 20
1.2427140627
 30
0.0
 11
5.0567544534
 21
1.2427895007
 31
0.0
  0
LINE
  5
13C
330
9C
100
AcDbEntity
  8
0
  6
Continuous
 62
     7
370
     0
100
AcDbLine
 10
5.0567544534
 20
1.2427895007
 30
0.0
 11
4.5963601494
 21
0.0285786195
 31
0.0
  0
LINE
  5
13D
330
9C
100
AcDbEntity
  8
0
  6
Continuous
 62
     7
370
     0
100
AcDbLine
 10
4.5963601494
 20
0.0285786195
 30
0.0
 11
4.8671002734
 21
0.0285786195
 31
0.0
  0
LINE
  5
13E
330
9C
100
AcDbEntity
  8
0
  6
Continuous
 62
     7
370
     0
100
AcDbLine
 10
4.8671002734
 20
0.0285786195
 30
0.0
 11
4.9620218514
 21
0.2989409439
 31
0.0
  0
LINE
  5
13F
330
9C
100
AcDbEntity
  8
0
  6
Continuous
 62
     7
370
     0
100
AcDbLine
 10
4.9620218514
 20
0.2989409439
 30
0.0
 11
5.4163300614
 21
0.2989409439
 31
0.0
  0
LINE
  5
140
330
9C
100
AcDbEntity
  8
0
  6
Continuous
 62
     7
370
     0
100
AcDbLine
 10
5.4163300614
 20
0.2989409439
 30
0.0
 11
5.5080390474
 21
0.0288809811
 31
0.0
  0
LINE
  5
141
330
9C
100
AcDbEntity
  8
0
  6
Continuous
 62
     7
370
     0
100
AcDbLine
 10
5.5080390474
 20
0.0288809811
 30
0.0
 11
5.7854321934
 21
0.0289566477
 31
0.0
  0
LINE
  5
142
330
9C
100
AcDbEntity
  8
0
  6
Continuous
 62
     7
370
     0
100
AcDbLine
 10
5.7852813174
 20
0.0288809811
 30
0.0
 11
6.3403708854
 21
0.0286542099
 31
0.0
  0
LINE
  5
143
330
9C
100
AcDbEntity
  8
0
  6
Continuous
 62
     7
370
     0
100
AcDbLine
 10
5.0316534114
 20
0.4978568529
 30
0.0
 11
5.1899703414
 21
0.9434705667
 31
0.0
  0
LINE
  5
144
330
9C
100
AcDbEntity
  8
0
  6
Continuous
 62
     7
370
     0
100
AcDbLine
 10
5.1933719094
 20
0.9434705667
 30
0.0
 11
5.3465476254
 21
0.4978568529
 31
0.0
  0
LINE
  5
145
330
9C
100
AcDbEntity
  8
0
  6
Continuous
 62
     7
370
     0
100
AcDbLine
 10
5.3465476254
 20
0.4978568529
 30
0.0
 11
5.0316534114
 21
0.4978568529
 31
0.0
  0
LINE
  5
146
330
9C
100
AcDbEntity
  8
0
  6
Continuous
 62
     7
370
     0
100
AcDbLine
 10
6.0185218974
 20
1.0360863327
 30
0.0
 11
6.2682437754
 21
1.0360863327
 31
0.0
  0
LINE
  5
147
330
9C
100
AcDbEntity
  8
0
  6
Continuous
 62
     7
370
     0
100
AcDbLine
 10
6.2892620214
 20
0.7518885267
 30
0.0
 11
6.0185973354
 21
0.7517376507
 31
0.0
  0
LINE
  5
148
330
9C
100
AcDbEntity
  8
0
  6
Continuous
 62
     7
370
     0
100
AcDbLine
 10
6.0185973354
 20
0.7517376507
 30
0.0
 11
6.0185218974
 21
1.0360863327
 31
0.0
  0
LINE
  5
149
330
9C
100
AcDbEntity
  8
0
  6
Continuous
 62
     7
370
     0
100
AcDbLine
 10
6.3046102254
 20
0.2367939003
 30
0.0
 11
6.0188244114
 21
0.2367183099
 31
0.0
  0
LINE
  5
14A
330
9C
100
AcDbEntity
  8
0
  6
Continuous
 62
     7
370
     0
100
AcDbLine
 10
6.0188244114
 20
0.2367183099
 30
0.0
 11
6.0185973354
 21
0.5700593247
 31
0.0
  0
LINE
  5
14B
330
9C
100
AcDbEntity
  8
0
  6
Continuous
 62
     7
370
     0
100
AcDbLine
 10
6.0185973354
 20
0.5700593247
 30
0.0
 11
6.3094489254
 21
0.5701347627
 31
0.0
  0
LINE
  5
14C
330
9C
100
AcDbEntity
  8
0
  6
Continuous
 62
     7
370
     0
100
AcDbLine
 10
7.5272133174
 20
0.2552414631
 30
0.0
 11
7.0747194294
 21
0.2552414631
 31
0.0
  0
LINE
  5
14D
330
9C
100
AcDbEntity
  8
0
  6
Continuous
 62
     7
370
     0
100
AcDbLine
 10
7.0747194294
 20
0.2552414631
 30
0.0
 11
7.0744169154
 21
1.2427140627
 31
0.0
  0
LINE
  5
14E
330
9C
100
AcDbEntity
  8
0
  6
Continuous
 62
     7
370
     0
100
AcDbLine
 10
7.0744169154
 20
1.2427140627
 30
0.0
 11
6.8077588254
 21
1.2426386247
 31
0.0
  0
LINE
  5
14F
330
9C
100
AcDbEntity
  8
0
  6
Continuous
 62
     7
370
     0
100
AcDbLine
 10
6.8077588254
 20
1.2426386247
 30
0.0
 11
6.8078350254
 21
0.0286542099
 31
0.0
  0
LINE
  5
150
330
9C
100
AcDbEntity
  8
0
  6
Continuous
 62
     7
370
     0
100
AcDbLine
 10
6.8078350254
 20
0.0286542099
 30
0.0
 11
7.5824049774
 21
0.0286542099
 31
0.0
  0
LINE
  5
151
330
9C
100
AcDbEntity
  8
0
  6
Continuous
 62
     7
370
     0
100
AcDbLine
 10
7.5824049774
 20
0.0286542099
 30
0.0
 11
7.5824049774
 21
0.1825853727
 31
0.0
  0
LINE
  5
152
330
9C
100
AcDbEntity
  8
0
  6
Continuous
 62
     7
370
     0
100
AcDbLine
 10
9.2953802154
 20
1.2427895007
 30
0.0
 11
9.0135255594
 21
0.7645903047
 31
0.0
  0
LINE
  5
153
330
9C
100
AcDbEntity
  8
0
  6
Continuous
 62
     7
370
     0
100
AcDbLine
 10
9.0135255594
 20
0.7645903047
 30
0.0
 11
8.7293277534
 21
1.2427895007
 31
0.0
  0
LINE
  5
154
330
9C
100
AcDbEntity
  8
0
  6
Continuous
 62
     7
370
     0
100
AcDbLine
 10
8.7293277534
 20
1.2427895007
 30
0.0
 11
8.4281944974
 21
1.2427895007
 31
0.0
  0
LINE
  5
155
330
9C
100
AcDbEntity
  8
0
  6
Continuous
 62
     7
370
     0
100
AcDbLine
 10
8.4281944974
 20
1.2427895007
 30
0.0
 11
8.8753200954
 21
0.5030735811
 31
0.0
  0
LINE
  5
156
330
9C
100
AcDbEntity
  8
0
  6
Continuous
 62
     7
370
     0
100
AcDbLine
 10
8.8753200954
 20
0.5030735811
 30
0.0
 11
8.8753200954
 21
0.0288809811
 31
0.0
  0
LINE
  5
157
330
9C
100
AcDbEntity
  8
0
  6
Continuous
 62
     7
370
     0
100
AcDbLine
 10
8.8753200954
 20
0.0288809811
 30
0.0
 11
9.1424315754
 21
0.0288809811
 31
0.0
  0
LINE
  5
158
330
9C
100
AcDbEntity
  8
0
  6
Continuous
 62
     7
370
     0
100
AcDbLine
 10
9.1424315754
 20
0.0288809811
 30
0.0
 11
9.1423561374
 21
0.4963448163
 31
0.0
  0
LINE
  5
159
330
9C
100
AcDbEntity
  8
0
  6
Continuous
 62
     7
370
     0
100
AcDbLine
 10
9.1423561374
 20
0.4963448163
 30
0.0
 11
9.5929602654
 21
1.2428657007
 31
0.0
  0
LINE
  5
15A
330
9C
100
AcDbEntity
  8
0
  6
Continuous
 62
     7
370
     0
100
AcDbLine
 10
9.5929602654
 20
1.2428657007
 30
0.0
 11
9.2953802154
 21
1.2427895007
 31
0.0
  0
LINE
  5
15B
330
9C
100
AcDbEntity
  8
0
  6
Continuous
 62
     7
370
     0
100
AcDbLine
 10
0.0
 20
2.5532961507
 30
0.0
 11
0.0
 21
1.9513161507
 31
0.0
  0
LINE
  5
15C
330
9C
100
AcDbEntity
  8
0
  6
Continuous
 62
     7
370
     0
100
AcDbLine
 10
9.9297086394
 20
1.9569625707
 30
0.0
 11
9.9297086394
 21
1.6189759467
 31
0.0
  0
LINE
  5
15D
330
9C
100
AcDbEntity
  8
0
  6
Continuous
 62
     7
370
     0
100
AcDbLine
 10
10.1964086394
 20
1.6189759467
 30
0.0
 11
9.9297086394
 21
1.6189759467
 31
0.0
  0
LINE
  5
15E
330
9C
100
AcDbEntity
  8
0
  6
Continuous
 62
     7
370
     0
100
AcDbLine
 10
10.1964086394
 20
2.2238142087
 30
0.0
 11
10.1964086394
 21
1.6189759467
 31
0.0
  0
LINE
  5
15F
330
9C
100
AcDbEntity
  8
0
  6
Continuous
 62
     7
370
     0
100
AcDbLine
 10
0.2667
 20
2.2181677887
 30
0.0
 11
10.1964086394
 21
2.2238142087
 31
0.0
  0
LINE
  5
160
330
9C
100
AcDbEntity
  8
0
  6
Continuous
 62
     7
370
     0
100
AcDbLine
 10
0.2667
 20
2.5534477887
 30
0.0
 11
0.2667
 21
2.2181677887
 31
0.0
  0
LINE
  5
161
330
9C
100
AcDbEntity
  8
0
  6
Continuous
 62
     7
370
     0
100
AcDbLine
 10
0.0
 20
2.5532961507
 30
0.0
 11
0.2667
 21
2.5534477887
 31
0.0
  0
SPLINE
  5
162
330
9C
100
AcDbEntity
  8
0
  6
Continuous
 62
     7
370
     0
100
AcDbSpline
210
0.0
220
0.0
230
1.0
 70
     8
 71
     3
 72
     8
 73
     4
 74
     0
 42
0.00000001
 43
0.00000001
 40
1.0
 40
1.0
 40
1.0
 40
1.0
 40
2.0
 40
2.0
 40
2.0
 40
2.0
 10
3.34064152800001
 20
0.3898178259000018
 30
0.0
 10
3.340187909400008
 20
0.6654723927000117
 30
0.0
 10
3.068540243400003
 20
0.721570832699997
 30
0.0
 10
2.980007197199999
 20
0.7432695446999982
 30
0.0
  0
SPLINE
  5
163
330
9C
100
AcDbEntity
  8
0
  6
Continuous
 62
     7
370
     0
100
AcDbSpline
210
0.0
220
0.0
230
1.0
 70
     8
 71
     3
 72
     8
 73
     4
 74
     0
 42
0.00000001
 43
0.00000001
 40
2.0
 40
2.0
 40
2.0
 40
2.0
 40
3.0
 40
3.0
 40
3.0
 40
3.0
 10
2.980007197199999
 20
0.7432695446999982
 30
0.0
 10
2.675622715800005
 20
0.8218226006999896
 30
0.0
 10
2.617860677400011
 20
0.8330125707000091
 30
0.0
 10
2.617747291800004
 20
0.9270647067000093
 30
0.0
  0
SPLINE
  5
164
330
9C
100
AcDbEntity
  8
0
  6
Continuous
 62
     7
370
     0
100
AcDbSpline
210
0.0
220
0.0
230
1.0
 70
     8
 71
     3
 72
     8
 73
     4
 74
     0
 42
0.00000001
 43
0.00000001
 40
3.0
 40
3.0
 40
3.0
 40
3.0
 40
4.0
 40
4.0
 40
4.0
 40
4.0
 10
2.617747291800004
 20
0.9270647067000093
 30
0.0
 10
2.617860677400011
 20
1.029206996700005
 30
0.0
 10
2.716487023200001
 20
1.064740580699997
 30
0.0
 10
2.801353325400005
 20
1.064665142700011
 30
0.0
  0
SPLINE
  5
165
330
9C
100
AcDbEntity
  8
0
  6
Continuous
 62
     7
370
     0
100
AcDbSpline
210
0.0
220
0.0
230
1.0
 70
     8
 71
     3
 72
     8
 73
     4
 74
     0
 42
0.00000001
 43
0.00000001
 40
4.0
 40
4.0
 40
4.0
 40
4.0
 40
5.0
 40
5.0
 40
5.0
 40
5.0
 10
2.801353325400005
 20
1.064665142700011
 30
0.0
 10
2.929200847199998
 20
1.064740580699997
 30
0.0
 10
3.032703612000004
 20
1.027467350700001
 30
0.0
 10
3.041360389199999
 20
0.8813241327000065
 30
0.0
  0
SPLINE
  5
166
330
9C
100
AcDbEntity
  8
0
  6
Continuous
 62
     7
370
     0
100
AcDbSpline
210
0.0
220
0.0
230
1.0
 70
     8
 71
     3
 72
     8
 73
     4
 74
     0
 42
0.00000001
 43
0.00000001
 40
6.0
 40
6.0
 40
6.0
 40
6.0
 40
7.0
 40
7.0
 40
7.0
 40
7.0
 10
3.2997772206
 20
0.8813241327000065
 30
0.0
 10
3.299436987600004
 20
1.161968732699997
 30
0.0
 10
3.066574512
 20
1.272200414699998
 30
0.0
 10
2.813450075400001
 20
1.272124214699993
 30
0.0
  0
SPLINE
  5
167
330
9C
100
AcDbEntity
  8
0
  6
Continuous
 62
     7
370
     0
100
AcDbSpline
210
0.0
220
0.0
230
1.0
 70
     8
 71
     3
 72
     8
 73
     4
 74
     0
 42
0.00000001
 43
0.00000001
 40
7.0
 40
7.0
 40
7.0
 40
7.0
 40
8.0
 40
8.0
 40
8.0
 40
8.0
 10
2.813450075400001
 20
1.272124214699993
 30
0.0
 10
2.596615812599998
 20
1.272351290699997
 30
0.0
 10
2.365794658800005
 20
1.155919976700004
 30
0.0
 10
2.359973131199997
 20
0.9142874906999943
 30
0.0
  0
SPLINE
  5
168
330
9C
100
AcDbEntity
  8
0
  6
Continuous
 62
     7
370
     0
100
AcDbSpline
210
0.0
220
0.0
230
1.0
 70
     8
 71
     3
 72
     8
 73
     4
 74
     0
 42
0.00000001
 43
0.00000001
 40
8.0
 40
8.0
 40
8.0
 40
8.0
 40
9.0
 40
9.0
 40
9.0
 40
9.0
 10
2.359973131199997
 20
0.9142874906999943
 30
0.0
 10
2.341828006200003
 20
1.169982686699989
 30
0.0
 10
2.118227107199999
 20
1.271897900700009
 30
0.0
 10
1.874780070600004
 20
1.271595386699992
 30
0.0
  0
SPLINE
  5
169
330
9C
100
AcDbEntity
  8
0
  6
Continuous
 62
     7
370
     0
100
AcDbSpline
210
0.0
220
0.0
230
1.0
 70
     8
 71
     3
 72
     8
 73
     4
 74
     0
 42
0.00000001
 43
0.00000001
 40
9.0
 40
9.0
 40
9.0
 40
9.0
 40
10.0
 40
10.0
 40
10.0
 40
10.0
 10
1.874780070600004
 20
1.271595386699992
 30
0.0
 10
1.655942281200001
 20
1.271670824700005
 30
0.0
 10
1.421340921599998
 20
1.152366770699992
 30
0.0
 10
1.421492102400002
 20
0.9043830146999998
 30
0.0
  0
SPLINE
  5
16A
330
9C
100
AcDbEntity
  8
0
  6
Continuous
 62
     7
370
     0
100
AcDbSpline
210
0.0
220
0.0
230
1.0
 70
     8
 71
     3
 72
     8
 73
     4
 74
     0
 42
0.00000001
 43
0.00000001
 40
10.0
 40
10.0
 40
10.0
 40
10.0
 40
11.0
 40
11.0
 40
11.0
 40
11.0
 10
1.421492102400002
 20
0.9043830146999998
 30
0.0
 10
1.421492102400002
 20
0.6762082106999967
 30
0.0
 10
1.603472637599995
 20
0.6068791647000082
 30
0.0
 10
1.783638622200004
 20
0.559323506699988
 30
0.0
  0
SPLINE
  5
16B
330
9C
100
AcDbEntity
  8
0
  6
Continuous
 62
     7
370
     0
100
AcDbSpline
210
0.0
220
0.0
230
1.0
 70
     8
 71
     3
 72
     8
 73
     4
 74
     0
 42
0.00000001
 43
0.00000001
 40
11.0
 40
11.0
 40
11.0
 40
11.0
 40
12.0
 40
12.0
 40
12.0
 40
12.0
 10
1.783638622200004
 20
0.559323506699988
 30
0.0
 10
1.962330289200009
 20
0.5116925630999913
 30
0.0
 10
2.144197362600006
 20
0.4896915657000012
 30
0.0
 10
2.1440083104
 20
0.358895484900007
 30
0.0
  0
SPLINE
  5
16C
330
9C
100
AcDbEntity
  8
0
  6
Continuous
 62
     7
370
     0
100
AcDbSpline
210
0.0
220
0.0
230
1.0
 70
     8
 71
     3
 72
     8
 73
     4
 74
     0
 42
0.00000001
 43
0.00000001
 40
12.0
 40
12.0
 40
12.0
 40
12.0
 40
13.0
 40
13.0
 40
13.0
 40
13.0
 10
2.1440083104
 20
0.358895484900007
 30
0.0
 10
2.144121772200011
 20
0.2348281688999976
 30
0.0
 10
2.001455712600006
 20
0.2076861098999905
 30
0.0
 10
1.908083890200002
 20
0.2073080816999973
 30
0.0
  0
SPLINE
  5
16D
330
9C
100
AcDbEntity
  8
0
  6
Continuous
 62
     7
370
     0
100
AcDbSpline
210
0.0
220
0.0
230
1.0
 70
     8
 71
     3
 72
     8
 73
     4
 74
     0
 42
0.00000001
 43
0.00000001
 40
13.0
 40
13.0
 40
13.0
 40
13.0
 40
14.0
 40
14.0
 40
14.0
 40
14.0
 10
1.908083890200002
 20
0.2073080816999973
 30
0.0
 10
1.765039802400004
 20
0.2071569009000074
 30
0.0
 10
1.63949824500001
 20
0.2702867721000035
 30
0.0
 10
1.639271473800011
 20
0.4317027560999942
 30
0.0
  0
SPLINE
  5
16E
330
9C
100
AcDbEntity
  8
0
  6
Continuous
 62
     7
370
     0
100
AcDbSpline
210
0.0
220
0.0
230
1.0
 70
     8
 71
     3
 72
     8
 73
     4
 74
     0
 42
0.00000001
 43
0.00000001
 40
24.0
 40
24.0
 40
24.0
 40
24.0
 40
25.0
 40
25.0
 40
25.0
 40
25.0
 10
1.4924093088
 20
0.1422880695000073
 30
0.0
 10
1.590317393400001
 20
0.04528722210001
 30
0.0
 10
1.740770712000003
 20
-0.000151218900013
 30
0.0
 10
1.897801690800005
 20
0.000151218900013
 30
0.0
  0
SPLINE
  5
16F
330
9C
100
AcDbEntity
  8
0
  6
Continuous
 62
     7
370
     0
100
AcDbSpline
210
0.0
220
0.0
230
1.0
 70
     8
 71
     3
 72
     8
 73
     4
 74
     0
 42
0.00000001
 43
0.00000001
 40
25.0
 40
25.0
 40
25.0
 40
25.0
 40
26.0
 40
26.0
 40
26.0
 40
26.0
 10
1.897801690800005
 20
0.000151218900013
 30
0.0
 10
2.140795108799998
 20
-0.0000755522999996
 30
0.0
 10
2.299678357200005
 20
0.0908012535000002
 30
0.0
 10
2.366437329599999
 20
0.2277213758999919
 30
0.0
  0
SPLINE
  5
170
330
9C
100
AcDbEntity
  8
0
  6
Continuous
 62
     7
370
     0
100
AcDbSpline
210
0.0
220
0.0
230
1.0
 70
     8
 71
     3
 72
     8
 73
     4
 74
     0
 42
0.00000001
 43
0.00000001
 40
26.0
 40
26.0
 40
26.0
 40
26.0
 40
27.0
 40
27.0
 40
27.0
 40
27.0
 10
2.366437329599999
 20
0.2277213758999919
 30
0.0
 10
2.451417017399995
 20
0.0718244817000113
 30
0.0
 10
2.638916642399999
 20
0.0003024758999937
 30
0.0
 10
2.836131462600005
 20
0.0005292471000062
 30
0.0
  0
SPLINE
  5
171
330
9C
100
AcDbEntity
  8
0
  6
Continuous
 62
     7
370
     0
100
AcDbSpline
210
0.0
220
0.0
230
1.0
 70
     8
 71
     3
 72
     8
 73
     4
 74
     0
 42
0.00000001
 43
0.00000001
 40
27.0
 40
27.0
 40
27.0
 40
27.0
 40
28.0
 40
28.0
 40
28.0
 40
28.0
 10
2.836131462600005
 20
0.0005292471000062
 30
0.0
 10
3.026730827400001
 20
0.0005292471000062
 30
0.0
 10
3.165238653000002
 20
0.0565523252999967
 30
0.0
 10
3.248479380600009
 20
0.1466731509000008
 30
0.0
  0
SPLINE
  5
172
330
9C
100
AcDbEntity
  8
0
  6
Continuous
 62
     7
370
     0
100
AcDbSpline
210
0.0
220
0.0
230
1.0
 70
     8
 71
     3
 72
     8
 73
     4
 74
     0
 42
0.00000001
 43
0.00000001
 40
0.0
 40
0.0
 40
0.0
 40
0.0
 40
1.0
 40
1.0
 40
1.0
 40
1.0
 10
2.845657605600002
 20
0.2079885476999888
 30
0.0
 10
2.703142803000005
 20
0.2076861098999905
 30
0.0
 10
2.577261012600002
 20
0.2707403906999917
 30
0.0
 10
2.576807394
 20
0.4317027560999942
 30
0.0
  0
SPLINE
  5
173
330
9C
100
AcDbEntity
  8
0
  6
Continuous
 62
     7
370
     0
100
AcDbSpline
210
0.0
220
0.0
230
1.0
 70
     8
 71
     3
 72
     8
 73
     4
 74
     0
 42
0.00000001
 43
0.00000001
 40
2.0
 40
2.0
 40
2.0
 40
2.0
 40
3.0
 40
3.0
 40
3.0
 40
3.0
 10
2.399892406200005
 20
0.4319296034999975
 30
0.0
 10
2.37346853220001
 20
0.6706890446999958
 30
0.0
 10
2.1257497998
 20
0.7220249847000038
 30
0.0
 10
2.041753015800007
 20
0.7430432306999857
 30
0.0
  0
SPLINE
  5
174
330
9C
100
AcDbEntity
  8
0
  6
Continuous
 62
     7
370
     0
100
AcDbSpline
210
0.0
220
0.0
230
1.0
 70
     8
 71
     3
 72
     8
 73
     4
 74
     0
 42
0.00000001
 43
0.00000001
 40
3.0
 40
3.0
 40
3.0
 40
3.0
 40
4.0
 40
4.0
 40
4.0
 40
4.0
 10
2.041753015800007
 20
0.7430432306999857
 30
0.0
 10
1.737973333800005
 20
0.821142896699989
 30
0.0
 10
1.679908933800003
 20
0.8333150846999982
 30
0.0
 10
1.679757753
 20
0.9264596787000035
 30
0.0
  0
SPLINE
  5
175
330
9C
100
AcDbEntity
  8
0
  6
Continuous
 62
     7
370
     0
100
AcDbSpline
210
0.0
220
0.0
230
1.0
 70
     8
 71
     3
 72
     8
 73
     4
 74
     0
 42
0.00000001
 43
0.00000001
 40
4.0
 40
4.0
 40
4.0
 40
4.0
 40
5.0
 40
5.0
 40
5.0
 40
5.0
 10
1.679757753
 20
0.9264596787000035
 30
0.0
 10
1.680135781200007
 20
1.028677406699985
 30
0.0
 10
1.778421894000001
 20
1.064438066700008
 30
0.0
 10
1.86336371040001
 20
1.064211752699995
 30
0.0
  0
SPLINE
  5
176
330
9C
100
AcDbEntity
  8
0
  6
Continuous
 62
     7
370
     0
100
AcDbSpline
210
0.0
220
0.0
230
1.0
 70
     8
 71
     3
 72
     8
 73
     4
 74
     0
 42
0.00000001
 43
0.00000001
 40
5.0
 40
5.0
 40
5.0
 40
5.0
 40
6.0
 40
6.0
 40
6.0
 40
6.0
 10
1.86336371040001
 20
1.064211752699995
 30
0.0
 10
1.99109784660001
 20
1.064211752699995
 30
0.0
 10
2.094449430599998
 20
1.027241036699988
 30
0.0
 10
2.103257388599997
 20
0.8810216186999897
 30
0.0
  0
SPLINE
  5
177
330
9C
100
AcDbEntity
  8
0
  6
Continuous
 62
     7
370
     0
100
AcDbSpline
210
0.0
220
0.0
230
1.0
 70
     8
 71
     3
 72
     8
 73
     4
 74
     0
 42
0.00000001
 43
0.00000001
 40
7.0
 40
7.0
 40
7.0
 40
7.0
 40
8.0
 40
8.0
 40
8.0
 40
8.0
 10
2.360653597200002
 20
0.8810216186999897
 30
0.0
 10
2.373279556200009
 20
0.6722016146999965
 30
0.0
 10
2.547850784400008
 20
0.6053665947000075
 30
0.0
 10
2.721514775400002
 20
0.5599285346999938
 30
0.0
  0
SPLINE
  5
178
330
9C
100
AcDbEntity
  8
0
  6
Continuous
 62
     7
370
     0
100
AcDbSpline
210
0.0
220
0.0
230
1.0
 70
     8
 71
     3
 72
     8
 73
     4
 74
     0
 42
0.00000001
 43
0.00000001
 40
8.0
 40
8.0
 40
8.0
 40
8.0
 40
9.0
 40
9.0
 40
9.0
 40
9.0
 10
2.721514775400002
 20
0.5599285346999938
 30
0.0
 10
2.900244237600005
 20
0.5123729528999921
 30
0.0
 10
3.082338082200001
 20
0.4903720316999927
 30
0.0
 10
3.082375877399998
 20
0.3593491034999952
 30
0.0
  0
SPLINE
  5
179
330
9C
100
AcDbEntity
  8
0
  6
Continuous
 62
     7
370
     0
100
AcDbSpline
210
0.0
220
0.0
230
1.0
 70
     8
 71
     3
 72
     8
 73
     4
 74
     0
 42
0.00000001
 43
0.00000001
 40
9.0
 40
9.0
 40
9.0
 40
9.0
 40
10.0
 40
10.0
 40
10.0
 40
10.0
 10
3.082375877399998
 20
0.3593491034999952
 30
0.0
 10
3.082338082200001
 20
0.2353573779000084
 30
0.0
 10
2.939709893999998
 20
0.2080641381000115
 30
0.0
 10
2.845657605600002
 20
0.2079885476999888
 30
0.0
  0
SPLINE
  5
17A
330
9C
100
AcDbEntity
  8
0
  6
Continuous
 62
     7
370
     0
100
AcDbSpline
210
0.0
220
0.0
230
1.0
 70
     8
 71
     3
 72
     8
 73
     4
 74
     0
 42
0.00000001
 43
0.00000001
 40
0.0
 40
0.0
 40
0.0
 40
0.0
 40
1.0
 40
1.0
 40
1.0
 40
1.0
 10
6.545486045400006
 20
0.6889099886999983
 30
0.0
 10
6.651106103400001
 20
0.7400188527000029
 30
0.0
 10
6.7104559974
 20
0.8234860466999894
 30
0.0
 10
6.710758511400003
 20
0.9425637866999903
 30
0.0
  0
SPLINE
  5
17B
330
9C
100
AcDbEntity
  8
0
  6
Continuous
 62
     7
370
     0
100
AcDbSpline
210
0.0
220
0.0
230
1.0
 70
     8
 71
     3
 72
     8
 73
     4
 74
     0
 42
0.00000001
 43
0.00000001
 40
1.0
 40
1.0
 40
1.0
 40
1.0
 40
2.0
 40
2.0
 40
2.0
 40
2.0
 10
6.710758511400003
 20
0.9425637866999903
 30
0.0
 10
6.7104559974
 20
1.168470116699988
 30
0.0
 10
6.554029589400004
 20
1.243394528700009
 30
0.0
 10
6.322452455400001
 20
1.242563186699991
 30
0.0
  0
SPLINE
  5
17C
330
9C
100
AcDbEntity
  8
0
  6
Continuous
 62
     7
370
     0
100
AcDbSpline
210
0.0
220
0.0
230
1.0
 70
     8
 71
     3
 72
     8
 73
     4
 74
     0
 42
0.00000001
 43
0.00000001
 40
14.0
 40
14.0
 40
14.0
 40
14.0
 40
15.0
 40
15.0
 40
15.0
 40
15.0
 10
6.340370885400001
 20
0.0286542099000031
 30
0.0
 10
6.559548755400005
 20
0.0291834188999862
 30
0.0
 10
6.768444959400003
 20
0.1351056098999881
 30
0.0
 10
6.768671273400001
 20
0.3816524624999929
 30
0.0
  0
SPLINE
  5
17D
330
9C
100
AcDbEntity
  8
0
  6
Continuous
 62
     7
370
     0
100
AcDbSpline
210
0.0
220
0.0
230
1.0
 70
     8
 71
     3
 72
     8
 73
     4
 74
     0
 42
0.00000001
 43
0.00000001
 40
15.0
 40
15.0
 40
15.0
 40
15.0
 40
16.0
 40
16.0
 40
16.0
 40
16.0
 10
6.768671273400001
 20
0.3816524624999929
 30
0.0
 10
6.768444959400003
 20
0.5330131707000085
 30
0.0
 10
6.693520547400008
 20
0.6467226207000076
 30
0.0
 10
6.545486045400006
 20
0.6889099886999983
 30
0.0
  0
SPLINE
  5
17E
330
9C
100
AcDbEntity
  8
0
  6
Continuous
 62
     7
370
     0
100
AcDbSpline
210
0.0
220
0.0
230
1.0
 70
     8
 71
     3
 72
     8
 73
     4
 74
     0
 42
0.00000001
 43
0.00000001
 40
1.0
 40
1.0
 40
1.0
 40
1.0
 40
2.0
 40
2.0
 40
2.0
 40
2.0
 10
6.268243775400001
 20
1.036086332699998
 30
0.0
 10
6.363278891400009
 20
1.035860018699986
 30
0.0
 10
6.451963499399999
 20
1.012195346699996
 30
0.0
 10
6.452266013400002
 20
0.8965961367000119
 30
0.0
  0
SPLINE
  5
17F
330
9C
100
AcDbEntity
  8
0
  6
Continuous
 62
     7
370
     0
100
AcDbSpline
210
0.0
220
0.0
230
1.0
 70
     8
 71
     3
 72
     8
 73
     4
 74
     0
 42
0.00000001
 43
0.00000001
 40
2.0
 40
2.0
 40
2.0
 40
2.0
 40
3.0
 40
3.0
 40
3.0
 40
3.0
 10
6.452266013400002
 20
0.8965961367000119
 30
0.0
 10
6.452114375400011
 20
0.7943029706999893
 30
0.0
 10
6.382104863400004
 20
0.7516614506999919
 30
0.0
 10
6.289262021400011
 20
0.7518885266999953
 30
0.0
  0
SPLINE
  5
180
330
9C
100
AcDbEntity
  8
0
  6
Continuous
 62
     7
370
     0
100
AcDbSpline
210
0.0
220
0.0
230
1.0
 70
     8
 71
     3
 72
     8
 73
     4
 74
     0
 42
0.00000001
 43
0.00000001
 40
3.0
 40
3.0
 40
3.0
 40
3.0
 40
4.0
 40
4.0
 40
4.0
 40
4.0
 10
6.309448925400002
 20
0.5701347626999864
 30
0.0
 10
6.4232338134
 20
0.5702864007000041
 30
0.0
 10
6.501786869400005
 20
0.520764782699995
 30
0.0
 10
6.501484355400003
 20
0.3966221811000092
 30
0.0
  0
SPLINE
  5
181
330
9C
100
AcDbEntity
  8
0
  6
Continuous
 62
     7
370
     0
100
AcDbSpline
210
0.0
220
0.0
230
1.0
 70
     8
 71
     3
 72
     8
 73
     4
 74
     0
 42
0.00000001
 43
0.00000001
 40
4.0
 40
4.0
 40
4.0
 40
4.0
 40
5.0
 40
5.0
 40
5.0
 40
5.0
 10
6.501484355400003
 20
0.3966221811000092
 30
0.0
 10
6.501484355400003
 20
0.2706648002999967
 30
0.0
 10
6.409549055400005
 20
0.2367939002999864
 30
0.0
 10
6.304610225400006
 20
0.2367939002999864
 30
0.0
  0
SPLINE
  5
182
330
9C
100
AcDbEntity
  8
0
  6
Continuous
 62
     7
370
     0
100
AcDbSpline
210
0.0
220
0.0
230
1.0
 70
     8
 71
     3
 72
     8
 73
     4
 74
     0
 42
0.00000001
 43
0.00000001
 40
0.0
 40
0.0
 40
0.0
 40
0.0
 40
1.0
 40
1.0
 40
1.0
 40
1.0
 10
8.018946395400004
 20
1.27242672870001
 30
0.0
 10
7.643342117400004
 20
1.272653804699986
 30
0.0
 10
7.422122849400012
 20
0.9923117186999841
 30
0.0
 10
7.422425363400001
 20
0.6315260546999879
 30
0.0
  0
SPLINE
  5
183
330
9C
100
AcDbEntity
  8
0
  6
Continuous
 62
     7
370
     0
100
AcDbSpline
210
0.0
220
0.0
230
1.0
 70
     8
 71
     3
 72
     8
 73
     4
 74
     0
 42
0.00000001
 43
0.00000001
 40
1.0
 40
1.0
 40
1.0
 40
1.0
 40
2.0
 40
2.0
 40
2.0
 40
2.0
 10
7.422425363400001
 20
0.6315260546999879
 30
0.0
 10
7.422727877400003
 20
0.4898428227000096
 30
0.0
 10
7.459396079400007
 20
0.3601051599000094
 30
0.0
 10
7.5272133174
 20
0.2552414630999922
 30
0.0
  0
SPLINE
  5
184
330
9C
100
AcDbEntity
  8
0
  6
Continuous
 62
     7
370
     0
100
AcDbSpline
210
0.0
220
0.0
230
1.0
 70
     8
 71
     3
 72
     8
 73
     4
 74
     0
 42
0.00000001
 43
0.00000001
 40
8.0
 40
8.0
 40
8.0
 40
8.0
 40
9.0
 40
9.0
 40
9.0
 40
9.0
 10
7.582404977400009
 20
0.1825853726999949
 30
0.0
 10
7.684471067400001
 20
0.0700855976999981
 30
0.0
 10
7.832958959400004
 20
0.0008316849000045
 30
0.0
 10
8.019702299400008
 20
0.0010584560999893
 30
0.0
  0
SPLINE
  5
185
330
9C
100
AcDbEntity
  8
0
  6
Continuous
 62
     7
370
     0
100
AcDbSpline
210
0.0
220
0.0
230
1.0
 70
     8
 71
     3
 72
     8
 73
     4
 74
     0
 42
0.00000001
 43
0.00000001
 40
9.0
 40
9.0
 40
9.0
 40
9.0
 40
10.0
 40
10.0
 40
10.0
 40
10.0
 10
8.019702299400008
 20
0.0010584560999893
 30
0.0
 10
8.395382015400008
 20
0.0010584560999893
 30
0.0
 10
8.61629876940001
 20
0.2817030561000078
 30
0.0
 10
8.615920817400008
 20
0.6319040066999904
 30
0.0
  0
SPLINE
  5
186
330
9C
100
AcDbEntity
  8
0
  6
Continuous
 62
     7
370
     0
100
AcDbSpline
210
0.0
220
0.0
230
1.0
 70
     8
 71
     3
 72
     8
 73
     4
 74
     0
 42
0.00000001
 43
0.00000001
 40
10.0
 40
10.0
 40
10.0
 40
10.0
 40
11.0
 40
11.0
 40
11.0
 40
11.0
 10
8.615920817400008
 20
0.6319040066999904
 30
0.0
 10
8.616071693400007
 20
0.9925380326999966
 30
0.0
 10
8.394626111400003
 20
1.273031756699988
 30
0.0
 10
8.018946395400004
 20
1.27242672870001
 30
0.0
  0
SPLINE
  5
187
330
9C
100
AcDbEntity
  8
0
  6
Continuous
 62
     7
370
     0
100
AcDbSpline
210
0.0
220
0.0
230
1.0
 70
     8
 71
     3
 72
     8
 73
     4
 74
     0
 42
0.00000001
 43
0.00000001
 40
3.0
 40
3.0
 40
3.0
 40
3.0
 40
4.0
 40
4.0
 40
4.0
 40
4.0
 10
8.349489803400001
 20
0.6321310826999937
 30
0.0
 10
8.349716879400018
 20
0.4292834061000173
 30
0.0
 10
8.259293387400001
 20
0.2255287971000552
 30
0.0
 10
8.01962686140001
 20
0.2251507689000898
 30
0.0
  0
SPLINE
  5
188
330
9C
100
AcDbEntity
  8
0
  6
Continuous
 62
     7
370
     0
100
AcDbSpline
210
0.0
220
0.0
230
1.0
 70
     8
 71
     3
 72
     8
 73
     4
 74
     0
 42
0.00000001
 43
0.00000001
 40
2.0
 40
2.0
 40
2.0
 40
2.0
 40
3.0
 40
3.0
 40
3.0
 40
3.0
 10
8.019172709400003
 20
1.048183082699994
 30
0.0
 10
8.259066311399998
 20
1.048183082699994
 30
0.0
 10
8.349036413399999
 20
0.8443534167
 30
0.0
 10
8.349489803400001
 20
0.6321310826999937
 30
0.0
  0
SPLINE
  5
189
330
9C
100
AcDbEntity
  8
0
  6
Continuous
 62
     7
370
     0
100
AcDbSpline
210
0.0
220
0.0
230
1.0
 70
     8
 71
     3
 72
     8
 73
     4
 74
     0
 42
0.00000001
 43
0.00000001
 40
1.0
 40
1.0
 40
1.0
 40
1.0
 40
2.0
 40
2.0
 40
2.0
 40
2.0
 10
7.689460643400009
 20
0.6315260546999879
 30
0.0
 10
7.689158891399997
 20
0.8439754646999975
 30
0.0
 10
7.779052793400007
 20
1.048032206699995
 30
0.0
 10
8.019172709400003
 20
1.048183082699994
 30
0.0
  0
SPLINE
  5
18A
330
9C
100
AcDbEntity
  8
0
  6
Continuous
 62
     7
370
     0
100
AcDbSpline
210
0.0
220
0.0
230
1.0
 70
     8
 71
     3
 72
     8
 73
     4
 74
     0
 42
0.00000001
 43
0.00000001
 40
0.0
 40
0.0
 40
0.0
 40
0.0
 40
1.0
 40
1.0
 40
1.0
 40
1.0
 10
8.01962686140001
 20
0.2251507689000898
 30
0.0
 10
7.77973325940004
 20
0.2251507689000343
 30
0.0
 10
7.689763157399998
 20
0.4292078156999946
 30
0.0
 10
7.689460643400009
 20
0.6315260546999879
 30
0.0
  0
INSERT
  5
192
330
9C
100
AcDbEntity
  8
0
  6
Continuous
 62
     7
370
     0
100
AcDbBlockReference
  2
SW_NOTE_6
 10
10.9430671197
 20
8.8581138453
 30
0.0
  0
ENDBLK
  5
9E
330
9C
100
AcDbEntity
  8
0
100
AcDbBlockEnd
  0
BLOCK
  5
18C
330
18B
100
AcDbEntity
  8
0
100
AcDbBlockBegin
  2
SW_NOTE_6
 70
     0
 10
0.0
 20
0.0
 30
0.0
  3
SW_NOTE_6
  1

  0
MTEXT
  5
18E
330
18B
100
AcDbEntity
  8
0
  6
Continuous
 62
     0
370
     0
100
AcDbMText
 10
0.0
 20
2.3874608764
 30
0.0
 40
1.8520833333
 41
0.0
 71
     1
 72
     1
  1
ASSA ABLOY
  7
SLDTEXTSTYLE4
 73
     1
 44
1.0
  0
MTEXT
  5
18F
330
18B
100
AcDbEntity
  8
0
  6
Continuous
 62
     0
370
     0
100
AcDbMText
 10
0.0
 20
-0.0819835382
 30
0.0
 40
1.8520833333
 41
0.0
 71
     1
 72
     1
  1
Sicherheitstechnik GmbH
  7
SLDTEXTSTYLE4
 73
     1
 44
1.0
  0
MTEXT
  5
190
330
18B
100
AcDbEntity
  8
0
  6
Continuous
 62
     0
370
     0
100
AcDbMText
 10
0.0
 20
-2.5514279528
 30
0.0
 40
1.8520833333
 41
0.0
 71
     1
 72
     1
  1
Bildstockstrasse 20
  7
SLDTEXTSTYLE4
 73
     1
 44
1.0
  0
MTEXT
  5
191
330
18B
100
AcDbEntity
  8
0
  6
Continuous
 62
     0
370
     0
100
AcDbMText
 10
0.0
 20
-5.0208723674
 30
0.0
 40
1.8520833333
 41
0.0
 71
     1
 72
     1
  1
72458 Albstadt
  7
SLDTEXTSTYLE4
 73
     1
 44
1.0
  0
ENDBLK
  5
18D
330
18B
100
AcDbEntity
  8
0
100
AcDbBlockEnd
  0
BLOCK
  5
1C3
330
1C2
100
AcDbEntity
  8
0
100
AcDbBlockBegin
  2
SW_NOTE_7
 70
     0
 10
0.0
 20
0.0
 30
0.0
  3
SW_NOTE_7
  1

  0
MTEXT
  5
1C5
330
1C2
100
AcDbEntity
  8
0
  6
Continuous
 62
     0
370
     0
100
AcDbMText
 10
0.0
 20
1.7053291974
 30
0.0
 40
1.3229166667
 41
0.0
 71
     1
 72
     1
  1
Blatt
  7
SLDTEXTSTYLE1
 73
     1
 44
1.0
  0
MTEXT
  5
1C6
330
1C2
100
AcDbEntity
  8
0
  6
Continuous
 62
     0
370
     0
100
AcDbMText
 10
0.0
 20
-0.0585596702
 30
0.0
 40
1.3229166667
 41
0.0
 71
     1
 72
     1
  1
sheet
  7
SLDTEXTSTYLE1
 73
     1
 44
1.0
  0
ENDBLK
  5
1C4
330
1C2
100
AcDbEntity
  8
0
100
AcDbBlockEnd
  0
BLOCK
  5
1CC
330
1CB
100
AcDbEntity
  8
0
100
AcDbBlockBegin
  2
SW_NOTE_8
 70
     0
 10
0.0
 20
0.0
 30
0.0
  3
SW_NOTE_8
  1

  0
MTEXT
  5
1CE
330
1CB
100
AcDbEntity
  8
0
  6
Continuous
 62
     0
370
     0
100
AcDbMText
 10
0.0
 20
1.7053291974
 30
0.0
 40
1.3229166667
 41
0.0
 71
     1
 72
     1
  1
Gepr.
  7
SLDTEXTSTYLE1
 73
     1
 44
1.0
  0
MTEXT
  5
1CF
330
1CB
100
AcDbEntity
  8
0
  6
Continuous
 62
     0
370
     0
100
AcDbMText
 10
0.0
 20
-0.0585596702
 30
0.0
 40
1.3229166667
 41
0.0
 71
     1
 72
     1
  1
checked
  7
SLDTEXTSTYLE1
 73
     1
 44
1.0
  0
ENDBLK
  5
1CD
330
1CB
100
AcDbEntity
  8
0
100
AcDbBlockEnd
  0
BLOCK
  5
1D2
330
1D1
100
AcDbEntity
  8
0
100
AcDbBlockBegin
  2
SW_NOTE_9
 70
     0
 10
0.0
 20
0.0
 30
0.0
  3
SW_NOTE_9
  1

  0
MTEXT
  5
1D4
330
1D1
100
AcDbEntity
  8
0
  6
Continuous
 62
     0
370
     0
100
AcDbMText
 10
0.0
 20
1.7053291974
 30
0.0
 40
1.3229166667
 41
0.0
 71
     1
 72
     1
  1
Bearb.
  7
SLDTEXTSTYLE1
 73
     1
 44
1.0
  0
MTEXT
  5
1D5
330
1D1
100
AcDbEntity
  8
0
  6
Continuous
 62
     0
370
     0
100
AcDbMText
 10
0.0
 20
-0.0585596702
 30
0.0
 40
1.3229166667
 41
0.0
 71
     1
 72
     1
  1
author
  7
SLDTEXTSTYLE1
 73
     1
 44
1.0
  0
ENDBLK
  5
1D3
330
1D1
100
AcDbEntity
  8
0
100
AcDbBlockEnd
  0
BLOCK
  5
1D8
330
1D7
100
AcDbEntity
  8
0
100
AcDbBlockBegin
  2
SW_NOTE_10
 70
     0
 10
0.0
 20
0.0
 30
0.0
  3
SW_NOTE_10
  1

  0
MTEXT
  5
1DA
330
1D7
100
AcDbEntity
  8
0
  6
Continuous
 62
     0
370
     0
100
AcDbMText
 10
0.0
 20
1.7053291974
 30
0.0
 40
1.3229166667
 41
0.0
 71
     1
 72
     1
  1
Name
  7
SLDTEXTSTYLE1
 73
     1
 44
1.0
  0
MTEXT
  5
1DB
330
1D7
100
AcDbEntity
  8
0
  6
Continuous
 62
     0
370
     0
100
AcDbMText
 10
0.0
 20
-0.0585596702
 30
0.0
 40
1.3229166667
 41
0.0
 71
     1
 72
     1
  1
name
  7
SLDTEXTSTYLE1
 73
     1
 44
1.0
  0
ENDBLK
  5
1D9
330
1D7
100
AcDbEntity
  8
0
100
AcDbBlockEnd
  0
BLOCK
  5
1DE
330
1DD
100
AcDbEntity
  8
0
100
AcDbBlockBegin
  2
SW_NOTE_11
 70
     0
 10
0.0
 20
0.0
 30
0.0
  3
SW_NOTE_11
  1

  0
MTEXT
  5
1E0
330
1DD
100
AcDbEntity
  8
0
  6
Continuous
 62
     0
370
     0
100
AcDbMText
 10
0.0
 20
1.7053291974
 30
0.0
 40
1.3229166667
 41
0.0
 71
     1
 72
     1
  1
Datum
  7
SLDTEXTSTYLE1
 73
     1
 44
1.0
  0
MTEXT
  5
1E1
330
1DD
100
AcDbEntity
  8
0
  6
Continuous
 62
     0
370
     0
100
AcDbMText
 10
0.0
 20
-0.0585596702
 30
0.0
 40
1.3229166667
 41
0.0
 71
     1
 72
     1
  1
date
  7
SLDTEXTSTYLE1
 73
     1
 44
1.0
  0
ENDBLK
  5
1DF
330
1DD
100
AcDbEntity
  8
0
100
AcDbBlockEnd
  0
BLOCK
  5
1E4
330
1E3
100
AcDbEntity
  8
0
100
AcDbBlockBegin
  2
SW_NOTE_12
 70
     0
 10
0.0
 20
0.0
 30
0.0
  3
SW_NOTE_12
  1

  0
MTEXT
  5
1E6
330
1E3
100
AcDbEntity
  8
0
  6
Continuous
 62
     0
370
     0
100
AcDbMText
 10
0.0
 20
1.7053291974
 30
0.0
 40
1.3229166667
 41
0.0
 71
     1
 72
     1
  1
Aenderung
  7
SLDTEXTSTYLE1
 73
     1
 44
1.0
  0
MTEXT
  5
1E7
330
1E3
100
AcDbEntity
  8
0
  6
Continuous
 62
     0
370
     0
100
AcDbMText
 10
0.0
 20
-0.0585596702
 30
0.0
 40
1.3229166667
 41
0.0
 71
     1
 72
     1
  1
description
  7
SLDTEXTSTYLE1
 73
     1
 44
1.0
  0
ENDBLK
  5
1E5
330
1E3
100
AcDbEntity
  8
0
100
AcDbBlockEnd
  0
BLOCK
  5
1EA
330
1E9
100
AcDbEntity
  8
0
100
AcDbBlockBegin
  2
SW_NOTE_13
 70
     0
 10
0.0
 20
0.0
 30
0.0
  3
SW_NOTE_13
  1

  0
MTEXT
  5
1EC
330
1E9
100
AcDbEntity
  8
0
  6
Continuous
 62
     0
370
     0
100
AcDbMText
 10
0.0
 20
1.7053291974
 30
0.0
 40
1.3229166667
 41
0.0
 71
     1
 72
     1
  1
Stand
  7
SLDTEXTSTYLE1
 73
     1
 44
1.0
  0
MTEXT
  5
1ED
330
1E9
100
AcDbEntity
  8
0
  6
Continuous
 62
     0
370
     0
100
AcDbMText
 10
0.0
 20
-0.0585596702
 30
0.0
 40
1.3229166667
 41
0.0
 71
     1
 72
     1
  1
state
  7
SLDTEXTSTYLE1
 73
     1
 44
1.0
  0
ENDBLK
  5
1EB
330
1E9
100
AcDbEntity
  8
0
100
AcDbBlockEnd
  0
BLOCK
  5
1FC
330
1FB
100
AcDbEntity
  8
0
100
AcDbBlockBegin
  2
SW_NOTE_14
 70
     0
 10
0.0
 20
0.0
 30
0.0
  3
SW_NOTE_14
  1

  0
MTEXT
  5
1FE
330
1FB
100
AcDbEntity
  8
0
  6
Continuous
 62
     0
370
     0
100
AcDbMText
 10
0.0
 20
1.7053291974
 30
0.0
 40
1.3229166667
 41
0.0
 71
     1
 72
     1
  1
freig.
  7
SLDTEXTSTYLE1
 73
     1
 44
1.0
  0
MTEXT
  5
1FF
330
1FB
100
AcDbEntity
  8
0
  6
Continuous
 62
     0
370
     0
100
AcDbMText
 10
0.0
 20
-0.0585596702
 30
0.0
 40
1.3229166667
 41
0.0
 71
     1
 72
     1
  1
approved
  7
SLDTEXTSTYLE1
 73
     1
 44
1.0
  0
ENDBLK
  5
1FD
330
1FB
100
AcDbEntity
  8
0
100
AcDbBlockEnd
  0
BLOCK
  5
202
330
201
100
AcDbEntity
  8
0
100
AcDbBlockBegin
  2
SW_NOTE_15
 70
     0
 10
0.0
 20
0.0
 30
0.0
  3
SW_NOTE_15
  1

  0
MTEXT
  5
204
330
201
100
AcDbEntity
  8
0
  6
Continuous
 62
     0
370
     0
100
AcDbMText
 10
0.0
 20
3.4106583948
 30
0.0
 40
2.6458333333
 41
0.0
 71
     1
 72
     1
  1
Gewicht/
  7
SLDTEXTSTYLE1
 73
     1
 44
1.0
  0
MTEXT
  5
205
330
201
100
AcDbEntity
  8
0
  6
Continuous
 62
     0
370
     0
100
AcDbMText
 10
0.0
 20
-0.1171193403
 30
0.0
 40
2.6458333333
 41
0.0
 71
     1
 72
     1
  1
weight:
  7
SLDTEXTSTYLE1
 73
     1
 44
1.0
  0
ENDBLK
  5
203
330
201
100
AcDbEntity
  8
0
100
AcDbBlockEnd
  0
BLOCK
  5
221
330
220
100
AcDbEntity
  8
0
100
AcDbBlockBegin
  2
*D20
 70
     1
 10
0.0
 20
0.0
 30
0.0
  3
*D20
  1

  0
SOLID
  5
223
330
220
100
AcDbEntity
  8
0
  6
Continuous
 62
     7
370
     0
100
AcDbTrace
 10
107.5615758755
 20
165.7560311284
 30
0.0
 11
110.8615758755
 21
165.2560311284
 31
0.0
 12
110.8615758755
 22
166.2560311284
 32
0.0
 13
110.8615758755
 23
166.2560311284
 33
0.0
  0
SOLID
  5
224
330
220
100
AcDbEntity
  8
0
  6
Continuous
 62
     7
370
     0
100
AcDbTrace
 10
177.5615758755
 20
165.7560311284
 30
0.0
 11
174.2615758755
 21
166.2560311284
 31
0.0
 12
174.2615758755
 22
165.2560311284
 32
0.0
 13
174.2615758755
 23
165.2560311284
 33
0.0
  0
LINE
  5
225
330
220
100
AcDbEntity
  8
0
  6
Continuous
 62
     7
370
     0
100
AcDbLine
 10
107.5615758755
 20
151.2560311284
 30
0.0
 11
107.5615758755
 21
166.7560311284
 31
0.0
  0
LINE
  5
226
330
220
100
AcDbEntity
  8
0
  6
Continuous
 62
     7
370
     0
100
AcDbLine
 10
177.5615758755
 20
151.2560311284
 30
0.0
 11
177.5615758755
 21
166.7560311284
 31
0.0
  0
LINE
  5
227
330
220
100
AcDbEntity
  8
0
  6
Continuous
 62
     7
370
     0
100
AcDbLine
 10
107.5615758755
 20
165.7560311284
 30
0.0
 11
177.5615758755
 21
165.7560311284
 31
0.0
  0
MTEXT
  5
228
330
220
100
AcDbEntity
  8
0
  6
Continuous
 62
     7
370
     0
100
AcDbMText
 10
136.1584961089
 20
170.2677684504
 30
0.0
 40
3.5
 41
0.0
 71
     1
 72
     1
  1
70
  7
SLDTEXTSTYLE1
 73
     1
 44
1.0
  0
MTEXT
  5
229
330
220
100
AcDbEntity
  8
0
  6
Continuous
 62
     7
370
     0
100
AcDbMText
 10
142.8407859922
 20
169.2163773246
 30
0.0
 40
2.45
 41
0.0
 71
     1
 72
     1
  1
±0,5
  7
SLDTEXTSTYLE1
 73
     1
 44
1.0
  0
ENDBLK
  5
222
330
220
100
AcDbEntity
  8
0
100
AcDbBlockEnd
  0
BLOCK
  5
22D
330
22C
100
AcDbEntity
  8
0
100
AcDbBlockBegin
  2
*D21
 70
     1
 10
0.0
 20
0.0
 30
0.0
  3
*D21
  1

  0
SOLID
  5
22F
330
22C
100
AcDbEntity
  8
0
  6
Continuous
 62
     7
370
     0
100
AcDbTrace
 10
74.0615758755
 20
179.7560311284
 30
0.0
 11
77.3615758755
 21
179.2560311284
 31
0.0
 12
77.3615758755
 22
180.2560311284
 32
0.0
 13
77.3615758755
 23
180.2560311284
 33
0.0
  0
SOLID
  5
230
330
22C
100
AcDbEntity
  8
0
  6
Continuous
 62
     7
370
     0
100
AcDbTrace
 10
211.0615758755
 20
179.7560311284
 30
0.0
 11
207.7615758755
 21
180.2560311284
 31
0.0
 12
207.7615758755
 22
179.2560311284
 32
0.0
 13
207.7615758755
 23
179.2560311284
 33
0.0
  0
LINE
  5
231
330
22C
100
AcDbEntity
  8
0
  6
Continuous
 62
     7
370
     0
100
AcDbLine
 10
74.0615758755
 20
153.7560311284
 30
0.0
 11
74.0615758755
 21
180.7560311284
 31
0.0
  0
LINE
  5
232
330
22C
100
AcDbEntity
  8
0
  6
Continuous
 62
     7
370
     0
100
AcDbLine
 10
211.0615758755
 20
153.7560311284
 30
0.0
 11
211.0615758755
 21
180.7560311284
 31
0.0
  0
LINE
  5
233
330
22C
100
AcDbEntity
  8
0
  6
Continuous
 62
     7
370
     0
100
AcDbLine
 10
74.0615758755
 20
179.7560311284
 30
0.0
 11
211.0615758755
 21
179.7560311284
 31
0.0
  0
MTEXT
  5
234
330
22C
100
AcDbEntity
  8
0
  6
Continuous
 62
     7
370
     0
100
AcDbMText
 10
134.8218297665
 20
184.2677684504
 30
0.0
 40
3.5
 41
0.0
 71
     1
 72
     1
  1
137
  7
SLDTEXTSTYLE1
 73
     1
 44
1.0
  0
MTEXT
  5
235
330
22C
100
AcDbEntity
  8
0
  6
Continuous
 62
     7
370
     0
100
AcDbMText
 10
144.1774523346
 20
183.2163773246
 30
0.0
 40
2.45
 41
0.0
 71
     1
 72
     1
  1
±0,2
  7
SLDTEXTSTYLE1
 73
     1
 44
1.0
  0
ENDBLK
  5
22E
330
22C
100
AcDbEntity
  8
0
100
AcDbBlockEnd
  0
BLOCK
  5
239
330
238
100
AcDbEntity
  8
0
100
AcDbBlockBegin
  2
*D22
 70
     1
 10
0.0
 20
0.0
 30
0.0
  3
*D22
  1

  0
SOLID
  5
23B
330
238
100
AcDbEntity
  8
0
  6
Continuous
 62
     7
370
     0
100
AcDbTrace
 10
67.5615758755
 20
193.7560311284
 30
0.0
 11
70.8615758755
 21
193.2560311284
 31
0.0
 12
70.8615758755
 22
194.2560311284
 32
0.0
 13
70.8615758755
 23
194.2560311284
 33
0.0
  0
SOLID
  5
23C
330
238
100
AcDbEntity
  8
0
  6
Continuous
 62
     7
370
     0
100
AcDbTrace
 10
217.5615758755
 20
193.7560311284
 30
0.0
 11
214.2615758755
 21
194.2560311284
 31
0.0
 12
214.2615758755
 22
193.2560311284
 32
0.0
 13
214.2615758755
 23
193.2560311284
 33
0.0
  0
LINE
  5
23D
330
238
100
AcDbEntity
  8
0
  6
Continuous
 62
     7
370
     0
100
AcDbLine
 10
67.5615758755
 20
155.7560311284
 30
0.0
 11
67.5615758755
 21
194.7560311284
 31
0.0
  0
LINE
  5
23E
330
238
100
AcDbEntity
  8
0
  6
Continuous
 62
     7
370
     0
100
AcDbLine
 10
217.5615758755
 20
155.7560311284
 30
0.0
 11
217.5615758755
 21
194.7560311284
 31
0.0
  0
LINE
  5
23F
330
238
100
AcDbEntity
  8
0
  6
Continuous
 62
     7
370
     0
100
AcDbLine
 10
67.5615758755
 20
193.7560311284
 30
0.0
 11
217.5615758755
 21
193.7560311284
 31
0.0
  0
MTEXT
  5
240
330
238
100
AcDbEntity
  8
0
  6
Continuous
 62
     7
370
     0
100
AcDbMText
 10
134.7624455253
 20
198.2677684504
 30
0.0
 40
3.5
 41
0.0
 71
     1
 72
     1
  1
150
  7
SLDTEXTSTYLE1
 73
     1
 44
1.0
  0
MTEXT
  5
241
330
238
100
AcDbEntity
  8
0
  6
Continuous
 62
     7
370
     0
100
AcDbMText
 10
144.1409883268
 20
197.2163773246
 30
0.0
 40
2.45
 41
0.0
 71
     1
 72
     1
  1
-
  7
SLDTEXTSTYLE1
 73
     1
 44
1.0
  0
MTEXT
  5
242
330
238
100
AcDbEntity
  8
0
  6
Continuous
 62
     7
370
     0
100
AcDbMText
 10
145.6828949416
 20
197.2163773246
 30
0.0
 40
2.45
 41
0.0
 71
     1
 72
     1
  1
0,3
  7
SLDTEXTSTYLE1
 73
     1
 44
1.0
  0
MTEXT
  5
243
330
238
100
AcDbEntity
  8
0
  6
Continuous
 62
     7
370
     0
100
AcDbMText
 10
145.6828949416
 20
200.9752956126
 30
0.0
 40
2.45
 41
0.0
 71
     1
 72
     1
  1
0
  7
SLDTEXTSTYLE1
 73
     1
 44
1.0
  0
ENDBLK
  5
23A
330
238
100
AcDbEntity
  8
0
100
AcDbBlockEnd
  0
BLOCK
  5
247
330
246
100
AcDbEntity
  8
0
100
AcDbBlockBegin
  2
*D23
 70
     1
 10
0.0
 20
0.0
 30
0.0
  3
*D23
  1

  0
SOLID
  5
249
330
246
100
AcDbEntity
  8
0
  6
Continuous
 62
     7
370
     0
100
AcDbTrace
 10
96.6419904535
 20
151.2560311284
 30
0.0
 11
97.1419904535
 21
154.5560311284
 31
0.0
 12
96.1419904535
 22
154.5560311284
 32
0.0
 13
96.1419904535
 23
154.5560311284
 33
0.0
  0
SOLID
  5
24A
330
246
100
AcDbEntity
  8
0
  6
Continuous
 62
     7
370
     0
100
AcDbTrace
 10
96.6419904535
 20
136.2560311284
 30
0.0
 11
96.1419904535
 21
132.9560311284
 31
0.0
 12
97.1419904535
 22
132.9560311284
 32
0.0
 13
97.1419904535
 23
132.9560311284
 33
0.0
  0
LINE
  5
24B
330
246
100
AcDbEntity
  8
0
  6
Continuous
 62
     7
370
     0
100
AcDbLine
 10
107.5615758755
 20
151.2560311284
 30
0.0
 11
95.6419904535
 21
151.2560311284
 31
0.0
  0
LINE
  5
24C
330
246
100
AcDbEntity
  8
0
  6
Continuous
 62
     7
370
     0
100
AcDbLine
 10
107.5615758755
 20
136.2560311284
 30
0.0
 11
95.6419904535
 21
136.2560311284
 31
0.0
  0
LINE
  5
24D
330
246
100
AcDbEntity
  8
0
  6
Continuous
 62
     7
370
     0
100
AcDbLine
 10
96.6419904535
 20
151.2560311284
 30
0.0
 11
96.6419904535
 21
157.5060311284
 31
0.0
  0
LINE
  5
24E
330
246
100
AcDbEntity
  8
0
  6
Continuous
 62
     7
370
     0
100
AcDbLine
 10
96.6419904535
 20
151.2560311284
 30
0.0
 11
96.6419904535
 21
136.2560311284
 31
0.0
  0
LINE
  5
24F
330
246
100
AcDbEntity
  8
0
  6
Continuous
 62
     7
370
     0
100
AcDbLine
 10
96.6419904535
 20
136.2560311284
 30
0.0
 11
96.6419904535
 21
130.0060311284
 31
0.0
  0
MTEXT
  5
250
330
246
100
AcDbEntity
  8
0
  6
Continuous
 62
     7
370
     0
100
AcDbMText
 10
92.1302531315
 20
137.2935671206
 30
0.0
 40
3.5
 41
0.0
 71
     1
 72
     1
  1
15
  7
SLDTEXTSTYLE1
 11
-7.044195017643634E-15
 21
1.0
 31
0.0
 73
     1
 44
1.0
  0
MTEXT
  5
251
330
246
100
AcDbEntity
  8
0
  6
Continuous
 62
     7
370
     0
100
AcDbMText
 10
93.1816442573
 20
145.5406838521
 30
0.0
 40
2.45
 41
0.0
 71
     1
 72
     1
  1
0
  7
SLDTEXTSTYLE1
 11
-7.044195017643634E-15
 21
1.0
 31
0.0
 73
     1
 44
1.0
  0
MTEXT
  5
252
330
246
100
AcDbEntity
  8
0
  6
Continuous
 62
     7
370
     0
100
AcDbMText
 10
89.4227259693
 20
143.5757947471
 30
0.0
 40
2.45
 41
0.0
 71
     1
 72
     1
  1
+
  7
SLDTEXTSTYLE1
 11
-7.044195017643634E-15
 21
1.0
 31
0.0
 73
     1
 44
1.0
  0
MTEXT
  5
253
330
246
100
AcDbEntity
  8
0
  6
Continuous
 62
     7
370
     0
100
AcDbMText
 10
89.4227259693
 20
145.5406838521
 30
0.0
 40
2.45
 41
0.0
 71
     1
 72
     1
  1
0,5
  7
SLDTEXTSTYLE1
 11
-7.044195017643634E-15
 21
1.0
 31
0.0
 73
     1
 44
1.0
  0
ENDBLK
  5
248
330
246
100
AcDbEntity
  8
0
100
AcDbBlockEnd
  0
BLOCK
  5
256
330
255
100
AcDbEntity
  8
0
100
AcDbBlockBegin
  2
*D24
 70
     1
 10
0.0
 20
0.0
 30
0.0
  3
*D24
  1

  0
SOLID
  5
258
330
255
100
AcDbEntity
  8
0
  6
Continuous
 62
     7
370
     0
100
AcDbTrace
 10
101.5615758755
 20
121.7560311284
 30
0.0
 11
104.8615758755
 21
121.2560311284
 31
0.0
 12
104.8615758755
 22
122.2560311284
 32
0.0
 13
104.8615758755
 23
122.2560311284
 33
0.0
  0
SOLID
  5
259
330
255
100
AcDbEntity
  8
0
  6
Continuous
 62
     7
370
     0
100
AcDbTrace
 10
183.5615758755
 20
121.7560311284
 30
0.0
 11
180.2615758755
 21
122.2560311284
 31
0.0
 12
180.2615758755
 22
121.2560311284
 32
0.0
 13
180.2615758755
 23
121.2560311284
 33
0.0
  0
LINE
  5
25A
330
255
100
AcDbEntity
  8
0
  6
Continuous
 62
     7
370
     0
100
AcDbLine
 10
101.5615758755
 20
139.7560311284
 30
0.0
 11
101.5615758755
 21
120.7560311284
 31
0.0
  0
LINE
  5
25B
330
255
100
AcDbEntity
  8
0
  6
Continuous
 62
     7
370
     0
100
AcDbLine
 10
183.5615758755
 20
139.7560311284
 30
0.0
 11
183.5615758755
 21
120.7560311284
 31
0.0
  0
LINE
  5
25C
330
255
100
AcDbEntity
  8
0
  6
Continuous
 62
     7
370
     0
100
AcDbLine
 10
101.5615758755
 20
121.7560311284
 30
0.0
 11
183.5615758755
 21
121.7560311284
 31
0.0
  0
MTEXT
  5
25D
330
255
100
AcDbEntity
  8
0
  6
Continuous
 62
     7
370
     0
100
AcDbMText
 10
136.1584961089
 20
126.2677684504
 30
0.0
 40
3.5
 41
0.0
 71
     1
 72
     1
  1
82
  7
SLDTEXTSTYLE1
 73
     1
 44
1.0
  0
MTEXT
  5
25E
330
255
100
AcDbEntity
  8
0
  6
Continuous
 62
     7
370
     0
100
AcDbMText
 10
142.8407859922
 20
125.2163773246
 30
0.0
 40
2.45
 41
0.0
 71
     1
 72
     1
  1
±0,2
  7
SLDTEXTSTYLE1
 73
     1
 44
1.0
  0
ENDBLK
  5
257
330
255
100
AcDbEntity
  8
0
100
AcDbBlockEnd
  0
BLOCK
  5
261
330
260
100
AcDbEntity
  8
0
100
AcDbBlockBegin
  2
*D25
 70
     1
 10
0.0
 20
0.0
 30
0.0
  3
*D25
  1

  0
SOLID
  5
263
330
260
100
AcDbEntity
  8
0
  6
Continuous
 62
     7
370
     0
100
AcDbTrace
 10
84.5615758755
 20
114.7560311284
 30
0.0
 11
87.8615758755
 21
114.2560311284
 31
0.0
 12
87.8615758755
 22
115.2560311284
 32
0.0
 13
87.8615758755
 23
115.2560311284
 33
0.0
  0
SOLID
  5
264
330
260
100
AcDbEntity
  8
0
  6
Continuous
 62
     7
370
     0
100
AcDbTrace
 10
200.5615758755
 20
114.7560311284
 30
0.0
 11
197.2615758755
 21
115.2560311284
 31
0.0
 12
197.2615758755
 22
114.2560311284
 32
0.0
 13
197.2615758755
 23
114.2560311284
 33
0.0
  0
LINE
  5
265
330
260
100
AcDbEntity
  8
0
  6
Continuous
 62
     7
370
     0
100
AcDbLine
 10
84.5615758755
 20
139.7560311284
 30
0.0
 11
84.5615758755
 21
113.7560311284
 31
0.0
  0
LINE
  5
266
330
260
100
AcDbEntity
  8
0
  6
Continuous
 62
     7
370
     0
100
AcDbLine
 10
200.5615758755
 20
139.7560311284
 30
0.0
 11
200.5615758755
 21
113.7560311284
 31
0.0
  0
LINE
  5
267
330
260
100
AcDbEntity
  8
0
  6
Continuous
 62
     7
370
     0
100
AcDbLine
 10
84.5615758755
 20
114.7560311284
 30
0.0
 11
200.5615758755
 21
114.7560311284
 31
0.0
  0
MTEXT
  5
268
330
260
100
AcDbEntity
  8
0
  6
Continuous
 62
     7
370
     0
100
AcDbMText
 10
134.8218297665
 20
119.2677684504
 30
0.0
 40
3.5
 41
0.0
 71
     1
 72
     1
  1
116
  7
SLDTEXTSTYLE1
 73
     1
 44
1.0
  0
MTEXT
  5
269
330
260
100
AcDbEntity
  8
0
  6
Continuous
 62
     7
370
     0
100
AcDbMText
 10
144.1774523346
 20
118.2163773246
 30
0.0
 40
2.45
 41
0.0
 71
     1
 72
     1
  1
±0,2
  7
SLDTEXTSTYLE1
 73
     1
 44
1.0
  0
ENDBLK
  5
262
330
260
100
AcDbEntity
  8
0
100
AcDbBlockEnd
  0
BLOCK
  5
26C
330
26B
100
AcDbEntity
  8
0
100
AcDbBlockBegin
  2
*D26
 70
     1
 10
0.0
 20
0.0
 30
0.0
  3
*D26
  1

  0
SOLID
  5
26E
330
26B
100
AcDbEntity
  8
0
  6
Continuous
 62
     7
370
     0
100
AcDbTrace
 10
71.0615758755
 20
121.7560311284
 30
0.0
 11
67.7615758755
 21
122.2560311284
 31
0.0
 12
67.7615758755
 22
121.2560311284
 32
0.0
 13
67.7615758755
 23
121.2560311284
 33
0.0
  0
SOLID
  5
26F
330
26B
100
AcDbEntity
  8
0
  6
Continuous
 62
     7
370
     0
100
AcDbTrace
 10
77.0615758755
 20
121.7560311284
 30
0.0
 11
80.3615758755
 21
121.2560311284
 31
0.0
 12
80.3615758755
 22
122.2560311284
 32
0.0
 13
80.3615758755
 23
122.2560311284
 33
0.0
  0
LINE
  5
270
330
26B
100
AcDbEntity
  8
0
  6
Continuous
 62
     7
370
     0
100
AcDbLine
 10
71.0615758755
 20
137.7560311284
 30
0.0
 11
71.0615758755
 21
120.7560311284
 31
0.0
  0
LINE
  5
271
330
26B
100
AcDbEntity
  8
0
  6
Continuous
 62
     7
370
     0
100
AcDbLine
 10
77.0615758755
 20
137.7560311284
 30
0.0
 11
77.0615758755
 21
120.7560311284
 31
0.0
  0
LINE
  5
272
330
26B
100
AcDbEntity
  8
0
  6
Continuous
 62
     7
370
     0
100
AcDbLine
 10
71.0615758755
 20
121.7560311284
 30
0.0
 11
57.2090595644
 21
121.7560311284
 31
0.0
  0
LINE
  5
273
330
26B
100
AcDbEntity
  8
0
  6
Continuous
 62
     7
370
     0
100
AcDbLine
 10
71.0615758755
 20
121.7560311284
 30
0.0
 11
77.0615758755
 21
121.7560311284
 31
0.0
  0
LINE
  5
274
330
26B
100
AcDbEntity
  8
0
  6
Continuous
 62
     7
370
     0
100
AcDbLine
 10
77.0615758755
 20
121.7560311284
 30
0.0
 11
83.3115758755
 21
121.7560311284
 31
0.0
  0
MTEXT
  5
275
330
26B
100
AcDbEntity
  8
0
  6
Continuous
 62
     7
370
     0
100
AcDbMText
 10
58.7965595644
 20
126.2677684504
 30
0.0
 40
3.5
 41
0.0
 71
     1
 72
     1
  1
6
  7
SLDTEXTSTYLE1
 73
     1
 44
1.0
  0
MTEXT
  5
276
330
26B
100
AcDbEntity
  8
0
  6
Continuous
 62
     7
370
     0
100
AcDbMText
 10
64.3703436111
 20
125.2163773246
 30
0.0
 40
2.45
 41
0.0
 71
     1
 72
     1
  1
0
  7
SLDTEXTSTYLE1
 73
     1
 44
1.0
  0
MTEXT
  5
277
330
26B
100
AcDbEntity
  8
0
  6
Continuous
 62
     7
370
     0
100
AcDbMText
 10
62.405454506
 20
128.9752956126
 30
0.0
 40
2.45
 41
0.0
 71
     1
 72
     1
  1
+
  7
SLDTEXTSTYLE1
 73
     1
 44
1.0
  0
MTEXT
  5
278
330
26B
100
AcDbEntity
  8
0
  6
Continuous
 62
     7
370
     0
100
AcDbMText
 10
64.3703436111
 20
128.9752956126
 30
0.0
 40
2.45
 41
0.0
 71
     1
 72
     1
  1
0,5
  7
SLDTEXTSTYLE1
 73
     1
 44
1.0
  0
ENDBLK
  5
26D
330
26B
100
AcDbEntity
  8
0
100
AcDbBlockEnd
  0
BLOCK
  5
27C
330
27B
100
AcDbEntity
  8
0
100
AcDbBlockBegin
  2
*D27
 70
     1
 10
0.0
 20
0.0
 30
0.0
  3
*D27
  1

  0
SOLID
  5
27E
330
27B
100
AcDbEntity
  8
0
  6
Continuous
 62
     7
370
     0
100
AcDbTrace
 10
57.5615758755
 20
149.7560311284
 30
0.0
 11
57.0615758755
 21
146.4560311284
 31
0.0
 12
58.0615758755
 22
146.4560311284
 32
0.0
 13
58.0615758755
 23
146.4560311284
 33
0.0
  0
SOLID
  5
27F
330
27B
100
AcDbEntity
  8
0
  6
Continuous
 62
     7
370
     0
100
AcDbTrace
 10
57.5615758755
 20
137.7560311284
 30
0.0
 11
58.0615758755
 21
141.0560311284
 31
0.0
 12
57.0615758755
 22
141.0560311284
 32
0.0
 13
57.0615758755
 23
141.0560311284
 33
0.0
  0
LINE
  5
280
330
27B
100
AcDbEntity
  8
0
  6
Continuous
 62
     7
370
     0
100
AcDbLine
 10
70.0615758755
 20
149.7560311284
 30
0.0
 11
56.5615758755
 21
149.7560311284
 31
0.0
  0
LINE
  5
281
330
27B
100
AcDbEntity
  8
0
  6
Continuous
 62
     7
370
     0
100
AcDbLine
 10
70.0615758755
 20
137.7560311284
 30
0.0
 11
56.5615758755
 21
137.7560311284
 31
0.0
  0
LINE
  5
282
330
27B
100
AcDbEntity
  8
0
  6
Continuous
 62
     7
370
     0
100
AcDbLine
 10
57.5615758755
 20
149.7560311284
 30
0.0
 11
57.5615758755
 21
137.7560311284
 31
0.0
  0
MTEXT
  5
283
330
27B
100
AcDbEntity
  8
0
  6
Continuous
 62
     7
370
     0
100
AcDbMText
 10
53.0498385535
 20
137.2935671206
 30
0.0
 40
3.5
 41
0.0
 71
     1
 72
     1
  1
12
  7
SLDTEXTSTYLE1
 11
-7.044195017643634E-15
 21
1.0
 31
0.0
 73
     1
 44
1.0
  0
MTEXT
  5
284
330
27B
100
AcDbEntity
  8
0
  6
Continuous
 62
     7
370
     0
100
AcDbMText
 10
54.1012296793
 20
145.5406838521
 30
0.0
 40
2.45
 41
0.0
 71
     1
 72
     1
  1
0
  7
SLDTEXTSTYLE1
 11
-7.044195017643634E-15
 21
1.0
 31
0.0
 73
     1
 44
1.0
  0
MTEXT
  5
285
330
27B
100
AcDbEntity
  8
0
  6
Continuous
 62
     7
370
     0
100
AcDbMText
 10
50.3423113913
 20
143.5757947471
 30
0.0
 40
2.45
 41
0.0
 71
     1
 72
     1
  1
+
  7
SLDTEXTSTYLE1
 11
-7.044195017643634E-15
 21
1.0
 31
0.0
 73
     1
 44
1.0
  0
MTEXT
  5
286
330
27B
100
AcDbEntity
  8
0
  6
Continuous
 62
     7
370
     0
100
AcDbMText
 10
50.3423113913
 20
145.5406838521
 30
0.0
 40
2.45
 41
0.0
 71
     1
 72
     1
  1
0,5
  7
SLDTEXTSTYLE1
 11
-7.044195017643634E-15
 21
1.0
 31
0.0
 73
     1
 44
1.0
  0
ENDBLK
  5
27D
330
27B
100
AcDbEntity
  8
0
100
AcDbBlockEnd
  0
BLOCK
  5
28A
330
289
100
AcDbEntity
  8
0
100
AcDbBlockBegin
  2
*D28
 70
     1
 10
0.0
 20
0.0
 30
0.0
  3
*D28
  1

  0
SOLID
  5
28C
330
289
100
AcDbEntity
  8
0
  6
Continuous
 62
     7
370
     0
100
AcDbTrace
 10
43.5615758755
 20
155.7560311284
 30
0.0
 11
44.0615758755
 21
159.0560311284
 31
0.0
 12
43.0615758755
 22
159.0560311284
 32
0.0
 13
43.0615758755
 23
159.0560311284
 33
0.0
  0
SOLID
  5
28D
330
289
100
AcDbEntity
  8
0
  6
Continuous
 62
     7
370
     0
100
AcDbTrace
 10
43.5615758755
 20
131.7560311284
 30
0.0
 11
43.0615758755
 21
128.4560311284
 31
0.0
 12
44.0615758755
 22
128.4560311284
 32
0.0
 13
44.0615758755
 23
128.4560311284
 33
0.0
  0
LINE
  5
28E
330
289
100
AcDbEntity
  8
0
  6
Continuous
 62
     7
370
     0
100
AcDbLine
 10
67.5615758755
 20
155.7560311284
 30
0.0
 11
42.5615758755
 21
155.7560311284
 31
0.0
  0
LINE
  5
28F
330
289
100
AcDbEntity
  8
0
  6
Continuous
 62
     7
370
     0
100
AcDbLine
 10
67.5615758755
 20
131.7560311284
 30
0.0
 11
42.5615758755
 21
131.7560311284
 31
0.0
  0
LINE
  5
290
330
289
100
AcDbEntity
  8
0
  6
Continuous
 62
     7
370
     0
100
AcDbLine
 10
43.5615758755
 20
155.7560311284
 30
0.0
 11
43.5615758755
 21
162.0060311284
 31
0.0
  0
LINE
  5
291
330
289
100
AcDbEntity
  8
0
  6
Continuous
 62
     7
370
     0
100
AcDbLine
 10
43.5615758755
 20
155.7560311284
 30
0.0
 11
43.5615758755
 21
131.7560311284
 31
0.0
  0
LINE
  5
292
330
289
100
AcDbEntity
  8
0
  6
Continuous
 62
     7
370
     0
100
AcDbLine
 10
43.5615758755
 20
131.7560311284
 30
0.0
 11
43.5615758755
 21
125.5060311284
 31
0.0
  0
MTEXT
  5
293
330
289
100
AcDbEntity
  8
0
  6
Continuous
 62
     7
370
     0
100
AcDbMText
 10
39.0498385535
 20
137.2935671206
 30
0.0
 40
3.5
 41
0.0
 71
     1
 72
     1
  1
24
  7
SLDTEXTSTYLE1
 11
-7.044195017643634E-15
 21
1.0
 31
0.0
 73
     1
 44
1.0
  0
MTEXT
  5
294
330
289
100
AcDbEntity
  8
0
  6
Continuous
 62
     7
370
     0
100
AcDbMText
 10
40.1012296793
 20
143.9987772374
 30
0.0
 40
2.45
 41
0.0
 71
     1
 72
     1
  1
-
  7
SLDTEXTSTYLE1
 11
-7.044195017643634E-15
 21
1.0
 31
0.0
 73
     1
 44
1.0
  0
MTEXT
  5
295
330
289
100
AcDbEntity
  8
0
  6
Continuous
 62
     7
370
     0
100
AcDbMText
 10
40.1012296793
 20
145.5406838521
 30
0.0
 40
2.45
 41
0.0
 71
     1
 72
     1
  1
0,3
  7
SLDTEXTSTYLE1
 11
-7.044195017643634E-15
 21
1.0
 31
0.0
 73
     1
 44
1.0
  0
MTEXT
  5
296
330
289
100
AcDbEntity
  8
0
  6
Continuous
 62
     7
370
     0
100
AcDbMText
 10
36.3423113913
 20
145.5406838521
 30
0.0
 40
2.45
 41
0.0
 71
     1
 72
     1
  1
0
  7
SLDTEXTSTYLE1
 11
-7.044195017643634E-15
 21
1.0
 31
0.0
 73
     1
 44
1.0
  0
ENDBLK
  5
28B
330
289
100
AcDbEntity
  8
0
100
AcDbBlockEnd
  0
BLOCK
  5
29A
330
299
100
AcDbEntity
  8
0
100
AcDbBlockBegin
  2
*D29
 70
     1
 10
0.0
 20
0.0
 30
0.0
  3
*D29
  1

  0
SOLID
  5
29C
330
299
100
AcDbEntity
  8
0
  6
Continuous
 62
     7
370
     0
100
AcDbTrace
 10
197.5615758755
 20
165.7560311284
 30
0.0
 11
194.2615758755
 21
166.2560311284
 31
0.0
 12
194.2615758755
 22
165.2560311284
 32
0.0
 13
194.2615758755
 23
165.2560311284
 33
0.0
  0
SOLID
  5
29D
330
299
100
AcDbEntity
  8
0
  6
Continuous
 62
     7
370
     0
100
AcDbTrace
 10
203.5615758755
 20
165.7560311284
 30
0.0
 11
206.8615758755
 21
165.2560311284
 31
0.0
 12
206.8615758755
 22
166.2560311284
 32
0.0
 13
206.8615758755
 23
166.2560311284
 33
0.0
  0
LINE
  5
29E
330
299
100
AcDbEntity
  8
0
  6
Continuous
 62
     7
370
     0
100
AcDbLine
 10
197.5615758755
 20
143.7560311284
 30
0.0
 11
197.5615758755
 21
166.7560311284
 31
0.0
  0
LINE
  5
29F
330
299
100
AcDbEntity
  8
0
  6
Continuous
 62
     7
370
     0
100
AcDbLine
 10
203.5615758755
 20
143.7560311284
 30
0.0
 11
203.5615758755
 21
166.7560311284
 31
0.0
  0
LINE
  5
2A0
330
299
100
AcDbEntity
  8
0
  6
Continuous
 62
     7
370
     0
100
AcDbLine
 10
197.5615758755
 20
165.7560311284
 30
0.0
 11
179.8665865759
 21
165.7560311284
 31
0.0
  0
LINE
  5
2A1
330
299
100
AcDbEntity
  8
0
  6
Continuous
 62
     7
370
     0
100
AcDbLine
 10
197.5615758755
 20
165.7560311284
 30
0.0
 11
203.5615758755
 21
165.7560311284
 31
0.0
  0
LINE
  5
2A2
330
299
100
AcDbEntity
  8
0
  6
Continuous
 62
     7
370
     0
100
AcDbLine
 10
203.5615758755
 20
165.7560311284
 30
0.0
 11
209.8115758755
 21
165.7560311284
 31
0.0
  0
MTEXT
  5
2A3
330
299
100
AcDbEntity
  8
0
  6
Continuous
 62
     7
370
     0
100
AcDbMText
 10
181.4540865759
 20
170.2677682176
 30
0.0
 40
3.5
 41
0.0
 71
     1
 72
     1
  1
%%c
  7
SLDTEXTSTYLE1
 73
     1
 44
1.0
  0
MTEXT
  5
2A4
330
299
100
AcDbEntity
  8
0
  6
Continuous
 62
     7
370
     0
100
AcDbMText
 10
186.5569640078
 20
170.2677684504
 30
0.0
 40
3.5
 41
0.0
 71
     1
 72
     1
  1
6
  7
SLDTEXTSTYLE1
 73
     1
 44
1.0
  0
MTEXT
  5
2A5
330
299
100
AcDbEntity
  8
0
  6
Continuous
 62
     7
370
     0
100
AcDbMText
 10
192.1307480545
 20
169.2163773246
 30
0.0
 40
2.45
 41
0.0
 71
     1
 72
     1
  1
0
  7
SLDTEXTSTYLE1
 73
     1
 44
1.0
  0
MTEXT
  5
2A6
330
299
100
AcDbEntity
  8
0
  6
Continuous
 62
     7
370
     0
100
AcDbMText
 10
190.1658589494
 20
172.9752956126
 30
0.0
 40
2.45
 41
0.0
 71
     1
 72
     1
  1
+
  7
SLDTEXTSTYLE1
 73
     1
 44
1.0
  0
MTEXT
  5
2A7
330
299
100
AcDbEntity
  8
0
  6
Continuous
 62
     7
370
     0
100
AcDbMText
 10
192.1307480545
 20
172.9752956126
 30
0.0
 40
2.45
 41
0.0
 71
     1
 72
     1
  1
0,3
  7
SLDTEXTSTYLE1
 73
     1
 44
1.0
  0
ENDBLK
  5
29B
330
299
100
AcDbEntity
  8
0
100
AcDbBlockEnd
  0
BLOCK
  5
2A9
330
2A8
100
AcDbEntity
  8
0
100
AcDbBlockBegin
  2
SW_CENTERMARKSYMBOL_0
 70
     0
 10
0.0
 20
0.0
 30
0.0
  3
SW_CENTERMARKSYMBOL_0
  1

  0
LINE
  5
2AB
330
2A8
100
AcDbEntity
  8
0
  6
Continuous
 62
     0
370
     0
100
AcDbLine
 10
0.0
 20
0.0
 30
0.0
 11
0.0
 21
1.0
 31
0.0
  0
LINE
  5
2AC
330
2A8
100
AcDbEntity
  8
0
  6
Continuous
 62
     0
370
     0
100
AcDbLine
 10
0.0
 20
0.0
 30
0.0
 11
-1.0
 21
0.0
 31
0.0
  0
LINE
  5
2AD
330
2A8
100
AcDbEntity
  8
0
  6
Continuous
 62
     0
370
     0
100
AcDbLine
 10
0.0
 20
0.0
 30
0.0
 11
0.0
 21
-1.0
 31
0.0
  0
LINE
  5
2AE
330
2A8
100
AcDbEntity
  8
0
  6
Continuous
 62
     0
370
     0
100
AcDbLine
 10
0.0
 20
0.0
 30
0.0
 11
1.0
 21
0.0
 31
0.0
  0
LINE
  5
2AF
330
2A8
100
AcDbEntity
  8
0
  6
Continuous
 62
     0
370
     0
100
AcDbLine
 10
0.0
 20
2.0
 30
0.0
 11
0.0
 21
4.0
 31
0.0
  0
LINE
  5
2B0
330
2A8
100
AcDbEntity
  8
0
  6
Continuous
 62
     0
370
     0
100
AcDbLine
 10
-2.0
 20
0.0
 30
0.0
 11
-4.0
 21
0.0
 31
0.0
  0
LINE
  5
2B1
330
2A8
100
AcDbEntity
  8
0
  6
Continuous
 62
     0
370
     0
100
AcDbLine
 10
0.0
 20
-2.0
 30
0.0
 11
0.0
 21
-4.0
 31
0.0
  0
LINE
  5
2B2
330
2A8
100
AcDbEntity
  8
0
  6
Continuous
 62
     0
370
     0
100
AcDbLine
 10
2.0
 20
0.0
 30
0.0
 11
4.0
 21
0.0
 31
0.0
  0
ENDBLK
  5
2AA
330
2A8
100
AcDbEntity
  8
0
100
AcDbBlockEnd
  0
BLOCK
  5
2B5
330
2B4
100
AcDbEntity
  8
0
100
AcDbBlockBegin
  2
SW_CENTERMARKSYMBOL_1
 70
     0
 10
0.0
 20
0.0
 30
0.0
  3
SW_CENTERMARKSYMBOL_1
  1

  0
LINE
  5
2B7
330
2B4
100
AcDbEntity
  8
0
  6
Continuous
 62
     0
370
     0
100
AcDbLine
 10
0.0
 20
0.0
 30
0.0
 11
0.0
 21
1.0
 31
0.0
  0
LINE
  5
2B8
330
2B4
100
AcDbEntity
  8
0
  6
Continuous
 62
     0
370
     0
100
AcDbLine
 10
0.0
 20
0.0
 30
0.0
 11
-1.0
 21
0.0
 31
0.0
  0
LINE
  5
2B9
330
2B4
100
AcDbEntity
  8
0
  6
Continuous
 62
     0
370
     0
100
AcDbLine
 10
0.0
 20
0.0
 30
0.0
 11
0.0
 21
-1.0
 31
0.0
  0
LINE
  5
2BA
330
2B4
100
AcDbEntity
  8
0
  6
Continuous
 62
     0
370
     0
100
AcDbLine
 10
0.0
 20
0.0
 30
0.0
 11
1.0
 21
0.0
 31
0.0
  0
LINE
  5
2BB
330
2B4
100
AcDbEntity
  8
0
  6
Continuous
 62
     0
370
     0
100
AcDbLine
 10
0.0
 20
2.0
 30
0.0
 11
0.0
 21
4.0
 31
0.0
  0
LINE
  5
2BC
330
2B4
100
AcDbEntity
  8
0
  6
Continuous
 62
     0
370
     0
100
AcDbLine
 10
-2.0
 20
0.0
 30
0.0
 11
-4.0
 21
0.0
 31
0.0
  0
LINE
  5
2BD
330
2B4
100
AcDbEntity
  8
0
  6
Continuous
 62
     0
370
     0
100
AcDbLine
 10
0.0
 20
-2.0
 30
0.0
 11
0.0
 21
-4.0
 31
0.0
  0
LINE
  5
2BE
330
2B4
100
AcDbEntity
  8
0
  6
Continuous
 62
     0
370
     0
100
AcDbLine
 10
2.0
 20
0.0
 30
0.0
 11
4.0
 21
0.0
 31
0.0
  0
ENDBLK
  5
2B6
330
2B4
100
AcDbEntity
  8
0
100
AcDbBlockEnd
  0
BLOCK
  5
2C1
330
2C0
100
AcDbEntity
  8
0
100
AcDbBlockBegin
  2
SW_CENTERMARKSYMBOL_2
 70
     0
 10
0.0
 20
0.0
 30
0.0
  3
SW_CENTERMARKSYMBOL_2
  1

  0
LINE
  5
2C3
330
2C0
100
AcDbEntity
  8
0
  6
Continuous
 62
     0
370
     0
100
AcDbLine
 10
0.0
 20
0.0
 30
0.0
 11
0.0
 21
1.0
 31
0.0
  0
LINE
  5
2C4
330
2C0
100
AcDbEntity
  8
0
  6
Continuous
 62
     0
370
     0
100
AcDbLine
 10
0.0
 20
0.0
 30
0.0
 11
-1.0
 21
0.0
 31
0.0
  0
LINE
  5
2C5
330
2C0
100
AcDbEntity
  8
0
  6
Continuous
 62
     0
370
     0
100
AcDbLine
 10
0.0
 20
0.0
 30
0.0
 11
0.0
 21
-1.0
 31
0.0
  0
LINE
  5
2C6
330
2C0
100
AcDbEntity
  8
0
  6
Continuous
 62
     0
370
     0
100
AcDbLine
 10
0.0
 20
0.0
 30
0.0
 11
1.0
 21
0.0
 31
0.0
  0
LINE
  5
2C7
330
2C0
100
AcDbEntity
  8
0
  6
Continuous
 62
     0
370
     0
100
AcDbLine
 10
0.0
 20
2.0
 30
0.0
 11
0.0
 21
4.0
 31
0.0
  0
LINE
  5
2C8
330
2C0
100
AcDbEntity
  8
0
  6
Continuous
 62
     0
370
     0
100
AcDbLine
 10
-2.0
 20
0.0
 30
0.0
 11
-4.0
 21
0.0
 31
0.0
  0
LINE
  5
2C9
330
2C0
100
AcDbEntity
  8
0
  6
Continuous
 62
     0
370
     0
100
AcDbLine
 10
0.0
 20
-2.0
 30
0.0
 11
0.0
 21
-4.0
 31
0.0
  0
LINE
  5
2CA
330
2C0
100
AcDbEntity
  8
0
  6
Continuous
 62
     0
370
     0
100
AcDbLine
 10
2.0
 20
0.0
 30
0.0
 11
4.0
 21
0.0
 31
0.0
  0
ENDBLK
  5
2C2
330
2C0
100
AcDbEntity
  8
0
100
AcDbBlockEnd
  0
BLOCK
  5
2CD
330
2CC
100
AcDbEntity
  8
0
100
AcDbBlockBegin
  2
SW_CENTERMARKSYMBOL_3
 70
     0
 10
0.0
 20
0.0
 30
0.0
  3
SW_CENTERMARKSYMBOL_3
  1

  0
LINE
  5
2CF
330
2CC
100
AcDbEntity
  8
0
  6
Continuous
 62
     0
370
     0
100
AcDbLine
 10
0.0
 20
0.0
 30
0.0
 11
0.0
 21
1.0
 31
0.0
  0
LINE
  5
2D0
330
2CC
100
AcDbEntity
  8
0
  6
Continuous
 62
     0
370
     0
100
AcDbLine
 10
0.0
 20
0.0
 30
0.0
 11
-1.0
 21
0.0
 31
0.0
  0
LINE
  5
2D1
330
2CC
100
AcDbEntity
  8
0
  6
Continuous
 62
     0
370
     0
100
AcDbLine
 10
0.0
 20
0.0
 30
0.0
 11
0.0
 21
-1.0
 31
0.0
  0
LINE
  5
2D2
330
2CC
100
AcDbEntity
  8
0
  6
Continuous
 62
     0
370
     0
100
AcDbLine
 10
0.0
 20
0.0
 30
0.0
 11
1.0
 21
0.0
 31
0.0
  0
LINE
  5
2D3
330
2CC
100
AcDbEntity
  8
0
  6
Continuous
 62
     0
370
     0
100
AcDbLine
 10
0.0
 20
2.0
 30
0.0
 11
0.0
 21
4.0
 31
0.0
  0
LINE
  5
2D4
330
2CC
100
AcDbEntity
  8
0
  6
Continuous
 62
     0
370
     0
100
AcDbLine
 10
-2.0
 20
0.0
 30
0.0
 11
-4.0
 21
0.0
 31
0.0
  0
LINE
  5
2D5
330
2CC
100
AcDbEntity
  8
0
  6
Continuous
 62
     0
370
     0
100
AcDbLine
 10
0.0
 20
-2.0
 30
0.0
 11
0.0
 21
-4.0
 31
0.0
  0
LINE
  5
2D6
330
2CC
100
AcDbEntity
  8
0
  6
Continuous
 62
     0
370
     0
100
AcDbLine
 10
2.0
 20
0.0
 30
0.0
 11
4.0
 21
0.0
 31
0.0
  0
ENDBLK
  5
2CE
330
2CC
100
AcDbEntity
  8
0
100
AcDbBlockEnd
  0
BLOCK
  5
2D9
330
2D8
100
AcDbEntity
  8
0
100
AcDbBlockBegin
  2
SW_CENTERMARKSYMBOL_4
 70
     0
 10
0.0
 20
0.0
 30
0.0
  3
SW_CENTERMARKSYMBOL_4
  1

  0
LINE
  5
2DB
330
2D8
100
AcDbEntity
  8
0
  6
Continuous
 62
     0
370
     0
100
AcDbLine
 10
0.0
 20
0.0
 30
0.0
 11
0.0
 21
1.0
 31
0.0
  0
LINE
  5
2DC
330
2D8
100
AcDbEntity
  8
0
  6
Continuous
 62
     0
370
     0
100
AcDbLine
 10
0.0
 20
0.0
 30
0.0
 11
-1.0
 21
0.0
 31
0.0
  0
LINE
  5
2DD
330
2D8
100
AcDbEntity
  8
0
  6
Continuous
 62
     0
370
     0
100
AcDbLine
 10
0.0
 20
0.0
 30
0.0
 11
0.0
 21
-1.0
 31
0.0
  0
LINE
  5
2DE
330
2D8
100
AcDbEntity
  8
0
  6
Continuous
 62
     0
370
     0
100
AcDbLine
 10
0.0
 20
0.0
 30
0.0
 11
1.0
 21
0.0
 31
0.0
  0
LINE
  5
2DF
330
2D8
100
AcDbEntity
  8
0
  6
Continuous
 62
     0
370
     0
100
AcDbLine
 10
0.0
 20
2.0
 30
0.0
 11
0.0
 21
4.0
 31
0.0
  0
LINE
  5
2E0
330
2D8
100
AcDbEntity
  8
0
  6
Continuous
 62
     0
370
     0
100
AcDbLine
 10
-2.0
 20
0.0
 30
0.0
 11
-4.0
 21
0.0
 31
0.0
  0
LINE
  5
2E1
330
2D8
100
AcDbEntity
  8
0
  6
Continuous
 62
     0
370
     0
100
AcDbLine
 10
0.0
 20
-2.0
 30
0.0
 11
0.0
 21
-4.0
 31
0.0
  0
LINE
  5
2E2
330
2D8
100
AcDbEntity
  8
0
  6
Continuous
 62
     0
370
     0
100
AcDbLine
 10
2.0
 20
0.0
 30
0.0
 11
4.0
 21
0.0
 31
0.0
  0
ENDBLK
  5
2DA
330
2D8
100
AcDbEntity
  8
0
100
AcDbBlockEnd
  0
BLOCK
  5
2E5
330
2E4
100
AcDbEntity
  8
0
100
AcDbBlockBegin
  2
SW_CENTERMARKSYMBOL_5
 70
     0
 10
0.0
 20
0.0
 30
0.0
  3
SW_CENTERMARKSYMBOL_5
  1

  0
LINE
  5
2E7
330
2E4
100
AcDbEntity
  8
0
  6
Continuous
 62
     0
370
     0
100
AcDbLine
 10
0.0
 20
0.0
 30
0.0
 11
0.0
 21
1.0
 31
0.0
  0
LINE
  5
2E8
330
2E4
100
AcDbEntity
  8
0
  6
Continuous
 62
     0
370
     0
100
AcDbLine
 10
0.0
 20
0.0
 30
0.0
 11
-1.0
 21
0.0
 31
0.0
  0
LINE
  5
2E9
330
2E4
100
AcDbEntity
  8
0
  6
Continuous
 62
     0
370
     0
100
AcDbLine
 10
0.0
 20
0.0
 30
0.0
 11
0.0
 21
-1.0
 31
0.0
  0
LINE
  5
2EA
330
2E4
100
AcDbEntity
  8
0
  6
Continuous
 62
     0
370
     0
100
AcDbLine
 10
0.0
 20
0.0
 30
0.0
 11
1.0
 21
0.0
 31
0.0
  0
LINE
  5
2EB
330
2E4
100
AcDbEntity
  8
0
  6
Continuous
 62
     0
370
     0
100
AcDbLine
 10
0.0
 20
2.0
 30
0.0
 11
0.0
 21
4.0
 31
0.0
  0
LINE
  5
2EC
330
2E4
100
AcDbEntity
  8
0
  6
Continuous
 62
     0
370
     0
100
AcDbLine
 10
-2.0
 20
0.0
 30
0.0
 11
-4.0
 21
0.0
 31
0.0
  0
LINE
  5
2ED
330
2E4
100
AcDbEntity
  8
0
  6
Continuous
 62
     0
370
     0
100
AcDbLine
 10
0.0
 20
-2.0
 30
0.0
 11
0.0
 21
-4.0
 31
0.0
  0
LINE
  5
2EE
330
2E4
100
AcDbEntity
  8
0
  6
Continuous
 62
     0
370
     0
100
AcDbLine
 10
2.0
 20
0.0
 30
0.0
 11
4.0
 21
0.0
 31
0.0
  0
ENDBLK
  5
2E6
330
2E4
100
AcDbEntity
  8
0
100
AcDbBlockEnd
  0
BLOCK
  5
2F1
330
2F0
100
AcDbEntity
  8
0
100
AcDbBlockBegin
  2
SW_CENTERMARKSYMBOL_6
 70
     0
 10
0.0
 20
0.0
 30
0.0
  3
SW_CENTERMARKSYMBOL_6
  1

  0
LINE
  5
2F3
330
2F0
100
AcDbEntity
  8
0
  6
Continuous
 62
     0
370
     0
100
AcDbLine
 10
0.0
 20
0.0
 30
0.0
 11
0.0
 21
1.0
 31
0.0
  0
LINE
  5
2F4
330
2F0
100
AcDbEntity
  8
0
  6
Continuous
 62
     0
370
     0
100
AcDbLine
 10
0.0
 20
0.0
 30
0.0
 11
-1.0
 21
0.0
 31
0.0
  0
LINE
  5
2F5
330
2F0
100
AcDbEntity
  8
0
  6
Continuous
 62
     0
370
     0
100
AcDbLine
 10
0.0
 20
0.0
 30
0.0
 11
0.0
 21
-1.0
 31
0.0
  0
LINE
  5
2F6
330
2F0
100
AcDbEntity
  8
0
  6
Continuous
 62
     0
370
     0
100
AcDbLine
 10
0.0
 20
0.0
 30
0.0
 11
1.0
 21
0.0
 31
0.0
  0
LINE
  5
2F7
330
2F0
100
AcDbEntity
  8
0
  6
Continuous
 62
     0
370
     0
100
AcDbLine
 10
0.0
 20
2.0
 30
0.0
 11
0.0
 21
4.0
 31
0.0
  0
LINE
  5
2F8
330
2F0
100
AcDbEntity
  8
0
  6
Continuous
 62
     0
370
     0
100
AcDbLine
 10
-2.0
 20
0.0
 30
0.0
 11
-4.0
 21
0.0
 31
0.0
  0
LINE
  5
2F9
330
2F0
100
AcDbEntity
  8
0
  6
Continuous
 62
     0
370
     0
100
AcDbLine
 10
0.0
 20
-2.0
 30
0.0
 11
0.0
 21
-4.0
 31
0.0
  0
LINE
  5
2FA
330
2F0
100
AcDbEntity
  8
0
  6
Continuous
 62
     0
370
     0
100
AcDbLine
 10
2.0
 20
0.0
 30
0.0
 11
4.0
 21
0.0
 31
0.0
  0
ENDBLK
  5
2F2
330
2F0
100
AcDbEntity
  8
0
100
AcDbBlockEnd
  0
BLOCK
  5
2FD
330
2FC
100
AcDbEntity
  8
0
100
AcDbBlockBegin
  2
SW_CENTERMARKSYMBOL_7
 70
     0
 10
0.0
 20
0.0
 30
0.0
  3
SW_CENTERMARKSYMBOL_7
  1

  0
LINE
  5
2FF
330
2FC
100
AcDbEntity
  8
0
  6
Continuous
 62
     0
370
     0
100
AcDbLine
 10
0.0
 20
0.0
 30
0.0
 11
0.0
 21
1.0
 31
0.0
  0
LINE
  5
300
330
2FC
100
AcDbEntity
  8
0
  6
Continuous
 62
     0
370
     0
100
AcDbLine
 10
0.0
 20
0.0
 30
0.0
 11
-1.0
 21
0.0
 31
0.0
  0
LINE
  5
301
330
2FC
100
AcDbEntity
  8
0
  6
Continuous
 62
     0
370
     0
100
AcDbLine
 10
0.0
 20
0.0
 30
0.0
 11
0.0
 21
-1.0
 31
0.0
  0
LINE
  5
302
330
2FC
100
AcDbEntity
  8
0
  6
Continuous
 62
     0
370
     0
100
AcDbLine
 10
0.0
 20
0.0
 30
0.0
 11
1.0
 21
0.0
 31
0.0
  0
LINE
  5
303
330
2FC
100
AcDbEntity
  8
0
  6
Continuous
 62
     0
370
     0
100
AcDbLine
 10
0.0
 20
2.0
 30
0.0
 11
0.0
 21
4.0
 31
0.0
  0
LINE
  5
304
330
2FC
100
AcDbEntity
  8
0
  6
Continuous
 62
     0
370
     0
100
AcDbLine
 10
-2.0
 20
0.0
 30
0.0
 11
-4.0
 21
0.0
 31
0.0
  0
LINE
  5
305
330
2FC
100
AcDbEntity
  8
0
  6
Continuous
 62
     0
370
     0
100
AcDbLine
 10
0.0
 20
-2.0
 30
0.0
 11
0.0
 21
-4.0
 31
0.0
  0
LINE
  5
306
330
2FC
100
AcDbEntity
  8
0
  6
Continuous
 62
     0
370
     0
100
AcDbLine
 10
2.0
 20
0.0
 30
0.0
 11
4.0
 21
0.0
 31
0.0
  0
ENDBLK
  5
2FE
330
2FC
100
AcDbEntity
  8
0
100
AcDbBlockEnd
  0
BLOCK
  5
379
330
378
100
AcDbEntity
  8
0
100
AcDbBlockBegin
  2
*D38
 70
     1
 10
0.0
 20
0.0
 30
0.0
  3
*D38
  1

  0
SOLID
  5
37B
330
378
100
AcDbEntity
  8
0
  6
Continuous
 62
     7
370
     0
100
AcDbTrace
 10
227.5615758755
 20
90.9317640513
 30
0.0
 11
228.0615758755
 21
94.2317640513
 31
0.0
 12
227.0615758755
 22
94.2317640513
 32
0.0
 13
227.0615758755
 23
94.2317640513
 33
0.0
  0
SOLID
  5
37C
330
378
100
AcDbEntity
  8
0
  6
Continuous
 62
     7
370
     0
100
AcDbTrace
 10
227.5615758755
 20
87.9317640513
 30
0.0
 11
227.0615758755
 21
84.6317640513
 31
0.0
 12
228.0615758755
 22
84.6317640513
 32
0.0
 13
228.0615758755
 23
84.6317640513
 33
0.0
  0
LINE
  5
37D
330
378
100
AcDbEntity
  8
0
  6
Continuous
 62
     7
370
     0
100
AcDbLine
 10
217.5615758755
 20
90.9317640513
 30
0.0
 11
228.5615758755
 21
90.9317640513
 31
0.0
  0
LINE
  5
37E
330
378
100
AcDbEntity
  8
0
  6
Continuous
 62
     7
370
     0
100
AcDbLine
 10
217.5615758755
 20
87.9317640513
 30
0.0
 11
228.5615758755
 21
87.9317640513
 31
0.0
  0
LINE
  5
37F
330
378
100
AcDbEntity
  8
0
  6
Continuous
 62
     7
370
     0
100
AcDbLine
 10
227.5615758755
 20
90.9317640513
 30
0.0
 11
227.5615758755
 21
99.1549577428
 31
0.0
  0
LINE
  5
380
330
378
100
AcDbEntity
  8
0
  6
Continuous
 62
     7
370
     0
100
AcDbLine
 10
227.5615758755
 20
90.9317640513
 30
0.0
 11
227.5615758755
 21
87.9317640513
 31
0.0
  0
LINE
  5
381
330
378
100
AcDbEntity
  8
0
  6
Continuous
 62
     7
370
     0
100
AcDbLine
 10
227.5615758755
 20
87.9317640513
 30
0.0
 11
227.5615758755
 21
81.6817640513
 31
0.0
  0
MTEXT
  5
382
330
378
100
AcDbEntity
  8
0
  6
Continuous
 62
     7
370
     0
100
AcDbMText
 10
223.0498385535
 20
94.894125058
 30
0.0
 40
3.5
 41
0.0
 71
     1
 72
     1
  1
3
  7
SLDTEXTSTYLE1
 11
-7.044195017643634E-15
 21
1.0
 31
0.0
 73
     1
 44
1.0
  0
ENDBLK
  5
37A
330
378
100
AcDbEntity
  8
0
100
AcDbBlockEnd
  0
ENDSEC
  0
SECTION
  2
ENTITIES
  0
LINE
  5
193
330
1F
100
AcDbEntity
  8
LINIEN-DICK
100
AcDbLine
 10
104.8
 20
60.25
 30
0.0
 11
104.8
 21
5.0
 31
0.0
  0
LINE
  5
194
330
1F
100
AcDbEntity
  8
0
  6
Continuous
 62
     7
370
     0
100
AcDbLine
 10
112.42
 20
43.25
 30
0.0
 11
112.42
 21
5.0
 31
0.0
  0
LINE
  5
195
330
1F
100
AcDbEntity
  8
0
  6
Continuous
 62
     7
370
     0
100
AcDbLine
 10
137.82
 20
5.0
 30
0.0
 11
137.82
 21
43.25
 31
0.0
  0
LINE
  5
196
330
1F
100
AcDbEntity
  8
0
  6
Continuous
 62
     7
370
     0
100
AcDbLine
 10
158.14
 20
22.0
 30
0.0
 11
292.0
 21
22.0
 31
0.0
  0
LINE
  5
197
330
1F
100
AcDbEntity
  8
0
  6
Continuous
 62
     7
370
     0
100
AcDbLine
 10
292.0
 20
43.25
 30
0.0
 11
104.8
 21
43.25
 31
0.0
  0
LINE
  5
198
330
1F
100
AcDbEntity
  8
LINIEN-DICK
100
AcDbLine
 10
104.8
 20
60.25
 30
0.0
 11
292.0
 21
60.25
 31
0.0
  0
LINE
  5
199
330
1F
100
AcDbEntity
  8
0
  6
Continuous
 62
     7
370
     0
100
AcDbLine
 10
158.14
 20
38.9447711707
 30
0.0
 11
104.8
 21
38.9447711707
 31
0.0
  0
LINE
  5
19A
330
1F
100
AcDbEntity
  8
LINIEN-DICK
100
AcDbLine
 10
158.14
 20
5.0
 30
0.0
 11
158.14
 21
60.25
 31
0.0
  0
LINE
  5
19B
330
1F
100
AcDbEntity
  8
LINIEN-DICK
100
AcDbLine
 10
201.32
 20
60.25
 30
0.0
 11
201.32
 21
5.0
 31
0.0
  0
LINE
  5
19C
330
1F
100
AcDbEntity
  8
0
  6
Continuous
 62
     7
370
     0
100
AcDbLine
 10
150.52
 20
43.25
 30
0.0
 11
150.52
 21
5.0
 31
0.0
  0
LINE
  5
19D
330
1F
100
AcDbEntity
  8
0
  6
Continuous
 62
     7
370
     0
100
AcDbLine
 10
167.5491845626
 20
22.0
 30
0.0
 11
167.5491845626
 21
43.25
 31
0.0
  0
LINE
  5
19E
330
1F
100
AcDbEntity
  8
0
  6
Continuous
 62
     7
370
     0
100
AcDbLine
 10
158.14
 20
13.5
 30
0.0
 11
104.8
 21
13.5
 31
0.0
  0
LINE
  5
19F
330
1F
100
AcDbEntity
  8
0
  6
Continuous
 62
     7
370
     0
100
AcDbLine
 10
183.6969257405
 20
60.25
 30
0.0
 11
183.6969257405
 21
22.0
 31
0.0
  0
LINE
  5
1A0
330
1F
100
AcDbEntity
  8
0
  6
Continuous
 62
     7
370
     0
100
AcDbLine
 10
245.48
 20
5.0
 30
0.0
 11
245.48
 21
9.25
 31
0.0
  0
LINE
  5
1A1
330
1F
100
AcDbEntity
  8
0
  6
Continuous
 62
     7
370
     0
100
AcDbLine
 10
253.28
 20
53.875
 30
0.0
 11
253.28
 21
60.25
 31
0.0
  0
LINE
  5
1A2
330
1F
100
AcDbEntity
  8
0
  6
Continuous
 62
     7
370
     0
100
AcDbLine
 10
104.8
 20
9.23
 30
0.0
 11
158.14
 21
9.23
 31
0.0
  0
LINE
  5
1A3
330
1F
100
AcDbEntity
  8
0
  6
Continuous
 62
     7
370
     0
100
AcDbLine
 10
276.68
 20
9.25
 30
0.0
 11
276.68
 21
22.0
 31
0.0
  0
LINE
  5
1A4
330
1F
100
AcDbEntity
  8
0
  6
Continuous
 62
     7
370
     0
100
AcDbLine
 10
292.0
 20
53.875
 30
0.0
 11
201.32
 21
53.875
 31
0.0
  0
LINE
  5
1A5
330
1F
100
AcDbEntity
  8
LINIEN-DICK
100
AcDbLine
 10
292.0
 20
5.0
 30
0.0
 11
292.0
 21
60.25
 31
0.0
  0
LINE
  5
1A6
330
1F
100
AcDbEntity
  8
LINIEN-DICK
100
AcDbLine
 10
104.8
 20
5.0
 30
0.0
 11
292.0
 21
5.0
 31
0.0
  0
LINE
  5
1A7
330
1F
100
AcDbEntity
  8
0
  6
Continuous
 62
     7
370
     0
100
AcDbLine
 10
158.14
 20
17.75
 30
0.0
 11
104.8
 21
17.75
 31
0.0
  0
LINE
  5
1A8
330
1F
100
AcDbEntity
  8
0
  6
Continuous
 62
     7
370
     0
100
AcDbLine
 10
158.14
 20
22.0
 30
0.0
 11
104.8
 21
22.0
 31
0.0
  0
LINE
  5
1A9
330
1F
100
AcDbEntity
  8
0
  6
Continuous
 62
     7
370
     0
100
AcDbLine
 10
201.32
 20
26.25
 30
0.0
 11
104.8
 21
26.25
 31
0.0
  0
LINE
  5
1AA
330
1F
100
AcDbEntity
  8
0
  6
Continuous
 62
     7
370
     0
100
AcDbLine
 10
201.32
 20
30.5
 30
0.0
 11
104.8
 21
30.5
 31
0.0
  0
LINE
  5
1AB
330
1F
100
AcDbEntity
  8
0
  6
Continuous
 62
     7
370
     0
100
AcDbLine
 10
201.32
 20
34.75
 30
0.0
 11
104.8
 21
34.75
 31
0.0
  0
LINE
  5
1AC
330
1F
100
AcDbEntity
  8
0
  6
Continuous
 62
     7
370
     0
100
AcDbLine
 10
201.32
 20
38.9447711707
 30
0.0
 11
158.14
 21
38.9447711707
 31
0.0
  0
LINE
  5
1AD
330
1F
100
AcDbEntity
  8
0
  6
Continuous
 62
     7
370
     0
100
AcDbLine
 10
292.0
 20
13.5
 30
0.0
 11
276.68
 21
13.5
 31
0.0
  0
LINE
  5
1AE
330
1F
100
AcDbEntity
  8
0
  6
Continuous
 62
     7
370
     0
100
AcDbLine
 10
201.32
 20
9.23
 30
0.0
 11
292.0
 21
9.23
 31
0.0
  0
LINE
  5
1AF
330
1F
100
AcDbEntity
  8
0
  6
Continuous
 62
     7
370
     0
100
AcDbLine
 10
158.14
 20
9.23
 30
0.0
 11
201.32
 21
9.23
 31
0.0
  0
LINE
  5
1B0
330
1F
100
AcDbEntity
  8
0
  6
Continuous
 62
     7
370
     0
100
AcDbLine
 10
0.0
 20
210.0
 30
0.0
 11
297.0
 21
210.0
 31
0.0
  0
LINE
  5
1B1
330
1F
100
AcDbEntity
  8
0
  6
Continuous
 62
     7
370
     0
100
AcDbLine
 10
0.0
 20
210.0
 30
0.0
 11
0.0
 21
0.1
 31
0.0
  0
LINE
  5
1B2
330
1F
100
AcDbEntity
  8
0
  6
Continuous
 62
     7
370
     0
100
AcDbLine
 10
0.0
 20
0.1
 30
0.0
 11
297.0
 21
0.1
 31
0.0
  0
LINE
  5
1B3
330
1F
100
AcDbEntity
  8
0
  6
Continuous
 62
     7
370
     0
100
AcDbLine
 10
297.0
 20
210.0
 30
0.0
 11
297.0
 21
0.1
 31
0.0
  0
LINE
  5
1B4
330
1F
100
AcDbEntity
  8
0
  6
Continuous
 62
     7
370
     0
100
AcDbLine
 10
21.0
 20
205.0
 30
0.0
 11
21.0
 21
5.0
 31
0.0
  0
LINE
  5
1B5
330
1F
100
AcDbEntity
  8
LINIEN-DICK
100
AcDbLine
 10
292.0
 20
205.0
 30
0.0
 11
5.0
 21
205.0
 31
0.0
  0
LINE
  5
1B6
330
1F
100
AcDbEntity
  8
LINIEN-DICK
100
AcDbLine
 10
5.0
 20
205.0
 30
0.0
 11
5.0
 21
5.0
 31
0.0
  0
LINE
  5
1B7
330
1F
100
AcDbEntity
  8
LINIEN-DICK
100
AcDbLine
 10
5.0
 20
5.0
 30
0.0
 11
104.8
 21
5.0
 31
0.0
  0
LINE
  5
1B8
330
1F
100
AcDbEntity
  8
LINIEN-DICK
100
AcDbLine
 10
292.0
 20
60.25
 30
0.0
 11
292.0
 21
205.0
 31
0.0
  0
INSERT
  5
1B9
330
1F
100
AcDbEntity
  8
0
  6
Continuous
 62
     7
100
AcDbBlockReference
  2
Symbol Werkstueckkanten
 10
138.6553563011
 20
-107.8608369977
 30
0.0
  0
INSERT
  5
1BA
330
1F
100
AcDbEntity
  8
0
  6
Continuous
 62
     7
100
AcDbBlockReference
  2
Masswerte Freimasstoleranz mittel
 10
-7.9840665762
 20
-136.4050277198
 30
0.0
  0
INSERT
  5
1BB
330
1F
100
AcDbEntity
  8
0
  6
Continuous
 62
     7
100
AcDbBlockReference
  2
effeff Logo fuer Schriftkopf
 10
158.477127636
 20
9.5923728301
 30
0.0
  0
POINT
  5
1BC
330
1F
100
AcDbEntity
  8
0
  6
Continuous
 62
     7
370
     0
100
AcDbPoint
 10
0.0
 20
0.0
 30
0.0
  0
MTEXT
  5
1BD
330
1F
100
AcDbEntity
  8
0
  6
Continuous
 62
     7
370
     0
100
AcDbMText
 10
202.8260642912
 20
21.0127144526
 30
0.0
 40
2.5
 41
0.0
 71
     1
 72
     1
  1
Zeichnungsnummer/drawing number:
  7
SLDTEXTSTYLE1
 73
     1
 44
1.0
  0
MTEXT
  5
1BE
330
1F
100
AcDbEntity
  8
0
  6
Continuous
 62
     7
370
     0
100
AcDbMText
 10
202.3698114258
 20
42.6116733069
 30
0.0
 40
2.5
 41
0.0
 71
     1
 72
     1
  1
Benennung/name:
  7
SLDTEXTSTYLE1
 73
     1
 44
1.0
  0
MTEXT
  5
1C0
330
1F
100
AcDbEntity
  8
0
  6
Continuous
 62
     7
370
     0
100
AcDbMText
 10
278.6114022462
 20
12.5880088784
 30
0.0
 40
2.0
 41
0.0
 71
     1
 72
     1
  1
1 von 1
  7
SLDTEXTSTYLE5
 73
     1
 44
1.0
  0
MTEXT
  5
1C1
330
1F
100
AcDbEntity
  8
0
  6
Continuous
 62
     7
370
     0
100
AcDbMText
 10
278.6114022462
 20
16.815083371
 30
0.0
 40
2.0
 41
0.0
 71
     1
 72
     1
  1
1 (A4)
  7
SLDTEXTSTYLE1
 73
     1
 44
1.0
  0
INSERT
  5
1C7
330
1F
100
AcDbEntity
  8
0
  6
Continuous
 62
     7
370
     0
100
AcDbBlockReference
  2
SW_NOTE_7
 10
278.8763365104
 20
20.0997764532
 30
0.0
  0
MTEXT
  5
1C8
330
1F
100
AcDbEntity
  8
0
  6
Continuous
 62
     7
370
     0
100
AcDbMText
 10
184.8783593407
 20
42.1115838431
 30
0.0
 40
2.0
 41
0.0
 71
     1
 72
     1
  1
Name/name
  7
SLDTEXTSTYLE1
 73
     1
 44
1.0
  0
MTEXT
  5
1C9
330
1F
100
AcDbEntity
  8
0
  6
Continuous
 62
     7
370
     0
100
AcDbMText
 10
168.0457269313
 20
42.1115838431
 30
0.0
 40
2.0
 41
0.0
 71
     1
 72
     1
  1
Datum/date
  7
SLDTEXTSTYLE1
 73
     1
 44
1.0
  0
MTEXT
  5
1CA
330
1F
100
AcDbEntity
  8
0
  6
Continuous
 62
     7
370
     0
100
AcDbMText
 10
202.7973605375
 20
57.9230924783
 30
0.0
 40
2.5
 41
0.0
 71
     1
 72
     1
  1
Maßstab/scale: 1:1
  7
SLDTEXTSTYLE1
 73
     1
 44
1.0
  0
INSERT
  5
1D0
330
1F
100
AcDbEntity
  8
0
  6
Continuous
 62
     7
370
     0
100
AcDbBlockReference
  2
SW_NOTE_8
 10
158.9346052427
 20
32.414082645
 30
0.0
  0
INSERT
  5
1D6
330
1F
100
AcDbEntity
  8
0
  6
Continuous
 62
     7
370
     0
100
AcDbBlockReference
  2
SW_NOTE_9
 10
158.9346052427
 20
36.5320870808
 30
0.0
  0
INSERT
  5
1DC
330
1F
100
AcDbEntity
  8
0
  6
Continuous
 62
     7
370
     0
100
AcDbBlockReference
  2
SW_NOTE_10
 10
151.7304078377
 20
7.0896414988
 30
0.0
  0
INSERT
  5
1E2
330
1F
100
AcDbEntity
  8
0
  6
Continuous
 62
     7
370
     0
100
AcDbBlockReference
  2
SW_NOTE_11
 10
141.2163453191
 20
7.0896414988
 30
0.0
  0
INSERT
  5
1E8
330
1F
100
AcDbEntity
  8
0
  6
Continuous
 62
     7
370
     0
100
AcDbBlockReference
  2
SW_NOTE_12
 10
119.0782057238
 20
7.1008643908
 30
0.0
  0
INSERT
  5
1EE
330
1F
100
AcDbEntity
  8
0
  6
Continuous
 62
     7
370
     0
100
AcDbBlockReference
  2
SW_NOTE_13
 10
105.6542475233
 20
7.1008643908
 30
0.0
  0
MTEXT
  5
1EF
330
1F
100
AcDbEntity
  8
0
  6
Continuous
 62
     7
370
     0
100
AcDbMText
 10
202.6265686772
 20
52.7318461146
 30
0.0
 40
2.5
 41
0.0
 71
     1
 72
     1
  1
Werkstoff/material:
  7
SLDTEXTSTYLE1
 73
     1
 44
1.0
  0
MTEXT
  5
1F0
330
1F
100
AcDbEntity
  8
0
  6
Continuous
 62
     7
370
     0
100
AcDbMText
 10
264.8518368252
 20
58.0934503649
 30
0.0
 40
2.6458333333
 41
0.0
 71
     1
 72
     1
  1
156457
  7
SLDTEXTSTYLE4
 73
     1
 44
1.0
  0
MTEXT
  5
1F1
330
1F
100
AcDbEntity
  8
0
  6
Continuous
 62
     7
370
     0
100
AcDbMText
 10
247.8297518859
 20
52.2930871614
 30
0.0
 40
2.1166666667
 41
0.0
 71
     1
 72
     1
  1
1.4016
  7
SLDTEXTSTYLE4
 73
     1
 44
1.0
  0
MTEXT
  5
1F3
330
1F
100
AcDbEntity
  8
0
  6
Continuous
 62
     7
370
     0
100
AcDbMText
 10
246.0972213479
 20
47.8407900889
 30
0.0
 40
2.1166666667
 41
0.0
 71
     1
 72
     1
  1
X 6 Cr 17
  7
SLDTEXTSTYLE6
 73
     1
 44
1.0
  0
MTEXT
  5
1F4
330
1F
100
AcDbEntity
  8
0
  6
Continuous
 62
     7
370
     0
100
AcDbMText
 10
229.6370295717
 20
37.6663683176
 30
0.0
 40
3.7041666667
 41
0.0
 71
     1
 72
     1
  1
Distanzblech
  7
SLDTEXTSTYLE4
 73
     1
 44
1.0
  0
MTEXT
  5
1F5
330
1F
100
AcDbEntity
  8
0
  6
Continuous
 62
     7
370
     0
100
AcDbMText
 10
202.8546764366
 20
15.7406246939
 30
0.0
 40
3.7041666667
 41
0.0
 71
     1
 72
     1
  1
65.00-00-95_50
  7
SLDTEXTSTYLE4
 73
     1
 44
1.0
  0
MTEXT
  5
1F6
330
1F
100
AcDbEntity
  8
0
  6
Continuous
 62
     7
370
     0
100
AcDbMText
 10
188.5271967478
 20
38.0103977868
 30
0.0
 40
2.1166666667
 41
0.0
 71
     1
 72
     1
  1
failer
  7
SLDTEXTSTYLE4
 73
     1
 44
1.0
  0
MTEXT
  5
1F7
330
1F
100
AcDbEntity
  8
0
  6
Continuous
 62
     7
370
     0
100
AcDbMText
 10
169.132455616
 20
38.0103977868
 30
0.0
 40
2.1166666667
 41
0.0
 71
     1
 72
     1
  1
26.05.09
  7
SLDTEXTSTYLE4
 73
     1
 44
1.0
  0
MTEXT
  5
1F8
330
1F
100
AcDbEntity
  8
0
  6
Continuous
 62
     7
370
     0
100
AcDbMText
 10
212.1672714001
 20
27.1898054285
 30
0.0
 40
3.7041666667
 41
0.0
 71
     1
 72
     1
  1
f. MPL Schwenkschl. 3 mm
  7
SLDTEXTSTYLE4
 73
     1
 44
1.0
  0
MTEXT
  5
1F9
330
1F
100
AcDbEntity
  8
0
  6
Continuous
 62
     7
370
     0
100
AcDbMText
 10
228.0128737784
 20
32.7256330251
 30
0.0
 40
3.7041666667
 41
0.0
 71
     1
 72
     1
  1
distance plate
  7
SLDTEXTSTYLE4
 73
     1
 44
1.0
  0
MTEXT
  5
1FA
330
1F
100
AcDbEntity
  8
0
  6
Continuous
 62
     7
370
     0
100
AcDbMText
 10
202.8546764366
 20
8.6384644715
 30
0.0
 40
2.9104166667
 41
0.0
 71
     1
 72
     1
  1
Z65-49B35----01
  7
SLDTEXTSTYLE4
 73
     1
 44
1.0
  0
INSERT
  5
200
330
1F
100
AcDbEntity
  8
0
  6
Continuous
 62
     7
370
     0
100
AcDbBlockReference
  2
SW_NOTE_14
 10
158.9346052427
 20
24.1539251637
 30
0.0
  0
INSERT
  5
206
330
1F
100
AcDbEntity
  8
0
  6
Continuous
 62
     7
370
     0
100
AcDbBlockReference
  2
SW_NOTE_15
 10
185.8269309407
 20
54.7244543112
 30
0.0
  0
MTEXT
  5
207
330
1F
100
AcDbEntity
  8
0
  6
Continuous
 62
     7
370
     0
100
AcDbMText
 10
197.2733049032
 20
48.3651517073
 30
0.0
 40
2.6458333333
 41
0.0
 71
     1
 72
     1
  1
g
  7
SLDTEXTSTYLE1
 73
     1
 44
1.0
  0
MTEXT
  5
208
330
1F
100
AcDbEntity
  8
0
  6
Continuous
 62
     7
370
     0
100
AcDbMText
 10
185.8269309407
 20
48.3651517656
 30
0.0
 40
2.6458333333
 41
0.0
 71
     1
 72
     1
  1
52.700
  7
SLDTEXTSTYLE1
 73
     1
 44
1.0
  0
LINE
  5
209
330
1F
100
AcDbEntity
  8
0
  6
Continuous
 62
     7
370
    40
100
AcDbLine
 10
208.0615758755
 20
149.7560311284
 30
0.0
 11
208.0615758755
 21
137.7560311284
 31
0.0
  0
ARC
  5
20A
330
1F
100
AcDbEntity
  8
0
  6
Continuous
 62
     7
370
    40
100
AcDbCircle
 10
211.0615758755
 20
137.7560311284
 30
0.0
 40
3.000000000000057
100
AcDbArc
 50
180.0
 51
0.0
  0
LINE
  5
20B
330
1F
100
AcDbEntity
  8
0
  6
Continuous
 62
     7
370
    40
100
AcDbLine
 10
214.0615758755
 20
137.7560311284
 30
0.0
 11
214.0615758755
 21
149.7560311284
 31
0.0
  0
ARC
  5
20C
330
1F
100
AcDbEntity
  8
0
  6
Continuous
 62
     7
370
    40
100
AcDbCircle
 10
211.0615758755
 20
149.7560311284
 30
0.0
 40
3.000000000000057
100
AcDbArc
 50
0.0
 51
180.0
  0
LINE
  5
20D
330
1F
100
AcDbEntity
  8
0
  6
Continuous
 62
     7
370
    40
100
AcDbLine
 10
107.5615758755
 20
136.2560311284
 30
0.0
 11
177.5615758755
 21
136.2560311284
 31
0.0
  0
LINE
  5
20E
330
1F
100
AcDbEntity
  8
0
  6
Continuous
 62
     7
370
    40
100
AcDbLine
 10
177.5615758755
 20
136.2560311284
 30
0.0
 11
177.5615758755
 21
151.2560311284
 31
0.0
  0
LINE
  5
20F
330
1F
100
AcDbEntity
  8
0
  6
Continuous
 62
     7
370
    40
100
AcDbLine
 10
177.5615758755
 20
151.2560311284
 30
0.0
 11
107.5615758755
 21
151.2560311284
 31
0.0
  0
LINE
  5
210
330
1F
100
AcDbEntity
  8
0
  6
Continuous
 62
     7
370
    40
100
AcDbLine
 10
107.5615758755
 20
151.2560311284
 30
0.0
 11
107.5615758755
 21
136.2560311284
 31
0.0
  0
CIRCLE
  5
211
330
1F
100
AcDbEntity
  8
0
  6
Continuous
 62
     7
370
    40
100
AcDbCircle
 10
183.5615758755
 20
143.7560311284
 30
0.0
 40
3.0
  0
CIRCLE
  5
212
330
1F
100
AcDbEntity
  8
0
  6
Continuous
 62
     7
370
    40
100
AcDbCircle
 10
101.5615758755
 20
143.7560311284
 30
0.0
 40
3.0
  0
LINE
  5
213
330
1F
100
AcDbEntity
  8
0
  6
Continuous
 62
     7
370
    40
100
AcDbLine
 10
217.5615758755
 20
155.7560311284
 30
0.0
 11
67.5615758755
 21
155.7560311284
 31
0.0
  0
LINE
  5
214
330
1F
100
AcDbEntity
  8
0
  6
Continuous
 62
     7
370
    40
100
AcDbLine
 10
217.5615758755
 20
131.7560311284
 30
0.0
 11
217.5615758755
 21
155.7560311284
 31
0.0
  0
LINE
  5
215
330
1F
100
AcDbEntity
  8
0
  6
Continuous
 62
     7
370
    40
100
AcDbLine
 10
67.5615758755
 20
131.7560311284
 30
0.0
 11
217.5615758755
 21
131.7560311284
 31
0.0
  0
LINE
  5
216
330
1F
100
AcDbEntity
  8
0
  6
Continuous
 62
     7
370
    40
100
AcDbLine
 10
67.5615758755
 20
155.7560311284
 30
0.0
 11
67.5615758755
 21
131.7560311284
 31
0.0
  0
CIRCLE
  5
217
330
1F
100
AcDbEntity
  8
0
  6
Continuous
 62
     7
370
    40
100
AcDbCircle
 10
84.5615758755
 20
143.7560311284
 30
0.0
 40
3.000000000000014
  0
CIRCLE
  5
218
330
1F
100
AcDbEntity
  8
0
  6
Continuous
 62
     7
370
    40
100
AcDbCircle
 10
200.5615758755
 20
143.7560311284
 30
0.0
 40
3.0
  0
LINE
  5
219
330
1F
100
AcDbEntity
  8
0
  6
Continuous
 62
     7
370
    40
100
AcDbLine
 10
71.0615758755
 20
149.7560311284
 30
0.0
 11
71.0615758755
 21
137.7560311284
 31
0.0
  0
ARC
  5
21A
330
1F
100
AcDbEntity
  8
0
  6
Continuous
 62
     7
370
    40
100
AcDbCircle
 10
74.0615758755
 20
137.7560311284
 30
0.0
 40
3.0
100
AcDbArc
 50
180.0
 51
0.0
  0
LINE
  5
21B
330
1F
100
AcDbEntity
  8
0
  6
Continuous
 62
     7
370
    40
100
AcDbLine
 10
77.0615758755
 20
137.7560311284
 30
0.0
 11
77.0615758755
 21
149.7560311284
 31
0.0
  0
ARC
  5
21C
330
1F
100
AcDbEntity
  8
0
  6
Continuous
 62
     7
370
    40
100
AcDbCircle
 10
74.0615758755
 20
149.7560311284
 30
0.0
 40
3.0
100
AcDbArc
 50
0.0
 51
180.0
  0
LINE
  5
21D
330
1F
100
AcDbEntity
  8
0
  6
Continuous
 62
     7
370
     0
100
AcDbLine
 10
67.5615758755
 20
143.7560311284
 30
0.0
 11
217.5615758755
 21
143.7560311284
 31
0.0
  0
DIMENSION
  5
21E
330
1F
100
AcDbEntity
  8
0
  6
Continuous
 62
     7
370
     0
100
AcDbDimension
  2
*D20
 10
177.5615758755
 20
165.7560311284
 30
0.0
 11
142.5615758755
 21
165.7560311284
 31
0.0
 70
   160
 71
     2
 42
-1.0
  3
SLDDIMSTYLE0
100
AcDbAlignedDimension
 13
107.5615758755
 23
151.2560311284
 33
0.0
 14
177.5615758755
 24
151.2560311284
 34
0.0
100
AcDbRotatedDimension
  0
DIMENSION
  5
22A
330
1F
100
AcDbEntity
  8
0
  6
Continuous
 62
     7
370
     0
100
AcDbDimension
  2
*D21
 10
211.0615758755
 20
179.7560311284
 30
0.0
 11
142.5615758755
 21
179.7560311284
 31
0.0
 70
   160
 71
     2
 42
-1.0
  3
SLDDIMSTYLE1
100
AcDbAlignedDimension
 13
74.0615758755
 23
153.7560311284
 33
0.0
 14
211.0615758755
 24
153.7560311284
 34
0.0
100
AcDbRotatedDimension
  0
DIMENSION
  5
236
330
1F
100
AcDbEntity
  8
0
  6
Continuous
 62
     7
370
     0
100
AcDbDimension
  2
*D22
 10
217.5615758755
 20
193.7560311284
 30
0.0
 11
142.5615758755
 21
193.7560311284
 31
0.0
 70
   160
 71
     2
 42
-1.0
  3
SLDDIMSTYLE2
100
AcDbAlignedDimension
 13
67.5615758755
 23
155.7560311284
 33
0.0
 14
217.5615758755
 24
155.7560311284
 34
0.0
100
AcDbRotatedDimension
  0
DIMENSION
  5
244
330
1F
100
AcDbEntity
  8
0
  6
Continuous
 62
     7
370
     0
100
AcDbDimension
  2
*D23
 10
96.6419904535
 20
136.2560311284
 30
0.0
 11
96.6419904535
 21
143.7560311284
 31
0.0
 70
   160
 71
     2
 42
-1.0
  3
SLDDIMSTYLE3
100
AcDbAlignedDimension
 13
107.5615758755
 23
151.2560311284
 33
0.0
 14
107.5615758755
 24
136.2560311284
 34
0.0
 50
90.0
100
AcDbRotatedDimension
  0
DIMENSION
  5
254
330
1F
100
AcDbEntity
  8
0
  6
Continuous
 62
     7
370
     0
100
AcDbDimension
  2
*D24
 10
183.5615758755
 20
121.7560311284
 30
0.0
 11
142.5615758755
 21
121.7560311284
 31
0.0
 70
   160
 71
     2
 42
-1.0
  3
SLDDIMSTYLE1
100
AcDbAlignedDimension
 13
101.5615758755
 23
139.7560311284
 33
0.0
 14
183.5615758755
 24
139.7560311284
 34
0.0
100
AcDbRotatedDimension
  0
DIMENSION
  5
25F
330
1F
100
AcDbEntity
  8
0
  6
Continuous
 62
     7
370
     0
100
AcDbDimension
  2
*D25
 10
200.5615758755
 20
114.7560311284
 30
0.0
 11
142.5615758755
 21
114.7560311284
 31
0.0
 70
   160
 71
     2
 42
-1.0
  3
SLDDIMSTYLE1
100
AcDbAlignedDimension
 13
84.5615758755
 23
139.7560311284
 33
0.0
 14
200.5615758755
 24
139.7560311284
 34
0.0
100
AcDbRotatedDimension
  0
DIMENSION
  5
26A
330
1F
100
AcDbEntity
  8
0
  6
Continuous
 62
     7
370
     0
100
AcDbDimension
  2
*D26
 10
77.0615758755
 20
121.7560311284
 30
0.0
 11
63.9223572297
 21
121.7560311284
 31
0.0
 70
   160
 71
     2
 42
-1.0
  3
SLDDIMSTYLE3
100
AcDbAlignedDimension
 13
71.0615758755
 23
137.7560311284
 33
0.0
 14
77.0615758755
 24
137.7560311284
 34
0.0
100
AcDbRotatedDimension
  0
DIMENSION
  5
279
330
1F
100
AcDbEntity
  8
0
  6
Continuous
 62
     7
370
     0
100
AcDbDimension
  2
*D27
 10
57.5615758755
 20
137.7560311284
 30
0.0
 11
57.5615758755
 21
143.7560311284
 31
0.0
 70
   160
 71
     2
 42
-1.0
  3
SLDDIMSTYLE4
100
AcDbAlignedDimension
 13
70.0615758755
 23
149.7560311284
 33
0.0
 14
70.0615758755
 24
137.7560311284
 34
0.0
 50
90.0
100
AcDbRotatedDimension
  0
DIMENSION
  5
287
330
1F
100
AcDbEntity
  8
0
  6
Continuous
 62
     7
370
     0
100
AcDbDimension
  2
*D28
 10
43.5615758755
 20
131.7560311284
 30
0.0
 11
43.5615758755
 21
143.7560311284
 31
0.0
 70
   160
 71
     2
 42
-1.0
  3
SLDDIMSTYLE5
100
AcDbAlignedDimension
 13
67.5615758755
 23
155.7560311284
 33
0.0
 14
67.5615758755
 24
131.7560311284
 34
0.0
 50
90.0
100
AcDbRotatedDimension
  0
DIMENSION
  5
297
330
1F
100
AcDbEntity
  8
0
  6
Continuous
 62
     7
370
     0
100
AcDbDimension
  2
*D29
 10
203.5615758755
 20
165.7560311284
 30
0.0
 11
189.1313229572
 21
165.7560311284
 31
0.0
 70
   160
  1
%%c<>
 71
     2
 42
-1.0
  3
SLDDIMSTYLE6
100
AcDbAlignedDimension
 13
197.5615758755
 23
143.7560311284
 33
0.0
 14
203.5615758755
 24
143.7560311284
 34
0.0
100
AcDbRotatedDimension
  0
INSERT
  5
2B3
330
1F
100
AcDbEntity
  8
0
  6
Continuous
 62
     7
370
     0
100
AcDbBlockReference
  2
SW_CENTERMARKSYMBOL_0
 10
101.5615758755
 20
143.7560311284
 30
0.0
  0
INSERT
  5
2BF
330
1F
100
AcDbEntity
  8
0
  6
Continuous
 62
     7
370
     0
100
AcDbBlockReference
  2
SW_CENTERMARKSYMBOL_1
 10
84.5615758755
 20
143.7560311284
 30
0.0
  0
INSERT
  5
2CB
330
1F
100
AcDbEntity
  8
0
  6
Continuous
 62
     7
370
     0
100
AcDbBlockReference
  2
SW_CENTERMARKSYMBOL_2
 10
183.5615758755
 20
143.7560311284
 30
0.0
  0
INSERT
  5
2D7
330
1F
100
AcDbEntity
  8
0
  6
Continuous
 62
     7
370
     0
100
AcDbBlockReference
  2
SW_CENTERMARKSYMBOL_3
 10
200.5615758755
 20
143.7560311284
 30
0.0
  0
INSERT
  5
2E3
330
1F
100
AcDbEntity
  8
0
  6
Continuous
 62
     7
370
     0
100
AcDbBlockReference
  2
SW_CENTERMARKSYMBOL_4
 10
74.0615758755
 20
149.7560311284
 30
0.0
  0
INSERT
  5
2EF
330
1F
100
AcDbEntity
  8
0
  6
Continuous
 62
     7
370
     0
100
AcDbBlockReference
  2
SW_CENTERMARKSYMBOL_5
 10
211.0615758755
 20
149.7560311284
 30
0.0
  0
INSERT
  5
2FB
330
1F
100
AcDbEntity
  8
0
  6
Continuous
 62
     7
370
     0
100
AcDbBlockReference
  2
SW_CENTERMARKSYMBOL_6
 10
211.0615758755
 20
137.7560311284
 30
0.0
  0
INSERT
  5
307
330
1F
100
AcDbEntity
  8
0
  6
Continuous
 62
     7
370
     0
100
AcDbBlockReference
  2
SW_CENTERMARKSYMBOL_7
 10
74.0615758755
 20
137.7560311284
 30
0.0
  0
LINE
  5
308
330
1F
100
AcDbEntity
  8
0
  6
CENTER
 62
     7
370
    30
100
AcDbLine
 10
59.8577682833
 20
143.7560311284
 30
0.0
 11
226.7946724861
 21
143.7560311284
 31
0.0
  0
LINE
  5
309
330
1F
100
AcDbEntity
  8
0
  6
Continuous
 62
     7
370
    30
100
AcDbLine
 10
61.8577682833
 20
150.0060311284
 30
0.0
 11
61.8577682833
 21
143.7560311284
 31
0.0
  0
SOLID
  5
30A
330
1F
100
AcDbEntity
  8
0
  6
Continuous
 62
     7
370
    30
100
AcDbTrace
 10
61.8577682833
 20
143.7560311284
 30
0.0
 11
62.3577682833
 21
147.0560311284
 31
0.0
 12
61.3577682833
 22
147.0560311284
 32
0.0
 13
61.3577682833
 23
147.0560311284
 33
0.0
  0
LINE
  5
30B
330
1F
100
AcDbEntity
  8
0
  6
Continuous
 62
     7
370
    30
100
AcDbLine
 10
224.7946724861
 20
150.0060311284
 30
0.0
 11
224.7946724861
 21
143.7560311284
 31
0.0
  0
SOLID
  5
30C
330
1F
100
AcDbEntity
  8
0
  6
Continuous
 62
     7
370
    30
100
AcDbTrace
 10
224.7946724861
 20
143.7560311284
 30
0.0
 11
225.2946724861
 21
147.0560311284
 31
0.0
 12
224.2946724861
 22
147.0560311284
 32
0.0
 13
224.2946724861
 23
147.0560311284
 33
0.0
  0
MTEXT
  5
30D
330
1F
100
AcDbEntity
  8
0
  6
Continuous
 62
     7
100
AcDbMText
 10
59.6828927823
 20
157.9057239166
 30
0.0
 40
5.0
 41
0.0
 71
     1
 72
     1
  1
A
  7
SLDTEXTSTYLE1
 73
     1
 44
1.0
  0
MTEXT
  5
30E
330
1F
100
AcDbEntity
  8
0
  6
Continuous
 62
     7
100
AcDbMText
 10
222.6197969851
 20
157.9057239166
 30
0.0
 40
5.0
 41
0.0
 71
     1
 72
     1
  1
A
  7
SLDTEXTSTYLE1
 73
     1
 44
1.0
  0
LINE
  5
30F
330
1F
100
AcDbEntity
  8
0
  6
CENTERX2
 62
     7
370
     0
100
AcDbLine
 10
142.5615758755
 20
128.5453307393
 30
0.0
 11
142.5615758755
 21
158.7583657588
 31
0.0
  0
LINE
  5
310
330
1F
100
AcDbEntity
  8
0
  6
CENTERX2
 62
     7
370
     0
100
AcDbLine
 10
106.5615758755
 20
143.7560311284
 30
0.0
 11
178.5615758755
 21
143.7560311284
 31
0.0
  0
LINE
  5
311
330
1F
100
AcDbEntity
  8
0
  6
CENTERX2
 62
     7
370
     0
100
AcDbLine
 10
142.5615758755
 20
135.2560311284
 30
0.0
 11
142.5615758755
 21
152.2560311284
 31
0.0
  0
LINE
  5
312
330
1F
100
AcDbEntity
  8
0
  6
Continuous
 62
     7
370
    40
100
AcDbLine
 10
90.7470623502
 20
33.5143076936
 30
0.0
 11
90.7470623502
 21
28.3713042438
 31
0.0
  0
LWPOLYLINE
  5
313
330
1F
100
AcDbEntity
  8
0
  6
Continuous
 62
     7
370
    40
100
AcDbPolyline
 90
       14
 70
   128
 43
0.0
 10
90.7470623502
 20
28.3713042438
 10
90.7856170963
 20
28.0531254327
 10
90.8990211608
 20
27.7324868823
 10
91.0806982939
 20
27.4280185938
 10
91.3200790523
 20
27.157418231
 10
91.6032663314
 20
26.9364082798
 10
91.9137865599
 20
26.7778371692
 10
92.2335978825
 20
26.6909193044
 10
92.544118111
 20
26.6807049261
 10
92.8273053901
 20
26.7477864084
 10
93.0666861486
 20
26.8882696495
 10
93.2483632816
 20
27.0939860342
 10
93.3617673461
 20
27.352982995
 10
93.4003220922
 20
27.6502050984
  0
LINE
  5
314
330
1F
100
AcDbEntity
  8
0
  6
Continuous
 62
     7
370
    40
100
AcDbLine
 10
93.4003220922
 20
27.6502050984
 30
0.0
 11
93.4003220922
 21
32.7932085482
 31
0.0
  0
LWPOLYLINE
  5
315
330
1F
100
AcDbEntity
  8
0
  6
Continuous
 62
     7
370
    40
100
AcDbPolyline
 90
       14
 70
   128
 43
0.0
 10
93.4003220922
 20
32.7932085482
 10
93.3617673461
 20
33.1113873593
 10
93.2483632816
 20
33.4320259096
 10
93.0666861486
 20
33.7364943977
 10
92.8273053901
 20
34.0070950599
 10
92.544118111
 20
34.2281044123
 10
92.2335978825
 20
34.3866759221
 10
91.9137865599
 20
34.4735937869
 10
91.6032663314
 20
34.483807766
 10
91.3200790523
 20
34.4167268825
 10
91.0806982939
 20
34.2762433421
 10
90.8990211608
 20
34.0705267578
 10
90.7856170963
 20
33.8115297969
 10
90.7470623502
 20
33.5143076936
  0
LINE
  5
316
330
1F
100
AcDbEntity
  8
0
  6
Continuous
 62
     7
370
    40
100
AcDbLine
 10
46.3050539236
 20
39.8068142762
 30
0.0
 11
77.2596883141
 21
31.3940079264
 31
0.0
  0
LINE
  5
317
330
1F
100
AcDbEntity
  8
0
  6
Continuous
 62
     7
370
    40
100
AcDbLine
 10
77.2596883141
 20
31.3940079264
 30
0.0
 11
77.2596883141
 21
37.8227629372
 31
0.0
  0
LINE
  5
318
330
1F
100
AcDbEntity
  8
0
  6
Continuous
 62
     7
370
    40
100
AcDbLine
 10
77.2596883141
 20
37.8227629372
 30
0.0
 11
46.3050539236
 21
46.2355692869
 31
0.0
  0
LINE
  5
319
330
1F
100
AcDbEntity
  8
0
  6
Continuous
 62
     7
370
    40
100
AcDbLine
 10
46.3050539236
 20
46.2355692869
 30
0.0
 11
46.3050539236
 21
39.8068142762
 31
0.0
  0
LWPOLYLINE
  5
31A
330
1F
100
AcDbEntity
  8
0
  6
Continuous
 62
     7
370
    40
100
AcDbPolyline
 90
       28
 70
   128
 43
0.0
 10
81.2395713377
 20
33.5267385046
 10
81.2038105092
 20
33.8329722195
 10
81.0984587264
 20
34.1421337213
 10
80.9291993713
 20
34.4375558063
 10
80.7051489183
 20
34.7033138604
 10
80.4383923792
 20
34.9250789662
 10
80.1433078869
 20
35.0908969977
 10
79.8358056167
 20
35.1918277448
 10
79.5324612758
 20
35.2224302796
 10
79.2496298259
 20
35.1810549188
 10
79.0025559097
 20
35.0699325155
 10
78.8045633516
 20
34.8950530638
 10
78.6663204365
 20
34.6658456869
 10
78.5952863973
 20
34.3946648855
 10
78.5952863973
 20
34.0961316977
 10
78.6663204365
 20
33.7863402359
 10
78.8045633516
 20
33.4819899347
 10
79.0025559097
 20
33.1994898142
 10
79.2496298259
 20
32.9540690176
 10
79.5324612758
 20
32.7589586013
 10
79.8358056167
 20
32.6246761521
 10
80.1433078869
 20
32.5584618431
 10
80.4383923792
 20
32.5638845904
 10
80.7051489183
 20
32.6406522733
 10
80.9291993713
 20
32.7846261028
 10
81.0984587264
 20
32.988046056
 10
81.2038105092
 20
33.2399428434
 10
81.2395713377
 20
33.5267385046
  0
LWPOLYLINE
  5
31B
330
1F
100
AcDbEntity
  8
0
  6
Continuous
 62
     7
370
    40
100
AcDbPolyline
 90
       28
 70
   128
 43
0.0
 10
44.9784273473
 20
43.3817404588
 10
44.9426681662
 20
43.6879737261
 10
44.8373180308
 20
43.9971347801
 10
44.668055381
 20
44.2925577606
 10
44.4440065753
 20
44.558315367
 10
44.1772500362
 20
44.7800804727
 10
43.8821655439
 20
44.9458985042
 10
43.5746632737
 20
45.0468292513
 10
43.2713189328
 20
45.0774317861
 10
42.9884858355
 20
45.036056873
 10
42.7414135667
 20
44.9249340221
 10
42.5434193613
 20
44.750055018
 10
42.4051780935
 20
44.5208471935
 10
42.3341432306
 20
44.2496666159
 10
42.3341432306
 20
43.9511334281
 10
42.4051780935
 20
43.6413417424
 10
42.5434193613
 20
43.336991889
 10
42.7414135667
 20
43.0544913207
 10
42.9884858355
 20
42.8090709718
 10
43.2713189328
 20
42.6139601078
 10
43.5746632737
 20
42.4796776587
 10
43.8821655439
 20
42.4134633496
 10
44.1772500362
 20
42.418886097
 10
44.4440065753
 20
42.4956537798
 10
44.668055381
 20
42.639628057
 10
44.8373180308
 20
42.8430471148
 10
44.9426681662
 20
43.0949443499
 10
44.9784273473
 20
43.3817404588
  0
LINE
  5
31C
330
1F
100
AcDbEntity
  8
0
  6
Continuous
 62
     7
370
    40
100
AcDbLine
 10
94.948053647
 20
34.944070599
 30
0.0
 11
28.6166918854
 21
52.9715134167
 31
0.0
  0
LINE
  5
31D
330
1F
100
AcDbEntity
  8
0
  6
Continuous
 62
     7
370
    40
100
AcDbLine
 10
94.948053647
 20
24.6580629012
 30
0.0
 11
94.948053647
 21
34.944070599
 31
0.0
  0
LINE
  5
31E
330
1F
100
AcDbEntity
  8
0
  6
Continuous
 62
     7
370
    40
100
AcDbLine
 10
28.6166918854
 20
42.6855057189
 30
0.0
 11
94.948053647
 21
24.6580629012
 31
0.0
  0
LINE
  5
31F
330
1F
100
AcDbEntity
  8
0
  6
Continuous
 62
     7
370
    40
100
AcDbLine
 10
28.6166918854
 20
52.9715134167
 30
0.0
 11
28.6166918854
 21
42.6855057189
 31
0.0
  0
LWPOLYLINE
  5
320
330
1F
100
AcDbEntity
  8
0
  6
Continuous
 62
     7
370
    40
100
AcDbPolyline
 90
       28
 70
   128
 43
0.0
 10
37.4608729045
 20
45.4248506747
 10
37.4251137234
 20
45.7310839419
 10
37.319763588
 20
46.0402449959
 10
37.1505009382
 20
46.3356679764
 10
36.9264529562
 20
46.601425359
 10
36.659696417
 20
46.8231904647
 10
36.3646119248
 20
46.9890084962
 10
36.0571096546
 20
47.0899392433
 10
35.7537653137
 20
47.1205417781
 10
35.4709322164
 20
47.079166865
 10
35.2238591239
 20
46.9680442379
 10
35.0258649185
 20
46.7931652339
 10
34.8876240625
 20
46.5639572974
 10
34.8165887878
 20
46.2927768317
 10
34.8165887878
 20
45.994243644
 10
34.8876240625
 20
45.6844518464
 10
35.0258649185
 20
45.3801021048
 10
35.2238591239
 20
45.0976015366
 10
35.4709322164
 20
44.8521809638
 10
35.7537653137
 20
44.6570700998
 10
36.0571096546
 20
44.5227876507
 10
36.3646119248
 20
44.4565733416
 10
36.659696417
 20
44.4619960889
 10
36.9264529562
 20
44.5387637718
 10
37.1505009382
 20
44.6827382729
 10
37.319763588
 20
44.8861573306
 10
37.4251137234
 20
45.1380545658
 10
37.4608729045
 20
45.4248506747
  0
LWPOLYLINE
  5
321
330
1F
100
AcDbEntity
  8
0
  6
Continuous
 62
     7
370
    40
100
AcDbPolyline
 90
       28
 70
   128
 43
0.0
 10
88.7571274278
 20
31.483627841
 10
88.7213665994
 20
31.789861556
 10
88.6160148166
 20
32.0990230577
 10
88.4467521668
 20
32.3944460382
 10
88.2227050085
 20
32.6602031969
 10
87.9559451746
 20
32.881969198
 10
87.6608639771
 20
33.0477863341
 10
87.3533617069
 20
33.1487170812
 10
87.050017366
 20
33.179319616
 10
86.7671859161
 20
33.1379442552
 10
86.5201087051
 20
33.0268227474
 10
86.3221161471
 20
32.8519432957
 10
86.1838765266
 20
32.6227350234
 10
86.1128424875
 20
32.3515542219
 10
86.1128424875
 20
32.0530210342
 10
86.1838765266
 20
31.7432295723
 10
86.3221161471
 20
31.4388801666
 10
86.5201087051
 20
31.1563800461
 10
86.7671859161
 20
30.910958354
 10
87.050017366
 20
30.7158479377
 10
87.3533617069
 20
30.5815654886
 10
87.6608639771
 20
30.5153511796
 10
87.9559451746
 20
30.5207748223
 10
88.2227050085
 20
30.5975416097
 10
88.4467521668
 20
30.7415163347
 10
88.6160148166
 20
30.9449353924
 10
88.7213665994
 20
31.1968321798
 10
88.7571274278
 20
31.483627841
  0
LINE
  5
322
330
1F
100
AcDbEntity
  8
0
  6
Continuous
 62
     7
370
    40
100
AcDbLine
 10
30.1644236461
 20
49.9793707644
 30
0.0
 11
30.1644236461
 21
44.8363673146
 31
0.0
  0
LWPOLYLINE
  5
323
330
1F
100
AcDbEntity
  8
0
  6
Continuous
 62
     7
370
    40
100
AcDbPolyline
 90
       14
 70
   128
 43
0.0
 10
30.1644236461
 20
44.8363673146
 10
30.2029729354
 20
44.5181899866
 10
30.3163807064
 20
44.1975504289
 10
30.4980560892
 20
43.893082616
 10
30.7374405541
 20
43.6224812459
 10
31.0206222734
 20
43.4014728057
 10
31.3311435315
 20
43.2429014153
 10
31.650957943
 20
43.1559827111
 10
31.961479201
 20
43.1457680529
 10
32.2446607144
 20
43.2128511022
 10
32.4840455912
 20
43.353333224
 10
32.6657206651
 20
43.5590501683
 10
32.7791284361
 20
43.8180461218
 10
32.8176778283
 20
44.1152696803
  0
LINE
  5
324
330
1F
100
AcDbEntity
  8
0
  6
Continuous
 62
     7
370
    40
100
AcDbLine
 10
32.8176778283
 20
44.1152696803
 30
0.0
 11
32.8176778283
 21
49.25827313
 31
0.0
  0
LWPOLYLINE
  5
325
330
1F
100
AcDbEntity
  8
0
  6
Continuous
 62
     7
370
    40
100
AcDbPolyline
 90
       14
 70
   128
 43
0.0
 10
32.8176778283
 20
49.25827313
 10
32.7791284361
 20
49.5764504861
 10
32.6657206651
 20
49.8970900438
 10
32.4840455912
 20
50.2015579723
 10
32.2446607144
 20
50.4721597537
 10
31.961479201
 20
50.6931675392
 10
31.650957943
 20
50.8517393287
 10
31.3311435315
 20
50.938658033
 10
31.0206222734
 20
50.948872292
 10
30.7374405541
 20
50.8817898974
 10
30.4980560892
 20
50.7413073643
 10
30.3163807064
 20
50.5355903043
 10
30.2029729354
 20
50.2765943508
 10
30.1644236461
 20
49.9793707644
  0
LINE
  5
326
330
1F
100
AcDbEntity
  8
0
  6
Continuous
 62
     7
370
    40
100
AcDbLine
 10
94.948053647
 20
34.944070599
 30
0.0
 11
95.6480967365
 21
35.6273341152
 31
0.0
  0
LINE
  5
327
330
1F
100
AcDbEntity
  8
0
  6
Continuous
 62
     7
370
    40
100
AcDbLine
 10
28.6166918854
 20
52.9715134167
 30
0.0
 11
29.3167349749
 21
53.6547769328
 31
0.0
  0
LINE
  5
328
330
1F
100
AcDbEntity
  8
0
  6
Continuous
 62
     7
370
    40
100
AcDbLine
 10
95.6480967365
 20
35.6273341152
 30
0.0
 11
29.3167349749
 21
53.6547769328
 31
0.0
  0
LINE
  5
329
330
1F
100
AcDbEntity
  8
0
  6
Continuous
 62
     7
370
    40
100
AcDbLine
 10
94.948053647
 20
24.6580629012
 30
0.0
 11
95.6480967365
 21
25.3413264174
 31
0.0
  0
LINE
  5
32A
330
1F
100
AcDbEntity
  8
0
  6
Continuous
 62
     7
370
    40
100
AcDbLine
 10
95.6480967365
 20
25.3413264174
 30
0.0
 11
95.6480967365
 21
35.6273341152
 31
0.0
  0
LINE
  5
32B
330
1F
100
AcDbEntity
  8
0
  6
Continuous
 62
     7
370
    40
100
AcDbLine
 10
90.7470623502
 20
33.5143076936
 30
0.0
 11
91.4471054397
 21
34.1975712097
 31
0.0
  0
LINE
  5
32C
330
1F
100
AcDbEntity
  8
0
  6
Continuous
 62
     7
370
    40
100
AcDbLine
 10
91.4778648919
 20
34.4644674285
 30
0.0
 11
91.4471054397
 21
34.1975712097
 31
0.0
  0
LINE
  5
32D
330
1F
100
AcDbEntity
  8
0
  6
Continuous
 62
     7
370
    40
100
AcDbLine
 10
90.7470623502
 20
28.3713042438
 30
0.0
 11
91.4471054397
 21
29.0545677599
 31
0.0
  0
LINE
  5
32E
330
1F
100
AcDbEntity
  8
0
  6
Continuous
 62
     7
370
    40
100
AcDbLine
 10
91.4471054397
 20
34.1975712097
 30
0.0
 11
91.4471054397
 21
29.0545677599
 31
0.0
  0
ARC
  5
32F
330
1F
100
AcDbEntity
  8
0
  6
Continuous
 62
     7
370
    40
100
AcDbCircle
 10
88.5118213796
 20
32.8995818513
 30
0.0
 40
1.696471738556639
100
AcDbArc
 50
171.3445928455
 51
277.2655109973
  0
ARC
  5
330
330
1F
100
AcDbEntity
  8
0
  6
Continuous
 62
     7
370
    40
100
AcDbCircle
 10
93.172759356
 20
29.0982602255
 30
0.0
 40
1.726206960466206
100
AcDbArc
 50
181.4503830134
 51
276.5465401237
  0
ARC
  5
331
330
1F
100
AcDbEntity
  8
0
  6
Continuous
 62
     7
370
    40
100
AcDbCircle
 10
80.9942652894
 20
34.9426925149
 30
0.0
 40
1.696471738556647
100
AcDbArc
 50
171.3445928455
 51
277.2655109973
  0
LINE
  5
332
330
1F
100
AcDbEntity
  8
0
  6
Continuous
 62
     7
370
    40
100
AcDbLine
 10
46.3050539236
 20
39.8068142762
 30
0.0
 11
47.0050970131
 21
40.4900777923
 31
0.0
  0
LINE
  5
333
330
1F
100
AcDbEntity
  8
0
  6
Continuous
 62
     7
370
    40
100
AcDbLine
 10
47.0050970131
 20
40.4900777923
 30
0.0
 11
77.2596869936
 21
32.2675285131
 31
0.0
  0
LINE
  5
334
330
1F
100
AcDbEntity
  8
0
  6
Continuous
 62
     7
370
    40
100
AcDbLine
 10
47.0050970131
 20
46.0453122016
 30
0.0
 11
47.0050970131
 21
40.4900777923
 31
0.0
  0
ARC
  5
335
330
1F
100
AcDbEntity
  8
0
  6
Continuous
 62
     7
370
    40
100
AcDbCircle
 10
44.7331204015
 20
44.7976913664
 30
0.0
 40
1.696468774190786
100
AcDbArc
 50
171.3444945483
 51
277.265554321
  0
ARC
  5
336
330
1F
100
AcDbEntity
  8
0
  6
Continuous
 62
     7
370
    40
100
AcDbCircle
 10
37.215566745
 20
46.840801693
 30
0.0
 40
1.696469110901339
100
AcDbArc
 50
171.344503889
 51
277.2655541426
  0
LINE
  5
337
330
1F
100
AcDbEntity
  8
0
  6
Continuous
 62
     7
370
    40
100
AcDbLine
 10
30.1644236461
 20
49.9793707644
 30
0.0
 11
30.8644667356
 21
50.6626342805
 31
0.0
  0
LINE
  5
338
330
1F
100
AcDbEntity
  8
0
  6
Continuous
 62
     7
370
    40
100
AcDbLine
 10
30.8952235109
 20
50.9295312269
 30
0.0
 11
30.8644667356
 21
50.6626342805
 31
0.0
  0
LINE
  5
339
330
1F
100
AcDbEntity
  8
0
  6
Continuous
 62
     7
370
    40
100
AcDbLine
 10
30.1644236461
 20
44.8363673146
 30
0.0
 11
30.8644667356
 21
45.5196308308
 31
0.0
  0
LINE
  5
33A
330
1F
100
AcDbEntity
  8
0
  6
Continuous
 62
     7
370
    40
100
AcDbLine
 10
30.8644667356
 20
50.6626342805
 30
0.0
 11
30.8644667356
 21
45.5196308308
 31
0.0
  0
ARC
  5
33B
330
1F
100
AcDbEntity
  8
0
  6
Continuous
 62
     7
370
    40
100
AcDbCircle
 10
32.59011414
 20
45.5633176842
 30
0.0
 40
1.726200308634243
100
AcDbArc
 50
181.4502022684
 51
276.5466247874
  0
LINE
  5
33C
330
1F
100
AcDbEntity
  8
0
  6
Continuous
 62
     7
370
    40
100
AcDbLine
 10
254.0786965241
 20
155.756031337
 30
0.0
 11
254.0786965241
 21
131.7560311284
 31
0.0
  0
LINE
  5
33D
330
1F
100
AcDbEntity
  8
0
  6
Continuous
 62
     7
370
    40
100
AcDbLine
 10
254.0786965241
 20
131.7560311284
 30
0.0
 11
251.0786964981
 21
131.7560311284
 31
0.0
  0
LINE
  5
33E
330
1F
100
AcDbEntity
  8
0
  6
Continuous
 62
     7
370
    40
100
AcDbLine
 10
251.0786964981
 20
155.756031337
 30
0.0
 11
251.0786964981
 21
131.7560311284
 31
0.0
  0
LINE
  5
33F
330
1F
100
AcDbEntity
  8
0
  6
Continuous
 62
     7
370
    40
100
AcDbLine
 10
254.0786965241
 20
155.756031337
 30
0.0
 11
251.0786964981
 21
155.756031337
 31
0.0
  0
LINE
  5
340
330
1F
100
AcDbEntity
  8
0
  6
Continuous
 62
     7
370
    40
100
AcDbLine
 10
98.5615758755
 20
90.9317640513
 30
0.0
 11
98.5615758755
 21
87.9317640513
 31
0.0
  0
LINE
  5
341
330
1F
100
AcDbEntity
  8
0
  6
Continuous
 62
     7
370
    40
100
AcDbLine
 10
104.5615758755
 20
87.9317640513
 30
0.0
 11
104.5615758755
 21
90.9317640513
 31
0.0
  0
LINE
  5
342
330
1F
100
AcDbEntity
  8
0
  6
Continuous
 62
     7
370
    40
100
AcDbLine
 10
98.5615758755
 20
87.9317640513
 30
0.0
 11
104.5615758755
 21
87.9317640513
 31
0.0
  0
LINE
  5
343
330
1F
100
AcDbEntity
  8
0
  6
Continuous
 62
     7
370
    40
100
AcDbLine
 10
98.5615758755
 20
90.9317640513
 30
0.0
 11
104.5615758755
 21
90.9317640513
 31
0.0
  0
LINE
  5
344
330
1F
100
AcDbEntity
  8
0
  6
Continuous
 62
     7
370
    40
100
AcDbLine
 10
81.5615758755
 20
90.9317640513
 30
0.0
 11
81.5615758755
 21
87.9317640513
 31
0.0
  0
LINE
  5
345
330
1F
100
AcDbEntity
  8
0
  6
Continuous
 62
     7
370
    40
100
AcDbLine
 10
87.5615758755
 20
87.9317640513
 30
0.0
 11
87.5615758755
 21
90.9317640513
 31
0.0
  0
LINE
  5
346
330
1F
100
AcDbEntity
  8
0
  6
Continuous
 62
     7
370
    40
100
AcDbLine
 10
81.5615758755
 20
87.9317640513
 30
0.0
 11
87.5615758755
 21
87.9317640513
 31
0.0
  0
LINE
  5
347
330
1F
100
AcDbEntity
  8
0
  6
Continuous
 62
     7
370
    40
100
AcDbLine
 10
81.5615758755
 20
90.9317640513
 30
0.0
 11
87.5615758755
 21
90.9317640513
 31
0.0
  0
LINE
  5
348
330
1F
100
AcDbEntity
  8
0
  6
Continuous
 62
     7
370
    40
100
AcDbLine
 10
180.5615758755
 20
90.9317640513
 30
0.0
 11
180.5615758755
 21
87.9317640513
 31
0.0
  0
LINE
  5
349
330
1F
100
AcDbEntity
  8
0
  6
Continuous
 62
     7
370
    40
100
AcDbLine
 10
186.5615758755
 20
87.9317640513
 30
0.0
 11
186.5615758755
 21
90.9317640513
 31
0.0
  0
LINE
  5
34A
330
1F
100
AcDbEntity
  8
0
  6
Continuous
 62
     7
370
    40
100
AcDbLine
 10
180.5615758755
 20
87.9317640513
 30
0.0
 11
186.5615758755
 21
87.9317640513
 31
0.0
  0
LINE
  5
34B
330
1F
100
AcDbEntity
  8
0
  6
Continuous
 62
     7
370
    40
100
AcDbLine
 10
180.5615758755
 20
90.9317640513
 30
0.0
 11
186.5615758755
 21
90.9317640513
 31
0.0
  0
LINE
  5
34C
330
1F
100
AcDbEntity
  8
0
  6
Continuous
 62
     7
370
    40
100
AcDbLine
 10
197.5615758755
 20
90.9317640513
 30
0.0
 11
197.5615758755
 21
87.9317640513
 31
0.0
  0
LINE
  5
34D
330
1F
100
AcDbEntity
  8
0
  6
Continuous
 62
     7
370
    40
100
AcDbLine
 10
203.5615758755
 20
87.9317640513
 30
0.0
 11
203.5615758755
 21
90.9317640513
 31
0.0
  0
LINE
  5
34E
330
1F
100
AcDbEntity
  8
0
  6
Continuous
 62
     7
370
    40
100
AcDbLine
 10
197.5615758755
 20
87.9317640513
 30
0.0
 11
203.5615758755
 21
87.9317640513
 31
0.0
  0
LINE
  5
34F
330
1F
100
AcDbEntity
  8
0
  6
Continuous
 62
     7
370
    40
100
AcDbLine
 10
197.5615758755
 20
90.9317640513
 30
0.0
 11
203.5615758755
 21
90.9317640513
 31
0.0
  0
LINE
  5
350
330
1F
100
AcDbEntity
  8
0
  6
Continuous
 62
     7
370
    40
100
AcDbLine
 10
203.5615758755
 20
87.9317640513
 30
0.0
 11
208.0615758755
 21
87.9317640513
 31
0.0
  0
LINE
  5
351
330
1F
100
AcDbEntity
  8
0
  6
Continuous
 62
     7
370
    40
100
AcDbLine
 10
208.0615758755
 20
90.9317640513
 30
0.0
 11
208.0615758755
 21
87.9317640513
 31
0.0
  0
LINE
  5
352
330
1F
100
AcDbEntity
  8
0
  6
Continuous
 62
     7
370
    40
100
AcDbLine
 10
203.5615758755
 20
90.9317640513
 30
0.0
 11
208.0615758755
 21
90.9317640513
 31
0.0
  0
LINE
  5
353
330
1F
100
AcDbEntity
  8
0
  6
Continuous
 62
     7
370
    40
100
AcDbLine
 10
77.0615758755
 20
87.9317640513
 30
0.0
 11
81.5615758755
 21
87.9317640513
 31
0.0
  0
LINE
  5
354
330
1F
100
AcDbEntity
  8
0
  6
Continuous
 62
     7
370
    40
100
AcDbLine
 10
77.0615758755
 20
87.9317640513
 30
0.0
 11
77.0615758755
 21
90.9317640513
 31
0.0
  0
LINE
  5
355
330
1F
100
AcDbEntity
  8
0
  6
Continuous
 62
     7
370
    40
100
AcDbLine
 10
77.0615758755
 20
90.9317640513
 30
0.0
 11
81.5615758755
 21
90.9317640513
 31
0.0
  0
LINE
  5
356
330
1F
100
AcDbEntity
  8
0
  6
Continuous
 62
     7
370
    40
100
AcDbLine
 10
67.5615758755
 20
87.9317640513
 30
0.0
 11
71.0615758755
 21
87.9317640513
 31
0.0
  0
LINE
  5
357
330
1F
100
AcDbEntity
  8
0
  6
Continuous
 62
     7
370
    40
100
AcDbLine
 10
71.0615758755
 20
90.9317640513
 30
0.0
 11
71.0615758755
 21
87.9317640513
 31
0.0
  0
LINE
  5
358
330
1F
100
AcDbEntity
  8
0
  6
Continuous
 62
     7
370
    40
100
AcDbLine
 10
67.5615758755
 20
90.9317640513
 30
0.0
 11
67.5615758755
 21
87.9317640513
 31
0.0
  0
LINE
  5
359
330
1F
100
AcDbEntity
  8
0
  6
Continuous
 62
     7
370
    40
100
AcDbLine
 10
67.5615758755
 20
90.9317640513
 30
0.0
 11
71.0615758755
 21
90.9317640513
 31
0.0
  0
LINE
  5
35A
330
1F
100
AcDbEntity
  8
0
  6
Continuous
 62
     7
370
    40
100
AcDbLine
 10
177.5615758755
 20
87.9317640513
 30
0.0
 11
180.5615758755
 21
87.9317640513
 31
0.0
  0
LINE
  5
35B
330
1F
100
AcDbEntity
  8
0
  6
Continuous
 62
     7
370
    40
100
AcDbLine
 10
177.5615758755
 20
87.9317640513
 30
0.0
 11
177.5615758755
 21
90.9317640513
 31
0.0
  0
LINE
  5
35C
330
1F
100
AcDbEntity
  8
0
  6
Continuous
 62
     7
370
    40
100
AcDbLine
 10
177.5615758755
 20
90.9317640513
 30
0.0
 11
180.5615758755
 21
90.9317640513
 31
0.0
  0
LINE
  5
35D
330
1F
100
AcDbEntity
  8
0
  6
Continuous
 62
     7
370
    40
100
AcDbLine
 10
104.5615758755
 20
87.9317640513
 30
0.0
 11
107.5615758755
 21
87.9317640513
 31
0.0
  0
LINE
  5
35E
330
1F
100
AcDbEntity
  8
0
  6
Continuous
 62
     7
370
    40
100
AcDbLine
 10
107.5615758755
 20
90.9317640513
 30
0.0
 11
107.5615758755
 21
87.9317640513
 31
0.0
  0
LINE
  5
35F
330
1F
100
AcDbEntity
  8
0
  6
Continuous
 62
     7
370
    40
100
AcDbLine
 10
104.5615758755
 20
90.9317640513
 30
0.0
 11
107.5615758755
 21
90.9317640513
 31
0.0
  0
LINE
  5
360
330
1F
100
AcDbEntity
  8
0
  6
Continuous
 62
     7
370
    40
100
AcDbLine
 10
214.0615758755
 20
87.9317640513
 30
0.0
 11
217.5615758755
 21
87.9317640513
 31
0.0
  0
LINE
  5
361
330
1F
100
AcDbEntity
  8
0
  6
Continuous
 62
     7
370
    40
100
AcDbLine
 10
217.5615758755
 20
87.9317640513
 30
0.0
 11
217.5615758755
 21
90.9317640513
 31
0.0
  0
LINE
  5
362
330
1F
100
AcDbEntity
  8
0
  6
Continuous
 62
     7
370
    40
100
AcDbLine
 10
214.0615758755
 20
90.9317640513
 30
0.0
 11
217.5615758755
 21
90.9317640513
 31
0.0
  0
LINE
  5
363
330
1F
100
AcDbEntity
  8
0
  6
Continuous
 62
     7
370
    40
100
AcDbLine
 10
214.0615758755
 20
87.9317640513
 30
0.0
 11
214.0615758755
 21
90.9317640513
 31
0.0
  0
LINE
  5
364
330
1F
100
AcDbEntity
  8
0
  6
Continuous
 62
     7
370
    40
100
AcDbLine
 10
87.5615758755
 20
87.9317640513
 30
0.0
 11
98.5615758755
 21
87.9317640513
 31
0.0
  0
LINE
  5
365
330
1F
100
AcDbEntity
  8
0
  6
Continuous
 62
     7
370
    40
100
AcDbLine
 10
87.5615758755
 20
90.9317640513
 30
0.0
 11
98.5615758755
 21
90.9317640513
 31
0.0
  0
LINE
  5
366
330
1F
100
AcDbEntity
  8
0
  6
Continuous
 62
     7
370
    40
100
AcDbLine
 10
186.5615758755
 20
87.9317640513
 30
0.0
 11
197.5615758755
 21
87.9317640513
 31
0.0
  0
LINE
  5
367
330
1F
100
AcDbEntity
  8
0
  6
Continuous
 62
     7
370
    40
100
AcDbLine
 10
186.5615758755
 20
90.9317640513
 30
0.0
 11
197.5615758755
 21
90.9317640513
 31
0.0
  0
LINE
  5
368
330
1F
100
AcDbEntity
  8
0
  6
Continuous
 62
     7
370
    40
100
AcDbLine
 10
71.0615758755
 20
87.9317640513
 30
0.0
 11
77.0615758755
 21
87.9317640513
 31
0.0
  0
LINE
  5
369
330
1F
100
AcDbEntity
  8
0
  6
Continuous
 62
     7
370
    40
100
AcDbLine
 10
71.0615758755
 20
90.9317640513
 30
0.0
 11
77.0615758755
 21
90.9317640513
 31
0.0
  0
LINE
  5
36A
330
1F
100
AcDbEntity
  8
0
  6
Continuous
 62
     7
370
    40
100
AcDbLine
 10
208.0615758755
 20
87.9317640513
 30
0.0
 11
214.0615758755
 21
87.9317640513
 31
0.0
  0
LINE
  5
36B
330
1F
100
AcDbEntity
  8
0
  6
Continuous
 62
     7
370
    40
100
AcDbLine
 10
208.0615758755
 20
90.9317640513
 30
0.0
 11
214.0615758755
 21
90.9317640513
 31
0.0
  0
LINE
  5
36C
330
1F
100
AcDbEntity
  8
0
  6
Continuous
 62
     7
370
    40
100
AcDbLine
 10
107.5615758755
 20
87.9317640513
 30
0.0
 11
177.5615758755
 21
87.9317640513
 31
0.0
  0
LINE
  5
36D
330
1F
100
AcDbEntity
  8
0
  6
Continuous
 62
     7
370
    40
100
AcDbLine
 10
107.5615758755
 20
90.9317640513
 30
0.0
 11
177.5615758755
 21
90.9317640513
 31
0.0
  0
HATCH
  5
36E
330
1F
100
AcDbEntity
  8
0
  6
Continuous
 62
     7
370
     0
100
AcDbHatch
 10
0.0
 20
0.0
 30
0.0
210
0.0
220
0.0
230
1.0
  2
ANSI31
 70
     0
 71
     0
 91
        1
 92
        0
 93
        4
 72
     1
 10
214.0615758754865
 20
87.93176405130872
 11
217.5615758754865
 21
87.93176405130872
 72
     1
 10
217.5615758754865
 20
87.93176405130872
 11
217.5615758754865
 21
90.93176405130872
 72
     1
 10
217.5615758754865
 20
90.93176405130872
 11
214.0615758754865
 21
90.93176405130872
 72
     1
 10
214.0615758754865
 20
90.93176405130872
 11
214.0615758754865
 21
87.93176405130872
 97
        0
 75
     0
 76
     1
 52
0.0
 41
0.3333333333
 77
     0
 78
     1
 53
45.0
 43
0.0
 44
0.0
 45
-0.7483546767557626
 46
0.7483546767557627
 79
     0
 98
        1
 10
0.0
 20
0.0
  0
HATCH
  5
36F
330
1F
100
AcDbEntity
  8
0
  6
Continuous
 62
     7
370
     0
100
AcDbHatch
 10
0.0
 20
0.0
 30
0.0
210
0.0
220
0.0
230
1.0
  2
ANSI31
 70
     0
 71
     0
 91
        1
 92
        0
 93
        4
 72
     1
 10
203.5615758754865
 20
90.93176405130872
 11
203.5615758754865
 21
87.93176405130872
 72
     1
 10
203.5615758754865
 20
87.93176405130872
 11
208.0615758754865
 21
87.93176405130872
 72
     1
 10
208.0615758754865
 20
87.93176405130872
 11
208.0615758754865
 21
90.93176405130872
 72
     1
 10
208.0615758754865
 20
90.93176405130872
 11
203.5615758754865
 21
90.93176405130872
 97
        0
 75
     0
 76
     1
 52
0.0
 41
0.3333333333
 77
     0
 78
     1
 53
45.0
 43
0.0
 44
0.0
 45
-0.7483546767557626
 46
0.7483546767557627
 79
     0
 98
        1
 10
0.0
 20
0.0
  0
HATCH
  5
370
330
1F
100
AcDbEntity
  8
0
  6
Continuous
 62
     7
370
     0
100
AcDbHatch
 10
0.0
 20
0.0
 30
0.0
210
0.0
220
0.0
230
1.0
  2
ANSI31
 70
     0
 71
     0
 91
        1
 92
        0
 93
        4
 72
     1
 10
81.56157587548647
 20
87.93176405130872
 11
81.56157587548647
 21
90.93176405130872
 72
     1
 10
81.56157587548647
 20
90.93176405130872
 11
77.06157587548648
 21
90.93176405130872
 72
     1
 10
77.06157587548648
 20
90.93176405130872
 11
77.06157587548648
 21
87.93176405130872
 72
     1
 10
77.06157587548648
 20
87.93176405130872
 11
81.56157587548647
 21
87.93176405130872
 97
        0
 75
     0
 76
     1
 52
0.0
 41
0.3333333333
 77
     0
 78
     1
 53
45.0
 43
0.0
 44
0.0
 45
-0.7483546767557626
 46
0.7483546767557627
 79
     0
 98
        1
 10
0.0
 20
0.0
  0
HATCH
  5
371
330
1F
100
AcDbEntity
  8
0
  6
Continuous
 62
     7
370
     0
100
AcDbHatch
 10
0.0
 20
0.0
 30
0.0
210
0.0
220
0.0
230
1.0
  2
ANSI31
 70
     0
 71
     0
 91
        1
 92
        0
 93
        4
 72
     1
 10
71.06157587548648
 20
90.93176405130872
 11
67.56157587548648
 21
90.93176405130872
 72
     1
 10
67.56157587548648
 20
90.93176405130872
 11
67.56157587548648
 21
87.93176405130872
 72
     1
 10
67.56157587548648
 20
87.93176405130872
 11
71.06157587548648
 21
87.93176405130872
 72
     1
 10
71.06157587548648
 20
87.93176405130872
 11
71.06157587548648
 21
90.93176405130872
 97
        0
 75
     0
 76
     1
 52
0.0
 41
0.3333333333
 77
     0
 78
     1
 53
45.0
 43
0.0
 44
0.0
 45
-0.7483546767557626
 46
0.7483546767557627
 79
     0
 98
        1
 10
0.0
 20
0.0
  0
HATCH
  5
372
330
1F
100
AcDbEntity
  8
0
  6
Continuous
 62
     7
370
     0
100
AcDbHatch
 10
0.0
 20
0.0
 30
0.0
210
0.0
220
0.0
230
1.0
  2
ANSI31
 70
     0
 71
     0
 91
        1
 92
        0
 93
        4
 72
     1
 10
180.5615758754865
 20
87.93176405130872
 11
180.5615758754865
 21
90.93176405130872
 72
     1
 10
180.5615758754865
 20
90.93176405130872
 11
177.5615758754865
 21
90.93176405130872
 72
     1
 10
177.5615758754865
 20
90.93176405130872
 11
177.5615758754865
 21
87.93176405130872
 72
     1
 10
177.5615758754865
 20
87.93176405130872
 11
180.5615758754865
 21
87.93176405130872
 97
        0
 75
     0
 76
     1
 52
0.0
 41
0.3333333333
 77
     0
 78
     1
 53
45.0
 43
0.0
 44
0.0
 45
-0.7483546767557626
 46
0.7483546767557627
 79
     0
 98
        1
 10
0.0
 20
0.0
  0
HATCH
  5
373
330
1F
100
AcDbEntity
  8
0
  6
Continuous
 62
     7
370
     0
100
AcDbHatch
 10
0.0
 20
0.0
 30
0.0
210
0.0
220
0.0
230
1.0
  2
ANSI31
 70
     0
 71
     0
 91
        1
 92
        0
 93
        4
 72
     1
 10
104.5615758754865
 20
90.93176405130872
 11
104.5615758754865
 21
87.93176405130872
 72
     1
 10
104.5615758754865
 20
87.93176405130872
 11
107.5615758754865
 21
87.93176405130872
 72
     1
 10
107.5615758754865
 20
87.93176405130872
 11
107.5615758754865
 21
90.93176405130872
 72
     1
 10
107.5615758754865
 20
90.93176405130872
 11
104.5615758754865
 21
90.93176405130872
 97
        0
 75
     0
 76
     1
 52
0.0
 41
0.3333333333
 77
     0
 78
     1
 53
45.0
 43
0.0
 44
0.0
 45
-0.7483546767557626
 46
0.7483546767557627
 79
     0
 98
        1
 10
0.0
 20
0.0
  0
HATCH
  5
374
330
1F
100
AcDbEntity
  8
0
  6
Continuous
 62
     7
370
     0
100
AcDbHatch
 10
0.0
 20
0.0
 30
0.0
210
0.0
220
0.0
230
1.0
  2
ANSI31
 70
     0
 71
     0
 91
        1
 92
        0
 93
        4
 72
     1
 10
186.5615758754865
 20
90.93176405130872
 11
186.5615758754865
 21
87.93176405130872
 72
     1
 10
186.5615758754865
 20
87.93176405130872
 11
197.5615758754865
 21
87.93176405130872
 72
     1
 10
197.5615758754865
 20
87.93176405130872
 11
197.5615758754865
 21
90.93176405130872
 72
     1
 10
197.5615758754865
 20
90.93176405130872
 11
186.5615758754865
 21
90.93176405130872
 97
        0
 75
     0
 76
     1
 52
0.0
 41
0.3333333333
 77
     0
 78
     1
 53
45.0
 43
0.0
 44
0.0
 45
-0.7483546767557626
 46
0.7483546767557627
 79
     0
 98
        1
 10
0.0
 20
0.0
  0
HATCH
  5
375
330
1F
100
AcDbEntity
  8
0
  6
Continuous
 62
     7
370
     0
100
AcDbHatch
 10
0.0
 20
0.0
 30
0.0
210
0.0
220
0.0
230
1.0
  2
ANSI31
 70
     0
 71
     0
 91
        1
 92
        0
 93
        4
 72
     1
 10
98.56157587548648
 20
87.93176405130872
 11
98.56157587548648
 21
90.93176405130872
 72
     1
 10
98.56157587548648
 20
90.93176405130872
 11
87.56157587548648
 21
90.93176405130872
 72
     1
 10
87.56157587548648
 20
90.93176405130872
 11
87.56157587548648
 21
87.93176405130872
 72
     1
 10
87.56157587548648
 20
87.93176405130872
 11
98.56157587548648
 21
87.93176405130872
 97
        0
 75
     0
 76
     1
 52
0.0
 41
0.3333333333
 77
     0
 78
     1
 53
45.0
 43
0.0
 44
0.0
 45
-0.7483546767557626
 46
0.7483546767557627
 79
     0
 98
        1
 10
0.0
 20
0.0
  0
DIMENSION
  5
376
330
1F
100
AcDbEntity
  8
0
  6
Continuous
 62
     7
370
     0
100
AcDbDimension
  2
*D38
 10
227.5615758755
 20
87.9317640513
 30
0.0
 11
227.5615758755
 21
96.2307914004
 31
0.0
 70
   160
 71
     2
 42
-1.0
  3
SLDDIMSTYLE7
100
AcDbAlignedDimension
 13
217.5615758755
 23
90.9317640513
 33
0.0
 14
217.5615758755
 24
87.9317640513
 34
0.0
 50
90.0
100
AcDbRotatedDimension
  0
MTEXT
  5
383
330
1F
100
AcDbEntity
  8
0
  6
Continuous
 62
     7
370
     0
100
AcDbMText
 10
136.8358819865
 20
101.2177967597
 30
0.0
 40
5.0
 41
0.0
 71
     1
 72
     1
  1
A-A
  7
SLDTEXTSTYLE1
 73
     1
 44
1.0
  0
LINE
  5
384
330
1F
100
AcDbEntity
  8
0
  6
CENTERX2
 62
     7
370
     0
100
AcDbLine
 10
101.5615758755
 20
86.9317640513
 30
0.0
 11
101.5615758755
 21
91.9317640513
 31
0.0
  0
LINE
  5
385
330
1F
100
AcDbEntity
  8
0
  6
CENTERX2
 62
     7
370
     0
100
AcDbLine
 10
84.5615758755
 20
86.9317640513
 30
0.0
 11
84.5615758755
 21
91.9317640513
 31
0.0
  0
LINE
  5
386
330
1F
100
AcDbEntity
  8
0
  6
CENTERX2
 62
     7
370
     0
100
AcDbLine
 10
183.5615758755
 20
86.9317640513
 30
0.0
 11
183.5615758755
 21
91.9317640513
 31
0.0
  0
LINE
  5
387
330
1F
100
AcDbEntity
  8
0
  6
CENTERX2
 62
     7
370
     0
100
AcDbLine
 10
200.5615758755
 20
86.9317640513
 30
0.0
 11
200.5615758755
 21
91.9317640513
 31
0.0
  0
LINE
  5
388
330
1F
100
AcDbEntity
  8
0
  6
CENTERX2
 62
     7
370
     0
100
AcDbLine
 10
74.0615758755
 20
86.9317640513
 30
0.0
 11
74.0615758755
 21
91.9317640513
 31
0.0
  0
LINE
  5
389
330
1F
100
AcDbEntity
  8
0
  6
CENTERX2
 62
     7
370
     0
100
AcDbLine
 10
211.0615758755
 20
86.9317640513
 30
0.0
 11
211.0615758755
 21
91.9317640513
 31
0.0
  0
LINE
  5
38A
330
1F
100
AcDbEntity
  8
0
  6
CENTERX2
 62
     7
370
     0
100
AcDbLine
 10
142.5615758755
 20
86.9317640513
 30
0.0
 11
142.5615758755
 21
91.9317640513
 31
0.0
  0
ENDSEC
  0
SECTION
  2
OBJECTS
  0
DICTIONARY
  5
C
330
0
100
AcDbDictionary
281
     1
  3
ACAD_GROUP
350
D
  3
ACAD_LAYOUT
350
1A
  3
ACAD_MLEADERSTYLE
350
38C
  3
ACAD_MLINESTYLE
350
17
  3
ACAD_PLOTSETTINGS
350
19
  3
ACAD_PLOTSTYLENAME
350
E
  3
ACAD_TABLESTYLE
350
38B
  3
ACAD_VISUALSTYLE
350
2A
  3
AcDbVariableDictionary
350
38D
  0
DICTIONARY
  5
D
102
{ACAD_REACTORS
330
C
102
}
330
C
100
AcDbDictionary
281
     1
  0
DICTIONARY
  5
1A
102
{ACAD_REACTORS
330
C
102
}
330
C
100
AcDbDictionary
281
     1
  3
Layout1
350
1E
  3
Layout2
350
26
  3
Model
350
22
  0
DICTIONARY
  5
38C
102
{ACAD_REACTORS
330
C
102
}
330
C
100
AcDbDictionary
281
     1
  0
DICTIONARY
  5
17
102
{ACAD_REACTORS
330
C
102
}
330
C
100
AcDbDictionary
281
     1
  3
Standard
350
18
  0
DICTIONARY
  5
19
102
{ACAD_REACTORS
330
C
102
}
330
C
100
AcDbDictionary
281
     1
  0
ACDBDICTIONARYWDFLT
  5
E
102
{ACAD_REACTORS
330
C
102
}
330
C
100
AcDbDictionary
281
     1
  3
Normal
350
F
100
AcDbDictionaryWithDefault
340
F
  0
DICTIONARY
  5
38B
102
{ACAD_REACTORS
330
C
102
}
330
C
100
AcDbDictionary
281
     1
  0
DICTIONARY
  5
2A
102
{ACAD_REACTORS
330
C
102
}
330
C
100
AcDbDictionary
281
     1
  3
2dWireframe
350
2F
  3
3D Hidden
350
31
  3
3dWireframe
350
30
  3
Basic
350
32
  3
Brighten
350
36
  3
ColorChange
350
3A
  3
Conceptual
350
34
  3
Dim
350
35
  3
Facepattern
350
39
  3
Flat
350
2B
  3
FlatWithEdges
350
2C
  3
Gouraud
350
2D
  3
GouraudWithEdges
350
2E
  3
Linepattern
350
38
  3
Realistic
350
33
  3
Thicken
350
37
  0
DICTIONARY
  5
38D
102
{ACAD_REACTORS
330
C
102
}
330
C
100
AcDbDictionary
281
     1
  3
PSOLHEIGHT
350
38F
  3
PSOLWIDTH
350
38E
  0
LAYOUT
  5
1E
102
{ACAD_REACTORS
330
1A
102
}
330
1A
100
AcDbPlotSettings
  1

  2
none_device
  4

  6

 40
0.0
 41
0.0
 42
0.0
 43
0.0
 44
0.0
 45
0.0
 46
0.0
 47
0.0
 48
0.0
 49
0.0
140
0.0
141
0.0
142
1.0
143
1.0
 70
   688
 72
     0
 73
     0
 74
     5
  7

 75
    16
147
1.0
148
0.0
149
0.0
100
AcDbLayout
  1
Layout1
 70
     1
 71
     1
 10
0.0
 20
0.0
 11
420.0
 21
297.0
 12
0.0
 22
0.0
 32
0.0
 14
1.0000000000E+20
 24
1.0000000000E+20
 34
1.0000000000E+20
 15
-1.0000000000E+20
 25
-1.0000000000E+20
 35
-1.0000000000E+20
146
0.0
 13
0.0
 23
0.0
 33
0.0
 16
1.0
 26
0.0
 36
0.0
 17
0.0
 27
1.0
 37
0.0
 76
     0
330
1B
  0
LAYOUT
  5
26
102
{ACAD_REACTORS
330
1A
102
}
330
1A
100
AcDbPlotSettings
  1

  2
none_device
  4

  6

 40
0.0
 41
0.0
 42
0.0
 43
0.0
 44
0.0
 45
0.0
 46
0.0
 47
0.0
 48
0.0
 49
0.0
140
0.0
141
0.0
142
1.0
143
1.0
 70
   688
 72
     0
 73
     0
 74
     5
  7

 75
    16
147
1.0
148
0.0
149
0.0
100
AcDbLayout
  1
Layout2
 70
     1
 71
     2
 10
0.0
 20
0.0
 11
0.0
 21
0.0
 12
0.0
 22
0.0
 32
0.0
 14
0.0
 24
0.0
 34
0.0
 15
0.0
 25
0.0
 35
0.0
146
0.0
 13
0.0
 23
0.0
 33
0.0
 16
1.0
 26
0.0
 36
0.0
 17
0.0
 27
1.0
 37
0.0
 76
     0
330
23
  0
LAYOUT
  5
22
102
{ACAD_REACTORS
330
1A
102
}
330
1A
100
AcDbPlotSettings
  1

  2
none_device
  4

  6

 40
0.0
 41
0.0
 42
0.0
 43
0.0
 44
0.0
 45
0.0
 46
0.0
 47
0.0
 48
0.0
 49
0.0
140
0.0
141
0.0
142
1.0
143
1.0
 70
  1712
 72
     0
 73
     0
 74
     0
  7

 75
     0
147
1.0
148
0.0
149
0.0
100
AcDbLayout
  1
Model
 70
     1
 71
     0
 10
0.0
 20
0.0
 11
297.0
 21
210.0
 12
0.0
 22
0.0
 32
0.0
 14
0.0
 24
0.0
 34
0.0
 15
297.0
 25
210.0
 35
0.0
146
0.0
 13
0.0
 23
0.0
 33
0.0
 16
1.0
 26
0.0
 36
0.0
 17
0.0
 27
1.0
 37
0.0
 76
     0
330
1F
331
29
  0
MLINESTYLE
  5
18
102
{ACAD_REACTORS
330
17
102
}
330
17
100
AcDbMlineStyle
  2
Standard
 70
     0
  3

 62
   256
 51
90.0
 52
90.0
 71
     2
 49
0.5
 62
   256
  6
BYLAYER
 49
-0.5
 62
   256
  6
BYLAYER
  0
ACDBPLACEHOLDER
  5
F
102
{ACAD_REACTORS
330
E
102
}
330
E
  0
VISUALSTYLE
  5
2F
102
{ACAD_REACTORS
330
2A
102
}
330
2A
100
AcDbVisualStyle
  2
2dWireframe
 70
     4
 71
     0
 72
     2
 73
     0
 90
        0
 40
-0.6
 41
-30.0
 62
     5
 63
     7
 74
     1
 91
        4
 64
     7
 65
   257
 75
     1
175
     1
 42
1.0
 92
        0
 66
   257
 43
1.0
 76
     1
 77
     6
 78
     2
 67
     7
 79
     5
170
     0
171
     0
290
     0
174
     0
 93
        1
 44
0.0
173
     0
291
     0
 45
0.0
1001
ACAD
1000
AcDbSavedByObjectVersion
1070
     0
  0
VISUALSTYLE
  5
31
102
{ACAD_REACTORS
330
2A
102
}
330
2A
100
AcDbVisualStyle
  2
3D Hidden
 70
     6
 71
     1
 72
     2
 73
     2
 90
        0
 40
-0.6
 41
-30.0
 62
     5
 63
     7
 74
     2
 91
        2
 64
     7
 65
   257
 75
     2
175
     1
 42
40.0
 92
        0
 66
   257
 43
1.0
 76
     1
 77
     6
 78
     2
 67
     7
 79
     3
170
     0
171
     0
290
     0
174
     0
 93
        1
 44
0.0
173
     0
291
     0
 45
0.0
1001
ACAD
1000
AcDbSavedByObjectVersion
1070
     0
  0
VISUALSTYLE
  5
30
102
{ACAD_REACTORS
330
2A
102
}
330
2A
100
AcDbVisualStyle
  2
3dWireframe
 70
     5
 71
     0
 72
     2
 73
     0
 90
        0
 40
-0.6
 41
-30.0
 62
     5
 63
     7
 74
     1
 91
        4
 64
     7
 65
   257
 75
     1
175
     1
 42
1.0
 92
        0
 66
   257
 43
1.0
 76
     1
 77
     6
 78
     2
 67
     7
 79
     5
170
     0
171
     0
290
     0
174
     0
 93
        1
 44
0.0
173
     0
291
     0
 45
0.0
1001
ACAD
1000
AcDbSavedByObjectVersion
1070
     0
  0
VISUALSTYLE
  5
32
102
{ACAD_REACTORS
330
2A
102
}
330
2A
100
AcDbVisualStyle
  2
Basic
 70
     7
 71
     1
 72
     0
 73
     1
 90
        0
 40
-0.6
 41
-30.0
 62
     5
 63
     7
 74
     0
 91
        4
 64
     7
 65
   257
 75
     1
175
     1
 42
1.0
 92
        8
 66
     7
 43
1.0
 76
     1
 77
     6
 78
     2
 67
     7
 79
     5
170
     0
171
     0
290
     0
174
     0
 93
        1
 44
0.0
173
     0
291
     1
 45
0.0
1001
ACAD
1000
AcDbSavedByObjectVersion
1070
     0
  0
VISUALSTYLE
  5
36
102
{ACAD_REACTORS
330
2A
102
}
330
2A
100
AcDbVisualStyle
  2
Brighten
 70
    12
 71
     2
 72
     2
 73
     0
 90
        0
 40
-0.6
 41
-30.0
 62
     5
 63
     7
 74
     1
 91
        4
 64
     7
 65
   257
 75
     1
175
     1
 42
1.0
 92
        8
 66
     7
 43
1.0
 76
     1
 77
     6
 78
     2
 67
     7
 79
     5
170
     0
171
     0
290
     0
174
     0
 93
        1
 44
50.0
173
     0
291
     1
 45
0.0
1001
ACAD
1000
AcDbSavedByObjectVersion
1070
     0
  0
VISUALSTYLE
  5
3A
102
{ACAD_REACTORS
330
2A
102
}
330
2A
100
AcDbVisualStyle
  2
ColorChange
 70
    16
 71
     2
 72
     2
 73
     3
 90
        0
 40
-0.6
 41
-30.0
 62
     5
 63
     8
 74
     1
 91
        4
 64
     7
 65
   257
 75
     1
175
     1
 42
1.0
 92
        8
 66
     8
 43
1.0
 76
     1
 77
     6
 78
     2
 67
     7
 79
     5
170
     0
171
     0
290
     0
174
     0
 93
        1
 44
0.0
173
     0
291
     1
 45
0.0
1001
ACAD
1000
AcDbSavedByObjectVersion
1070
     0
  0
VISUALSTYLE
  5
34
102
{ACAD_REACTORS
330
2A
102
}
330
2A
100
AcDbVisualStyle
  2
Conceptual
 70
     9
 71
     3
 72
     2
 73
     0
 90
        0
 40
-0.6
 41
-30.0
 62
     5
 63
     7
 74
     2
 91
        2
 64
     7
 65
   257
 75
     1
175
     1
 42
40.0
 92
        8
 66
     7
 43
1.0
 76
     1
 77
     6
 78
     2
 67
     7
 79
     3
170
     0
171
     0
290
     0
174
     0
 93
        1
 44
0.0
173
     0
291
     0
 45
0.0
1001
ACAD
1000
AcDbSavedByObjectVersion
1070
     0
  0
VISUALSTYLE
  5
35
102
{ACAD_REACTORS
330
2A
102
}
330
2A
100
AcDbVisualStyle
  2
Dim
 70
    11
 71
     2
 72
     2
 73
     0
 90
        0
 40
-0.6
 41
-30.0
 62
     5
 63
     7
 74
     1
 91
        4
 64
     7
 65
   257
 75
     1
175
     1
 42
1.0
 92
        8
 66
     7
 43
1.0
 76
     1
 77
     6
 78
     2
 67
     7
 79
     5
170
     0
171
     0
290
     0
174
     0
 93
        1
 44
-50.0
173
     0
291
     1
 45
0.0
1001
ACAD
1000
AcDbSavedByObjectVersion
1070
     0
  0
VISUALSTYLE
  5
39
102
{ACAD_REACTORS
330
2A
102
}
330
2A
100
AcDbVisualStyle
  2
Facepattern
 70
    15
 71
     2
 72
     2
 73
     0
 90
        0
 40
-0.6
 41
-30.0
 62
     5
 63
     7
 74
     1
 91
        4
 64
     7
 65
   257
 75
     1
175
     1
 42
1.0
 92
        8
 66
     7
 43
1.0
 76
     1
 77
     6
 78
     2
 67
     7
 79
     5
170
     0
171
     0
290
     0
174
     0
 93
        1
 44
0.0
173
     0
291
     1
 45
0.0
1001
ACAD
1000
AcDbSavedByObjectVersion
1070
     0
  0
VISUALSTYLE
  5
2B
102
{ACAD_REACTORS
330
2A
102
}
330
2A
100
AcDbVisualStyle
  2
Flat
 70
     0
 71
     2
 72
     1
 73
     1
 90
        2
 40
-0.6
 41
30.0
 62
     5
 63
     7
 74
     0
 91
        4
 64
     7
 65
   257
 75
     1
175
     1
 42
1.0
 92
        8
 66
     7
 43
1.0
 76
     1
 77
     6
 78
     2
 67
     7
 79
     5
170
     0
171
     0
290
     0
174
     0
 93
       13
 44
0.0
173
     0
291
     1
 45
0.0
1001
ACAD
1000
AcDbSavedByObjectVersion
1070
     0
  0
VISUALSTYLE
  5
2C
102
{ACAD_REACTORS
330
2A
102
}
330
2A
100
AcDbVisualStyle
  2
FlatWithEdges
 70
     1
 71
     2
 72
     1
 73
     1
 90
        2
 40
-0.6
 41
30.0
 62
     5
 63
     7
 74
     1
 91
        4
 64
     7
 65
   257
 75
     1
175
     1
 42
1.0
 92
        0
 66
   257
 43
1.0
 76
     1
 77
     6
 78
     2
 67
     7
 79
     5
170
     0
171
     0
290
     0
174
     0
 93
       13
 44
0.0
173
     0
291
     1
 45
0.0
1001
ACAD
1000
AcDbSavedByObjectVersion
1070
     0
  0
VISUALSTYLE
  5
2D
102
{ACAD_REACTORS
330
2A
102
}
330
2A
100
AcDbVisualStyle
  2
Gouraud
 70
     2
 71
     2
 72
     2
 73
     1
 90
        2
 40
-0.6
 41
30.0
 62
     5
 63
     7
 74
     0
 91
        4
 64
     7
 65
   257
 75
     1
175
     1
 42
1.0
 92
        0
 66
     7
 43
1.0
 76
     1
 77
     6
 78
     2
 67
     7
 79
     5
170
     0
171
     0
290
     0
174
     0
 93
       13
 44
0.0
173
     0
291
     1
 45
0.0
1001
ACAD
1000
AcDbSavedByObjectVersion
1070
     0
  0
VISUALSTYLE
  5
2E
102
{ACAD_REACTORS
330
2A
102
}
330
2A
100
AcDbVisualStyle
  2
GouraudWithEdges
 70
     3
 71
     2
 72
     2
 73
     1
 90
        2
 40
-0.6
 41
30.0
 62
     5
 63
     7
 74
     1
 91
        4
 64
     7
 65
   257
 75
     1
175
     1
 42
1.0
 92
        0
 66
   257
 43
1.0
 76
     1
 77
     6
 78
     2
 67
     7
 79
     5
170
     0
171
     0
290
     0
174
     0
 93
       13
 44
0.0
173
     0
291
     1
 45
0.0
1001
ACAD
1000
AcDbSavedByObjectVersion
1070
     0
  0
VISUALSTYLE
  5
38
102
{ACAD_REACTORS
330
2A
102
}
330
2A
100
AcDbVisualStyle
  2
Linepattern
 70
    14
 71
     2
 72
     2
 73
     0
 90
        0
 40
-0.6
 41
-30.0
 62
     5
 63
     7
 74
     1
 91
        4
 64
     7
 65
   257
 75
     7
175
     7
 42
1.0
 92
        8
 66
     7
 43
1.0
 76
     1
 77
     6
 78
     2
 67
     7
 79
     5
170
     0
171
     0
290
     0
174
     0
 93
        1
 44
0.0
173
     0
291
     1
 45
0.0
1001
ACAD
1000
AcDbSavedByObjectVersion
1070
     0
  0
VISUALSTYLE
  5
33
102
{ACAD_REACTORS
330
2A
102
}
330
2A
100
AcDbVisualStyle
  2
Realistic
 70
     8
 71
     2
 72
     2
 73
     0
 90
        0
 40
-0.6
 41
-30.0
 62
     5
 63
     7
 74
     1
 91
        0
 64
     7
 65
   257
 75
     1
175
     1
 42
1.0
 92
        8
 66
     8
 43
1.0
 76
     1
 77
     6
 78
     2
 67
     7
 79
     5
170
     0
171
     0
290
     0
174
     0
 93
       13
 44
0.0
173
     0
291
     0
 45
0.0
1001
ACAD
1000
AcDbSavedByObjectVersion
1070
     0
  0
VISUALSTYLE
  5
37
102
{ACAD_REACTORS
330
2A
102
}
330
2A
100
AcDbVisualStyle
  2
Thicken
 70
    13
 71
     2
 72
     2
 73
     0
 90
        0
 40
-0.6
 41
-30.0
 62
     5
 63
     7
 74
     1
 91
        4
 64
     7
 65
   257
 75
     1
175
     1
 42
1.0
 92
       12
 66
     7
 43
1.0
 76
     1
 77
     6
 78
     2
 67
     7
 79
     5
170
     0
171
     0
290
     0
174
     0
 93
        1
 44
0.0
173
     0
291
     1
 45
0.0
1001
ACAD
1000
AcDbSavedByObjectVersion
1070
     0
  0
DICTIONARYVAR
  5
38F
102
{ACAD_REACTORS
330
38D
102
}
330
38D
100
DictionaryVariables
280
     0
  1
80.000000
  0
DICTIONARYVAR
  5
38E
102
{ACAD_REACTORS
330
38D
102
}
330
38D
100
DictionaryVariables
280
     0
  1
5.000000
  0
ENDSEC
  0
EOF
