  0
SECTION
  2
HEADER
  9
$ACADVER
  1
AC1009
999
I-DEAS 10 Not Encode
  9
$EXTMIN
 10
0.0
 20
0.0
  9
$EXTMAX
 10
2.1E+002
 20
2.97E+002
  9
$TEXTSIZE
 40
1.25E-001
  9
$LTSCALE
 40
1.0
  9
$CLAYER
  8
100
  9
$CECOLOR
 62
1
  9
$DIMASZ
 40
1.25E-001
  9
$DIMEXO
 40
6.25E-002
  9
$DIMDLI
 40
2.5E-001
  9
$DIMEXE
 40
1.25E-001
  9
$DIMTP
 40
5.0E-003
  9
$DIMTM
 40
-5.0E-003
  9
$DIMTXT
 40
3.0
  9
$DIMLIM
 70
0
  9
$DIMTIH
 70
1
  9
$DIMTOH
 70
1
  9
$DIMSE1
 70
0
  9
$DIMSE2
 70
0
  9
$DIMTAD
 70
0
  9
$DIMASO
 70
1
  9
$DIMALT
 70
0
  9
$DIMALTD
 70
0
  9
$DIMTOFL
 70
1
  9
$DIMTIX
 70
0
  9
$DIMSAH
 70
0
  9
$DIMTFAC
 40
1.0
  9
$DIMGAP
 40
6.25E-002
  9
$LUNITS
 70
2
  9
$LUPREC
 70
3
  9
$FILLETRAD
 40
1.0E+001
  9
$AUNITS
 70
0
  9
$AUPREC
 70
1
  9
$CHAMFERA
 40
6.0
  9
$CHAMFERB
 40
6.0
  9
$ANGBASE
 50
0.0
  9
$ANGDIR
 70
0
  9
$PEXTMIN
 10
0.0
 20
0.0
 30
0.0
  9
$PEXTMAX
 10
2.1E+002
 20
2.97E+002
 30
0.0
  9
$PLIMMIN
 10
0.0
 20
0.0
  9
$PLIMMAX
 10
2.1E+002
 20
2.97E+002
  9
$PDMODE
 70
2
  9
$PDSIZE
 40
-1.0E-002
  9
$SPLINETYPE
 70
6
  9
$TILEMODE
 70
0
  0
ENDSEC
  0
SECTION
  2
TABLES
  0
TABLE
  2
VPORT
 70
2
  0
VPORT
  2
*Active
 70
0
 10
0.0
 20
0.0
 11
2.1E+002
 21
2.97E+002
 12
1.05E+002
 22
1.485E+002
 13
0.0
 23
0.0
 14
1.0
 24
1.0
 15
0.0
 25
0.0
 16
0.0
 26
0.0
 36
1.0
 17
0.0
 27
0.0
 37
0.0
 40
2.97E+002
 41
7.0707071E-001
 42
5.0E+001
 43
0.0
 44
0.0
 50
0.0
 51
0.0
 71
0
 72
100
 73
1
 74
3
 75
0
 76
0
 77
0
 78
0
  0
ENDTAB
  0
TABLE
  2
LTYPE
 70
7
  0
LTYPE
  2
HIDDENNEW0
  3
_ 
 70
64
 72
65
 73
3
 40
4.5
 49
1.5
 49
-1.5
 49
1.5
  0
LTYPE
  2
HIDDENNEW1
  3
_ 
 70
64
 72
65
 73
3
 40
4.5
 49
1.5
 49
-1.5
 49
1.5
  0
LTYPE
  2
HIDDEN
  3
_ 
 70
64
 72
65
 73
3
 40
4.5
 49
1.5
 49
-1.5
 49
1.5
  0
LTYPE
  2
CENTERLINE
  3
_ 
 70
64
 72
65
 73
5
 40
3.0E+001
 49
1.2E+001
 49
-1.5
 49
3.0
 49
-1.5
 49
1.2E+001
  0
LTYPE
  2
PHANTOM
  3
_ 
 70
64
 72
65
 73
7
 40
2.95E+001
 49
9.5
 49
-1.5
 49
3.0
 49
-1.5
 49
3.0
 49
-1.5
 49
9.5
  0
LTYPE
  2
SHORT_DASH
  3
_ 
 70
64
 72
65
 73
3
 40
3.0
 49
7.5E-001
 49
-1.5
 49
7.5E-001
  0
LTYPE
  2
LONG_DASH
  3
_ 
 70
64
 72
65
 73
3
 40
9.0
 49
2.25
 49
-4.5
 49
2.25
  0
ENDTAB
  0
TABLE
  2
LAYER
 70
258
  0
LAYER
  2
0
 70
0
 62
-7
  6
CONTINUOUS
  0
LAYER
  2
1
 70
0
 62
7
  6
CONTINUOUS
  0
LAYER
  2
2
 70
0
 62
7
  6
CONTINUOUS
  0
LAYER
  2
3
 70
0
 62
7
  6
CONTINUOUS
  0
LAYER
  2
4
 70
0
 62
7
  6
CONTINUOUS
  0
LAYER
  2
Drafting_Hidden_Entities
 70
1
 62
7
  6
CONTINUOUS
  0
ENDTAB
  0
TABLE
  2
STYLE
 70
1
  0
STYLE
  2
STANDARD
 70
64
 40
0.0
 41
1.0
 50
0.0
 71
0
 42
1.0
  3
monotxt.shx
  4

  0
ENDTAB
  0
TABLE
  2
VIEW
 70
0
  0
ENDTAB
  0
TABLE
  2
DIMSTYLE
 70
2
  0
DIMSTYLE
  2
DSTYLE1
 70
0
  3

  4

  5

  6

  7

 40
1.0
 41
3.0
 42
0.0
 43
3.8E-001
 44
3.0
 45
1.0E-002
 46
0.0
 47
1.0E-001
 48
1.0E-001
 71
0
 72
0
 73
0
 74
0
 75
0
 76
0
 77
1
 78
11
140
3.0
141
9.0E-002
142
0.0
143
3.9370079E-002
144
1.0
145
0.0
146
1.0
147
1.5
170
0
171
2
172
0
173
0
174
0
175
0
176
0
177
0
178
0
  0
DIMSTYLE
  2
DSTYLE2
 70
0
  3

  4

  5

  6

  7

 40
1.0
 41
5.0E-001
 42
0.0
 43
3.8E-001
 44
5.0
 45
0.0
 46
0.0
 47
0.0
 48
0.0
 71
0
 72
0
 73
1
 74
1
 75
1
 76
0
 77
0
 78
3
140
3.0
141
9.0E-002
142
0.0
143
1.0
144
1.0
145
0.0
146
1.0
147
1.5
170
0
171
2
172
0
173
0
174
0
175
0
176
0
177
0
178
0
  0
ENDTAB
  0
ENDSEC
  0
SECTION
  2
BLOCKS
  0
BLOCK
  2
_AH12
  3
_AH
 10
0.0
 20
0.0
 70
64
  0
LINE
  8
0
  6
CONTINUOUS
 62
0
 10
0.0
 20
0.0
 11
1.0
 21
0.0
  0
LINE
  8
0
  6
CONTINUOUS
 62
0
 10
0.0
 20
0.0
 11
-1.0
 21
0.0
  0
ENDBLK
  0
BLOCK
  2
_AH13
  3
_AH
 10
0.0
 20
0.0
 70
64
  0
SOLID
  8
0
  6
CONTINUOUS
 62
0
 10
0.0
 20
0.0
 11
-1.0
 21
1.66667E-001
 12
-1.0
 22
-1.66667E-001
 13
0.0
 23
0.0
  0
ENDBLK
  0
BLOCK
  2
_AH14
  3
_AH
 10
0.0
 20
0.0
 70
64
  0
ENDBLK
  0
BLOCK
  2
_AH15
  3
_AH
 10
0.0
 20
0.0
 70
64
  0
CIRCLE
  8
0
  6
CONTINUOUS
 62
0
 10
0.0
 20
0.0
 40
1.66667E-001
  0
LINE
  8
0
  6
CONTINUOUS
 62
0
 10
0.0
 20
0.0
 11
-1.0
 21
0.0
  0
ENDBLK
  0
BLOCK
  2
_AH16
  3
_AH
 10
0.0
 20
0.0
 70
64
  0
POLYLINE
  8
0
  6
CONTINUOUS
 62
0
 66
1
 40
4.0E+001
 41
4.0E+001
 70
0
  0
VERTEX
  8
0
 42
1.0
 10
8.3335E-002
 20
0.0
 70
0
  0
VERTEX
  8
0
 42
1.0
 10
-8.3335E-002
 20
0.0
 70
0
  0
VERTEX
  8
0
 42
0.0
 10
8.3335E-002
 20
0.0
 70
0
  0
SEQEND
  0
LINE
  8
0
  6
CONTINUOUS
 62
0
 10
0.0
 20
0.0
 11
-1.0
 21
0.0
  0
ENDBLK
  0
BLOCK
  2
_AH17
  3
_AH
 10
0.0
 20
0.0
 70
64
  0
LINE
  8
0
  6
CONTINUOUS
 62
0
 10
-1.66667E-001
 20
-1.66667E-001
 11
1.66667E-001
 21
-1.66667E-001
  0
LINE
  8
0
  6
CONTINUOUS
 62
0
 10
1.66667E-001
 20
-1.66667E-001
 11
1.66667E-001
 21
1.66667E-001
  0
LINE
  8
0
  6
CONTINUOUS
 62
0
 10
1.66667E-001
 20
1.66667E-001
 11
-1.66667E-001
 21
1.66667E-001
  0
LINE
  8
0
  6
CONTINUOUS
 62
0
 10
-1.66667E-001
 20
1.66667E-001
 11
-1.66667E-001
 21
-1.66667E-001
  0
LINE
  8
0
  6
CONTINUOUS
 62
0
 10
0.0
 20
0.0
 11
-1.0
 21
0.0
  0
ENDBLK
  0
BLOCK
  2
_AH18
  3
_AH
 10
0.0
 20
0.0
 70
64
  0
SOLID
  8
0
  6
CONTINUOUS
 62
0
 10
-1.66667E-001
 20
-1.66667E-001
 11
1.66667E-001
 21
-1.66667E-001
 12
-1.66667E-001
 22
1.66667E-001
 13
1.66667E-001
 23
1.66667E-001
  0
LINE
  8
0
  6
CONTINUOUS
 62
0
 10
0.0
 20
0.0
 11
-1.0
 21
0.0
  0
ENDBLK
  0
BLOCK
  2
_AH19
  3
_AH
 10
0.0
 20
0.0
 70
64
  0
LINE
  8
0
  6
CONTINUOUS
 62
0
 10
-5.0E-001
 20
-5.0E-001
 11
5.0E-001
 21
5.0E-001
  0
LINE
  8
0
  6
CONTINUOUS
 62
0
 10
0.0
 20
0.0
 11
-1.0
 21
0.0
  0
ENDBLK
  0
BLOCK
  2
_AH20
  3
_AH
 10
0.0
 20
0.0
 70
64
  0
POLYLINE
  8
0
  6
CONTINUOUS
 62
0
 66
1
 40
5.0E-001
 41
5.0E-001
 70
0
  0
VERTEX
  8
0
 42
4.1421356E-001
 10
-1.66667E-001
 20
-1.66667E-001
 70
0
  0
VERTEX
  8
0
 42
0.0
 10
0.0
 20
0.0
 70
0
  0
SEQEND
  0
POLYLINE
  8
0
  6
CONTINUOUS
 62
0
 66
1
 40
5.0E-001
 41
5.0E-001
 70
0
  0
VERTEX
  8
0
 42
4.1421356E-001
 10
1.66667E-001
 20
1.66667E-001
 70
0
  0
VERTEX
  8
0
 42
0.0
 10
0.0
 20
0.0
 70
0
  0
SEQEND
  0
LINE
  8
0
  6
CONTINUOUS
 62
0
 10
0.0
 20
0.0
 11
-1.0
 21
0.0
  0
ENDBLK
  0
BLOCK
  2
_AH21
  3
_AH
 10
0.0
 20
0.0
 70
64
  0
LINE
  8
0
  6
CONTINUOUS
 62
0
 10
0.0
 20
0.0
 11
-1.0
 21
-1.66667E-001
  0
LINE
  8
0
  6
CONTINUOUS
 62
0
 10
-1.0
 20
-1.66667E-001
 11
-1.0
 21
1.66667E-001
  0
LINE
  8
0
  6
CONTINUOUS
 62
0
 10
-1.0
 20
1.66667E-001
 11
0.0
 21
0.0
  0
ENDBLK
  0
BLOCK
  2
A4-V
 10
0.0
 20
0.0
 70
0
  0
POLYLINE
  8
1
  6
CONTINUOUS
 62
2
 66
1
 40
5.0E-001
 41
5.0E-001
 70
0
  0
VERTEX
  8
1
 42
0.0
 10
4.9975
 20
2.91854E+002
 70
0
  0
VERTEX
  8
1
 42
0.0
 10
4.9975
 20
4.9975
 70
0
  0
SEQEND
  0
LINE
  8
1
  6
CONTINUOUS
 62
2
 10
1.049475E+002
 20
2.91854E+002
 11
1.049475E+002
 21
2.9675155E+002
  0
LINE
  8
1
  6
CONTINUOUS
 62
2
 10
2.048975E+002
 20
1.4842575E+002
 11
2.0979505E+002
 21
1.4842575E+002
  0
LINE
  8
1
  6
CONTINUOUS
 62
2
 10
9.995E-002
 20
9.995E-002
 11
2.0979505E+002
 21
9.995E-002
  0
LINE
  8
1
  6
CONTINUOUS
 62
2
 10
2.0979505E+002
 20
9.995E-002
 11
2.0979505E+002
 21
2.9675155E+002
  0
LINE
  8
1
  6
CONTINUOUS
 62
2
 10
2.0979505E+002
 20
2.9675155E+002
 11
9.995E-002
 21
2.9675155E+002
  0
LINE
  8
1
  6
CONTINUOUS
 62
2
 10
9.995E-002
 20
2.9675155E+002
 11
9.995E-002
 21
9.995E-002
  0
POLYLINE
  8
1
  6
CONTINUOUS
 62
2
 66
1
 40
5.0E-001
 41
5.0E-001
 70
0
  0
VERTEX
  8
1
 42
0.0
 10
4.9975
 20
4.9975
 70
0
  0
VERTEX
  8
1
 42
0.0
 10
2.048975E+002
 20
4.9975
 70
0
  0
SEQEND
  0
POLYLINE
  8
1
  6
CONTINUOUS
 62
2
 66
1
 40
5.0E-001
 41
5.0E-001
 70
0
  0
VERTEX
  8
1
 42
0.0
 10
2.048975E+002
 20
4.9975
 70
0
  0
VERTEX
  8
1
 42
0.0
 10
2.048975E+002
 20
2.91854E+002
 70
0
  0
SEQEND
  0
POLYLINE
  8
1
  6
CONTINUOUS
 62
2
 66
1
 40
5.0E-001
 41
5.0E-001
 70
0
  0
VERTEX
  8
1
 42
0.0
 10
2.048975E+002
 20
2.91854E+002
 70
0
  0
VERTEX
  8
1
 42
0.0
 10
4.9975
 20
2.91854E+002
 70
0
  0
SEQEND
  0
LINE
  8
1
  6
CONTINUOUS
 62
2
 10
9.995E-002
 20
1.4842575E+002
 11
4.9975
 21
1.4842575E+002
  0
LINE
  8
1
  6
CONTINUOUS
 62
2
 10
1.049475E+002
 20
9.995E-002
 11
1.049475E+002
 21
4.9975
  0
POINT
  8
1
  6
CONTINUOUS
 62
2
 10
0.0
 20
0.0
  0
ATTDEF
  8
1
  6
CONTINUOUS
 62
6
 10
1.631175E+002
 20
3.3889971E+001
 40
4.0
  1
 
 41
7.0E-001
 72
1
 11
1.617175E+002
 21
3.3889971E+001
  3
1
  2
1
 70
0
  0
ATTDEF
  8
1
  6
CONTINUOUS
 62
6
 10
1.631175E+002
 20
2.5889971E+001
 40
4.0
  1
 
 41
7.0E-001
 72
1
 11
1.617175E+002
 21
2.5889971E+001
  3
2
  2
2
 70
0
  0
ATTDEF
  8
1
  6
CONTINUOUS
 62
6
 10
1.567675E+002
 20
1.1458917E+001
 40
4.0
  1
 
 41
7.0E-001
 72
1
 11
1.553675E+002
 21
1.1458917E+001
  3
3
  2
3
 70
0
  0
ATTDEF
  8
1
  6
CONTINUOUS
 62
6
 10
1.727675E+002
 20
4.96425E+001
 40
3.0
  1
 
 41
7.0E-001
 72
1
 11
1.717175E+002
 21
4.96425E+001
  3
4
  2
4
 70
0
  0
ATTDEF
  8
1
  6
CONTINUOUS
 62
6
 10
1.727675E+002
 20
4.4355E+001
 40
3.0
  1
 
 41
7.0E-001
 72
1
 11
1.717175E+002
 21
4.4355E+001
  3
5
  2
5
 70
0
  0
ATTDEF
  8
1
  6
CONTINUOUS
 62
6
 10
1.881675E+002
 20
5.51425E+001
 40
3.0
  1
 
 41
7.0E-001
 72
1
 11
1.871175E+002
 21
5.51425E+001
  3
6
  2
6
 70
0
  0
ATTDEF
  8
1
  6
CONTINUOUS
 62
6
 10
8.3092015E+001
 20
5.92056
 40
2.5
  1
 
 41
7.0E-001
  3
7
  2
7
 70
0
  0
ATTDEF
  8
1
  6
CONTINUOUS
 62
6
 10
1.2627202E+002
 20
5.92056
 40
2.5
  1
 
 41
7.0E-001
  3
8
  2
8
 70
0
  0
ATTDEF
  8
1
  6
CONTINUOUS
 62
6
 10
7.6776842E+001
 20
3.9889149E+001
 40
2.0
  1
 
 41
7.0E-001
  3
9
  2
9
 70
0
  0
ATTDEF
  8
1
  6
CONTINUOUS
 62
6
 10
8.65175E+001
 20
3.54075E+001
 40
2.2
  1
 
 41
7.0E-001
  3
10
  2
10
 70
0
  0
ATTDEF
  8
1
  6
CONTINUOUS
 62
6
 10
1.017575E+002
 20
3.54075E+001
 40
2.2
  1
 
 41
7.0E-001
  3
11
  2
11
 70
0
  0
ATTDEF
  8
1
  6
CONTINUOUS
 62
6
 10
8.65175E+001
 20
3.11775E+001
 40
2.2
  1
 
 41
7.0E-001
  3
12
  2
12
 70
0
  0
ATTDEF
  8
1
  6
CONTINUOUS
 62
6
 10
1.017575E+002
 20
3.11775E+001
 40
2.2
  1
 
 41
7.0E-001
  3
13
  2
13
 70
0
  0
ATTDEF
  8
1
  6
CONTINUOUS
 62
6
 10
8.65175E+001
 20
2.69475E+001
 40
2.2
  1
 
 41
7.0E-001
  3
14
  2
14
 70
0
  0
ATTDEF
  8
1
  6
CONTINUOUS
 62
6
 10
1.017575E+002
 20
2.69475E+001
 40
2.2
  1
 
 41
7.0E-001
  3
15
  2
15
 70
0
  0
ATTDEF
  8
1
  6
CONTINUOUS
 62
6
 10
8.65175E+001
 20
2.27175E+001
 40
2.2
  1
 
 41
7.0E-001
  3
16
  2
16
 70
0
  0
ATTDEF
  8
1
  6
CONTINUOUS
 62
6
 10
1.9777072E+002
 20
4.0035527E+001
 40
1.0
  1
 
  3
17
  2
17
 70
0
  0
ATTDEF
  8
1
  6
CONTINUOUS
 62
6
 10
1.9777072E+002
 20
3.8535527E+001
 40
1.0
  1
 
  3
18
  2
18
 70
0
  0
ATTDEF
  8
1
  6
CONTINUOUS
 62
6
 10
1.9777072E+002
 20
3.7035527E+001
 40
1.0
  1
 
  3
19
  2
19
 70
0
  0
ATTDEF
  8
1
  6
CONTINUOUS
 62
6
 10
1.9777072E+002
 20
3.5535527E+001
 40
1.0
  1
 
  3
20
  2
20
 70
0
  0
ATTDEF
  8
1
  6
CONTINUOUS
 62
6
 10
2.30175E+001
 20
3.96375E+001
 40
2.0
  1
 
 41
7.0E-001
  3
21
  2
21
 70
0
  0
ATTDEF
  8
1
  6
CONTINUOUS
 62
6
 10
3.06375E+001
 20
3.96375E+001
 40
2.0
  1
 
 41
7.0E-001
  3
22
  2
22
 70
0
  0
ATTDEF
  8
1
  6
CONTINUOUS
 62
6
 10
5.60375E+001
 20
3.96375E+001
 40
2.0
  1
 
 41
7.0E-001
  3
23
  2
23
 70
0
  0
ATTDEF
  8
1
  6
CONTINUOUS
 62
6
 10
6.82375E+001
 20
3.96375E+001
 40
2.0
  1
 
 41
7.0E-001
  3
24
  2
24
 70
0
  0
ATTDEF
  8
1
  6
CONTINUOUS
 62
6
 10
2.30175E+001
 20
3.54075E+001
 40
2.0
  1
 
 41
7.0E-001
  3
25
  2
25
 70
0
  0
ATTDEF
  8
1
  6
CONTINUOUS
 62
6
 10
3.06375E+001
 20
3.54075E+001
 40
2.0
  1
 
 41
7.0E-001
  3
26
  2
26
 70
0
  0
ATTDEF
  8
1
  6
CONTINUOUS
 62
6
 10
5.60375E+001
 20
3.54075E+001
 40
2.0
  1
 
 41
7.0E-001
  3
27
  2
27
 70
0
  0
ATTDEF
  8
1
  6
CONTINUOUS
 62
6
 10
6.82375E+001
 20
3.54075E+001
 40
2.0
  1
 
 41
7.0E-001
  3
28
  2
28
 70
0
  0
ATTDEF
  8
1
  6
CONTINUOUS
 62
6
 10
2.30175E+001
 20
3.11775E+001
 40
2.0
  1
 
 41
7.0E-001
  3
29
  2
29
 70
0
  0
ATTDEF
  8
1
  6
CONTINUOUS
 62
6
 10
3.06375E+001
 20
3.11775E+001
 40
2.0
  1
 
 41
7.0E-001
  3
30
  2
30
 70
0
  0
ATTDEF
  8
1
  6
CONTINUOUS
 62
6
 10
5.60375E+001
 20
3.11775E+001
 40
2.0
  1
 
 41
7.0E-001
  3
31
  2
31
 70
0
  0
ATTDEF
  8
1
  6
CONTINUOUS
 62
6
 10
6.82375E+001
 20
3.11775E+001
 40
2.0
  1
 
 41
7.0E-001
  3
32
  2
32
 70
0
  0
ATTDEF
  8
1
  6
CONTINUOUS
 62
6
 10
2.30175E+001
 20
2.69475E+001
 40
2.0
  1
 
 41
7.0E-001
  3
33
  2
33
 70
0
  0
ATTDEF
  8
1
  6
CONTINUOUS
 62
6
 10
3.06375E+001
 20
2.69475E+001
 40
2.0
  1
 
 41
7.0E-001
  3
34
  2
34
 70
0
  0
ATTDEF
  8
1
  6
CONTINUOUS
 62
6
 10
5.60375E+001
 20
2.69475E+001
 40
2.0
  1
 
 41
7.0E-001
  3
35
  2
35
 70
0
  0
ATTDEF
  8
1
  6
CONTINUOUS
 62
6
 10
6.82375E+001
 20
2.69475E+001
 40
2.0
  1
 
 41
7.0E-001
  3
36
  2
36
 70
0
  0
ATTDEF
  8
1
  6
CONTINUOUS
 62
6
 10
2.30175E+001
 20
2.27175E+001
 40
2.0
  1
 
 41
7.0E-001
  3
37
  2
37
 70
0
  0
ATTDEF
  8
1
  6
CONTINUOUS
 62
6
 10
3.06375E+001
 20
2.27175E+001
 40
2.0
  1
 
 41
7.0E-001
  3
38
  2
38
 70
0
  0
ATTDEF
  8
1
  6
CONTINUOUS
 62
6
 10
5.60375E+001
 20
2.27175E+001
 40
2.0
  1
 
 41
7.0E-001
  3
39
  2
39
 70
0
  0
ATTDEF
  8
1
  6
CONTINUOUS
 62
6
 10
6.82375E+001
 20
2.27175E+001
 40
2.0
  1
 
 41
7.0E-001
  3
40
  2
40
 70
0
  0
ATTDEF
  8
1
  6
CONTINUOUS
 62
6
 10
2.30175E+001
 20
1.84875E+001
 40
2.0
  1
 
 41
7.0E-001
  3
41
  2
41
 70
0
  0
ATTDEF
  8
1
  6
CONTINUOUS
 62
6
 10
3.06375E+001
 20
1.84875E+001
 40
2.0
  1
 
 41
7.0E-001
  3
42
  2
42
 70
0
  0
ATTDEF
  8
1
  6
CONTINUOUS
 62
6
 10
5.60375E+001
 20
1.84875E+001
 40
2.0
  1
 
 41
7.0E-001
  3
43
  2
43
 70
0
  0
ATTDEF
  8
1
  6
CONTINUOUS
 62
6
 10
6.82375E+001
 20
1.84875E+001
 40
2.0
  1
 
 41
7.0E-001
  3
44
  2
44
 70
0
  0
ATTDEF
  8
1
  6
CONTINUOUS
 62
6
 10
2.30175E+001
 20
1.42575E+001
 40
2.0
  1
 
 41
7.0E-001
  3
45
  2
45
 70
0
  0
ATTDEF
  8
1
  6
CONTINUOUS
 62
6
 10
3.06375E+001
 20
1.42575E+001
 40
2.0
  1
 
 41
7.0E-001
  3
46
  2
46
 70
0
  0
ATTDEF
  8
1
  6
CONTINUOUS
 62
6
 10
5.60375E+001
 20
1.42575E+001
 40
2.0
  1
 
 41
7.0E-001
  3
47
  2
47
 70
0
  0
ATTDEF
  8
1
  6
CONTINUOUS
 62
6
 10
6.82375E+001
 20
1.42575E+001
 40
2.0
  1
 
 41
7.0E-001
  3
48
  2
48
 70
0
  0
ATTDEF
  8
1
  6
CONTINUOUS
 62
6
 10
2.30175E+001
 20
1.00275E+001
 40
2.0
  1
 
 41
7.0E-001
  3
49
  2
49
 70
0
  0
ATTDEF
  8
1
  6
CONTINUOUS
 62
6
 10
3.06375E+001
 20
1.00275E+001
 40
2.0
  1
 
 41
7.0E-001
  3
50
  2
50
 70
0
  0
ATTDEF
  8
1
  6
CONTINUOUS
 62
6
 10
5.60375E+001
 20
1.00275E+001
 40
2.0
  1
 
 41
7.0E-001
  3
51
  2
51
 70
0
  0
ATTDEF
  8
1
  6
CONTINUOUS
 62
6
 10
6.82375E+001
 20
1.00275E+001
 40
2.0
  1
 
 41
7.0E-001
  3
52
  2
52
 70
0
  0
POLYLINE
  8
1
  6
CONTINUOUS
 62
2
 66
1
 40
5.0E-001
 41
5.0E-001
 70
0
  0
VERTEX
  8
1
 42
0.0
 10
2.2017681E+001
 20
5.998734E+001
 70
0
  0
VERTEX
  8
1
 42
0.0
 10
2.0489719E+002
 20
5.998734E+001
 70
0
  0
SEQEND
  0
POLYLINE
  8
1
  6
CONTINUOUS
 62
2
 66
1
 40
5.0E-001
 41
5.0E-001
 70
0
  0
VERTEX
  8
1
 42
0.0
 10
2.2017681E+001
 20
5.998734E+001
 70
0
  0
VERTEX
  8
1
 42
0.0
 10
2.2017681E+001
 20
4.9977919
 70
0
  0
SEQEND
  0
POLYLINE
  8
1
  6
CONTINUOUS
 62
2
 66
1
 40
5.0E-001
 41
5.0E-001
 70
0
  0
VERTEX
  8
1
 42
0.0
 10
2.048975E+002
 20
4.30675E+001
 70
0
  0
VERTEX
  8
1
 42
0.0
 10
2.20175E+001
 20
4.30675E+001
 70
0
  0
SEQEND
  0
POLYLINE
  8
1
  6
CONTINUOUS
 62
2
 66
1
 40
5.0E-001
 41
5.0E-001
 70
0
  0
VERTEX
  8
1
 42
0.0
 10
7.53575E+001
 20
2.19175E+001
 70
0
  0
VERTEX
  8
1
 42
0.0
 10
2.048975E+002
 20
2.19175E+001
 70
0
  0
SEQEND
  0
POLYLINE
  8
1
  6
CONTINUOUS
 62
2
 66
1
 40
5.0E-001
 41
5.0E-001
 70
0
  0
VERTEX
  8
1
 42
0.0
 10
1.921975E+002
 20
2.19175E+001
 70
0
  0
VERTEX
  8
1
 42
0.0
 10
1.921975E+002
 20
9.2275
 70
0
  0
SEQEND
  0
POLYLINE
  8
1
  6
CONTINUOUS
 62
2
 66
1
 40
5.0E-001
 41
5.0E-001
 70
0
  0
VERTEX
  8
1
 42
0.0
 10
1.185375E+002
 20
4.9975
 70
0
  0
VERTEX
  8
1
 42
0.0
 10
1.185375E+002
 20
5.99875E+001
 70
0
  0
SEQEND
  0
POLYLINE
  8
1
  6
CONTINUOUS
 62
2
 66
1
 40
5.0E-001
 41
5.0E-001
 70
0
  0
VERTEX
  8
1
 42
0.0
 10
7.53575E+001
 20
5.99875E+001
 70
0
  0
VERTEX
  8
1
 42
0.0
 10
7.53575E+001
 20
4.9975
 70
0
  0
SEQEND
  0
LINE
  8
1
  6
CONTINUOUS
 62
150
 10
2.20175E+001
 20
9.2275
 11
2.048975E+002
 21
9.2275
  0
LINE
  8
1
  6
CONTINUOUS
 62
150
 10
2.048975E+002
 20
1.34575E+001
 11
1.921975E+002
 21
1.34575E+001
  0
LINE
  8
1
  6
CONTINUOUS
 62
150
 10
7.53575E+001
 20
1.34575E+001
 11
2.20175E+001
 21
1.34575E+001
  0
LINE
  8
1
  6
CONTINUOUS
 62
150
 10
2.20175E+001
 20
1.76875E+001
 11
7.53575E+001
 21
1.76875E+001
  0
LINE
  8
1
  6
CONTINUOUS
 62
150
 10
7.53575E+001
 20
2.19175E+001
 11
2.20175E+001
 21
2.19175E+001
  0
LINE
  8
1
  6
CONTINUOUS
 62
150
 10
2.20175E+001
 20
2.61475E+001
 11
1.185375E+002
 21
2.61475E+001
  0
LINE
  8
1
  6
CONTINUOUS
 62
150
 10
1.185375E+002
 20
3.03775E+001
 11
2.20175E+001
 21
3.03775E+001
  0
LINE
  8
1
  6
CONTINUOUS
 62
150
 10
2.20175E+001
 20
3.46075E+001
 11
1.185375E+002
 21
3.46075E+001
  0
LINE
  8
1
  6
CONTINUOUS
 62
150
 10
1.185375E+002
 20
3.88375E+001
 11
2.20175E+001
 21
3.88375E+001
  0
LINE
  8
1
  6
CONTINUOUS
 62
150
 10
1.185375E+002
 20
5.36425E+001
 11
2.048975E+002
 21
5.36425E+001
  0
LINE
  8
1
  6
CONTINUOUS
 62
150
 10
1.693375E+002
 20
5.99875E+001
 11
1.693375E+002
 21
5.36425E+001
  0
LINE
  8
1
  6
CONTINUOUS
 62
150
 10
1.617175E+002
 20
9.2275
 11
1.617175E+002
 21
4.9975
  0
LINE
  8
1
  6
CONTINUOUS
 62
150
 10
1.007575E+002
 20
2.19175E+001
 11
1.007575E+002
 21
5.99875E+001
  0
LINE
  8
1
  6
CONTINUOUS
 62
150
 10
8.55175E+001
 20
4.30675E+001
 11
8.55175E+001
 21
2.19175E+001
  0
LINE
  8
1
  6
CONTINUOUS
 62
150
 10
6.77375E+001
 20
4.9975
 11
6.77375E+001
 21
4.30675E+001
  0
LINE
  8
1
  6
CONTINUOUS
 62
150
 10
5.50375E+001
 20
4.30675E+001
 11
5.50375E+001
 21
4.9975
  0
LINE
  8
1
  6
CONTINUOUS
 62
150
 10
2.96375E+001
 20
4.9975
 11
2.96375E+001
 21
4.30675E+001
  0
TEXT
  8
1
  6
CONTINUOUS
 62
1
 10
2.29705E+001
 20
5.8625
 40
2.5
  1
Zust
 41
5.714E-001
 51
-2.104591E-004
  0
TEXT
  8
1
  6
CONTINUOUS
 62
1
 10
3.56415E+001
 20
5.8625
 40
2.5
  1
Aenderung
 41
5.9524444E-001
 51
-2.104591E-004
  0
TEXT
  8
1
  6
CONTINUOUS
 62
1
 10
5.74585E+001
 20
5.8625
 40
2.5
  1
Datum
 41
6.2856E-001
 51
-2.104591E-004
  0
TEXT
  8
1
  6
CONTINUOUS
 62
1
 10
6.82435E+001
 20
5.8625
 40
2.5
  1
Name
 41
6.607E-001
 51
-2.104591E-004
  0
TEXT
  8
1
  6
CONTINUOUS
 62
1
 10
7.68305E+001
 20
3.54725E+001
 40
2.5
  1
Bearb.
 41
5.476E-001
 51
-2.104591E-004
  0
TEXT
  8
1
  6
CONTINUOUS
 62
1
 10
7.71335E+001
 20
3.12425E+001
 40
2.5
  1
Gepr.
 41
5.2856E-001
 51
-2.104591E-004
  0
TEXT
  8
1
  6
CONTINUOUS
 62
1
 10
7.72235E+001
 20
2.70125E+001
 40
2.5
  1
Norm
 41
6.429E-001
 51
-2.104591E-004
  0
TEXT
  8
1
  6
CONTINUOUS
 62
1
 10
8.92085E+001
 20
3.97025E+001
 40
2.5
  1
Datum
 41
6.2856E-001
 51
-2.104591E-004
  0
TEXT
  8
1
  6
CONTINUOUS
 62
1
 10
1.063435E+002
 20
3.97025E+001
 40
2.5
  1
Name
 41
6.607E-001
 51
-2.104591E-004
  0
TEXT
  8
1
  6
CONTINUOUS
 62
1
 10
1.210775E+002
 20
5.50645E+001
 40
3.5
  1
Maßstab:
 41
6.2244898E-001
 51
-2.104591E-004
  0
TEXT
  8
1
  6
CONTINUOUS
 62
6
 10
1.925925E+002
 20
1.85525E+001
 40
2.5
  1
Blatt
 41
5.4288E-001
 51
-2.104591E-004
  0
TEXT
  8
1
  6
CONTINUOUS
 62
6
 10
2.007905E+002
 20
1.00925E+001
 40
2.5
  1
Bl. 
 41
4.107E-001
 51
-2.104591E-004
  0
TEXT
  8
1
  6
CONTINUOUS
 62
1
 10
7.72235E+001
 20
2.27825E+001
 40
2.2
  1
Freig.
 41
6.0E-001
 51
-2.104591E-004
  0
LINE
  8
1
  6
CONTINUOUS
 62
2
 10
7.6443468E+001
 20
2.079552E+001
 11
7.6443468E+001
 21
1.079552E+001
  0
LINE
  8
1
  6
CONTINUOUS
 62
2
 10
8.6443499E+001
 20
2.079552E+001
 11
7.6443468E+001
 21
2.079552E+001
  0
LINE
  8
1
  6
CONTINUOUS
 62
2
 10
8.6443499E+001
 20
1.079552E+001
 11
8.6443499E+001
 21
2.079552E+001
  0
LINE
  8
1
  6
CONTINUOUS
 62
2
 10
8.5943529E+001
 20
1.1295512E+001
 11
8.5943529E+001
 21
2.0295527E+001
  0
LINE
  8
1
  6
CONTINUOUS
 62
2
 10
8.5943529E+001
 20
2.0295527E+001
 11
7.6943499E+001
 21
2.0295527E+001
  0
LINE
  8
1
  6
CONTINUOUS
 62
1
 10
7.7546678E+001
 20
1.3925517E+001
 11
7.7546678E+001
 21
1.4791491E+001
  0
LINE
  8
1
  6
CONTINUOUS
 62
2
 10
7.6943499E+001
 20
2.0295527E+001
 11
7.6943499E+001
 21
1.1295512E+001
  0
LINE
  8
1
  6
CONTINUOUS
 62
2
 10
7.6943499E+001
 20
1.1295512E+001
 11
8.5943529E+001
 21
1.1295512E+001
  0
LINE
  8
1
  6
CONTINUOUS
 62
2
 10
7.6443468E+001
 20
1.079552E+001
 11
8.6443499E+001
 21
1.079552E+001
  0
LINE
  8
1
  6
CONTINUOUS
 62
1
 10
7.8906084E+001
 20
1.4640483E+001
 11
7.6943499E+001
 21
1.3725566E+001
  0
LINE
  8
1
  6
CONTINUOUS
 62
1
 10
7.7746721E+001
 20
1.5191523E+001
 11
7.7746721E+001
 21
1.4100573E+001
  0
LINE
  8
1
  6
CONTINUOUS
 62
1
 10
7.7946703E+001
 20
1.5296504E+001
 11
7.7946703E+001
 21
1.4193461E+001
  0
ARC
  8
1
  6
CONTINUOUS
 62
1
 10
7.8046709E+001
 20
1.4791491E+001
 40
4.9999732E-001
 50
1.1500681E+002
 51
1.8E+002
  0
LINE
  8
1
  6
CONTINUOUS
 62
1
 10
7.7835375E+001
 20
1.5244487E+001
 11
7.8479296E+001
 21
1.5545527E+001
  0
ARC
  8
1
  6
CONTINUOUS
 62
1
 10
7.8606096E+001
 20
1.5273555E+001
 40
2.9998779E-001
 50
0.0
 51
1.14997E+002
  0
LINE
  8
1
  6
CONTINUOUS
 62
1
 10
7.8906084E+001
 20
1.4640483E+001
 11
7.8906084E+001
 21
1.5273555E+001
  0
LINE
  8
1
  6
CONTINUOUS
 62
1
 10
7.8506121E+001
 20
1.5557483E+001
 11
7.8506121E+001
 21
1.4454577E+001
  0
LINE
  8
1
  6
CONTINUOUS
 62
1
 10
7.8706102E+001
 20
1.4547465E+001
 11
7.8706102E+001
 21
1.5555537E+001
  0
ARC
  8
1
  6
CONTINUOUS
 62
1
 10
7.7846666E+001
 20
1.3925517E+001
 40
3.0000648E-001
 50
1.8E+002
 51
2.9508511E+002
  0
LINE
  8
1
  6
CONTINUOUS
 62
1
 10
8.3094103E+001
 20
1.6041491E+001
 11
7.7973467E+001
 21
1.3654521E+001
  0
LINE
  8
1
  6
CONTINUOUS
 62
1
 10
8.1174974E+001
 20
1.6250483E+001
 11
7.9106127E+001
 21
1.5285518E+001
  0
LINE
  8
1
  6
CONTINUOUS
 62
1
 10
7.9406115E+001
 20
1.620457E+001
 11
7.9406115E+001
 21
1.3238505E+001
  0
LINE
  8
1
  6
CONTINUOUS
 62
1
 10
7.9606066E+001
 20
1.6652568E+001
 11
7.9606066E+001
 21
1.3025493E+001
  0
LINE
  8
1
  6
CONTINUOUS
 62
1
 10
7.9768663E+001
 20
1.6402568E+001
 11
7.9768663E+001
 21
1.3436511E+001
  0
LINE
  8
1
  6
CONTINUOUS
 62
1
 10
8.0675035E+001
 20
1.6824572E+001
 11
8.0675035E+001
 21
1.3858516E+001
  0
LINE
  8
1
  6
CONTINUOUS
 62
1
 10
8.0474993E+001
 20
1.3411487E+001
 11
8.0474993E+001
 21
1.7038554E+001
  0
ARC
  8
1
  6
CONTINUOUS
 62
1
 10
8.1074968E+001
 20
1.6824572E+001
 40
3.9999428E-001
 50
9.9286249E+001
 51
1.8E+002
  0
ARC
  8
1
  6
CONTINUOUS
 62
1
 10
8.0912462E+001
 20
1.6627543E+001
 40
6.0000807E-001
 50
8.0603552E+001
 51
1.8E+002
  0
LINE
  8
1
  6
CONTINUOUS
 62
1
 10
8.0312426E+001
 20
1.6627543E+001
 11
8.0312426E+001
 21
1.3661479E+001
  0
ARC
  8
1
  6
CONTINUOUS
 62
1
 10
8.0168718E+001
 20
1.6402568E+001
 40
4.0000123E-001
 50
9.9325427E+001
 51
1.8E+002
  0
ARC
  8
1
  6
CONTINUOUS
 62
1
 10
8.000609E+001
 20
1.620457E+001
 40
6.0000807E-001
 50
8.0603552E+001
 51
1.8E+002
  0
ARC
  8
1
  6
CONTINUOUS
 62
1
 10
7.900609E+001
 20
1.3238505E+001
 40
4.0000916E-001
 50
2.7E+002
 51
3.6E+002
  0
ARC
  8
1
  6
CONTINUOUS
 62
1
 10
7.9168688E+001
 20
1.3436511E+001
 40
6.0000551E-001
 50
2.6060319E+002
 51
3.6E+002
  0
ARC
  8
1
  6
CONTINUOUS
 62
1
 10
7.9912462E+001
 20
1.3661479E+001
 40
3.9999393E-001
 50
2.7E+002
 51
3.6E+002
  0
ARC
  8
1
  6
CONTINUOUS
 62
1
 10
8.0074999E+001
 20
1.3858516E+001
 40
6.0000312E-001
 50
2.606093E+002
 51
3.6E+002
  0
LINE
  8
1
  6
CONTINUOUS
 62
1
 10
8.1734606E+001
 20
1.5327495E+001
 11
8.1734606E+001
 21
1.61925E+001
  0
LINE
  8
1
  6
CONTINUOUS
 62
1
 10
8.1934648E+001
 20
1.6592524E+001
 11
8.1934648E+001
 21
1.5501582E+001
  0
LINE
  8
1
  6
CONTINUOUS
 62
1
 10
8.213463E+001
 20
1.6697505E+001
 11
8.213463E+001
 21
1.5594462E+001
  0
LINE
  8
1
  6
CONTINUOUS
 62
1
 10
8.2694078E+001
 20
1.6958491E+001
 11
8.2694078E+001
 21
1.5855586E+001
  0
LINE
  8
1
  6
CONTINUOUS
 62
1
 10
8.2894121E+001
 20
1.5948466E+001
 11
8.2894121E+001
 21
1.6957515E+001
  0
LINE
  8
1
  6
CONTINUOUS
 62
1
 10
8.3094103E+001
 20
1.6041491E+001
 11
8.3094103E+001
 21
1.667454E+001
  0
ARC
  8
1
  6
CONTINUOUS
 62
1
 10
8.2794115E+001
 20
1.667454E+001
 40
2.9998779E-001
 50
0.0
 51
1.1499049E+002
  0
LINE
  8
1
  6
CONTINUOUS
 62
1
 10
8.2023302E+001
 20
1.6645488E+001
 11
8.2667284E+001
 21
1.6946528E+001
  0
ARC
  8
1
  6
CONTINUOUS
 62
1
 10
8.2234636E+001
 20
1.61925E+001
 40
5.0000376E-001
 50
1.1501034E+002
 51
1.8E+002
  0
LINE
  8
1
  6
CONTINUOUS
 62
1
 10
8.2161394E+001
 20
1.5055522E+001
 11
8.5943529E+001
 21
1.6818469E+001
  0
ARC
  8
1
  6
CONTINUOUS
 62
1
 10
8.2034594E+001
 20
1.5327495E+001
 40
3.0001092E-001
 50
1.8E+002
 51
2.9499577E+002
  0
ARC
  8
1
  6
CONTINUOUS
 62
1
 10
8.4194078E+001
 20
1.7606547E+001
 40
6.0000294E-001
 50
8.0591814E+001
 51
1.8E+002
  0
ARC
  8
1
  6
CONTINUOUS
 62
1
 10
8.4356615E+001
 20
1.7803576E+001
 40
4.0000394E-001
 50
9.9308349E+001
 51
1.8E+002
  0
LINE
  8
1
  6
CONTINUOUS
 62
1
 10
8.3794115E+001
 20
1.8053569E+001
 11
8.3794115E+001
 21
1.4426501E+001
  0
LINE
  8
1
  6
CONTINUOUS
 62
1
 10
8.3956621E+001
 20
1.7803576E+001
 11
8.3956591E+001
 21
1.483752E+001
  0
LINE
  8
1
  6
CONTINUOUS
 62
1
 10
8.3594103E+001
 20
1.7606547E+001
 11
8.3594103E+001
 21
1.4640483E+001
  0
LINE
  8
1
  6
CONTINUOUS
 62
1
 10
8.5362902E+001
 20
1.7651484E+001
 11
8.3294115E+001
 21
1.6686519E+001
  0
LINE
  8
1
  6
CONTINUOUS
 62
1
 10
8.4500414E+001
 20
1.8028544E+001
 11
8.4500414E+001
 21
1.5062487E+001
  0
LINE
  8
1
  6
CONTINUOUS
 62
1
 10
8.466292E+001
 20
1.4812495E+001
 11
8.466292E+001
 21
1.8439563E+001
  0
LINE
  8
1
  6
CONTINUOUS
 62
1
 10
8.4862902E+001
 20
1.8225581E+001
 11
8.4862902E+001
 21
1.5259517E+001
  0
ARC
  8
1
  6
CONTINUOUS
 62
1
 10
8.5262896E+001
 20
1.8225581E+001
 40
4.0000445E-001
 50
9.9285896E+001
 51
1.8E+002
  0
ARC
  8
1
  6
CONTINUOUS
 62
1
 10
8.510042E+001
 20
1.8028544E+001
 40
5.9999055E-001
 50
8.0606189E+001
 51
1.8E+002
  0
ARC
  8
1
  6
CONTINUOUS
 62
1
 10
8.3194109E+001
 20
1.4640483E+001
 40
4.0000916E-001
 50
2.7E+002
 51
3.6E+002
  0
ARC
  8
1
  6
CONTINUOUS
 62
1
 10
8.3356615E+001
 20
1.483752E+001
 40
6.0000563E-001
 50
2.606093E+002
 51
3.6E+002
  0
ARC
  8
1
  6
CONTINUOUS
 62
1
 10
8.4100389E+001
 20
1.5062487E+001
 40
4.0000916E-001
 50
2.7E+002
 51
3.6E+002
  0
ARC
  8
1
  6
CONTINUOUS
 62
1
 10
8.4262926E+001
 20
1.5259517E+001
 40
6.0000294E-001
 50
2.6059181E+002
 51
3.6E+002
  0
TEXT
  8
1
  6
CONTINUOUS
 62
1
 10
8.810042E+001
 20
1.8987712E+001
 40
2.2
  1
FRITZ FUSS GmbH&Co
 41
7.0E-001
  0
TEXT
  8
1
  6
CONTINUOUS
 62
1
 10
8.810042E+001
 20
1.3187712E+001
 40
2.2
  1
Sicherheitstechnik
 41
7.0E-001
  0
TEXT
  8
1
  6
CONTINUOUS
 62
1
 10
8.810042E+001
 20
1.0287712E+001
 40
2.2
  1
D-72458 Albstadt
 41
7.0E-001
  0
TEXT
  8
1
  6
CONTINUOUS
 62
1
 10
8.810042E+001
 20
1.6087712E+001
 40
2.2
  1
Kommanditg. auf Aktien
 41
6.0E-001
  0
TEXT
  8
1
  6
CONTINUOUS
 62
1
 10
1.195375E+002
 20
4.00675E+001
 40
2.0
  1
Benennung
 41
7.0E-001
  0
TEXT
  8
1
  6
CONTINUOUS
 62
1
 10
1.195375E+002
 20
1.89175E+001
 40
2.0
  1
Zeichnungsnummer
 41
7.0E-001
  0
TEXT
  8
1
  6
CONTINUOUS
 62
1
 10
1.195375E+002
 20
5.06425E+001
 40
2.0
  1
Werkstoff
 41
7.0E-001
  0
POINT
  8
Drafting_Hidden_Entities
  6
CONTINUOUS
 62
1
 10
0.0
 20
0.0
  0
ENDBLK
  0
BLOCK
  2
M11
 10
0.0
 20
0.0
 70
0
  0
TEXT
  8
1
  6
CONTINUOUS
 62
1
 10
-3.7549647
 20
1.445907
 40
3.5
  1
1:1
 41
7.0E-001
  0
POINT
  8
Drafting_Hidden_Entities
  6
CONTINUOUS
 62
1
 10
0.0
 20
0.0
  0
ENDBLK
  0
BLOCK
  2
_AH1
 70
0
 10
0.0
 20
0.0
  3
_AH1
  0
LINE
  8
0
  6
CONTINUOUS
 62
0
 10
-1.0
 20
1.66667E-001
 11
0.0
 21
0.0
  0
LINE
  8
0
  6
CONTINUOUS
 62
0
 10
0.0
 20
0.0
 11
-1.0
 21
-1.66667E-001
  0
LINE
  8
0
  6
CONTINUOUS
 62
0
 10
-1.0
 20
1.66667E-001
 11
-1.0
 21
-1.66667E-001
  0
LINE
  8
0
  6
CONTINUOUS
 62
0
 10
0.0
 20
0.0
 11
-1.0
 21
0.0
  0
ENDBLK
  0
BLOCK
  2
_AH2
 70
0
 10
0.0
 20
0.0
  3
_AH2
  0
LINE
  8
0
  6
CONTINUOUS
 62
0
 10
-1.0
 20
1.66667E-001
 11
0.0
 21
0.0
  0
LINE
  8
0
  6
CONTINUOUS
 62
0
 10
0.0
 20
0.0
 11
-1.0
 21
-1.66667E-001
  0
LINE
  8
0
  6
CONTINUOUS
 62
0
 10
0.0
 20
0.0
 11
-1.0
 21
0.0
  0
ENDBLK
  0
BLOCK
  2
*D42
  3
*D
 10
0.0
 20
0.0
 70
65
  0
LINE
  8
4
  6
CONTINUOUS
 62
3
 10
1.1249725E+002
 20
2.7355762E+002
 11
1.0063379E+002
 21
2.7355762E+002
  0
LINE
  8
4
  6
CONTINUOUS
 62
3
 10
1.155186E+002
 20
2.5555762E+002
 11
1.0063379E+002
 21
2.5555762E+002
  0
LINE
  8
4
  6
CONTINUOUS
 62
3
 10
1.0363379E+002
 20
2.7355762E+002
 11
1.0363379E+002
 21
2.6440826E+002
  0
LINE
  8
4
  6
CONTINUOUS
 62
3
 10
1.0363379E+002
 20
2.5555762E+002
 11
1.0363379E+002
 21
2.6440826E+002
  0
INSERT
  2
_AH1
  8
4
 62
3
 10
1.0363379E+002
 20
2.7355762E+002
 41
3.0
 42
3.0
 43
3.0
 50
9.0E+001
  0
INSERT
  2
_AH1
  8
4
 62
3
 10
1.0363379E+002
 20
2.5555762E+002
 41
3.0
 42
3.0
 43
3.0
 50
2.7E+002
  0
TEXT
  8
4
  6
CONTINUOUS
 62
3
 10
1.0213279E+002
 20
2.6215826E+002
 40
3.0
  1
18
 41
7.5E-001
 50
9.0E+001
  0
ENDBLK
  0
BLOCK
  2
*D43
  3
*D
 10
0.0
 20
0.0
 70
65
  0
LINE
  8
4
  6
CONTINUOUS
 62
3
 10
1.155186E+002
 20
2.5555762E+002
 11
9.1721427E+001
 21
2.5555762E+002
  0
LINE
  8
4
  6
CONTINUOUS
 62
3
 10
1.4949725E+002
 20
2.5255762E+002
 11
9.1721427E+001
 21
2.5255762E+002
  0
LINE
  8
4
  6
CONTINUOUS
 62
3
 10
9.4721427E+001
 20
2.6155762E+002
 11
9.4721427E+001
 21
2.5255762E+002
  0
LINE
  8
4
  6
CONTINUOUS
 62
3
 10
9.4721427E+001
 20
2.5255762E+002
 11
9.4721427E+001
 21
2.4381707E+002
  0
INSERT
  2
_AH1
  8
4
 62
3
 10
9.4721427E+001
 20
2.5555762E+002
 41
3.0
 42
3.0
 43
3.0
 50
2.7E+002
  0
INSERT
  2
_AH1
  8
4
 62
3
 10
9.4721427E+001
 20
2.5255762E+002
 41
3.0
 42
3.0
 43
3.0
 50
9.0E+001
  0
TEXT
  8
4
  6
CONTINUOUS
 62
3
 10
9.3220427E+001
 20
2.4531707E+002
 40
3.0
  1
3
 41
7.5E-001
 50
9.0E+001
  0
ENDBLK
  0
BLOCK
  2
*D47
  3
*D
 10
0.0
 20
0.0
 70
65
  0
LINE
  8
4
  6
CONTINUOUS
 62
3
 10
1.6849725E+002
 20
2.7155762E+002
 11
1.8217666E+002
 21
2.7155762E+002
  0
LINE
  8
4
  6
CONTINUOUS
 62
3
 10
1.5249725E+002
 20
2.7655762E+002
 11
1.8217666E+002
 21
2.7655762E+002
  0
LINE
  8
4
  6
CONTINUOUS
 62
3
 10
1.7917666E+002
 20
2.6555762E+002
 11
1.7917666E+002
 21
2.7155762E+002
  0
LINE
  8
4
  6
CONTINUOUS
 62
3
 10
1.7917666E+002
 20
2.8255762E+002
 11
1.7917666E+002
 21
2.7155762E+002
  0
INSERT
  2
_AH1
  8
4
 62
3
 10
1.7917666E+002
 20
2.7155762E+002
 41
3.0
 42
3.0
 43
3.0
 50
9.0E+001
  0
INSERT
  2
_AH1
  8
4
 62
3
 10
1.7917666E+002
 20
2.7655762E+002
 41
3.0
 42
3.0
 43
3.0
 50
2.7E+002
  0
TEXT
  8
4
  6
CONTINUOUS
 62
3
 10
1.7767566E+002
 20
2.7304442E+002
 40
3.0
  1
5
 41
7.5E-001
 50
9.0E+001
  0
ENDBLK
  0
BLOCK
  2
*D48
  3
*D
 10
0.0
 20
0.0
 70
65
  0
LINE
  8
4
  6
CONTINUOUS
 62
3
 10
1.6849725E+002
 20
2.7155762E+002
 11
1.9099047E+002
 21
2.7155762E+002
  0
LINE
  8
4
  6
CONTINUOUS
 62
3
 10
1.5749725E+002
 20
2.5755762E+002
 11
1.9099047E+002
 21
2.5755762E+002
  0
LINE
  8
4
  6
CONTINUOUS
 62
3
 10
1.8799047E+002
 20
2.7755762E+002
 11
1.8799047E+002
 21
2.7155762E+002
  0
LINE
  8
4
  6
CONTINUOUS
 62
3
 10
1.8799047E+002
 20
2.5155762E+002
 11
1.8799047E+002
 21
2.7155762E+002
  0
INSERT
  2
_AH1
  8
4
 62
3
 10
1.8799047E+002
 20
2.7155762E+002
 41
3.0
 42
3.0
 43
3.0
 50
2.7E+002
  0
INSERT
  2
_AH1
  8
4
 62
3
 10
1.8799047E+002
 20
2.5755762E+002
 41
3.0
 42
3.0
 43
3.0
 50
9.0E+001
  0
TEXT
  8
4
  6
CONTINUOUS
 62
3
 10
1.8648947E+002
 20
2.6219124E+002
 40
3.0
  1
14
 41
7.5E-001
 50
9.0E+001
  0
ENDBLK
  0
BLOCK
  2
*D50
  3
*D
 10
0.0
 20
0.0
 70
65
  0
LINE
  8
4
  6
CONTINUOUS
 62
3
 10
1.6449725E+002
 20
2.6955762E+002
 11
1.6449725E+002
 21
2.4124266E+002
  0
LINE
  8
4
  6
CONTINUOUS
 62
3
 10
1.5249725E+002
 20
2.5255762E+002
 11
1.5249725E+002
 21
2.4124266E+002
  0
LINE
  8
4
  6
CONTINUOUS
 62
3
 10
1.7049725E+002
 20
2.4424266E+002
 11
1.6449725E+002
 21
2.4424266E+002
  0
LINE
  8
4
  6
CONTINUOUS
 62
3
 10
1.4649725E+002
 20
2.4424266E+002
 11
1.6449725E+002
 21
2.4424266E+002
  0
INSERT
  2
_AH1
  8
4
 62
3
 10
1.6449725E+002
 20
2.4424266E+002
 41
3.0
 42
3.0
 43
3.0
 50
1.8E+002
  0
INSERT
  2
_AH1
  8
4
 62
3
 10
1.5249725E+002
 20
2.4424266E+002
 41
3.0
 42
3.0
 43
3.0
 50
0.0
  0
TEXT
  8
4
  6
CONTINUOUS
 62
3
 10
1.5577907E+002
 20
2.4574366E+002
 40
3.0
  1
12
 41
7.5E-001
 50
3.6E+002
  0
ENDBLK
  0
BLOCK
  2
*D51
  3
*D
 10
0.0
 20
0.0
 70
65
  0
LINE
  8
4
  6
CONTINUOUS
 62
3
 10
1.5249725E+002
 20
2.5255762E+002
 11
1.5249725E+002
 21
2.3147864E+002
  0
LINE
  8
4
  6
CONTINUOUS
 62
3
 10
1.6949448E+002
 20
2.6926472E+002
 11
1.6949448E+002
 21
2.3147864E+002
  0
LINE
  8
4
  6
CONTINUOUS
 62
3
 10
1.5249725E+002
 20
2.3447864E+002
 11
1.6095828E+002
 21
2.3447864E+002
  0
LINE
  8
4
  6
CONTINUOUS
 62
3
 10
1.6949448E+002
 20
2.3447864E+002
 11
1.6095828E+002
 21
2.3447864E+002
  0
INSERT
  2
_AH1
  8
4
 62
3
 10
1.5249725E+002
 20
2.3447864E+002
 41
3.0
 42
3.0
 43
3.0
 50
1.8E+002
  0
INSERT
  2
_AH1
  8
4
 62
3
 10
1.6949448E+002
 20
2.3447864E+002
 41
3.0
 42
3.0
 43
3.0
 50
0.0
  0
TEXT
  8
4
  6
CONTINUOUS
 62
3
 10
1.5870828E+002
 20
2.3597964E+002
 40
3.0
  1
17
 41
7.5E-001
  0
ENDBLK
  0
BLOCK
  2
*D52
  3
*D
 10
0.0
 20
0.0
 70
65
  0
LINE
  8
4
  6
CONTINUOUS
 62
3
 10
1.5761061E+002
 20
2.4264062E+002
 11
1.458357E+002
 21
2.348924E+002
  0
CIRCLE
  8
4
  6
CONTINUOUS
 62
3
 10
1.5761061E+002
 20
2.4264062E+002
 40
8.33334E-002
  0
LINE
  8
4
  6
CONTINUOUS
 62
3
 10
1.428357E+002
 20
2.348924E+002
 11
1.458357E+002
 21
2.348924E+002
  0
TEXT
  8
4
  6
CONTINUOUS
 62
3
 10
9.8585698E+001
 20
2.333924E+002
 40
3.0
  1
Verstellung von 5mm
 41
7.5E-001
  0
TEXT
  8
4
  6
CONTINUOUS
 62
3
 10
9.8585698E+001
 20
2.288924E+002
 40
3.0
  1
(12-17mm) stufenlos
 41
7.5E-001
  0
TEXT
  8
4
  6
CONTINUOUS
 62
3
 10
9.8585698E+001
 20
2.243924E+002
 40
3.0
  1
möglich
 41
7.5E-001
  0
ENDBLK
  0
BLOCK
  2
*D904
  3
*D
 10
0.0
 20
0.0
 70
65
  0
LINE
  8
3
  6
CONTINUOUS
 62
3
 10
3.2320494E+001
 20
2.2058493E+002
 11
3.2320494E+001
 21
2.3162383E+002
  0
LINE
  8
3
  6
CONTINUOUS
 62
3
 10
4.2320494E+001
 20
2.1482293E+002
 11
4.2320494E+001
 21
2.3162383E+002
  0
LINE
  8
3
  6
CONTINUOUS
 62
3
 10
2.6320494E+001
 20
2.2862383E+002
 11
3.2320494E+001
 21
2.2862383E+002
  0
LINE
  8
3
  6
CONTINUOUS
 62
3
 10
4.8320494E+001
 20
2.2862383E+002
 11
3.2320494E+001
 21
2.2862383E+002
  0
INSERT
  2
_AH1
  8
3
 62
3
 10
3.2320494E+001
 20
2.2862383E+002
 41
3.0
 42
3.0
 43
3.0
 50
0.0
  0
INSERT
  2
_AH1
  8
3
 62
3
 10
4.2320494E+001
 20
2.2862383E+002
 41
3.0
 42
3.0
 43
3.0
 50
1.8E+002
  0
TEXT
  8
3
  6
CONTINUOUS
 62
3
 10
3.4815614E+001
 20
2.3012483E+002
 40
3.0
  1
10
 41
7.5E-001
  0
ENDBLK
  0
BLOCK
  2
*D905
  3
*D
 10
0.0
 20
0.0
 70
65
  0
LINE
  8
3
  6
CONTINUOUS
 62
3
 10
3.2320494E+001
 20
2.2058493E+002
 11
3.2320494E+001
 21
2.4071756E+002
  0
LINE
  8
3
  6
CONTINUOUS
 62
3
 10
5.2320494E+001
 20
2.2058493E+002
 11
5.2320494E+001
 21
2.4071756E+002
  0
LINE
  8
3
  6
CONTINUOUS
 62
3
 10
3.2320494E+001
 20
2.3771756E+002
 11
4.2015369E+001
 21
2.3771756E+002
  0
LINE
  8
3
  6
CONTINUOUS
 62
3
 10
5.2320494E+001
 20
2.3771756E+002
 11
4.2015369E+001
 21
2.3771756E+002
  0
INSERT
  2
_AH1
  8
3
 62
3
 10
3.2320494E+001
 20
2.3771756E+002
 41
3.0
 42
3.0
 43
3.0
 50
1.8E+002
  0
INSERT
  2
_AH1
  8
3
 62
3
 10
5.2320494E+001
 20
2.3771756E+002
 41
3.0
 42
3.0
 43
3.0
 50
0.0
  0
TEXT
  8
3
  6
CONTINUOUS
 62
3
 10
3.9765369E+001
 20
2.3921856E+002
 40
3.0
  1
20
 41
7.5E-001
  0
ENDBLK
  0
BLOCK
  2
*D906
  3
*D
 10
0.0
 20
0.0
 70
65
  0
LINE
  8
3
  6
CONTINUOUS
 62
3
 10
4.9685647E+001
 20
2.0758493E+002
 11
7.5182471E+001
 21
2.0758493E+002
  0
LINE
  8
3
  6
CONTINUOUS
 62
3
 10
4.9398573E+001
 20
9.8584934E+001
 11
7.5182471E+001
 21
9.8584934E+001
  0
LINE
  8
3
  6
CONTINUOUS
 62
3
 10
7.2182471E+001
 20
2.0758493E+002
 11
7.2182471E+001
 21
1.531194E+002
  0
LINE
  8
3
  6
CONTINUOUS
 62
3
 10
7.2182471E+001
 20
9.8584934E+001
 11
7.2182471E+001
 21
1.531194E+002
  0
INSERT
  2
_AH1
  8
3
 62
3
 10
7.2182471E+001
 20
2.0758493E+002
 41
3.0
 42
3.0
 43
3.0
 50
9.0E+001
  0
INSERT
  2
_AH1
  8
3
 62
3
 10
7.2182471E+001
 20
9.8584934E+001
 41
3.0
 42
3.0
 43
3.0
 50
2.7E+002
  0
TEXT
  8
3
  6
CONTINUOUS
 62
3
 10
7.0681471E+001
 20
1.497444E+002
 40
3.0
  1
109
 41
7.5E-001
 50
9.0E+001
  0
ENDBLK
  0
BLOCK
  2
*D907
  3
*D
 10
0.0
 20
0.0
 70
65
  0
LINE
  8
3
  6
CONTINUOUS
 62
3
 10
4.9398573E+001
 20
9.8584934E+001
 11
7.5182471E+001
 21
9.8584934E+001
  0
LINE
  8
3
  6
CONTINUOUS
 62
3
 10
5.2320494E+001
 20
8.5584934E+001
 11
7.5182471E+001
 21
8.5584934E+001
  0
LINE
  8
3
  6
CONTINUOUS
 62
3
 10
7.2182471E+001
 20
1.0458493E+002
 11
7.2182471E+001
 21
9.8584934E+001
  0
LINE
  8
3
  6
CONTINUOUS
 62
3
 10
7.2182471E+001
 20
7.9584934E+001
 11
7.2182471E+001
 21
9.8584934E+001
  0
INSERT
  2
_AH1
  8
3
 62
3
 10
7.2182471E+001
 20
9.8584934E+001
 41
3.0
 42
3.0
 43
3.0
 50
2.7E+002
  0
INSERT
  2
_AH1
  8
3
 62
3
 10
7.2182471E+001
 20
8.5584934E+001
 41
3.0
 42
3.0
 43
3.0
 50
9.0E+001
  0
TEXT
  8
3
  6
CONTINUOUS
 62
3
 10
7.0681471E+001
 20
9.0551442E+001
 40
3.0
  1
13
 41
7.5E-001
 50
9.0E+001
  0
ENDBLK
  0
BLOCK
  2
*D908
  3
*D
 10
0.0
 20
0.0
 70
65
  0
LINE
  8
3
  6
CONTINUOUS
 62
3
 10
3.9570494E+001
 20
9.8584934E+001
 11
3.9570494E+001
 21
7.3872477E+001
  0
LINE
  8
3
  6
CONTINUOUS
 62
3
 10
4.5070494E+001
 20
9.8584934E+001
 11
4.5070494E+001
 21
7.3872477E+001
  0
LINE
  8
3
  6
CONTINUOUS
 62
3
 10
3.3570494E+001
 20
7.6872477E+001
 11
4.5070494E+001
 21
7.6872477E+001
  0
LINE
  8
3
  6
CONTINUOUS
 62
3
 10
4.5070494E+001
 20
7.6872477E+001
 11
5.8949769E+001
 21
7.6872477E+001
  0
INSERT
  2
_AH1
  8
3
 62
3
 10
3.9570494E+001
 20
7.6872477E+001
 41
3.0
 42
3.0
 43
3.0
 50
0.0
  0
INSERT
  2
_AH1
  8
3
 62
3
 10
4.5070494E+001
 20
7.6872477E+001
 41
3.0
 42
3.0
 43
3.0
 50
1.8E+002
  0
TEXT
  8
3
  6
CONTINUOUS
 62
3
 10
5.0699769E+001
 20
7.8373477E+001
 40
3.0
  1
5,5
 41
7.5E-001
  0
ENDBLK
  0
BLOCK
  2
*D909
  3
*D
 10
0.0
 20
0.0
 70
65
  0
LINE
  8
3
  6
CONTINUOUS
 62
3
 10
3.7120494E+001
 20
9.8584934E+001
 11
3.7120494E+001
 21
6.5840699E+001
  0
LINE
  8
3
  6
CONTINUOUS
 62
3
 10
4.7520494E+001
 20
9.8584934E+001
 11
4.7520494E+001
 21
6.5840699E+001
  0
LINE
  8
3
  6
CONTINUOUS
 62
3
 10
3.1120494E+001
 20
6.8840699E+001
 11
4.7520494E+001
 21
6.8840699E+001
  0
LINE
  8
3
  6
CONTINUOUS
 62
3
 10
4.7520494E+001
 20
6.8840699E+001
 11
6.0852038E+001
 21
6.8840699E+001
  0
INSERT
  2
_AH1
  8
3
 62
3
 10
3.7120494E+001
 20
6.8840699E+001
 41
3.0
 42
3.0
 43
3.0
 50
0.0
  0
INSERT
  2
_AH1
  8
3
 62
3
 10
4.7520494E+001
 20
6.8840699E+001
 41
3.0
 42
3.0
 43
3.0
 50
1.8E+002
  0
TEXT
  8
3
  6
CONTINUOUS
 62
3
 10
5.0352038E+001
 20
7.0341699E+001
 40
3.0
  1
10,4
 41
7.5E-001
  0
ENDBLK
  0
BLOCK
  2
*D910
  3
*D
 10
0.0
 20
0.0
 70
65
  0
LINE
  8
2
  6
CONTINUOUS
 62
3
 10
1.1349725E+002
 20
1.8508493E+002
 11
1.0204775E+002
 21
1.8508493E+002
  0
LINE
  8
2
  6
CONTINUOUS
 62
3
 10
1.4949725E+002
 20
2.2058493E+002
 11
1.0204775E+002
 21
2.2058493E+002
  0
LINE
  8
2
  6
CONTINUOUS
 62
3
 10
1.0504775E+002
 20
1.8508493E+002
 11
1.0504775E+002
 21
2.0449245E+002
  0
LINE
  8
2
  6
CONTINUOUS
 62
3
 10
1.0504775E+002
 20
2.2058493E+002
 11
1.0504775E+002
 21
2.0449245E+002
  0
INSERT
  2
_AH1
  8
2
 62
3
 10
1.0504775E+002
 20
1.8508493E+002
 41
3.0
 42
3.0
 43
3.0
 50
2.7E+002
  0
INSERT
  2
_AH1
  8
2
 62
3
 10
1.0504775E+002
 20
2.2058493E+002
 41
3.0
 42
3.0
 43
3.0
 50
9.0E+001
  0
TEXT
  8
2
  6
CONTINUOUS
 62
3
 10
1.0354675E+002
 20
1.9999245E+002
 40
3.0
  1
35,5
 41
7.5E-001
 50
9.0E+001
  0
ENDBLK
  0
BLOCK
  2
*D911
  3
*D
 10
0.0
 20
0.0
 70
65
  0
LINE
  8
2
  6
CONTINUOUS
 62
3
 10
1.1349725E+002
 20
1.2108493E+002
 11
1.0204775E+002
 21
1.2108493E+002
  0
LINE
  8
2
  6
CONTINUOUS
 62
3
 10
1.4949725E+002
 20
8.5584934E+001
 11
1.0204775E+002
 21
8.5584934E+001
  0
LINE
  8
2
  6
CONTINUOUS
 62
3
 10
1.0504775E+002
 20
1.2108493E+002
 11
1.0504775E+002
 21
1.0417755E+002
  0
LINE
  8
2
  6
CONTINUOUS
 62
3
 10
1.0504775E+002
 20
8.5584934E+001
 11
1.0504775E+002
 21
1.0417755E+002
  0
INSERT
  2
_AH1
  8
2
 62
3
 10
1.0504775E+002
 20
1.2108493E+002
 41
3.0
 42
3.0
 43
3.0
 50
9.0E+001
  0
INSERT
  2
_AH1
  8
2
 62
3
 10
1.0504775E+002
 20
8.5584934E+001
 41
3.0
 42
3.0
 43
3.0
 50
2.7E+002
  0
TEXT
  8
2
  6
CONTINUOUS
 62
3
 10
1.0354675E+002
 20
9.9677548E+001
 40
3.0
  1
35,5
 41
7.5E-001
 50
9.0E+001
  0
ENDBLK
  0
BLOCK
  2
*D913
  3
*D
 10
0.0
 20
0.0
 70
65
  0
LINE
  8
2
  6
CONTINUOUS
 62
3
 10
1.6349725E+002
 20
1.3708493E+002
 11
1.7717747E+002
 21
1.3708493E+002
  0
LINE
  8
2
  6
CONTINUOUS
 62
3
 10
1.5249725E+002
 20
8.5584934E+001
 11
1.7717747E+002
 21
8.5584934E+001
  0
LINE
  8
2
  6
CONTINUOUS
 62
3
 10
1.7417747E+002
 20
1.3708493E+002
 11
1.7417747E+002
 21
1.1293398E+002
  0
LINE
  8
2
  6
CONTINUOUS
 62
3
 10
1.7417747E+002
 20
8.5584934E+001
 11
1.7417747E+002
 21
1.1293398E+002
  0
INSERT
  2
_AH1
  8
2
 62
3
 10
1.7417747E+002
 20
1.3708493E+002
 41
3.0
 42
3.0
 43
3.0
 50
9.0E+001
  0
INSERT
  2
_AH1
  8
2
 62
3
 10
1.7417747E+002
 20
8.5584934E+001
 41
3.0
 42
3.0
 43
3.0
 50
2.7E+002
  0
TEXT
  8
2
  6
CONTINUOUS
 62
3
 10
1.7267647E+002
 20
1.0843398E+002
 40
3.0
  1
51,5
 41
7.5E-001
 50
9.0E+001
  0
ENDBLK
  0
BLOCK
  2
*D914
  3
*D
 10
0.0
 20
0.0
 70
65
  0
LINE
  8
2
  6
CONTINUOUS
 62
3
 10
1.5249725E+002
 20
2.2058493E+002
 11
1.7717747E+002
 21
2.2058493E+002
  0
LINE
  8
2
  6
CONTINUOUS
 62
3
 10
1.6349725E+002
 20
1.6908493E+002
 11
1.7717747E+002
 21
1.6908493E+002
  0
LINE
  8
2
  6
CONTINUOUS
 62
3
 10
1.7417747E+002
 20
2.2058493E+002
 11
1.7417747E+002
 21
1.9435343E+002
  0
LINE
  8
2
  6
CONTINUOUS
 62
3
 10
1.7417747E+002
 20
1.6908493E+002
 11
1.7417747E+002
 21
1.9435343E+002
  0
INSERT
  2
_AH1
  8
2
 62
3
 10
1.7417747E+002
 20
2.2058493E+002
 41
3.0
 42
3.0
 43
3.0
 50
9.0E+001
  0
INSERT
  2
_AH1
  8
2
 62
3
 10
1.7417747E+002
 20
1.6908493E+002
 41
3.0
 42
3.0
 43
3.0
 50
2.7E+002
  0
TEXT
  8
2
  6
CONTINUOUS
 62
3
 10
1.7267647E+002
 20
1.8985343E+002
 40
3.0
  1
51,5
 41
7.5E-001
 50
9.0E+001
  0
ENDBLK
  0
BLOCK
  2
*D915
  3
*D
 10
0.0
 20
0.0
 70
65
  0
LINE
  8
2
  6
CONTINUOUS
 62
3
 10
1.5249725E+002
 20
2.2058493E+002
 11
1.8700926E+002
 21
2.2058493E+002
  0
LINE
  8
2
  6
CONTINUOUS
 62
3
 10
1.5249725E+002
 20
8.5584934E+001
 11
1.8700926E+002
 21
8.5584934E+001
  0
LINE
  8
2
  6
CONTINUOUS
 62
3
 10
1.8400926E+002
 20
2.2058493E+002
 11
1.8400926E+002
 21
1.5302922E+002
  0
LINE
  8
2
  6
CONTINUOUS
 62
3
 10
1.8400926E+002
 20
8.5584934E+001
 11
1.8400926E+002
 21
1.5302922E+002
  0
INSERT
  2
_AH1
  8
2
 62
3
 10
1.8400926E+002
 20
2.2058493E+002
 41
3.0
 42
3.0
 43
3.0
 50
9.0E+001
  0
INSERT
  2
_AH1
  8
2
 62
3
 10
1.8400926E+002
 20
8.5584934E+001
 41
3.0
 42
3.0
 43
3.0
 50
2.7E+002
  0
TEXT
  8
2
  6
CONTINUOUS
 62
3
 10
1.8250826E+002
 20
1.4965422E+002
 40
3.0
  1
135
 41
7.5E-001
 50
9.0E+001
  0
ENDBLK
  0
BLOCK
  2
*D5724
  3
*D
 10
0.0
 20
0.0
 70
65
  0
LINE
  8
2
  6
CONTINUOUS
 62
3
 10
1.1349725E+002
 20
1.2108493E+002
 11
1.0207394E+002
 21
1.2108493E+002
  0
LINE
  8
2
  6
CONTINUOUS
 62
3
 10
1.1349725E+002
 20
1.8508493E+002
 11
1.0207394E+002
 21
1.8508493E+002
  0
LINE
  8
2
  6
CONTINUOUS
 62
3
 10
1.0507394E+002
 20
1.2108493E+002
 11
1.0507394E+002
 21
1.5249932E+002
  0
LINE
  8
2
  6
CONTINUOUS
 62
3
 10
1.0507394E+002
 20
1.8508493E+002
 11
1.0507394E+002
 21
1.5249932E+002
  0
INSERT
  2
_AH1
  8
2
 62
3
 10
1.0507394E+002
 20
1.2108493E+002
 41
3.0
 42
3.0
 43
3.0
 50
2.7E+002
  0
INSERT
  2
_AH1
  8
2
 62
3
 10
1.0507394E+002
 20
1.8508493E+002
 41
3.0
 42
3.0
 43
3.0
 50
9.0E+001
  0
TEXT
  8
2
  6
CONTINUOUS
 62
3
 10
1.0357294E+002
 20
1.5024932E+002
 40
3.0
  1
64
 41
7.5E-001
 50
9.0E+001
  0
ENDBLK
  0
BLOCK
  2
*D5728
  3
*D
 10
0.0
 20
0.0
 70
65
  0
LINE
  8
2
  6
CONTINUOUS
 62
3
 10
1.6349725E+002
 20
1.6908493E+002
 11
1.7714786E+002
 21
1.6908493E+002
  0
LINE
  8
2
  6
CONTINUOUS
 62
3
 10
1.6349725E+002
 20
1.3708493E+002
 11
1.7714786E+002
 21
1.3708493E+002
  0
LINE
  8
2
  6
CONTINUOUS
 62
3
 10
1.7414786E+002
 20
1.6908493E+002
 11
1.7414786E+002
 21
1.5376396E+002
  0
LINE
  8
2
  6
CONTINUOUS
 62
3
 10
1.7414786E+002
 20
1.3708493E+002
 11
1.7414786E+002
 21
1.5376396E+002
  0
INSERT
  2
_AH1
  8
2
 62
3
 10
1.7414786E+002
 20
1.6908493E+002
 41
3.0
 42
3.0
 43
3.0
 50
9.0E+001
  0
INSERT
  2
_AH1
  8
2
 62
3
 10
1.7414786E+002
 20
1.3708493E+002
 41
3.0
 42
3.0
 43
3.0
 50
2.7E+002
  0
TEXT
  8
2
  6
CONTINUOUS
 62
3
 10
1.7264686E+002
 20
1.5151396E+002
 40
3.0
  1
32
 41
7.5E-001
 50
9.0E+001
  0
ENDBLK
  0
BLOCK
  2
*D5731
  3
*D
 10
0.0
 20
0.0
 70
65
  0
LINE
  8
2
  6
CONTINUOUS
 62
3
 10
1.4949725E+002
 20
9.8084934E+001
 11
1.4949725E+002
 21
7.3738933E+001
  0
LINE
  8
2
  6
CONTINUOUS
 62
3
 10
1.5249725E+002
 20
9.8084934E+001
 11
1.5249725E+002
 21
7.3738933E+001
  0
LINE
  8
2
  6
CONTINUOUS
 62
3
 10
1.4349725E+002
 20
7.6738933E+001
 11
1.5249725E+002
 21
7.6738933E+001
  0
LINE
  8
2
  6
CONTINUOUS
 62
3
 10
1.5249725E+002
 20
7.6738933E+001
 11
1.6126042E+002
 21
7.6738933E+001
  0
INSERT
  2
_AH1
  8
2
 62
3
 10
1.4949725E+002
 20
7.6738933E+001
 41
3.0
 42
3.0
 43
3.0
 50
0.0
  0
INSERT
  2
_AH1
  8
2
 62
3
 10
1.5249725E+002
 20
7.6738933E+001
 41
3.0
 42
3.0
 43
3.0
 50
1.8E+002
  0
TEXT
  8
2
  6
CONTINUOUS
 62
3
 10
1.5751042E+002
 20
7.8239933E+001
 40
3.0
  1
3
 41
7.5E-001
  0
ENDBLK
  0
BLOCK
  2
*D5732
  3
*D
 10
0.0
 20
0.0
 70
65
  0
LINE
  8
2
  6
CONTINUOUS
 62
3
 10
1.1249725E+002
 20
1.2208493E+002
 11
1.1249725E+002
 21
7.3738933E+001
  0
LINE
  8
2
  6
CONTINUOUS
 62
3
 10
1.4949725E+002
 20
9.8084934E+001
 11
1.4949725E+002
 21
7.3738933E+001
  0
LINE
  8
2
  6
CONTINUOUS
 62
3
 10
1.1249725E+002
 20
7.6738933E+001
 11
1.3116224E+002
 21
7.6738933E+001
  0
LINE
  8
2
  6
CONTINUOUS
 62
3
 10
1.4949725E+002
 20
7.6738933E+001
 11
1.3116224E+002
 21
7.6738933E+001
  0
INSERT
  2
_AH1
  8
2
 62
3
 10
1.1249725E+002
 20
7.6738933E+001
 41
3.0
 42
3.0
 43
3.0
 50
1.8E+002
  0
INSERT
  2
_AH1
  8
2
 62
3
 10
1.4949725E+002
 20
7.6738933E+001
 41
3.0
 42
3.0
 43
3.0
 50
0.0
  0
TEXT
  8
2
  6
CONTINUOUS
 62
3
 10
1.2891224E+002
 20
7.8239933E+001
 40
3.0
  1
37
 41
7.5E-001
  0
ENDBLK
  0
BLOCK
  2
*D5738
  3
*D
 10
0.0
 20
0.0
 70
65
  0
LINE
  8
3
  6
CONTINUOUS
 62
3
 10
4.8320494E+001
 20
1.6608493E+002
 11
6.6149748E+001
 21
1.6608493E+002
  0
LINE
  8
3
  6
CONTINUOUS
 62
3
 10
4.8320494E+001
 20
1.4008493E+002
 11
6.6149748E+001
 21
1.4008493E+002
  0
LINE
  8
3
  6
CONTINUOUS
 62
3
 10
6.3149748E+001
 20
1.6608493E+002
 11
6.3149748E+001
 21
1.5362866E+002
  0
LINE
  8
3
  6
CONTINUOUS
 62
3
 10
6.3149748E+001
 20
1.4008493E+002
 11
6.3149748E+001
 21
1.5362866E+002
  0
INSERT
  2
_AH1
  8
3
 62
3
 10
6.3149748E+001
 20
1.6608493E+002
 41
3.0
 42
3.0
 43
3.0
 50
9.0E+001
  0
INSERT
  2
_AH1
  8
3
 62
3
 10
6.3149748E+001
 20
1.4008493E+002
 41
3.0
 42
3.0
 43
3.0
 50
2.7E+002
  0
TEXT
  8
3
  6
CONTINUOUS
 62
3
 10
6.1648748E+001
 20
1.5137866E+002
 40
3.0
  1
26
 41
7.5E-001
 50
9.0E+001
  0
ENDBLK
  0
BLOCK
  2
*D5743
  3
*D
 10
0.0
 20
0.0
 70
65
  0
LINE
  8
4
  6
CONTINUOUS
 62
3
 10
1.4949725E+002
 20
2.7655762E+002
 11
9.1721427E+001
 21
2.7655762E+002
  0
LINE
  8
4
  6
CONTINUOUS
 62
3
 10
1.1349725E+002
 20
2.7355762E+002
 11
9.1721427E+001
 21
2.7355762E+002
  0
LINE
  8
4
  6
CONTINUOUS
 62
3
 10
9.4721427E+001
 20
2.7655762E+002
 11
9.4721427E+001
 21
2.8641411E+002
  0
LINE
  8
4
  6
CONTINUOUS
 62
3
 10
9.4721427E+001
 20
2.6755762E+002
 11
9.4721427E+001
 21
2.7655762E+002
  0
INSERT
  2
_AH1
  8
4
 62
3
 10
9.4721427E+001
 20
2.7655762E+002
 41
3.0
 42
3.0
 43
3.0
 50
2.7E+002
  0
INSERT
  2
_AH1
  8
4
 62
3
 10
9.4721427E+001
 20
2.7355762E+002
 41
3.0
 42
3.0
 43
3.0
 50
9.0E+001
  0
TEXT
  8
4
  6
CONTINUOUS
 62
3
 10
9.3220427E+001
 20
2.8266411E+002
 40
3.0
  1
3
 41
7.5E-001
 50
9.0E+001
  0
ENDBLK
  0
ENDSEC
  0
SECTION
  2
ENTITIES
  0
DIMENSION
  8
4
  6
CONTINUOUS
 62
3
  2
*D42
  3
DSTYLE1
 10
1.0363379E+002
 20
2.5555762E+002
 11
1.0063279E+002
 21
2.6440826E+002
 70
128
 13
1.1249725E+002
 23
2.7355762E+002
 14
1.155186E+002
 24
2.5555762E+002
 40
3.0
 50
9.0E+001
1001
ACAD
1000
DSTYLE
1002
{
1070
173
1070
0
1070
5
1000
_AH1
1002
}
  0
DIMENSION
  8
4
  6
CONTINUOUS
 62
3
  2
*D43
  3
DSTYLE1
 10
9.4721427E+001
 20
2.5255762E+002
 11
9.1720427E+001
 21
2.4644207E+002
 70
128
 13
1.155186E+002
 23
2.5555762E+002
 14
1.4949725E+002
 24
2.5255762E+002
 40
3.0
 50
9.0E+001
1001
ACAD
1000
DSTYLE
1002
{
1070
173
1070
0
1070
5
1000
_AH1
1002
}
  0
LINE
  8
2
  6
CONTINUOUS
 62
150
 10
1.3249725E+002
 20
1.5158493E+002
 11
1.3399725E+002
 21
1.5158493E+002
  0
LINE
  8
2
  6
CONTINUOUS
 62
150
 10
1.3249725E+002
 20
1.5458493E+002
 11
1.3399725E+002
 21
1.5458493E+002
  0
LINE
  8
2
  6
CONTINUOUS
 62
150
 10
1.1599725E+002
 20
1.8308493E+002
 11
1.1599725E+002
 21
1.8158493E+002
  0
DIMENSION
  8
4
  6
CONTINUOUS
 62
3
  2
*D47
  3
DSTYLE1
 10
1.7917666E+002
 20
2.7655762E+002
 11
1.7617566E+002
 21
2.7416942E+002
 70
128
 13
1.6849725E+002
 23
2.7155762E+002
 14
1.5249725E+002
 24
2.7655762E+002
 40
3.0
 50
9.0E+001
1001
ACAD
1000
DSTYLE
1002
{
1070
173
1070
0
1070
5
1000
_AH1
1002
}
  0
DIMENSION
  8
4
  6
CONTINUOUS
 62
3
  2
*D48
  3
DSTYLE1
 10
1.8799047E+002
 20
2.5755762E+002
 11
1.8498947E+002
 21
2.6444124E+002
 70
128
 13
1.6849725E+002
 23
2.7155762E+002
 14
1.5749725E+002
 24
2.5755762E+002
 40
3.0
 50
2.7E+002
1001
ACAD
1000
DSTYLE
1002
{
1070
173
1070
0
1070
5
1000
_AH1
1002
}
  0
LINE
  8
2
  6
CONTINUOUS
 62
150
 10
1.1999725E+002
 20
1.8308493E+002
 11
1.1999725E+002
 21
1.8158493E+002
  0
DIMENSION
  8
4
  6
CONTINUOUS
 62
3
  2
*D50
  3
DSTYLE1
 10
1.5249725E+002
 20
2.4424266E+002
 11
1.5802907E+002
 21
2.4724366E+002
 70
128
 13
1.6449725E+002
 23
2.6955762E+002
 14
1.5249725E+002
 24
2.5255762E+002
 40
3.0
 50
1.8E+002
1001
ACAD
1000
DSTYLE
1002
{
1070
173
1070
0
1070
5
1000
_AH1
1002
}
  0
DIMENSION
  8
4
  6
CONTINUOUS
 62
3
  2
*D51
  3
DSTYLE1
 10
1.6949448E+002
 20
2.3447864E+002
 11
1.6095828E+002
 21
2.3747964E+002
 70
128
 13
1.5249725E+002
 23
2.5255762E+002
 14
1.6949448E+002
 24
2.6926472E+002
 40
3.0
 50
0.0
1001
ACAD
1000
DSTYLE
1002
{
1070
173
1070
0
1070
5
1000
_AH1
1002
}
  0
INSERT
  2
*D52
  8
4
 62
3
 10
0.0
 20
0.0
  0
LINE
  8
2
  6
CONTINUOUS
 62
150
 10
1.4199725E+002
 20
1.8308493E+002
 11
1.4199725E+002
 21
1.8158493E+002
  0
LINE
  8
2
  6
CONTINUOUS
 62
150
 10
1.4599725E+002
 20
1.8308493E+002
 11
1.4599725E+002
 21
1.8158493E+002
  0
LINE
  8
2
  6
CONTINUOUS
 62
150
 10
1.1579725E+002
 20
1.2458493E+002
 11
1.1599725E+002
 21
1.2458493E+002
  0
LINE
  8
2
  6
CONTINUOUS
 62
150
 10
1.1599725E+002
 20
1.2458493E+002
 11
1.1999725E+002
 21
1.2458493E+002
  0
LINE
  8
2
  6
CONTINUOUS
 62
150
 10
1.1999725E+002
 20
1.2458493E+002
 11
1.2019725E+002
 21
1.2458493E+002
  0
LINE
  8
2
  6
CONTINUOUS
 62
150
 10
1.4179725E+002
 20
1.2458493E+002
 11
1.4199725E+002
 21
1.2458493E+002
  0
LINE
  8
2
  6
CONTINUOUS
 62
150
 10
1.4199725E+002
 20
1.2458493E+002
 11
1.4599725E+002
 21
1.2458493E+002
  0
LINE
  8
2
  6
CONTINUOUS
 62
150
 10
1.4599725E+002
 20
1.2458493E+002
 11
1.4619725E+002
 21
1.2458493E+002
  0
LINE
  8
2
  6
CONTINUOUS
 62
150
 10
1.4619725E+002
 20
1.8158493E+002
 11
1.4599725E+002
 21
1.8158493E+002
  0
LINE
  8
2
  6
CONTINUOUS
 62
150
 10
1.4599725E+002
 20
1.8158493E+002
 11
1.4199725E+002
 21
1.8158493E+002
  0
LINE
  8
2
  6
CONTINUOUS
 62
150
 10
1.4199725E+002
 20
1.8158493E+002
 11
1.4179725E+002
 21
1.8158493E+002
  0
LINE
  8
2
  6
CONTINUOUS
 62
150
 10
1.2019725E+002
 20
1.8158493E+002
 11
1.1999725E+002
 21
1.8158493E+002
  0
LINE
  8
2
  6
CONTINUOUS
 62
150
 10
1.1999725E+002
 20
1.8158493E+002
 11
1.1599725E+002
 21
1.8158493E+002
  0
LINE
  8
2
  6
CONTINUOUS
 62
150
 10
1.1599725E+002
 20
1.8158493E+002
 11
1.1579727E+002
 21
1.8158493E+002
  0
LINE
  8
2
  6
CONTINUOUS
 62
150
 10
1.3399725E+002
 20
1.5478493E+002
 11
1.3399725E+002
 21
1.5458493E+002
  0
LINE
  8
2
  6
CONTINUOUS
 62
150
 10
1.3399725E+002
 20
1.5458493E+002
 11
1.3399725E+002
 21
1.5158493E+002
  0
LINE
  8
2
  6
CONTINUOUS
 62
150
 10
1.3399725E+002
 20
1.5158493E+002
 11
1.3399725E+002
 21
1.5138493E+002
  0
LINE
  8
2
  6
CONTINUOUS
 62
150
 10
1.4599725E+002
 20
1.2308493E+002
 11
1.4599725E+002
 21
1.2458493E+002
  0
LINE
  8
2
  6
CONTINUOUS
 62
150
 10
1.4199725E+002
 20
1.2308493E+002
 11
1.4199725E+002
 21
1.2458493E+002
  0
LINE
  8
2
  6
CONTINUOUS
 62
150
 10
1.1999725E+002
 20
1.2308493E+002
 11
1.1999725E+002
 21
1.2458493E+002
  0
LINE
  8
2
  6
CONTINUOUS
 62
150
 10
1.1599725E+002
 20
1.2308493E+002
 11
1.1599725E+002
 21
1.2458493E+002
  0
LINE
  8
2
  6
CONTINUOUS
 62
150
 10
1.3249727E+002
 20
1.5478493E+002
 11
1.3249725E+002
 21
1.5458493E+002
  0
LINE
  8
2
  6
CONTINUOUS
 62
150
 10
1.3249725E+002
 20
1.5458493E+002
 11
1.3249725E+002
 21
1.5158493E+002
  0
LINE
  8
2
  6
CONTINUOUS
 62
150
 10
1.3249725E+002
 20
1.5158493E+002
 11
1.3249725E+002
 21
1.5138493E+002
  0
LINE
  8
2
  6
CONTINUOUS
 62
150
 10
1.4619725E+002
 20
1.8308493E+002
 11
1.4599725E+002
 21
1.8308493E+002
  0
LINE
  8
2
  6
CONTINUOUS
 62
150
 10
1.4599725E+002
 20
1.8308493E+002
 11
1.4199725E+002
 21
1.8308493E+002
  0
LINE
  8
2
  6
CONTINUOUS
 62
150
 10
1.4199725E+002
 20
1.8308493E+002
 11
1.4179725E+002
 21
1.8308493E+002
  0
LINE
  8
2
  6
CONTINUOUS
 62
150
 10
1.2019725E+002
 20
1.8308493E+002
 11
1.1999725E+002
 21
1.8308493E+002
  0
LINE
  8
2
  6
CONTINUOUS
 62
150
 10
1.1999725E+002
 20
1.8308493E+002
 11
1.1599725E+002
 21
1.8308493E+002
  0
LINE
  8
2
  6
CONTINUOUS
 62
150
 10
1.1599725E+002
 20
1.8308493E+002
 11
1.1579725E+002
 21
1.8308493E+002
  0
LINE
  8
2
  6
CONTINUOUS
 62
150
 10
1.1579725E+002
 20
1.2308493E+002
 11
1.1599725E+002
 21
1.2308493E+002
  0
LINE
  8
2
  6
CONTINUOUS
 62
150
 10
1.1599725E+002
 20
1.2308493E+002
 11
1.1999725E+002
 21
1.2308493E+002
  0
LINE
  8
2
  6
CONTINUOUS
 62
150
 10
1.1999725E+002
 20
1.2308493E+002
 11
1.2019725E+002
 21
1.2308493E+002
  0
LINE
  8
2
  6
CONTINUOUS
 62
150
 10
1.4179725E+002
 20
1.2308493E+002
 11
1.4199725E+002
 21
1.2308493E+002
  0
LINE
  8
2
  6
CONTINUOUS
 62
150
 10
1.4199725E+002
 20
1.2308493E+002
 11
1.4599725E+002
 21
1.2308493E+002
  0
LINE
  8
2
  6
CONTINUOUS
 62
150
 10
1.4599725E+002
 20
1.2308493E+002
 11
1.4619725E+002
 21
1.2308493E+002
  0
LINE
  8
2
  6
CONTINUOUS
 62
40
 10
1.3224725E+002
 20
1.5138493E+002
 11
1.3224725E+002
 21
1.5478493E+002
  0
LINE
  8
2
  6
CONTINUOUS
 62
40
 10
1.3224725E+002
 20
1.5478493E+002
 11
1.3414725E+002
 21
1.5478493E+002
  0
LINE
  8
2
  6
CONTINUOUS
 62
40
 10
1.3414725E+002
 20
1.5138493E+002
 11
1.3414725E+002
 21
1.5478493E+002
  0
LINE
  8
2
  6
CONTINUOUS
 62
40
 10
1.3224725E+002
 20
1.5138493E+002
 11
1.3414725E+002
 21
1.5138493E+002
  0
LINE
  8
2
  6
CONTINUOUS
 62
40
 10
1.2019725E+002
 20
1.2478493E+002
 11
1.2019725E+002
 21
1.2288493E+002
  0
LINE
  8
2
  6
CONTINUOUS
 62
40
 10
1.2019725E+002
 20
1.2288493E+002
 11
1.1579725E+002
 21
1.2288493E+002
  0
LINE
  8
2
  6
CONTINUOUS
 62
40
 10
1.1579725E+002
 20
1.2288493E+002
 11
1.1579725E+002
 21
1.2478493E+002
  0
LINE
  8
2
  6
CONTINUOUS
 62
40
 10
1.1579725E+002
 20
1.2478493E+002
 11
1.2019725E+002
 21
1.2478493E+002
  0
LINE
  8
2
  6
CONTINUOUS
 62
40
 10
1.4179725E+002
 20
1.2288493E+002
 11
1.4179725E+002
 21
1.2478493E+002
  0
LINE
  8
2
  6
CONTINUOUS
 62
40
 10
1.4179725E+002
 20
1.2478493E+002
 11
1.4619725E+002
 21
1.2478493E+002
  0
LINE
  8
2
  6
CONTINUOUS
 62
40
 10
1.4619725E+002
 20
1.2478493E+002
 11
1.4619725E+002
 21
1.2288493E+002
  0
LINE
  8
2
  6
CONTINUOUS
 62
40
 10
1.4619725E+002
 20
1.2288493E+002
 11
1.4179725E+002
 21
1.2288493E+002
  0
LINE
  8
2
  6
CONTINUOUS
 62
40
 10
1.4619725E+002
 20
1.8328493E+002
 11
1.4619725E+002
 21
1.8138493E+002
  0
LINE
  8
2
  6
CONTINUOUS
 62
40
 10
1.4619725E+002
 20
1.8138493E+002
 11
1.4179725E+002
 21
1.8138493E+002
  0
LINE
  8
2
  6
CONTINUOUS
 62
40
 10
1.4179725E+002
 20
1.8138493E+002
 11
1.4179725E+002
 21
1.8328493E+002
  0
LINE
  8
2
  6
CONTINUOUS
 62
40
 10
1.4179725E+002
 20
1.8328493E+002
 11
1.4619725E+002
 21
1.8328493E+002
  0
LINE
  8
2
  6
CONTINUOUS
 62
40
 10
1.1579725E+002
 20
1.8328493E+002
 11
1.2019725E+002
 21
1.8328493E+002
  0
LINE
  8
2
  6
CONTINUOUS
 62
40
 10
1.2019725E+002
 20
1.8328493E+002
 11
1.2019725E+002
 21
1.8138493E+002
  0
LINE
  8
2
  6
CONTINUOUS
 62
40
 10
1.2019725E+002
 20
1.8138493E+002
 11
1.1579725E+002
 21
1.8138493E+002
  0
LINE
  8
2
  6
CONTINUOUS
 62
40
 10
1.1579725E+002
 20
1.8138493E+002
 11
1.1579725E+002
 21
1.8328493E+002
  0
ARC
  8
2
  6
CONTINUOUS
 62
40
 10
1.1349725E+002
 20
1.8408493E+002
 40
1.0
 50
9.0E+001
 51
1.8E+002
  0
LINE
  8
2
  6
CONTINUOUS
 62
40
 10
1.4849725E+002
 20
1.8508493E+002
 11
1.1349725E+002
 21
1.8508493E+002
  0
ARC
  8
2
  6
CONTINUOUS
 62
40
 10
1.4849725E+002
 20
1.8408493E+002
 40
1.0
 50
0.0
 51
9.0E+001
  0
ARC
  8
2
  6
CONTINUOUS
 62
40
 10
1.4849725E+002
 20
1.2208493E+002
 40
1.0
 50
2.7E+002
 51
3.6E+002
  0
LINE
  8
2
  6
CONTINUOUS
 62
40
 10
1.1349725E+002
 20
1.2108493E+002
 11
1.4849725E+002
 21
1.2108493E+002
  0
ARC
  8
2
  6
CONTINUOUS
 62
40
 10
1.1349725E+002
 20
1.2208493E+002
 40
1.0
 50
1.8E+002
 51
2.7E+002
  0
LINE
  8
2
  6
CONTINUOUS
 62
40
 10
1.1249725E+002
 20
1.8408493E+002
 11
1.1249725E+002
 21
1.2208493E+002
  0
LINE
  8
2
  6
CONTINUOUS
 62
40
 10
1.3967044E+002
 20
1.7008494E+002
 11
1.3967044E+002
 21
1.7208494E+002
  0
ARC
  8
2
  6
CONTINUOUS
 62
40
 10
1.4099725E+002
 20
1.7208493E+002
 40
1.3267949
 50
0.0
 51
1.8E+002
  0
LINE
  8
2
  6
CONTINUOUS
 62
40
 10
1.4232406E+002
 20
1.7208494E+002
 11
1.4232406E+002
 21
1.7008494E+002
  0
ARC
  8
2
  6
CONTINUOUS
 62
40
 10
1.4099725E+002
 20
1.7008493E+002
 40
1.3267949
 50
1.8E+002
 51
3.6E+002
  0
ARC
  8
2
  6
CONTINUOUS
 62
40
 10
1.4099725E+002
 20
1.7208493E+002
 40
1.1732051
 50
0.0
 51
1.8E+002
  0
LINE
  8
2
  6
CONTINUOUS
 62
40
 10
1.3982405E+002
 20
1.7008494E+002
 11
1.3982405E+002
 21
1.7208494E+002
  0
ARC
  8
2
  6
CONTINUOUS
 62
40
 10
1.4099725E+002
 20
1.7008493E+002
 40
1.1732051
 50
1.8E+002
 51
3.6E+002
  0
LINE
  8
2
  6
CONTINUOUS
 62
40
 10
1.4217045E+002
 20
1.7008494E+002
 11
1.4217045E+002
 21
1.7208494E+002
  0
LINE
  8
2
  6
CONTINUOUS
 62
40
 10
1.3817045E+002
 20
1.6875815E+002
 11
1.3817045E+002
 21
1.7330367E+002
  0
LINE
  8
2
  6
CONTINUOUS
 62
40
 10
1.3817045E+002
 20
1.7330367E+002
 11
1.3648652E+002
 21
1.7189067E+002
  0
LINE
  8
2
  6
CONTINUOUS
 62
40
 10
1.3648652E+002
 20
1.7189067E+002
 11
1.3638777E+002
 21
1.7200832E+002
  0
LINE
  8
2
  6
CONTINUOUS
 62
40
 10
1.3638777E+002
 20
1.7200832E+002
 11
1.3806029E+002
 21
1.7341173E+002
  0
LINE
  8
2
  6
CONTINUOUS
 62
40
 10
1.3806029E+002
 20
1.7341173E+002
 11
1.3832403E+002
 21
1.7341173E+002
  0
LINE
  8
2
  6
CONTINUOUS
 62
40
 10
1.3832403E+002
 20
1.7341173E+002
 11
1.3832403E+002
 21
1.6875815E+002
  0
LINE
  8
2
  6
CONTINUOUS
 62
40
 10
1.3832403E+002
 20
1.6875815E+002
 11
1.3817045E+002
 21
1.6875815E+002
  0
LINE
  8
2
  6
CONTINUOUS
 62
40
 10
1.3402406E+002
 20
1.7116172E+002
 11
1.3402406E+002
 21
1.7100814E+002
  0
LINE
  8
2
  6
CONTINUOUS
 62
40
 10
1.3402406E+002
 20
1.7100814E+002
 11
1.3197045E+002
 21
1.7100814E+002
  0
LINE
  8
2
  6
CONTINUOUS
 62
40
 10
1.3197045E+002
 20
1.7100814E+002
 11
1.3197045E+002
 21
1.7116172E+002
  0
LINE
  8
2
  6
CONTINUOUS
 62
40
 10
1.3197045E+002
 20
1.7116172E+002
 11
1.3402406E+002
 21
1.7116172E+002
  0
LINE
  8
2
  6
CONTINUOUS
 62
40
 10
1.2846426E+002
 20
1.6875815E+002
 11
1.3028239E+002
 21
1.7325812E+002
  0
LINE
  8
2
  6
CONTINUOUS
 62
40
 10
1.3028239E+002
 20
1.7325812E+002
 11
1.2782403E+002
 21
1.7325812E+002
  0
LINE
  8
2
  6
CONTINUOUS
 62
40
 10
1.2782403E+002
 20
1.7325812E+002
 11
1.2782403E+002
 21
1.7225814E+002
  0
LINE
  8
2
  6
CONTINUOUS
 62
40
 10
1.2782403E+002
 20
1.7225814E+002
 11
1.2767045E+002
 21
1.7225814E+002
  0
LINE
  8
2
  6
CONTINUOUS
 62
40
 10
1.2767045E+002
 20
1.7225814E+002
 11
1.2767045E+002
 21
1.7341173E+002
  0
LINE
  8
2
  6
CONTINUOUS
 62
40
 10
1.2767045E+002
 20
1.7341173E+002
 11
1.3032404E+002
 21
1.7341173E+002
  0
LINE
  8
2
  6
CONTINUOUS
 62
40
 10
1.3032404E+002
 20
1.7341173E+002
 11
1.3032404E+002
 21
1.7295124E+002
  0
LINE
  8
2
  6
CONTINUOUS
 62
40
 10
1.3032404E+002
 20
1.7295124E+002
 11
1.2862994E+002
 21
1.6875815E+002
  0
LINE
  8
2
  6
CONTINUOUS
 62
40
 10
1.2862994E+002
 20
1.6875815E+002
 11
1.2846426E+002
 21
1.6875815E+002
  0
LINE
  8
2
  6
CONTINUOUS
 62
40
 10
1.2367045E+002
 20
1.7008494E+002
 11
1.2367045E+002
 21
1.7208494E+002
  0
ARC
  8
2
  6
CONTINUOUS
 62
40
 10
1.2499725E+002
 20
1.7208493E+002
 40
1.3267949
 50
0.0
 51
1.8E+002
  0
LINE
  8
2
  6
CONTINUOUS
 62
40
 10
1.2632404E+002
 20
1.7208494E+002
 11
1.2632404E+002
 21
1.7008494E+002
  0
ARC
  8
2
  6
CONTINUOUS
 62
40
 10
1.2499725E+002
 20
1.7008493E+002
 40
1.3267949
 50
1.8E+002
 51
3.6E+002
  0
ARC
  8
2
  6
CONTINUOUS
 62
40
 10
1.2499725E+002
 20
1.7208493E+002
 40
1.1732051
 50
0.0
 51
1.8E+002
  0
LINE
  8
2
  6
CONTINUOUS
 62
40
 10
1.2382403E+002
 20
1.7208494E+002
 11
1.2382403E+002
 21
1.7008494E+002
  0
ARC
  8
2
  6
CONTINUOUS
 62
40
 10
1.2499725E+002
 20
1.7008493E+002
 40
1.1732051
 50
1.8E+002
 51
3.6E+002
  0
LINE
  8
2
  6
CONTINUOUS
 62
40
 10
1.2617046E+002
 20
1.7008494E+002
 11
1.2617046E+002
 21
1.7208494E+002
  0
ARC
  8
2
  6
CONTINUOUS
 62
40
 10
1.2099725E+002
 20
1.7008493E+002
 40
1.3267949
 50
1.3108844E+002
 51
4.0891156E+002
  0
ARC
  8
2
  6
CONTINUOUS
 62
40
 10
1.2099725E+002
 20
1.7208493E+002
 40
1.3267949
 50
3.1108844E+002
 51
5.8891156E+002
  0
ARC
  8
2
  6
CONTINUOUS
 62
40
 10
1.2099725E+002
 20
1.7208493E+002
 40
1.1732051
 50
3.0810246E+002
 51
5.9189754E+002
  0
LINE
  8
2
  6
CONTINUOUS
 62
40
 10
1.2027331E+002
 20
1.7116172E+002
 11
1.2172119E+002
 21
1.7116172E+002
  0
LINE
  8
2
  6
CONTINUOUS
 62
40
 10
1.2172119E+002
 20
1.7100814E+002
 11
1.2027331E+002
 21
1.7100814E+002
  0
ARC
  8
2
  6
CONTINUOUS
 62
40
 10
1.2099725E+002
 20
1.7008493E+002
 40
1.1732051
 50
1.2810246E+002
 51
4.1189754E+002
  0
LINE
  8
2
  6
CONTINUOUS
 62
40
 10
1.4199725E+002
 20
1.7008494E+002
 11
1.4199725E+002
 21
1.7208494E+002
  0
ARC
  8
2
  6
CONTINUOUS
 62
40
 10
1.4099725E+002
 20
1.7008493E+002
 40
1.0
 50
1.8E+002
 51
3.6E+002
  0
LINE
  8
2
  6
CONTINUOUS
 62
40
 10
1.3999725E+002
 20
1.7208494E+002
 11
1.3999725E+002
 21
1.7008494E+002
  0
ARC
  8
2
  6
CONTINUOUS
 62
40
 10
1.4099725E+002
 20
1.7208493E+002
 40
1.0
 50
0.0
 51
1.8E+002
  0
ARC
  8
2
  6
CONTINUOUS
 62
40
 10
1.4099725E+002
 20
1.7008493E+002
 40
1.5
 50
1.8E+002
 51
3.6E+002
  0
LINE
  8
2
  6
CONTINUOUS
 62
40
 10
1.4249726E+002
 20
1.7208494E+002
 11
1.4249726E+002
 21
1.7008494E+002
  0
ARC
  8
2
  6
CONTINUOUS
 62
40
 10
1.4099725E+002
 20
1.7208493E+002
 40
1.5
 50
0.0
 51
1.8E+002
  0
LINE
  8
2
  6
CONTINUOUS
 62
40
 10
1.3949725E+002
 20
1.7008494E+002
 11
1.3949725E+002
 21
1.7208494E+002
  0
LINE
  8
2
  6
CONTINUOUS
 62
40
 10
1.3849726E+002
 20
1.6858492E+002
 11
1.3799725E+002
 21
1.6858492E+002
  0
LINE
  8
2
  6
CONTINUOUS
 62
40
 10
1.3817045E+002
 20
1.6875815E+002
 11
1.3799725E+002
 21
1.6858492E+002
  0
LINE
  8
2
  6
CONTINUOUS
 62
40
 10
1.3849726E+002
 20
1.6858492E+002
 11
1.3832403E+002
 21
1.6875815E+002
  0
LINE
  8
2
  6
CONTINUOUS
 62
40
 10
1.3849726E+002
 20
1.7358493E+002
 11
1.3849726E+002
 21
1.6858492E+002
  0
LINE
  8
2
  6
CONTINUOUS
 62
40
 10
1.3849726E+002
 20
1.7358493E+002
 11
1.3832403E+002
 21
1.7341173E+002
  0
LINE
  8
2
  6
CONTINUOUS
 62
40
 10
1.3799725E+002
 20
1.7358493E+002
 11
1.3849726E+002
 21
1.7358493E+002
  0
LINE
  8
2
  6
CONTINUOUS
 62
40
 10
1.3799725E+002
 20
1.7358493E+002
 11
1.3806029E+002
 21
1.7341173E+002
  0
LINE
  8
2
  6
CONTINUOUS
 62
40
 10
1.3614379E+002
 20
1.7202967E+002
 11
1.3799725E+002
 21
1.7358493E+002
  0
LINE
  8
2
  6
CONTINUOUS
 62
40
 10
1.3614379E+002
 20
1.7202967E+002
 11
1.3638777E+002
 21
1.7200832E+002
  0
LINE
  8
2
  6
CONTINUOUS
 62
40
 10
1.3646517E+002
 20
1.7164664E+002
 11
1.3614379E+002
 21
1.7202967E+002
  0
LINE
  8
2
  6
CONTINUOUS
 62
40
 10
1.3646517E+002
 20
1.7164664E+002
 11
1.3648652E+002
 21
1.7189067E+002
  0
LINE
  8
2
  6
CONTINUOUS
 62
40
 10
1.3799725E+002
 20
1.7293223E+002
 11
1.3646517E+002
 21
1.7164664E+002
  0
LINE
  8
2
  6
CONTINUOUS
 62
40
 10
1.3799725E+002
 20
1.7293223E+002
 11
1.3817045E+002
 21
1.7330367E+002
  0
LINE
  8
2
  6
CONTINUOUS
 62
40
 10
1.3799725E+002
 20
1.6858492E+002
 11
1.3799725E+002
 21
1.7293223E+002
  0
LINE
  8
2
  6
CONTINUOUS
 62
40
 10
1.3179726E+002
 20
1.7133495E+002
 11
1.3419726E+002
 21
1.7133495E+002
  0
LINE
  8
2
  6
CONTINUOUS
 62
40
 10
1.3402406E+002
 20
1.7116172E+002
 11
1.3419726E+002
 21
1.7133495E+002
  0
LINE
  8
2
  6
CONTINUOUS
 62
40
 10
1.3179726E+002
 20
1.7133495E+002
 11
1.3197045E+002
 21
1.7116172E+002
  0
LINE
  8
2
  6
CONTINUOUS
 62
40
 10
1.3179726E+002
 20
1.7083494E+002
 11
1.3179726E+002
 21
1.7133495E+002
  0
LINE
  8
2
  6
CONTINUOUS
 62
40
 10
1.3179726E+002
 20
1.7083494E+002
 11
1.3197045E+002
 21
1.7100814E+002
  0
LINE
  8
2
  6
CONTINUOUS
 62
40
 10
1.3419726E+002
 20
1.7083494E+002
 11
1.3179726E+002
 21
1.7083494E+002
  0
LINE
  8
2
  6
CONTINUOUS
 62
40
 10
1.3419726E+002
 20
1.7083494E+002
 11
1.3402406E+002
 21
1.7100814E+002
  0
LINE
  8
2
  6
CONTINUOUS
 62
40
 10
1.3419726E+002
 20
1.7133495E+002
 11
1.3419726E+002
 21
1.7083494E+002
  0
LINE
  8
2
  6
CONTINUOUS
 62
40
 10
1.282075E+002
 20
1.6858492E+002
 11
1.3002559E+002
 21
1.7308493E+002
  0
LINE
  8
2
  6
CONTINUOUS
 62
40
 10
1.3028239E+002
 20
1.7325812E+002
 11
1.3002559E+002
 21
1.7308493E+002
  0
LINE
  8
2
  6
CONTINUOUS
 62
40
 10
1.282075E+002
 20
1.6858492E+002
 11
1.2846426E+002
 21
1.6875815E+002
  0
LINE
  8
2
  6
CONTINUOUS
 62
40
 10
1.3002559E+002
 20
1.7308493E+002
 11
1.2799726E+002
 21
1.7308493E+002
  0
LINE
  8
2
  6
CONTINUOUS
 62
40
 10
1.2782403E+002
 20
1.7325812E+002
 11
1.2799726E+002
 21
1.7308493E+002
  0
LINE
  8
2
  6
CONTINUOUS
 62
40
 10
1.2799726E+002
 20
1.7308493E+002
 11
1.2799726E+002
 21
1.7208494E+002
  0
LINE
  8
2
  6
CONTINUOUS
 62
40
 10
1.2782403E+002
 20
1.7225814E+002
 11
1.2799726E+002
 21
1.7208494E+002
  0
LINE
  8
2
  6
CONTINUOUS
 62
40
 10
1.2799726E+002
 20
1.7208494E+002
 11
1.2749725E+002
 21
1.7208494E+002
  0
LINE
  8
2
  6
CONTINUOUS
 62
40
 10
1.2767045E+002
 20
1.7225814E+002
 11
1.2749725E+002
 21
1.7208494E+002
  0
LINE
  8
2
  6
CONTINUOUS
 62
40
 10
1.2749725E+002
 20
1.7208494E+002
 11
1.2749725E+002
 21
1.7358493E+002
  0
LINE
  8
2
  6
CONTINUOUS
 62
40
 10
1.2767045E+002
 20
1.7341173E+002
 11
1.2749725E+002
 21
1.7358493E+002
  0
LINE
  8
2
  6
CONTINUOUS
 62
40
 10
1.2749725E+002
 20
1.7358493E+002
 11
1.3049727E+002
 21
1.7358493E+002
  0
LINE
  8
2
  6
CONTINUOUS
 62
40
 10
1.3032404E+002
 20
1.7341173E+002
 11
1.3049727E+002
 21
1.7358493E+002
  0
LINE
  8
2
  6
CONTINUOUS
 62
40
 10
1.3049727E+002
 20
1.7358493E+002
 11
1.3049727E+002
 21
1.7291756E+002
  0
LINE
  8
2
  6
CONTINUOUS
 62
40
 10
1.3032404E+002
 20
1.7295124E+002
 11
1.3049727E+002
 21
1.7291756E+002
  0
LINE
  8
2
  6
CONTINUOUS
 62
40
 10
1.3049727E+002
 20
1.7291756E+002
 11
1.2874675E+002
 21
1.6858492E+002
  0
LINE
  8
2
  6
CONTINUOUS
 62
40
 10
1.2862994E+002
 20
1.6875815E+002
 11
1.2874675E+002
 21
1.6858492E+002
  0
LINE
  8
2
  6
CONTINUOUS
 62
40
 10
1.2874675E+002
 20
1.6858492E+002
 11
1.282075E+002
 21
1.6858492E+002
  0
LINE
  8
2
  6
CONTINUOUS
 62
40
 10
1.2599726E+002
 20
1.7008494E+002
 11
1.2599726E+002
 21
1.7208494E+002
  0
ARC
  8
2
  6
CONTINUOUS
 62
40
 10
1.2499725E+002
 20
1.7008493E+002
 40
1.0
 50
1.8E+002
 51
3.6E+002
  0
LINE
  8
2
  6
CONTINUOUS
 62
40
 10
1.2399726E+002
 20
1.7208494E+002
 11
1.2399726E+002
 21
1.7008494E+002
  0
ARC
  8
2
  6
CONTINUOUS
 62
40
 10
1.2499725E+002
 20
1.7208493E+002
 40
1.0
 50
0.0
 51
1.8E+002
  0
ARC
  8
2
  6
CONTINUOUS
 62
40
 10
1.2499725E+002
 20
1.7008493E+002
 40
1.5
 50
1.8E+002
 51
3.6E+002
  0
LINE
  8
2
  6
CONTINUOUS
 62
40
 10
1.2649724E+002
 20
1.7208494E+002
 11
1.2649724E+002
 21
1.7008494E+002
  0
ARC
  8
2
  6
CONTINUOUS
 62
40
 10
1.2499725E+002
 20
1.7208493E+002
 40
1.5
 50
0.0
 51
1.8E+002
  0
LINE
  8
2
  6
CONTINUOUS
 62
40
 10
1.2349726E+002
 20
1.7008494E+002
 11
1.2349726E+002
 21
1.7208494E+002
  0
LINE
  8
2
  6
CONTINUOUS
 62
40
 10
1.216587E+002
 20
1.7083494E+002
 11
1.203358E+002
 21
1.7083494E+002
  0
POLYLINE
  8
2
  6
CONTINUOUS
 62
40
 66
1
 40
0.0
 41
0.0
 70
2
  0
VERTEX
  8
2
 42
0.0
 10
1.2027331E+002
 20
1.7100814E+002
 70
0
  0
VERTEX
  8
2
 42
2.155532E-004
 10
1.2027542E+002
 20
1.7100206E+002
 70
1
  0
VERTEX
  8
2
 42
2.168894E-004
 10
1.2027752E+002
 20
1.70996E+002
 70
0
  0
VERTEX
  8
2
 42
2.182934E-004
 10
1.2027962E+002
 20
1.7098997E+002
 70
1
  0
VERTEX
  8
2
 42
2.196536E-004
 10
1.2028172E+002
 20
1.7098395E+002
 70
0
  0
VERTEX
  8
2
 42
2.21085E-004
 10
1.2028381E+002
 20
1.7097796E+002
 70
1
  0
VERTEX
  8
2
 42
2.22474E-004
 10
1.2028591E+002
 20
1.7097199E+002
 70
0
  0
VERTEX
  8
2
 42
2.23928E-004
 10
1.20288E+002
 20
1.7096604E+002
 70
1
  0
VERTEX
  8
2
 42
2.253312E-004
 10
1.202901E+002
 20
1.7096011E+002
 70
0
  0
VERTEX
  8
2
 42
2.268289E-004
 10
1.2029219E+002
 20
1.709542E+002
 70
1
  0
VERTEX
  8
2
 42
2.283016E-004
 10
1.2029428E+002
 20
1.7094831E+002
 70
0
  0
VERTEX
  8
2
 42
2.297691E-004
 10
1.2029637E+002
 20
1.7094244E+002
 70
1
  0
VERTEX
  8
2
 42
2.31117E-004
 10
1.2029846E+002
 20
1.7093659E+002
 70
0
  0
VERTEX
  8
2
 42
2.328232E-004
 10
1.2030054E+002
 20
1.7093077E+002
 70
1
  0
VERTEX
  8
2
 42
2.34738E-004
 10
1.2030263E+002
 20
1.7092496E+002
 70
0
  0
VERTEX
  8
2
 42
2.35727E-004
 10
1.2030471E+002
 20
1.7091918E+002
 70
1
  0
VERTEX
  8
2
 42
2.357971E-004
 10
1.2030679E+002
 20
1.7091342E+002
 70
0
  0
VERTEX
  8
2
 42
2.394387E-004
 10
1.2030887E+002
 20
1.7090768E+002
 70
1
  0
VERTEX
  8
2
 42
2.45897E-004
 10
1.2031095E+002
 20
1.7090196E+002
 70
0
  0
VERTEX
  8
2
 42
2.405594E-004
 10
1.2031304E+002
 20
1.7089624E+002
 70
1
  0
VERTEX
  8
2
 42
2.26032E-004
 10
1.2031511E+002
 20
1.7089058E+002
 70
0
  0
VERTEX
  8
2
 42
2.510869E-004
 10
1.2031717E+002
 20
1.7088496E+002
 70
1
  0
VERTEX
  8
2
 42
3.015077E-004
 10
1.2031926E+002
 20
1.7087928E+002
 70
0
  0
VERTEX
  8
2
 42
2.306697E-004
 10
1.203214E+002
 20
1.7087349E+002
 70
1
  0
VERTEX
  8
2
 42
7.95392E-005
 10
1.203234E+002
 20
1.7086807E+002
 70
0
  0
VERTEX
  8
2
 42
3.278891E-004
 10
1.2032522E+002
 20
1.7086318E+002
 70
1
  0
VERTEX
  8
2
 42
5.716938E-004
 10
1.2032754E+002
 20
1.7085694E+002
 70
0
  0
VERTEX
  8
2
 42
2.828311E-004
 10
1.2033112E+002
 20
1.708474E+002
 70
1
  0
VERTEX
  8
2
 42
1.506968E-004
 10
1.203358E+002
 20
1.7083494E+002
 70
0
  0
SEQEND
  0
POLYLINE
  8
2
  6
CONTINUOUS
 62
40
 66
1
 40
0.0
 41
0.0
 70
2
  0
VERTEX
  8
2
 42
0.0
 10
1.216587E+002
 20
1.7083494E+002
 70
0
  0
VERTEX
  8
2
 42
2.622138E-004
 10
1.2166075E+002
 20
1.7084039E+002
 70
1
  0
VERTEX
  8
2
 42
2.603504E-004
 10
1.2166281E+002
 20
1.7084587E+002
 70
0
  0
VERTEX
  8
2
 42
2.584298E-004
 10
1.2166488E+002
 20
1.7085137E+002
 70
1
  0
VERTEX
  8
2
 42
2.566043E-004
 10
1.2166694E+002
 20
1.7085689E+002
 70
0
  0
VERTEX
  8
2
 42
2.54725E-004
 10
1.21669E+002
 20
1.7086243E+002
 70
1
  0
VERTEX
  8
2
 42
2.529413E-004
 10
1.2167107E+002
 20
1.7086799E+002
 70
0
  0
VERTEX
  8
2
 42
2.510961E-004
 10
1.2167314E+002
 20
1.7087358E+002
 70
1
  0
VERTEX
  8
2
 42
2.493364E-004
 10
1.2167521E+002
 20
1.7087918E+002
 70
0
  0
VERTEX
  8
2
 42
2.47547E-004
 10
1.2167728E+002
 20
1.7088481E+002
 70
1
  0
VERTEX
  8
2
 42
2.45869E-004
 10
1.2167935E+002
 20
1.7089047E+002
 70
0
  0
VERTEX
  8
2
 42
2.440532E-004
 10
1.2168143E+002
 20
1.7089614E+002
 70
1
  0
VERTEX
  8
2
 42
2.42251E-004
 10
1.216835E+002
 20
1.7090184E+002
 70
0
  0
VERTEX
  8
2
 42
2.406934E-004
 10
1.2168558E+002
 20
1.7090755E+002
 70
1
  0
VERTEX
  8
2
 42
2.394733E-004
 10
1.2168766E+002
 20
1.709133E+002
 70
0
  0
VERTEX
  8
2
 42
2.371808E-004
 10
1.2168974E+002
 20
1.7091906E+002
 70
1
  0
VERTEX
  8
2
 42
2.341392E-004
 10
1.2169183E+002
 20
1.7092484E+002
 70
0
  0
VERTEX
  8
2
 42
2.345114E-004
 10
1.2169391E+002
 20
1.7093065E+002
 70
1
  0
VERTEX
  8
2
 42
2.376281E-004
 10
1.21696E+002
 20
1.7093648E+002
 70
0
  0
VERTEX
  8
2
 42
2.29237E-004
 10
1.2169809E+002
 20
1.7094234E+002
 70
1
  0
VERTEX
  8
2
 42
2.126746E-004
 10
1.2170018E+002
 20
1.709482E+002
 70
0
  0
VERTEX
  8
2
 42
2.331691E-004
 10
1.2170226E+002
 20
1.7095405E+002
 70
1
  0
VERTEX
  8
2
 42
2.758396E-004
 10
1.2170437E+002
 20
1.7096001E+002
 70
0
  0
VERTEX
  8
2
 42
2.077441E-004
 10
1.2170653E+002
 20
1.7096614E+002
 70
1
  0
VERTEX
  8
2
 42
7.10519E-005
 10
1.2170856E+002
 20
1.7097191E+002
 70
0
  0
VERTEX
  8
2
 42
2.907063E-004
 10
1.217104E+002
 20
1.7097714E+002
 70
1
  0
VERTEX
  8
2
 42
4.936837E-004
 10
1.2171276E+002
 20
1.709839E+002
 70
0
  0
VERTEX
  8
2
 42
2.386289E-004
 10
1.2171641E+002
 20
1.7099438E+002
 70
1
  0
VERTEX
  8
2
 42
1.257976E-004
 10
1.2172119E+002
 20
1.7100814E+002
 70
0
  0
SEQEND
  0
ARC
  8
2
  6
CONTINUOUS
 62
40
 10
1.2099725E+002
 20
1.7008493E+002
 40
1.0
 50
1.3140962E+002
 51
4.0859038E+002
  0
LINE
  8
2
  6
CONTINUOUS
 62
40
 10
1.203358E+002
 20
1.7133495E+002
 11
1.216587E+002
 21
1.7133495E+002
  0
POLYLINE
  8
2
  6
CONTINUOUS
 62
40
 66
1
 40
0.0
 41
0.0
 70
2
  0
VERTEX
  8
2
 42
0.0
 10
1.2172119E+002
 20
1.7116172E+002
 70
0
  0
VERTEX
  8
2
 42
2.15957E-004
 10
1.2171908E+002
 20
1.7116779E+002
 70
1
  0
VERTEX
  8
2
 42
2.172949E-004
 10
1.2171698E+002
 20
1.7117385E+002
 70
0
  0
VERTEX
  8
2
 42
2.187004E-004
 10
1.2171488E+002
 20
1.7117989E+002
 70
1
  0
VERTEX
  8
2
 42
2.200622E-004
 10
1.2171278E+002
 20
1.711859E+002
 70
0
  0
VERTEX
  8
2
 42
2.214953E-004
 10
1.2171069E+002
 20
1.711919E+002
 70
1
  0
VERTEX
  8
2
 42
2.228859E-004
 10
1.2170859E+002
 20
1.7119787E+002
 70
0
  0
VERTEX
  8
2
 42
2.243416E-004
 10
1.217065E+002
 20
1.7120382E+002
 70
1
  0
VERTEX
  8
2
 42
2.257464E-004
 10
1.217044E+002
 20
1.7120975E+002
 70
0
  0
VERTEX
  8
2
 42
2.272458E-004
 10
1.2170231E+002
 20
1.7121566E+002
 70
1
  0
VERTEX
  8
2
 42
2.2872E-004
 10
1.2170022E+002
 20
1.7122155E+002
 70
0
  0
VERTEX
  8
2
 42
2.301893E-004
 10
1.2169813E+002
 20
1.7122742E+002
 70
1
  0
VERTEX
  8
2
 42
2.315384E-004
 10
1.2169605E+002
 20
1.7123327E+002
 70
0
  0
VERTEX
  8
2
 42
2.332468E-004
 10
1.2169396E+002
 20
1.712391E+002
 70
1
  0
VERTEX
  8
2
 42
2.351639E-004
 10
1.2169187E+002
 20
1.712449E+002
 70
0
  0
VERTEX
  8
2
 42
2.361537E-004
 10
1.2168979E+002
 20
1.7125069E+002
 70
1
  0
VERTEX
  8
2
 42
2.362228E-004
 10
1.2168771E+002
 20
1.7125645E+002
 70
0
  0
VERTEX
  8
2
 42
2.398696E-004
 10
1.2168563E+002
 20
1.7126219E+002
 70
1
  0
VERTEX
  8
2
 42
2.463384E-004
 10
1.2168355E+002
 20
1.7126792E+002
 70
0
  0
VERTEX
  8
2
 42
2.4099E-004
 10
1.2168147E+002
 20
1.7127363E+002
 70
1
  0
VERTEX
  8
2
 42
2.264354E-004
 10
1.2167939E+002
 20
1.712793E+002
 70
0
  0
VERTEX
  8
2
 42
2.515339E-004
 10
1.2167733E+002
 20
1.7128491E+002
 70
1
  0
VERTEX
  8
2
 42
3.020428E-004
 10
1.2167524E+002
 20
1.712906E+002
 70
0
  0
VERTEX
  8
2
 42
2.310777E-004
 10
1.2167311E+002
 20
1.7129639E+002
 70
1
  0
VERTEX
  8
2
 42
7.96798E-005
 10
1.216711E+002
 20
1.7130181E+002
 70
0
  0
VERTEX
  8
2
 42
3.28467E-004
 10
1.2166929E+002
 20
1.713067E+002
 70
1
  0
VERTEX
  8
2
 42
5.726956E-004
 10
1.2166696E+002
 20
1.7131294E+002
 70
0
  0
VERTEX
  8
2
 42
2.833242E-004
 10
1.2166338E+002
 20
1.7132248E+002
 70
1
  0
VERTEX
  8
2
 42
1.509589E-004
 10
1.216587E+002
 20
1.7133495E+002
 70
0
  0
SEQEND
  0
POLYLINE
  8
2
  6
CONTINUOUS
 62
40
 66
1
 40
0.0
 41
0.0
 70
2
  0
VERTEX
  8
2
 42
0.0
 10
1.203358E+002
 20
1.7133495E+002
 70
0
  0
VERTEX
  8
2
 42
2.61325E-004
 10
1.2033374E+002
 20
1.7132949E+002
 70
1
  0
VERTEX
  8
2
 42
2.594683E-004
 10
1.2033169E+002
 20
1.7132402E+002
 70
0
  0
VERTEX
  8
2
 42
2.575546E-004
 10
1.2032962E+002
 20
1.7131852E+002
 70
1
  0
VERTEX
  8
2
 42
2.557357E-004
 10
1.2032756E+002
 20
1.71313E+002
 70
0
  0
VERTEX
  8
2
 42
2.53863E-004
 10
1.203255E+002
 20
1.7130745E+002
 70
1
  0
VERTEX
  8
2
 42
2.520858E-004
 10
1.2032343E+002
 20
1.7130189E+002
 70
0
  0
VERTEX
  8
2
 42
2.50247E-004
 10
1.2032136E+002
 20
1.712963E+002
 70
1
  0
VERTEX
  8
2
 42
2.484937E-004
 10
1.2031929E+002
 20
1.7129069E+002
 70
0
  0
VERTEX
  8
2
 42
2.467107E-004
 10
1.2031722E+002
 20
1.7128506E+002
 70
1
  0
VERTEX
  8
2
 42
2.450386E-004
 10
1.2031515E+002
 20
1.7127941E+002
 70
0
  0
VERTEX
  8
2
 42
2.432293E-004
 10
1.2031307E+002
 20
1.7127373E+002
 70
1
  0
VERTEX
  8
2
 42
2.414334E-004
 10
1.20311E+002
 20
1.7126804E+002
 70
0
  0
VERTEX
  8
2
 42
2.398814E-004
 10
1.2030892E+002
 20
1.7126232E+002
 70
1
  0
VERTEX
  8
2
 42
2.386658E-004
 10
1.2030684E+002
 20
1.7125658E+002
 70
0
  0
VERTEX
  8
2
 42
2.363812E-004
 10
1.2030476E+002
 20
1.7125081E+002
 70
1
  0
VERTEX
  8
2
 42
2.333502E-004
 10
1.2030267E+002
 20
1.7124503E+002
 70
0
  0
VERTEX
  8
2
 42
2.337216E-004
 10
1.2030059E+002
 20
1.7123922E+002
 70
1
  0
VERTEX
  8
2
 42
2.36828E-004
 10
1.202985E+002
 20
1.7123339E+002
 70
0
  0
VERTEX
  8
2
 42
2.284656E-004
 10
1.2029641E+002
 20
1.7122753E+002
 70
1
  0
VERTEX
  8
2
 42
2.11959E-004
 10
1.2029432E+002
 20
1.7122166E+002
 70
0
  0
VERTEX
  8
2
 42
2.323851E-004
 10
1.2029224E+002
 20
1.7121582E+002
 70
1
  0
VERTEX
  8
2
 42
2.749123E-004
 10
1.2029013E+002
 20
1.7120985E+002
 70
0
  0
VERTEX
  8
2
 42
2.070461E-004
 10
1.2028797E+002
 20
1.7120372E+002
 70
1
  0
VERTEX
  8
2
 42
7.08131E-005
 10
1.2028594E+002
 20
1.7119795E+002
 70
0
  0
VERTEX
  8
2
 42
2.8973E-004
 10
1.202841E+002
 20
1.7119272E+002
 70
1
  0
VERTEX
  8
2
 42
4.920271E-004
 10
1.2028174E+002
 20
1.7118596E+002
 70
0
  0
VERTEX
  8
2
 42
2.378288E-004
 10
1.2027809E+002
 20
1.7117548E+002
 70
1
  0
VERTEX
  8
2
 42
1.253759E-004
 10
1.2027331E+002
 20
1.7116172E+002
 70
0
  0
SEQEND
  0
ARC
  8
2
  6
CONTINUOUS
 62
40
 10
1.2099725E+002
 20
1.7208493E+002
 40
1.0
 50
3.1140962E+002
 51
5.8859038E+002
  0
ARC
  8
2
  6
CONTINUOUS
 62
40
 10
1.2099725E+002
 20
1.7008493E+002
 40
1.5
 50
1.3818969E+002
 51
4.0181031E+002
  0
LINE
  8
2
  6
CONTINUOUS
 62
40
 10
1.221153E+002
 20
1.7108493E+002
 11
1.2186924E+002
 21
1.7108493E+002
  0
LINE
  8
2
  6
CONTINUOUS
 62
40
 10
1.2012526E+002
 20
1.7108493E+002
 11
1.198792E+002
 21
1.7108493E+002
  0
ARC
  8
2
  6
CONTINUOUS
 62
40
 10
1.2099725E+002
 20
1.7208493E+002
 40
1.5
 50
3.1818969E+002
 51
5.8181031E+002
  0
ARC
  8
2
  6
CONTINUOUS
 62
150
 10
1.4299725E+002
 20
1.6308493E+002
 40
2.5
 50
2.7E+002
 51
4.5E+002
  0
LINE
  8
2
  6
CONTINUOUS
 62
150
 10
1.4299727E+002
 20
1.6058493E+002
 11
1.1899725E+002
 21
1.6058493E+002
  0
ARC
  8
2
  6
CONTINUOUS
 62
150
 10
1.1899725E+002
 20
1.6308493E+002
 40
2.5
 50
9.0E+001
 51
2.7E+002
  0
LINE
  8
2
  6
CONTINUOUS
 62
150
 10
1.1899725E+002
 20
1.6558494E+002
 11
1.4299727E+002
 21
1.6558494E+002
  0
ARC
  8
2
  6
CONTINUOUS
 62
150
 10
1.1899725E+002
 20
1.4308493E+002
 40
2.5
 50
9.0E+001
 51
2.7E+002
  0
LINE
  8
2
  6
CONTINUOUS
 62
150
 10
1.1899725E+002
 20
1.4558492E+002
 11
1.4299727E+002
 21
1.4558492E+002
  0
ARC
  8
2
  6
CONTINUOUS
 62
150
 10
1.4299725E+002
 20
1.4308493E+002
 40
2.5
 50
2.7E+002
 51
4.5E+002
  0
LINE
  8
2
  6
CONTINUOUS
 62
150
 10
1.4299727E+002
 20
1.4058494E+002
 11
1.1899725E+002
 21
1.4058494E+002
  0
LINE
  8
2
  6
CONTINUOUS
 62
6
 10
1.6399725E+002
 20
1.3708493E+002
 11
1.6349725E+002
 21
1.3708493E+002
  0
LINE
  8
2
  6
CONTINUOUS
 62
6
 10
1.5249725E+002
 20
1.3708493E+002
 11
1.6349725E+002
 21
1.3708493E+002
  0
LINE
  8
2
  6
CONTINUOUS
 62
6
 10
1.6349725E+002
 20
1.6908493E+002
 11
1.5249725E+002
 21
1.6908493E+002
  0
LINE
  8
2
  6
CONTINUOUS
 62
6
 10
1.6349725E+002
 20
1.6908493E+002
 11
1.6399725E+002
 21
1.6908493E+002
  0
LINE
  8
2
  6
CONTINUOUS
 62
6
 10
1.6449725E+002
 20
1.6858493E+002
 11
1.6449725E+002
 21
1.3758493E+002
  0
ARC
  8
2
  6
CONTINUOUS
 62
6
 10
1.6399725E+002
 20
1.3758493E+002
 40
5.0E-001
 50
2.7E+002
 51
3.6E+002
  0
ARC
  8
2
  6
CONTINUOUS
 62
6
 10
1.6399725E+002
 20
1.6858493E+002
 40
5.0E-001
 50
0.0
 51
9.0E+001
  0
POLYLINE
  8
2
  6
CONTINUOUS
 62
6
 66
1
 40
0.0
 41
0.0
 70
2
  0
VERTEX
  8
2
 42
0.0
 10
1.6449724E+002
 20
1.6517792E+002
 70
0
  0
VERTEX
  8
2
 42
-1.5114E-006
 10
1.6449725E+002
 20
1.6518135E+002
 70
1
  0
VERTEX
  8
2
 42
-1.5722E-006
 10
1.6449725E+002
 20
1.6518477E+002
 70
0
  0
VERTEX
  8
2
 42
-1.5347E-006
 10
1.6449725E+002
 20
1.6518818E+002
 70
1
  0
VERTEX
  8
2
 42
-1.3831E-006
 10
1.6449725E+002
 20
1.6519158E+002
 70
0
  0
VERTEX
  8
2
 42
-1.2722E-006
 10
1.6449725E+002
 20
1.6519496E+002
 70
1
  0
VERTEX
  8
2
 42
-1.1711E-006
 10
1.6449725E+002
 20
1.6519834E+002
 70
0
  0
VERTEX
  8
2
 42
-1.0754E-006
 10
1.6449725E+002
 20
1.652017E+002
 70
1
  0
VERTEX
  8
2
 42
-9.579E-007
 10
1.6449725E+002
 20
1.6520505E+002
 70
0
  0
VERTEX
  8
2
 42
-8.549E-007
 10
1.6449725E+002
 20
1.652084E+002
 70
1
  0
VERTEX
  8
2
 42
-7.382E-007
 10
1.6449725E+002
 20
1.6521173E+002
 70
0
  0
VERTEX
  8
2
 42
-6.34E-007
 10
1.6449725E+002
 20
1.6521505E+002
 70
1
  0
VERTEX
  8
2
 42
-5.141E-007
 10
1.6449725E+002
 20
1.6521837E+002
 70
0
  0
VERTEX
  8
2
 42
-4.074E-007
 10
1.6449725E+002
 20
1.6522168E+002
 70
1
  0
VERTEX
  8
2
 42
-2.858E-007
 10
1.6449726E+002
 20
1.6522497E+002
 70
0
  0
VERTEX
  8
2
 42
-1.771E-007
 10
1.6449726E+002
 20
1.6522827E+002
 70
1
  0
VERTEX
  8
2
 42
-5.37E-008
 10
1.6449726E+002
 20
1.6523155E+002
 70
0
  0
VERTEX
  8
2
 42
5.66E-008
 10
1.6449726E+002
 20
1.6523483E+002
 70
1
  0
VERTEX
  8
2
 42
1.816E-007
 10
1.6449726E+002
 20
1.652381E+002
 70
0
  0
VERTEX
  8
2
 42
2.93E-007
 10
1.6449726E+002
 20
1.6524136E+002
 70
1
  0
VERTEX
  8
2
 42
4.192E-007
 10
1.6449726E+002
 20
1.6524462E+002
 70
0
  0
VERTEX
  8
2
 42
5.319E-007
 10
1.6449726E+002
 20
1.6524787E+002
 70
1
  0
VERTEX
  8
2
 42
6.59E-007
 10
1.6449726E+002
 20
1.6525112E+002
 70
0
  0
VERTEX
  8
2
 42
7.722E-007
 10
1.6449726E+002
 20
1.6525436E+002
 70
1
  0
VERTEX
  8
2
 42
8.999E-007
 10
1.6449726E+002
 20
1.652576E+002
 70
0
  0
VERTEX
  8
2
 42
1.0136E-006
 10
1.6449726E+002
 20
1.6526084E+002
 70
1
  0
VERTEX
  8
2
 42
1.1416E-006
 10
1.6449727E+002
 20
1.6526407E+002
 70
0
  0
VERTEX
  8
2
 42
1.255E-006
 10
1.6449727E+002
 20
1.652673E+002
 70
1
  0
VERTEX
  8
2
 42
1.382E-006
 10
1.6449727E+002
 20
1.6527052E+002
 70
0
  0
VERTEX
  8
2
 42
1.4964E-006
 10
1.6449727E+002
 20
1.6527374E+002
 70
1
  0
VERTEX
  8
2
 42
1.6268E-006
 10
1.6449727E+002
 20
1.6527696E+002
 70
0
  0
VERTEX
  8
2
 42
1.7357E-006
 10
1.6449727E+002
 20
1.6528018E+002
 70
1
  0
VERTEX
  8
2
 42
1.8503E-006
 10
1.6449727E+002
 20
1.652834E+002
 70
0
  0
VERTEX
  8
2
 42
1.9777E-006
 10
1.6449727E+002
 20
1.6528662E+002
 70
1
  0
VERTEX
  8
2
 42
2.1493E-006
 10
1.6449727E+002
 20
1.6528983E+002
 70
0
  0
VERTEX
  8
2
 42
2.1581E-006
 10
1.6449727E+002
 20
1.6529305E+002
 70
1
  0
VERTEX
  8
2
 42
2.0064E-006
 10
1.6449727E+002
 20
1.6529626E+002
 70
0
  0
VERTEX
  8
2
 42
1.7687E-006
 10
1.6449727E+002
 20
1.6529948E+002
 70
1
  0
VERTEX
  8
2
 42
1.3841E-006
 10
1.6449727E+002
 20
1.653027E+002
 70
0
  0
VERTEX
  8
2
 42
1.0652E-006
 10
1.6449727E+002
 20
1.6530591E+002
 70
1
  0
VERTEX
  8
2
 42
7.306E-007
 10
1.6449727E+002
 20
1.6530913E+002
 70
0
  0
VERTEX
  8
2
 42
4.281E-007
 10
1.6449727E+002
 20
1.6531234E+002
 70
1
  0
VERTEX
  8
2
 42
8.09E-008
 10
1.6449727E+002
 20
1.6531556E+002
 70
0
  0
VERTEX
  8
2
 42
-2.258E-007
 10
1.6449727E+002
 20
1.6531878E+002
 70
1
  0
VERTEX
  8
2
 42
-5.7E-007
 10
1.6449728E+002
 20
1.6532199E+002
 70
0
  0
VERTEX
  8
2
 42
-8.753E-007
 10
1.6449728E+002
 20
1.6532521E+002
 70
1
  0
VERTEX
  8
2
 42
-1.2197E-006
 10
1.6449728E+002
 20
1.6532842E+002
 70
0
  0
VERTEX
  8
2
 42
-1.5266E-006
 10
1.6449728E+002
 20
1.6533164E+002
 70
1
  0
VERTEX
  8
2
 42
-1.8744E-006
 10
1.6449728E+002
 20
1.6533485E+002
 70
0
  0
VERTEX
  8
2
 42
-2.1767E-006
 10
1.6449728E+002
 20
1.6533807E+002
 70
1
  0
VERTEX
  8
2
 42
-2.5102E-006
 10
1.6449728E+002
 20
1.6534128E+002
 70
0
  0
VERTEX
  8
2
 42
-2.8316E-006
 10
1.6449728E+002
 20
1.653445E+002
 70
1
  0
VERTEX
  8
2
 42
-3.2224E-006
 10
1.6449728E+002
 20
1.6534771E+002
 70
0
  0
VERTEX
  8
2
 42
-3.37E-006
 10
1.6449728E+002
 20
1.6535093E+002
 70
1
  0
VERTEX
  8
2
 42
-3.3119E-006
 10
1.6449728E+002
 20
1.6535414E+002
 70
0
  0
VERTEX
  8
2
 42
-3.1956E-006
 10
1.6449728E+002
 20
1.6535736E+002
 70
1
  0
VERTEX
  8
2
 42
-2.9914E-006
 10
1.6449728E+002
 20
1.6536057E+002
 70
0
  0
VERTEX
  8
2
 42
-2.8258E-006
 10
1.6449728E+002
 20
1.6536378E+002
 70
1
  0
VERTEX
  8
2
 42
-2.6561E-006
 10
1.6449728E+002
 20
1.65367E+002
 70
0
  0
VERTEX
  8
2
 42
-2.5019E-006
 10
1.6449729E+002
 20
1.6537021E+002
 70
1
  0
VERTEX
  8
2
 42
-2.3233E-006
 10
1.6449729E+002
 20
1.6537342E+002
 70
0
  0
VERTEX
  8
2
 42
-2.166E-006
 10
1.6449729E+002
 20
1.6537664E+002
 70
1
  0
VERTEX
  8
2
 42
-1.9896E-006
 10
1.6449729E+002
 20
1.6537985E+002
 70
0
  0
VERTEX
  8
2
 42
-1.8329E-006
 10
1.6449729E+002
 20
1.6538306E+002
 70
1
  0
VERTEX
  8
2
 42
-1.6558E-006
 10
1.6449729E+002
 20
1.6538627E+002
 70
0
  0
VERTEX
  8
2
 42
-1.4988E-006
 10
1.6449729E+002
 20
1.6538949E+002
 70
1
  0
VERTEX
  8
2
 42
-1.3219E-006
 10
1.6449729E+002
 20
1.653927E+002
 70
0
  0
VERTEX
  8
2
 42
-1.1648E-006
 10
1.6449729E+002
 20
1.6539591E+002
 70
1
  0
VERTEX
  8
2
 42
-9.874E-007
 10
1.6449729E+002
 20
1.6539912E+002
 70
0
  0
VERTEX
  8
2
 42
-8.307E-007
 10
1.644973E+002
 20
1.6540234E+002
 70
1
  0
VERTEX
  8
2
 42
-6.547E-007
 10
1.644973E+002
 20
1.6540555E+002
 70
0
  0
VERTEX
  8
2
 42
-6.308E-007
 10
1.644973E+002
 20
1.6540876E+002
 70
1
  0
VERTEX
  8
2
 42
-7.53E-007
 10
1.644973E+002
 20
1.6541197E+002
 70
0
  0
VERTEX
  8
2
 42
-8.66E-007
 10
1.644973E+002
 20
1.6541519E+002
 70
1
  0
VERTEX
  8
2
 42
-9.982E-007
 10
1.644973E+002
 20
1.654184E+002
 70
0
  0
VERTEX
  8
2
 42
-1.1116E-006
 10
1.644973E+002
 20
1.6542161E+002
 70
1
  0
VERTEX
  8
2
 42
-1.2347E-006
 10
1.644973E+002
 20
1.6542482E+002
 70
0
  0
VERTEX
  8
2
 42
-1.3584E-006
 10
1.6449731E+002
 20
1.6542803E+002
 70
1
  0
VERTEX
  8
2
 42
-1.5144E-006
 10
1.6449731E+002
 20
1.6543123E+002
 70
0
  0
VERTEX
  8
2
 42
-1.598E-006
 10
1.6449731E+002
 20
1.6543444E+002
 70
1
  0
VERTEX
  8
2
 42
-1.6299E-006
 10
1.6449731E+002
 20
1.6543764E+002
 70
0
  0
VERTEX
  8
2
 42
-1.8777E-006
 10
1.6449731E+002
 20
1.6544084E+002
 70
1
  0
VERTEX
  8
2
 42
-2.4047E-006
 10
1.6449731E+002
 20
1.6544404E+002
 70
0
  0
VERTEX
  8
2
 42
-1.565E-006
 10
1.6449731E+002
 20
1.6544724E+002
 70
1
  0
VERTEX
  8
2
 42
8.616E-007
 10
1.6449731E+002
 20
1.6545043E+002
 70
0
  0
VERTEX
  8
2
 42
3.7922E-006
 10
1.6449732E+002
 20
1.6545362E+002
 70
1
  0
VERTEX
  8
2
 42
7.9848E-006
 10
1.6449732E+002
 20
1.6545681E+002
 70
0
  0
VERTEX
  8
2
 42
1.15658E-005
 10
1.6449732E+002
 20
1.6545998E+002
 70
1
  0
VERTEX
  8
2
 42
1.5442E-005
 10
1.6449732E+002
 20
1.6546315E+002
 70
0
  0
VERTEX
  8
2
 42
1.89774E-005
 10
1.6449732E+002
 20
1.6546631E+002
 70
1
  0
VERTEX
  8
2
 42
2.30508E-005
 10
1.6449732E+002
 20
1.6546946E+002
 70
0
  0
VERTEX
  8
2
 42
2.6743E-005
 10
1.6449732E+002
 20
1.654726E+002
 70
1
  0
VERTEX
  8
2
 42
3.09471E-005
 10
1.6449732E+002
 20
1.6547573E+002
 70
0
  0
VERTEX
  8
2
 42
3.47278E-005
 10
1.6449732E+002
 20
1.6547885E+002
 70
1
  0
VERTEX
  8
2
 42
3.8954E-005
 10
1.6449732E+002
 20
1.6548194E+002
 70
0
  0
VERTEX
  8
2
 42
4.25357E-005
 10
1.6449732E+002
 20
1.6548503E+002
 70
1
  0
VERTEX
  8
2
 42
4.62989E-005
 10
1.6449731E+002
 20
1.6548809E+002
 70
0
  0
VERTEX
  8
2
 42
5.07466E-005
 10
1.6449731E+002
 20
1.6549114E+002
 70
1
  0
VERTEX
  8
2
 42
5.66059E-005
 10
1.6449731E+002
 20
1.6549417E+002
 70
0
  0
VERTEX
  8
2
 42
5.85778E-005
 10
1.644973E+002
 20
1.6549718E+002
 70
1
  0
VERTEX
  8
2
 42
5.78789E-005
 10
1.644973E+002
 20
1.6550015E+002
 70
0
  0
VERTEX
  8
2
 42
5.10533E-005
 10
1.6449729E+002
 20
1.6550309E+002
 70
1
  0
VERTEX
  8
2
 42
3.22063E-005
 10
1.6449729E+002
 20
1.6550605E+002
 70
0
  0
VERTEX
  8
2
 42
2.34521E-005
 10
1.6449728E+002
 20
1.6550904E+002
 70
1
  0
VERTEX
  8
2
 42
3.02826E-005
 10
1.6449728E+002
 20
1.6551184E+002
 70
0
  0
VERTEX
  8
2
 42
-8.4463E-006
 10
1.6449727E+002
 20
1.6551435E+002
 70
1
  0
VERTEX
  8
2
 42
-7.3972E-005
 10
1.6449726E+002
 20
1.6551754E+002
 70
0
  0
VERTEX
  8
2
 42
-4.05974E-005
 10
1.6449726E+002
 20
1.6552239E+002
 70
1
  0
VERTEX
  8
2
 42
-1.85763E-005
 10
1.6449724E+002
 20
1.6552872E+002
 70
0
  0
SEQEND
  0
LINE
  8
2
  6
CONTINUOUS
 62
40
 10
1.4949725E+002
 20
8.5584934E+001
 11
1.4949725E+002
 21
2.2058493E+002
  0
LINE
  8
2
  6
CONTINUOUS
 62
40
 10
1.5249725E+002
 20
2.2058493E+002
 11
1.5249725E+002
 21
8.5584934E+001
  0
LINE
  8
2
  6
CONTINUOUS
 62
40
 10
1.4949725E+002
 20
2.2058493E+002
 11
1.5249725E+002
 21
2.2058493E+002
  0
LINE
  8
2
  6
CONTINUOUS
 62
40
 10
1.4949725E+002
 20
8.5584934E+001
 11
1.5249725E+002
 21
8.5584934E+001
  0
LINE
  8
3
  6
CONTINUOUS
 62
40
 10
5.2320494E+001
 20
8.5584934E+001
 11
5.2320494E+001
 21
2.2058493E+002
  0
LINE
  8
3
  6
CONTINUOUS
 62
40
 10
5.2320494E+001
 20
2.2058493E+002
 11
3.2320494E+001
 21
2.2058493E+002
  0
LINE
  8
3
  6
CONTINUOUS
 62
40
 10
3.2320494E+001
 20
2.2058493E+002
 11
3.2320494E+001
 21
8.5584934E+001
  0
LINE
  8
3
  6
CONTINUOUS
 62
40
 10
3.2320494E+001
 20
8.5584934E+001
 11
5.2320494E+001
 21
8.5584934E+001
  0
CIRCLE
  8
3
  6
CONTINUOUS
 62
40
 10
4.2320494E+001
 20
9.8584934E+001
 40
2.75
  0
CIRCLE
  8
3
  6
CONTINUOUS
 62
40
 10
4.2320494E+001
 20
2.0758493E+002
 40
2.75
  0
LINE
  8
3
  6
CONTINUOUS
 62
40
 10
3.8420494E+001
 20
1.6618493E+002
 11
4.8920494E+001
 21
1.6618493E+002
  0
ARC
  8
3
  6
CONTINUOUS
 62
40
 10
3.8420494E+001
 20
1.6668493E+002
 40
5.0E-001
 50
1.8E+002
 51
2.7E+002
  0
LINE
  8
3
  6
CONTINUOUS
 62
40
 10
3.7920494E+001
 20
1.6868493E+002
 11
3.7920494E+001
 21
1.6668493E+002
  0
LINE
  8
3
  6
CONTINUOUS
 62
40
 10
3.5720494E+001
 20
1.6918493E+002
 11
3.7420494E+001
 21
1.6918493E+002
  0
LINE
  8
3
  6
CONTINUOUS
 62
40
 10
3.5220494E+001
 20
1.6868493E+002
 11
3.5220494E+001
 21
1.3748493E+002
  0
LINE
  8
3
  6
CONTINUOUS
 62
40
 10
3.5720494E+001
 20
1.3698493E+002
 11
3.7420494E+001
 21
1.3698493E+002
  0
LINE
  8
3
  6
CONTINUOUS
 62
40
 10
3.7920494E+001
 20
1.3948493E+002
 11
3.7920494E+001
 21
1.3748493E+002
  0
ARC
  8
3
  6
CONTINUOUS
 62
40
 10
3.8420494E+001
 20
1.3948493E+002
 40
5.0E-001
 50
9.0E+001
 51
1.8E+002
  0
LINE
  8
3
  6
CONTINUOUS
 62
40
 10
4.8920494E+001
 20
1.3998493E+002
 11
3.8420494E+001
 21
1.3998493E+002
  0
LINE
  8
3
  6
CONTINUOUS
 62
40
 10
4.9420494E+001
 20
1.6568493E+002
 11
4.9420494E+001
 21
1.4048493E+002
  0
ARC
  8
3
  6
CONTINUOUS
 62
40
 10
4.8920494E+001
 20
1.6568493E+002
 40
5.0E-001
 50
0.0
 51
9.0E+001
  0
ARC
  8
3
  6
CONTINUOUS
 62
40
 10
3.7420494E+001
 20
1.6868493E+002
 40
5.0E-001
 50
0.0
 51
9.0E+001
  0
ARC
  8
3
  6
CONTINUOUS
 62
40
 10
3.5720494E+001
 20
1.6868493E+002
 40
5.0E-001
 50
1.431301E+002
 51
1.8E+002
  0
ARC
  8
3
  6
CONTINUOUS
 62
40
 10
3.5720494E+001
 20
1.6868493E+002
 40
5.0E-001
 50
9.0E+001
 51
1.2580136E+002
  0
ARC
  8
3
  6
CONTINUOUS
 62
40
 10
3.5720494E+001
 20
1.3748493E+002
 40
5.0E-001
 50
2.331301E+002
 51
2.7E+002
  0
ARC
  8
3
  6
CONTINUOUS
 62
40
 10
3.5720494E+001
 20
1.3748493E+002
 40
5.0E-001
 50
1.8E+002
 51
2.168699E+002
  0
ARC
  8
3
  6
CONTINUOUS
 62
40
 10
3.7420494E+001
 20
1.3748493E+002
 40
5.0E-001
 50
2.7E+002
 51
3.6E+002
  0
ARC
  8
3
  6
CONTINUOUS
 62
40
 10
4.8920494E+001
 20
1.4048493E+002
 40
5.0E-001
 50
2.7E+002
 51
3.6E+002
  0
CIRCLE
  8
3
  6
CONTINUOUS
 62
40
 10
4.2320494E+001
 20
1.7608493E+002
 40
4.0
  0
CIRCLE
  8
3
  6
CONTINUOUS
 62
40
 10
4.2320494E+001
 20
1.3008493E+002
 40
4.0
  0
CIRCLE
  8
3
  6
CONTINUOUS
 62
40
 10
4.2320494E+001
 20
2.0758493E+002
 40
5.2
  0
CIRCLE
  8
3
  6
CONTINUOUS
 62
40
 10
4.2320494E+001
 20
9.8584934E+001
 40
5.2
  0
CIRCLE
  8
3
  6
CONTINUOUS
 62
150
 10
4.2320494E+001
 20
1.7608493E+002
 40
3.75
  0
LINE
  8
3
  6
CONTINUOUS
 62
30
 10
4.339367E+001
 20
1.7568491E+002
 11
4.2720514E+001
 21
1.7568491E+002
  0
LINE
  8
3
  6
CONTINUOUS
 62
30
 10
4.2720514E+001
 20
1.7568491E+002
 11
4.2720514E+001
 21
1.7501175E+002
  0
ARC
  8
3
  6
CONTINUOUS
 62
30
 10
4.2320494E+001
 20
1.7608493E+002
 40
1.1452995
 50
2.4955712E+002
 51
2.9044288E+002
  0
LINE
  8
3
  6
CONTINUOUS
 62
30
 10
4.1920477E+001
 20
1.7501175E+002
 11
4.1920477E+001
 21
1.7568491E+002
  0
LINE
  8
3
  6
CONTINUOUS
 62
30
 10
4.1920477E+001
 20
1.7568491E+002
 11
4.1247321E+001
 21
1.7568491E+002
  0
ARC
  8
3
  6
CONTINUOUS
 62
30
 10
4.2320494E+001
 20
1.7608493E+002
 40
1.1452995
 50
1.5955712E+002
 51
2.0044288E+002
  0
LINE
  8
3
  6
CONTINUOUS
 62
30
 10
4.1247321E+001
 20
1.7648495E+002
 11
4.1920477E+001
 21
1.7648495E+002
  0
LINE
  8
3
  6
CONTINUOUS
 62
30
 10
4.1920477E+001
 20
1.7648495E+002
 11
4.1920477E+001
 21
1.771581E+002
  0
ARC
  8
3
  6
CONTINUOUS
 62
30
 10
4.2320494E+001
 20
1.7608493E+002
 40
1.1452995
 50
6.9557119E+001
 51
1.1044288E+002
  0
LINE
  8
3
  6
CONTINUOUS
 62
30
 10
4.2720514E+001
 20
1.771581E+002
 11
4.2720514E+001
 21
1.7648495E+002
  0
LINE
  8
3
  6
CONTINUOUS
 62
30
 10
4.2720514E+001
 20
1.7648495E+002
 11
4.339367E+001
 21
1.7648495E+002
  0
ARC
  8
3
  6
CONTINUOUS
 62
30
 10
4.2320494E+001
 20
1.7608493E+002
 40
1.1452995
 50
3.3955712E+002
 51
3.8044288E+002
  0
LINE
  8
3
  6
CONTINUOUS
 62
30
 10
4.4547464E+001
 20
1.7550994E+002
 11
4.2895482E+001
 21
1.7550994E+002
  0
LINE
  8
3
  6
CONTINUOUS
 62
30
 10
4.2720514E+001
 20
1.7568491E+002
 11
4.2895482E+001
 21
1.7550994E+002
  0
POLYLINE
  8
3
  6
CONTINUOUS
 62
30
 66
1
 40
0.0
 41
0.0
 70
2
  0
VERTEX
  8
3
 42
0.0
 10
4.4547464E+001
 20
1.7550994E+002
 70
0
  0
VERTEX
  8
3
 42
9.6643E-006
 10
4.4493445E+001
 20
1.7551818E+002
 70
1
  0
VERTEX
  8
3
 42
1.02277E-005
 10
4.4440831E+001
 20
1.755262E+002
 70
0
  0
VERTEX
  8
3
 42
1.0778E-005
 10
4.4389688E+001
 20
1.7553399E+002
 70
1
  0
VERTEX
  8
3
 42
1.1201E-005
 10
4.4339898E+001
 20
1.7554158E+002
 70
0
  0
VERTEX
  8
3
 42
1.17083E-005
 10
4.4291445E+001
 20
1.7554895E+002
 70
1
  0
VERTEX
  8
3
 42
1.2241E-005
 10
4.4244226E+001
 20
1.7555614E+002
 70
0
  0
VERTEX
  8
3
 42
1.28291E-005
 10
4.4198248E+001
 20
1.7556314E+002
 70
1
  0
VERTEX
  8
3
 42
1.33967E-005
 10
4.4153417E+001
 20
1.7556996E+002
 70
0
  0
VERTEX
  8
3
 42
1.40352E-005
 10
4.4109734E+001
 20
1.755766E+002
 70
1
  0
VERTEX
  8
3
 42
1.46739E-005
 10
4.4067114E+001
 20
1.7558308E+002
 70
0
  0
VERTEX
  8
3
 42
1.53771E-005
 10
4.4025561E+001
 20
1.755894E+002
 70
1
  0
VERTEX
  8
3
 42
1.60724E-005
 10
4.3984995E+001
 20
1.7559556E+002
 70
0
  0
VERTEX
  8
3
 42
1.6864E-005
 10
4.3945423E+001
 20
1.7560157E+002
 70
1
  0
VERTEX
  8
3
 42
1.76824E-005
 10
4.3906768E+001
 20
1.7560744E+002
 70
0
  0
VERTEX
  8
3
 42
1.85001E-005
 10
4.3869035E+001
 20
1.7561316E+002
 70
1
  0
VERTEX
  8
3
 42
1.92453E-005
 10
4.3832166E+001
 20
1.7561875E+002
 70
0
  0
VERTEX
  8
3
 42
2.03771E-005
 10
4.3796172E+001
 20
1.756242E+002
 70
1
  0
VERTEX
  8
3
 42
2.18222E-005
 10
4.376095E+001
 20
1.7562954E+002
 70
0
  0
VERTEX
  8
3
 42
2.22468E-005
 10
4.3726494E+001
 20
1.7563475E+002
 70
1
  0
VERTEX
  8
3
 42
2.16751E-005
 10
4.3692899E+001
 20
1.7563983E+002
 70
0
  0
VERTEX
  8
3
 42
2.51891E-005
 10
4.3660224E+001
 20
1.7564477E+002
 70
1
  0
VERTEX
  8
3
 42
3.18914E-005
 10
4.3627813E+001
 20
1.7564967E+002
 70
0
  0
VERTEX
  8
3
 42
2.5382E-005
 10
4.3595464E+001
 20
1.7565455E+002
 70
1
  0
VERTEX
  8
3
 42
8.4033E-006
 10
4.3565508E+001
 20
1.7565907E+002
 70
0
  0
VERTEX
  8
3
 42
3.84083E-005
 10
4.3538771E+001
 20
1.756631E+002
 70
1
  0
VERTEX
  8
3
 42
7.30329E-005
 10
4.3505817E+001
 20
1.7566806E+002
 70
0
  0
VERTEX
  8
3
 42
3.84341E-005
 10
4.3456805E+001
 20
1.7567543E+002
 70
1
  0
VERTEX
  8
3
 42
2.1006E-005
 10
4.339367E+001
 20
1.7568491E+002
 70
0
  0
SEQEND
  0
LINE
  8
3
  6
CONTINUOUS
 62
30
 10
4.2895482E+001
 20
1.7550994E+002
 11
4.2895482E+001
 21
1.7385796E+002
  0
POLYLINE
  8
3
  6
CONTINUOUS
 62
30
 66
1
 40
0.0
 41
0.0
 70
2
  0
VERTEX
  8
3
 42
0.0
 10
4.2720514E+001
 20
1.7501175E+002
 70
0
  0
VERTEX
  8
3
 42
3.79503E-005
 10
4.2724591E+001
 20
1.7498458E+002
 70
1
  0
VERTEX
  8
3
 42
3.65659E-005
 10
4.2728756E+001
 20
1.7495684E+002
 70
0
  0
VERTEX
  8
3
 42
3.4912E-005
 10
4.2733014E+001
 20
1.7492851E+002
 70
1
  0
VERTEX
  8
3
 42
3.30059E-005
 10
4.2737363E+001
 20
1.7489961E+002
 70
0
  0
VERTEX
  8
3
 42
3.12894E-005
 10
4.2741811E+001
 20
1.7487007E+002
 70
1
  0
VERTEX
  8
3
 42
2.97913E-005
 10
4.2746356E+001
 20
1.7483992E+002
 70
0
  0
VERTEX
  8
3
 42
2.83303E-005
 10
4.2751005E+001
 20
1.7480909E+002
 70
1
  0
VERTEX
  8
3
 42
2.69517E-005
 10
4.2755758E+001
 20
1.7477761E+002
 70
0
  0
VERTEX
  8
3
 42
2.56334E-005
 10
4.276062E+001
 20
1.7474542E+002
 70
1
  0
VERTEX
  8
3
 42
2.44257E-005
 10
4.2765593E+001
 20
1.7471253E+002
 70
0
  0
VERTEX
  8
3
 42
2.32442E-005
 10
4.2770683E+001
 20
1.7467888E+002
 70
1
  0
VERTEX
  8
3
 42
2.21499E-005
 10
4.2775889E+001
 20
1.7464448E+002
 70
0
  0
VERTEX
  8
3
 42
2.1111E-005
 10
4.2781221E+001
 20
1.7460927E+002
 70
1
  0
VERTEX
  8
3
 42
2.01816E-005
 10
4.2786677E+001
 20
1.7457326E+002
 70
0
  0
VERTEX
  8
3
 42
1.91789E-005
 10
4.2792268E+001
 20
1.7453638E+002
 70
1
  0
VERTEX
  8
3
 42
1.81998E-005
 10
4.279799E+001
 20
1.7449866E+002
 70
0
  0
VERTEX
  8
3
 42
1.75134E-005
 10
4.2803852E+001
 20
1.7446003E+002
 70
1
  0
VERTEX
  8
3
 42
1.70806E-005
 10
4.2809865E+001
 20
1.7442043E+002
 70
0
  0
VERTEX
  8
3
 42
1.5793E-005
 10
4.2816043E+001
 20
1.7437976E+002
 70
1
  0
VERTEX
  8
3
 42
1.40848E-005
 10
4.2822341E+001
 20
1.7433831E+002
 70
0
  0
VERTEX
  8
3
 42
1.49354E-005
 10
4.2828755E+001
 20
1.7429612E+002
 70
1
  0
VERTEX
  8
3
 42
1.70202E-005
 10
4.2835463E+001
 20
1.7425201E+002
 70
0
  0
VERTEX
  8
3
 42
1.21308E-005
 10
4.284254E+001
 20
1.7420549E+002
 70
1
  0
VERTEX
  8
3
 42
3.8023E-006
 10
4.2849281E+001
 20
1.741612E+002
 70
0
  0
VERTEX
  8
3
 42
1.64739E-005
 10
4.2855457E+001
 20
1.7412062E+002
 70
1
  0
VERTEX
  8
3
 42
2.59391E-005
 10
4.2863849E+001
 20
1.7406553E+002
 70
0
  0
VERTEX
  8
3
 42
1.15709E-005
 10
4.2877386E+001
 20
1.7397668E+002
 70
1
  0
VERTEX
  8
3
 42
5.8667E-006
 10
4.2895482E+001
 20
1.7385796E+002
 70
0
  0
SEQEND
  0
ARC
  8
3
  6
CONTINUOUS
 62
30
 10
4.2320494E+001
 20
1.7608493E+002
 40
2.3
 50
2.5552249E+002
 51
2.8447751E+002
  0
POLYLINE
  8
3
  6
CONTINUOUS
 62
30
 66
1
 40
0.0
 41
0.0
 70
2
  0
VERTEX
  8
3
 42
0.0
 10
4.1920477E+001
 20
1.7501175E+002
 70
0
  0
VERTEX
  8
3
 42
-3.77547E-005
 10
4.1916401E+001
 20
1.7498458E+002
 70
1
  0
VERTEX
  8
3
 42
-3.63773E-005
 10
4.1912235E+001
 20
1.7495684E+002
 70
0
  0
VERTEX
  8
3
 42
-3.4732E-005
 10
4.1907977E+001
 20
1.7492851E+002
 70
1
  0
VERTEX
  8
3
 42
-3.28358E-005
 10
4.1903627E+001
 20
1.7489961E+002
 70
0
  0
VERTEX
  8
3
 42
-3.11281E-005
 10
4.1899179E+001
 20
1.7487007E+002
 70
1
  0
VERTEX
  8
3
 42
-2.96379E-005
 10
4.1894634E+001
 20
1.7483992E+002
 70
0
  0
VERTEX
  8
3
 42
-2.81843E-005
 10
4.1889985E+001
 20
1.7480909E+002
 70
1
  0
VERTEX
  8
3
 42
-2.68128E-005
 10
4.1885233E+001
 20
1.7477761E+002
 70
0
  0
VERTEX
  8
3
 42
-2.55012E-005
 10
4.188037E+001
 20
1.7474542E+002
 70
1
  0
VERTEX
  8
3
 42
-2.42998E-005
 10
4.1875397E+001
 20
1.7471253E+002
 70
0
  0
VERTEX
  8
3
 42
-2.31246E-005
 10
4.1870307E+001
 20
1.7467888E+002
 70
1
  0
VERTEX
  8
3
 42
-2.20358E-005
 10
4.1865101E+001
 20
1.7464448E+002
 70
0
  0
VERTEX
  8
3
 42
-2.10022E-005
 10
4.1859769E+001
 20
1.7460927E+002
 70
1
  0
VERTEX
  8
3
 42
-2.00776E-005
 10
4.1854313E+001
 20
1.7457326E+002
 70
0
  0
VERTEX
  8
3
 42
-1.908E-005
 10
4.1848721E+001
 20
1.7453638E+002
 70
1
  0
VERTEX
  8
3
 42
-1.8106E-005
 10
4.1842999E+001
 20
1.7449866E+002
 70
0
  0
VERTEX
  8
3
 42
-1.74231E-005
 10
4.1837138E+001
 20
1.7446003E+002
 70
1
  0
VERTEX
  8
3
 42
-1.69926E-005
 10
4.1831125E+001
 20
1.7442043E+002
 70
0
  0
VERTEX
  8
3
 42
-1.57117E-005
 10
4.1824947E+001
 20
1.7437976E+002
 70
1
  0
VERTEX
  8
3
 42
-1.40122E-005
 10
4.1818649E+001
 20
1.7433831E+002
 70
0
  0
VERTEX
  8
3
 42
-1.48584E-005
 10
4.1812235E+001
 20
1.7429612E+002
 70
1
  0
VERTEX
  8
3
 42
-1.69326E-005
 10
4.1805527E+001
 20
1.7425201E+002
 70
0
  0
VERTEX
  8
3
 42
-1.20682E-005
 10
4.179845E+001
 20
1.7420549E+002
 70
1
  0
VERTEX
  8
3
 42
-3.7828E-006
 10
4.1791709E+001
 20
1.741612E+002
 70
0
  0
VERTEX
  8
3
 42
-1.6389E-005
 10
4.1785534E+001
 20
1.7412062E+002
 70
1
  0
VERTEX
  8
3
 42
-2.58054E-005
 10
4.1777142E+001
 20
1.7406553E+002
 70
0
  0
VERTEX
  8
3
 42
-1.15111E-005
 10
4.1763605E+001
 20
1.7397668E+002
 70
1
  0
VERTEX
  8
3
 42
-5.8363E-006
 10
4.174551E+001
 20
1.7385796E+002
 70
0
  0
SEQEND
  0
LINE
  8
3
  6
CONTINUOUS
 62
30
 10
4.174551E+001
 20
1.7385796E+002
 11
4.174551E+001
 21
1.7550994E+002
  0
LINE
  8
3
  6
CONTINUOUS
 62
30
 10
4.1920477E+001
 20
1.7568491E+002
 11
4.174551E+001
 21
1.7550994E+002
  0
LINE
  8
3
  6
CONTINUOUS
 62
30
 10
4.174551E+001
 20
1.7550994E+002
 11
4.0093528E+001
 21
1.7550994E+002
  0
POLYLINE
  8
3
  6
CONTINUOUS
 62
30
 66
1
 40
0.0
 41
0.0
 70
2
  0
VERTEX
  8
3
 42
0.0
 10
4.1247321E+001
 20
1.7568491E+002
 70
0
  0
VERTEX
  8
3
 42
3.83566E-005
 10
4.1220147E+001
 20
1.7568083E+002
 70
1
  0
VERTEX
  8
3
 42
3.69574E-005
 10
4.1192407E+001
 20
1.7567667E+002
 70
0
  0
VERTEX
  8
3
 42
3.5286E-005
 10
4.1164081E+001
 20
1.7567241E+002
 70
1
  0
VERTEX
  8
3
 42
3.33596E-005
 10
4.1135174E+001
 20
1.7566806E+002
 70
0
  0
VERTEX
  8
3
 42
3.16249E-005
 10
4.1105639E+001
 20
1.7566361E+002
 70
1
  0
VERTEX
  8
3
 42
3.01108E-005
 10
4.1075482E+001
 20
1.7565907E+002
 70
0
  0
VERTEX
  8
3
 42
2.86341E-005
 10
4.104466E+001
 20
1.7565442E+002
 70
1
  0
VERTEX
  8
3
 42
2.72408E-005
 10
4.1013177E+001
 20
1.7564967E+002
 70
0
  0
VERTEX
  8
3
 42
2.59084E-005
 10
4.0980986E+001
 20
1.756448E+002
 70
1
  0
VERTEX
  8
3
 42
2.46879E-005
 10
4.0948091E+001
 20
1.7563983E+002
 70
0
  0
VERTEX
  8
3
 42
2.34939E-005
 10
4.091444E+001
 20
1.7563474E+002
 70
1
  0
VERTEX
  8
3
 42
2.23878E-005
 10
4.088004E+001
 20
1.7562954E+002
 70
0
  0
VERTEX
  8
3
 42
2.13379E-005
 10
4.0844834E+001
 20
1.756242E+002
 70
1
  0
VERTEX
  8
3
 42
2.03983E-005
 10
4.0808823E+001
 20
1.7561875E+002
 70
0
  0
VERTEX
  8
3
 42
1.93849E-005
 10
4.0771945E+001
 20
1.7561316E+002
 70
1
  0
VERTEX
  8
3
 42
1.83952E-005
 10
4.0734222E+001
 20
1.7560744E+002
 70
0
  0
VERTEX
  8
3
 42
1.77017E-005
 10
4.0695595E+001
 20
1.7560157E+002
 70
1
  0
VERTEX
  8
3
 42
1.72641E-005
 10
4.0655995E+001
 20
1.7559556E+002
 70
0
  0
VERTEX
  8
3
 42
1.59629E-005
 10
4.0615321E+001
 20
1.7558938E+002
 70
1
  0
VERTEX
  8
3
 42
1.42362E-005
 10
4.0573876E+001
 20
1.7558308E+002
 70
0
  0
VERTEX
  8
3
 42
1.5096E-005
 10
4.0531682E+001
 20
1.7557667E+002
 70
1
  0
VERTEX
  8
3
 42
1.72033E-005
 10
4.0487573E+001
 20
1.7556996E+002
 70
0
  0
VERTEX
  8
3
 42
1.22612E-005
 10
4.0441059E+001
 20
1.7556288E+002
 70
1
  0
VERTEX
  8
3
 42
3.8432E-006
 10
4.0396765E+001
 20
1.7555614E+002
 70
0
  0
VERTEX
  8
3
 42
1.66511E-005
 10
4.0356188E+001
 20
1.7554997E+002
 70
1
  0
VERTEX
  8
3
 42
2.62182E-005
 10
4.0301092E+001
 20
1.7554158E+002
 70
0
  0
VERTEX
  8
3
 42
1.16953E-005
 10
4.0212251E+001
 20
1.7552804E+002
 70
1
  0
VERTEX
  8
3
 42
5.9298E-006
 10
4.0093528E+001
 20
1.7550994E+002
 70
0
  0
SEQEND
  0
ARC
  8
3
  6
CONTINUOUS
 62
30
 10
4.2320494E+001
 20
1.7608493E+002
 40
2.3
 50
1.6552249E+002
 51
1.9447751E+002
  0
POLYLINE
  8
3
  6
CONTINUOUS
 62
30
 66
1
 40
0.0
 41
0.0
 70
2
  0
VERTEX
  8
3
 42
0.0
 10
4.1247321E+001
 20
1.7648495E+002
 70
0
  0
VERTEX
  8
3
 42
-3.81554E-005
 10
4.1220147E+001
 20
1.7648902E+002
 70
1
  0
VERTEX
  8
3
 42
-3.67637E-005
 10
4.1192407E+001
 20
1.7649319E+002
 70
0
  0
VERTEX
  8
3
 42
-3.5101E-005
 10
4.1164081E+001
 20
1.7649745E+002
 70
1
  0
VERTEX
  8
3
 42
-3.31847E-005
 10
4.1135174E+001
 20
1.765018E+002
 70
0
  0
VERTEX
  8
3
 42
-3.1459E-005
 10
4.1105639E+001
 20
1.7650625E+002
 70
1
  0
VERTEX
  8
3
 42
-2.9953E-005
 10
4.1075482E+001
 20
1.7651079E+002
 70
0
  0
VERTEX
  8
3
 42
-2.8484E-005
 10
4.104466E+001
 20
1.7651544E+002
 70
1
  0
VERTEX
  8
3
 42
-2.7098E-005
 10
4.1013177E+001
 20
1.7652019E+002
 70
0
  0
VERTEX
  8
3
 42
-2.57727E-005
 10
4.0980986E+001
 20
1.7652506E+002
 70
1
  0
VERTEX
  8
3
 42
-2.45584E-005
 10
4.0948091E+001
 20
1.7653003E+002
 70
0
  0
VERTEX
  8
3
 42
-2.33707E-005
 10
4.091444E+001
 20
1.7653512E+002
 70
1
  0
VERTEX
  8
3
 42
-2.22703E-005
 10
4.088004E+001
 20
1.7654033E+002
 70
0
  0
VERTEX
  8
3
 42
-2.1226E-005
 10
4.0844834E+001
 20
1.7654566E+002
 70
1
  0
VERTEX
  8
3
 42
-2.02914E-005
 10
4.0808823E+001
 20
1.7655112E+002
 70
0
  0
VERTEX
  8
3
 42
-1.92832E-005
 10
4.0771945E+001
 20
1.7655671E+002
 70
1
  0
VERTEX
  8
3
 42
-1.82989E-005
 10
4.0734222E+001
 20
1.7656244E+002
 70
0
  0
VERTEX
  8
3
 42
-1.76089E-005
 10
4.0695595E+001
 20
1.765683E+002
 70
1
  0
VERTEX
  8
3
 42
-1.71737E-005
 10
4.0655995E+001
 20
1.7657431E+002
 70
0
  0
VERTEX
  8
3
 42
-1.58791E-005
 10
4.0615321E+001
 20
1.7658049E+002
 70
1
  0
VERTEX
  8
3
 42
-1.41617E-005
 10
4.0573876E+001
 20
1.7658679E+002
 70
0
  0
VERTEX
  8
3
 42
-1.5017E-005
 10
4.0531682E+001
 20
1.7659321E+002
 70
1
  0
VERTEX
  8
3
 42
-1.71132E-005
 10
4.0487573E+001
 20
1.7659992E+002
 70
0
  0
VERTEX
  8
3
 42
-1.2197E-005
 10
4.0441059E+001
 20
1.7660699E+002
 70
1
  0
VERTEX
  8
3
 42
-3.823E-006
 10
4.0396765E+001
 20
1.7661374E+002
 70
0
  0
VERTEX
  8
3
 42
-1.65639E-005
 10
4.0356188E+001
 20
1.7661991E+002
 70
1
  0
VERTEX
  8
3
 42
-2.60809E-005
 10
4.0301092E+001
 20
1.7662831E+002
 70
0
  0
VERTEX
  8
3
 42
-1.1634E-005
 10
4.0212251E+001
 20
1.7664185E+002
 70
1
  0
VERTEX
  8
3
 42
-5.8987E-006
 10
4.0093528E+001
 20
1.7665995E+002
 70
0
  0
SEQEND
  0
LINE
  8
3
  6
CONTINUOUS
 62
30
 10
4.0093528E+001
 20
1.7665995E+002
 11
4.174551E+001
 21
1.7665995E+002
  0
LINE
  8
3
  6
CONTINUOUS
 62
30
 10
4.1920477E+001
 20
1.7648495E+002
 11
4.174551E+001
 21
1.7665995E+002
  0
LINE
  8
3
  6
CONTINUOUS
 62
30
 10
4.174551E+001
 20
1.7665995E+002
 11
4.174551E+001
 21
1.783119E+002
  0
POLYLINE
  8
3
  6
CONTINUOUS
 62
30
 66
1
 40
0.0
 41
0.0
 70
2
  0
VERTEX
  8
3
 42
0.0
 10
4.1920477E+001
 20
1.771581E+002
 70
0
  0
VERTEX
  8
3
 42
3.78812E-005
 10
4.1916401E+001
 20
1.7718528E+002
 70
1
  0
VERTEX
  8
3
 42
3.64996E-005
 10
4.1912235E+001
 20
1.7721302E+002
 70
0
  0
VERTEX
  8
3
 42
3.48489E-005
 10
4.1907977E+001
 20
1.7724134E+002
 70
1
  0
VERTEX
  8
3
 42
3.29464E-005
 10
4.1903627E+001
 20
1.7727025E+002
 70
0
  0
VERTEX
  8
3
 42
3.12332E-005
 10
4.1899179E+001
 20
1.7729979E+002
 70
1
  0
VERTEX
  8
3
 42
2.9738E-005
 10
4.1894634E+001
 20
1.7732994E+002
 70
0
  0
VERTEX
  8
3
 42
2.82798E-005
 10
4.1889985E+001
 20
1.7736077E+002
 70
1
  0
VERTEX
  8
3
 42
2.69037E-005
 10
4.1885233E+001
 20
1.7739225E+002
 70
0
  0
VERTEX
  8
3
 42
2.5588E-005
 10
4.188037E+001
 20
1.7742444E+002
 70
1
  0
VERTEX
  8
3
 42
2.43824E-005
 10
4.1875397E+001
 20
1.7745733E+002
 70
0
  0
VERTEX
  8
3
 42
2.32032E-005
 10
4.1870307E+001
 20
1.7749099E+002
 70
1
  0
VERTEX
  8
3
 42
2.21109E-005
 10
4.1865101E+001
 20
1.7752539E+002
 70
0
  0
VERTEX
  8
3
 42
2.1074E-005
 10
4.1859769E+001
 20
1.7756059E+002
 70
1
  0
VERTEX
  8
3
 42
2.01461E-005
 10
4.1854313E+001
 20
1.775966E+002
 70
0
  0
VERTEX
  8
3
 42
1.91452E-005
 10
4.1848721E+001
 20
1.7763348E+002
 70
1
  0
VERTEX
  8
3
 42
1.8168E-005
 10
4.1842999E+001
 20
1.776712E+002
 70
0
  0
VERTEX
  8
3
 42
1.74829E-005
 10
4.1837138E+001
 20
1.7770983E+002
 70
1
  0
VERTEX
  8
3
 42
1.70509E-005
 10
4.1831125E+001
 20
1.7774943E+002
 70
0
  0
VERTEX
  8
3
 42
1.57657E-005
 10
4.1824947E+001
 20
1.777901E+002
 70
1
  0
VERTEX
  8
3
 42
1.40603E-005
 10
4.1818649E+001
 20
1.7783155E+002
 70
0
  0
VERTEX
  8
3
 42
1.49096E-005
 10
4.1812235E+001
 20
1.7787374E+002
 70
1
  0
VERTEX
  8
3
 42
1.69909E-005
 10
4.1805527E+001
 20
1.7791785E+002
 70
0
  0
VERTEX
  8
3
 42
1.21099E-005
 10
4.179845E+001
 20
1.7796437E+002
 70
1
  0
VERTEX
  8
3
 42
3.7958E-006
 10
4.1791709E+001
 20
1.7800866E+002
 70
0
  0
VERTEX
  8
3
 42
1.64456E-005
 10
4.1785534E+001
 20
1.7804924E+002
 70
1
  0
VERTEX
  8
3
 42
2.58946E-005
 10
4.1777142E+001
 20
1.7810433E+002
 70
0
  0
VERTEX
  8
3
 42
1.1551E-005
 10
4.1763605E+001
 20
1.7819317E+002
 70
1
  0
VERTEX
  8
3
 42
5.8566E-006
 10
4.174551E+001
 20
1.783119E+002
 70
0
  0
SEQEND
  0
ARC
  8
3
  6
CONTINUOUS
 62
30
 10
4.2320494E+001
 20
1.7608493E+002
 40
2.3
 50
7.5522488E+001
 51
1.0447751E+002
  0
POLYLINE
  8
3
  6
CONTINUOUS
 62
30
 66
1
 40
0.0
 41
0.0
 70
2
  0
VERTEX
  8
3
 42
0.0
 10
4.2720514E+001
 20
1.771581E+002
 70
0
  0
VERTEX
  8
3
 42
-3.80769E-005
 10
4.2724591E+001
 20
1.7718528E+002
 70
1
  0
VERTEX
  8
3
 42
-3.6688E-005
 10
4.2728756E+001
 20
1.7721302E+002
 70
0
  0
VERTEX
  8
3
 42
-3.50289E-005
 10
4.2733014E+001
 20
1.7724134E+002
 70
1
  0
VERTEX
  8
3
 42
-3.31166E-005
 10
4.2737363E+001
 20
1.7727025E+002
 70
0
  0
VERTEX
  8
3
 42
-3.13946E-005
 10
4.2741811E+001
 20
1.7729979E+002
 70
1
  0
VERTEX
  8
3
 42
-2.98917E-005
 10
4.2746356E+001
 20
1.7732994E+002
 70
0
  0
VERTEX
  8
3
 42
-2.84258E-005
 10
4.2751005E+001
 20
1.7736077E+002
 70
1
  0
VERTEX
  8
3
 42
-2.70426E-005
 10
4.2755758E+001
 20
1.7739225E+002
 70
0
  0
VERTEX
  8
3
 42
-2.572E-005
 10
4.276062E+001
 20
1.7742444E+002
 70
1
  0
VERTEX
  8
3
 42
-2.45083E-005
 10
4.2765593E+001
 20
1.7745733E+002
 70
0
  0
VERTEX
  8
3
 42
-2.3323E-005
 10
4.2770683E+001
 20
1.7749099E+002
 70
1
  0
VERTEX
  8
3
 42
-2.2225E-005
 10
4.2775889E+001
 20
1.7752539E+002
 70
0
  0
VERTEX
  8
3
 42
-2.11828E-005
 10
4.2781221E+001
 20
1.7756059E+002
 70
1
  0
VERTEX
  8
3
 42
-2.02501E-005
 10
4.2786677E+001
 20
1.775966E+002
 70
0
  0
VERTEX
  8
3
 42
-1.92441E-005
 10
4.2792268E+001
 20
1.7763348E+002
 70
1
  0
VERTEX
  8
3
 42
-1.82618E-005
 10
4.279799E+001
 20
1.776712E+002
 70
0
  0
VERTEX
  8
3
 42
-1.75731E-005
 10
4.2803852E+001
 20
1.7770983E+002
 70
1
  0
VERTEX
  8
3
 42
-1.71389E-005
 10
4.2809865E+001
 20
1.7774943E+002
 70
0
  0
VERTEX
  8
3
 42
-1.5847E-005
 10
4.2816043E+001
 20
1.777901E+002
 70
1
  0
VERTEX
  8
3
 42
-1.4133E-005
 10
4.2822341E+001
 20
1.7783155E+002
 70
0
  0
VERTEX
  8
3
 42
-1.49866E-005
 10
4.2828755E+001
 20
1.7787374E+002
 70
1
  0
VERTEX
  8
3
 42
-1.70786E-005
 10
4.2835463E+001
 20
1.7791785E+002
 70
0
  0
VERTEX
  8
3
 42
-1.21723E-005
 10
4.284254E+001
 20
1.7796437E+002
 70
1
  0
VERTEX
  8
3
 42
-3.8153E-006
 10
4.2849281E+001
 20
1.7800866E+002
 70
0
  0
VERTEX
  8
3
 42
-1.65303E-005
 10
4.2855457E+001
 20
1.7804924E+002
 70
1
  0
VERTEX
  8
3
 42
-2.60282E-005
 10
4.2863849E+001
 20
1.7810433E+002
 70
0
  0
VERTEX
  8
3
 42
-1.16106E-005
 10
4.2877386E+001
 20
1.7819317E+002
 70
1
  0
VERTEX
  8
3
 42
-5.8868E-006
 10
4.2895482E+001
 20
1.783119E+002
 70
0
  0
SEQEND
  0
LINE
  8
3
  6
CONTINUOUS
 62
30
 10
4.2895482E+001
 20
1.783119E+002
 11
4.2895482E+001
 21
1.7665995E+002
  0
LINE
  8
3
  6
CONTINUOUS
 62
30
 10
4.2720514E+001
 20
1.7648495E+002
 11
4.2895482E+001
 21
1.7665995E+002
  0
LINE
  8
3
  6
CONTINUOUS
 62
30
 10
4.2895482E+001
 20
1.7665995E+002
 11
4.4547464E+001
 21
1.7665995E+002
  0
POLYLINE
  8
3
  6
CONTINUOUS
 62
30
 66
1
 40
0.0
 41
0.0
 70
2
  0
VERTEX
  8
3
 42
0.0
 10
4.339367E+001
 20
1.7648495E+002
 70
0
  0
VERTEX
  8
3
 42
3.81264E-005
 10
4.3420845E+001
 20
1.7648902E+002
 70
1
  0
VERTEX
  8
3
 42
3.67357E-005
 10
4.3448584E+001
 20
1.7649319E+002
 70
0
  0
VERTEX
  8
3
 42
3.50741E-005
 10
4.347691E+001
 20
1.7649745E+002
 70
1
  0
VERTEX
  8
3
 42
3.31592E-005
 10
4.3505817E+001
 20
1.765018E+002
 70
0
  0
VERTEX
  8
3
 42
3.1435E-005
 10
4.3535352E+001
 20
1.7650625E+002
 70
1
  0
VERTEX
  8
3
 42
2.993E-005
 10
4.3565508E+001
 20
1.7651079E+002
 70
0
  0
VERTEX
  8
3
 42
2.84621E-005
 10
4.3596331E+001
 20
1.7651544E+002
 70
1
  0
VERTEX
  8
3
 42
2.70771E-005
 10
4.3627813E+001
 20
1.7652019E+002
 70
0
  0
VERTEX
  8
3
 42
2.57528E-005
 10
4.3660004E+001
 20
1.7652506E+002
 70
1
  0
VERTEX
  8
3
 42
2.45394E-005
 10
4.3692899E+001
 20
1.7653003E+002
 70
0
  0
VERTEX
  8
3
 42
2.33527E-005
 10
4.372655E+001
 20
1.7653512E+002
 70
1
  0
VERTEX
  8
3
 42
2.22531E-005
 10
4.376095E+001
 20
1.7654033E+002
 70
0
  0
VERTEX
  8
3
 42
2.12096E-005
 10
4.3796156E+001
 20
1.7654566E+002
 70
1
  0
VERTEX
  8
3
 42
2.02757E-005
 10
4.3832166E+001
 20
1.7655112E+002
 70
0
  0
VERTEX
  8
3
 42
1.92683E-005
 10
4.3869045E+001
 20
1.7655671E+002
 70
1
  0
VERTEX
  8
3
 42
1.82847E-005
 10
4.3906768E+001
 20
1.7656244E+002
 70
0
  0
VERTEX
  8
3
 42
1.75951E-005
 10
4.3945394E+001
 20
1.765683E+002
 70
1
  0
VERTEX
  8
3
 42
1.71602E-005
 10
4.3984995E+001
 20
1.7657431E+002
 70
0
  0
VERTEX
  8
3
 42
1.58668E-005
 10
4.4025669E+001
 20
1.7658049E+002
 70
1
  0
VERTEX
  8
3
 42
1.41506E-005
 10
4.4067114E+001
 20
1.7658679E+002
 70
0
  0
VERTEX
  8
3
 42
1.50051E-005
 10
4.4109308E+001
 20
1.7659321E+002
 70
1
  0
VERTEX
  8
3
 42
1.70999E-005
 10
4.4153417E+001
 20
1.7659992E+002
 70
0
  0
VERTEX
  8
3
 42
1.21874E-005
 10
4.4199931E+001
 20
1.7660699E+002
 70
1
  0
VERTEX
  8
3
 42
3.8201E-006
 10
4.4244226E+001
 20
1.7661374E+002
 70
0
  0
VERTEX
  8
3
 42
1.65509E-005
 10
4.4284802E+001
 20
1.7661991E+002
 70
1
  0
VERTEX
  8
3
 42
2.60604E-005
 10
4.4339898E+001
 20
1.7662831E+002
 70
0
  0
VERTEX
  8
3
 42
1.1625E-005
 10
4.442874E+001
 20
1.7664185E+002
 70
1
  0
VERTEX
  8
3
 42
5.894E-006
 10
4.4547464E+001
 20
1.7665995E+002
 70
0
  0
SEQEND
  0
ARC
  8
3
  6
CONTINUOUS
 62
30
 10
4.2320494E+001
 20
1.7608493E+002
 40
2.3
 50
3.4552249E+002
 51
3.7447751E+002
  0
CIRCLE
  8
3
  6
CONTINUOUS
 62
150
 10
4.2320494E+001
 20
1.3008493E+002
 40
3.75
  0
LINE
  8
3
  6
CONTINUOUS
 62
30
 10
4.339367E+001
 20
1.296849E+002
 11
4.2720514E+001
 21
1.296849E+002
  0
LINE
  8
3
  6
CONTINUOUS
 62
30
 10
4.2720514E+001
 20
1.296849E+002
 11
4.2720514E+001
 21
1.2901178E+002
  0
ARC
  8
3
  6
CONTINUOUS
 62
30
 10
4.2320494E+001
 20
1.3008493E+002
 40
1.1452995
 50
2.4955712E+002
 51
2.9044288E+002
  0
LINE
  8
3
  6
CONTINUOUS
 62
30
 10
4.1920477E+001
 20
1.2901178E+002
 11
4.1920477E+001
 21
1.296849E+002
  0
LINE
  8
3
  6
CONTINUOUS
 62
30
 10
4.1920477E+001
 20
1.296849E+002
 11
4.1247321E+001
 21
1.296849E+002
  0
ARC
  8
3
  6
CONTINUOUS
 62
30
 10
4.2320494E+001
 20
1.3008493E+002
 40
1.1452995
 50
1.5955712E+002
 51
2.0044288E+002
  0
LINE
  8
3
  6
CONTINUOUS
 62
30
 10
4.1247321E+001
 20
1.3048497E+002
 11
4.1920477E+001
 21
1.3048497E+002
  0
LINE
  8
3
  6
CONTINUOUS
 62
30
 10
4.1920477E+001
 20
1.3048497E+002
 11
4.1920477E+001
 21
1.3115809E+002
  0
ARC
  8
3
  6
CONTINUOUS
 62
30
 10
4.2320494E+001
 20
1.3008493E+002
 40
1.1452995
 50
6.9557119E+001
 51
1.1044288E+002
  0
LINE
  8
3
  6
CONTINUOUS
 62
30
 10
4.2720514E+001
 20
1.3115809E+002
 11
4.2720514E+001
 21
1.3048497E+002
  0
LINE
  8
3
  6
CONTINUOUS
 62
30
 10
4.2720514E+001
 20
1.3048497E+002
 11
4.339367E+001
 21
1.3048497E+002
  0
ARC
  8
3
  6
CONTINUOUS
 62
30
 10
4.2320494E+001
 20
1.3008493E+002
 40
1.1452995
 50
3.3955712E+002
 51
3.8044288E+002
  0
LINE
  8
3
  6
CONTINUOUS
 62
30
 10
4.4547464E+001
 20
1.2950993E+002
 11
4.2895482E+001
 21
1.2950993E+002
  0
LINE
  8
3
  6
CONTINUOUS
 62
30
 10
4.2720514E+001
 20
1.296849E+002
 11
4.2895482E+001
 21
1.2950993E+002
  0
POLYLINE
  8
3
  6
CONTINUOUS
 62
30
 66
1
 40
0.0
 41
0.0
 70
2
  0
VERTEX
  8
3
 42
0.0
 10
4.4547464E+001
 20
1.2950993E+002
 70
0
  0
VERTEX
  8
3
 42
9.8053E-006
 10
4.4493445E+001
 20
1.2951817E+002
 70
1
  0
VERTEX
  8
3
 42
1.03769E-005
 10
4.4440831E+001
 20
1.2952619E+002
 70
0
  0
VERTEX
  8
3
 42
1.09353E-005
 10
4.4389688E+001
 20
1.2953398E+002
 70
1
  0
VERTEX
  8
3
 42
1.13643E-005
 10
4.4339898E+001
 20
1.2954157E+002
 70
0
  0
VERTEX
  8
3
 42
1.18792E-005
 10
4.4291445E+001
 20
1.2954895E+002
 70
1
  0
VERTEX
  8
3
 42
1.24197E-005
 10
4.4244226E+001
 20
1.2955614E+002
 70
0
  0
VERTEX
  8
3
 42
1.30163E-005
 10
4.4198248E+001
 20
1.2956314E+002
 70
1
  0
VERTEX
  8
3
 42
1.3592E-005
 10
4.4153417E+001
 20
1.2956996E+002
 70
0
  0
VERTEX
  8
3
 42
1.424E-005
 10
4.4109734E+001
 20
1.295766E+002
 70
1
  0
VERTEX
  8
3
 42
1.4888E-005
 10
4.4067114E+001
 20
1.2958308E+002
 70
0
  0
VERTEX
  8
3
 42
1.56016E-005
 10
4.4025561E+001
 20
1.2958939E+002
 70
1
  0
VERTEX
  8
3
 42
1.6307E-005
 10
4.3984995E+001
 20
1.2959556E+002
 70
0
  0
VERTEX
  8
3
 42
1.711E-005
 10
4.3945423E+001
 20
1.2960156E+002
 70
1
  0
VERTEX
  8
3
 42
1.79404E-005
 10
4.3906768E+001
 20
1.2960743E+002
 70
0
  0
VERTEX
  8
3
 42
1.87701E-005
 10
4.3869035E+001
 20
1.2961315E+002
 70
1
  0
VERTEX
  8
3
 42
1.95261E-005
 10
4.3832166E+001
 20
1.2961874E+002
 70
0
  0
VERTEX
  8
3
 42
2.06744E-005
 10
4.3796172E+001
 20
1.296242E+002
 70
1
  0
VERTEX
  8
3
 42
2.21408E-005
 10
4.376095E+001
 20
1.2962953E+002
 70
0
  0
VERTEX
  8
3
 42
2.25714E-005
 10
4.3726494E+001
 20
1.2963475E+002
 70
1
  0
VERTEX
  8
3
 42
2.19914E-005
 10
4.3692899E+001
 20
1.2963983E+002
 70
0
  0
VERTEX
  8
3
 42
2.55568E-005
 10
4.3660224E+001
 20
1.2964477E+002
 70
1
  0
VERTEX
  8
3
 42
3.2357E-005
 10
4.3627813E+001
 20
1.2964966E+002
 70
0
  0
VERTEX
  8
3
 42
2.57524E-005
 10
4.3595464E+001
 20
1.2965454E+002
 70
1
  0
VERTEX
  8
3
 42
8.526E-006
 10
4.3565508E+001
 20
1.2965906E+002
 70
0
  0
VERTEX
  8
3
 42
3.8969E-005
 10
4.3538771E+001
 20
1.2966309E+002
 70
1
  0
VERTEX
  8
3
 42
7.4099E-005
 10
4.3505817E+001
 20
1.2966805E+002
 70
0
  0
VERTEX
  8
3
 42
3.89952E-005
 10
4.3456805E+001
 20
1.2967542E+002
 70
1
  0
VERTEX
  8
3
 42
2.13128E-005
 10
4.339367E+001
 20
1.296849E+002
 70
0
  0
SEQEND
  0
LINE
  8
3
  6
CONTINUOUS
 62
30
 10
4.2895482E+001
 20
1.2950993E+002
 11
4.2895482E+001
 21
1.2785798E+002
  0
POLYLINE
  8
3
  6
CONTINUOUS
 62
30
 66
1
 40
0.0
 41
0.0
 70
2
  0
VERTEX
  8
3
 42
0.0
 10
4.2720514E+001
 20
1.2901178E+002
 70
0
  0
VERTEX
  8
3
 42
3.81613E-005
 10
4.2724591E+001
 20
1.289846E+002
 70
1
  0
VERTEX
  8
3
 42
3.67696E-005
 10
4.2728756E+001
 20
1.2895686E+002
 70
0
  0
VERTEX
  8
3
 42
3.51069E-005
 10
4.2733014E+001
 20
1.2892853E+002
 70
1
  0
VERTEX
  8
3
 42
3.31904E-005
 10
4.2737363E+001
 20
1.2889963E+002
 70
0
  0
VERTEX
  8
3
 42
3.14648E-005
 10
4.2741811E+001
 20
1.2887009E+002
 70
1
  0
VERTEX
  8
3
 42
2.99586E-005
 10
4.2746356E+001
 20
1.2883993E+002
 70
0
  0
VERTEX
  8
3
 42
2.84896E-005
 10
4.2751005E+001
 20
1.2880911E+002
 70
1
  0
VERTEX
  8
3
 42
2.71033E-005
 10
4.2755758E+001
 20
1.2877763E+002
 70
0
  0
VERTEX
  8
3
 42
2.57779E-005
 10
4.276062E+001
 20
1.2874543E+002
 70
1
  0
VERTEX
  8
3
 42
2.45636E-005
 10
4.2765593E+001
 20
1.2871254E+002
 70
0
  0
VERTEX
  8
3
 42
2.33757E-005
 10
4.2770683E+001
 20
1.2867889E+002
 70
1
  0
VERTEX
  8
3
 42
2.22752E-005
 10
4.2775889E+001
 20
1.2864449E+002
 70
0
  0
VERTEX
  8
3
 42
2.12307E-005
 10
4.2781221E+001
 20
1.2860928E+002
 70
1
  0
VERTEX
  8
3
 42
2.0296E-005
 10
4.2786677E+001
 20
1.2857327E+002
 70
0
  0
VERTEX
  8
3
 42
1.92878E-005
 10
4.2792268E+001
 20
1.2853639E+002
 70
1
  0
VERTEX
  8
3
 42
1.83031E-005
 10
4.279799E+001
 20
1.2849867E+002
 70
0
  0
VERTEX
  8
3
 42
1.7613E-005
 10
4.2803852E+001
 20
1.2846004E+002
 70
1
  0
VERTEX
  8
3
 42
1.71778E-005
 10
4.2809865E+001
 20
1.2842044E+002
 70
0
  0
VERTEX
  8
3
 42
1.5883E-005
 10
4.2816043E+001
 20
1.2837977E+002
 70
1
  0
VERTEX
  8
3
 42
1.41651E-005
 10
4.2822341E+001
 20
1.2833832E+002
 70
0
  0
VERTEX
  8
3
 42
1.50207E-005
 10
4.2828755E+001
 20
1.2829613E+002
 70
1
  0
VERTEX
  8
3
 42
1.71176E-005
 10
4.2835463E+001
 20
1.2825202E+002
 70
0
  0
VERTEX
  8
3
 42
1.22001E-005
 10
4.284254E+001
 20
1.2820551E+002
 70
1
  0
VERTEX
  8
3
 42
3.824E-006
 10
4.2849281E+001
 20
1.2816121E+002
 70
0
  0
VERTEX
  8
3
 42
1.65681E-005
 10
4.2855457E+001
 20
1.2812064E+002
 70
1
  0
VERTEX
  8
3
 42
2.60878E-005
 10
4.2863849E+001
 20
1.2806554E+002
 70
0
  0
VERTEX
  8
3
 42
1.16371E-005
 10
4.2877386E+001
 20
1.279767E+002
 70
1
  0
VERTEX
  8
3
 42
5.9002E-006
 10
4.2895482E+001
 20
1.2785798E+002
 70
0
  0
SEQEND
  0
ARC
  8
3
  6
CONTINUOUS
 62
30
 10
4.2320494E+001
 20
1.3008493E+002
 40
2.3
 50
2.5552249E+002
 51
2.8447751E+002
  0
POLYLINE
  8
3
  6
CONTINUOUS
 62
30
 66
1
 40
0.0
 41
0.0
 70
2
  0
VERTEX
  8
3
 42
0.0
 10
4.1920477E+001
 20
1.2901178E+002
 70
0
  0
VERTEX
  8
3
 42
-3.79658E-005
 10
4.1916401E+001
 20
1.289846E+002
 70
1
  0
VERTEX
  8
3
 42
-3.6581E-005
 10
4.1912235E+001
 20
1.2895686E+002
 70
0
  0
VERTEX
  8
3
 42
-3.49269E-005
 10
4.1907977E+001
 20
1.2892853E+002
 70
1
  0
VERTEX
  8
3
 42
-3.30203E-005
 10
4.1903627E+001
 20
1.2889963E+002
 70
0
  0
VERTEX
  8
3
 42
-3.13034E-005
 10
4.1899179E+001
 20
1.2887009E+002
 70
1
  0
VERTEX
  8
3
 42
-2.9805E-005
 10
4.1894634E+001
 20
1.2883993E+002
 70
0
  0
VERTEX
  8
3
 42
-2.83436E-005
 10
4.1889985E+001
 20
1.2880911E+002
 70
1
  0
VERTEX
  8
3
 42
-2.69644E-005
 10
4.1885233E+001
 20
1.2877763E+002
 70
0
  0
VERTEX
  8
3
 42
-2.56458E-005
 10
4.188037E+001
 20
1.2874543E+002
 70
1
  0
VERTEX
  8
3
 42
-2.44377E-005
 10
4.1875397E+001
 20
1.2871254E+002
 70
0
  0
VERTEX
  8
3
 42
-2.32559E-005
 10
4.1870307E+001
 20
1.2867889E+002
 70
1
  0
VERTEX
  8
3
 42
-2.2161E-005
 10
4.1865101E+001
 20
1.2864449E+002
 70
0
  0
VERTEX
  8
3
 42
-2.11219E-005
 10
4.1859769E+001
 20
1.2860928E+002
 70
1
  0
VERTEX
  8
3
 42
-2.0192E-005
 10
4.1854313E+001
 20
1.2857327E+002
 70
0
  0
VERTEX
  8
3
 42
-1.91889E-005
 10
4.1848721E+001
 20
1.2853639E+002
 70
1
  0
VERTEX
  8
3
 42
-1.82093E-005
 10
4.1842999E+001
 20
1.2849867E+002
 70
0
  0
VERTEX
  8
3
 42
-1.75228E-005
 10
4.1837138E+001
 20
1.2846004E+002
 70
1
  0
VERTEX
  8
3
 42
-1.70898E-005
 10
4.1831125E+001
 20
1.2842044E+002
 70
0
  0
VERTEX
  8
3
 42
-1.58017E-005
 10
4.1824947E+001
 20
1.2837977E+002
 70
1
  0
VERTEX
  8
3
 42
-1.40926E-005
 10
4.1818649E+001
 20
1.2833832E+002
 70
0
  0
VERTEX
  8
3
 42
-1.49437E-005
 10
4.1812235E+001
 20
1.2829613E+002
 70
1
  0
VERTEX
  8
3
 42
-1.70299E-005
 10
4.1805527E+001
 20
1.2825202E+002
 70
0
  0
VERTEX
  8
3
 42
-1.21377E-005
 10
4.179845E+001
 20
1.2820551E+002
 70
1
  0
VERTEX
  8
3
 42
-3.8044E-006
 10
4.1791709E+001
 20
1.2816121E+002
 70
0
  0
VERTEX
  8
3
 42
-1.64832E-005
 10
4.1785534E+001
 20
1.2812064E+002
 70
1
  0
VERTEX
  8
3
 42
-2.5954E-005
 10
4.1777142E+001
 20
1.2806554E+002
 70
0
  0
VERTEX
  8
3
 42
-1.15776E-005
 10
4.1763605E+001
 20
1.279767E+002
 70
1
  0
VERTEX
  8
3
 42
-5.87E-006
 10
4.174551E+001
 20
1.2785798E+002
 70
0
  0
SEQEND
  0
LINE
  8
3
  6
CONTINUOUS
 62
30
 10
4.174551E+001
 20
1.2785798E+002
 11
4.174551E+001
 21
1.2950993E+002
  0
LINE
  8
3
  6
CONTINUOUS
 62
30
 10
4.1920477E+001
 20
1.296849E+002
 11
4.174551E+001
 21
1.2950993E+002
  0
LINE
  8
3
  6
CONTINUOUS
 62
30
 10
4.174551E+001
 20
1.2950993E+002
 11
4.0093528E+001
 21
1.2950993E+002
  0
POLYLINE
  8
3
  6
CONTINUOUS
 62
30
 66
1
 40
0.0
 41
0.0
 70
2
  0
VERTEX
  8
3
 42
0.0
 10
4.1247321E+001
 20
1.296849E+002
 70
0
  0
VERTEX
  8
3
 42
3.89161E-005
 10
4.1220147E+001
 20
1.2968082E+002
 70
1
  0
VERTEX
  8
3
 42
3.74966E-005
 10
4.1192407E+001
 20
1.2967666E+002
 70
0
  0
VERTEX
  8
3
 42
3.58007E-005
 10
4.1164081E+001
 20
1.296724E+002
 70
1
  0
VERTEX
  8
3
 42
3.38461E-005
 10
4.1135174E+001
 20
1.2966805E+002
 70
0
  0
VERTEX
  8
3
 42
3.20861E-005
 10
4.1105639E+001
 20
1.2966361E+002
 70
1
  0
VERTEX
  8
3
 42
3.055E-005
 10
4.1075482E+001
 20
1.2965906E+002
 70
0
  0
VERTEX
  8
3
 42
2.90519E-005
 10
4.104466E+001
 20
1.2965441E+002
 70
1
  0
VERTEX
  8
3
 42
2.7638E-005
 10
4.1013177E+001
 20
1.2964966E+002
 70
0
  0
VERTEX
  8
3
 42
2.62863E-005
 10
4.0980986E+001
 20
1.296448E+002
 70
1
  0
VERTEX
  8
3
 42
2.50479E-005
 10
4.0948091E+001
 20
1.2963983E+002
 70
0
  0
VERTEX
  8
3
 42
2.38364E-005
 10
4.091444E+001
 20
1.2963474E+002
 70
1
  0
VERTEX
  8
3
 42
2.27142E-005
 10
4.088004E+001
 20
1.2962953E+002
 70
0
  0
VERTEX
  8
3
 42
2.1649E-005
 10
4.0844834E+001
 20
1.296242E+002
 70
1
  0
VERTEX
  8
3
 42
2.06959E-005
 10
4.0808823E+001
 20
1.2961874E+002
 70
0
  0
VERTEX
  8
3
 42
1.96676E-005
 10
4.0771945E+001
 20
1.2961315E+002
 70
1
  0
VERTEX
  8
3
 42
1.86636E-005
 10
4.0734222E+001
 20
1.2960743E+002
 70
0
  0
VERTEX
  8
3
 42
1.79598E-005
 10
4.0695595E+001
 20
1.2960157E+002
 70
1
  0
VERTEX
  8
3
 42
1.75159E-005
 10
4.0655995E+001
 20
1.2959556E+002
 70
0
  0
VERTEX
  8
3
 42
1.61956E-005
 10
4.0615321E+001
 20
1.2958938E+002
 70
1
  0
VERTEX
  8
3
 42
1.44439E-005
 10
4.0573876E+001
 20
1.2958308E+002
 70
0
  0
VERTEX
  8
3
 42
1.53161E-005
 10
4.0531682E+001
 20
1.2957666E+002
 70
1
  0
VERTEX
  8
3
 42
1.74541E-005
 10
4.0487573E+001
 20
1.2956996E+002
 70
0
  0
VERTEX
  8
3
 42
1.244E-005
 10
4.0441059E+001
 20
1.2956288E+002
 70
1
  0
VERTEX
  8
3
 42
3.8992E-006
 10
4.0396765E+001
 20
1.2955614E+002
 70
0
  0
VERTEX
  8
3
 42
1.68939E-005
 10
4.0356188E+001
 20
1.2954996E+002
 70
1
  0
VERTEX
  8
3
 42
2.66004E-005
 10
4.0301092E+001
 20
1.2954157E+002
 70
0
  0
VERTEX
  8
3
 42
1.18659E-005
 10
4.0212251E+001
 20
1.2952803E+002
 70
1
  0
VERTEX
  8
3
 42
6.0162E-006
 10
4.0093528E+001
 20
1.2950993E+002
 70
0
  0
SEQEND
  0
ARC
  8
3
  6
CONTINUOUS
 62
30
 10
4.2320494E+001
 20
1.3008493E+002
 40
2.3
 50
1.6552249E+002
 51
1.9447751E+002
  0
POLYLINE
  8
3
  6
CONTINUOUS
 62
30
 66
1
 40
0.0
 41
0.0
 70
2
  0
VERTEX
  8
3
 42
0.0
 10
4.1247321E+001
 20
1.3048497E+002
 70
0
  0
VERTEX
  8
3
 42
-3.8926E-005
 10
4.1220147E+001
 20
1.3048905E+002
 70
1
  0
VERTEX
  8
3
 42
-3.75061E-005
 10
4.1192407E+001
 20
1.3049321E+002
 70
0
  0
VERTEX
  8
3
 42
-3.58098E-005
 10
4.1164081E+001
 20
1.3049747E+002
 70
1
  0
VERTEX
  8
3
 42
-3.38548E-005
 10
4.1135174E+001
 20
1.3050182E+002
 70
0
  0
VERTEX
  8
3
 42
-3.20942E-005
 10
4.1105639E+001
 20
1.3050626E+002
 70
1
  0
VERTEX
  8
3
 42
-3.05578E-005
 10
4.1075482E+001
 20
1.3051081E+002
 70
0
  0
VERTEX
  8
3
 42
-2.90591E-005
 10
4.104466E+001
 20
1.3051546E+002
 70
1
  0
VERTEX
  8
3
 42
-2.7645E-005
 10
4.1013177E+001
 20
1.3052021E+002
 70
0
  0
VERTEX
  8
3
 42
-2.6293E-005
 10
4.0980986E+001
 20
1.3052507E+002
 70
1
  0
VERTEX
  8
3
 42
-2.50542E-005
 10
4.0948091E+001
 20
1.3053004E+002
 70
0
  0
VERTEX
  8
3
 42
-2.38426E-005
 10
4.091444E+001
 20
1.3053513E+002
 70
1
  0
VERTEX
  8
3
 42
-2.272E-005
 10
4.088004E+001
 20
1.3054034E+002
 70
0
  0
VERTEX
  8
3
 42
-2.16544E-005
 10
4.0844834E+001
 20
1.3054567E+002
 70
1
  0
VERTEX
  8
3
 42
-2.0701E-005
 10
4.0808823E+001
 20
1.3055112E+002
 70
0
  0
VERTEX
  8
3
 42
-1.96726E-005
 10
4.0771945E+001
 20
1.3055672E+002
 70
1
  0
VERTEX
  8
3
 42
-1.86682E-005
 10
4.0734222E+001
 20
1.3056244E+002
 70
0
  0
VERTEX
  8
3
 42
-1.79643E-005
 10
4.0695595E+001
 20
1.305683E+002
 70
1
  0
VERTEX
  8
3
 42
-1.75202E-005
 10
4.0655995E+001
 20
1.3057431E+002
 70
0
  0
VERTEX
  8
3
 42
-1.61997E-005
 10
4.0615321E+001
 20
1.3058049E+002
 70
1
  0
VERTEX
  8
3
 42
-1.44474E-005
 10
4.0573876E+001
 20
1.3058679E+002
 70
0
  0
VERTEX
  8
3
 42
-1.532E-005
 10
4.0531682E+001
 20
1.305932E+002
 70
1
  0
VERTEX
  8
3
 42
-1.74587E-005
 10
4.0487573E+001
 20
1.3059991E+002
 70
0
  0
VERTEX
  8
3
 42
-1.24431E-005
 10
4.0441059E+001
 20
1.3060699E+002
 70
1
  0
VERTEX
  8
3
 42
-3.9002E-006
 10
4.0396765E+001
 20
1.3061373E+002
 70
0
  0
VERTEX
  8
3
 42
-1.68981E-005
 10
4.0356188E+001
 20
1.3061991E+002
 70
1
  0
VERTEX
  8
3
 42
-2.66072E-005
 10
4.0301092E+001
 20
1.306283E+002
 70
0
  0
VERTEX
  8
3
 42
-1.18689E-005
 10
4.0212251E+001
 20
1.3064184E+002
 70
1
  0
VERTEX
  8
3
 42
-6.0178E-006
 10
4.0093528E+001
 20
1.3065994E+002
 70
0
  0
SEQEND
  0
LINE
  8
3
  6
CONTINUOUS
 62
30
 10
4.0093528E+001
 20
1.3065994E+002
 11
4.174551E+001
 21
1.3065994E+002
  0
LINE
  8
3
  6
CONTINUOUS
 62
30
 10
4.1920477E+001
 20
1.3048497E+002
 11
4.174551E+001
 21
1.3065994E+002
  0
LINE
  8
3
  6
CONTINUOUS
 62
30
 10
4.174551E+001
 20
1.3065994E+002
 11
4.174551E+001
 21
1.3231189E+002
  0
POLYLINE
  8
3
  6
CONTINUOUS
 62
30
 66
1
 40
0.0
 41
0.0
 70
2
  0
VERTEX
  8
3
 42
0.0
 10
4.1920477E+001
 20
1.3115809E+002
 70
0
  0
VERTEX
  8
3
 42
3.79642E-005
 10
4.1916401E+001
 20
1.3118527E+002
 70
1
  0
VERTEX
  8
3
 42
3.65797E-005
 10
4.1912235E+001
 20
1.3121301E+002
 70
0
  0
VERTEX
  8
3
 42
3.49256E-005
 10
4.1907977E+001
 20
1.3124134E+002
 70
1
  0
VERTEX
  8
3
 42
3.3019E-005
 10
4.1903627E+001
 20
1.3127024E+002
 70
0
  0
VERTEX
  8
3
 42
3.13022E-005
 10
4.1899179E+001
 20
1.3129978E+002
 70
1
  0
VERTEX
  8
3
 42
2.98039E-005
 10
4.1894634E+001
 20
1.3132994E+002
 70
0
  0
VERTEX
  8
3
 42
2.83424E-005
 10
4.1889985E+001
 20
1.3136076E+002
 70
1
  0
VERTEX
  8
3
 42
2.69633E-005
 10
4.1885233E+001
 20
1.3139224E+002
 70
0
  0
VERTEX
  8
3
 42
2.56448E-005
 10
4.188037E+001
 20
1.3142443E+002
 70
1
  0
VERTEX
  8
3
 42
2.44367E-005
 10
4.1875397E+001
 20
1.3145733E+002
 70
0
  0
VERTEX
  8
3
 42
2.3255E-005
 10
4.1870307E+001
 20
1.3149098E+002
 70
1
  0
VERTEX
  8
3
 42
2.21602E-005
 10
4.1865101E+001
 20
1.3152538E+002
 70
0
  0
VERTEX
  8
3
 42
2.1121E-005
 10
4.1859769E+001
 20
1.3156059E+002
 70
1
  0
VERTEX
  8
3
 42
2.01912E-005
 10
4.1854313E+001
 20
1.315966E+002
 70
0
  0
VERTEX
  8
3
 42
1.91881E-005
 10
4.1848721E+001
 20
1.3163348E+002
 70
1
  0
VERTEX
  8
3
 42
1.82087E-005
 10
4.1842999E+001
 20
1.316712E+002
 70
0
  0
VERTEX
  8
3
 42
1.7522E-005
 10
4.1837138E+001
 20
1.3170983E+002
 70
1
  0
VERTEX
  8
3
 42
1.7089E-005
 10
4.1831125E+001
 20
1.3174943E+002
 70
0
  0
VERTEX
  8
3
 42
1.5801E-005
 10
4.1824947E+001
 20
1.317901E+002
 70
1
  0
VERTEX
  8
3
 42
1.4092E-005
 10
4.1818649E+001
 20
1.3183154E+002
 70
0
  0
VERTEX
  8
3
 42
1.4943E-005
 10
4.1812235E+001
 20
1.3187374E+002
 70
1
  0
VERTEX
  8
3
 42
1.70291E-005
 10
4.1805527E+001
 20
1.3191785E+002
 70
0
  0
VERTEX
  8
3
 42
1.21371E-005
 10
4.179845E+001
 20
1.3196436E+002
 70
1
  0
VERTEX
  8
3
 42
3.8043E-006
 10
4.1791709E+001
 20
1.3200865E+002
 70
0
  0
VERTEX
  8
3
 42
1.64826E-005
 10
4.1785534E+001
 20
1.3204923E+002
 70
1
  0
VERTEX
  8
3
 42
2.5953E-005
 10
4.1777142E+001
 20
1.3210432E+002
 70
0
  0
VERTEX
  8
3
 42
1.1577E-005
 10
4.1763605E+001
 20
1.3219316E+002
 70
1
  0
VERTEX
  8
3
 42
5.8699E-006
 10
4.174551E+001
 20
1.3231189E+002
 70
0
  0
SEQEND
  0
ARC
  8
3
  6
CONTINUOUS
 62
30
 10
4.2320494E+001
 20
1.3008493E+002
 40
2.3
 50
7.5522488E+001
 51
1.0447751E+002
  0
POLYLINE
  8
3
  6
CONTINUOUS
 62
30
 66
1
 40
0.0
 41
0.0
 70
2
  0
VERTEX
  8
3
 42
0.0
 10
4.2720514E+001
 20
1.3115809E+002
 70
0
  0
VERTEX
  8
3
 42
-3.81599E-005
 10
4.2724591E+001
 20
1.3118527E+002
 70
1
  0
VERTEX
  8
3
 42
-3.67681E-005
 10
4.2728756E+001
 20
1.3121301E+002
 70
0
  0
VERTEX
  8
3
 42
-3.51054E-005
 10
4.2733014E+001
 20
1.3124134E+002
 70
1
  0
VERTEX
  8
3
 42
-3.31891E-005
 10
4.2737363E+001
 20
1.3127024E+002
 70
0
  0
VERTEX
  8
3
 42
-3.14636E-005
 10
4.2741811E+001
 20
1.3129978E+002
 70
1
  0
VERTEX
  8
3
 42
-2.99573E-005
 10
4.2746356E+001
 20
1.3132994E+002
 70
0
  0
VERTEX
  8
3
 42
-2.84884E-005
 10
4.2751005E+001
 20
1.3136076E+002
 70
1
  0
VERTEX
  8
3
 42
-2.71022E-005
 10
4.2755758E+001
 20
1.3139224E+002
 70
0
  0
VERTEX
  8
3
 42
-2.57769E-005
 10
4.276062E+001
 20
1.3142443E+002
 70
1
  0
VERTEX
  8
3
 42
-2.45626E-005
 10
4.2765593E+001
 20
1.3145733E+002
 70
0
  0
VERTEX
  8
3
 42
-2.33748E-005
 10
4.2770683E+001
 20
1.3149098E+002
 70
1
  0
VERTEX
  8
3
 42
-2.22743E-005
 10
4.2775889E+001
 20
1.3152538E+002
 70
0
  0
VERTEX
  8
3
 42
-2.12299E-005
 10
4.2781221E+001
 20
1.3156059E+002
 70
1
  0
VERTEX
  8
3
 42
-2.02952E-005
 10
4.2786677E+001
 20
1.315966E+002
 70
0
  0
VERTEX
  8
3
 42
-1.9287E-005
 10
4.2792268E+001
 20
1.3163348E+002
 70
1
  0
VERTEX
  8
3
 42
-1.83024E-005
 10
4.279799E+001
 20
1.316712E+002
 70
0
  0
VERTEX
  8
3
 42
-1.76123E-005
 10
4.2803852E+001
 20
1.3170983E+002
 70
1
  0
VERTEX
  8
3
 42
-1.7177E-005
 10
4.2809865E+001
 20
1.3174943E+002
 70
0
  0
VERTEX
  8
3
 42
-1.58823E-005
 10
4.2816043E+001
 20
1.317901E+002
 70
1
  0
VERTEX
  8
3
 42
-1.41646E-005
 10
4.2822341E+001
 20
1.3183154E+002
 70
0
  0
VERTEX
  8
3
 42
-1.502E-005
 10
4.2828755E+001
 20
1.3187374E+002
 70
1
  0
VERTEX
  8
3
 42
-1.71169E-005
 10
4.2835463E+001
 20
1.3191785E+002
 70
0
  0
VERTEX
  8
3
 42
-1.21997E-005
 10
4.284254E+001
 20
1.3196436E+002
 70
1
  0
VERTEX
  8
3
 42
-3.824E-006
 10
4.2849281E+001
 20
1.3200865E+002
 70
0
  0
VERTEX
  8
3
 42
-1.65674E-005
 10
4.2855457E+001
 20
1.3204923E+002
 70
1
  0
VERTEX
  8
3
 42
-2.60867E-005
 10
4.2863849E+001
 20
1.3210432E+002
 70
0
  0
VERTEX
  8
3
 42
-1.16367E-005
 10
4.2877386E+001
 20
1.3219316E+002
 70
1
  0
VERTEX
  8
3
 42
-5.9E-006
 10
4.2895482E+001
 20
1.3231189E+002
 70
0
  0
SEQEND
  0
LINE
  8
3
  6
CONTINUOUS
 62
30
 10
4.2895482E+001
 20
1.3231189E+002
 11
4.2895482E+001
 21
1.3065994E+002
  0
LINE
  8
3
  6
CONTINUOUS
 62
30
 10
4.2720514E+001
 20
1.3048497E+002
 11
4.2895482E+001
 21
1.3065994E+002
  0
LINE
  8
3
  6
CONTINUOUS
 62
30
 10
4.2895482E+001
 20
1.3065994E+002
 11
4.4547464E+001
 21
1.3065994E+002
  0
POLYLINE
  8
3
  6
CONTINUOUS
 62
30
 66
1
 40
0.0
 41
0.0
 70
2
  0
VERTEX
  8
3
 42
0.0
 10
4.339367E+001
 20
1.3048497E+002
 70
0
  0
VERTEX
  8
3
 42
3.8897E-005
 10
4.3420845E+001
 20
1.3048905E+002
 70
1
  0
VERTEX
  8
3
 42
3.7478E-005
 10
4.3448584E+001
 20
1.3049321E+002
 70
0
  0
VERTEX
  8
3
 42
3.5783E-005
 10
4.347691E+001
 20
1.3049747E+002
 70
1
  0
VERTEX
  8
3
 42
3.38293E-005
 10
4.3505817E+001
 20
1.3050182E+002
 70
0
  0
VERTEX
  8
3
 42
3.20701E-005
 10
4.3535352E+001
 20
1.3050626E+002
 70
1
  0
VERTEX
  8
3
 42
3.05348E-005
 10
4.3565508E+001
 20
1.3051081E+002
 70
0
  0
VERTEX
  8
3
 42
2.90372E-005
 10
4.3596331E+001
 20
1.3051546E+002
 70
1
  0
VERTEX
  8
3
 42
2.76242E-005
 10
4.3627813E+001
 20
1.3052021E+002
 70
0
  0
VERTEX
  8
3
 42
2.62731E-005
 10
4.3660004E+001
 20
1.3052507E+002
 70
1
  0
VERTEX
  8
3
 42
2.50352E-005
 10
4.3692899E+001
 20
1.3053004E+002
 70
0
  0
VERTEX
  8
3
 42
2.38244E-005
 10
4.372655E+001
 20
1.3053513E+002
 70
1
  0
VERTEX
  8
3
 42
2.27028E-005
 10
4.376095E+001
 20
1.3054034E+002
 70
0
  0
VERTEX
  8
3
 42
2.1638E-005
 10
4.3796156E+001
 20
1.3054567E+002
 70
1
  0
VERTEX
  8
3
 42
2.06853E-005
 10
4.3832166E+001
 20
1.3055112E+002
 70
0
  0
VERTEX
  8
3
 42
1.96576E-005
 10
4.3869045E+001
 20
1.3055672E+002
 70
1
  0
VERTEX
  8
3
 42
1.8654E-005
 10
4.3906768E+001
 20
1.3056244E+002
 70
0
  0
VERTEX
  8
3
 42
1.79507E-005
 10
4.3945394E+001
 20
1.305683E+002
 70
1
  0
VERTEX
  8
3
 42
1.7507E-005
 10
4.3984995E+001
 20
1.3057431E+002
 70
0
  0
VERTEX
  8
3
 42
1.61872E-005
 10
4.4025669E+001
 20
1.3058049E+002
 70
1
  0
VERTEX
  8
3
 42
1.44364E-005
 10
4.4067114E+001
 20
1.3058679E+002
 70
0
  0
VERTEX
  8
3
 42
1.53082E-005
 10
4.4109308E+001
 20
1.305932E+002
 70
1
  0
VERTEX
  8
3
 42
1.74452E-005
 10
4.4153417E+001
 20
1.3059991E+002
 70
0
  0
VERTEX
  8
3
 42
1.24337E-005
 10
4.4199931E+001
 20
1.3060699E+002
 70
1
  0
VERTEX
  8
3
 42
3.8972E-006
 10
4.4244226E+001
 20
1.3061373E+002
 70
0
  0
VERTEX
  8
3
 42
1.68852E-005
 10
4.4284802E+001
 20
1.3061991E+002
 70
1
  0
VERTEX
  8
3
 42
2.65869E-005
 10
4.4339898E+001
 20
1.306283E+002
 70
0
  0
VERTEX
  8
3
 42
1.18598E-005
 10
4.442874E+001
 20
1.3064184E+002
 70
1
  0
VERTEX
  8
3
 42
6.0131E-006
 10
4.4547464E+001
 20
1.3065994E+002
 70
0
  0
SEQEND
  0
ARC
  8
3
  6
CONTINUOUS
 62
30
 10
4.2320494E+001
 20
1.3008493E+002
 40
2.3
 50
3.4552249E+002
 51
3.7447751E+002
  0
LINE
  8
3
  6
CONTINUOUS
 62
6
 10
3.7820494E+001
 20
1.3887494E+002
 11
3.7820494E+001
 21
1.3936333E+002
  0
LINE
  8
3
  6
CONTINUOUS
 62
6
 10
3.7820494E+001
 20
1.3718493E+002
 11
3.7820494E+001
 21
1.3758493E+002
  0
LINE
  8
3
  6
CONTINUOUS
 62
6
 10
3.7820494E+001
 20
1.3758493E+002
 11
3.7820494E+001
 21
1.3887494E+002
  0
LINE
  8
3
  6
CONTINUOUS
 62
6
 10
3.7820494E+001
 20
1.6684778E+002
 11
3.7820501E+001
 21
1.6685353E+002
  0
LINE
  8
3
  6
CONTINUOUS
 62
6
 10
3.7820501E+001
 20
1.6685353E+002
 11
3.7820494E+001
 21
1.6728289E+002
  0
LINE
  8
3
  6
CONTINUOUS
 62
6
 10
3.7820494E+001
 20
1.6728289E+002
 11
3.7820494E+001
 21
1.6858493E+002
  0
LINE
  8
3
  6
CONTINUOUS
 62
6
 10
3.7820494E+001
 20
1.6858493E+002
 11
3.7820494E+001
 21
1.6898493E+002
  0
LINE
  8
3
  6
CONTINUOUS
 62
6
 10
3.7320494E+001
 20
1.3708493E+002
 11
3.5451272E+001
 21
1.3708493E+002
  0
LINE
  8
3
  6
CONTINUOUS
 62
6
 10
3.5451272E+001
 20
1.3708493E+002
 11
3.5320494E+001
 21
1.3708493E+002
  0
LINE
  8
3
  6
CONTINUOUS
 62
6
 10
3.5451272E+001
 20
1.6908493E+002
 11
3.7320494E+001
 21
1.6908493E+002
  0
LINE
  8
3
  6
CONTINUOUS
 62
6
 10
3.5320494E+001
 20
1.6908493E+002
 11
3.5451272E+001
 21
1.6908493E+002
  0
ARC
  8
3
  6
CONTINUOUS
 62
6
 10
3.8320494E+001
 20
1.3958493E+002
 40
5.0E-001
 50
9.0E+001
 51
9.9043204E+001
  0
LINE
  8
3
  6
CONTINUOUS
 62
6
 10
3.5320494E+001
 20
1.3708493E+002
 11
3.5320494E+001
 21
1.6908493E+002
  0
LINE
  8
3
  6
CONTINUOUS
 62
6
 10
4.9320494E+001
 20
1.6508493E+002
 11
4.9320494E+001
 21
1.4108493E+002
  0
LINE
  8
3
  6
CONTINUOUS
 62
6
 10
3.8320494E+001
 20
1.4008493E+002
 11
4.8320494E+001
 21
1.4008493E+002
  0
ARC
  8
3
  6
CONTINUOUS
 62
6
 10
4.8320494E+001
 20
1.6508493E+002
 40
1.0
 50
0.0
 51
9.0E+001
  0
ARC
  8
3
  6
CONTINUOUS
 62
6
 10
4.8320494E+001
 20
1.4108493E+002
 40
1.0
 50
2.7E+002
 51
3.6E+002
  0
ARC
  8
3
  6
CONTINUOUS
 62
6
 10
3.8320494E+001
 20
1.6658493E+002
 40
5.0E-001
 50
2.6595761E+002
 51
2.7E+002
  0
ARC
  8
3
  6
CONTINUOUS
 62
6
 10
3.7320494E+001
 20
1.6858493E+002
 40
5.0E-001
 50
0.0
 51
9.0E+001
  0
ARC
  8
3
  6
CONTINUOUS
 62
6
 10
3.7320494E+001
 20
1.3758493E+002
 40
5.0E-001
 50
2.7E+002
 51
3.6E+002
  0
LINE
  8
3
  6
CONTINUOUS
 62
6
 10
4.8320494E+001
 20
1.6608493E+002
 11
3.8320494E+001
 21
1.6608493E+002
  0
POLYLINE
  8
Drafting_Hidden_Entities
  6
CONTINUOUS
 62
6
 66
1
 40
0.0
 41
0.0
 70
2
  0
VERTEX
  8
Drafting_Hidden_Entities
 42
0.0
 10
3.6320492E+001
 20
1.6858495E+002
 70
0
  0
VERTEX
  8
Drafting_Hidden_Entities
 42
2.452971E-003
 10
3.6302079E+001
 20
1.6859966E+002
 70
1
  0
VERTEX
  8
Drafting_Hidden_Entities
 42
2.5120671E-003
 10
3.628354E+001
 20
1.6861418E+002
 70
0
  0
VERTEX
  8
Drafting_Hidden_Entities
 42
2.4631282E-003
 10
3.6264868E+001
 20
1.6862849E+002
 70
1
  0
VERTEX
  8
Drafting_Hidden_Entities
 42
2.2945553E-003
 10
3.6246081E+001
 20
1.6864262E+002
 70
0
  0
VERTEX
  8
Drafting_Hidden_Entities
 42
2.1727462E-003
 10
3.6227189E+001
 20
1.6865656E+002
 70
1
  0
VERTEX
  8
Drafting_Hidden_Entities
 42
2.0641158E-003
 10
3.6208209E+001
 20
1.6867031E+002
 70
0
  0
VERTEX
  8
Drafting_Hidden_Entities
 42
1.9631574E-003
 10
3.6189147E+001
 20
1.6868389E+002
 70
1
  0
VERTEX
  8
Drafting_Hidden_Entities
 42
1.8418479E-003
 10
3.617002E+001
 20
1.686973E+002
 70
0
  0
VERTEX
  8
Drafting_Hidden_Entities
 42
1.73772E-003
 10
3.6150836E+001
 20
1.6871054E+002
 70
1
  0
VERTEX
  8
Drafting_Hidden_Entities
 42
1.6214613E-003
 10
3.6131609E+001
 20
1.6872363E+002
 70
0
  0
VERTEX
  8
Drafting_Hidden_Entities
 42
1.5196532E-003
 10
3.6112351E+001
 20
1.6873655E+002
 70
1
  0
VERTEX
  8
Drafting_Hidden_Entities
 42
1.4033431E-003
 10
3.6093073E+001
 20
1.6874933E+002
 70
0
  0
VERTEX
  8
Drafting_Hidden_Entities
 42
1.301804E-003
 10
3.6073788E+001
 20
1.6876196E+002
 70
1
  0
VERTEX
  8
Drafting_Hidden_Entities
 42
1.1860034E-003
 10
3.6054508E+001
 20
1.6877445E+002
 70
0
  0
VERTEX
  8
Drafting_Hidden_Entities
 42
1.084459E-003
 10
3.6035244E+001
 20
1.687868E+002
 70
1
  0
VERTEX
  8
Drafting_Hidden_Entities
 42
9.681246E-004
 10
3.6016007E+001
 20
1.6879903E+002
 70
0
  0
VERTEX
  8
Drafting_Hidden_Entities
 42
8.658377E-004
 10
3.5996812E+001
 20
1.6881113E+002
 70
1
  0
VERTEX
  8
Drafting_Hidden_Entities
 42
7.48509E-004
 10
3.5977669E+001
 20
1.6882311E+002
 70
0
  0
VERTEX
  8
Drafting_Hidden_Entities
 42
6.44375E-004
 10
3.595859E+001
 20
1.6883497E+002
 70
1
  0
VERTEX
  8
Drafting_Hidden_Entities
 42
5.241823E-004
 10
3.5939587E+001
 20
1.6884673E+002
 70
0
  0
VERTEX
  8
Drafting_Hidden_Entities
 42
4.185482E-004
 10
3.5920673E+001
 20
1.6885838E+002
 70
1
  0
VERTEX
  8
Drafting_Hidden_Entities
 42
2.984204E-004
 10
3.5901858E+001
 20
1.6886994E+002
 70
0
  0
VERTEX
  8
Drafting_Hidden_Entities
 42
1.851906E-004
 10
3.5883156E+001
 20
1.6888139E+002
 70
1
  0
VERTEX
  8
Drafting_Hidden_Entities
 42
4.8387E-005
 10
3.5864577E+001
 20
1.6889277E+002
 70
0
  0
VERTEX
  8
Drafting_Hidden_Entities
 42
7.55354E-005
 10
3.5846136E+001
 20
1.6890405E+002
 70
1
  0
VERTEX
  8
Drafting_Hidden_Entities
 42
2.789933E-004
 10
3.5827835E+001
 20
1.6891523E+002
 70
0
  0
VERTEX
  8
Drafting_Hidden_Entities
 42
4.778983E-004
 10
3.580969E+001
 20
1.6892628E+002
 70
1
  0
VERTEX
  8
Drafting_Hidden_Entities
 42
7.22626E-004
 10
3.57917E+001
 20
1.6893717E+002
 70
0
  0
VERTEX
  8
Drafting_Hidden_Entities
 42
9.48278E-004
 10
3.577388E+001
 20
1.6894788E+002
 70
1
  0
VERTEX
  8
Drafting_Hidden_Entities
 42
1.207593E-003
 10
3.575623E+001
 20
1.6895838E+002
 70
0
  0
VERTEX
  8
Drafting_Hidden_Entities
 42
1.454465E-003
 10
3.5738766E+001
 20
1.6896865E+002
 70
1
  0
VERTEX
  8
Drafting_Hidden_Entities
 42
1.7418762E-003
 10
3.5721486E+001
 20
1.6897866E+002
 70
0
  0
VERTEX
  8
Drafting_Hidden_Entities
 42
2.025894E-003
 10
3.5704407E+001
 20
1.6898838E+002
 70
1
  0
VERTEX
  8
Drafting_Hidden_Entities
 42
2.3613688E-003
 10
3.5687527E+001
 20
1.6899779E+002
 70
0
  0
VERTEX
  8
Drafting_Hidden_Entities
 42
2.676541E-003
 10
3.5670861E+001
 20
1.6900686E+002
 70
1
  0
VERTEX
  8
Drafting_Hidden_Entities
 42
3.024761E-003
 10
3.5654412E+001
 20
1.6901558E+002
 70
0
  0
VERTEX
  8
Drafting_Hidden_Entities
 42
3.4490549E-003
 10
3.5638199E+001
 20
1.690239E+002
 70
1
  0
VERTEX
  8
Drafting_Hidden_Entities
 42
4.0111813E-003
 10
3.5622202E+001
 20
1.6903181E+002
 70
0
  0
VERTEX
  8
Drafting_Hidden_Entities
 42
4.3155443E-003
 10
3.5606431E+001
 20
1.6903927E+002
 70
1
  0
VERTEX
  8
Drafting_Hidden_Entities
 42
4.4119802E-003
 10
3.5590955E+001
 20
1.6904627E+002
 70
0
  0
VERTEX
  8
Drafting_Hidden_Entities
 42
5.5626912E-003
 10
3.5575817E+001
 20
1.6905277E+002
 70
1
  0
VERTEX
  8
Drafting_Hidden_Entities
 42
7.7344377E-003
 10
3.5560732E+001
 20
1.6905877E+002
 70
0
  0
VERTEX
  8
Drafting_Hidden_Entities
 42
6.2963739E-003
 10
3.5545623E+001
 20
1.6906425E+002
 70
1
  0
VERTEX
  8
Drafting_Hidden_Entities
 42
1.6341797E-003
 10
3.5531592E+001
 20
1.6906909E+002
 70
0
  0
VERTEX
  8
Drafting_Hidden_Entities
 42
1.0643873E-002
 10
3.5519038E+001
 20
1.6907321E+002
 70
1
  0
VERTEX
  8
Drafting_Hidden_Entities
 42
2.2564013E-002
 10
3.5503595E+001
 20
1.6907703E+002
 70
0
  0
VERTEX
  8
Drafting_Hidden_Entities
 42
1.2429707E-002
 10
3.5480705E+001
 20
1.6908095E+002
 70
1
  0
VERTEX
  8
Drafting_Hidden_Entities
 42
6.8026877E-003
 10
3.5451266E+001
 20
1.6908493E+002
 70
0
  0
SEQEND
  0
POLYLINE
  8
Drafting_Hidden_Entities
  6
CONTINUOUS
 62
6
 66
1
 40
0.0
 41
0.0
 70
2
  0
VERTEX
  8
Drafting_Hidden_Entities
 42
0.0
 10
3.5451266E+001
 20
1.3708495E+002
 70
0
  0
VERTEX
  8
Drafting_Hidden_Entities
 42
1.3219336E-002
 10
3.5463878E+001
 20
1.3708588E+002
 70
1
  0
VERTEX
  8
Drafting_Hidden_Entities
 42
1.2677174E-002
 10
3.5476799E+001
 20
1.370875E+002
 70
0
  0
VERTEX
  8
Drafting_Hidden_Entities
 42
1.1686611E-002
 10
3.5490045E+001
 20
1.3708984E+002
 70
1
  0
VERTEX
  8
Drafting_Hidden_Entities
 42
1.0369853E-002
 10
3.5503595E+001
 20
1.3709285E+002
 70
0
  0
VERTEX
  8
Drafting_Hidden_Entities
 42
9.299447E-003
 10
3.551745E+001
 20
1.3709651E+002
 70
1
  0
VERTEX
  8
Drafting_Hidden_Entities
 42
8.3873727E-003
 10
3.5531592E+001
 20
1.3710078E+002
 70
0
  0
VERTEX
  8
Drafting_Hidden_Entities
 42
7.5591326E-003
 10
3.5546026E+001
 20
1.3710566E+002
 70
1
  0
VERTEX
  8
Drafting_Hidden_Entities
 42
6.7666712E-003
 10
3.5560732E+001
 20
1.371111E+002
 70
0
  0
VERTEX
  8
Drafting_Hidden_Entities
 42
6.0798746E-003
 10
3.5575715E+001
 20
1.371171E+002
 70
1
  0
VERTEX
  8
Drafting_Hidden_Entities
 42
5.4384277E-003
 10
3.5590955E+001
 20
1.371236E+002
 70
0
  0
VERTEX
  8
Drafting_Hidden_Entities
 42
4.8803696E-003
 10
3.5606457E+001
 20
1.371306E+002
 70
1
  0
VERTEX
  8
Drafting_Hidden_Entities
 42
4.3475542E-003
 10
3.5622202E+001
 20
1.3713806E+002
 70
0
  0
VERTEX
  8
Drafting_Hidden_Entities
 42
3.8872927E-003
 10
3.5638193E+001
 20
1.3714597E+002
 70
1
  0
VERTEX
  8
Drafting_Hidden_Entities
 42
3.441774E-003
 10
3.5654412E+001
 20
1.3715429E+002
 70
0
  0
VERTEX
  8
Drafting_Hidden_Entities
 42
3.0578521E-003
 10
3.5670863E+001
 20
1.37163E+002
 70
1
  0
VERTEX
  8
Drafting_Hidden_Entities
 42
2.6789746E-003
 10
3.5687527E+001
 20
1.3717207E+002
 70
0
  0
VERTEX
  8
Drafting_Hidden_Entities
 42
2.3533919E-003
 10
3.5704407E+001
 20
1.3718149E+002
 70
1
  0
VERTEX
  8
Drafting_Hidden_Entities
 42
2.0257399E-003
 10
3.5721486E+001
 20
1.3719121E+002
 70
0
  0
VERTEX
  8
Drafting_Hidden_Entities
 42
1.7443002E-003
 10
3.5738766E+001
 20
1.3720122E+002
 70
1
  0
VERTEX
  8
Drafting_Hidden_Entities
 42
1.4548297E-003
 10
3.575623E+001
 20
1.3721148E+002
 70
0
  0
VERTEX
  8
Drafting_Hidden_Entities
 42
1.207253E-003
 10
3.577388E+001
 20
1.3722199E+002
 70
1
  0
VERTEX
  8
Drafting_Hidden_Entities
 42
9.48405E-004
 10
3.57917E+001
 20
1.372327E+002
 70
0
  0
VERTEX
  8
Drafting_Hidden_Entities
 42
7.228807E-004
 10
3.580969E+001
 20
1.3724359E+002
 70
1
  0
VERTEX
  8
Drafting_Hidden_Entities
 42
4.779807E-004
 10
3.5827835E+001
 20
1.3725464E+002
 70
0
  0
VERTEX
  8
Drafting_Hidden_Entities
 42
2.790079E-004
 10
3.5846136E+001
 20
1.3726582E+002
 70
1
  0
VERTEX
  8
Drafting_Hidden_Entities
 42
7.55668E-005
 10
3.5864577E+001
 20
1.372771E+002
 70
0
  0
VERTEX
  8
Drafting_Hidden_Entities
 42
4.8414E-005
 10
3.5883156E+001
 20
1.3728847E+002
 70
1
  0
VERTEX
  8
Drafting_Hidden_Entities
 42
1.851923E-004
 10
3.5901858E+001
 20
1.3729993E+002
 70
0
  0
VERTEX
  8
Drafting_Hidden_Entities
 42
2.985391E-004
 10
3.5920673E+001
 20
1.3731149E+002
 70
1
  0
VERTEX
  8
Drafting_Hidden_Entities
 42
4.189447E-004
 10
3.5939587E+001
 20
1.3732314E+002
 70
0
  0
VERTEX
  8
Drafting_Hidden_Entities
 42
5.243E-004
 10
3.595859E+001
 20
1.373349E+002
 70
1
  0
VERTEX
  8
Drafting_Hidden_Entities
 42
6.4365E-004
 10
3.5977669E+001
 20
1.3734676E+002
 70
0
  0
VERTEX
  8
Drafting_Hidden_Entities
 42
7.490043E-004
 10
3.5996812E+001
 20
1.3735874E+002
 70
1
  0
VERTEX
  8
Drafting_Hidden_Entities
 42
8.696137E-004
 10
3.6016007E+001
 20
1.3737084E+002
 70
0
  0
VERTEX
  8
Drafting_Hidden_Entities
 42
9.675252E-004
 10
3.6035246E+001
 20
1.3738307E+002
 70
1
  0
VERTEX
  8
Drafting_Hidden_Entities
 42
1.072201E-003
 10
3.6054508E+001
 20
1.3739542E+002
 70
0
  0
VERTEX
  8
Drafting_Hidden_Entities
 42
1.1898546E-003
 10
3.6073779E+001
 20
1.374079E+002
 70
1
  0
VERTEX
  8
Drafting_Hidden_Entities
 42
1.346705E-003
 10
3.6093073E+001
 20
1.3742054E+002
 70
0
  0
VERTEX
  8
Drafting_Hidden_Entities
 42
1.3910857E-003
 10
3.6112388E+001
 20
1.3743335E+002
 70
1
  0
VERTEX
  8
Drafting_Hidden_Entities
 42
1.367538E-003
 10
3.6131609E+001
 20
1.3744624E+002
 70
0
  0
VERTEX
  8
Drafting_Hidden_Entities
 42
1.668793E-003
 10
3.6150688E+001
 20
1.3745921E+002
 70
1
  0
VERTEX
  8
Drafting_Hidden_Entities
 42
2.2245521E-003
 10
3.617002E+001
 20
1.3747257E+002
 70
0
  0
VERTEX
  8
Drafting_Hidden_Entities
 42
1.6874341E-003
 10
3.6189729E+001
 20
1.3748644E+002
 70
1
  0
VERTEX
  8
Drafting_Hidden_Entities
 42
3.790877E-004
 10
3.6208209E+001
 20
1.3749956E+002
 70
0
  0
VERTEX
  8
Drafting_Hidden_Entities
 42
2.750968E-003
 10
3.6224891E+001
 20
1.375115E+002
 70
1
  0
VERTEX
  8
Drafting_Hidden_Entities
 42
5.2295913E-003
 10
3.6246081E+001
 20
1.3752725E+002
 70
0
  0
VERTEX
  8
Drafting_Hidden_Entities
 42
2.5801279E-003
 10
3.6278385E+001
 20
1.3755208E+002
 70
1
  0
VERTEX
  8
Drafting_Hidden_Entities
 42
1.3367701E-003
 10
3.6320492E+001
 20
1.3758493E+002
 70
0
  0
SEQEND
  0
POLYLINE
  8
3
  6
CONTINUOUS
 62
6
 66
1
 40
0.0
 41
0.0
 70
2
  0
VERTEX
  8
3
 42
0.0
 10
3.7908797E+001
 20
1.6649318E+002
 70
0
  0
VERTEX
  8
3
 42
-5.5642955E-002
 10
3.7908789E+001
 20
1.6649319E+002
 70
1
  0
VERTEX
  8
3
 42
-5.1674914E-003
 10
3.7908771E+001
 20
1.6649323E+002
 70
0
  0
VERTEX
  8
3
 42
-1.8898626E-003
 10
3.7908741E+001
 20
1.664933E+002
 70
1
  0
VERTEX
  8
3
 42
-1.1838266E-003
 10
3.7908699E+001
 20
1.6649339E+002
 70
0
  0
VERTEX
  8
3
 42
-8.308344E-004
 10
3.7908646E+001
 20
1.6649351E+002
 70
1
  0
VERTEX
  8
3
 42
-6.550747E-004
 10
3.7908582E+001
 20
1.6649366E+002
 70
0
  0
VERTEX
  8
3
 42
-5.42082E-004
 10
3.7908507E+001
 20
1.6649383E+002
 70
1
  0
VERTEX
  8
3
 42
-4.897806E-004
 10
3.790842E+001
 20
1.6649403E+002
 70
0
  0
VERTEX
  8
3
 42
-4.416257E-004
 10
3.7908323E+001
 20
1.6649425E+002
 70
1
  0
VERTEX
  8
3
 42
-4.178088E-004
 10
3.7908214E+001
 20
1.6649451E+002
 70
0
  0
VERTEX
  8
3
 42
-3.912859E-004
 10
3.7908095E+001
 20
1.6649479E+002
 70
1
  0
VERTEX
  8
3
 42
-3.801983E-004
 10
3.7907964E+001
 20
1.6649509E+002
 70
0
  0
VERTEX
  8
3
 42
-3.638737E-004
 10
3.7907823E+001
 20
1.6649543E+002
 70
1
  0
VERTEX
  8
3
 42
-3.582611E-004
 10
3.7907671E+001
 20
1.6649578E+002
 70
0
  0
VERTEX
  8
3
 42
-3.471759E-004
 10
3.7907509E+001
 20
1.6649617E+002
 70
1
  0
VERTEX
  8
3
 42
-3.444499E-004
 10
3.7907336E+001
 20
1.6649658E+002
 70
0
  0
VERTEX
  8
3
 42
-3.364301E-004
 10
3.7907153E+001
 20
1.6649702E+002
 70
1
  0
VERTEX
  8
3
 42
-3.352801E-004
 10
3.7906959E+001
 20
1.6649749E+002
 70
0
  0
VERTEX
  8
3
 42
-3.291786E-004
 10
3.7906755E+001
 20
1.6649798E+002
 70
1
  0
VERTEX
  8
3
 42
-3.289521E-004
 10
3.7906541E+001
 20
1.664985E+002
 70
0
  0
VERTEX
  8
3
 42
-3.241289E-004
 10
3.7906316E+001
 20
1.6649905E+002
 70
1
  0
VERTEX
  8
3
 42
-3.244579E-004
 10
3.7906082E+001
 20
1.6649962E+002
 70
0
  0
VERTEX
  8
3
 42
-3.205313E-004
 10
3.7905838E+001
 20
1.6650022E+002
 70
1
  0
VERTEX
  8
3
 42
-3.212147E-004
 10
3.7905583E+001
 20
1.6650084E+002
 70
0
  0
VERTEX
  8
3
 42
-3.17927E-004
 10
3.7905319E+001
 20
1.665015E+002
 70
1
  0
VERTEX
  8
3
 42
-3.187963E-004
 10
3.7905045E+001
 20
1.6650218E+002
 70
0
  0
VERTEX
  8
3
 42
-3.160386E-004
 10
3.7904761E+001
 20
1.6650288E+002
 70
1
  0
VERTEX
  8
3
 42
-3.17163E-004
 10
3.7904468E+001
 20
1.6650361E+002
 70
0
  0
VERTEX
  8
3
 42
-3.14624E-004
 10
3.7904165E+001
 20
1.6650437E+002
 70
1
  0
VERTEX
  8
3
 42
-3.153827E-004
 10
3.7903853E+001
 20
1.6650516E+002
 70
0
  0
VERTEX
  8
3
 42
-3.137407E-004
 10
3.7903531E+001
 20
1.6650597E+002
 70
1
  0
VERTEX
  8
3
 42
-3.162697E-004
 10
3.79032E+001
 20
1.6650681E+002
 70
0
  0
VERTEX
  8
3
 42
-3.12583E-004
 10
3.7902859E+001
 20
1.6650767E+002
 70
1
  0
VERTEX
  8
3
 42
-3.085553E-004
 10
3.790251E+001
 20
1.6650857E+002
 70
0
  0
VERTEX
  8
3
 42
-3.137976E-004
 10
3.7902151E+001
 20
1.6650948E+002
 70
1
  0
VERTEX
  8
3
 42
-3.350707E-004
 10
3.7901784E+001
 20
1.6651043E+002
 70
0
  0
VERTEX
  8
3
 42
-3.069742E-004
 10
3.7901408E+001
 20
1.665114E+002
 70
1
  0
VERTEX
  8
3
 42
-2.311461E-004
 10
3.7901022E+001
 20
1.665124E+002
 70
0
  0
VERTEX
  8
3
 42
-3.315841E-004
 10
3.7900626E+001
 20
1.6651343E+002
 70
1
  0
VERTEX
  8
3
 42
-6.329612E-004
 10
3.7900225E+001
 20
1.6651448E+002
 70
0
  0
VERTEX
  8
3
 42
-2.337504E-004
 10
3.789982E+001
 20
1.6651554E+002
 70
1
  0
VERTEX
  8
3
 42
8.812912E-004
 10
3.7899393E+001
 20
1.6651666E+002
 70
0
  0
VERTEX
  8
3
 42
1.5444018E-003
 10
3.7898889E+001
 20
1.6651796E+002
 70
1
  0
VERTEX
  8
3
 42
1.1076474E-003
 10
3.7898131E+001
 20
1.6651988E+002
 70
0
  0
VERTEX
  8
3
 42
-5.005458E-004
 10
3.7896935E+001
 20
1.6652291E+002
 70
1
  0
VERTEX
  8
3
 42
-1.922963E-003
 10
3.7895337E+001
 20
1.66527E+002
 70
0
  0
VERTEX
  8
3
 42
-2.2815453E-003
 10
3.7893377E+001
 20
1.6653216E+002
 70
1
  0
VERTEX
  8
3
 42
-2.4549324E-003
 10
3.7891083E+001
 20
1.6653838E+002
 70
0
  0
VERTEX
  8
3
 42
-2.449298E-003
 10
3.7888453E+001
 20
1.6654573E+002
 70
1
  0
VERTEX
  8
3
 42
-2.5708652E-003
 10
3.7885518E+001
 20
1.6655419E+002
 70
0
  0
VERTEX
  8
3
 42
-2.5477419E-003
 10
3.7882288E+001
 20
1.6656383E+002
 70
1
  0
VERTEX
  8
3
 42
-2.5947813E-003
 10
3.787879E+001
 20
1.6657464E+002
 70
0
  0
VERTEX
  8
3
 42
-2.5351699E-003
 10
3.7875031E+001
 20
1.6658668E+002
 70
1
  0
VERTEX
  8
3
 42
-2.5645783E-003
 10
3.787105E+001
 20
1.665999E+002
 70
0
  0
VERTEX
  8
3
 42
-2.512967E-003
 10
3.7866859E+001
 20
1.6661436E+002
 70
1
  0
VERTEX
  8
3
 42
-2.4467298E-003
 10
3.7862446E+001
 20
1.6663016E+002
 70
0
  0
VERTEX
  8
3
 42
-2.4587518E-003
 10
3.7857807E+001
 20
1.6664743E+002
 70
1
  0
VERTEX
  8
3
 42
-2.9037848E-003
 10
3.785313E+001
 20
1.666656E+002
 70
0
  0
VERTEX
  8
3
 42
-3.1646694E-003
 10
3.7848621E+001
 20
1.6668407E+002
 70
1
  0
VERTEX
  8
3
 42
-3.3459261E-003
 10
3.7844412E+001
 20
1.6670233E+002
 70
0
  0
VERTEX
  8
3
 42
-3.477128E-003
 10
3.7840615E+001
 20
1.6671994E+002
 70
1
  0
VERTEX
  8
3
 42
-3.2174572E-003
 10
3.7837189E+001
 20
1.6673691E+002
 70
0
  0
VERTEX
  8
3
 42
-3.0691983E-003
 10
3.78341E+001
 20
1.6675328E+002
 70
1
  0
VERTEX
  8
3
 42
-2.9972248E-003
 10
3.783132E+001
 20
1.6676906E+002
 70
0
  0
VERTEX
  8
3
 42
-2.9572297E-003
 10
3.7828852E+001
 20
1.6678414E+002
 70
1
  0
VERTEX
  8
3
 42
-2.8218341E-003
 10
3.7826665E+001
 20
1.6679852E+002
 70
0
  0
VERTEX
  8
3
 42
-2.7591299E-003
 10
3.7824752E+001
 20
1.6681216E+002
 70
1
  0
VERTEX
  8
3
 42
-2.655858E-003
 10
3.7823084E+001
 20
1.6682504E+002
 70
0
  0
VERTEX
  8
3
 42
-2.6032903E-003
 10
3.7821653E+001
 20
1.6683711E+002
 70
1
  0
VERTEX
  8
3
 42
-2.4708738E-003
 10
3.7820434E+001
 20
1.6684836E+002
 70
0
  0
VERTEX
  8
3
 42
-2.45564E-003
 10
3.7819417E+001
 20
1.6685872E+002
 70
1
  0
VERTEX
  8
3
 42
-2.4004039E-003
 10
3.7818576E+001
 20
1.6686822E+002
 70
0
  0
VERTEX
  8
3
 42
-2.2843932E-003
 10
3.7817899E+001
 20
1.6687681E+002
 70
1
  0
VERTEX
  8
3
 42
-1.9824932E-003
 10
3.7817368E+001
 20
1.6688435E+002
 70
0
  0
VERTEX
  8
3
 42
-2.2424863E-003
 10
3.7816974E+001
 20
1.6689072E+002
 70
1
  0
VERTEX
  8
3
 42
-2.4192436E-003
 10
3.781667E+001
 20
1.668965E+002
 70
0
  0
VERTEX
  8
3
 42
-2.318719E-003
 10
3.7816425E+001
 20
1.6690222E+002
 70
1
  0
VERTEX
  8
3
 42
-2.723885E-003
 10
3.781624E+001
 20
1.6690781E+002
 70
0
  0
SEQEND
  0
POLYLINE
  8
3
  6
CONTINUOUS
 62
6
 66
1
 40
0.0
 41
0.0
 70
2
  0
VERTEX
  8
3
 42
0.0
 10
3.7820503E+001
 20
1.668477E+002
 70
0
  0
VERTEX
  8
3
 42
-8.073E-007
 10
3.7820502E+001
 20
1.6684787E+002
 70
1
  0
VERTEX
  8
3
 42
-8.21E-007
 10
3.7820502E+001
 20
1.6684804E+002
 70
0
  0
VERTEX
  8
3
 42
-8.501E-007
 10
3.7820502E+001
 20
1.6684821E+002
 70
1
  0
VERTEX
  8
3
 42
-8.958E-007
 10
3.7820502E+001
 20
1.6684838E+002
 70
0
  0
VERTEX
  8
3
 42
-9.387E-007
 10
3.7820501E+001
 20
1.6684854E+002
 70
1
  0
VERTEX
  8
3
 42
-9.81E-007
 10
3.7820501E+001
 20
1.6684871E+002
 70
0
  0
VERTEX
  8
3
 42
-1.0258E-006
 10
3.7820501E+001
 20
1.6684887E+002
 70
1
  0
VERTEX
  8
3
 42
-1.0748E-006
 10
3.78205E+001
 20
1.6684903E+002
 70
0
  0
VERTEX
  8
3
 42
-1.1253E-006
 10
3.78205E+001
 20
1.6684918E+002
 70
1
  0
VERTEX
  8
3
 42
-1.1793E-006
 10
3.78205E+001
 20
1.6684933E+002
 70
0
  0
VERTEX
  8
3
 42
-1.2359E-006
 10
3.78205E+001
 20
1.6684948E+002
 70
1
  0
VERTEX
  8
3
 42
-1.2964E-006
 10
3.7820499E+001
 20
1.6684963E+002
 70
0
  0
VERTEX
  8
3
 42
-1.36E-006
 10
3.7820499E+001
 20
1.6684978E+002
 70
1
  0
VERTEX
  8
3
 42
-1.4281E-006
 10
3.7820499E+001
 20
1.6684992E+002
 70
0
  0
VERTEX
  8
3
 42
-1.5001E-006
 10
3.7820499E+001
 20
1.6685006E+002
 70
1
  0
VERTEX
  8
3
 42
-1.5771E-006
 10
3.7820499E+001
 20
1.668502E+002
 70
0
  0
VERTEX
  8
3
 42
-1.659E-006
 10
3.7820498E+001
 20
1.6685034E+002
 70
1
  0
VERTEX
  8
3
 42
-1.7467E-006
 10
3.7820498E+001
 20
1.6685047E+002
 70
0
  0
VERTEX
  8
3
 42
-1.8404E-006
 10
3.7820498E+001
 20
1.668506E+002
 70
1
  0
VERTEX
  8
3
 42
-1.9409E-006
 10
3.7820498E+001
 20
1.6685073E+002
 70
0
  0
VERTEX
  8
3
 42
-2.049E-006
 10
3.7820498E+001
 20
1.6685085E+002
 70
1
  0
VERTEX
  8
3
 42
-2.1647E-006
 10
3.7820497E+001
 20
1.6685098E+002
 70
0
  0
VERTEX
  8
3
 42
-2.2901E-006
 10
3.7820497E+001
 20
1.668511E+002
 70
1
  0
VERTEX
  8
3
 42
-2.4249E-006
 10
3.7820497E+001
 20
1.6685121E+002
 70
0
  0
VERTEX
  8
3
 42
-2.5718E-006
 10
3.7820497E+001
 20
1.6685133E+002
 70
1
  0
VERTEX
  8
3
 42
-2.7297E-006
 10
3.7820497E+001
 20
1.6685144E+002
 70
0
  0
VERTEX
  8
3
 42
-2.9031E-006
 10
3.7820497E+001
 20
1.6685155E+002
 70
1
  0
VERTEX
  8
3
 42
-3.0901E-006
 10
3.7820496E+001
 20
1.6685166E+002
 70
0
  0
VERTEX
  8
3
 42
-3.2971E-006
 10
3.7820496E+001
 20
1.6685176E+002
 70
1
  0
VERTEX
  8
3
 42
-3.5208E-006
 10
3.7820496E+001
 20
1.6685186E+002
 70
0
  0
VERTEX
  8
3
 42
-3.7706E-006
 10
3.7820496E+001
 20
1.6685196E+002
 70
1
  0
VERTEX
  8
3
 42
-4.0417E-006
 10
3.7820496E+001
 20
1.6685205E+002
 70
0
  0
VERTEX
  8
3
 42
-4.3466E-006
 10
3.7820496E+001
 20
1.6685215E+002
 70
1
  0
VERTEX
  8
3
 42
-4.6782E-006
 10
3.7820496E+001
 20
1.6685224E+002
 70
0
  0
VERTEX
  8
3
 42
-5.0576E-006
 10
3.7820495E+001
 20
1.6685232E+002
 70
1
  0
VERTEX
  8
3
 42
-5.4759E-006
 10
3.7820495E+001
 20
1.668524E+002
 70
0
  0
VERTEX
  8
3
 42
-5.948E-006
 10
3.7820495E+001
 20
1.6685248E+002
 70
1
  0
VERTEX
  8
3
 42
-6.4592E-006
 10
3.7820495E+001
 20
1.6685256E+002
 70
0
  0
VERTEX
  8
3
 42
-7.0908E-006
 10
3.7820495E+001
 20
1.6685264E+002
 70
1
  0
VERTEX
  8
3
 42
-7.8388E-006
 10
3.7820495E+001
 20
1.6685271E+002
 70
0
  0
VERTEX
  8
3
 42
-8.5626E-006
 10
3.7820495E+001
 20
1.6685278E+002
 70
1
  0
VERTEX
  8
3
 42
-9.1872E-006
 10
3.7820495E+001
 20
1.6685284E+002
 70
0
  0
VERTEX
  8
3
 42
-1.06262E-005
 10
3.7820495E+001
 20
1.668529E+002
 70
1
  0
VERTEX
  8
3
 42
-1.31091E-005
 10
3.7820495E+001
 20
1.6685296E+002
 70
0
  0
VERTEX
  8
3
 42
-1.3104E-005
 10
3.7820495E+001
 20
1.6685302E+002
 70
1
  0
VERTEX
  8
3
 42
-9.373E-006
 10
3.7820495E+001
 20
1.6685307E+002
 70
0
  0
VERTEX
  8
3
 42
-1.83066E-005
 10
3.7820495E+001
 20
1.6685312E+002
 70
1
  0
VERTEX
  8
3
 42
-4.57953E-005
 10
3.7820494E+001
 20
1.6685316E+002
 70
0
  0
VERTEX
  8
3
 42
-1.92176E-005
 10
3.7820494E+001
 20
1.6685321E+002
 70
1
  0
VERTEX
  8
3
 42
9.17843E-005
 10
3.7820494E+001
 20
1.6685325E+002
 70
0
  0
VERTEX
  8
3
 42
-5.07908E-005
 10
3.7820494E+001
 20
1.6685328E+002
 70
1
  0
VERTEX
  8
3
 42
-6.029117E-004
 10
3.7820494E+001
 20
1.6685331E+002
 70
0
  0
VERTEX
  8
3
 42
1.75524E-005
 10
3.7820494E+001
 20
1.6685334E+002
 70
1
  0
VERTEX
  8
3
 42
2.87283E-003
 10
3.7820494E+001
 20
1.6685337E+002
 70
0
  0
VERTEX
  8
3
 42
-2.0217733E-003
 10
3.7820494E+001
 20
1.6685339E+002
 70
1
  0
VERTEX
  8
3
 42
-1.0501642E-002
 10
3.7820495E+001
 20
1.6685342E+002
 70
0
  0
VERTEX
  8
3
 42
-4.914389E-003
 10
3.7820497E+001
 20
1.6685347E+002
 70
1
  0
VERTEX
  8
3
 42
-2.2024034E-003
 10
3.7820501E+001
 20
1.6685353E+002
 70
0
  0
SEQEND
  0
POLYLINE
  8
3
  6
CONTINUOUS
 62
6
 66
1
 40
0.0
 41
0.0
 70
2
  0
VERTEX
  8
3
 42
0.0
 10
3.8086639E+001
 20
1.6622102E+002
 70
0
  0
VERTEX
  8
3
 42
-2.207302E-004
 10
3.8085111E+001
 20
1.6622338E+002
 70
1
  0
VERTEX
  8
3
 42
-2.387911E-004
 10
3.8083582E+001
 20
1.6622574E+002
 70
0
  0
VERTEX
  8
3
 42
-2.19408E-004
 10
3.8082053E+001
 20
1.662281E+002
 70
1
  0
VERTEX
  8
3
 42
-1.581619E-004
 10
3.8080522E+001
 20
1.6623047E+002
 70
0
  0
VERTEX
  8
3
 42
-1.309944E-004
 10
3.8078989E+001
 20
1.6623285E+002
 70
1
  0
VERTEX
  8
3
 42
-1.309397E-004
 10
3.8077453E+001
 20
1.6623524E+002
 70
0
  0
VERTEX
  8
3
 42
-1.315637E-004
 10
3.8075915E+001
 20
1.6623763E+002
 70
1
  0
VERTEX
  8
3
 42
-1.33227E-004
 10
3.8074374E+001
 20
1.6624003E+002
 70
0
  0
VERTEX
  8
3
 42
-1.282089E-004
 10
3.8072829E+001
 20
1.6624244E+002
 70
1
  0
VERTEX
  8
3
 42
-1.156937E-004
 10
3.8071281E+001
 20
1.6624485E+002
 70
0
  0
VERTEX
  8
3
 42
-1.026851E-004
 10
3.8069731E+001
 20
1.6624727E+002
 70
1
  0
VERTEX
  8
3
 42
-8.60889E-005
 10
3.8068178E+001
 20
1.662497E+002
 70
0
  0
VERTEX
  8
3
 42
-7.2368E-005
 10
3.8066622E+001
 20
1.6625213E+002
 70
1
  0
VERTEX
  8
3
 42
-5.80847E-005
 10
3.8065064E+001
 20
1.6625457E+002
 70
0
  0
VERTEX
  8
3
 42
-4.95813E-005
 10
3.8063505E+001
 20
1.6625701E+002
 70
1
  0
VERTEX
  8
3
 42
-4.46741E-005
 10
3.8061944E+001
 20
1.6625946E+002
 70
0
  0
VERTEX
  8
3
 42
-4.01222E-005
 10
3.806038E+001
 20
1.6626191E+002
 70
1
  0
VERTEX
  8
3
 42
-3.481E-005
 10
3.8058815E+001
 20
1.6626436E+002
 70
0
  0
VERTEX
  8
3
 42
-3.0189E-005
 10
3.8057248E+001
 20
1.6626682E+002
 70
1
  0
VERTEX
  8
3
 42
-2.51117E-005
 10
3.8055678E+001
 20
1.6626928E+002
 70
0
  0
VERTEX
  8
3
 42
-2.0461E-005
 10
3.8054107E+001
 20
1.6627175E+002
 70
1
  0
VERTEX
  8
3
 42
-1.50748E-005
 10
3.8052533E+001
 20
1.6627422E+002
 70
0
  0
VERTEX
  8
3
 42
-1.08842E-005
 10
3.8050957E+001
 20
1.6627669E+002
 70
1
  0
VERTEX
  8
3
 42
-6.8281E-006
 10
3.8049379E+001
 20
1.6627917E+002
 70
0
  0
VERTEX
  8
3
 42
3.044E-007
 10
3.8047799E+001
 20
1.6628165E+002
 70
1
  0
VERTEX
  8
3
 42
1.2308E-005
 10
3.8046216E+001
 20
1.6628413E+002
 70
0
  0
VERTEX
  8
3
 42
2.4574E-005
 10
3.8044631E+001
 20
1.6628662E+002
 70
1
  0
VERTEX
  8
3
 42
4.02609E-005
 10
3.8043045E+001
 20
1.6628911E+002
 70
0
  0
VERTEX
  8
3
 42
5.4317E-005
 10
3.8041457E+001
 20
1.662916E+002
 70
1
  0
VERTEX
  8
3
 42
7.03731E-005
 10
3.8039868E+001
 20
1.6629409E+002
 70
0
  0
VERTEX
  8
3
 42
7.69733E-005
 10
3.8038278E+001
 20
1.6629658E+002
 70
1
  0
VERTEX
  8
3
 42
7.57846E-005
 10
3.8036687E+001
 20
1.6629907E+002
 70
0
  0
VERTEX
  8
3
 42
7.35619E-005
 10
3.8035095E+001
 20
1.6630155E+002
 70
1
  0
VERTEX
  8
3
 42
6.97323E-005
 10
3.8033503E+001
 20
1.6630404E+002
 70
0
  0
VERTEX
  8
3
 42
6.66311E-005
 10
3.803191E+001
 20
1.6630653E+002
 70
1
  0
VERTEX
  8
3
 42
6.34674E-005
 10
3.8030316E+001
 20
1.6630902E+002
 70
0
  0
VERTEX
  8
3
 42
6.05901E-005
 10
3.8028722E+001
 20
1.6631151E+002
 70
1
  0
VERTEX
  8
3
 42
5.72628E-005
 10
3.8027128E+001
 20
1.6631399E+002
 70
0
  0
VERTEX
  8
3
 42
5.43332E-005
 10
3.8025532E+001
 20
1.6631648E+002
 70
1
  0
VERTEX
  8
3
 42
5.10517E-005
 10
3.8023937E+001
 20
1.6631897E+002
 70
0
  0
VERTEX
  8
3
 42
4.8139E-005
 10
3.8022341E+001
 20
1.6632145E+002
 70
1
  0
VERTEX
  8
3
 42
4.48488E-005
 10
3.8020745E+001
 20
1.6632394E+002
 70
0
  0
VERTEX
  8
3
 42
4.19341E-005
 10
3.8019148E+001
 20
1.6632642E+002
 70
1
  0
VERTEX
  8
3
 42
3.86479E-005
 10
3.8017552E+001
 20
1.663289E+002
 70
0
  0
VERTEX
  8
3
 42
3.5735E-005
 10
3.8015955E+001
 20
1.6633139E+002
 70
1
  0
VERTEX
  8
3
 42
3.24486E-005
 10
3.8014358E+001
 20
1.6633387E+002
 70
0
  0
VERTEX
  8
3
 42
2.95351E-005
 10
3.8012761E+001
 20
1.6633635E+002
 70
1
  0
VERTEX
  8
3
 42
2.62473E-005
 10
3.8011164E+001
 20
1.6633883E+002
 70
0
  0
VERTEX
  8
3
 42
2.33339E-005
 10
3.8009567E+001
 20
1.6634131E+002
 70
1
  0
VERTEX
  8
3
 42
2.00476E-005
 10
3.800797E+001
 20
1.6634379E+002
 70
0
  0
VERTEX
  8
3
 42
1.71278E-005
 10
3.8006373E+001
 20
1.6634627E+002
 70
1
  0
VERTEX
  8
3
 42
1.38263E-005
 10
3.8004777E+001
 20
1.6634875E+002
 70
0
  0
VERTEX
  8
3
 42
1.092E-005
 10
3.8003181E+001
 20
1.6635123E+002
 70
1
  0
VERTEX
  8
3
 42
7.6648E-006
 10
3.8001585E+001
 20
1.6635371E+002
 70
0
  0
VERTEX
  8
3
 42
4.6894E-006
 10
3.7999989E+001
 20
1.6635618E+002
 70
1
  0
VERTEX
  8
3
 42
1.2332E-006
 10
3.7998394E+001
 20
1.6635866E+002
 70
0
  0
VERTEX
  8
3
 42
-1.4904E-006
 10
3.79968E+001
 20
1.6636113E+002
 70
1
  0
VERTEX
  8
3
 42
-4.1766E-006
 10
3.7995205E+001
 20
1.6636361E+002
 70
0
  0
VERTEX
  8
3
 42
-8.317E-006
 10
3.7993612E+001
 20
1.6636608E+002
 70
1
  0
VERTEX
  8
3
 42
-1.49703E-005
 10
3.7992019E+001
 20
1.6636856E+002
 70
0
  0
VERTEX
  8
3
 42
-2.25574E-005
 10
3.7990427E+001
 20
1.6637103E+002
 70
1
  0
VERTEX
  8
3
 42
-3.30133E-005
 10
3.7988835E+001
 20
1.663735E+002
 70
0
  0
VERTEX
  8
3
 42
-4.19614E-005
 10
3.7987245E+001
 20
1.6637597E+002
 70
1
  0
VERTEX
  8
3
 42
-5.16769E-005
 10
3.7985655E+001
 20
1.6637844E+002
 70
0
  0
VERTEX
  8
3
 42
-6.03922E-005
 10
3.7984067E+001
 20
1.6638091E+002
 70
1
  0
VERTEX
  8
3
 42
-7.03194E-005
 10
3.798248E+001
 20
1.6638338E+002
 70
0
  0
VERTEX
  8
3
 42
-7.91179E-005
 10
3.7980894E+001
 20
1.6638585E+002
 70
1
  0
VERTEX
  8
3
 42
-8.90159E-005
 10
3.7979309E+001
 20
1.6638832E+002
 70
0
  0
VERTEX
  8
3
 42
-9.78176E-005
 10
3.7977726E+001
 20
1.6639079E+002
 70
1
  0
VERTEX
  8
3
 42
-1.077478E-004
 10
3.7976145E+001
 20
1.6639326E+002
 70
0
  0
VERTEX
  8
3
 42
-1.165731E-004
 10
3.7974565E+001
 20
1.6639572E+002
 70
1
  0
VERTEX
  8
3
 42
-1.265202E-004
 10
3.7972987E+001
 20
1.6639819E+002
 70
0
  0
VERTEX
  8
3
 42
-1.353644E-004
 10
3.797141E+001
 20
1.6640066E+002
 70
1
  0
VERTEX
  8
3
 42
-1.453326E-004
 10
3.7969836E+001
 20
1.6640313E+002
 70
0
  0
VERTEX
  8
3
 42
-1.54197E-004
 10
3.7968264E+001
 20
1.664056E+002
 70
1
  0
VERTEX
  8
3
 42
-1.64185E-004
 10
3.7966694E+001
 20
1.6640807E+002
 70
0
  0
VERTEX
  8
3
 42
-1.730697E-004
 10
3.7965126E+001
 20
1.6641053E+002
 70
1
  0
VERTEX
  8
3
 42
-1.830782E-004
 10
3.796356E+001
 20
1.66413E+002
 70
0
  0
VERTEX
  8
3
 42
-1.919828E-004
 10
3.7961997E+001
 20
1.6641547E+002
 70
1
  0
VERTEX
  8
3
 42
-2.020112E-004
 10
3.7960436E+001
 20
1.6641794E+002
 70
0
  0
VERTEX
  8
3
 42
-2.109367E-004
 10
3.7958878E+001
 20
1.6642041E+002
 70
1
  0
VERTEX
  8
3
 42
-2.209878E-004
 10
3.7957322E+001
 20
1.6642288E+002
 70
0
  0
VERTEX
  8
3
 42
-2.2993E-004
 10
3.795577E+001
 20
1.6642535E+002
 70
1
  0
VERTEX
  8
3
 42
-2.399923E-004
 10
3.795422E+001
 20
1.6642783E+002
 70
0
  0
VERTEX
  8
3
 42
-2.489664E-004
 10
3.7952673E+001
 20
1.664303E+002
 70
1
  0
VERTEX
  8
3
 42
-2.590846E-004
 10
3.7951129E+001
 20
1.6643277E+002
 70
0
  0
VERTEX
  8
3
 42
-2.680314E-004
 10
3.7949589E+001
 20
1.6643524E+002
 70
1
  0
VERTEX
  8
3
 42
-2.780289E-004
 10
3.7948051E+001
 20
1.6643772E+002
 70
0
  0
VERTEX
  8
3
 42
-2.871814E-004
 10
3.7946517E+001
 20
1.664402E+002
 70
1
  0
VERTEX
  8
3
 42
-2.977548E-004
 10
3.7944987E+001
 20
1.6644267E+002
 70
0
  0
VERTEX
  8
3
 42
-3.093686E-004
 10
3.794346E+001
 20
1.6644515E+002
 70
1
  0
VERTEX
  8
3
 42
-3.248851E-004
 10
3.7941936E+001
 20
1.6644763E+002
 70
0
  0
VERTEX
  8
3
 42
-3.385077E-004
 10
3.7940416E+001
 20
1.6645011E+002
 70
1
  0
VERTEX
  8
3
 42
-3.536593E-004
 10
3.79389E+001
 20
1.6645259E+002
 70
0
  0
VERTEX
  8
3
 42
-3.67093E-004
 10
3.7937388E+001
 20
1.6645507E+002
 70
1
  0
VERTEX
  8
3
 42
-3.82204E-004
 10
3.7935879E+001
 20
1.6645756E+002
 70
0
  0
VERTEX
  8
3
 42
-3.955417E-004
 10
3.7934375E+001
 20
1.6646005E+002
 70
1
  0
VERTEX
  8
3
 42
-4.105053E-004
 10
3.7932874E+001
 20
1.6646254E+002
 70
0
  0
VERTEX
  8
3
 42
-4.236986E-004
 10
3.7931377E+001
 20
1.6646503E+002
 70
1
  0
VERTEX
  8
3
 42
-4.385158E-004
 10
3.7929885E+001
 20
1.6646753E+002
 70
0
  0
VERTEX
  8
3
 42
-4.51553E-004
 10
3.7928396E+001
 20
1.6647003E+002
 70
1
  0
VERTEX
  8
3
 42
-4.662021E-004
 10
3.7926912E+001
 20
1.6647253E+002
 70
0
  0
VERTEX
  8
3
 42
-4.790568E-004
 10
3.7925432E+001
 20
1.6647504E+002
 70
1
  0
VERTEX
  8
3
 42
-4.935038E-004
 10
3.7923957E+001
 20
1.6647755E+002
 70
0
  0
VERTEX
  8
3
 42
-5.061769E-004
 10
3.7922485E+001
 20
1.6648007E+002
 70
1
  0
VERTEX
  8
3
 42
-5.204604E-004
 10
3.7921018E+001
 20
1.6648259E+002
 70
0
  0
VERTEX
  8
3
 42
-5.328542E-004
 10
3.7919556E+001
 20
1.6648511E+002
 70
1
  0
VERTEX
  8
3
 42
-5.467309E-004
 10
3.7918098E+001
 20
1.6648764E+002
 70
0
  0
VERTEX
  8
3
 42
-5.591248E-004
 10
3.7916645E+001
 20
1.6649017E+002
 70
1
  0
VERTEX
  8
3
 42
-5.734258E-004
 10
3.7915196E+001
 20
1.6649271E+002
 70
0
  0
VERTEX
  8
3
 42
-5.805387E-004
 10
3.7913753E+001
 20
1.6649526E+002
 70
1
  0
VERTEX
  8
3
 42
-5.8313E-004
 10
3.7912314E+001
 20
1.6649781E+002
 70
0
  0
VERTEX
  8
3
 42
-5.853697E-004
 10
3.7910881E+001
 20
1.6650036E+002
 70
1
  0
VERTEX
  8
3
 42
-5.879626E-004
 10
3.7909455E+001
 20
1.6650291E+002
 70
0
  0
VERTEX
  8
3
 42
-5.909858E-004
 10
3.7908035E+001
 20
1.6650547E+002
 70
1
  0
VERTEX
  8
3
 42
-5.949924E-004
 10
3.7906623E+001
 20
1.6650803E+002
 70
0
  0
VERTEX
  8
3
 42
-5.997069E-004
 10
3.7905219E+001
 20
1.6651059E+002
 70
1
  0
VERTEX
  8
3
 42
-6.0579E-004
 10
3.7903823E+001
 20
1.6651315E+002
 70
0
  0
VERTEX
  8
3
 42
-6.107667E-004
 10
3.7902436E+001
 20
1.665157E+002
 70
1
  0
VERTEX
  8
3
 42
-6.152436E-004
 10
3.7901059E+001
 20
1.6651826E+002
 70
0
  0
VERTEX
  8
3
 42
-6.291982E-004
 10
3.7899692E+001
 20
1.6652081E+002
 70
1
  0
VERTEX
  8
3
 42
-6.54046E-004
 10
3.7898335E+001
 20
1.6652336E+002
 70
0
  0
VERTEX
  8
3
 42
-6.81177E-004
 10
3.7896988E+001
 20
1.665259E+002
 70
1
  0
VERTEX
  8
3
 42
-7.156499E-004
 10
3.789565E+001
 20
1.6652845E+002
 70
0
  0
VERTEX
  8
3
 42
-7.404584E-004
 10
3.789432E+001
 20
1.6653099E+002
 70
1
  0
VERTEX
  8
3
 42
-7.626226E-004
 10
3.7892998E+001
 20
1.6653354E+002
 70
0
  0
VERTEX
  8
3
 42
-7.93918E-004
 10
3.7891684E+001
 20
1.665361E+002
 70
1
  0
VERTEX
  8
3
 42
-8.380874E-004
 10
3.7890375E+001
 20
1.6653867E+002
 70
0
  0
VERTEX
  8
3
 42
-8.308946E-004
 10
3.7889071E+001
 20
1.6654125E+002
 70
1
  0
VERTEX
  8
3
 42
-7.896621E-004
 10
3.7887776E+001
 20
1.6654382E+002
 70
0
  0
VERTEX
  8
3
 42
-8.969811E-004
 10
3.7886494E+001
 20
1.665464E+002
 70
1
  0
VERTEX
  8
3
 42
-1.1005672E-003
 10
3.7885195E+001
 20
1.6654904E+002
 70
0
  0
VERTEX
  8
3
 42
-8.340002E-004
 10
3.7883871E+001
 20
1.6655176E+002
 70
1
  0
VERTEX
  8
3
 42
-2.744359E-004
 10
3.7882629E+001
 20
1.6655432E+002
 70
0
  0
VERTEX
  8
3
 42
-1.2193796E-003
 10
3.7881506E+001
 20
1.6655665E+002
 70
1
  0
VERTEX
  8
3
 42
-2.083867E-003
 10
3.788007E+001
 20
1.6655968E+002
 70
0
  0
VERTEX
  8
3
 42
-1.0034069E-003
 10
3.787787E+001
 20
1.6656441E+002
 70
1
  0
VERTEX
  8
3
 42
-5.255763E-004
 10
3.7874995E+001
 20
1.6657063E+002
 70
0
  0
SEQEND
  0
POLYLINE
  8
3
  6
CONTINUOUS
 62
6
 66
1
 40
0.0
 41
0.0
 70
2
  0
VERTEX
  8
3
 42
0.0
 10
3.8313685E+001
 20
1.6608498E+002
 70
0
  0
VERTEX
  8
3
 42
-2.2626692E-003
 10
3.8313015E+001
 20
1.66085E+002
 70
1
  0
VERTEX
  8
3
 42
-1.8812113E-003
 10
3.8312271E+001
 20
1.6608503E+002
 70
0
  0
VERTEX
  8
3
 42
-1.5024214E-003
 10
3.8311449E+001
 20
1.6608508E+002
 70
1
  0
VERTEX
  8
3
 42
-1.1805916E-003
 10
3.8310559E+001
 20
1.6608513E+002
 70
0
  0
VERTEX
  8
3
 42
-9.683528E-004
 10
3.8309606E+001
 20
1.6608519E+002
 70
1
  0
VERTEX
  8
3
 42
-8.196103E-004
 10
3.8308598E+001
 20
1.6608525E+002
 70
0
  0
VERTEX
  8
3
 42
-7.04971E-004
 10
3.8307539E+001
 20
1.6608533E+002
 70
1
  0
VERTEX
  8
3
 42
-6.122092E-004
 10
3.8306437E+001
 20
1.660854E+002
 70
0
  0
VERTEX
  8
3
 42
-5.420411E-004
 10
3.8305298E+001
 20
1.6608549E+002
 70
1
  0
VERTEX
  8
3
 42
-4.847361E-004
 10
3.8304128E+001
 20
1.6608558E+002
 70
0
  0
VERTEX
  8
3
 42
-4.410167E-004
 10
3.8302932E+001
 20
1.6608567E+002
 70
1
  0
VERTEX
  8
3
 42
-4.041624E-004
 10
3.8301719E+001
 20
1.6608576E+002
 70
0
  0
VERTEX
  8
3
 42
-3.769927E-004
 10
3.8300493E+001
 20
1.6608586E+002
 70
1
  0
VERTEX
  8
3
 42
-3.541352E-004
 10
3.8299261E+001
 20
1.6608596E+002
 70
0
  0
VERTEX
  8
3
 42
-3.388272E-004
 10
3.8298029E+001
 20
1.6608607E+002
 70
1
  0
VERTEX
  8
3
 42
-3.266598E-004
 10
3.8296803E+001
 20
1.6608617E+002
 70
0
  0
VERTEX
  8
3
 42
-3.211747E-004
 10
3.8295591E+001
 20
1.6608628E+002
 70
1
  0
VERTEX
  8
3
 42
-3.186943E-004
 10
3.8294396E+001
 20
1.6608638E+002
 70
0
  0
VERTEX
  8
3
 42
-3.230949E-004
 10
3.8293228E+001
 20
1.6608648E+002
 70
1
  0
VERTEX
  8
3
 42
-3.314254E-004
 10
3.829209E+001
 20
1.6608659E+002
 70
0
  0
VERTEX
  8
3
 42
-3.480518E-004
 10
3.8290991E+001
 20
1.6608669E+002
 70
1
  0
VERTEX
  8
3
 42
-3.70911E-004
 10
3.8289934E+001
 20
1.6608678E+002
 70
0
  0
VERTEX
  8
3
 42
-4.065693E-004
 10
3.8288929E+001
 20
1.6608688E+002
 70
1
  0
VERTEX
  8
3
 42
-4.551063E-004
 10
3.8287979E+001
 20
1.6608697E+002
 70
0
  0
VERTEX
  8
3
 42
-5.24041E-004
 10
3.8287093E+001
 20
1.6608706E+002
 70
1
  0
VERTEX
  8
3
 42
-6.163082E-004
 10
3.8286274E+001
 20
1.6608714E+002
 70
0
  0
VERTEX
  8
3
 42
-7.683094E-004
 10
3.8285532E+001
 20
1.6608722E+002
 70
1
  0
VERTEX
  8
3
 42
-1.0147523E-003
 10
3.828487E+001
 20
1.6608729E+002
 70
0
  0
VERTEX
  8
3
 42
-1.355784E-003
 10
3.8284299E+001
 20
1.6608735E+002
 70
1
  0
VERTEX
  8
3
 42
-1.8023263E-003
 10
3.8283816E+001
 20
1.6608741E+002
 70
0
  0
VERTEX
  8
3
 42
-3.2603287E-003
 10
3.8283431E+001
 20
1.6608746E+002
 70
1
  0
VERTEX
  8
3
 42
-8.8442068E-003
 10
3.8283162E+001
 20
1.660875E+002
 70
0
  0
VERTEX
  8
3
 42
-2.7135673E-002
 10
3.8283025E+001
 20
1.6608753E+002
 70
1
  0
VERTEX
  8
3
 42
-2.3169144E-002
 10
3.8282959E+001
 20
1.6608755E+002
 70
0
  0
VERTEX
  8
3
 42
0.0
 10
3.8282952E+001
 20
1.6608757E+002
 70
1
  0
VERTEX
  8
3
 42
-2.367706E-002
 10
3.8283255E+001
 20
1.6608756E+002
 70
0
  0
VERTEX
  8
3
 42
-2.8328598E-003
 10
3.828414E+001
 20
1.6608752E+002
 70
1
  0
VERTEX
  8
3
 42
-9.766148E-004
 10
3.8285549E+001
 20
1.6608744E+002
 70
0
  0
SEQEND
  0
POLYLINE
  8
3
  6
CONTINUOUS
 62
6
 66
1
 40
0.0
 41
0.0
 70
2
  0
VERTEX
  8
3
 42
0.0
 10
3.8285346E+001
 20
1.6608748E+002
 70
0
  0
VERTEX
  8
3
 42
4.5144659E-002
 10
3.8285153E+001
 20
1.6608758E+002
 70
1
  0
VERTEX
  8
3
 42
2.3809397E-002
 10
3.828486E+001
 20
1.6608768E+002
 70
0
  0
VERTEX
  8
3
 42
1.1811558E-002
 10
3.8284463E+001
 20
1.660878E+002
 70
1
  0
VERTEX
  8
3
 42
3.1422278E-003
 10
3.8283965E+001
 20
1.6608792E+002
 70
0
  0
VERTEX
  8
3
 42
-6.41534E-004
 10
3.8283359E+001
 20
1.6608808E+002
 70
1
  0
VERTEX
  8
3
 42
-2.6585142E-003
 10
3.8282646E+001
 20
1.6608826E+002
 70
0
  0
VERTEX
  8
3
 42
-3.663206E-003
 10
3.8281822E+001
 20
1.6608848E+002
 70
1
  0
VERTEX
  8
3
 42
-4.5257043E-003
 10
3.8280888E+001
 20
1.6608875E+002
 70
0
  0
VERTEX
  8
3
 42
-4.238188E-003
 10
3.8279839E+001
 20
1.6608908E+002
 70
1
  0
VERTEX
  8
3
 42
-3.535092E-003
 10
3.8278681E+001
 20
1.6608945E+002
 70
0
  0
VERTEX
  8
3
 42
-3.0263813E-003
 10
3.8277412E+001
 20
1.6608989E+002
 70
1
  0
VERTEX
  8
3
 42
-2.7124996E-003
 10
3.8276038E+001
 20
1.6609037E+002
 70
0
  0
VERTEX
  8
3
 42
-2.4369222E-003
 10
3.8274558E+001
 20
1.6609091E+002
 70
1
  0
VERTEX
  8
3
 42
-2.2448077E-003
 10
3.8272977E+001
 20
1.660915E+002
 70
0
  0
VERTEX
  8
3
 42
-2.0719354E-003
 10
3.8271295E+001
 20
1.6609215E+002
 70
1
  0
VERTEX
  8
3
 42
-1.9584297E-003
 10
3.8269516E+001
 20
1.6609285E+002
 70
0
  0
VERTEX
  8
3
 42
-1.846951E-003
 10
3.8267638E+001
 20
1.6609361E+002
 70
1
  0
VERTEX
  8
3
 42
-1.776052E-003
 10
3.8265669E+001
 20
1.6609442E+002
 70
0
  0
VERTEX
  8
3
 42
-1.701056E-003
 10
3.8263607E+001
 20
1.6609529E+002
 70
1
  0
VERTEX
  8
3
 42
-1.6573974E-003
 10
3.8261456E+001
 20
1.6609621E+002
 70
0
  0
VERTEX
  8
3
 42
-1.6062004E-003
 10
3.8259216E+001
 20
1.6609719E+002
 70
1
  0
VERTEX
  8
3
 42
-1.580307E-003
 10
3.8256892E+001
 20
1.6609822E+002
 70
0
  0
VERTEX
  8
3
 42
-1.5452632E-003
 10
3.8254484E+001
 20
1.6609931E+002
 70
1
  0
VERTEX
  8
3
 42
-1.5316608E-003
 10
3.8251996E+001
 20
1.6610045E+002
 70
0
  0
VERTEX
  8
3
 42
-1.5081221E-003
 10
3.8249427E+001
 20
1.6610164E+002
 70
1
  0
VERTEX
  8
3
 42
-1.5033631E-003
 10
3.8246783E+001
 20
1.661029E+002
 70
0
  0
VERTEX
  8
3
 42
-1.4883077E-003
 10
3.8244063E+001
 20
1.661042E+002
 70
1
  0
VERTEX
  8
3
 42
-1.4901016E-003
 10
3.8241271E+001
 20
1.6610557E+002
 70
0
  0
VERTEX
  8
3
 42
-1.481613E-003
 10
3.8238408E+001
 20
1.6610699E+002
 70
1
  0
VERTEX
  8
3
 42
-1.4886682E-003
 10
3.8235478E+001
 20
1.6610846E+002
 70
0
  0
VERTEX
  8
3
 42
-1.4851082E-003
 10
3.823248E+001
 20
1.6610999E+002
 70
1
  0
VERTEX
  8
3
 42
-1.4956523E-003
 10
3.8229419E+001
 20
1.6611158E+002
 70
0
  0
VERTEX
  8
3
 42
-1.4970836E-003
 10
3.8226295E+001
 20
1.6611322E+002
 70
1
  0
VERTEX
  8
3
 42
-1.513172E-003
 10
3.8223112E+001
 20
1.6611492E+002
 70
0
  0
VERTEX
  8
3
 42
-1.5151753E-003
 10
3.8219871E+001
 20
1.6611668E+002
 70
1
  0
VERTEX
  8
3
 42
-1.526055E-003
 10
3.8216575E+001
 20
1.6611849E+002
 70
0
  0
VERTEX
  8
3
 42
-1.5431814E-003
 10
3.8213224E+001
 20
1.6612035E+002
 70
1
  0
VERTEX
  8
3
 42
-1.589097E-003
 10
3.8209823E+001
 20
1.6612228E+002
 70
0
  0
VERTEX
  8
3
 42
-1.6542439E-003
 10
3.8206371E+001
 20
1.6612426E+002
 70
1
  0
VERTEX
  8
3
 42
-1.7706324E-003
 10
3.820287E+001
 20
1.661263E+002
 70
0
  0
VERTEX
  8
3
 42
-1.852626E-003
 10
3.8199319E+001
 20
1.6612841E+002
 70
1
  0
VERTEX
  8
3
 42
-1.9447717E-003
 10
3.819572E+001
 20
1.6613058E+002
 70
0
  0
VERTEX
  8
3
 42
-2.011426E-003
 10
3.8192072E+001
 20
1.6613283E+002
 70
1
  0
VERTEX
  8
3
 42
-2.0942151E-003
 10
3.8188377E+001
 20
1.6613514E+002
 70
0
  0
VERTEX
  8
3
 42
-2.150693E-003
 10
3.8184634E+001
 20
1.6613753E+002
 70
1
  0
VERTEX
  8
3
 42
-2.2218066E-003
 10
3.8180845E+001
 20
1.6613999E+002
 70
0
  0
VERTEX
  8
3
 42
-2.267903E-003
 10
3.8177009E+001
 20
1.6614254E+002
 70
1
  0
VERTEX
  8
3
 42
-2.3287036E-003
 10
3.8173128E+001
 20
1.6614516E+002
 70
0
  0
VERTEX
  8
3
 42
-2.3658063E-003
 10
3.81692E+001
 20
1.6614788E+002
 70
1
  0
VERTEX
  8
3
 42
-2.417759E-003
 10
3.8165229E+001
 20
1.6615067E+002
 70
0
  0
VERTEX
  8
3
 42
-2.4453394E-003
 10
3.8161213E+001
 20
1.6615357E+002
 70
1
  0
VERTEX
  8
3
 42
-2.4861881E-003
 10
3.8157153E+001
 20
1.6615655E+002
 70
0
  0
VERTEX
  8
3
 42
-2.5092101E-003
 10
3.8153049E+001
 20
1.6615963E+002
 70
1
  0
VERTEX
  8
3
 42
-2.549885E-003
 10
3.8148903E+001
 20
1.6616281E+002
 70
0
  0
VERTEX
  8
3
 42
-2.5545046E-003
 10
3.8144714E+001
 20
1.6616609E+002
 70
1
  0
VERTEX
  8
3
 42
-2.5614979E-003
 10
3.8140484E+001
 20
1.6616947E+002
 70
0
  0
VERTEX
  8
3
 42
-2.5808119E-003
 10
3.8136218E+001
 20
1.6617295E+002
 70
1
  0
VERTEX
  8
3
 42
-2.6618479E-003
 10
3.813193E+001
 20
1.6617653E+002
 70
0
  0
VERTEX
  8
3
 42
-2.613547E-003
 10
3.8127639E+001
 20
1.6618019E+002
 70
1
  0
VERTEX
  8
3
 42
-2.4840206E-003
 10
3.8123384E+001
 20
1.6618389E+002
 70
0
  0
VERTEX
  8
3
 42
-2.9009709E-003
 10
3.8119191E+001
 20
1.6618762E+002
 70
1
  0
VERTEX
  8
3
 42
-3.778708E-003
 10
3.8115014E+001
 20
1.6619143E+002
 70
0
  0
VERTEX
  8
3
 42
-2.9527572E-003
 10
3.8110854E+001
 20
1.6619535E+002
 70
1
  0
VERTEX
  8
3
 42
-7.497864E-004
 10
3.8106987E+001
 20
1.6619904E+002
 70
0
  0
VERTEX
  8
3
 42
-4.795291E-003
 10
3.8103527E+001
 20
1.6620239E+002
 70
1
  0
VERTEX
  8
3
 42
-1.0109134E-002
 10
3.809947E+001
 20
1.6620658E+002
 70
0
  0
VERTEX
  8
3
 42
-5.622107E-003
 10
3.8093773E+001
 20
1.6621288E+002
 70
1
  0
VERTEX
  8
3
 42
-3.0755311E-003
 10
3.8086639E+001
 20
1.6622102E+002
 70
0
  0
SEQEND
  0
POLYLINE
  8
3
  6
CONTINUOUS
 62
6
 66
1
 40
0.0
 41
0.0
 70
2
  0
VERTEX
  8
3
 42
0.0
 10
3.7866018E+001
 20
1.3960048E+002
 70
0
  0
VERTEX
  8
3
 42
7.42744E-005
 10
3.7865891E+001
 20
1.3960011E+002
 70
1
  0
VERTEX
  8
3
 42
7.41737E-005
 10
3.7865764E+001
 20
1.3959975E+002
 70
0
  0
VERTEX
  8
3
 42
7.4237E-005
 10
3.7865637E+001
 20
1.3959938E+002
 70
1
  0
VERTEX
  8
3
 42
7.44876E-005
 10
3.786551E+001
 20
1.3959902E+002
 70
0
  0
VERTEX
  8
3
 42
7.46682E-005
 10
3.7865383E+001
 20
1.3959865E+002
 70
1
  0
VERTEX
  8
3
 42
7.4831E-005
 10
3.7865256E+001
 20
1.3959829E+002
 70
0
  0
VERTEX
  8
3
 42
7.49831E-005
 10
3.7865129E+001
 20
1.3959792E+002
 70
1
  0
VERTEX
  8
3
 42
7.51696E-005
 10
3.7865003E+001
 20
1.3959755E+002
 70
0
  0
VERTEX
  8
3
 42
7.53303E-005
 10
3.7864876E+001
 20
1.3959719E+002
 70
1
  0
VERTEX
  8
3
 42
7.5512E-005
 10
3.786475E+001
 20
1.3959682E+002
 70
0
  0
VERTEX
  8
3
 42
7.5672E-005
 10
3.7864623E+001
 20
1.3959646E+002
 70
1
  0
VERTEX
  8
3
 42
7.58562E-005
 10
3.7864497E+001
 20
1.3959609E+002
 70
0
  0
VERTEX
  8
3
 42
7.60178E-005
 10
3.7864371E+001
 20
1.3959573E+002
 70
1
  0
VERTEX
  8
3
 42
7.62024E-005
 10
3.7864245E+001
 20
1.3959536E+002
 70
0
  0
VERTEX
  8
3
 42
7.63653E-005
 10
3.7864119E+001
 20
1.3959499E+002
 70
1
  0
VERTEX
  8
3
 42
7.65523E-005
 10
3.7863993E+001
 20
1.3959463E+002
 70
0
  0
VERTEX
  8
3
 42
7.67149E-005
 10
3.7863868E+001
 20
1.3959426E+002
 70
1
  0
VERTEX
  8
3
 42
7.6899E-005
 10
3.7863742E+001
 20
1.3959389E+002
 70
0
  0
VERTEX
  8
3
 42
7.70681E-005
 10
3.7863616E+001
 20
1.3959353E+002
 70
1
  0
VERTEX
  8
3
 42
7.7268E-005
 10
3.7863491E+001
 20
1.3959316E+002
 70
0
  0
VERTEX
  8
3
 42
7.74181E-005
 10
3.7863366E+001
 20
1.3959279E+002
 70
1
  0
VERTEX
  8
3
 42
7.7567E-005
 10
3.7863241E+001
 20
1.3959243E+002
 70
0
  0
VERTEX
  8
3
 42
7.77904E-005
 10
3.7863115E+001
 20
1.3959206E+002
 70
1
  0
VERTEX
  8
3
 42
7.8123E-005
 10
3.786299E+001
 20
1.3959169E+002
 70
0
  0
VERTEX
  8
3
 42
7.80931E-005
 10
3.7862866E+001
 20
1.3959133E+002
 70
1
  0
VERTEX
  8
3
 42
7.77992E-005
 10
3.7862741E+001
 20
1.3959096E+002
 70
0
  0
VERTEX
  8
3
 42
7.86538E-005
 10
3.7862616E+001
 20
1.3959059E+002
 70
1
  0
VERTEX
  8
3
 42
8.04678E-005
 10
3.7862492E+001
 20
1.3959023E+002
 70
0
  0
VERTEX
  8
3
 42
7.8322E-005
 10
3.7862367E+001
 20
1.3958986E+002
 70
1
  0
VERTEX
  8
3
 42
7.325E-005
 10
3.7862243E+001
 20
1.3958949E+002
 70
0
  0
VERTEX
  8
3
 42
8.11088E-005
 10
3.786212E+001
 20
1.3958913E+002
 70
1
  0
VERTEX
  8
3
 42
9.70674E-005
 10
3.7861994E+001
 20
1.3958876E+002
 70
0
  0
VERTEX
  8
3
 42
7.36886E-005
 10
3.7861867E+001
 20
1.3958838E+002
 70
1
  0
VERTEX
  8
3
 42
2.49834E-005
 10
3.7861747E+001
 20
1.3958802E+002
 70
0
  0
VERTEX
  8
3
 42
1.04538E-004
 10
3.7861638E+001
 20
1.395877E+002
 70
1
  0
VERTEX
  8
3
 42
1.8069E-004
 10
3.7861499E+001
 20
1.3958729E+002
 70
0
  0
VERTEX
  8
3
 42
8.83944E-005
 10
3.7861285E+001
 20
1.3958665E+002
 70
1
  0
VERTEX
  8
3
 42
4.67979E-005
 10
3.7861006E+001
 20
1.3958582E+002
 70
0
  0
SEQEND
  0
POLYLINE
  8
3
  6
CONTINUOUS
 62
6
 66
1
 40
0.0
 41
0.0
 70
2
  0
VERTEX
  8
3
 42
0.0
 10
3.7819656E+001
 20
1.3933715E+002
 70
0
  0
VERTEX
  8
3
 42
-1.7980709E-001
 10
3.7819553E+001
 20
1.3933717E+002
 70
1
  0
VERTEX
  8
3
 42
-1.0734085E-001
 10
3.7819459E+001
 20
1.3933727E+002
 70
0
  0
VERTEX
  8
3
 42
-5.1522866E-002
 10
3.7819375E+001
 20
1.3933745E+002
 70
1
  0
VERTEX
  8
3
 42
-2.8472389E-002
 10
3.7819299E+001
 20
1.3933771E+002
 70
0
  0
VERTEX
  8
3
 42
-1.7445694E-002
 10
3.7819233E+001
 20
1.3933804E+002
 70
1
  0
VERTEX
  8
3
 42
-1.1879085E-002
 10
3.7819177E+001
 20
1.3933844E+002
 70
0
  0
VERTEX
  8
3
 42
-8.4941304E-003
 10
3.7819129E+001
 20
1.3933892E+002
 70
1
  0
VERTEX
  8
3
 42
-6.442043E-003
 10
3.7819091E+001
 20
1.3933947E+002
 70
0
  0
VERTEX
  8
3
 42
-5.0175086E-003
 10
3.7819063E+001
 20
1.393401E+002
 70
1
  0
VERTEX
  8
3
 42
-4.0596731E-003
 10
3.7819043E+001
 20
1.3934079E+002
 70
0
  0
VERTEX
  8
3
 42
-3.336229E-003
 10
3.7819033E+001
 20
1.3934155E+002
 70
1
  0
VERTEX
  8
3
 42
-2.8168164E-003
 10
3.7819032E+001
 20
1.3934238E+002
 70
0
  0
VERTEX
  8
3
 42
-2.4017307E-003
 10
3.7819041E+001
 20
1.3934328E+002
 70
1
  0
VERTEX
  8
3
 42
-2.090477E-003
 10
3.7819059E+001
 20
1.3934425E+002
 70
0
  0
VERTEX
  8
3
 42
-1.8312694E-003
 10
3.7819087E+001
 20
1.3934528E+002
 70
1
  0
VERTEX
  8
3
 42
-1.6310568E-003
 10
3.7819123E+001
 20
1.3934638E+002
 70
0
  0
VERTEX
  8
3
 42
-1.4588294E-003
 10
3.7819169E+001
 20
1.3934755E+002
 70
1
  0
VERTEX
  8
3
 42
-1.32302E-003
 10
3.7819225E+001
 20
1.3934877E+002
 70
0
  0
VERTEX
  8
3
 42
-1.203231E-003
 10
3.781929E+001
 20
1.3935006E+002
 70
1
  0
VERTEX
  8
3
 42
-1.1076117E-003
 10
3.7819364E+001
 20
1.3935141E+002
 70
0
  0
VERTEX
  8
3
 42
-1.02084E-003
 10
3.7819448E+001
 20
1.3935283E+002
 70
1
  0
VERTEX
  8
3
 42
-9.506316E-004
 10
3.7819541E+001
 20
1.393543E+002
 70
0
  0
VERTEX
  8
3
 42
-8.87121E-004
 10
3.7819643E+001
 20
1.3935583E+002
 70
1
  0
VERTEX
  8
3
 42
-8.367454E-004
 10
3.7819755E+001
 20
1.3935742E+002
 70
0
  0
VERTEX
  8
3
 42
-7.855853E-004
 10
3.7819877E+001
 20
1.3935907E+002
 70
1
  0
VERTEX
  8
3
 42
-7.413356E-004
 10
3.7820007E+001
 20
1.3936077E+002
 70
0
  0
VERTEX
  8
3
 42
-7.107172E-004
 10
3.7820147E+001
 20
1.3936253E+002
 70
1
  0
VERTEX
  8
3
 42
-6.94891E-004
 10
3.7820297E+001
 20
1.3936435E+002
 70
0
  0
VERTEX
  8
3
 42
-6.43463E-004
 10
3.7820457E+001
 20
1.3936622E+002
 70
1
  0
VERTEX
  8
3
 42
-5.766199E-004
 10
3.7820625E+001
 20
1.3936813E+002
 70
0
  0
VERTEX
  8
3
 42
-6.18992E-004
 10
3.7820801E+001
 20
1.3937009E+002
 70
1
  0
VERTEX
  8
3
 42
-7.192301E-004
 10
3.7820991E+001
 20
1.3937213E+002
 70
0
  0
VERTEX
  8
3
 42
-5.162266E-004
 10
3.7821196E+001
 20
1.3937428E+002
 70
1
  0
VERTEX
  8
3
 42
-1.539898E-004
 10
3.7821395E+001
 20
1.3937633E+002
 70
0
  0
VERTEX
  8
3
 42
-7.23839E-004
 10
3.7821579E+001
 20
1.3937821E+002
 70
1
  0
VERTEX
  8
3
 42
-1.1896931E-003
 10
3.7821836E+001
 20
1.3938073E+002
 70
0
  0
VERTEX
  8
3
 42
-5.44926E-004
 10
3.7822261E+001
 20
1.3938474E+002
 70
1
  0
VERTEX
  8
3
 42
-2.773561E-004
 10
3.7822834E+001
 20
1.3939007E+002
 70
0
  0
SEQEND
  0
POLYLINE
  8
3
  6
CONTINUOUS
 62
6
 66
1
 40
0.0
 41
0.0
 70
2
  0
VERTEX
  8
3
 42
0.0
 10
3.7822834E+001
 20
1.3939007E+002
 70
0
  0
VERTEX
  8
3
 42
-3.790778E-004
 10
3.7823537E+001
 20
1.3939543E+002
 70
1
  0
VERTEX
  8
3
 42
-3.869846E-004
 10
3.7824235E+001
 20
1.394007E+002
 70
0
  0
VERTEX
  8
3
 42
-4.069262E-004
 10
3.7824929E+001
 20
1.3940587E+002
 70
1
  0
VERTEX
  8
3
 42
-4.389236E-004
 10
3.782562E+001
 20
1.3941095E+002
 70
0
  0
VERTEX
  8
3
 42
-4.675567E-004
 10
3.7826307E+001
 20
1.3941594E+002
 70
1
  0
VERTEX
  8
3
 42
-4.947848E-004
 10
3.7826993E+001
 20
1.3942085E+002
 70
0
  0
VERTEX
  8
3
 42
-5.224579E-004
 10
3.7827677E+001
 20
1.3942567E+002
 70
1
  0
VERTEX
  8
3
 42
-5.517697E-004
 10
3.7828361E+001
 20
1.3943041E+002
 70
0
  0
VERTEX
  8
3
 42
-5.804209E-004
 10
3.7829045E+001
 20
1.3943508E+002
 70
1
  0
VERTEX
  8
3
 42
-6.09588E-004
 10
3.7829729E+001
 20
1.3943968E+002
 70
0
  0
VERTEX
  8
3
 42
-6.381802E-004
 10
3.7830415E+001
 20
1.3944421E+002
 70
1
  0
VERTEX
  8
3
 42
-6.671358E-004
 10
3.7831103E+001
 20
1.3944868E+002
 70
0
  0
VERTEX
  8
3
 42
-6.95261E-004
 10
3.7831794E+001
 20
1.3945308E+002
 70
1
  0
VERTEX
  8
3
 42
-7.233138E-004
 10
3.7832489E+001
 20
1.3945743E+002
 70
0
  0
VERTEX
  8
3
 42
-7.50327E-004
 10
3.7833188E+001
 20
1.3946172E+002
 70
1
  0
VERTEX
  8
3
 42
-7.76865E-004
 10
3.7833891E+001
 20
1.3946596E+002
 70
0
  0
VERTEX
  8
3
 42
-8.021117E-004
 10
3.7834601E+001
 20
1.3947015E+002
 70
1
  0
VERTEX
  8
3
 42
-8.26452E-004
 10
3.7835316E+001
 20
1.394743E+002
 70
0
  0
VERTEX
  8
3
 42
-8.492542E-004
 10
3.7836039E+001
 20
1.394784E+002
 70
1
  0
VERTEX
  8
3
 42
-8.707362E-004
 10
3.783677E+001
 20
1.3948247E+002
 70
0
  0
VERTEX
  8
3
 42
-8.904024E-004
 10
3.7837509E+001
 20
1.394865E+002
 70
1
  0
VERTEX
  8
3
 42
-9.083252E-004
 10
3.7838257E+001
 20
1.394905E+002
 70
0
  0
VERTEX
  8
3
 42
-9.243072E-004
 10
3.7839016E+001
 20
1.3949447E+002
 70
1
  0
VERTEX
  8
3
 42
-9.382711E-004
 10
3.7839784E+001
 20
1.3949842E+002
 70
0
  0
VERTEX
  8
3
 42
-9.497759E-004
 10
3.7840564E+001
 20
1.3950235E+002
 70
1
  0
VERTEX
  8
3
 42
-9.587237E-004
 10
3.7841356E+001
 20
1.3950625E+002
 70
0
  0
VERTEX
  8
3
 42
-9.661854E-004
 10
3.7842161E+001
 20
1.3951015E+002
 70
1
  0
VERTEX
  8
3
 42
-9.715421E-004
 10
3.7842979E+001
 20
1.3951403E+002
 70
0
  0
VERTEX
  8
3
 42
-9.720281E-004
 10
3.7843812E+001
 20
1.395179E+002
 70
1
  0
VERTEX
  8
3
 42
-9.688138E-004
 10
3.7844658E+001
 20
1.3952177E+002
 70
0
  0
VERTEX
  8
3
 42
-9.699756E-004
 10
3.784552E+001
 20
1.3952563E+002
 70
1
  0
VERTEX
  8
3
 42
-9.685621E-004
 10
3.7846399E+001
 20
1.395295E+002
 70
0
  0
VERTEX
  8
3
 42
-9.511274E-004
 10
3.7847298E+001
 20
1.3953339E+002
 70
1
  0
VERTEX
  8
3
 42
-9.441552E-004
 10
3.7848208E+001
 20
1.3953726E+002
 70
0
  0
VERTEX
  8
3
 42
-9.331426E-004
 10
3.7849121E+001
 20
1.3954107E+002
 70
1
  0
VERTEX
  8
3
 42
-9.034882E-004
 10
3.7850028E+001
 20
1.395448E+002
 70
0
  0
VERTEX
  8
3
 42
-8.925288E-004
 10
3.7850921E+001
 20
1.3954842E+002
 70
1
  0
VERTEX
  8
3
 42
-8.577686E-004
 10
3.7851798E+001
 20
1.3955192E+002
 70
0
  0
VERTEX
  8
3
 42
-8.363023E-004
 10
3.7852659E+001
 20
1.395553E+002
 70
1
  0
VERTEX
  8
3
 42
-8.095386E-004
 10
3.7853501E+001
 20
1.3955857E+002
 70
0
  0
VERTEX
  8
3
 42
-7.948159E-004
 10
3.7854321E+001
 20
1.3956171E+002
 70
1
  0
VERTEX
  8
3
 42
-7.658247E-004
 10
3.7855119E+001
 20
1.3956472E+002
 70
0
  0
VERTEX
  8
3
 42
-7.507803E-004
 10
3.785589E+001
 20
1.395676E+002
 70
1
  0
VERTEX
  8
3
 42
-7.233851E-004
 10
3.7856634E+001
 20
1.3957035E+002
 70
0
  0
VERTEX
  8
3
 42
-7.101384E-004
 10
3.7857348E+001
 20
1.3957295E+002
 70
1
  0
VERTEX
  8
3
 42
-6.821299E-004
 10
3.7858031E+001
 20
1.3957541E+002
 70
0
  0
VERTEX
  8
3
 42
-6.694574E-004
 10
3.7858679E+001
 20
1.3957772E+002
 70
1
  0
VERTEX
  8
3
 42
-6.401314E-004
 10
3.7859291E+001
 20
1.3957989E+002
 70
0
  0
VERTEX
  8
3
 42
-6.276013E-004
 10
3.7859864E+001
 20
1.3958189E+002
 70
1
  0
VERTEX
  8
3
 42
-5.970108E-004
 10
3.7860396E+001
 20
1.3958374E+002
 70
0
  0
VERTEX
  8
3
 42
-5.80793E-004
 10
3.7860885E+001
 20
1.3958542E+002
 70
1
  0
VERTEX
  8
3
 42
-5.30326E-004
 10
3.7861331E+001
 20
1.3958694E+002
 70
0
  0
VERTEX
  8
3
 42
-5.1896E-004
 10
3.7861729E+001
 20
1.3958828E+002
 70
1
  0
VERTEX
  8
3
 42
-5.319E-004
 10
3.7862077E+001
 20
1.3958945E+002
 70
0
  0
VERTEX
  8
3
 42
-4.155418E-004
 10
3.7862368E+001
 20
1.3959042E+002
 70
1
  0
VERTEX
  8
3
 42
1.632484E-004
 10
3.7862616E+001
 20
1.3959125E+002
 70
0
  0
VERTEX
  8
3
 42
4.89069E-004
 10
3.786283E+001
 20
1.3959196E+002
 70
1
  0
VERTEX
  8
3
 42
3.869484E-004
 10
3.7863009E+001
 20
1.3959256E+002
 70
0
  0
SEQEND
  0
POLYLINE
  8
3
  6
CONTINUOUS
 62
6
 66
1
 40
0.0
 41
0.0
 70
2
  0
VERTEX
  8
3
 42
0.0
 10
3.7862907E+001
 20
1.3959223E+002
 70
0
  0
VERTEX
  8
3
 42
4.2210176E-003
 10
3.7862903E+001
 20
1.3959221E+002
 70
1
  0
VERTEX
  8
3
 42
5.5307392E-001
 10
3.7862903E+001
 20
1.3959221E+002
 70
0
  0
VERTEX
  8
3
 42
1.1944616E-002
 10
3.7862906E+001
 20
1.3959222E+002
 70
1
  0
VERTEX
  8
3
 42
1.9784922E-003
 10
3.7862912E+001
 20
1.3959224E+002
 70
0
  0
VERTEX
  8
3
 42
7.551656E-004
 10
3.786292E+001
 20
1.3959226E+002
 70
1
  0
VERTEX
  8
3
 42
3.855522E-004
 10
3.7862932E+001
 20
1.395923E+002
 70
0
  0
VERTEX
  8
3
 42
2.161579E-004
 10
3.7862946E+001
 20
1.3959234E+002
 70
1
  0
VERTEX
  8
3
 42
1.193649E-004
 10
3.7862962E+001
 20
1.3959239E+002
 70
0
  0
VERTEX
  8
3
 42
6.22829E-005
 10
3.7862979E+001
 20
1.3959244E+002
 70
1
  0
VERTEX
  8
3
 42
1.94164E-005
 10
3.7862999E+001
 20
1.395925E+002
 70
0
  0
VERTEX
  8
3
 42
-1.03737E-005
 10
3.786302E+001
 20
1.3959257E+002
 70
1
  0
VERTEX
  8
3
 42
-3.8916E-005
 10
3.7863041E+001
 20
1.3959263E+002
 70
0
  0
VERTEX
  8
3
 42
-6.24131E-005
 10
3.7863064E+001
 20
1.395927E+002
 70
1
  0
VERTEX
  8
3
 42
-9.01139E-005
 10
3.7863087E+001
 20
1.3959277E+002
 70
0
  0
VERTEX
  8
3
 42
-1.127756E-004
 10
3.7863111E+001
 20
1.3959285E+002
 70
1
  0
VERTEX
  8
3
 42
-1.382491E-004
 10
3.7863135E+001
 20
1.3959292E+002
 70
0
  0
VERTEX
  8
3
 42
-1.493961E-004
 10
3.7863159E+001
 20
1.3959299E+002
 70
1
  0
VERTEX
  8
3
 42
-1.45679E-004
 10
3.7863182E+001
 20
1.3959306E+002
 70
0
  0
VERTEX
  8
3
 42
-1.437624E-004
 10
3.7863206E+001
 20
1.3959313E+002
 70
1
  0
VERTEX
  8
3
 42
-1.431394E-004
 10
3.786323E+001
 20
1.3959321E+002
 70
0
  0
VERTEX
  8
3
 42
-1.423452E-004
 10
3.7863253E+001
 20
1.3959328E+002
 70
1
  0
VERTEX
  8
3
 42
-1.407226E-004
 10
3.7863277E+001
 20
1.3959335E+002
 70
0
  0
VERTEX
  8
3
 42
-1.394823E-004
 10
3.78633E+001
 20
1.3959342E+002
 70
1
  0
VERTEX
  8
3
 42
-1.379892E-004
 10
3.7863324E+001
 20
1.3959349E+002
 70
0
  0
VERTEX
  8
3
 42
-1.367502E-004
 10
3.7863347E+001
 20
1.3959356E+002
 70
1
  0
VERTEX
  8
3
 42
-1.351294E-004
 10
3.786337E+001
 20
1.3959363E+002
 70
0
  0
VERTEX
  8
3
 42
-1.337016E-004
 10
3.7863394E+001
 20
1.395937E+002
 70
1
  0
VERTEX
  8
3
 42
-1.317877E-004
 10
3.7863417E+001
 20
1.3959377E+002
 70
0
  0
VERTEX
  8
3
 42
-1.30527E-004
 10
3.786344E+001
 20
1.3959384E+002
 70
1
  0
VERTEX
  8
3
 42
-1.293993E-004
 10
3.7863463E+001
 20
1.3959391E+002
 70
0
  0
VERTEX
  8
3
 42
-1.31075E-004
 10
3.7863487E+001
 20
1.3959398E+002
 70
1
  0
VERTEX
  8
3
 42
-1.361499E-004
 10
3.786351E+001
 20
1.3959404E+002
 70
0
  0
VERTEX
  8
3
 42
-1.413259E-004
 10
3.7863533E+001
 20
1.3959411E+002
 70
1
  0
VERTEX
  8
3
 42
-1.473543E-004
 10
3.7863555E+001
 20
1.3959418E+002
 70
0
  0
VERTEX
  8
3
 42
-1.53887E-004
 10
3.7863578E+001
 20
1.3959425E+002
 70
1
  0
VERTEX
  8
3
 42
-1.61743E-004
 10
3.7863601E+001
 20
1.3959431E+002
 70
0
  0
VERTEX
  8
3
 42
-1.702021E-004
 10
3.7863623E+001
 20
1.3959438E+002
 70
1
  0
VERTEX
  8
3
 42
-1.801409E-004
 10
3.7863645E+001
 20
1.3959444E+002
 70
0
  0
VERTEX
  8
3
 42
-1.910272E-004
 10
3.7863666E+001
 20
1.395945E+002
 70
1
  0
VERTEX
  8
3
 42
-2.038276E-004
 10
3.7863688E+001
 20
1.3959457E+002
 70
0
  0
VERTEX
  8
3
 42
-2.17793E-004
 10
3.7863709E+001
 20
1.3959463E+002
 70
1
  0
VERTEX
  8
3
 42
-2.33922E-004
 10
3.7863729E+001
 20
1.3959469E+002
 70
0
  0
VERTEX
  8
3
 42
-2.526631E-004
 10
3.786375E+001
 20
1.3959475E+002
 70
1
  0
VERTEX
  8
3
 42
-2.7541E-004
 10
3.7863769E+001
 20
1.395948E+002
 70
0
  0
VERTEX
  8
3
 42
-2.980152E-004
 10
3.7863788E+001
 20
1.3959486E+002
 70
1
  0
VERTEX
  8
3
 42
-3.20592E-004
 10
3.7863807E+001
 20
1.3959491E+002
 70
0
  0
VERTEX
  8
3
 42
-3.395506E-004
 10
3.7863825E+001
 20
1.3959496E+002
 70
1
  0
VERTEX
  8
3
 42
-3.508241E-004
 10
3.7863843E+001
 20
1.3959501E+002
 70
0
  0
VERTEX
  8
3
 42
-3.680636E-004
 10
3.786386E+001
 20
1.3959506E+002
 70
1
  0
VERTEX
  8
3
 42
-3.87312E-004
 10
3.7863876E+001
 20
1.3959511E+002
 70
0
  0
VERTEX
  8
3
 42
-4.122427E-004
 10
3.7863892E+001
 20
1.3959515E+002
 70
1
  0
VERTEX
  8
3
 42
-4.383861E-004
 10
3.7863907E+001
 20
1.3959519E+002
 70
0
  0
VERTEX
  8
3
 42
-4.73388E-004
 10
3.7863922E+001
 20
1.3959523E+002
 70
1
  0
VERTEX
  8
3
 42
-5.127308E-004
 10
3.7863936E+001
 20
1.3959527E+002
 70
0
  0
VERTEX
  8
3
 42
-5.622967E-004
 10
3.7863949E+001
 20
1.3959531E+002
 70
1
  0
VERTEX
  8
3
 42
-6.164247E-004
 10
3.7863962E+001
 20
1.3959534E+002
 70
0
  0
VERTEX
  8
3
 42
-6.97547E-004
 10
3.7863974E+001
 20
1.3959537E+002
 70
1
  0
VERTEX
  8
3
 42
-8.047917E-004
 10
3.7863985E+001
 20
1.395954E+002
 70
0
  0
VERTEX
  8
3
 42
-9.085998E-004
 10
3.7863995E+001
 20
1.3959543E+002
 70
1
  0
VERTEX
  8
3
 42
-9.874163E-004
 10
3.7864005E+001
 20
1.3959545E+002
 70
0
  0
VERTEX
  8
3
 42
-1.2930038E-003
 10
3.7864014E+001
 20
1.3959548E+002
 70
1
  0
VERTEX
  8
3
 42
-1.9335552E-003
 10
3.7864022E+001
 20
1.395955E+002
 70
0
  0
VERTEX
  8
3
 42
-1.952294E-003
 10
3.7864029E+001
 20
1.3959552E+002
 70
1
  0
VERTEX
  8
3
 42
-7.88913E-004
 10
3.7864036E+001
 20
1.3959553E+002
 70
0
  0
VERTEX
  8
3
 42
-3.8462131E-003
 10
3.7864041E+001
 20
1.3959554E+002
 70
1
  0
VERTEX
  8
3
 42
-1.4662725E-002
 10
3.7864046E+001
 20
1.3959556E+002
 70
0
  0
VERTEX
  8
3
 42
-2.1182534E-002
 10
3.7864052E+001
 20
1.3959557E+002
 70
1
  0
VERTEX
  8
3
 42
-2.4456337E-002
 10
3.7864057E+001
 20
1.3959557E+002
 70
0
  0
SEQEND
  0
POLYLINE
  8
3
  6
CONTINUOUS
 62
6
 66
1
 40
0.0
 41
0.0
 70
2
  0
VERTEX
  8
3
 42
0.0
 10
3.8050523E+001
 20
1.3994081E+002
 70
0
  0
VERTEX
  8
3
 42
-7.1458394E-003
 10
3.8052164E+001
 20
1.3994337E+002
 70
1
  0
VERTEX
  8
3
 42
-6.9710056E-003
 10
3.8053906E+001
 20
1.3994592E+002
 70
0
  0
VERTEX
  8
3
 42
-6.6461756E-003
 10
3.8055753E+001
 20
1.3994847E+002
 70
1
  0
VERTEX
  8
3
 42
-6.2060094E-003
 10
3.8057699E+001
 20
1.3995102E+002
 70
0
  0
VERTEX
  8
3
 42
-5.8418008E-003
 10
3.8059743E+001
 20
1.3995357E+002
 70
1
  0
VERTEX
  8
3
 42
-5.523854E-003
 10
3.8061878E+001
 20
1.3995611E+002
 70
0
  0
VERTEX
  8
3
 42
-5.2267774E-003
 10
3.8064107E+001
 20
1.3995865E+002
 70
1
  0
VERTEX
  8
3
 42
-4.935762E-003
 10
3.8066422E+001
 20
1.3996118E+002
 70
0
  0
VERTEX
  8
3
 42
-4.674664E-003
 10
3.8068824E+001
 20
1.399637E+002
 70
1
  0
VERTEX
  8
3
 42
-4.4257016E-003
 10
3.8071306E+001
 20
1.3996622E+002
 70
0
  0
VERTEX
  8
3
 42
-4.2010987E-003
 10
3.8073869E+001
 20
1.3996873E+002
 70
1
  0
VERTEX
  8
3
 42
-3.9842209E-003
 10
3.8076507E+001
 20
1.3997123E+002
 70
0
  0
VERTEX
  8
3
 42
-3.7897828E-003
 10
3.8079221E+001
 20
1.3997372E+002
 70
1
  0
VERTEX
  8
3
 42
-3.6014191E-003
 10
3.8082004E+001
 20
1.399762E+002
 70
0
  0
VERTEX
  8
3
 42
-3.4330841E-003
 10
3.8084855E+001
 20
1.3997867E+002
 70
1
  0
VERTEX
  8
3
 42
-3.2689038E-003
 10
3.8087771E+001
 20
1.3998113E+002
 70
0
  0
VERTEX
  8
3
 42
-3.1228129E-003
 10
3.809075E+001
 20
1.3998357E+002
 70
1
  0
VERTEX
  8
3
 42
-2.979381E-003
 10
3.8093787E+001
 20
1.39986E+002
 70
0
  0
VERTEX
  8
3
 42
-2.8523274E-003
 10
3.8096881E+001
 20
1.3998842E+002
 70
1
  0
VERTEX
  8
3
 42
-2.7266652E-003
 10
3.8100028E+001
 20
1.3999083E+002
 70
0
  0
VERTEX
  8
3
 42
-2.6159217E-003
 10
3.8103226E+001
 20
1.3999321E+002
 70
1
  0
VERTEX
  8
3
 42
-2.5055328E-003
 10
3.8106471E+001
 20
1.3999559E+002
 70
0
  0
VERTEX
  8
3
 42
-2.4088117E-003
 10
3.8109761E+001
 20
1.3999794E+002
 70
1
  0
VERTEX
  8
3
 42
-2.3115959E-003
 10
3.8113093E+001
 20
1.4000028E+002
 70
0
  0
VERTEX
  8
3
 42
-2.2269804E-003
 10
3.8116464E+001
 20
1.400026E+002
 70
1
  0
VERTEX
  8
3
 42
-2.141179E-003
 10
3.8119871E+001
 20
1.400049E+002
 70
0
  0
VERTEX
  8
3
 42
-2.0670677E-003
 10
3.8123312E+001
 20
1.4000718E+002
 70
1
  0
VERTEX
  8
3
 42
-1.9912091E-003
 10
3.8126782E+001
 20
1.4000944E+002
 70
0
  0
VERTEX
  8
3
 42
-1.9262666E-003
 10
3.813028E+001
 20
1.4001168E+002
 70
1
  0
VERTEX
  8
3
 42
-1.8591231E-003
 10
3.8133803E+001
 20
1.400139E+002
 70
0
  0
VERTEX
  8
3
 42
-1.8022387E-003
 10
3.8137347E+001
 20
1.4001609E+002
 70
1
  0
VERTEX
  8
3
 42
-1.7427884E-003
 10
3.814091E+001
 20
1.4001826E+002
 70
0
  0
VERTEX
  8
3
 42
-1.6930429E-003
 10
3.814449E+001
 20
1.4002041E+002
 70
1
  0
VERTEX
  8
3
 42
-1.6404398E-003
 10
3.8148081E+001
 20
1.4002253E+002
 70
0
  0
VERTEX
  8
3
 42
-1.5970778E-003
 10
3.8151684E+001
 20
1.4002463E+002
 70
1
  0
VERTEX
  8
3
 42
-1.5506274E-003
 10
3.8155293E+001
 20
1.400267E+002
 70
0
  0
VERTEX
  8
3
 42
-1.5130367E-003
 10
3.8158907E+001
 20
1.4002875E+002
 70
1
  0
VERTEX
  8
3
 42
-1.4721781E-003
 10
3.8162522E+001
 20
1.4003076E+002
 70
0
  0
VERTEX
  8
3
 42
-1.4398727E-003
 10
3.8166136E+001
 20
1.4003275E+002
 70
1
  0
VERTEX
  8
3
 42
-1.4041648E-003
 10
3.8169746E+001
 20
1.4003471E+002
 70
0
  0
VERTEX
  8
3
 42
-1.3767744E-003
 10
3.8173348E+001
 20
1.4003664E+002
 70
1
  0
VERTEX
  8
3
 42
-1.3458868E-003
 10
3.817694E+001
 20
1.4003854E+002
 70
0
  0
VERTEX
  8
3
 42
-1.3231514E-003
 10
3.818052E+001
 20
1.400404E+002
 70
1
  0
VERTEX
  8
3
 42
-1.2968609E-003
 10
3.8184083E+001
 20
1.4004224E+002
 70
0
  0
VERTEX
  8
3
 42
-1.2786286E-003
 10
3.8187628E+001
 20
1.4004404E+002
 70
1
  0
VERTEX
  8
3
 42
-1.2568197E-003
 10
3.8191151E+001
 20
1.4004581E+002
 70
0
  0
VERTEX
  8
3
 42
-1.2430521E-003
 10
3.819465E+001
 20
1.4004754E+002
 70
1
  0
VERTEX
  8
3
 42
-1.2257276E-003
 10
3.8198121E+001
 20
1.4004924E+002
 70
0
  0
VERTEX
  8
3
 42
-1.2165091E-003
 10
3.8201562E+001
 20
1.400509E+002
 70
1
  0
VERTEX
  8
3
 42
-1.2037944E-003
 10
3.820497E+001
 20
1.4005253E+002
 70
0
  0
VERTEX
  8
3
 42
-1.199365E-003
 10
3.8208342E+001
 20
1.4005412E+002
 70
1
  0
VERTEX
  8
3
 42
-1.191573E-003
 10
3.8211675E+001
 20
1.4005567E+002
 70
0
  0
VERTEX
  8
3
 42
-1.1923117E-003
 10
3.8214966E+001
 20
1.4005719E+002
 70
1
  0
VERTEX
  8
3
 42
-1.1898304E-003
 10
3.8218213E+001
 20
1.4005866E+002
 70
0
  0
VERTEX
  8
3
 42
-1.1965053E-003
 10
3.8221411E+001
 20
1.4006009E+002
 70
1
  0
VERTEX
  8
3
 42
-1.2004633E-003
 10
3.822456E+001
 20
1.4006149E+002
 70
0
  0
VERTEX
  8
3
 42
-1.2135274E-003
 10
3.8227655E+001
 20
1.4006284E+002
 70
1
  0
VERTEX
  8
3
 42
-1.2234894E-003
 10
3.8230694E+001
 20
1.4006415E+002
 70
0
  0
VERTEX
  8
3
 42
-1.2463209E-003
 10
3.8233673E+001
 20
1.4006542E+002
 70
1
  0
VERTEX
  8
3
 42
-1.2700297E-003
 10
3.8236592E+001
 20
1.4006664E+002
 70
0
  0
VERTEX
  8
3
 42
-1.2966892E-003
 10
3.8239444E+001
 20
1.4006782E+002
 70
1
  0
VERTEX
  8
3
 42
-1.3118192E-003
 10
3.824223E+001
 20
1.4006895E+002
 70
0
  0
VERTEX
  8
3
 42
-1.37717E-003
 10
3.8244943E+001
 20
1.4007004E+002
 70
1
  0
VERTEX
  8
3
 42
-1.4866246E-003
 10
3.8247585E+001
 20
1.4007108E+002
 70
0
  0
VERTEX
  8
3
 42
-1.4667557E-003
 10
3.8250151E+001
 20
1.4007207E+002
 70
1
  0
VERTEX
  8
3
 42
-1.2729682E-003
 10
3.8252634E+001
 20
1.4007302E+002
 70
0
  0
VERTEX
  8
3
 42
-1.6940382E-003
 10
3.8255026E+001
 20
1.4007391E+002
 70
1
  0
VERTEX
  8
3
 42
-2.8289191E-003
 10
3.8257355E+001
 20
1.4007476E+002
 70
0
  0
VERTEX
  8
3
 42
-1.6157939E-003
 10
3.8259626E+001
 20
1.4007556E+002
 70
1
  0
VERTEX
  8
3
 42
2.7027917E-003
 10
3.8261724E+001
 20
1.400763E+002
 70
0
  0
VERTEX
  8
3
 42
-3.2919357E-003
 10
3.8263602E+001
 20
1.4007698E+002
 70
1
  0
VERTEX
  8
3
 42
-1.8166723E-002
 10
3.8265718E+001
 20
1.4007764E+002
 70
0
  0
VERTEX
  8
3
 42
-1.781321E-004
 10
3.8268222E+001
 20
1.4007828E+002
 70
1
  0
VERTEX
  8
3
 42
2.337846E-001
 10
3.8269313E+001
 20
1.4007876E+002
 70
0
  0
VERTEX
  8
3
 42
-7.1526177E-002
 10
3.8268428E+001
 20
1.4007905E+002
 70
1
  0
VERTEX
  8
3
 42
-6.4587683E-002
 10
3.8273018E+001
 20
1.4007984E+002
 70
0
  0
VERTEX
  8
3
 42
-3.9462022E-003
 10
3.8290887E+001
 20
1.4008185E+002
 70
1
  0
VERTEX
  8
3
 42
-1.0918178E-003
 10
3.8320482E+001
 20
1.4008494E+002
 70
0
  0
SEQEND
  0
POLYLINE
  8
3
  6
CONTINUOUS
 62
6
 66
1
 40
0.0
 41
0.0
 70
2
  0
VERTEX
  8
3
 42
0.0
 10
3.7839185E+001
 20
1.394944E+002
 70
0
  0
VERTEX
  8
3
 42
-4.7042283E-003
 10
3.7840947E+001
 20
1.3950388E+002
 70
1
  0
VERTEX
  8
3
 42
-4.7544541E-003
 10
3.7842889E+001
 20
1.3951335E+002
 70
0
  0
VERTEX
  8
3
 42
-4.6703533E-003
 10
3.7845019E+001
 20
1.395228E+002
 70
1
  0
VERTEX
  8
3
 42
-4.441439E-003
 10
3.7847323E+001
 20
1.3953223E+002
 70
0
  0
VERTEX
  8
3
 42
-4.267158E-003
 10
3.7849801E+001
 20
1.3954164E+002
 70
1
  0
VERTEX
  8
3
 42
-4.1094456E-003
 10
3.785244E+001
 20
1.3955103E+002
 70
0
  0
VERTEX
  8
3
 42
-3.9596887E-003
 10
3.7855242E+001
 20
1.395604E+002
 70
1
  0
VERTEX
  8
3
 42
-3.7874071E-003
 10
3.7858195E+001
 20
1.3956975E+002
 70
0
  0
VERTEX
  8
3
 42
-3.6351749E-003
 10
3.7861297E+001
 20
1.3957908E+002
 70
1
  0
VERTEX
  8
3
 42
-3.4710548E-003
 10
3.7864539E+001
 20
1.395884E+002
 70
0
  0
VERTEX
  8
3
 42
-3.3241874E-003
 10
3.7867919E+001
 20
1.3959769E+002
 70
1
  0
VERTEX
  8
3
 42
-3.1633882E-003
 10
3.7871427E+001
 20
1.3960696E+002
 70
0
  0
VERTEX
  8
3
 42
-3.0205951E-003
 10
3.7875061E+001
 20
1.396162E+002
 70
1
  0
VERTEX
  8
3
 42
-2.8647653E-003
 10
3.7878811E+001
 20
1.3962543E+002
 70
0
  0
VERTEX
  8
3
 42
-2.7266444E-003
 10
3.7882676E+001
 20
1.3963464E+002
 70
1
  0
VERTEX
  8
3
 42
-2.5754336E-003
 10
3.7886646E+001
 20
1.3964382E+002
 70
0
  0
VERTEX
  8
3
 42
-2.4418763E-003
 10
3.7890718E+001
 20
1.3965299E+002
 70
1
  0
VERTEX
  8
3
 42
-2.2953634E-003
 10
3.7894884E+001
 20
1.3966213E+002
 70
0
  0
VERTEX
  8
3
 42
-2.1659401E-003
 10
3.789914E+001
 20
1.3967125E+002
 70
1
  0
VERTEX
  8
3
 42
-2.0231184E-003
 10
3.7903479E+001
 20
1.3968035E+002
 70
0
  0
VERTEX
  8
3
 42
-1.8982996E-003
 10
3.7907896E+001
 20
1.3968942E+002
 70
1
  0
VERTEX
  8
3
 42
-1.7612822E-003
 10
3.7912384E+001
 20
1.3969847E+002
 70
0
  0
VERTEX
  8
3
 42
-1.6372176E-003
 10
3.7916938E+001
 20
1.3970751E+002
 70
1
  0
VERTEX
  8
3
 42
-1.4953917E-003
 10
3.7921552E+001
 20
1.3971651E+002
 70
0
  0
VERTEX
  8
3
 42
-1.3935809E-003
 10
3.792622E+001
 20
1.397255E+002
 70
1
  0
VERTEX
  8
3
 42
-1.3058507E-003
 10
3.7930938E+001
 20
1.3973446E+002
 70
0
  0
VERTEX
  8
3
 42
-1.2398639E-003
 10
3.7935702E+001
 20
1.3974339E+002
 70
1
  0
VERTEX
  8
3
 42
-1.178648E-003
 10
3.7940508E+001
 20
1.3975231E+002
 70
0
  0
VERTEX
  8
3
 42
-1.1225669E-003
 10
3.7945354E+001
 20
1.3976119E+002
 70
1
  0
VERTEX
  8
3
 42
-1.056973E-003
 10
3.7950236E+001
 20
1.3977006E+002
 70
0
  0
VERTEX
  8
3
 42
-9.99981E-004
 10
3.7955152E+001
 20
1.3977889E+002
 70
1
  0
VERTEX
  8
3
 42
-9.365487E-004
 10
3.7960096E+001
 20
1.397877E+002
 70
0
  0
VERTEX
  8
3
 42
-8.812534E-004
 10
3.7965068E+001
 20
1.3979648E+002
 70
1
  0
VERTEX
  8
3
 42
-8.18951E-004
 10
3.7970063E+001
 20
1.3980523E+002
 70
0
  0
VERTEX
  8
3
 42
-7.629536E-004
 10
3.7975079E+001
 20
1.3981395E+002
 70
1
  0
VERTEX
  8
3
 42
-6.989973E-004
 10
3.798011E+001
 20
1.3982264E+002
 70
0
  0
VERTEX
  8
3
 42
-6.467572E-004
 10
3.7985153E+001
 20
1.3983129E+002
 70
1
  0
VERTEX
  8
3
 42
-5.888362E-004
 10
3.7990212E+001
 20
1.3983993E+002
 70
0
  0
VERTEX
  8
3
 42
-5.271713E-004
 10
3.7995285E+001
 20
1.3984854E+002
 70
1
  0
VERTEX
  8
3
 42
-4.549229E-004
 10
3.8000343E+001
 20
1.3985709E+002
 70
0
  0
VERTEX
  8
3
 42
-4.172309E-004
 10
3.8005371E+001
 20
1.3986556E+002
 70
1
  0
VERTEX
  8
3
 42
-3.723156E-004
 10
3.8010476E+001
 20
1.3987412E+002
 70
0
  0
VERTEX
  8
3
 42
-2.81297E-004
 10
3.8015692E+001
 20
1.3988284E+002
 70
1
  0
VERTEX
  8
3
 42
-2.005321E-004
 10
3.8020587E+001
 20
1.3989101E+002
 70
0
  0
VERTEX
  8
3
 42
-2.00761E-004
 10
3.802501E+001
 20
1.3989838E+002
 70
1
  0
VERTEX
  8
3
 42
-7.86122E-005
 10
3.8030649E+001
 20
1.3990776E+002
 70
0
  0
VERTEX
  8
3
 42
-2.20536E-005
 10
3.803927E+001
 20
1.399221E+002
 70
1
  0
VERTEX
  8
3
 42
-2.64082E-005
 10
3.8050523E+001
 20
1.3994081E+002
 70
0
  0
SEQEND
  0
LINE
  8
3
  6
CONTINUOUS
 62
150
 10
3.5220494E+001
 20
1.4864716E+002
 11
3.5320494E+001
 21
1.4864367E+002
  0
LINE
  8
3
  6
CONTINUOUS
 62
150
 10
3.5320494E+001
 20
1.575262E+002
 11
3.5220494E+001
 21
1.5752271E+002
  0
LINE
  8
3
  6
CONTINUOUS
 62
150
 10
3.2020494E+001
 20
1.8308493E+002
 11
3.2020494E+001
 21
1.8158493E+002
  0
LINE
  8
3
  6
CONTINUOUS
 62
150
 10
3.2020494E+001
 20
1.2458493E+002
 11
3.2320494E+001
 21
1.2458493E+002
  0
LINE
  8
3
  6
CONTINUOUS
 62
150
 10
3.2320478E+001
 20
1.8158495E+002
 11
3.2020494E+001
 21
1.8158493E+002
  0
LINE
  8
3
  6
CONTINUOUS
 62
150
 10
3.2020494E+001
 20
1.2308493E+002
 11
3.2020494E+001
 21
1.2458493E+002
  0
LINE
  8
3
  6
CONTINUOUS
 62
150
 10
3.2320494E+001
 20
1.8308493E+002
 11
3.2020494E+001
 21
1.8308493E+002
  0
LINE
  8
3
  6
CONTINUOUS
 62
150
 10
3.2020494E+001
 20
1.2308493E+002
 11
3.2320478E+001
 21
1.2308492E+002
  0
POLYLINE
  8
3
  6
CONTINUOUS
 62
150
 66
1
 40
0.0
 41
0.0
 70
2
  0
VERTEX
  8
3
 42
0.0
 10
4.9320494E+001
 20
1.4813832E+002
 70
0
  0
VERTEX
  8
3
 42
-2.93689E-005
 10
4.9323104E+001
 20
1.4813816E+002
 70
1
  0
VERTEX
  8
3
 42
-2.94271E-005
 10
4.9325708E+001
 20
1.4813801E+002
 70
0
  0
VERTEX
  8
3
 42
-2.9615E-005
 10
4.9328307E+001
 20
1.4813786E+002
 70
1
  0
VERTEX
  8
3
 42
-2.99397E-005
 10
4.93309E+001
 20
1.481377E+002
 70
0
  0
VERTEX
  8
3
 42
-3.02192E-005
 10
4.9333487E+001
 20
1.4813755E+002
 70
1
  0
VERTEX
  8
3
 42
-3.04812E-005
 10
4.9336069E+001
 20
1.481374E+002
 70
0
  0
VERTEX
  8
3
 42
-3.07428E-005
 10
4.9338646E+001
 20
1.4813724E+002
 70
1
  0
VERTEX
  8
3
 42
-3.1026E-005
 10
4.9341217E+001
 20
1.4813709E+002
 70
0
  0
VERTEX
  8
3
 42
-3.12976E-005
 10
4.9343782E+001
 20
1.4813694E+002
 70
1
  0
VERTEX
  8
3
 42
-3.15809E-005
 10
4.9346342E+001
 20
1.4813678E+002
 70
0
  0
VERTEX
  8
3
 42
-3.18554E-005
 10
4.9348897E+001
 20
1.4813663E+002
 70
1
  0
VERTEX
  8
3
 42
-3.21442E-005
 10
4.9351445E+001
 20
1.4813648E+002
 70
0
  0
VERTEX
  8
3
 42
-3.24238E-005
 10
4.9353988E+001
 20
1.4813632E+002
 70
1
  0
VERTEX
  8
3
 42
-3.27168E-005
 10
4.9356526E+001
 20
1.4813617E+002
 70
0
  0
VERTEX
  8
3
 42
-3.3001E-005
 10
4.9359058E+001
 20
1.4813602E+002
 70
1
  0
VERTEX
  8
3
 42
-3.32991E-005
 10
4.9361584E+001
 20
1.4813586E+002
 70
0
  0
VERTEX
  8
3
 42
-3.35874E-005
 10
4.9364104E+001
 20
1.4813571E+002
 70
1
  0
VERTEX
  8
3
 42
-3.38887E-005
 10
4.9366619E+001
 20
1.4813556E+002
 70
0
  0
VERTEX
  8
3
 42
-3.41843E-005
 10
4.9369129E+001
 20
1.481354E+002
 70
1
  0
VERTEX
  8
3
 42
-3.44971E-005
 10
4.9371632E+001
 20
1.4813525E+002
 70
0
  0
VERTEX
  8
3
 42
-3.47888E-005
 10
4.937413E+001
 20
1.481351E+002
 70
1
  0
VERTEX
  8
3
 42
-3.50826E-005
 10
4.9376622E+001
 20
1.4813494E+002
 70
0
  0
VERTEX
  8
3
 42
-3.54123E-005
 10
4.9379109E+001
 20
1.4813479E+002
 70
1
  0
VERTEX
  8
3
 42
-3.57961E-005
 10
4.938159E+001
 20
1.4813464E+002
 70
0
  0
VERTEX
  8
3
 42
-3.60136E-005
 10
4.9384065E+001
 20
1.4813448E+002
 70
1
  0
VERTEX
  8
3
 42
-3.61077E-005
 10
4.9386534E+001
 20
1.4813433E+002
 70
0
  0
VERTEX
  8
3
 42
-3.67433E-005
 10
4.9388996E+001
 20
1.4813418E+002
 70
1
  0
VERTEX
  8
3
 42
-3.78441E-005
 10
4.9391455E+001
 20
1.4813403E+002
 70
0
  0
VERTEX
  8
3
 42
-3.70666E-005
 10
4.9393912E+001
 20
1.4813387E+002
 70
1
  0
VERTEX
  8
3
 42
-3.4863E-005
 10
4.9396353E+001
 20
1.4813372E+002
 70
0
  0
VERTEX
  8
3
 42
-3.88724E-005
 10
4.9398775E+001
 20
1.4813357E+002
 70
1
  0
VERTEX
  8
3
 42
-4.68987E-005
 10
4.9401228E+001
 20
1.4813341E+002
 70
0
  0
VERTEX
  8
3
 42
-3.5808E-005
 10
4.9403732E+001
 20
1.4813325E+002
 70
1
  0
VERTEX
  8
3
 42
-1.20734E-005
 10
4.940608E+001
 20
1.4813311E+002
 70
0
  0
VERTEX
  8
3
 42
-5.1283E-005
 10
4.94082E+001
 20
1.4813297E+002
 70
1
  0
VERTEX
  8
3
 42
-8.9758E-005
 10
4.9410908E+001
 20
1.481328E+002
 70
0
  0
VERTEX
  8
3
 42
-4.42998E-005
 10
4.9415063E+001
 20
1.4813253E+002
 70
1
  0
VERTEX
  8
3
 42
-2.35307E-005
 10
4.9420494E+001
 20
1.4813218E+002
 70
0
  0
SEQEND
  0
POLYLINE
  8
3
  6
CONTINUOUS
 62
150
 66
1
 40
0.0
 41
0.0
 70
2
  0
VERTEX
  8
3
 42
0.0
 10
4.9420494E+001
 20
1.5803782E+002
 70
0
  0
VERTEX
  8
3
 42
-4.04497E-005
 10
4.9418108E+001
 20
1.5803767E+002
 70
1
  0
VERTEX
  8
3
 42
-4.03233E-005
 10
4.9415715E+001
 20
1.5803751E+002
 70
0
  0
VERTEX
  8
3
 42
-4.00531E-005
 10
4.9413317E+001
 20
1.5803736E+002
 70
1
  0
VERTEX
  8
3
 42
-3.96402E-005
 10
4.9410912E+001
 20
1.5803721E+002
 70
0
  0
VERTEX
  8
3
 42
-3.92803E-005
 10
4.9408502E+001
 20
1.5803705E+002
 70
1
  0
VERTEX
  8
3
 42
-3.89471E-005
 10
4.9406086E+001
 20
1.580369E+002
 70
0
  0
VERTEX
  8
3
 42
-3.86174E-005
 10
4.9403664E+001
 20
1.5803675E+002
 70
1
  0
VERTEX
  8
3
 42
-3.82717E-005
 10
4.9401236E+001
 20
1.5803659E+002
 70
0
  0
VERTEX
  8
3
 42
-3.79418E-005
 10
4.9398802E+001
 20
1.5803644E+002
 70
1
  0
VERTEX
  8
3
 42
-3.76063E-005
 10
4.9396362E+001
 20
1.5803629E+002
 70
0
  0
VERTEX
  8
3
 42
-3.72839E-005
 10
4.9393916E+001
 20
1.5803613E+002
 70
1
  0
VERTEX
  8
3
 42
-3.6953E-005
 10
4.9391465E+001
 20
1.5803598E+002
 70
0
  0
VERTEX
  8
3
 42
-3.66357E-005
 10
4.9389007E+001
 20
1.5803583E+002
 70
1
  0
VERTEX
  8
3
 42
-3.63103E-005
 10
4.9386544E+001
 20
1.5803567E+002
 70
0
  0
VERTEX
  8
3
 42
-3.59988E-005
 10
4.9384075E+001
 20
1.5803552E+002
 70
1
  0
VERTEX
  8
3
 42
-3.56792E-005
 10
4.9381601E+001
 20
1.5803537E+002
 70
0
  0
VERTEX
  8
3
 42
-3.53723E-005
 10
4.937912E+001
 20
1.5803521E+002
 70
1
  0
VERTEX
  8
3
 42
-3.50564E-005
 10
4.9376634E+001
 20
1.5803506E+002
 70
0
  0
VERTEX
  8
3
 42
-3.47571E-005
 10
4.9374142E+001
 20
1.5803491E+002
 70
1
  0
VERTEX
  8
3
 42
-3.44523E-005
 10
4.9371644E+001
 20
1.5803475E+002
 70
0
  0
VERTEX
  8
3
 42
-3.41497E-005
 10
4.936914E+001
 20
1.580346E+002
 70
1
  0
VERTEX
  8
3
 42
-3.38284E-005
 10
4.9366631E+001
 20
1.5803445E+002
 70
0
  0
VERTEX
  8
3
 42
-3.35607E-005
 10
4.9364116E+001
 20
1.5803429E+002
 70
1
  0
VERTEX
  8
3
 42
-3.3318E-005
 10
4.9361595E+001
 20
1.5803414E+002
 70
0
  0
VERTEX
  8
3
 42
-3.29514E-005
 10
4.9359068E+001
 20
1.5803399E+002
 70
1
  0
VERTEX
  8
3
 42
-3.2464E-005
 10
4.9356537E+001
 20
1.5803383E+002
 70
0
  0
VERTEX
  8
3
 42
-3.24561E-005
 10
4.9354E+001
 20
1.5803368E+002
 70
1
  0
VERTEX
  8
3
 42
-3.27979E-005
 10
4.9351455E+001
 20
1.5803353E+002
 70
0
  0
VERTEX
  8
3
 42
-3.16108E-005
 10
4.9348901E+001
 20
1.5803337E+002
 70
1
  0
VERTEX
  8
3
 42
-2.93038E-005
 10
4.9346351E+001
 20
1.5803322E+002
 70
0
  0
VERTEX
  8
3
 42
-3.20047E-005
 10
4.9343812E+001
 20
1.5803307E+002
 70
1
  0
VERTEX
  8
3
 42
-3.76737E-005
 10
4.9341225E+001
 20
1.5803291E+002
 70
0
  0
VERTEX
  8
3
 42
-2.84461E-005
 10
4.9338571E+001
 20
1.5803275E+002
 70
1
  0
VERTEX
  8
3
 42
-9.9759E-006
 10
4.9336076E+001
 20
1.580326E+002
 70
0
  0
VERTEX
  8
3
 42
-3.94708E-005
 10
4.9333817E+001
 20
1.5803247E+002
 70
1
  0
VERTEX
  8
3
 42
-6.67512E-005
 10
4.9330904E+001
 20
1.580323E+002
 70
0
  0
VERTEX
  8
3
 42
-3.23631E-005
 10
4.9326401E+001
 20
1.5803203E+002
 70
1
  0
VERTEX
  8
3
 42
-1.7125E-005
 10
4.9320494E+001
 20
1.5803168E+002
 70
0
  0
SEQEND
  0
LINE
  8
4
  6
CONTINUOUS
 62
150
 10
1.1549725E+002
 20
2.5555762E+002
 11
1.155186E+002
 21
2.5555762E+002
  0
LINE
  8
4
  6
CONTINUOUS
 62
150
 10
1.155186E+002
 20
2.5555762E+002
 11
1.464759E+002
 21
2.5555762E+002
  0
LINE
  8
4
  6
CONTINUOUS
 62
150
 10
1.464759E+002
 20
2.5555762E+002
 11
1.4649725E+002
 21
2.5555762E+002
  0
LINE
  8
4
  6
CONTINUOUS
 62
150
 10
1.4649725E+002
 20
2.5555762E+002
 11
1.4949725E+002
 21
2.5555762E+002
  0
LINE
  8
Drafting_Hidden_Entities
  6
CONTINUOUS
 62
150
 10
1.4949725E+002
 20
2.5857897E+002
 11
1.464759E+002
 21
2.5857897E+002
  0
LINE
  8
Drafting_Hidden_Entities
  6
CONTINUOUS
 62
150
 10
1.1399725E+002
 20
2.5857897E+002
 11
1.1399725E+002
 21
2.5855762E+002
  0
POLYLINE
  8
Drafting_Hidden_Entities
  6
CONTINUOUS
 62
150
 66
1
 40
0.0
 41
0.0
 70
2
  0
VERTEX
  8
Drafting_Hidden_Entities
 42
0.0
 10
1.4799725E+002
 20
2.5855762E+002
 70
0
  0
VERTEX
  8
Drafting_Hidden_Entities
 42
0.0
 10
1.4799725E+002
 20
2.5855762E+002
 70
1
  0
VERTEX
  8
Drafting_Hidden_Entities
 42
0.0
 10
1.4799725E+002
 20
2.5855762E+002
 70
0
  0
VERTEX
  8
Drafting_Hidden_Entities
 42
0.0
 10
1.4799725E+002
 20
2.5855762E+002
 70
1
  0
VERTEX
  8
Drafting_Hidden_Entities
 42
0.0
 10
1.4799725E+002
 20
2.5855762E+002
 70
0
  0
VERTEX
  8
Drafting_Hidden_Entities
 42
0.0
 10
1.4799725E+002
 20
2.5855762E+002
 70
1
  0
VERTEX
  8
Drafting_Hidden_Entities
 42
0.0
 10
1.4799725E+002
 20
2.5855762E+002
 70
0
  0
VERTEX
  8
Drafting_Hidden_Entities
 42
0.0
 10
1.4799725E+002
 20
2.5855762E+002
 70
1
  0
VERTEX
  8
Drafting_Hidden_Entities
 42
0.0
 10
1.4799725E+002
 20
2.5855762E+002
 70
0
  0
VERTEX
  8
Drafting_Hidden_Entities
 42
0.0
 10
1.4799725E+002
 20
2.5855762E+002
 70
1
  0
VERTEX
  8
Drafting_Hidden_Entities
 42
0.0
 10
1.4799725E+002
 20
2.5855762E+002
 70
0
  0
VERTEX
  8
Drafting_Hidden_Entities
 42
0.0
 10
1.4799725E+002
 20
2.5855762E+002
 70
1
  0
VERTEX
  8
Drafting_Hidden_Entities
 42
0.0
 10
1.4799725E+002
 20
2.5855762E+002
 70
0
  0
VERTEX
  8
Drafting_Hidden_Entities
 42
0.0
 10
1.4799725E+002
 20
2.5855762E+002
 70
1
  0
VERTEX
  8
Drafting_Hidden_Entities
 42
0.0
 10
1.4799725E+002
 20
2.5855762E+002
 70
0
  0
VERTEX
  8
Drafting_Hidden_Entities
 42
0.0
 10
1.4799725E+002
 20
2.5855762E+002
 70
1
  0
VERTEX
  8
Drafting_Hidden_Entities
 42
0.0
 10
1.4799725E+002
 20
2.5855762E+002
 70
0
  0
VERTEX
  8
Drafting_Hidden_Entities
 42
0.0
 10
1.4799725E+002
 20
2.5855762E+002
 70
1
  0
VERTEX
  8
Drafting_Hidden_Entities
 42
0.0
 10
1.4799725E+002
 20
2.5855762E+002
 70
0
  0
SEQEND
  0
ARC
  8
Drafting_Hidden_Entities
  6
CONTINUOUS
 62
150
 10
1.4649725E+002
 20
2.5855762E+002
 40
1.5
 50
2.7E+002
 51
3.6E+002
  0
ARC
  8
Drafting_Hidden_Entities
  6
CONTINUOUS
 62
150
 10
1.1549725E+002
 20
2.5855762E+002
 40
1.5
 50
1.8E+002
 51
2.7E+002
  0
POLYLINE
  8
4
  6
CONTINUOUS
 62
150
 66
1
 40
0.0
 41
0.0
 70
2
  0
VERTEX
  8
4
 42
0.0
 10
1.1549725E+002
 20
2.5705762E+002
 70
0
  0
VERTEX
  8
4
 42
0.0
 10
1.1549725E+002
 20
2.5705762E+002
 70
1
  0
VERTEX
  8
4
 42
0.0
 10
1.1549725E+002
 20
2.5705762E+002
 70
0
  0
VERTEX
  8
4
 42
0.0
 10
1.1549725E+002
 20
2.5705762E+002
 70
1
  0
VERTEX
  8
4
 42
0.0
 10
1.1549725E+002
 20
2.5705762E+002
 70
0
  0
VERTEX
  8
4
 42
0.0
 10
1.1549725E+002
 20
2.5705762E+002
 70
1
  0
VERTEX
  8
4
 42
0.0
 10
1.1549725E+002
 20
2.5705762E+002
 70
0
  0
VERTEX
  8
4
 42
0.0
 10
1.1549725E+002
 20
2.5705762E+002
 70
1
  0
VERTEX
  8
4
 42
0.0
 10
1.1549725E+002
 20
2.5705762E+002
 70
0
  0
VERTEX
  8
4
 42
0.0
 10
1.1549725E+002
 20
2.5705762E+002
 70
1
  0
VERTEX
  8
4
 42
0.0
 10
1.1549725E+002
 20
2.5705762E+002
 70
0
  0
VERTEX
  8
4
 42
0.0
 10
1.1549725E+002
 20
2.5705762E+002
 70
1
  0
VERTEX
  8
4
 42
0.0
 10
1.1549725E+002
 20
2.5705762E+002
 70
0
  0
VERTEX
  8
4
 42
0.0
 10
1.1549725E+002
 20
2.5705762E+002
 70
1
  0
VERTEX
  8
4
 42
0.0
 10
1.1549725E+002
 20
2.5705762E+002
 70
0
  0
VERTEX
  8
4
 42
0.0
 10
1.1549725E+002
 20
2.5705762E+002
 70
1
  0
VERTEX
  8
4
 42
0.0
 10
1.1549725E+002
 20
2.5705762E+002
 70
0
  0
VERTEX
  8
4
 42
0.0
 10
1.1549725E+002
 20
2.5705762E+002
 70
1
  0
VERTEX
  8
4
 42
0.0
 10
1.1549725E+002
 20
2.5705762E+002
 70
0
  0
SEQEND
  0
LINE
  8
Drafting_Hidden_Entities
  6
CONTINUOUS
 62
150
 10
1.4599725E+002
 20
2.7485762E+002
 11
1.4599725E+002
 21
2.7355762E+002
  0
LINE
  8
Drafting_Hidden_Entities
  6
CONTINUOUS
 62
150
 10
1.4199725E+002
 20
2.7485762E+002
 11
1.4599725E+002
 21
2.7485762E+002
  0
LINE
  8
Drafting_Hidden_Entities
  6
CONTINUOUS
 62
150
 10
1.4199725E+002
 20
2.7355762E+002
 11
1.4199725E+002
 21
2.7485762E+002
  0
LINE
  8
Drafting_Hidden_Entities
  6
CONTINUOUS
 62
150
 10
1.1999725E+002
 20
2.7485762E+002
 11
1.1999725E+002
 21
2.7355762E+002
  0
LINE
  8
Drafting_Hidden_Entities
  6
CONTINUOUS
 62
150
 10
1.1599725E+002
 20
2.7485762E+002
 11
1.1999725E+002
 21
2.7485762E+002
  0
LINE
  8
Drafting_Hidden_Entities
  6
CONTINUOUS
 62
150
 10
1.1599725E+002
 20
2.7355762E+002
 11
1.1599725E+002
 21
2.7485762E+002
  0
LINE
  8
4
  6
CONTINUOUS
 62
150
 10
1.1249725E+002
 20
2.5857897E+002
 11
1.1249725E+002
 21
2.7205762E+002
  0
LINE
  8
Drafting_Hidden_Entities
  6
CONTINUOUS
 62
150
 10
1.155186E+002
 20
2.5857897E+002
 11
1.1249725E+002
 21
2.5857897E+002
  0
ARC
  8
4
  6
CONTINUOUS
 62
150
 10
1.1549725E+002
 20
2.5855762E+002
 40
3.0
 50
1.8E+002
 51
2.7E+002
  0
ARC
  8
4
  6
CONTINUOUS
 62
150
 10
1.4649725E+002
 20
2.5855762E+002
 40
3.0
 50
2.7E+002
 51
3.6E+002
  0
LINE
  8
4
  6
CONTINUOUS
 62
150
 10
1.1249725E+002
 20
2.5857897E+002
 11
1.1249725E+002
 21
2.5855762E+002
  0
LINE
  8
Drafting_Hidden_Entities
  6
CONTINUOUS
 62
150
 10
1.464759E+002
 20
2.5735762E+002
 11
1.4738637E+002
 21
2.5735762E+002
  0
LINE
  8
Drafting_Hidden_Entities
  6
CONTINUOUS
 62
150
 10
1.464759E+002
 20
2.5705762E+002
 11
1.4649725E+002
 21
2.5705762E+002
  0
LINE
  8
Drafting_Hidden_Entities
  6
CONTINUOUS
 62
150
 10
1.4909533E+002
 20
2.5705762E+002
 11
1.4949725E+002
 21
2.5705762E+002
  0
LINE
  8
Drafting_Hidden_Entities
  6
CONTINUOUS
 62
150
 10
1.1549623E+002
 20
2.5705762E+002
 11
1.155186E+002
 21
2.5705762E+002
  0
LINE
  8
Drafting_Hidden_Entities
  6
CONTINUOUS
 62
150
 10
1.4799725E+002
 20
2.5855659E+002
 11
1.4799725E+002
 21
2.5857897E+002
  0
LINE
  8
Drafting_Hidden_Entities
  6
CONTINUOUS
 62
150
 10
1.464759E+002
 20
2.5857896E+002
 11
1.464759E+002
 21
2.5855762E+002
  0
LINE
  8
Drafting_Hidden_Entities
  6
CONTINUOUS
 62
150
 10
1.155186E+002
 20
2.5855762E+002
 11
1.155186E+002
 21
2.5857896E+002
  0
LINE
  8
Drafting_Hidden_Entities
  6
CONTINUOUS
 62
150
 10
1.464759E+002
 20
2.5855762E+002
 11
1.464759E+002
 21
2.5555762E+002
  0
LINE
  8
Drafting_Hidden_Entities
  6
CONTINUOUS
 62
150
 10
1.155186E+002
 20
2.5555762E+002
 11
1.155186E+002
 21
2.5855762E+002
  0
LINE
  8
4
  6
CONTINUOUS
 62
40
 10
1.4949725E+002
 20
2.7205762E+002
 11
1.4849725E+002
 21
2.7205762E+002
  0
LINE
  8
4
  6
CONTINUOUS
 62
40
 10
1.4849725E+002
 20
2.7205762E+002
 11
1.1349725E+002
 21
2.7205762E+002
  0
LINE
  8
4
  6
CONTINUOUS
 62
40
 10
1.1349725E+002
 20
2.7205762E+002
 11
1.1249725E+002
 21
2.7205762E+002
  0
LINE
  8
4
  6
CONTINUOUS
 62
40
 10
1.1249725E+002
 20
2.7205762E+002
 11
1.1249725E+002
 21
2.7355762E+002
  0
LINE
  8
4
  6
CONTINUOUS
 62
40
 10
1.1249725E+002
 20
2.7355762E+002
 11
1.1349725E+002
 21
2.7355762E+002
  0
LINE
  8
4
  6
CONTINUOUS
 62
40
 10
1.1349725E+002
 20
2.7355762E+002
 11
1.4849725E+002
 21
2.7355762E+002
  0
LINE
  8
4
  6
CONTINUOUS
 62
40
 10
1.4849725E+002
 20
2.7355762E+002
 11
1.4949725E+002
 21
2.7355762E+002
  0
LINE
  8
4
  6
CONTINUOUS
 62
6
 10
1.5249725E+002
 20
2.6905762E+002
 11
1.6399725E+002
 21
2.6905762E+002
  0
LINE
  8
4
  6
CONTINUOUS
 62
6
 10
1.6449725E+002
 20
2.7055762E+002
 11
1.6449725E+002
 21
2.6955762E+002
  0
LINE
  8
4
  6
CONTINUOUS
 62
6
 10
1.6449726E+002
 20
2.6955761E+002
 11
1.6449725E+002
 21
2.6955762E+002
  0
LINE
  8
4
  6
CONTINUOUS
 62
6
 10
1.6449725E+002
 20
2.6955762E+002
 11
1.6449725E+002
 21
2.6941117E+002
  0
LINE
  8
4
  6
CONTINUOUS
 62
6
 10
1.6449725E+002
 20
2.6941117E+002
 11
1.6449725E+002
 21
2.6926472E+002
  0
LINE
  8
4
  6
CONTINUOUS
 62
6
 10
1.5249725E+002
 20
2.7155762E+002
 11
1.6349725E+002
 21
2.7155762E+002
  0
LINE
  8
4
  6
CONTINUOUS
 62
6
 10
1.5279014E+002
 20
2.5755762E+002
 11
1.5249725E+002
 21
2.5755762E+002
  0
LINE
  8
4
  6
CONTINUOUS
 62
6
 10
1.4949725E+002
 20
2.5755762E+002
 11
1.4932568E+002
 21
2.5755762E+002
  0
LINE
  8
Drafting_Hidden_Entities
  6
CONTINUOUS
 62
6
 10
1.4760719E+002
 20
2.5755762E+002
 11
1.464759E+002
 21
2.5755762E+002
  0
LINE
  8
4
  6
CONTINUOUS
 62
6
 10
1.531437E+002
 20
2.5770406E+002
 11
1.536437E+002
 21
2.5820406E+002
  0
LINE
  8
4
  6
CONTINUOUS
 62
6
 10
1.536437E+002
 20
2.5820406E+002
 11
1.636437E+002
 21
2.6820406E+002
  0
LINE
  8
4
  6
CONTINUOUS
 62
6
 10
1.636437E+002
 20
2.6820406E+002
 11
1.6399725E+002
 21
2.6855762E+002
  0
LINE
  8
4
  6
CONTINUOUS
 62
6
 10
1.6399725E+002
 20
2.6855762E+002
 11
1.643508E+002
 21
2.6891117E+002
  0
ARC
  8
4
  6
CONTINUOUS
 62
6
 10
1.6349725E+002
 20
2.7055762E+002
 40
1.0
 50
6.0091347E+001
 51
9.0E+001
  0
ARC
  8
4
  6
CONTINUOUS
 62
6
 10
1.6349725E+002
 20
2.7055762E+002
 40
1.0
 50
0.0
 51
6.0091347E+001
  0
ARC
  8
4
  6
CONTINUOUS
 62
6
 10
1.6399725E+002
 20
2.6955762E+002
 40
5.0E-001
 50
2.7E+002
 51
3.6E+002
  0
ARC
  8
4
  6
CONTINUOUS
 62
6
 10
1.6399725E+002
 20
2.6926472E+002
 40
5.0E-001
 50
3.375E+002
 51
3.6E+002
  0
ARC
  8
4
  6
CONTINUOUS
 62
6
 10
1.5279014E+002
 20
2.5805762E+002
 40
5.0E-001
 50
2.7E+002
 51
3.15E+002
  0
POLYLINE
  8
4
  6
CONTINUOUS
 62
6
 66
1
 40
0.0
 41
0.0
 70
2
  0
VERTEX
  8
4
 42
0.0
 10
1.6411362E+002
 20
2.6907171E+002
 70
0
  0
VERTEX
  8
4
 42
-1.227684E-003
 10
1.6411366E+002
 20
2.6907172E+002
 70
1
  0
VERTEX
  8
4
 42
-1.7140014E-003
 10
1.641137E+002
 20
2.6907172E+002
 70
0
  0
VERTEX
  8
4
 42
-2.2796211E-003
 10
1.6411373E+002
 20
2.6907173E+002
 70
1
  0
VERTEX
  8
4
 42
-2.4782329E-003
 10
1.6411376E+002
 20
2.6907174E+002
 70
0
  0
VERTEX
  8
4
 42
-2.6104812E-003
 10
1.6411378E+002
 20
2.6907174E+002
 70
1
  0
VERTEX
  8
4
 42
-2.4622134E-003
 10
1.6411381E+002
 20
2.6907175E+002
 70
0
  0
VERTEX
  8
4
 42
-1.9751532E-003
 10
1.6411383E+002
 20
2.6907175E+002
 70
1
  0
VERTEX
  8
4
 42
-8.947154E-004
 10
1.6411385E+002
 20
2.6907175E+002
 70
0
  0
VERTEX
  8
4
 42
1.871028E-004
 10
1.6411387E+002
 20
2.6907176E+002
 70
1
  0
VERTEX
  8
4
 42
1.2086886E-003
 10
1.6411389E+002
 20
2.6907176E+002
 70
0
  0
VERTEX
  8
4
 42
1.7378186E-003
 10
1.6411391E+002
 20
2.6907176E+002
 70
1
  0
VERTEX
  8
4
 42
2.0204723E-003
 10
1.6411394E+002
 20
2.6907177E+002
 70
0
  0
VERTEX
  8
4
 42
1.941878E-003
 10
1.6411397E+002
 20
2.6907178E+002
 70
1
  0
VERTEX
  8
4
 42
1.8120233E-003
 10
1.6411401E+002
 20
2.6907178E+002
 70
0
  0
VERTEX
  8
4
 42
1.5618701E-003
 10
1.6411406E+002
 20
2.6907179E+002
 70
1
  0
VERTEX
  8
4
 42
1.36431E-003
 10
1.6411411E+002
 20
2.690718E+002
 70
0
  0
VERTEX
  8
4
 42
1.1420819E-003
 10
1.6411417E+002
 20
2.6907182E+002
 70
1
  0
VERTEX
  8
4
 42
9.804023E-004
 10
1.6411424E+002
 20
2.6907183E+002
 70
0
  0
VERTEX
  8
4
 42
8.21827E-004
 10
1.6411432E+002
 20
2.6907185E+002
 70
1
  0
VERTEX
  8
4
 42
7.104706E-004
 10
1.6411441E+002
 20
2.6907187E+002
 70
0
  0
VERTEX
  8
4
 42
5.966083E-004
 10
1.6411452E+002
 20
2.690719E+002
 70
1
  0
VERTEX
  8
4
 42
5.091489E-004
 10
1.6411464E+002
 20
2.6907192E+002
 70
0
  0
VERTEX
  8
4
 42
4.46881E-004
 10
1.6411477E+002
 20
2.6907196E+002
 70
1
  0
VERTEX
  8
4
 42
4.202544E-004
 10
1.6411492E+002
 20
2.6907199E+002
 70
0
  0
VERTEX
  8
4
 42
3.274896E-004
 10
1.6411509E+002
 20
2.6907203E+002
 70
1
  0
VERTEX
  8
4
 42
1.9876E-004
 10
1.6411527E+002
 20
2.6907208E+002
 70
0
  0
VERTEX
  8
4
 42
2.917712E-004
 10
1.6411547E+002
 20
2.6907213E+002
 70
1
  0
VERTEX
  8
4
 42
5.621221E-004
 10
1.641157E+002
 20
2.6907218E+002
 70
0
  0
VERTEX
  8
4
 42
1.089008E-004
 10
1.6411594E+002
 20
2.6907224E+002
 70
1
  0
VERTEX
  8
4
 42
-8.98338E-004
 10
1.6411621E+002
 20
2.6907231E+002
 70
0
  0
VERTEX
  8
4
 42
4.809633E-004
 10
1.641165E+002
 20
2.6907238E+002
 70
1
  0
VERTEX
  8
4
 42
3.8797554E-003
 10
1.6411681E+002
 20
2.6907245E+002
 70
0
  0
VERTEX
  8
4
 42
-9.888654E-004
 10
1.6411714E+002
 20
2.6907254E+002
 70
1
  0
VERTEX
  8
4
 42
-1.174304E-002
 10
1.6411751E+002
 20
2.6907263E+002
 70
0
  0
VERTEX
  8
4
 42
-1.3081859E-002
 10
1.6411797E+002
 20
2.6907271E+002
 70
1
  0
VERTEX
  8
4
 42
-1.0384732E-002
 10
1.6411857E+002
 20
2.6907279E+002
 70
0
  0
VERTEX
  8
4
 42
-4.944495E-003
 10
1.6411934E+002
 20
2.6907287E+002
 70
1
  0
VERTEX
  8
4
 42
-7.2168E-006
 10
1.6412029E+002
 20
2.6907295E+002
 70
0
  0
VERTEX
  8
4
 42
2.0759876E-003
 10
1.6412141E+002
 20
2.6907306E+002
 70
1
  0
VERTEX
  8
4
 42
3.2027871E-003
 10
1.6412271E+002
 20
2.6907319E+002
 70
0
  0
VERTEX
  8
4
 42
3.7625539E-003
 10
1.6412421E+002
 20
2.6907337E+002
 70
1
  0
VERTEX
  8
4
 42
4.354426E-003
 10
1.641259E+002
 20
2.690736E+002
 70
0
  0
VERTEX
  8
4
 42
4.5216142E-003
 10
1.6412779E+002
 20
2.690739E+002
 70
1
  0
VERTEX
  8
4
 42
4.7316641E-003
 10
1.641299E+002
 20
2.6907426E+002
 70
0
  0
VERTEX
  8
4
 42
4.6957721E-003
 10
1.6413222E+002
 20
2.6907471E+002
 70
1
  0
VERTEX
  8
4
 42
4.7576884E-003
 10
1.6413476E+002
 20
2.6907525E+002
 70
0
  0
VERTEX
  8
4
 42
4.6403377E-003
 10
1.6413754E+002
 20
2.690759E+002
 70
1
  0
VERTEX
  8
4
 42
4.6183339E-003
 10
1.6414054E+002
 20
2.6907666E+002
 70
0
  0
VERTEX
  8
4
 42
4.463833E-003
 10
1.6414379E+002
 20
2.6907754E+002
 70
1
  0
VERTEX
  8
4
 42
4.3998666E-003
 10
1.6414729E+002
 20
2.6907856E+002
 70
0
  0
VERTEX
  8
4
 42
4.2330834E-003
 10
1.6415105E+002
 20
2.6907973E+002
 70
1
  0
VERTEX
  8
4
 42
4.1479809E-003
 10
1.6415506E+002
 20
2.6908105E+002
 70
0
  0
VERTEX
  8
4
 42
3.9804279E-003
 10
1.6415935E+002
 20
2.6908253E+002
 70
1
  0
VERTEX
  8
4
 42
3.8852872E-003
 10
1.641639E+002
 20
2.690842E+002
 70
0
  0
VERTEX
  8
4
 42
3.7249606E-003
 10
1.6416875E+002
 20
2.6908605E+002
 70
1
  0
VERTEX
  8
4
 42
3.6294046E-003
 10
1.6417387E+002
 20
2.6908809E+002
 70
0
  0
VERTEX
  8
4
 42
3.475055E-003
 10
1.641793E+002
 20
2.6909035E+002
 70
1
  0
VERTEX
  8
4
 42
3.3760058E-003
 10
1.6418502E+002
 20
2.6909282E+002
 70
0
  0
VERTEX
  8
4
 42
3.2405641E-003
 10
1.6419105E+002
 20
2.6909553E+002
 70
1
  0
VERTEX
  8
4
 42
3.1567246E-003
 10
1.6419739E+002
 20
2.6909847E+002
 70
0
  0
VERTEX
  8
4
 42
3.0119847E-003
 10
1.6420406E+002
 20
2.6910166E+002
 70
1
  0
VERTEX
  8
4
 42
2.9139188E-003
 10
1.6421104E+002
 20
2.6910511E+002
 70
0
  0
VERTEX
  8
4
 42
2.8208437E-003
 10
1.6421835E+002
 20
2.6910882E+002
 70
1
  0
VERTEX
  8
4
 42
2.7262737E-003
 10
1.6422603E+002
 20
2.6911283E+002
 70
0
  0
VERTEX
  8
4
 42
2.5983037E-003
 10
1.6423413E+002
 20
2.6911717E+002
 70
1
  0
VERTEX
  8
4
 42
2.755962E-003
 10
1.642424E+002
 20
2.6912171E+002
 70
0
  0
VERTEX
  8
4
 42
3.0739412E-003
 10
1.6425058E+002
 20
2.6912633E+002
 70
1
  0
VERTEX
  8
4
 42
3.6265001E-003
 10
1.6425846E+002
 20
2.6913092E+002
 70
0
  0
VERTEX
  8
4
 42
4.039236E-003
 10
1.6426584E+002
 20
2.6913538E+002
 70
1
  0
VERTEX
  8
4
 42
3.9441939E-003
 10
1.6427278E+002
 20
2.6913972E+002
 70
0
  0
VERTEX
  8
4
 42
4.4899731E-003
 10
1.6427933E+002
 20
2.6914397E+002
 70
1
  0
VERTEX
  8
4
 42
5.5824118E-003
 10
1.6428564E+002
 20
2.6914825E+002
 70
0
  0
VERTEX
  8
4
 42
4.5992932E-003
 10
1.6429176E+002
 20
2.691526E+002
 70
1
  0
VERTEX
  8
4
 42
1.9984804E-003
 10
1.6429731E+002
 20
2.6915665E+002
 70
0
  0
VERTEX
  8
4
 42
6.3145314E-003
 10
1.6430217E+002
 20
2.691603E+002
 70
1
  0
VERTEX
  8
4
 42
1.0421461E-002
 10
1.6430805E+002
 20
2.6916506E+002
 70
0
  0
VERTEX
  8
4
 42
5.1977982E-003
 10
1.6431673E+002
 20
2.6917256E+002
 70
1
  0
VERTEX
  8
4
 42
2.8810393E-003
 10
1.6432785E+002
 20
2.6918246E+002
 70
0
  0
SEQEND
  0
POLYLINE
  8
4
  6
CONTINUOUS
 62
6
 66
1
 40
0.0
 41
0.0
 70
2
  0
VERTEX
  8
4
 42
0.0
 10
1.6417216E+002
 20
2.6906615E+002
 70
0
  0
VERTEX
  8
4
 42
-7.382031E-004
 10
1.6417343E+002
 20
2.6906722E+002
 70
1
  0
VERTEX
  8
4
 42
-7.439023E-004
 10
1.6417471E+002
 20
2.6906828E+002
 70
0
  0
VERTEX
  8
4
 42
-7.394609E-004
 10
1.64176E+002
 20
2.6906933E+002
 70
1
  0
VERTEX
  8
4
 42
-7.23004E-004
 10
1.6417728E+002
 20
2.6907039E+002
 70
0
  0
VERTEX
  8
4
 42
-7.104517E-004
 10
1.6417857E+002
 20
2.6907144E+002
 70
1
  0
VERTEX
  8
4
 42
-6.987517E-004
 10
1.6417987E+002
 20
2.6907248E+002
 70
0
  0
VERTEX
  8
4
 42
-6.87346E-004
 10
1.6418116E+002
 20
2.6907353E+002
 70
1
  0
VERTEX
  8
4
 42
-6.734812E-004
 10
1.6418246E+002
 20
2.6907457E+002
 70
0
  0
VERTEX
  8
4
 42
-6.609134E-004
 10
1.6418377E+002
 20
2.6907561E+002
 70
1
  0
VERTEX
  8
4
 42
-6.467871E-004
 10
1.6418507E+002
 20
2.6907664E+002
 70
0
  0
VERTEX
  8
4
 42
-6.336837E-004
 10
1.6418638E+002
 20
2.6907767E+002
 70
1
  0
VERTEX
  8
4
 42
-6.187659E-004
 10
1.641877E+002
 20
2.690787E+002
 70
0
  0
VERTEX
  8
4
 42
-6.05215E-004
 10
1.6418902E+002
 20
2.6907973E+002
 70
1
  0
VERTEX
  8
4
 42
-5.901349E-004
 10
1.6419034E+002
 20
2.6908076E+002
 70
0
  0
VERTEX
  8
4
 42
-5.756057E-004
 10
1.6419167E+002
 20
2.6908179E+002
 70
1
  0
VERTEX
  8
4
 42
-5.588818E-004
 10
1.6419301E+002
 20
2.6908281E+002
 70
0
  0
VERTEX
  8
4
 42
-5.416767E-004
 10
1.6419435E+002
 20
2.6908384E+002
 70
1
  0
VERTEX
  8
4
 42
-5.211588E-004
 10
1.6419569E+002
 20
2.6908486E+002
 70
0
  0
VERTEX
  8
4
 42
-5.040659E-004
 10
1.6419704E+002
 20
2.6908588E+002
 70
1
  0
VERTEX
  8
4
 42
-4.860696E-004
 10
1.6419838E+002
 20
2.690869E+002
 70
0
  0
VERTEX
  8
4
 42
-4.709614E-004
 10
1.6419973E+002
 20
2.6908791E+002
 70
1
  0
VERTEX
  8
4
 42
-4.546207E-004
 10
1.6420108E+002
 20
2.6908892E+002
 70
0
  0
VERTEX
  8
4
 42
-4.411172E-004
 10
1.6420243E+002
 20
2.6908993E+002
 70
1
  0
VERTEX
  8
4
 42
-4.263474E-004
 10
1.6420377E+002
 20
2.6909093E+002
 70
0
  0
VERTEX
  8
4
 42
-4.14279E-004
 10
1.6420512E+002
 20
2.6909193E+002
 70
1
  0
VERTEX
  8
4
 42
-4.008599E-004
 10
1.6420646E+002
 20
2.6909291E+002
 70
0
  0
VERTEX
  8
4
 42
-3.90077E-004
 10
1.6420779E+002
 20
2.690939E+002
 70
1
  0
VERTEX
  8
4
 42
-3.778987E-004
 10
1.6420912E+002
 20
2.6909487E+002
 70
0
  0
VERTEX
  8
4
 42
-3.682101E-004
 10
1.6421045E+002
 20
2.6909584E+002
 70
1
  0
VERTEX
  8
4
 42
-3.570447E-004
 10
1.6421176E+002
 20
2.690968E+002
 70
0
  0
VERTEX
  8
4
 42
-3.485E-004
 10
1.6421307E+002
 20
2.6909775E+002
 70
1
  0
VERTEX
  8
4
 42
-3.384452E-004
 10
1.6421437E+002
 20
2.6909869E+002
 70
0
  0
VERTEX
  8
4
 42
-3.308918E-004
 10
1.6421566E+002
 20
2.6909962E+002
 70
1
  0
VERTEX
  8
4
 42
-3.204087E-004
 10
1.6421694E+002
 20
2.6910055E+002
 70
0
  0
VERTEX
  8
4
 42
-3.099586E-004
 10
1.6421822E+002
 20
2.6910147E+002
 70
1
  0
VERTEX
  8
4
 42
-2.959178E-004
 10
1.6421949E+002
 20
2.6910238E+002
 70
0
  0
VERTEX
  8
4
 42
-2.822069E-004
 10
1.6422076E+002
 20
2.6910329E+002
 70
1
  0
VERTEX
  8
4
 42
-2.6508E-004
 10
1.6422203E+002
 20
2.691042E+002
 70
0
  0
VERTEX
  8
4
 42
-2.486149E-004
 10
1.6422331E+002
 20
2.6910511E+002
 70
1
  0
VERTEX
  8
4
 42
-2.290599E-004
 10
1.6422459E+002
 20
2.6910602E+002
 70
0
  0
VERTEX
  8
4
 42
-2.105752E-004
 10
1.6422588E+002
 20
2.6910693E+002
 70
1
  0
VERTEX
  8
4
 42
-1.893768E-004
 10
1.6422717E+002
 20
2.6910785E+002
 70
0
  0
VERTEX
  8
4
 42
-1.69699E-004
 10
1.6422848E+002
 20
2.6910877E+002
 70
1
  0
VERTEX
  8
4
 42
-1.47724E-004
 10
1.642298E+002
 20
2.691097E+002
 70
0
  0
VERTEX
  8
4
 42
-1.27706E-004
 10
1.6423114E+002
 20
2.6911065E+002
 70
1
  0
VERTEX
  8
4
 42
-1.057817E-004
 10
1.6423249E+002
 20
2.691116E+002
 70
0
  0
VERTEX
  8
4
 42
-8.62382E-005
 10
1.6423387E+002
 20
2.6911257E+002
 70
1
  0
VERTEX
  8
4
 42
-6.51794E-005
 10
1.6423526E+002
 20
2.6911355E+002
 70
0
  0
VERTEX
  8
4
 42
-4.67072E-005
 10
1.6423668E+002
 20
2.6911454E+002
 70
1
  0
VERTEX
  8
4
 42
-2.68697E-005
 10
1.6423812E+002
 20
2.6911556E+002
 70
0
  0
VERTEX
  8
4
 42
-1.03147E-005
 10
1.6423959E+002
 20
2.6911659E+002
 70
1
  0
VERTEX
  8
4
 42
6.8846E-006
 10
1.642411E+002
 20
2.6911765E+002
 70
0
  0
VERTEX
  8
4
 42
1.74597E-005
 10
1.6424263E+002
 20
2.6911873E+002
 70
1
  0
VERTEX
  8
4
 42
2.48567E-005
 10
1.6424418E+002
 20
2.6911982E+002
 70
0
  0
VERTEX
  8
4
 42
3.10297E-005
 10
1.6424576E+002
 20
2.6912093E+002
 70
1
  0
VERTEX
  8
4
 42
3.7978E-005
 10
1.6424736E+002
 20
2.6912205E+002
 70
0
  0
VERTEX
  8
4
 42
4.54278E-005
 10
1.6424896E+002
 20
2.6912318E+002
 70
1
  0
VERTEX
  8
4
 42
5.53792E-005
 10
1.6425058E+002
 20
2.6912432E+002
 70
0
  0
VERTEX
  8
4
 42
5.98987E-005
 10
1.642522E+002
 20
2.6912546E+002
 70
1
  0
VERTEX
  8
4
 42
6.13338E-005
 10
1.6425381E+002
 20
2.6912659E+002
 70
0
  0
VERTEX
  8
4
 42
8.02172E-005
 10
1.642554E+002
 20
2.6912772E+002
 70
1
  0
VERTEX
  8
4
 42
1.158477E-004
 10
1.64257E+002
 20
2.6912885E+002
 70
0
  0
VERTEX
  8
4
 42
9.09843E-005
 10
1.6425862E+002
 20
2.6912999E+002
 70
1
  0
VERTEX
  8
4
 42
1.55473E-005
 10
1.6426013E+002
 20
2.6913105E+002
 70
0
  0
VERTEX
  8
4
 42
1.627537E-004
 10
1.6426148E+002
 20
2.6913201E+002
 70
1
  0
VERTEX
  8
4
 42
3.552773E-004
 10
1.6426314E+002
 20
2.6913319E+002
 70
0
  0
VERTEX
  8
4
 42
1.946997E-004
 10
1.6426558E+002
 20
2.6913492E+002
 70
1
  0
VERTEX
  8
4
 42
1.04868E-004
 10
1.6426869E+002
 20
2.6913714E+002
 70
0
  0
SEQEND
  0
POLYLINE
  8
4
  6
CONTINUOUS
 62
6
 66
1
 40
0.0
 41
0.0
 70
2
  0
VERTEX
  8
4
 42
0.0
 10
1.643508E+002
 20
2.6920407E+002
 70
0
  0
VERTEX
  8
4
 42
-5.56554E-005
 10
1.6435003E+002
 20
2.6920332E+002
 70
1
  0
VERTEX
  8
4
 42
-5.61748E-005
 10
1.6434929E+002
 20
2.692026E+002
 70
0
  0
VERTEX
  8
4
 42
-6.47357E-005
 10
1.6434858E+002
 20
2.6920191E+002
 70
1
  0
VERTEX
  8
4
 42
-8.27619E-005
 10
1.6434789E+002
 20
2.6920124E+002
 70
0
  0
VERTEX
  8
4
 42
-9.90993E-005
 10
1.6434723E+002
 20
2.692006E+002
 70
1
  0
VERTEX
  8
4
 42
-1.153483E-004
 10
1.6434659E+002
 20
2.6919998E+002
 70
0
  0
VERTEX
  8
4
 42
-1.324948E-004
 10
1.6434598E+002
 20
2.6919939E+002
 70
1
  0
VERTEX
  8
4
 42
-1.51749E-004
 10
1.6434538E+002
 20
2.6919881E+002
 70
0
  0
VERTEX
  8
4
 42
-1.709811E-004
 10
1.6434481E+002
 20
2.6919826E+002
 70
1
  0
VERTEX
  8
4
 42
-1.912036E-004
 10
1.6434425E+002
 20
2.6919772E+002
 70
0
  0
VERTEX
  8
4
 42
-2.111876E-004
 10
1.6434371E+002
 20
2.691972E+002
 70
1
  0
VERTEX
  8
4
 42
-2.315937E-004
 10
1.6434318E+002
 20
2.6919669E+002
 70
0
  0
VERTEX
  8
4
 42
-2.5111E-004
 10
1.6434267E+002
 20
2.691962E+002
 70
1
  0
VERTEX
  8
4
 42
-2.70089E-004
 10
1.6434217E+002
 20
2.6919572E+002
 70
0
  0
VERTEX
  8
4
 42
-2.8744E-004
 10
1.6434167E+002
 20
2.6919525E+002
 70
1
  0
VERTEX
  8
4
 42
-3.032448E-004
 10
1.6434119E+002
 20
2.6919479E+002
 70
0
  0
VERTEX
  8
4
 42
-3.16621E-004
 10
1.6434071E+002
 20
2.6919433E+002
 70
1
  0
VERTEX
  8
4
 42
-3.274842E-004
 10
1.6434023E+002
 20
2.6919388E+002
 70
0
  0
VERTEX
  8
4
 42
-3.353203E-004
 10
1.6433976E+002
 20
2.6919344E+002
 70
1
  0
VERTEX
  8
4
 42
-3.39983E-004
 10
1.643393E+002
 20
2.69193E+002
 70
0
  0
VERTEX
  8
4
 42
-3.411399E-004
 10
1.6433883E+002
 20
2.6919255E+002
 70
1
  0
VERTEX
  8
4
 42
-3.387059E-004
 10
1.6433836E+002
 20
2.6919211E+002
 70
0
  0
VERTEX
  8
4
 42
-3.333952E-004
 10
1.6433788E+002
 20
2.6919167E+002
 70
1
  0
VERTEX
  8
4
 42
-3.250154E-004
 10
1.6433741E+002
 20
2.6919123E+002
 70
0
  0
VERTEX
  8
4
 42
-3.126532E-004
 10
1.6433692E+002
 20
2.6919078E+002
 70
1
  0
VERTEX
  8
4
 42
-2.967319E-004
 10
1.6433643E+002
 20
2.6919032E+002
 70
0
  0
VERTEX
  8
4
 42
-2.827553E-004
 10
1.6433593E+002
 20
2.6918986E+002
 70
1
  0
VERTEX
  8
4
 42
-2.686784E-004
 10
1.6433542E+002
 20
2.6918938E+002
 70
0
  0
VERTEX
  8
4
 42
-2.429494E-004
 10
1.6433489E+002
 20
2.691889E+002
 70
1
  0
VERTEX
  8
4
 42
-2.113114E-004
 10
1.6433436E+002
 20
2.6918841E+002
 70
0
  0
VERTEX
  8
4
 42
-2.092547E-004
 10
1.6433381E+002
 20
2.691879E+002
 70
1
  0
VERTEX
  8
4
 42
-2.148869E-004
 10
1.6433323E+002
 20
2.6918737E+002
 70
0
  0
VERTEX
  8
4
 42
-1.507666E-004
 10
1.6433262E+002
 20
2.6918681E+002
 70
1
  0
VERTEX
  8
4
 42
-6.55797E-005
 10
1.6433203E+002
 20
2.6918627E+002
 70
0
  0
VERTEX
  8
4
 42
-1.674526E-004
 10
1.6433149E+002
 20
2.6918578E+002
 70
1
  0
VERTEX
  8
4
 42
-2.104988E-004
 10
1.6433074E+002
 20
2.691851E+002
 70
0
  0
VERTEX
  8
4
 42
-8.79432E-005
 10
1.6432951E+002
 20
2.6918398E+002
 70
1
  0
VERTEX
  8
4
 42
-4.6036E-005
 10
1.6432785E+002
 20
2.6918246E+002
 70
0
  0
SEQEND
  0
POLYLINE
  8
4
  6
CONTINUOUS
 62
6
 66
1
 40
0.0
 41
0.0
 70
2
  0
VERTEX
  8
4
 42
0.0
 10
1.6447095E+002
 20
2.6939903E+002
 70
0
  0
VERTEX
  8
4
 42
-4.27287E-005
 10
1.6447123E+002
 20
2.6939989E+002
 70
1
  0
VERTEX
  8
4
 42
-4.0736E-005
 10
1.6447149E+002
 20
2.6940071E+002
 70
0
  0
VERTEX
  8
4
 42
-5.27867E-005
 10
1.6447174E+002
 20
2.6940148E+002
 70
1
  0
VERTEX
  8
4
 42
-8.38058E-005
 10
1.6447198E+002
 20
2.6940221E+002
 70
0
  0
VERTEX
  8
4
 42
-1.141843E-004
 10
1.644722E+002
 20
2.6940289E+002
 70
1
  0
VERTEX
  8
4
 42
-1.475251E-004
 10
1.6447241E+002
 20
2.6940353E+002
 70
0
  0
VERTEX
  8
4
 42
-1.869357E-004
 10
1.644726E+002
 20
2.6940413E+002
 70
1
  0
VERTEX
  8
4
 42
-2.36543E-004
 10
1.6447279E+002
 20
2.6940469E+002
 70
0
  0
VERTEX
  8
4
 42
-2.945184E-004
 10
1.6447296E+002
 20
2.6940521E+002
 70
1
  0
VERTEX
  8
4
 42
-3.648962E-004
 10
1.6447312E+002
 20
2.694057E+002
 70
0
  0
VERTEX
  8
4
 42
-4.500294E-004
 10
1.6447327E+002
 20
2.6940614E+002
 70
1
  0
VERTEX
  8
4
 42
-5.53841E-004
 10
1.644734E+002
 20
2.6940656E+002
 70
0
  0
VERTEX
  8
4
 42
-6.828503E-004
 10
1.6447353E+002
 20
2.6940693E+002
 70
1
  0
VERTEX
  8
4
 42
-8.407574E-004
 10
1.6447365E+002
 20
2.6940728E+002
 70
0
  0
VERTEX
  8
4
 42
-1.043347E-003
 10
1.6447376E+002
 20
2.6940759E+002
 70
1
  0
VERTEX
  8
4
 42
-1.2944127E-003
 10
1.6447385E+002
 20
2.6940787E+002
 70
0
  0
VERTEX
  8
4
 42
-1.628511E-003
 10
1.6447394E+002
 20
2.6940813E+002
 70
1
  0
VERTEX
  8
4
 42
-2.0516746E-003
 10
1.6447403E+002
 20
2.6940835E+002
 70
0
  0
VERTEX
  8
4
 42
-2.6413971E-003
 10
1.644741E+002
 20
2.6940855E+002
 70
1
  0
VERTEX
  8
4
 42
-3.416605E-003
 10
1.6447417E+002
 20
2.6940872E+002
 70
0
  0
VERTEX
  8
4
 42
-4.5628679E-003
 10
1.6447423E+002
 20
2.6940887E+002
 70
1
  0
VERTEX
  8
4
 42
-6.1595102E-003
 10
1.6447428E+002
 20
2.69409E+002
 70
0
  0
VERTEX
  8
4
 42
-8.7485468E-003
 10
1.6447433E+002
 20
2.694091E+002
 70
1
  0
VERTEX
  8
4
 42
-1.2757569E-002
 10
1.6447437E+002
 20
2.6940918E+002
 70
0
  0
VERTEX
  8
4
 42
-2.015566E-002
 10
1.6447441E+002
 20
2.6940924E+002
 70
1
  0
VERTEX
  8
4
 42
-3.3552647E-002
 10
1.6447444E+002
 20
2.6940929E+002
 70
0
  0
VERTEX
  8
4
 42
-6.4462067E-002
 10
1.6447447E+002
 20
2.6940931E+002
 70
1
  0
VERTEX
  8
4
 42
-1.257804E-001
 10
1.644745E+002
 20
2.6940932E+002
 70
0
  0
VERTEX
  8
4
 42
-1.6445035E-001
 10
1.6447452E+002
 20
2.6940931E+002
 70
1
  0
VERTEX
  8
4
 42
-1.0073288E-001
 10
1.6447454E+002
 20
2.694093E+002
 70
0
  0
VERTEX
  8
4
 42
-5.3657971E-002
 10
1.6447455E+002
 20
2.6940926E+002
 70
1
  0
VERTEX
  8
4
 42
-2.9697774E-002
 10
1.6447457E+002
 20
2.6940922E+002
 70
0
  0
VERTEX
  8
4
 42
-1.4813817E-002
 10
1.6447458E+002
 20
2.6940916E+002
 70
1
  0
VERTEX
  8
4
 42
-8.3513033E-003
 10
1.6447459E+002
 20
2.694091E+002
 70
0
  0
VERTEX
  8
4
 42
-6.598946E-003
 10
1.644746E+002
 20
2.6940904E+002
 70
1
  0
VERTEX
  8
4
 42
-9.461659E-004
 10
1.6447461E+002
 20
2.6940896E+002
 70
0
  0
VERTEX
  8
4
 42
4.65052E-005
 10
1.6447463E+002
 20
2.6940881E+002
 70
1
  0
VERTEX
  8
4
 42
-3.532144E-004
 10
1.6447466E+002
 20
2.694086E+002
 70
0
  0
SEQEND
  0
POLYLINE
  8
4
  6
CONTINUOUS
 62
6
 66
1
 40
0.0
 41
0.0
 70
2
  0
VERTEX
  8
4
 42
0.0
 10
1.6445919E+002
 20
2.6907338E+002
 70
0
  0
VERTEX
  8
4
 42
-1.0733819E-003
 10
1.6445896E+002
 20
2.6907282E+002
 70
1
  0
VERTEX
  8
4
 42
-1.07228E-003
 10
1.6445873E+002
 20
2.6907227E+002
 70
0
  0
VERTEX
  8
4
 42
-1.07087E-003
 10
1.6445849E+002
 20
2.6907172E+002
 70
1
  0
VERTEX
  8
4
 42
-1.069231E-003
 10
1.6445825E+002
 20
2.6907117E+002
 70
0
  0
VERTEX
  8
4
 42
-1.0675952E-003
 10
1.6445801E+002
 20
2.6907061E+002
 70
1
  0
VERTEX
  8
4
 42
-1.0660057E-003
 10
1.6445777E+002
 20
2.6907006E+002
 70
0
  0
VERTEX
  8
4
 42
-1.064338E-003
 10
1.6445752E+002
 20
2.6906951E+002
 70
1
  0
VERTEX
  8
4
 42
-1.0626518E-003
 10
1.6445727E+002
 20
2.6906896E+002
 70
0
  0
VERTEX
  8
4
 42
-1.0609049E-003
 10
1.6445702E+002
 20
2.6906841E+002
 70
1
  0
VERTEX
  8
4
 42
-1.05916E-003
 10
1.6445677E+002
 20
2.6906787E+002
 70
0
  0
VERTEX
  8
4
 42
-1.0573482E-003
 10
1.6445651E+002
 20
2.6906732E+002
 70
1
  0
VERTEX
  8
4
 42
-1.0555386E-003
 10
1.6445625E+002
 20
2.6906677E+002
 70
0
  0
VERTEX
  8
4
 42
-1.0536582E-003
 10
1.6445599E+002
 20
2.6906623E+002
 70
1
  0
VERTEX
  8
4
 42
-1.051782E-003
 10
1.6445573E+002
 20
2.6906568E+002
 70
0
  0
VERTEX
  8
4
 42
-1.0498428E-003
 10
1.6445546E+002
 20
2.6906514E+002
 70
1
  0
VERTEX
  8
4
 42
-1.0479202E-003
 10
1.6445519E+002
 20
2.6906459E+002
 70
0
  0
VERTEX
  8
4
 42
-1.045897E-003
 10
1.6445492E+002
 20
2.6906405E+002
 70
1
  0
VERTEX
  8
4
 42
-1.0438608E-003
 10
1.6445465E+002
 20
2.6906351E+002
 70
0
  0
VERTEX
  8
4
 42
-1.0418502E-003
 10
1.6445437E+002
 20
2.6906297E+002
 70
1
  0
VERTEX
  8
4
 42
-1.0399487E-003
 10
1.6445409E+002
 20
2.6906242E+002
 70
0
  0
VERTEX
  8
4
 42
-1.037612E-003
 10
1.6445381E+002
 20
2.6906188E+002
 70
1
  0
VERTEX
  8
4
 42
-1.034974E-003
 10
1.6445353E+002
 20
2.6906134E+002
 70
0
  0
VERTEX
  8
4
 42
-1.0335226E-003
 10
1.6445324E+002
 20
2.6906081E+002
 70
1
  0
VERTEX
  8
4
 42
-1.0331928E-003
 10
1.6445295E+002
 20
2.6906027E+002
 70
0
  0
VERTEX
  8
4
 42
-1.0283809E-003
 10
1.6445266E+002
 20
2.6905973E+002
 70
1
  0
VERTEX
  8
4
 42
-1.0199221E-003
 10
1.6445236E+002
 20
2.6905919E+002
 70
0
  0
VERTEX
  8
4
 42
-1.0264547E-003
 10
1.6445207E+002
 20
2.6905866E+002
 70
1
  0
VERTEX
  8
4
 42
-1.0448762E-003
 10
1.6445177E+002
 20
2.6905812E+002
 70
0
  0
VERTEX
  8
4
 42
-1.0128626E-003
 10
1.6445147E+002
 20
2.6905758E+002
 70
1
  0
VERTEX
  8
4
 42
-9.437682E-004
 10
1.6445116E+002
 20
2.6905705E+002
 70
0
  0
VERTEX
  8
4
 42
-1.0391582E-003
 10
1.6445086E+002
 20
2.6905652E+002
 70
1
  0
VERTEX
  8
4
 42
-1.2352328E-003
 10
1.6445055E+002
 20
2.6905598E+002
 70
0
  0
VERTEX
  8
4
 42
-9.352923E-004
 10
1.6445023E+002
 20
2.6905543E+002
 70
1
  0
VERTEX
  8
4
 42
-3.211449E-004
 10
1.6444992E+002
 20
2.6905492E+002
 70
0
  0
VERTEX
  8
4
 42
-1.3150237E-003
 10
1.6444965E+002
 20
2.6905445E+002
 70
1
  0
VERTEX
  8
4
 42
-2.2518457E-003
 10
1.6444929E+002
 20
2.6905386E+002
 70
0
  0
VERTEX
  8
4
 42
-1.0966558E-003
 10
1.6444873E+002
 20
2.6905294E+002
 70
1
  0
VERTEX
  8
4
 42
-5.8015E-004
 10
1.6444799E+002
 20
2.6905174E+002
 70
0
  0
SEQEND
  0
POLYLINE
  8
4
  6
CONTINUOUS
 62
6
 66
1
 40
0.0
 41
0.0
 70
2
  0
VERTEX
  8
4
 42
0.0
 10
1.6436199E+002
 20
2.6892308E+002
 70
0
  0
VERTEX
  8
4
 42
8.700091E-004
 10
1.6436329E+002
 20
2.6892453E+002
 70
1
  0
VERTEX
  8
4
 42
8.754441E-004
 10
1.6436459E+002
 20
2.6892598E+002
 70
0
  0
VERTEX
  8
4
 42
8.697494E-004
 10
1.6436588E+002
 20
2.6892744E+002
 70
1
  0
VERTEX
  8
4
 42
8.516993E-004
 10
1.6436716E+002
 20
2.689289E+002
 70
0
  0
VERTEX
  8
4
 42
8.375259E-004
 10
1.6436844E+002
 20
2.6893036E+002
 70
1
  0
VERTEX
  8
4
 42
8.236093E-004
 10
1.6436972E+002
 20
2.6893183E+002
 70
0
  0
VERTEX
  8
4
 42
8.163453E-004
 10
1.6437099E+002
 20
2.6893331E+002
 70
1
  0
VERTEX
  8
4
 42
8.13846E-004
 10
1.6437226E+002
 20
2.6893479E+002
 70
0
  0
VERTEX
  8
4
 42
8.151892E-004
 10
1.6437352E+002
 20
2.6893627E+002
 70
1
  0
VERTEX
  8
4
 42
8.206726E-004
 10
1.6437477E+002
 20
2.6893776E+002
 70
0
  0
VERTEX
  8
4
 42
8.247776E-004
 10
1.6437602E+002
 20
2.6893925E+002
 70
1
  0
VERTEX
  8
4
 42
8.285333E-004
 10
1.6437727E+002
 20
2.6894074E+002
 70
0
  0
VERTEX
  8
4
 42
8.320914E-004
 10
1.6437851E+002
 20
2.6894224E+002
 70
1
  0
VERTEX
  8
4
 42
8.363301E-004
 10
1.6437974E+002
 20
2.6894374E+002
 70
0
  0
VERTEX
  8
4
 42
8.400693E-004
 10
1.6438097E+002
 20
2.6894525E+002
 70
1
  0
VERTEX
  8
4
 42
8.442318E-004
 10
1.643822E+002
 20
2.6894676E+002
 70
0
  0
VERTEX
  8
4
 42
8.47967E-004
 10
1.6438342E+002
 20
2.6894828E+002
 70
1
  0
VERTEX
  8
4
 42
8.521927E-004
 10
1.6438463E+002
 20
2.689498E+002
 70
0
  0
VERTEX
  8
4
 42
8.559706E-004
 10
1.6438584E+002
 20
2.6895132E+002
 70
1
  0
VERTEX
  8
4
 42
8.60226E-004
 10
1.6438705E+002
 20
2.6895285E+002
 70
0
  0
VERTEX
  8
4
 42
8.6403E-004
 10
1.6438825E+002
 20
2.6895438E+002
 70
1
  0
VERTEX
  8
4
 42
8.683116E-004
 10
1.6438944E+002
 20
2.6895591E+002
 70
0
  0
VERTEX
  8
4
 42
8.721591E-004
 10
1.6439063E+002
 20
2.6895745E+002
 70
1
  0
VERTEX
  8
4
 42
8.765098E-004
 10
1.6439181E+002
 20
2.68959E+002
 70
0
  0
VERTEX
  8
4
 42
8.803233E-004
 10
1.6439299E+002
 20
2.6896055E+002
 70
1
  0
VERTEX
  8
4
 42
8.845301E-004
 10
1.6439416E+002
 20
2.689621E+002
 70
0
  0
VERTEX
  8
4
 42
8.88211E-004
 10
1.6439532E+002
 20
2.6896365E+002
 70
1
  0
VERTEX
  8
4
 42
8.922593E-004
 10
1.6439648E+002
 20
2.6896521E+002
 70
0
  0
VERTEX
  8
4
 42
8.959114E-004
 10
1.6439764E+002
 20
2.6896678E+002
 70
1
  0
VERTEX
  8
4
 42
9.00044E-004
 10
1.6439879E+002
 20
2.6896834E+002
 70
0
  0
VERTEX
  8
4
 42
9.037508E-004
 10
1.6439993E+002
 20
2.6896992E+002
 70
1
  0
VERTEX
  8
4
 42
9.079188E-004
 10
1.6440107E+002
 20
2.6897149E+002
 70
0
  0
VERTEX
  8
4
 42
9.116638E-004
 10
1.644022E+002
 20
2.6897307E+002
 70
1
  0
VERTEX
  8
4
 42
9.158777E-004
 10
1.6440332E+002
 20
2.6897466E+002
 70
0
  0
VERTEX
  8
4
 42
9.196646E-004
 10
1.6440444E+002
 20
2.6897624E+002
 70
1
  0
VERTEX
  8
4
 42
9.239231E-004
 10
1.6440555E+002
 20
2.6897783E+002
 70
0
  0
VERTEX
  8
4
 42
9.277467E-004
 10
1.6440666E+002
 20
2.6897943E+002
 70
1
  0
VERTEX
  8
4
 42
9.320396E-004
 10
1.6440776E+002
 20
2.6898103E+002
 70
0
  0
VERTEX
  8
4
 42
9.359119E-004
 10
1.6440886E+002
 20
2.6898263E+002
 70
1
  0
VERTEX
  8
4
 42
9.402768E-004
 10
1.6440994E+002
 20
2.6898424E+002
 70
0
  0
VERTEX
  8
4
 42
9.441457E-004
 10
1.6441103E+002
 20
2.6898585E+002
 70
1
  0
VERTEX
  8
4
 42
9.484298E-004
 10
1.644121E+002
 20
2.6898747E+002
 70
0
  0
VERTEX
  8
4
 42
9.525137E-004
 10
1.6441317E+002
 20
2.6898909E+002
 70
1
  0
VERTEX
  8
4
 42
9.573542E-004
 10
1.6441424E+002
 20
2.6899071E+002
 70
0
  0
VERTEX
  8
4
 42
9.62217E-004
 10
1.6441529E+002
 20
2.6899234E+002
 70
1
  0
VERTEX
  8
4
 42
9.682512E-004
 10
1.6441634E+002
 20
2.6899397E+002
 70
0
  0
VERTEX
  8
4
 42
9.735531E-004
 10
1.6441739E+002
 20
2.689956E+002
 70
1
  0
VERTEX
  8
4
 42
9.794064E-004
 10
1.6441842E+002
 20
2.6899724E+002
 70
0
  0
VERTEX
  8
4
 42
9.8464E-004
 10
1.6441945E+002
 20
2.6899888E+002
 70
1
  0
VERTEX
  8
4
 42
9.905268E-004
 10
1.6442048E+002
 20
2.6900053E+002
 70
0
  0
VERTEX
  8
4
 42
9.957613E-004
 10
1.644215E+002
 20
2.6900218E+002
 70
1
  0
VERTEX
  8
4
 42
1.0016279E-003
 10
1.6442251E+002
 20
2.6900384E+002
 70
0
  0
VERTEX
  8
4
 42
1.0068372E-003
 10
1.6442351E+002
 20
2.6900549E+002
 70
1
  0
VERTEX
  8
4
 42
1.0126782E-003
 10
1.6442451E+002
 20
2.6900716E+002
 70
0
  0
VERTEX
  8
4
 42
1.0178842E-003
 10
1.644255E+002
 20
2.6900882E+002
 70
1
  0
VERTEX
  8
4
 42
1.023753E-003
 10
1.6442648E+002
 20
2.6901049E+002
 70
0
  0
VERTEX
  8
4
 42
1.0288716E-003
 10
1.6442746E+002
 20
2.6901217E+002
 70
1
  0
VERTEX
  8
4
 42
1.0345351E-003
 10
1.6442843E+002
 20
2.6901385E+002
 70
0
  0
VERTEX
  8
4
 42
1.0398683E-003
 10
1.6442939E+002
 20
2.6901553E+002
 70
1
  0
VERTEX
  8
4
 42
1.0462064E-003
 10
1.6443035E+002
 20
2.6901722E+002
 70
0
  0
VERTEX
  8
4
 42
1.0505569E-003
 10
1.644313E+002
 20
2.6901891E+002
 70
1
  0
VERTEX
  8
4
 42
1.0541351E-003
 10
1.6443224E+002
 20
2.690206E+002
 70
0
  0
VERTEX
  8
4
 42
1.0532562E-003
 10
1.6443317E+002
 20
2.690223E+002
 70
1
  0
VERTEX
  8
4
 42
1.0473964E-003
 10
1.644341E+002
 20
2.69024E+002
 70
0
  0
VERTEX
  8
4
 42
1.0385851E-003
 10
1.6443502E+002
 20
2.6902571E+002
 70
1
  0
VERTEX
  8
4
 42
1.0259574E-003
 10
1.6443593E+002
 20
2.6902742E+002
 70
0
  0
VERTEX
  8
4
 42
1.0285192E-003
 10
1.6443684E+002
 20
2.6902913E+002
 70
1
  0
VERTEX
  8
4
 42
1.0416148E-003
 10
1.6443774E+002
 20
2.6903085E+002
 70
0
  0
VERTEX
  8
4
 42
1.0070271E-003
 10
1.6443863E+002
 20
2.6903258E+002
 70
1
  0
VERTEX
  8
4
 42
9.361922E-004
 10
1.6443951E+002
 20
2.690343E+002
 70
0
  0
VERTEX
  8
4
 42
1.0242507E-003
 10
1.6444039E+002
 20
2.6903601E+002
 70
1
  0
VERTEX
  8
4
 42
1.2077642E-003
 10
1.6444126E+002
 20
2.6903776E+002
 70
0
  0
VERTEX
  8
4
 42
9.164089E-004
 10
1.6444215E+002
 20
2.6903955E+002
 70
1
  0
VERTEX
  8
4
 42
3.251003E-004
 10
1.6444298E+002
 20
2.6904124E+002
 70
0
  0
VERTEX
  8
4
 42
1.2723303E-003
 10
1.6444373E+002
 20
2.6904276E+002
 70
1
  0
VERTEX
  8
4
 42
2.1623356E-003
 10
1.6444468E+002
 20
2.6904473E+002
 70
0
  0
VERTEX
  8
4
 42
1.0556001E-003
 10
1.6444612E+002
 20
2.6904776E+002
 70
1
  0
VERTEX
  8
4
 42
5.608061E-004
 10
1.6444799E+002
 20
2.6905174E+002
 70
0
  0
SEQEND
  0
POLYLINE
  8
4
  6
CONTINUOUS
 62
6
 66
1
 40
0.0
 41
0.0
 70
2
  0
VERTEX
  8
4
 42
0.0
 10
1.641256E+002
 20
2.6868593E+002
 70
0
  0
VERTEX
  8
4
 42
1.7551022E-002
 10
1.6412694E+002
 20
2.6868715E+002
 70
1
  0
VERTEX
  8
4
 42
2.987988E-003
 10
1.6413009E+002
 20
2.6869015E+002
 70
0
  0
VERTEX
  8
4
 42
1.028387E-003
 10
1.6413518E+002
 20
2.6869508E+002
 70
1
  0
VERTEX
  8
4
 42
4.60362E-004
 10
1.6414174E+002
 20
2.6870147E+002
 70
0
  0
VERTEX
  8
4
 42
2.618263E-004
 10
1.6414935E+002
 20
2.687089E+002
 70
1
  0
VERTEX
  8
4
 42
1.646648E-004
 10
1.6415759E+002
 20
2.6871695E+002
 70
0
  0
VERTEX
  8
4
 42
1.08882E-004
 10
1.6416614E+002
 20
2.6872532E+002
 70
1
  0
VERTEX
  8
4
 42
6.35912E-005
 10
1.6417466E+002
 20
2.6873367E+002
 70
0
  0
VERTEX
  8
4
 42
1.96778E-005
 10
1.6418278E+002
 20
2.6874163E+002
 70
1
  0
VERTEX
  8
4
 42
-5.25278E-005
 10
1.6418998E+002
 20
2.6874869E+002
 70
0
  0
VERTEX
  8
4
 42
-1.039879E-004
 10
1.6419584E+002
 20
2.6875442E+002
 70
1
  0
VERTEX
  8
4
 42
-7.16247E-005
 10
1.6420079E+002
 20
2.6875926E+002
 70
0
  0
VERTEX
  8
4
 42
-2.1277E-005
 10
1.6420533E+002
 20
2.6876371E+002
 70
1
  0
VERTEX
  8
4
 42
3.5681E-005
 10
1.6420974E+002
 20
2.6876803E+002
 70
0
  0
VERTEX
  8
4
 42
5.83254E-005
 10
1.6421421E+002
 20
2.6877239E+002
 70
1
  0
VERTEX
  8
4
 42
5.54851E-005
 10
1.6421871E+002
 20
2.687768E+002
 70
0
  0
VERTEX
  8
4
 42
6.31356E-005
 10
1.642232E+002
 20
2.6878121E+002
 70
1
  0
VERTEX
  8
4
 42
8.1954E-005
 10
1.6422769E+002
 20
2.687856E+002
 70
0
  0
VERTEX
  8
4
 42
9.88188E-005
 10
1.6423214E+002
 20
2.6878997E+002
 70
1
  0
VERTEX
  8
4
 42
1.210429E-004
 10
1.6423652E+002
 20
2.6879427E+002
 70
0
  0
VERTEX
  8
4
 42
1.336957E-004
 10
1.6424078E+002
 20
2.6879845E+002
 70
1
  0
VERTEX
  8
4
 42
1.318602E-004
 10
1.6424492E+002
 20
2.6880252E+002
 70
0
  0
VERTEX
  8
4
 42
1.337352E-004
 10
1.6424895E+002
 20
2.6880649E+002
 70
1
  0
VERTEX
  8
4
 42
1.391201E-004
 10
1.6425288E+002
 20
2.6881037E+002
 70
0
  0
VERTEX
  8
4
 42
1.444347E-004
 10
1.6425669E+002
 20
2.6881413E+002
 70
1
  0
VERTEX
  8
4
 42
1.479619E-004
 10
1.6426041E+002
 20
2.6881781E+002
 70
0
  0
VERTEX
  8
4
 42
1.52704E-004
 10
1.6426402E+002
 20
2.6882138E+002
 70
1
  0
VERTEX
  8
4
 42
1.572081E-004
 10
1.6426754E+002
 20
2.6882486E+002
 70
0
  0
VERTEX
  8
4
 42
1.626389E-004
 10
1.6427095E+002
 20
2.6882825E+002
 70
1
  0
VERTEX
  8
4
 42
1.672879E-004
 10
1.6427427E+002
 20
2.6883154E+002
 70
0
  0
VERTEX
  8
4
 42
1.730702E-004
 10
1.6427748E+002
 20
2.6883474E+002
 70
1
  0
VERTEX
  8
4
 42
1.781504E-004
 10
1.6428061E+002
 20
2.6883786E+002
 70
0
  0
VERTEX
  8
4
 42
1.84432E-004
 10
1.6428364E+002
 20
2.6884088E+002
 70
1
  0
VERTEX
  8
4
 42
1.898918E-004
 10
1.6428659E+002
 20
2.6884382E+002
 70
0
  0
VERTEX
  8
4
 42
1.96676E-004
 10
1.6428944E+002
 20
2.6884667E+002
 70
1
  0
VERTEX
  8
4
 42
2.025648E-004
 10
1.6429221E+002
 20
2.6884945E+002
 70
0
  0
VERTEX
  8
4
 42
2.098988E-004
 10
1.6429489E+002
 20
2.6885214E+002
 70
1
  0
VERTEX
  8
4
 42
2.162332E-004
 10
1.6429748E+002
 20
2.6885475E+002
 70
0
  0
VERTEX
  8
4
 42
2.241497E-004
 10
1.643E+002
 20
2.6885728E+002
 70
1
  0
VERTEX
  8
4
 42
2.30952E-004
 10
1.6430243E+002
 20
2.6885974E+002
 70
0
  0
VERTEX
  8
4
 42
2.394838E-004
 10
1.6430478E+002
 20
2.6886211E+002
 70
1
  0
VERTEX
  8
4
 42
2.467667E-004
 10
1.6430706E+002
 20
2.6886442E+002
 70
0
  0
VERTEX
  8
4
 42
2.559393E-004
 10
1.6430926E+002
 20
2.6886665E+002
 70
1
  0
VERTEX
  8
4
 42
2.637058E-004
 10
1.6431139E+002
 20
2.6886882E+002
 70
0
  0
VERTEX
  8
4
 42
2.735346E-004
 10
1.6431344E+002
 20
2.6887091E+002
 70
1
  0
VERTEX
  8
4
 42
2.817719E-004
 10
1.6431543E+002
 20
2.6887294E+002
 70
0
  0
VERTEX
  8
4
 42
2.922551E-004
 10
1.6431734E+002
 20
2.688749E+002
 70
1
  0
VERTEX
  8
4
 42
3.009281E-004
 10
1.6431919E+002
 20
2.688768E+002
 70
0
  0
VERTEX
  8
4
 42
3.120398E-004
 10
1.6432097E+002
 20
2.6887863E+002
 70
1
  0
VERTEX
  8
4
 42
3.210812E-004
 10
1.6432269E+002
 20
2.688804E+002
 70
0
  0
VERTEX
  8
4
 42
3.3276E-004
 10
1.6432434E+002
 20
2.6888211E+002
 70
1
  0
VERTEX
  8
4
 42
3.420586E-004
 10
1.6432594E+002
 20
2.6888377E+002
 70
0
  0
VERTEX
  8
4
 42
3.541933E-004
 10
1.6432747E+002
 20
2.6888536E+002
 70
1
  0
VERTEX
  8
4
 42
3.635772E-004
 10
1.6432895E+002
 20
2.6888691E+002
 70
0
  0
VERTEX
  8
4
 42
3.759894E-004
 10
1.6433037E+002
 20
2.6888839E+002
 70
1
  0
VERTEX
  8
4
 42
3.852063E-004
 10
1.6433174E+002
 20
2.6888983E+002
 70
0
  0
VERTEX
  8
4
 42
3.976267E-004
 10
1.6433306E+002
 20
2.6889121E+002
 70
1
  0
VERTEX
  8
4
 42
4.063189E-004
 10
1.6433432E+002
 20
2.6889255E+002
 70
0
  0
VERTEX
  8
4
 42
4.183587E-004
 10
1.6433554E+002
 20
2.6889384E+002
 70
1
  0
VERTEX
  8
4
 42
4.26034E-004
 10
1.6433671E+002
 20
2.6889508E+002
 70
0
  0
VERTEX
  8
4
 42
4.37154E-004
 10
1.6433783E+002
 20
2.6889628E+002
 70
1
  0
VERTEX
  8
4
 42
4.431537E-004
 10
1.6433891E+002
 20
2.6889744E+002
 70
0
  0
VERTEX
  8
4
 42
4.526297E-004
 10
1.6433995E+002
 20
2.6889855E+002
 70
1
  0
VERTEX
  8
4
 42
4.56097E-004
 10
1.6434095E+002
 20
2.6889962E+002
 70
0
  0
VERTEX
  8
4
 42
4.629882E-004
 10
1.643419E+002
 20
2.6890066E+002
 70
1
  0
VERTEX
  8
4
 42
4.62845E-004
 10
1.6434282E+002
 20
2.6890166E+002
 70
0
  0
VERTEX
  8
4
 42
4.659751E-004
 10
1.6434371E+002
 20
2.6890262E+002
 70
1
  0
VERTEX
  8
4
 42
4.609161E-004
 10
1.6434456E+002
 20
2.6890356E+002
 70
0
  0
VERTEX
  8
4
 42
4.588798E-004
 10
1.6434537E+002
 20
2.6890445E+002
 70
1
  0
VERTEX
  8
4
 42
4.474028E-004
 10
1.6434616E+002
 20
2.6890532E+002
 70
0
  0
VERTEX
  8
4
 42
4.386162E-004
 10
1.6434692E+002
 20
2.6890616E+002
 70
1
  0
VERTEX
  8
4
 42
4.191057E-004
 10
1.6434765E+002
 20
2.6890697E+002
 70
0
  0
VERTEX
  8
4
 42
4.019293E-004
 10
1.6434836E+002
 20
2.6890776E+002
 70
1
  0
VERTEX
  8
4
 42
3.728278E-004
 10
1.6434904E+002
 20
2.6890852E+002
 70
0
  0
VERTEX
  8
4
 42
3.457631E-004
 10
1.643497E+002
 20
2.6890926E+002
 70
1
  0
VERTEX
  8
4
 42
3.057959E-004
 10
1.6435034E+002
 20
2.6890998E+002
 70
0
  0
VERTEX
  8
4
 42
2.678274E-004
 10
1.6435096E+002
 20
2.6891068E+002
 70
1
  0
VERTEX
  8
4
 42
2.164611E-004
 10
1.6435156E+002
 20
2.6891136E+002
 70
0
  0
VERTEX
  8
4
 42
1.672687E-004
 10
1.6435214E+002
 20
2.6891202E+002
 70
1
  0
VERTEX
  8
4
 42
1.046071E-004
 10
1.6435272E+002
 20
2.6891267E+002
 70
0
  0
VERTEX
  8
4
 42
4.55527E-005
 10
1.6435328E+002
 20
2.689133E+002
 70
1
  0
VERTEX
  8
4
 42
-2.54196E-005
 10
1.6435383E+002
 20
2.6891393E+002
 70
0
  0
VERTEX
  8
4
 42
-9.35297E-005
 10
1.6435437E+002
 20
2.6891454E+002
 70
1
  0
VERTEX
  8
4
 42
-1.747673E-004
 10
1.643549E+002
 20
2.6891514E+002
 70
0
  0
VERTEX
  8
4
 42
-2.41599E-004
 10
1.6435543E+002
 20
2.6891574E+002
 70
1
  0
VERTEX
  8
4
 42
-3.067913E-004
 10
1.6435595E+002
 20
2.6891633E+002
 70
0
  0
VERTEX
  8
4
 42
-3.9485E-004
 10
1.6435648E+002
 20
2.6891692E+002
 70
1
  0
VERTEX
  8
4
 42
-5.332667E-004
 10
1.64357E+002
 20
2.689175E+002
 70
0
  0
VERTEX
  8
4
 42
-4.269936E-004
 10
1.6435752E+002
 20
2.6891808E+002
 70
1
  0
VERTEX
  8
4
 42
-2.45073E-005
 10
1.6435806E+002
 20
2.6891868E+002
 70
0
  0
VERTEX
  8
4
 42
1.263012E-004
 10
1.6435865E+002
 20
2.6891934E+002
 70
1
  0
VERTEX
  8
4
 42
1.197319E-004
 10
1.6435926E+002
 20
2.6892002E+002
 70
0
  0
VERTEX
  8
4
 42
9.52263E-005
 10
1.6435987E+002
 20
2.689207E+002
 70
1
  0
VERTEX
  8
4
 42
3.57911E-005
 10
1.6436045E+002
 20
2.6892135E+002
 70
0
  0
VERTEX
  8
4
 42
1.329399E-004
 10
1.6436098E+002
 20
2.6892194E+002
 70
1
  0
VERTEX
  8
4
 42
5.493596E-004
 10
1.6436143E+002
 20
2.6892244E+002
 70
0
  0
VERTEX
  8
4
 42
1.1808051E-003
 10
1.6436177E+002
 20
2.6892282E+002
 70
1
  0
VERTEX
  8
4
 42
2.1689947E-003
 10
1.6436199E+002
 20
2.6892308E+002
 70
0
  0
SEQEND
  0
POLYLINE
  8
4
  6
CONTINUOUS
 62
6
 66
1
 40
0.0
 41
0.0
 70
2
  0
VERTEX
  8
4
 42
0.0
 10
1.6412608E+002
 20
2.6868645E+002
 70
0
  0
VERTEX
  8
4
 42
3.3082E-005
 10
1.6412593E+002
 20
2.6868629E+002
 70
1
  0
VERTEX
  8
4
 42
3.8206E-005
 10
1.6412579E+002
 20
2.6868615E+002
 70
0
  0
VERTEX
  8
4
 42
4.4394E-005
 10
1.6412565E+002
 20
2.6868602E+002
 70
1
  0
VERTEX
  8
4
 42
5.09058E-005
 10
1.6412553E+002
 20
2.6868589E+002
 70
0
  0
VERTEX
  8
4
 42
5.9457E-005
 10
1.6412542E+002
 20
2.6868578E+002
 70
1
  0
VERTEX
  8
4
 42
6.96894E-005
 10
1.6412532E+002
 20
2.6868568E+002
 70
0
  0
VERTEX
  8
4
 42
8.3274E-005
 10
1.6412522E+002
 20
2.6868559E+002
 70
1
  0
VERTEX
  8
4
 42
9.95837E-005
 10
1.6412514E+002
 20
2.686855E+002
 70
0
  0
VERTEX
  8
4
 42
1.221911E-004
 10
1.6412506E+002
 20
2.6868543E+002
 70
1
  0
VERTEX
  8
4
 42
1.508028E-004
 10
1.64125E+002
 20
2.6868536E+002
 70
0
  0
VERTEX
  8
4
 42
1.92647E-004
 10
1.6412494E+002
 20
2.686853E+002
 70
1
  0
VERTEX
  8
4
 42
2.492393E-004
 10
1.6412489E+002
 20
2.6868525E+002
 70
0
  0
VERTEX
  8
4
 42
3.393428E-004
 10
1.6412484E+002
 20
2.686852E+002
 70
1
  0
VERTEX
  8
4
 42
4.757874E-004
 10
1.6412481E+002
 20
2.6868517E+002
 70
0
  0
VERTEX
  8
4
 42
7.281686E-004
 10
1.6412478E+002
 20
2.6868514E+002
 70
1
  0
VERTEX
  8
4
 42
1.2041173E-003
 10
1.6412476E+002
 20
2.6868512E+002
 70
0
  0
VERTEX
  8
4
 42
2.4443109E-003
 10
1.6412474E+002
 20
2.686851E+002
 70
1
  0
VERTEX
  8
4
 42
6.8655628E-003
 10
1.6412473E+002
 20
2.6868509E+002
 70
0
  0
VERTEX
  8
4
 42
9.4326284E-002
 10
1.6412473E+002
 20
2.6868509E+002
 70
1
  0
VERTEX
  8
4
 42
7.0013077E-002
 10
1.6412474E+002
 20
2.6868509E+002
 70
0
  0
VERTEX
  8
4
 42
6.3952953E-003
 10
1.6412474E+002
 20
2.686851E+002
 70
1
  0
VERTEX
  8
4
 42
2.3229697E-003
 10
1.6412476E+002
 20
2.6868511E+002
 70
0
  0
VERTEX
  8
4
 42
1.1647481E-003
 10
1.6412478E+002
 20
2.6868513E+002
 70
1
  0
VERTEX
  8
4
 42
6.990281E-004
 10
1.641248E+002
 20
2.6868515E+002
 70
0
  0
VERTEX
  8
4
 42
4.570398E-004
 10
1.6412483E+002
 20
2.6868518E+002
 70
1
  0
VERTEX
  8
4
 42
3.181777E-004
 10
1.6412486E+002
 20
2.6868521E+002
 70
0
  0
VERTEX
  8
4
 42
2.317576E-004
 10
1.641249E+002
 20
2.6868525E+002
 70
1
  0
VERTEX
  8
4
 42
1.72642E-004
 10
1.6412494E+002
 20
2.6868529E+002
 70
0
  0
VERTEX
  8
4
 42
1.290508E-004
 10
1.6412498E+002
 20
2.6868533E+002
 70
1
  0
VERTEX
  8
4
 42
9.58873E-005
 10
1.6412503E+002
 20
2.6868538E+002
 70
0
  0
VERTEX
  8
4
 42
7.45736E-005
 10
1.6412508E+002
 20
2.6868542E+002
 70
1
  0
VERTEX
  8
4
 42
5.36688E-005
 10
1.6412513E+002
 20
2.6868547E+002
 70
0
  0
VERTEX
  8
4
 42
3.65323E-005
 10
1.6412518E+002
 20
2.6868553E+002
 70
1
  0
VERTEX
  8
4
 42
3.11417E-005
 10
1.6412524E+002
 20
2.6868558E+002
 70
0
  0
VERTEX
  8
4
 42
1.01401E-005
 10
1.6412529E+002
 20
2.6868563E+002
 70
1
  0
VERTEX
  8
4
 42
-2.94371E-005
 10
1.6412535E+002
 20
2.6868569E+002
 70
0
  0
VERTEX
  8
4
 42
-1.6474E-005
 10
1.6412546E+002
 20
2.686858E+002
 70
1
  0
VERTEX
  8
4
 42
-6.092E-006
 10
1.641256E+002
 20
2.6868593E+002
 70
0
  0
SEQEND
  0
POLYLINE
  8
4
  6
CONTINUOUS
 62
6
 66
1
 40
0.0
 41
0.0
 70
2
  0
VERTEX
  8
4
 42
0.0
 10
1.6403641E+002
 20
2.6859677E+002
 70
0
  0
VERTEX
  8
4
 42
8.25546E-005
 10
1.6403561E+002
 20
2.6859597E+002
 70
1
  0
VERTEX
  8
4
 42
0.0
 10
1.6403561E+002
 20
2.6859597E+002
 70
0
  0
VERTEX
  8
4
 42
1.7928E-005
 10
1.6403646E+002
 20
2.6859682E+002
 70
1
  0
VERTEX
  8
4
 42
-5.4805E-005
 10
1.6403801E+002
 20
2.6859836E+002
 70
0
  0
VERTEX
  8
4
 42
-6.53693E-005
 10
1.6404016E+002
 20
2.6860051E+002
 70
1
  0
VERTEX
  8
4
 42
-7.53397E-005
 10
1.6404279E+002
 20
2.6860312E+002
 70
0
  0
VERTEX
  8
4
 42
-8.5211E-005
 10
1.6404581E+002
 20
2.6860613E+002
 70
1
  0
VERTEX
  8
4
 42
-1.05353E-004
 10
1.6404911E+002
 20
2.6860941E+002
 70
0
  0
VERTEX
  8
4
 42
-1.274742E-004
 10
1.6405261E+002
 20
2.6861288E+002
 70
1
  0
VERTEX
  8
4
 42
-1.655571E-004
 10
1.6405617E+002
 20
2.6861642E+002
 70
0
  0
VERTEX
  8
4
 42
-1.966742E-004
 10
1.6405971E+002
 20
2.6861993E+002
 70
1
  0
VERTEX
  8
4
 42
-2.185991E-004
 10
1.640632E+002
 20
2.6862338E+002
 70
0
  0
VERTEX
  8
4
 42
-2.311492E-004
 10
1.6406664E+002
 20
2.6862677E+002
 70
1
  0
VERTEX
  8
4
 42
-2.266741E-004
 10
1.6407006E+002
 20
2.6863014E+002
 70
0
  0
VERTEX
  8
4
 42
-2.14507E-004
 10
1.6407351E+002
 20
2.6863353E+002
 70
1
  0
VERTEX
  8
4
 42
-1.993693E-004
 10
1.6407699E+002
 20
2.6863695E+002
 70
0
  0
VERTEX
  8
4
 42
-1.846038E-004
 10
1.640805E+002
 20
2.6864039E+002
 70
1
  0
VERTEX
  8
4
 42
-1.681466E-004
 10
1.6408404E+002
 20
2.6864385E+002
 70
0
  0
VERTEX
  8
4
 42
-1.543352E-004
 10
1.6408759E+002
 20
2.6864733E+002
 70
1
  0
VERTEX
  8
4
 42
-1.39862E-004
 10
1.6409115E+002
 20
2.6865081E+002
 70
0
  0
VERTEX
  8
4
 42
-1.284966E-004
 10
1.6409473E+002
 20
2.686543E+002
 70
1
  0
VERTEX
  8
4
 42
-1.173501E-004
 10
1.640983E+002
 20
2.6865778E+002
 70
0
  0
VERTEX
  8
4
 42
-1.13668E-004
 10
1.6410188E+002
 20
2.6866126E+002
 70
1
  0
VERTEX
  8
4
 42
-1.160971E-004
 10
1.6410546E+002
 20
2.6866474E+002
 70
0
  0
VERTEX
  8
4
 42
-1.177791E-004
 10
1.6410903E+002
 20
2.6866822E+002
 70
1
  0
VERTEX
  8
4
 42
-1.19126E-004
 10
1.6411261E+002
 20
2.6867169E+002
 70
0
  0
VERTEX
  8
4
 42
-1.204466E-004
 10
1.6411618E+002
 20
2.6867516E+002
 70
1
  0
VERTEX
  8
4
 42
-1.220284E-004
 10
1.6411976E+002
 20
2.6867862E+002
 70
0
  0
VERTEX
  8
4
 42
-1.234047E-004
 10
1.6412333E+002
 20
2.6868208E+002
 70
1
  0
VERTEX
  8
4
 42
-1.248931E-004
 10
1.6412691E+002
 20
2.6868554E+002
 70
0
  0
VERTEX
  8
4
 42
-1.262219E-004
 10
1.6413048E+002
 20
2.6868899E+002
 70
1
  0
VERTEX
  8
4
 42
-1.277006E-004
 10
1.6413406E+002
 20
2.6869245E+002
 70
0
  0
VERTEX
  8
4
 42
-1.289992E-004
 10
1.6413764E+002
 20
2.686959E+002
 70
1
  0
VERTEX
  8
4
 42
-1.304277E-004
 10
1.6414122E+002
 20
2.6869934E+002
 70
0
  0
VERTEX
  8
4
 42
-1.317137E-004
 10
1.641448E+002
 20
2.6870279E+002
 70
1
  0
VERTEX
  8
4
 42
-1.331709E-004
 10
1.6414838E+002
 20
2.6870623E+002
 70
0
  0
VERTEX
  8
4
 42
-1.343454E-004
 10
1.6415196E+002
 20
2.6870967E+002
 70
1
  0
VERTEX
  8
4
 42
-1.355307E-004
 10
1.6415555E+002
 20
2.6871311E+002
 70
0
  0
VERTEX
  8
4
 42
-1.369819E-004
 10
1.6415913E+002
 20
2.6871654E+002
 70
1
  0
VERTEX
  8
4
 42
-1.390687E-004
 10
1.6416272E+002
 20
2.6871998E+002
 70
0
  0
VERTEX
  8
4
 42
-1.392156E-004
 10
1.6416631E+002
 20
2.6872341E+002
 70
1
  0
VERTEX
  8
4
 42
-1.37477E-004
 10
1.6416991E+002
 20
2.6872684E+002
 70
0
  0
VERTEX
  8
4
 42
-1.269104E-004
 10
1.641735E+002
 20
2.6873027E+002
 70
1
  0
VERTEX
  8
4
 42
-1.048674E-004
 10
1.641771E+002
 20
2.687337E+002
 70
0
  0
VERTEX
  8
4
 42
-8.6136E-005
 10
1.641807E+002
 20
2.6873713E+002
 70
1
  0
VERTEX
  8
4
 42
-6.5922E-005
 10
1.641843E+002
 20
2.6874055E+002
 70
0
  0
VERTEX
  8
4
 42
-4.78054E-005
 10
1.641879E+002
 20
2.6874397E+002
 70
1
  0
VERTEX
  8
4
 42
-2.7147E-005
 10
1.641915E+002
 20
2.687474E+002
 70
0
  0
VERTEX
  8
4
 42
-8.8699E-006
 10
1.641951E+002
 20
2.6875082E+002
 70
1
  0
VERTEX
  8
4
 42
1.17042E-005
 10
1.6419869E+002
 20
2.6875424E+002
 70
0
  0
VERTEX
  8
4
 42
2.99913E-005
 10
1.6420229E+002
 20
2.6875766E+002
 70
1
  0
VERTEX
  8
4
 42
5.06618E-005
 10
1.6420588E+002
 20
2.6876107E+002
 70
0
  0
VERTEX
  8
4
 42
6.90434E-005
 10
1.6420947E+002
 20
2.6876449E+002
 70
1
  0
VERTEX
  8
4
 42
8.98113E-005
 10
1.6421306E+002
 20
2.687679E+002
 70
0
  0
VERTEX
  8
4
 42
1.08313E-004
 10
1.6421664E+002
 20
2.6877132E+002
 70
1
  0
VERTEX
  8
4
 42
1.292262E-004
 10
1.6422021E+002
 20
2.6877473E+002
 70
0
  0
VERTEX
  8
4
 42
1.478886E-004
 10
1.6422378E+002
 20
2.6877814E+002
 70
1
  0
VERTEX
  8
4
 42
1.68982E-004
 10
1.6422735E+002
 20
2.6878155E+002
 70
0
  0
VERTEX
  8
4
 42
1.878448E-004
 10
1.6423091E+002
 20
2.6878496E+002
 70
1
  0
VERTEX
  8
4
 42
2.091642E-004
 10
1.6423446E+002
 20
2.6878836E+002
 70
0
  0
VERTEX
  8
4
 42
2.282596E-004
 10
1.64238E+002
 20
2.6879177E+002
 70
1
  0
VERTEX
  8
4
 42
2.498223E-004
 10
1.6424154E+002
 20
2.6879517E+002
 70
0
  0
VERTEX
  8
4
 42
2.692207E-004
 10
1.6424507E+002
 20
2.6879858E+002
 70
1
  0
VERTEX
  8
4
 42
2.911592E-004
 10
1.6424859E+002
 20
2.6880198E+002
 70
0
  0
VERTEX
  8
4
 42
3.107827E-004
 10
1.642521E+002
 20
2.6880538E+002
 70
1
  0
VERTEX
  8
4
 42
3.327809E-004
 10
1.6425559E+002
 20
2.6880878E+002
 70
0
  0
VERTEX
  8
4
 42
3.505407E-004
 10
1.6425908E+002
 20
2.6881217E+002
 70
1
  0
VERTEX
  8
4
 42
3.682171E-004
 10
1.6426256E+002
 20
2.6881557E+002
 70
0
  0
VERTEX
  8
4
 42
3.84403E-004
 10
1.6426602E+002
 20
2.6881897E+002
 70
1
  0
VERTEX
  8
4
 42
4.02716E-004
 10
1.6426947E+002
 20
2.6882236E+002
 70
0
  0
VERTEX
  8
4
 42
4.194889E-004
 10
1.6427291E+002
 20
2.6882575E+002
 70
1
  0
VERTEX
  8
4
 42
4.38363E-004
 10
1.6427633E+002
 20
2.6882914E+002
 70
0
  0
VERTEX
  8
4
 42
4.557424E-004
 10
1.6427974E+002
 20
2.6883252E+002
 70
1
  0
VERTEX
  8
4
 42
4.752801E-004
 10
1.6428313E+002
 20
2.688359E+002
 70
0
  0
VERTEX
  8
4
 42
4.933544E-004
 10
1.642865E+002
 20
2.6883928E+002
 70
1
  0
VERTEX
  8
4
 42
5.136346E-004
 10
1.6428986E+002
 20
2.6884266E+002
 70
0
  0
VERTEX
  8
4
 42
5.324609E-004
 10
1.642932E+002
 20
2.6884603E+002
 70
1
  0
VERTEX
  8
4
 42
5.535177E-004
 10
1.6429652E+002
 20
2.688494E+002
 70
0
  0
VERTEX
  8
4
 42
5.732449E-004
 10
1.6429983E+002
 20
2.6885276E+002
 70
1
  0
VERTEX
  8
4
 42
5.953449E-004
 10
1.6430311E+002
 20
2.6885612E+002
 70
0
  0
VERTEX
  8
4
 42
6.158197E-004
 10
1.6430637E+002
 20
2.6885948E+002
 70
1
  0
VERTEX
  8
4
 42
6.38393E-004
 10
1.6430961E+002
 20
2.6886282E+002
 70
0
  0
VERTEX
  8
4
 42
6.60614E-004
 10
1.6431283E+002
 20
2.6886617E+002
 70
1
  0
VERTEX
  8
4
 42
6.861781E-004
 10
1.6431603E+002
 20
2.6886951E+002
 70
0
  0
VERTEX
  8
4
 42
7.06952E-004
 10
1.643192E+002
 20
2.6887284E+002
 70
1
  0
VERTEX
  8
4
 42
7.26963E-004
 10
1.6432235E+002
 20
2.6887617E+002
 70
0
  0
VERTEX
  8
4
 42
7.583323E-004
 10
1.6432547E+002
 20
2.6887948E+002
 70
1
  0
VERTEX
  8
4
 42
8.032598E-004
 10
1.6432857E+002
 20
2.688828E+002
 70
0
  0
VERTEX
  8
4
 42
8.03049E-004
 10
1.6433165E+002
 20
2.6888611E+002
 70
1
  0
VERTEX
  8
4
 42
7.692511E-004
 10
1.6433469E+002
 20
2.6888941E+002
 70
0
  0
VERTEX
  8
4
 42
8.847952E-004
 10
1.6433769E+002
 20
2.6889267E+002
 70
1
  0
VERTEX
  8
4
 42
1.1077696E-003
 10
1.643407E+002
 20
2.6889599E+002
 70
0
  0
VERTEX
  8
4
 42
8.533267E-004
 10
1.6434375E+002
 20
2.6889936E+002
 70
1
  0
VERTEX
  8
4
 42
2.62028E-004
 10
1.6434659E+002
 20
2.6890253E+002
 70
0
  0
VERTEX
  8
4
 42
1.2831386E-003
 10
1.6434915E+002
 20
2.6890539E+002
 70
1
  0
VERTEX
  8
4
 42
2.3515616E-003
 10
1.6435236E+002
 20
2.6890905E+002
 70
0
  0
VERTEX
  8
4
 42
1.1813929E-003
 10
1.6435722E+002
 20
2.6891465E+002
 70
1
  0
VERTEX
  8
4
 42
6.276519E-004
 10
1.6436352E+002
 20
2.6892197E+002
 70
0
  0
SEQEND
  0
POLYLINE
  8
4
  6
CONTINUOUS
 62
6
 66
1
 40
0.0
 41
0.0
 70
2
  0
VERTEX
  8
4
 42
0.0
 10
1.6440803E+002
 20
2.6897989E+002
 70
0
  0
VERTEX
  8
4
 42
2.156768E-004
 10
1.6440841E+002
 20
2.6898045E+002
 70
1
  0
VERTEX
  8
4
 42
2.199448E-004
 10
1.6440879E+002
 20
2.6898101E+002
 70
0
  0
VERTEX
  8
4
 42
2.198908E-004
 10
1.6440917E+002
 20
2.6898156E+002
 70
1
  0
VERTEX
  8
4
 42
2.151558E-004
 10
1.6440955E+002
 20
2.6898212E+002
 70
0
  0
VERTEX
  8
4
 42
2.126812E-004
 10
1.6440993E+002
 20
2.6898267E+002
 70
1
  0
VERTEX
  8
4
 42
2.108819E-004
 10
1.644103E+002
 20
2.6898321E+002
 70
0
  0
VERTEX
  8
4
 42
2.09732E-004
 10
1.6441067E+002
 20
2.6898376E+002
 70
1
  0
VERTEX
  8
4
 42
2.079536E-004
 10
1.6441103E+002
 20
2.689843E+002
 70
0
  0
VERTEX
  8
4
 42
2.07226E-004
 10
1.6441139E+002
 20
2.6898483E+002
 70
1
  0
VERTEX
  8
4
 42
2.062019E-004
 10
1.6441175E+002
 20
2.6898536E+002
 70
0
  0
VERTEX
  8
4
 42
2.061494E-004
 10
1.6441211E+002
 20
2.6898589E+002
 70
1
  0
VERTEX
  8
4
 42
2.05739E-004
 10
1.6441246E+002
 20
2.6898641E+002
 70
0
  0
VERTEX
  8
4
 42
2.063521E-004
 10
1.6441281E+002
 20
2.6898692E+002
 70
1
  0
VERTEX
  8
4
 42
2.0665E-004
 10
1.6441315E+002
 20
2.6898743E+002
 70
0
  0
VERTEX
  8
4
 42
2.08009E-004
 10
1.6441349E+002
 20
2.6898794E+002
 70
1
  0
VERTEX
  8
4
 42
2.090822E-004
 10
1.6441382E+002
 20
2.6898844E+002
 70
0
  0
VERTEX
  8
4
 42
2.112716E-004
 10
1.6441415E+002
 20
2.6898893E+002
 70
1
  0
VERTEX
  8
4
 42
2.132146E-004
 10
1.6441447E+002
 20
2.6898941E+002
 70
0
  0
VERTEX
  8
4
 42
2.163751E-004
 10
1.6441479E+002
 20
2.6898989E+002
 70
1
  0
VERTEX
  8
4
 42
2.19371E-004
 10
1.644151E+002
 20
2.6899036E+002
 70
0
  0
VERTEX
  8
4
 42
2.236137E-004
 10
1.6441541E+002
 20
2.6899083E+002
 70
1
  0
VERTEX
  8
4
 42
2.276871E-004
 10
1.6441571E+002
 20
2.6899128E+002
 70
0
  0
VERTEX
  8
4
 42
2.334607E-004
 10
1.64416E+002
 20
2.6899173E+002
 70
1
  0
VERTEX
  8
4
 42
2.394949E-004
 10
1.6441629E+002
 20
2.6899217E+002
 70
0
  0
VERTEX
  8
4
 42
2.462736E-004
 10
1.6441657E+002
 20
2.689926E+002
 70
1
  0
VERTEX
  8
4
 42
2.522741E-004
 10
1.6441685E+002
 20
2.6899302E+002
 70
0
  0
VERTEX
  8
4
 42
2.636416E-004
 10
1.6441712E+002
 20
2.6899343E+002
 70
1
  0
VERTEX
  8
4
 42
2.78795E-004
 10
1.6441738E+002
 20
2.6899383E+002
 70
0
  0
VERTEX
  8
4
 42
2.835741E-004
 10
1.6441763E+002
 20
2.6899422E+002
 70
1
  0
VERTEX
  8
4
 42
2.768784E-004
 10
1.6441788E+002
 20
2.689946E+002
 70
0
  0
VERTEX
  8
4
 42
3.193894E-004
 10
1.6441812E+002
 20
2.6899497E+002
 70
1
  0
VERTEX
  8
4
 42
4.025444E-004
 10
1.6441835E+002
 20
2.6899533E+002
 70
0
  0
VERTEX
  8
4
 42
3.296044E-004
 10
1.6441858E+002
 20
2.6899569E+002
 70
1
  0
VERTEX
  8
4
 42
1.208909E-004
 10
1.644188E+002
 20
2.6899602E+002
 70
0
  0
VERTEX
  8
4
 42
4.971954E-004
 10
1.6441898E+002
 20
2.6899631E+002
 70
1
  0
VERTEX
  8
4
 42
9.908274E-004
 10
1.644192E+002
 20
2.6899666E+002
 70
0
  0
VERTEX
  8
4
 42
5.618106E-004
 10
1.6441952E+002
 20
2.6899716E+002
 70
1
  0
VERTEX
  8
4
 42
3.199523E-004
 10
1.6441991E+002
 20
2.6899779E+002
 70
0
  0
SEQEND
  0
POLYLINE
  8
4
  6
CONTINUOUS
 62
6
 66
1
 40
0.0
 41
0.0
 70
2
  0
VERTEX
  8
4
 42
0.0
 10
1.6449726E+002
 20
2.6926473E+002
 70
0
  0
VERTEX
  8
4
 42
-1.043074E-004
 10
1.6449726E+002
 20
2.6926491E+002
 70
1
  0
VERTEX
  8
4
 42
-1.054128E-004
 10
1.6449726E+002
 20
2.6926509E+002
 70
0
  0
VERTEX
  8
4
 42
-1.022093E-004
 10
1.6449726E+002
 20
2.6926528E+002
 70
1
  0
VERTEX
  8
4
 42
-9.45291E-005
 10
1.6449726E+002
 20
2.6926546E+002
 70
0
  0
VERTEX
  8
4
 42
-8.88162E-005
 10
1.6449726E+002
 20
2.6926564E+002
 70
1
  0
VERTEX
  8
4
 42
-8.379E-005
 10
1.6449726E+002
 20
2.6926583E+002
 70
0
  0
VERTEX
  8
4
 42
-7.91433E-005
 10
1.6449726E+002
 20
2.6926601E+002
 70
1
  0
VERTEX
  8
4
 42
-7.38727E-005
 10
1.6449726E+002
 20
2.692662E+002
 70
0
  0
VERTEX
  8
4
 42
-6.93297E-005
 10
1.6449726E+002
 20
2.6926639E+002
 70
1
  0
VERTEX
  8
4
 42
-6.44553E-005
 10
1.6449726E+002
 20
2.6926658E+002
 70
0
  0
VERTEX
  8
4
 42
-6.0185E-005
 10
1.6449726E+002
 20
2.6926676E+002
 70
1
  0
VERTEX
  8
4
 42
-5.54813E-005
 10
1.6449726E+002
 20
2.6926695E+002
 70
0
  0
VERTEX
  8
4
 42
-5.13782E-005
 10
1.6449726E+002
 20
2.6926714E+002
 70
1
  0
VERTEX
  8
4
 42
-4.68401E-005
 10
1.6449726E+002
 20
2.6926733E+002
 70
0
  0
VERTEX
  8
4
 42
-4.28721E-005
 10
1.6449726E+002
 20
2.6926751E+002
 70
1
  0
VERTEX
  8
4
 42
-3.84439E-005
 10
1.6449726E+002
 20
2.692677E+002
 70
0
  0
VERTEX
  8
4
 42
-3.4564E-005
 10
1.6449726E+002
 20
2.6926789E+002
 70
1
  0
VERTEX
  8
4
 42
-3.02047E-005
 10
1.6449726E+002
 20
2.6926808E+002
 70
0
  0
VERTEX
  8
4
 42
-2.63717E-005
 10
1.6449726E+002
 20
2.6926826E+002
 70
1
  0
VERTEX
  8
4
 42
-2.2038E-005
 10
1.6449726E+002
 20
2.6926845E+002
 70
0
  0
VERTEX
  8
4
 42
-1.82091E-005
 10
1.6449726E+002
 20
2.6926863E+002
 70
1
  0
VERTEX
  8
4
 42
-1.3858E-005
 10
1.6449726E+002
 20
2.6926882E+002
 70
0
  0
VERTEX
  8
4
 42
-9.991E-006
 10
1.6449726E+002
 20
2.69269E+002
 70
1
  0
VERTEX
  8
4
 42
-5.579E-006
 10
1.6449726E+002
 20
2.6926919E+002
 70
0
  0
VERTEX
  8
4
 42
-1.6267E-006
 10
1.6449726E+002
 20
2.6926937E+002
 70
1
  0
VERTEX
  8
4
 42
2.8984E-006
 10
1.6449727E+002
 20
2.6926955E+002
 70
0
  0
VERTEX
  8
4
 42
6.9783E-006
 10
1.6449727E+002
 20
2.6926973E+002
 70
1
  0
VERTEX
  8
4
 42
1.16486E-005
 10
1.6449727E+002
 20
2.6926991E+002
 70
0
  0
VERTEX
  8
4
 42
1.59352E-005
 10
1.6449727E+002
 20
2.6927009E+002
 70
1
  0
VERTEX
  8
4
 42
2.08874E-005
 10
1.6449727E+002
 20
2.6927027E+002
 70
0
  0
VERTEX
  8
4
 42
2.53397E-005
 10
1.6449727E+002
 20
2.6927044E+002
 70
1
  0
VERTEX
  8
4
 42
3.03169E-005
 10
1.6449727E+002
 20
2.6927062E+002
 70
0
  0
VERTEX
  8
4
 42
3.54186E-005
 10
1.6449727E+002
 20
2.6927079E+002
 70
1
  0
VERTEX
  8
4
 42
4.18158E-005
 10
1.6449727E+002
 20
2.6927096E+002
 70
0
  0
VERTEX
  8
4
 42
4.56829E-005
 10
1.6449727E+002
 20
2.6927113E+002
 70
1
  0
VERTEX
  8
4
 42
4.74998E-005
 10
1.6449727E+002
 20
2.692713E+002
 70
0
  0
VERTEX
  8
4
 42
4.53979E-005
 10
1.6449727E+002
 20
2.6927147E+002
 70
1
  0
VERTEX
  8
4
 42
3.82028E-005
 10
1.6449727E+002
 20
2.6927163E+002
 70
0
  0
VERTEX
  8
4
 42
3.21593E-005
 10
1.6449727E+002
 20
2.692718E+002
 70
1
  0
VERTEX
  8
4
 42
2.57516E-005
 10
1.6449727E+002
 20
2.6927196E+002
 70
0
  0
VERTEX
  8
4
 42
1.97274E-005
 10
1.6449727E+002
 20
2.6927213E+002
 70
1
  0
VERTEX
  8
4
 42
1.26388E-005
 10
1.6449727E+002
 20
2.6927229E+002
 70
0
  0
VERTEX
  8
4
 42
6.3672E-006
 10
1.6449727E+002
 20
2.6927246E+002
 70
1
  0
VERTEX
  8
4
 42
-5.638E-007
 10
1.6449727E+002
 20
2.6927263E+002
 70
0
  0
VERTEX
  8
4
 42
-6.5569E-006
 10
1.6449727E+002
 20
2.6927279E+002
 70
1
  0
VERTEX
  8
4
 42
-1.30853E-005
 10
1.6449727E+002
 20
2.6927296E+002
 70
0
  0
VERTEX
  8
4
 42
-1.85509E-005
 10
1.6449727E+002
 20
2.6927314E+002
 70
1
  0
VERTEX
  8
4
 42
-2.44351E-005
 10
1.6449727E+002
 20
2.6927331E+002
 70
0
  0
VERTEX
  8
4
 42
-2.90356E-005
 10
1.6449728E+002
 20
2.6927349E+002
 70
1
  0
VERTEX
  8
4
 42
-3.3828E-005
 10
1.6449728E+002
 20
2.6927367E+002
 70
0
  0
VERTEX
  8
4
 42
-3.77879E-005
 10
1.6449728E+002
 20
2.6927386E+002
 70
1
  0
VERTEX
  8
4
 42
-4.2369E-005
 10
1.6449728E+002
 20
2.6927405E+002
 70
0
  0
VERTEX
  8
4
 42
-4.41852E-005
 10
1.6449728E+002
 20
2.6927425E+002
 70
1
  0
VERTEX
  8
4
 42
-4.47189E-005
 10
1.6449728E+002
 20
2.6927445E+002
 70
0
  0
VERTEX
  8
4
 42
-4.19741E-005
 10
1.6449728E+002
 20
2.6927465E+002
 70
1
  0
VERTEX
  8
4
 42
-3.65283E-005
 10
1.6449728E+002
 20
2.6927486E+002
 70
0
  0
VERTEX
  8
4
 42
-3.22967E-005
 10
1.6449728E+002
 20
2.6927508E+002
 70
1
  0
VERTEX
  8
4
 42
-2.85724E-005
 10
1.6449728E+002
 20
2.6927529E+002
 70
0
  0
VERTEX
  8
4
 42
-2.52737E-005
 10
1.6449728E+002
 20
2.6927552E+002
 70
1
  0
VERTEX
  8
4
 42
-2.18778E-005
 10
1.6449728E+002
 20
2.6927574E+002
 70
0
  0
VERTEX
  8
4
 42
-1.89871E-005
 10
1.6449728E+002
 20
2.6927598E+002
 70
1
  0
VERTEX
  8
4
 42
-1.60571E-005
 10
1.6449728E+002
 20
2.6927621E+002
 70
0
  0
VERTEX
  8
4
 42
-1.35376E-005
 10
1.6449728E+002
 20
2.6927645E+002
 70
1
  0
VERTEX
  8
4
 42
-1.09026E-005
 10
1.6449729E+002
 20
2.6927669E+002
 70
0
  0
VERTEX
  8
4
 42
-8.635E-006
 10
1.6449729E+002
 20
2.6927693E+002
 70
1
  0
VERTEX
  8
4
 42
-6.2167E-006
 10
1.6449729E+002
 20
2.6927718E+002
 70
0
  0
VERTEX
  8
4
 42
-4.149E-006
 10
1.6449729E+002
 20
2.6927742E+002
 70
1
  0
VERTEX
  8
4
 42
-1.9223E-006
 10
1.6449729E+002
 20
2.6927768E+002
 70
0
  0
VERTEX
  8
4
 42
6.52E-008
 10
1.6449729E+002
 20
2.6927793E+002
 70
1
  0
VERTEX
  8
4
 42
2.3273E-006
 10
1.6449729E+002
 20
2.6927818E+002
 70
0
  0
VERTEX
  8
4
 42
4.0513E-006
 10
1.6449729E+002
 20
2.6927844E+002
 70
1
  0
VERTEX
  8
4
 42
5.6869E-006
 10
1.6449729E+002
 20
2.692787E+002
 70
0
  0
VERTEX
  8
4
 42
5.6448E-006
 10
1.6449729E+002
 20
2.6927895E+002
 70
1
  0
VERTEX
  8
4
 42
3.8936E-006
 10
1.644973E+002
 20
2.6927922E+002
 70
0
  0
VERTEX
  8
4
 42
2.3963E-006
 10
1.644973E+002
 20
2.6927949E+002
 70
1
  0
VERTEX
  8
4
 42
9.222E-007
 10
1.644973E+002
 20
2.6927977E+002
 70
0
  0
VERTEX
  8
4
 42
-2.17E-007
 10
1.644973E+002
 20
2.6928007E+002
 70
1
  0
VERTEX
  8
4
 42
-1.271E-006
 10
1.644973E+002
 20
2.6928038E+002
 70
0
  0
VERTEX
  8
4
 42
-2.274E-006
 10
1.644973E+002
 20
2.6928071E+002
 70
1
  0
VERTEX
  8
4
 42
-3.4738E-006
 10
1.644973E+002
 20
2.6928106E+002
 70
0
  0
VERTEX
  8
4
 42
-3.2917E-006
 10
1.644973E+002
 20
2.6928144E+002
 70
1
  0
VERTEX
  8
4
 42
-2.1742E-006
 10
1.6449731E+002
 20
2.6928184E+002
 70
0
  0
VERTEX
  8
4
 42
-4.4558E-006
 10
1.6449731E+002
 20
2.6928228E+002
 70
1
  0
VERTEX
  8
4
 42
-9.78E-006
 10
1.6449731E+002
 20
2.6928274E+002
 70
0
  0
VERTEX
  8
4
 42
2.6396E-006
 10
1.6449731E+002
 20
2.6928325E+002
 70
1
  0
VERTEX
  8
4
 42
3.01122E-005
 10
1.6449731E+002
 20
2.6928379E+002
 70
0
  0
VERTEX
  8
4
 42
5.73039E-005
 10
1.6449732E+002
 20
2.6928437E+002
 70
1
  0
VERTEX
  8
4
 42
9.1309E-005
 10
1.6449732E+002
 20
2.69285E+002
 70
0
  0
VERTEX
  8
4
 42
1.11221E-004
 10
1.6449732E+002
 20
2.6928567E+002
 70
1
  0
VERTEX
  8
4
 42
1.288662E-004
 10
1.6449732E+002
 20
2.6928639E+002
 70
0
  0
VERTEX
  8
4
 42
1.380943E-004
 10
1.6449732E+002
 20
2.6928717E+002
 70
1
  0
VERTEX
  8
4
 42
1.483984E-004
 10
1.6449732E+002
 20
2.6928799E+002
 70
0
  0
VERTEX
  8
4
 42
1.522011E-004
 10
1.6449733E+002
 20
2.6928888E+002
 70
1
  0
VERTEX
  8
4
 42
1.576381E-004
 10
1.6449733E+002
 20
2.6928983E+002
 70
0
  0
VERTEX
  8
4
 42
1.55933E-004
 10
1.6449733E+002
 20
2.6929084E+002
 70
1
  0
VERTEX
  8
4
 42
1.552858E-004
 10
1.6449732E+002
 20
2.6929191E+002
 70
0
  0
VERTEX
  8
4
 42
1.496552E-004
 10
1.6449732E+002
 20
2.6929305E+002
 70
1
  0
VERTEX
  8
4
 42
1.434997E-004
 10
1.6449732E+002
 20
2.6929425E+002
 70
0
  0
VERTEX
  8
4
 42
1.428909E-004
 10
1.6449732E+002
 20
2.6929553E+002
 70
1
  0
VERTEX
  8
4
 42
1.551189E-004
 10
1.6449731E+002
 20
2.6929686E+002
 70
0
  0
VERTEX
  8
4
 42
1.232692E-004
 10
1.6449731E+002
 20
2.6929825E+002
 70
1
  0
VERTEX
  8
4
 42
4.28932E-005
 10
1.644973E+002
 20
2.6929974E+002
 70
0
  0
VERTEX
  8
4
 42
5.71284E-005
 10
1.6449729E+002
 20
2.6930134E+002
 70
1
  0
VERTEX
  8
4
 42
1.855713E-004
 10
1.6449728E+002
 20
2.6930288E+002
 70
0
  0
VERTEX
  8
4
 42
-9.94363E-005
 10
1.6449728E+002
 20
2.6930431E+002
 70
1
  0
VERTEX
  8
4
 42
-5.329988E-004
 10
1.6449727E+002
 20
2.6930625E+002
 70
0
  0
VERTEX
  8
4
 42
-2.626631E-004
 10
1.6449726E+002
 20
2.6930937E+002
 70
1
  0
VERTEX
  8
4
 42
-1.137593E-004
 10
1.6449726E+002
 20
2.6931354E+002
 70
0
  0
SEQEND
  0
LINE
  8
4
  6
CONTINUOUS
 62
40
 10
1.4949725E+002
 20
2.5455762E+002
 11
1.4949725E+002
 21
2.7455762E+002
  0
LINE
  8
4
  6
CONTINUOUS
 62
40
 10
1.5249725E+002
 20
2.7455762E+002
 11
1.5249725E+002
 21
2.5455762E+002
  0
LINE
  8
4
  6
CONTINUOUS
 62
40
 10
1.5249725E+002
 20
2.5455762E+002
 11
1.4949725E+002
 21
2.5455762E+002
  0
LINE
  8
4
  6
CONTINUOUS
 62
40
 10
1.4949725E+002
 20
2.7455762E+002
 11
1.5249725E+002
 21
2.7455762E+002
  0
LINE
  8
3
  6
CENTERLINE
 62
3
 10
4.2320494E+001
 20
9.8584934E+001
 11
3.4972392E+001
 21
9.8584934E+001
  0
LINE
  8
3
  6
CENTERLINE
 62
3
 10
4.2320494E+001
 20
9.8584934E+001
 11
4.9398573E+001
 21
9.8584934E+001
  0
LINE
  8
3
  6
CENTERLINE
 62
3
 10
4.2320494E+001
 20
9.8584934E+001
 11
4.2320494E+001
 21
1.0646471E+002
  0
LINE
  8
3
  6
CENTERLINE
 62
3
 10
4.2320494E+001
 20
9.8584934E+001
 11
4.2320494E+001
 21
9.0328756E+001
  0
LINE
  8
3
  6
CENTERLINE
 62
3
 10
4.2320494E+001
 20
2.0758493E+002
 11
3.4998581E+001
 21
2.0758493E+002
  0
LINE
  8
3
  6
CENTERLINE
 62
3
 10
4.2320494E+001
 20
2.0758493E+002
 11
4.9685647E+001
 21
2.0758493E+002
  0
LINE
  8
3
  6
CENTERLINE
 62
3
 10
4.2320494E+001
 20
2.0758493E+002
 11
4.2320494E+001
 21
2.1482293E+002
  0
LINE
  8
3
  6
CENTERLINE
 62
3
 10
4.2320494E+001
 20
2.0758493E+002
 11
4.2320494E+001
 21
1.9936907E+002
  0
DIMENSION
  8
3
  6
CONTINUOUS
 62
3
  2
*D904
  3
DSTYLE1
 10
4.2320494E+001
 20
2.2862383E+002
 11
3.7065614E+001
 21
2.3162483E+002
 70
128
 13
3.2320494E+001
 23
2.2058493E+002
 14
4.2320494E+001
 24
2.1482293E+002
 40
3.0
 50
0.0
1001
ACAD
1000
DSTYLE
1002
{
1070
173
1070
0
1070
5
1000
_AH1
1002
}
  0
DIMENSION
  8
3
  6
CONTINUOUS
 62
3
  2
*D905
  3
DSTYLE1
 10
5.2320494E+001
 20
2.3771756E+002
 11
4.2015369E+001
 21
2.4071856E+002
 70
128
 13
3.2320494E+001
 23
2.2058493E+002
 14
5.2320494E+001
 24
2.2058493E+002
 40
3.0
 50
0.0
1001
ACAD
1000
DSTYLE
1002
{
1070
173
1070
0
1070
5
1000
_AH1
1002
}
  0
DIMENSION
  8
3
  6
CONTINUOUS
 62
3
  2
*D906
  3
DSTYLE1
 10
7.2182471E+001
 20
9.8584934E+001
 11
6.9181471E+001
 21
1.531194E+002
 70
128
 13
4.9685647E+001
 23
2.0758493E+002
 14
4.9398573E+001
 24
9.8584934E+001
 40
3.0
 50
9.0E+001
1001
ACAD
1000
DSTYLE
1002
{
1070
173
1070
0
1070
5
1000
_AH1
1002
}
  0
DIMENSION
  8
3
  6
CONTINUOUS
 62
3
  2
*D907
  3
DSTYLE1
 10
7.2182471E+001
 20
8.5584934E+001
 11
6.9181471E+001
 21
9.2801442E+001
 70
128
 13
4.9398573E+001
 23
9.8584934E+001
 14
5.2320494E+001
 24
8.5584934E+001
 40
3.0
 50
9.0E+001
1001
ACAD
1000
DSTYLE
1002
{
1070
173
1070
0
1070
5
1000
_AH1
1002
}
  0
DIMENSION
  8
3
  6
CONTINUOUS
 62
3
  2
*D908
  3
DSTYLE1
 10
4.5070494E+001
 20
7.6872477E+001
 11
5.4074769E+001
 21
7.9873477E+001
 70
129
 13
3.9570494E+001
 23
9.8584934E+001
 14
4.5070494E+001
 24
9.8584934E+001
 40
3.0
1001
ACAD
1000
DSTYLE
1002
{
1070
173
1070
0
1070
5
1000
_AH1
1002
}
  0
DIMENSION
  8
3
  6
CONTINUOUS
 62
3
  2
*D909
  3
DSTYLE1
 10
4.7520494E+001
 20
6.8840699E+001
 11
5.4852038E+001
 21
7.1841699E+001
 70
129
 13
3.7120494E+001
 23
9.8584934E+001
 14
4.7520494E+001
 24
9.8584934E+001
 40
3.0
1001
ACAD
1000
DSTYLE
1002
{
1070
173
1070
0
1070
5
1000
_AH1
1002
}
  0
DIMENSION
  8
2
  6
CONTINUOUS
 62
3
  2
*D910
  3
DSTYLE1
 10
1.0504775E+002
 20
2.2058493E+002
 11
1.0204675E+002
 21
2.0449245E+002
 70
128
 13
1.1349725E+002
 23
1.8508493E+002
 14
1.4949725E+002
 24
2.2058493E+002
 40
3.0
 50
9.0E+001
1001
ACAD
1000
DSTYLE
1002
{
1070
173
1070
0
1070
5
1000
_AH1
1002
}
  0
DIMENSION
  8
2
  6
CONTINUOUS
 62
3
  2
*D911
  3
DSTYLE1
 10
1.0504775E+002
 20
8.5584934E+001
 11
1.0204675E+002
 21
1.0417755E+002
 70
128
 13
1.1349725E+002
 23
1.2108493E+002
 14
1.4949725E+002
 24
8.5584934E+001
 40
3.0
 50
9.0E+001
1001
ACAD
1000
DSTYLE
1002
{
1070
173
1070
0
1070
5
1000
_AH1
1002
}
  0
DIMENSION
  8
2
  6
CONTINUOUS
 62
3
  2
*D913
  3
DSTYLE1
 10
1.7417747E+002
 20
8.5584934E+001
 11
1.7117647E+002
 21
1.1293398E+002
 70
128
 13
1.6349725E+002
 23
1.3708493E+002
 14
1.5249725E+002
 24
8.5584934E+001
 40
3.0
 50
2.7E+002
1001
ACAD
1000
DSTYLE
1002
{
1070
173
1070
0
1070
5
1000
_AH1
1002
}
  0
DIMENSION
  8
2
  6
CONTINUOUS
 62
3
  2
*D914
  3
DSTYLE1
 10
1.7417747E+002
 20
1.6908493E+002
 11
1.7117647E+002
 21
1.9435343E+002
 70
128
 13
1.5249725E+002
 23
2.2058493E+002
 14
1.6349725E+002
 24
1.6908493E+002
 40
3.0
 50
9.0E+001
1001
ACAD
1000
DSTYLE
1002
{
1070
173
1070
0
1070
5
1000
_AH1
1002
}
  0
DIMENSION
  8
2
  6
CONTINUOUS
 62
3
  2
*D915
  3
DSTYLE1
 10
1.8400926E+002
 20
8.5584934E+001
 11
1.8100826E+002
 21
1.5302922E+002
 70
128
 13
1.5249725E+002
 23
2.2058493E+002
 14
1.5249725E+002
 24
8.5584934E+001
 40
3.0
 50
9.0E+001
1001
ACAD
1000
DSTYLE
1002
{
1070
173
1070
0
1070
5
1000
_AH1
1002
}
  0
INSERT
  2
A4-V
  8
1
 10
0.0
 20
0.0
 66
1
  0
ATTRIB
  8
1
  6
CONTINUOUS
 62
6
 10
1.897175E+002
 20
3.3889971E+001
 40
4.0
  1
Fallenschloss 807-11
 41
7.0E-001
 72
1
 11
1.617175E+002
 21
3.3889971E+001
  2
1
 70
0
  0
ATTRIB
  8
1
  6
CONTINUOUS
 62
6
 10
1.799175E+002
 20
2.5889971E+001
 40
4.0
  1
Masszeichnung
 41
7.0E-001
 72
1
 11
1.617175E+002
 21
2.5889971E+001
  2
2
 70
0
  0
ATTRIB
  8
1
  6
CONTINUOUS
 62
6
 10
1.735675E+002
 20
1.1458917E+001
 40
4.0
  1
807.11 - 1000
 41
7.0E-001
 72
1
 11
1.553675E+002
 21
1.1458917E+001
  2
3
 70
0
  0
ATTRIB
  8
1
  6
CONTINUOUS
 62
6
 10
1.727675E+002
 20
4.96425E+001
 40
3.0
  1
 
 41
7.0E-001
 72
1
 11
1.717175E+002
 21
4.96425E+001
  2
4
 70
0
  0
ATTRIB
  8
1
  6
CONTINUOUS
 62
6
 10
1.727675E+002
 20
4.4355E+001
 40
3.0
  1
 
 41
7.0E-001
 72
1
 11
1.717175E+002
 21
4.4355E+001
  2
5
 70
0
  0
ATTRIB
  8
1
  6
CONTINUOUS
 62
6
 10
1.923675E+002
 20
5.51425E+001
 40
3.0
  1
55780
 41
7.0E-001
 72
1
 11
1.871175E+002
 21
5.51425E+001
  2
6
 70
0
  0
ATTRIB
  8
1
  6
CONTINUOUS
 62
6
 10
8.3092015E+001
 20
5.92056
 40
2.5
  1
 
 41
7.0E-001
  2
7
 70
0
  0
ATTRIB
  8
1
  6
CONTINUOUS
 62
6
 10
1.2627202E+002
 20
5.92056
 40
2.5
  1
 
 41
7.0E-001
  2
8
 70
0
  0
ATTRIB
  8
1
  6
CONTINUOUS
 62
6
 10
7.6776842E+001
 20
3.9889149E+001
 40
2.0
  1
 
 41
7.0E-001
  2
9
 70
0
  0
ATTRIB
  8
1
  6
CONTINUOUS
 62
6
 10
8.65175E+001
 20
3.54075E+001
 40
2.2
  1
02.09.04
 41
7.0E-001
  2
10
 70
0
  0
ATTRIB
  8
1
  6
CONTINUOUS
 62
6
 10
1.017575E+002
 20
3.54075E+001
 40
2.2
  1
Nolle
 41
7.0E-001
  2
11
 70
0
  0
ATTRIB
  8
1
  6
CONTINUOUS
 62
6
 10
8.65175E+001
 20
3.11775E+001
 40
2.2
  1
 
 41
7.0E-001
  2
12
 70
0
  0
ATTRIB
  8
1
  6
CONTINUOUS
 62
6
 10
1.017575E+002
 20
3.11775E+001
 40
2.2
  1
 
 41
7.0E-001
  2
13
 70
0
  0
ATTRIB
  8
1
  6
CONTINUOUS
 62
6
 10
8.65175E+001
 20
2.69475E+001
 40
2.2
  1
 
 41
7.0E-001
  2
14
 70
0
  0
ATTRIB
  8
1
  6
CONTINUOUS
 62
6
 10
1.017575E+002
 20
2.69475E+001
 40
2.2
  1
 
 41
7.0E-001
  2
15
 70
0
  0
ATTRIB
  8
1
  6
CONTINUOUS
 62
6
 10
8.65175E+001
 20
2.27175E+001
 40
2.2
  1
 
 41
7.0E-001
  2
16
 70
0
  0
ATTRIB
  8
1
  6
CONTINUOUS
 62
6
 10
1.9777072E+002
 20
4.0035527E+001
 40
1.0
  1
 
  2
17
 70
0
  0
ATTRIB
  8
1
  6
CONTINUOUS
 62
6
 10
1.9777072E+002
 20
3.8535527E+001
 40
1.0
  1
 
  2
18
 70
0
  0
ATTRIB
  8
1
  6
CONTINUOUS
 62
6
 10
1.9777072E+002
 20
3.7035527E+001
 40
1.0
  1
 
  2
19
 70
0
  0
ATTRIB
  8
1
  6
CONTINUOUS
 62
6
 10
1.9777072E+002
 20
3.5535527E+001
 40
1.0
  1
 
  2
20
 70
0
  0
ATTRIB
  8
1
  6
CONTINUOUS
 62
6
 10
2.30175E+001
 20
3.96375E+001
 40
2.0
  1
 
 41
7.0E-001
  2
21
 70
0
  0
ATTRIB
  8
1
  6
CONTINUOUS
 62
6
 10
3.06375E+001
 20
3.96375E+001
 40
2.0
  1
 
 41
7.0E-001
  2
22
 70
0
  0
ATTRIB
  8
1
  6
CONTINUOUS
 62
6
 10
5.60375E+001
 20
3.96375E+001
 40
2.0
  1
 
 41
7.0E-001
  2
23
 70
0
  0
ATTRIB
  8
1
  6
CONTINUOUS
 62
6
 10
6.82375E+001
 20
3.96375E+001
 40
2.0
  1
 
 41
7.0E-001
  2
24
 70
0
  0
ATTRIB
  8
1
  6
CONTINUOUS
 62
6
 10
2.30175E+001
 20
3.54075E+001
 40
2.0
  1
 
 41
7.0E-001
  2
25
 70
0
  0
ATTRIB
  8
1
  6
CONTINUOUS
 62
6
 10
3.06375E+001
 20
3.54075E+001
 40
2.0
  1
 
 41
7.0E-001
  2
26
 70
0
  0
ATTRIB
  8
1
  6
CONTINUOUS
 62
6
 10
5.60375E+001
 20
3.54075E+001
 40
2.0
  1
 
 41
7.0E-001
  2
27
 70
0
  0
ATTRIB
  8
1
  6
CONTINUOUS
 62
6
 10
6.82375E+001
 20
3.54075E+001
 40
2.0
  1
 
 41
7.0E-001
  2
28
 70
0
  0
ATTRIB
  8
1
  6
CONTINUOUS
 62
6
 10
2.30175E+001
 20
3.11775E+001
 40
2.0
  1
 
 41
7.0E-001
  2
29
 70
0
  0
ATTRIB
  8
1
  6
CONTINUOUS
 62
6
 10
3.06375E+001
 20
3.11775E+001
 40
2.0
  1
 
 41
7.0E-001
  2
30
 70
0
  0
ATTRIB
  8
1
  6
CONTINUOUS
 62
6
 10
5.60375E+001
 20
3.11775E+001
 40
2.0
  1
 
 41
7.0E-001
  2
31
 70
0
  0
ATTRIB
  8
1
  6
CONTINUOUS
 62
6
 10
6.82375E+001
 20
3.11775E+001
 40
2.0
  1
 
 41
7.0E-001
  2
32
 70
0
  0
ATTRIB
  8
1
  6
CONTINUOUS
 62
6
 10
2.30175E+001
 20
2.69475E+001
 40
2.0
  1
 
 41
7.0E-001
  2
33
 70
0
  0
ATTRIB
  8
1
  6
CONTINUOUS
 62
6
 10
3.06375E+001
 20
2.69475E+001
 40
2.0
  1
 
 41
7.0E-001
  2
34
 70
0
  0
ATTRIB
  8
1
  6
CONTINUOUS
 62
6
 10
5.60375E+001
 20
2.69475E+001
 40
2.0
  1
 
 41
7.0E-001
  2
35
 70
0
  0
ATTRIB
  8
1
  6
CONTINUOUS
 62
6
 10
6.82375E+001
 20
2.69475E+001
 40
2.0
  1
 
 41
7.0E-001
  2
36
 70
0
  0
ATTRIB
  8
1
  6
CONTINUOUS
 62
6
 10
2.30175E+001
 20
2.27175E+001
 40
2.0
  1
 
 41
7.0E-001
  2
37
 70
0
  0
ATTRIB
  8
1
  6
CONTINUOUS
 62
6
 10
3.06375E+001
 20
2.27175E+001
 40
2.0
  1
 
 41
7.0E-001
  2
38
 70
0
  0
ATTRIB
  8
1
  6
CONTINUOUS
 62
6
 10
5.60375E+001
 20
2.27175E+001
 40
2.0
  1
 
 41
7.0E-001
  2
39
 70
0
  0
ATTRIB
  8
1
  6
CONTINUOUS
 62
6
 10
6.82375E+001
 20
2.27175E+001
 40
2.0
  1
 
 41
7.0E-001
  2
40
 70
0
  0
ATTRIB
  8
1
  6
CONTINUOUS
 62
6
 10
2.30175E+001
 20
1.84875E+001
 40
2.0
  1
 
 41
7.0E-001
  2
41
 70
0
  0
ATTRIB
  8
1
  6
CONTINUOUS
 62
6
 10
3.06375E+001
 20
1.84875E+001
 40
2.0
  1
 
 41
7.0E-001
  2
42
 70
0
  0
ATTRIB
  8
1
  6
CONTINUOUS
 62
6
 10
5.60375E+001
 20
1.84875E+001
 40
2.0
  1
 
 41
7.0E-001
  2
43
 70
0
  0
ATTRIB
  8
1
  6
CONTINUOUS
 62
6
 10
6.82375E+001
 20
1.84875E+001
 40
2.0
  1
 
 41
7.0E-001
  2
44
 70
0
  0
ATTRIB
  8
1
  6
CONTINUOUS
 62
6
 10
2.30175E+001
 20
1.42575E+001
 40
2.0
  1
 
 41
7.0E-001
  2
45
 70
0
  0
ATTRIB
  8
1
  6
CONTINUOUS
 62
6
 10
3.06375E+001
 20
1.42575E+001
 40
2.0
  1
 
 41
7.0E-001
  2
46
 70
0
  0
ATTRIB
  8
1
  6
CONTINUOUS
 62
6
 10
5.60375E+001
 20
1.42575E+001
 40
2.0
  1
 
 41
7.0E-001
  2
47
 70
0
  0
ATTRIB
  8
1
  6
CONTINUOUS
 62
6
 10
6.82375E+001
 20
1.42575E+001
 40
2.0
  1
 
 41
7.0E-001
  2
48
 70
0
  0
ATTRIB
  8
1
  6
CONTINUOUS
 62
6
 10
2.30175E+001
 20
1.00275E+001
 40
2.0
  1
 
 41
7.0E-001
  2
49
 70
0
  0
ATTRIB
  8
1
  6
CONTINUOUS
 62
6
 10
3.06375E+001
 20
1.00275E+001
 40
2.0
  1
 
 41
7.0E-001
  2
50
 70
0
  0
ATTRIB
  8
1
  6
CONTINUOUS
 62
6
 10
5.60375E+001
 20
1.00275E+001
 40
2.0
  1
 
 41
7.0E-001
  2
51
 70
0
  0
ATTRIB
  8
1
  6
CONTINUOUS
 62
6
 10
6.82375E+001
 20
1.00275E+001
 40
2.0
  1
 
 41
7.0E-001
  2
52
 70
0
  0
SEQEND
  0
LINE
  8
4
  6
CENTERLINE
 62
3
 10
1.4439725E+002
 20
2.6455762E+002
 11
1.53636E+002
 21
2.6455762E+002
  0
LINE
  8
4
  6
SHORT_DASH
 62
6
 10
1.5249725E+002
 20
2.7155762E+002
 11
1.4949725E+002
 21
2.7155762E+002
  0
LINE
  8
4
  6
SHORT_DASH
 62
6
 10
1.5249725E+002
 20
2.5755762E+002
 11
1.4949725E+002
 21
2.5755762E+002
  0
ARC
  8
Drafting_Hidden_Entities
  6
SHORT_DASH
 62
6
 10
1.464759E+002
 20
2.5858651E+002
 40
1.5290456
 50
2.7080003E+002
 51
3.5891185E+002
  0
ARC
  8
Drafting_Hidden_Entities
  6
SHORT_DASH
 62
6
 10
1.1549725E+002
 20
2.5855762E+002
 40
1.5
 50
1.7918447E+002
 51
2.7081553E+002
  0
ARC
  8
4
  6
CONTINUOUS
 62
30
 10
1.1612538E+002
 20
2.6455762E+002
 40
4.028125
 50
1.8E+002
 51
2.0575E+002
  0
ARC
  8
4
  6
CONTINUOUS
 62
30
 10
1.1612538E+002
 20
2.6455762E+002
 40
4.028125
 50
1.5425E+002
 51
1.8E+002
  0
POLYLINE
  8
4
  6
CONTINUOUS
 62
2
 66
1
 40
5.0E-001
 41
5.0E-001
 70
0
  0
VERTEX
  8
4
 42
0.0
 10
1.1599725E+002
 20
2.7405762E+002
 70
0
  0
VERTEX
  8
4
 42
0.0
 10
1.1999725E+002
 20
2.7405762E+002
 70
0
  0
SEQEND
  0
POLYLINE
  8
4
  6
CONTINUOUS
 62
2
 66
1
 40
5.0E-001
 41
5.0E-001
 70
0
  0
VERTEX
  8
4
 42
0.0
 10
1.1599725E+002
 20
2.7405762E+002
 70
0
  0
VERTEX
  8
4
 42
0.0
 10
1.1599725E+002
 20
2.7355762E+002
 70
0
  0
SEQEND
  0
POLYLINE
  8
4
  6
CONTINUOUS
 62
2
 66
1
 40
5.0E-001
 41
5.0E-001
 70
0
  0
VERTEX
  8
4
 42
0.0
 10
1.1999725E+002
 20
2.7405762E+002
 70
0
  0
VERTEX
  8
4
 42
0.0
 10
1.1999725E+002
 20
2.7355762E+002
 70
0
  0
SEQEND
  0
POLYLINE
  8
4
  6
CONTINUOUS
 62
2
 66
1
 40
5.0E-001
 41
5.0E-001
 70
0
  0
VERTEX
  8
4
 42
0.0
 10
1.4199725E+002
 20
2.7405762E+002
 70
0
  0
VERTEX
  8
4
 42
0.0
 10
1.4199725E+002
 20
2.7355762E+002
 70
0
  0
SEQEND
  0
POLYLINE
  8
4
  6
CONTINUOUS
 62
2
 66
1
 40
5.0E-001
 41
5.0E-001
 70
0
  0
VERTEX
  8
4
 42
0.0
 10
1.4599725E+002
 20
2.7405762E+002
 70
0
  0
VERTEX
  8
4
 42
0.0
 10
1.4599725E+002
 20
2.7355762E+002
 70
0
  0
SEQEND
  0
POLYLINE
  8
4
  6
CONTINUOUS
 62
2
 66
1
 40
5.0E-001
 41
5.0E-001
 70
0
  0
VERTEX
  8
4
 42
0.0
 10
1.4199725E+002
 20
2.7405762E+002
 70
0
  0
VERTEX
  8
4
 42
0.0
 10
1.4599725E+002
 20
2.7405762E+002
 70
0
  0
SEQEND
  0
LINE
  8
4
  6
CENTERLINE
 62
1
 10
1.586437E+002
 20
2.5820406E+002
 11
1.686437E+002
 21
2.6820406E+002
  0
LINE
  8
4
  6
CONTINUOUS
 62
1
 10
1.6899725E+002
 20
2.6855762E+002
 11
1.693508E+002
 21
2.6891117E+002
  0
ARC
  8
4
  6
CENTERLINE
 62
1
 10
1.6849725E+002
 20
2.7055762E+002
 40
1.0
 50
0.0
 51
6.0091347E+001
  0
LINE
  8
4
  6
CENTERLINE
 62
1
 10
1.686437E+002
 20
2.6820406E+002
 11
1.6899725E+002
 21
2.6855762E+002
  0
LINE
  8
4
  6
CONTINUOUS
 62
1
 10
1.5818753E+002
 20
2.5774789E+002
 11
1.586437E+002
 21
2.5820406E+002
  0
LINE
  8
4
  6
CONTINUOUS
 62
1
 10
1.5779014E+002
 20
2.5755762E+002
 11
1.5749725E+002
 21
2.5755762E+002
  0
ARC
  8
4
  6
CONTINUOUS
 62
1
 10
1.6849725E+002
 20
2.7055762E+002
 40
1.0
 50
6.0091347E+001
 51
9.0E+001
  0
LINE
  8
4
  6
CENTERLINE
 62
1
 10
1.6849725E+002
 20
2.7155762E+002
 11
1.6349725E+002
 21
2.7155762E+002
  0
LINE
  8
4
  6
CENTERLINE
 62
1
 10
1.6899725E+002
 20
2.6905762E+002
 11
1.6445234E+002
 21
2.6905762E+002
  0
LINE
  8
4
  6
CENTERLINE
 62
1
 10
1.5749725E+002
 20
2.5755762E+002
 11
1.5279014E+002
 21
2.5755762E+002
  0
ARC
  8
4
  6
CONTINUOUS
 62
1
 10
1.6898764E+002
 20
2.6926472E+002
 40
5.0684048E-001
 50
3.1576816E+002
 51
3.6E+002
  0
LINE
  8
4
  6
CENTERLINE
 62
1
 10
1.6949725E+002
 20
2.7055762E+002
 11
1.6949448E+002
 21
2.6926472E+002
  0
ARC
  8
4
  6
CENTERLINE
 62
1
 10
1.6899725E+002
 20
2.6955762E+002
 40
5.0E-001
 50
2.7E+002
 51
3.6518373E+002
  0
ARC
  8
4
  6
CENTERLINE
 62
1
 10
1.5779014E+002
 20
2.5806771E+002
 40
5.1009611E-001
 50
2.7E+002
 51
3.2117239E+002
  0
LINE
  8
3
  6
CENTERLINE
 62
3
 10
4.2320494E+001
 20
1.7608493E+002
 11
3.6578611E+001
 21
1.7608493E+002
  0
LINE
  8
3
  6
CENTERLINE
 62
3
 10
4.2320494E+001
 20
1.7608493E+002
 11
4.7881646E+001
 21
1.7608493E+002
  0
LINE
  8
3
  6
CENTERLINE
 62
3
 10
4.2320494E+001
 20
1.7608493E+002
 11
4.2320494E+001
 21
1.7008017E+002
  0
LINE
  8
3
  6
CENTERLINE
 62
3
 10
4.2320494E+001
 20
1.7608493E+002
 11
4.2320494E+001
 21
1.8190446E+002
  0
LINE
  8
3
  6
CENTERLINE
 62
3
 10
4.2320494E+001
 20
1.3008493E+002
 11
3.668835E+001
 21
1.3008493E+002
  0
LINE
  8
3
  6
CENTERLINE
 62
3
 10
4.2320494E+001
 20
1.3008493E+002
 11
4.7722588E+001
 21
1.3008493E+002
  0
LINE
  8
3
  6
CENTERLINE
 62
3
 10
4.2320494E+001
 20
1.3008493E+002
 11
4.2320494E+001
 21
1.2438563E+002
  0
LINE
  8
3
  6
CENTERLINE
 62
3
 10
4.2320494E+001
 20
1.3008493E+002
 11
4.2320494E+001
 21
1.3581202E+002
  0
LINE
  8
3
  6
CONTINUOUS
 62
3
 10
3.7966942E+001
 20
1.6608743E+002
 11
3.7966941E+001
 21
1.4008494E+002
  0
LINE
  8
3
  6
SHORT_DASH
 62
6
 10
3.3320494E+001
 20
1.8508493E+002
 11
3.3320494E+001
 21
1.2108493E+002
  0
LINE
  8
3
  6
SHORT_DASH
 62
6
 10
3.4820494E+001
 20
1.8508493E+002
 11
3.4820494E+001
 21
1.2108493E+002
  0
ARC
  8
3
  6
SHORT_DASH
 62
6
 10
4.8299145E+001
 20
1.8006358E+002
 40
3.0214251
 50
0.0
 51
8.9595139E+001
  0
ARC
  8
3
  6
SHORT_DASH
 62
6
 10
4.8320494E+001
 20
1.2610628E+002
 40
3.0213497
 50
2.7E+002
 51
3.6E+002
  0
LINE
  8
3
  6
SHORT_DASH
 62
6
 10
3.3320494E+001
 20
1.2108493E+002
 11
3.4820494E+001
 21
1.2108493E+002
  0
LINE
  8
3
  6
SHORT_DASH
 62
6
 10
4.8299145E+001
 20
1.2308493E+002
 11
3.4820494E+001
 21
1.2308493E+002
  0
LINE
  8
3
  6
SHORT_DASH
 62
6
 10
5.1320494E+001
 20
1.8006358E+002
 11
5.1320494E+001
 21
1.2608493E+002
  0
LINE
  8
3
  6
SHORT_DASH
 62
6
 10
4.8299145E+001
 20
1.8308493E+002
 11
3.4820494E+001
 21
1.8308493E+002
  0
LINE
  8
3
  6
SHORT_DASH
 62
6
 10
3.2820494E+001
 20
1.8308493E+002
 11
3.2820494E+001
 21
1.8158493E+002
  0
LINE
  8
3
  6
SHORT_DASH
 62
6
 10
3.3320494E+001
 20
1.8508493E+002
 11
3.4820494E+001
 21
1.8508493E+002
  0
LINE
  8
3
  6
SHORT_DASH
 62
6
 10
3.2820494E+001
 20
1.8308493E+002
 11
3.3320494E+001
 21
1.8308493E+002
  0
LINE
  8
3
  6
SHORT_DASH
 62
6
 10
3.2820494E+001
 20
1.8158493E+002
 11
3.3320494E+001
 21
1.8158493E+002
  0
LINE
  8
3
  6
SHORT_DASH
 62
6
 10
3.2820494E+001
 20
1.2458493E+002
 11
3.3320494E+001
 21
1.2458493E+002
  0
LINE
  8
3
  6
SHORT_DASH
 62
6
 10
3.2820494E+001
 20
1.2308493E+002
 11
3.3320494E+001
 21
1.2308493E+002
  0
LINE
  8
3
  6
SHORT_DASH
 62
6
 10
3.2820494E+001
 20
1.2458493E+002
 11
3.2820494E+001
 21
1.2308493E+002
  0
LINE
  8
2
  6
CENTERLINE
 62
3
 10
1.4721338E+002
 20
2.0758493E+002
 11
1.5448828E+002
 21
2.0758493E+002
  0
LINE
  8
2
  6
CENTERLINE
 62
3
 10
1.430598E+002
 20
1.7608493E+002
 11
1.5440672E+002
 21
1.7608493E+002
  0
LINE
  8
2
  6
CENTERLINE
 62
3
 10
1.4276681E+002
 20
1.3008493E+002
 11
1.5469971E+002
 21
1.3008493E+002
  0
LINE
  8
2
  6
CENTERLINE
 62
3
 10
1.4636332E+002
 20
9.8584934E+001
 11
1.5476897E+002
 21
9.8584934E+001
  0
LINE
  8
2
  6
SHORT_DASH
 62
6
 10
1.5249725E+002
 20
1.6908493E+002
 11
1.4949725E+002
 21
1.6908493E+002
  0
LINE
  8
2
  6
SHORT_DASH
 62
6
 10
1.4949725E+002
 20
1.6608493E+002
 11
1.6449725E+002
 21
1.6608493E+002
  0
LINE
  8
2
  6
SHORT_DASH
 62
6
 10
1.4949725E+002
 20
1.3998493E+002
 11
1.6449725E+002
 21
1.3998493E+002
  0
LINE
  8
2
  6
SHORT_DASH
 62
6
 10
1.4439725E+002
 20
1.3173493E+002
 11
1.4439725E+002
 21
1.2843493E+002
  0
LINE
  8
2
  6
SHORT_DASH
 62
6
 10
1.4439725E+002
 20
1.3173493E+002
 11
1.4474725E+002
 21
1.3208493E+002
  0
LINE
  8
2
  6
SHORT_DASH
 62
6
 10
1.4474725E+002
 20
1.3208493E+002
 11
1.4474725E+002
 21
1.2808493E+002
  0
LINE
  8
2
  6
SHORT_DASH
 62
6
 10
1.4474725E+002
 20
1.2808493E+002
 11
1.4439725E+002
 21
1.2843493E+002
  0
LINE
  8
2
  6
SHORT_DASH
 62
6
 10
1.4474725E+002
 20
1.3208493E+002
 11
1.5019725E+002
 21
1.3208493E+002
  0
LINE
  8
2
  6
SHORT_DASH
 62
6
 10
1.4474725E+002
 20
1.2808493E+002
 11
1.5019725E+002
 21
1.2808493E+002
  0
LINE
  8
2
  6
SHORT_DASH
 62
6
 10
1.5019725E+002
 20
1.3208493E+002
 11
1.5019725E+002
 21
1.2808493E+002
  0
LINE
  8
2
  6
SHORT_DASH
 62
6
 10
1.5019725E+002
 20
1.3208493E+002
 11
1.5194725E+002
 21
1.3383493E+002
  0
LINE
  8
2
  6
SHORT_DASH
 62
6
 10
1.5019725E+002
 20
1.2808493E+002
 11
1.5194725E+002
 21
1.2633493E+002
  0
LINE
  8
2
  6
SHORT_DASH
 62
6
 10
1.5194725E+002
 20
1.2633493E+002
 11
1.5194725E+002
 21
1.3383493E+002
  0
LINE
  8
2
  6
SHORT_DASH
 62
6
 10
1.5239725E+002
 20
1.3383493E+002
 11
1.5239725E+002
 21
1.2633493E+002
  0
LINE
  8
2
  6
SHORT_DASH
 62
6
 10
1.5194725E+002
 20
1.2633493E+002
 11
1.5239725E+002
 21
1.2633493E+002
  0
LINE
  8
2
  6
SHORT_DASH
 62
6
 10
1.5194725E+002
 20
1.3383493E+002
 11
1.5239725E+002
 21
1.3383493E+002
  0
LINE
  8
2
  6
SHORT_DASH
 62
6
 10
1.5039725E+002
 20
1.3123023E+002
 11
1.5039725E+002
 21
1.2893963E+002
  0
LINE
  8
2
  6
SHORT_DASH
 62
6
 10
1.5039725E+002
 20
1.3123023E+002
 11
1.5239725E+002
 21
1.3238493E+002
  0
LINE
  8
2
  6
SHORT_DASH
 62
6
 10
1.5039725E+002
 20
1.3048496E+002
 11
1.5249725E+002
 21
1.3065993E+002
  0
LINE
  8
2
  6
SHORT_DASH
 62
6
 10
1.5039725E+002
 20
1.2968491E+002
 11
1.5239725E+002
 21
1.2951782E+002
  0
LINE
  8
2
  6
SHORT_DASH
 62
6
 10
1.5039725E+002
 20
1.2893963E+002
 11
1.5239725E+002
 21
1.277679E+002
  0
LINE
  8
2
  6
SHORT_DASH
 62
6
 10
1.4439725E+002
 20
1.7773493E+002
 11
1.4439725E+002
 21
1.7443493E+002
  0
LINE
  8
2
  6
SHORT_DASH
 62
6
 10
1.4474725E+002
 20
1.7808493E+002
 11
1.4474725E+002
 21
1.7408493E+002
  0
LINE
  8
2
  6
SHORT_DASH
 62
6
 10
1.4439725E+002
 20
1.7773493E+002
 11
1.4474725E+002
 21
1.7808493E+002
  0
LINE
  8
2
  6
SHORT_DASH
 62
6
 10
1.4439725E+002
 20
1.7443493E+002
 11
1.4474725E+002
 21
1.7408493E+002
  0
LINE
  8
2
  6
SHORT_DASH
 62
6
 10
1.4474725E+002
 20
1.7808493E+002
 11
1.5019725E+002
 21
1.7808493E+002
  0
LINE
  8
2
  6
SHORT_DASH
 62
6
 10
1.4474725E+002
 20
1.7408493E+002
 11
1.5019725E+002
 21
1.7408493E+002
  0
LINE
  8
2
  6
SHORT_DASH
 62
6
 10
1.5019725E+002
 20
1.7808493E+002
 11
1.5019725E+002
 21
1.7408493E+002
  0
LINE
  8
2
  6
SHORT_DASH
 62
6
 10
1.5019725E+002
 20
1.7808493E+002
 11
1.5194725E+002
 21
1.7983493E+002
  0
LINE
  8
2
  6
SHORT_DASH
 62
6
 10
1.5019725E+002
 20
1.7408493E+002
 11
1.5194725E+002
 21
1.7233493E+002
  0
LINE
  8
2
  6
SHORT_DASH
 62
6
 10
1.5194725E+002
 20
1.7983493E+002
 11
1.5194725E+002
 21
1.7233493E+002
  0
LINE
  8
2
  6
SHORT_DASH
 62
6
 10
1.5239725E+002
 20
1.7983493E+002
 11
1.5194725E+002
 21
1.7983493E+002
  0
LINE
  8
2
  6
SHORT_DASH
 62
6
 10
1.5239725E+002
 20
1.7983493E+002
 11
1.5239725E+002
 21
1.7233493E+002
  0
LINE
  8
2
  6
SHORT_DASH
 62
6
 10
1.5239725E+002
 20
1.7233493E+002
 11
1.5194725E+002
 21
1.7233493E+002
  0
LINE
  8
2
  6
SHORT_DASH
 62
6
 10
1.5039725E+002
 20
1.7723023E+002
 11
1.5039725E+002
 21
1.7493963E+002
  0
LINE
  8
2
  6
SHORT_DASH
 62
6
 10
1.5039725E+002
 20
1.7723023E+002
 11
1.5239725E+002
 21
1.7838594E+002
  0
LINE
  8
2
  6
SHORT_DASH
 62
6
 10
1.5039725E+002
 20
1.7648496E+002
 11
1.5239725E+002
 21
1.7665993E+002
  0
LINE
  8
2
  6
SHORT_DASH
 62
6
 10
1.5039725E+002
 20
1.7568491E+002
 11
1.5239725E+002
 21
1.7550993E+002
  0
LINE
  8
2
  6
SHORT_DASH
 62
6
 10
1.5039725E+002
 20
1.7493963E+002
 11
1.5239725E+002
 21
1.7378493E+002
  0
LINE
  8
2
  6
SHORT_DASH
 62
6
 10
1.5249725E+002
 20
1.3708493E+002
 11
1.4949725E+002
 21
1.3708493E+002
  0
LINE
  8
2
  6
SHORT_DASH
 62
6
 10
1.5019725E+002
 20
1.7773492E+002
 11
1.4439724E+002
 21
1.7773492E+002
  0
LINE
  8
2
  6
SHORT_DASH
 62
6
 10
1.5019725E+002
 20
1.7443494E+002
 11
1.4439725E+002
 21
1.7443494E+002
  0
LINE
  8
2
  6
SHORT_DASH
 62
6
 10
1.5019725E+002
 20
1.3173493E+002
 11
1.4439725E+002
 21
1.3173493E+002
  0
LINE
  8
2
  6
SHORT_DASH
 62
6
 10
1.5019725E+002
 20
1.2843493E+002
 11
1.4439725E+002
 21
1.2843493E+002
  0
LINE
  8
2
  6
SHORT_DASH
 62
6
 10
1.5004725E+002
 20
2.1033493E+002
 11
1.5004725E+002
 21
2.0483493E+002
  0
LINE
  8
2
  6
SHORT_DASH
 62
6
 10
1.5004725E+002
 20
2.0483493E+002
 11
1.5249725E+002
 21
2.0238493E+002
  0
LINE
  8
2
  6
SHORT_DASH
 62
6
 10
1.5004725E+002
 20
2.1033493E+002
 11
1.5249725E+002
 21
2.1278493E+002
  0
LINE
  8
2
  6
SHORT_DASH
 62
6
 10
1.5004725E+002
 20
2.1033493E+002
 11
1.4949725E+002
 21
2.1033493E+002
  0
LINE
  8
2
  6
SHORT_DASH
 62
6
 10
1.5004725E+002
 20
2.0483493E+002
 11
1.4949725E+002
 21
2.0483493E+002
  0
LINE
  8
2
  6
SHORT_DASH
 62
6
 10
1.5004725E+002
 20
1.0133493E+002
 11
1.5004725E+002
 21
9.5834934E+001
  0
LINE
  8
2
  6
SHORT_DASH
 62
6
 10
1.5004725E+002
 20
9.5834934E+001
 11
1.4949725E+002
 21
9.5834934E+001
  0
LINE
  8
2
  6
SHORT_DASH
 62
6
 10
1.5004725E+002
 20
1.0133493E+002
 11
1.4949725E+002
 21
1.0133493E+002
  0
LINE
  8
2
  6
SHORT_DASH
 62
6
 10
1.5004725E+002
 20
1.0133493E+002
 11
1.5249725E+002
 21
1.0378493E+002
  0
LINE
  8
2
  6
SHORT_DASH
 62
6
 10
1.5004725E+002
 20
9.5834934E+001
 11
1.5249725E+002
 21
9.3384934E+001
  0
ARC
  8
2
  6
CONTINUOUS
 62
30
 10
1.1612538E+002
 20
1.4358493E+002
 40
4.028125
 50
1.5425E+002
 51
1.8E+002
  0
ARC
  8
2
  6
CONTINUOUS
 62
30
 10
1.1612538E+002
 20
1.4358493E+002
 40
4.028125
 50
1.8E+002
 51
2.0575E+002
  0
ARC
  8
2
  6
CONTINUOUS
 62
30
 10
1.1612538E+002
 20
1.6258493E+002
 40
4.028125
 50
1.5425E+002
 51
1.8E+002
  0
ARC
  8
2
  6
CONTINUOUS
 62
30
 10
1.1612538E+002
 20
1.6258493E+002
 40
4.028125
 50
1.8E+002
 51
2.0575E+002
  0
DIMENSION
  8
2
  6
CONTINUOUS
 62
3
  2
*D5724
  3
DSTYLE1
 10
1.0507394E+002
 20
1.8508493E+002
 11
1.0207294E+002
 21
1.5249932E+002
 70
128
 13
1.1349725E+002
 23
1.2108493E+002
 14
1.1349725E+002
 24
1.8508493E+002
 40
3.0
 50
9.0E+001
1001
ACAD
1000
DSTYLE
1002
{
1070
173
1070
0
1070
5
1000
_AH1
1002
}
  0
DIMENSION
  8
2
  6
CONTINUOUS
 62
3
  2
*D5728
  3
DSTYLE1
 10
1.7414786E+002
 20
1.3708493E+002
 11
1.7114686E+002
 21
1.5376396E+002
 70
128
 13
1.6349725E+002
 23
1.6908493E+002
 14
1.6349725E+002
 24
1.3708493E+002
 40
3.0
 50
9.0E+001
1001
ACAD
1000
DSTYLE
1002
{
1070
173
1070
0
1070
5
1000
_AH1
1002
}
  0
DIMENSION
  8
2
  6
CONTINUOUS
 62
3
  2
*D5731
  3
DSTYLE1
 10
1.5249725E+002
 20
7.6738933E+001
 11
1.5863542E+002
 21
7.9739933E+001
 70
128
 13
1.4949725E+002
 23
9.8084934E+001
 14
1.5249725E+002
 24
9.8084934E+001
 40
3.0
 50
0.0
1001
ACAD
1000
DSTYLE
1002
{
1070
173
1070
0
1070
5
1000
_AH1
1002
}
  0
DIMENSION
  8
2
  6
CONTINUOUS
 62
3
  2
*D5732
  3
DSTYLE1
 10
1.4949725E+002
 20
7.6738933E+001
 11
1.3116224E+002
 21
7.9739933E+001
 70
128
 13
1.1249725E+002
 23
1.2208493E+002
 14
1.4949725E+002
 24
9.8084934E+001
 40
3.0
 50
0.0
1001
ACAD
1000
DSTYLE
1002
{
1070
173
1070
0
1070
5
1000
_AH1
1002
}
  0
DIMENSION
  8
3
  6
CONTINUOUS
 62
3
  2
*D5738
  3
DSTYLE1
 10
6.3149748E+001
 20
1.4008493E+002
 11
6.0148748E+001
 21
1.5362866E+002
 70
128
 13
4.8320494E+001
 23
1.6608493E+002
 14
4.8320494E+001
 24
1.4008493E+002
 40
3.0
 50
9.0E+001
1001
ACAD
1000
DSTYLE
1002
{
1070
173
1070
0
1070
5
1000
_AH1
1002
}
  0
DIMENSION
  8
4
  6
CONTINUOUS
 62
3
  2
*D5743
  3
DSTYLE1
 10
9.4721427E+001
 20
2.7355762E+002
 11
9.1720427E+001
 21
2.8378911E+002
 70
128
 13
1.4949725E+002
 23
2.7655762E+002
 14
1.1349725E+002
 24
2.7355762E+002
 40
3.0
 50
9.0E+001
1001
ACAD
1000
DSTYLE
1002
{
1070
173
1070
0
1070
5
1000
_AH1
1002
}
  0
INSERT
  2
M11
  8
1
 10
1.4849959E+002
 20
5.36425E+001
  0
VIEWPORT
 67
1
  8
0
  6
CONTINUOUS
 62
3
100
AcDbViewport
 10
1.05E+002
 20
1.485E+002
 30
0.0
 40
2.97E+002
 41
2.97E+002
 68
1
 69
1
1001
ACAD
1000
MVIEW
1002
{
1070
16
1010
0.0
1020
0.0
1030
0.0
1010
0.0
1020
0.0
1030
1.0
1040
0.0
1040
2.97E+002
1040
5.775E+001
1040
1.485E+002
1040
5.0E+001
1040
0.0
1040
0.0
1070
0
1070
100
1070
1
1070
0
1070
0
1070
0
1070
0
1070
0
1040
0.0
1040
0.0
1040
0.0
1040
5.0E-001
1040
5.0E-001
1040
5.0E-001
1040
5.0E-001
1070
0
1002
{
1002
}
1002
}
  0
VIEWPORT
 67
1
  8
0
  6
CONTINUOUS
 62
3
100
AcDbViewport
 10
1.05E+002
 20
1.485E+002
 30
0.0
 40
2.1E+002
 41
2.97E+002
 68
2
 69
2
1001
ACAD
1000
MVIEW
1002
{
1070
16
1010
0.0
1020
0.0
1030
0.0
1010
0.0
1020
0.0
1030
1.0
1040
0.0
1040
2.97E+002
1040
1.05E+002
1040
1.485E+002
1040
5.0E+001
1040
0.0
1040
0.0
1070
0
1070
100
1070
1
1070
0
1070
0
1070
0
1070
0
1070
0
1040
0.0
1040
0.0
1040
0.0
1040
5.0E-001
1040
5.0E-001
1040
5.0E-001
1040
5.0E-001
1070
0
1002
{
1003
4
1003
3
1003
2
1002
}
1002
}
  0
VIEWPORT
 67
1
  8
0
  6
CONTINUOUS
 62
3
100
AcDbViewport
 10
1.4379113E+002
 20
1.4709879E+002
 30
0.0
 40
1.0384363E+002
 41
1.6355573E+002
 68
3
 69
3
1001
ACAD
1000
MVIEW
1002
{
1070
16
1010
0.0
1020
0.0
1030
0.0
1010
0.0
1020
0.0
1030
1.0
1040
0.0
1040
1.6355573E+002
1040
1.4379113E+002
1040
1.4709879E+002
1040
5.0E+001
1040
0.0
1040
0.0
1070
0
1070
100
1070
1
1070
0
1070
0
1070
0
1070
0
1070
0
1040
0.0
1040
0.0
1040
0.0
1040
5.0E-001
1040
5.0E-001
1040
5.0E-001
1040
5.0E-001
1070
0
1002
{
1003
4
1003
3
1003
1
1002
}
1002
}
  0
VIEWPORT
 67
1
  8
0
  6
CONTINUOUS
 62
3
100
AcDbViewport
 10
4.7772901E+001
 20
1.556799E+002
 30
0.0
 40
7.0713283E+001
 41
1.8071795E+002
 68
4
 69
4
1001
ACAD
1000
MVIEW
1002
{
1070
16
1010
0.0
1020
0.0
1030
0.0
1010
0.0
1020
0.0
1030
1.0
1040
0.0
1040
1.8071795E+002
1040
4.7772901E+001
1040
1.556799E+002
1040
5.0E+001
1040
0.0
1040
0.0
1070
0
1070
100
1070
1
1070
0
1070
0
1070
0
1070
0
1070
0
1040
0.0
1040
0.0
1040
0.0
1040
5.0E-001
1040
5.0E-001
1040
5.0E-001
1040
5.0E-001
1070
0
1002
{
1003
4
1003
2
1003
1
1002
}
1002
}
  0
VIEWPORT
 67
1
  8
0
  6
CONTINUOUS
 62
3
100
AcDbViewport
 10
1.3505665E+002
 20
2.5695653E+002
 30
0.0
 40
1.2131258E+002
 41
6.7347079E+001
 68
5
 69
5
1001
ACAD
1000
MVIEW
1002
{
1070
16
1010
0.0
1020
0.0
1030
0.0
1010
0.0
1020
0.0
1030
1.0
1040
0.0
1040
6.7347079E+001
1040
1.3505665E+002
1040
2.5695653E+002
1040
5.0E+001
1040
0.0
1040
0.0
1070
0
1070
100
1070
1
1070
0
1070
0
1070
0
1070
0
1070
0
1040
0.0
1040
0.0
1040
0.0
1040
5.0E-001
1040
5.0E-001
1040
5.0E-001
1040
5.0E-001
1070
0
1002
{
1003
3
1003
2
1003
1
1002
}
1002
}
  0
ENDSEC
  0
EOF
