  0
SECTION
  2
HEADER
  9
$ACADVER
  1
AC1015
  9
$ACADMAINTVER
 70
     6
  9
$DWGCODEPAGE
  3
ANSI_1252
  9
$INSBASE
 10
0.0
 20
0.0
 30
0.0
  9
$EXTMIN
 10
0.0
 20
0.0
 30
0.0
  9
$EXTMAX
 10
420.0
 20
297.0
 30
0.0
  9
$LIMMIN
 10
0.0
 20
0.0
  9
$LIMMAX
 10
420.0
 20
297.0
  9
$ORTHOMODE
 70
     0
  9
$REGENMODE
 70
     1
  9
$FILLMODE
 70
     1
  9
$QTEXTMODE
 70
     0
  9
$MIRRTEXT
 70
     1
  9
$LTSCALE
 40
1.0
  9
$ATTMODE
 70
     1
  9
$TEXTSIZE
 40
3.5
  9
$TRACEWID
 40
1.0
  9
$TEXTSTYLE
  7
Standard
  9
$CLAYER
  8
0
  9
$CELTYPE
  6
ByLayer
  9
$CECOLOR
 62
   256
  9
$CELTSCALE
 40
1.0
  9
$DISPSILH
 70
     0
  9
$DIMSCALE
 40
1.0
  9
$DIMASZ
 40
3.3
  9
$DIMEXO
 40
0.0
  9
$DIMDLI
 40
3.75
  9
$DIMRND
 40
0.0
  9
$DIMDLE
 40
0.0
  9
$DIMEXE
 40
1.0
  9
$DIMTP
 40
0.0
  9
$DIMTM
 40
0.0
  9
$DIMTXT
 40
3.5
  9
$DIMCEN
 40
2.5
  9
$DIMTSZ
 40
0.0
  9
$DIMTOL
 70
     0
  9
$DIMLIM
 70
     0
  9
$DIMTIH
 70
     1
  9
$DIMTOH
 70
     1
  9
$DIMSE1
 70
     0
  9
$DIMSE2
 70
     0
  9
$DIMTAD
 70
     1
  9
$DIMZIN
 70
     0
  9
$DIMBLK
  1

  9
$DIMASO
 70
     1
  9
$DIMSHO
 70
     1
  9
$DIMPOST
  1

  9
$DIMAPOST
  1

  9
$DIMALT
 70
     0
  9
$DIMALTD
 70
     3
  9
$DIMALTF
 40
0.0393700787
  9
$DIMLFAC
 40
1.0
  9
$DIMTOFL
 70
     1
  9
$DIMTVP
 40
0.0
  9
$DIMTIX
 70
     0
  9
$DIMSOXD
 70
     0
  9
$DIMSAH
 70
     0
  9
$DIMBLK1
  1

  9
$DIMBLK2
  1

  9
$DIMSTYLE
  2
ISO-25
  9
$DIMCLRD
 70
     0
  9
$DIMCLRE
 70
     0
  9
$DIMCLRT
 70
     0
  9
$DIMTFAC
 40
1.0
  9
$DIMGAP
 40
1.524
  9
$DIMJUST
 70
     0
  9
$DIMSD1
 70
     0
  9
$DIMSD2
 70
     0
  9
$DIMTOLJ
 70
     0
  9
$DIMTZIN
 70
     0
  9
$DIMALTZ
 70
     0
  9
$DIMALTTZ
 70
     0
  9
$DIMUPT
 70
     0
  9
$DIMDEC
 70
     2
  9
$DIMTDEC
 70
     2
  9
$DIMALTU
 70
     2
  9
$DIMALTTD
 70
     3
  9
$DIMTXSTY
  7
Standard
  9
$DIMAUNIT
 70
     0
  9
$DIMADEC
 70
     2
  9
$DIMALTRND
 40
0.0
  9
$DIMAZIN
 70
     0
  9
$DIMDSEP
 70
    44
  9
$DIMATFIT
 70
     3
  9
$DIMFRAC
 70
     0
  9
$DIMLDRBLK
  1

  9
$DIMLUNIT
 70
     2
  9
$DIMLWD
 70
    -2
  9
$DIMLWE
 70
    -2
  9
$DIMTMOVE
 70
     0
  9
$LUNITS
 70
     2
  9
$LUPREC
 70
     2
  9
$SKETCHINC
 40
1.0
  9
$FILLETRAD
 40
10.0
  9
$AUNITS
 70
     0
  9
$AUPREC
 70
     2
  9
$MENU
  1
.
  9
$ELEVATION
 40
0.0
  9
$PELEVATION
 40
0.0
  9
$THICKNESS
 40
0.0
  9
$LIMCHECK
 70
     0
  9
$CHAMFERA
 40
10.0
  9
$CHAMFERB
 40
10.0
  9
$CHAMFERC
 40
20.0
  9
$CHAMFERD
 40
0.0
  9
$SKPOLY
 70
     0
  9
$TDCREATE
 40
2456051.359167986
  9
$TDUCREATE
 40
2456051.275834653
  9
$TDUPDATE
 40
2456051.359167998
  9
$TDUUPDATE
 40
2456051.275834664
  9
$TDINDWG
 40
0.0000000116
  9
$TDUSRTIMER
 40
0.0000000116
  9
$USRTIMER
 70
     1
  9
$ANGBASE
 50
0.0
  9
$ANGDIR
 70
     0
  9
$PDMODE
 70
     0
  9
$PDSIZE
 40
-1.0
  9
$PLINEWID
 40
0.0
  9
$SPLFRAME
 70
     0
  9
$SPLINETYPE
 70
     6
  9
$SPLINESEGS
 70
     8
  9
$HANDSEED
  5
59E
  9
$SURFTAB1
 70
     6
  9
$SURFTAB2
 70
     6
  9
$SURFTYPE
 70
     6
  9
$SURFU
 70
     6
  9
$SURFV
 70
     6
  9
$UCSBASE
  2

  9
$UCSNAME
  2

  9
$UCSORG
 10
0.0
 20
0.0
 30
0.0
  9
$UCSXDIR
 10
1.0
 20
0.0
 30
0.0
  9
$UCSYDIR
 10
0.0
 20
1.0
 30
0.0
  9
$UCSORTHOREF
  2

  9
$UCSORTHOVIEW
 70
     0
  9
$UCSORGTOP
 10
0.0
 20
0.0
 30
0.0
  9
$UCSORGBOTTOM
 10
0.0
 20
0.0
 30
0.0
  9
$UCSORGLEFT
 10
0.0
 20
0.0
 30
0.0
  9
$UCSORGRIGHT
 10
0.0
 20
0.0
 30
0.0
  9
$UCSORGFRONT
 10
0.0
 20
0.0
 30
0.0
  9
$UCSORGBACK
 10
0.0
 20
0.0
 30
0.0
  9
$PUCSBASE
  2

  9
$PUCSNAME
  2

  9
$PUCSORG
 10
0.0
 20
0.0
 30
0.0
  9
$PUCSXDIR
 10
1.0
 20
0.0
 30
0.0
  9
$PUCSYDIR
 10
0.0
 20
1.0
 30
0.0
  9
$PUCSORTHOREF
  2

  9
$PUCSORTHOVIEW
 70
     0
  9
$PUCSORGTOP
 10
0.0
 20
0.0
 30
0.0
  9
$PUCSORGBOTTOM
 10
0.0
 20
0.0
 30
0.0
  9
$PUCSORGLEFT
 10
0.0
 20
0.0
 30
0.0
  9
$PUCSORGRIGHT
 10
0.0
 20
0.0
 30
0.0
  9
$PUCSORGFRONT
 10
0.0
 20
0.0
 30
0.0
  9
$PUCSORGBACK
 10
0.0
 20
0.0
 30
0.0
  9
$USERI1
 70
     0
  9
$USERI2
 70
     0
  9
$USERI3
 70
     0
  9
$USERI4
 70
     0
  9
$USERI5
 70
     0
  9
$USERR1
 40
0.0
  9
$USERR2
 40
0.0
  9
$USERR3
 40
0.0
  9
$USERR4
 40
0.0
  9
$USERR5
 40
0.0
  9
$WORLDVIEW
 70
     1
  9
$SHADEDGE
 70
     3
  9
$SHADEDIF
 70
    70
  9
$TILEMODE
 70
     1
  9
$MAXACTVP
 70
    64
  9
$PINSBASE
 10
0.0
 20
0.0
 30
0.0
  9
$PLIMCHECK
 70
     0
  9
$PEXTMIN
 10
1.0000000000E+20
 20
1.0000000000E+20
 30
1.0000000000E+20
  9
$PEXTMAX
 10
-1.0000000000E+20
 20
-1.0000000000E+20
 30
-1.0000000000E+20
  9
$PLIMMIN
 10
0.0
 20
0.0
  9
$PLIMMAX
 10
420.0
 20
297.0
  9
$UNITMODE
 70
     0
  9
$VISRETAIN
 70
     1
  9
$PLINEGEN
 70
     0
  9
$PSLTSCALE
 70
     1
  9
$TREEDEPTH
 70
  3020
  9
$CMLSTYLE
  2
Standard
  9
$CMLJUST
 70
     0
  9
$CMLSCALE
 40
20.0
  9
$PROXYGRAPHICS
 70
     1
  9
$MEASUREMENT
 70
     1
  9
$CELWEIGHT
370
    -1
  9
$ENDCAPS
280
     0
  9
$JOINSTYLE
280
     0
  9
$LWDISPLAY
290
     1
  9
$INSUNITS
 70
     4
  9
$HYPERLINKBASE
  1

  9
$STYLESHEET
  1

  9
$XEDIT
290
     1
  9
$CEPSNTYPE
380
     0
  9
$PSTYLEMODE
290
     1
  9
$FINGERPRINTGUID
  2
{D96E13B3-99ED-4494-BBF9-2425B6E52B8C}
  9
$VERSIONGUID
  2
{FAEB1C32-E019-11D5-929B-00C0DF256EC4}
  9
$EXTNAMES
290
     1
  9
$PSVPSCALE
 40
0.0
  9
$OLESTARTUP
290
     0
  0
ENDSEC
  0
SECTION
  2
CLASSES
  0
CLASS
  1
ACDBDICTIONARYWDFLT
  2
AcDbDictionaryWithDefault
  3
ObjectDBX Classes
 90
        0
280
     0
281
     0
  0
CLASS
  1
VISUALSTYLE
  2
AcDbVisualStyle
  3
ObjectDBX Classes
 90
     4095
280
     0
281
     0
  0
CLASS
  1
DICTIONARYVAR
  2
AcDbDictionaryVar
  3
ObjectDBX Classes
 90
        0
280
     0
281
     0
  0
CLASS
  1
ACDBPLACEHOLDER
  2
AcDbPlaceHolder
  3
ObjectDBX Classes
 90
        0
280
     0
281
     0
  0
CLASS
  1
LAYOUT
  2
AcDbLayout
  3
ObjectDBX Classes
 90
        0
280
     0
281
     0
  0
ENDSEC
  0
SECTION
  2
TABLES
  0
TABLE
  2
VPORT
  5
8
330
0
100
AcDbSymbolTable
 70
     1
  0
VPORT
  5
29
330
8
100
AcDbSymbolTableRecord
100
AcDbViewportTableRecord
  2
*Active
 70
     0
 10
0.0
 20
0.0
 11
1.0
 21
1.0
 12
210.0
 22
148.5
 13
0.0
 23
0.0
 14
10.0
 24
10.0
 15
10.0
 25
10.0
 16
0.0
 26
0.0
 36
1.0
 17
0.0
 27
0.0
 37
0.0
 40
297.0
 41
1.4141414141
 42
50.0
 43
0.0
 44
0.0
 50
0.0
 51
0.0
 71
     0
 72
  2000
 73
     1
 74
     3
 75
     0
 76
     0
 77
     0
 78
     0
281
     0
 65
     1
110
0.0
120
0.0
130
0.0
111
1.0
121
0.0
131
0.0
112
0.0
122
1.0
132
0.0
 79
     0
146
0.0
  0
ENDTAB
  0
TABLE
  2
LTYPE
  5
5
330
0
100
AcDbSymbolTable
 70
     6
  0
LTYPE
  5
14
330
5
100
AcDbSymbolTableRecord
100
AcDbLinetypeTableRecord
  2
ByBlock
 70
     0
  3

 72
    65
 73
     0
 40
0.0
  0
LTYPE
  5
15
330
5
100
AcDbSymbolTableRecord
100
AcDbLinetypeTableRecord
  2
ByLayer
 70
     0
  3

 72
    65
 73
     0
 40
0.0
  0
LTYPE
  5
16
330
5
100
AcDbSymbolTableRecord
100
AcDbLinetypeTableRecord
  2
Continuous
 70
     0
  3
Solid line
 72
    65
 73
     0
 40
0.0
  0
LTYPE
  5
3B
330
5
100
AcDbSymbolTableRecord
100
AcDbLinetypeTableRecord
  2
HIDDEN
 70
     0
  3
Hidden __ __ __ __ __ __ __ __ __ __ __ __ __ __
 72
    65
 73
     2
 40
1.905
 49
1.27
 74
     0
 49
-0.635
 74
     0
  0
LTYPE
  5
3C
330
5
100
AcDbSymbolTableRecord
100
AcDbLinetypeTableRecord
  2
PHANTOM
 70
     0
  3
Phantom ______  __  __  ______  __  __  ______
 72
    65
 73
     6
 40
12.7
 49
6.35
 74
     0
 49
-1.27
 74
     0
 49
1.27
 74
     0
 49
-1.27
 74
     0
 49
1.27
 74
     0
 49
-1.27
 74
     0
  0
LTYPE
  5
3D
330
5
100
AcDbSymbolTableRecord
100
AcDbLinetypeTableRecord
  2
CENTER
 70
     0
  3
Center ____ _ ____ _ ____ _ ____ _ ____ _ ____
 72
    65
 73
     4
 40
10.16
 49
6.35
 74
     0
 49
-1.27
 74
     0
 49
1.27
 74
     0
 49
-1.27
 74
     0
  0
LTYPE
  5
3E
330
5
100
AcDbSymbolTableRecord
100
AcDbLinetypeTableRecord
  2
CENTERX2
 70
     0
  3
Center (2x) ________  __  ________  __  _____
 72
    65
 73
     4
 40
20.32
 49
12.7
 74
     0
 49
-2.54
 74
     0
 49
2.54
 74
     0
 49
-2.54
 74
     0
  0
LTYPE
  5
3F
330
5
100
AcDbSymbolTableRecord
100
AcDbLinetypeTableRecord
  2
DOT2
 70
     0
  3
Dot (.5x) ........................................
 72
    65
 73
     2
 40
0.635
 49
0.0
 74
     0
 49
-0.635
 74
     0
  0
ENDTAB
  0
TABLE
  2
LAYER
  5
2
330
0
100
AcDbSymbolTable
 70
     9
  0
LAYER
  5
10
330
2
100
AcDbSymbolTableRecord
100
AcDbLayerTableRecord
  2
0
 70
     0
 62
     7
  6
Continuous
370
    -3
390
F
  0
LAYER
  5
40
330
2
100
AcDbSymbolTableRecord
100
AcDbLayerTableRecord
  2
VORLAGE_TEXT
 70
     0
 62
     7
  6
Continuous
370
    -3
390
F
  0
LAYER
  5
41
330
2
100
AcDbSymbolTableRecord
100
AcDbLayerTableRecord
  2
VORLAGE_BEMASSUNG
 70
     0
 62
    -5
  6
Continuous
370
    -3
390
F
  0
LAYER
  5
42
330
2
100
AcDbSymbolTableRecord
100
AcDbLayerTableRecord
  2
TEXT
 70
     0
 62
     7
  6
Continuous
370
    -3
390
F
  0
LAYER
  5
43
330
2
100
AcDbSymbolTableRecord
100
AcDbLayerTableRecord
  2
LINIEN-DICK
 70
     0
 62
     7
  6
Continuous
370
    30
390
F
  0
LAYER
  5
44
330
2
100
AcDbSymbolTableRecord
100
AcDbLayerTableRecord
  2
LINIEN-NORMAL
 70
     0
 62
     7
  6
Continuous
370
    15
390
F
  0
LAYER
  5
45
330
2
100
AcDbSymbolTableRecord
100
AcDbLayerTableRecord
  2
LINIEN-DÜNN
 70
     0
 62
     7
  6
Continuous
370
    -3
390
F
  0
LAYER
  5
46
330
2
100
AcDbSymbolTableRecord
100
AcDbLayerTableRecord
  2
TEXT-DEUTSCH
 70
     0
 62
     7
  6
Continuous
370
    -3
390
F
  0
LAYER
  5
47
330
2
100
AcDbSymbolTableRecord
100
AcDbLayerTableRecord
  2
TEXT-ENGLISCH
 70
     0
 62
    -7
  6
Continuous
370
    -3
390
F
  0
ENDTAB
  0
TABLE
  2
STYLE
  5
3
330
0
100
AcDbSymbolTable
 70
     3
  0
STYLE
  5
11
330
3
100
AcDbSymbolTableRecord
100
AcDbTextStyleTableRecord
  2
Standard
 70
     0
 40
0.0
 41
1.0
 50
0.0
 71
     0
 42
2.5
  3
txt
  4

  0
STYLE
  5
13D
330
3
100
AcDbSymbolTableRecord
100
AcDbTextStyleTableRecord
  2
SLDTEXTSTYLE0
 70
     0
 40
0.0
 41
0.7
 50
0.0
 71
     0
 42
0.2
  3
TXT
  4

  0
STYLE
  5
169
330
3
100
AcDbSymbolTableRecord
100
AcDbTextStyleTableRecord
  2
SLDTEXTSTYLE1
 70
     0
 40
0.0
 41
0.605
 50
0.0
 71
     0
 42
0.2
  3
TXT
  4

  0
ENDTAB
  0
TABLE
  2
VIEW
  5
6
330
0
100
AcDbSymbolTable
 70
     0
  0
ENDTAB
  0
TABLE
  2
UCS
  5
7
330
0
100
AcDbSymbolTable
 70
     0
  0
ENDTAB
  0
TABLE
  2
APPID
  5
9
330
0
100
AcDbSymbolTable
 70
     1
  0
APPID
  5
12
330
9
100
AcDbSymbolTableRecord
100
AcDbRegAppTableRecord
  2
ACAD
 70
     0
  0
ENDTAB
  0
TABLE
  2
DIMSTYLE
  5
A
330
0
100
AcDbSymbolTable
 70
     6
100
AcDbDimStyleTable
  0
DIMSTYLE
105
27
330
A
100
AcDbSymbolTableRecord
100
AcDbDimStyleTableRecord
  2
ISO-25
 70
     0
 41
2.5
 42
0.625
 43
3.75
 44
1.25
 73
     0
 74
     0
 77
     1
 78
     8
140
2.5
141
2.5
143
0.0393700787
147
0.625
171
     3
172
     1
271
     2
272
     2
274
     3
278
    44
283
     0
284
     8
340
11
  0
DIMSTYLE
105
288
102
{ACAD_REACTORS
330
287
330
292
330
2AA
330
2CD
330
2D7
330
2E1
330
2EB
330
2F5
330
3CC
330
3E1
330
58F
102
}
330
A
100
AcDbSymbolTableRecord
100
AcDbDimStyleTableRecord
  2
SLDDIMSTYLE0
 70
     0
 41
3.3
 44
0.0
 45
0.000000001
 73
     0
 74
     0
 77
     2
 78
    12
140
3.5
147
0.875
173
     1
271
     2
272
     2
284
    12
340
169
  0
DIMSTYLE
105
29D
102
{ACAD_REACTORS
330
29C
330
2C1
330
3D6
102
}
330
A
100
AcDbSymbolTableRecord
100
AcDbDimStyleTableRecord
  2
SLDDIMSTYLE1
 70
     0
 41
3.3
 44
0.0
 45
0.000000001
 73
     0
 74
     0
 77
     2
 78
    12
140
3.5
147
0.875
173
     1
271
     2
272
     2
284
    12
340
169
  0
DIMSTYLE
105
2B7
102
{ACAD_REACTORS
330
2B6
102
}
330
A
100
AcDbSymbolTableRecord
100
AcDbDimStyleTableRecord
  2
SLDDIMSTYLE2
 70
     0
 41
3.3
 44
0.0
 73
     0
 74
     0
 77
     2
 78
    12
140
3.5
147
0.875
173
     1
179
     2
272
     2
284
    12
340
169
  0
DIMSTYLE
105
3EB
102
{ACAD_REACTORS
330
3EA
102
}
330
A
100
AcDbSymbolTableRecord
100
AcDbDimStyleTableRecord
  2
SLDDIMSTYLE3
 70
     0
 41
3.3
 44
0.0
 45
0.000000001
 73
     0
 74
     0
 77
     2
 78
    12
140
3.5
147
0.875
172
     1
173
     1
271
     2
272
     2
284
    12
340
169
  0
DIMSTYLE
105
585
102
{ACAD_REACTORS
330
584
102
}
330
A
100
AcDbSymbolTableRecord
100
AcDbDimStyleTableRecord
  2
SLDDIMSTYLE4
 70
     0
 41
3.3
 44
0.0
 45
0.000000001
 73
     0
 74
     0
 77
     2
 78
    12
140
3.5
147
0.875
173
     1
271
     0
272
     2
284
    12
340
169
  0
ENDTAB
  0
TABLE
  2
BLOCK_RECORD
  5
1
330
0
100
AcDbSymbolTable
 70
    39
  0
BLOCK_RECORD
  5
1F
330
1
100
AcDbSymbolTableRecord
100
AcDbBlockTableRecord
  2
*Model_Space
340
22
  0
BLOCK_RECORD
  5
1B
330
1
100
AcDbSymbolTableRecord
100
AcDbBlockTableRecord
  2
*Paper_Space
340
1E
  0
BLOCK_RECORD
  5
23
330
1
100
AcDbSymbolTableRecord
100
AcDbBlockTableRecord
  2
*Paper_Space0
340
26
  0
BLOCK_RECORD
  5
48
330
1
100
AcDbSymbolTableRecord
100
AcDbBlockTableRecord
  2
effeff Logo-0015_2
340
0
102
{BLKREFS
331
143
102
}
  0
BLOCK_RECORD
  5
137
330
1
100
AcDbSymbolTableRecord
100
AcDbBlockTableRecord
  2
effeff Logo fuer Schriftkopf
340
0
102
{BLKREFS
331
168
102
}
  0
BLOCK_RECORD
  5
13A
330
1
100
AcDbSymbolTableRecord
100
AcDbBlockTableRecord
  2
SW_NOTE_0
340
0
102
{BLKREFS
331
142
102
}
  0
BLOCK_RECORD
  5
16C
330
1
100
AcDbSymbolTableRecord
100
AcDbBlockTableRecord
  2
SW_NOTE_1
340
0
102
{BLKREFS
331
171
102
}
  0
BLOCK_RECORD
  5
175
330
1
100
AcDbSymbolTableRecord
100
AcDbBlockTableRecord
  2
SW_NOTE_2
340
0
102
{BLKREFS
331
17A
102
}
  0
BLOCK_RECORD
  5
17B
330
1
100
AcDbSymbolTableRecord
100
AcDbBlockTableRecord
  2
SW_NOTE_3
340
0
102
{BLKREFS
331
180
102
}
  0
BLOCK_RECORD
  5
181
330
1
100
AcDbSymbolTableRecord
100
AcDbBlockTableRecord
  2
SW_NOTE_4
340
0
102
{BLKREFS
331
186
102
}
  0
BLOCK_RECORD
  5
187
330
1
100
AcDbSymbolTableRecord
100
AcDbBlockTableRecord
  2
SW_NOTE_5
340
0
102
{BLKREFS
331
18C
102
}
  0
BLOCK_RECORD
  5
18D
330
1
100
AcDbSymbolTableRecord
100
AcDbBlockTableRecord
  2
SW_NOTE_6
340
0
102
{BLKREFS
331
192
102
}
  0
BLOCK_RECORD
  5
193
330
1
100
AcDbSymbolTableRecord
100
AcDbBlockTableRecord
  2
SW_NOTE_7
340
0
102
{BLKREFS
331
198
102
}
  0
BLOCK_RECORD
  5
199
330
1
100
AcDbSymbolTableRecord
100
AcDbBlockTableRecord
  2
SW_NOTE_8
340
0
102
{BLKREFS
331
19E
102
}
  0
BLOCK_RECORD
  5
1AA
330
1
100
AcDbSymbolTableRecord
100
AcDbBlockTableRecord
  2
SW_NOTE_9
340
0
102
{BLKREFS
331
1AF
102
}
  0
BLOCK_RECORD
  5
289
330
1
100
AcDbSymbolTableRecord
100
AcDbBlockTableRecord
  2
*D13
340
0
  0
BLOCK_RECORD
  5
293
330
1
100
AcDbSymbolTableRecord
100
AcDbBlockTableRecord
  2
*D14
340
0
  0
BLOCK_RECORD
  5
29E
330
1
100
AcDbSymbolTableRecord
100
AcDbBlockTableRecord
  2
*D15
340
0
  0
BLOCK_RECORD
  5
2AB
330
1
100
AcDbSymbolTableRecord
100
AcDbBlockTableRecord
  2
*D16
340
0
  0
BLOCK_RECORD
  5
2B8
330
1
100
AcDbSymbolTableRecord
100
AcDbBlockTableRecord
  2
*D17
340
0
  0
BLOCK_RECORD
  5
2C2
330
1
100
AcDbSymbolTableRecord
100
AcDbBlockTableRecord
  2
*D18
340
0
  0
BLOCK_RECORD
  5
2CE
330
1
100
AcDbSymbolTableRecord
100
AcDbBlockTableRecord
  2
*D19
340
0
  0
BLOCK_RECORD
  5
2D8
330
1
100
AcDbSymbolTableRecord
100
AcDbBlockTableRecord
  2
*D20
340
0
  0
BLOCK_RECORD
  5
2E2
330
1
100
AcDbSymbolTableRecord
100
AcDbBlockTableRecord
  2
*D21
340
0
  0
BLOCK_RECORD
  5
2EC
330
1
100
AcDbSymbolTableRecord
100
AcDbBlockTableRecord
  2
*D22
340
0
  0
BLOCK_RECORD
  5
2F6
330
1
100
AcDbSymbolTableRecord
100
AcDbBlockTableRecord
  2
*D23
340
0
  0
BLOCK_RECORD
  5
3CD
330
1
100
AcDbSymbolTableRecord
100
AcDbBlockTableRecord
  2
*D24
340
0
  0
BLOCK_RECORD
  5
3D7
330
1
100
AcDbSymbolTableRecord
100
AcDbBlockTableRecord
  2
*D25
340
0
  0
BLOCK_RECORD
  5
3E2
330
1
100
AcDbSymbolTableRecord
100
AcDbBlockTableRecord
  2
*D26
340
0
  0
BLOCK_RECORD
  5
3EC
330
1
100
AcDbSymbolTableRecord
100
AcDbBlockTableRecord
  2
*D27
340
0
  0
BLOCK_RECORD
  5
3F4
330
1
100
AcDbSymbolTableRecord
100
AcDbBlockTableRecord
  2
SW_CENTERMARKSYMBOL_0
340
0
102
{BLKREFS
331
3FF
102
}
  0
BLOCK_RECORD
  5
400
330
1
100
AcDbSymbolTableRecord
100
AcDbBlockTableRecord
  2
SW_CENTERMARKSYMBOL_1
340
0
102
{BLKREFS
331
40B
102
}
  0
BLOCK_RECORD
  5
40C
330
1
100
AcDbSymbolTableRecord
100
AcDbBlockTableRecord
  2
SW_CENTERMARKSYMBOL_2
340
0
102
{BLKREFS
331
417
102
}
  0
BLOCK_RECORD
  5
418
330
1
100
AcDbSymbolTableRecord
100
AcDbBlockTableRecord
  2
SW_CENTERMARKSYMBOL_3
340
0
102
{BLKREFS
331
423
102
}
  0
BLOCK_RECORD
  5
424
330
1
100
AcDbSymbolTableRecord
100
AcDbBlockTableRecord
  2
SW_CENTERMARKSYMBOL_4
340
0
102
{BLKREFS
331
42F
102
}
  0
BLOCK_RECORD
  5
430
330
1
100
AcDbSymbolTableRecord
100
AcDbBlockTableRecord
  2
SW_CENTERMARKSYMBOL_5
340
0
102
{BLKREFS
331
43B
102
}
  0
BLOCK_RECORD
  5
43C
330
1
100
AcDbSymbolTableRecord
100
AcDbBlockTableRecord
  2
SW_CENTERMARKSYMBOL_6
340
0
102
{BLKREFS
331
447
102
}
  0
BLOCK_RECORD
  5
448
330
1
100
AcDbSymbolTableRecord
100
AcDbBlockTableRecord
  2
SW_CENTERMARKSYMBOL_7
340
0
102
{BLKREFS
331
453
102
}
  0
BLOCK_RECORD
  5
454
330
1
100
AcDbSymbolTableRecord
100
AcDbBlockTableRecord
  2
SW_CENTERMARKSYMBOL_8
340
0
102
{BLKREFS
331
45F
102
}
  0
BLOCK_RECORD
  5
586
330
1
100
AcDbSymbolTableRecord
100
AcDbBlockTableRecord
  2
*D37
340
0
  0
BLOCK_RECORD
  5
590
330
1
100
AcDbSymbolTableRecord
100
AcDbBlockTableRecord
  2
*D38
340
0
  0
ENDTAB
  0
ENDSEC
  0
SECTION
  2
BLOCKS
  0
BLOCK
  5
20
330
1F
100
AcDbEntity
  8
0
100
AcDbBlockBegin
  2
*Model_Space
 70
     0
 10
0.0
 20
0.0
 30
0.0
  3
*Model_Space
  1

  0
ENDBLK
  5
21
330
1F
100
AcDbEntity
  8
0
100
AcDbBlockEnd
  0
BLOCK
  5
1C
330
1B
100
AcDbEntity
 67
     1
  8
0
100
AcDbBlockBegin
  2
*Paper_Space
 70
     0
 10
0.0
 20
0.0
 30
0.0
  3
*Paper_Space
  1

  0
ENDBLK
  5
1D
330
1B
100
AcDbEntity
 67
     1
  8
0
100
AcDbBlockEnd
  0
BLOCK
  5
24
330
23
100
AcDbEntity
  8
0
100
AcDbBlockBegin
  2
*Paper_Space0
 70
     0
 10
0.0
 20
0.0
 30
0.0
  3
*Paper_Space0
  1

  0
ENDBLK
  5
25
330
23
100
AcDbEntity
  8
0
100
AcDbBlockEnd
  0
BLOCK
  5
49
330
48
100
AcDbEntity
  8
0
100
AcDbBlockBegin
  2
effeff Logo-0015_2
 70
     0
 10
0.0
 20
0.0
 30
0.0
  3
effeff Logo-0015_2
  1

  0
ARC
  5
4B
330
48
100
AcDbEntity
  8
0
  6
Continuous
 62
     7
100
AcDbCircle
 10
515.3784714
 20
1868.8337909
 30
0.0
 40
17.50844250400025
100
AcDbArc
 50
14.042087
 51
119.12115
  0
ARC
  5
4C
330
48
100
AcDbEntity
  8
0
  6
Continuous
 62
     7
100
AcDbCircle
 10
483.7045163087
 20
2006.1601609315
 30
0.0
 40
38.09999730848463
100
AcDbArc
 50
294.9922136483
 51
359.3292419917
  0
ARC
  5
4D
330
48
100
AcDbEntity
  8
0
  6
Continuous
 62
     7
100
AcDbCircle
 10
643.0589882
 20
1915.0686489
 30
0.0
 40
32.43300600000046
100
AcDbArc
 50
109.81992
 51
294.69529
  0
ARC
  5
4E
330
48
100
AcDbEntity
  8
0
  6
Continuous
 62
     7
100
AcDbCircle
 10
794.1722496
 20
2333.3101289
 30
0.0
 40
101.5999999999999
100
AcDbArc
 50
359.90917
 51
114.3759
  0
ARC
  5
4F
330
48
100
AcDbEntity
  8
0
  6
Continuous
 62
     7
100
AcDbCircle
 10
651.5630098
 20
2240.8061229
 30
0.0
 40
127.0000000000007
100
AcDbArc
 50
114.3759
 51
179.32923
  0
ARC
  5
50
330
48
100
AcDbEntity
  8
0
  6
Continuous
 62
     7
100
AcDbCircle
 10
681.4108292
 20
2215.3797069
 30
0.0
 40
77.14394782000088
100
AcDbArc
 50
114.7393
 51
175.97808
  0
ARC
  5
51
330
48
100
AcDbEntity
  8
0
  6
Continuous
 62
     7
100
AcDbCircle
 10
797.635311
 20
2133.9686429
 30
0.0
 40
19.05000000000007
100
AcDbArc
 50
295.35791
 51
0.0
  0
ARC
  5
52
330
48
100
AcDbEntity
  8
0
  6
Continuous
 62
     7
100
AcDbCircle
 10
658.6788706
 20
1939.1668989
 30
0.0
 40
142.5542742000001
100
AcDbArc
 50
207.77528
 51
296.18968
  0
ARC
  5
53
330
48
100
AcDbEntity
  8
0
  6
Continuous
 62
     7
100
AcDbCircle
 10
1060.486957
 20
2441.7787969
 30
0.0
 40
35.71956788000017
100
AcDbArc
 50
287.70296
 51
1.02601
  0
ARC
  5
54
330
48
100
AcDbEntity
  8
0
  6
Continuous
 62
     7
100
AcDbCircle
 10
1258.6232638
 20
2785.4504489
 30
0.0
 40
42.76302090000011
100
AcDbArc
 50
281.08067
 51
84.3963
  0
ARC
  5
55
330
48
100
AcDbEntity
  8
0
  6
Continuous
 62
     7
100
AcDbCircle
 10
1253.5129616
 20
2681.0315569
 30
0.0
 40
147.2705004799994
100
AcDbArc
 50
86.384874
 51
170.97251
  0
ARC
  5
56
330
48
100
AcDbEntity
  8
0
  6
Continuous
 62
     7
100
AcDbCircle
 10
1269.7362718
 20
2650.3145749
 30
0.0
 40
93.21482753999962
100
AcDbArc
 50
91.779404
 51
182.92195
  0
ARC
  5
57
330
48
100
AcDbEntity
  8
0
  6
Continuous
 62
     7
100
AcDbCircle
 10
1525.8716498
 20
2789.8098509
 30
0.0
 40
164.2260367999999
100
AcDbArc
 50
91.783522
 51
177.30533
  0
ARC
  5
58
330
48
100
AcDbEntity
  8
0
  6
Continuous
 62
     7
100
AcDbCircle
 10
1519.8183218
 20
2908.1235589
 30
0.0
 40
45.84234672000006
100
AcDbArc
 50
272.72508
 51
88.82243
  0
ARC
  5
59
330
48
100
AcDbEntity
  8
0
  6
Continuous
 62
     7
100
AcDbCircle
 10
1523.8810518
 20
2784.6320609
 30
0.0
 40
77.72382982000023
100
AcDbArc
 50
91.388437
 51
181.80322
  0
ARC
  5
5A
330
48
100
AcDbEntity
  8
0
  6
Continuous
 62
     7
100
AcDbCircle
 10
1615.5074878
 20
2618.8203529
 30
0.0
 40
39.90822600000038
100
AcDbArc
 50
295.29521
 51
125.42294
  0
ARC
  5
5B
330
48
100
AcDbEntity
  8
0
  6
Continuous
 62
     7
100
AcDbCircle
 10
1008.9957722
 20
1626.0628769
 30
0.0
 40
94.74884022000018
100
AcDbArc
 50
251.71354
 51
299.26417
  0
ARC
  5
5C
330
48
100
AcDbEntity
  8
0
  6
Continuous
 62
     7
100
AcDbCircle
 10
959.2877182
 20
1740.4014849
 30
0.0
 40
219.1524699999996
100
AcDbArc
 50
291.00666
 51
357.16247
  0
ARC
  5
5D
330
48
100
AcDbEntity
  8
0
  6
Continuous
 62
     7
100
AcDbCircle
 10
1228.0315546
 20
1866.1142129
 30
0.0
 40
220.0308782000004
100
AcDbArc
 50
286.42885
 51
355.30262
  0
ARC
  5
5E
330
48
100
AcDbEntity
  8
0
  6
Continuous
 62
     7
100
AcDbCircle
 10
998.211618
 20
1576.0497689
 30
0.0
 40
44.0827109200002
100
AcDbArc
 50
103.02671
 51
269.56768
  0
ARC
  5
5F
330
48
100
AcDbEntity
  8
0
  6
Continuous
 62
     7
100
AcDbCircle
 10
980.6189684
 20
1732.0931449
 30
0.0
 40
113.3538068200005
100
AcDbArc
 50
273.87284
 51
1.52447
  0
ARC
  5
60
330
48
100
AcDbEntity
  8
0
  6
Continuous
 62
     7
100
AcDbCircle
 10
1943.0120398
 20
2351.6001609
 30
0.0
 40
123.1210974200003
100
AcDbArc
 50
200.58087
 51
290.78248
  0
ARC
  5
61
330
48
100
AcDbEntity
  8
0
  6
Continuous
 62
     7
100
AcDbCircle
 10
1972.1290758
 20
2651.2973009
 30
0.0
 40
80.10880599999973
100
AcDbArc
 50
114.61159
 51
180.35762
  0
ARC
  5
62
330
48
100
AcDbEntity
  8
0
  6
Continuous
 62
     7
100
AcDbCircle
 10
2079.4783658
 20
2760.2556809
 30
0.0
 40
25.76079683999982
100
AcDbArc
 50
357.28465
 51
113.30025
  0
ARC
  5
63
330
48
100
AcDbEntity
  8
0
  6
Continuous
 62
     7
100
AcDbCircle
 10
1979.5186978
 20
2658.8764069
 30
0.0
 40
168.1565039199998
100
AcDbArc
 50
112.41504
 51
183.43965
  0
ARC
  5
64
330
48
100
AcDbEntity
  8
0
  6
Continuous
 62
     7
100
AcDbCircle
 10
2079.3511118
 20
2772.1832669
 30
0.0
 40
101.8349499999999
100
AcDbArc
 50
0.0
 51
106.97704
  0
ARC
  5
65
330
48
100
AcDbEntity
  8
0
  6
Continuous
 62
     7
100
AcDbCircle
 10
2133.6657098
 20
2533.8004569
 30
0.0
 40
48.40960600000044
100
AcDbArc
 50
295.94359
 51
0.42713
  0
ARC
  5
66
330
48
100
AcDbEntity
  8
0
  6
Continuous
 62
     7
100
AcDbCircle
 10
2270.5323398
 20
2756.3854829
 30
0.0
 40
40.07551294000061
100
AcDbArc
 50
113.66313
 51
294.00122
  0
ARC
  5
67
330
48
100
AcDbEntity
  8
0
  6
Continuous
 62
     7
100
AcDbCircle
 10
2557.3064678
 20
3078.8290849
 30
0.0
 40
184.5383660000001
100
AcDbArc
 50
96.428599
 51
180.0
  0
ARC
  5
68
330
48
100
AcDbEntity
  8
0
  6
Continuous
 62
     7
100
AcDbCircle
 10
2543.0174438
 20
3218.4876829
 30
0.0
 40
44.18166678000085
100
AcDbArc
 50
272.34792
 51
98.29338
  0
ARC
  5
69
330
48
100
AcDbEntity
  8
0
  6
Continuous
 62
     7
100
AcDbCircle
 10
2552.7387858
 20
3084.7701449
 30
0.0
 40
90.0619661799995
100
AcDbArc
 50
95.043217
 51
180.0
  0
ARC
  5
6A
330
48
100
AcDbEntity
  8
0
  6
Continuous
 62
     7
100
AcDbCircle
 10
2825.4705238
 20
3212.8046869
 30
0.0
 40
178.16516818
100
AcDbArc
 50
94.705414
 51
178.23325
  0
ARC
  5
6B
330
48
100
AcDbEntity
  8
0
  6
Continuous
 62
     7
100
AcDbCircle
 10
2811.8741578
 20
3346.5024129
 30
0.0
 40
43.87863208000022
100
AcDbArc
 50
290.29752
 51
91.33061
  0
ARC
  5
6C
330
48
100
AcDbEntity
  8
0
  6
Continuous
 62
     7
100
AcDbCircle
 10
2832.4346958
 20
3200.9238369
 30
0.0
 40
104.6670779400006
100
AcDbArc
 50
103.33264
 51
180.0
  0
ARC
  5
6D
330
48
100
AcDbEntity
  8
0
  6
Continuous
 62
     7
100
AcDbCircle
 10
2896.5221978
 20
3044.7227269
 30
0.0
 40
37.94099599999992
100
AcDbArc
 50
294.19729
 51
111.34859
  0
ARC
  5
6E
330
48
100
AcDbEntity
  8
0
  6
Continuous
 62
     7
100
AcDbCircle
 10
2237.7676098
 20
2182.2098469
 30
0.0
 40
143.5912469799999
100
AcDbArc
 50
279.16205
 51
358.88757
  0
ARC
  5
6F
330
48
100
AcDbEntity
  8
0
  6
Continuous
 62
     7
100
AcDbCircle
 10
2241.3982858
 20
2174.7833949
 30
0.0
 40
221.16562066
100
AcDbArc
 50
286.92178
 51
6.06447
  0
ARC
  5
70
330
48
100
AcDbEntity
  8
0
  6
Continuous
 62
     7
100
AcDbCircle
 10
2290.3857418
 20
2006.0196989
 30
0.0
 40
45.50614724000062
100
AcDbArc
 50
130.83302
 51
289.76215
  0
ARC
  5
71
330
48
100
AcDbEntity
  8
0
  6
Continuous
 62
     7
100
AcDbCircle
 10
2554.5663158
 20
2135.6331049
 30
0.0
 40
41.07687999999993
100
AcDbArc
 50
92.959037
 51
252.07449
  0
ARC
  5
72
330
48
100
AcDbEntity
  8
0
  6
Continuous
 62
     7
100
AcDbCircle
 10
2524.1190818
 20
2298.4867289
 30
0.0
 40
125.0812839999999
100
AcDbArc
 50
278.0904
 51
0.0
  0
ARC
  5
73
330
48
100
AcDbEntity
  8
0
  6
Continuous
 62
     7
100
AcDbCircle
 10
2489.5974338
 20
2311.4727329
 30
0.0
 40
240.0881660000007
100
AcDbArc
 50
293.25446
 51
355.30477
  0
ARC
  5
74
330
48
100
AcDbEntity
  8
0
  6
Continuous
 62
     7
100
AcDbCircle
 10
2572.3099938
 20
2162.3920049
 30
0.0
 40
72.51559283999994
100
AcDbArc
 50
227.67709
 51
279.58748
  0
ARC
  5
75
330
48
100
AcDbEntity
  8
0
  6
Continuous
 62
     7
100
AcDbCircle
 10
1811.1037438
 20
2302.0693989
 30
0.0
 40
17.77999999999994
100
AcDbArc
 50
20.580869
 51
114.22398
  0
ARC
  5
76
330
48
100
AcDbEntity
  8
0
  6
Continuous
 62
     7
100
AcDbCircle
 10
791.285311
 20
2327.7018089
 30
0.0
 40
25.40000000000041
100
AcDbArc
 50
0.0
 51
116.41669
  0
ARC
  5
77
330
48
100
AcDbEntity
  8
0
  6
Continuous
 62
     7
100
AcDbCircle
 10
1938.2444598
 20
2345.4739349
 30
0.0
 40
33.02000000000029
100
AcDbArc
 50
116.48141
 51
294.93437
  0
ARC
  5
78
330
48
100
AcDbEntity
  8
0
  6
Continuous
 62
     7
100
AcDbCircle
 10
1775.7301798
 20
2441.4435169
 30
0.0
 40
38.10000000000028
100
AcDbArc
 50
295.31863
 51
0.5988
  0
ARC
  5
79
330
48
100
AcDbEntity
  8
0
  6
Continuous
 62
     7
100
AcDbCircle
 10
985.9921352
 20
2325.6891129
 30
0.0
 40
40.64000000000044
100
AcDbArc
 50
113.79896
 51
292.78069
  0
ARC
  5
7A
330
48
100
AcDbEntity
  8
0
  6
Continuous
 62
     7
100
AcDbCircle
 10
1273.3677098
 20
1700.5333909
 30
0.0
 40
48.50378666000036
100
AcDbArc
 50
104.6236
 51
290.38355
  0
ARC
  5
7B
330
48
100
AcDbEntity
  8
0
  6
Continuous
 62
     7
100
AcDbCircle
 10
1223.5584368
 20
1884.9511069
 30
0.0
 40
142.5040761800002
100
AcDbArc
 50
285.03861
 51
359.88519
  0
ARC
  5
7C
330
48
100
AcDbEntity
  8
0
  6
Continuous
 62
     7
100
AcDbCircle
 10
2347.3978198
 20
2878.5897089
 30
0.0
 40
35.56000000000034
100
AcDbArc
 50
296.25486
 51
2.92638
  0
LINE
  5
7D
330
48
100
AcDbEntity
  8
0
  6
Continuous
 62
     7
100
AcDbLine
 10
203.7813552
 20
987.5165289
 30
0.0
 11
3194.4123818
 21
987.5165289
 31
0.0
  0
LINE
  5
7E
330
48
100
AcDbEntity
  8
0
  6
Continuous
 62
     7
100
AcDbLine
 10
0.0
 20
650.4387169
 30
0.0
 11
3309.9028798
 21
652.3208569
 31
0.0
  0
LINE
  5
7F
330
48
100
AcDbEntity
  8
0
  6
Continuous
 62
     7
100
AcDbLine
 10
203.7813552
 20
3978.0302329
 30
0.0
 11
3194.4123818
 21
3978.0302329
 31
0.0
  0
LINE
  5
80
330
48
100
AcDbEntity
  8
0
  6
Continuous
 62
     7
100
AcDbLine
 10
301.56404
 20
3876.2112849
 30
0.0
 11
3101.6236418
 21
3876.2112849
 31
0.0
  0
LINE
  5
81
330
48
100
AcDbEntity
  8
0
  6
Continuous
 62
     7
100
AcDbLine
 10
301.56404
 20
1087.6021809
 30
0.0
 11
3101.6236418
 21
1087.6021809
 31
0.0
  0
LINE
  5
82
330
48
100
AcDbEntity
  8
0
  6
Continuous
 62
     7
100
AcDbLine
 10
3194.4123818
 20
987.5165289
 30
0.0
 11
3194.4123818
 21
3978.0302329
 31
0.0
  0
LINE
  5
83
330
48
100
AcDbEntity
  8
0
  6
Continuous
 62
     7
100
AcDbLine
 10
301.56404
 20
3876.2112849
 30
0.0
 11
301.56404
 21
1087.6021809
 31
0.0
  0
LINE
  5
84
330
48
100
AcDbEntity
  8
0
  6
Continuous
 62
     7
100
AcDbLine
 10
203.7813552
 20
3978.0302329
 30
0.0
 11
203.7813552
 21
987.5165289
 31
0.0
  0
LINE
  5
85
330
48
100
AcDbEntity
  8
0
  6
Continuous
 62
     7
100
AcDbLine
 10
301.56404
 20
1879.2208669
 30
0.0
 11
499.8015658
 21
1971.6278449
 31
0.0
  0
LINE
  5
86
330
48
100
AcDbEntity
  8
0
  6
Continuous
 62
     7
100
AcDbLine
 10
301.56404
 20
1788.8408089
 30
0.0
 11
506.8578382
 21
1884.1291629
 31
0.0
  0
LINE
  5
87
330
48
100
AcDbEntity
  8
0
  6
Continuous
 62
     7
100
AcDbLine
 10
521.8019028
 20
2005.7141369
 30
0.0
 11
524.5716966
 21
2242.2930389
 31
0.0
  0
LINE
  5
88
330
48
100
AcDbEntity
  8
0
  6
Continuous
 62
     7
100
AcDbLine
 10
599.147392
 20
2356.4850889
 30
0.0
 11
752.2397706
 21
2425.8532509
 31
0.0
  0
LINE
  5
89
330
48
100
AcDbEntity
  8
0
  6
Continuous
 62
     7
100
AcDbLine
 10
895.7721226
 20
2333.1490929
 30
0.0
 11
895.375908
 21
2083.2143629
 31
0.0
  0
LINE
  5
8A
330
48
100
AcDbEntity
  8
0
  6
Continuous
 62
     7
100
AcDbLine
 10
607.3407716
 20
2022.7003869
 30
0.0
 11
805.7938926
 21
2116.7543009
 31
0.0
  0
LINE
  5
8B
330
48
100
AcDbEntity
  8
0
  6
Continuous
 62
     7
100
AcDbLine
 10
816.685311
 20
2133.9686429
 30
0.0
 11
816.685311
 21
2327.7018089
 31
0.0
  0
LINE
  5
8C
330
48
100
AcDbEntity
  8
0
  6
Continuous
 62
     7
100
AcDbLine
 10
604.456881
 20
2220.7906689
 30
0.0
 11
607.3407716
 21
2022.7003869
 31
0.0
  0
LINE
  5
8D
330
48
100
AcDbEntity
  8
0
  6
Continuous
 62
     7
100
AcDbLine
 10
649.126845
 20
2285.4435749
 30
0.0
 11
779.9849526
 21
2350.4495409
 31
0.0
  0
LINE
  5
8E
330
48
100
AcDbEntity
  8
0
  6
Continuous
 62
     7
100
AcDbLine
 10
880.6118278
 20
2060.1887549
 30
0.0
 11
626.9948598
 21
1943.2441069
 31
0.0
  0
LINE
  5
8F
330
48
100
AcDbEntity
  8
0
  6
Continuous
 62
     7
100
AcDbLine
 10
656.5043766
 20
1885.5541029
 30
0.0
 11
1096.5434254
 21
2086.9585769
 31
0.0
  0
LINE
  5
90
330
48
100
AcDbEntity
  8
0
  6
Continuous
 62
     7
100
AcDbLine
 10
719.6132674
 20
1810.2921249
 30
0.0
 11
1093.932661
 21
1990.8236409
 31
0.0
  0
LINE
  5
91
330
48
100
AcDbEntity
  8
0
  6
Continuous
 62
     7
100
AcDbLine
 10
1093.932661
 20
1990.8236409
 30
0.0
 11
1093.932661
 21
1729.2343749
 31
0.0
  0
LINE
  5
92
330
48
100
AcDbEntity
  8
0
  6
Continuous
 62
     7
100
AcDbLine
 10
1178.1714816
 20
2031.9955169
 30
0.0
 11
1178.1714816
 21
1729.5523829
 31
0.0
  0
LINE
  5
93
330
48
100
AcDbEntity
  8
0
  6
Continuous
 62
     7
100
AcDbLine
 10
1096.5434254
 20
2086.9585769
 30
0.0
 11
1095.8872164
 21
2331.9474189
 31
0.0
  0
LINE
  5
94
330
48
100
AcDbEntity
  8
0
  6
Continuous
 62
     7
100
AcDbLine
 10
1176.3572358
 20
2370.2450309
 30
0.0
 11
1177.0405466
 21
2119.3801529
 31
0.0
  0
LINE
  5
95
330
48
100
AcDbEntity
  8
0
  6
Continuous
 62
     7
100
AcDbLine
 10
1177.0405466
 20
2119.3801529
 30
0.0
 11
1366.0622158
 21
2205.0970249
 31
0.0
  0
LINE
  5
96
330
48
100
AcDbEntity
  8
0
  6
Continuous
 62
     7
100
AcDbLine
 10
1176.3572358
 20
2370.2450309
 30
0.0
 11
1360.6250918
 21
2455.3980229
 31
0.0
  0
LINE
  5
97
330
48
100
AcDbEntity
  8
0
  6
Continuous
 62
     7
100
AcDbLine
 10
969.5927268
 20
2362.8731889
 30
0.0
 11
1071.348632
 21
2407.7506709
 31
0.0
  0
LINE
  5
98
330
48
100
AcDbEntity
  8
0
  6
Continuous
 62
     7
100
AcDbLine
 10
1096.2007794
 20
2442.4183689
 30
0.0
 11
1108.0666688
 21
2704.1394609
 31
0.0
  0
LINE
  5
99
330
48
100
AcDbEntity
  8
0
  6
Continuous
 62
     7
100
AcDbLine
 10
1171.2905708
 20
2455.3228389
 30
0.0
 11
1176.6427572
 21
2645.5629969
 31
0.0
  0
LINE
  5
9A
330
48
100
AcDbEntity
  8
0
  6
Continuous
 62
     7
100
AcDbLine
 10
1171.2905708
 20
2455.3228389
 30
0.0
 11
1361.5643838
 21
2544.7288069
 31
0.0
  0
LINE
  5
9B
330
48
100
AcDbEntity
  8
0
  6
Continuous
 62
     7
100
AcDbLine
 10
1361.5643838
 20
2544.7288069
 30
0.0
 11
1361.5643838
 21
2797.5306889
 31
0.0
  0
LINE
  5
9C
330
48
100
AcDbEntity
  8
0
  6
Continuous
 62
     7
100
AcDbLine
 10
1440.1207418
 20
2583.8707149
 30
0.0
 11
1446.1959138
 21
2782.1865489
 31
0.0
  0
LINE
  5
9D
330
48
100
AcDbEntity
  8
0
  6
Continuous
 62
     7
100
AcDbLine
 10
1360.6250918
 20
2455.3980229
 30
0.0
 11
1366.0622158
 21
2205.0970249
 31
0.0
  0
LINE
  5
9E
330
48
100
AcDbEntity
  8
0
  6
Continuous
 62
     7
100
AcDbLine
 10
1178.1714816
 20
2031.9955169
 30
0.0
 11
1366.0622158
 21
2113.7154449
 31
0.0
  0
LINE
  5
9F
330
48
100
AcDbEntity
  8
0
  6
Continuous
 62
     7
100
AcDbLine
 10
1443.1270858
 20
2241.9417569
 30
0.0
 11
1792.0235178
 21
2407.0031489
 31
0.0
  0
LINE
  5
A0
330
48
100
AcDbEntity
  8
0
  6
Continuous
 62
     7
100
AcDbLine
 10
1813.8281478
 20
2441.8415349
 30
0.0
 11
1811.6650838
 21
2648.7875269
 31
0.0
  0
LINE
  5
A1
330
48
100
AcDbEntity
  8
0
  6
Continuous
 62
     7
100
AcDbLine
 10
1893.2547098
 20
2453.2458809
 30
0.0
 11
2104.8613478
 21
2553.3742049
 31
0.0
  0
LINE
  5
A2
330
48
100
AcDbEntity
  8
0
  6
Continuous
 62
     7
100
AcDbLine
 10
2104.8613478
 20
2553.3742049
 30
0.0
 11
2105.2100898
 21
2759.0354649
 31
0.0
  0
LINE
  5
A3
330
48
100
AcDbEntity
  8
0
  6
Continuous
 62
     7
100
AcDbLine
 10
1803.8086098
 20
2318.2837429
 30
0.0
 11
1446.5108738
 21
2157.5281589
 31
0.0
  0
LINE
  5
A4
330
48
100
AcDbEntity
  8
0
  6
Continuous
 62
     7
100
AcDbLine
 10
1446.5108738
 20
2157.5281589
 30
0.0
 11
1447.3302778
 21
1845.4340409
 31
0.0
  0
LINE
  5
A5
330
48
100
AcDbEntity
  8
0
  6
Continuous
 62
     7
100
AcDbLine
 10
1443.1270858
 20
2241.9417569
 30
0.0
 11
1442.4384918
 21
2492.8884229
 31
0.0
  0
LINE
  5
A6
330
48
100
AcDbEntity
  8
0
  6
Continuous
 62
     7
100
AcDbLine
 10
1442.4384918
 20
2492.8884229
 30
0.0
 11
1632.5595238
 21
2582.7386369
 31
0.0
  0
LINE
  5
A7
330
48
100
AcDbEntity
  8
0
  6
Continuous
 62
     7
100
AcDbLine
 10
1440.1207418
 20
2583.8707149
 30
0.0
 11
1605.2519838
 21
2657.3884749
 31
0.0
  0
LINE
  5
A8
330
48
100
AcDbEntity
  8
0
  6
Continuous
 62
     7
100
AcDbLine
 10
1986.6980078
 20
2236.4901549
 30
0.0
 11
2381.3317118
 21
2427.5961989
 31
0.0
  0
LINE
  5
A9
330
48
100
AcDbEntity
  8
0
  6
Continuous
 62
     7
100
AcDbLine
 10
2069.1979698
 20
2783.8764109
 30
0.0
 11
1938.7664298
 21
2724.1282449
 31
0.0
  0
LINE
  5
AA
330
48
100
AcDbEntity
  8
0
  6
Continuous
 62
     7
100
AcDbLine
 10
2049.5777398
 20
2869.6740549
 30
0.0
 11
1915.3984298
 21
2814.3282169
 31
0.0
  0
LINE
  5
AB
330
48
100
AcDbEntity
  8
0
  6
Continuous
 62
     7
100
AcDbLine
 10
2154.8442298
 20
2490.2694289
 30
0.0
 11
1923.5205878
 21
2375.0293749
 31
0.0
  0
LINE
  5
AC
330
48
100
AcDbEntity
  8
0
  6
Continuous
 62
     7
100
AcDbLine
 10
2182.0753158
 20
2533.8004569
 30
0.0
 11
2181.1852998
 21
2772.5627429
 31
0.0
  0
LINE
  5
AD
330
48
100
AcDbEntity
  8
0
  6
Continuous
 62
     7
100
AcDbLine
 10
2385.2803958
 20
2516.8929469
 30
0.0
 11
1952.1649298
 21
2315.5316529
 31
0.0
  0
LINE
  5
AE
330
48
100
AcDbEntity
  8
0
  6
Continuous
 62
     7
100
AcDbLine
 10
2385.2803958
 20
2516.8929469
 30
0.0
 11
2384.5890078
 21
2763.3011409
 31
0.0
  0
LINE
  5
AF
330
48
100
AcDbEntity
  8
0
  6
Continuous
 62
     7
100
AcDbLine
 10
2363.1282938
 20
2846.6982309
 30
0.0
 11
2251.1973518
 21
2791.4882829
 31
0.0
  0
LINE
  5
B0
330
48
100
AcDbEntity
  8
0
  6
Continuous
 62
     7
100
AcDbLine
 10
2384.5890078
 20
2763.3011409
 30
0.0
 11
2286.8332978
 21
2719.7749389
 31
0.0
  0
LINE
  5
B1
330
48
100
AcDbEntity
  8
0
  6
Continuous
 62
     7
100
AcDbLine
 10
2457.8908678
 20
2542.3404449
 30
0.0
 11
2457.2114178
 21
2800.4118109
 31
0.0
  0
LINE
  5
B2
330
48
100
AcDbEntity
  8
0
  6
Continuous
 62
     7
100
AcDbLine
 10
2457.2114178
 20
2800.4118109
 30
0.0
 11
2648.4101718
 21
2891.0445989
 31
0.0
  0
LINE
  5
B3
330
48
100
AcDbEntity
  8
0
  6
Continuous
 62
     7
100
AcDbLine
 10
2648.4101718
 20
2891.0445989
 30
0.0
 11
2653.1942618
 21
2637.3331429
 31
0.0
  0
LINE
  5
B4
330
48
100
AcDbEntity
  8
0
  6
Continuous
 62
     7
100
AcDbLine
 10
2653.1942618
 20
2637.3331429
 30
0.0
 11
2457.8908678
 21
2542.3404449
 31
0.0
  0
LINE
  5
B5
330
48
100
AcDbEntity
  8
0
  6
Continuous
 62
     7
100
AcDbLine
 10
2382.9113378
 20
2880.4050469
 30
0.0
 11
2372.7681018
 21
3078.8290849
 31
0.0
  0
LINE
  5
B6
330
48
100
AcDbEntity
  8
0
  6
Continuous
 62
     7
100
AcDbLine
 10
2461.7661458
 20
2891.1561049
 30
0.0
 11
2647.3901078
 21
2975.3052889
 31
0.0
  0
LINE
  5
B7
330
48
100
AcDbEntity
  8
0
  6
Continuous
 62
     7
100
AcDbLine
 10
2461.7661458
 20
2891.1561049
 30
0.0
 11
2462.6777518
 21
3085.1933089
 31
0.0
  0
LINE
  5
B8
330
48
100
AcDbEntity
  8
0
  6
Continuous
 62
     7
100
AcDbLine
 10
2647.3901078
 20
3218.2976909
 30
0.0
 11
2647.3901078
 21
2975.3052889
 31
0.0
  0
LINE
  5
B9
330
48
100
AcDbEntity
  8
0
  6
Continuous
 62
     7
100
AcDbLine
 10
2727.7932998
 20
3203.2497149
 30
0.0
 11
2727.7932998
 21
3019.5096709
 31
0.0
  0
LINE
  5
BA
330
48
100
AcDbEntity
  8
0
  6
Continuous
 62
     7
100
AcDbLine
 10
2727.7932998
 20
3019.5096709
 30
0.0
 11
2882.7099318
 21
3080.0604769
 31
0.0
  0
LINE
  5
BB
330
48
100
AcDbEntity
  8
0
  6
Continuous
 62
     7
100
AcDbLine
 10
2727.1743018
 20
2927.0290329
 30
0.0
 11
2912.0733478
 21
3010.1154809
 31
0.0
  0
LINE
  5
BC
330
48
100
AcDbEntity
  8
0
  6
Continuous
 62
     7
100
AcDbLine
 10
2727.1743018
 20
2927.0290329
 30
0.0
 11
2725.4120498
 21
2675.2820129
 31
0.0
  0
LINE
  5
BD
330
48
100
AcDbEntity
  8
0
  6
Continuous
 62
     7
100
AcDbLine
 10
2725.4120498
 20
2675.2820129
 30
0.0
 11
3101.6236418
 21
2848.1020889
 31
0.0
  0
LINE
  5
BE
330
48
100
AcDbEntity
  8
0
  6
Continuous
 62
     7
100
AcDbLine
 10
3101.6236418
 20
2760.6884969
 30
0.0
 11
2728.8799118
 21
2590.0391049
 31
0.0
  0
LINE
  5
BF
330
48
100
AcDbEntity
  8
0
  6
Continuous
 62
     7
100
AcDbLine
 10
2728.8799118
 20
2590.0391049
 30
0.0
 11
2728.8799118
 21
2291.8202449
 31
0.0
  0
LINE
  5
C0
330
48
100
AcDbEntity
  8
0
  6
Continuous
 62
     7
100
AcDbLine
 10
2650.4975438
 20
2552.9289429
 30
0.0
 11
2461.3262178
 21
2465.8915249
 31
0.0
  0
LINE
  5
C1
330
48
100
AcDbEntity
  8
0
  6
Continuous
 62
     7
100
AcDbLine
 10
2381.3317118
 20
2179.4219429
 30
0.0
 11
2381.3317118
 21
2427.5961989
 31
0.0
  0
LINE
  5
C2
330
48
100
AcDbEntity
  8
0
  6
Continuous
 62
     7
100
AcDbLine
 10
2461.3262178
 20
2198.1491089
 30
0.0
 11
2461.3262178
 21
2465.8915249
 31
0.0
  0
LINE
  5
C3
330
48
100
AcDbEntity
  8
0
  6
Continuous
 62
     7
100
AcDbLine
 10
2650.4975438
 20
2552.9289429
 30
0.0
 11
2649.2003658
 21
2298.4867289
 31
0.0
  0
LINE
  5
C4
330
48
100
AcDbEntity
  8
0
  6
Continuous
 62
     7
100
AcDbLine
 10
3101.6236418
 20
1087.6021809
 30
0.0
 11
3101.6236418
 21
3876.2112849
 31
0.0
  0
LINE
  5
C5
330
48
100
AcDbEntity
  8
0
  6
Continuous
 62
     7
100
AcDbLine
 10
1095.8872164
 20
2331.9474189
 30
0.0
 11
1001.728121
 21
2288.2192869
 31
0.0
  0
LINE
  5
C6
330
48
100
AcDbEntity
  8
0
  6
Continuous
 62
     7
100
AcDbLine
 10
1366.0622158
 20
2113.7154449
 30
0.0
 11
1366.0622158
 21
1884.6656109
 31
0.0
  0
LINE
  5
C7
330
48
100
AcDbEntity
  8
0
  6
Continuous
 62
     7
100
AcDbLine
 10
1892.0217938
 20
2650.7971749
 30
0.0
 11
1893.2547098
 21
2453.2458809
 31
0.0
  0
LINE
  5
C8
330
48
100
AcDbEntity
  8
0
  6
Continuous
 62
     7
100
AcDbLine
 10
1221.4602698
 20
414.3388589
 30
0.0
 11
1113.547176
 21
129.9392753
 31
0.0
  0
LINE
  5
C9
330
48
100
AcDbEntity
  8
0
  6
Continuous
 62
     7
100
AcDbLine
 10
1013.7867964
 20
293.7747109
 30
0.0
 11
1099.9257402
 21
293.7747109
 31
0.0
  0
LINE
  5
CA
330
48
100
AcDbEntity
  8
0
  6
Continuous
 62
     7
100
AcDbLine
 10
546.4238246
 20
143.9009187
 30
0.0
 11
461.355948
 21
143.9009187
 31
0.0
  0
LINE
  5
CB
330
48
100
AcDbEntity
  8
0
  6
Continuous
 62
     7
100
AcDbLine
 10
461.355948
 20
143.9009187
 30
0.0
 11
360.0456604
 21
414.2631669
 31
0.0
  0
LINE
  5
CC
330
48
100
AcDbEntity
  8
0
  6
Continuous
 62
     7
100
AcDbLine
 10
360.0456604
 20
414.2631669
 30
0.0
 11
268.9420072
 21
414.2631669
 31
0.0
  0
LINE
  5
CD
330
48
100
AcDbEntity
  8
0
  6
Continuous
 62
     7
100
AcDbLine
 10
268.9420072
 20
414.2631669
 30
0.0
 11
115.6156946
 21
9.6017969
 31
0.0
  0
LINE
  5
CE
330
48
100
AcDbEntity
  8
0
  6
Continuous
 62
     7
100
AcDbLine
 10
115.6156946
 20
9.6017969
 30
0.0
 11
205.6356822
 21
9.6017969
 31
0.0
  0
LINE
  5
CF
330
48
100
AcDbEntity
  8
0
  6
Continuous
 62
     7
100
AcDbLine
 10
205.6356822
 20
9.6017969
 30
0.0
 11
237.339251
 21
99.6721781
 31
0.0
  0
LINE
  5
D0
330
48
100
AcDbEntity
  8
0
  6
Continuous
 62
     7
100
AcDbLine
 10
237.339251
 20
99.6721781
 30
0.0
 11
388.7880464
 21
99.6974003
 31
0.0
  0
LINE
  5
D1
330
48
100
AcDbEntity
  8
0
  6
Continuous
 62
     7
100
AcDbLine
 10
388.7880464
 20
99.6974003
 30
0.0
 11
419.3449322
 21
9.6017969
 31
0.0
  0
LINE
  5
D2
330
48
100
AcDbEntity
  8
0
  6
Continuous
 62
     7
100
AcDbLine
 10
419.3449322
 20
9.6017969
 30
0.0
 11
511.6582604
 21
9.6017969
 31
0.0
  0
LINE
  5
D3
330
48
100
AcDbEntity
  8
0
  6
Continuous
 62
     7
100
AcDbLine
 10
511.6582604
 20
9.6017969
 30
0.0
 11
497.4697696
 21
47.4293565
 31
0.0
  0
LINE
  5
D4
330
48
100
AcDbEntity
  8
0
  6
Continuous
 62
     7
100
AcDbLine
 10
1082.8264602
 20
48.8910503
 30
0.0
 11
1068.0331446
 21
9.6522159
 31
0.0
  0
LINE
  5
D5
330
48
100
AcDbEntity
  8
0
  6
Continuous
 62
     7
100
AcDbLine
 10
1068.0331446
 20
9.6522159
 30
0.0
 11
1158.128748
 21
9.6522159
 31
0.0
  0
LINE
  5
D6
330
48
100
AcDbEntity
  8
0
  6
Continuous
 62
     7
100
AcDbLine
 10
1158.128748
 20
9.6522159
 30
0.0
 11
1189.8575136
 21
100.0502063
 31
0.0
  0
LINE
  5
D7
330
48
100
AcDbEntity
  8
0
  6
Continuous
 62
     7
100
AcDbLine
 10
1189.8575136
 20
100.0502063
 30
0.0
 11
1341.2558138
 21
100.0754031
 31
0.0
  0
LINE
  5
D8
330
48
100
AcDbEntity
  8
0
  6
Continuous
 62
     7
100
AcDbLine
 10
1341.2558138
 20
100.0754031
 30
0.0
 11
1371.9009138
 21
9.5262065
 31
0.0
  0
LINE
  5
D9
330
48
100
AcDbEntity
  8
0
  6
Continuous
 62
     7
100
AcDbLine
 10
1371.9009138
 20
9.5262065
 30
0.0
 11
1464.3277038
 21
9.5514033
 31
0.0
  0
LINE
  5
DA
330
48
100
AcDbEntity
  8
0
  6
Continuous
 62
     7
100
AcDbLine
 10
1464.3277038
 20
9.5514033
 30
0.0
 11
1312.7907958
 21
414.3388589
 31
0.0
  0
LINE
  5
DB
330
48
100
AcDbEntity
  8
0
  6
Continuous
 62
     7
100
AcDbLine
 10
1312.7907958
 20
414.3388589
 30
0.0
 11
1221.4602698
 21
414.3388589
 31
0.0
  0
LINE
  5
DC
330
48
100
AcDbEntity
  8
0
  6
Continuous
 62
     7
100
AcDbLine
 10
260.4868806
 20
166.0279001
 30
0.0
 11
313.208543
 21
314.4398969
 31
0.0
  0
LINE
  5
DD
330
48
100
AcDbEntity
  8
0
  6
Continuous
 62
     7
100
AcDbLine
 10
314.3930212
 20
314.4398969
 30
0.0
 11
365.4135948
 21
166.0027033
 31
0.0
  0
LINE
  5
DE
330
48
100
AcDbEntity
  8
0
  6
Continuous
 62
     7
100
AcDbLine
 10
365.4135948
 20
166.0027033
 30
0.0
 11
260.4868806
 21
166.0279001
 31
0.0
  0
LINE
  5
DF
330
48
100
AcDbEntity
  8
0
  6
Continuous
 62
     7
100
AcDbLine
 10
858.935798
 20
143.9009187
 30
0.0
 11
799.9641354
 21
143.9765345
 31
0.0
  0
LINE
  5
E0
330
48
100
AcDbEntity
  8
0
  6
Continuous
 62
     7
100
AcDbLine
 10
701.0857962
 20
293.6738729
 30
0.0
 11
786.8845324
 21
293.6738729
 31
0.0
  0
LINE
  5
E1
330
48
100
AcDbEntity
  8
0
  6
Continuous
 62
     7
100
AcDbLine
 10
1212.9925448
 20
166.3303125
 30
0.0
 11
1265.7393278
 21
314.7927029
 31
0.0
  0
LINE
  5
E2
330
48
100
AcDbEntity
  8
0
  6
Continuous
 62
     7
100
AcDbLine
 10
1266.8482918
 20
314.7927029
 30
0.0
 11
1318.0074478
 21
166.3807315
 31
0.0
  0
LINE
  5
E3
330
48
100
AcDbEntity
  8
0
  6
Continuous
 62
     7
100
AcDbLine
 10
1318.0074478
 20
166.3807315
 30
0.0
 11
1212.9925448
 21
166.3303125
 31
0.0
  0
LINE
  5
E4
330
48
100
AcDbEntity
  8
0
  6
Continuous
 62
     7
100
AcDbLine
 10
2107.4841518
 20
414.1877289
 30
0.0
 11
1917.0611138
 21
414.1625829
 31
0.0
  0
LINE
  5
E5
330
48
100
AcDbEntity
  8
0
  6
Continuous
 62
     7
100
AcDbLine
 10
1917.0611138
 20
414.1625829
 30
0.0
 11
1917.2376438
 21
39.5664563
 31
0.0
  0
LINE
  5
E6
330
48
100
AcDbEntity
  8
0
  6
Continuous
 62
     7
100
AcDbLine
 10
1917.2376438
 20
39.5664563
 30
0.0
 11
1776.9656358
 21
414.2380209
 31
0.0
  0
LINE
  5
E7
330
48
100
AcDbEntity
  8
0
  6
Continuous
 62
     7
100
AcDbLine
 10
1776.9656358
 20
414.2380209
 30
0.0
 11
1685.5848178
 21
414.2631669
 31
0.0
  0
LINE
  5
E8
330
48
100
AcDbEntity
  8
0
  6
Continuous
 62
     7
100
AcDbLine
 10
1685.5848178
 20
414.2631669
 30
0.0
 11
1532.1200498
 21
9.5262065
 31
0.0
  0
LINE
  5
E9
330
48
100
AcDbEntity
  8
0
  6
Continuous
 62
     7
100
AcDbLine
 10
1532.1200498
 20
9.5262065
 30
0.0
 11
1622.3667578
 21
9.5262065
 31
0.0
  0
LINE
  5
EA
330
48
100
AcDbEntity
  8
0
  6
Continuous
 62
     7
100
AcDbLine
 10
1622.3667578
 20
9.5262065
 30
0.0
 11
1654.0072838
 21
99.6469813
 31
0.0
  0
LINE
  5
EB
330
48
100
AcDbEntity
  8
0
  6
Continuous
 62
     7
100
AcDbLine
 10
1654.0072838
 20
99.6469813
 30
0.0
 11
1805.4433538
 21
99.6469813
 31
0.0
  0
LINE
  5
EC
330
48
100
AcDbEntity
  8
0
  6
Continuous
 62
     7
100
AcDbLine
 10
1805.4433538
 20
99.6469813
 30
0.0
 11
1836.0130158
 21
9.6269937
 31
0.0
  0
LINE
  5
ED
330
48
100
AcDbEntity
  8
0
  6
Continuous
 62
     7
100
AcDbLine
 10
1836.0130158
 20
9.6269937
 30
0.0
 11
1928.4773978
 21
9.6522159
 31
0.0
  0
LINE
  5
EE
330
48
100
AcDbEntity
  8
0
  6
Continuous
 62
     7
100
AcDbLine
 10
1928.4271058
 20
9.6269937
 30
0.0
 11
2113.4569618
 21
9.5514033
 31
0.0
  0
LINE
  5
EF
330
48
100
AcDbEntity
  8
0
  6
Continuous
 62
     7
100
AcDbLine
 10
1677.2178038
 20
165.9522843
 30
0.0
 11
1729.9901138
 21
314.4901889
 31
0.0
  0
LINE
  5
F0
330
48
100
AcDbEntity
  8
0
  6
Continuous
 62
     7
100
AcDbLine
 10
1731.1239698
 20
314.4901889
 30
0.0
 11
1782.1825418
 21
165.9522843
 31
0.0
  0
LINE
  5
F1
330
48
100
AcDbEntity
  8
0
  6
Continuous
 62
     7
100
AcDbLine
 10
1782.1825418
 20
165.9522843
 30
0.0
 11
1677.2178038
 21
165.9522843
 31
0.0
  0
LINE
  5
F2
330
48
100
AcDbEntity
  8
0
  6
Continuous
 62
     7
100
AcDbLine
 10
2006.1739658
 20
345.3621109
 30
0.0
 11
2089.4145918
 21
345.3621109
 31
0.0
  0
LINE
  5
F3
330
48
100
AcDbEntity
  8
0
  6
Continuous
 62
     7
100
AcDbLine
 10
2096.4206738
 20
250.6295089
 30
0.0
 11
2006.1991118
 21
250.5792169
 31
0.0
  0
LINE
  5
F4
330
48
100
AcDbEntity
  8
0
  6
Continuous
 62
     7
100
AcDbLine
 10
2006.1991118
 20
250.5792169
 30
0.0
 11
2006.1739658
 21
345.3621109
 31
0.0
  0
LINE
  5
F5
330
48
100
AcDbEntity
  8
0
  6
Continuous
 62
     7
100
AcDbLine
 10
2101.5367418
 20
78.9313001
 30
0.0
 11
2006.2748038
 21
78.9061033
 31
0.0
  0
LINE
  5
F6
330
48
100
AcDbEntity
  8
0
  6
Continuous
 62
     7
100
AcDbLine
 10
2006.2748038
 20
78.9061033
 30
0.0
 11
2006.1991118
 21
190.0197749
 31
0.0
  0
LINE
  5
F7
330
48
100
AcDbEntity
  8
0
  6
Continuous
 62
     7
100
AcDbLine
 10
2006.1991118
 20
190.0197749
 30
0.0
 11
2103.1496418
 21
190.0449209
 31
0.0
  0
LINE
  5
F8
330
48
100
AcDbEntity
  8
0
  6
Continuous
 62
     7
100
AcDbLine
 10
2509.0711058
 20
85.0804877
 30
0.0
 11
2358.2398098
 21
85.0804877
 31
0.0
  0
LINE
  5
F9
330
48
100
AcDbEntity
  8
0
  6
Continuous
 62
     7
100
AcDbLine
 10
2358.2398098
 20
85.0804877
 30
0.0
 11
2358.1389718
 21
414.2380209
 31
0.0
  0
LINE
  5
FA
330
48
100
AcDbEntity
  8
0
  6
Continuous
 62
     7
100
AcDbLine
 10
2358.1389718
 20
414.2380209
 30
0.0
 11
2269.2529418
 21
414.2128749
 31
0.0
  0
LINE
  5
FB
330
48
100
AcDbEntity
  8
0
  6
Continuous
 62
     7
100
AcDbLine
 10
2269.2529418
 20
414.2128749
 30
0.0
 11
2269.2783418
 21
9.5514033
 31
0.0
  0
LINE
  5
FC
330
48
100
AcDbEntity
  8
0
  6
Continuous
 62
     7
100
AcDbLine
 10
2269.2783418
 20
9.5514033
 30
0.0
 11
2527.4683258
 21
9.5514033
 31
0.0
  0
LINE
  5
FD
330
48
100
AcDbEntity
  8
0
  6
Continuous
 62
     7
100
AcDbLine
 10
2527.4683258
 20
9.5514033
 30
0.0
 11
2527.4683258
 21
60.8617909
 31
0.0
  0
LINE
  5
FE
330
48
100
AcDbEntity
  8
0
  6
Continuous
 62
     7
100
AcDbLine
 10
3098.4600718
 20
414.2631669
 30
0.0
 11
3004.5085198
 21
254.8634349
 31
0.0
  0
LINE
  5
FF
330
48
100
AcDbEntity
  8
0
  6
Continuous
 62
     7
100
AcDbLine
 10
3004.5085198
 20
254.8634349
 30
0.0
 11
2909.7759178
 21
414.2631669
 31
0.0
  0
LINE
  5
100
330
48
100
AcDbEntity
  8
0
  6
Continuous
 62
     7
100
AcDbLine
 10
2909.7759178
 20
414.2631669
 30
0.0
 11
2809.3981658
 21
414.2631669
 31
0.0
  0
LINE
  5
101
330
48
100
AcDbEntity
  8
0
  6
Continuous
 62
     7
100
AcDbLine
 10
2809.3981658
 20
414.2631669
 30
0.0
 11
2958.4400318
 21
167.6911937
 31
0.0
  0
LINE
  5
102
330
48
100
AcDbEntity
  8
0
  6
Continuous
 62
     7
100
AcDbLine
 10
2958.4400318
 20
167.6911937
 30
0.0
 11
2958.4400318
 21
9.6269937
 31
0.0
  0
LINE
  5
103
330
48
100
AcDbEntity
  8
0
  6
Continuous
 62
     7
100
AcDbLine
 10
2958.4400318
 20
9.6269937
 30
0.0
 11
3047.4771918
 21
9.6269937
 31
0.0
  0
LINE
  5
104
330
48
100
AcDbEntity
  8
0
  6
Continuous
 62
     7
100
AcDbLine
 10
3047.4771918
 20
9.6269937
 30
0.0
 11
3047.4520458
 21
165.4482721
 31
0.0
  0
LINE
  5
105
330
48
100
AcDbEntity
  8
0
  6
Continuous
 62
     7
100
AcDbLine
 10
3047.4520458
 20
165.4482721
 30
0.0
 11
3197.6534218
 21
414.2885669
 31
0.0
  0
LINE
  5
106
330
48
100
AcDbEntity
  8
0
  6
Continuous
 62
     7
100
AcDbLine
 10
3197.6534218
 20
414.2885669
 30
0.0
 11
3098.4600718
 21
414.2631669
 31
0.0
  0
LINE
  5
107
330
48
100
AcDbEntity
  8
0
  6
Continuous
 62
     7
100
AcDbLine
 10
0.0
 20
851.0987169
 30
0.0
 11
0.0
 21
650.4387169
 31
0.0
  0
LINE
  5
108
330
48
100
AcDbEntity
  8
0
  6
Continuous
 62
     7
100
AcDbLine
 10
3309.9028798
 20
652.3208569
 30
0.0
 11
3309.9028798
 21
539.6586489
 31
0.0
  0
LINE
  5
109
330
48
100
AcDbEntity
  8
0
  6
Continuous
 62
     7
100
AcDbLine
 10
3398.8028798
 20
539.6586489
 30
0.0
 11
3309.9028798
 21
539.6586489
 31
0.0
  0
LINE
  5
10A
330
48
100
AcDbEntity
  8
0
  6
Continuous
 62
     7
100
AcDbLine
 10
3398.8028798
 20
741.2714029
 30
0.0
 11
3398.8028798
 21
539.6586489
 31
0.0
  0
LINE
  5
10B
330
48
100
AcDbEntity
  8
0
  6
Continuous
 62
     7
100
AcDbLine
 10
88.9
 20
739.3892629
 30
0.0
 11
3398.8028798
 21
741.2714029
 31
0.0
  0
LINE
  5
10C
330
48
100
AcDbEntity
  8
0
  6
Continuous
 62
     7
100
AcDbLine
 10
88.9
 20
851.1492629
 30
0.0
 11
88.9
 21
739.3892629
 31
0.0
  0
LINE
  5
10D
330
48
100
AcDbEntity
  8
0
  6
Continuous
 62
     7
100
AcDbLine
 10
0.0
 20
851.0987169
 30
0.0
 11
88.9
 21
851.1492629
 31
0.0
  0
SPLINE
  5
10E
330
48
100
AcDbEntity
  8
0
  6
Continuous
 62
     7
100
AcDbSpline
210
0.0
220
0.0
230
1.0
 70
     8
 71
     3
 72
     8
 73
     4
 74
     0
 42
0.00000001
 43
0.00000001
 40
1.0
 40
1.0
 40
1.0
 40
1.0
 40
2.0
 40
2.0
 40
2.0
 40
2.0
 10
1113.547176000002
 20
129.9392752999995
 30
0.0
 10
1113.395969800002
 20
221.8241308999995
 30
0.0
 10
1022.846747800001
 20
240.5236108999995
 30
0.0
 10
993.3357324000011
 20
247.7565148999994
 30
0.0
  0
SPLINE
  5
10F
330
48
100
AcDbEntity
  8
0
  6
Continuous
 62
     7
100
AcDbSpline
210
0.0
220
0.0
230
1.0
 70
     8
 71
     3
 72
     8
 73
     4
 74
     0
 42
0.00000001
 43
0.00000001
 40
2.0
 40
2.0
 40
2.0
 40
2.0
 40
3.0
 40
3.0
 40
3.0
 40
3.0
 10
993.3357324000011
 20
247.7565148999994
 30
0.0
 10
891.8742386000007
 20
273.9408668999994
 30
0.0
 10
872.6202258000013
 20
277.6708568999995
 30
0.0
 10
872.5824306000014
 20
309.0215688999991
 30
0.0
  0
SPLINE
  5
110
330
48
100
AcDbEntity
  8
0
  6
Continuous
 62
     7
100
AcDbSpline
210
0.0
220
0.0
230
1.0
 70
     8
 71
     3
 72
     8
 73
     4
 74
     0
 42
0.00000001
 43
0.00000001
 40
3.0
 40
3.0
 40
3.0
 40
3.0
 40
4.0
 40
4.0
 40
4.0
 40
4.0
 10
872.5824306000014
 20
309.0215688999991
 30
0.0
 10
872.6202258000013
 20
343.0689988999993
 30
0.0
 10
905.4956744000018
 20
354.9135268999995
 30
0.0
 10
933.7844418000012
 20
354.8883808999994
 30
0.0
  0
SPLINE
  5
111
330
48
100
AcDbEntity
  8
0
  6
Continuous
 62
     7
100
AcDbSpline
210
0.0
220
0.0
230
1.0
 70
     8
 71
     3
 72
     8
 73
     4
 74
     0
 42
0.00000001
 43
0.00000001
 40
4.0
 40
4.0
 40
4.0
 40
4.0
 40
5.0
 40
5.0
 40
5.0
 40
5.0
 10
933.7844418000012
 20
354.8883808999994
 30
0.0
 10
976.4002824000011
 20
354.9135268999995
 30
0.0
 10
1010.901204
 20
342.4891168999995
 30
0.0
 10
1013.786796400001
 20
293.7747108999993
 30
0.0
  0
SPLINE
  5
112
330
48
100
AcDbEntity
  8
0
  6
Continuous
 62
     7
100
AcDbSpline
210
0.0
220
0.0
230
1.0
 70
     8
 71
     3
 72
     8
 73
     4
 74
     0
 42
0.00000001
 43
0.00000001
 40
6.0
 40
6.0
 40
6.0
 40
6.0
 40
7.0
 40
7.0
 40
7.0
 40
7.0
 10
1099.925740200001
 20
293.7747108999993
 30
0.0
 10
1099.812329200001
 20
387.3229108999996
 30
0.0
 10
1022.191504000001
 20
424.0668048999994
 30
0.0
 10
937.8166918000011
 20
424.0414048999992
 30
0.0
  0
SPLINE
  5
113
330
48
100
AcDbEntity
  8
0
  6
Continuous
 62
     7
100
AcDbSpline
210
0.0
220
0.0
230
1.0
 70
     8
 71
     3
 72
     8
 73
     4
 74
     0
 42
0.00000001
 43
0.00000001
 40
7.0
 40
7.0
 40
7.0
 40
7.0
 40
8.0
 40
8.0
 40
8.0
 40
8.0
 10
937.8166918000011
 20
424.0414048999992
 30
0.0
 10
865.538604200001
 20
424.1170968999994
 30
0.0
 10
788.5982196000017
 20
385.3066588999994
 30
0.0
 10
786.657710400001
 20
304.7624968999996
 30
0.0
  0
SPLINE
  5
114
330
48
100
AcDbEntity
  8
0
  6
Continuous
 62
     7
100
AcDbSpline
210
0.0
220
0.0
230
1.0
 70
     8
 71
     3
 72
     8
 73
     4
 74
     0
 42
0.00000001
 43
0.00000001
 40
8.0
 40
8.0
 40
8.0
 40
8.0
 40
9.0
 40
9.0
 40
9.0
 40
9.0
 10
786.657710400001
 20
304.7624968999996
 30
0.0
 10
780.6093354000012
 20
389.9942288999996
 30
0.0
 10
706.0757024000015
 20
423.9659668999996
 30
0.0
 10
624.9266902000014
 20
423.8651288999993
 30
0.0
  0
SPLINE
  5
115
330
48
100
AcDbEntity
  8
0
  6
Continuous
 62
     7
100
AcDbSpline
210
0.0
220
0.0
230
1.0
 70
     8
 71
     3
 72
     8
 73
     4
 74
     0
 42
0.00000001
 43
0.00000001
 40
9.0
 40
9.0
 40
9.0
 40
9.0
 40
10.0
 40
10.0
 40
10.0
 40
10.0
 10
624.9266902000014
 20
423.8651288999993
 30
0.0
 10
551.9807604000011
 20
423.8902748999993
 30
0.0
 10
473.7803072000011
 20
384.1222568999996
 30
0.0
 10
473.8307008000016
 20
301.4610048999993
 30
0.0
  0
SPLINE
  5
116
330
48
100
AcDbEntity
  8
0
  6
Continuous
 62
     7
100
AcDbSpline
210
0.0
220
0.0
230
1.0
 70
     8
 71
     3
 72
     8
 73
     4
 74
     0
 42
0.00000001
 43
0.00000001
 40
10.0
 40
10.0
 40
10.0
 40
10.0
 40
11.0
 40
11.0
 40
11.0
 40
11.0
 10
473.8307008000016
 20
301.4610048999993
 30
0.0
 10
473.8307008000016
 20
225.4027368999991
 30
0.0
 10
534.4908792000007
 20
202.2930548999993
 30
0.0
 10
594.5462074000014
 20
186.4411688999996
 30
0.0
  0
SPLINE
  5
117
330
48
100
AcDbEntity
  8
0
  6
Continuous
 62
     7
100
AcDbSpline
210
0.0
220
0.0
230
1.0
 70
     8
 71
     3
 72
     8
 73
     4
 74
     0
 42
0.00000001
 43
0.00000001
 40
11.0
 40
11.0
 40
11.0
 40
11.0
 40
12.0
 40
12.0
 40
12.0
 40
12.0
 10
594.5462074000014
 20
186.4411688999996
 30
0.0
 10
654.1100964000011
 20
170.5641876999993
 30
0.0
 10
714.7324542000009
 20
163.2305218999996
 30
0.0
 10
714.6694368000012
 20
119.6318282999993
 30
0.0
  0
SPLINE
  5
118
330
48
100
AcDbEntity
  8
0
  6
Continuous
 62
     7
100
AcDbSpline
210
0.0
220
0.0
230
1.0
 70
     8
 71
     3
 72
     8
 73
     4
 74
     0
 42
0.00000001
 43
0.00000001
 40
12.0
 40
12.0
 40
12.0
 40
12.0
 40
13.0
 40
13.0
 40
13.0
 40
13.0
 10
714.6694368000012
 20
119.6318282999993
 30
0.0
 10
714.7072574000015
 20
78.27605629999911
 30
0.0
 10
667.1519042000016
 20
69.22870329999941
 30
0.0
 10
636.027963400001
 20
69.10269389999968
 30
0.0
  0
SPLINE
  5
119
330
48
100
AcDbEntity
  8
0
  6
Continuous
 62
     7
100
AcDbSpline
210
0.0
220
0.0
230
1.0
 70
     8
 71
     3
 72
     8
 73
     4
 74
     0
 42
0.00000001
 43
0.00000001
 40
13.0
 40
13.0
 40
13.0
 40
13.0
 40
14.0
 40
14.0
 40
14.0
 40
14.0
 10
636.027963400001
 20
69.10269389999968
 30
0.0
 10
588.3466008000014
 20
69.0523002999992
 30
0.0
 10
546.4994150000014
 20
90.09559069999939
 30
0.0
 10
546.4238246000015
 20
143.9009186999996
 30
0.0
  0
SPLINE
  5
11A
330
48
100
AcDbEntity
  8
0
  6
Continuous
 62
     7
100
AcDbSpline
210
0.0
220
0.0
230
1.0
 70
     8
 71
     3
 72
     8
 73
     4
 74
     0
 42
0.00000001
 43
0.00000001
 40
24.0
 40
24.0
 40
24.0
 40
24.0
 40
25.0
 40
25.0
 40
25.0
 40
25.0
 10
497.4697696000012
 20
47.42935649999946
 30
0.0
 10
530.105797800001
 20
15.09574069999919
 30
0.0
 10
580.2569040000014
 20
-0.0504063000001942
 30
0.0
 10
632.6005636000014
 20
0.0504062999997501
 30
0.0
  0
SPLINE
  5
11B
330
48
100
AcDbEntity
  8
0
  6
Continuous
 62
     7
100
AcDbSpline
210
0.0
220
0.0
230
1.0
 70
     8
 71
     3
 72
     8
 73
     4
 74
     0
 42
0.00000001
 43
0.00000001
 40
25.0
 40
25.0
 40
25.0
 40
25.0
 40
26.0
 40
26.0
 40
26.0
 40
26.0
 10
632.6005636000014
 20
0.0504062999997501
 30
0.0
 10
713.5983696000005
 20
-0.0251841000005193
 30
0.0
 10
766.559452400001
 20
30.26708449999971
 30
0.0
 10
788.8124432000012
 20
75.90712529999965
 30
0.0
  0
SPLINE
  5
11C
330
48
100
AcDbEntity
  8
0
  6
Continuous
 62
     7
100
AcDbSpline
210
0.0
220
0.0
230
1.0
 70
     8
 71
     3
 72
     8
 73
     4
 74
     0
 42
0.00000001
 43
0.00000001
 40
26.0
 40
26.0
 40
26.0
 40
26.0
 40
27.0
 40
27.0
 40
27.0
 40
27.0
 10
788.8124432000012
 20
75.90712529999965
 30
0.0
 10
817.1390058000005
 20
23.94149389999933
 30
0.0
 10
879.6388808000008
 20
0.1008252999992187
 30
0.0
 10
945.3771542000018
 20
0.1764156999994881
 30
0.0
  0
SPLINE
  5
11D
330
48
100
AcDbEntity
  8
0
  6
Continuous
 62
     7
100
AcDbSpline
210
0.0
220
0.0
230
1.0
 70
     8
 71
     3
 72
     8
 73
     4
 74
     0
 42
0.00000001
 43
0.00000001
 40
27.0
 40
27.0
 40
27.0
 40
27.0
 40
28.0
 40
28.0
 40
28.0
 40
28.0
 10
945.3771542000018
 20
0.1764156999994881
 30
0.0
 10
1008.910275800001
 20
0.1764156999994881
 30
0.0
 10
1055.079551000001
 20
18.85077509999977
 30
0.0
 10
1082.826460200001
 20
48.89105029999952
 30
0.0
  0
SPLINE
  5
11E
330
48
100
AcDbEntity
  8
0
  6
Continuous
 62
     7
100
AcDbSpline
210
0.0
220
0.0
230
1.0
 70
     8
 71
     3
 72
     8
 73
     4
 74
     0
 42
0.00000001
 43
0.00000001
 40
0.0
 40
0.0
 40
0.0
 40
0.0
 40
1.0
 40
1.0
 40
1.0
 40
1.0
 10
948.5525352000019
 20
69.32951589999936
 30
0.0
 10
901.047601000001
 20
69.22870329999941
 30
0.0
 10
859.0870042000018
 20
90.24679689999937
 30
0.0
 10
858.935798000001
 20
143.9009186999996
 30
0.0
  0
SPLINE
  5
11F
330
48
100
AcDbEntity
  8
0
  6
Continuous
 62
     7
100
AcDbSpline
210
0.0
220
0.0
230
1.0
 70
     8
 71
     3
 72
     8
 73
     4
 74
     0
 42
0.00000001
 43
0.00000001
 40
2.0
 40
2.0
 40
2.0
 40
2.0
 40
3.0
 40
3.0
 40
3.0
 40
3.0
 10
799.9641354000007
 20
143.9765344999997
 30
0.0
 10
791.1561774000013
 20
223.5630148999994
 30
0.0
 10
708.5832666000016
 20
240.6749948999991
 30
0.0
 10
680.584338600001
 20
247.6810768999993
 30
0.0
  0
SPLINE
  5
120
330
48
100
AcDbEntity
  8
0
  6
Continuous
 62
     7
100
AcDbSpline
210
0.0
220
0.0
230
1.0
 70
     8
 71
     3
 72
     8
 73
     4
 74
     0
 42
0.00000001
 43
0.00000001
 40
3.0
 40
3.0
 40
3.0
 40
3.0
 40
4.0
 40
4.0
 40
4.0
 40
4.0
 10
680.584338600001
 20
247.6810768999993
 30
0.0
 10
579.324444600001
 20
273.7142988999994
 30
0.0
 10
559.9696446000015
 20
277.7716948999998
 30
0.0
 10
559.919251000001
 20
308.8198928999994
 30
0.0
  0
SPLINE
  5
121
330
48
100
AcDbEntity
  8
0
  6
Continuous
 62
     7
100
AcDbSpline
210
0.0
220
0.0
230
1.0
 70
     8
 71
     3
 72
     8
 73
     4
 74
     0
 42
0.00000001
 43
0.00000001
 40
4.0
 40
4.0
 40
4.0
 40
4.0
 40
5.0
 40
5.0
 40
5.0
 40
5.0
 10
559.919251000001
 20
308.8198928999994
 30
0.0
 10
560.0452604000017
 20
342.8924688999992
 30
0.0
 10
592.8072980000012
 20
354.8126888999996
 30
0.0
 10
621.1212368000014
 20
354.7372508999991
 30
0.0
  0
SPLINE
  5
122
330
48
100
AcDbEntity
  8
0
  6
Continuous
 62
     7
100
AcDbSpline
210
0.0
220
0.0
230
1.0
 70
     8
 71
     3
 72
     8
 73
     4
 74
     0
 42
0.00000001
 43
0.00000001
 40
5.0
 40
5.0
 40
5.0
 40
5.0
 40
6.0
 40
6.0
 40
6.0
 40
6.0
 10
621.1212368000014
 20
354.7372508999991
 30
0.0
 10
663.6992822000014
 20
354.7372508999991
 30
0.0
 10
698.1498102000012
 20
342.4136788999994
 30
0.0
 10
701.085796200001
 20
293.6738728999995
 30
0.0
  0
SPLINE
  5
123
330
48
100
AcDbEntity
  8
0
  6
Continuous
 62
     7
100
AcDbSpline
210
0.0
220
0.0
230
1.0
 70
     8
 71
     3
 72
     8
 73
     4
 74
     0
 42
0.00000001
 43
0.00000001
 40
7.0
 40
7.0
 40
7.0
 40
7.0
 40
8.0
 40
8.0
 40
8.0
 40
8.0
 10
786.8845324000011
 20
293.6738728999995
 30
0.0
 10
791.0931854000012
 20
224.0672048999994
 30
0.0
 10
849.2835948000011
 20
201.7888648999997
 30
0.0
 10
907.1715918000009
 20
186.6428448999997
 30
0.0
  0
SPLINE
  5
124
330
48
100
AcDbEntity
  8
0
  6
Continuous
 62
     7
100
AcDbSpline
210
0.0
220
0.0
230
1.0
 70
     8
 71
     3
 72
     8
 73
     4
 74
     0
 42
0.00000001
 43
0.00000001
 40
8.0
 40
8.0
 40
8.0
 40
8.0
 40
9.0
 40
9.0
 40
9.0
 40
9.0
 10
907.1715918000009
 20
186.6428448999997
 30
0.0
 10
966.7480792000011
 20
170.7909842999995
 30
0.0
 10
1027.446027400001
 20
163.4573438999993
 30
0.0
 10
1027.458625800001
 20
119.7830344999993
 30
0.0
  0
SPLINE
  5
125
330
48
100
AcDbEntity
  8
0
  6
Continuous
 62
     7
100
AcDbSpline
210
0.0
220
0.0
230
1.0
 70
     8
 71
     3
 72
     8
 73
     4
 74
     0
 42
0.00000001
 43
0.00000001
 40
9.0
 40
9.0
 40
9.0
 40
9.0
 40
10.0
 40
10.0
 40
10.0
 40
10.0
 10
1027.458625800001
 20
119.7830344999993
 30
0.0
 10
1027.446027400001
 20
78.45245929999933
 30
0.0
 10
979.9032980000009
 20
69.3547126999996
 30
0.0
 10
948.5525352000019
 20
69.32951589999936
 30
0.0
  0
SPLINE
  5
126
330
48
100
AcDbEntity
  8
0
  6
Continuous
 62
     7
100
AcDbSpline
210
0.0
220
0.0
230
1.0
 70
     8
 71
     3
 72
     8
 73
     4
 74
     0
 42
0.00000001
 43
0.00000001
 40
0.0
 40
0.0
 40
0.0
 40
0.0
 40
1.0
 40
1.0
 40
1.0
 40
1.0
 10
2181.828681800002
 20
229.6366628999995
 30
0.0
 10
2217.0353678
 20
246.6729508999994
 30
0.0
 10
2236.818665800001
 20
274.4953488999995
 30
0.0
 10
2236.9195038
 20
314.1879288999991
 30
0.0
  0
SPLINE
  5
127
330
48
100
AcDbEntity
  8
0
  6
Continuous
 62
     7
100
AcDbSpline
210
0.0
220
0.0
230
1.0
 70
     8
 71
     3
 72
     8
 73
     4
 74
     0
 42
0.00000001
 43
0.00000001
 40
1.0
 40
1.0
 40
1.0
 40
1.0
 40
2.0
 40
2.0
 40
2.0
 40
2.0
 10
2236.9195038
 20
314.1879288999991
 30
0.0
 10
2236.818665800001
 20
389.4900388999995
 30
0.0
 10
2184.676529800002
 20
414.4648428999993
 30
0.0
 10
2107.4841518
 20
414.1877288999996
 30
0.0
  0
SPLINE
  5
128
330
48
100
AcDbEntity
  8
0
  6
Continuous
 62
     7
100
AcDbSpline
210
0.0
220
0.0
230
1.0
 70
     8
 71
     3
 72
     8
 73
     4
 74
     0
 42
0.00000001
 43
0.00000001
 40
14.0
 40
14.0
 40
14.0
 40
14.0
 40
15.0
 40
15.0
 40
15.0
 40
15.0
 10
2113.456961800002
 20
9.551403299999706
 30
0.0
 10
2186.516251800002
 20
9.727806299999475
 30
0.0
 10
2256.148319800001
 20
45.03520329999944
 30
0.0
 10
2256.223757800002
 20
127.2174874999994
 30
0.0
  0
SPLINE
  5
129
330
48
100
AcDbEntity
  8
0
  6
Continuous
 62
     7
100
AcDbSpline
210
0.0
220
0.0
230
1.0
 70
     8
 71
     3
 72
     8
 73
     4
 74
     0
 42
0.00000001
 43
0.00000001
 40
15.0
 40
15.0
 40
15.0
 40
15.0
 40
16.0
 40
16.0
 40
16.0
 40
16.0
 10
2256.223757800002
 20
127.2174874999994
 30
0.0
 10
2256.148319800001
 20
177.6710568999995
 30
0.0
 10
2231.173515800001
 20
215.5742068999995
 30
0.0
 10
2181.828681800002
 20
229.6366628999995
 30
0.0
  0
SPLINE
  5
12A
330
48
100
AcDbEntity
  8
0
  6
Continuous
 62
     7
100
AcDbSpline
210
0.0
220
0.0
230
1.0
 70
     8
 71
     3
 72
     8
 73
     4
 74
     0
 42
0.00000001
 43
0.00000001
 40
1.0
 40
1.0
 40
1.0
 40
1.0
 40
2.0
 40
2.0
 40
2.0
 40
2.0
 10
2089.414591800002
 20
345.3621108999995
 30
0.0
 10
2121.092963800002
 20
345.2866728999995
 30
0.0
 10
2150.654499800001
 20
337.3984488999997
 30
0.0
 10
2150.755337800002
 20
298.8653788999995
 30
0.0
  0
SPLINE
  5
12B
330
48
100
AcDbEntity
  8
0
  6
Continuous
 62
     7
100
AcDbSpline
210
0.0
220
0.0
230
1.0
 70
     8
 71
     3
 72
     8
 73
     4
 74
     0
 42
0.00000001
 43
0.00000001
 40
2.0
 40
2.0
 40
2.0
 40
2.0
 40
3.0
 40
3.0
 40
3.0
 40
3.0
 10
2150.755337800002
 20
298.8653788999995
 30
0.0
 10
2150.704791800002
 20
264.7676568999993
 30
0.0
 10
2127.368287800001
 20
250.5538168999992
 30
0.0
 10
2096.420673800002
 20
250.6295088999995
 30
0.0
  0
SPLINE
  5
12C
330
48
100
AcDbEntity
  8
0
  6
Continuous
 62
     7
100
AcDbSpline
210
0.0
220
0.0
230
1.0
 70
     8
 71
     3
 72
     8
 73
     4
 74
     0
 42
0.00000001
 43
0.00000001
 40
3.0
 40
3.0
 40
3.0
 40
3.0
 40
4.0
 40
4.0
 40
4.0
 40
4.0
 10
2103.149641800001
 20
190.0449208999993
 30
0.0
 10
2141.077937800001
 20
190.0954668999995
 30
0.0
 10
2167.262289800001
 20
173.5882608999995
 30
0.0
 10
2167.161451800001
 20
132.2073936999994
 30
0.0
  0
SPLINE
  5
12D
330
48
100
AcDbEntity
  8
0
  6
Continuous
 62
     7
100
AcDbSpline
210
0.0
220
0.0
230
1.0
 70
     8
 71
     3
 72
     8
 73
     4
 74
     0
 42
0.00000001
 43
0.00000001
 40
4.0
 40
4.0
 40
4.0
 40
4.0
 40
5.0
 40
5.0
 40
5.0
 40
5.0
 10
2167.161451800001
 20
132.2073936999994
 30
0.0
 10
2167.161451800001
 20
90.22160009999958
 30
0.0
 10
2136.516351800001
 20
78.93130009999982
 30
0.0
 10
2101.536741800001
 20
78.93130009999982
 30
0.0
  0
SPLINE
  5
12E
330
48
100
AcDbEntity
  8
0
  6
Continuous
 62
     7
100
AcDbSpline
210
0.0
220
0.0
230
1.0
 70
     8
 71
     3
 72
     8
 73
     4
 74
     0
 42
0.00000001
 43
0.00000001
 40
0.0
 40
0.0
 40
0.0
 40
0.0
 40
1.0
 40
1.0
 40
1.0
 40
1.0
 10
2672.9821318
 20
424.1422428999995
 30
0.0
 10
2547.7807058
 20
424.2179348999992
 30
0.0
 10
2474.040949800002
 20
330.7705728999993
 30
0.0
 10
2474.141787800001
 20
210.5086848999997
 30
0.0
  0
SPLINE
  5
12F
330
48
100
AcDbEntity
  8
0
  6
Continuous
 62
     7
100
AcDbSpline
210
0.0
220
0.0
230
1.0
 70
     8
 71
     3
 72
     8
 73
     4
 74
     0
 42
0.00000001
 43
0.00000001
 40
1.0
 40
1.0
 40
1.0
 40
1.0
 40
2.0
 40
2.0
 40
2.0
 40
2.0
 10
2474.141787800001
 20
210.5086848999997
 30
0.0
 10
2474.242625800001
 20
163.2809408999991
 30
0.0
 10
2486.465359800001
 20
120.0350532999996
 30
0.0
 10
2509.071105800001
 20
85.08048769999954
 30
0.0
  0
SPLINE
  5
130
330
48
100
AcDbEntity
  8
0
  6
Continuous
 62
     7
100
AcDbSpline
210
0.0
220
0.0
230
1.0
 70
     8
 71
     3
 72
     8
 73
     4
 74
     0
 42
0.00000001
 43
0.00000001
 40
8.0
 40
8.0
 40
8.0
 40
8.0
 40
9.0
 40
9.0
 40
9.0
 40
9.0
 10
2527.468325800002
 20
60.86179089999977
 30
0.0
 10
2561.490355800001
 20
23.36186589999922
 30
0.0
 10
2610.986319800001
 20
0.2772282999994324
 30
0.0
 10
2673.234099800001
 20
0.3528186999997018
 30
0.0
  0
SPLINE
  5
131
330
48
100
AcDbEntity
  8
0
  6
Continuous
 62
     7
100
AcDbSpline
210
0.0
220
0.0
230
1.0
 70
     8
 71
     3
 72
     8
 73
     4
 74
     0
 42
0.00000001
 43
0.00000001
 40
9.0
 40
9.0
 40
9.0
 40
9.0
 40
10.0
 40
10.0
 40
10.0
 40
10.0
 10
2673.234099800001
 20
0.3528186999997018
 30
0.0
 10
2798.460671800001
 20
0.3528186999997018
 30
0.0
 10
2872.099589800001
 20
93.90101869999911
 30
0.0
 10
2871.973605800001
 20
210.6346688999996
 30
0.0
  0
SPLINE
  5
132
330
48
100
AcDbEntity
  8
0
  6
Continuous
 62
     7
100
AcDbSpline
210
0.0
220
0.0
230
1.0
 70
     8
 71
     3
 72
     8
 73
     4
 74
     0
 42
0.00000001
 43
0.00000001
 40
10.0
 40
10.0
 40
10.0
 40
10.0
 40
11.0
 40
11.0
 40
11.0
 40
11.0
 10
2871.973605800001
 20
210.6346688999996
 30
0.0
 10
2872.023897800001
 20
330.8460108999998
 30
0.0
 10
2798.208703800001
 20
424.3439188999991
 30
0.0
 10
2672.9821318
 20
424.1422428999995
 30
0.0
  0
SPLINE
  5
133
330
48
100
AcDbEntity
  8
0
  6
Continuous
 62
     7
100
AcDbSpline
210
0.0
220
0.0
230
1.0
 70
     8
 71
     3
 72
     8
 73
     4
 74
     0
 42
0.00000001
 43
0.00000001
 40
3.0
 40
3.0
 40
3.0
 40
3.0
 40
4.0
 40
4.0
 40
4.0
 40
4.0
 10
2783.163267800001
 20
210.7103608999994
 30
0.0
 10
2783.238959800001
 20
143.0944686999993
 30
0.0
 10
2753.097795800001
 20
75.17626569999925
 30
0.0
 10
2673.208953800001
 20
75.05025629999973
 30
0.0
  0
SPLINE
  5
134
330
48
100
AcDbEntity
  8
0
  6
Continuous
 62
     7
100
AcDbSpline
210
0.0
220
0.0
230
1.0
 70
     8
 71
     3
 72
     8
 73
     4
 74
     0
 42
0.00000001
 43
0.00000001
 40
2.0
 40
2.0
 40
2.0
 40
2.0
 40
3.0
 40
3.0
 40
3.0
 40
3.0
 10
2673.057569800001
 20
349.3943608999994
 30
0.0
 10
2753.022103800001
 20
349.3943608999994
 30
0.0
 10
2783.012137800001
 20
281.4511388999996
 30
0.0
 10
2783.163267800001
 20
210.7103608999994
 30
0.0
  0
SPLINE
  5
135
330
48
100
AcDbEntity
  8
0
  6
Continuous
 62
     7
100
AcDbSpline
210
0.0
220
0.0
230
1.0
 70
     8
 71
     3
 72
     8
 73
     4
 74
     0
 42
0.00000001
 43
0.00000001
 40
1.0
 40
1.0
 40
1.0
 40
1.0
 40
2.0
 40
2.0
 40
2.0
 40
2.0
 10
2563.153547800001
 20
210.5086848999997
 30
0.0
 10
2563.052963800001
 20
281.3251548999993
 30
0.0
 10
2593.0175978
 20
349.3440688999993
 30
0.0
 10
2673.057569800001
 20
349.3943608999994
 30
0.0
  0
SPLINE
  5
136
330
48
100
AcDbEntity
  8
0
  6
Continuous
 62
     7
100
AcDbSpline
210
0.0
220
0.0
230
1.0
 70
     8
 71
     3
 72
     8
 73
     4
 74
     0
 42
0.00000001
 43
0.00000001
 40
0.0
 40
0.0
 40
0.0
 40
0.0
 40
1.0
 40
1.0
 40
1.0
 40
1.0
 10
2673.208953800001
 20
75.05025629999973
 30
0.0
 10
2593.244419800001
 20
75.0502562999995
 30
0.0
 10
2563.254385800001
 20
143.0692718999995
 30
0.0
 10
2563.153547800001
 20
210.5086848999997
 30
0.0
  0
ENDBLK
  5
4A
330
48
100
AcDbEntity
  8
0
100
AcDbBlockEnd
  0
BLOCK
  5
138
330
137
100
AcDbEntity
  8
0
100
AcDbBlockBegin
  2
effeff Logo fuer Schriftkopf
 70
     0
 10
0.0
 20
0.0
 30
0.0
  3
effeff Logo fuer Schriftkopf
  1

  0
INSERT
  5
142
330
137
100
AcDbEntity
  8
0
  6
Continuous
 62
     7
370
     0
100
AcDbBlockReference
  2
SW_NOTE_0
 10
10.9430671197
 20
8.8581138453
 30
0.0
  0
INSERT
  5
143
330
137
100
AcDbEntity
  8
0
  6
Continuous
 62
     7
100
AcDbBlockReference
  2
effeff Logo-0015_2
 10
0.0
 20
0.0
 30
0.0
 41
0.003
 42
0.003
 43
0.003
  0
ENDBLK
  5
139
330
137
100
AcDbEntity
  8
0
100
AcDbBlockEnd
  0
BLOCK
  5
13B
330
13A
100
AcDbEntity
  8
0
100
AcDbBlockBegin
  2
SW_NOTE_0
 70
     0
 10
0.0
 20
0.0
 30
0.0
  3
SW_NOTE_0
  1

  0
MTEXT
  5
13E
330
13A
100
AcDbEntity
  8
0
  6
Continuous
 62
     0
370
     0
100
AcDbMText
 10
0.0
 20
2.3874608764
 30
0.0
 40
1.8520833333
 41
0.0
 71
     1
 72
     1
  1
ASSA ABLOY
  7
SLDTEXTSTYLE0
 73
     1
 44
1.0
  0
MTEXT
  5
13F
330
13A
100
AcDbEntity
  8
0
  6
Continuous
 62
     0
370
     0
100
AcDbMText
 10
0.0
 20
-0.0819835382
 30
0.0
 40
1.8520833333
 41
0.0
 71
     1
 72
     1
  1
Sicherheitstechnik GmbH
  7
SLDTEXTSTYLE0
 73
     1
 44
1.0
  0
MTEXT
  5
140
330
13A
100
AcDbEntity
  8
0
  6
Continuous
 62
     0
370
     0
100
AcDbMText
 10
0.0
 20
-2.5514279528
 30
0.0
 40
1.8520833333
 41
0.0
 71
     1
 72
     1
  1
Bildstockstrasse 20
  7
SLDTEXTSTYLE0
 73
     1
 44
1.0
  0
MTEXT
  5
141
330
13A
100
AcDbEntity
  8
0
  6
Continuous
 62
     0
370
     0
100
AcDbMText
 10
0.0
 20
-5.0208723674
 30
0.0
 40
1.8520833333
 41
0.0
 71
     1
 72
     1
  1
72458 Albstadt
  7
SLDTEXTSTYLE0
 73
     1
 44
1.0
  0
ENDBLK
  5
13C
330
13A
100
AcDbEntity
  8
0
100
AcDbBlockEnd
  0
BLOCK
  5
16D
330
16C
100
AcDbEntity
  8
0
100
AcDbBlockBegin
  2
SW_NOTE_1
 70
     0
 10
0.0
 20
0.0
 30
0.0
  3
SW_NOTE_1
  1

  0
MTEXT
  5
16F
330
16C
100
AcDbEntity
  8
0
  6
Continuous
 62
     0
370
     0
100
AcDbMText
 10
0.0
 20
2.0463950369
 30
0.0
 40
1.5875
 41
0.0
 71
     1
 72
     1
  1
Blatt
  7
SLDTEXTSTYLE1
 73
     1
 44
1.0
  0
MTEXT
  5
170
330
16C
100
AcDbEntity
  8
0
  6
Continuous
 62
     0
370
     0
100
AcDbMText
 10
0.0
 20
-0.0702716042
 30
0.0
 40
1.5875
 41
0.0
 71
     1
 72
     1
  1
sheet
  7
SLDTEXTSTYLE1
 73
     1
 44
1.0
  0
ENDBLK
  5
16E
330
16C
100
AcDbEntity
  8
0
100
AcDbBlockEnd
  0
BLOCK
  5
176
330
175
100
AcDbEntity
  8
0
100
AcDbBlockBegin
  2
SW_NOTE_2
 70
     0
 10
0.0
 20
0.0
 30
0.0
  3
SW_NOTE_2
  1

  0
MTEXT
  5
178
330
175
100
AcDbEntity
  8
0
  6
Continuous
 62
     0
370
     0
100
AcDbMText
 10
0.0
 20
2.0463950369
 30
0.0
 40
1.5875
 41
0.0
 71
     1
 72
     1
  1
freig.
  7
SLDTEXTSTYLE1
 73
     1
 44
1.0
  0
MTEXT
  5
179
330
175
100
AcDbEntity
  8
0
  6
Continuous
 62
     0
370
     0
100
AcDbMText
 10
0.0
 20
-0.0702716042
 30
0.0
 40
1.5875
 41
0.0
 71
     1
 72
     1
  1
approved
  7
SLDTEXTSTYLE1
 73
     1
 44
1.0
  0
ENDBLK
  5
177
330
175
100
AcDbEntity
  8
0
100
AcDbBlockEnd
  0
BLOCK
  5
17C
330
17B
100
AcDbEntity
  8
0
100
AcDbBlockBegin
  2
SW_NOTE_3
 70
     0
 10
0.0
 20
0.0
 30
0.0
  3
SW_NOTE_3
  1

  0
MTEXT
  5
17E
330
17B
100
AcDbEntity
  8
0
  6
Continuous
 62
     0
370
     0
100
AcDbMText
 10
0.0
 20
2.0463950369
 30
0.0
 40
1.5875
 41
0.0
 71
     1
 72
     1
  1
Gepr.
  7
SLDTEXTSTYLE1
 73
     1
 44
1.0
  0
MTEXT
  5
17F
330
17B
100
AcDbEntity
  8
0
  6
Continuous
 62
     0
370
     0
100
AcDbMText
 10
0.0
 20
-0.0702716042
 30
0.0
 40
1.5875
 41
0.0
 71
     1
 72
     1
  1
checked
  7
SLDTEXTSTYLE1
 73
     1
 44
1.0
  0
ENDBLK
  5
17D
330
17B
100
AcDbEntity
  8
0
100
AcDbBlockEnd
  0
BLOCK
  5
182
330
181
100
AcDbEntity
  8
0
100
AcDbBlockBegin
  2
SW_NOTE_4
 70
     0
 10
0.0
 20
0.0
 30
0.0
  3
SW_NOTE_4
  1

  0
MTEXT
  5
184
330
181
100
AcDbEntity
  8
0
  6
Continuous
 62
     0
370
     0
100
AcDbMText
 10
0.0
 20
2.0463950369
 30
0.0
 40
1.5875
 41
0.0
 71
     1
 72
     1
  1
Bearb.
  7
SLDTEXTSTYLE1
 73
     1
 44
1.0
  0
MTEXT
  5
185
330
181
100
AcDbEntity
  8
0
  6
Continuous
 62
     0
370
     0
100
AcDbMText
 10
0.0
 20
-0.0702716042
 30
0.0
 40
1.5875
 41
0.0
 71
     1
 72
     1
  1
author
  7
SLDTEXTSTYLE1
 73
     1
 44
1.0
  0
ENDBLK
  5
183
330
181
100
AcDbEntity
  8
0
100
AcDbBlockEnd
  0
BLOCK
  5
188
330
187
100
AcDbEntity
  8
0
100
AcDbBlockBegin
  2
SW_NOTE_5
 70
     0
 10
0.0
 20
0.0
 30
0.0
  3
SW_NOTE_5
  1

  0
MTEXT
  5
18A
330
187
100
AcDbEntity
  8
0
  6
Continuous
 62
     0
370
     0
100
AcDbMText
 10
0.0
 20
2.0463950369
 30
0.0
 40
1.5875
 41
0.0
 71
     1
 72
     1
  1
Name
  7
SLDTEXTSTYLE1
 73
     1
 44
1.0
  0
MTEXT
  5
18B
330
187
100
AcDbEntity
  8
0
  6
Continuous
 62
     0
370
     0
100
AcDbMText
 10
0.0
 20
-0.0702716042
 30
0.0
 40
1.5875
 41
0.0
 71
     1
 72
     1
  1
name
  7
SLDTEXTSTYLE1
 73
     1
 44
1.0
  0
ENDBLK
  5
189
330
187
100
AcDbEntity
  8
0
100
AcDbBlockEnd
  0
BLOCK
  5
18E
330
18D
100
AcDbEntity
  8
0
100
AcDbBlockBegin
  2
SW_NOTE_6
 70
     0
 10
0.0
 20
0.0
 30
0.0
  3
SW_NOTE_6
  1

  0
MTEXT
  5
190
330
18D
100
AcDbEntity
  8
0
  6
Continuous
 62
     0
370
     0
100
AcDbMText
 10
0.0
 20
2.0463950369
 30
0.0
 40
1.5875
 41
0.0
 71
     1
 72
     1
  1
Datum
  7
SLDTEXTSTYLE1
 73
     1
 44
1.0
  0
MTEXT
  5
191
330
18D
100
AcDbEntity
  8
0
  6
Continuous
 62
     0
370
     0
100
AcDbMText
 10
0.0
 20
-0.0702716042
 30
0.0
 40
1.5875
 41
0.0
 71
     1
 72
     1
  1
date
  7
SLDTEXTSTYLE1
 73
     1
 44
1.0
  0
ENDBLK
  5
18F
330
18D
100
AcDbEntity
  8
0
100
AcDbBlockEnd
  0
BLOCK
  5
194
330
193
100
AcDbEntity
  8
0
100
AcDbBlockBegin
  2
SW_NOTE_7
 70
     0
 10
0.0
 20
0.0
 30
0.0
  3
SW_NOTE_7
  1

  0
MTEXT
  5
196
330
193
100
AcDbEntity
  8
0
  6
Continuous
 62
     0
370
     0
100
AcDbMText
 10
0.0
 20
2.0463950369
 30
0.0
 40
1.5875
 41
0.0
 71
     1
 72
     1
  1
Aenderung
  7
SLDTEXTSTYLE1
 73
     1
 44
1.0
  0
MTEXT
  5
197
330
193
100
AcDbEntity
  8
0
  6
Continuous
 62
     0
370
     0
100
AcDbMText
 10
0.0
 20
-0.0702716042
 30
0.0
 40
1.5875
 41
0.0
 71
     1
 72
     1
  1
description
  7
SLDTEXTSTYLE1
 73
     1
 44
1.0
  0
ENDBLK
  5
195
330
193
100
AcDbEntity
  8
0
100
AcDbBlockEnd
  0
BLOCK
  5
19A
330
199
100
AcDbEntity
  8
0
100
AcDbBlockBegin
  2
SW_NOTE_8
 70
     0
 10
0.0
 20
0.0
 30
0.0
  3
SW_NOTE_8
  1

  0
MTEXT
  5
19C
330
199
100
AcDbEntity
  8
0
  6
Continuous
 62
     0
370
     0
100
AcDbMText
 10
0.0
 20
2.0463950369
 30
0.0
 40
1.5875
 41
0.0
 71
     1
 72
     1
  1
Stand
  7
SLDTEXTSTYLE1
 73
     1
 44
1.0
  0
MTEXT
  5
19D
330
199
100
AcDbEntity
  8
0
  6
Continuous
 62
     0
370
     0
100
AcDbMText
 10
0.0
 20
-0.0702716042
 30
0.0
 40
1.5875
 41
0.0
 71
     1
 72
     1
  1
state
  7
SLDTEXTSTYLE1
 73
     1
 44
1.0
  0
ENDBLK
  5
19B
330
199
100
AcDbEntity
  8
0
100
AcDbBlockEnd
  0
BLOCK
  5
1AB
330
1AA
100
AcDbEntity
  8
0
100
AcDbBlockBegin
  2
SW_NOTE_9
 70
     0
 10
0.0
 20
0.0
 30
0.0
  3
SW_NOTE_9
  1

  0
MTEXT
  5
1AD
330
1AA
100
AcDbEntity
  8
0
  6
Continuous
 62
     0
370
     0
100
AcDbMText
 10
0.0
 20
3.4106583948
 30
0.0
 40
2.6458333333
 41
0.0
 71
     1
 72
     1
  1
Gewicht/
  7
SLDTEXTSTYLE1
 73
     1
 44
1.0
  0
MTEXT
  5
1AE
330
1AA
100
AcDbEntity
  8
0
  6
Continuous
 62
     0
370
     0
100
AcDbMText
 10
0.0
 20
-0.1171193403
 30
0.0
 40
2.6458333333
 41
0.0
 71
     1
 72
     1
  1
weight:
  7
SLDTEXTSTYLE1
 73
     1
 44
1.0
  0
ENDBLK
  5
1AC
330
1AA
100
AcDbEntity
  8
0
100
AcDbBlockEnd
  0
BLOCK
  5
28A
330
289
100
AcDbEntity
  8
0
100
AcDbBlockBegin
  2
*D13
 70
     1
 10
0.0
 20
0.0
 30
0.0
  3
*D13
  1

  0
SOLID
  5
28C
330
289
100
AcDbEntity
  8
0
  6
Continuous
 62
     7
370
     0
100
AcDbTrace
 10
77.8389366579
 20
131.8272457007
 30
0.0
 11
78.3389366579
 21
135.1272457007
 31
0.0
 12
77.3389366579
 22
135.1272457007
 32
0.0
 13
77.3389366579
 23
135.1272457007
 33
0.0
  0
SOLID
  5
28D
330
289
100
AcDbEntity
  8
0
  6
Continuous
 62
     7
370
     0
100
AcDbTrace
 10
77.8389366579
 20
199.8272457007
 30
0.0
 11
77.3389366579
 21
196.5272457007
 31
0.0
 12
78.3389366579
 22
196.5272457007
 32
0.0
 13
78.3389366579
 23
196.5272457007
 33
0.0
  0
LINE
  5
28E
330
289
100
AcDbEntity
  8
0
  6
Continuous
 62
     7
370
     0
100
AcDbLine
 10
95.4710994939
 20
131.8272457007
 30
0.0
 11
76.8389366579
 21
131.8272457007
 31
0.0
  0
LINE
  5
28F
330
289
100
AcDbEntity
  8
0
  6
Continuous
 62
     7
370
     0
100
AcDbLine
 10
90.8389366579
 20
199.8272457007
 30
0.0
 11
76.8389366579
 21
199.8272457007
 31
0.0
  0
LINE
  5
290
330
289
100
AcDbEntity
  8
0
  6
Continuous
 62
     7
370
     0
100
AcDbLine
 10
77.8389366579
 20
131.8272457007
 30
0.0
 11
77.8389366579
 21
199.8272457007
 31
0.0
  0
MTEXT
  5
291
330
289
100
AcDbEntity
  8
0
  6
Continuous
 62
     7
370
     0
100
AcDbMText
 10
73.3271993358
 20
163.1543389015
 30
0.0
 40
3.5
 41
0.0
 71
     1
 72
     1
  1
68
  7
SLDTEXTSTYLE1
 11
6.123233995736766E-17
 21
1.0
 31
0.0
 73
     1
 44
1.0
  0
ENDBLK
  5
28B
330
289
100
AcDbEntity
  8
0
100
AcDbBlockEnd
  0
BLOCK
  5
294
330
293
100
AcDbEntity
  8
0
100
AcDbBlockBegin
  2
*D14
 70
     1
 10
0.0
 20
0.0
 30
0.0
  3
*D14
  1

  0
SOLID
  5
296
330
293
100
AcDbEntity
  8
0
  6
Continuous
 62
     7
370
     0
100
AcDbTrace
 10
87.8389366579
 20
121.8272457007
 30
0.0
 11
91.1389366579
 21
121.3272457007
 31
0.0
 12
91.1389366579
 22
122.3272457007
 32
0.0
 13
91.1389366579
 23
122.3272457007
 33
0.0
  0
SOLID
  5
297
330
293
100
AcDbEntity
  8
0
  6
Continuous
 62
     7
370
     0
100
AcDbTrace
 10
374.8389366579
 20
121.8272457007
 30
0.0
 11
371.5389366579
 21
122.3272457007
 31
0.0
 12
371.5389366579
 22
121.3272457007
 32
0.0
 13
371.5389366579
 23
121.3272457007
 33
0.0
  0
LINE
  5
298
330
293
100
AcDbEntity
  8
0
  6
Continuous
 62
     7
370
     0
100
AcDbLine
 10
87.8389366579
 20
134.3272457007
 30
0.0
 11
87.8389366579
 21
120.8272457007
 31
0.0
  0
LINE
  5
299
330
293
100
AcDbEntity
  8
0
  6
Continuous
 62
     7
370
     0
100
AcDbLine
 10
374.8389366579
 20
134.3272457007
 30
0.0
 11
374.8389366579
 21
120.8272457007
 31
0.0
  0
LINE
  5
29A
330
293
100
AcDbEntity
  8
0
  6
Continuous
 62
     7
370
     0
100
AcDbLine
 10
87.8389366579
 20
121.8272457007
 30
0.0
 11
374.8389366579
 21
121.8272457007
 31
0.0
  0
MTEXT
  5
29B
330
293
100
AcDbEntity
  8
0
  6
Continuous
 62
     7
370
     0
100
AcDbMText
 10
227.328784252
 20
126.3389830227
 30
0.0
 40
3.5
 41
0.0
 71
     1
 72
     1
  1
287
  7
SLDTEXTSTYLE1
 73
     1
 44
1.0
  0
ENDBLK
  5
295
330
293
100
AcDbEntity
  8
0
100
AcDbBlockEnd
  0
BLOCK
  5
29F
330
29E
100
AcDbEntity
  8
0
100
AcDbBlockBegin
  2
*D15
 70
     1
 10
0.0
 20
0.0
 30
0.0
  3
*D15
  1

  0
SOLID
  5
2A1
330
29E
100
AcDbEntity
  8
0
  6
Continuous
 62
     7
370
     0
100
AcDbTrace
 10
350.6389366579
 20
206.542096018
 30
0.0
 11
347.3389366579
 21
207.042096018
 31
0.0
 12
347.3389366579
 22
206.042096018
 32
0.0
 13
347.3389366579
 23
206.042096018
 33
0.0
  0
SOLID
  5
2A2
330
29E
100
AcDbEntity
  8
0
  6
Continuous
 62
     7
370
     0
100
AcDbTrace
 10
357.0389366579
 20
206.542096018
 30
0.0
 11
360.3389366579
 21
206.042096018
 31
0.0
 12
360.3389366579
 22
207.042096018
 32
0.0
 13
360.3389366579
 23
207.042096018
 33
0.0
  0
LINE
  5
2A3
330
29E
100
AcDbEntity
  8
0
  6
Continuous
 62
     7
370
     0
100
AcDbLine
 10
350.6389366579
 20
199.8272457007
 30
0.0
 11
350.6389366579
 21
207.542096018
 31
0.0
  0
LINE
  5
2A4
330
29E
100
AcDbEntity
  8
0
  6
Continuous
 62
     7
370
     0
100
AcDbLine
 10
357.0389366579
 20
199.8272457007
 30
0.0
 11
357.0389366579
 21
207.542096018
 31
0.0
  0
LINE
  5
2A5
330
29E
100
AcDbEntity
  8
0
  6
Continuous
 62
     7
370
     0
100
AcDbLine
 10
350.6389366579
 20
206.542096018
 30
0.0
 11
344.3889366579
 21
206.542096018
 31
0.0
  0
LINE
  5
2A6
330
29E
100
AcDbEntity
  8
0
  6
Continuous
 62
     7
370
     0
100
AcDbLine
 10
350.6389366579
 20
206.542096018
 30
0.0
 11
357.0389366579
 21
206.542096018
 31
0.0
  0
LINE
  5
2A7
330
29E
100
AcDbEntity
  8
0
  6
Continuous
 62
     7
370
     0
100
AcDbLine
 10
357.0389366579
 20
206.542096018
 30
0.0
 11
372.4786531818
 21
206.542096018
 31
0.0
  0
MTEXT
  5
2A8
330
29E
100
AcDbEntity
  8
0
  6
Continuous
 62
     7
370
     0
100
AcDbMText
 10
359.1062801693
 20
211.0538331072
 30
0.0
 40
3.5
 41
0.0
 71
     1
 72
     1
  1
%%c
  7
SLDTEXTSTYLE1
 73
     1
 44
1.0
  0
MTEXT
  5
2A9
330
29E
100
AcDbEntity
  8
0
  6
Continuous
 62
     7
370
     0
100
AcDbMText
 10
364.2080939768
 20
211.05383334
 30
0.0
 40
3.5
 41
0.0
 71
     1
 72
     1
  1
6,4
  7
SLDTEXTSTYLE1
 73
     1
 44
1.0
  0
ENDBLK
  5
2A0
330
29E
100
AcDbEntity
  8
0
100
AcDbBlockEnd
  0
BLOCK
  5
2AC
330
2AB
100
AcDbEntity
  8
0
100
AcDbBlockBegin
  2
*D16
 70
     1
 10
0.0
 20
0.0
 30
0.0
  3
*D16
  1

  0
SOLID
  5
2AE
330
2AB
100
AcDbEntity
  8
0
  6
Continuous
 62
     7
370
     0
100
AcDbTrace
 10
359.5889366579
 20
178.4376084894
 30
0.0
 11
356.2889366579
 21
178.9376084894
 31
0.0
 12
356.2889366579
 22
177.9376084894
 32
0.0
 13
356.2889366579
 23
177.9376084894
 33
0.0
  0
SOLID
  5
2AF
330
2AB
100
AcDbEntity
  8
0
  6
Continuous
 62
     7
370
     0
100
AcDbTrace
 10
348.0889366579
 20
178.4376084894
 30
0.0
 11
351.3889366579
 21
177.9376084894
 31
0.0
 12
351.3889366579
 22
178.9376084894
 32
0.0
 13
351.3889366579
 23
178.9376084894
 33
0.0
  0
LINE
  5
2B0
330
2AB
100
AcDbEntity
  8
0
  6
Continuous
 62
     7
370
     0
100
AcDbLine
 10
359.5889366579
 20
192.3272457007
 30
0.0
 11
359.5889366579
 21
177.4376084894
 31
0.0
  0
LINE
  5
2B1
330
2AB
100
AcDbEntity
  8
0
  6
Continuous
 62
     7
370
     0
100
AcDbLine
 10
348.0889366579
 20
192.3272457007
 30
0.0
 11
348.0889366579
 21
177.4376084894
 31
0.0
  0
LINE
  5
2B2
330
2AB
100
AcDbEntity
  8
0
  6
Continuous
 62
     7
370
     0
100
AcDbLine
 10
359.5889366579
 20
178.4376084894
 30
0.0
 11
390.8526871748
 21
178.4376084894
 31
0.0
  0
LINE
  5
2B3
330
2AB
100
AcDbEntity
  8
0
  6
Continuous
 62
     7
370
     0
100
AcDbLine
 10
359.5889366579
 20
178.4376084894
 30
0.0
 11
348.0889366579
 21
178.4376084894
 31
0.0
  0
MTEXT
  5
2B4
330
2AB
100
AcDbEntity
  8
0
  6
Continuous
 62
     7
370
     0
100
AcDbMText
 10
374.8058229489
 20
182.9493455786
 30
0.0
 40
3.5
 41
0.0
 71
     1
 72
     1
  1
%%c
  7
SLDTEXTSTYLE1
 73
     1
 44
1.0
  0
MTEXT
  5
2B5
330
2AB
100
AcDbEntity
  8
0
  6
Continuous
 62
     7
370
     0
100
AcDbMText
 10
379.9076367564
 20
182.9493458114
 30
0.0
 40
3.5
 41
0.0
 71
     1
 72
     1
  1
11,5
  7
SLDTEXTSTYLE1
 73
     1
 44
1.0
  0
ENDBLK
  5
2AD
330
2AB
100
AcDbEntity
  8
0
100
AcDbBlockEnd
  0
BLOCK
  5
2B9
330
2B8
100
AcDbEntity
  8
0
100
AcDbBlockBegin
  2
*D17
 70
     1
 10
0.0
 20
0.0
 30
0.0
  3
*D17
  1

  0
ARC
  5
2BB
330
2B8
100
AcDbEntity
  8
0
  6
Continuous
 62
     7
370
     0
100
AcDbCircle
 10
353.8389366579
 20
198.0772457007
 30
0.0
 40
30.47079446649197
100
AcDbArc
 50
225.0
 51
315.0
  0
SOLID
  5
2BC
330
2B8
100
AcDbEntity
  8
0
  6
Continuous
 62
     7
370
     0
100
AcDbTrace
 10
332.2928312625
 20
176.5311403053
 30
0.0
 11
334.4147174366
 21
173.954786474
 31
0.0
 12
335.0826729623
 22
174.698987667
 32
0.0
 13
335.0826729623
 23
174.698987667
 33
0.0
  0
SOLID
  5
2BD
330
2B8
100
AcDbEntity
  8
0
  6
Continuous
 62
     7
370
     0
100
AcDbTrace
 10
375.3850420533
 20
176.5311403053
 30
0.0
 11
372.5952003534
 21
174.698987667
 31
0.0
 12
373.2631558791
 22
173.954786474
 32
0.0
 13
373.2631558791
 23
173.954786474
 33
0.0
  0
LINE
  5
2BE
330
2B8
100
AcDbEntity
  8
0
  6
Continuous
 62
     7
370
     0
100
AcDbLine
 10
348.0889366579
 20
192.3272457007
 30
0.0
 11
331.5857244813
 21
175.8240335241
 31
0.0
  0
LINE
  5
2BF
330
2B8
100
AcDbEntity
  8
0
  6
Continuous
 62
     7
370
     0
100
AcDbLine
 10
359.5889366579
 20
192.3272457007
 30
0.0
 11
376.0921488344
 21
175.8240335241
 31
0.0
  0
MTEXT
  5
2C0
330
2B8
100
AcDbEntity
  8
0
  6
Continuous
 62
     7
370
     0
100
AcDbMText
 10
350.2042904236
 20
172.1181885562
 30
0.0
 40
3.5
 41
0.0
 71
     1
 72
     1
  1
90°
  7
SLDTEXTSTYLE1
 73
     1
 44
1.0
  0
ENDBLK
  5
2BA
330
2B8
100
AcDbEntity
  8
0
100
AcDbBlockEnd
  0
BLOCK
  5
2C3
330
2C2
100
AcDbEntity
  8
0
100
AcDbBlockBegin
  2
*D18
 70
     1
 10
0.0
 20
0.0
 30
0.0
  3
*D18
  1

  0
SOLID
  5
2C5
330
2C2
100
AcDbEntity
  8
0
  6
Continuous
 62
     7
370
     0
100
AcDbTrace
 10
384.8389366579
 20
191.8272457007
 30
0.0
 11
384.3389366579
 21
188.5272457007
 31
0.0
 12
385.3389366579
 22
188.5272457007
 32
0.0
 13
385.3389366579
 23
188.5272457007
 33
0.0
  0
SOLID
  5
2C6
330
2C2
100
AcDbEntity
  8
0
  6
Continuous
 62
     7
370
     0
100
AcDbTrace
 10
384.8389366579
 20
199.8272457007
 30
0.0
 11
385.3389366579
 21
203.1272457007
 31
0.0
 12
384.3389366579
 22
203.1272457007
 32
0.0
 13
384.3389366579
 23
203.1272457007
 33
0.0
  0
LINE
  5
2C7
330
2C2
100
AcDbEntity
  8
0
  6
Continuous
 62
     7
370
     0
100
AcDbLine
 10
371.8389366579
 20
191.8272457007
 30
0.0
 11
385.8389366579
 21
191.8272457007
 31
0.0
  0
LINE
  5
2C8
330
2C2
100
AcDbEntity
  8
0
  6
Continuous
 62
     7
370
     0
100
AcDbLine
 10
371.8389366579
 20
199.8272457007
 30
0.0
 11
385.8389366579
 21
199.8272457007
 31
0.0
  0
LINE
  5
2C9
330
2C2
100
AcDbEntity
  8
0
  6
Continuous
 62
     7
370
     0
100
AcDbLine
 10
384.8389366579
 20
191.8272457007
 30
0.0
 11
384.8389366579
 21
185.5772457007
 31
0.0
  0
LINE
  5
2CA
330
2C2
100
AcDbEntity
  8
0
  6
Continuous
 62
     7
370
     0
100
AcDbLine
 10
384.8389366579
 20
191.8272457007
 30
0.0
 11
384.8389366579
 21
199.8272457007
 31
0.0
  0
LINE
  5
2CB
330
2C2
100
AcDbEntity
  8
0
  6
Continuous
 62
     7
370
     0
100
AcDbLine
 10
384.8389366579
 20
199.8272457007
 30
0.0
 11
384.8389366579
 21
206.0772457007
 31
0.0
  0
MTEXT
  5
2CC
330
2C2
100
AcDbEntity
  8
0
  6
Continuous
 62
     7
370
     0
100
AcDbMText
 10
380.3271993358
 20
194.4915845082
 30
0.0
 40
3.5
 41
0.0
 71
     1
 72
     1
  1
8
  7
SLDTEXTSTYLE1
 11
6.123233995736766E-17
 21
1.0
 31
0.0
 73
     1
 44
1.0
  0
ENDBLK
  5
2C4
330
2C2
100
AcDbEntity
  8
0
100
AcDbBlockEnd
  0
BLOCK
  5
2CF
330
2CE
100
AcDbEntity
  8
0
100
AcDbBlockBegin
  2
*D19
 70
     1
 10
0.0
 20
0.0
 30
0.0
  3
*D19
  1

  0
SOLID
  5
2D1
330
2CE
100
AcDbEntity
  8
0
  6
Continuous
 62
     7
370
     0
100
AcDbTrace
 10
90.8389366579
 20
206.542096018
 30
0.0
 11
94.1389366579
 21
206.042096018
 31
0.0
 12
94.1389366579
 22
207.042096018
 32
0.0
 13
94.1389366579
 23
207.042096018
 33
0.0
  0
SOLID
  5
2D2
330
2CE
100
AcDbEntity
  8
0
  6
Continuous
 62
     7
370
     0
100
AcDbTrace
 10
108.8389366579
 20
206.542096018
 30
0.0
 11
105.5389366579
 21
207.042096018
 31
0.0
 12
105.5389366579
 22
206.042096018
 32
0.0
 13
105.5389366579
 23
206.042096018
 33
0.0
  0
LINE
  5
2D3
330
2CE
100
AcDbEntity
  8
0
  6
Continuous
 62
     7
370
     0
100
AcDbLine
 10
90.8389366579
 20
199.8272457007
 30
0.0
 11
90.8389366579
 21
207.542096018
 31
0.0
  0
LINE
  5
2D4
330
2CE
100
AcDbEntity
  8
0
  6
Continuous
 62
     7
370
     0
100
AcDbLine
 10
108.8389366579
 20
200.8272457007
 30
0.0
 11
108.8389366579
 21
207.542096018
 31
0.0
  0
LINE
  5
2D5
330
2CE
100
AcDbEntity
  8
0
  6
Continuous
 62
     7
370
     0
100
AcDbLine
 10
90.8389366579
 20
206.542096018
 30
0.0
 11
108.8389366579
 21
206.542096018
 31
0.0
  0
MTEXT
  5
2D6
330
2CE
100
AcDbEntity
  8
0
  6
Continuous
 62
     7
370
     0
100
AcDbMText
 10
97.1660298587
 20
211.05383334
 30
0.0
 40
3.5
 41
0.0
 71
     1
 72
     1
  1
18
  7
SLDTEXTSTYLE1
 73
     1
 44
1.0
  0
ENDBLK
  5
2D0
330
2CE
100
AcDbEntity
  8
0
100
AcDbBlockEnd
  0
BLOCK
  5
2D9
330
2D8
100
AcDbEntity
  8
0
100
AcDbBlockBegin
  2
*D20
 70
     1
 10
0.0
 20
0.0
 30
0.0
  3
*D20
  1

  0
SOLID
  5
2DB
330
2D8
100
AcDbEntity
  8
0
  6
Continuous
 62
     7
370
     0
100
AcDbTrace
 10
90.8389366579
 20
212.2756556217
 30
0.0
 11
94.1389366579
 21
211.7756556217
 31
0.0
 12
94.1389366579
 22
212.7756556217
 32
0.0
 13
94.1389366579
 23
212.7756556217
 33
0.0
  0
SOLID
  5
2DC
330
2D8
100
AcDbEntity
  8
0
  6
Continuous
 62
     7
370
     0
100
AcDbTrace
 10
231.3389366579
 20
212.2756556217
 30
0.0
 11
228.0389366579
 21
212.7756556217
 31
0.0
 12
228.0389366579
 22
211.7756556217
 32
0.0
 13
228.0389366579
 23
211.7756556217
 33
0.0
  0
LINE
  5
2DD
330
2D8
100
AcDbEntity
  8
0
  6
Continuous
 62
     7
370
     0
100
AcDbLine
 10
90.8389366579
 20
199.8272457007
 30
0.0
 11
90.8389366579
 21
213.2756556217
 31
0.0
  0
LINE
  5
2DE
330
2D8
100
AcDbEntity
  8
0
  6
Continuous
 62
     7
370
     0
100
AcDbLine
 10
231.3389366579
 20
200.8272457007
 30
0.0
 11
231.3389366579
 21
213.2756556217
 31
0.0
  0
LINE
  5
2DF
330
2D8
100
AcDbEntity
  8
0
  6
Continuous
 62
     7
370
     0
100
AcDbLine
 10
90.8389366579
 20
212.2756556217
 30
0.0
 11
231.3389366579
 21
212.2756556217
 31
0.0
  0
MTEXT
  5
2E0
330
2D8
100
AcDbEntity
  8
0
  6
Continuous
 62
     7
370
     0
100
AcDbMText
 10
155.0745002562
 20
216.7873929437
 30
0.0
 40
3.5
 41
0.0
 71
     1
 72
     1
  1
140,5
  7
SLDTEXTSTYLE1
 73
     1
 44
1.0
  0
ENDBLK
  5
2DA
330
2D8
100
AcDbEntity
  8
0
100
AcDbBlockEnd
  0
BLOCK
  5
2E3
330
2E2
100
AcDbEntity
  8
0
100
AcDbBlockBegin
  2
*D21
 70
     1
 10
0.0
 20
0.0
 30
0.0
  3
*D21
  1

  0
SOLID
  5
2E5
330
2E2
100
AcDbEntity
  8
0
  6
Continuous
 62
     7
370
     0
100
AcDbTrace
 10
90.8389366579
 20
228.8619362845
 30
0.0
 11
94.1389366579
 21
228.3619362845
 31
0.0
 12
94.1389366579
 22
229.3619362845
 32
0.0
 13
94.1389366579
 23
229.3619362845
 33
0.0
  0
SOLID
  5
2E6
330
2E2
100
AcDbEntity
  8
0
  6
Continuous
 62
     7
370
     0
100
AcDbTrace
 10
353.8389366579
 20
228.8619362845
 30
0.0
 11
350.5389366579
 21
229.3619362845
 31
0.0
 12
350.5389366579
 22
228.3619362845
 32
0.0
 13
350.5389366579
 23
228.3619362845
 33
0.0
  0
LINE
  5
2E7
330
2E2
100
AcDbEntity
  8
0
  6
Continuous
 62
     7
370
     0
100
AcDbLine
 10
90.8389366579
 20
199.8272457007
 30
0.0
 11
90.8389366579
 21
229.8619362845
 31
0.0
  0
LINE
  5
2E8
330
2E2
100
AcDbEntity
  8
0
  6
Continuous
 62
     7
370
     0
100
AcDbLine
 10
353.8389366579
 20
200.8272457007
 30
0.0
 11
353.8389366579
 21
229.8619362845
 31
0.0
  0
LINE
  5
2E9
330
2E2
100
AcDbEntity
  8
0
  6
Continuous
 62
     7
370
     0
100
AcDbLine
 10
90.8389366579
 20
228.8619362845
 30
0.0
 11
353.8389366579
 21
228.8619362845
 31
0.0
  0
MTEXT
  5
2EA
330
2E2
100
AcDbEntity
  8
0
  6
Continuous
 62
     7
370
     0
100
AcDbMText
 10
218.328784252
 20
233.3736736065
 30
0.0
 40
3.5
 41
0.0
 71
     1
 72
     1
  1
263
  7
SLDTEXTSTYLE1
 73
     1
 44
1.0
  0
ENDBLK
  5
2E4
330
2E2
100
AcDbEntity
  8
0
100
AcDbBlockEnd
  0
BLOCK
  5
2ED
330
2EC
100
AcDbEntity
  8
0
100
AcDbBlockBegin
  2
*D22
 70
     1
 10
0.0
 20
0.0
 30
0.0
  3
*D22
  1

  0
SOLID
  5
2EF
330
2EC
100
AcDbEntity
  8
0
  6
Continuous
 62
     7
370
     0
100
AcDbTrace
 10
90.8389366579
 20
220.4810376983
 30
0.0
 11
94.1389366579
 21
219.9810376983
 31
0.0
 12
94.1389366579
 22
220.9810376983
 32
0.0
 13
94.1389366579
 23
220.9810376983
 33
0.0
  0
SOLID
  5
2F0
330
2EC
100
AcDbEntity
  8
0
  6
Continuous
 62
     7
370
     0
100
AcDbTrace
 10
334.1389366579
 20
220.4810376983
 30
0.0
 11
330.8389366579
 21
220.9810376983
 31
0.0
 12
330.8389366579
 22
219.9810376983
 32
0.0
 13
330.8389366579
 23
219.9810376983
 33
0.0
  0
LINE
  5
2F1
330
2EC
100
AcDbEntity
  8
0
  6
Continuous
 62
     7
370
     0
100
AcDbLine
 10
90.8389366579
 20
199.8272457007
 30
0.0
 11
90.8389366579
 21
221.4810376983
 31
0.0
  0
LINE
  5
2F2
330
2EC
100
AcDbEntity
  8
0
  6
Continuous
 62
     7
370
     0
100
AcDbLine
 10
334.1389366579
 20
200.8272457007
 30
0.0
 11
334.1389366579
 21
221.4810376983
 31
0.0
  0
LINE
  5
2F3
330
2EC
100
AcDbEntity
  8
0
  6
Continuous
 62
     7
370
     0
100
AcDbLine
 10
90.8389366579
 20
220.4810376983
 30
0.0
 11
334.1389366579
 21
220.4810376983
 31
0.0
  0
MTEXT
  5
2F4
330
2EC
100
AcDbEntity
  8
0
  6
Continuous
 62
     7
370
     0
100
AcDbMText
 10
206.4745002562
 20
224.9927750203
 30
0.0
 40
3.5
 41
0.0
 71
     1
 72
     1
  1
243,3
  7
SLDTEXTSTYLE1
 73
     1
 44
1.0
  0
ENDBLK
  5
2EE
330
2EC
100
AcDbEntity
  8
0
100
AcDbBlockEnd
  0
BLOCK
  5
2F7
330
2F6
100
AcDbEntity
  8
0
100
AcDbBlockBegin
  2
*D23
 70
     1
 10
0.0
 20
0.0
 30
0.0
  3
*D23
  1

  0
SOLID
  5
2F9
330
2F6
100
AcDbEntity
  8
0
  6
Continuous
 62
     7
370
     0
100
AcDbTrace
 10
371.8389366579
 20
235.792725052
 30
0.0
 11
368.5389366579
 21
236.292725052
 31
0.0
 12
368.5389366579
 22
235.292725052
 32
0.0
 13
368.5389366579
 23
235.292725052
 33
0.0
  0
SOLID
  5
2FA
330
2F6
100
AcDbEntity
  8
0
  6
Continuous
 62
     7
370
     0
100
AcDbTrace
 10
90.8389366579
 20
235.792725052
 30
0.0
 11
94.1389366579
 21
235.292725052
 31
0.0
 12
94.1389366579
 22
236.292725052
 32
0.0
 13
94.1389366579
 23
236.292725052
 33
0.0
  0
LINE
  5
2FB
330
2F6
100
AcDbEntity
  8
0
  6
Continuous
 62
     7
370
     0
100
AcDbLine
 10
371.8389366579
 20
199.8272457007
 30
0.0
 11
371.8389366579
 21
236.792725052
 31
0.0
  0
LINE
  5
2FC
330
2F6
100
AcDbEntity
  8
0
  6
Continuous
 62
     7
370
     0
100
AcDbLine
 10
90.8389366579
 20
199.8272457007
 30
0.0
 11
90.8389366579
 21
236.792725052
 31
0.0
  0
LINE
  5
2FD
330
2F6
100
AcDbEntity
  8
0
  6
Continuous
 62
     7
370
     0
100
AcDbLine
 10
371.8389366579
 20
235.792725052
 30
0.0
 11
90.8389366579
 21
235.792725052
 31
0.0
  0
MTEXT
  5
2FE
330
2F6
100
AcDbEntity
  8
0
  6
Continuous
 62
     7
370
     0
100
AcDbMText
 10
227.328784252
 20
240.3044623741
 30
0.0
 40
3.5
 41
0.0
 71
     1
 72
     1
  1
281
  7
SLDTEXTSTYLE1
 73
     1
 44
1.0
  0
ENDBLK
  5
2F8
330
2F6
100
AcDbEntity
  8
0
100
AcDbBlockEnd
  0
BLOCK
  5
3CE
330
3CD
100
AcDbEntity
  8
0
100
AcDbBlockBegin
  2
*D24
 70
     1
 10
0.0
 20
0.0
 30
0.0
  3
*D24
  1

  0
SOLID
  5
3D0
330
3CD
100
AcDbEntity
  8
0
  6
Continuous
 62
     7
370
     0
100
AcDbTrace
 10
217.9082090905
 20
93.5294385656
 30
0.0
 11
217.4082090905
 21
90.2294385656
 31
0.0
 12
218.4082090905
 22
90.2294385656
 32
0.0
 13
218.4082090905
 23
90.2294385656
 33
0.0
  0
SOLID
  5
3D1
330
3CD
100
AcDbEntity
  8
0
  6
Continuous
 62
     7
370
     0
100
AcDbTrace
 10
217.9082090905
 20
75.5294385656
 30
0.0
 11
218.4082090905
 21
78.8294385656
 31
0.0
 12
217.4082090905
 22
78.8294385656
 32
0.0
 13
217.4082090905
 23
78.8294385656
 33
0.0
  0
LINE
  5
3D2
330
3CD
100
AcDbEntity
  8
0
  6
Continuous
 62
     7
370
     0
100
AcDbLine
 10
224.5889366579
 20
93.5294385656
 30
0.0
 11
216.9082090905
 21
93.5294385656
 31
0.0
  0
LINE
  5
3D3
330
3CD
100
AcDbEntity
  8
0
  6
Continuous
 62
     7
370
     0
100
AcDbLine
 10
224.5889366579
 20
75.5294385656
 30
0.0
 11
216.9082090905
 21
75.5294385656
 31
0.0
  0
LINE
  5
3D4
330
3CD
100
AcDbEntity
  8
0
  6
Continuous
 62
     7
370
     0
100
AcDbLine
 10
217.9082090905
 20
93.5294385656
 30
0.0
 11
217.9082090905
 21
75.5294385656
 31
0.0
  0
MTEXT
  5
3D5
330
3CD
100
AcDbEntity
  8
0
  6
Continuous
 62
     7
370
     0
100
AcDbMText
 10
213.3964717685
 20
81.8565317664
 30
0.0
 40
3.5
 41
0.0
 71
     1
 72
     1
  1
18
  7
SLDTEXTSTYLE1
 11
-7.044195017643634E-15
 21
1.0
 31
0.0
 73
     1
 44
1.0
  0
ENDBLK
  5
3CF
330
3CD
100
AcDbEntity
  8
0
100
AcDbBlockEnd
  0
BLOCK
  5
3D8
330
3D7
100
AcDbEntity
  8
0
100
AcDbBlockBegin
  2
*D25
 70
     1
 10
0.0
 20
0.0
 30
0.0
  3
*D25
  1

  0
SOLID
  5
3DA
330
3D7
100
AcDbEntity
  8
0
  6
Continuous
 62
     7
370
     0
100
AcDbTrace
 10
217.9082090905
 20
75.5294385656
 30
0.0
 11
218.4082090905
 21
78.8294385656
 31
0.0
 12
217.4082090905
 22
78.8294385656
 32
0.0
 13
217.4082090905
 23
78.8294385656
 33
0.0
  0
SOLID
  5
3DB
330
3D7
100
AcDbEntity
  8
0
  6
Continuous
 62
     7
370
     0
100
AcDbTrace
 10
217.9082090905
 20
66.0294385656
 30
0.0
 11
217.4082090905
 21
62.7294385656
 31
0.0
 12
218.4082090905
 22
62.7294385656
 32
0.0
 13
218.4082090905
 23
62.7294385656
 33
0.0
  0
LINE
  5
3DC
330
3D7
100
AcDbEntity
  8
0
  6
Continuous
 62
     7
370
     0
100
AcDbLine
 10
224.5889366579
 20
75.5294385656
 30
0.0
 11
216.9082090905
 21
75.5294385656
 31
0.0
  0
LINE
  5
3DD
330
3D7
100
AcDbEntity
  8
0
  6
Continuous
 62
     7
370
     0
100
AcDbLine
 10
217.9082090905
 20
75.5294385656
 30
0.0
 11
217.9082090905
 21
81.7794385656
 31
0.0
  0
LINE
  5
3DE
330
3D7
100
AcDbEntity
  8
0
  6
Continuous
 62
     7
370
     0
100
AcDbLine
 10
217.9082090905
 20
75.5294385656
 30
0.0
 11
217.9082090905
 21
66.0294385656
 31
0.0
  0
LINE
  5
3DF
330
3D7
100
AcDbEntity
  8
0
  6
Continuous
 62
     7
370
     0
100
AcDbLine
 10
217.9082090905
 20
66.0294385656
 30
0.0
 11
217.9082090905
 21
53.8509235954
 31
0.0
  0
MTEXT
  5
3E0
330
3D7
100
AcDbEntity
  8
0
  6
Continuous
 62
     7
370
     0
100
AcDbMText
 10
213.3964717685
 20
55.4384235954
 30
0.0
 40
3.5
 41
0.0
 71
     1
 72
     1
  1
9,5
  7
SLDTEXTSTYLE1
 11
-7.044195017643634E-15
 21
1.0
 31
0.0
 73
     1
 44
1.0
  0
ENDBLK
  5
3D9
330
3D7
100
AcDbEntity
  8
0
100
AcDbBlockEnd
  0
BLOCK
  5
3E3
330
3E2
100
AcDbEntity
  8
0
100
AcDbBlockBegin
  2
*D26
 70
     1
 10
0.0
 20
0.0
 30
0.0
  3
*D26
  1

  0
SOLID
  5
3E5
330
3E2
100
AcDbEntity
  8
0
  6
Continuous
 62
     7
370
     0
100
AcDbTrace
 10
317.9964431867
 20
81.5294385656
 30
0.0
 11
317.4964431867
 21
78.2294385656
 31
0.0
 12
318.4964431867
 22
78.2294385656
 32
0.0
 13
318.4964431867
 23
78.2294385656
 33
0.0
  0
SOLID
  5
3E6
330
3E2
100
AcDbEntity
  8
0
  6
Continuous
 62
     7
370
     0
100
AcDbTrace
 10
317.9964431867
 20
67.0294385656
 30
0.0
 11
318.4964431867
 21
70.3294385656
 31
0.0
 12
317.4964431867
 22
70.3294385656
 32
0.0
 13
317.4964431867
 23
70.3294385656
 33
0.0
  0
LINE
  5
3E7
330
3E2
100
AcDbEntity
  8
0
  6
Continuous
 62
     7
370
     0
100
AcDbLine
 10
325.6389366579
 20
81.5294385656
 30
0.0
 11
316.9964431867
 21
81.5294385656
 31
0.0
  0
LINE
  5
3E8
330
3E2
100
AcDbEntity
  8
0
  6
Continuous
 62
     7
370
     0
100
AcDbLine
 10
317.9964431867
 20
81.5294385656
 30
0.0
 11
317.9964431867
 21
67.0294385656
 31
0.0
  0
MTEXT
  5
3E9
330
3E2
100
AcDbEntity
  8
0
  6
Continuous
 62
     7
370
     0
100
AcDbMText
 10
313.4847058647
 20
69.6006633564
 30
0.0
 40
3.5
 41
0.0
 71
     1
 72
     1
  1
14,5
  7
SLDTEXTSTYLE1
 11
-7.044195017643634E-15
 21
1.0
 31
0.0
 73
     1
 44
1.0
  0
ENDBLK
  5
3E4
330
3E2
100
AcDbEntity
  8
0
100
AcDbBlockEnd
  0
BLOCK
  5
3ED
330
3EC
100
AcDbEntity
  8
0
100
AcDbBlockBegin
  2
*D27
 70
     1
 10
0.0
 20
0.0
 30
0.0
  3
*D27
  1

  0
SOLID
  5
3EF
330
3EC
100
AcDbEntity
  8
0
  6
Continuous
 62
     7
370
     0
100
AcDbTrace
 10
327.6437461295
 20
85.2794385656
 30
0.0
 11
325.035862297
 21
87.3624512675
 31
0.0
 12
324.535862297
 22
86.4964258637
 32
0.0
 13
324.535862297
 23
86.4964258637
 33
0.0
  0
LINE
  5
3F0
330
3EC
100
AcDbEntity
  8
0
  6
Continuous
 62
     7
370
     0
100
AcDbLine
 10
327.6437461295
 20
85.2794385656
 30
0.0
 11
312.2626556108
 21
94.159715317
 31
0.0
  0
LINE
  5
3F1
330
3EC
100
AcDbEntity
  8
0
  6
Continuous
 62
     7
370
     0
100
AcDbLine
 10
327.6437461295
 20
85.2794385656
 30
0.0
 11
340.6341271862
 21
77.7794385656
 31
0.0
  0
MTEXT
  5
3F2
330
3EC
100
AcDbEntity
  8
0
  6
Continuous
 62
     7
370
     0
100
AcDbMText
 10
315.8796155902
 20
97.2494737704
 30
0.0
 40
3.5
 41
0.0
 71
     1
 72
     1
  1
%%c
  7
SLDTEXTSTYLE1
 11
0.8660254037844405
 21
-0.4999999999999968
 31
0.0
 73
     1
 44
1.0
  0
MTEXT
  5
3F3
330
3EC
100
AcDbEntity
  8
0
  6
Continuous
 62
     7
370
     0
100
AcDbMText
 10
320.2979160694
 20
94.6985670683
 30
0.0
 40
3.5
 41
0.0
 71
     1
 72
     1
  1
15
  7
SLDTEXTSTYLE1
 11
0.8660254037844405
 21
-0.4999999999999968
 31
0.0
 73
     1
 44
1.0
  0
ENDBLK
  5
3EE
330
3EC
100
AcDbEntity
  8
0
100
AcDbBlockEnd
  0
BLOCK
  5
3F5
330
3F4
100
AcDbEntity
  8
0
100
AcDbBlockBegin
  2
SW_CENTERMARKSYMBOL_0
 70
     0
 10
0.0
 20
0.0
 30
0.0
  3
SW_CENTERMARKSYMBOL_0
  1

  0
LINE
  5
3F7
330
3F4
100
AcDbEntity
  8
0
  6
Continuous
 62
     0
370
     0
100
AcDbLine
 10
0.0
 20
0.0
 30
0.0
 11
0.0
 21
1.0
 31
0.0
  0
LINE
  5
3F8
330
3F4
100
AcDbEntity
  8
0
  6
Continuous
 62
     0
370
     0
100
AcDbLine
 10
0.0
 20
0.0
 30
0.0
 11
-1.0
 21
0.0
 31
0.0
  0
LINE
  5
3F9
330
3F4
100
AcDbEntity
  8
0
  6
Continuous
 62
     0
370
     0
100
AcDbLine
 10
0.0
 20
0.0
 30
0.0
 11
0.0
 21
-1.0
 31
0.0
  0
LINE
  5
3FA
330
3F4
100
AcDbEntity
  8
0
  6
Continuous
 62
     0
370
     0
100
AcDbLine
 10
0.0
 20
0.0
 30
0.0
 11
1.0
 21
0.0
 31
0.0
  0
LINE
  5
3FB
330
3F4
100
AcDbEntity
  8
0
  6
Continuous
 62
     0
370
     0
100
AcDbLine
 10
0.0
 20
2.0
 30
0.0
 11
0.0
 21
6.75
 31
0.0
  0
LINE
  5
3FC
330
3F4
100
AcDbEntity
  8
0
  6
Continuous
 62
     0
370
     0
100
AcDbLine
 10
-2.0
 20
0.0
 30
0.0
 11
-6.75
 21
0.0
 31
0.0
  0
LINE
  5
3FD
330
3F4
100
AcDbEntity
  8
0
  6
Continuous
 62
     0
370
     0
100
AcDbLine
 10
0.0
 20
-2.0
 30
0.0
 11
0.0
 21
-6.75
 31
0.0
  0
LINE
  5
3FE
330
3F4
100
AcDbEntity
  8
0
  6
Continuous
 62
     0
370
     0
100
AcDbLine
 10
2.0
 20
0.0
 30
0.0
 11
6.75
 21
0.0
 31
0.0
  0
ENDBLK
  5
3F6
330
3F4
100
AcDbEntity
  8
0
100
AcDbBlockEnd
  0
BLOCK
  5
401
330
400
100
AcDbEntity
  8
0
100
AcDbBlockBegin
  2
SW_CENTERMARKSYMBOL_1
 70
     0
 10
0.0
 20
0.0
 30
0.0
  3
SW_CENTERMARKSYMBOL_1
  1

  0
LINE
  5
403
330
400
100
AcDbEntity
  8
0
  6
Continuous
 62
     0
370
     0
100
AcDbLine
 10
0.0
 20
0.0
 30
0.0
 11
0.0
 21
1.0
 31
0.0
  0
LINE
  5
404
330
400
100
AcDbEntity
  8
0
  6
Continuous
 62
     0
370
     0
100
AcDbLine
 10
0.0
 20
0.0
 30
0.0
 11
-1.0
 21
0.0
 31
0.0
  0
LINE
  5
405
330
400
100
AcDbEntity
  8
0
  6
Continuous
 62
     0
370
     0
100
AcDbLine
 10
0.0
 20
0.0
 30
0.0
 11
0.0
 21
-1.0
 31
0.0
  0
LINE
  5
406
330
400
100
AcDbEntity
  8
0
  6
Continuous
 62
     0
370
     0
100
AcDbLine
 10
0.0
 20
0.0
 30
0.0
 11
1.0
 21
0.0
 31
0.0
  0
LINE
  5
407
330
400
100
AcDbEntity
  8
0
  6
Continuous
 62
     0
370
     0
100
AcDbLine
 10
0.0
 20
2.0
 30
0.0
 11
0.0
 21
6.75
 31
0.0
  0
LINE
  5
408
330
400
100
AcDbEntity
  8
0
  6
Continuous
 62
     0
370
     0
100
AcDbLine
 10
-2.0
 20
0.0
 30
0.0
 11
-6.75
 21
0.0
 31
0.0
  0
LINE
  5
409
330
400
100
AcDbEntity
  8
0
  6
Continuous
 62
     0
370
     0
100
AcDbLine
 10
0.0
 20
-2.0
 30
0.0
 11
0.0
 21
-6.75
 31
0.0
  0
LINE
  5
40A
330
400
100
AcDbEntity
  8
0
  6
Continuous
 62
     0
370
     0
100
AcDbLine
 10
2.0
 20
0.0
 30
0.0
 11
6.75
 21
0.0
 31
0.0
  0
ENDBLK
  5
402
330
400
100
AcDbEntity
  8
0
100
AcDbBlockEnd
  0
BLOCK
  5
40D
330
40C
100
AcDbEntity
  8
0
100
AcDbBlockBegin
  2
SW_CENTERMARKSYMBOL_2
 70
     0
 10
0.0
 20
0.0
 30
0.0
  3
SW_CENTERMARKSYMBOL_2
  1

  0
LINE
  5
40F
330
40C
100
AcDbEntity
  8
0
  6
Continuous
 62
     0
370
     0
100
AcDbLine
 10
0.0
 20
0.0
 30
0.0
 11
0.0
 21
1.0
 31
0.0
  0
LINE
  5
410
330
40C
100
AcDbEntity
  8
0
  6
Continuous
 62
     0
370
     0
100
AcDbLine
 10
0.0
 20
0.0
 30
0.0
 11
-1.0
 21
0.0
 31
0.0
  0
LINE
  5
411
330
40C
100
AcDbEntity
  8
0
  6
Continuous
 62
     0
370
     0
100
AcDbLine
 10
0.0
 20
0.0
 30
0.0
 11
0.0
 21
-1.0
 31
0.0
  0
LINE
  5
412
330
40C
100
AcDbEntity
  8
0
  6
Continuous
 62
     0
370
     0
100
AcDbLine
 10
0.0
 20
0.0
 30
0.0
 11
1.0
 21
0.0
 31
0.0
  0
LINE
  5
413
330
40C
100
AcDbEntity
  8
0
  6
Continuous
 62
     0
370
     0
100
AcDbLine
 10
0.0
 20
2.0
 30
0.0
 11
0.0
 21
8.5
 31
0.0
  0
LINE
  5
414
330
40C
100
AcDbEntity
  8
0
  6
Continuous
 62
     0
370
     0
100
AcDbLine
 10
-2.0
 20
0.0
 30
0.0
 11
-8.5
 21
0.0
 31
0.0
  0
LINE
  5
415
330
40C
100
AcDbEntity
  8
0
  6
Continuous
 62
     0
370
     0
100
AcDbLine
 10
0.0
 20
-2.0
 30
0.0
 11
0.0
 21
-8.5
 31
0.0
  0
LINE
  5
416
330
40C
100
AcDbEntity
  8
0
  6
Continuous
 62
     0
370
     0
100
AcDbLine
 10
2.0
 20
0.0
 30
0.0
 11
8.5
 21
0.0
 31
0.0
  0
ENDBLK
  5
40E
330
40C
100
AcDbEntity
  8
0
100
AcDbBlockEnd
  0
BLOCK
  5
419
330
418
100
AcDbEntity
  8
0
100
AcDbBlockBegin
  2
SW_CENTERMARKSYMBOL_3
 70
     0
 10
0.0
 20
0.0
 30
0.0
  3
SW_CENTERMARKSYMBOL_3
  1

  0
LINE
  5
41B
330
418
100
AcDbEntity
  8
0
  6
Continuous
 62
     0
370
     0
100
AcDbLine
 10
0.0
 20
0.0
 30
0.0
 11
0.0
 21
1.0
 31
0.0
  0
LINE
  5
41C
330
418
100
AcDbEntity
  8
0
  6
Continuous
 62
     0
370
     0
100
AcDbLine
 10
0.0
 20
0.0
 30
0.0
 11
-1.0
 21
0.0
 31
0.0
  0
LINE
  5
41D
330
418
100
AcDbEntity
  8
0
  6
Continuous
 62
     0
370
     0
100
AcDbLine
 10
0.0
 20
0.0
 30
0.0
 11
0.0
 21
-1.0
 31
0.0
  0
LINE
  5
41E
330
418
100
AcDbEntity
  8
0
  6
Continuous
 62
     0
370
     0
100
AcDbLine
 10
0.0
 20
0.0
 30
0.0
 11
1.0
 21
0.0
 31
0.0
  0
LINE
  5
41F
330
418
100
AcDbEntity
  8
0
  6
Continuous
 62
     0
370
     0
100
AcDbLine
 10
0.0
 20
2.0
 30
0.0
 11
0.0
 21
6.75
 31
0.0
  0
LINE
  5
420
330
418
100
AcDbEntity
  8
0
  6
Continuous
 62
     0
370
     0
100
AcDbLine
 10
-2.0
 20
0.0
 30
0.0
 11
-6.75
 21
0.0
 31
0.0
  0
LINE
  5
421
330
418
100
AcDbEntity
  8
0
  6
Continuous
 62
     0
370
     0
100
AcDbLine
 10
0.0
 20
-2.0
 30
0.0
 11
0.0
 21
-6.75
 31
0.0
  0
LINE
  5
422
330
418
100
AcDbEntity
  8
0
  6
Continuous
 62
     0
370
     0
100
AcDbLine
 10
2.0
 20
0.0
 30
0.0
 11
6.75
 21
0.0
 31
0.0
  0
ENDBLK
  5
41A
330
418
100
AcDbEntity
  8
0
100
AcDbBlockEnd
  0
BLOCK
  5
425
330
424
100
AcDbEntity
  8
0
100
AcDbBlockBegin
  2
SW_CENTERMARKSYMBOL_4
 70
     0
 10
0.0
 20
0.0
 30
0.0
  3
SW_CENTERMARKSYMBOL_4
  1

  0
LINE
  5
427
330
424
100
AcDbEntity
  8
0
  6
Continuous
 62
     0
370
     0
100
AcDbLine
 10
0.0
 20
0.0
 30
0.0
 11
0.0
 21
1.0
 31
0.0
  0
LINE
  5
428
330
424
100
AcDbEntity
  8
0
  6
Continuous
 62
     0
370
     0
100
AcDbLine
 10
0.0
 20
0.0
 30
0.0
 11
-1.0
 21
0.0
 31
0.0
  0
LINE
  5
429
330
424
100
AcDbEntity
  8
0
  6
Continuous
 62
     0
370
     0
100
AcDbLine
 10
0.0
 20
0.0
 30
0.0
 11
0.0
 21
-1.0
 31
0.0
  0
LINE
  5
42A
330
424
100
AcDbEntity
  8
0
  6
Continuous
 62
     0
370
     0
100
AcDbLine
 10
0.0
 20
0.0
 30
0.0
 11
1.0
 21
0.0
 31
0.0
  0
LINE
  5
42B
330
424
100
AcDbEntity
  8
0
  6
Continuous
 62
     0
370
     0
100
AcDbLine
 10
0.0
 20
2.0
 30
0.0
 11
0.0
 21
6.75
 31
0.0
  0
LINE
  5
42C
330
424
100
AcDbEntity
  8
0
  6
Continuous
 62
     0
370
     0
100
AcDbLine
 10
-2.0
 20
0.0
 30
0.0
 11
-6.75
 21
0.0
 31
0.0
  0
LINE
  5
42D
330
424
100
AcDbEntity
  8
0
  6
Continuous
 62
     0
370
     0
100
AcDbLine
 10
0.0
 20
-2.0
 30
0.0
 11
0.0
 21
-6.75
 31
0.0
  0
LINE
  5
42E
330
424
100
AcDbEntity
  8
0
  6
Continuous
 62
     0
370
     0
100
AcDbLine
 10
2.0
 20
0.0
 30
0.0
 11
6.75
 21
0.0
 31
0.0
  0
ENDBLK
  5
426
330
424
100
AcDbEntity
  8
0
100
AcDbBlockEnd
  0
BLOCK
  5
431
330
430
100
AcDbEntity
  8
0
100
AcDbBlockBegin
  2
SW_CENTERMARKSYMBOL_5
 70
     0
 10
0.0
 20
0.0
 30
0.0
  3
SW_CENTERMARKSYMBOL_5
  1

  0
LINE
  5
433
330
430
100
AcDbEntity
  8
0
  6
Continuous
 62
     0
370
     0
100
AcDbLine
 10
0.0
 20
0.0
 30
0.0
 11
0.0
 21
1.0
 31
0.0
  0
LINE
  5
434
330
430
100
AcDbEntity
  8
0
  6
Continuous
 62
     0
370
     0
100
AcDbLine
 10
0.0
 20
0.0
 30
0.0
 11
-1.0
 21
0.0
 31
0.0
  0
LINE
  5
435
330
430
100
AcDbEntity
  8
0
  6
Continuous
 62
     0
370
     0
100
AcDbLine
 10
0.0
 20
0.0
 30
0.0
 11
0.0
 21
-1.0
 31
0.0
  0
LINE
  5
436
330
430
100
AcDbEntity
  8
0
  6
Continuous
 62
     0
370
     0
100
AcDbLine
 10
0.0
 20
0.0
 30
0.0
 11
1.0
 21
0.0
 31
0.0
  0
LINE
  5
437
330
430
100
AcDbEntity
  8
0
  6
Continuous
 62
     0
370
     0
100
AcDbLine
 10
0.0
 20
2.0
 30
0.0
 11
0.0
 21
6.75
 31
0.0
  0
LINE
  5
438
330
430
100
AcDbEntity
  8
0
  6
Continuous
 62
     0
370
     0
100
AcDbLine
 10
-2.0
 20
0.0
 30
0.0
 11
-6.75
 21
0.0
 31
0.0
  0
LINE
  5
439
330
430
100
AcDbEntity
  8
0
  6
Continuous
 62
     0
370
     0
100
AcDbLine
 10
0.0
 20
-2.0
 30
0.0
 11
0.0
 21
-6.75
 31
0.0
  0
LINE
  5
43A
330
430
100
AcDbEntity
  8
0
  6
Continuous
 62
     0
370
     0
100
AcDbLine
 10
2.0
 20
0.0
 30
0.0
 11
6.75
 21
0.0
 31
0.0
  0
ENDBLK
  5
432
330
430
100
AcDbEntity
  8
0
100
AcDbBlockEnd
  0
BLOCK
  5
43D
330
43C
100
AcDbEntity
  8
0
100
AcDbBlockBegin
  2
SW_CENTERMARKSYMBOL_6
 70
     0
 10
0.0
 20
0.0
 30
0.0
  3
SW_CENTERMARKSYMBOL_6
  1

  0
LINE
  5
43F
330
43C
100
AcDbEntity
  8
0
  6
Continuous
 62
     0
370
     0
100
AcDbLine
 10
0.0
 20
0.0
 30
0.0
 11
0.0
 21
1.0
 31
0.0
  0
LINE
  5
440
330
43C
100
AcDbEntity
  8
0
  6
Continuous
 62
     0
370
     0
100
AcDbLine
 10
0.0
 20
0.0
 30
0.0
 11
-1.0
 21
0.0
 31
0.0
  0
LINE
  5
441
330
43C
100
AcDbEntity
  8
0
  6
Continuous
 62
     0
370
     0
100
AcDbLine
 10
0.0
 20
0.0
 30
0.0
 11
0.0
 21
-1.0
 31
0.0
  0
LINE
  5
442
330
43C
100
AcDbEntity
  8
0
  6
Continuous
 62
     0
370
     0
100
AcDbLine
 10
0.0
 20
0.0
 30
0.0
 11
1.0
 21
0.0
 31
0.0
  0
LINE
  5
443
330
43C
100
AcDbEntity
  8
0
  6
Continuous
 62
     0
370
     0
100
AcDbLine
 10
0.0
 20
2.0
 30
0.0
 11
0.0
 21
6.75
 31
0.0
  0
LINE
  5
444
330
43C
100
AcDbEntity
  8
0
  6
Continuous
 62
     0
370
     0
100
AcDbLine
 10
-2.0
 20
0.0
 30
0.0
 11
-6.75
 21
0.0
 31
0.0
  0
LINE
  5
445
330
43C
100
AcDbEntity
  8
0
  6
Continuous
 62
     0
370
     0
100
AcDbLine
 10
0.0
 20
-2.0
 30
0.0
 11
0.0
 21
-6.75
 31
0.0
  0
LINE
  5
446
330
43C
100
AcDbEntity
  8
0
  6
Continuous
 62
     0
370
     0
100
AcDbLine
 10
2.0
 20
0.0
 30
0.0
 11
6.75
 21
0.0
 31
0.0
  0
ENDBLK
  5
43E
330
43C
100
AcDbEntity
  8
0
100
AcDbBlockEnd
  0
BLOCK
  5
449
330
448
100
AcDbEntity
  8
0
100
AcDbBlockBegin
  2
SW_CENTERMARKSYMBOL_7
 70
     0
 10
0.0
 20
0.0
 30
0.0
  3
SW_CENTERMARKSYMBOL_7
  1

  0
LINE
  5
44B
330
448
100
AcDbEntity
  8
0
  6
Continuous
 62
     0
370
     0
100
AcDbLine
 10
0.0
 20
0.0
 30
0.0
 11
0.0
 21
1.0
 31
0.0
  0
LINE
  5
44C
330
448
100
AcDbEntity
  8
0
  6
Continuous
 62
     0
370
     0
100
AcDbLine
 10
0.0
 20
0.0
 30
0.0
 11
-1.0
 21
0.0
 31
0.0
  0
LINE
  5
44D
330
448
100
AcDbEntity
  8
0
  6
Continuous
 62
     0
370
     0
100
AcDbLine
 10
0.0
 20
0.0
 30
0.0
 11
0.0
 21
-1.0
 31
0.0
  0
LINE
  5
44E
330
448
100
AcDbEntity
  8
0
  6
Continuous
 62
     0
370
     0
100
AcDbLine
 10
0.0
 20
0.0
 30
0.0
 11
1.0
 21
0.0
 31
0.0
  0
LINE
  5
44F
330
448
100
AcDbEntity
  8
0
  6
Continuous
 62
     0
370
     0
100
AcDbLine
 10
0.0
 20
2.0
 30
0.0
 11
0.0
 21
3.5
 31
0.0
  0
LINE
  5
450
330
448
100
AcDbEntity
  8
0
  6
Continuous
 62
     0
370
     0
100
AcDbLine
 10
-2.0
 20
0.0
 30
0.0
 11
-3.5
 21
0.0
 31
0.0
  0
LINE
  5
451
330
448
100
AcDbEntity
  8
0
  6
Continuous
 62
     0
370
     0
100
AcDbLine
 10
0.0
 20
-2.0
 30
0.0
 11
0.0
 21
-3.5
 31
0.0
  0
LINE
  5
452
330
448
100
AcDbEntity
  8
0
  6
Continuous
 62
     0
370
     0
100
AcDbLine
 10
2.0
 20
0.0
 30
0.0
 11
3.5
 21
0.0
 31
0.0
  0
ENDBLK
  5
44A
330
448
100
AcDbEntity
  8
0
100
AcDbBlockEnd
  0
BLOCK
  5
455
330
454
100
AcDbEntity
  8
0
100
AcDbBlockBegin
  2
SW_CENTERMARKSYMBOL_8
 70
     0
 10
0.0
 20
0.0
 30
0.0
  3
SW_CENTERMARKSYMBOL_8
  1

  0
LINE
  5
457
330
454
100
AcDbEntity
  8
0
  6
Continuous
 62
     0
370
     0
100
AcDbLine
 10
0.0
 20
0.0
 30
0.0
 11
0.0
 21
1.0
 31
0.0
  0
LINE
  5
458
330
454
100
AcDbEntity
  8
0
  6
Continuous
 62
     0
370
     0
100
AcDbLine
 10
0.0
 20
0.0
 30
0.0
 11
-1.0
 21
0.0
 31
0.0
  0
LINE
  5
459
330
454
100
AcDbEntity
  8
0
  6
Continuous
 62
     0
370
     0
100
AcDbLine
 10
0.0
 20
0.0
 30
0.0
 11
0.0
 21
-1.0
 31
0.0
  0
LINE
  5
45A
330
454
100
AcDbEntity
  8
0
  6
Continuous
 62
     0
370
     0
100
AcDbLine
 10
0.0
 20
0.0
 30
0.0
 11
1.0
 21
0.0
 31
0.0
  0
LINE
  5
45B
330
454
100
AcDbEntity
  8
0
  6
Continuous
 62
     0
370
     0
100
AcDbLine
 10
0.0
 20
2.0
 30
0.0
 11
0.0
 21
3.5
 31
0.0
  0
LINE
  5
45C
330
454
100
AcDbEntity
  8
0
  6
Continuous
 62
     0
370
     0
100
AcDbLine
 10
-2.0
 20
0.0
 30
0.0
 11
-3.5
 21
0.0
 31
0.0
  0
LINE
  5
45D
330
454
100
AcDbEntity
  8
0
  6
Continuous
 62
     0
370
     0
100
AcDbLine
 10
0.0
 20
-2.0
 30
0.0
 11
0.0
 21
-3.5
 31
0.0
  0
LINE
  5
45E
330
454
100
AcDbEntity
  8
0
  6
Continuous
 62
     0
370
     0
100
AcDbLine
 10
2.0
 20
0.0
 30
0.0
 11
3.5
 21
0.0
 31
0.0
  0
ENDBLK
  5
456
330
454
100
AcDbEntity
  8
0
100
AcDbBlockEnd
  0
BLOCK
  5
587
330
586
100
AcDbEntity
  8
0
100
AcDbBlockBegin
  2
*D37
 70
     1
 10
0.0
 20
0.0
 30
0.0
  3
*D37
  1

  0
SOLID
  5
589
330
586
100
AcDbEntity
  8
0
  6
Continuous
 62
     7
370
     0
100
AcDbTrace
 10
66.5762228482
 20
249.1303706247
 30
0.0
 11
67.0762228482
 21
252.4303706247
 31
0.0
 12
66.0762228482
 22
252.4303706247
 32
0.0
 13
66.0762228482
 23
252.4303706247
 33
0.0
  0
SOLID
  5
58A
330
586
100
AcDbEntity
  8
0
  6
Continuous
 62
     7
370
     0
100
AcDbTrace
 10
66.5762228482
 20
287.6303706247
 30
0.0
 11
66.0762228482
 21
284.3303706247
 31
0.0
 12
67.0762228482
 22
284.3303706247
 32
0.0
 13
67.0762228482
 23
284.3303706247
 33
0.0
  0
LINE
  5
58B
330
586
100
AcDbEntity
  8
0
  6
Continuous
 62
     7
370
     0
100
AcDbLine
 10
90.8389366579
 20
249.1303706247
 30
0.0
 11
65.5762228482
 21
249.1303706247
 31
0.0
  0
LINE
  5
58C
330
586
100
AcDbEntity
  8
0
  6
Continuous
 62
     7
370
     0
100
AcDbLine
 10
113.3389366579
 20
287.6303706247
 30
0.0
 11
65.5762228482
 21
287.6303706247
 31
0.0
  0
LINE
  5
58D
330
586
100
AcDbEntity
  8
0
  6
Continuous
 62
     7
370
     0
100
AcDbLine
 10
66.5762228482
 20
249.1303706247
 30
0.0
 11
66.5762228482
 21
287.6303706247
 31
0.0
  0
MTEXT
  5
58E
330
586
100
AcDbEntity
  8
0
  6
Continuous
 62
     7
370
     0
100
AcDbMText
 10
62.0644855262
 20
265.7074638255
 30
0.0
 40
3.5
 41
0.0
 71
     1
 72
     1
  1
39
  7
SLDTEXTSTYLE1
 11
6.123233995736766E-17
 21
1.0
 31
0.0
 73
     1
 44
1.0
  0
ENDBLK
  5
588
330
586
100
AcDbEntity
  8
0
100
AcDbBlockEnd
  0
BLOCK
  5
591
330
590
100
AcDbEntity
  8
0
100
AcDbBlockBegin
  2
*D38
 70
     1
 10
0.0
 20
0.0
 30
0.0
  3
*D38
  1

  0
SOLID
  5
593
330
590
100
AcDbEntity
  8
0
  6
Continuous
 62
     7
370
     0
100
AcDbTrace
 10
77.8389366579
 20
249.1303706247
 30
0.0
 11
78.3389366579
 21
252.4303706247
 31
0.0
 12
77.3389366579
 22
252.4303706247
 32
0.0
 13
77.3389366579
 23
252.4303706247
 33
0.0
  0
SOLID
  5
594
330
590
100
AcDbEntity
  8
0
  6
Continuous
 62
     7
370
     0
100
AcDbTrace
 10
77.8389366579
 20
286.6303706247
 30
0.0
 11
77.3389366579
 21
283.3303706247
 31
0.0
 12
78.3389366579
 22
283.3303706247
 32
0.0
 13
78.3389366579
 23
283.3303706247
 33
0.0
  0
LINE
  5
595
330
590
100
AcDbEntity
  8
0
  6
Continuous
 62
     7
370
     0
100
AcDbLine
 10
90.8389366579
 20
249.1303706247
 30
0.0
 11
76.8389366579
 21
249.1303706247
 31
0.0
  0
LINE
  5
596
330
590
100
AcDbEntity
  8
0
  6
Continuous
 62
     7
370
     0
100
AcDbLine
 10
90.8389366579
 20
286.6303706247
 30
0.0
 11
76.8389366579
 21
286.6303706247
 31
0.0
  0
LINE
  5
597
330
590
100
AcDbEntity
  8
0
  6
Continuous
 62
     7
370
     0
100
AcDbLine
 10
77.8389366579
 20
249.1303706247
 30
0.0
 11
77.8389366579
 21
286.6303706247
 31
0.0
  0
MTEXT
  5
598
330
590
100
AcDbEntity
  8
0
  6
Continuous
 62
     7
370
     0
100
AcDbMText
 10
73.3271993358
 20
263.2015954155
 30
0.0
 40
3.5
 41
0.0
 71
     1
 72
     1
  1
37,5
  7
SLDTEXTSTYLE1
 11
6.123233995736766E-17
 21
1.0
 31
0.0
 73
     1
 44
1.0
  0
ENDBLK
  5
592
330
590
100
AcDbEntity
  8
0
100
AcDbBlockEnd
  0
ENDSEC
  0
SECTION
  2
ENTITIES
  0
LINE
  5
144
330
1F
100
AcDbEntity
  8
0
  6
Continuous
 62
     7
370
     0
100
AcDbLine
 10
420.0
 20
297.0
 30
0.0
 11
420.0
 21
0.1
 31
0.0
  0
LINE
  5
145
330
1F
100
AcDbEntity
  8
0
  6
Continuous
 62
     7
370
     0
100
AcDbLine
 10
420.0
 20
0.1
 30
0.0
 11
0.0
 21
0.1
 31
0.0
  0
LINE
  5
146
330
1F
100
AcDbEntity
  8
0
  6
Continuous
 62
     7
370
     0
100
AcDbLine
 10
0.0
 20
0.1
 30
0.0
 11
0.0
 21
297.0
 31
0.0
  0
LINE
  5
147
330
1F
100
AcDbEntity
  8
0
  6
Continuous
 62
     7
370
     0
100
AcDbLine
 10
0.0
 20
297.0
 30
0.0
 11
420.0
 21
297.0
 31
0.0
  0
LINE
  5
148
330
1F
100
AcDbEntity
  8
LINIEN-DICK
100
AcDbLine
 10
415.0
 20
292.0
 30
0.0
 11
5.0
 21
292.0
 31
0.0
  0
LINE
  5
149
330
1F
100
AcDbEntity
  8
LINIEN-DICK
100
AcDbLine
 10
5.0
 20
292.0
 30
0.0
 11
5.0
 21
5.0
 31
0.0
  0
LINE
  5
14A
330
1F
100
AcDbEntity
  8
0
  6
Continuous
 62
     7
370
     0
100
AcDbLine
 10
21.0
 20
292.0
 30
0.0
 11
21.0
 21
5.0
 31
0.0
  0
LINE
  5
14B
330
1F
100
AcDbEntity
  8
LINIEN-DICK
100
AcDbLine
 10
5.0
 20
5.0
 30
0.0
 11
227.8
 21
5.0
 31
0.0
  0
LINE
  5
14C
330
1F
100
AcDbEntity
  8
LINIEN-DICK
100
AcDbLine
 10
415.0
 20
60.25
 30
0.0
 11
415.0
 21
292.0
 31
0.0
  0
LINE
  5
14D
330
1F
100
AcDbEntity
  8
LINIEN-DICK
100
AcDbLine
 10
227.8
 20
60.25
 30
0.0
 11
227.8
 21
5.0
 31
0.0
  0
LINE
  5
14E
330
1F
100
AcDbEntity
  8
0
  6
Continuous
 62
     7
370
     0
100
AcDbLine
 10
235.42
 20
43.25
 30
0.0
 11
235.42
 21
5.0
 31
0.0
  0
LINE
  5
14F
330
1F
100
AcDbEntity
  8
0
  6
Continuous
 62
     7
370
     0
100
AcDbLine
 10
260.82
 20
5.0
 30
0.0
 11
260.82
 21
43.25
 31
0.0
  0
LINE
  5
150
330
1F
100
AcDbEntity
  8
0
  6
Continuous
 62
     7
370
     0
100
AcDbLine
 10
281.14
 20
22.0
 30
0.0
 11
415.0
 21
22.0
 31
0.0
  0
LINE
  5
151
330
1F
100
AcDbEntity
  8
0
  6
Continuous
 62
     7
370
     0
100
AcDbLine
 10
415.0
 20
43.25
 30
0.0
 11
227.8
 21
43.25
 31
0.0
  0
LINE
  5
152
330
1F
100
AcDbEntity
  8
LINIEN-DICK
100
AcDbLine
 10
227.8
 20
60.25
 30
0.0
 11
415.0
 21
60.25
 31
0.0
  0
LINE
  5
153
330
1F
100
AcDbEntity
  8
0
  6
Continuous
 62
     7
370
     0
100
AcDbLine
 10
281.14
 20
38.9447711707
 30
0.0
 11
227.8
 21
38.9447711707
 31
0.0
  0
LINE
  5
154
330
1F
100
AcDbEntity
  8
0
  6
Continuous
 62
     7
370
     0
100
AcDbLine
 10
281.14
 20
5.0
 30
0.0
 11
281.14
 21
60.25
 31
0.0
  0
LINE
  5
155
330
1F
100
AcDbEntity
  8
LINIEN-DICK
100
AcDbLine
 10
324.32
 20
60.25
 30
0.0
 11
324.32
 21
5.0
 31
0.0
  0
LINE
  5
156
330
1F
100
AcDbEntity
  8
0
  6
Continuous
 62
     7
370
     0
100
AcDbLine
 10
273.52
 20
43.25
 30
0.0
 11
273.52
 21
5.0
 31
0.0
  0
LINE
  5
157
330
1F
100
AcDbEntity
  8
0
  6
Continuous
 62
     7
370
     0
100
AcDbLine
 10
290.5491845626
 20
22.0
 30
0.0
 11
290.5491845626
 21
43.25
 31
0.0
  0
LINE
  5
158
330
1F
100
AcDbEntity
  8
0
  6
Continuous
 62
     7
370
     0
100
AcDbLine
 10
281.14
 20
13.5
 30
0.0
 11
227.8
 21
13.5
 31
0.0
  0
LINE
  5
159
330
1F
100
AcDbEntity
  8
0
  6
Continuous
 62
     7
370
     0
100
AcDbLine
 10
306.6969257405
 20
60.25
 30
0.0
 11
306.6969257405
 21
22.0
 31
0.0
  0
LINE
  5
15A
330
1F
100
AcDbEntity
  8
0
  6
Continuous
 62
     7
370
     0
100
AcDbLine
 10
368.48
 20
5.0
 30
0.0
 11
368.48
 21
9.25
 31
0.0
  0
LINE
  5
15B
330
1F
100
AcDbEntity
  8
0
  6
Continuous
 62
     7
370
     0
100
AcDbLine
 10
376.28
 20
53.875
 30
0.0
 11
376.28
 21
60.25
 31
0.0
  0
LINE
  5
15C
330
1F
100
AcDbEntity
  8
0
  6
Continuous
 62
     7
370
     0
100
AcDbLine
 10
227.8
 20
9.23
 30
0.0
 11
415.0
 21
9.23
 31
0.0
  0
LINE
  5
15D
330
1F
100
AcDbEntity
  8
0
  6
Continuous
 62
     7
370
     0
100
AcDbLine
 10
399.68
 20
9.25
 30
0.0
 11
399.68
 21
22.0
 31
0.0
  0
LINE
  5
15E
330
1F
100
AcDbEntity
  8
0
  6
Continuous
 62
     7
370
     0
100
AcDbLine
 10
415.0
 20
53.875
 30
0.0
 11
324.32
 21
53.875
 31
0.0
  0
LINE
  5
15F
330
1F
100
AcDbEntity
  8
LINIEN-DICK
100
AcDbLine
 10
415.0
 20
5.0
 30
0.0
 11
415.0
 21
60.25
 31
0.0
  0
LINE
  5
160
330
1F
100
AcDbEntity
  8
LINIEN-DICK
100
AcDbLine
 10
227.8
 20
5.0
 30
0.0
 11
415.0
 21
5.0
 31
0.0
  0
LINE
  5
161
330
1F
100
AcDbEntity
  8
0
  6
Continuous
 62
     7
370
     0
100
AcDbLine
 10
281.14
 20
17.75
 30
0.0
 11
227.8
 21
17.75
 31
0.0
  0
LINE
  5
162
330
1F
100
AcDbEntity
  8
0
  6
Continuous
 62
     7
370
     0
100
AcDbLine
 10
281.14
 20
22.0
 30
0.0
 11
227.8
 21
22.0
 31
0.0
  0
LINE
  5
163
330
1F
100
AcDbEntity
  8
0
  6
Continuous
 62
     7
370
     0
100
AcDbLine
 10
324.32
 20
26.25
 30
0.0
 11
227.8
 21
26.25
 31
0.0
  0
LINE
  5
164
330
1F
100
AcDbEntity
  8
0
  6
Continuous
 62
     7
370
     0
100
AcDbLine
 10
324.32
 20
30.5
 30
0.0
 11
227.8
 21
30.5
 31
0.0
  0
LINE
  5
165
330
1F
100
AcDbEntity
  8
0
  6
Continuous
 62
     7
370
     0
100
AcDbLine
 10
324.32
 20
34.75
 30
0.0
 11
227.8
 21
34.75
 31
0.0
  0
LINE
  5
166
330
1F
100
AcDbEntity
  8
0
  6
Continuous
 62
     7
370
     0
100
AcDbLine
 10
324.32
 20
38.9447711707
 30
0.0
 11
281.14
 21
38.9447711707
 31
0.0
  0
LINE
  5
167
330
1F
100
AcDbEntity
  8
0
  6
Continuous
 62
     7
370
     0
100
AcDbLine
 10
415.0
 20
13.5
 30
0.0
 11
399.68
 21
13.5
 31
0.0
  0
INSERT
  5
168
330
1F
100
AcDbEntity
  8
0
  6
Continuous
 62
     7
100
AcDbBlockReference
  2
effeff Logo fuer Schriftkopf
 10
281.4163612828
 20
9.5537357694
 30
0.0
  0
MTEXT
  5
16A
330
1F
100
AcDbEntity
  8
0
  6
Continuous
 62
     7
370
     0
100
AcDbMText
 10
325.8260642912
 20
21.0127144526
 30
0.0
 40
2.5
 41
0.0
 71
     1
 72
     1
  1
Zeichnungsnummer/drawing number:
  7
SLDTEXTSTYLE1
 73
     1
 44
1.0
  0
MTEXT
  5
16B
330
1F
100
AcDbEntity
  8
0
  6
Continuous
 62
     7
370
     0
100
AcDbMText
 10
325.8260642912
 20
52.3779131886
 30
0.0
 40
2.5
 41
0.0
 71
     1
 72
     1
  1
Werkstoff/material:
  7
SLDTEXTSTYLE1
 73
     1
 44
1.0
  0
INSERT
  5
171
330
1F
100
AcDbEntity
  8
0
  6
Continuous
 62
     7
370
     0
100
AcDbBlockReference
  2
SW_NOTE_1
 10
400.679992
 20
19.3836658113
 30
0.0
  0
MTEXT
  5
172
330
1F
100
AcDbEntity
  8
0
  6
Continuous
 62
     7
370
     0
100
AcDbMText
 10
308.6624886193
 20
42.1115838431
 30
0.0
 40
2.0
 41
0.0
 71
     1
 72
     1
  1
Name/name
  7
SLDTEXTSTYLE1
 73
     1
 44
1.0
  0
MTEXT
  5
173
330
1F
100
AcDbEntity
  8
0
  6
Continuous
 62
     7
370
     0
100
AcDbMText
 10
291.5276529145
 20
42.2400306748
 30
0.0
 40
2.1166666667
 41
0.0
 71
     1
 72
     1
  1
Datum/date
  7
SLDTEXTSTYLE1
 73
     1
 44
1.0
  0
MTEXT
  5
174
330
1F
100
AcDbEntity
  8
0
  6
Continuous
 62
     7
370
     0
100
AcDbMText
 10
325.7973605375
 20
58.5086132061
 30
0.0
 40
2.5
 41
0.0
 71
     1
 72
     1
  1
Maßstab/scale: 1:1
  7
SLDTEXTSTYLE1
 73
     1
 44
1.0
  0
INSERT
  5
17A
330
1F
100
AcDbEntity
  8
0
  6
Continuous
 62
     7
370
     0
100
AcDbBlockReference
  2
SW_NOTE_2
 10
281.5969414389
 20
24.2146643741
 30
0.0
  0
INSERT
  5
180
330
1F
100
AcDbEntity
  8
0
  6
Continuous
 62
     7
370
     0
100
AcDbBlockReference
  2
SW_NOTE_3
 10
281.5969414389
 20
32.6160489974
 30
0.0
  0
INSERT
  5
186
330
1F
100
AcDbEntity
  8
0
  6
Continuous
 62
     7
370
     0
100
AcDbBlockReference
  2
SW_NOTE_4
 10
281.5969414389
 20
36.7918740267
 30
0.0
  0
INSERT
  5
18C
330
1F
100
AcDbEntity
  8
0
  6
Continuous
 62
     7
370
     0
100
AcDbBlockReference
  2
SW_NOTE_5
 10
274.5994263081
 20
7.1633912139
 30
0.0
  0
INSERT
  5
192
330
1F
100
AcDbEntity
  8
0
  6
Continuous
 62
     7
370
     0
100
AcDbBlockReference
  2
SW_NOTE_6
 10
264.1179175561
 20
7.1633910975
 30
0.0
  0
INSERT
  5
198
330
1F
100
AcDbEntity
  8
0
  6
Continuous
 62
     7
370
     0
100
AcDbBlockReference
  2
SW_NOTE_7
 10
242.4345306832
 20
7.1633909811
 30
0.0
  0
INSERT
  5
19E
330
1F
100
AcDbEntity
  8
0
  6
Continuous
 62
     7
370
     0
100
AcDbBlockReference
  2
SW_NOTE_8
 10
228.8348455297
 20
6.9203474822
 30
0.0
  0
MTEXT
  5
19F
330
1F
100
AcDbEntity
  8
0
  6
Continuous
 62
     7
370
     0
100
AcDbMText
 10
325.5963189226
 20
41.9881722711
 30
0.0
 40
2.5
 41
0.0
 71
     1
 72
     1
  1
Benennung/name:
  7
SLDTEXTSTYLE1
 73
     1
 44
1.0
  0
MTEXT
  5
1A0
330
1F
100
AcDbEntity
  8
0
  6
Continuous
 62
     7
370
     0
100
AcDbMText
 10
389.3572359152
 20
58.6789710928
 30
0.0
 40
2.6458333333
 41
0.0
 71
     1
 72
     1
  1
026688
  7
SLDTEXTSTYLE0
 73
     1
 44
1.0
  0
MTEXT
  5
1A1
330
1F
100
AcDbEntity
  8
0
  6
Continuous
 62
     7
370
     0
100
AcDbMText
 10
331.3714610615
 20
36.8399577249
 30
0.0
 40
3.7041666667
 41
0.0
 71
     1
 72
     1
  1
Flaechenhaftmagnet 828-44
  7
SLDTEXTSTYLE0
 73
     1
 44
1.0
  0
MTEXT
  5
1A2
330
1F
100
AcDbEntity
  8
0
  6
Continuous
 62
     7
370
     0
100
AcDbMText
 10
347.9887647757
 20
26.9758419643
 30
0.0
 40
3.7041666667
 41
0.0
 71
     1
 72
     1
  1
Masszeichnung
  7
SLDTEXTSTYLE0
 73
     1
 44
1.0
  0
MTEXT
  5
1A3
330
1F
100
AcDbEntity
  8
0
  6
Continuous
 62
     7
370
     0
100
AcDbMText
 10
325.9399734772
 20
15.7666195091
 30
0.0
 40
3.7041666667
 41
0.0
 71
     1
 72
     1
  1
828.44-1000
  7
SLDTEXTSTYLE0
 73
     1
 44
1.0
  0
MTEXT
  5
1A4
330
1F
100
AcDbEntity
  8
0
  6
Continuous
 62
     7
370
     0
100
AcDbMText
 10
311.8368324057
 20
38.0103977868
 30
0.0
 40
2.1166666667
 41
0.0
 71
     1
 72
     1
  1
Nolle
  7
SLDTEXTSTYLE0
 73
     1
 44
1.0
  0
MTEXT
  5
1A5
330
1F
100
AcDbEntity
  8
0
  6
Continuous
 62
     7
370
     0
100
AcDbMText
 10
291.5635737288
 20
38.0103977868
 30
0.0
 40
2.1166666667
 41
0.0
 71
     1
 72
     1
  1
04.03.97
  7
SLDTEXTSTYLE0
 73
     1
 44
1.0
  0
MTEXT
  5
1A6
330
1F
100
AcDbEntity
  8
0
  6
Continuous
 62
     7
370
     0
100
AcDbMText
 10
400.4718753549
 20
16.4743802336
 30
0.0
 40
2.1166666667
 41
0.0
 71
     1
 72
     1
  1
1
  7
SLDTEXTSTYLE1
 73
     1
 44
1.0
  0
MTEXT
  5
1A7
330
1F
100
AcDbEntity
  8
0
  6
Continuous
 62
     7
370
     0
100
AcDbMText
 10
403.2139810665
 20
16.4743801754
 30
0.0
 40
2.1166666667
 41
0.0
 71
     1
 72
     1
  1
(A3)
  7
SLDTEXTSTYLE1
 73
     1
 44
1.0
  0
MTEXT
  5
1A8
330
1F
100
AcDbEntity
  8
0
  6
Continuous
 62
     7
370
     0
100
AcDbMText
 10
408.0730426314
 20
12.2318141691
 30
0.0
 40
2.1166666667
 41
0.0
 71
     1
 72
     1
  1
1
  7
SLDTEXTSTYLE1
 73
     1
 44
1.0
  0
MTEXT
  5
1A9
330
1F
100
AcDbEntity
  8
0
  6
Continuous
 62
     7
370
     0
100
AcDbMText
 10
400.4718753549
 20
12.2318141691
 30
0.0
 40
2.1166666667
 41
0.0
 71
     1
 72
     1
  1
1 von
  7
SLDTEXTSTYLE1
 73
     1
 44
1.0
  0
INSERT
  5
1AF
330
1F
100
AcDbEntity
  8
0
  6
Continuous
 62
     7
370
     0
100
AcDbBlockReference
  2
SW_NOTE_9
 10
308.7749742127
 20
55.2200058741
 30
0.0
  0
MTEXT
  5
1B0
330
1F
100
AcDbEntity
  8
0
  6
Continuous
 62
     7
370
     0
100
AcDbMText
 10
320.17368302
 20
49.2589754895
 30
0.0
 40
2.6458333333
 41
0.0
 71
     1
 72
     1
  1
g
  7
SLDTEXTSTYLE1
 73
     1
 44
1.0
  0
LINE
  5
1B1
330
1F
100
AcDbEntity
  8
0
  6
Continuous
 62
     7
370
    40
100
AcDbLine
 10
287.8389366579
 20
179.8270605148
 30
0.0
 11
115.8389366579
 21
179.8270605148
 31
0.0
  0
LINE
  5
1B2
330
1F
100
AcDbEntity
  8
0
  6
Continuous
 62
     7
370
    40
100
AcDbLine
 10
115.8389366579
 20
188.8270605148
 30
0.0
 11
115.8389366579
 21
179.8270605148
 31
0.0
  0
LINE
  5
1B3
330
1F
100
AcDbEntity
  8
0
  6
Continuous
 62
     7
370
    40
100
AcDbLine
 10
287.8389366579
 20
188.8270605148
 30
0.0
 11
115.8389366579
 21
188.8270605148
 31
0.0
  0
LINE
  5
1B4
330
1F
100
AcDbEntity
  8
0
  6
Continuous
 62
     7
370
    40
100
AcDbLine
 10
287.8389366579
 20
188.8270605148
 30
0.0
 11
287.8389366579
 21
179.8270605148
 31
0.0
  0
LINE
  5
1B5
330
1F
100
AcDbEntity
  8
0
  6
Continuous
 62
     7
370
    40
100
AcDbLine
 10
287.8389366579
 20
152.8270605148
 30
0.0
 11
115.8389366579
 21
152.8270605148
 31
0.0
  0
LINE
  5
1B6
330
1F
100
AcDbEntity
  8
0
  6
Continuous
 62
     7
370
    40
100
AcDbLine
 10
287.8389366579
 20
170.8270605148
 30
0.0
 11
115.8389366579
 21
170.8270605148
 31
0.0
  0
LINE
  5
1B7
330
1F
100
AcDbEntity
  8
0
  6
Continuous
 62
     7
370
    40
100
AcDbLine
 10
115.8389366579
 20
170.8270605148
 30
0.0
 11
115.8389366579
 21
152.8270605148
 31
0.0
  0
LINE
  5
1B8
330
1F
100
AcDbEntity
  8
0
  6
Continuous
 62
     7
370
    40
100
AcDbLine
 10
287.8389366579
 20
170.8270605148
 30
0.0
 11
287.8389366579
 21
152.8270605148
 31
0.0
  0
LINE
  5
1B9
330
1F
100
AcDbEntity
  8
0
  6
Continuous
 62
     7
370
    40
100
AcDbLine
 10
287.8389366579
 20
134.8270605148
 30
0.0
 11
115.8389366579
 21
134.8270605148
 31
0.0
  0
LINE
  5
1BA
330
1F
100
AcDbEntity
  8
0
  6
Continuous
 62
     7
370
    40
100
AcDbLine
 10
287.8389366579
 20
143.8270605148
 30
0.0
 11
115.8389366579
 21
143.8270605148
 31
0.0
  0
LINE
  5
1BB
330
1F
100
AcDbEntity
  8
0
  6
Continuous
 62
     7
370
    40
100
AcDbLine
 10
115.8389366579
 20
143.8270605148
 30
0.0
 11
115.8389366579
 21
134.8270605148
 31
0.0
  0
LINE
  5
1BC
330
1F
100
AcDbEntity
  8
0
  6
Continuous
 62
     7
370
    40
100
AcDbLine
 10
287.8389366579
 20
143.8270605148
 30
0.0
 11
287.8389366579
 21
134.8270605148
 31
0.0
  0
LINE
  5
1BD
330
1F
100
AcDbEntity
  8
0
  6
Continuous
 62
     7
370
    40
100
AcDbLine
 10
115.8389366579
 20
188.8270605148
 30
0.0
 11
113.3389366579
 21
188.8270605148
 31
0.0
  0
LINE
  5
1BE
330
1F
100
AcDbEntity
  8
0
  6
Continuous
 62
     7
370
    40
100
AcDbLine
 10
115.8389366579
 20
179.8270605148
 30
0.0
 11
113.3389366579
 21
179.8270605148
 31
0.0
  0
LINE
  5
1BF
330
1F
100
AcDbEntity
  8
0
  6
Continuous
 62
     7
370
    40
100
AcDbLine
 10
113.3389366579
 20
188.8270605148
 30
0.0
 11
113.3389366579
 21
179.8270605148
 31
0.0
  0
LINE
  5
1C0
330
1F
100
AcDbEntity
  8
0
  6
Continuous
 62
     7
370
    40
100
AcDbLine
 10
115.8389366579
 20
188.8270605148
 30
0.0
 11
115.8389366579
 21
179.8270605148
 31
0.0
  0
LINE
  5
1C1
330
1F
100
AcDbEntity
  8
0
  6
Continuous
 62
     7
370
    40
100
AcDbLine
 10
115.8389366579
 20
152.8270605148
 30
0.0
 11
113.3389366579
 21
152.8270605148
 31
0.0
  0
LINE
  5
1C2
330
1F
100
AcDbEntity
  8
0
  6
Continuous
 62
     7
370
    40
100
AcDbLine
 10
115.8389366579
 20
170.8270605148
 30
0.0
 11
113.3389366579
 21
170.8270605148
 31
0.0
  0
LINE
  5
1C3
330
1F
100
AcDbEntity
  8
0
  6
Continuous
 62
     7
370
    40
100
AcDbLine
 10
113.3389366579
 20
170.8270605148
 30
0.0
 11
113.3389366579
 21
152.8270605148
 31
0.0
  0
LINE
  5
1C4
330
1F
100
AcDbEntity
  8
0
  6
Continuous
 62
     7
370
    40
100
AcDbLine
 10
115.8389366579
 20
170.8270605148
 30
0.0
 11
115.8389366579
 21
152.8270605148
 31
0.0
  0
LINE
  5
1C5
330
1F
100
AcDbEntity
  8
0
  6
Continuous
 62
     7
370
    40
100
AcDbLine
 10
115.8389366579
 20
134.8270605148
 30
0.0
 11
113.3389366579
 21
134.8270605148
 31
0.0
  0
LINE
  5
1C6
330
1F
100
AcDbEntity
  8
0
  6
Continuous
 62
     7
370
    40
100
AcDbLine
 10
115.8389366579
 20
143.8270605148
 30
0.0
 11
113.3389366579
 21
143.8270605148
 31
0.0
  0
LINE
  5
1C7
330
1F
100
AcDbEntity
  8
0
  6
Continuous
 62
     7
370
    40
100
AcDbLine
 10
113.3389366579
 20
143.8270605148
 30
0.0
 11
113.3389366579
 21
134.8270605148
 31
0.0
  0
LINE
  5
1C8
330
1F
100
AcDbEntity
  8
0
  6
Continuous
 62
     7
370
    40
100
AcDbLine
 10
115.8389366579
 20
143.8270605148
 30
0.0
 11
115.8389366579
 21
134.8270605148
 31
0.0
  0
LINE
  5
1C9
330
1F
100
AcDbEntity
  8
0
  6
Continuous
 62
     7
370
    40
100
AcDbLine
 10
290.3389366579
 20
188.8270605148
 30
0.0
 11
287.8389366579
 21
188.8270605148
 31
0.0
  0
LINE
  5
1CA
330
1F
100
AcDbEntity
  8
0
  6
Continuous
 62
     7
370
    40
100
AcDbLine
 10
290.3389366579
 20
179.8270605148
 30
0.0
 11
287.8389366579
 21
179.8270605148
 31
0.0
  0
LINE
  5
1CB
330
1F
100
AcDbEntity
  8
0
  6
Continuous
 62
     7
370
    40
100
AcDbLine
 10
287.8389366579
 20
188.8270605148
 30
0.0
 11
287.8389366579
 21
179.8270605148
 31
0.0
  0
LINE
  5
1CC
330
1F
100
AcDbEntity
  8
0
  6
Continuous
 62
     7
370
    40
100
AcDbLine
 10
290.3389366579
 20
188.8270605148
 30
0.0
 11
290.3389366579
 21
179.8270605148
 31
0.0
  0
LINE
  5
1CD
330
1F
100
AcDbEntity
  8
0
  6
Continuous
 62
     7
370
    40
100
AcDbLine
 10
290.3389366579
 20
170.8270605148
 30
0.0
 11
287.8389366579
 21
170.8270605148
 31
0.0
  0
LINE
  5
1CE
330
1F
100
AcDbEntity
  8
0
  6
Continuous
 62
     7
370
    40
100
AcDbLine
 10
290.3389366579
 20
152.8270605148
 30
0.0
 11
287.8389366579
 21
152.8270605148
 31
0.0
  0
LINE
  5
1CF
330
1F
100
AcDbEntity
  8
0
  6
Continuous
 62
     7
370
    40
100
AcDbLine
 10
287.8389366579
 20
170.8270605148
 30
0.0
 11
287.8389366579
 21
152.8270605148
 31
0.0
  0
LINE
  5
1D0
330
1F
100
AcDbEntity
  8
0
  6
Continuous
 62
     7
370
    40
100
AcDbLine
 10
290.3389366579
 20
170.8270605148
 30
0.0
 11
290.3389366579
 21
152.8270605148
 31
0.0
  0
LINE
  5
1D1
330
1F
100
AcDbEntity
  8
0
  6
Continuous
 62
     7
370
    40
100
AcDbLine
 10
290.3389366579
 20
134.8270605148
 30
0.0
 11
287.8389366579
 21
134.8270605148
 31
0.0
  0
LINE
  5
1D2
330
1F
100
AcDbEntity
  8
0
  6
Continuous
 62
     7
370
    40
100
AcDbLine
 10
290.3389366579
 20
143.8270605148
 30
0.0
 11
287.8389366579
 21
143.8270605148
 31
0.0
  0
LINE
  5
1D3
330
1F
100
AcDbEntity
  8
0
  6
Continuous
 62
     7
370
    40
100
AcDbLine
 10
287.8389366579
 20
143.8270605148
 30
0.0
 11
287.8389366579
 21
134.8270605148
 31
0.0
  0
LINE
  5
1D4
330
1F
100
AcDbEntity
  8
0
  6
Continuous
 62
     7
370
    40
100
AcDbLine
 10
290.3389366579
 20
143.8270605148
 30
0.0
 11
290.3389366579
 21
134.8270605148
 31
0.0
  0
LINE
  5
1D5
330
1F
100
AcDbEntity
  8
0
  6
Continuous
 62
     7
370
    40
100
AcDbLine
 10
305.0389366579
 20
134.4272457007
 30
0.0
 11
359.3389366579
 21
134.4272457007
 31
0.0
  0
LINE
  5
1D6
330
1F
100
AcDbEntity
  8
0
  6
Continuous
 62
     7
370
    40
100
AcDbLine
 10
305.0389366579
 20
189.2272457007
 30
0.0
 11
305.0389366579
 21
134.4272457007
 31
0.0
  0
CIRCLE
  5
1D7
330
1F
100
AcDbEntity
  8
0
  6
Continuous
 62
     7
370
    40
100
AcDbCircle
 10
309.8389366579
 20
161.8272457007
 30
0.0
 40
3.650000000000034
  0
LINE
  5
1D8
330
1F
100
AcDbEntity
  8
0
  6
Continuous
 62
     7
370
    40
100
AcDbLine
 10
359.3389366579
 20
189.2272457007
 30
0.0
 11
305.0389366579
 21
189.2272457007
 31
0.0
  0
LINE
  5
1D9
330
1F
100
AcDbEntity
  8
0
  6
Continuous
 62
     7
370
    40
100
AcDbLine
 10
371.8389366579
 20
191.8272457007
 30
0.0
 11
90.8389366579
 21
191.8272457007
 31
0.0
  0
LINE
  5
1DA
330
1F
100
AcDbEntity
  8
0
  6
Continuous
 62
     7
370
    40
100
AcDbLine
 10
90.8389366579
 20
191.8272457007
 30
0.0
 11
90.8389366579
 21
199.8272457007
 31
0.0
  0
LINE
  5
1DB
330
1F
100
AcDbEntity
  8
0
  6
Continuous
 62
     7
370
    40
100
AcDbLine
 10
371.8389366579
 20
199.8272457007
 30
0.0
 11
90.8389366579
 21
199.8272457007
 31
0.0
  0
LINE
  5
1DC
330
1F
100
AcDbEntity
  8
0
  6
Continuous
 62
     7
370
    40
100
AcDbLine
 10
371.8389366579
 20
191.8272457007
 30
0.0
 11
371.8389366579
 21
199.8272457007
 31
0.0
  0
CIRCLE
  5
1DD
330
1F
100
AcDbEntity
  8
0
  6
Continuous
 62
     7
370
    40
100
AcDbCircle
 10
309.8389366579
 20
161.8272457007
 30
0.0
 40
3.749999999999981
  0
LINE
  5
1DE
330
1F
100
AcDbEntity
  8
0
  6
Continuous
 62
     7
370
    40
100
AcDbLine
 10
308.9615329071
 20
162.3055164483
 30
0.0
 11
307.9312068842
 21
162.3956356289
 31
0.0
  0
LINE
  5
1DF
330
1F
100
AcDbEntity
  8
0
  6
Continuous
 62
     7
370
    40
100
AcDbLine
 10
307.9312068842
 20
162.3956356289
 30
0.0
 11
307.8614996891
 21
161.5986783484
 31
0.0
  0
LINE
  5
1E0
330
1F
100
AcDbEntity
  8
0
  6
Continuous
 62
     7
370
    40
100
AcDbLine
 10
307.8614996891
 20
161.5986783484
 30
0.0
 11
308.891825712
 21
161.5085591678
 31
0.0
  0
ARC
  5
1E1
330
1F
100
AcDbEntity
  8
0
  6
Continuous
 62
     7
370
    40
100
AcDbCircle
 10
308.8439020154
 20
160.9606510375
 30
0.0
 40
0.5500000000000357
100
AcDbArc
 50
355.0012508801
 51
85.0012508801
  0
LINE
  5
1E2
330
1F
100
AcDbEntity
  8
0
  6
Continuous
 62
     7
370
    40
100
AcDbLine
 10
309.3918101457
 20
160.9127273409
 30
0.0
 11
309.3046761519
 21
159.9165307402
 31
0.0
  0
LINE
  5
1E3
330
1F
100
AcDbEntity
  8
0
  6
Continuous
 62
     7
370
    40
100
AcDbLine
 10
309.3046761519
 20
159.9165307402
 30
0.0
 11
310.0333745879
 21
159.8527939186
 31
0.0
  0
LINE
  5
1E4
330
1F
100
AcDbEntity
  8
0
  6
Continuous
 62
     7
370
    40
100
AcDbLine
 10
310.0333745879
 20
159.8527939186
 30
0.0
 11
310.1205085817
 21
160.8489905193
 31
0.0
  0
ARC
  5
1E5
330
1F
100
AcDbEntity
  8
0
  6
Continuous
 62
     7
370
    40
100
AcDbCircle
 10
310.6684167121
 20
160.8010668227
 30
0.0
 40
0.5500000000000381
100
AcDbArc
 50
85.0012508801
 51
175.0012508801
  0
LINE
  5
1E6
330
1F
100
AcDbEntity
  8
0
  6
Continuous
 62
     7
370
    40
100
AcDbLine
 10
310.7163404087
 20
161.348974953
 30
0.0
 11
311.7466664316
 21
161.2588557724
 31
0.0
  0
LINE
  5
1E7
330
1F
100
AcDbEntity
  8
0
  6
Continuous
 62
     7
370
    40
100
AcDbLine
 10
311.7466664316
 20
161.2588557724
 30
0.0
 11
311.8163736266
 21
162.055813053
 31
0.0
  0
LINE
  5
1E8
330
1F
100
AcDbEntity
  8
0
  6
Continuous
 62
     7
370
    40
100
AcDbLine
 10
311.8163736266
 20
162.055813053
 30
0.0
 11
310.7860476037
 21
162.1459322335
 31
0.0
  0
ARC
  5
1E9
330
1F
100
AcDbEntity
  8
0
  6
Continuous
 62
     7
370
    40
100
AcDbCircle
 10
310.8339713003
 20
162.6938403639
 30
0.0
 40
0.5500000000000074
100
AcDbArc
 50
175.0012508801
 51
265.0012508801
  0
LINE
  5
1EA
330
1F
100
AcDbEntity
  8
0
  6
Continuous
 62
     7
370
    40
100
AcDbLine
 10
310.28606317
 20
162.7417640605
 30
0.0
 11
310.3731971638
 21
163.7379606611
 31
0.0
  0
LINE
  5
1EB
330
1F
100
AcDbEntity
  8
0
  6
Continuous
 62
     7
370
    40
100
AcDbLine
 10
310.3731971638
 20
163.7379606611
 30
0.0
 11
309.6444987278
 21
163.8016974827
 31
0.0
  0
LINE
  5
1EC
330
1F
100
AcDbEntity
  8
0
  6
Continuous
 62
     7
370
    40
100
AcDbLine
 10
309.6444987278
 20
163.8016974827
 30
0.0
 11
309.557364734
 21
162.8055008821
 31
0.0
  0
ARC
  5
1ED
330
1F
100
AcDbEntity
  8
0
  6
Continuous
 62
     7
370
    40
100
AcDbCircle
 10
309.0094566037
 20
162.8534245787
 30
0.0
 40
0.5500000000000381
100
AcDbArc
 50
265.0012508801
 51
355.0012508801
  0
LINE
  5
1EE
330
1F
100
AcDbEntity
  8
0
  6
Continuous
 62
     7
370
    40
100
AcDbLine
 10
310.290654691
 20
162.7942585852
 30
0.0
 11
309.561956255
 21
162.8579954069
 31
0.0
  0
LINE
  5
1EF
330
1F
100
AcDbEntity
  8
0
  6
Continuous
 62
     7
370
    40
100
AcDbLine
 10
310.8029643557
 20
161.3413982453
 30
0.0
 11
310.8726715508
 21
162.1383555258
 31
0.0
  0
LINE
  5
1F0
330
1F
100
AcDbEntity
  8
0
  6
Continuous
 62
     7
370
    40
100
AcDbLine
 10
309.3872186248
 20
160.8602328161
 30
0.0
 11
310.1159170607
 21
160.7964959945
 31
0.0
  0
LINE
  5
1F1
330
1F
100
AcDbEntity
  8
0
  6
Continuous
 62
     7
370
    40
100
AcDbLine
 10
308.87490896
 20
162.313093156
 30
0.0
 11
308.805201765
 21
161.5161358755
 31
0.0
  0
LINE
  5
1F2
330
1F
100
AcDbEntity
  8
0
  6
Continuous
 62
     7
370
    40
100
AcDbLine
 10
310.2335686452
 20
162.7463555815
 30
0.0
 11
310.290654691
 21
162.7942585852
 31
0.0
  0
LINE
  5
1F3
330
1F
100
AcDbEntity
  8
0
  6
Continuous
 62
     7
370
    40
100
AcDbLine
 10
310.2335686452
 20
162.7463555815
 30
0.0
 11
309.95028732
 21
162.4580319882
 31
0.0
  0
LINE
  5
1F4
330
1F
100
AcDbEntity
  8
0
  6
Continuous
 62
     7
370
    40
100
AcDbLine
 10
309.8387845833
 20
162.4677847607
 30
0.0
 11
309.95028732
 21
162.4580319882
 31
0.0
  0
LINE
  5
1F5
330
1F
100
AcDbEntity
  8
0
  6
Continuous
 62
     7
370
    40
100
AcDbLine
 10
309.6098592588
 20
162.8009093611
 30
0.0
 11
309.8387845833
 21
162.4677847607
 31
0.0
  0
LINE
  5
1F6
330
1F
100
AcDbEntity
  8
0
  6
Continuous
 62
     7
370
    40
100
AcDbLine
 10
309.6098592588
 20
162.8009093611
 30
0.0
 11
309.561956255
 21
162.8579954069
 31
0.0
  0
ARC
  5
1F7
330
1F
100
AcDbEntity
  8
0
  6
Continuous
 62
     7
370
    40
100
AcDbCircle
 10
309.0094566037
 20
162.8534245787
 30
0.0
 40
0.9146053614083939
100
AcDbArc
 50
282.6736623772
 51
335.0614412707
  0
LINE
  5
1F8
330
1F
100
AcDbEntity
  8
0
  6
Continuous
 62
     7
370
    40
100
AcDbLine
 10
308.9539561993
 20
162.2188925013
 30
0.0
 11
309.2101189613
 21
161.9611031202
 31
0.0
  0
LINE
  5
1F9
330
1F
100
AcDbEntity
  8
0
  6
Continuous
 62
     7
370
    40
100
AcDbLine
 10
310.7239171164
 20
161.4355989
 30
0.0
 11
310.8029643557
 21
161.3413982453
 31
0.0
  0
LINE
  5
1FA
330
1F
100
AcDbEntity
  8
0
  6
Continuous
 62
     7
370
    40
100
AcDbLine
 10
310.7239171164
 20
161.4355989
 30
0.0
 11
310.4677543544
 21
161.6933882812
 31
0.0
  0
LINE
  5
1FB
330
1F
100
AcDbEntity
  8
0
  6
Continuous
 62
     7
370
    40
100
AcDbLine
 10
310.4814443089
 20
161.8499045325
 30
0.0
 11
310.4677543544
 21
161.6933882812
 31
0.0
  0
LINE
  5
1FC
330
1F
100
AcDbEntity
  8
0
  6
Continuous
 62
     7
370
    40
100
AcDbLine
 10
310.778470896
 20
162.0593082865
 30
0.0
 11
310.4814443089
 21
161.8499045325
 31
0.0
  0
LINE
  5
1FD
330
1F
100
AcDbEntity
  8
0
  6
Continuous
 62
     7
370
    40
100
AcDbLine
 10
310.778470896
 20
162.0593082865
 30
0.0
 11
310.8726715508
 21
162.1383555258
 31
0.0
  0
ARC
  5
1FE
330
1F
100
AcDbEntity
  8
0
  6
Continuous
 62
     7
370
    40
100
AcDbCircle
 10
310.8339713003
 20
162.6938403639
 30
0.0
 40
0.9146053614084122
100
AcDbArc
 50
194.9410604895
 51
247.3288393831
  0
LINE
  5
1FF
330
1F
100
AcDbEntity
  8
0
  6
Continuous
 62
     7
370
    40
100
AcDbLine
 10
308.8994024197
 20
161.5951831149
 30
0.0
 11
309.1964290069
 21
161.8045868688
 31
0.0
  0
ARC
  5
200
330
1F
100
AcDbEntity
  8
0
  6
Continuous
 62
     7
370
    40
100
AcDbCircle
 10
308.8439020154
 20
160.9606510375
 30
0.0
 40
0.9146053614084488
100
AcDbArc
 50
14.9410604895
 51
67.3288393831
  0
LINE
  5
201
330
1F
100
AcDbEntity
  8
0
  6
Continuous
 62
     7
370
    40
100
AcDbLine
 10
309.4443046705
 20
160.9081358199
 30
0.0
 11
309.7275859957
 21
161.1964594131
 31
0.0
  0
LINE
  5
202
330
1F
100
AcDbEntity
  8
0
  6
Continuous
 62
     7
370
    40
100
AcDbLine
 10
310.0680140569
 20
160.8535820402
 30
0.0
 11
309.8390887324
 21
161.1867066407
 31
0.0
  0
ARC
  5
203
330
1F
100
AcDbEntity
  8
0
  6
Continuous
 62
     7
370
    40
100
AcDbCircle
 10
310.6684167121
 20
160.8010668227
 30
0.0
 40
0.9146053614084768
100
AcDbArc
 50
102.6736623772
 51
155.0614412707
  0
LINE
  5
204
330
1F
100
AcDbEntity
  8
0
  6
Continuous
 62
     7
370
    40
100
AcDbLine
 10
309.4443046705
 20
160.9081358199
 30
0.0
 11
309.3872186248
 21
160.8602328161
 31
0.0
  0
LINE
  5
205
330
1F
100
AcDbEntity
  8
0
  6
Continuous
 62
     7
370
    40
100
AcDbLine
 10
309.8390887324
 20
161.1867066407
 30
0.0
 11
309.7275859957
 21
161.1964594131
 31
0.0
  0
LINE
  5
206
330
1F
100
AcDbEntity
  8
0
  6
Continuous
 62
     7
370
    40
100
AcDbLine
 10
310.0680140569
 20
160.8535820402
 30
0.0
 11
310.1159170607
 21
160.7964959945
 31
0.0
  0
LINE
  5
207
330
1F
100
AcDbEntity
  8
0
  6
Continuous
 62
     7
370
    40
100
AcDbLine
 10
308.8994024197
 20
161.5951831149
 30
0.0
 11
308.805201765
 21
161.5161358755
 31
0.0
  0
LINE
  5
208
330
1F
100
AcDbEntity
  8
0
  6
Continuous
 62
     7
370
    40
100
AcDbLine
 10
308.9539561993
 20
162.2188925013
 30
0.0
 11
308.87490896
 21
162.313093156
 31
0.0
  0
LINE
  5
209
330
1F
100
AcDbEntity
  8
0
  6
Continuous
 62
     7
370
    40
100
AcDbLine
 10
309.1964290069
 20
161.8045868688
 30
0.0
 11
309.2101189613
 21
161.9611031202
 31
0.0
  0
LINE
  5
20A
330
1F
100
AcDbEntity
  8
0
  6
Continuous
 62
     7
370
    40
100
AcDbLine
 10
104.5889366579
 20
189.3270605148
 30
0.0
 11
104.5889366579
 21
134.3272457007
 31
0.0
  0
LINE
  5
20B
330
1F
100
AcDbEntity
  8
0
  6
Continuous
 62
     7
370
    40
100
AcDbLine
 10
302.3389366579
 20
189.3270605148
 30
0.0
 11
104.5889366579
 21
189.3270605148
 31
0.0
  0
ARC
  5
20C
330
1F
100
AcDbEntity
  8
0
  6
Continuous
 62
     7
370
    40
100
AcDbCircle
 10
108.0889366579
 20
148.3270605148
 30
0.0
 40
4.000000000000004
100
AcDbArc
 50
180.0
 51
208.9550243719
  0
LINE
  5
20D
330
1F
100
AcDbEntity
  8
0
  6
Continuous
 62
     7
370
    40
100
AcDbLine
 10
104.0889366579
 20
148.3270605148
 30
0.0
 11
104.0889366579
 21
175.3270605148
 31
0.0
  0
ARC
  5
20E
330
1F
100
AcDbEntity
  8
0
  6
Continuous
 62
     7
370
    40
100
AcDbCircle
 10
108.0889366579
 20
175.3270605148
 30
0.0
 40
4.0
100
AcDbArc
 50
151.0449756281
 51
180.0
  0
LINE
  5
20F
330
1F
100
AcDbEntity
  8
0
  6
Continuous
 62
     7
370
    40
100
AcDbLine
 10
304.8389366579
 20
134.3272457007
 30
0.0
 11
304.8389366579
 21
189.3272457007
 31
0.0
  0
LINE
  5
210
330
1F
100
AcDbEntity
  8
0
  6
Continuous
 62
     7
370
    40
100
AcDbLine
 10
304.8389366579
 20
134.3272457007
 30
0.0
 11
302.3389366579
 21
134.3272457007
 31
0.0
  0
LINE
  5
211
330
1F
100
AcDbEntity
  8
0
  6
Continuous
 62
     7
370
    40
100
AcDbLine
 10
302.3389366579
 20
134.3272457007
 30
0.0
 11
302.3389366579
 21
189.3272457007
 31
0.0
  0
LINE
  5
212
330
1F
100
AcDbEntity
  8
0
  6
Continuous
 62
     7
370
    40
100
AcDbLine
 10
304.8389366579
 20
189.3272457007
 30
0.0
 11
302.3389366579
 21
189.3272457007
 31
0.0
  0
LINE
  5
213
330
1F
100
AcDbEntity
  8
0
  6
Continuous
 62
     7
370
    40
100
AcDbLine
 10
308.3389366579
 20
189.2272457007
 30
0.0
 11
308.3389366579
 21
189.3272457007
 31
0.0
  0
LINE
  5
214
330
1F
100
AcDbEntity
  8
0
  6
Continuous
 62
     7
370
    40
100
AcDbLine
 10
308.3389366579
 20
134.3272457007
 30
0.0
 11
308.3389366579
 21
134.4272457007
 31
0.0
  0
LINE
  5
215
330
1F
100
AcDbEntity
  8
0
  6
Continuous
 62
     7
370
    40
100
AcDbLine
 10
374.8389366579
 20
189.3272457007
 30
0.0
 11
374.8389366579
 21
134.3272457007
 31
0.0
  0
LINE
  5
216
330
1F
100
AcDbEntity
  8
0
  6
Continuous
 62
     7
370
    40
100
AcDbLine
 10
359.3389366579
 20
134.3272457007
 30
0.0
 11
359.3389366579
 21
189.3272457007
 31
0.0
  0
LINE
  5
217
330
1F
100
AcDbEntity
  8
0
  6
Continuous
 62
     7
370
    40
100
AcDbLine
 10
359.3389366579
 20
189.4272457007
 30
0.0
 11
371.8389366579
 21
189.4272457007
 31
0.0
  0
LINE
  5
218
330
1F
100
AcDbEntity
  8
0
  6
Continuous
 62
     7
370
    40
100
AcDbLine
 10
371.8389366579
 20
189.4272457007
 30
0.0
 11
371.8389366579
 21
190.3070415978
 31
0.0
  0
LINE
  5
219
330
1F
100
AcDbEntity
  8
0
  6
Continuous
 62
     7
370
    40
100
AcDbLine
 10
371.8389366579
 20
191.8272457007
 30
0.0
 11
372.3389366579
 21
191.8272457007
 31
0.0
  0
LINE
  5
21A
330
1F
100
AcDbEntity
  8
0
  6
Continuous
 62
     7
370
    40
100
AcDbLine
 10
359.3389366579
 20
189.3272457007
 30
0.0
 11
359.3389366579
 21
189.4272457007
 31
0.0
  0
ARC
  5
21B
330
1F
100
AcDbEntity
  8
0
  6
Continuous
 62
     7
370
    40
100
AcDbCircle
 10
372.3389366579
 20
189.3272457007
 30
0.0
 40
2.500000000000028
100
AcDbArc
 50
0.0
 51
90.0
  0
ARC
  5
21C
330
1F
100
AcDbEntity
  8
0
  6
Continuous
 62
     7
370
    40
100
AcDbCircle
 10
372.3389366579
 20
134.3272457007
 30
0.0
 40
2.5
100
AcDbArc
 50
270.0
 51
0.0
  0
LINE
  5
21D
330
1F
100
AcDbEntity
  8
0
  6
Continuous
 62
     7
370
    40
100
AcDbLine
 10
371.8389366579
 20
134.2272457007
 30
0.0
 11
359.3389366579
 21
134.2272457007
 31
0.0
  0
LINE
  5
21E
330
1F
100
AcDbEntity
  8
0
  6
Continuous
 62
     7
370
    40
100
AcDbLine
 10
372.3389366579
 20
131.8272457007
 30
0.0
 11
371.8389366579
 21
131.8272457007
 31
0.0
  0
LINE
  5
21F
330
1F
100
AcDbEntity
  8
0
  6
Continuous
 62
     7
370
    40
100
AcDbLine
 10
371.8389366579
 20
133.3474498036
 30
0.0
 11
371.8389366579
 21
134.2272457007
 31
0.0
  0
LINE
  5
220
330
1F
100
AcDbEntity
  8
0
  6
Continuous
 62
     7
370
    40
100
AcDbLine
 10
359.3389366579
 20
134.2272457007
 30
0.0
 11
359.3389366579
 21
134.3272457007
 31
0.0
  0
LINE
  5
221
330
1F
100
AcDbEntity
  8
0
  6
Continuous
 62
     7
370
    40
100
AcDbLine
 10
90.8389366579
 20
189.4272457007
 30
0.0
 11
103.3389366579
 21
189.4272457007
 31
0.0
  0
LINE
  5
222
330
1F
100
AcDbEntity
  8
0
  6
Continuous
 62
     7
370
    40
100
AcDbLine
 10
103.3389366579
 20
189.4272457007
 30
0.0
 11
103.3389366579
 21
189.3272457007
 31
0.0
  0
LINE
  5
223
330
1F
100
AcDbEntity
  8
0
  6
Continuous
 62
     7
370
    40
100
AcDbLine
 10
90.3389366579
 20
191.8272457007
 30
0.0
 11
90.8389366579
 21
191.8272457007
 31
0.0
  0
LINE
  5
224
330
1F
100
AcDbEntity
  8
0
  6
Continuous
 62
     7
370
    40
100
AcDbLine
 10
90.8389366579
 20
190.3070415978
 30
0.0
 11
90.8389366579
 21
189.4272457007
 31
0.0
  0
ARC
  5
225
330
1F
100
AcDbEntity
  8
0
  6
Continuous
 62
     7
370
    40
100
AcDbCircle
 10
90.3389366579
 20
189.3272457007
 30
0.0
 40
2.5
100
AcDbArc
 50
90.0
 51
180.0
  0
LINE
  5
226
330
1F
100
AcDbEntity
  8
0
  6
Continuous
 62
     7
370
    40
100
AcDbLine
 10
87.8389366579
 20
134.3272457007
 30
0.0
 11
87.8389366579
 21
189.3272457007
 31
0.0
  0
LINE
  5
227
330
1F
100
AcDbEntity
  8
0
  6
Continuous
 62
     7
370
    40
100
AcDbLine
 10
103.3389366579
 20
189.3272457007
 30
0.0
 11
103.3389366579
 21
134.3272457007
 31
0.0
  0
ARC
  5
228
330
1F
100
AcDbEntity
  8
0
  6
Continuous
 62
     7
370
    40
100
AcDbCircle
 10
90.3389366579
 20
134.3272457007
 30
0.0
 40
2.5
100
AcDbArc
 50
180.0
 51
270.0
  0
LINE
  5
229
330
1F
100
AcDbEntity
  8
0
  6
Continuous
 62
     7
370
    40
100
AcDbLine
 10
103.3389366579
 20
134.2272457007
 30
0.0
 11
90.8389366579
 21
134.2272457007
 31
0.0
  0
LINE
  5
22A
330
1F
100
AcDbEntity
  8
0
  6
Continuous
 62
     7
370
    40
100
AcDbLine
 10
90.8389366579
 20
134.2272457007
 30
0.0
 11
90.8389366579
 21
133.3474498036
 31
0.0
  0
LINE
  5
22B
330
1F
100
AcDbEntity
  8
0
  6
Continuous
 62
     7
370
    40
100
AcDbLine
 10
90.8389366579
 20
131.8272457007
 30
0.0
 11
90.3389366579
 21
131.8272457007
 31
0.0
  0
LINE
  5
22C
330
1F
100
AcDbEntity
  8
0
  6
Continuous
 62
     7
370
    40
100
AcDbLine
 10
103.3389366579
 20
134.3272457007
 30
0.0
 11
103.3389366579
 21
134.2272457007
 31
0.0
  0
LINE
  5
22D
330
1F
100
AcDbEntity
  8
0
  6
Continuous
 62
     7
370
    40
100
AcDbLine
 10
359.3389366579
 20
189.3272457007
 30
0.0
 11
103.3389366579
 21
189.3272457007
 31
0.0
  0
LINE
  5
22E
330
1F
100
AcDbEntity
  8
0
  6
Continuous
 62
     7
370
    40
100
AcDbLine
 10
90.8389366579
 20
191.8272457007
 30
0.0
 11
90.8389366579
 21
190.3070415978
 31
0.0
  0
LINE
  5
22F
330
1F
100
AcDbEntity
  8
0
  6
Continuous
 62
     7
370
    40
100
AcDbLine
 10
371.8389366579
 20
191.8272457007
 30
0.0
 11
90.8389366579
 21
191.8272457007
 31
0.0
  0
LINE
  5
230
330
1F
100
AcDbEntity
  8
0
  6
Continuous
 62
     7
370
    40
100
AcDbLine
 10
371.8389366579
 20
191.8272457007
 30
0.0
 11
371.8389366579
 21
190.3070415978
 31
0.0
  0
LINE
  5
231
330
1F
100
AcDbEntity
  8
0
  6
Continuous
 62
     7
370
    40
100
AcDbLine
 10
359.3389366579
 20
134.3272457007
 30
0.0
 11
103.3389366579
 21
134.3272457007
 31
0.0
  0
LINE
  5
232
330
1F
100
AcDbEntity
  8
0
  6
Continuous
 62
     7
370
    40
100
AcDbLine
 10
371.8389366579
 20
131.8272457007
 30
0.0
 11
90.8389366579
 21
131.8272457007
 31
0.0
  0
LINE
  5
233
330
1F
100
AcDbEntity
  8
0
  6
Continuous
 62
     7
370
    40
100
AcDbLine
 10
90.8389366579
 20
133.3474498036
 30
0.0
 11
90.8389366579
 21
131.8272457007
 31
0.0
  0
LINE
  5
234
330
1F
100
AcDbEntity
  8
0
  6
Continuous
 62
     7
370
    40
100
AcDbLine
 10
371.8389366579
 20
133.3474498036
 30
0.0
 11
371.8389366579
 21
131.8272457007
 31
0.0
  0
LWPOLYLINE
  5
235
330
1F
100
AcDbEntity
  8
0
  6
HIDDEN
 62
     7
370
     0
100
AcDbPolyline
 90
        2
 70
   128
 43
0.0
 10
371.8389366579
 20
199.8272457007
 10
371.8389366579
 20
199.8272457007
  0
LWPOLYLINE
  5
236
330
1F
100
AcDbEntity
  8
0
  6
HIDDEN
 62
     7
370
     0
100
AcDbPolyline
 90
        2
 70
   128
 43
0.0
 10
90.8389366579
 20
199.8272457007
 10
90.8389366579
 20
199.8272457007
  0
LWPOLYLINE
  5
237
330
1F
100
AcDbEntity
  8
0
  6
HIDDEN
 62
     7
370
     0
100
AcDbPolyline
 90
        2
 70
   128
 43
0.0
 10
90.8389366579
 20
191.8272457007
 10
90.8389366579
 20
191.8272457007
  0
LWPOLYLINE
  5
238
330
1F
100
AcDbEntity
  8
0
  6
HIDDEN
 62
     7
370
     0
100
AcDbPolyline
 90
        2
 70
   128
 43
0.0
 10
371.8389366579
 20
191.8272457007
 10
371.8389366579
 20
191.8272457007
  0
LINE
  5
239
330
1F
100
AcDbEntity
  8
0
  6
HIDDEN
 62
     7
370
     0
100
AcDbLine
 10
103.0889366579
 20
192.3272457007
 30
0.0
 11
114.5889366579
 21
192.3272457007
 31
0.0
  0
LINE
  5
23A
330
1F
100
AcDbEntity
  8
0
  6
HIDDEN
 62
     7
370
     0
100
AcDbLine
 10
105.6389366579
 20
194.8772457007
 30
0.0
 11
112.0389366579
 21
194.8772457007
 31
0.0
  0
LWPOLYLINE
  5
23B
330
1F
100
AcDbEntity
  8
0
  6
HIDDEN
 62
     7
370
     0
100
AcDbPolyline
 90
        2
 70
   128
 43
0.0
 10
112.0389366579
 20
194.8772457007
 10
112.0389366579
 20
194.8772457007
  0
LINE
  5
23C
330
1F
100
AcDbEntity
  8
0
  6
HIDDEN
 62
     7
370
     0
100
AcDbLine
 10
225.5889366579
 20
192.3272457007
 30
0.0
 11
237.0889366579
 21
192.3272457007
 31
0.0
  0
LINE
  5
23D
330
1F
100
AcDbEntity
  8
0
  6
HIDDEN
 62
     7
370
     0
100
AcDbLine
 10
228.1389366579
 20
194.8772457007
 30
0.0
 11
234.5389366579
 21
194.8772457007
 31
0.0
  0
LWPOLYLINE
  5
23E
330
1F
100
AcDbEntity
  8
0
  6
HIDDEN
 62
     7
370
     0
100
AcDbPolyline
 90
        2
 70
   128
 43
0.0
 10
234.5389366579
 20
194.8772457007
 10
234.5389366579
 20
194.8772457007
  0
LINE
  5
23F
330
1F
100
AcDbEntity
  8
0
  6
HIDDEN
 62
     7
370
     0
100
AcDbLine
 10
114.5889366579
 20
191.8272457007
 30
0.0
 11
103.1278161008
 21
191.8272457007
 31
0.0
  0
LINE
  5
240
330
1F
100
AcDbEntity
  8
0
  6
HIDDEN
 62
     7
370
     0
100
AcDbLine
 10
348.0889366579
 20
192.3272457007
 30
0.0
 11
359.5889366579
 21
192.3272457007
 31
0.0
  0
LINE
  5
241
330
1F
100
AcDbEntity
  8
0
  6
HIDDEN
 62
     7
370
     0
100
AcDbLine
 10
350.6389366579
 20
194.8772457007
 30
0.0
 11
357.0389366579
 21
194.8772457007
 31
0.0
  0
LINE
  5
242
330
1F
100
AcDbEntity
  8
0
  6
HIDDEN
 62
     7
370
     0
100
AcDbLine
 10
237.0889366579
 20
191.8272457007
 30
0.0
 11
225.6278161008
 21
191.8272457007
 31
0.0
  0
LINE
  5
243
330
1F
100
AcDbEntity
  8
0
  6
HIDDEN
 62
     7
370
     0
100
AcDbLine
 10
359.5889366579
 20
191.8272457007
 30
0.0
 11
348.1278161008
 21
191.8272457007
 31
0.0
  0
LINE
  5
244
330
1F
100
AcDbEntity
  8
0
  6
HIDDEN
 62
     7
370
     0
100
AcDbLine
 10
234.5389366579
 20
199.8272457007
 30
0.0
 11
228.1389366579
 21
199.8272457007
 31
0.0
  0
LINE
  5
245
330
1F
100
AcDbEntity
  8
0
  6
HIDDEN
 62
     7
370
     0
100
AcDbLine
 10
357.0389366579
 20
199.8272457007
 30
0.0
 11
350.6389366579
 21
199.8272457007
 31
0.0
  0
LINE
  5
246
330
1F
100
AcDbEntity
  8
0
  6
HIDDEN
 62
     7
370
     0
100
AcDbLine
 10
112.0389366579
 20
199.8272457007
 30
0.0
 11
105.6389366579
 21
199.8272457007
 31
0.0
  0
LINE
  5
247
330
1F
100
AcDbEntity
  8
0
  6
HIDDEN
 62
     7
370
     0
100
AcDbLine
 10
341.6389366579
 20
191.8272457007
 30
0.0
 11
326.6774167324
 21
191.8272457007
 31
0.0
  0
LINE
  5
248
330
1F
100
AcDbEntity
  8
0
  6
HIDDEN
 62
     7
370
     0
100
AcDbLine
 10
341.6389366579
 20
199.8272457007
 30
0.0
 11
326.6774167324
 21
199.8272457007
 31
0.0
  0
LINE
  5
249
330
1F
100
AcDbEntity
  8
0
  6
HIDDEN
 62
     7
370
     0
100
AcDbLine
 10
99.8389366579
 20
191.8272457007
 30
0.0
 11
94.8389366579
 21
191.8272457007
 31
0.0
  0
LINE
  5
24A
330
1F
100
AcDbEntity
  8
0
  6
HIDDEN
 62
     7
370
     0
100
AcDbLine
 10
99.8389366579
 20
199.8272457007
 30
0.0
 11
94.8389366579
 21
199.8272457007
 31
0.0
  0
LINE
  5
24B
330
1F
100
AcDbEntity
  8
0
  6
HIDDEN
 62
     7
370
     0
100
AcDbLine
 10
367.8389366579
 20
191.8272457007
 30
0.0
 11
362.8389366579
 21
191.8272457007
 31
0.0
  0
LINE
  5
24C
330
1F
100
AcDbEntity
  8
0
  6
HIDDEN
 62
     7
370
     0
100
AcDbLine
 10
367.8389366579
 20
199.8272457007
 30
0.0
 11
362.8389366579
 21
199.8272457007
 31
0.0
  0
LINE
  5
24D
330
1F
100
AcDbEntity
  8
0
  6
HIDDEN
 62
     7
370
     0
100
AcDbLine
 10
114.5889366579
 20
192.3272457007
 30
0.0
 11
103.1278161008
 21
192.3272457007
 31
0.0
  0
LINE
  5
24E
330
1F
100
AcDbEntity
  8
0
  6
HIDDEN
 62
     7
370
     0
100
AcDbLine
 10
112.0389366579
 20
194.8772457007
 30
0.0
 11
105.6389366579
 21
194.8772457007
 31
0.0
  0
LINE
  5
24F
330
1F
100
AcDbEntity
  8
0
  6
HIDDEN
 62
     7
370
     0
100
AcDbLine
 10
114.5889366579
 20
191.8272457007
 30
0.0
 11
103.1278161008
 21
191.8272457007
 31
0.0
  0
LINE
  5
250
330
1F
100
AcDbEntity
  8
0
  6
HIDDEN
 62
     7
370
     0
100
AcDbLine
 10
237.0889366579
 20
192.3272457007
 30
0.0
 11
225.6278161008
 21
192.3272457007
 31
0.0
  0
LINE
  5
251
330
1F
100
AcDbEntity
  8
0
  6
HIDDEN
 62
     7
370
     0
100
AcDbLine
 10
234.5389366579
 20
194.8772457007
 30
0.0
 11
228.1389366579
 21
194.8772457007
 31
0.0
  0
LINE
  5
252
330
1F
100
AcDbEntity
  8
0
  6
HIDDEN
 62
     7
370
     0
100
AcDbLine
 10
359.5889366579
 20
192.3272457007
 30
0.0
 11
348.1278161008
 21
192.3272457007
 31
0.0
  0
LINE
  5
253
330
1F
100
AcDbEntity
  8
0
  6
HIDDEN
 62
     7
370
     0
100
AcDbLine
 10
357.0389366579
 20
194.8772457007
 30
0.0
 11
350.6389366579
 21
194.8772457007
 31
0.0
  0
LINE
  5
254
330
1F
100
AcDbEntity
  8
0
  6
HIDDEN
 62
     7
370
     0
100
AcDbLine
 10
237.0889366579
 20
191.8272457007
 30
0.0
 11
225.6278161008
 21
191.8272457007
 31
0.0
  0
LINE
  5
255
330
1F
100
AcDbEntity
  8
0
  6
HIDDEN
 62
     7
370
     0
100
AcDbLine
 10
359.5889366579
 20
191.8272457007
 30
0.0
 11
348.1278161008
 21
191.8272457007
 31
0.0
  0
LINE
  5
256
330
1F
100
AcDbEntity
  8
0
  6
HIDDEN
 62
     7
370
     0
100
AcDbLine
 10
234.5389366579
 20
199.8272457007
 30
0.0
 11
228.1389366579
 21
199.8272457007
 31
0.0
  0
LINE
  5
257
330
1F
100
AcDbEntity
  8
0
  6
HIDDEN
 62
     7
370
     0
100
AcDbLine
 10
357.0389366579
 20
199.8272457007
 30
0.0
 11
350.6389366579
 21
199.8272457007
 31
0.0
  0
LINE
  5
258
330
1F
100
AcDbEntity
  8
0
  6
HIDDEN
 62
     7
370
     0
100
AcDbLine
 10
112.0389366579
 20
199.8272457007
 30
0.0
 11
105.6389366579
 21
199.8272457007
 31
0.0
  0
LINE
  5
259
330
1F
100
AcDbEntity
  8
0
  6
HIDDEN
 62
     7
370
     0
100
AcDbLine
 10
90.8389366579
 20
191.8272457007
 30
0.0
 11
371.8389366579
 21
191.8272457007
 31
0.0
  0
LINE
  5
25A
330
1F
100
AcDbEntity
  8
0
  6
HIDDEN
 62
     7
370
     0
100
AcDbLine
 10
90.8389366579
 20
191.8272457007
 30
0.0
 11
90.8389366579
 21
199.8272457007
 31
0.0
  0
LINE
  5
25B
330
1F
100
AcDbEntity
  8
0
  6
HIDDEN
 62
     7
370
     0
100
AcDbLine
 10
90.8389366579
 20
199.8272457007
 30
0.0
 11
371.8389366579
 21
199.8272457007
 31
0.0
  0
LINE
  5
25C
330
1F
100
AcDbEntity
  8
0
  6
HIDDEN
 62
     7
370
     0
100
AcDbLine
 10
371.8389366579
 20
191.8272457007
 30
0.0
 11
371.8389366579
 21
199.8272457007
 31
0.0
  0
LINE
  5
25D
330
1F
100
AcDbEntity
  8
0
  6
HIDDEN
 62
     7
370
     0
100
AcDbLine
 10
114.5889366579
 20
192.3272457007
 30
0.0
 11
112.0389366579
 21
194.8772457007
 31
0.0
  0
LINE
  5
25E
330
1F
100
AcDbEntity
  8
0
  6
HIDDEN
 62
     7
370
     0
100
AcDbLine
 10
105.6389366579
 20
194.8772457007
 30
0.0
 11
103.0889366579
 21
192.3272457007
 31
0.0
  0
LINE
  5
25F
330
1F
100
AcDbEntity
  8
0
  6
HIDDEN
 62
     7
370
     0
100
AcDbLine
 10
237.0889366579
 20
192.3272457007
 30
0.0
 11
234.5389366579
 21
194.8772457007
 31
0.0
  0
LINE
  5
260
330
1F
100
AcDbEntity
  8
0
  6
HIDDEN
 62
     7
370
     0
100
AcDbLine
 10
228.1389366579
 20
194.8772457007
 30
0.0
 11
225.5889366579
 21
192.3272457007
 31
0.0
  0
LINE
  5
261
330
1F
100
AcDbEntity
  8
0
  6
HIDDEN
 62
     7
370
     0
100
AcDbLine
 10
114.5889366579
 20
191.8272457007
 30
0.0
 11
114.5889366579
 21
192.3272457007
 31
0.0
  0
LINE
  5
262
330
1F
100
AcDbEntity
  8
0
  6
HIDDEN
 62
     7
370
     0
100
AcDbLine
 10
103.0889366579
 20
192.3272457007
 30
0.0
 11
103.0889366579
 21
191.8272457007
 31
0.0
  0
LINE
  5
263
330
1F
100
AcDbEntity
  8
0
  6
HIDDEN
 62
     7
370
     0
100
AcDbLine
 10
359.5889366579
 20
192.3272457007
 30
0.0
 11
357.0389366579
 21
194.8772457007
 31
0.0
  0
LINE
  5
264
330
1F
100
AcDbEntity
  8
0
  6
HIDDEN
 62
     7
370
     0
100
AcDbLine
 10
350.6389366579
 20
194.8772457007
 30
0.0
 11
348.0889366579
 21
192.3272457007
 31
0.0
  0
LINE
  5
265
330
1F
100
AcDbEntity
  8
0
  6
HIDDEN
 62
     7
370
     0
100
AcDbLine
 10
237.0889366579
 20
191.8272457007
 30
0.0
 11
237.0889366579
 21
192.3272457007
 31
0.0
  0
LINE
  5
266
330
1F
100
AcDbEntity
  8
0
  6
HIDDEN
 62
     7
370
     0
100
AcDbLine
 10
225.5889366579
 20
192.3272457007
 30
0.0
 11
225.5889366579
 21
191.8272457007
 31
0.0
  0
LINE
  5
267
330
1F
100
AcDbEntity
  8
0
  6
HIDDEN
 62
     7
370
     0
100
AcDbLine
 10
359.5889366579
 20
191.8272457007
 30
0.0
 11
359.5889366579
 21
192.3272457007
 31
0.0
  0
LINE
  5
268
330
1F
100
AcDbEntity
  8
0
  6
HIDDEN
 62
     7
370
     0
100
AcDbLine
 10
348.0889366579
 20
192.3272457007
 30
0.0
 11
348.0889366579
 21
191.8272457007
 31
0.0
  0
LINE
  5
269
330
1F
100
AcDbEntity
  8
0
  6
HIDDEN
 62
     7
370
     0
100
AcDbLine
 10
234.5389366579
 20
194.8772457007
 30
0.0
 11
234.5389366579
 21
199.8272457007
 31
0.0
  0
LINE
  5
26A
330
1F
100
AcDbEntity
  8
0
  6
HIDDEN
 62
     7
370
     0
100
AcDbLine
 10
228.1389366579
 20
199.8272457007
 30
0.0
 11
228.1389366579
 21
194.8772457007
 31
0.0
  0
LINE
  5
26B
330
1F
100
AcDbEntity
  8
0
  6
HIDDEN
 62
     7
370
     0
100
AcDbLine
 10
357.0389366579
 20
194.8772457007
 30
0.0
 11
357.0389366579
 21
199.8272457007
 31
0.0
  0
LINE
  5
26C
330
1F
100
AcDbEntity
  8
0
  6
HIDDEN
 62
     7
370
     0
100
AcDbLine
 10
350.6389366579
 20
199.8272457007
 30
0.0
 11
350.6389366579
 21
194.8772457007
 31
0.0
  0
LINE
  5
26D
330
1F
100
AcDbEntity
  8
0
  6
HIDDEN
 62
     7
370
     0
100
AcDbLine
 10
112.0389366579
 20
194.8772457007
 30
0.0
 11
112.0389366579
 21
199.8272457007
 31
0.0
  0
LINE
  5
26E
330
1F
100
AcDbEntity
  8
0
  6
HIDDEN
 62
     7
370
     0
100
AcDbLine
 10
105.6389366579
 20
199.8272457007
 30
0.0
 11
105.6389366579
 21
194.8772457007
 31
0.0
  0
LINE
  5
26F
330
1F
100
AcDbEntity
  8
0
  6
HIDDEN
 62
     7
370
     0
100
AcDbLine
 10
326.6389366579
 20
199.8272457007
 30
0.0
 11
326.6389366579
 21
191.8272457007
 31
0.0
  0
LINE
  5
270
330
1F
100
AcDbEntity
  8
0
  6
HIDDEN
 62
     7
370
     0
100
AcDbLine
 10
341.6389366579
 20
191.8272457007
 30
0.0
 11
341.6389366579
 21
199.8272457007
 31
0.0
  0
LINE
  5
271
330
1F
100
AcDbEntity
  8
0
  6
HIDDEN
 62
     7
370
     0
100
AcDbLine
 10
99.8389366579
 20
191.8272457007
 30
0.0
 11
99.8389366579
 21
199.8272457007
 31
0.0
  0
LINE
  5
272
330
1F
100
AcDbEntity
  8
0
  6
HIDDEN
 62
     7
370
     0
100
AcDbLine
 10
94.8389366579
 20
199.8272457007
 30
0.0
 11
94.8389366579
 21
191.8272457007
 31
0.0
  0
LINE
  5
273
330
1F
100
AcDbEntity
  8
0
  6
HIDDEN
 62
     7
370
     0
100
AcDbLine
 10
367.8389366579
 20
191.8272457007
 30
0.0
 11
367.8389366579
 21
199.8272457007
 31
0.0
  0
LINE
  5
274
330
1F
100
AcDbEntity
  8
0
  6
HIDDEN
 62
     7
370
     0
100
AcDbLine
 10
362.8389366579
 20
199.8272457007
 30
0.0
 11
362.8389366579
 21
191.8272457007
 31
0.0
  0
LINE
  5
275
330
1F
100
AcDbEntity
  8
0
  6
HIDDEN
 62
     7
370
     0
100
AcDbLine
 10
114.5889366579
 20
192.3272457007
 30
0.0
 11
112.0389366579
 21
194.8772457007
 31
0.0
  0
LINE
  5
276
330
1F
100
AcDbEntity
  8
0
  6
HIDDEN
 62
     7
370
     0
100
AcDbLine
 10
105.6389366579
 20
194.8772457007
 30
0.0
 11
103.0889366579
 21
192.3272457007
 31
0.0
  0
LINE
  5
277
330
1F
100
AcDbEntity
  8
0
  6
HIDDEN
 62
     7
370
     0
100
AcDbLine
 10
114.5889366579
 20
191.8272457007
 30
0.0
 11
114.5889366579
 21
192.3272457007
 31
0.0
  0
LINE
  5
278
330
1F
100
AcDbEntity
  8
0
  6
HIDDEN
 62
     7
370
     0
100
AcDbLine
 10
103.0889366579
 20
192.3272457007
 30
0.0
 11
103.0889366579
 21
191.8272457007
 31
0.0
  0
LINE
  5
279
330
1F
100
AcDbEntity
  8
0
  6
HIDDEN
 62
     7
370
     0
100
AcDbLine
 10
237.0889366579
 20
192.3272457007
 30
0.0
 11
234.5389366579
 21
194.8772457007
 31
0.0
  0
LINE
  5
27A
330
1F
100
AcDbEntity
  8
0
  6
HIDDEN
 62
     7
370
     0
100
AcDbLine
 10
228.1389366579
 20
194.8772457007
 30
0.0
 11
225.5889366579
 21
192.3272457007
 31
0.0
  0
LINE
  5
27B
330
1F
100
AcDbEntity
  8
0
  6
HIDDEN
 62
     7
370
     0
100
AcDbLine
 10
359.5889366579
 20
192.3272457007
 30
0.0
 11
357.0389366579
 21
194.8772457007
 31
0.0
  0
LINE
  5
27C
330
1F
100
AcDbEntity
  8
0
  6
HIDDEN
 62
     7
370
     0
100
AcDbLine
 10
350.6389366579
 20
194.8772457007
 30
0.0
 11
348.0889366579
 21
192.3272457007
 31
0.0
  0
LINE
  5
27D
330
1F
100
AcDbEntity
  8
0
  6
HIDDEN
 62
     7
370
     0
100
AcDbLine
 10
237.0889366579
 20
191.8272457007
 30
0.0
 11
237.0889366579
 21
192.3272457007
 31
0.0
  0
LINE
  5
27E
330
1F
100
AcDbEntity
  8
0
  6
HIDDEN
 62
     7
370
     0
100
AcDbLine
 10
225.5889366579
 20
192.3272457007
 30
0.0
 11
225.5889366579
 21
191.8272457007
 31
0.0
  0
LINE
  5
27F
330
1F
100
AcDbEntity
  8
0
  6
HIDDEN
 62
     7
370
     0
100
AcDbLine
 10
359.5889366579
 20
191.8272457007
 30
0.0
 11
359.5889366579
 21
192.3272457007
 31
0.0
  0
LINE
  5
280
330
1F
100
AcDbEntity
  8
0
  6
HIDDEN
 62
     7
370
     0
100
AcDbLine
 10
348.0889366579
 20
192.3272457007
 30
0.0
 11
348.0889366579
 21
191.8272457007
 31
0.0
  0
LINE
  5
281
330
1F
100
AcDbEntity
  8
0
  6
HIDDEN
 62
     7
370
     0
100
AcDbLine
 10
234.5389366579
 20
194.8772457007
 30
0.0
 11
234.5389366579
 21
199.8272457007
 31
0.0
  0
LINE
  5
282
330
1F
100
AcDbEntity
  8
0
  6
HIDDEN
 62
     7
370
     0
100
AcDbLine
 10
228.1389366579
 20
199.8272457007
 30
0.0
 11
228.1389366579
 21
194.8772457007
 31
0.0
  0
LINE
  5
283
330
1F
100
AcDbEntity
  8
0
  6
HIDDEN
 62
     7
370
     0
100
AcDbLine
 10
357.0389366579
 20
194.8772457007
 30
0.0
 11
357.0389366579
 21
199.8272457007
 31
0.0
  0
LINE
  5
284
330
1F
100
AcDbEntity
  8
0
  6
HIDDEN
 62
     7
370
     0
100
AcDbLine
 10
350.6389366579
 20
199.8272457007
 30
0.0
 11
350.6389366579
 21
194.8772457007
 31
0.0
  0
LINE
  5
285
330
1F
100
AcDbEntity
  8
0
  6
HIDDEN
 62
     7
370
     0
100
AcDbLine
 10
112.0389366579
 20
194.8772457007
 30
0.0
 11
112.0389366579
 21
199.8272457007
 31
0.0
  0
LINE
  5
286
330
1F
100
AcDbEntity
  8
0
  6
HIDDEN
 62
     7
370
     0
100
AcDbLine
 10
105.6389366579
 20
199.8272457007
 30
0.0
 11
105.6389366579
 21
194.8772457007
 31
0.0
  0
DIMENSION
  5
287
330
1F
100
AcDbEntity
  8
0
  6
Continuous
 62
     7
370
     0
100
AcDbDimension
  2
*D13
 10
77.8389366579
 20
199.8272457007
 30
0.0
 11
77.8389366579
 21
165.8272457007
 31
0.0
 70
   160
 71
     2
 42
-1.0
  3
SLDDIMSTYLE0
100
AcDbAlignedDimension
 13
95.4710994939
 23
131.8272457007
 33
0.0
 14
90.8389366579
 24
199.8272457007
 34
0.0
 50
90.0
100
AcDbRotatedDimension
  0
DIMENSION
  5
292
330
1F
100
AcDbEntity
  8
0
  6
Continuous
 62
     7
370
     0
100
AcDbDimension
  2
*D14
 10
374.8389366579
 20
121.8272457007
 30
0.0
 11
231.3389366579
 21
121.8272457007
 31
0.0
 70
   160
 71
     2
 42
-1.0
  3
SLDDIMSTYLE0
100
AcDbAlignedDimension
 13
87.8389366579
 23
134.3272457007
 33
0.0
 14
374.8389366579
 24
134.3272457007
 34
0.0
 50
0.0
100
AcDbRotatedDimension
  0
DIMENSION
  5
29C
330
1F
100
AcDbEntity
  8
0
  6
Continuous
 62
     7
370
     0
100
AcDbDimension
  2
*D15
 10
357.0389366579
 20
206.542096018
 30
0.0
 11
364.9987166756
 21
206.542096018
 31
0.0
 70
   160
  1
%%c<>
 71
     2
 42
-1.0
  3
SLDDIMSTYLE1
100
AcDbAlignedDimension
 13
350.6389366579
 23
199.8272457007
 33
0.0
 14
357.0389366579
 24
199.8272457007
 34
0.0
100
AcDbRotatedDimension
  0
DIMENSION
  5
2AA
330
1F
100
AcDbEntity
  8
0
  6
Continuous
 62
     7
370
     0
100
AcDbDimension
  2
*D16
 10
348.0889366579
 20
178.4376084894
 30
0.0
 11
382.0355050619
 21
178.4376084894
 31
0.0
 70
   160
  1
%%c<>
 71
     2
 42
-1.0
  3
SLDDIMSTYLE0
100
AcDbAlignedDimension
 13
359.5889366579
 23
192.3272457007
 33
0.0
 14
348.0889366579
 24
192.3272457007
 34
0.0
100
AcDbRotatedDimension
  0
DIMENSION
  5
2B6
330
1F
100
AcDbEntity
  8
0
  6
Continuous
 62
     7
370
     0
100
AcDbDimension
  2
*D17
 10
348.0889366579
 20
192.3272457007
 30
0.0
 11
353.8389366579
 21
167.6064512342
 31
0.0
 70
   162
 71
     1
 42
-1.0
  3
SLDDIMSTYLE2
100
AcDb2LineAngularDimension
 13
359.5889366579
 23
192.3272457007
 33
0.0
 14
357.0389366579
 24
194.8772457007
 34
0.0
 15
350.6389366579
 25
194.8772457007
 35
0.0
 16
353.8389366579
 26
167.6064512342
 36
0.0
  0
DIMENSION
  5
2C1
330
1F
100
AcDbEntity
  8
0
  6
Continuous
 62
     7
370
     0
100
AcDbDimension
  2
*D18
 10
384.8389366579
 20
199.8272457007
 30
0.0
 11
384.8389366579
 21
195.8272457007
 31
0.0
 70
   160
 71
     2
 42
-1.0
  3
SLDDIMSTYLE1
100
AcDbAlignedDimension
 13
371.8389366579
 23
191.8272457007
 33
0.0
 14
371.8389366579
 24
199.8272457007
 34
0.0
 50
90.0
100
AcDbRotatedDimension
  0
DIMENSION
  5
2CD
330
1F
100
AcDbEntity
  8
0
  6
Continuous
 62
     7
370
     0
100
AcDbDimension
  2
*D19
 10
108.8389366579
 20
206.542096018
 30
0.0
 11
99.8389366579
 21
206.542096018
 31
0.0
 70
   160
 71
     2
 42
-1.0
  3
SLDDIMSTYLE0
100
AcDbAlignedDimension
 13
90.8389366579
 23
199.8272457007
 33
0.0
 14
108.8389366579
 24
200.8272457007
 34
0.0
100
AcDbRotatedDimension
  0
DIMENSION
  5
2D7
330
1F
100
AcDbEntity
  8
0
  6
Continuous
 62
     7
370
     0
100
AcDbDimension
  2
*D20
 10
231.3389366579
 20
212.2756556217
 30
0.0
 11
161.0889366579
 21
212.2756556217
 31
0.0
 70
   160
 71
     2
 42
-1.0
  3
SLDDIMSTYLE0
100
AcDbAlignedDimension
 13
90.8389366579
 23
199.8272457007
 33
0.0
 14
231.3389366579
 24
200.8272457007
 34
0.0
100
AcDbRotatedDimension
  0
DIMENSION
  5
2E1
330
1F
100
AcDbEntity
  8
0
  6
Continuous
 62
     7
370
     0
100
AcDbDimension
  2
*D21
 10
353.8389366579
 20
228.8619362845
 30
0.0
 11
222.3389366579
 21
228.8619362845
 31
0.0
 70
   160
 71
     2
 42
-1.0
  3
SLDDIMSTYLE0
100
AcDbAlignedDimension
 13
90.8389366579
 23
199.8272457007
 33
0.0
 14
353.8389366579
 24
200.8272457007
 34
0.0
100
AcDbRotatedDimension
  0
DIMENSION
  5
2EB
330
1F
100
AcDbEntity
  8
0
  6
Continuous
 62
     7
370
     0
100
AcDbDimension
  2
*D22
 10
334.1389366579
 20
220.4810376983
 30
0.0
 11
212.4889366579
 21
220.4810376983
 31
0.0
 70
   160
 71
     2
 42
-1.0
  3
SLDDIMSTYLE0
100
AcDbAlignedDimension
 13
90.8389366579
 23
199.8272457007
 33
0.0
 14
334.1389366579
 24
200.8272457007
 34
0.0
100
AcDbRotatedDimension
  0
DIMENSION
  5
2F5
330
1F
100
AcDbEntity
  8
0
  6
Continuous
 62
     7
370
     0
100
AcDbDimension
  2
*D23
 10
90.8389366579
 20
235.792725052
 30
0.0
 11
231.3389366579
 21
235.792725052
 31
0.0
 70
   160
 71
     2
 42
-1.0
  3
SLDDIMSTYLE0
100
AcDbAlignedDimension
 13
371.8389366579
 23
199.8272457007
 33
0.0
 14
90.8389366579
 24
199.8272457007
 34
0.0
 50
0.0
100
AcDbRotatedDimension
  0
LINE
  5
2FF
330
1F
100
AcDbEntity
  8
0
  6
CENTERX2
 62
     7
370
     0
100
AcDbLine
 10
108.8389366579
 20
193.8772457007
 30
0.0
 11
108.8389366579
 21
200.8272457007
 31
0.0
  0
LINE
  5
300
330
1F
100
AcDbEntity
  8
0
  6
CENTERX2
 62
     7
370
     0
100
AcDbLine
 10
231.3389366579
 20
193.8772457007
 30
0.0
 11
231.3389366579
 21
200.8272457007
 31
0.0
  0
LINE
  5
301
330
1F
100
AcDbEntity
  8
0
  6
CENTERX2
 62
     7
370
     0
100
AcDbLine
 10
353.8389366579
 20
193.8772457007
 30
0.0
 11
353.8389366579
 21
200.8272457007
 31
0.0
  0
LINE
  5
302
330
1F
100
AcDbEntity
  8
0
  6
CENTERX2
 62
     7
370
     0
100
AcDbLine
 10
334.1389366579
 20
190.8272457007
 30
0.0
 11
334.1389366579
 21
200.8272457007
 31
0.0
  0
ARC
  5
303
330
1F
100
AcDbEntity
  8
0
  6
Continuous
 62
     7
370
    40
100
AcDbCircle
 10
65.3070994415
 20
160.8272457007
 30
0.0
 40
2.500000000000016
100
AcDbArc
 50
301.3322514976
 51
58.6677485024
  0
LINE
  5
304
330
1F
100
AcDbEntity
  8
0
  6
Continuous
 62
     7
370
    40
100
AcDbLine
 10
28.1070994415
 20
134.8270605148
 30
0.0
 11
28.9070994415
 21
134.8270605148
 31
0.0
  0
LINE
  5
305
330
1F
100
AcDbEntity
  8
0
  6
Continuous
 62
     7
370
    40
100
AcDbLine
 10
28.1070994415
 20
143.8270605148
 30
0.0
 11
28.1070994415
 21
134.8270605148
 31
0.0
  0
LINE
  5
306
330
1F
100
AcDbEntity
  8
0
  6
Continuous
 62
     7
370
    40
100
AcDbLine
 10
28.9070994415
 20
143.8270605148
 30
0.0
 11
28.1070994415
 21
143.8270605148
 31
0.0
  0
LINE
  5
307
330
1F
100
AcDbEntity
  8
0
  6
Continuous
 62
     7
370
    40
100
AcDbLine
 10
28.1070994415
 20
152.8270605148
 30
0.0
 11
28.9070994415
 21
152.8270605148
 31
0.0
  0
LINE
  5
308
330
1F
100
AcDbEntity
  8
0
  6
Continuous
 62
     7
370
    40
100
AcDbLine
 10
28.1070994415
 20
170.8270605148
 30
0.0
 11
28.1070994415
 21
152.8270605148
 31
0.0
  0
LINE
  5
309
330
1F
100
AcDbEntity
  8
0
  6
Continuous
 62
     7
370
    40
100
AcDbLine
 10
28.9070994415
 20
170.8270605148
 30
0.0
 11
28.1070994415
 21
170.8270605148
 31
0.0
  0
LINE
  5
30A
330
1F
100
AcDbEntity
  8
0
  6
Continuous
 62
     7
370
    40
100
AcDbLine
 10
28.1070994415
 20
179.8270605148
 30
0.0
 11
28.9070994415
 21
179.8270605148
 31
0.0
  0
LINE
  5
30B
330
1F
100
AcDbEntity
  8
0
  6
Continuous
 62
     7
370
    40
100
AcDbLine
 10
28.1070994415
 20
188.8270605148
 30
0.0
 11
28.1070994415
 21
179.8270605148
 31
0.0
  0
LINE
  5
30C
330
1F
100
AcDbEntity
  8
0
  6
Continuous
 62
     7
370
    40
100
AcDbLine
 10
28.9070994415
 20
188.8270605148
 30
0.0
 11
28.1070994415
 21
188.8270605148
 31
0.0
  0
LINE
  5
30D
330
1F
100
AcDbEntity
  8
0
  6
Continuous
 62
     7
370
    40
100
AcDbLine
 10
64.1070994415
 20
191.8272457007
 30
0.0
 11
64.1070994415
 21
199.8272457007
 31
0.0
  0
LINE
  5
30E
330
1F
100
AcDbEntity
  8
0
  6
Continuous
 62
     7
370
    40
100
AcDbLine
 10
64.1070994415
 20
191.8272457007
 30
0.0
 11
63.9070994415
 21
191.8272457007
 31
0.0
  0
LINE
  5
30F
330
1F
100
AcDbEntity
  8
0
  6
Continuous
 62
     7
370
    40
100
AcDbLine
 10
31.4070994415
 20
191.8272457007
 30
0.0
 11
29.1070994415
 21
191.8272457007
 31
0.0
  0
LINE
  5
310
330
1F
100
AcDbEntity
  8
0
  6
Continuous
 62
     7
370
    40
100
AcDbLine
 10
29.1070994415
 20
191.8272457007
 30
0.0
 11
29.1070994415
 21
199.8272457007
 31
0.0
  0
LINE
  5
311
330
1F
100
AcDbEntity
  8
0
  6
Continuous
 62
     7
370
    40
100
AcDbLine
 10
64.1070994415
 20
199.8272457007
 30
0.0
 11
29.1070994415
 21
199.8272457007
 31
0.0
  0
LINE
  5
312
330
1F
100
AcDbEntity
  8
0
  6
Continuous
 62
     7
370
    40
100
AcDbLine
 10
66.4070994415
 20
189.3272457007
 30
0.0
 11
66.4070994415
 21
134.3272457007
 31
0.0
  0
LINE
  5
313
330
1F
100
AcDbEntity
  8
0
  6
Continuous
 62
     7
370
    40
100
AcDbLine
 10
31.4070994415
 20
191.8272457007
 30
0.0
 11
63.9070994415
 21
191.8272457007
 31
0.0
  0
LINE
  5
314
330
1F
100
AcDbEntity
  8
0
  6
Continuous
 62
     7
370
    40
100
AcDbLine
 10
63.9070994415
 20
131.8272457007
 30
0.0
 11
31.4070994415
 21
131.8272457007
 31
0.0
  0
ARC
  5
315
330
1F
100
AcDbEntity
  8
0
  6
Continuous
 62
     7
370
    40
100
AcDbCircle
 10
63.9070994415
 20
189.3272457007
 30
0.0
 40
2.5
100
AcDbArc
 50
0.0
 51
90.0
  0
ARC
  5
316
330
1F
100
AcDbEntity
  8
0
  6
Continuous
 62
     7
370
    40
100
AcDbCircle
 10
63.9070994415
 20
134.3272457007
 30
0.0
 40
2.5
100
AcDbArc
 50
270.0
 51
0.0
  0
ARC
  5
317
330
1F
100
AcDbEntity
  8
0
  6
Continuous
 62
     7
370
    40
100
AcDbCircle
 10
31.4070994415
 20
189.3272457007
 30
0.0
 40
2.500000000000028
100
AcDbArc
 50
90.0
 51
180.0
  0
LINE
  5
318
330
1F
100
AcDbEntity
  8
0
  6
Continuous
 62
     7
370
    40
100
AcDbLine
 10
28.9070994415
 20
134.3272457007
 30
0.0
 11
28.9070994415
 21
189.3272457007
 31
0.0
  0
ARC
  5
319
330
1F
100
AcDbEntity
  8
0
  6
Continuous
 62
     7
370
    40
100
AcDbCircle
 10
31.4070994415
 20
134.3272457007
 30
0.0
 40
2.5
100
AcDbArc
 50
180.0
 51
270.0
  0
LINE
  5
31A
330
1F
100
AcDbEntity
  8
0
  6
Continuous
 62
     7
370
    40
100
AcDbLine
 10
29.1070994415
 20
133.3474498036
 30
0.0
 11
29.1070994415
 21
131.8272457007
 31
0.0
  0
LINE
  5
31B
330
1F
100
AcDbEntity
  8
0
  6
Continuous
 62
     7
370
    40
100
AcDbLine
 10
29.1070994415
 20
191.8272457007
 30
0.0
 11
29.1070994415
 21
190.3070415978
 31
0.0
  0
LINE
  5
31C
330
1F
100
AcDbEntity
  8
0
  6
Continuous
 62
     7
370
    40
100
AcDbLine
 10
66.6070994415
 20
191.8272457007
 30
0.0
 11
63.9070994415
 21
191.8272457007
 31
0.0
  0
LINE
  5
31D
330
1F
100
AcDbEntity
  8
0
  6
Continuous
 62
     7
370
    40
100
AcDbLine
 10
31.4070994415
 20
191.8272457007
 30
0.0
 11
29.1070994415
 21
191.8272457007
 31
0.0
  0
LINE
  5
31E
330
1F
100
AcDbEntity
  8
0
  6
Continuous
 62
     7
370
    40
100
AcDbLine
 10
66.6070994415
 20
131.8272457007
 30
0.0
 11
66.6070994415
 21
191.8272457007
 31
0.0
  0
LINE
  5
31F
330
1F
100
AcDbEntity
  8
0
  6
Continuous
 62
     7
370
    40
100
AcDbLine
 10
29.1070994415
 20
131.8272457007
 30
0.0
 11
31.4070994415
 21
131.8272457007
 31
0.0
  0
LINE
  5
320
330
1F
100
AcDbEntity
  8
0
  6
Continuous
 62
     7
370
    40
100
AcDbLine
 10
63.9070994415
 20
131.8272457007
 30
0.0
 11
66.6070994415
 21
131.8272457007
 31
0.0
  0
LINE
  5
321
330
1F
100
AcDbEntity
  8
0
  6
HIDDEN
 62
     7
370
     0
100
AcDbLine
 10
63.9070994415
 20
191.8272457007
 30
0.0
 11
31.4070994415
 21
191.8272457007
 31
0.0
  0
LWPOLYLINE
  5
322
330
1F
100
AcDbEntity
  8
0
  6
HIDDEN
 62
     7
370
     0
100
AcDbPolyline
 90
        2
 70
   128
 43
0.0
 10
64.1070994415
 20
199.8272457007
 10
64.1070994415
 20
199.8272457007
  0
LWPOLYLINE
  5
323
330
1F
100
AcDbEntity
  8
0
  6
HIDDEN
 62
     7
370
     0
100
AcDbPolyline
 90
        2
 70
   128
 43
0.0
 10
64.1070994415
 20
191.8272457007
 10
64.1070994415
 20
191.8272457007
  0
LWPOLYLINE
  5
324
330
1F
100
AcDbEntity
  8
0
  6
HIDDEN
 62
     7
370
     0
100
AcDbPolyline
 90
        2
 70
   128
 43
0.0
 10
29.1070994415
 20
191.8272457007
 10
29.1070994415
 20
191.8272457007
  0
LWPOLYLINE
  5
325
330
1F
100
AcDbEntity
  8
0
  6
HIDDEN
 62
     7
370
     0
100
AcDbPolyline
 90
        2
 70
   128
 43
0.0
 10
29.1070994415
 20
199.8272457007
 10
29.1070994415
 20
199.8272457007
  0
LINE
  5
326
330
1F
100
AcDbEntity
  8
0
  6
HIDDEN
 62
     7
370
     0
100
AcDbLine
 10
49.069118824
 20
191.8272457007
 30
0.0
 11
44.145080059
 21
191.8272457007
 31
0.0
  0
LINE
  5
327
330
1F
100
AcDbEntity
  8
0
  6
HIDDEN
 62
     7
370
     0
100
AcDbLine
 10
49.069118824
 20
199.8272457007
 30
0.0
 11
44.145080059
 21
199.8272457007
 31
0.0
  0
LINE
  5
328
330
1F
100
AcDbEntity
  8
0
  6
HIDDEN
 62
     7
370
     0
100
AcDbLine
 10
61.3570994415
 20
192.3272457007
 30
0.0
 11
49.8570994415
 21
192.3272457007
 31
0.0
  0
LINE
  5
329
330
1F
100
AcDbEntity
  8
0
  6
HIDDEN
 62
     7
370
     0
100
AcDbLine
 10
61.3473713516
 20
191.8272457007
 30
0.0
 11
49.8668275314
 21
191.8272457007
 31
0.0
  0
LINE
  5
32A
330
1F
100
AcDbEntity
  8
0
  6
HIDDEN
 62
     7
370
     0
100
AcDbLine
 10
58.8070994415
 20
194.8772457007
 30
0.0
 11
52.4070994415
 21
194.8772457007
 31
0.0
  0
LINE
  5
32B
330
1F
100
AcDbEntity
  8
0
  6
HIDDEN
 62
     7
370
     0
100
AcDbLine
 10
43.3570994415
 20
192.3272457007
 30
0.0
 11
31.8570994415
 21
192.3272457007
 31
0.0
  0
LINE
  5
32C
330
1F
100
AcDbEntity
  8
0
  6
HIDDEN
 62
     7
370
     0
100
AcDbLine
 10
40.8070994415
 20
194.8772457007
 30
0.0
 11
34.4070994415
 21
194.8772457007
 31
0.0
  0
LINE
  5
32D
330
1F
100
AcDbEntity
  8
0
  6
HIDDEN
 62
     7
370
     0
100
AcDbLine
 10
43.3473713516
 20
191.8272457007
 30
0.0
 11
31.8668275314
 21
191.8272457007
 31
0.0
  0
LINE
  5
32E
330
1F
100
AcDbEntity
  8
0
  6
HIDDEN
 62
     7
370
     0
100
AcDbLine
 10
58.8070994415
 20
199.8272457007
 30
0.0
 11
52.4070994415
 21
199.8272457007
 31
0.0
  0
LINE
  5
32F
330
1F
100
AcDbEntity
  8
0
  6
HIDDEN
 62
     7
370
     0
100
AcDbLine
 10
40.8070994415
 20
199.8272457007
 30
0.0
 11
34.4070994415
 21
199.8272457007
 31
0.0
  0
LINE
  5
330
330
1F
100
AcDbEntity
  8
0
  6
HIDDEN
 62
     7
370
     0
100
AcDbLine
 10
51.0974732453
 20
191.8272457007
 30
0.0
 11
36.1167256377
 21
191.8272457007
 31
0.0
  0
LINE
  5
331
330
1F
100
AcDbEntity
  8
0
  6
HIDDEN
 62
     7
370
     0
100
AcDbLine
 10
51.0974732453
 20
199.8272457007
 30
0.0
 11
36.1167256377
 21
199.8272457007
 31
0.0
  0
LINE
  5
332
330
1F
100
AcDbEntity
  8
0
  6
HIDDEN
 62
     7
370
     0
100
AcDbLine
 10
61.3473713516
 20
192.3272457007
 30
0.0
 11
49.8668275314
 21
192.3272457007
 31
0.0
  0
LINE
  5
333
330
1F
100
AcDbEntity
  8
0
  6
HIDDEN
 62
     7
370
     0
100
AcDbLine
 10
61.3473713516
 20
191.8272457007
 30
0.0
 11
49.8668275314
 21
191.8272457007
 31
0.0
  0
LINE
  5
334
330
1F
100
AcDbEntity
  8
0
  6
HIDDEN
 62
     7
370
     0
100
AcDbLine
 10
58.8070994415
 20
194.8772457007
 30
0.0
 11
52.4070994415
 21
194.8772457007
 31
0.0
  0
LINE
  5
335
330
1F
100
AcDbEntity
  8
0
  6
HIDDEN
 62
     7
370
     0
100
AcDbLine
 10
43.3473713516
 20
192.3272457007
 30
0.0
 11
31.8668275314
 21
192.3272457007
 31
0.0
  0
LINE
  5
336
330
1F
100
AcDbEntity
  8
0
  6
HIDDEN
 62
     7
370
     0
100
AcDbLine
 10
43.3473713516
 20
191.8272457007
 30
0.0
 11
31.8668275314
 21
191.8272457007
 31
0.0
  0
LINE
  5
337
330
1F
100
AcDbEntity
  8
0
  6
HIDDEN
 62
     7
370
     0
100
AcDbLine
 10
40.8070994415
 20
194.8772457007
 30
0.0
 11
34.4070994415
 21
194.8772457007
 31
0.0
  0
LINE
  5
338
330
1F
100
AcDbEntity
  8
0
  6
HIDDEN
 62
     7
370
     0
100
AcDbLine
 10
58.8070994415
 20
199.8272457007
 30
0.0
 11
52.4070994415
 21
199.8272457007
 31
0.0
  0
LINE
  5
339
330
1F
100
AcDbEntity
  8
0
  6
HIDDEN
 62
     7
370
     0
100
AcDbLine
 10
40.8070994415
 20
199.8272457007
 30
0.0
 11
34.4070994415
 21
199.8272457007
 31
0.0
  0
LINE
  5
33A
330
1F
100
AcDbEntity
  8
0
  6
HIDDEN
 62
     7
370
     0
100
AcDbLine
 10
61.3473713516
 20
192.3272457007
 30
0.0
 11
49.8668275314
 21
192.3272457007
 31
0.0
  0
LINE
  5
33B
330
1F
100
AcDbEntity
  8
0
  6
HIDDEN
 62
     7
370
     0
100
AcDbLine
 10
61.3473713516
 20
191.8272457007
 30
0.0
 11
49.8668275314
 21
191.8272457007
 31
0.0
  0
LINE
  5
33C
330
1F
100
AcDbEntity
  8
0
  6
HIDDEN
 62
     7
370
     0
100
AcDbLine
 10
58.8070994415
 20
194.8772457007
 30
0.0
 11
52.4070994415
 21
194.8772457007
 31
0.0
  0
LINE
  5
33D
330
1F
100
AcDbEntity
  8
0
  6
HIDDEN
 62
     7
370
     0
100
AcDbLine
 10
43.3473713516
 20
192.3272457007
 30
0.0
 11
31.8668275314
 21
192.3272457007
 31
0.0
  0
LINE
  5
33E
330
1F
100
AcDbEntity
  8
0
  6
HIDDEN
 62
     7
370
     0
100
AcDbLine
 10
40.8070994415
 20
194.8772457007
 30
0.0
 11
34.4070994415
 21
194.8772457007
 31
0.0
  0
LINE
  5
33F
330
1F
100
AcDbEntity
  8
0
  6
HIDDEN
 62
     7
370
     0
100
AcDbLine
 10
43.3473713516
 20
191.8272457007
 30
0.0
 11
31.8668275314
 21
191.8272457007
 31
0.0
  0
LINE
  5
340
330
1F
100
AcDbEntity
  8
0
  6
HIDDEN
 62
     7
370
     0
100
AcDbLine
 10
58.8070994415
 20
199.8272457007
 30
0.0
 11
52.4070994415
 21
199.8272457007
 31
0.0
  0
LINE
  5
341
330
1F
100
AcDbEntity
  8
0
  6
HIDDEN
 62
     7
370
     0
100
AcDbLine
 10
40.8070994415
 20
199.8272457007
 30
0.0
 11
34.4070994415
 21
199.8272457007
 31
0.0
  0
LINE
  5
342
330
1F
100
AcDbEntity
  8
0
  6
HIDDEN
 62
     7
370
     0
100
AcDbLine
 10
49.069118824
 20
191.8272457007
 30
0.0
 11
44.145080059
 21
191.8272457007
 31
0.0
  0
LINE
  5
343
330
1F
100
AcDbEntity
  8
0
  6
HIDDEN
 62
     7
370
     0
100
AcDbLine
 10
49.069118824
 20
199.8272457007
 30
0.0
 11
44.145080059
 21
199.8272457007
 31
0.0
  0
LINE
  5
344
330
1F
100
AcDbEntity
  8
0
  6
HIDDEN
 62
     7
370
     0
100
AcDbLine
 10
29.1070994415
 20
191.8272457007
 30
0.0
 11
29.1070994415
 21
199.8272457007
 31
0.0
  0
LINE
  5
345
330
1F
100
AcDbEntity
  8
0
  6
HIDDEN
 62
     7
370
     0
100
AcDbLine
 10
29.1070994415
 20
191.8272457007
 30
0.0
 11
64.1070994415
 21
191.8272457007
 31
0.0
  0
LINE
  5
346
330
1F
100
AcDbEntity
  8
0
  6
HIDDEN
 62
     7
370
     0
100
AcDbLine
 10
29.1070994415
 20
199.8272457007
 30
0.0
 11
64.1070994415
 21
199.8272457007
 31
0.0
  0
LINE
  5
347
330
1F
100
AcDbEntity
  8
0
  6
HIDDEN
 62
     7
370
     0
100
AcDbLine
 10
64.1070994415
 20
191.8272457007
 30
0.0
 11
64.1070994415
 21
199.8272457007
 31
0.0
  0
LINE
  5
348
330
1F
100
AcDbEntity
  8
0
  6
HIDDEN
 62
     7
370
     0
100
AcDbLine
 10
49.1070994415
 20
191.8272457007
 30
0.0
 11
49.1070994415
 21
199.8272457007
 31
0.0
  0
LINE
  5
349
330
1F
100
AcDbEntity
  8
0
  6
HIDDEN
 62
     7
370
     0
100
AcDbLine
 10
44.1070994415
 20
199.8272457007
 30
0.0
 11
44.1070994415
 21
191.8272457007
 31
0.0
  0
LINE
  5
34A
330
1F
100
AcDbEntity
  8
0
  6
HIDDEN
 62
     7
370
     0
100
AcDbLine
 10
61.3570994415
 20
191.8272457007
 30
0.0
 11
61.3570994415
 21
192.3272457007
 31
0.0
  0
LINE
  5
34B
330
1F
100
AcDbEntity
  8
0
  6
HIDDEN
 62
     7
370
     0
100
AcDbLine
 10
49.8570994415
 20
192.3272457007
 30
0.0
 11
49.8570994415
 21
191.8272457007
 31
0.0
  0
LINE
  5
34C
330
1F
100
AcDbEntity
  8
0
  6
HIDDEN
 62
     7
370
     0
100
AcDbLine
 10
61.3570994415
 20
192.3272457007
 30
0.0
 11
58.8070994415
 21
194.8772457007
 31
0.0
  0
LINE
  5
34D
330
1F
100
AcDbEntity
  8
0
  6
HIDDEN
 62
     7
370
     0
100
AcDbLine
 10
52.4070994415
 20
194.8772457007
 30
0.0
 11
49.8570994415
 21
192.3272457007
 31
0.0
  0
LINE
  5
34E
330
1F
100
AcDbEntity
  8
0
  6
HIDDEN
 62
     7
370
     0
100
AcDbLine
 10
43.3570994415
 20
192.3272457007
 30
0.0
 11
40.8070994415
 21
194.8772457007
 31
0.0
  0
LINE
  5
34F
330
1F
100
AcDbEntity
  8
0
  6
HIDDEN
 62
     7
370
     0
100
AcDbLine
 10
34.4070994415
 20
194.8772457007
 30
0.0
 11
31.8570994415
 21
192.3272457007
 31
0.0
  0
LINE
  5
350
330
1F
100
AcDbEntity
  8
0
  6
HIDDEN
 62
     7
370
     0
100
AcDbLine
 10
43.3570994415
 20
191.8272457007
 30
0.0
 11
43.3570994415
 21
192.3272457007
 31
0.0
  0
LINE
  5
351
330
1F
100
AcDbEntity
  8
0
  6
HIDDEN
 62
     7
370
     0
100
AcDbLine
 10
31.8570994415
 20
192.3272457007
 30
0.0
 11
31.8570994415
 21
191.8272457007
 31
0.0
  0
LINE
  5
352
330
1F
100
AcDbEntity
  8
0
  6
HIDDEN
 62
     7
370
     0
100
AcDbLine
 10
58.8070994415
 20
194.8772457007
 30
0.0
 11
58.8070994415
 21
199.8272457007
 31
0.0
  0
LINE
  5
353
330
1F
100
AcDbEntity
  8
0
  6
HIDDEN
 62
     7
370
     0
100
AcDbLine
 10
52.4070994415
 20
199.8272457007
 30
0.0
 11
52.4070994415
 21
194.8772457007
 31
0.0
  0
LINE
  5
354
330
1F
100
AcDbEntity
  8
0
  6
HIDDEN
 62
     7
370
     0
100
AcDbLine
 10
40.8070994415
 20
194.8772457007
 30
0.0
 11
40.8070994415
 21
199.8272457007
 31
0.0
  0
LINE
  5
355
330
1F
100
AcDbEntity
  8
0
  6
HIDDEN
 62
     7
370
     0
100
AcDbLine
 10
34.4070994415
 20
199.8272457007
 30
0.0
 11
34.4070994415
 21
194.8772457007
 31
0.0
  0
LINE
  5
356
330
1F
100
AcDbEntity
  8
0
  6
HIDDEN
 62
     7
370
     0
100
AcDbLine
 10
36.1070994415
 20
199.8272457007
 30
0.0
 11
36.1070994415
 21
191.8272457007
 31
0.0
  0
LINE
  5
357
330
1F
100
AcDbEntity
  8
0
  6
HIDDEN
 62
     7
370
     0
100
AcDbLine
 10
51.1070994415
 20
191.8272457007
 30
0.0
 11
51.1070994415
 21
199.8272457007
 31
0.0
  0
LINE
  5
358
330
1F
100
AcDbEntity
  8
0
  6
HIDDEN
 62
     7
370
     0
100
AcDbLine
 10
61.3570994415
 20
191.8272457007
 30
0.0
 11
61.3570994415
 21
192.3272457007
 31
0.0
  0
LINE
  5
359
330
1F
100
AcDbEntity
  8
0
  6
HIDDEN
 62
     7
370
     0
100
AcDbLine
 10
49.8570994415
 20
192.3272457007
 30
0.0
 11
49.8570994415
 21
191.8272457007
 31
0.0
  0
LINE
  5
35A
330
1F
100
AcDbEntity
  8
0
  6
HIDDEN
 62
     7
370
     0
100
AcDbLine
 10
61.3570994415
 20
192.3272457007
 30
0.0
 11
58.8070994415
 21
194.8772457007
 31
0.0
  0
LINE
  5
35B
330
1F
100
AcDbEntity
  8
0
  6
HIDDEN
 62
     7
370
     0
100
AcDbLine
 10
52.4070994415
 20
194.8772457007
 30
0.0
 11
49.8570994415
 21
192.3272457007
 31
0.0
  0
LINE
  5
35C
330
1F
100
AcDbEntity
  8
0
  6
HIDDEN
 62
     7
370
     0
100
AcDbLine
 10
43.3570994415
 20
191.8272457007
 30
0.0
 11
43.3570994415
 21
192.3272457007
 31
0.0
  0
LINE
  5
35D
330
1F
100
AcDbEntity
  8
0
  6
HIDDEN
 62
     7
370
     0
100
AcDbLine
 10
31.8570994415
 20
192.3272457007
 30
0.0
 11
31.8570994415
 21
191.8272457007
 31
0.0
  0
LINE
  5
35E
330
1F
100
AcDbEntity
  8
0
  6
HIDDEN
 62
     7
370
     0
100
AcDbLine
 10
43.3570994415
 20
192.3272457007
 30
0.0
 11
40.8070994415
 21
194.8772457007
 31
0.0
  0
LINE
  5
35F
330
1F
100
AcDbEntity
  8
0
  6
HIDDEN
 62
     7
370
     0
100
AcDbLine
 10
34.4070994415
 20
194.8772457007
 30
0.0
 11
31.8570994415
 21
192.3272457007
 31
0.0
  0
LINE
  5
360
330
1F
100
AcDbEntity
  8
0
  6
HIDDEN
 62
     7
370
     0
100
AcDbLine
 10
58.8070994415
 20
194.8772457007
 30
0.0
 11
58.8070994415
 21
199.8272457007
 31
0.0
  0
LINE
  5
361
330
1F
100
AcDbEntity
  8
0
  6
HIDDEN
 62
     7
370
     0
100
AcDbLine
 10
52.4070994415
 20
199.8272457007
 30
0.0
 11
52.4070994415
 21
194.8772457007
 31
0.0
  0
LINE
  5
362
330
1F
100
AcDbEntity
  8
0
  6
HIDDEN
 62
     7
370
     0
100
AcDbLine
 10
40.8070994415
 20
194.8772457007
 30
0.0
 11
40.8070994415
 21
199.8272457007
 31
0.0
  0
LINE
  5
363
330
1F
100
AcDbEntity
  8
0
  6
HIDDEN
 62
     7
370
     0
100
AcDbLine
 10
34.4070994415
 20
199.8272457007
 30
0.0
 11
34.4070994415
 21
194.8772457007
 31
0.0
  0
LINE
  5
364
330
1F
100
AcDbEntity
  8
0
  6
HIDDEN
 62
     7
370
     0
100
AcDbLine
 10
61.3570994415
 20
191.8272457007
 30
0.0
 11
61.3570994415
 21
192.3272457007
 31
0.0
  0
LINE
  5
365
330
1F
100
AcDbEntity
  8
0
  6
HIDDEN
 62
     7
370
     0
100
AcDbLine
 10
49.8570994415
 20
192.3272457007
 30
0.0
 11
49.8570994415
 21
191.8272457007
 31
0.0
  0
LINE
  5
366
330
1F
100
AcDbEntity
  8
0
  6
HIDDEN
 62
     7
370
     0
100
AcDbLine
 10
61.3570994415
 20
192.3272457007
 30
0.0
 11
58.8070994415
 21
194.8772457007
 31
0.0
  0
LINE
  5
367
330
1F
100
AcDbEntity
  8
0
  6
HIDDEN
 62
     7
370
     0
100
AcDbLine
 10
52.4070994415
 20
194.8772457007
 30
0.0
 11
49.8570994415
 21
192.3272457007
 31
0.0
  0
LINE
  5
368
330
1F
100
AcDbEntity
  8
0
  6
HIDDEN
 62
     7
370
     0
100
AcDbLine
 10
43.3570994415
 20
192.3272457007
 30
0.0
 11
40.8070994415
 21
194.8772457007
 31
0.0
  0
LINE
  5
369
330
1F
100
AcDbEntity
  8
0
  6
HIDDEN
 62
     7
370
     0
100
AcDbLine
 10
34.4070994415
 20
194.8772457007
 30
0.0
 11
31.8570994415
 21
192.3272457007
 31
0.0
  0
LINE
  5
36A
330
1F
100
AcDbEntity
  8
0
  6
HIDDEN
 62
     7
370
     0
100
AcDbLine
 10
43.3570994415
 20
191.8272457007
 30
0.0
 11
43.3570994415
 21
192.3272457007
 31
0.0
  0
LINE
  5
36B
330
1F
100
AcDbEntity
  8
0
  6
HIDDEN
 62
     7
370
     0
100
AcDbLine
 10
31.8570994415
 20
192.3272457007
 30
0.0
 11
31.8570994415
 21
191.8272457007
 31
0.0
  0
LINE
  5
36C
330
1F
100
AcDbEntity
  8
0
  6
HIDDEN
 62
     7
370
     0
100
AcDbLine
 10
58.8070994415
 20
194.8772457007
 30
0.0
 11
58.8070994415
 21
199.8272457007
 31
0.0
  0
LINE
  5
36D
330
1F
100
AcDbEntity
  8
0
  6
HIDDEN
 62
     7
370
     0
100
AcDbLine
 10
52.4070994415
 20
199.8272457007
 30
0.0
 11
52.4070994415
 21
194.8772457007
 31
0.0
  0
LINE
  5
36E
330
1F
100
AcDbEntity
  8
0
  6
HIDDEN
 62
     7
370
     0
100
AcDbLine
 10
40.8070994415
 20
194.8772457007
 30
0.0
 11
40.8070994415
 21
199.8272457007
 31
0.0
  0
LINE
  5
36F
330
1F
100
AcDbEntity
  8
0
  6
HIDDEN
 62
     7
370
     0
100
AcDbLine
 10
34.4070994415
 20
199.8272457007
 30
0.0
 11
34.4070994415
 21
194.8772457007
 31
0.0
  0
LINE
  5
370
330
1F
100
AcDbEntity
  8
0
  6
HIDDEN
 62
     7
370
     0
100
AcDbLine
 10
49.1070994415
 20
191.8272457007
 30
0.0
 11
49.1070994415
 21
199.8272457007
 31
0.0
  0
LINE
  5
371
330
1F
100
AcDbEntity
  8
0
  6
HIDDEN
 62
     7
370
     0
100
AcDbLine
 10
44.1070994415
 20
199.8272457007
 30
0.0
 11
44.1070994415
 21
191.8272457007
 31
0.0
  0
ARC
  5
372
330
1F
100
AcDbEntity
  8
0
  6
Continuous
 62
     7
370
    40
100
AcDbCircle
 10
334.1389366579
 20
103.2294385656
 30
0.0
 40
2.499999999999996
100
AcDbArc
 50
31.3322514976
 51
148.6677485024
  0
LINE
  5
373
330
1F
100
AcDbEntity
  8
0
  6
Continuous
 62
     7
370
    40
100
AcDbLine
 10
287.8389366579
 20
67.0294385656
 30
0.0
 11
287.8389366579
 21
66.0294385656
 31
0.0
  0
LINE
  5
374
330
1F
100
AcDbEntity
  8
0
  6
Continuous
 62
     7
370
    40
100
AcDbLine
 10
287.8389366579
 20
66.0294385656
 30
0.0
 11
115.8389366579
 21
66.0294385656
 31
0.0
  0
LINE
  5
375
330
1F
100
AcDbEntity
  8
0
  6
Continuous
 62
     7
370
    40
100
AcDbLine
 10
115.8389366579
 20
67.0294385656
 30
0.0
 11
115.8389366579
 21
66.0294385656
 31
0.0
  0
LINE
  5
376
330
1F
100
AcDbEntity
  8
0
  6
Continuous
 62
     7
370
    40
100
AcDbLine
 10
115.8389366579
 20
67.0294385656
 30
0.0
 11
115.8389366579
 21
66.0294385656
 31
0.0
  0
LINE
  5
377
330
1F
100
AcDbEntity
  8
0
  6
Continuous
 62
     7
370
    40
100
AcDbLine
 10
115.8389366579
 20
66.0294385656
 30
0.0
 11
113.3389366579
 21
66.0294385656
 31
0.0
  0
LINE
  5
378
330
1F
100
AcDbEntity
  8
0
  6
Continuous
 62
     7
370
    40
100
AcDbLine
 10
113.3389366579
 20
67.0294385656
 30
0.0
 11
113.3389366579
 21
66.0294385656
 31
0.0
  0
LINE
  5
379
330
1F
100
AcDbEntity
  8
0
  6
Continuous
 62
     7
370
    40
100
AcDbLine
 10
290.3389366579
 20
66.0294385656
 30
0.0
 11
287.8389366579
 21
66.0294385656
 31
0.0
  0
LINE
  5
37A
330
1F
100
AcDbEntity
  8
0
  6
Continuous
 62
     7
370
    40
100
AcDbLine
 10
290.3389366579
 20
67.0294385656
 30
0.0
 11
290.3389366579
 21
66.0294385656
 31
0.0
  0
LINE
  5
37B
330
1F
100
AcDbEntity
  8
0
  6
Continuous
 62
     7
370
    40
100
AcDbLine
 10
287.8389366579
 20
67.0294385656
 30
0.0
 11
287.8389366579
 21
66.0294385656
 31
0.0
  0
CIRCLE
  5
37C
330
1F
100
AcDbEntity
  8
0
  6
Continuous
 62
     7
370
    40
100
AcDbCircle
 10
365.3389366579
 20
84.5294385656
 30
0.0
 40
2.386500000000002
  0
CIRCLE
  5
37D
330
1F
100
AcDbEntity
  8
0
  6
Continuous
 62
     7
370
    40
100
AcDbCircle
 10
97.3389366579
 20
84.5294385656
 30
0.0
 40
2.386500000000002
  0
CIRCLE
  5
37E
330
1F
100
AcDbEntity
  8
0
  6
Continuous
 62
     7
370
    40
100
AcDbCircle
 10
334.1389366579
 20
81.5294385656
 30
0.0
 40
7.5
  0
LINE
  5
37F
330
1F
100
AcDbEntity
  8
0
  6
Continuous
 62
     7
370
    40
100
AcDbLine
 10
90.8389366579
 20
102.0294385656
 30
0.0
 11
371.8389366579
 21
102.0294385656
 31
0.0
  0
LINE
  5
380
330
1F
100
AcDbEntity
  8
0
  6
Continuous
 62
     7
370
    40
100
AcDbLine
 10
371.8389366579
 20
102.0294385656
 30
0.0
 11
371.8389366579
 21
67.0294385656
 31
0.0
  0
LINE
  5
381
330
1F
100
AcDbEntity
  8
0
  6
Continuous
 62
     7
370
    40
100
AcDbLine
 10
371.8389366579
 20
67.0294385656
 30
0.0
 11
90.8389366579
 21
67.0294385656
 31
0.0
  0
LINE
  5
382
330
1F
100
AcDbEntity
  8
0
  6
Continuous
 62
     7
370
    40
100
AcDbLine
 10
90.8389366579
 20
67.0294385656
 30
0.0
 11
90.8389366579
 21
102.0294385656
 31
0.0
  0
CIRCLE
  5
383
330
1F
100
AcDbEntity
  8
0
  6
Continuous
 62
     7
370
    40
100
AcDbCircle
 10
231.3389366579
 20
93.5294385656
 30
0.0
 40
3.200000000000017
  0
CIRCLE
  5
384
330
1F
100
AcDbEntity
  8
0
  6
Continuous
 62
     7
370
    40
100
AcDbCircle
 10
231.3389366579
 20
75.5294385656
 30
0.0
 40
3.200000000000017
  0
CIRCLE
  5
385
330
1F
100
AcDbEntity
  8
0
  6
Continuous
 62
     7
370
    40
100
AcDbCircle
 10
353.8389366579
 20
93.5294385656
 30
0.0
 40
3.199999999999989
  0
CIRCLE
  5
386
330
1F
100
AcDbEntity
  8
0
  6
Continuous
 62
     7
370
    40
100
AcDbCircle
 10
353.8389366579
 20
75.5294385656
 30
0.0
 40
3.199999999999989
  0
CIRCLE
  5
387
330
1F
100
AcDbEntity
  8
0
  6
Continuous
 62
     7
370
    40
100
AcDbCircle
 10
108.8389366579
 20
93.5294385656
 30
0.0
 40
3.199999999999989
  0
CIRCLE
  5
388
330
1F
100
AcDbEntity
  8
0
  6
Continuous
 62
     7
370
    40
100
AcDbCircle
 10
108.8389366579
 20
75.5294385656
 30
0.0
 40
3.199999999999989
  0
CIRCLE
  5
389
330
1F
100
AcDbEntity
  8
0
  6
Continuous
 62
     7
370
    40
100
AcDbCircle
 10
365.3389366579
 20
84.5294385656
 30
0.0
 40
2.5
  0
CIRCLE
  5
38A
330
1F
100
AcDbEntity
  8
0
  6
Continuous
 62
     7
370
    40
100
AcDbCircle
 10
97.3389366579
 20
84.5294385656
 30
0.0
 40
2.5
  0
LINE
  5
38B
330
1F
100
AcDbEntity
  8
0
  6
Continuous
 62
     7
370
    40
100
AcDbLine
 10
340.4514242816
 20
77.4794385656
 30
0.0
 11
327.8264490341
 21
77.4794385656
 31
0.0
  0
LINE
  5
38C
330
1F
100
AcDbEntity
  8
0
  6
Continuous
 62
     7
370
    40
100
AcDbLine
 10
341.5889366579
 20
82.3940193889
 30
0.0
 11
341.5889366579
 21
80.9794385656
 31
0.0
  0
LINE
  5
38D
330
1F
100
AcDbEntity
  8
0
  6
Continuous
 62
     7
370
    40
100
AcDbLine
 10
341.5889366579
 20
80.9794385656
 30
0.0
 11
341.6187428051
 21
80.9794385656
 31
0.0
  0
LINE
  5
38E
330
1F
100
AcDbEntity
  8
0
  6
Continuous
 62
     7
370
    40
100
AcDbLine
 10
336.8389366579
 20
86.9794385656
 30
0.0
 11
336.8389366579
 21
80.9794385656
 31
0.0
  0
LINE
  5
38F
330
1F
100
AcDbEntity
  8
0
  6
Continuous
 62
     7
370
    40
100
AcDbLine
 10
336.8389366579
 20
80.9794385656
 30
0.0
 11
340.0889366579
 21
80.9794385656
 31
0.0
  0
LINE
  5
390
330
1F
100
AcDbEntity
  8
0
  6
Continuous
 62
     7
370
    40
100
AcDbLine
 10
340.0889366579
 20
80.9794385656
 30
0.0
 11
340.0889366579
 21
86.0953448283
 31
0.0
  0
LINE
  5
391
330
1F
100
AcDbEntity
  8
0
  6
Continuous
 62
     7
370
    40
100
AcDbLine
 10
339.2913632706
 20
86.9794385656
 30
0.0
 11
336.8389366579
 21
86.9794385656
 31
0.0
  0
LINE
  5
392
330
1F
100
AcDbEntity
  8
0
  6
Continuous
 62
     7
370
    40
100
AcDbLine
 10
332.0889366579
 20
86.9794385656
 30
0.0
 11
332.0889366579
 21
80.9794385656
 31
0.0
  0
LINE
  5
393
330
1F
100
AcDbEntity
  8
0
  6
Continuous
 62
     7
370
    40
100
AcDbLine
 10
332.0889366579
 20
80.9794385656
 30
0.0
 11
335.3389366579
 21
80.9794385656
 31
0.0
  0
LINE
  5
394
330
1F
100
AcDbEntity
  8
0
  6
Continuous
 62
     7
370
    40
100
AcDbLine
 10
335.3389366579
 20
80.9794385656
 30
0.0
 11
335.3389366579
 21
86.9794385656
 31
0.0
  0
LINE
  5
395
330
1F
100
AcDbEntity
  8
0
  6
Continuous
 62
     7
370
    40
100
AcDbLine
 10
335.3389366579
 20
86.9794385656
 30
0.0
 11
332.0889366579
 21
86.9794385656
 31
0.0
  0
LINE
  5
396
330
1F
100
AcDbEntity
  8
0
  6
Continuous
 62
     7
370
    40
100
AcDbLine
 10
330.5889366579
 20
80.9794385656
 30
0.0
 11
330.5889366579
 21
86.9794385656
 31
0.0
  0
LINE
  5
397
330
1F
100
AcDbEntity
  8
0
  6
Continuous
 62
     7
370
    40
100
AcDbLine
 10
330.5889366579
 20
86.9794385656
 30
0.0
 11
328.9865100451
 21
86.9794385656
 31
0.0
  0
LINE
  5
398
330
1F
100
AcDbEntity
  8
0
  6
Continuous
 62
     7
370
    40
100
AcDbLine
 10
327.3389366579
 20
84.6932969695
 30
0.0
 11
327.3389366579
 21
80.9794385656
 31
0.0
  0
LINE
  5
399
330
1F
100
AcDbEntity
  8
0
  6
Continuous
 62
     7
370
    40
100
AcDbLine
 10
327.3389366579
 20
80.9794385656
 30
0.0
 11
330.5889366579
 21
80.9794385656
 31
0.0
  0
ARC
  5
39A
330
1F
100
AcDbEntity
  8
0
  6
Continuous
 62
     7
370
    40
100
AcDbCircle
 10
372.3389366579
 20
101.8294385656
 30
0.0
 40
2.5
100
AcDbArc
 50
0.0
 51
90.0
  0
LINE
  5
39B
330
1F
100
AcDbEntity
  8
0
  6
Continuous
 62
     7
370
    40
100
AcDbLine
 10
371.8389366579
 20
104.3294385656
 30
0.0
 11
372.3389366579
 21
104.3294385656
 31
0.0
  0
LINE
  5
39C
330
1F
100
AcDbEntity
  8
0
  6
Continuous
 62
     7
370
    40
100
AcDbLine
 10
374.8389366579
 20
101.8294385656
 30
0.0
 11
374.8389366579
 21
69.3294385656
 31
0.0
  0
ARC
  5
39D
330
1F
100
AcDbEntity
  8
0
  6
Continuous
 62
     7
370
    40
100
AcDbCircle
 10
372.3389366579
 20
69.3294385656
 30
0.0
 40
2.5
100
AcDbArc
 50
270.0
 51
0.0
  0
LINE
  5
39E
330
1F
100
AcDbEntity
  8
0
  6
Continuous
 62
     7
370
    40
100
AcDbLine
 10
359.3389366579
 20
66.8314393662
 30
0.0
 11
371.8389366579
 21
66.8314393662
 31
0.0
  0
LINE
  5
39F
330
1F
100
AcDbEntity
  8
0
  6
Continuous
 62
     7
370
    40
100
AcDbLine
 10
372.3389366579
 20
66.8294385656
 30
0.0
 11
359.3389366579
 21
66.8294385656
 31
0.0
  0
LINE
  5
3A0
330
1F
100
AcDbEntity
  8
0
  6
Continuous
 62
     7
370
    40
100
AcDbLine
 10
359.3389366579
 20
66.8294385656
 30
0.0
 11
359.3389366579
 21
66.8314393662
 31
0.0
  0
LINE
  5
3A1
330
1F
100
AcDbEntity
  8
0
  6
Continuous
 62
     7
370
    40
100
AcDbLine
 10
371.8389366579
 20
66.8314393662
 30
0.0
 11
371.8389366579
 21
67.0294385656
 31
0.0
  0
LINE
  5
3A2
330
1F
100
AcDbEntity
  8
0
  6
Continuous
 62
     7
370
    40
100
AcDbLine
 10
359.3389366579
 20
67.0294385656
 30
0.0
 11
359.3389366579
 21
66.8314393662
 31
0.0
  0
ARC
  5
3A3
330
1F
100
AcDbEntity
  8
0
  6
Continuous
 62
     7
370
    40
100
AcDbCircle
 10
90.3389366579
 20
101.8294385656
 30
0.0
 40
2.5
100
AcDbArc
 50
90.0
 51
180.0
  0
LINE
  5
3A4
330
1F
100
AcDbEntity
  8
0
  6
Continuous
 62
     7
370
    40
100
AcDbLine
 10
90.3389366579
 20
104.3294385656
 30
0.0
 11
90.8389366579
 21
104.3294385656
 31
0.0
  0
LINE
  5
3A5
330
1F
100
AcDbEntity
  8
0
  6
Continuous
 62
     7
370
    40
100
AcDbLine
 10
87.8389366579
 20
69.3294385656
 30
0.0
 11
87.8389366579
 21
101.8294385656
 31
0.0
  0
LINE
  5
3A6
330
1F
100
AcDbEntity
  8
0
  6
Continuous
 62
     7
370
    40
100
AcDbLine
 10
90.8389366579
 20
66.8314393662
 30
0.0
 11
103.3389366579
 21
66.8314393662
 31
0.0
  0
LINE
  5
3A7
330
1F
100
AcDbEntity
  8
0
  6
Continuous
 62
     7
370
    40
100
AcDbLine
 10
103.3389366579
 20
66.8314393662
 30
0.0
 11
103.3389366579
 21
66.8294385656
 31
0.0
  0
LINE
  5
3A8
330
1F
100
AcDbEntity
  8
0
  6
Continuous
 62
     7
370
    40
100
AcDbLine
 10
103.3389366579
 20
66.8294385656
 30
0.0
 11
90.3389366579
 21
66.8294385656
 31
0.0
  0
LINE
  5
3A9
330
1F
100
AcDbEntity
  8
0
  6
Continuous
 62
     7
370
    40
100
AcDbLine
 10
90.8389366579
 20
67.0294385656
 30
0.0
 11
90.8389366579
 21
66.8314393662
 31
0.0
  0
ARC
  5
3AA
330
1F
100
AcDbEntity
  8
0
  6
Continuous
 62
     7
370
    40
100
AcDbCircle
 10
90.3389366579
 20
69.3294385656
 30
0.0
 40
2.5
100
AcDbArc
 50
180.0
 51
270.0
  0
LINE
  5
3AB
330
1F
100
AcDbEntity
  8
0
  6
Continuous
 62
     7
370
    40
100
AcDbLine
 10
103.3389366579
 20
66.8314393662
 30
0.0
 11
103.3389366579
 21
67.0294385656
 31
0.0
  0
LINE
  5
3AC
330
1F
100
AcDbEntity
  8
0
  6
Continuous
 62
     7
370
    40
100
AcDbLine
 10
371.8389366579
 20
104.5294385656
 30
0.0
 11
90.8389366579
 21
104.5294385656
 31
0.0
  0
LINE
  5
3AD
330
1F
100
AcDbEntity
  8
0
  6
Continuous
 62
     7
370
    40
100
AcDbLine
 10
371.8389366579
 20
104.5294385656
 30
0.0
 11
371.8389366579
 21
102.0294385656
 31
0.0
  0
LINE
  5
3AE
330
1F
100
AcDbEntity
  8
0
  6
Continuous
 62
     7
370
    40
100
AcDbLine
 10
90.8389366579
 20
104.5294385656
 30
0.0
 11
90.8389366579
 21
102.0294385656
 31
0.0
  0
LWPOLYLINE
  5
3AF
330
1F
100
AcDbEntity
  8
0
  6
HIDDEN
 62
     7
370
     0
100
AcDbPolyline
 90
        2
 70
   128
 43
0.0
 10
90.8389366579
 20
102.0294385656
 10
90.8389366579
 20
102.0294385656
  0
LWPOLYLINE
  5
3B0
330
1F
100
AcDbEntity
  8
0
  6
HIDDEN
 62
     7
370
     0
100
AcDbPolyline
 90
        2
 70
   128
 43
0.0
 10
371.8389366579
 20
102.0294385656
 10
371.8389366579
 20
102.0294385656
  0
LWPOLYLINE
  5
3B1
330
1F
100
AcDbEntity
  8
0
  6
HIDDEN
 62
     7
370
     0
100
AcDbPolyline
 90
        2
 70
   128
 43
0.0
 10
371.8389366579
 20
67.0294385656
 10
371.8389366579
 20
67.0294385656
  0
LWPOLYLINE
  5
3B2
330
1F
100
AcDbEntity
  8
0
  6
HIDDEN
 62
     7
370
     0
100
AcDbPolyline
 90
        2
 70
   128
 43
0.0
 10
90.8389366579
 20
67.0294385656
 10
90.8389366579
 20
67.0294385656
  0
CIRCLE
  5
3B3
330
1F
100
AcDbEntity
  8
0
  6
HIDDEN
 62
     7
370
     0
100
AcDbCircle
 10
108.8389366579
 20
93.5294385656
 30
0.0
 40
3.199999999999989
  0
CIRCLE
  5
3B4
330
1F
100
AcDbEntity
  8
0
  6
HIDDEN
 62
     7
370
     0
100
AcDbCircle
 10
353.8389366579
 20
93.5294385656
 30
0.0
 40
3.199999999999989
  0
CIRCLE
  5
3B5
330
1F
100
AcDbEntity
  8
0
  6
HIDDEN
 62
     7
370
     0
100
AcDbCircle
 10
231.3389366579
 20
93.5294385656
 30
0.0
 40
3.200000000000017
  0
CIRCLE
  5
3B6
330
1F
100
AcDbEntity
  8
0
  6
HIDDEN
 62
     7
370
     0
100
AcDbCircle
 10
108.8389366579
 20
75.5294385656
 30
0.0
 40
3.199999999999989
  0
CIRCLE
  5
3B7
330
1F
100
AcDbEntity
  8
0
  6
HIDDEN
 62
     7
370
     0
100
AcDbCircle
 10
231.3389366579
 20
75.5294385656
 30
0.0
 40
3.200000000000017
  0
CIRCLE
  5
3B8
330
1F
100
AcDbEntity
  8
0
  6
HIDDEN
 62
     7
370
     0
100
AcDbCircle
 10
353.8389366579
 20
75.5294385656
 30
0.0
 40
3.199999999999989
  0
CIRCLE
  5
3B9
330
1F
100
AcDbEntity
  8
0
  6
HIDDEN
 62
     7
370
     0
100
AcDbCircle
 10
231.3389366579
 20
93.5294385656
 30
0.0
 40
5.750000000000028
  0
CIRCLE
  5
3BA
330
1F
100
AcDbEntity
  8
0
  6
HIDDEN
 62
     7
370
     0
100
AcDbCircle
 10
108.8389366579
 20
93.5294385656
 30
0.0
 40
5.75
  0
CIRCLE
  5
3BB
330
1F
100
AcDbEntity
  8
0
  6
HIDDEN
 62
     7
370
     0
100
AcDbCircle
 10
353.8389366579
 20
93.5294385656
 30
0.0
 40
5.749999999999943
  0
CIRCLE
  5
3BC
330
1F
100
AcDbEntity
  8
0
  6
HIDDEN
 62
     7
370
     0
100
AcDbCircle
 10
353.8389366579
 20
75.5294385656
 30
0.0
 40
5.749999999999943
  0
CIRCLE
  5
3BD
330
1F
100
AcDbEntity
  8
0
  6
HIDDEN
 62
     7
370
     0
100
AcDbCircle
 10
231.3389366579
 20
75.5294385656
 30
0.0
 40
5.750000000000028
  0
CIRCLE
  5
3BE
330
1F
100
AcDbEntity
  8
0
  6
HIDDEN
 62
     7
370
     0
100
AcDbCircle
 10
108.8389366579
 20
75.5294385656
 30
0.0
 40
5.75
  0
CIRCLE
  5
3BF
330
1F
100
AcDbEntity
  8
0
  6
HIDDEN
 62
     7
370
     0
100
AcDbCircle
 10
108.8389366579
 20
75.5294385656
 30
0.0
 40
5.75
  0
CIRCLE
  5
3C0
330
1F
100
AcDbEntity
  8
0
  6
HIDDEN
 62
     7
370
     0
100
AcDbCircle
 10
231.3389366579
 20
75.5294385656
 30
0.0
 40
5.750000000000028
  0
CIRCLE
  5
3C1
330
1F
100
AcDbEntity
  8
0
  6
HIDDEN
 62
     7
370
     0
100
AcDbCircle
 10
353.8389366579
 20
75.5294385656
 30
0.0
 40
5.749999999999943
  0
CIRCLE
  5
3C2
330
1F
100
AcDbEntity
  8
0
  6
HIDDEN
 62
     7
370
     0
100
AcDbCircle
 10
353.8389366579
 20
93.5294385656
 30
0.0
 40
5.749999999999943
  0
CIRCLE
  5
3C3
330
1F
100
AcDbEntity
  8
0
  6
HIDDEN
 62
     7
370
     0
100
AcDbCircle
 10
108.8389366579
 20
93.5294385656
 30
0.0
 40
5.75
  0
CIRCLE
  5
3C4
330
1F
100
AcDbEntity
  8
0
  6
HIDDEN
 62
     7
370
     0
100
AcDbCircle
 10
231.3389366579
 20
93.5294385656
 30
0.0
 40
5.750000000000028
  0
LINE
  5
3C5
330
1F
100
AcDbEntity
  8
0
  6
HIDDEN
 62
     7
370
     0
100
AcDbLine
 10
371.8389366579
 20
67.0294385656
 30
0.0
 11
90.8389366579
 21
67.0294385656
 31
0.0
  0
CIRCLE
  5
3C6
330
1F
100
AcDbEntity
  8
0
  6
HIDDEN
 62
     7
370
     0
100
AcDbCircle
 10
97.3389366579
 20
84.5294385656
 30
0.0
 40
2.5
  0
CIRCLE
  5
3C7
330
1F
100
AcDbEntity
  8
0
  6
HIDDEN
 62
     7
370
     0
100
AcDbCircle
 10
365.3389366579
 20
84.5294385656
 30
0.0
 40
2.5
  0
CIRCLE
  5
3C8
330
1F
100
AcDbEntity
  8
0
  6
HIDDEN
 62
     7
370
     0
100
AcDbCircle
 10
334.1389366579
 20
81.5294385656
 30
0.0
 40
7.5
  0
LINE
  5
3C9
330
1F
100
AcDbEntity
  8
0
  6
HIDDEN
 62
     7
370
     0
100
AcDbLine
 10
371.8389366579
 20
102.0294385656
 30
0.0
 11
371.8389366579
 21
67.0294385656
 31
0.0
  0
LINE
  5
3CA
330
1F
100
AcDbEntity
  8
0
  6
HIDDEN
 62
     7
370
     0
100
AcDbLine
 10
90.8389366579
 20
102.0294385656
 30
0.0
 11
371.8389366579
 21
102.0294385656
 31
0.0
  0
LINE
  5
3CB
330
1F
100
AcDbEntity
  8
0
  6
HIDDEN
 62
     7
370
     0
100
AcDbLine
 10
90.8389366579
 20
67.0294385656
 30
0.0
 11
90.8389366579
 21
102.0294385656
 31
0.0
  0
DIMENSION
  5
3CC
330
1F
100
AcDbEntity
  8
0
  6
Continuous
 62
     7
370
     0
100
AcDbDimension
  2
*D24
 10
217.9082090905
 20
75.5294385656
 30
0.0
 11
217.9082090905
 21
84.5294385656
 31
0.0
 70
   160
 71
     2
 42
-1.0
  3
SLDDIMSTYLE0
100
AcDbAlignedDimension
 13
224.5889366579
 23
93.5294385656
 33
0.0
 14
224.5889366579
 24
75.5294385656
 34
0.0
 50
90.0
100
AcDbRotatedDimension
  0
DIMENSION
  5
3D6
330
1F
100
AcDbEntity
  8
0
  6
Continuous
 62
     7
370
     0
100
AcDbDimension
  2
*D25
 10
217.9082090905
 20
66.0294385656
 30
0.0
 11
217.9082090905
 21
58.7799531979
 31
0.0
 70
   160
 71
     2
 42
-1.0
  3
SLDDIMSTYLE1
100
AcDbAlignedDimension
 13
224.5889366579
 23
75.5294385656
 33
0.0
 14
287.8389366579
 24
66.0294385656
 34
0.0
 50
90.0
100
AcDbRotatedDimension
  0
DIMENSION
  5
3E1
330
1F
100
AcDbEntity
  8
0
  6
Continuous
 62
     7
370
     0
100
AcDbDimension
  2
*D26
 10
317.9964431867
 20
67.0294385656
 30
0.0
 11
317.9964431867
 21
74.2794385656
 31
0.0
 70
   160
 71
     2
 42
-1.0
  3
SLDDIMSTYLE0
100
AcDbAlignedDimension
 13
325.6389366579
 23
81.5294385656
 33
0.0
 14
371.8389366579
 24
67.0294385656
 34
0.0
 50
90.0
100
AcDbRotatedDimension
  0
DIMENSION
  5
3EA
330
1F
100
AcDbEntity
  8
0
  6
Continuous
 62
     7
370
     0
100
AcDbDimension
  2
*D27
 10
340.6341271862
 20
77.7794385656
 30
0.0
 11
317.9964531867
 21
90.8493215165
 31
0.0
 70
   163
  1
<>
 71
     1
 42
-1.0
  3
SLDDIMSTYLE3
100
AcDbDiametricDimension
 15
327.6437461295
 25
85.2794385656
 35
0.0
 40
0.0
  0
INSERT
  5
3FF
330
1F
100
AcDbEntity
  8
0
  6
Continuous
 62
     7
370
     0
100
AcDbBlockReference
  2
SW_CENTERMARKSYMBOL_0
 10
231.3389366579
 20
93.5294385656
 30
0.0
  0
INSERT
  5
40B
330
1F
100
AcDbEntity
  8
0
  6
Continuous
 62
     7
370
     0
100
AcDbBlockReference
  2
SW_CENTERMARKSYMBOL_1
 10
231.3389366579
 20
75.5294385656
 30
0.0
  0
INSERT
  5
417
330
1F
100
AcDbEntity
  8
0
  6
Continuous
 62
     7
370
     0
100
AcDbBlockReference
  2
SW_CENTERMARKSYMBOL_2
 10
334.1389366579
 20
81.5294385656
 30
0.0
  0
INSERT
  5
423
330
1F
100
AcDbEntity
  8
0
  6
Continuous
 62
     7
370
     0
100
AcDbBlockReference
  2
SW_CENTERMARKSYMBOL_3
 10
108.8389366579
 20
93.5294385656
 30
0.0
  0
INSERT
  5
42F
330
1F
100
AcDbEntity
  8
0
  6
Continuous
 62
     7
370
     0
100
AcDbBlockReference
  2
SW_CENTERMARKSYMBOL_4
 10
108.8389366579
 20
75.5294385656
 30
0.0
  0
INSERT
  5
43B
330
1F
100
AcDbEntity
  8
0
  6
Continuous
 62
     7
370
     0
100
AcDbBlockReference
  2
SW_CENTERMARKSYMBOL_5
 10
353.8389366579
 20
93.5294385656
 30
0.0
  0
INSERT
  5
447
330
1F
100
AcDbEntity
  8
0
  6
Continuous
 62
     7
370
     0
100
AcDbBlockReference
  2
SW_CENTERMARKSYMBOL_6
 10
353.8389366579
 20
75.5294385656
 30
0.0
  0
INSERT
  5
453
330
1F
100
AcDbEntity
  8
0
  6
Continuous
 62
     7
370
     0
100
AcDbBlockReference
  2
SW_CENTERMARKSYMBOL_7
 10
365.3389366579
 20
84.5294385656
 30
0.0
  0
INSERT
  5
45F
330
1F
100
AcDbEntity
  8
0
  6
Continuous
 62
     7
370
     0
100
AcDbBlockReference
  2
SW_CENTERMARKSYMBOL_8
 10
97.3389366579
 20
84.5294385656
 30
0.0
  0
ARC
  5
460
330
1F
100
AcDbEntity
  8
0
  6
Continuous
 62
     7
370
    40
100
AcDbCircle
 10
334.1389366579
 20
250.4303706247
 30
0.0
 40
2.50000000000001
100
AcDbArc
 50
211.3322514976
 51
328.6677485024
  0
LINE
  5
461
330
1F
100
AcDbEntity
  8
0
  6
Continuous
 62
     7
370
    40
100
AcDbLine
 10
287.8389366579
 20
287.6303706247
 30
0.0
 11
287.8389366579
 21
286.6303706247
 31
0.0
  0
LINE
  5
462
330
1F
100
AcDbEntity
  8
0
  6
Continuous
 62
     7
370
    40
100
AcDbLine
 10
287.8389366579
 20
287.6303706247
 30
0.0
 11
115.8389366579
 21
287.6303706247
 31
0.0
  0
LINE
  5
463
330
1F
100
AcDbEntity
  8
0
  6
Continuous
 62
     7
370
    40
100
AcDbLine
 10
115.8389366579
 20
287.6303706247
 30
0.0
 11
115.8389366579
 21
286.6303706247
 31
0.0
  0
LINE
  5
464
330
1F
100
AcDbEntity
  8
0
  6
Continuous
 62
     7
370
    40
100
AcDbLine
 10
115.8389366579
 20
287.6303706247
 30
0.0
 11
113.3389366579
 21
287.6303706247
 31
0.0
  0
LINE
  5
465
330
1F
100
AcDbEntity
  8
0
  6
Continuous
 62
     7
370
    40
100
AcDbLine
 10
115.8389366579
 20
287.6303706247
 30
0.0
 11
115.8389366579
 21
286.6303706247
 31
0.0
  0
LINE
  5
466
330
1F
100
AcDbEntity
  8
0
  6
Continuous
 62
     7
370
    40
100
AcDbLine
 10
113.3389366579
 20
287.6303706247
 30
0.0
 11
113.3389366579
 21
286.6303706247
 31
0.0
  0
LINE
  5
467
330
1F
100
AcDbEntity
  8
0
  6
Continuous
 62
     7
370
    40
100
AcDbLine
 10
290.3389366579
 20
287.6303706247
 30
0.0
 11
287.8389366579
 21
287.6303706247
 31
0.0
  0
LINE
  5
468
330
1F
100
AcDbEntity
  8
0
  6
Continuous
 62
     7
370
    40
100
AcDbLine
 10
290.3389366579
 20
287.6303706247
 30
0.0
 11
290.3389366579
 21
286.6303706247
 31
0.0
  0
LINE
  5
469
330
1F
100
AcDbEntity
  8
0
  6
Continuous
 62
     7
370
    40
100
AcDbLine
 10
287.8389366579
 20
287.6303706247
 30
0.0
 11
287.8389366579
 21
286.6303706247
 31
0.0
  0
LINE
  5
46A
330
1F
100
AcDbEntity
  8
0
  6
Continuous
 62
     7
370
    40
100
AcDbLine
 10
362.6572035739
 20
270.4011345681
 30
0.0
 11
362.8975562587
 21
267.4433036195
 31
0.0
  0
LINE
  5
46B
330
1F
100
AcDbEntity
  8
0
  6
Continuous
 62
     7
370
    40
100
AcDbLine
 10
362.8975562587
 20
267.4433036195
 30
0.0
 11
362.7075655662
 21
267.3120143584
 31
0.0
  0
LINE
  5
46C
330
1F
100
AcDbEntity
  8
0
  6
Continuous
 62
     7
370
    40
100
AcDbLine
 10
362.4485083923
 20
270.5000267037
 30
0.0
 11
362.6572035739
 21
270.4011345681
 31
0.0
  0
LINE
  5
46D
330
1F
100
AcDbEntity
  8
0
  6
Continuous
 62
     7
370
    40
100
AcDbLine
 10
367.9703077495
 20
270.948726891
 30
0.0
 11
367.780317057
 21
270.8174376299
 31
0.0
  0
LINE
  5
46E
330
1F
100
AcDbEntity
  8
0
  6
Continuous
 62
     7
370
    40
100
AcDbLine
 10
367.780317057
 20
270.8174376299
 30
0.0
 11
365.098583973
 21
272.0882015733
 31
0.0
  0
LINE
  5
46F
330
1F
100
AcDbEntity
  8
0
  6
Continuous
 62
     7
370
    40
100
AcDbLine
 10
365.079879484
 20
272.31838297
 30
0.0
 11
365.098583973
 21
272.0882015733
 31
0.0
  0
LINE
  5
470
330
1F
100
AcDbEntity
  8
0
  6
Continuous
 62
     7
370
    40
100
AcDbLine
 10
362.8975562587
 20
267.4433036195
 30
0.0
 11
365.5792893427
 21
266.1725396761
 31
0.0
  0
LINE
  5
471
330
1F
100
AcDbEntity
  8
0
  6
Continuous
 62
     7
370
    40
100
AcDbLine
 10
365.5792893427
 20
266.1725396761
 30
0.0
 11
365.5979938318
 21
265.9423582794
 31
0.0
  0
LINE
  5
472
330
1F
100
AcDbEntity
  8
0
  6
Continuous
 62
     7
370
    40
100
AcDbLine
 10
365.5792893427
 20
266.1725396761
 30
0.0
 11
368.0206697418
 21
267.8596066813
 31
0.0
  0
LINE
  5
473
330
1F
100
AcDbEntity
  8
0
  6
Continuous
 62
     7
370
    40
100
AcDbLine
 10
368.0206697418
 20
267.8596066813
 30
0.0
 11
368.2293649235
 21
267.7607145457
 31
0.0
  0
LINE
  5
474
330
1F
100
AcDbEntity
  8
0
  6
Continuous
 62
     7
370
    40
100
AcDbLine
 10
365.098583973
 20
272.0882015733
 30
0.0
 11
362.6572035739
 21
270.4011345681
 31
0.0
  0
LINE
  5
475
330
1F
100
AcDbEntity
  8
0
  6
Continuous
 62
     7
370
    40
100
AcDbLine
 10
368.0206697418
 20
267.8596066813
 30
0.0
 11
367.780317057
 21
270.8174376299
 31
0.0
  0
ARC
  5
476
330
1F
100
AcDbEntity
  8
0
  6
Continuous
 62
     7
370
    40
100
AcDbCircle
 10
365.3389366579
 20
269.1303706247
 30
0.0
 40
5.000000000000048
100
AcDbArc
 50
270.0
 51
334.645634962
  0
ARC
  5
477
330
1F
100
AcDbEntity
  8
0
  6
Continuous
 62
     7
370
    40
100
AcDbCircle
 10
365.3389366579
 20
269.1303706247
 30
0.0
 40
5.000000000000048
100
AcDbArc
 50
334.645634962
 51
90.0
  0
LINE
  5
478
330
1F
100
AcDbEntity
  8
0
  6
Continuous
 62
     7
370
    40
100
AcDbLine
 10
366.4236429128
 20
269.8799351471
 30
0.0
 11
367.780317057
 21
270.8174376299
 31
0.0
  0
LINE
  5
479
330
1F
100
AcDbEntity
  8
0
  6
Continuous
 62
     7
370
    40
100
AcDbLine
 10
366.4236429128
 20
269.8799351471
 30
0.0
 11
365.2321478671
 21
270.4445360583
 31
0.0
  0
LINE
  5
47A
330
1F
100
AcDbEntity
  8
0
  6
Continuous
 62
     7
370
    40
100
AcDbLine
 10
365.2321478671
 20
270.4445360583
 30
0.0
 11
365.098583973
 21
272.0882015733
 31
0.0
  0
LINE
  5
47B
330
1F
100
AcDbEntity
  8
0
  6
Continuous
 62
     7
370
    40
100
AcDbLine
 10
364.1474416122
 20
269.6949715359
 30
0.0
 11
362.6572035739
 21
270.4011345681
 31
0.0
  0
LINE
  5
47C
330
1F
100
AcDbEntity
  8
0
  6
Continuous
 62
     7
370
    40
100
AcDbLine
 10
364.1474416122
 20
269.6949715359
 30
0.0
 11
364.254230403
 21
268.3808061023
 31
0.0
  0
LINE
  5
47D
330
1F
100
AcDbEntity
  8
0
  6
Continuous
 62
     7
370
    40
100
AcDbLine
 10
364.254230403
 20
268.3808061023
 30
0.0
 11
362.8975562587
 21
267.4433036195
 31
0.0
  0
LINE
  5
47E
330
1F
100
AcDbEntity
  8
0
  6
Continuous
 62
     7
370
    40
100
AcDbLine
 10
365.4457254486
 20
267.8162051911
 30
0.0
 11
365.5792893427
 21
266.1725396761
 31
0.0
  0
LINE
  5
47F
330
1F
100
AcDbEntity
  8
0
  6
Continuous
 62
     7
370
    40
100
AcDbLine
 10
365.4457254486
 20
267.8162051911
 30
0.0
 11
366.5304317035
 21
268.5657697135
 31
0.0
  0
LINE
  5
480
330
1F
100
AcDbEntity
  8
0
  6
Continuous
 62
     7
370
    40
100
AcDbLine
 10
366.5304317035
 20
268.5657697135
 30
0.0
 11
368.0206697418
 21
267.8596066813
 31
0.0
  0
LINE
  5
481
330
1F
100
AcDbEntity
  8
0
  6
Continuous
 62
     7
370
    40
100
AcDbLine
 10
364.254230403
 20
268.3808061023
 30
0.0
 11
365.4457254486
 21
267.8162051911
 31
0.0
  0
LINE
  5
482
330
1F
100
AcDbEntity
  8
0
  6
Continuous
 62
     7
370
    40
100
AcDbLine
 10
365.2321478671
 20
270.4445360583
 30
0.0
 11
364.1474416122
 21
269.6949715359
 31
0.0
  0
LINE
  5
483
330
1F
100
AcDbEntity
  8
0
  6
Continuous
 62
     7
370
    40
100
AcDbLine
 10
366.5304317035
 20
268.5657697135
 30
0.0
 11
366.4236429128
 21
269.8799351471
 31
0.0
  0
LINE
  5
484
330
1F
100
AcDbEntity
  8
0
  6
Continuous
 62
     7
370
    40
100
AcDbLine
 10
94.8904313432
 20
267.4536610323
 30
0.0
 11
97.5667571023
 21
266.1715480247
 31
0.0
  0
LINE
  5
485
330
1F
100
AcDbEntity
  8
0
  6
Continuous
 62
     7
370
    40
100
AcDbLine
 10
97.5844863198
 20
265.9412894566
 30
0.0
 11
97.5667571023
 21
266.1715480247
 31
0.0
  0
LINE
  5
486
330
1F
100
AcDbEntity
  8
0
  6
Continuous
 62
     7
370
    40
100
AcDbLine
 10
94.8904313432
 20
267.4536610323
 30
0.0
 11
94.6998861825
 21
267.3231777955
 31
0.0
  0
LINE
  5
487
330
1F
100
AcDbEntity
  8
0
  6
Continuous
 62
     7
370
    40
100
AcDbLine
 10
100.2235367951
 20
267.7484822857
 30
0.0
 11
100.015262417
 21
267.8482576171
 31
0.0
  0
LINE
  5
488
330
1F
100
AcDbEntity
  8
0
  6
Continuous
 62
     7
370
    40
100
AcDbLine
 10
100.015262417
 20
267.8482576171
 30
0.0
 11
99.7874419726
 21
270.8070802171
 31
0.0
  0
LINE
  5
489
330
1F
100
AcDbEntity
  8
0
  6
Continuous
 62
     7
370
    40
100
AcDbLine
 10
99.9779871332
 20
270.9375634538
 30
0.0
 11
99.7874419726
 21
270.8070802171
 31
0.0
  0
LINE
  5
48A
330
1F
100
AcDbEntity
  8
0
  6
Continuous
 62
     7
370
    40
100
AcDbLine
 10
99.7874419726
 20
270.8070802171
 30
0.0
 11
97.1111162134
 21
272.0891932247
 31
0.0
  0
LINE
  5
48B
330
1F
100
AcDbEntity
  8
0
  6
Continuous
 62
     7
370
    40
100
AcDbLine
 10
97.1111162134
 20
272.0891932247
 30
0.0
 11
97.093386996
 21
272.3194517928
 31
0.0
  0
LINE
  5
48C
330
1F
100
AcDbEntity
  8
0
  6
Continuous
 62
     7
370
    40
100
AcDbLine
 10
97.5667571023
 20
266.1715480247
 30
0.0
 11
100.015262417
 21
267.8482576171
 31
0.0
  0
LINE
  5
48D
330
1F
100
AcDbEntity
  8
0
  6
Continuous
 62
     7
370
    40
100
AcDbLine
 10
97.1111162134
 20
272.0891932247
 30
0.0
 11
94.6626108987
 21
270.4124836323
 31
0.0
  0
LINE
  5
48E
330
1F
100
AcDbEntity
  8
0
  6
Continuous
 62
     7
370
    40
100
AcDbLine
 10
94.6626108987
 20
270.4124836323
 30
0.0
 11
94.4543365206
 21
270.5122589637
 31
0.0
  0
LINE
  5
48F
330
1F
100
AcDbEntity
  8
0
  6
Continuous
 62
     7
370
    40
100
AcDbLine
 10
94.6626108987
 20
270.4124836323
 30
0.0
 11
94.8904313432
 21
267.4536610323
 31
0.0
  0
ARC
  5
490
330
1F
100
AcDbEntity
  8
0
  6
Continuous
 62
     7
370
    40
100
AcDbCircle
 10
97.3389366579
 20
269.1303706247
 30
0.0
 40
5.000000000000057
100
AcDbArc
 50
90.0
 51
214.4029155252
  0
ARC
  5
491
330
1F
100
AcDbEntity
  8
0
  6
Continuous
 62
     7
370
    40
100
AcDbCircle
 10
97.3389366579
 20
269.1303706247
 30
0.0
 40
5.0
100
AcDbArc
 50
214.4029155252
 51
270.0
  0
LINE
  5
492
330
1F
100
AcDbEntity
  8
0
  6
Continuous
 62
     7
370
    40
100
AcDbLine
 10
97.2377159464
 20
270.4449766494
 30
0.0
 11
97.1111162134
 21
272.0891932247
 31
0.0
  0
LINE
  5
493
330
1F
100
AcDbEntity
  8
0
  6
Continuous
 62
     7
370
    40
100
AcDbLine
 10
97.2377159464
 20
270.4449766494
 30
0.0
 11
96.1498440887
 21
269.7000139295
 31
0.0
  0
LINE
  5
494
330
1F
100
AcDbEntity
  8
0
  6
Continuous
 62
     7
370
    40
100
AcDbLine
 10
96.1498440887
 20
269.7000139295
 30
0.0
 11
94.6626108987
 21
270.4124836323
 31
0.0
  0
LINE
  5
495
330
1F
100
AcDbEntity
  8
0
  6
Continuous
 62
     7
370
    40
100
AcDbLine
 10
98.4268085155
 20
269.8753333446
 30
0.0
 11
99.7874419726
 21
270.8070802171
 31
0.0
  0
LINE
  5
496
330
1F
100
AcDbEntity
  8
0
  6
Continuous
 62
     7
370
    40
100
AcDbLine
 10
98.4268085155
 20
269.8753333446
 30
0.0
 11
97.2377159464
 21
270.4449766494
 31
0.0
  0
LINE
  5
497
330
1F
100
AcDbEntity
  8
0
  6
Continuous
 62
     7
370
    40
100
AcDbLine
 10
97.4401573694
 20
267.8157646
 30
0.0
 11
97.5667571023
 21
266.1715480247
 31
0.0
  0
LINE
  5
498
330
1F
100
AcDbEntity
  8
0
  6
Continuous
 62
     7
370
    40
100
AcDbLine
 10
97.4401573694
 20
267.8157646
 30
0.0
 11
98.528029227
 21
268.5607273199
 31
0.0
  0
LINE
  5
499
330
1F
100
AcDbEntity
  8
0
  6
Continuous
 62
     7
370
    40
100
AcDbLine
 10
98.528029227
 20
268.5607273199
 30
0.0
 11
100.015262417
 21
267.8482576171
 31
0.0
  0
LINE
  5
49A
330
1F
100
AcDbEntity
  8
0
  6
Continuous
 62
     7
370
    40
100
AcDbLine
 10
98.528029227
 20
268.5607273199
 30
0.0
 11
98.4268085155
 21
269.8753333446
 31
0.0
  0
LINE
  5
49B
330
1F
100
AcDbEntity
  8
0
  6
Continuous
 62
     7
370
    40
100
AcDbLine
 10
96.1498440887
 20
269.7000139295
 30
0.0
 11
96.2510648002
 21
268.3854079048
 31
0.0
  0
LINE
  5
49C
330
1F
100
AcDbEntity
  8
0
  6
Continuous
 62
     7
370
    40
100
AcDbLine
 10
96.2510648002
 20
268.3854079048
 30
0.0
 11
94.8904313432
 21
267.4536610323
 31
0.0
  0
LINE
  5
49D
330
1F
100
AcDbEntity
  8
0
  6
Continuous
 62
     7
370
    40
100
AcDbLine
 10
96.2510648002
 20
268.3854079048
 30
0.0
 11
97.4401573694
 21
267.8157646
 31
0.0
  0
LINE
  5
49E
330
1F
100
AcDbEntity
  8
0
  6
Continuous
 62
     7
370
    40
100
AcDbLine
 10
95.4541289754
 20
264.2303706247
 30
0.0
 11
96.3439492208
 21
264.2303706247
 31
0.0
  0
LINE
  5
49F
330
1F
100
AcDbEntity
  8
0
  6
Continuous
 62
     7
370
    40
100
AcDbLine
 10
92.4389366579
 20
271.0151783072
 30
0.0
 11
92.4389366579
 21
270.1253580618
 31
0.0
  0
LINE
  5
4A0
330
1F
100
AcDbEntity
  8
0
  6
Continuous
 62
     7
370
    40
100
AcDbLine
 10
92.4389366579
 20
268.1353831876
 30
0.0
 11
92.4389366579
 21
267.2455629422
 31
0.0
  0
LINE
  5
4A1
330
1F
100
AcDbEntity
  8
0
  6
Continuous
 62
     7
370
    40
100
AcDbLine
 10
96.3439492208
 20
274.0303706247
 30
0.0
 11
95.4541289754
 21
274.0303706247
 31
0.0
  0
LINE
  5
4A2
330
1F
100
AcDbEntity
  8
0
  6
Continuous
 62
     7
370
    40
100
AcDbLine
 10
367.2237443404
 20
274.0303706247
 30
0.0
 11
366.333924095
 21
274.0303706247
 31
0.0
  0
LINE
  5
4A3
330
1F
100
AcDbEntity
  8
0
  6
Continuous
 62
     7
370
    40
100
AcDbLine
 10
366.333924095
 20
264.2303706247
 30
0.0
 11
367.2237443404
 21
264.2303706247
 31
0.0
  0
LINE
  5
4A4
330
1F
100
AcDbEntity
  8
0
  6
Continuous
 62
     7
370
    40
100
AcDbLine
 10
370.2389366579
 20
267.2455629422
 30
0.0
 11
370.2389366579
 21
268.1353831876
 31
0.0
  0
LINE
  5
4A5
330
1F
100
AcDbEntity
  8
0
  6
Continuous
 62
     7
370
    40
100
AcDbLine
 10
370.2389366579
 20
270.1253580618
 30
0.0
 11
370.2389366579
 21
271.0151783072
 31
0.0
  0
LINE
  5
4A6
330
1F
100
AcDbEntity
  8
0
  6
Continuous
 62
     7
370
    40
100
AcDbLine
 10
96.4065319072
 20
280.6497784426
 30
0.0
 11
96.2910852141
 21
279.927465592
 31
0.0
  0
LINE
  5
4A7
330
1F
100
AcDbEntity
  8
0
  6
Continuous
 62
     7
370
    40
100
AcDbLine
 10
95.4710994939
 20
280.7992878672
 30
0.0
 11
95.3556528009
 21
280.0769750166
 31
0.0
  0
LINE
  5
4A8
330
1F
100
AcDbEntity
  8
0
  6
Continuous
 62
     7
370
    40
100
AcDbLine
 10
98.2713414085
 20
279.6109628068
 30
0.0
 11
98.3867881016
 21
280.3332756574
 31
0.0
  0
LINE
  5
4A9
330
1F
100
AcDbEntity
  8
0
  6
Continuous
 62
     7
370
    40
100
AcDbLine
 10
99.2067738218
 20
279.4614533822
 30
0.0
 11
99.3222205148
 21
280.1837662328
 31
0.0
  0
LINE
  5
4AA
330
1F
100
AcDbEntity
  8
0
  6
Continuous
 62
     7
370
    40
100
AcDbLine
 10
96.7856984939
 20
279.2033729515
 30
0.0
 11
97.5756720366
 21
279.0771121035
 31
0.0
  0
LINE
  5
4AB
330
1F
100
AcDbEntity
  8
0
  6
Continuous
 62
     7
370
    40
100
AcDbLine
 10
96.6361890693
 20
278.2679405383
 30
0.0
 11
97.426162612
 21
278.1416796902
 31
0.0
  0
LINE
  5
4AC
330
1F
100
AcDbEntity
  8
0
  6
Continuous
 62
     7
370
    40
100
AcDbLine
 10
96.7994222069
 20
279.2892378128
 30
0.0
 11
96.6361890693
 21
278.2679405383
 31
0.0
  0
LINE
  5
4AD
330
1F
100
AcDbEntity
  8
0
  6
Continuous
 62
     7
370
    40
100
AcDbLine
 10
97.426162612
 20
278.1416796902
 30
0.0
 11
97.5893957497
 21
279.1629769647
 31
0.0
  0
ARC
  5
4AE
330
1F
100
AcDbEntity
  8
0
  6
Continuous
 62
     7
370
    40
100
AcDbCircle
 10
98.1325025603
 20
279.0761726317
 30
0.0
 40
0.5499999999999999
100
AcDbArc
 50
80.9192645637
 51
170.9192645637
  0
ARC
  5
4AF
330
1F
100
AcDbEntity
  8
0
  6
Continuous
 62
     7
370
    40
100
AcDbCircle
 10
98.4215579195
 20
280.8846991035
 30
0.0
 40
0.5500000000000319
100
AcDbArc
 50
170.9192645637
 51
260.9192645636
  0
LINE
  5
4B0
330
1F
100
AcDbEntity
  8
0
  6
Continuous
 62
     7
370
    40
100
AcDbLine
 10
98.0416842465
 20
281.9928007111
 30
0.0
 11
97.2517107037
 21
282.1190615592
 31
0.0
  0
ARC
  5
4B1
330
1F
100
AcDbEntity
  8
0
  6
Continuous
 62
     7
370
    40
100
AcDbCircle
 10
96.2563153963
 20
279.3760421459
 30
0.0
 40
0.550000000000056
100
AcDbArc
 50
350.9192645637
 51
80.9192645637
  0
CIRCLE
  5
4B2
330
1F
100
AcDbEntity
  8
0
  6
Continuous
 62
     7
370
    40
100
AcDbCircle
 10
97.3389366579
 20
280.1303706247
 30
0.0
 40
3.749999999999968
  0
LINE
  5
4B3
330
1F
100
AcDbEntity
  8
0
  6
Continuous
 62
     7
370
    40
100
AcDbLine
 10
98.2193068934
 20
279.6192794423
 30
0.0
 11
99.2067738218
 21
279.4614533822
 31
0.0
  0
LINE
  5
4B4
330
1F
100
AcDbEntity
  8
0
  6
Continuous
 62
     7
370
    40
100
AcDbLine
 10
97.2517107037
 20
282.1190615592
 30
0.0
 11
97.0884775661
 21
281.0977642847
 31
0.0
  0
LINE
  5
4B5
330
1F
100
AcDbEntity
  8
0
  6
Continuous
 62
     7
370
    40
100
AcDbLine
 10
96.4585664224
 20
280.6414618071
 30
0.0
 11
95.4710994939
 21
280.7992878672
 31
0.0
  0
LINE
  5
4B6
330
1F
100
AcDbEntity
  8
0
  6
Continuous
 62
     7
370
    40
100
AcDbLine
 10
97.8784511088
 20
280.9715034366
 30
0.0
 11
98.0416842465
 21
281.9928007111
 31
0.0
  0
ARC
  5
4B7
330
1F
100
AcDbEntity
  8
0
  6
Continuous
 62
     7
370
    40
100
AcDbCircle
 10
96.5453707554
 20
281.1845686177
 30
0.0
 40
0.5500000000000246
100
AcDbArc
 50
260.9192645636
 51
350.9192645637
  0
LINE
  5
4B8
330
1F
100
AcDbEntity
  8
0
  6
Continuous
 62
     7
370
    40
100
AcDbLine
 10
95.3556528009
 20
280.0769750166
 30
0.0
 11
96.3431197293
 21
279.9191489565
 31
0.0
  0
LINE
  5
4B9
330
1F
100
AcDbEntity
  8
0
  6
Continuous
 62
     7
370
    40
100
AcDbLine
 10
99.3222205148
 20
280.1837662328
 30
0.0
 11
98.3347535864
 21
280.3415922929
 31
0.0
  0
LINE
  5
4BA
330
1F
100
AcDbEntity
  8
0
  6
Continuous
 62
     7
370
    40
100
AcDbLine
 10
97.8921748219
 20
281.0573682978
 30
0.0
 11
97.1022012791
 21
281.1836291459
 31
0.0
  0
LINE
  5
4BB
330
1F
100
AcDbEntity
  8
0
  6
Continuous
 62
     7
370
    40
100
AcDbLine
 10
96.3514363648
 20
279.9711834717
 30
0.0
 11
96.2910852141
 21
279.927465592
 31
0.0
  0
LINE
  5
4BC
330
1F
100
AcDbEntity
  8
0
  6
Continuous
 62
     7
370
    40
100
AcDbLine
 10
97.5035308884
 20
279.1767006778
 30
0.0
 11
97.3158018426
 21
279.4878799364
 31
0.0
  0
ARC
  5
4BD
330
1F
100
AcDbEntity
  8
0
  6
Continuous
 62
     7
370
    40
100
AcDbCircle
 10
98.1325025603
 20
279.0761726317
 30
0.0
 40
0.9146053614083793
100
AcDbArc
 50
100.859074173
 51
153.2468530666
  0
LINE
  5
4BE
330
1F
100
AcDbEntity
  8
0
  6
Continuous
 62
     7
370
    40
100
AcDbLine
 10
98.2276235289
 20
279.6713139575
 30
0.0
 11
97.960196406
 21
279.9744006408
 31
0.0
  0
LINE
  5
4BF
330
1F
100
AcDbEntity
  8
0
  6
Continuous
 62
     7
370
    40
100
AcDbLine
 10
96.4502497869
 20
280.5894272919
 30
0.0
 11
96.4065319072
 21
280.6497784426
 31
0.0
  0
LINE
  5
4C0
330
1F
100
AcDbEntity
  8
0
  6
Continuous
 62
     7
370
    40
100
AcDbLine
 10
97.1743424274
 20
281.0840405716
 30
0.0
 11
97.1022012791
 21
281.1836291459
 31
0.0
  0
LINE
  5
4C1
330
1F
100
AcDbEntity
  8
0
  6
Continuous
 62
     7
370
    40
100
AcDbLine
 10
97.5035308884
 20
279.1767006778
 30
0.0
 11
97.5756720366
 21
279.0771121035
 31
0.0
  0
LINE
  5
4C2
330
1F
100
AcDbEntity
  8
0
  6
Continuous
 62
     7
370
    40
100
AcDbLine
 10
97.1743424274
 20
281.0840405716
 30
0.0
 11
97.3620714732
 21
280.772861313
 31
0.0
  0
ARC
  5
4C3
330
1F
100
AcDbEntity
  8
0
  6
Continuous
 62
     7
370
    40
100
AcDbCircle
 10
96.5453707554
 20
281.1845686177
 30
0.0
 40
0.9146053614083606
100
AcDbArc
 50
280.859074173
 51
333.2468530666
  0
LINE
  5
4C4
330
1F
100
AcDbEntity
  8
0
  6
Continuous
 62
     7
370
    40
100
AcDbLine
 10
96.4502497869
 20
280.5894272919
 30
0.0
 11
96.7176769098
 21
280.2863406086
 31
0.0
  0
LINE
  5
4C5
330
1F
100
AcDbEntity
  8
0
  6
Continuous
 62
     7
370
    40
100
AcDbLine
 10
96.7000116842
 20
280.1758149706
 30
0.0
 11
96.7176769098
 21
280.2863406086
 31
0.0
  0
LINE
  5
4C6
330
1F
100
AcDbEntity
  8
0
  6
Continuous
 62
     7
370
    40
100
AcDbLine
 10
96.3514363648
 20
279.9711834717
 30
0.0
 11
96.7000116842
 21
280.1758149706
 31
0.0
  0
LINE
  5
4C7
330
1F
100
AcDbEntity
  8
0
  6
Continuous
 62
     7
370
    40
100
AcDbLine
 10
96.8852870682
 20
279.2755140998
 30
0.0
 11
96.7856984939
 21
279.2033729515
 31
0.0
  0
LINE
  5
4C8
330
1F
100
AcDbEntity
  8
0
  6
Continuous
 62
     7
370
    40
100
AcDbLine
 10
98.2276235289
 20
279.6713139575
 30
0.0
 11
98.2713414085
 21
279.6109628068
 31
0.0
  0
LINE
  5
4C9
330
1F
100
AcDbEntity
  8
0
  6
Continuous
 62
     7
370
    40
100
AcDbLine
 10
96.8852870682
 20
279.2755140998
 30
0.0
 11
97.1606571433
 21
279.5126765913
 31
0.0
  0
LINE
  5
4CA
330
1F
100
AcDbEntity
  8
0
  6
Continuous
 62
     7
370
    40
100
AcDbLine
 10
97.3158018426
 20
279.4878799364
 30
0.0
 11
97.1606571433
 21
279.5126765913
 31
0.0
  0
LINE
  5
4CB
330
1F
100
AcDbEntity
  8
0
  6
Continuous
 62
     7
370
    40
100
AcDbLine
 10
97.9778616315
 20
280.0849262788
 30
0.0
 11
97.960196406
 21
279.9744006408
 31
0.0
  0
LINE
  5
4CC
330
1F
100
AcDbEntity
  8
0
  6
Continuous
 62
     7
370
    40
100
AcDbLine
 10
98.3264369509
 20
280.2895577777
 30
0.0
 11
97.9778616315
 21
280.0849262788
 31
0.0
  0
LINE
  5
4CD
330
1F
100
AcDbEntity
  8
0
  6
Continuous
 62
     7
370
    40
100
AcDbLine
 10
98.3264369509
 20
280.2895577777
 30
0.0
 11
98.3867881016
 21
280.3332756574
 31
0.0
  0
ARC
  5
4CE
330
1F
100
AcDbEntity
  8
0
  6
Continuous
 62
     7
370
    40
100
AcDbCircle
 10
96.2563153963
 20
279.3760421459
 30
0.0
 40
0.9146053614085107
100
AcDbArc
 50
8.5916760607
 51
60.9794549543
  0
ARC
  5
4CF
330
1F
100
AcDbEntity
  8
0
  6
Continuous
 62
     7
370
    40
100
AcDbCircle
 10
98.4215579195
 20
280.8846991035
 30
0.0
 40
0.9146053614084179
100
AcDbArc
 50
188.5916760607
 51
240.9794549543
  0
LINE
  5
4D0
330
1F
100
AcDbEntity
  8
0
  6
Continuous
 62
     7
370
    40
100
AcDbLine
 10
97.7925862475
 20
280.9852271496
 30
0.0
 11
97.5172161724
 21
280.7480646581
 31
0.0
  0
LINE
  5
4D1
330
1F
100
AcDbEntity
  8
0
  6
Continuous
 62
     7
370
    40
100
AcDbLine
 10
97.7925862475
 20
280.9852271496
 30
0.0
 11
97.8921748219
 21
281.0573682978
 31
0.0
  0
LINE
  5
4D2
330
1F
100
AcDbEntity
  8
0
  6
Continuous
 62
     7
370
    40
100
AcDbLine
 10
97.3620714732
 20
280.772861313
 30
0.0
 11
97.5172161724
 21
280.7480646581
 31
0.0
  0
LINE
  5
4D3
330
1F
100
AcDbEntity
  8
0
  6
Continuous
 62
     7
370
    40
100
AcDbLine
 10
365.7046769322
 20
259.1330655694
 30
0.0
 11
364.9731963836
 21
259.1330655694
 31
0.0
  0
LINE
  5
4D4
330
1F
100
AcDbEntity
  8
0
  6
Continuous
 62
     7
370
    40
100
AcDbLine
 10
365.7046769322
 20
260.0803706247
 30
0.0
 11
364.9731963836
 21
260.0803706247
 31
0.0
  0
LINE
  5
4D5
330
1F
100
AcDbEntity
  8
0
  6
Continuous
 62
     7
370
    40
100
AcDbLine
 10
364.9731963836
 20
257.12767568
 30
0.0
 11
365.7046769322
 21
257.12767568
 31
0.0
  0
LINE
  5
4D6
330
1F
100
AcDbEntity
  8
0
  6
Continuous
 62
     7
370
    40
100
AcDbLine
 10
364.9731963836
 20
256.1803706247
 30
0.0
 11
365.7046769322
 21
256.1803706247
 31
0.0
  0
LINE
  5
4D7
330
1F
100
AcDbEntity
  8
0
  6
Continuous
 62
     7
370
    40
100
AcDbLine
 10
366.3416316026
 20
257.7303706247
 30
0.0
 11
366.3416316026
 21
258.5303706247
 31
0.0
  0
LINE
  5
4D8
330
1F
100
AcDbEntity
  8
0
  6
Continuous
 62
     7
370
    40
100
AcDbLine
 10
367.2889366579
 20
257.7303706247
 30
0.0
 11
367.2889366579
 21
258.5303706247
 31
0.0
  0
LINE
  5
4D9
330
1F
100
AcDbEntity
  8
0
  6
Continuous
 62
     7
370
    40
100
AcDbLine
 10
363.3889366579
 20
258.5303706247
 30
0.0
 11
363.3889366579
 21
257.7303706247
 31
0.0
  0
LINE
  5
4DA
330
1F
100
AcDbEntity
  8
0
  6
Continuous
 62
     7
370
    40
100
AcDbLine
 10
366.2546769322
 20
257.7303706247
 30
0.0
 11
367.2889366579
 21
257.7303706247
 31
0.0
  0
ARC
  5
4DB
330
1F
100
AcDbEntity
  8
0
  6
Continuous
 62
     7
370
    40
100
AcDbCircle
 10
364.4231963836
 20
259.0803706247
 30
0.0
 40
0.5500000000000114
100
AcDbArc
 50
270.0
 51
0.0
  0
CIRCLE
  5
4DC
330
1F
100
AcDbEntity
  8
0
  6
Continuous
 62
     7
370
    40
100
AcDbCircle
 10
365.3389366579
 20
258.1303706247
 30
0.0
 40
3.750000000000057
  0
ARC
  5
4DD
330
1F
100
AcDbEntity
  8
0
  6
Continuous
 62
     7
370
    40
100
AcDbCircle
 10
366.2546769322
 20
259.0803706247
 30
0.0
 40
0.5500000000000114
100
AcDbArc
 50
180.0
 51
270.0
  0
LINE
  5
4DE
330
1F
100
AcDbEntity
  8
0
  6
Continuous
 62
     7
370
    40
100
AcDbLine
 10
363.3889366579
 20
257.7303706247
 30
0.0
 11
364.4231963836
 21
257.7303706247
 31
0.0
  0
LINE
  5
4DF
330
1F
100
AcDbEntity
  8
0
  6
Continuous
 62
     7
370
    40
100
AcDbLine
 10
365.7046769322
 20
256.1803706247
 30
0.0
 11
365.7046769322
 21
257.1803706247
 31
0.0
  0
LINE
  5
4E0
330
1F
100
AcDbEntity
  8
0
  6
Continuous
 62
     7
370
    40
100
AcDbLine
 10
364.9731963836
 20
260.0803706247
 30
0.0
 11
364.9731963836
 21
259.0803706247
 31
0.0
  0
LINE
  5
4E1
330
1F
100
AcDbEntity
  8
0
  6
Continuous
 62
     7
370
    40
100
AcDbLine
 10
367.2889366579
 20
258.5303706247
 30
0.0
 11
366.2546769322
 21
258.5303706247
 31
0.0
  0
LINE
  5
4E2
330
1F
100
AcDbEntity
  8
0
  6
Continuous
 62
     7
370
    40
100
AcDbLine
 10
365.7046769322
 20
259.0803706247
 30
0.0
 11
365.7046769322
 21
260.0803706247
 31
0.0
  0
ARC
  5
4E3
330
1F
100
AcDbEntity
  8
0
  6
Continuous
 62
     7
370
    40
100
AcDbCircle
 10
364.4231963836
 20
257.1803706247
 30
0.0
 40
0.5499999999999545
100
AcDbArc
 50
0.0
 51
90.0
  0
LINE
  5
4E4
330
1F
100
AcDbEntity
  8
0
  6
Continuous
 62
     7
370
    40
100
AcDbLine
 10
364.9731963836
 20
257.1803706247
 30
0.0
 11
364.9731963836
 21
256.1803706247
 31
0.0
  0
ARC
  5
4E5
330
1F
100
AcDbEntity
  8
0
  6
Continuous
 62
     7
370
    40
100
AcDbCircle
 10
366.2546769322
 20
257.1803706247
 30
0.0
 40
0.5500000000000114
100
AcDbArc
 50
90.0
 51
180.0
  0
LINE
  5
4E6
330
1F
100
AcDbEntity
  8
0
  6
Continuous
 62
     7
370
    40
100
AcDbLine
 10
364.4231963836
 20
258.5303706247
 30
0.0
 11
363.3889366579
 21
258.5303706247
 31
0.0
  0
LINE
  5
4E7
330
1F
100
AcDbEntity
  8
0
  6
Continuous
 62
     7
370
    40
100
AcDbLine
 10
364.3362417132
 20
258.5303706247
 30
0.0
 11
364.3362417132
 21
257.7303706247
 31
0.0
  0
LINE
  5
4E8
330
1F
100
AcDbEntity
  8
0
  6
Continuous
 62
     7
370
    40
100
AcDbLine
 10
365.6519819875
 20
259.0803706247
 30
0.0
 11
365.7046769322
 21
259.1330655694
 31
0.0
  0
LINE
  5
4E9
330
1F
100
AcDbEntity
  8
0
  6
Continuous
 62
     7
370
    40
100
AcDbLine
 10
365.6519819875
 20
259.0803706247
 30
0.0
 11
365.3949008805
 21
258.768460208
 31
0.0
  0
LINE
  5
4EA
330
1F
100
AcDbEntity
  8
0
  6
Continuous
 62
     7
370
    40
100
AcDbLine
 10
365.2829724352
 20
258.768460208
 30
0.0
 11
365.3949008805
 21
258.768460208
 31
0.0
  0
LINE
  5
4EB
330
1F
100
AcDbEntity
  8
0
  6
Continuous
 62
     7
370
    40
100
AcDbLine
 10
365.0258913283
 20
259.0803706247
 30
0.0
 11
365.2829724352
 21
258.768460208
 31
0.0
  0
LINE
  5
4EC
330
1F
100
AcDbEntity
  8
0
  6
Continuous
 62
     7
370
    40
100
AcDbLine
 10
365.0258913283
 20
259.0803706247
 30
0.0
 11
364.9731963836
 21
259.1330655694
 31
0.0
  0
LINE
  5
4ED
330
1F
100
AcDbEntity
  8
0
  6
Continuous
 62
     7
370
    40
100
AcDbLine
 10
364.4231963836
 20
257.8173252951
 30
0.0
 11
364.3362417132
 21
257.7303706247
 31
0.0
  0
LINE
  5
4EE
330
1F
100
AcDbEntity
  8
0
  6
Continuous
 62
     7
370
    40
100
AcDbLine
 10
364.4231963836
 20
258.4434159543
 30
0.0
 11
364.3362417132
 21
258.5303706247
 31
0.0
  0
ARC
  5
4EF
330
1F
100
AcDbEntity
  8
0
  6
Continuous
 62
     7
370
    40
100
AcDbCircle
 10
364.4231963836
 20
259.0803706247
 30
0.0
 40
0.9146053614085279
100
AcDbArc
 50
287.6724114971
 51
340.0601903906
  0
LINE
  5
4F0
330
1F
100
AcDbEntity
  8
0
  6
Continuous
 62
     7
370
    40
100
AcDbLine
 10
364.4231963836
 20
258.4434159543
 30
0.0
 11
364.7008470746
 21
258.2089275337
 31
0.0
  0
LINE
  5
4F1
330
1F
100
AcDbEntity
  8
0
  6
Continuous
 62
     7
370
    40
100
AcDbLine
 10
364.7008470746
 20
258.0518137157
 30
0.0
 11
364.7008470746
 21
258.2089275337
 31
0.0
  0
LINE
  5
4F2
330
1F
100
AcDbEntity
  8
0
  6
Continuous
 62
     7
370
    40
100
AcDbLine
 10
364.4231963836
 20
257.8173252951
 30
0.0
 11
364.7008470746
 21
258.0518137157
 31
0.0
  0
LINE
  5
4F3
330
1F
100
AcDbEntity
  8
0
  6
Continuous
 62
     7
370
    40
100
AcDbLine
 10
365.6519819875
 20
257.1803706247
 30
0.0
 11
365.3949008805
 21
257.4922810414
 31
0.0
  0
ARC
  5
4F4
330
1F
100
AcDbEntity
  8
0
  6
Continuous
 62
     7
370
    40
100
AcDbCircle
 10
366.2546769322
 20
257.1803706247
 30
0.0
 40
0.9146053614084154
100
AcDbArc
 50
107.6724114971
 51
160.0601903906
  0
LINE
  5
4F5
330
1F
100
AcDbEntity
  8
0
  6
Continuous
 62
     7
370
    40
100
AcDbLine
 10
366.2546769322
 20
257.8173252951
 30
0.0
 11
365.9770262412
 21
258.0518137157
 31
0.0
  0
ARC
  5
4F6
330
1F
100
AcDbEntity
  8
0
  6
Continuous
 62
     7
370
    40
100
AcDbCircle
 10
364.4231963836
 20
257.1803706247
 30
0.0
 40
0.9146053614084023
100
AcDbArc
 50
19.9398096094
 51
72.3275885029
  0
LINE
  5
4F7
330
1F
100
AcDbEntity
  8
0
  6
Continuous
 62
     7
370
    40
100
AcDbLine
 10
365.0258913283
 20
257.1803706247
 30
0.0
 11
365.2829724352
 21
257.4922810414
 31
0.0
  0
LINE
  5
4F8
330
1F
100
AcDbEntity
  8
0
  6
Continuous
 62
     7
370
    40
100
AcDbLine
 10
365.6519819875
 20
257.1803706247
 30
0.0
 11
365.7046769322
 21
257.12767568
 31
0.0
  0
LINE
  5
4F9
330
1F
100
AcDbEntity
  8
0
  6
Continuous
 62
     7
370
    40
100
AcDbLine
 10
365.0258913283
 20
257.1803706247
 30
0.0
 11
364.9731963836
 21
257.12767568
 31
0.0
  0
LINE
  5
4FA
330
1F
100
AcDbEntity
  8
0
  6
Continuous
 62
     7
370
    40
100
AcDbLine
 10
366.2546769322
 20
257.8173252951
 30
0.0
 11
366.3416316026
 21
257.7303706247
 31
0.0
  0
LINE
  5
4FB
330
1F
100
AcDbEntity
  8
0
  6
Continuous
 62
     7
370
    40
100
AcDbLine
 10
365.9770262412
 20
258.2089275337
 30
0.0
 11
365.9770262412
 21
258.0518137157
 31
0.0
  0
LINE
  5
4FC
330
1F
100
AcDbEntity
  8
0
  6
Continuous
 62
     7
370
    40
100
AcDbLine
 10
366.2546769322
 20
258.4434159543
 30
0.0
 11
365.9770262412
 21
258.2089275337
 31
0.0
  0
LINE
  5
4FD
330
1F
100
AcDbEntity
  8
0
  6
Continuous
 62
     7
370
    40
100
AcDbLine
 10
366.2546769322
 20
258.4434159543
 30
0.0
 11
366.3416316026
 21
258.5303706247
 31
0.0
  0
LINE
  5
4FE
330
1F
100
AcDbEntity
  8
0
  6
Continuous
 62
     7
370
    40
100
AcDbLine
 10
365.3949008805
 20
257.4922810414
 30
0.0
 11
365.2829724352
 21
257.4922810414
 31
0.0
  0
ARC
  5
4FF
330
1F
100
AcDbEntity
  8
0
  6
Continuous
 62
     7
370
    40
100
AcDbCircle
 10
366.2546769322
 20
259.0803706247
 30
0.0
 40
0.9146053614083961
100
AcDbArc
 50
199.9398096094
 51
252.3275885029
  0
LINE
  5
500
330
1F
100
AcDbEntity
  8
0
  6
Continuous
 62
     7
370
    40
100
AcDbLine
 10
366.2551225809
 20
280.6778799441
 30
0.0
 11
365.6874420797
 21
281.139185311
 31
0.0
  0
LINE
  5
501
330
1F
100
AcDbEntity
  8
0
  6
Continuous
 62
     7
370
    40
100
AcDbLine
 10
366.8525368347
 20
281.4130554858
 30
0.0
 11
366.2848563335
 21
281.8743608528
 31
0.0
  0
LINE
  5
502
330
1F
100
AcDbEntity
  8
0
  6
Continuous
 62
     7
370
    40
100
AcDbLine
 10
364.4227507348
 20
279.5828613053
 30
0.0
 11
364.9904312361
 21
279.1215559384
 31
0.0
  0
LINE
  5
503
330
1F
100
AcDbEntity
  8
0
  6
Continuous
 62
     7
370
    40
100
AcDbLine
 10
363.825336481
 20
278.8476857636
 30
0.0
 11
364.3930169823
 21
278.3863803966
 31
0.0
  0
LINE
  5
504
330
1F
100
AcDbEntity
  8
0
  6
Continuous
 62
     7
370
    40
100
AcDbLine
 10
364.880516059
 20
281.0183068862
 30
0.0
 11
364.0778575597
 21
281.6705587652
 31
0.0
  0
LINE
  5
505
330
1F
100
AcDbEntity
  8
0
  6
Continuous
 62
     7
370
    40
100
AcDbLine
 10
364.0778575597
 20
281.6705587652
 30
0.0
 11
363.5733406669
 21
281.0497023366
 31
0.0
  0
LINE
  5
506
330
1F
100
AcDbEntity
  8
0
  6
Continuous
 62
     7
370
    40
100
AcDbLine
 10
364.455982597
 20
279.6237562993
 30
0.0
 11
363.825336481
 21
278.8476857636
 31
0.0
  0
ARC
  5
507
330
1F
100
AcDbEntity
  8
0
  6
Continuous
 62
     7
370
    40
100
AcDbCircle
 10
365.4505018929
 20
278.8155955685
 30
0.0
 40
0.5500000000000512
100
AcDbArc
 50
50.9021920942
 51
140.9021920942
  0
LINE
  5
508
330
1F
100
AcDbEntity
  8
0
  6
Continuous
 62
     7
370
    40
100
AcDbLine
 10
365.7973572567
 20
279.2424343632
 30
0.0
 11
366.6000157561
 21
278.5901824842
 31
0.0
  0
LINE
  5
509
330
1F
100
AcDbEntity
  8
0
  6
Continuous
 62
     7
370
    40
100
AcDbLine
 10
366.6000157561
 20
278.5901824842
 30
0.0
 11
367.1045326489
 21
279.2110389128
 31
0.0
  0
LINE
  5
50A
330
1F
100
AcDbEntity
  8
0
  6
Continuous
 62
     7
370
    40
100
AcDbLine
 10
367.1045326489
 20
279.2110389128
 30
0.0
 11
366.3018741495
 21
279.8632907917
 31
0.0
  0
CIRCLE
  5
50B
330
1F
100
AcDbEntity
  8
0
  6
Continuous
 62
     7
370
    40
100
AcDbCircle
 10
365.3389366579
 20
280.1303706247
 30
0.0
 40
3.750000000000026
  0
ARC
  5
50C
330
1F
100
AcDbEntity
  8
0
  6
Continuous
 62
     7
370
    40
100
AcDbCircle
 10
365.2273714228
 20
281.4451456809
 30
0.0
 40
0.550000000000076
100
AcDbArc
 50
230.9021920942
 51
320.9021920942
  0
LINE
  5
50D
330
1F
100
AcDbEntity
  8
0
  6
Continuous
 62
     7
370
    40
100
AcDbLine
 10
363.5733406669
 20
281.0497023366
 30
0.0
 11
364.3759991662
 21
280.3974504577
 31
0.0
  0
ARC
  5
50E
330
1F
100
AcDbEntity
  8
0
  6
Continuous
 62
     7
370
    40
100
AcDbCircle
 10
364.0291438024
 20
279.9706116631
 30
0.0
 40
0.549999999999996
100
AcDbArc
 50
320.9021920942
 51
50.9021920942
  0
LINE
  5
50F
330
1F
100
AcDbEntity
  8
0
  6
Continuous
 62
     7
370
    40
100
AcDbLine
 10
364.3930169823
 20
278.3863803966
 30
0.0
 11
365.0236630983
 21
279.1624509323
 31
0.0
  0
LINE
  5
510
330
1F
100
AcDbEntity
  8
0
  6
Continuous
 62
     7
370
    40
100
AcDbLine
 10
366.2848563335
 20
281.8743608528
 30
0.0
 11
365.6542102175
 21
281.0982903171
 31
0.0
  0
ARC
  5
511
330
1F
100
AcDbEntity
  8
0
  6
Continuous
 62
     7
370
    40
100
AcDbCircle
 10
366.6487295133
 20
280.2901295863
 30
0.0
 40
0.5500000000000154
100
AcDbArc
 50
140.9021920942
 51
230.9021920942
  0
LINE
  5
512
330
1F
100
AcDbEntity
  8
0
  6
Continuous
 62
     7
370
    40
100
AcDbLine
 10
366.2218907187
 20
280.6369849501
 30
0.0
 11
366.8525368347
 21
281.4130554858
 31
0.0
  0
LINE
  5
513
330
1F
100
AcDbEntity
  8
0
  6
Continuous
 62
     7
370
    40
100
AcDbLine
 10
365.8648402143
 20
279.187596738
 30
0.0
 11
366.3693571071
 21
279.8084531666
 31
0.0
  0
LINE
  5
514
330
1F
100
AcDbEntity
  8
0
  6
Continuous
 62
     7
370
    40
100
AcDbLine
 10
364.8130331014
 20
281.0731445114
 30
0.0
 11
364.3085162086
 21
280.4522880828
 31
0.0
  0
LINE
  5
515
330
1F
100
AcDbEntity
  8
0
  6
Continuous
 62
     7
370
    40
100
AcDbLine
 10
366.1809957247
 20
280.6702168123
 30
0.0
 11
366.2551225809
 21
280.6778799441
 31
0.0
  0
LINE
  5
516
330
1F
100
AcDbEntity
  8
0
  6
Continuous
 62
     7
370
    40
100
AcDbLine
 10
366.2470365244
 20
279.7958078341
 30
0.0
 11
365.8836807921
 21
279.7889276098
 31
0.0
  0
ARC
  5
517
330
1F
100
AcDbEntity
  8
0
  6
Continuous
 62
     7
370
    40
100
AcDbCircle
 10
366.6487295133
 20
280.2901295863
 30
0.0
 40
0.914605361408405
100
AcDbArc
 50
160.8420017036
 51
213.2297805971
  0
LINE
  5
518
330
1F
100
AcDbEntity
  8
0
  6
Continuous
 62
     7
370
    40
100
AcDbLine
 10
366.1809957247
 20
280.6702168123
 30
0.0
 11
365.7847775595
 21
280.5902795298
 31
0.0
  0
LINE
  5
519
330
1F
100
AcDbEntity
  8
0
  6
Continuous
 62
     7
370
    40
100
AcDbLine
 10
365.8521948818
 20
279.3099173208
 30
0.0
 11
365.8648402143
 21
279.187596738
 31
0.0
  0
LINE
  5
51A
330
1F
100
AcDbEntity
  8
0
  6
Continuous
 62
     7
370
    40
100
AcDbLine
 10
366.2470365244
 20
279.7958078341
 30
0.0
 11
366.3693571071
 21
279.8084531666
 31
0.0
  0
LINE
  5
51B
330
1F
100
AcDbEntity
  8
0
  6
Continuous
 62
     7
370
    40
100
AcDbLine
 10
364.8256784339
 20
280.9508239286
 30
0.0
 11
364.8130331014
 21
281.0731445114
 31
0.0
  0
LINE
  5
51C
330
1F
100
AcDbEntity
  8
0
  6
Continuous
 62
     7
370
    40
100
AcDbLine
 10
364.8256784339
 20
280.9508239286
 30
0.0
 11
364.8932757427
 21
280.5937450445
 31
0.0
  0
LINE
  5
51D
330
1F
100
AcDbEntity
  8
0
  6
Continuous
 62
     7
370
    40
100
AcDbLine
 10
364.7941925236
 20
280.4718136396
 30
0.0
 11
364.8932757427
 21
280.5937450445
 31
0.0
  0
LINE
  5
51E
330
1F
100
AcDbEntity
  8
0
  6
Continuous
 62
     7
370
    40
100
AcDbLine
 10
364.4308367914
 20
280.4649334153
 30
0.0
 11
364.7941925236
 21
280.4718136396
 31
0.0
  0
LINE
  5
51F
330
1F
100
AcDbEntity
  8
0
  6
Continuous
 62
     7
370
    40
100
AcDbLine
 10
364.4308367914
 20
280.4649334153
 30
0.0
 11
364.3085162086
 21
280.4522880828
 31
0.0
  0
LINE
  5
520
330
1F
100
AcDbEntity
  8
0
  6
Continuous
 62
     7
370
    40
100
AcDbLine
 10
364.9827681043
 20
279.1956827945
 30
0.0
 11
364.9799601247
 21
279.5998744803
 31
0.0
  0
ARC
  5
521
330
1F
100
AcDbEntity
  8
0
  6
Continuous
 62
     7
370
    40
100
AcDbCircle
 10
365.4505018929
 20
278.8155955685
 30
0.0
 40
0.9146053614084569
100
AcDbArc
 50
68.5746035913
 51
120.9623824848
  0
LINE
  5
522
330
1F
100
AcDbEntity
  8
0
  6
Continuous
 62
     7
370
    40
100
AcDbLine
 10
365.8521948818
 20
279.3099173208
 30
0.0
 11
365.7845975731
 21
279.6669962049
 31
0.0
  0
LINE
  5
523
330
1F
100
AcDbEntity
  8
0
  6
Continuous
 62
     7
370
    40
100
AcDbLine
 10
365.697913191
 20
280.6608667691
 30
0.0
 11
365.7847775595
 21
280.5902795298
 31
0.0
  0
LINE
  5
524
330
1F
100
AcDbEntity
  8
0
  6
Continuous
 62
     7
370
    40
100
AcDbLine
 10
365.6951052114
 20
281.0650584549
 30
0.0
 11
365.697913191
 21
280.6608667691
 31
0.0
  0
LINE
  5
525
330
1F
100
AcDbEntity
  8
0
  6
Continuous
 62
     7
370
    40
100
AcDbLine
 10
365.6951052114
 20
281.0650584549
 30
0.0
 11
365.6874420797
 21
281.139185311
 31
0.0
  0
LINE
  5
526
330
1F
100
AcDbEntity
  8
0
  6
Continuous
 62
     7
370
    40
100
AcDbLine
 10
365.8836807921
 20
279.7889276098
 30
0.0
 11
365.7845975731
 21
279.6669962049
 31
0.0
  0
LINE
  5
527
330
1F
100
AcDbEntity
  8
0
  6
Continuous
 62
     7
370
    40
100
AcDbLine
 10
364.496877591
 20
279.590524437
 30
0.0
 11
364.4227507348
 21
279.5828613053
 31
0.0
  0
ARC
  5
528
330
1F
100
AcDbEntity
  8
0
  6
Continuous
 62
     7
370
    40
100
AcDbCircle
 10
365.2273714228
 20
281.4451456809
 30
0.0
 40
0.9146053614084941
100
AcDbArc
 50
248.5746035913
 51
300.9623824848
  0
ARC
  5
529
330
1F
100
AcDbEntity
  8
0
  6
Continuous
 62
     7
370
    40
100
AcDbCircle
 10
364.0291438024
 20
279.9706116631
 30
0.0
 40
0.9146053614084027
100
AcDbArc
 50
340.8420017036
 51
33.2297805972
  0
LINE
  5
52A
330
1F
100
AcDbEntity
  8
0
  6
Continuous
 62
     7
370
    40
100
AcDbLine
 10
364.496877591
 20
279.590524437
 30
0.0
 11
364.8930957563
 21
279.6704617196
 31
0.0
  0
LINE
  5
52B
330
1F
100
AcDbEntity
  8
0
  6
Continuous
 62
     7
370
    40
100
AcDbLine
 10
364.9827681043
 20
279.1956827945
 30
0.0
 11
364.9904312361
 21
279.1215559384
 31
0.0
  0
LINE
  5
52C
330
1F
100
AcDbEntity
  8
0
  6
Continuous
 62
     7
370
    40
100
AcDbLine
 10
364.9799601247
 20
279.5998744803
 30
0.0
 11
364.8930957563
 21
279.6704617196
 31
0.0
  0
LINE
  5
52D
330
1F
100
AcDbEntity
  8
0
  6
Continuous
 62
     7
370
    40
100
AcDbLine
 10
96.4231963836
 20
258.5303706247
 30
0.0
 11
95.3889366579
 21
258.5303706247
 31
0.0
  0
LINE
  5
52E
330
1F
100
AcDbEntity
  8
0
  6
Continuous
 62
     7
370
    40
100
AcDbLine
 10
95.3889366579
 20
258.5303706247
 30
0.0
 11
95.3889366579
 21
257.7303706247
 31
0.0
  0
LINE
  5
52F
330
1F
100
AcDbEntity
  8
0
  6
Continuous
 62
     7
370
    40
100
AcDbLine
 10
95.3889366579
 20
257.7303706247
 30
0.0
 11
96.4231963836
 21
257.7303706247
 31
0.0
  0
ARC
  5
530
330
1F
100
AcDbEntity
  8
0
  6
Continuous
 62
     7
370
    40
100
AcDbCircle
 10
96.4231963836
 20
257.1803706247
 30
0.0
 40
0.5500000000000256
100
AcDbArc
 50
0.0
 51
90.0
  0
LINE
  5
531
330
1F
100
AcDbEntity
  8
0
  6
Continuous
 62
     7
370
    40
100
AcDbLine
 10
96.9731963836
 20
257.1803706247
 30
0.0
 11
96.9731963836
 21
256.1803706247
 31
0.0
  0
LINE
  5
532
330
1F
100
AcDbEntity
  8
0
  6
Continuous
 62
     7
370
    40
100
AcDbLine
 10
96.9731963836
 20
256.1803706247
 30
0.0
 11
97.7046769322
 21
256.1803706247
 31
0.0
  0
LINE
  5
533
330
1F
100
AcDbEntity
  8
0
  6
Continuous
 62
     7
370
    40
100
AcDbLine
 10
97.7046769322
 20
256.1803706247
 30
0.0
 11
97.7046769322
 21
257.1803706247
 31
0.0
  0
ARC
  5
534
330
1F
100
AcDbEntity
  8
0
  6
Continuous
 62
     7
370
    40
100
AcDbCircle
 10
98.2546769322
 20
257.1803706247
 30
0.0
 40
0.5500000000000256
100
AcDbArc
 50
90.0
 51
180.0
  0
LINE
  5
535
330
1F
100
AcDbEntity
  8
0
  6
Continuous
 62
     7
370
    40
100
AcDbLine
 10
98.2546769322
 20
257.7303706247
 30
0.0
 11
99.2889366579
 21
257.7303706247
 31
0.0
  0
LINE
  5
536
330
1F
100
AcDbEntity
  8
0
  6
Continuous
 62
     7
370
    40
100
AcDbLine
 10
99.2889366579
 20
257.7303706247
 30
0.0
 11
99.2889366579
 21
258.5303706247
 31
0.0
  0
LINE
  5
537
330
1F
100
AcDbEntity
  8
0
  6
Continuous
 62
     7
370
    40
100
AcDbLine
 10
99.2889366579
 20
258.5303706247
 30
0.0
 11
98.2546769322
 21
258.5303706247
 31
0.0
  0
ARC
  5
538
330
1F
100
AcDbEntity
  8
0
  6
Continuous
 62
     7
370
    40
100
AcDbCircle
 10
98.2546769322
 20
259.0803706247
 30
0.0
 40
0.5500000000000256
100
AcDbArc
 50
180.0
 51
270.0
  0
LINE
  5
539
330
1F
100
AcDbEntity
  8
0
  6
Continuous
 62
     7
370
    40
100
AcDbLine
 10
97.7046769322
 20
259.0803706247
 30
0.0
 11
97.7046769322
 21
260.0803706247
 31
0.0
  0
LINE
  5
53A
330
1F
100
AcDbEntity
  8
0
  6
Continuous
 62
     7
370
    40
100
AcDbLine
 10
97.7046769322
 20
260.0803706247
 30
0.0
 11
96.9731963836
 21
260.0803706247
 31
0.0
  0
LINE
  5
53B
330
1F
100
AcDbEntity
  8
0
  6
Continuous
 62
     7
370
    40
100
AcDbLine
 10
96.9731963836
 20
260.0803706247
 30
0.0
 11
96.9731963836
 21
259.0803706247
 31
0.0
  0
ARC
  5
53C
330
1F
100
AcDbEntity
  8
0
  6
Continuous
 62
     7
370
    40
100
AcDbCircle
 10
96.4231963836
 20
259.0803706247
 30
0.0
 40
0.550000000000054
100
AcDbArc
 50
270.0
 51
0.0
  0
CIRCLE
  5
53D
330
1F
100
AcDbEntity
  8
0
  6
Continuous
 62
     7
370
    40
100
AcDbCircle
 10
97.3389366579
 20
258.1303706247
 30
0.0
 40
3.75
  0
LINE
  5
53E
330
1F
100
AcDbEntity
  8
0
  6
Continuous
 62
     7
370
    40
100
AcDbLine
 10
97.7046769322
 20
259.1330655694
 30
0.0
 11
96.9731963836
 21
259.1330655694
 31
0.0
  0
LINE
  5
53F
330
1F
100
AcDbEntity
  8
0
  6
Continuous
 62
     7
370
    40
100
AcDbLine
 10
96.9731963836
 20
257.12767568
 30
0.0
 11
97.7046769322
 21
257.12767568
 31
0.0
  0
LINE
  5
540
330
1F
100
AcDbEntity
  8
0
  6
Continuous
 62
     7
370
    40
100
AcDbLine
 10
96.3362417132
 20
258.5303706247
 30
0.0
 11
96.3362417132
 21
257.7303706247
 31
0.0
  0
LINE
  5
541
330
1F
100
AcDbEntity
  8
0
  6
Continuous
 62
     7
370
    40
100
AcDbLine
 10
98.3416316026
 20
257.7303706247
 30
0.0
 11
98.3416316026
 21
258.5303706247
 31
0.0
  0
LINE
  5
542
330
1F
100
AcDbEntity
  8
0
  6
Continuous
 62
     7
370
    40
100
AcDbLine
 10
97.6519819875
 20
259.0803706247
 30
0.0
 11
97.7046769322
 21
259.1330655694
 31
0.0
  0
LINE
  5
543
330
1F
100
AcDbEntity
  8
0
  6
Continuous
 62
     7
370
    40
100
AcDbLine
 10
97.6519819875
 20
259.0803706247
 30
0.0
 11
97.3949008805
 21
258.768460208
 31
0.0
  0
LINE
  5
544
330
1F
100
AcDbEntity
  8
0
  6
Continuous
 62
     7
370
    40
100
AcDbLine
 10
97.2829724352
 20
258.768460208
 30
0.0
 11
97.3949008805
 21
258.768460208
 31
0.0
  0
LINE
  5
545
330
1F
100
AcDbEntity
  8
0
  6
Continuous
 62
     7
370
    40
100
AcDbLine
 10
97.0258913283
 20
259.0803706247
 30
0.0
 11
97.2829724352
 21
258.768460208
 31
0.0
  0
LINE
  5
546
330
1F
100
AcDbEntity
  8
0
  6
Continuous
 62
     7
370
    40
100
AcDbLine
 10
97.0258913283
 20
259.0803706247
 30
0.0
 11
96.9731963836
 21
259.1330655694
 31
0.0
  0
LINE
  5
547
330
1F
100
AcDbEntity
  8
0
  6
Continuous
 62
     7
370
    40
100
AcDbLine
 10
98.2546769322
 20
258.4434159543
 30
0.0
 11
97.9770262412
 21
258.2089275337
 31
0.0
  0
ARC
  5
548
330
1F
100
AcDbEntity
  8
0
  6
Continuous
 62
     7
370
    40
100
AcDbCircle
 10
98.2546769322
 20
259.0803706247
 30
0.0
 40
0.9146053614083961
100
AcDbArc
 50
199.9398096094
 51
252.3275885029
  0
LINE
  5
549
330
1F
100
AcDbEntity
  8
0
  6
Continuous
 62
     7
370
    40
100
AcDbLine
 10
98.2546769322
 20
257.8173252951
 30
0.0
 11
98.3416316026
 21
257.7303706247
 31
0.0
  0
LINE
  5
54A
330
1F
100
AcDbEntity
  8
0
  6
Continuous
 62
     7
370
    40
100
AcDbLine
 10
96.4231963836
 20
258.4434159543
 30
0.0
 11
96.3362417132
 21
258.5303706247
 31
0.0
  0
LINE
  5
54B
330
1F
100
AcDbEntity
  8
0
  6
Continuous
 62
     7
370
    40
100
AcDbLine
 10
96.4231963836
 20
258.4434159543
 30
0.0
 11
96.7008470746
 21
258.2089275337
 31
0.0
  0
LINE
  5
54C
330
1F
100
AcDbEntity
  8
0
  6
Continuous
 62
     7
370
    40
100
AcDbLine
 10
96.7008470746
 20
258.0518137157
 30
0.0
 11
96.7008470746
 21
258.2089275337
 31
0.0
  0
LINE
  5
54D
330
1F
100
AcDbEntity
  8
0
  6
Continuous
 62
     7
370
    40
100
AcDbLine
 10
96.4231963836
 20
257.8173252951
 30
0.0
 11
96.7008470746
 21
258.0518137157
 31
0.0
  0
LINE
  5
54E
330
1F
100
AcDbEntity
  8
0
  6
Continuous
 62
     7
370
    40
100
AcDbLine
 10
96.4231963836
 20
257.8173252951
 30
0.0
 11
96.3362417132
 21
257.7303706247
 31
0.0
  0
ARC
  5
54F
330
1F
100
AcDbEntity
  8
0
  6
Continuous
 62
     7
370
    40
100
AcDbCircle
 10
96.4231963836
 20
257.1803706247
 30
0.0
 40
0.9146053614084239
100
AcDbArc
 50
19.9398096094
 51
72.3275885029
  0
LINE
  5
550
330
1F
100
AcDbEntity
  8
0
  6
Continuous
 62
     7
370
    40
100
AcDbLine
 10
97.0258913283
 20
257.1803706247
 30
0.0
 11
97.2829724352
 21
257.4922810414
 31
0.0
  0
LINE
  5
551
330
1F
100
AcDbEntity
  8
0
  6
Continuous
 62
     7
370
    40
100
AcDbLine
 10
98.2546769322
 20
257.8173252951
 30
0.0
 11
97.9770262412
 21
258.0518137157
 31
0.0
  0
LINE
  5
552
330
1F
100
AcDbEntity
  8
0
  6
Continuous
 62
     7
370
    40
100
AcDbLine
 10
97.9770262412
 20
258.2089275337
 30
0.0
 11
97.9770262412
 21
258.0518137157
 31
0.0
  0
LINE
  5
553
330
1F
100
AcDbEntity
  8
0
  6
Continuous
 62
     7
370
    40
100
AcDbLine
 10
98.2546769322
 20
258.4434159543
 30
0.0
 11
98.3416316026
 21
258.5303706247
 31
0.0
  0
ARC
  5
554
330
1F
100
AcDbEntity
  8
0
  6
Continuous
 62
     7
370
    40
100
AcDbCircle
 10
96.4231963836
 20
259.0803706247
 30
0.0
 40
0.9146053614085409
100
AcDbArc
 50
287.6724114971
 51
340.0601903906
  0
LINE
  5
555
330
1F
100
AcDbEntity
  8
0
  6
Continuous
 62
     7
370
    40
100
AcDbLine
 10
97.0258913283
 20
257.1803706247
 30
0.0
 11
96.9731963836
 21
257.12767568
 31
0.0
  0
LINE
  5
556
330
1F
100
AcDbEntity
  8
0
  6
Continuous
 62
     7
370
    40
100
AcDbLine
 10
97.3949008805
 20
257.4922810414
 30
0.0
 11
97.2829724352
 21
257.4922810414
 31
0.0
  0
LINE
  5
557
330
1F
100
AcDbEntity
  8
0
  6
Continuous
 62
     7
370
    40
100
AcDbLine
 10
97.6519819875
 20
257.1803706247
 30
0.0
 11
97.3949008805
 21
257.4922810414
 31
0.0
  0
LINE
  5
558
330
1F
100
AcDbEntity
  8
0
  6
Continuous
 62
     7
370
    40
100
AcDbLine
 10
97.6519819875
 20
257.1803706247
 30
0.0
 11
97.7046769322
 21
257.12767568
 31
0.0
  0
ARC
  5
559
330
1F
100
AcDbEntity
  8
0
  6
Continuous
 62
     7
370
    40
100
AcDbCircle
 10
98.2546769322
 20
257.1803706247
 30
0.0
 40
0.9146053614084154
100
AcDbArc
 50
107.6724114971
 51
160.0601903906
  0
ARC
  5
55A
330
1F
100
AcDbEntity
  8
0
  6
Continuous
 62
     7
370
    40
100
AcDbCircle
 10
372.3389366579
 20
251.8303706247
 30
0.0
 40
2.5
100
AcDbArc
 50
270.0
 51
0.0
  0
LINE
  5
55B
330
1F
100
AcDbEntity
  8
0
  6
Continuous
 62
     7
370
    40
100
AcDbLine
 10
372.3389366579
 20
249.3303706247
 30
0.0
 11
371.8389366579
 21
249.3303706247
 31
0.0
  0
LINE
  5
55C
330
1F
100
AcDbEntity
  8
0
  6
Continuous
 62
     7
370
    40
100
AcDbLine
 10
371.8389366579
 20
251.8303706247
 30
0.0
 11
371.8389366579
 21
284.3303706247
 31
0.0
  0
LINE
  5
55D
330
1F
100
AcDbEntity
  8
0
  6
Continuous
 62
     7
370
    40
100
AcDbLine
 10
374.8389366579
 20
284.3303706247
 30
0.0
 11
374.8389366579
 21
251.8303706247
 31
0.0
  0
ARC
  5
55E
330
1F
100
AcDbEntity
  8
0
  6
Continuous
 62
     7
370
    40
100
AcDbCircle
 10
372.3389366579
 20
284.3303706247
 30
0.0
 40
2.5
100
AcDbArc
 50
0.0
 51
90.0
  0
LINE
  5
55F
330
1F
100
AcDbEntity
  8
0
  6
Continuous
 62
     7
370
    40
100
AcDbLine
 10
371.8389366579
 20
286.8283698241
 30
0.0
 11
359.3389366579
 21
286.8283698241
 31
0.0
  0
LINE
  5
560
330
1F
100
AcDbEntity
  8
0
  6
Continuous
 62
     7
370
    40
100
AcDbLine
 10
359.3389366579
 20
286.8283698241
 30
0.0
 11
359.3389366579
 21
286.8303706247
 31
0.0
  0
LINE
  5
561
330
1F
100
AcDbEntity
  8
0
  6
Continuous
 62
     7
370
    40
100
AcDbLine
 10
359.3389366579
 20
286.8303706247
 30
0.0
 11
372.3389366579
 21
286.8303706247
 31
0.0
  0
LINE
  5
562
330
1F
100
AcDbEntity
  8
0
  6
Continuous
 62
     7
370
    40
100
AcDbLine
 10
371.8389366579
 20
286.6303706247
 30
0.0
 11
371.8389366579
 21
286.8283698241
 31
0.0
  0
LINE
  5
563
330
1F
100
AcDbEntity
  8
0
  6
Continuous
 62
     7
370
    40
100
AcDbLine
 10
365.3389366579
 20
274.1303706247
 30
0.0
 11
366.9397177172
 21
274.1303706247
 31
0.0
  0
ARC
  5
564
330
1F
100
AcDbEntity
  8
0
  6
Continuous
 62
     7
370
    40
100
AcDbCircle
 10
365.3389366579
 20
269.1303706247
 30
0.0
 40
5.000000000000057
100
AcDbArc
 50
90.0
 51
270.0
  0
LINE
  5
565
330
1F
100
AcDbEntity
  8
0
  6
Continuous
 62
     7
370
    40
100
AcDbLine
 10
366.9397177172
 20
264.1303706247
 30
0.0
 11
365.3389366579
 21
264.1303706247
 31
0.0
  0
LINE
  5
566
330
1F
100
AcDbEntity
  8
0
  6
Continuous
 62
     7
370
    40
100
AcDbLine
 10
359.3389366579
 20
286.8283698241
 30
0.0
 11
359.3389366579
 21
286.6303706247
 31
0.0
  0
LINE
  5
567
330
1F
100
AcDbEntity
  8
0
  6
Continuous
 62
     7
370
    40
100
AcDbLine
 10
370.3389366579
 20
269.5803706247
 30
0.0
 11
370.3389366579
 21
268.5803706247
 31
0.0
  0
LINE
  5
568
330
1F
100
AcDbEntity
  8
0
  6
Continuous
 62
     7
370
    40
100
AcDbLine
 10
370.3389366579
 20
268.5803706247
 30
0.0
 11
370.5600476507
 21
268.5803706247
 31
0.0
  0
LINE
  5
569
330
1F
100
AcDbEntity
  8
0
  6
Continuous
 62
     7
370
    40
100
AcDbLine
 10
370.3389366579
 20
269.5803706247
 30
0.0
 11
370.5696153901
 21
269.5803706247
 31
0.0
  0
LINE
  5
56A
330
1F
100
AcDbEntity
  8
0
  6
Continuous
 62
     7
370
    40
100
AcDbLine
 10
90.8389366579
 20
284.3303706247
 30
0.0
 11
90.8389366579
 21
251.8303706247
 31
0.0
  0
LINE
  5
56B
330
1F
100
AcDbEntity
  8
0
  6
Continuous
 62
     7
370
    40
100
AcDbLine
 10
103.3389366579
 20
286.8283698241
 30
0.0
 11
90.8389366579
 21
286.8283698241
 31
0.0
  0
LINE
  5
56C
330
1F
100
AcDbEntity
  8
0
  6
Continuous
 62
     7
370
    40
100
AcDbLine
 10
90.8389366579
 20
286.8283698241
 30
0.0
 11
90.8389366579
 21
286.6303706247
 31
0.0
  0
LINE
  5
56D
330
1F
100
AcDbEntity
  8
0
  6
Continuous
 62
     7
370
    40
100
AcDbLine
 10
90.3389366579
 20
286.8303706247
 30
0.0
 11
103.3389366579
 21
286.8303706247
 31
0.0
  0
LINE
  5
56E
330
1F
100
AcDbEntity
  8
0
  6
Continuous
 62
     7
370
    40
100
AcDbLine
 10
103.3389366579
 20
286.8303706247
 30
0.0
 11
103.3389366579
 21
286.8283698241
 31
0.0
  0
LINE
  5
56F
330
1F
100
AcDbEntity
  8
0
  6
Continuous
 62
     7
370
    40
100
AcDbLine
 10
87.8389366579
 20
251.8303706247
 30
0.0
 11
87.8389366579
 21
284.3303706247
 31
0.0
  0
ARC
  5
570
330
1F
100
AcDbEntity
  8
0
  6
Continuous
 62
     7
370
    40
100
AcDbCircle
 10
90.3389366579
 20
284.3303706247
 30
0.0
 40
2.5
100
AcDbArc
 50
90.0
 51
180.0
  0
ARC
  5
571
330
1F
100
AcDbEntity
  8
0
  6
Continuous
 62
     7
370
    40
100
AcDbCircle
 10
90.3389366579
 20
251.8303706247
 30
0.0
 40
2.500000000000028
100
AcDbArc
 50
180.0
 51
270.0
  0
LINE
  5
572
330
1F
100
AcDbEntity
  8
0
  6
Continuous
 62
     7
370
    40
100
AcDbLine
 10
90.8389366579
 20
249.3303706247
 30
0.0
 11
90.3389366579
 21
249.3303706247
 31
0.0
  0
LINE
  5
573
330
1F
100
AcDbEntity
  8
0
  6
Continuous
 62
     7
370
    40
100
AcDbLine
 10
95.7381555985
 20
264.1303706247
 30
0.0
 11
97.3389366579
 21
264.1303706247
 31
0.0
  0
ARC
  5
574
330
1F
100
AcDbEntity
  8
0
  6
Continuous
 62
     7
370
    40
100
AcDbCircle
 10
97.3389366579
 20
269.1303706247
 30
0.0
 40
5.000000000000057
100
AcDbArc
 50
270.0
 51
90.0
  0
LINE
  5
575
330
1F
100
AcDbEntity
  8
0
  6
Continuous
 62
     7
370
    40
100
AcDbLine
 10
97.3389366579
 20
274.1303706247
 30
0.0
 11
95.7381555985
 21
274.1303706247
 31
0.0
  0
LINE
  5
576
330
1F
100
AcDbEntity
  8
0
  6
Continuous
 62
     7
370
    40
100
AcDbLine
 10
103.3389366579
 20
286.6303706247
 30
0.0
 11
103.3389366579
 21
286.8283698241
 31
0.0
  0
LINE
  5
577
330
1F
100
AcDbEntity
  8
0
  6
Continuous
 62
     7
370
    40
100
AcDbLine
 10
92.3389366579
 20
269.6303706247
 30
0.0
 11
92.3389366579
 21
268.6303706247
 31
0.0
  0
LINE
  5
578
330
1F
100
AcDbEntity
  8
0
  6
Continuous
 62
     7
370
    40
100
AcDbLine
 10
92.1128004178
 20
269.6303706247
 30
0.0
 11
92.3389366579
 21
269.6303706247
 31
0.0
  0
LINE
  5
579
330
1F
100
AcDbEntity
  8
0
  6
Continuous
 62
     7
370
    40
100
AcDbLine
 10
92.1128004178
 20
268.6303706247
 30
0.0
 11
92.3389366579
 21
268.6303706247
 31
0.0
  0
CIRCLE
  5
57A
330
1F
100
AcDbEntity
  8
0
  6
Continuous
 62
     7
370
    40
100
AcDbCircle
 10
97.3389366579
 20
258.1303706247
 30
0.0
 40
4.0
  0
CIRCLE
  5
57B
330
1F
100
AcDbEntity
  8
0
  6
Continuous
 62
     7
370
    40
100
AcDbCircle
 10
365.3389366579
 20
280.1303706247
 30
0.0
 40
4.0
  0
CIRCLE
  5
57C
330
1F
100
AcDbEntity
  8
0
  6
Continuous
 62
     7
370
    40
100
AcDbCircle
 10
365.3389366579
 20
258.1303706247
 30
0.0
 40
4.0
  0
LINE
  5
57D
330
1F
100
AcDbEntity
  8
0
  6
Continuous
 62
     7
370
    40
100
AcDbLine
 10
371.8389366579
 20
286.6303706247
 30
0.0
 11
90.8389366579
 21
286.6303706247
 31
0.0
  0
LINE
  5
57E
330
1F
100
AcDbEntity
  8
0
  6
Continuous
 62
     7
370
    40
100
AcDbLine
 10
371.8389366579
 20
286.6303706247
 30
0.0
 11
371.8389366579
 21
249.1303706247
 31
0.0
  0
LINE
  5
57F
330
1F
100
AcDbEntity
  8
0
  6
Continuous
 62
     7
370
    40
100
AcDbLine
 10
371.8389366579
 20
249.1303706247
 30
0.0
 11
90.8389366579
 21
249.1303706247
 31
0.0
  0
LINE
  5
580
330
1F
100
AcDbEntity
  8
0
  6
Continuous
 62
     7
370
    40
100
AcDbLine
 10
90.8389366579
 20
286.6303706247
 30
0.0
 11
90.8389366579
 21
249.1303706247
 31
0.0
  0
CIRCLE
  5
581
330
1F
100
AcDbEntity
  8
0
  6
Continuous
 62
     7
370
    40
100
AcDbCircle
 10
97.3389366579
 20
269.1303706247
 30
0.0
 40
5.25
  0
CIRCLE
  5
582
330
1F
100
AcDbEntity
  8
0
  6
Continuous
 62
     7
370
    40
100
AcDbCircle
 10
365.3389366579
 20
269.1303706247
 30
0.0
 40
5.25
  0
CIRCLE
  5
583
330
1F
100
AcDbEntity
  8
0
  6
Continuous
 62
     7
370
    40
100
AcDbCircle
 10
97.3389366579
 20
280.1303706247
 30
0.0
 40
4.0
  0
DIMENSION
  5
584
330
1F
100
AcDbEntity
  8
0
  6
Continuous
 62
     7
370
     0
100
AcDbDimension
  2
*D37
 10
66.5762228482
 20
287.6303706247
 30
0.0
 11
66.5762228482
 21
268.3803706247
 31
0.0
 70
   160
 71
     2
 42
-1.0
  3
SLDDIMSTYLE4
100
AcDbAlignedDimension
 13
90.8389366579
 23
249.1303706247
 33
0.0
 14
113.3389366579
 24
287.6303706247
 34
0.0
 50
90.0
100
AcDbRotatedDimension
  0
DIMENSION
  5
58F
330
1F
100
AcDbEntity
  8
0
  6
Continuous
 62
     7
370
     0
100
AcDbDimension
  2
*D38
 10
77.8389366579
 20
286.6303706247
 30
0.0
 11
77.8389366579
 21
267.8803706247
 31
0.0
 70
   160
 71
     2
 42
-1.0
  3
SLDDIMSTYLE0
100
AcDbAlignedDimension
 13
90.8389366579
 23
249.1303706247
 33
0.0
 14
90.8389366579
 24
286.6303706247
 34
0.0
 50
90.0
100
AcDbRotatedDimension
  0
ENDSEC
  0
SECTION
  2
OBJECTS
  0
DICTIONARY
  5
C
330
0
100
AcDbDictionary
281
     1
  3
ACAD_GROUP
350
D
  3
ACAD_LAYOUT
350
1A
  3
ACAD_MLEADERSTYLE
350
59A
  3
ACAD_MLINESTYLE
350
17
  3
ACAD_PLOTSETTINGS
350
19
  3
ACAD_PLOTSTYLENAME
350
E
  3
ACAD_TABLESTYLE
350
599
  3
ACAD_VISUALSTYLE
350
2A
  3
AcDbVariableDictionary
350
59B
  0
DICTIONARY
  5
D
102
{ACAD_REACTORS
330
C
102
}
330
C
100
AcDbDictionary
281
     1
  0
DICTIONARY
  5
1A
102
{ACAD_REACTORS
330
C
102
}
330
C
100
AcDbDictionary
281
     1
  3
Layout1
350
1E
  3
Layout2
350
26
  3
Model
350
22
  0
DICTIONARY
  5
59A
102
{ACAD_REACTORS
330
C
102
}
330
C
100
AcDbDictionary
281
     1
  0
DICTIONARY
  5
17
102
{ACAD_REACTORS
330
C
102
}
330
C
100
AcDbDictionary
281
     1
  3
Standard
350
18
  0
DICTIONARY
  5
19
102
{ACAD_REACTORS
330
C
102
}
330
C
100
AcDbDictionary
281
     1
  0
ACDBDICTIONARYWDFLT
  5
E
102
{ACAD_REACTORS
330
C
102
}
330
C
100
AcDbDictionary
281
     1
  3
Normal
350
F
100
AcDbDictionaryWithDefault
340
F
  0
DICTIONARY
  5
599
102
{ACAD_REACTORS
330
C
102
}
330
C
100
AcDbDictionary
281
     1
  0
DICTIONARY
  5
2A
102
{ACAD_REACTORS
330
C
102
}
330
C
100
AcDbDictionary
281
     1
  3
2dWireframe
350
2F
  3
3D Hidden
350
31
  3
3dWireframe
350
30
  3
Basic
350
32
  3
Brighten
350
36
  3
ColorChange
350
3A
  3
Conceptual
350
34
  3
Dim
350
35
  3
Facepattern
350
39
  3
Flat
350
2B
  3
FlatWithEdges
350
2C
  3
Gouraud
350
2D
  3
GouraudWithEdges
350
2E
  3
Linepattern
350
38
  3
Realistic
350
33
  3
Thicken
350
37
  0
DICTIONARY
  5
59B
102
{ACAD_REACTORS
330
C
102
}
330
C
100
AcDbDictionary
281
     1
  3
PSOLHEIGHT
350
59D
  3
PSOLWIDTH
350
59C
  0
LAYOUT
  5
1E
102
{ACAD_REACTORS
330
1A
102
}
330
1A
100
AcDbPlotSettings
  1

  2
none_device
  4

  6

 40
0.0
 41
0.0
 42
0.0
 43
0.0
 44
0.0
 45
0.0
 46
0.0
 47
0.0
 48
0.0
 49
0.0
140
0.0
141
0.0
142
1.0
143
1.0
 70
   688
 72
     0
 73
     0
 74
     5
  7

 75
    16
147
1.0
148
0.0
149
0.0
100
AcDbLayout
  1
Layout1
 70
     1
 71
     1
 10
0.0
 20
0.0
 11
420.0
 21
297.0
 12
0.0
 22
0.0
 32
0.0
 14
1.0000000000E+20
 24
1.0000000000E+20
 34
1.0000000000E+20
 15
-1.0000000000E+20
 25
-1.0000000000E+20
 35
-1.0000000000E+20
146
0.0
 13
0.0
 23
0.0
 33
0.0
 16
1.0
 26
0.0
 36
0.0
 17
0.0
 27
1.0
 37
0.0
 76
     0
330
1B
  0
LAYOUT
  5
26
102
{ACAD_REACTORS
330
1A
102
}
330
1A
100
AcDbPlotSettings
  1

  2
none_device
  4

  6

 40
0.0
 41
0.0
 42
0.0
 43
0.0
 44
0.0
 45
0.0
 46
0.0
 47
0.0
 48
0.0
 49
0.0
140
0.0
141
0.0
142
1.0
143
1.0
 70
   688
 72
     0
 73
     0
 74
     5
  7

 75
    16
147
1.0
148
0.0
149
0.0
100
AcDbLayout
  1
Layout2
 70
     1
 71
     2
 10
0.0
 20
0.0
 11
0.0
 21
0.0
 12
0.0
 22
0.0
 32
0.0
 14
0.0
 24
0.0
 34
0.0
 15
0.0
 25
0.0
 35
0.0
146
0.0
 13
0.0
 23
0.0
 33
0.0
 16
1.0
 26
0.0
 36
0.0
 17
0.0
 27
1.0
 37
0.0
 76
     0
330
23
  0
LAYOUT
  5
22
102
{ACAD_REACTORS
330
1A
102
}
330
1A
100
AcDbPlotSettings
  1

  2
none_device
  4

  6

 40
0.0
 41
0.0
 42
0.0
 43
0.0
 44
0.0
 45
0.0
 46
0.0
 47
0.0
 48
0.0
 49
0.0
140
0.0
141
0.0
142
1.0
143
1.0
 70
  1712
 72
     0
 73
     0
 74
     0
  7

 75
     0
147
1.0
148
0.0
149
0.0
100
AcDbLayout
  1
Model
 70
     1
 71
     0
 10
0.0
 20
0.0
 11
420.0
 21
297.0
 12
0.0
 22
0.0
 32
0.0
 14
0.0
 24
0.0
 34
0.0
 15
420.0
 25
297.0
 35
0.0
146
0.0
 13
0.0
 23
0.0
 33
0.0
 16
1.0
 26
0.0
 36
0.0
 17
0.0
 27
1.0
 37
0.0
 76
     0
330
1F
331
29
  0
MLINESTYLE
  5
18
102
{ACAD_REACTORS
330
17
102
}
330
17
100
AcDbMlineStyle
  2
Standard
 70
     0
  3

 62
   256
 51
90.0
 52
90.0
 71
     2
 49
0.5
 62
   256
  6
BYLAYER
 49
-0.5
 62
   256
  6
BYLAYER
  0
ACDBPLACEHOLDER
  5
F
102
{ACAD_REACTORS
330
E
102
}
330
E
  0
VISUALSTYLE
  5
2F
102
{ACAD_REACTORS
330
2A
102
}
330
2A
100
AcDbVisualStyle
  2
2dWireframe
 70
     4
 71
     0
 72
     2
 73
     0
 90
        0
 40
-0.6
 41
-30.0
 62
     5
 63
     7
 74
     1
 91
        4
 64
     7
 65
   257
 75
     1
175
     1
 42
1.0
 92
        0
 66
   257
 43
1.0
 76
     1
 77
     6
 78
     2
 67
     7
 79
     5
170
     0
171
     0
290
     0
174
     0
 93
        1
 44
0.0
173
     0
291
     0
 45
0.0
1001
ACAD
1000
AcDbSavedByObjectVersion
1070
     0
  0
VISUALSTYLE
  5
31
102
{ACAD_REACTORS
330
2A
102
}
330
2A
100
AcDbVisualStyle
  2
3D Hidden
 70
     6
 71
     1
 72
     2
 73
     2
 90
        0
 40
-0.6
 41
-30.0
 62
     5
 63
     7
 74
     2
 91
        2
 64
     7
 65
   257
 75
     2
175
     1
 42
40.0
 92
        0
 66
   257
 43
1.0
 76
     1
 77
     6
 78
     2
 67
     7
 79
     3
170
     0
171
     0
290
     0
174
     0
 93
        1
 44
0.0
173
     0
291
     0
 45
0.0
1001
ACAD
1000
AcDbSavedByObjectVersion
1070
     0
  0
VISUALSTYLE
  5
30
102
{ACAD_REACTORS
330
2A
102
}
330
2A
100
AcDbVisualStyle
  2
3dWireframe
 70
     5
 71
     0
 72
     2
 73
     0
 90
        0
 40
-0.6
 41
-30.0
 62
     5
 63
     7
 74
     1
 91
        4
 64
     7
 65
   257
 75
     1
175
     1
 42
1.0
 92
        0
 66
   257
 43
1.0
 76
     1
 77
     6
 78
     2
 67
     7
 79
     5
170
     0
171
     0
290
     0
174
     0
 93
        1
 44
0.0
173
     0
291
     0
 45
0.0
1001
ACAD
1000
AcDbSavedByObjectVersion
1070
     0
  0
VISUALSTYLE
  5
32
102
{ACAD_REACTORS
330
2A
102
}
330
2A
100
AcDbVisualStyle
  2
Basic
 70
     7
 71
     1
 72
     0
 73
     1
 90
        0
 40
-0.6
 41
-30.0
 62
     5
 63
     7
 74
     0
 91
        4
 64
     7
 65
   257
 75
     1
175
     1
 42
1.0
 92
        8
 66
     7
 43
1.0
 76
     1
 77
     6
 78
     2
 67
     7
 79
     5
170
     0
171
     0
290
     0
174
     0
 93
        1
 44
0.0
173
     0
291
     1
 45
0.0
1001
ACAD
1000
AcDbSavedByObjectVersion
1070
     0
  0
VISUALSTYLE
  5
36
102
{ACAD_REACTORS
330
2A
102
}
330
2A
100
AcDbVisualStyle
  2
Brighten
 70
    12
 71
     2
 72
     2
 73
     0
 90
        0
 40
-0.6
 41
-30.0
 62
     5
 63
     7
 74
     1
 91
        4
 64
     7
 65
   257
 75
     1
175
     1
 42
1.0
 92
        8
 66
     7
 43
1.0
 76
     1
 77
     6
 78
     2
 67
     7
 79
     5
170
     0
171
     0
290
     0
174
     0
 93
        1
 44
50.0
173
     0
291
     1
 45
0.0
1001
ACAD
1000
AcDbSavedByObjectVersion
1070
     0
  0
VISUALSTYLE
  5
3A
102
{ACAD_REACTORS
330
2A
102
}
330
2A
100
AcDbVisualStyle
  2
ColorChange
 70
    16
 71
     2
 72
     2
 73
     3
 90
        0
 40
-0.6
 41
-30.0
 62
     5
 63
     8
 74
     1
 91
        4
 64
     7
 65
   257
 75
     1
175
     1
 42
1.0
 92
        8
 66
     8
 43
1.0
 76
     1
 77
     6
 78
     2
 67
     7
 79
     5
170
     0
171
     0
290
     0
174
     0
 93
        1
 44
0.0
173
     0
291
     1
 45
0.0
1001
ACAD
1000
AcDbSavedByObjectVersion
1070
     0
  0
VISUALSTYLE
  5
34
102
{ACAD_REACTORS
330
2A
102
}
330
2A
100
AcDbVisualStyle
  2
Conceptual
 70
     9
 71
     3
 72
     2
 73
     0
 90
        0
 40
-0.6
 41
-30.0
 62
     5
 63
     7
 74
     2
 91
        2
 64
     7
 65
   257
 75
     1
175
     1
 42
40.0
 92
        8
 66
     7
 43
1.0
 76
     1
 77
     6
 78
     2
 67
     7
 79
     3
170
     0
171
     0
290
     0
174
     0
 93
        1
 44
0.0
173
     0
291
     0
 45
0.0
1001
ACAD
1000
AcDbSavedByObjectVersion
1070
     0
  0
VISUALSTYLE
  5
35
102
{ACAD_REACTORS
330
2A
102
}
330
2A
100
AcDbVisualStyle
  2
Dim
 70
    11
 71
     2
 72
     2
 73
     0
 90
        0
 40
-0.6
 41
-30.0
 62
     5
 63
     7
 74
     1
 91
        4
 64
     7
 65
   257
 75
     1
175
     1
 42
1.0
 92
        8
 66
     7
 43
1.0
 76
     1
 77
     6
 78
     2
 67
     7
 79
     5
170
     0
171
     0
290
     0
174
     0
 93
        1
 44
-50.0
173
     0
291
     1
 45
0.0
1001
ACAD
1000
AcDbSavedByObjectVersion
1070
     0
  0
VISUALSTYLE
  5
39
102
{ACAD_REACTORS
330
2A
102
}
330
2A
100
AcDbVisualStyle
  2
Facepattern
 70
    15
 71
     2
 72
     2
 73
     0
 90
        0
 40
-0.6
 41
-30.0
 62
     5
 63
     7
 74
     1
 91
        4
 64
     7
 65
   257
 75
     1
175
     1
 42
1.0
 92
        8
 66
     7
 43
1.0
 76
     1
 77
     6
 78
     2
 67
     7
 79
     5
170
     0
171
     0
290
     0
174
     0
 93
        1
 44
0.0
173
     0
291
     1
 45
0.0
1001
ACAD
1000
AcDbSavedByObjectVersion
1070
     0
  0
VISUALSTYLE
  5
2B
102
{ACAD_REACTORS
330
2A
102
}
330
2A
100
AcDbVisualStyle
  2
Flat
 70
     0
 71
     2
 72
     1
 73
     1
 90
        2
 40
-0.6
 41
30.0
 62
     5
 63
     7
 74
     0
 91
        4
 64
     7
 65
   257
 75
     1
175
     1
 42
1.0
 92
        8
 66
     7
 43
1.0
 76
     1
 77
     6
 78
     2
 67
     7
 79
     5
170
     0
171
     0
290
     0
174
     0
 93
       13
 44
0.0
173
     0
291
     1
 45
0.0
1001
ACAD
1000
AcDbSavedByObjectVersion
1070
     0
  0
VISUALSTYLE
  5
2C
102
{ACAD_REACTORS
330
2A
102
}
330
2A
100
AcDbVisualStyle
  2
FlatWithEdges
 70
     1
 71
     2
 72
     1
 73
     1
 90
        2
 40
-0.6
 41
30.0
 62
     5
 63
     7
 74
     1
 91
        4
 64
     7
 65
   257
 75
     1
175
     1
 42
1.0
 92
        0
 66
   257
 43
1.0
 76
     1
 77
     6
 78
     2
 67
     7
 79
     5
170
     0
171
     0
290
     0
174
     0
 93
       13
 44
0.0
173
     0
291
     1
 45
0.0
1001
ACAD
1000
AcDbSavedByObjectVersion
1070
     0
  0
VISUALSTYLE
  5
2D
102
{ACAD_REACTORS
330
2A
102
}
330
2A
100
AcDbVisualStyle
  2
Gouraud
 70
     2
 71
     2
 72
     2
 73
     1
 90
        2
 40
-0.6
 41
30.0
 62
     5
 63
     7
 74
     0
 91
        4
 64
     7
 65
   257
 75
     1
175
     1
 42
1.0
 92
        0
 66
     7
 43
1.0
 76
     1
 77
     6
 78
     2
 67
     7
 79
     5
170
     0
171
     0
290
     0
174
     0
 93
       13
 44
0.0
173
     0
291
     1
 45
0.0
1001
ACAD
1000
AcDbSavedByObjectVersion
1070
     0
  0
VISUALSTYLE
  5
2E
102
{ACAD_REACTORS
330
2A
102
}
330
2A
100
AcDbVisualStyle
  2
GouraudWithEdges
 70
     3
 71
     2
 72
     2
 73
     1
 90
        2
 40
-0.6
 41
30.0
 62
     5
 63
     7
 74
     1
 91
        4
 64
     7
 65
   257
 75
     1
175
     1
 42
1.0
 92
        0
 66
   257
 43
1.0
 76
     1
 77
     6
 78
     2
 67
     7
 79
     5
170
     0
171
     0
290
     0
174
     0
 93
       13
 44
0.0
173
     0
291
     1
 45
0.0
1001
ACAD
1000
AcDbSavedByObjectVersion
1070
     0
  0
VISUALSTYLE
  5
38
102
{ACAD_REACTORS
330
2A
102
}
330
2A
100
AcDbVisualStyle
  2
Linepattern
 70
    14
 71
     2
 72
     2
 73
     0
 90
        0
 40
-0.6
 41
-30.0
 62
     5
 63
     7
 74
     1
 91
        4
 64
     7
 65
   257
 75
     7
175
     7
 42
1.0
 92
        8
 66
     7
 43
1.0
 76
     1
 77
     6
 78
     2
 67
     7
 79
     5
170
     0
171
     0
290
     0
174
     0
 93
        1
 44
0.0
173
     0
291
     1
 45
0.0
1001
ACAD
1000
AcDbSavedByObjectVersion
1070
     0
  0
VISUALSTYLE
  5
33
102
{ACAD_REACTORS
330
2A
102
}
330
2A
100
AcDbVisualStyle
  2
Realistic
 70
     8
 71
     2
 72
     2
 73
     0
 90
        0
 40
-0.6
 41
-30.0
 62
     5
 63
     7
 74
     1
 91
        0
 64
     7
 65
   257
 75
     1
175
     1
 42
1.0
 92
        8
 66
     8
 43
1.0
 76
     1
 77
     6
 78
     2
 67
     7
 79
     5
170
     0
171
     0
290
     0
174
     0
 93
       13
 44
0.0
173
     0
291
     0
 45
0.0
1001
ACAD
1000
AcDbSavedByObjectVersion
1070
     0
  0
VISUALSTYLE
  5
37
102
{ACAD_REACTORS
330
2A
102
}
330
2A
100
AcDbVisualStyle
  2
Thicken
 70
    13
 71
     2
 72
     2
 73
     0
 90
        0
 40
-0.6
 41
-30.0
 62
     5
 63
     7
 74
     1
 91
        4
 64
     7
 65
   257
 75
     1
175
     1
 42
1.0
 92
       12
 66
     7
 43
1.0
 76
     1
 77
     6
 78
     2
 67
     7
 79
     5
170
     0
171
     0
290
     0
174
     0
 93
        1
 44
0.0
173
     0
291
     1
 45
0.0
1001
ACAD
1000
AcDbSavedByObjectVersion
1070
     0
  0
DICTIONARYVAR
  5
59D
102
{ACAD_REACTORS
330
59B
102
}
330
59B
100
DictionaryVariables
280
     0
  1
80.000000
  0
DICTIONARYVAR
  5
59C
102
{ACAD_REACTORS
330
59B
102
}
330
59B
100
DictionaryVariables
280
     0
  1
5.000000
  0
ENDSEC
  0
EOF
