  0
SECTION
  2
HEADER
  9
$ACADVER
  1
AC1015
  9
$ACADMAINTVER
 70
     6
  9
$DWGCODEPAGE
  3
ANSI_1252
  9
$INSBASE
 10
0.0
 20
0.0
 30
0.0
  9
$EXTMIN
 10
0.0
 20
0.0
 30
0.0
  9
$EXTMAX
 10
594.0
 20
420.0
 30
0.0
  9
$LIMMIN
 10
0.0
 20
0.0
  9
$LIMMAX
 10
594.0
 20
420.0
  9
$ORTHOMODE
 70
     0
  9
$REGENMODE
 70
     1
  9
$FILLMODE
 70
     1
  9
$QTEXTMODE
 70
     0
  9
$MIRRTEXT
 70
     1
  9
$LTSCALE
 40
1.0
  9
$ATTMODE
 70
     1
  9
$TEXTSIZE
 40
2.5
  9
$TRACEWID
 40
1.0
  9
$TEXTSTYLE
  7
Standard
  9
$CLAYER
  8
0
  9
$CELTYPE
  6
ByLayer
  9
$CECOLOR
 62
   256
  9
$CELTSCALE
 40
1.0
  9
$DISPSILH
 70
     0
  9
$DIMSCALE
 40
1.0
  9
$DIMASZ
 40
2.5
  9
$DIMEXO
 40
0.0
  9
$DIMDLI
 40
3.75
  9
$DIMRND
 40
0.0
  9
$DIMDLE
 40
0.0
  9
$DIMEXE
 40
1.0
  9
$DIMTP
 40
0.0
  9
$DIMTM
 40
0.0
  9
$DIMTXT
 40
2.5
  9
$DIMCEN
 40
2.5
  9
$DIMTSZ
 40
0.0
  9
$DIMTOL
 70
     0
  9
$DIMLIM
 70
     0
  9
$DIMTIH
 70
     1
  9
$DIMTOH
 70
     1
  9
$DIMSE1
 70
     0
  9
$DIMSE2
 70
     0
  9
$DIMTAD
 70
     1
  9
$DIMZIN
 70
     0
  9
$DIMBLK
  1

  9
$DIMASO
 70
     1
  9
$DIMSHO
 70
     1
  9
$DIMPOST
  1

  9
$DIMAPOST
  1

  9
$DIMALT
 70
     0
  9
$DIMALTD
 70
     3
  9
$DIMALTF
 40
0.0393700787
  9
$DIMLFAC
 40
1.0
  9
$DIMTOFL
 70
     1
  9
$DIMTVP
 40
0.0
  9
$DIMTIX
 70
     0
  9
$DIMSOXD
 70
     0
  9
$DIMSAH
 70
     0
  9
$DIMBLK1
  1

  9
$DIMBLK2
  1

  9
$DIMSTYLE
  2
ISO-25
  9
$DIMCLRD
 70
     0
  9
$DIMCLRE
 70
     0
  9
$DIMCLRT
 70
     0
  9
$DIMTFAC
 40
1.0
  9
$DIMGAP
 40
2.0
  9
$DIMJUST
 70
     0
  9
$DIMSD1
 70
     0
  9
$DIMSD2
 70
     0
  9
$DIMTOLJ
 70
     0
  9
$DIMTZIN
 70
     0
  9
$DIMALTZ
 70
     0
  9
$DIMALTTZ
 70
     0
  9
$DIMUPT
 70
     0
  9
$DIMDEC
 70
     2
  9
$DIMTDEC
 70
     2
  9
$DIMALTU
 70
     2
  9
$DIMALTTD
 70
     3
  9
$DIMTXSTY
  7
Standard
  9
$DIMAUNIT
 70
     0
  9
$DIMADEC
 70
     1
  9
$DIMALTRND
 40
0.0
  9
$DIMAZIN
 70
     0
  9
$DIMDSEP
 70
    44
  9
$DIMATFIT
 70
     3
  9
$DIMFRAC
 70
     0
  9
$DIMLDRBLK
  1

  9
$DIMLUNIT
 70
     2
  9
$DIMLWD
 70
    -2
  9
$DIMLWE
 70
    -2
  9
$DIMTMOVE
 70
     0
  9
$LUNITS
 70
     2
  9
$LUPREC
 70
     2
  9
$SKETCHINC
 40
1.0
  9
$FILLETRAD
 40
10.0
  9
$AUNITS
 70
     0
  9
$AUPREC
 70
     2
  9
$MENU
  1
.
  9
$ELEVATION
 40
0.0
  9
$PELEVATION
 40
0.0
  9
$THICKNESS
 40
0.0
  9
$LIMCHECK
 70
     0
  9
$CHAMFERA
 40
0.0
  9
$CHAMFERB
 40
0.0
  9
$CHAMFERC
 40
0.0
  9
$CHAMFERD
 40
0.0
  9
$SKPOLY
 70
     0
  9
$TDCREATE
 40
2457864.44134478
  9
$TDUCREATE
 40
2457864.358011447
  9
$TDUPDATE
 40
2457864.441353333
  9
$TDUUPDATE
 40
2457864.35802
  9
$TDINDWG
 40
0.0000000116
  9
$TDUSRTIMER
 40
0.0000000116
  9
$USRTIMER
 70
     1
  9
$ANGBASE
 50
0.0
  9
$ANGDIR
 70
     0
  9
$PDMODE
 70
     0
  9
$PDSIZE
 40
-1.0
  9
$PLINEWID
 40
0.0
  9
$SPLFRAME
 70
     0
  9
$SPLINETYPE
 70
     6
  9
$SPLINESEGS
 70
     8
  9
$HANDSEED
  5
45E
  9
$SURFTAB1
 70
     6
  9
$SURFTAB2
 70
     6
  9
$SURFTYPE
 70
     6
  9
$SURFU
 70
     6
  9
$SURFV
 70
     6
  9
$UCSBASE
  2

  9
$UCSNAME
  2

  9
$UCSORG
 10
0.0
 20
0.0
 30
0.0
  9
$UCSXDIR
 10
1.0
 20
0.0
 30
0.0
  9
$UCSYDIR
 10
0.0
 20
1.0
 30
0.0
  9
$UCSORTHOREF
  2

  9
$UCSORTHOVIEW
 70
     0
  9
$UCSORGTOP
 10
0.0
 20
0.0
 30
0.0
  9
$UCSORGBOTTOM
 10
0.0
 20
0.0
 30
0.0
  9
$UCSORGLEFT
 10
0.0
 20
0.0
 30
0.0
  9
$UCSORGRIGHT
 10
0.0
 20
0.0
 30
0.0
  9
$UCSORGFRONT
 10
0.0
 20
0.0
 30
0.0
  9
$UCSORGBACK
 10
0.0
 20
0.0
 30
0.0
  9
$PUCSBASE
  2

  9
$PUCSNAME
  2

  9
$PUCSORG
 10
0.0
 20
0.0
 30
0.0
  9
$PUCSXDIR
 10
1.0
 20
0.0
 30
0.0
  9
$PUCSYDIR
 10
0.0
 20
1.0
 30
0.0
  9
$PUCSORTHOREF
  2

  9
$PUCSORTHOVIEW
 70
     0
  9
$PUCSORGTOP
 10
0.0
 20
0.0
 30
0.0
  9
$PUCSORGBOTTOM
 10
0.0
 20
0.0
 30
0.0
  9
$PUCSORGLEFT
 10
0.0
 20
0.0
 30
0.0
  9
$PUCSORGRIGHT
 10
0.0
 20
0.0
 30
0.0
  9
$PUCSORGFRONT
 10
0.0
 20
0.0
 30
0.0
  9
$PUCSORGBACK
 10
0.0
 20
0.0
 30
0.0
  9
$USERI1
 70
     0
  9
$USERI2
 70
     0
  9
$USERI3
 70
     0
  9
$USERI4
 70
     0
  9
$USERI5
 70
     0
  9
$USERR1
 40
0.0
  9
$USERR2
 40
0.0
  9
$USERR3
 40
0.0
  9
$USERR4
 40
0.0
  9
$USERR5
 40
0.0
  9
$WORLDVIEW
 70
     1
  9
$SHADEDGE
 70
     3
  9
$SHADEDIF
 70
    70
  9
$TILEMODE
 70
     1
  9
$MAXACTVP
 70
    64
  9
$PINSBASE
 10
0.0
 20
0.0
 30
0.0
  9
$PLIMCHECK
 70
     0
  9
$PEXTMIN
 10
1.0000000000E+20
 20
1.0000000000E+20
 30
1.0000000000E+20
  9
$PEXTMAX
 10
-1.0000000000E+20
 20
-1.0000000000E+20
 30
-1.0000000000E+20
  9
$PLIMMIN
 10
0.0
 20
0.0
  9
$PLIMMAX
 10
420.0
 20
297.0
  9
$UNITMODE
 70
     0
  9
$VISRETAIN
 70
     1
  9
$PLINEGEN
 70
     0
  9
$PSLTSCALE
 70
     1
  9
$TREEDEPTH
 70
  3020
  9
$CMLSTYLE
  2
Standard
  9
$CMLJUST
 70
     0
  9
$CMLSCALE
 40
20.0
  9
$PROXYGRAPHICS
 70
     1
  9
$MEASUREMENT
 70
     1
  9
$CELWEIGHT
370
    -1
  9
$ENDCAPS
280
     0
  9
$JOINSTYLE
280
     0
  9
$LWDISPLAY
290
     1
  9
$INSUNITS
 70
     4
  9
$HYPERLINKBASE
  1

  9
$STYLESHEET
  1

  9
$XEDIT
290
     1
  9
$CEPSNTYPE
380
     0
  9
$PSTYLEMODE
290
     1
  9
$FINGERPRINTGUID
  2
{81811A50-69D0-4BD9-9499-F59B253079A6}
  9
$VERSIONGUID
  2
{FAEB1C32-E019-11D5-929B-00C0DF256EC4}
  9
$EXTNAMES
290
     1
  9
$PSVPSCALE
 40
0.0
  9
$OLESTARTUP
290
     0
  0
ENDSEC
  0
SECTION
  2
CLASSES
  0
CLASS
  1
ACDBDICTIONARYWDFLT
  2
AcDbDictionaryWithDefault
  3
ObjectDBX Classes
 90
        0
280
     0
281
     0
  0
CLASS
  1
VISUALSTYLE
  2
AcDbVisualStyle
  3
ObjectDBX Classes
 90
     4095
280
     0
281
     0
  0
CLASS
  1
MATERIAL
  2
AcDbMaterial
  3
ObjectDBX Classes
 90
     1153
280
     0
281
     0
  0
CLASS
  1
SCALE
  2
AcDbScale
  3
ObjectDBX Classes
 90
     1153
280
     0
281
     0
  0
CLASS
  1
TABLESTYLE
  2
AcDbTableStyle
  3
ObjectDBX Classes
 90
     4095
280
     0
281
     0
  0
CLASS
  1
MLEADERSTYLE
  2
AcDbMLeaderStyle
  3
ACDB_MLEADERSTYLE_CLASS
 90
     4095
280
     0
281
     0
  0
CLASS
  1
SUN
  2
AcDbSun
  3
SCENEOE
 90
     1153
280
     0
281
     0
  0
CLASS
  1
ACDBPLACEHOLDER
  2
AcDbPlaceHolder
  3
ObjectDBX Classes
 90
        0
280
     0
281
     0
  0
CLASS
  1
LAYOUT
  2
AcDbLayout
  3
ObjectDBX Classes
 90
        0
280
     0
281
     0
  0
ENDSEC
  0
SECTION
  2
TABLES
  0
TABLE
  2
VPORT
  5
8
330
0
100
AcDbSymbolTable
 70
     1
  0
VPORT
  5
29
330
8
100
AcDbSymbolTableRecord
100
AcDbViewportTableRecord
  2
*Active
 70
     0
 10
0.0
 20
0.0
 11
1.0
 21
1.0
 12
297.0
 22
210.0
 13
0.0
 23
0.0
 14
10.0
 24
10.0
 15
10.0
 25
10.0
 16
0.0
 26
0.0
 36
1.0
 17
0.0
 27
0.0
 37
0.0
 40
420.0
 41
1.4142857143
 42
50.0
 43
0.0
 44
0.0
 50
0.0
 51
0.0
 71
     0
 72
  2000
 73
     1
 74
     3
 75
     0
 76
     0
 77
     0
 78
     0
281
     0
 65
     1
110
0.0
120
0.0
130
0.0
111
1.0
121
0.0
131
0.0
112
0.0
122
1.0
132
0.0
 79
     0
146
0.0
  0
ENDTAB
  0
TABLE
  2
LTYPE
  5
5
330
0
100
AcDbSymbolTable
 70
     6
  0
LTYPE
  5
14
330
5
100
AcDbSymbolTableRecord
100
AcDbLinetypeTableRecord
  2
ByBlock
 70
     0
  3

 72
    65
 73
     0
 40
0.0
  0
LTYPE
  5
15
330
5
100
AcDbSymbolTableRecord
100
AcDbLinetypeTableRecord
  2
ByLayer
 70
     0
  3

 72
    65
 73
     0
 40
0.0
  0
LTYPE
  5
16
330
5
100
AcDbSymbolTableRecord
100
AcDbLinetypeTableRecord
  2
Continuous
 70
     0
  3
Solid line
 72
    65
 73
     0
 40
0.0
  0
LTYPE
  5
6E
330
5
100
AcDbSymbolTableRecord
100
AcDbLinetypeTableRecord
  2
HIDDEN
 70
     0
  3
Hidden __ __ __ __ __ __ __ __ __ __ __ __ __ __
 72
    65
 73
     2
 40
1.905
 49
1.27
 74
     0
 49
-0.635
 74
     0
  0
LTYPE
  5
6F
330
5
100
AcDbSymbolTableRecord
100
AcDbLinetypeTableRecord
  2
PHANTOM
 70
     0
  3
Phantom ______  __  __  ______  __  __  ______
 72
    65
 73
     6
 40
12.7
 49
6.35
 74
     0
 49
-1.27
 74
     0
 49
1.27
 74
     0
 49
-1.27
 74
     0
 49
1.27
 74
     0
 49
-1.27
 74
     0
  0
LTYPE
  5
70
330
5
100
AcDbSymbolTableRecord
100
AcDbLinetypeTableRecord
  2
CENTER
 70
     0
  3
Center ____ _ ____ _ ____ _ ____ _ ____ _ ____
 72
    65
 73
     4
 40
10.16
 49
6.35
 74
     0
 49
-1.27
 74
     0
 49
1.27
 74
     0
 49
-1.27
 74
     0
  0
LTYPE
  5
71
330
5
100
AcDbSymbolTableRecord
100
AcDbLinetypeTableRecord
  2
CENTERX2
 70
     0
  3
Center (2x) ________  __  ________  __  _____
 72
    65
 73
     4
 40
20.32
 49
12.7
 74
     0
 49
-2.54
 74
     0
 49
2.54
 74
     0
 49
-2.54
 74
     0
  0
LTYPE
  5
72
330
5
100
AcDbSymbolTableRecord
100
AcDbLinetypeTableRecord
  2
DOT2
 70
     0
  3
Dot (.5x) ........................................
 72
    65
 73
     2
 40
0.635
 49
0.0
 74
     0
 49
-0.635
 74
     0
  0
ENDTAB
  0
TABLE
  2
LAYER
  5
2
330
0
100
AcDbSymbolTable
 70
     3
  0
LAYER
  5
10
330
2
100
AcDbSymbolTableRecord
100
AcDbLayerTableRecord
  2
0
 70
     0
 62
     7
  6
Continuous
370
    -3
390
F
  0
LAYER
  5
73
330
2
100
AcDbSymbolTableRecord
100
AcDbLayerTableRecord
  2
REVISIONNOTES
 70
     0
 62
     1
  6
Continuous
370
    -3
390
F
  0
LAYER
  5
74
330
2
100
AcDbSymbolTableRecord
100
AcDbLayerTableRecord
  2
1
 70
     0
 62
   179
  6
Continuous
370
    -3
390
F
  0
ENDTAB
  0
TABLE
  2
STYLE
  5
3
330
0
100
AcDbSymbolTable
 70
     3
  0
STYLE
  5
11
330
3
100
AcDbSymbolTableRecord
100
AcDbTextStyleTableRecord
  2
Standard
 70
     0
 40
0.0
 41
1.0
 50
0.0
 71
     0
 42
2.5
  3
txt
  4

  0
STYLE
  5
143
330
3
100
AcDbSymbolTableRecord
100
AcDbTextStyleTableRecord
  2
SLDTEXTSTYLE0
 70
     0
 40
0.0
 41
0.605
 50
0.0
 71
     0
 42
2.5
  3
TXT
  4

  0
STYLE
  5
148
330
3
100
AcDbSymbolTableRecord
100
AcDbTextStyleTableRecord
  2
SLDTEXTSTYLE1
 70
     0
 40
0.0
 41
0.75
 50
0.0
 71
     0
 42
2.5
  3
TXT
  4

  0
ENDTAB
  0
TABLE
  2
VIEW
  5
6
330
0
100
AcDbSymbolTable
 70
     0
  0
ENDTAB
  0
TABLE
  2
UCS
  5
7
330
0
100
AcDbSymbolTable
 70
     0
  0
ENDTAB
  0
TABLE
  2
APPID
  5
9
330
0
100
AcDbSymbolTable
 70
     1
  0
APPID
  5
12
330
9
100
AcDbSymbolTableRecord
100
AcDbRegAppTableRecord
  2
ACAD
 70
     0
  0
ENDTAB
  0
TABLE
  2
DIMSTYLE
  5
A
330
0
100
AcDbSymbolTable
 70
     6
100
AcDbDimStyleTable
  0
DIMSTYLE
105
27
330
A
100
AcDbSymbolTableRecord
100
AcDbDimStyleTableRecord
  2
ISO-25
 70
     0
 41
2.5
 42
0.625
 43
3.75
 44
1.25
 73
     0
 74
     0
 77
     1
 78
     8
140
2.5
141
2.5
143
0.0393700787
147
0.625
171
     3
172
     1
178
     0
271
     2
272
     2
274
     3
278
    44
283
     0
284
     8
340
11
  0
DIMSTYLE
105
1ED
102
{ACAD_REACTORS
330
1EC
330
262
330
299
330
2A3
330
2AD
330
2B9
330
31C
102
}
330
A
100
AcDbSymbolTableRecord
100
AcDbDimStyleTableRecord
  2
SLDDIMSTYLE0
 70
     0
 41
2.5
 44
0.0
 45
0.000000001
 73
     0
 74
     0
 77
     1
 78
    12
 79
     3
140
2.5
147
0.625
172
     1
173
     1
178
     0
271
     2
272
     2
276
     2
284
    12
289
     0
340
143
  0
DIMSTYLE
105
21C
102
{ACAD_REACTORS
330
21B
330
226
330
230
330
23A
330
244
330
24E
330
258
330
26E
330
27A
330
2C3
330
2CC
330
2D7
330
2E1
330
2EB
330
2F5
330
2FF
330
312
330
328
330
33B
102
}
330
A
100
AcDbSymbolTableRecord
100
AcDbDimStyleTableRecord
  2
SLDDIMSTYLE1
 70
     0
 41
2.5
 44
0.0
 45
0.000000001
 73
     0
 74
     0
 77
     1
 78
    12
 79
     3
140
2.5
147
0.625
173
     1
178
     0
271
     2
272
     2
276
     2
284
    12
340
143
  0
DIMSTYLE
105
287
102
{ACAD_REACTORS
330
286
330
290
330
309
330
332
102
}
330
A
100
AcDbSymbolTableRecord
100
AcDbDimStyleTableRecord
  2
SLDDIMSTYLE2
 70
     0
 41
2.5
 44
0.0
 45
0.000000001
 73
     0
 74
     0
 77
     1
 78
    12
 79
     3
140
2.5
141
0.0
147
0.625
173
     1
178
     0
271
     2
272
     2
276
     2
284
    12
340
143
  0
DIMSTYLE
105
3A5
102
{ACAD_REACTORS
330
3A4
102
}
330
A
100
AcDbSymbolTableRecord
100
AcDbDimStyleTableRecord
  2
SLDDIMSTYLE3
 70
     0
 41
2.5
 44
0.0
 45
0.000000001
 47
0.1
 71
     1
 73
     0
 74
     0
 77
     1
 78
    12
 79
     3
140
2.5
147
0.625
173
     1
178
     0
271
     2
272
     1
276
     2
284
     8
340
143
  0
DIMSTYLE
105
3B8
102
{ACAD_REACTORS
330
3B7
102
}
330
A
100
AcDbSymbolTableRecord
100
AcDbDimStyleTableRecord
  2
SLDDIMSTYLE4
 70
     0
 41
2.5
 44
0.0
 45
0.000000001
 48
0.6
 71
     1
 73
     0
 74
     0
 77
     1
 78
    12
 79
     3
140
2.5
147
0.625
172
     1
173
     1
178
     0
271
     2
272
     1
276
     2
284
     8
289
     0
340
143
  0
ENDTAB
  0
TABLE
  2
BLOCK_RECORD
  5
1
330
0
100
AcDbSymbolTable
 70
    44
  0
BLOCK_RECORD
  5
1F
330
1
100
AcDbSymbolTableRecord
100
AcDbBlockTableRecord
  2
*Model_Space
340
22
  0
BLOCK_RECORD
  5
1B
330
1
100
AcDbSymbolTableRecord
100
AcDbBlockTableRecord
  2
*Paper_Space
340
1E
  0
BLOCK_RECORD
  5
23
330
1
100
AcDbSymbolTableRecord
100
AcDbBlockTableRecord
  2
*Paper_Space0
340
26
  0
BLOCK_RECORD
  5
1EE
330
1
100
AcDbSymbolTableRecord
100
AcDbBlockTableRecord
  2
_D
340
0
  0
BLOCK_RECORD
  5
21D
330
1
100
AcDbSymbolTableRecord
100
AcDbBlockTableRecord
  2
_D_1
340
0
  0
BLOCK_RECORD
  5
227
330
1
100
AcDbSymbolTableRecord
100
AcDbBlockTableRecord
  2
_D_2
340
0
  0
BLOCK_RECORD
  5
231
330
1
100
AcDbSymbolTableRecord
100
AcDbBlockTableRecord
  2
_D_3
340
0
  0
BLOCK_RECORD
  5
23B
330
1
100
AcDbSymbolTableRecord
100
AcDbBlockTableRecord
  2
_D_4
340
0
  0
BLOCK_RECORD
  5
245
330
1
100
AcDbSymbolTableRecord
100
AcDbBlockTableRecord
  2
_D_5
340
0
  0
BLOCK_RECORD
  5
24F
330
1
100
AcDbSymbolTableRecord
100
AcDbBlockTableRecord
  2
_D_6
340
0
  0
BLOCK_RECORD
  5
259
330
1
100
AcDbSymbolTableRecord
100
AcDbBlockTableRecord
  2
_D_7
340
0
  0
BLOCK_RECORD
  5
263
330
1
100
AcDbSymbolTableRecord
100
AcDbBlockTableRecord
  2
_D_8
340
0
  0
BLOCK_RECORD
  5
26F
330
1
100
AcDbSymbolTableRecord
100
AcDbBlockTableRecord
  2
_D_9
340
0
  0
BLOCK_RECORD
  5
27B
330
1
100
AcDbSymbolTableRecord
100
AcDbBlockTableRecord
  2
_D_10
340
0
  0
BLOCK_RECORD
  5
288
330
1
100
AcDbSymbolTableRecord
100
AcDbBlockTableRecord
  2
_D_11
340
0
  0
BLOCK_RECORD
  5
291
330
1
100
AcDbSymbolTableRecord
100
AcDbBlockTableRecord
  2
_D_12
340
0
  0
BLOCK_RECORD
  5
29A
330
1
100
AcDbSymbolTableRecord
100
AcDbBlockTableRecord
  2
_D_13
340
0
  0
BLOCK_RECORD
  5
2A4
330
1
100
AcDbSymbolTableRecord
100
AcDbBlockTableRecord
  2
_D_14
340
0
  0
BLOCK_RECORD
  5
2AE
330
1
100
AcDbSymbolTableRecord
100
AcDbBlockTableRecord
  2
_D_15
340
0
  0
BLOCK_RECORD
  5
2BA
330
1
100
AcDbSymbolTableRecord
100
AcDbBlockTableRecord
  2
_D_16
340
0
  0
BLOCK_RECORD
  5
2C4
330
1
100
AcDbSymbolTableRecord
100
AcDbBlockTableRecord
  2
_D_17
340
0
  0
BLOCK_RECORD
  5
2CD
330
1
100
AcDbSymbolTableRecord
100
AcDbBlockTableRecord
  2
_D_18
340
0
  0
BLOCK_RECORD
  5
2D8
330
1
100
AcDbSymbolTableRecord
100
AcDbBlockTableRecord
  2
_D_19
340
0
  0
BLOCK_RECORD
  5
2E2
330
1
100
AcDbSymbolTableRecord
100
AcDbBlockTableRecord
  2
_D_20
340
0
  0
BLOCK_RECORD
  5
2EC
330
1
100
AcDbSymbolTableRecord
100
AcDbBlockTableRecord
  2
_D_21
340
0
  0
BLOCK_RECORD
  5
2F6
330
1
100
AcDbSymbolTableRecord
100
AcDbBlockTableRecord
  2
_D_22
340
0
  0
BLOCK_RECORD
  5
300
330
1
100
AcDbSymbolTableRecord
100
AcDbBlockTableRecord
  2
_D_23
340
0
  0
BLOCK_RECORD
  5
30A
330
1
100
AcDbSymbolTableRecord
100
AcDbBlockTableRecord
  2
_D_24
340
0
  0
BLOCK_RECORD
  5
313
330
1
100
AcDbSymbolTableRecord
100
AcDbBlockTableRecord
  2
_D_25
340
0
  0
BLOCK_RECORD
  5
31D
330
1
100
AcDbSymbolTableRecord
100
AcDbBlockTableRecord
  2
_D_26
340
0
  0
BLOCK_RECORD
  5
329
330
1
100
AcDbSymbolTableRecord
100
AcDbBlockTableRecord
  2
_D_27
340
0
  0
BLOCK_RECORD
  5
333
330
1
100
AcDbSymbolTableRecord
100
AcDbBlockTableRecord
  2
_D_28
340
0
  0
BLOCK_RECORD
  5
33C
330
1
100
AcDbSymbolTableRecord
100
AcDbBlockTableRecord
  2
_D_29
340
0
  0
BLOCK_RECORD
  5
346
330
1
100
AcDbSymbolTableRecord
100
AcDbBlockTableRecord
  2
SW_CENTERMARKSYMBOL_0
340
0
102
{BLKREFS
331
351
102
}
  0
BLOCK_RECORD
  5
352
330
1
100
AcDbSymbolTableRecord
100
AcDbBlockTableRecord
  2
SW_CENTERMARKSYMBOL_1
340
0
102
{BLKREFS
331
35D
102
}
  0
BLOCK_RECORD
  5
35E
330
1
100
AcDbSymbolTableRecord
100
AcDbBlockTableRecord
  2
SW_CENTERMARKSYMBOL_2
340
0
102
{BLKREFS
331
369
102
}
  0
BLOCK_RECORD
  5
36A
330
1
100
AcDbSymbolTableRecord
100
AcDbBlockTableRecord
  2
SW_CENTERMARKSYMBOL_3
340
0
102
{BLKREFS
331
375
102
}
  0
BLOCK_RECORD
  5
376
330
1
100
AcDbSymbolTableRecord
100
AcDbBlockTableRecord
  2
SW_CENTERMARKSYMBOL_4
340
0
102
{BLKREFS
331
381
102
}
  0
BLOCK_RECORD
  5
3A6
330
1
100
AcDbSymbolTableRecord
100
AcDbBlockTableRecord
  2
_D_30
340
0
  0
BLOCK_RECORD
  5
3B9
330
1
100
AcDbSymbolTableRecord
100
AcDbBlockTableRecord
  2
_D_31
340
0
  0
BLOCK_RECORD
  5
3CA
330
1
100
AcDbSymbolTableRecord
100
AcDbBlockTableRecord
  2
SW_NOTE_0
340
0
102
{BLKREFS
331
3CF
102
}
  0
BLOCK_RECORD
  5
3D0
330
1
100
AcDbSymbolTableRecord
100
AcDbBlockTableRecord
  2
SW_CENTERMARKSYMBOL_5
340
0
102
{BLKREFS
331
3DB
102
}
  0
BLOCK_RECORD
  5
3DC
330
1
100
AcDbSymbolTableRecord
100
AcDbBlockTableRecord
  2
SW_CENTERMARKSYMBOL_6
340
0
102
{BLKREFS
331
3E7
102
}
  0
BLOCK_RECORD
  5
3E8
330
1
100
AcDbSymbolTableRecord
100
AcDbBlockTableRecord
  2
SW_CENTERMARKSYMBOL_7
340
0
102
{BLKREFS
331
3F3
102
}
  0
BLOCK_RECORD
  5
3F4
330
1
100
AcDbSymbolTableRecord
100
AcDbBlockTableRecord
  2
SW_CENTERMARKSYMBOL_8
340
0
102
{BLKREFS
331
3FF
102
}
  0
BLOCK_RECORD
  5
400
330
1
100
AcDbSymbolTableRecord
100
AcDbBlockTableRecord
  2
SW_CENTERMARKSYMBOL_9
340
0
102
{BLKREFS
331
40B
102
}
  0
ENDTAB
  0
ENDSEC
  0
SECTION
  2
BLOCKS
  0
BLOCK
  5
20
330
1F
100
AcDbEntity
  8
0
100
AcDbBlockBegin
  2
*Model_Space
 70
     0
 10
0.0
 20
0.0
 30
0.0
  3
*Model_Space
  1

  0
ENDBLK
  5
21
330
1F
100
AcDbEntity
  8
0
100
AcDbBlockEnd
  0
BLOCK
  5
1C
330
1B
100
AcDbEntity
 67
     1
  8
0
100
AcDbBlockBegin
  2
*Paper_Space
 70
     0
 10
0.0
 20
0.0
 30
0.0
  3
*Paper_Space
  1

  0
ENDBLK
  5
1D
330
1B
100
AcDbEntity
 67
     1
  8
0
100
AcDbBlockEnd
  0
BLOCK
  5
24
330
23
100
AcDbEntity
  8
0
100
AcDbBlockBegin
  2
*Paper_Space0
 70
     0
 10
0.0
 20
0.0
 30
0.0
  3
*Paper_Space0
  1

  0
ENDBLK
  5
25
330
23
100
AcDbEntity
  8
0
100
AcDbBlockEnd
  0
BLOCK
  5
1EF
330
1EE
100
AcDbEntity
  8
0
100
AcDbBlockBegin
  2
_D
 70
     0
 10
0.0
 20
0.0
 30
0.0
  3
_D
  1

  0
SOLID
  5
1F1
330
1EE
100
AcDbEntity
  8
0
  6
Continuous
 62
     8
370
     0
100
AcDbTrace
 10
124.7547190445
 20
210.4744312649
 30
0.0
 11
125.1393344291
 21
212.9744312649
 31
0.0
 12
124.3701036599
 22
212.9744312649
 32
0.0
 13
124.3701036599
 23
212.9744312649
 33
0.0
  0
SOLID
  5
1F2
330
1EE
100
AcDbEntity
  8
0
  6
Continuous
 62
     8
370
     0
100
AcDbTrace
 10
124.7547190445
 20
207.4744312649
 30
0.0
 11
124.3701036599
 21
204.9744312649
 31
0.0
 12
125.1393344291
 22
204.9744312649
 32
0.0
 13
125.1393344291
 23
204.9744312649
 33
0.0
  0
LINE
  5
1F3
330
1EE
100
AcDbEntity
  8
0
  6
Continuous
 62
     8
370
     0
100
AcDbLine
 10
139.3838272048
 20
210.4744312649
 30
0.0
 11
123.7547190445
 21
210.4744312649
 31
0.0
  0
LINE
  5
1F4
330
1EE
100
AcDbEntity
  8
0
  6
Continuous
 62
     8
370
     0
100
AcDbLine
 10
139.3838272048
 20
207.4744312649
 30
0.0
 11
123.7547190445
 21
207.4744312649
 31
0.0
  0
LINE
  5
1F5
330
1EE
100
AcDbEntity
  8
0
  6
Continuous
 62
     8
370
     0
100
AcDbLine
 10
124.7547190445
 20
210.4744312649
 30
0.0
 11
124.7547190445
 21
220.6623034757
 31
0.0
  0
LINE
  5
1F6
330
1EE
100
AcDbEntity
  8
0
  6
Continuous
 62
     8
370
     0
100
AcDbLine
 10
124.7547190445
 20
210.4744312649
 30
0.0
 11
124.7547190445
 21
207.4744312649
 31
0.0
  0
LINE
  5
1F7
330
1EE
100
AcDbEntity
  8
0
  6
Continuous
 62
     8
370
     0
100
AcDbLine
 10
124.7547190445
 20
207.4744312649
 30
0.0
 11
124.7547190445
 21
202.6667389572
 31
0.0
  0
MTEXT
  5
1F8
330
1EE
100
AcDbEntity
  8
0
  6
Continuous
 62
     8
370
     0
100
AcDbMText
 10
121.5320498697
 20
217.1701828759
 30
0.0
 40
2.5
 41
0.0
 71
     1
 72
     1
  1
3
  7
SLDTEXTSTYLE0
 11
-1.059690869644414E-14
 21
1.0
 31
0.0
 73
     1
 44
1.0
  0
ENDBLK
  5
1F0
330
1EE
100
AcDbEntity
  8
0
100
AcDbBlockEnd
  0
BLOCK
  5
21E
330
21D
100
AcDbEntity
  8
0
100
AcDbBlockBegin
  2
_D_1
 70
     0
 10
0.0
 20
0.0
 30
0.0
  3
_D_1
  1

  0
SOLID
  5
220
330
21D
100
AcDbEntity
  8
0
  6
Continuous
 62
     8
370
     0
100
AcDbTrace
 10
489.3838272048
 20
366.4649022965
 30
0.0
 11
486.8838272048
 21
366.8495176812
 31
0.0
 12
486.8838272048
 22
366.0802869119
 32
0.0
 13
486.8838272048
 23
366.0802869119
 33
0.0
  0
SOLID
  5
221
330
21D
100
AcDbEntity
  8
0
  6
Continuous
 62
     8
370
     0
100
AcDbTrace
 10
139.3838272048
 20
366.4649022965
 30
0.0
 11
141.8838272048
 21
366.0802869119
 31
0.0
 12
141.8838272048
 22
366.8495176812
 32
0.0
 13
141.8838272048
 23
366.8495176812
 33
0.0
  0
LINE
  5
222
330
21D
100
AcDbEntity
  8
0
  6
Continuous
 62
     8
370
     0
100
AcDbLine
 10
489.3838272048
 20
294.4649022965
 30
0.0
 11
489.3838272048
 21
367.4649022965
 31
0.0
  0
LINE
  5
223
330
21D
100
AcDbEntity
  8
0
  6
Continuous
 62
     8
370
     0
100
AcDbLine
 10
139.3838272048
 20
294.4649022965
 30
0.0
 11
139.3838272048
 21
367.4649022965
 31
0.0
  0
LINE
  5
224
330
21D
100
AcDbEntity
  8
0
  6
Continuous
 62
     8
370
     0
100
AcDbLine
 10
489.3838272048
 20
366.4649022965
 30
0.0
 11
139.3838272048
 21
366.4649022965
 31
0.0
  0
MTEXT
  5
225
330
21D
100
AcDbEntity
  8
0
  6
Continuous
 62
     8
370
     0
100
AcDbMText
 10
311.5213109075
 20
369.6875714714
 30
0.0
 40
2.5
 41
0.0
 71
     1
 72
     1
  1
350
  7
SLDTEXTSTYLE0
 73
     1
 44
1.0
  0
ENDBLK
  5
21F
330
21D
100
AcDbEntity
  8
0
100
AcDbBlockEnd
  0
BLOCK
  5
228
330
227
100
AcDbEntity
  8
0
100
AcDbBlockBegin
  2
_D_2
 70
     0
 10
0.0
 20
0.0
 30
0.0
  3
_D_2
  1

  0
SOLID
  5
22A
330
227
100
AcDbEntity
  8
0
  6
Continuous
 62
     8
370
     0
100
AcDbTrace
 10
328.3838272048
 20
352.4649022965
 30
0.0
 11
330.8838272048
 21
352.0802869119
 31
0.0
 12
330.8838272048
 22
352.8495176812
 32
0.0
 13
330.8838272048
 23
352.8495176812
 33
0.0
  0
SOLID
  5
22B
330
227
100
AcDbEntity
  8
0
  6
Continuous
 62
     8
370
     0
100
AcDbTrace
 10
489.3838272048
 20
352.4649022965
 30
0.0
 11
486.8838272048
 21
352.8495176812
 31
0.0
 12
486.8838272048
 22
352.0802869119
 32
0.0
 13
486.8838272048
 23
352.0802869119
 33
0.0
  0
LINE
  5
22C
330
227
100
AcDbEntity
  8
0
  6
Continuous
 62
     8
370
     0
100
AcDbLine
 10
328.3838272048
 20
314.4649022965
 30
0.0
 11
328.3838272048
 21
353.4649022965
 31
0.0
  0
LINE
  5
22D
330
227
100
AcDbEntity
  8
0
  6
Continuous
 62
     8
370
     0
100
AcDbLine
 10
489.3838272048
 20
294.4649022965
 30
0.0
 11
489.3838272048
 21
353.4649022965
 31
0.0
  0
LINE
  5
22E
330
227
100
AcDbEntity
  8
0
  6
Continuous
 62
     8
370
     0
100
AcDbLine
 10
328.3838272048
 20
352.4649022965
 30
0.0
 11
489.3838272048
 21
352.4649022965
 31
0.0
  0
MTEXT
  5
22F
330
227
100
AcDbEntity
  8
0
  6
Continuous
 62
     8
370
     0
100
AcDbMText
 10
406.0213109075
 20
355.6875714714
 30
0.0
 40
2.5
 41
0.0
 71
     1
 72
     1
  1
161
  7
SLDTEXTSTYLE0
 73
     1
 44
1.0
  0
ENDBLK
  5
229
330
227
100
AcDbEntity
  8
0
100
AcDbBlockEnd
  0
BLOCK
  5
232
330
231
100
AcDbEntity
  8
0
100
AcDbBlockBegin
  2
_D_3
 70
     0
 10
0.0
 20
0.0
 30
0.0
  3
_D_3
  1

  0
SOLID
  5
234
330
231
100
AcDbEntity
  8
0
  6
Continuous
 62
     8
370
     0
100
AcDbTrace
 10
328.3838272048
 20
352.4649022965
 30
0.0
 11
325.8838272048
 21
352.8495176812
 31
0.0
 12
325.8838272048
 22
352.0802869119
 32
0.0
 13
325.8838272048
 23
352.0802869119
 33
0.0
  0
SOLID
  5
235
330
231
100
AcDbEntity
  8
0
  6
Continuous
 62
     8
370
     0
100
AcDbTrace
 10
164.3838272048
 20
352.4649022965
 30
0.0
 11
166.8838272048
 21
352.0802869119
 31
0.0
 12
166.8838272048
 22
352.8495176812
 32
0.0
 13
166.8838272048
 23
352.8495176812
 33
0.0
  0
LINE
  5
236
330
231
100
AcDbEntity
  8
0
  6
Continuous
 62
     8
370
     0
100
AcDbLine
 10
328.3838272048
 20
314.4649022965
 30
0.0
 11
328.3838272048
 21
353.4649022965
 31
0.0
  0
LINE
  5
237
330
231
100
AcDbEntity
  8
0
  6
Continuous
 62
     8
370
     0
100
AcDbLine
 10
164.3838272048
 20
314.4649022965
 30
0.0
 11
164.3838272048
 21
353.4649022965
 31
0.0
  0
LINE
  5
238
330
231
100
AcDbEntity
  8
0
  6
Continuous
 62
     8
370
     0
100
AcDbLine
 10
328.3838272048
 20
352.4649022965
 30
0.0
 11
164.3838272048
 21
352.4649022965
 31
0.0
  0
MTEXT
  5
239
330
231
100
AcDbEntity
  8
0
  6
Continuous
 62
     8
370
     0
100
AcDbMText
 10
243.5213109075
 20
355.6875714714
 30
0.0
 40
2.5
 41
0.0
 71
     1
 72
     1
  1
164
  7
SLDTEXTSTYLE0
 73
     1
 44
1.0
  0
ENDBLK
  5
233
330
231
100
AcDbEntity
  8
0
100
AcDbBlockEnd
  0
BLOCK
  5
23C
330
23B
100
AcDbEntity
  8
0
100
AcDbBlockBegin
  2
_D_4
 70
     0
 10
0.0
 20
0.0
 30
0.0
  3
_D_4
  1

  0
SOLID
  5
23E
330
23B
100
AcDbEntity
  8
0
  6
Continuous
 62
     8
370
     0
100
AcDbTrace
 10
474.3838272048
 20
338.4649022965
 30
0.0
 11
471.8838272048
 21
338.8495176812
 31
0.0
 12
471.8838272048
 22
338.0802869119
 32
0.0
 13
471.8838272048
 23
338.0802869119
 33
0.0
  0
SOLID
  5
23F
330
23B
100
AcDbEntity
  8
0
  6
Continuous
 62
     8
370
     0
100
AcDbTrace
 10
429.3838272048
 20
338.4649022965
 30
0.0
 11
431.8838272048
 21
338.0802869119
 31
0.0
 12
431.8838272048
 22
338.8495176812
 32
0.0
 13
431.8838272048
 23
338.8495176812
 33
0.0
  0
LINE
  5
240
330
23B
100
AcDbEntity
  8
0
  6
Continuous
 62
     8
370
     0
100
AcDbLine
 10
474.3838272048
 20
301.9649022965
 30
0.0
 11
474.3838272048
 21
339.4649022965
 31
0.0
  0
LINE
  5
241
330
23B
100
AcDbEntity
  8
0
  6
Continuous
 62
     8
370
     0
100
AcDbLine
 10
429.3838272048
 20
301.9649022965
 30
0.0
 11
429.3838272048
 21
339.4649022965
 31
0.0
  0
LINE
  5
242
330
23B
100
AcDbEntity
  8
0
  6
Continuous
 62
     8
370
     0
100
AcDbLine
 10
474.3838272048
 20
338.4649022965
 30
0.0
 11
429.3838272048
 21
338.4649022965
 31
0.0
  0
MTEXT
  5
243
330
23B
100
AcDbEntity
  8
0
  6
Continuous
 62
     8
370
     0
100
AcDbMText
 10
449.9764139062
 20
341.6875714714
 30
0.0
 40
2.5
 41
0.0
 71
     1
 72
     1
  1
45
  7
SLDTEXTSTYLE0
 73
     1
 44
1.0
  0
ENDBLK
  5
23D
330
23B
100
AcDbEntity
  8
0
100
AcDbBlockEnd
  0
BLOCK
  5
246
330
245
100
AcDbEntity
  8
0
100
AcDbBlockBegin
  2
_D_5
 70
     0
 10
0.0
 20
0.0
 30
0.0
  3
_D_5
  1

  0
SOLID
  5
248
330
245
100
AcDbEntity
  8
0
  6
Continuous
 62
     8
370
     0
100
AcDbTrace
 10
429.3838272048
 20
338.4649022965
 30
0.0
 11
426.8838272048
 21
338.8495176812
 31
0.0
 12
426.8838272048
 22
338.0802869119
 32
0.0
 13
426.8838272048
 23
338.0802869119
 33
0.0
  0
SOLID
  5
249
330
245
100
AcDbEntity
  8
0
  6
Continuous
 62
     8
370
     0
100
AcDbTrace
 10
339.3838272048
 20
338.4649022965
 30
0.0
 11
341.8838272048
 21
338.0802869119
 31
0.0
 12
341.8838272048
 22
338.8495176812
 32
0.0
 13
341.8838272048
 23
338.8495176812
 33
0.0
  0
LINE
  5
24A
330
245
100
AcDbEntity
  8
0
  6
Continuous
 62
     8
370
     0
100
AcDbLine
 10
429.3838272048
 20
301.9649022965
 30
0.0
 11
429.3838272048
 21
339.4649022965
 31
0.0
  0
LINE
  5
24B
330
245
100
AcDbEntity
  8
0
  6
Continuous
 62
     8
370
     0
100
AcDbLine
 10
339.3838272048
 20
301.9649022965
 30
0.0
 11
339.3838272048
 21
339.4649022965
 31
0.0
  0
LINE
  5
24C
330
245
100
AcDbEntity
  8
0
  6
Continuous
 62
     8
370
     0
100
AcDbLine
 10
429.3838272048
 20
338.4649022965
 30
0.0
 11
339.3838272048
 21
338.4649022965
 31
0.0
  0
MTEXT
  5
24D
330
245
100
AcDbEntity
  8
0
  6
Continuous
 62
     8
370
     0
100
AcDbMText
 10
382.4764139062
 20
341.6875714714
 30
0.0
 40
2.5
 41
0.0
 71
     1
 72
     1
  1
90
  7
SLDTEXTSTYLE0
 73
     1
 44
1.0
  0
ENDBLK
  5
247
330
245
100
AcDbEntity
  8
0
100
AcDbBlockEnd
  0
BLOCK
  5
250
330
24F
100
AcDbEntity
  8
0
100
AcDbBlockBegin
  2
_D_6
 70
     0
 10
0.0
 20
0.0
 30
0.0
  3
_D_6
  1

  0
SOLID
  5
252
330
24F
100
AcDbEntity
  8
0
  6
Continuous
 62
     8
370
     0
100
AcDbTrace
 10
339.3838272048
 20
338.4649022965
 30
0.0
 11
336.8838272048
 21
338.8495176812
 31
0.0
 12
336.8838272048
 22
338.0802869119
 32
0.0
 13
336.8838272048
 23
338.0802869119
 33
0.0
  0
SOLID
  5
253
330
24F
100
AcDbEntity
  8
0
  6
Continuous
 62
     8
370
     0
100
AcDbTrace
 10
249.3838272048
 20
338.4649022965
 30
0.0
 11
251.8838272048
 21
338.0802869119
 31
0.0
 12
251.8838272048
 22
338.8495176812
 32
0.0
 13
251.8838272048
 23
338.8495176812
 33
0.0
  0
LINE
  5
254
330
24F
100
AcDbEntity
  8
0
  6
Continuous
 62
     8
370
     0
100
AcDbLine
 10
339.3838272048
 20
301.9649022965
 30
0.0
 11
339.3838272048
 21
339.4649022965
 31
0.0
  0
LINE
  5
255
330
24F
100
AcDbEntity
  8
0
  6
Continuous
 62
     8
370
     0
100
AcDbLine
 10
249.3838272048
 20
301.9649022965
 30
0.0
 11
249.3838272048
 21
339.4649022965
 31
0.0
  0
LINE
  5
256
330
24F
100
AcDbEntity
  8
0
  6
Continuous
 62
     8
370
     0
100
AcDbLine
 10
339.3838272048
 20
338.4649022965
 30
0.0
 11
249.3838272048
 21
338.4649022965
 31
0.0
  0
MTEXT
  5
257
330
24F
100
AcDbEntity
  8
0
  6
Continuous
 62
     8
370
     0
100
AcDbMText
 10
292.4764139062
 20
341.6875714714
 30
0.0
 40
2.5
 41
0.0
 71
     1
 72
     1
  1
90
  7
SLDTEXTSTYLE0
 73
     1
 44
1.0
  0
ENDBLK
  5
251
330
24F
100
AcDbEntity
  8
0
100
AcDbBlockEnd
  0
BLOCK
  5
25A
330
259
100
AcDbEntity
  8
0
100
AcDbBlockBegin
  2
_D_7
 70
     0
 10
0.0
 20
0.0
 30
0.0
  3
_D_7
  1

  0
SOLID
  5
25C
330
259
100
AcDbEntity
  8
0
  6
Continuous
 62
     8
370
     0
100
AcDbTrace
 10
249.3838272048
 20
338.4649022965
 30
0.0
 11
246.8838272048
 21
338.8495176812
 31
0.0
 12
246.8838272048
 22
338.0802869119
 32
0.0
 13
246.8838272048
 23
338.0802869119
 33
0.0
  0
SOLID
  5
25D
330
259
100
AcDbEntity
  8
0
  6
Continuous
 62
     8
370
     0
100
AcDbTrace
 10
154.3838272048
 20
338.4649022965
 30
0.0
 11
156.8838272048
 21
338.0802869119
 31
0.0
 12
156.8838272048
 22
338.8495176812
 32
0.0
 13
156.8838272048
 23
338.8495176812
 33
0.0
  0
LINE
  5
25E
330
259
100
AcDbEntity
  8
0
  6
Continuous
 62
     8
370
     0
100
AcDbLine
 10
249.3838272048
 20
301.9649022965
 30
0.0
 11
249.3838272048
 21
339.4649022965
 31
0.0
  0
LINE
  5
25F
330
259
100
AcDbEntity
  8
0
  6
Continuous
 62
     8
370
     0
100
AcDbLine
 10
154.3838272048
 20
301.9649022965
 30
0.0
 11
154.3838272048
 21
339.4649022965
 31
0.0
  0
LINE
  5
260
330
259
100
AcDbEntity
  8
0
  6
Continuous
 62
     8
370
     0
100
AcDbLine
 10
249.3838272048
 20
338.4649022965
 30
0.0
 11
154.3838272048
 21
338.4649022965
 31
0.0
  0
MTEXT
  5
261
330
259
100
AcDbEntity
  8
0
  6
Continuous
 62
     8
370
     0
100
AcDbMText
 10
199.9764139062
 20
341.6875714714
 30
0.0
 40
2.5
 41
0.0
 71
     1
 72
     1
  1
95
  7
SLDTEXTSTYLE0
 73
     1
 44
1.0
  0
ENDBLK
  5
25B
330
259
100
AcDbEntity
  8
0
100
AcDbBlockEnd
  0
BLOCK
  5
264
330
263
100
AcDbEntity
  8
0
100
AcDbBlockBegin
  2
_D_8
 70
     0
 10
0.0
 20
0.0
 30
0.0
  3
_D_8
  1

  0
SOLID
  5
266
330
263
100
AcDbEntity
  8
0
  6
Continuous
 62
     8
370
     0
100
AcDbTrace
 10
324.3838272048
 20
324.3694462689
 30
0.0
 11
321.8838272048
 21
324.7540616535
 31
0.0
 12
321.8838272048
 22
323.9848308842
 32
0.0
 13
321.8838272048
 23
323.9848308842
 33
0.0
  0
SOLID
  5
267
330
263
100
AcDbEntity
  8
0
  6
Continuous
 62
     8
370
     0
100
AcDbTrace
 10
328.3838272048
 20
324.3694462689
 30
0.0
 11
330.8838272048
 21
323.9848308842
 31
0.0
 12
330.8838272048
 22
324.7540616535
 32
0.0
 13
330.8838272048
 23
324.7540616535
 33
0.0
  0
LINE
  5
268
330
263
100
AcDbEntity
  8
0
  6
Continuous
 62
     8
370
     0
100
AcDbLine
 10
324.3838272048
 20
298.4649022965
 30
0.0
 11
324.3838272048
 21
325.3694462689
 31
0.0
  0
LINE
  5
269
330
263
100
AcDbEntity
  8
0
  6
Continuous
 62
     8
370
     0
100
AcDbLine
 10
328.3838272048
 20
314.4649022965
 30
0.0
 11
328.3838272048
 21
325.3694462689
 31
0.0
  0
LINE
  5
26A
330
263
100
AcDbEntity
  8
0
  6
Continuous
 62
     8
370
     0
100
AcDbLine
 10
324.3838272048
 20
324.3694462689
 30
0.0
 11
314.803153763
 21
324.3694462689
 31
0.0
  0
LINE
  5
26B
330
263
100
AcDbEntity
  8
0
  6
Continuous
 62
     8
370
     0
100
AcDbLine
 10
324.3838272048
 20
324.3694462689
 30
0.0
 11
328.3838272048
 21
324.3694462689
 31
0.0
  0
LINE
  5
26C
330
263
100
AcDbEntity
  8
0
  6
Continuous
 62
     8
370
     0
100
AcDbLine
 10
328.3838272048
 20
324.3694462689
 30
0.0
 11
333.1915195125
 21
324.3694462689
 31
0.0
  0
MTEXT
  5
26D
330
263
100
AcDbEntity
  8
0
  6
Continuous
 62
     8
370
     0
100
AcDbMText
 10
316.390653763
 20
327.5921154437
 30
0.0
 40
2.5
 41
0.0
 71
     1
 72
     1
  1
4
  7
SLDTEXTSTYLE0
 73
     1
 44
1.0
  0
ENDBLK
  5
265
330
263
100
AcDbEntity
  8
0
100
AcDbBlockEnd
  0
BLOCK
  5
270
330
26F
100
AcDbEntity
  8
0
100
AcDbBlockBegin
  2
_D_9
 70
     0
 10
0.0
 20
0.0
 30
0.0
  3
_D_9
  1

  0
ARC
  5
272
330
26F
100
AcDbEntity
  8
0
  6
Continuous
 62
     8
370
     0
100
AcDbCircle
 10
147.2204966963
 20
340.3806936916
 30
0.0
 40
4.283839790031158
100
AcDbArc
 50
153.4349488229
 51
206.5650511771
  0
ARC
  5
273
330
26F
100
AcDbEntity
  8
0
  6
Continuous
 62
     8
370
     0
100
AcDbCircle
 10
146.5471577133
 20
340.3806936916
 30
0.0
 40
4.283839790031132
100
AcDbArc
 50
333.4349488229
 51
26.5650511771
  0
SOLID
  5
274
330
26F
100
AcDbEntity
  8
0
  6
Continuous
 62
     8
370
     0
100
AcDbTrace
 10
154.3838272048
 20
338.4649022965
 30
0.0
 11
151.8838272048
 21
338.8495176812
 31
0.0
 12
151.8838272048
 22
338.0802869119
 32
0.0
 13
151.8838272048
 23
338.0802869119
 33
0.0
  0
SOLID
  5
275
330
26F
100
AcDbEntity
  8
0
  6
Continuous
 62
     8
370
     0
100
AcDbTrace
 10
139.3838272048
 20
338.4649022965
 30
0.0
 11
141.8838272048
 21
338.0802869119
 31
0.0
 12
141.8838272048
 22
338.8495176812
 32
0.0
 13
141.8838272048
 23
338.8495176812
 33
0.0
  0
LINE
  5
276
330
26F
100
AcDbEntity
  8
0
  6
Continuous
 62
     8
370
     0
100
AcDbLine
 10
154.3838272048
 20
301.9649022965
 30
0.0
 11
154.3838272048
 21
339.4649022965
 31
0.0
  0
LINE
  5
277
330
26F
100
AcDbEntity
  8
0
  6
Continuous
 62
     8
370
     0
100
AcDbLine
 10
139.3838272048
 20
294.4649022965
 30
0.0
 11
139.3838272048
 21
339.4649022965
 31
0.0
  0
LINE
  5
278
330
26F
100
AcDbEntity
  8
0
  6
Continuous
 62
     8
370
     0
100
AcDbLine
 10
154.3838272048
 20
338.4649022965
 30
0.0
 11
139.3838272048
 21
338.4649022965
 31
0.0
  0
MTEXT
  5
279
330
26F
100
AcDbEntity
  8
0
  6
Continuous
 62
     8
370
     0
100
AcDbMText
 10
144.9764139062
 20
341.6875714714
 30
0.0
 40
2.5
 41
0.0
 71
     1
 72
     1
  1
15
  7
SLDTEXTSTYLE0
 73
     1
 44
1.0
  0
ENDBLK
  5
271
330
26F
100
AcDbEntity
  8
0
100
AcDbBlockEnd
  0
BLOCK
  5
27C
330
27B
100
AcDbEntity
  8
0
100
AcDbBlockBegin
  2
_D_10
 70
     0
 10
0.0
 20
0.0
 30
0.0
  3
_D_10
  1

  0
ARC
  5
27E
330
27B
100
AcDbEntity
  8
0
  6
Continuous
 62
     8
370
     0
100
AcDbCircle
 10
482.2204966963
 20
340.3806936916
 30
0.0
 40
4.283839790031132
100
AcDbArc
 50
153.4349488229
 51
206.5650511771
  0
ARC
  5
27F
330
27B
100
AcDbEntity
  8
0
  6
Continuous
 62
     8
370
     0
100
AcDbCircle
 10
481.5471577133
 20
340.3806936916
 30
0.0
 40
4.283839790031132
100
AcDbArc
 50
333.4349488229
 51
26.5650511771
  0
SOLID
  5
280
330
27B
100
AcDbEntity
  8
0
  6
Continuous
 62
     8
370
     0
100
AcDbTrace
 10
474.3838272048
 20
338.4649022965
 30
0.0
 11
476.8838272048
 21
338.0802869119
 31
0.0
 12
476.8838272048
 22
338.8495176812
 32
0.0
 13
476.8838272048
 23
338.8495176812
 33
0.0
  0
SOLID
  5
281
330
27B
100
AcDbEntity
  8
0
  6
Continuous
 62
     8
370
     0
100
AcDbTrace
 10
489.3838272048
 20
338.4649022965
 30
0.0
 11
486.8838272048
 21
338.8495176812
 31
0.0
 12
486.8838272048
 22
338.0802869119
 32
0.0
 13
486.8838272048
 23
338.0802869119
 33
0.0
  0
LINE
  5
282
330
27B
100
AcDbEntity
  8
0
  6
Continuous
 62
     8
370
     0
100
AcDbLine
 10
474.3838272048
 20
301.9649022965
 30
0.0
 11
474.3838272048
 21
339.4649022965
 31
0.0
  0
LINE
  5
283
330
27B
100
AcDbEntity
  8
0
  6
Continuous
 62
     8
370
     0
100
AcDbLine
 10
489.3838272048
 20
294.4649022965
 30
0.0
 11
489.3838272048
 21
339.4649022965
 31
0.0
  0
LINE
  5
284
330
27B
100
AcDbEntity
  8
0
  6
Continuous
 62
     8
370
     0
100
AcDbLine
 10
474.3838272048
 20
338.4649022965
 30
0.0
 11
489.3838272048
 21
338.4649022965
 31
0.0
  0
MTEXT
  5
285
330
27B
100
AcDbEntity
  8
0
  6
Continuous
 62
     8
370
     0
100
AcDbMText
 10
479.9764139062
 20
341.6875714714
 30
0.0
 40
2.5
 41
0.0
 71
     1
 72
     1
  1
15
  7
SLDTEXTSTYLE0
 73
     1
 44
1.0
  0
ENDBLK
  5
27D
330
27B
100
AcDbEntity
  8
0
100
AcDbBlockEnd
  0
BLOCK
  5
289
330
288
100
AcDbEntity
  8
0
100
AcDbBlockBegin
  2
_D_11
 70
     0
 10
0.0
 20
0.0
 30
0.0
  3
_D_11
  1

  0
SOLID
  5
28B
330
288
100
AcDbEntity
  8
0
  6
Continuous
 62
     8
370
     0
100
AcDbTrace
 10
410.7980407672
 20
299.3791158589
 30
0.0
 11
412.8377718667
 21
300.8749186653
 31
0.0
 12
412.2938435735
 22
301.4188469585
 32
0.0
 13
412.2938435735
 23
301.4188469585
 33
0.0
  0
LINE
  5
28C
330
288
100
AcDbEntity
  8
0
  6
Continuous
 62
     8
370
     0
100
AcDbLine
 10
410.7980407672
 20
299.3791158589
 30
0.0
 11
423.299870552
 21
311.8809456437
 31
0.0
  0
LINE
  5
28D
330
288
100
AcDbEntity
  8
0
  6
Continuous
 62
     8
370
     0
100
AcDbLine
 10
410.7980407672
 20
299.3791158589
 30
0.0
 11
409.3838272048
 21
297.9649022965
 31
0.0
  0
MTEXT
  5
28E
330
288
100
AcDbEntity
  8
0
  6
Continuous
 62
     8
370
     0
100
AcDbMText
 10
416.8117687993
 20
309.931210398
 30
0.0
 40
2.5
 41
0.0
 71
     1
 72
     1
  1
R
  7
SLDTEXTSTYLE0
 11
0.7071067811865495
 21
0.7071067811865457
 31
0.0
 73
     1
 44
1.0
  0
MTEXT
  5
28F
330
288
100
AcDbEntity
  8
0
  6
Continuous
 62
     8
370
     0
100
AcDbMText
 10
418.5613851417
 20
311.6808267404
 30
0.0
 40
2.5
 41
0.0
 71
     1
 72
     1
  1
2
  7
SLDTEXTSTYLE0
 11
0.7071067811865495
 21
0.7071067811865457
 31
0.0
 73
     1
 44
1.0
  0
ENDBLK
  5
28A
330
288
100
AcDbEntity
  8
0
100
AcDbBlockEnd
  0
BLOCK
  5
292
330
291
100
AcDbEntity
  8
0
100
AcDbBlockBegin
  2
_D_12
 70
     0
 10
0.0
 20
0.0
 30
0.0
  3
_D_12
  1

  0
SOLID
  5
294
330
291
100
AcDbEntity
  8
0
  6
Continuous
 62
     8
370
     0
100
AcDbTrace
 10
275.3838272048
 20
288.732851489
 30
0.0
 11
273.800740511
 21
286.7600956718
 31
0.0
 12
274.4669138985
 22
286.3754802872
 32
0.0
 13
274.4669138985
 23
286.3754802872
 33
0.0
  0
LINE
  5
295
330
291
100
AcDbEntity
  8
0
  6
Continuous
 62
     8
370
     0
100
AcDbLine
 10
275.3838272048
 20
288.732851489
 30
0.0
 11
265.331400877
 21
271.32153835
 31
0.0
  0
LINE
  5
296
330
291
100
AcDbEntity
  8
0
  6
Continuous
 62
     8
370
     0
100
AcDbLine
 10
275.3838272048
 20
288.732851489
 30
0.0
 11
276.3838272048
 21
290.4649022965
 31
0.0
  0
MTEXT
  5
297
330
291
100
AcDbEntity
  8
0
  6
Continuous
 62
     8
370
     0
100
AcDbMText
 10
263.3431325489
 20
274.3025527091
 30
0.0
 40
2.5
 41
0.0
 71
     1
 72
     1
  1
R
  7
SLDTEXTSTYLE0
 11
0.4999999999999995
 21
0.8660254037844389
 31
0.0
 73
     1
 44
1.0
  0
MTEXT
  5
298
330
291
100
AcDbEntity
  8
0
  6
Continuous
 62
     8
370
     0
100
AcDbMText
 10
264.5802981291
 20
276.4453863514
 30
0.0
 40
2.5
 41
0.0
 71
     1
 72
     1
  1
2
  7
SLDTEXTSTYLE0
 11
0.4999999999999995
 21
0.8660254037844389
 31
0.0
 73
     1
 44
1.0
  0
ENDBLK
  5
293
330
291
100
AcDbEntity
  8
0
100
AcDbBlockEnd
  0
BLOCK
  5
29B
330
29A
100
AcDbEntity
  8
0
100
AcDbBlockBegin
  2
_D_13
 70
     0
 10
0.0
 20
0.0
 30
0.0
  3
_D_13
  1

  0
SOLID
  5
29D
330
29A
100
AcDbEntity
  8
0
  6
Continuous
 62
     8
370
     0
100
AcDbTrace
 10
298.0323305379
 20
288.4649022965
 30
0.0
 11
298.4169459225
 21
290.9649022965
 31
0.0
 12
297.6477151533
 22
290.9649022965
 32
0.0
 13
297.6477151533
 23
290.9649022965
 33
0.0
  0
SOLID
  5
29E
330
29A
100
AcDbEntity
  8
0
  6
Continuous
 62
     8
370
     0
100
AcDbTrace
 10
298.0323305379
 20
282.4649022965
 30
0.0
 11
297.6477151533
 21
279.9649022965
 31
0.0
 12
298.4169459225
 22
279.9649022965
 32
0.0
 13
298.4169459225
 23
279.9649022965
 33
0.0
  0
LINE
  5
29F
330
29A
100
AcDbEntity
  8
0
  6
Continuous
 62
     8
370
     0
100
AcDbLine
 10
298.0323305379
 20
288.4649022965
 30
0.0
 11
298.0323305379
 21
293.2725946042
 31
0.0
  0
LINE
  5
2A0
330
29A
100
AcDbEntity
  8
0
  6
Continuous
 62
     8
370
     0
100
AcDbLine
 10
298.0323305379
 20
288.4649022965
 30
0.0
 11
298.0323305379
 21
282.4649022965
 31
0.0
  0
LINE
  5
2A1
330
29A
100
AcDbEntity
  8
0
  6
Continuous
 62
     8
370
     0
100
AcDbLine
 10
298.0323305379
 20
282.4649022965
 30
0.0
 11
298.0323305379
 21
277.6572099889
 31
0.0
  0
MTEXT
  5
2A2
330
29A
100
AcDbEntity
  8
0
  6
Continuous
 62
     8
370
     0
100
AcDbMText
 10
294.8096613631
 20
284.5125919967
 30
0.0
 40
2.5
 41
0.0
 71
     1
 72
     1
  1
6
  7
SLDTEXTSTYLE0
 11
-1.059690869644414E-14
 21
1.0
 31
0.0
 73
     1
 44
1.0
  0
ENDBLK
  5
29C
330
29A
100
AcDbEntity
  8
0
100
AcDbBlockEnd
  0
BLOCK
  5
2A5
330
2A4
100
AcDbEntity
  8
0
100
AcDbBlockBegin
  2
_D_14
 70
     0
 10
0.0
 20
0.0
 30
0.0
  3
_D_14
  1

  0
SOLID
  5
2A7
330
2A4
100
AcDbEntity
  8
0
  6
Continuous
 62
     8
370
     0
100
AcDbTrace
 10
311.1402771937
 20
300.4649022965
 30
0.0
 11
311.5248925783
 21
302.9649022965
 31
0.0
 12
310.7556618091
 22
302.9649022965
 32
0.0
 13
310.7556618091
 23
302.9649022965
 33
0.0
  0
SOLID
  5
2A8
330
2A4
100
AcDbEntity
  8
0
  6
Continuous
 62
     8
370
     0
100
AcDbTrace
 10
311.1402771937
 20
288.4649022965
 30
0.0
 11
310.7556618091
 21
285.9649022965
 31
0.0
 12
311.5248925783
 22
285.9649022965
 32
0.0
 13
311.5248925783
 23
285.9649022965
 33
0.0
  0
LINE
  5
2A9
330
2A4
100
AcDbEntity
  8
0
  6
Continuous
 62
     8
370
     0
100
AcDbLine
 10
311.1402771937
 20
300.4649022965
 30
0.0
 11
311.1402771937
 21
305.2725946042
 31
0.0
  0
LINE
  5
2AA
330
2A4
100
AcDbEntity
  8
0
  6
Continuous
 62
     8
370
     0
100
AcDbLine
 10
311.1402771937
 20
300.4649022965
 30
0.0
 11
311.1402771937
 21
288.4649022965
 31
0.0
  0
LINE
  5
2AB
330
2A4
100
AcDbEntity
  8
0
  6
Continuous
 62
     8
370
     0
100
AcDbLine
 10
311.1402771937
 20
288.4649022965
 30
0.0
 11
311.1402771937
 21
283.6572099889
 31
0.0
  0
MTEXT
  5
2AC
330
2A4
100
AcDbEntity
  8
0
  6
Continuous
 62
     8
370
     0
100
AcDbMText
 10
307.9176080189
 20
292.557488998
 30
0.0
 40
2.5
 41
0.0
 71
     1
 72
     1
  1
12
  7
SLDTEXTSTYLE0
 11
-1.059690869644414E-14
 21
1.0
 31
0.0
 73
     1
 44
1.0
  0
ENDBLK
  5
2A6
330
2A4
100
AcDbEntity
  8
0
100
AcDbBlockEnd
  0
BLOCK
  5
2AF
330
2AE
100
AcDbEntity
  8
0
100
AcDbBlockBegin
  2
_D_15
 70
     0
 10
0.0
 20
0.0
 30
0.0
  3
_D_15
  1

  0
ARC
  5
2B1
330
2AE
100
AcDbEntity
  8
0
  6
Continuous
 62
     8
370
     0
100
AcDbCircle
 10
285.817438199
 20
307.8015717881
 30
0.0
 40
4.283839790031184
100
AcDbArc
 50
243.4349488229
 51
296.5650511771
  0
ARC
  5
2B2
330
2AE
100
AcDbEntity
  8
0
  6
Continuous
 62
     8
370
     0
100
AcDbCircle
 10
285.817438199
 20
307.128232805
 30
0.0
 40
4.283839790031184
100
AcDbArc
 50
63.4349488229
 51
116.5650511771
  0
SOLID
  5
2B3
330
2AE
100
AcDbEntity
  8
0
  6
Continuous
 62
     8
370
     0
100
AcDbTrace
 10
287.733229594
 20
300.4649022965
 30
0.0
 11
287.3486142094
 21
297.9649022965
 31
0.0
 12
288.1178449786
 22
297.9649022965
 32
0.0
 13
288.1178449786
 23
297.9649022965
 33
0.0
  0
SOLID
  5
2B4
330
2AE
100
AcDbEntity
  8
0
  6
Continuous
 62
     8
370
     0
100
AcDbTrace
 10
287.733229594
 20
314.4649022965
 30
0.0
 11
288.1178449786
 21
316.9649022965
 31
0.0
 12
287.3486142094
 22
316.9649022965
 32
0.0
 13
287.3486142094
 23
316.9649022965
 33
0.0
  0
LINE
  5
2B5
330
2AE
100
AcDbEntity
  8
0
  6
Continuous
 62
     8
370
     0
100
AcDbLine
 10
287.733229594
 20
300.4649022965
 30
0.0
 11
287.733229594
 21
295.6572099889
 31
0.0
  0
LINE
  5
2B6
330
2AE
100
AcDbEntity
  8
0
  6
Continuous
 62
     8
370
     0
100
AcDbLine
 10
287.733229594
 20
300.4649022965
 30
0.0
 11
287.733229594
 21
314.4649022965
 31
0.0
  0
LINE
  5
2B7
330
2AE
100
AcDbEntity
  8
0
  6
Continuous
 62
     8
370
     0
100
AcDbLine
 10
287.733229594
 20
314.4649022965
 30
0.0
 11
287.733229594
 21
319.2725946042
 31
0.0
  0
MTEXT
  5
2B8
330
2AE
100
AcDbEntity
  8
0
  6
Continuous
 62
     8
370
     0
100
AcDbMText
 10
284.5105604192
 20
305.557488998
 30
0.0
 40
2.5
 41
0.0
 71
     1
 72
     1
  1
14
  7
SLDTEXTSTYLE0
 11
-3.713525943768165E-15
 21
1.0
 31
0.0
 73
     1
 44
1.0
  0
ENDBLK
  5
2B0
330
2AE
100
AcDbEntity
  8
0
100
AcDbBlockEnd
  0
BLOCK
  5
2BB
330
2BA
100
AcDbEntity
  8
0
100
AcDbBlockBegin
  2
_D_16
 70
     0
 10
0.0
 20
0.0
 30
0.0
  3
_D_16
  1

  0
SOLID
  5
2BD
330
2BA
100
AcDbEntity
  8
0
  6
Continuous
 62
     8
370
     0
100
AcDbTrace
 10
392.9021661616
 20
288.9649022965
 30
0.0
 11
392.517550777
 21
286.4649022965
 31
0.0
 12
393.2867815463
 22
286.4649022965
 32
0.0
 13
393.2867815463
 23
286.4649022965
 33
0.0
  0
SOLID
  5
2BE
330
2BA
100
AcDbEntity
  8
0
  6
Continuous
 62
     8
370
     0
100
AcDbTrace
 10
392.9021661616
 20
299.9649022965
 30
0.0
 11
393.2867815463
 21
302.4649022965
 31
0.0
 12
392.517550777
 22
302.4649022965
 32
0.0
 13
392.517550777
 23
302.4649022965
 33
0.0
  0
LINE
  5
2BF
330
2BA
100
AcDbEntity
  8
0
  6
Continuous
 62
     8
370
     0
100
AcDbLine
 10
392.9021661616
 20
288.9649022965
 30
0.0
 11
392.9021661616
 21
284.1572099889
 31
0.0
  0
LINE
  5
2C0
330
2BA
100
AcDbEntity
  8
0
  6
Continuous
 62
     8
370
     0
100
AcDbLine
 10
392.9021661616
 20
288.9649022965
 30
0.0
 11
392.9021661616
 21
299.9649022965
 31
0.0
  0
LINE
  5
2C1
330
2BA
100
AcDbEntity
  8
0
  6
Continuous
 62
     8
370
     0
100
AcDbLine
 10
392.9021661616
 20
299.9649022965
 30
0.0
 11
392.9021661616
 21
304.7725946042
 31
0.0
  0
MTEXT
  5
2C2
330
2BA
100
AcDbEntity
  8
0
  6
Continuous
 62
     8
370
     0
100
AcDbMText
 10
389.6794969868
 20
292.557488998
 30
0.0
 40
2.5
 41
0.0
 71
     1
 72
     1
  1
11
  7
SLDTEXTSTYLE0
 11
-3.491481338843133E-15
 21
1.0
 31
0.0
 73
     1
 44
1.0
  0
ENDBLK
  5
2BC
330
2BA
100
AcDbEntity
  8
0
100
AcDbBlockEnd
  0
BLOCK
  5
2C5
330
2C4
100
AcDbEntity
  8
0
100
AcDbBlockBegin
  2
_D_17
 70
     0
 10
0.0
 20
0.0
 30
0.0
  3
_D_17
  1

  0
SOLID
  5
2C7
330
2C4
100
AcDbEntity
  8
0
  6
Continuous
 62
     8
370
     0
100
AcDbTrace
 10
380.7159317138
 20
288.9649022965
 30
0.0
 11
380.3313163292
 21
286.4649022965
 31
0.0
 12
381.1005470984
 22
286.4649022965
 32
0.0
 13
381.1005470984
 23
286.4649022965
 33
0.0
  0
SOLID
  5
2C8
330
2C4
100
AcDbEntity
  8
0
  6
Continuous
 62
     8
370
     0
100
AcDbTrace
 10
380.7159317138
 20
282.4649022965
 30
0.0
 11
381.1005470984
 21
284.9649022965
 31
0.0
 12
380.3313163292
 22
284.9649022965
 32
0.0
 13
380.3313163292
 23
284.9649022965
 33
0.0
  0
LINE
  5
2C9
330
2C4
100
AcDbEntity
  8
0
  6
Continuous
 62
     8
370
     0
100
AcDbLine
 10
380.7159317138
 20
288.9649022965
 30
0.0
 11
380.7159317138
 21
282.4649022965
 31
0.0
  0
LINE
  5
2CA
330
2C4
100
AcDbEntity
  8
0
  6
Continuous
 62
     8
370
     0
100
AcDbLine
 10
380.7159317138
 20
282.4649022965
 30
0.0
 11
380.7159317138
 21
269.9785459168
 31
0.0
  0
MTEXT
  5
2CB
330
2C4
100
AcDbEntity
  8
0
  6
Continuous
 62
     8
370
     0
100
AcDbMText
 10
377.493262539
 20
271.5660459168
 30
0.0
 40
2.5
 41
0.0
 71
     1
 72
     1
  1
6,5
  7
SLDTEXTSTYLE0
 11
-1.059690869644414E-14
 21
1.0
 31
0.0
 73
     1
 44
1.0
  0
ENDBLK
  5
2C6
330
2C4
100
AcDbEntity
  8
0
100
AcDbBlockEnd
  0
BLOCK
  5
2CE
330
2CD
100
AcDbEntity
  8
0
100
AcDbBlockBegin
  2
_D_18
 70
     0
 10
0.0
 20
0.0
 30
0.0
  3
_D_18
  1

  0
ARC
  5
2D0
330
2CD
100
AcDbEntity
  8
0
  6
Continuous
 62
     8
370
     0
100
AcDbCircle
 10
368.8482206049
 20
319.7574334009
 30
0.0
 40
4.283839790031132
100
AcDbArc
 50
243.4349488229
 51
296.5650511771
  0
ARC
  5
2D1
330
2CD
100
AcDbEntity
  8
0
  6
Continuous
 62
     8
370
     0
100
AcDbCircle
 10
368.8482206049
 20
320.0391974165
 30
0.0
 40
4.283839790031132
100
AcDbArc
 50
63.4349488229
 51
116.5650511771
  0
SOLID
  5
2D2
330
2CD
100
AcDbEntity
  8
0
  6
Continuous
 62
     8
370
     0
100
AcDbTrace
 10
370.7640119999
 20
299.9649022965
 30
0.0
 11
371.1486273846
 21
302.4649022965
 31
0.0
 12
370.3793966153
 22
302.4649022965
 32
0.0
 13
370.3793966153
 23
302.4649022965
 33
0.0
  0
SOLID
  5
2D3
330
2CD
100
AcDbEntity
  8
0
  6
Continuous
 62
     8
370
     0
100
AcDbTrace
 10
370.7640119999
 20
306.4649022965
 30
0.0
 11
370.3793966153
 21
303.9649022965
 31
0.0
 12
371.1486273846
 22
303.9649022965
 32
0.0
 13
371.1486273846
 23
303.9649022965
 33
0.0
  0
LINE
  5
2D4
330
2CD
100
AcDbEntity
  8
0
  6
Continuous
 62
     8
370
     0
100
AcDbLine
 10
370.7640119999
 20
299.9649022965
 30
0.0
 11
370.7640119999
 21
306.4649022965
 31
0.0
  0
LINE
  5
2D5
330
2CD
100
AcDbEntity
  8
0
  6
Continuous
 62
     8
370
     0
100
AcDbLine
 10
370.7640119999
 20
306.4649022965
 30
0.0
 11
370.7640119999
 21
325.4582802066
 31
0.0
  0
MTEXT
  5
2D6
330
2CD
100
AcDbEntity
  8
0
  6
Continuous
 62
     8
370
     0
100
AcDbMText
 10
367.5413428251
 20
317.5133506108
 30
0.0
 40
2.5
 41
0.0
 71
     1
 72
     1
  1
6,5
  7
SLDTEXTSTYLE0
 11
-3.713525943768165E-15
 21
1.0
 31
0.0
 73
     1
 44
1.0
  0
ENDBLK
  5
2CF
330
2CD
100
AcDbEntity
  8
0
100
AcDbBlockEnd
  0
BLOCK
  5
2D9
330
2D8
100
AcDbEntity
  8
0
100
AcDbBlockBegin
  2
_D_19
 70
     0
 10
0.0
 20
0.0
 30
0.0
  3
_D_19
  1

  0
SOLID
  5
2DB
330
2D8
100
AcDbEntity
  8
0
  6
Continuous
 62
     8
370
     0
100
AcDbTrace
 10
411.3838272048
 20
254.4188057193
 30
0.0
 11
413.8838272048
 21
254.0341903346
 31
0.0
 12
413.8838272048
 22
254.8034211039
 32
0.0
 13
413.8838272048
 23
254.8034211039
 33
0.0
  0
SOLID
  5
2DC
330
2D8
100
AcDbEntity
  8
0
  6
Continuous
 62
     8
370
     0
100
AcDbTrace
 10
489.3838272048
 20
254.4188057193
 30
0.0
 11
486.8838272048
 21
254.8034211039
 31
0.0
 12
486.8838272048
 22
254.0341903347
 32
0.0
 13
486.8838272048
 23
254.0341903347
 33
0.0
  0
LINE
  5
2DD
330
2D8
100
AcDbEntity
  8
0
  6
Continuous
 62
     8
370
     0
100
AcDbLine
 10
411.3838272048
 20
290.9649022965
 30
0.0
 11
411.3838272048
 21
253.4188057193
 31
0.0
  0
LINE
  5
2DE
330
2D8
100
AcDbEntity
  8
0
  6
Continuous
 62
     8
370
     0
100
AcDbLine
 10
489.3838272048
 20
294.4649022965
 30
0.0
 11
489.3838272048
 21
253.4188057193
 31
0.0
  0
LINE
  5
2DF
330
2D8
100
AcDbEntity
  8
0
  6
Continuous
 62
     8
370
     0
100
AcDbLine
 10
411.3838272048
 20
254.4188057193
 30
0.0
 11
489.3838272048
 21
254.4188057193
 31
0.0
  0
MTEXT
  5
2E0
330
2D8
100
AcDbEntity
  8
0
  6
Continuous
 62
     8
370
     0
100
AcDbMText
 10
448.4764139062
 20
257.6414748941
 30
0.0
 40
2.5
 41
0.0
 71
     1
 72
     1
  1
78
  7
SLDTEXTSTYLE0
 73
     1
 44
1.0
  0
ENDBLK
  5
2DA
330
2D8
100
AcDbEntity
  8
0
100
AcDbBlockEnd
  0
BLOCK
  5
2E3
330
2E2
100
AcDbEntity
  8
0
100
AcDbBlockBegin
  2
_D_20
 70
     0
 10
0.0
 20
0.0
 30
0.0
  3
_D_20
  1

  0
SOLID
  5
2E5
330
2E2
100
AcDbEntity
  8
0
  6
Continuous
 62
     8
370
     0
100
AcDbTrace
 10
411.3838272048
 20
254.4188057193
 30
0.0
 11
408.8838272048
 21
254.8034211039
 31
0.0
 12
408.8838272048
 22
254.0341903347
 32
0.0
 13
408.8838272048
 23
254.0341903347
 33
0.0
  0
SOLID
  5
2E6
330
2E2
100
AcDbEntity
  8
0
  6
Continuous
 62
     8
370
     0
100
AcDbTrace
 10
356.3838272048
 20
254.4188057193
 30
0.0
 11
358.8838272048
 21
254.0341903346
 31
0.0
 12
358.8838272048
 22
254.8034211039
 32
0.0
 13
358.8838272048
 23
254.8034211039
 33
0.0
  0
LINE
  5
2E7
330
2E2
100
AcDbEntity
  8
0
  6
Continuous
 62
     8
370
     0
100
AcDbLine
 10
411.3838272048
 20
290.9649022965
 30
0.0
 11
411.3838272048
 21
253.4188057193
 31
0.0
  0
LINE
  5
2E8
330
2E2
100
AcDbEntity
  8
0
  6
Continuous
 62
     8
370
     0
100
AcDbLine
 10
356.3838272048
 20
290.9649022965
 30
0.0
 11
356.3838272048
 21
253.4188057193
 31
0.0
  0
LINE
  5
2E9
330
2E2
100
AcDbEntity
  8
0
  6
Continuous
 62
     8
370
     0
100
AcDbLine
 10
411.3838272048
 20
254.4188057193
 30
0.0
 11
356.3838272048
 21
254.4188057193
 31
0.0
  0
MTEXT
  5
2EA
330
2E2
100
AcDbEntity
  8
0
  6
Continuous
 62
     8
370
     0
100
AcDbMText
 10
381.9764139062
 20
257.6414748941
 30
0.0
 40
2.5
 41
0.0
 71
     1
 72
     1
  1
55
  7
SLDTEXTSTYLE0
 73
     1
 44
1.0
  0
ENDBLK
  5
2E4
330
2E2
100
AcDbEntity
  8
0
100
AcDbBlockEnd
  0
BLOCK
  5
2ED
330
2EC
100
AcDbEntity
  8
0
100
AcDbBlockBegin
  2
_D_21
 70
     0
 10
0.0
 20
0.0
 30
0.0
  3
_D_21
  1

  0
SOLID
  5
2EF
330
2EC
100
AcDbEntity
  8
0
  6
Continuous
 62
     8
370
     0
100
AcDbTrace
 10
356.3838272048
 20
254.4188057193
 30
0.0
 11
353.8838272048
 21
254.8034211039
 31
0.0
 12
353.8838272048
 22
254.0341903347
 32
0.0
 13
353.8838272048
 23
254.0341903347
 33
0.0
  0
SOLID
  5
2F0
330
2EC
100
AcDbEntity
  8
0
  6
Continuous
 62
     8
370
     0
100
AcDbTrace
 10
324.3838272048
 20
254.4188057193
 30
0.0
 11
326.8838272048
 21
254.0341903347
 31
0.0
 12
326.8838272048
 22
254.8034211039
 32
0.0
 13
326.8838272048
 23
254.8034211039
 33
0.0
  0
LINE
  5
2F1
330
2EC
100
AcDbEntity
  8
0
  6
Continuous
 62
     8
370
     0
100
AcDbLine
 10
356.3838272048
 20
290.9649022965
 30
0.0
 11
356.3838272048
 21
253.4188057193
 31
0.0
  0
LINE
  5
2F2
330
2EC
100
AcDbEntity
  8
0
  6
Continuous
 62
     8
370
     0
100
AcDbLine
 10
324.3838272048
 20
290.4649022965
 30
0.0
 11
324.3838272048
 21
253.4188057193
 31
0.0
  0
LINE
  5
2F3
330
2EC
100
AcDbEntity
  8
0
  6
Continuous
 62
     8
370
     0
100
AcDbLine
 10
356.3838272048
 20
254.4188057193
 30
0.0
 11
324.3838272048
 21
254.4188057193
 31
0.0
  0
MTEXT
  5
2F4
330
2EC
100
AcDbEntity
  8
0
  6
Continuous
 62
     8
370
     0
100
AcDbMText
 10
338.4764139062
 20
257.6414748941
 30
0.0
 40
2.5
 41
0.0
 71
     1
 72
     1
  1
32
  7
SLDTEXTSTYLE0
 73
     1
 44
1.0
  0
ENDBLK
  5
2EE
330
2EC
100
AcDbEntity
  8
0
100
AcDbBlockEnd
  0
BLOCK
  5
2F7
330
2F6
100
AcDbEntity
  8
0
100
AcDbBlockBegin
  2
_D_22
 70
     0
 10
0.0
 20
0.0
 30
0.0
  3
_D_22
  1

  0
SOLID
  5
2F9
330
2F6
100
AcDbEntity
  8
0
  6
Continuous
 62
     8
370
     0
100
AcDbTrace
 10
324.3838272048
 20
244.4649022965
 30
0.0
 11
326.8838272048
 21
244.0802869119
 31
0.0
 12
326.8838272048
 22
244.8495176812
 32
0.0
 13
326.8838272048
 23
244.8495176812
 33
0.0
  0
SOLID
  5
2FA
330
2F6
100
AcDbEntity
  8
0
  6
Continuous
 62
     8
370
     0
100
AcDbTrace
 10
489.3838272048
 20
244.4649022965
 30
0.0
 11
486.8838272048
 21
244.8495176812
 31
0.0
 12
486.8838272048
 22
244.0802869119
 32
0.0
 13
486.8838272048
 23
244.0802869119
 33
0.0
  0
LINE
  5
2FB
330
2F6
100
AcDbEntity
  8
0
  6
Continuous
 62
     8
370
     0
100
AcDbLine
 10
324.3838272048
 20
290.4649022965
 30
0.0
 11
324.3838272048
 21
243.4649022965
 31
0.0
  0
LINE
  5
2FC
330
2F6
100
AcDbEntity
  8
0
  6
Continuous
 62
     8
370
     0
100
AcDbLine
 10
489.3838272048
 20
294.4649022965
 30
0.0
 11
489.3838272048
 21
243.4649022965
 31
0.0
  0
LINE
  5
2FD
330
2F6
100
AcDbEntity
  8
0
  6
Continuous
 62
     8
370
     0
100
AcDbLine
 10
324.3838272048
 20
244.4649022965
 30
0.0
 11
489.3838272048
 21
244.4649022965
 31
0.0
  0
MTEXT
  5
2FE
330
2F6
100
AcDbEntity
  8
0
  6
Continuous
 62
     8
370
     0
100
AcDbMText
 10
404.0213109075
 20
247.6875714713
 30
0.0
 40
2.5
 41
0.0
 71
     1
 72
     1
  1
165
  7
SLDTEXTSTYLE0
 73
     1
 44
1.0
  0
ENDBLK
  5
2F8
330
2F6
100
AcDbEntity
  8
0
100
AcDbBlockEnd
  0
BLOCK
  5
301
330
300
100
AcDbEntity
  8
0
100
AcDbBlockBegin
  2
_D_23
 70
     0
 10
0.0
 20
0.0
 30
0.0
  3
_D_23
  1

  0
SOLID
  5
303
330
300
100
AcDbEntity
  8
0
  6
Continuous
 62
     8
370
     0
100
AcDbTrace
 10
324.3838272048
 20
254.4188057193
 30
0.0
 11
321.8838272048
 21
254.8034211039
 31
0.0
 12
321.8838272048
 22
254.0341903347
 32
0.0
 13
321.8838272048
 23
254.0341903347
 33
0.0
  0
SOLID
  5
304
330
300
100
AcDbEntity
  8
0
  6
Continuous
 62
     8
370
     0
100
AcDbTrace
 10
274.3838272048
 20
254.4188057193
 30
0.0
 11
276.8838272048
 21
254.0341903347
 31
0.0
 12
276.8838272048
 22
254.8034211039
 32
0.0
 13
276.8838272048
 23
254.8034211039
 33
0.0
  0
LINE
  5
305
330
300
100
AcDbEntity
  8
0
  6
Continuous
 62
     8
370
     0
100
AcDbLine
 10
324.3838272048
 20
290.4649022965
 30
0.0
 11
324.3838272048
 21
253.4188057193
 31
0.0
  0
LINE
  5
306
330
300
100
AcDbEntity
  8
0
  6
Continuous
 62
     8
370
     0
100
AcDbLine
 10
274.3838272048
 20
290.4649022965
 30
0.0
 11
274.3838272048
 21
253.4188057193
 31
0.0
  0
LINE
  5
307
330
300
100
AcDbEntity
  8
0
  6
Continuous
 62
     8
370
     0
100
AcDbLine
 10
324.3838272048
 20
254.4188057193
 30
0.0
 11
274.3838272048
 21
254.4188057193
 31
0.0
  0
MTEXT
  5
308
330
300
100
AcDbEntity
  8
0
  6
Continuous
 62
     8
370
     0
100
AcDbMText
 10
297.4764139062
 20
257.6414748941
 30
0.0
 40
2.5
 41
0.0
 71
     1
 72
     1
  1
50
  7
SLDTEXTSTYLE0
 73
     1
 44
1.0
  0
ENDBLK
  5
302
330
300
100
AcDbEntity
  8
0
100
AcDbBlockEnd
  0
BLOCK
  5
30B
330
30A
100
AcDbEntity
  8
0
100
AcDbBlockBegin
  2
_D_24
 70
     0
 10
0.0
 20
0.0
 30
0.0
  3
_D_24
  1

  0
SOLID
  5
30D
330
30A
100
AcDbEntity
  8
0
  6
Continuous
 62
     8
370
     0
100
AcDbTrace
 10
145.3838272048
 20
284.0725974511
 30
0.0
 11
143.800740511
 21
282.099841634
 31
0.0
 12
144.4669138985
 22
281.7152262494
 32
0.0
 13
144.4669138985
 23
281.7152262494
 33
0.0
  0
LINE
  5
30E
330
30A
100
AcDbEntity
  8
0
  6
Continuous
 62
     8
370
     0
100
AcDbLine
 10
145.3838272048
 20
284.0725974511
 30
0.0
 11
134.8391882331
 21
265.8087470047
 31
0.0
  0
LINE
  5
30F
330
30A
100
AcDbEntity
  8
0
  6
Continuous
 62
     8
370
     0
100
AcDbLine
 10
145.3838272048
 20
284.0725974511
 30
0.0
 11
151.3838272048
 21
294.4649022965
 31
0.0
  0
MTEXT
  5
310
330
30A
100
AcDbEntity
  8
0
  6
Continuous
 62
     8
370
     0
100
AcDbMText
 10
132.8457812694
 20
268.7927281564
 30
0.0
 40
2.5
 41
0.0
 71
     1
 72
     1
  1
R
  7
SLDTEXTSTYLE0
 11
0.4999999999999964
 21
0.8660254037844407
 31
0.0
 73
     1
 44
1.0
  0
MTEXT
  5
311
330
30A
100
AcDbEntity
  8
0
  6
Continuous
 62
     8
370
     0
100
AcDbMText
 10
134.0829468496
 20
270.9355617987
 30
0.0
 40
2.5
 41
0.0
 71
     1
 72
     1
  1
12
  7
SLDTEXTSTYLE0
 11
0.4999999999999964
 21
0.8660254037844407
 31
0.0
 73
     1
 44
1.0
  0
ENDBLK
  5
30C
330
30A
100
AcDbEntity
  8
0
100
AcDbBlockEnd
  0
BLOCK
  5
314
330
313
100
AcDbEntity
  8
0
100
AcDbBlockBegin
  2
_D_25
 70
     0
 10
0.0
 20
0.0
 30
0.0
  3
_D_25
  1

  0
SOLID
  5
316
330
313
100
AcDbEntity
  8
0
  6
Continuous
 62
     8
370
     0
100
AcDbTrace
 10
110.1264409125
 20
306.4649022965
 30
0.0
 11
109.7418255279
 21
303.9649022965
 31
0.0
 12
110.5110562971
 22
303.9649022965
 32
0.0
 13
110.5110562971
 23
303.9649022965
 33
0.0
  0
SOLID
  5
317
330
313
100
AcDbEntity
  8
0
  6
Continuous
 62
     8
370
     0
100
AcDbTrace
 10
110.1264409125
 20
282.4649022965
 30
0.0
 11
110.5110562971
 21
284.9649022965
 31
0.0
 12
109.7418255279
 22
284.9649022965
 32
0.0
 13
109.7418255279
 23
284.9649022965
 33
0.0
  0
LINE
  5
318
330
313
100
AcDbEntity
  8
0
  6
Continuous
 62
     8
370
     0
100
AcDbLine
 10
151.3838272048
 20
306.4649022965
 30
0.0
 11
109.1264409125
 21
306.4649022965
 31
0.0
  0
LINE
  5
319
330
313
100
AcDbEntity
  8
0
  6
Continuous
 62
     8
370
     0
100
AcDbLine
 10
151.3838272048
 20
282.4649022965
 30
0.0
 11
109.1264409125
 21
282.4649022965
 31
0.0
  0
LINE
  5
31A
330
313
100
AcDbEntity
  8
0
  6
Continuous
 62
     8
370
     0
100
AcDbLine
 10
110.1264409125
 20
306.4649022965
 30
0.0
 11
110.1264409125
 21
282.4649022965
 31
0.0
  0
MTEXT
  5
31B
330
313
100
AcDbEntity
  8
0
  6
Continuous
 62
     8
370
     0
100
AcDbMText
 10
106.9037717377
 20
292.557488998
 30
0.0
 40
2.5
 41
0.0
 71
     1
 72
     1
  1
24
  7
SLDTEXTSTYLE0
 11
-1.059690869644414E-14
 21
1.0
 31
0.0
 73
     1
 44
1.0
  0
ENDBLK
  5
315
330
313
100
AcDbEntity
  8
0
100
AcDbBlockEnd
  0
BLOCK
  5
31E
330
31D
100
AcDbEntity
  8
0
100
AcDbBlockBegin
  2
_D_26
 70
     0
 10
0.0
 20
0.0
 30
0.0
  3
_D_26
  1

  0
SOLID
  5
320
330
31D
100
AcDbEntity
  8
0
  6
Continuous
 62
     8
370
     0
100
AcDbTrace
 10
110.1264409125
 20
314.4649022965
 30
0.0
 11
110.5110562971
 21
316.9649022965
 31
0.0
 12
109.7418255279
 22
316.9649022965
 32
0.0
 13
109.7418255279
 23
316.9649022965
 33
0.0
  0
SOLID
  5
321
330
31D
100
AcDbEntity
  8
0
  6
Continuous
 62
     8
370
     0
100
AcDbTrace
 10
110.1264409125
 20
306.4649022965
 30
0.0
 11
109.7418255279
 21
303.9649022965
 31
0.0
 12
110.5110562971
 22
303.9649022965
 32
0.0
 13
110.5110562971
 23
303.9649022965
 33
0.0
  0
LINE
  5
322
330
31D
100
AcDbEntity
  8
0
  6
Continuous
 62
     8
370
     0
100
AcDbLine
 10
164.3838272048
 20
314.4649022965
 30
0.0
 11
109.1264409125
 21
314.4649022965
 31
0.0
  0
LINE
  5
323
330
31D
100
AcDbEntity
  8
0
  6
Continuous
 62
     8
370
     0
100
AcDbLine
 10
151.3838272048
 20
306.4649022965
 30
0.0
 11
109.1264409125
 21
306.4649022965
 31
0.0
  0
LINE
  5
324
330
31D
100
AcDbEntity
  8
0
  6
Continuous
 62
     8
370
     0
100
AcDbLine
 10
110.1264409125
 20
314.4649022965
 30
0.0
 11
110.1264409125
 21
319.2725946042
 31
0.0
  0
LINE
  5
325
330
31D
100
AcDbEntity
  8
0
  6
Continuous
 62
     8
370
     0
100
AcDbLine
 10
110.1264409125
 20
314.4649022965
 30
0.0
 11
110.1264409125
 21
306.4649022965
 31
0.0
  0
LINE
  5
326
330
31D
100
AcDbEntity
  8
0
  6
Continuous
 62
     8
370
     0
100
AcDbLine
 10
110.1264409125
 20
306.4649022965
 30
0.0
 11
110.1264409125
 21
301.6572099889
 31
0.0
  0
MTEXT
  5
327
330
31D
100
AcDbEntity
  8
0
  6
Continuous
 62
     8
370
     0
100
AcDbMText
 10
106.9037717377
 20
309.5125919967
 30
0.0
 40
2.5
 41
0.0
 71
     1
 72
     1
  1
8
  7
SLDTEXTSTYLE0
 11
-1.059690869644414E-14
 21
1.0
 31
0.0
 73
     1
 44
1.0
  0
ENDBLK
  5
31F
330
31D
100
AcDbEntity
  8
0
100
AcDbBlockEnd
  0
BLOCK
  5
32A
330
329
100
AcDbEntity
  8
0
100
AcDbBlockBegin
  2
_D_27
 70
     0
 10
0.0
 20
0.0
 30
0.0
  3
_D_27
  1

  0
SOLID
  5
32C
330
329
100
AcDbEntity
  8
0
  6
Continuous
 62
     8
370
     0
100
AcDbTrace
 10
122.3838272048
 20
294.4649022965
 30
0.0
 11
121.9992118202
 21
291.9649022965
 31
0.0
 12
122.7684425894
 22
291.9649022965
 32
0.0
 13
122.7684425894
 23
291.9649022965
 33
0.0
  0
SOLID
  5
32D
330
329
100
AcDbEntity
  8
0
  6
Continuous
 62
     8
370
     0
100
AcDbTrace
 10
122.3838272048
 20
282.4649022965
 30
0.0
 11
122.7684425894
 21
284.9649022965
 31
0.0
 12
121.9992118202
 22
284.9649022965
 32
0.0
 13
121.9992118202
 23
284.9649022965
 33
0.0
  0
LINE
  5
32E
330
329
100
AcDbEntity
  8
0
  6
Continuous
 62
     8
370
     0
100
AcDbLine
 10
146.8838272048
 20
294.4649022965
 30
0.0
 11
121.3838272048
 21
294.4649022965
 31
0.0
  0
LINE
  5
32F
330
329
100
AcDbEntity
  8
0
  6
Continuous
 62
     8
370
     0
100
AcDbLine
 10
151.3838272048
 20
282.4649022965
 30
0.0
 11
121.3838272048
 21
282.4649022965
 31
0.0
  0
LINE
  5
330
330
329
100
AcDbEntity
  8
0
  6
Continuous
 62
     8
370
     0
100
AcDbLine
 10
122.3838272048
 20
294.4649022965
 30
0.0
 11
122.3838272048
 21
282.4649022965
 31
0.0
  0
MTEXT
  5
331
330
329
100
AcDbEntity
  8
0
  6
Continuous
 62
     8
370
     0
100
AcDbMText
 10
119.16115803
 20
286.557488998
 30
0.0
 40
2.5
 41
0.0
 71
     1
 72
     1
  1
12
  7
SLDTEXTSTYLE0
 11
-1.059690869644414E-14
 21
1.0
 31
0.0
 73
     1
 44
1.0
  0
ENDBLK
  5
32B
330
329
100
AcDbEntity
  8
0
100
AcDbBlockEnd
  0
BLOCK
  5
334
330
333
100
AcDbEntity
  8
0
100
AcDbBlockBegin
  2
_D_28
 70
     0
 10
0.0
 20
0.0
 30
0.0
  3
_D_28
  1

  0
SOLID
  5
336
330
333
100
AcDbEntity
  8
0
  6
Continuous
 62
     8
370
     0
100
AcDbTrace
 10
485.869108579
 20
302.9501836708
 30
0.0
 11
487.9088396786
 21
304.4459864771
 31
0.0
 12
487.3649113854
 22
304.9899147704
 32
0.0
 13
487.3649113854
 23
304.9899147704
 33
0.0
  0
LINE
  5
337
330
333
100
AcDbEntity
  8
0
  6
Continuous
 62
     8
370
     0
100
AcDbLine
 10
485.869108579
 20
302.9501836708
 30
0.0
 11
500.6902541806
 21
317.7713292724
 31
0.0
  0
LINE
  5
338
330
333
100
AcDbEntity
  8
0
  6
Continuous
 62
     8
370
     0
100
AcDbLine
 10
485.869108579
 20
302.9501836708
 30
0.0
 11
477.3838272048
 21
294.4649022965
 31
0.0
  0
MTEXT
  5
339
330
333
100
AcDbEntity
  8
0
  6
Continuous
 62
     8
370
     0
100
AcDbMText
 10
492.8449398119
 20
314.4773674143
 30
0.0
 40
2.5
 41
0.0
 71
     1
 72
     1
  1
R
  7
SLDTEXTSTYLE0
 11
0.7071067811865438
 21
0.7071067811865512
 31
0.0
 73
     1
 44
1.0
  0
MTEXT
  5
33A
330
333
100
AcDbEntity
  8
0
  6
Continuous
 62
     8
370
     0
100
AcDbMText
 10
494.5945561543
 20
316.2269837567
 30
0.0
 40
2.5
 41
0.0
 71
     1
 72
     1
  1
12
  7
SLDTEXTSTYLE0
 11
0.7071067811865438
 21
0.7071067811865512
 31
0.0
 73
     1
 44
1.0
  0
ENDBLK
  5
335
330
333
100
AcDbEntity
  8
0
100
AcDbBlockEnd
  0
BLOCK
  5
33D
330
33C
100
AcDbEntity
  8
0
100
AcDbBlockBegin
  2
_D_29
 70
     0
 10
0.0
 20
0.0
 30
0.0
  3
_D_29
  1

  0
SOLID
  5
33F
330
33C
100
AcDbEntity
  8
0
  6
Continuous
 62
     8
370
     0
100
AcDbTrace
 10
339.3838272048
 20
265.4649022965
 30
0.0
 11
336.8838272048
 21
265.8495176812
 31
0.0
 12
336.8838272048
 22
265.0802869119
 32
0.0
 13
336.8838272048
 23
265.0802869119
 33
0.0
  0
SOLID
  5
340
330
33C
100
AcDbEntity
  8
0
  6
Continuous
 62
     8
370
     0
100
AcDbTrace
 10
324.3838272048
 20
265.4649022965
 30
0.0
 11
326.8838272048
 21
265.0802869119
 31
0.0
 12
326.8838272048
 22
265.8495176812
 32
0.0
 13
326.8838272048
 23
265.8495176812
 33
0.0
  0
LINE
  5
341
330
33C
100
AcDbEntity
  8
0
  6
Continuous
 62
     8
370
     0
100
AcDbLine
 10
339.3838272048
 20
286.9649022965
 30
0.0
 11
339.3838272048
 21
264.4649022965
 31
0.0
  0
LINE
  5
342
330
33C
100
AcDbEntity
  8
0
  6
Continuous
 62
     8
370
     0
100
AcDbLine
 10
324.3838272048
 20
290.4649022965
 30
0.0
 11
324.3838272048
 21
264.4649022965
 31
0.0
  0
LINE
  5
343
330
33C
100
AcDbEntity
  8
0
  6
Continuous
 62
     8
370
     0
100
AcDbLine
 10
339.3838272048
 20
265.4649022965
 30
0.0
 11
324.3838272048
 21
265.4649022965
 31
0.0
  0
MTEXT
  5
344
330
33C
100
AcDbEntity
  8
0
  6
Continuous
 62
     8
370
     0
100
AcDbMText
 10
329.9764139062
 20
268.6875714713
 30
0.0
 40
2.5
 41
0.0
 71
     1
 72
     1
  1
15
  7
SLDTEXTSTYLE0
 73
     1
 44
1.0
  0
ENDBLK
  5
33E
330
33C
100
AcDbEntity
  8
0
100
AcDbBlockEnd
  0
BLOCK
  5
347
330
346
100
AcDbEntity
  8
0
100
AcDbBlockBegin
  2
SW_CENTERMARKSYMBOL_0
 70
     0
 10
0.0
 20
0.0
 30
0.0
  3
SW_CENTERMARKSYMBOL_0
  1

  0
LINE
  5
349
330
346
100
AcDbEntity
  8
0
  6
Continuous
 62
     0
370
     0
100
AcDbLine
 10
0.0
 20
0.0
 30
0.0
 11
0.0
 21
2.5
 31
0.0
  0
LINE
  5
34A
330
346
100
AcDbEntity
  8
0
  6
Continuous
 62
     0
370
     0
100
AcDbLine
 10
0.0
 20
0.0
 30
0.0
 11
-2.5
 21
0.0
 31
0.0
  0
LINE
  5
34B
330
346
100
AcDbEntity
  8
0
  6
Continuous
 62
     0
370
     0
100
AcDbLine
 10
0.0
 20
0.0
 30
0.0
 11
0.0
 21
-2.5
 31
0.0
  0
LINE
  5
34C
330
346
100
AcDbEntity
  8
0
  6
Continuous
 62
     0
370
     0
100
AcDbLine
 10
0.0
 20
0.0
 30
0.0
 11
2.5
 21
0.0
 31
0.0
  0
LINE
  5
34D
330
346
100
AcDbEntity
  8
0
  6
Continuous
 62
     0
370
     0
100
AcDbLine
 10
0.0
 20
5.0
 30
0.0
 11
0.0
 21
7.5
 31
0.0
  0
LINE
  5
34E
330
346
100
AcDbEntity
  8
0
  6
Continuous
 62
     0
370
     0
100
AcDbLine
 10
-5.0
 20
0.0
 30
0.0
 11
-7.5
 21
0.0
 31
0.0
  0
LINE
  5
34F
330
346
100
AcDbEntity
  8
0
  6
Continuous
 62
     0
370
     0
100
AcDbLine
 10
0.0
 20
-5.0
 30
0.0
 11
0.0
 21
-7.5
 31
0.0
  0
LINE
  5
350
330
346
100
AcDbEntity
  8
0
  6
Continuous
 62
     0
370
     0
100
AcDbLine
 10
5.0
 20
0.0
 30
0.0
 11
7.5
 21
0.0
 31
0.0
  0
ENDBLK
  5
348
330
346
100
AcDbEntity
  8
0
100
AcDbBlockEnd
  0
BLOCK
  5
353
330
352
100
AcDbEntity
  8
0
100
AcDbBlockBegin
  2
SW_CENTERMARKSYMBOL_1
 70
     0
 10
0.0
 20
0.0
 30
0.0
  3
SW_CENTERMARKSYMBOL_1
  1

  0
LINE
  5
355
330
352
100
AcDbEntity
  8
0
  6
Continuous
 62
     0
370
     0
100
AcDbLine
 10
0.0
 20
0.0
 30
0.0
 11
0.0
 21
2.5
 31
0.0
  0
LINE
  5
356
330
352
100
AcDbEntity
  8
0
  6
Continuous
 62
     0
370
     0
100
AcDbLine
 10
0.0
 20
0.0
 30
0.0
 11
-2.5
 21
0.0
 31
0.0
  0
LINE
  5
357
330
352
100
AcDbEntity
  8
0
  6
Continuous
 62
     0
370
     0
100
AcDbLine
 10
0.0
 20
0.0
 30
0.0
 11
0.0
 21
-2.5
 31
0.0
  0
LINE
  5
358
330
352
100
AcDbEntity
  8
0
  6
Continuous
 62
     0
370
     0
100
AcDbLine
 10
0.0
 20
0.0
 30
0.0
 11
2.5
 21
0.0
 31
0.0
  0
LINE
  5
359
330
352
100
AcDbEntity
  8
0
  6
Continuous
 62
     0
370
     0
100
AcDbLine
 10
0.0
 20
5.0
 30
0.0
 11
0.0
 21
7.5
 31
0.0
  0
LINE
  5
35A
330
352
100
AcDbEntity
  8
0
  6
Continuous
 62
     0
370
     0
100
AcDbLine
 10
-5.0
 20
0.0
 30
0.0
 11
-7.5
 21
0.0
 31
0.0
  0
LINE
  5
35B
330
352
100
AcDbEntity
  8
0
  6
Continuous
 62
     0
370
     0
100
AcDbLine
 10
0.0
 20
-5.0
 30
0.0
 11
0.0
 21
-7.5
 31
0.0
  0
LINE
  5
35C
330
352
100
AcDbEntity
  8
0
  6
Continuous
 62
     0
370
     0
100
AcDbLine
 10
5.0
 20
0.0
 30
0.0
 11
7.5
 21
0.0
 31
0.0
  0
ENDBLK
  5
354
330
352
100
AcDbEntity
  8
0
100
AcDbBlockEnd
  0
BLOCK
  5
35F
330
35E
100
AcDbEntity
  8
0
100
AcDbBlockBegin
  2
SW_CENTERMARKSYMBOL_2
 70
     0
 10
0.0
 20
0.0
 30
0.0
  3
SW_CENTERMARKSYMBOL_2
  1

  0
LINE
  5
361
330
35E
100
AcDbEntity
  8
0
  6
Continuous
 62
     0
370
     0
100
AcDbLine
 10
0.0
 20
0.0
 30
0.0
 11
0.0
 21
2.5
 31
0.0
  0
LINE
  5
362
330
35E
100
AcDbEntity
  8
0
  6
Continuous
 62
     0
370
     0
100
AcDbLine
 10
0.0
 20
0.0
 30
0.0
 11
-2.5
 21
0.0
 31
0.0
  0
LINE
  5
363
330
35E
100
AcDbEntity
  8
0
  6
Continuous
 62
     0
370
     0
100
AcDbLine
 10
0.0
 20
0.0
 30
0.0
 11
0.0
 21
-2.5
 31
0.0
  0
LINE
  5
364
330
35E
100
AcDbEntity
  8
0
  6
Continuous
 62
     0
370
     0
100
AcDbLine
 10
0.0
 20
0.0
 30
0.0
 11
2.5
 21
0.0
 31
0.0
  0
LINE
  5
365
330
35E
100
AcDbEntity
  8
0
  6
Continuous
 62
     0
370
     0
100
AcDbLine
 10
0.0
 20
5.0
 30
0.0
 11
0.0
 21
7.5
 31
0.0
  0
LINE
  5
366
330
35E
100
AcDbEntity
  8
0
  6
Continuous
 62
     0
370
     0
100
AcDbLine
 10
-5.0
 20
0.0
 30
0.0
 11
-7.5
 21
0.0
 31
0.0
  0
LINE
  5
367
330
35E
100
AcDbEntity
  8
0
  6
Continuous
 62
     0
370
     0
100
AcDbLine
 10
0.0
 20
-5.0
 30
0.0
 11
0.0
 21
-7.5
 31
0.0
  0
LINE
  5
368
330
35E
100
AcDbEntity
  8
0
  6
Continuous
 62
     0
370
     0
100
AcDbLine
 10
5.0
 20
0.0
 30
0.0
 11
7.5
 21
0.0
 31
0.0
  0
ENDBLK
  5
360
330
35E
100
AcDbEntity
  8
0
100
AcDbBlockEnd
  0
BLOCK
  5
36B
330
36A
100
AcDbEntity
  8
0
100
AcDbBlockBegin
  2
SW_CENTERMARKSYMBOL_3
 70
     0
 10
0.0
 20
0.0
 30
0.0
  3
SW_CENTERMARKSYMBOL_3
  1

  0
LINE
  5
36D
330
36A
100
AcDbEntity
  8
0
  6
Continuous
 62
     0
370
     0
100
AcDbLine
 10
0.0
 20
0.0
 30
0.0
 11
0.0
 21
2.5
 31
0.0
  0
LINE
  5
36E
330
36A
100
AcDbEntity
  8
0
  6
Continuous
 62
     0
370
     0
100
AcDbLine
 10
0.0
 20
0.0
 30
0.0
 11
-2.5
 21
0.0
 31
0.0
  0
LINE
  5
36F
330
36A
100
AcDbEntity
  8
0
  6
Continuous
 62
     0
370
     0
100
AcDbLine
 10
0.0
 20
0.0
 30
0.0
 11
0.0
 21
-2.5
 31
0.0
  0
LINE
  5
370
330
36A
100
AcDbEntity
  8
0
  6
Continuous
 62
     0
370
     0
100
AcDbLine
 10
0.0
 20
0.0
 30
0.0
 11
2.5
 21
0.0
 31
0.0
  0
LINE
  5
371
330
36A
100
AcDbEntity
  8
0
  6
Continuous
 62
     0
370
     0
100
AcDbLine
 10
0.0
 20
5.0
 30
0.0
 11
0.0
 21
7.5
 31
0.0
  0
LINE
  5
372
330
36A
100
AcDbEntity
  8
0
  6
Continuous
 62
     0
370
     0
100
AcDbLine
 10
-5.0
 20
0.0
 30
0.0
 11
-7.5
 21
0.0
 31
0.0
  0
LINE
  5
373
330
36A
100
AcDbEntity
  8
0
  6
Continuous
 62
     0
370
     0
100
AcDbLine
 10
0.0
 20
-5.0
 30
0.0
 11
0.0
 21
-7.5
 31
0.0
  0
LINE
  5
374
330
36A
100
AcDbEntity
  8
0
  6
Continuous
 62
     0
370
     0
100
AcDbLine
 10
5.0
 20
0.0
 30
0.0
 11
7.5
 21
0.0
 31
0.0
  0
ENDBLK
  5
36C
330
36A
100
AcDbEntity
  8
0
100
AcDbBlockEnd
  0
BLOCK
  5
377
330
376
100
AcDbEntity
  8
0
100
AcDbBlockBegin
  2
SW_CENTERMARKSYMBOL_4
 70
     0
 10
0.0
 20
0.0
 30
0.0
  3
SW_CENTERMARKSYMBOL_4
  1

  0
LINE
  5
379
330
376
100
AcDbEntity
  8
0
  6
Continuous
 62
     0
370
     0
100
AcDbLine
 10
0.0
 20
0.0
 30
0.0
 11
0.0
 21
2.5
 31
0.0
  0
LINE
  5
37A
330
376
100
AcDbEntity
  8
0
  6
Continuous
 62
     0
370
     0
100
AcDbLine
 10
0.0
 20
0.0
 30
0.0
 11
-2.5
 21
0.0
 31
0.0
  0
LINE
  5
37B
330
376
100
AcDbEntity
  8
0
  6
Continuous
 62
     0
370
     0
100
AcDbLine
 10
0.0
 20
0.0
 30
0.0
 11
0.0
 21
-2.5
 31
0.0
  0
LINE
  5
37C
330
376
100
AcDbEntity
  8
0
  6
Continuous
 62
     0
370
     0
100
AcDbLine
 10
0.0
 20
0.0
 30
0.0
 11
2.5
 21
0.0
 31
0.0
  0
LINE
  5
37D
330
376
100
AcDbEntity
  8
0
  6
Continuous
 62
     0
370
     0
100
AcDbLine
 10
0.0
 20
5.0
 30
0.0
 11
0.0
 21
7.5
 31
0.0
  0
LINE
  5
37E
330
376
100
AcDbEntity
  8
0
  6
Continuous
 62
     0
370
     0
100
AcDbLine
 10
-5.0
 20
0.0
 30
0.0
 11
-7.5
 21
0.0
 31
0.0
  0
LINE
  5
37F
330
376
100
AcDbEntity
  8
0
  6
Continuous
 62
     0
370
     0
100
AcDbLine
 10
0.0
 20
-5.0
 30
0.0
 11
0.0
 21
-7.5
 31
0.0
  0
LINE
  5
380
330
376
100
AcDbEntity
  8
0
  6
Continuous
 62
     0
370
     0
100
AcDbLine
 10
5.0
 20
0.0
 30
0.0
 11
7.5
 21
0.0
 31
0.0
  0
ENDBLK
  5
378
330
376
100
AcDbEntity
  8
0
100
AcDbBlockEnd
  0
BLOCK
  5
3A7
330
3A6
100
AcDbEntity
  8
0
100
AcDbBlockBegin
  2
_D_30
 70
     0
 10
0.0
 20
0.0
 30
0.0
  3
_D_30
  1

  0
SOLID
  5
3A9
330
3A6
100
AcDbEntity
  8
0
  6
Continuous
 62
     8
370
     0
100
AcDbTrace
 10
244.3838272048
 20
164.2106874265
 30
0.0
 11
246.8838272048
 21
163.8260720419
 31
0.0
 12
246.8838272048
 22
164.5953028111
 32
0.0
 13
246.8838272048
 23
164.5953028111
 33
0.0
  0
SOLID
  5
3AA
330
3A6
100
AcDbEntity
  8
0
  6
Continuous
 62
     8
370
     0
100
AcDbTrace
 10
254.3838272048
 20
164.2106874265
 30
0.0
 11
251.8838272048
 21
164.5953028111
 31
0.0
 12
251.8838272048
 22
163.8260720419
 32
0.0
 13
251.8838272048
 23
163.8260720419
 33
0.0
  0
LINE
  5
3AB
330
3A6
100
AcDbEntity
  8
0
  6
Continuous
 62
     8
370
     0
100
AcDbLine
 10
244.3838272048
 20
138.2313967339
 30
0.0
 11
244.3838272048
 21
165.2106874265
 31
0.0
  0
LINE
  5
3AC
330
3A6
100
AcDbEntity
  8
0
  6
Continuous
 62
     8
370
     0
100
AcDbLine
 10
254.3838272048
 20
138.2313967339
 30
0.0
 11
254.3838272048
 21
165.2106874265
 31
0.0
  0
LINE
  5
3AD
330
3A6
100
AcDbEntity
  8
0
  6
Continuous
 62
     8
370
     0
100
AcDbLine
 10
244.3838272048
 20
164.2106874265
 30
0.0
 11
216.139668892
 21
164.2106874265
 31
0.0
  0
LINE
  5
3AE
330
3A6
100
AcDbEntity
  8
0
  6
Continuous
 62
     8
370
     0
100
AcDbLine
 10
244.3838272048
 20
164.2106874265
 30
0.0
 11
254.3838272048
 21
164.2106874265
 31
0.0
  0
MTEXT
  5
3AF
330
3A6
100
AcDbEntity
  8
0
  6
Continuous
 62
     8
370
     0
100
AcDbMText
 10
216.139668892
 20
167.4333570088
 30
0.0
 40
2.5
 41
0.0
 71
     1
 72
     1
  1
%%c
  7
SLDTEXTSTYLE0
 73
     1
 44
1.0
  0
MTEXT
  5
3B0
330
3A6
100
AcDbEntity
  8
0
  6
Continuous
 62
     8
370
     0
100
AcDbMText
 10
219.7846342482
 20
167.4403014738
 30
0.0
 40
2.5
 41
0.0
 71
     1
 72
     1
  1
10
  7
SLDTEXTSTYLE0
 73
     1
 44
1.0
  0
MTEXT
  5
3B1
330
3A6
100
AcDbEntity
  8
0
  6
Continuous
 62
     8
370
     0
100
AcDbMText
 10
224.5415786978
 20
167.4403014738
 30
0.0
 40
2.5
 41
0.0
 71
     1
 72
     1
  1

  7
SLDTEXTSTYLE0
 73
     1
 44
1.0
  0
MTEXT
  5
3B2
330
3A6
100
AcDbEntity
  8
0
  6
Continuous
 62
     8
370
     0
100
AcDbMText
 10
224.5589395192
 20
168.9457226949
 30
0.0
 40
1.75
 41
0.0
 71
     1
 72
     1
  1
+
  7
SLDTEXTSTYLE0
 73
     1
 44
1.0
  0
MTEXT
  5
3B3
330
3A6
100
AcDbEntity
  8
0
  6
Continuous
 62
     8
370
     0
100
AcDbMText
 10
225.5834186909
 20
166.6853059488
 30
0.0
 40
1.75
 41
0.0
 71
     1
 72
     1
  1

  7
SLDTEXTSTYLE0
 73
     1
 44
1.0
  0
MTEXT
  5
3B4
330
3A6
100
AcDbEntity
  8
0
  6
Continuous
 62
     8
370
     0
100
AcDbMText
 10
225.9638005075
 20
168.9457226949
 30
0.0
 40
1.75
 41
0.0
 71
     1
 72
     1
  1
0,1
  7
SLDTEXTSTYLE0
 73
     1
 44
1.0
  0
MTEXT
  5
3B5
330
3A6
100
AcDbEntity
  8
0
  6
Continuous
 62
     8
370
     0
100
AcDbMText
 10
225.9638005075
 20
166.6853059488
 30
0.0
 40
1.75
 41
0.0
 71
     1
 72
     1
  1
0
  7
SLDTEXTSTYLE0
 73
     1
 44
1.0
  0
MTEXT
  5
3B6
330
3A6
100
AcDbEntity
  8
0
  6
Continuous
 62
     8
370
     0
100
AcDbMText
 10
231.1808143136
 20
167.4403014738
 30
0.0
 40
2.5
 41
0.0
 71
     1
 72
     1
  1
x 90°
  7
SLDTEXTSTYLE0
 73
     1
 44
1.0
  0
ENDBLK
  5
3A8
330
3A6
100
AcDbEntity
  8
0
100
AcDbBlockEnd
  0
BLOCK
  5
3BA
330
3B9
100
AcDbEntity
  8
0
100
AcDbBlockBegin
  2
_D_31
 70
     0
 10
0.0
 20
0.0
 30
0.0
  3
_D_31
  1

  0
SOLID
  5
3BC
330
3B9
100
AcDbEntity
  8
0
  6
Continuous
 62
     8
370
     0
100
AcDbTrace
 10
245.5838272048
 20
103.969350228
 30
0.0
 11
243.0838272048
 21
104.3539656126
 31
0.0
 12
243.0838272048
 22
103.5847348434
 32
0.0
 13
243.0838272048
 23
103.5847348434
 33
0.0
  0
SOLID
  5
3BD
330
3B9
100
AcDbEntity
  8
0
  6
Continuous
 62
     8
370
     0
100
AcDbTrace
 10
253.1838272048
 20
103.969350228
 30
0.0
 11
255.6838272048
 21
103.5847348434
 31
0.0
 12
255.6838272048
 22
104.3539656126
 32
0.0
 13
255.6838272048
 23
104.3539656126
 33
0.0
  0
LINE
  5
3BE
330
3B9
100
AcDbEntity
  8
0
  6
Continuous
 62
     8
370
     0
100
AcDbLine
 10
245.5838272048
 20
138.2313967339
 30
0.0
 11
245.5838272048
 21
102.969350228
 31
0.0
  0
LINE
  5
3BF
330
3B9
100
AcDbEntity
  8
0
  6
Continuous
 62
     8
370
     0
100
AcDbLine
 10
253.1838272048
 20
138.2313967339
 30
0.0
 11
253.1838272048
 21
102.969350228
 31
0.0
  0
LINE
  5
3C0
330
3B9
100
AcDbEntity
  8
0
  6
Continuous
 62
     8
370
     0
100
AcDbLine
 10
245.5838272048
 20
103.969350228
 30
0.0
 11
240.7761348971
 21
103.969350228
 31
0.0
  0
LINE
  5
3C1
330
3B9
100
AcDbEntity
  8
0
  6
Continuous
 62
     8
370
     0
100
AcDbLine
 10
245.5838272048
 20
103.969350228
 30
0.0
 11
253.1838272048
 21
103.969350228
 31
0.0
  0
LINE
  5
3C2
330
3B9
100
AcDbEntity
  8
0
  6
Continuous
 62
     8
370
     0
100
AcDbLine
 10
253.1838272048
 20
103.969350228
 30
0.0
 11
270.8918167996
 21
103.969350228
 31
0.0
  0
MTEXT
  5
3C3
330
3B9
100
AcDbEntity
  8
0
  6
Continuous
 62
     8
370
     0
100
AcDbMText
 10
257.3760174932
 20
107.1920198102
 30
0.0
 40
2.5
 41
0.0
 71
     1
 72
     1
  1
%%c
  7
SLDTEXTSTYLE0
 73
     1
 44
1.0
  0
MTEXT
  5
3C4
330
3B9
100
AcDbEntity
  8
0
  6
Continuous
 62
     8
370
     0
100
AcDbMText
 10
261.0209828494
 20
107.1989642752
 30
0.0
 40
2.5
 41
0.0
 71
     1
 72
     1
  1
7,6
  7
SLDTEXTSTYLE0
 73
     1
 44
1.0
  0
MTEXT
  5
3C5
330
3B9
100
AcDbEntity
  8
0
  6
Continuous
 62
     8
370
     0
100
AcDbMText
 10
266.7327881204
 20
107.1989642752
 30
0.0
 40
2.5
 41
0.0
 71
     1
 72
     1
  1

  7
SLDTEXTSTYLE0
 73
     1
 44
1.0
  0
MTEXT
  5
3C6
330
3B9
100
AcDbEntity
  8
0
  6
Continuous
 62
     8
370
     0
100
AcDbMText
 10
267.4720248781
 20
108.7043854964
 30
0.0
 40
1.75
 41
0.0
 71
     1
 72
     1
  1

  7
SLDTEXTSTYLE0
 73
     1
 44
1.0
  0
MTEXT
  5
3C7
330
3B9
100
AcDbEntity
  8
0
  6
Continuous
 62
     8
370
     0
100
AcDbMText
 10
266.7501498731
 20
106.4439687502
 30
0.0
 40
1.75
 41
0.0
 71
     1
 72
     1
  1
-
  7
SLDTEXTSTYLE0
 73
     1
 44
1.0
  0
MTEXT
  5
3C8
330
3B9
100
AcDbEntity
  8
0
  6
Continuous
 62
     8
370
     0
100
AcDbMText
 10
267.5498020621
 20
108.7043854964
 30
0.0
 40
1.75
 41
0.0
 71
     1
 72
     1
  1
0
  7
SLDTEXTSTYLE0
 73
     1
 44
1.0
  0
MTEXT
  5
3C9
330
3B9
100
AcDbEntity
  8
0
  6
Continuous
 62
     8
370
     0
100
AcDbMText
 10
267.5498020621
 20
106.4439687502
 30
0.0
 40
1.75
 41
0.0
 71
     1
 72
     1
  1
0,6
  7
SLDTEXTSTYLE0
 73
     1
 44
1.0
  0
ENDBLK
  5
3BB
330
3B9
100
AcDbEntity
  8
0
100
AcDbBlockEnd
  0
BLOCK
  5
3CB
330
3CA
100
AcDbEntity
  8
0
100
AcDbBlockBegin
  2
SW_NOTE_0
 70
     0
 10
0.0
 20
0.0
 30
0.0
  3
SW_NOTE_0
  1

  0
MTEXT
  5
3CD
330
3CA
100
AcDbEntity
  8
0
  6
Continuous
 62
     0
370
     0
100
AcDbMText
 10
17.3046875
 20
3.2226693494
 30
0.0
 40
2.5
 41
0.0
 71
     2
 72
     1
  1
Senkung / countersunk
  7
SLDTEXTSTYLE0
 73
     1
 44
1.0
  0
MTEXT
  5
3CE
330
3CA
100
AcDbEntity
  8
0
  6
Continuous
 62
     0
370
     0
100
AcDbMText
 10
17.3437491804
 20
-1.2773304569
 30
0.0
 40
2.5
 41
0.0
 71
     2
 72
     1
  1
beidseitig / both-sided
  7
SLDTEXTSTYLE0
 73
     1
 44
1.0
  0
ENDBLK
  5
3CC
330
3CA
100
AcDbEntity
  8
0
100
AcDbBlockEnd
  0
BLOCK
  5
3D1
330
3D0
100
AcDbEntity
  8
0
100
AcDbBlockBegin
  2
SW_CENTERMARKSYMBOL_5
 70
     0
 10
0.0
 20
0.0
 30
0.0
  3
SW_CENTERMARKSYMBOL_5
  1

  0
LINE
  5
3D3
330
3D0
100
AcDbEntity
  8
0
  6
Continuous
 62
     0
370
     0
100
AcDbLine
 10
0.0
 20
0.0
 30
0.0
 11
0.0
 21
2.5
 31
0.0
  0
LINE
  5
3D4
330
3D0
100
AcDbEntity
  8
0
  6
Continuous
 62
     0
370
     0
100
AcDbLine
 10
0.0
 20
0.0
 30
0.0
 11
-2.5
 21
0.0
 31
0.0
  0
LINE
  5
3D5
330
3D0
100
AcDbEntity
  8
0
  6
Continuous
 62
     0
370
     0
100
AcDbLine
 10
0.0
 20
0.0
 30
0.0
 11
0.0
 21
-2.5
 31
0.0
  0
LINE
  5
3D6
330
3D0
100
AcDbEntity
  8
0
  6
Continuous
 62
     0
370
     0
100
AcDbLine
 10
0.0
 20
0.0
 30
0.0
 11
2.5
 21
0.0
 31
0.0
  0
LINE
  5
3D7
330
3D0
100
AcDbEntity
  8
0
  6
Continuous
 62
     0
370
     0
100
AcDbLine
 10
0.0
 20
5.0
 30
0.0
 11
0.0
 21
7.5
 31
0.0
  0
LINE
  5
3D8
330
3D0
100
AcDbEntity
  8
0
  6
Continuous
 62
     0
370
     0
100
AcDbLine
 10
-5.0
 20
0.0
 30
0.0
 11
-7.5
 21
0.0
 31
0.0
  0
LINE
  5
3D9
330
3D0
100
AcDbEntity
  8
0
  6
Continuous
 62
     0
370
     0
100
AcDbLine
 10
0.0
 20
-5.0
 30
0.0
 11
0.0
 21
-7.5
 31
0.0
  0
LINE
  5
3DA
330
3D0
100
AcDbEntity
  8
0
  6
Continuous
 62
     0
370
     0
100
AcDbLine
 10
5.0
 20
0.0
 30
0.0
 11
7.5
 21
0.0
 31
0.0
  0
ENDBLK
  5
3D2
330
3D0
100
AcDbEntity
  8
0
100
AcDbBlockEnd
  0
BLOCK
  5
3DD
330
3DC
100
AcDbEntity
  8
0
100
AcDbBlockBegin
  2
SW_CENTERMARKSYMBOL_6
 70
     0
 10
0.0
 20
0.0
 30
0.0
  3
SW_CENTERMARKSYMBOL_6
  1

  0
LINE
  5
3DF
330
3DC
100
AcDbEntity
  8
0
  6
Continuous
 62
     0
370
     0
100
AcDbLine
 10
0.0
 20
0.0
 30
0.0
 11
0.0
 21
2.5
 31
0.0
  0
LINE
  5
3E0
330
3DC
100
AcDbEntity
  8
0
  6
Continuous
 62
     0
370
     0
100
AcDbLine
 10
0.0
 20
0.0
 30
0.0
 11
-2.5
 21
0.0
 31
0.0
  0
LINE
  5
3E1
330
3DC
100
AcDbEntity
  8
0
  6
Continuous
 62
     0
370
     0
100
AcDbLine
 10
0.0
 20
0.0
 30
0.0
 11
0.0
 21
-2.5
 31
0.0
  0
LINE
  5
3E2
330
3DC
100
AcDbEntity
  8
0
  6
Continuous
 62
     0
370
     0
100
AcDbLine
 10
0.0
 20
0.0
 30
0.0
 11
2.5
 21
0.0
 31
0.0
  0
LINE
  5
3E3
330
3DC
100
AcDbEntity
  8
0
  6
Continuous
 62
     0
370
     0
100
AcDbLine
 10
0.0
 20
5.0
 30
0.0
 11
0.0
 21
7.5
 31
0.0
  0
LINE
  5
3E4
330
3DC
100
AcDbEntity
  8
0
  6
Continuous
 62
     0
370
     0
100
AcDbLine
 10
-5.0
 20
0.0
 30
0.0
 11
-7.5
 21
0.0
 31
0.0
  0
LINE
  5
3E5
330
3DC
100
AcDbEntity
  8
0
  6
Continuous
 62
     0
370
     0
100
AcDbLine
 10
0.0
 20
-5.0
 30
0.0
 11
0.0
 21
-7.5
 31
0.0
  0
LINE
  5
3E6
330
3DC
100
AcDbEntity
  8
0
  6
Continuous
 62
     0
370
     0
100
AcDbLine
 10
5.0
 20
0.0
 30
0.0
 11
7.5
 21
0.0
 31
0.0
  0
ENDBLK
  5
3DE
330
3DC
100
AcDbEntity
  8
0
100
AcDbBlockEnd
  0
BLOCK
  5
3E9
330
3E8
100
AcDbEntity
  8
0
100
AcDbBlockBegin
  2
SW_CENTERMARKSYMBOL_7
 70
     0
 10
0.0
 20
0.0
 30
0.0
  3
SW_CENTERMARKSYMBOL_7
  1

  0
LINE
  5
3EB
330
3E8
100
AcDbEntity
  8
0
  6
Continuous
 62
     0
370
     0
100
AcDbLine
 10
0.0
 20
0.0
 30
0.0
 11
0.0
 21
2.5
 31
0.0
  0
LINE
  5
3EC
330
3E8
100
AcDbEntity
  8
0
  6
Continuous
 62
     0
370
     0
100
AcDbLine
 10
0.0
 20
0.0
 30
0.0
 11
-2.5
 21
0.0
 31
0.0
  0
LINE
  5
3ED
330
3E8
100
AcDbEntity
  8
0
  6
Continuous
 62
     0
370
     0
100
AcDbLine
 10
0.0
 20
0.0
 30
0.0
 11
0.0
 21
-2.5
 31
0.0
  0
LINE
  5
3EE
330
3E8
100
AcDbEntity
  8
0
  6
Continuous
 62
     0
370
     0
100
AcDbLine
 10
0.0
 20
0.0
 30
0.0
 11
2.5
 21
0.0
 31
0.0
  0
LINE
  5
3EF
330
3E8
100
AcDbEntity
  8
0
  6
Continuous
 62
     0
370
     0
100
AcDbLine
 10
0.0
 20
5.0
 30
0.0
 11
0.0
 21
7.5
 31
0.0
  0
LINE
  5
3F0
330
3E8
100
AcDbEntity
  8
0
  6
Continuous
 62
     0
370
     0
100
AcDbLine
 10
-5.0
 20
0.0
 30
0.0
 11
-7.5
 21
0.0
 31
0.0
  0
LINE
  5
3F1
330
3E8
100
AcDbEntity
  8
0
  6
Continuous
 62
     0
370
     0
100
AcDbLine
 10
0.0
 20
-5.0
 30
0.0
 11
0.0
 21
-7.5
 31
0.0
  0
LINE
  5
3F2
330
3E8
100
AcDbEntity
  8
0
  6
Continuous
 62
     0
370
     0
100
AcDbLine
 10
5.0
 20
0.0
 30
0.0
 11
7.5
 21
0.0
 31
0.0
  0
ENDBLK
  5
3EA
330
3E8
100
AcDbEntity
  8
0
100
AcDbBlockEnd
  0
BLOCK
  5
3F5
330
3F4
100
AcDbEntity
  8
0
100
AcDbBlockBegin
  2
SW_CENTERMARKSYMBOL_8
 70
     0
 10
0.0
 20
0.0
 30
0.0
  3
SW_CENTERMARKSYMBOL_8
  1

  0
LINE
  5
3F7
330
3F4
100
AcDbEntity
  8
0
  6
Continuous
 62
     0
370
     0
100
AcDbLine
 10
0.0
 20
0.0
 30
0.0
 11
0.0
 21
2.5
 31
0.0
  0
LINE
  5
3F8
330
3F4
100
AcDbEntity
  8
0
  6
Continuous
 62
     0
370
     0
100
AcDbLine
 10
0.0
 20
0.0
 30
0.0
 11
-2.5
 21
0.0
 31
0.0
  0
LINE
  5
3F9
330
3F4
100
AcDbEntity
  8
0
  6
Continuous
 62
     0
370
     0
100
AcDbLine
 10
0.0
 20
0.0
 30
0.0
 11
0.0
 21
-2.5
 31
0.0
  0
LINE
  5
3FA
330
3F4
100
AcDbEntity
  8
0
  6
Continuous
 62
     0
370
     0
100
AcDbLine
 10
0.0
 20
0.0
 30
0.0
 11
2.5
 21
0.0
 31
0.0
  0
LINE
  5
3FB
330
3F4
100
AcDbEntity
  8
0
  6
Continuous
 62
     0
370
     0
100
AcDbLine
 10
0.0
 20
5.0
 30
0.0
 11
0.0
 21
7.5
 31
0.0
  0
LINE
  5
3FC
330
3F4
100
AcDbEntity
  8
0
  6
Continuous
 62
     0
370
     0
100
AcDbLine
 10
-5.0
 20
0.0
 30
0.0
 11
-7.5
 21
0.0
 31
0.0
  0
LINE
  5
3FD
330
3F4
100
AcDbEntity
  8
0
  6
Continuous
 62
     0
370
     0
100
AcDbLine
 10
0.0
 20
-5.0
 30
0.0
 11
0.0
 21
-7.5
 31
0.0
  0
LINE
  5
3FE
330
3F4
100
AcDbEntity
  8
0
  6
Continuous
 62
     0
370
     0
100
AcDbLine
 10
5.0
 20
0.0
 30
0.0
 11
7.5
 21
0.0
 31
0.0
  0
ENDBLK
  5
3F6
330
3F4
100
AcDbEntity
  8
0
100
AcDbBlockEnd
  0
BLOCK
  5
401
330
400
100
AcDbEntity
  8
0
100
AcDbBlockBegin
  2
SW_CENTERMARKSYMBOL_9
 70
     0
 10
0.0
 20
0.0
 30
0.0
  3
SW_CENTERMARKSYMBOL_9
  1

  0
LINE
  5
403
330
400
100
AcDbEntity
  8
0
  6
Continuous
 62
     0
370
     0
100
AcDbLine
 10
0.0
 20
0.0
 30
0.0
 11
0.0
 21
2.5
 31
0.0
  0
LINE
  5
404
330
400
100
AcDbEntity
  8
0
  6
Continuous
 62
     0
370
     0
100
AcDbLine
 10
0.0
 20
0.0
 30
0.0
 11
-2.5
 21
0.0
 31
0.0
  0
LINE
  5
405
330
400
100
AcDbEntity
  8
0
  6
Continuous
 62
     0
370
     0
100
AcDbLine
 10
0.0
 20
0.0
 30
0.0
 11
0.0
 21
-2.5
 31
0.0
  0
LINE
  5
406
330
400
100
AcDbEntity
  8
0
  6
Continuous
 62
     0
370
     0
100
AcDbLine
 10
0.0
 20
0.0
 30
0.0
 11
2.5
 21
0.0
 31
0.0
  0
LINE
  5
407
330
400
100
AcDbEntity
  8
0
  6
Continuous
 62
     0
370
     0
100
AcDbLine
 10
0.0
 20
5.0
 30
0.0
 11
0.0
 21
7.5
 31
0.0
  0
LINE
  5
408
330
400
100
AcDbEntity
  8
0
  6
Continuous
 62
     0
370
     0
100
AcDbLine
 10
-5.0
 20
0.0
 30
0.0
 11
-7.5
 21
0.0
 31
0.0
  0
LINE
  5
409
330
400
100
AcDbEntity
  8
0
  6
Continuous
 62
     0
370
     0
100
AcDbLine
 10
0.0
 20
-5.0
 30
0.0
 11
0.0
 21
-7.5
 31
0.0
  0
LINE
  5
40A
330
400
100
AcDbEntity
  8
0
  6
Continuous
 62
     0
370
     0
100
AcDbLine
 10
5.0
 20
0.0
 30
0.0
 11
7.5
 21
0.0
 31
0.0
  0
ENDBLK
  5
402
330
400
100
AcDbEntity
  8
0
100
AcDbBlockEnd
  0
ENDSEC
  0
SECTION
  2
ENTITIES
  0
HATCH
  5
75
330
1F
100
AcDbEntity
  8
0
  6
Continuous
 62
     7
100
AcDbHatch
 10
0.0
 20
0.0
 30
0.0
210
0.0
220
0.0
230
1.0
  2
SOLID
 70
     1
 71
     0
 91
        1
 92
        0
 93
        9
 72
     1
 10
447.0600349050994
 20
23.12889986233926
 11
449.0093336388995
 21
26.36461150363928
 72
     1
 10
449.0093336388995
 20
26.36461150363928
 11
447.7224201459994
 21
26.36586354853926
 72
     1
 10
447.7224201459994
 20
26.36586354853926
 11
446.5026060270994
 21
24.29022688543927
 72
     1
 10
446.5026060270994
 20
24.29022688543927
 11
445.2727772931994
 21
26.36340974983928
 72
     1
 10
445.2727772931994
 20
26.36340974983928
 11
443.9702404194993
 21
26.36376033403929
 72
     1
 10
443.9702404194993
 20
26.36376033403929
 11
445.9045166493996
 21
23.15834370253927
 72
     1
 10
445.9045166493996
 20
23.15834370253927
 11
445.9069204476994
 21
21.11190058693926
 72
     1
 10
445.9069204476994
 20
21.11190058693926
 11
447.0620381187994
 21
21.11109941773926
 72
     1
 10
447.0620381187994
 20
21.11109941773926
 11
447.0600349050994
 21
23.12889986233926
 97
        0
 75
     0
 76
     1
 98
        1
 10
0.0
 20
0.0
  0
HATCH
  5
76
330
1F
100
AcDbEntity
  8
0
  6
Continuous
 62
     7
100
AcDbHatch
 10
0.0
 20
0.0
 30
0.0
210
0.0
220
0.0
230
1.0
  2
SOLID
 70
     1
 71
     0
 91
        4
 92
        0
 93
       36
 72
     4
 94
        3
 73
     1
 74
     0
 95
        8
 96
        4
 40
27.0
 40
27.0
 40
27.0
 40
27.0
 40
28.0
 40
28.0
 40
28.0
 40
28.0
 10
419.7759123663881
 20
20.97750071869942
 42
1.0
 10
420.6006888446595
 20
20.97750071869942
 42
1.0
 10
421.2000300909974
 20
21.2196608212385
 42
1.0
 10
421.560065479181
 20
21.60954058930489
 42
1.0
 72
     1
 10
421.560065479181
 20
21.60954058930489
 11
421.3680799884584
 21
21.10328776948067
 72
     1
 10
421.3680799884584
 20
21.10328776948067
 11
422.5373687714174
 21
21.10308747162912
 72
     1
 10
422.5373687714174
 20
21.10308747162912
 11
422.9492312286928
 21
22.27272677582834
 72
     1
 10
422.9492312286928
 20
22.27272677582834
 11
424.9146538971499
 21
22.27402871186349
 72
     1
 10
424.9146538971499
 20
22.27402871186349
 11
425.3118946112612
 21
21.10428925873847
 72
     1
 10
425.3118946112612
 20
21.10428925873847
 11
426.5118289655091
 21
21.10448955659006
 72
     1
 10
426.5118289655091
 20
21.10448955659006
 11
424.5448539887026
 21
26.35649952241037
 72
     1
 10
424.5448539887026
 20
26.35649952241037
 11
423.359341079767
 21
26.35664974579904
 72
     1
 10
423.359341079767
 20
26.35664974579904
 11
421.9588585016419
 21
22.66180535248849
 72
     4
 94
        3
 73
     1
 74
     0
 95
        8
 96
        4
 40
1.0
 40
1.0
 40
1.0
 40
1.0
 40
2.0
 40
2.0
 40
2.0
 40
2.0
 10
421.9588585016419
 20
22.66180535248849
 42
1.0
 10
421.9572060443667
 20
23.85412838837717
 42
1.0
 10
420.7814075812319
 20
24.09713975678537
 42
1.0
 10
420.3988386847474
 20
24.19127974701973
 42
1.0
 72
     4
 94
        3
 73
     1
 74
     0
 95
        8
 96
        4
 40
2.0
 40
2.0
 40
2.0
 40
2.0
 40
3.0
 40
3.0
 40
3.0
 40
3.0
 10
420.3988386847474
 20
24.19127974701973
 42
1.0
 10
419.0813294916323
 20
24.53088475434395
 42
1.0
 10
418.8317583685853
 20
24.57910646210762
 42
1.0
 10
418.8314078473451
 20
24.98611169648263
 42
1.0
 72
     4
 94
        3
 73
     1
 74
     0
 95
        8
 96
        4
 40
3.0
 40
3.0
 40
3.0
 40
3.0
 40
4.0
 40
4.0
 40
4.0
 40
4.0
 10
418.8314078473451
 20
24.98611169648263
 42
1.0
 10
418.8320087408998
 20
25.42771838471505
 42
1.0
 10
419.2584428668763
 20
25.58209795380684
 42
1.0
 10
419.6259393500306
 20
25.58129676240059
 42
1.0
 72
     4
 94
        3
 73
     1
 74
     0
 95
        8
 96
        4
 40
4.0
 40
4.0
 40
4.0
 40
4.0
 40
5.0
 40
5.0
 40
5.0
 40
5.0
 10
419.6259393500306
 20
25.58129676240059
 42
1.0
 10
420.1789116437319
 20
25.58174743256661
 42
1.0
 10
420.626577341974
 20
25.42030736420722
 42
1.0
 10
420.6640831146789
 20
24.78841771699044
 42
1.0
 72
     1
 10
420.6640831146789
 20
24.78841771699044
 11
421.7821957965638
 21
24.788618014842
 72
     4
 94
        3
 73
     1
 74
     0
 95
        8
 96
        4
 40
6.0
 40
6.0
 40
6.0
 40
6.0
 40
7.0
 40
7.0
 40
7.0
 40
7.0
 10
421.7821957965638
 20
24.788618014842
 42
1.0
 10
421.7805934137514
 20
26.00217262299631
 42
1.0
 10
420.7730451459292
 20
26.47943232880684
 42
1.0
 10
419.6781169403628
 20
26.47873128632639
 42
1.0
 72
     4
 94
        3
 73
     1
 74
     0
 95
        8
 96
        4
 40
7.0
 40
7.0
 40
7.0
 40
7.0
 40
8.0
 40
8.0
 40
8.0
 40
8.0
 10
419.6781169403628
 20
26.47873128632639
 42
1.0
 10
418.7398717291811
 20
26.47973277558419
 42
1.0
 10
417.7410864923646
 20
25.97633420014472
 42
1.0
 10
417.7159991864564
 20
24.93067926606271
 42
1.0
 72
     4
 94
        3
 73
     1
 74
     0
 95
        8
 96
        4
 40
8.0
 40
8.0
 40
8.0
 40
8.0
 40
9.0
 40
9.0
 40
9.0
 40
9.0
 10
417.7159991864564
 20
24.93067926606271
 42
1.0
 10
417.6373822797182
 20
26.03707452363108
 42
1.0
 10
416.6701940289857
 20
26.47788002045723
 42
1.0
 10
415.617077999933
 20
26.47677838227364
 42
1.0
 72
     4
 94
        3
 73
     1
 74
     0
 95
        8
 96
        4
 40
9.0
 40
9.0
 40
9.0
 40
9.0
 40
10.0
 40
10.0
 40
10.0
 40
10.0
 10
415.617077999933
 20
26.47677838227364
 42
1.0
 10
414.6702700555972
 20
26.47707882905098
 42
1.0
 10
413.6551104694154
 20
25.9610614889631
 42
1.0
 10
413.6557614374331
 20
24.88776545136545
 42
1.0
 72
     4
 94
        3
 73
     1
 74
     0
 95
        8
 96
        4
 40
10.0
 40
10.0
 40
10.0
 40
10.0
 40
11.0
 40
11.0
 40
11.0
 40
11.0
 10
413.6557614374331
 20
24.88776545136545
 42
1.0
 10
413.6560118097476
 20
23.90089793671702
 42
1.0
 10
414.4431322919252
 20
23.60110212739083
 42
1.0
 10
415.2224912323551
 20
23.39489548920723
 42
1.0
 72
     4
 94
        3
 73
     1
 74
     0
 95
        8
 96
        4
 40
11.0
 40
11.0
 40
11.0
 40
11.0
 40
12.0
 40
12.0
 40
12.0
 40
12.0
 10
415.2224912323551
 20
23.39489548920723
 42
1.0
 10
415.9954907159974
 20
23.188989297801
 42
1.0
 10
416.7823608258608
 20
23.09374766938302
 42
1.0
 10
416.7817098578431
 20
22.52800638764474
 42
1.0
 72
     4
 94
        3
 73
     1
 74
     0
 95
        8
 96
        4
 40
12.0
 40
12.0
 40
12.0
 40
12.0
 40
13.0
 40
13.0
 40
13.0
 40
13.0
 10
416.7817098578431
 20
22.52800638764474
 42
1.0
 10
416.7819602301576
 20
21.99100784760569
 42
1.0
 10
416.1650428473453
 20
21.87363330659003
 42
1.0
 10
415.7612924530582
 20
21.87243151948068
 42
1.0
 72
     4
 94
        3
 73
     1
 74
     0
 95
        8
 96
        4
 40
13.0
 40
13.0
 40
13.0
 40
13.0
 40
14.0
 40
14.0
 40
14.0
 40
14.0
 10
415.7612924530582
 20
21.87243151948068
 42
1.0
 10
415.1418713471012
 20
21.87132988129706
 42
1.0
 10
414.5989640204409
 20
22.14453615082832
 42
1.0
 10
414.5980626801088
 20
22.84317505707833
 42
1.0
 72
     1
 10
414.5980626801088
 20
22.84317505707833
 11
413.4938206244448
 21
22.84297475922678
 72
     1
 10
413.4938206244448
 20
22.84297475922678
 11
412.1790655267884
 21
26.35244349091623
 72
     1
 10
412.1790655267884
 20
26.35244349091623
 11
410.9965070111635
 21
26.35244349091623
 72
     1
 10
410.9965070111635
 20
26.35244349091623
 11
409.0058468134096
 21
21.09747913178536
 72
     1
 10
409.0058468134096
 20
21.09747913178536
 11
410.174534702814
 21
21.0998827060041
 72
     1
 10
410.174534702814
 20
21.0998827060041
 11
410.5864472345523
 21
22.26862066987129
 72
     1
 10
410.5864472345523
 20
22.26862066987129
 11
412.5517697540836
 21
22.26822007416818
 72
     1
 10
412.5517697540836
 20
22.26822007416818
 11
412.9486098724916
 21
21.09978255707834
 72
     1
 10
412.9486098724916
 20
21.09978255707834
 11
414.1468416950015
 21
21.09948211030099
 72
     1
 10
414.1468416950015
 20
21.09948211030099
 11
413.9626678204896
 21
21.59121333588693
 72
     4
 94
        3
 73
     1
 74
     0
 95
        8
 96
        4
 40
24.0
 40
24.0
 40
24.0
 40
24.0
 40
25.0
 40
25.0
 40
25.0
 40
25.0
 10
413.9626678204896
 20
21.59121333588693
 42
1.0
 10
414.3860974786929
 20
21.17118874116036
 42
1.0
 10
415.0371155707339
 20
20.97469654877754
 42
1.0
 10
415.7164257343081
 20
20.97589833588692
 42
1.0
 72
     4
 94
        3
 73
     1
 74
     0
 95
        8
 96
        4
 40
25.0
 40
25.0
 40
25.0
 40
25.0
 40
26.0
 40
26.0
 40
26.0
 40
26.0
 10
415.7164257343081
 20
20.97589833588692
 42
1.0
 10
416.7675387848452
 20
20.97489684662909
 42
1.0
 10
417.4551112347963
 20
21.3680815292463
 42
1.0
 10
417.7441410346009
 20
21.96036227631662
 42
1.0
 72
     4
 94
        3
 73
     1
 74
     0
 95
        8
 96
        4
 40
26.0
 40
26.0
 40
26.0
 40
26.0
 40
27.0
 40
27.0
 40
27.0
 40
27.0
 10
417.7441410346009
 20
21.96036227631662
 42
1.0
 10
418.1115373688294
 20
21.28575911225411
 42
1.0
 10
418.9227937421206
 20
20.97649922944161
 42
1.0
 10
419.7759123663881
 20
20.97750071869942
 42
1.0
 97
        0
 92
        0
 93
        4
 72
     1
 10
411.5862839661996
 20
25.05671673823928
 11
412.2487192074994
 21
23.12970103153927
 72
     1
 10
412.2487192074994
 20
23.12970103153927
 11
410.8865434845995
 21
23.13000161533926
 72
     1
 10
410.8865434845995
 20
23.13000161533926
 11
411.5710114602996
 21
25.05666673783927
 72
     1
 10
411.5710114602996
 20
25.05666673783927
 11
411.5862839661996
 21
25.05671673823928
 97
        0
 92
        0
 93
        4
 72
     1
 10
423.9484671651995
 20
25.06092287653927
 11
424.6127047464995
 21
23.13470862973927
 72
     1
 10
424.6127047464995
 20
23.13470862973927
 11
423.2494275612993
 21
23.13420775363925
 72
     1
 10
423.2494275612993
 20
23.13420775363925
 11
423.9343961223992
 21
25.06087287613929
 72
     1
 10
423.9343961223992
 20
25.06087287613929
 11
423.9484671651995
 21
25.06092287653927
 97
        0
 92
        0
 93
       10
 72
     4
 94
        3
 73
     1
 74
     0
 95
        8
 96
        4
 40
8.0
 40
8.0
 40
8.0
 40
8.0
 40
9.0
 40
9.0
 40
9.0
 40
9.0
 10
419.2803254071594
 20
23.39769965912911
 42
1.0
 10
420.053425039728
 20
23.19169331879709
 42
1.0
 10
420.8412465643862
 20
23.09675213715645
 42
1.0
 10
420.8416471600892
 20
22.53000936616037
 42
1.0
 72
     4
 94
        3
 73
     1
 74
     0
 95
        8
 96
        4
 40
9.0
 40
9.0
 40
9.0
 40
9.0
 40
10.0
 40
10.0
 40
10.0
 40
10.0
 10
420.8416471600892
 20
22.53000936616037
 42
1.0
 10
420.8413967877748
 20
21.99361171967598
 42
1.0
 10
420.2239786603333
 20
21.87523568940255
 42
1.0
 10
419.8174240961245
 20
21.875035391551
 42
1.0
 72
     4
 94
        3
 73
     1
 74
     0
 95
        8
 96
        4
 40
0.0
 40
0.0
 40
0.0
 40
0.0
 40
1.0
 40
1.0
 40
1.0
 40
1.0
 10
419.8174240961245
 20
21.875035391551
 42
1.0
 10
419.2008071600893
 20
21.87383360444162
 42
1.0
 10
418.6562974506166
 20
22.1462386825666
 42
1.0
 10
418.6543445465637
 20
22.84307490815254
 42
1.0
 72
     1
 10
418.6543445465637
 20
22.84307490815254
 11
417.8889063068179
 21
22.84387609955879
 72
     4
 94
        3
 73
     1
 74
     0
 95
        8
 96
        4
 40
2.0
 40
2.0
 40
2.0
 40
2.0
 40
3.0
 40
3.0
 40
3.0
 40
3.0
 10
417.8889063068179
 20
22.84387609955879
 42
1.0
 10
417.7744861591127
 20
23.87681212006659
 42
1.0
 10
416.7027424298647
 20
24.09924288422677
 42
1.0
 10
416.3393520526674
 20
24.19022818329902
 42
1.0
 72
     4
 94
        3
 73
     1
 74
     0
 95
        8
 96
        4
 40
3.0
 40
3.0
 40
3.0
 40
3.0
 40
4.0
 40
4.0
 40
4.0
 40
4.0
 10
416.3393520526674
 20
24.19022818329902
 42
1.0
 10
415.0249975507142
 20
24.52788028657052
 42
1.0
 10
414.7739241937808
 20
24.58010795136545
 42
1.0
 10
414.7729727789858
 20
24.98385834565256
 42
1.0
 72
     4
 94
        3
 73
     1
 74
     0
 95
        8
 96
        4
 40
4.0
 40
4.0
 40
4.0
 40
4.0
 40
5.0
 40
5.0
 40
5.0
 40
5.0
 10
414.7729727789858
 20
24.98385834565256
 42
1.0
 10
414.7746252362613
 20
25.4258656295881
 42
1.0
 10
415.2001079474429
 20
25.58059571992014
 42
1.0
 10
415.5675042816715
 20
25.57984460297677
 42
1.0
 72
     4
 94
        3
 73
     1
 74
     0
 95
        8
 96
        4
 40
5.0
 40
5.0
 40
5.0
 40
5.0
 40
6.0
 40
6.0
 40
6.0
 40
6.0
 10
415.5675042816715
 20
25.57984460297677
 42
1.0
 10
416.1200759796694
 20
25.5796943795881
 42
1.0
 10
416.5670406354311
 20
25.41975654511544
 42
1.0
 10
416.605097227228
 20
24.7869655575666
 42
1.0
 72
     1
 10
416.605097227228
 20
24.7869655575666
 11
417.7190537286929
 21
24.78706570649239
 72
     4
 94
        3
 73
     1
 74
     0
 95
        8
 96
        4
 40
7.0
 40
7.0
 40
7.0
 40
7.0
 40
8.0
 40
8.0
 40
8.0
 40
8.0
 10
417.7190537286929
 20
24.78706570649239
 42
1.0
 10
417.7737350421694
 20
23.88352209809397
 42
1.0
 10
418.52885794256
 20
23.59419185151193
 42
1.0
 10
419.2803254071594
 20
23.39769965912911
 42
1.0
 97
        0
 75
     0
 76
     1
 98
        1
 10
0.0
 20
0.0
  0
HATCH
  5
77
330
1F
100
AcDbEntity
  8
0
  6
Continuous
 62
     7
100
AcDbHatch
 10
0.0
 20
0.0
 30
0.0
210
0.0
220
0.0
230
1.0
  2
SOLID
 70
     1
 71
     0
 91
        4
 92
        0
 93
       16
 72
     4
 94
        3
 73
     1
 74
     0
 95
        8
 96
        4
 40
15.0
 40
15.0
 40
15.0
 40
15.0
 40
16.0
 40
16.0
 40
16.0
 40
16.0
 10
436.7901632929018
 20
22.63276216401191
 42
1.0
 10
436.7897626971985
 20
23.28743569184394
 42
1.0
 10
436.4646792841126
 20
23.7796676620588
 42
1.0
 10
435.8241267548158
 20
23.96248952607247
 42
1.0
 72
     4
 94
        3
 73
     1
 74
     0
 95
        8
 96
        4
 40
0.0
 40
0.0
 40
0.0
 40
0.0
 40
1.0
 40
1.0
 40
1.0
 40
1.0
 10
435.8241267548158
 20
23.96248952607247
 42
1.0
 10
436.2812064520814
 20
24.18341805634591
 42
1.0
 10
436.5381885956362
 20
24.54485552949046
 42
1.0
 10
436.5393903827456
 20
25.05982130585763
 42
1.0
 72
     4
 94
        3
 73
     1
 74
     0
 95
        8
 96
        4
 40
1.0
 40
1.0
 40
1.0
 40
1.0
 40
2.0
 40
2.0
 40
2.0
 40
2.0
 10
436.5393903827456
 20
25.05982130585763
 42
1.0
 10
436.5381885956362
 20
26.03732489594551
 42
1.0
 10
435.8611818573549
 20
26.36230816010568
 42
1.0
 10
434.8596925995424
 20
26.36095614960762
 42
1.0
 72
     1
 10
434.8596925995424
 20
26.36095614960762
 11
432.3876165155581
 21
26.35975436249824
 72
     1
 10
432.3876165155581
 20
26.35975436249824
 11
432.3904206854797
 21
21.49547096284005
 72
     1
 10
432.3904206854797
 20
21.49547096284005
 11
430.5699135126283
 21
26.35965421357248
 72
     1
 10
430.5699135126283
 20
26.35965421357248
 11
429.3839499335269
 21
26.35880294770332
 72
     1
 10
429.3839499335269
 20
26.35880294770332
 11
427.3919877997378
 21
21.10468985444161
 72
     1
 10
427.3919877997378
 20
21.10468985444161
 11
428.5633296356751
 21
21.10519059907051
 72
     1
 10
428.5633296356751
 20
21.10519059907051
 11
428.9737399335268
 21
22.27583139252754
 72
     1
 10
428.9737399335268
 20
22.27583139252754
 11
430.9390624530581
 21
22.27523049897287
 72
     1
 10
430.9390624530581
 20
22.27523049897287
 11
431.3364533905581
 21
21.1062922372541
 72
     1
 10
431.3364533905581
 20
21.1062922372541
 11
432.5358369257143
 21
21.10729372651193
 72
     1
 10
432.5358369257143
 20
21.10729372651193
 11
432.535436330011
 21
21.10789462006662
 72
     1
 10
432.535436330011
 20
21.10789462006662
 11
434.9370075702456
 21
21.10849551362129
 72
     4
 94
        3
 73
     1
 74
     0
 95
        8
 96
        4
 40
14.0
 40
14.0
 40
14.0
 40
14.0
 40
15.0
 40
15.0
 40
15.0
 40
15.0
 10
434.9370075702456
 20
21.10849551362129
 42
1.0
 10
435.885417897394
 20
21.10869581147287
 42
1.0
 10
436.7895623993471
 20
21.56637640229317
 42
1.0
 10
436.7901632929018
 20
22.63276216401191
 42
1.0
 97
        0
 92
        0
 93
        4
 72
     1
 10
429.9746281647992
 20
25.06392755173928
 11
430.6372136979996
 21
23.13571009123927
 72
     1
 10
430.6372136979996
 20
23.13571009123927
 11
429.2749879746995
 21
23.13581009203927
 72
     1
 10
429.2749879746995
 20
23.13581009203927
 11
429.9598062438993
 21
25.06387726063927
 72
     1
 10
429.9598062438993
 20
25.06387726063927
 11
429.9746281647992
 21
25.06392755173928
 97
        0
 92
        0
 93
        5
 72
     4
 94
        3
 73
     1
 74
     0
 95
        8
 96
        4
 40
1.0
 40
1.0
 40
1.0
 40
1.0
 40
2.0
 40
2.0
 40
2.0
 40
2.0
 10
434.6251438153627
 20
25.46402237031074
 42
1.0
 10
435.0361550067691
 20
25.46327125336738
 42
1.0
 10
435.4201259882144
 20
25.36131964692208
 42
1.0
 10
435.4215280731754
 20
24.86052494355294
 42
1.0
 72
     4
 94
        3
 73
     1
 74
     0
 95
        8
 96
        4
 40
2.0
 40
2.0
 40
2.0
 40
2.0
 40
3.0
 40
3.0
 40
3.0
 40
3.0
 10
435.4215280731754
 20
24.86052494355294
 42
1.0
 10
435.4205265839174
 20
24.41866788300603
 42
1.0
 10
435.1174759345035
 20
24.23404333832833
 42
1.0
 10
434.7152778485658
 20
24.23484452973457
 42
1.0
 72
     1
 10
434.7152778485658
 20
24.23484452973457
 11
433.5449375018862
 21
24.23284155121894
 72
     1
 10
433.5449375018862
 20
24.23284155121894
 11
433.5443366083315
 21
25.46327125336737
 72
     1
 10
433.5443366083315
 20
25.46327125336737
 11
434.6251438153627
 21
25.46402237031074
 97
        0
 92
        0
 93
        5
 72
     4
 94
        3
 73
     1
 74
     0
 95
        8
 96
        4
 40
3.0
 40
3.0
 40
3.0
 40
3.0
 40
4.0
 40
4.0
 40
4.0
 40
4.0
 10
434.8032086054018
 20
23.44857531342598
 42
1.0
 10
435.2959413202454
 20
23.44897590912912
 42
1.0
 10
435.6354461786439
 20
23.23485750580881
 42
1.0
 10
435.6338437958315
 20
22.69785896576973
 42
1.0
 72
     4
 94
        3
 73
     1
 74
     0
 95
        8
 96
        4
 40
4.0
 40
4.0
 40
4.0
 40
4.0
 40
5.0
 40
5.0
 40
5.0
 40
5.0
 10
435.6338437958315
 20
22.69785896576973
 42
1.0
 10
435.6342443915345
 20
22.1526482138166
 42
1.0
 10
435.2364528583316
 20
22.00572973969554
 42
1.0
 10
434.7821773309876
 20
22.00633063325021
 42
1.0
 72
     1
 10
434.7821773309876
 20
22.00633063325019
 11
433.5457386932925
 21
22.00502869721505
 72
     1
 10
433.5457386932925
 20
22.00502869721505
 11
433.5453380975892
 21
23.44747367524239
 72
     1
 10
433.5453380975892
 20
23.44747367524239
 11
434.8032086054018
 21
23.44857531342598
 97
        0
 75
     0
 76
     1
 98
        1
 10
0.0
 20
0.0
  0
HATCH
  5
78
330
1F
100
AcDbEntity
  8
0
  6
Continuous
 62
     7
100
AcDbHatch
 10
0.0
 20
0.0
 30
0.0
210
0.0
220
0.0
230
1.0
  2
SOLID
 70
     1
 71
     0
 91
        2
 92
        0
 93
       11
 72
     4
 94
        3
 73
     1
 74
     0
 95
        8
 96
        4
 40
10.0
 40
10.0
 40
10.0
 40
10.0
 40
11.0
 40
11.0
 40
11.0
 40
11.0
 10
444.7666468394888
 20
23.70321783376456
 42
1.0
 10
444.7676483287466
 20
25.26353809743644
 42
1.0
 10
443.8094234068718
 20
26.47699255666496
 42
1.0
 10
442.1840063414421
 20
26.47438868459465
 42
1.0
 72
     4
 94
        3
 73
     1
 74
     0
 95
        8
 96
        4
 40
0.0
 40
0.0
 40
0.0
 40
0.0
 40
1.0
 40
1.0
 40
1.0
 40
1.0
 10
442.1840063414421
 20
26.47438868459466
 42
1.0
 10
440.558789573864
 20
26.47614129079583
 42
1.0
 10
439.6017664390982
 20
25.26243645925284
 42
1.0
 10
439.6031685240592
 20
23.70201604665519
 42
1.0
 72
     4
 94
        3
 73
     1
 74
     0
 95
        8
 96
        4
 40
1.0
 40
1.0
 40
1.0
 40
1.0
 40
2.0
 40
2.0
 40
2.0
 40
2.0
 10
439.6031685240592
 20
23.70201604665519
 42
1.0
 10
439.604170013317
 20
23.08895439748529
 42
1.0
 10
439.7632065074579
 20
22.527319221704
 42
1.0
 10
440.0568431578483
 20
22.07364458791494
 42
1.0
 72
     1
 10
440.0568431578483
 20
22.07364458791494
 11
438.1131423498831
 21
22.07430334674812
 72
     1
 10
438.1131423498831
 20
22.07430334674812
 11
438.1131423498831
 21
26.37052037201999
 72
     1
 10
438.1131423498831
 20
26.37052037201999
 11
436.9588140839174
 21
26.37052037201999
 72
     1
 10
436.9588140839174
 20
26.37052037201999
 11
436.9746376141908
 21
21.11029819428537
 72
     1
 10
436.9746376141908
 20
21.11029819428537
 11
440.3152051825502
 21
21.12411874604317
 72
     1
 10
440.3152051825502
 20
21.12411874604317
 11
440.2951976012076
 21
21.75927710988759
 72
     4
 94
        3
 73
     1
 74
     0
 95
        8
 96
        4
 40
8.0
 40
8.0
 40
8.0
 40
8.0
 40
9.0
 40
9.0
 40
9.0
 40
9.0
 10
440.2951976012076
 20
21.75927710988759
 42
1.0
 10
440.7370546617545
 20
21.27245318166496
 42
1.0
 10
441.3790092760125
 20
20.97300789357901
 42
1.0
 10
442.1868105113639
 20
20.9740093828368
 42
1.0
 72
     4
 94
        3
 73
     1
 74
     0
 95
        8
 96
        4
 40
9.0
 40
9.0
 40
9.0
 40
9.0
 40
10.0
 40
10.0
 40
10.0
 40
10.0
 10
442.1868105113639
 20
20.9740093828368
 42
1.0
 10
443.8126281724967
 20
20.97400938283683
 42
1.0
 10
444.7678486265983
 20
22.18841525686025
 42
1.0
 10
444.7666468394888
 20
23.70321783376455
 42
1.0
 97
        0
 92
        0
 93
        4
 72
     4
 94
        3
 73
     1
 74
     0
 95
        8
 96
        4
 40
3.0
 40
3.0
 40
3.0
 40
3.0
 40
4.0
 40
4.0
 40
4.0
 40
4.0
 10
443.6293334345033
 20
23.71682421113105
 42
1.0
 10
443.6297340302069
 20
22.83946954682437
 42
1.0
 10
443.2389529218084
 20
21.95775840424628
 42
1.0
 10
442.2022112421209
 20
21.9563563192855
 42
1.0
 72
     4
 94
        3
 73
     1
 74
     0
 95
        8
 96
        4
 40
0.0
 40
0.0
 40
0.0
 40
0.0
 40
1.0
 40
1.0
 40
1.0
 40
1.0
 10
442.2022112421209
 20
21.95635631928549
 42
1.0
 10
441.1640674774726
 20
21.95585557465648
 42
1.0
 10
440.7750890497378
 20
22.83886865326973
 42
1.0
 10
440.7734866669252
 20
23.71412019013497
 42
1.0
 72
     4
 94
        3
 73
     1
 74
     0
 95
        8
 96
        4
 40
1.0
 40
1.0
 40
1.0
 40
1.0
 40
2.0
 40
2.0
 40
2.0
 40
2.0
 10
440.7734866669252
 20
23.71412019013497
 42
1.0
 10
440.7730860712219
 20
24.63343725434394
 42
1.0
 10
441.1620644989563
 20
25.51625003510568
 42
1.0
 10
442.2006088593081
 20
25.51680085419747
 42
1.0
 72
     4
 94
        3
 73
     1
 74
     0
 95
        8
 96
        4
 40
2.0
 40
2.0
 40
2.0
 40
2.0
 40
3.0
 40
3.0
 40
3.0
 40
3.0
 10
442.2006088593081
 20
25.51680085419747
 42
1.0
 10
443.2381517304017
 20
25.5166506308088
 42
1.0
 10
443.6273304559878
 20
24.63508971161935
 42
1.0
 10
443.6293334345033
 20
23.71682421113105
 42
1.0
 97
        0
 75
     0
 76
     1
 98
        1
 10
0.0
 20
0.0
  0
LINE
  5
79
330
1F
100
AcDbEntity
  8
0
  6
Continuous
 62
     7
370
    15
100
AcDbLine
 10
512.7171737527
 20
73.2
 30
0.0
 11
512.7171737527
 21
60.5
 31
0.0
  0
LINE
  5
7A
330
1F
100
AcDbEntity
  8
0
  6
Continuous
 62
     7
370
    40
100
AcDbLine
 10
399.0
 20
60.5
 30
0.0
 11
399.0
 21
73.2
 31
0.0
  0
LINE
  5
7B
330
1F
100
AcDbEntity
  8
0
  6
Continuous
 62
     7
370
    40
100
AcDbLine
 10
399.0
 20
73.2
 30
0.0
 11
582.0
 21
73.2
 31
0.0
  0
LINE
  5
7C
330
1F
100
AcDbEntity
  8
0
  6
Continuous
 62
     7
370
    40
100
AcDbLine
 10
582.0
 20
73.2
 30
0.0
 11
582.0
 21
60.5
 31
0.0
  0
LINE
  5
7D
330
1F
100
AcDbEntity
  8
0
  6
Continuous
 62
     7
370
    15
100
AcDbLine
 10
459.0
 20
47.8
 30
0.0
 11
459.0
 21
60.5
 31
0.0
  0
LINE
  5
7E
330
1F
100
AcDbEntity
  8
0
  6
Continuous
 62
     7
370
    40
100
AcDbLine
 10
399.0
 20
60.5
 30
0.0
 11
582.0
 21
60.5
 31
0.0
  0
LINE
  5
7F
330
1F
100
AcDbEntity
  8
0
  6
Continuous
 62
     7
370
    40
100
AcDbLine
 10
399.0
 20
60.5
 30
0.0
 11
399.0
 21
47.8
 31
0.0
  0
LINE
  5
80
330
1F
100
AcDbEntity
  8
0
  6
Continuous
 62
     7
370
    40
100
AcDbLine
 10
399.0
 20
47.8
 30
0.0
 11
582.0
 21
47.8
 31
0.0
  0
LINE
  5
81
330
1F
100
AcDbEntity
  8
0
  6
Continuous
 62
     7
370
    40
100
AcDbLine
 10
582.0
 20
60.5
 30
0.0
 11
582.0
 21
47.8
 31
0.0
  0
LINE
  5
82
330
1F
100
AcDbEntity
  8
0
  6
Continuous
 62
     7
370
    15
100
AcDbLine
 10
532.0
 20
47.8
 30
0.0
 11
532.0
 21
60.5
 31
0.0
  0
LINE
  5
83
330
1F
100
AcDbEntity
  8
0
  6
Continuous
 62
     7
370
     0
100
AcDbLine
 10
407.4782139642
 20
60.5
 30
0.0
 11
407.4782139642
 21
73.2
 31
0.0
  0
LINE
  5
84
330
1F
100
AcDbEntity
  8
0
  6
Continuous
 62
     7
370
     0
100
AcDbLine
 10
428.2510050715
 20
60.5
 30
0.0
 11
428.2510050715
 21
73.2
 31
0.0
  0
LINE
  5
85
330
1F
100
AcDbEntity
  8
0
  6
Continuous
 62
     7
370
     0
100
AcDbLine
 10
443.5572722032
 20
60.5
 30
0.0
 11
443.5572722032
 21
73.2
 31
0.0
  0
LINE
  5
86
330
1F
100
AcDbEntity
  8
0
  6
Continuous
 62
     7
370
    15
100
AcDbLine
 10
459.0
 20
60.5
 30
0.0
 11
459.0
 21
73.2
 31
0.0
  0
LINE
  5
87
330
1F
100
AcDbEntity
  8
0
  6
Continuous
 62
     7
370
     0
100
AcDbLine
 10
399.0
 20
65.25
 30
0.0
 11
459.0
 21
65.25
 31
0.0
  0
LINE
  5
88
330
1F
100
AcDbEntity
  8
0
  6
Continuous
 62
     7
370
    15
100
AcDbLine
 10
532.0
 20
60.5
 30
0.0
 11
532.0
 21
73.2
 31
0.0
  0
LINE
  5
89
330
1F
100
AcDbEntity
  8
0
  6
Continuous
 62
     7
370
    30
100
AcDbLine
 10
20.0
 20
9.0
 30
0.0
 11
20.0
 21
411.0
 31
0.0
  0
LINE
  5
8A
330
1F
100
AcDbEntity
  8
0
  6
Continuous
 62
     7
370
     0
100
AcDbLine
 10
210.0
 20
9.0
 30
0.0
 11
210.0
 21
4.0
 31
0.0
  0
LINE
  5
8B
330
1F
100
AcDbEntity
  8
0
  6
Continuous
 62
     7
370
     0
100
AcDbLine
 10
402.0
 20
9.0
 30
0.0
 11
402.0
 21
4.0
 31
0.0
  0
LINE
  5
8C
330
1F
100
AcDbEntity
  8
0
  6
Continuous
 62
     7
370
     0
100
AcDbLine
 10
210.0
 20
411.0
 30
0.0
 11
210.0
 21
416.0
 31
0.0
  0
LINE
  5
8D
330
1F
100
AcDbEntity
  8
0
  6
Continuous
 62
     7
370
     0
100
AcDbLine
 10
402.0
 20
411.0
 30
0.0
 11
402.0
 21
416.0
 31
0.0
  0
LINE
  5
8E
330
1F
100
AcDbEntity
  8
0
  6
Continuous
 62
     7
370
     0
100
AcDbLine
 10
20.0
 20
297.0
 30
0.0
 11
12.0
 21
297.0
 31
0.0
  0
LINE
  5
8F
330
1F
100
AcDbEntity
  8
0
  6
CENTERX2
 62
     7
370
     0
100
AcDbLine
 10
582.0
 20
21.5
 30
0.0
 11
582.0
 21
14.0
 31
0.0
  0
LINE
  5
90
330
1F
100
AcDbEntity
  8
0
  6
Continuous
 62
     7
370
     0
100
AcDbLine
 10
591.0
 20
297.0
 30
0.0
 11
587.0
 21
297.0
 31
0.0
  0
LINE
  5
91
330
1F
100
AcDbEntity
  8
0
  6
Continuous
 62
     7
370
    60
100
AcDbLine
 10
582.0
 20
14.0
 30
0.0
 11
25.0
 21
14.0
 31
0.0
  0
LINE
  5
92
330
1F
100
AcDbEntity
  8
0
  6
Continuous
 62
     7
370
    60
100
AcDbLine
 10
25.0
 20
14.0
 30
0.0
 11
25.0
 21
406.0
 31
0.0
  0
LINE
  5
93
330
1F
100
AcDbEntity
  8
0
  6
Continuous
 62
     7
370
    60
100
AcDbLine
 10
25.0
 20
406.0
 30
0.0
 11
582.0
 21
406.0
 31
0.0
  0
LINE
  5
94
330
1F
100
AcDbEntity
  8
0
  6
Continuous
 62
     7
370
    60
100
AcDbLine
 10
582.0
 20
406.0
 30
0.0
 11
582.0
 21
14.0
 31
0.0
  0
LINE
  5
95
330
1F
100
AcDbEntity
  8
0
  6
Continuous
 62
     7
370
     0
100
AcDbLine
 10
25.0
 20
60.0
 30
0.0
 11
20.0
 21
60.0
 31
0.0
  0
LINE
  5
96
330
1F
100
AcDbEntity
  8
0
  6
Continuous
 62
     7
370
    60
100
AcDbLine
 10
25.0
 20
210.0
 30
0.0
 11
20.0
 21
210.0
 31
0.0
  0
LINE
  5
97
330
1F
100
AcDbEntity
  8
0
  6
Continuous
 62
     7
370
     0
100
AcDbLine
 10
25.0
 20
310.0
 30
0.0
 11
20.0
 21
310.0
 31
0.0
  0
LINE
  5
98
330
1F
100
AcDbEntity
  8
0
  6
Continuous
 62
     7
370
     0
100
AcDbLine
 10
25.0
 20
110.0
 30
0.0
 11
20.0
 21
110.0
 31
0.0
  0
LINE
  5
99
330
1F
100
AcDbEntity
  8
0
  6
Continuous
 62
     7
370
    15
100
AcDbLine
 10
399.0
 20
29.0
 30
0.0
 11
582.0
 21
29.0
 31
0.0
  0
LINE
  5
9A
330
1F
100
AcDbEntity
  8
0
  6
CENTERX2
 62
     7
370
     0
100
AcDbLine
 10
568.5466379565
 20
32.7521826334
 30
0.0
 11
574.2718411658
 21
32.7521826334
 31
0.0
  0
LINE
  5
9B
330
1F
100
AcDbEntity
  8
0
  6
Continuous
 62
     7
370
     0
100
AcDbLine
 10
573.7565728769
 20
34.9695142827
 30
0.0
 11
569.2145783309
 21
34.1055142622
 31
0.0
  0
LINE
  5
9C
330
1F
100
AcDbEntity
  8
0
  6
Continuous
 62
     7
370
     0
100
AcDbLine
 10
573.7565728769
 20
30.5348509841
 30
0.0
 11
569.2145783309
 21
31.3988510046
 31
0.0
  0
LINE
  5
9D
330
1F
100
AcDbEntity
  8
0
  6
Continuous
 62
     7
370
     0
100
AcDbLine
 10
25.0
 20
360.0
 30
0.0
 11
20.0
 21
360.0
 31
0.0
  0
LINE
  5
9E
330
1F
100
AcDbEntity
  8
0
  6
Continuous
 62
     7
370
     0
100
AcDbLine
 10
25.0
 20
160.0
 30
0.0
 11
20.0
 21
160.0
 31
0.0
  0
LINE
  5
9F
330
1F
100
AcDbEntity
  8
0
  6
Continuous
 62
     7
370
     0
100
AcDbLine
 10
25.0
 20
260.0
 30
0.0
 11
20.0
 21
260.0
 31
0.0
  0
LINE
  5
A0
330
1F
100
AcDbEntity
  8
0
  6
Continuous
 62
     7
370
     0
100
AcDbLine
 10
47.0
 20
406.0
 30
0.0
 11
47.0
 21
411.0
 31
0.0
  0
LINE
  5
A1
330
1F
100
AcDbEntity
  8
0
  6
Continuous
 62
     7
370
     0
100
AcDbLine
 10
5.0
 20
148.5
 30
0.0
 11
14.0
 21
148.5
 31
0.0
  0
LINE
  5
A2
330
1F
100
AcDbEntity
  8
0
  6
Continuous
 62
     7
370
     0
100
AcDbLine
 10
247.0
 20
406.0
 30
0.0
 11
247.0
 21
411.0
 31
0.0
  0
LINE
  5
A3
330
1F
100
AcDbEntity
  8
0
  6
Continuous
 62
     7
370
     0
100
AcDbLine
 10
569.2145783309
 20
34.1055142622
 30
0.0
 11
569.2145783309
 21
31.3988510046
 31
0.0
  0
LINE
  5
A4
330
1F
100
AcDbEntity
  8
0
  6
Continuous
 62
     7
370
     0
100
AcDbLine
 10
573.7565728769
 20
30.5348509841
 30
0.0
 11
573.7565728769
 21
34.9695142827
 31
0.0
  0
LINE
  5
A5
330
1F
100
AcDbEntity
  8
0
  6
Continuous
 62
     7
370
     0
100
AcDbLine
 10
587.0
 20
260.0
 30
0.0
 11
582.0
 21
260.0
 31
0.0
  0
LINE
  5
A6
330
1F
100
AcDbEntity
  8
0
  6
Continuous
 62
     7
370
     0
100
AcDbLine
 10
587.0
 20
310.0
 30
0.0
 11
582.0
 21
310.0
 31
0.0
  0
LINE
  5
A7
330
1F
100
AcDbEntity
  8
0
  6
Continuous
 62
     7
370
     0
100
AcDbLine
 10
587.0
 20
60.0
 30
0.0
 11
582.0
 21
60.0
 31
0.0
  0
LINE
  5
A8
330
1F
100
AcDbEntity
  8
0
  6
Continuous
 62
     7
370
    30
100
AcDbLine
 10
587.0
 20
9.0
 30
0.0
 11
20.0
 21
9.0
 31
0.0
  0
LINE
  5
A9
330
1F
100
AcDbEntity
  8
0
  6
Continuous
 62
     7
370
    30
100
AcDbLine
 10
587.0
 20
9.0
 30
0.0
 11
587.0
 21
411.0
 31
0.0
  0
LINE
  5
AA
330
1F
100
AcDbEntity
  8
0
  6
Continuous
 62
     7
370
    30
100
AcDbLine
 10
587.0
 20
411.0
 30
0.0
 11
20.0
 21
411.0
 31
0.0
  0
LINE
  5
AB
330
1F
100
AcDbEntity
  8
0
  6
CENTERX2
 62
     7
370
     0
100
AcDbLine
 10
575.2413099895
 20
32.7521826334
 30
0.0
 11
580.9283451773
 21
32.7521826334
 31
0.0
  0
LINE
  5
AC
330
1F
100
AcDbEntity
  8
0
  6
Continuous
 62
     7
370
    15
100
AcDbLine
 10
399.0
 20
36.5
 30
0.0
 11
582.0
 21
36.5
 31
0.0
  0
LINE
  5
AD
330
1F
100
AcDbEntity
  8
0
  6
Continuous
 62
     7
370
    60
100
AcDbLine
 10
399.0
 20
47.8
 30
0.0
 11
582.0
 21
47.8
 31
0.0
  0
LINE
  5
AE
330
1F
100
AcDbEntity
  8
0
  6
Continuous
 62
     7
370
    60
100
AcDbLine
 10
399.0
 20
14.0
 30
0.0
 11
399.0
 21
47.8
 31
0.0
  0
LINE
  5
AF
330
1F
100
AcDbEntity
  8
0
  6
Continuous
 62
     7
370
    15
100
AcDbLine
 10
532.0
 20
47.8
 30
0.0
 11
532.0
 21
14.0
 31
0.0
  0
LINE
  5
B0
330
1F
100
AcDbEntity
  8
0
  6
Continuous
 62
     7
370
     0
100
AcDbLine
 10
587.0
 20
160.0
 30
0.0
 11
582.0
 21
160.0
 31
0.0
  0
LINE
  5
B1
330
1F
100
AcDbEntity
  8
0
  6
Continuous
 62
     7
370
    60
100
AcDbLine
 10
587.0
 20
210.0
 30
0.0
 11
582.0
 21
210.0
 31
0.0
  0
LINE
  5
B2
330
1F
100
AcDbEntity
  8
0
  6
Continuous
 62
     7
370
     0
100
AcDbLine
 10
587.0
 20
360.0
 30
0.0
 11
582.0
 21
360.0
 31
0.0
  0
LINE
  5
B3
330
1F
100
AcDbEntity
  8
0
  6
Continuous
 62
     7
370
    15
100
AcDbLine
 10
459.0
 20
47.8
 30
0.0
 11
459.0
 21
14.0
 31
0.0
  0
LINE
  5
B4
330
1F
100
AcDbEntity
  8
0
  6
Continuous
 62
     7
370
    15
100
AcDbLine
 10
483.4
 20
36.5
 30
0.0
 11
483.4
 21
29.0
 31
0.0
  0
LINE
  5
B5
330
1F
100
AcDbEntity
  8
0
  6
Continuous
 62
     7
370
    15
100
AcDbLine
 10
507.7
 20
36.5
 30
0.0
 11
507.7
 21
29.0
 31
0.0
  0
LINE
  5
B6
330
1F
100
AcDbEntity
  8
0
  6
Continuous
 62
     7
370
    15
100
AcDbLine
 10
420.0
 20
36.5
 30
0.0
 11
420.0
 21
29.0
 31
0.0
  0
LINE
  5
B7
330
1F
100
AcDbEntity
  8
0
  6
Continuous
 62
     7
370
    15
100
AcDbLine
 10
438.0
 20
36.5
 30
0.0
 11
438.0
 21
29.0
 31
0.0
  0
LINE
  5
B8
330
1F
100
AcDbEntity
  8
0
  6
Continuous
 62
     7
370
    15
100
AcDbLine
 10
532.0
 20
21.5
 30
0.0
 11
582.0
 21
21.5
 31
0.0
  0
LINE
  5
B9
330
1F
100
AcDbEntity
  8
0
  6
Continuous
 62
     7
370
    15
100
AcDbLine
 10
572.7812674462
 20
21.5
 30
0.0
 11
572.7812674462
 21
14.0
 31
0.0
  0
LINE
  5
BA
330
1F
100
AcDbEntity
  8
0
  6
Continuous
 62
     7
370
    15
100
AcDbLine
 10
557.0
 20
36.5
 30
0.0
 11
557.0
 21
29.0
 31
0.0
  0
LINE
  5
BB
330
1F
100
AcDbEntity
  8
0
  6
Continuous
 62
     7
370
     0
100
AcDbLine
 10
587.0
 20
110.0
 30
0.0
 11
582.0
 21
110.0
 31
0.0
  0
LINE
  5
BC
330
1F
100
AcDbEntity
  8
0
  6
Continuous
 62
     7
370
     0
100
AcDbLine
 10
397.0
 20
406.0
 30
0.0
 11
397.0
 21
411.0
 31
0.0
  0
LINE
  5
BD
330
1F
100
AcDbEntity
  8
0
  6
CENTERX2
 62
     7
370
     0
100
AcDbLine
 10
578.0848275834
 20
35.5957002273
 30
0.0
 11
578.0848275834
 21
29.9086650395
 31
0.0
  0
LINE
  5
BE
330
1F
100
AcDbEntity
  8
0
  6
Continuous
 62
     7
370
     0
100
AcDbLine
 10
547.0
 20
406.0
 30
0.0
 11
547.0
 21
411.0
 31
0.0
  0
LINE
  5
BF
330
1F
100
AcDbEntity
  8
0
  6
Continuous
 62
     7
370
    60
100
AcDbLine
 10
297.0
 20
406.0
 30
0.0
 11
297.0
 21
411.0
 31
0.0
  0
LINE
  5
C0
330
1F
100
AcDbEntity
  8
0
  6
Continuous
 62
     7
370
     0
100
AcDbLine
 10
447.0
 20
406.0
 30
0.0
 11
447.0
 21
411.0
 31
0.0
  0
LINE
  5
C1
330
1F
100
AcDbEntity
  8
0
  6
Continuous
 62
     7
370
     0
100
AcDbLine
 10
147.0
 20
406.0
 30
0.0
 11
147.0
 21
411.0
 31
0.0
  0
LINE
  5
C2
330
1F
100
AcDbEntity
  8
0
  6
Continuous
 62
     7
370
     0
100
AcDbLine
 10
97.0
 20
406.0
 30
0.0
 11
97.0
 21
411.0
 31
0.0
  0
LINE
  5
C3
330
1F
100
AcDbEntity
  8
0
  6
Continuous
 62
     7
370
     0
100
AcDbLine
 10
347.0
 20
406.0
 30
0.0
 11
347.0
 21
411.0
 31
0.0
  0
LINE
  5
C4
330
1F
100
AcDbEntity
  8
0
  6
Continuous
 62
     7
370
     0
100
AcDbLine
 10
497.0
 20
406.0
 30
0.0
 11
497.0
 21
411.0
 31
0.0
  0
LINE
  5
C5
330
1F
100
AcDbEntity
  8
0
  6
Continuous
 62
     7
370
     0
100
AcDbLine
 10
103.0
 20
411.0
 30
0.0
 11
106.6140350877
 21
415.0
 31
0.0
  0
LINE
  5
C6
330
1F
100
AcDbEntity
  8
0
  6
Continuous
 62
     7
370
     0
100
AcDbLine
 10
20.0
 20
319.1359223301
 30
0.0
 11
12.0
 21
310.2815533981
 31
0.0
  0
LINE
  5
C7
330
1F
100
AcDbEntity
  8
0
  6
Continuous
 62
     7
370
     0
100
AcDbLine
 10
197.0
 20
406.0
 30
0.0
 11
197.0
 21
411.0
 31
0.0
  0
LINE
  5
C8
330
1F
100
AcDbEntity
  8
0
  6
Continuous
 62
     7
370
     0
100
AcDbLine
 10
47.0
 20
9.0
 30
0.0
 11
47.0
 21
14.0
 31
0.0
  0
LINE
  5
C9
330
1F
100
AcDbEntity
  8
0
  6
Continuous
 62
     7
370
     0
100
AcDbLine
 10
497.0
 20
9.0
 30
0.0
 11
497.0
 21
14.0
 31
0.0
  0
LINE
  5
CA
330
1F
100
AcDbEntity
  8
0
  6
Continuous
 62
     7
370
     0
100
AcDbLine
 10
197.0
 20
9.0
 30
0.0
 11
197.0
 21
14.0
 31
0.0
  0
LINE
  5
CB
330
1F
100
AcDbEntity
  8
0
  6
Continuous
 62
     7
370
    60
100
AcDbLine
 10
297.0
 20
9.0
 30
0.0
 11
297.0
 21
14.0
 31
0.0
  0
LINE
  5
CC
330
1F
100
AcDbEntity
  8
0
  6
Continuous
 62
     7
370
     0
100
AcDbLine
 10
397.0
 20
9.0
 30
0.0
 11
397.0
 21
14.0
 31
0.0
  0
LINE
  5
CD
330
1F
100
AcDbEntity
  8
0
  6
Continuous
 62
     7
370
     0
100
AcDbLine
 10
547.0
 20
9.0
 30
0.0
 11
547.0
 21
14.0
 31
0.0
  0
LINE
  5
CE
330
1F
100
AcDbEntity
  8
0
  6
Continuous
 62
     7
370
     0
100
AcDbLine
 10
347.0
 20
9.0
 30
0.0
 11
347.0
 21
14.0
 31
0.0
  0
LINE
  5
CF
330
1F
100
AcDbEntity
  8
0
  6
Continuous
 62
     7
370
     0
100
AcDbLine
 10
247.0
 20
9.0
 30
0.0
 11
247.0
 21
14.0
 31
0.0
  0
LINE
  5
D0
330
1F
100
AcDbEntity
  8
0
  6
Continuous
 62
     7
370
     0
100
AcDbLine
 10
447.0
 20
9.0
 30
0.0
 11
447.0
 21
14.0
 31
0.0
  0
LINE
  5
D1
330
1F
100
AcDbEntity
  8
0
  6
Continuous
 62
     7
370
     0
100
AcDbLine
 10
147.0
 20
9.0
 30
0.0
 11
147.0
 21
14.0
 31
0.0
  0
LINE
  5
D2
330
1F
100
AcDbEntity
  8
0
  6
Continuous
 62
     7
370
     0
100
AcDbLine
 10
97.0
 20
9.0
 30
0.0
 11
97.0
 21
14.0
 31
0.0
  0
LINE
  5
D3
330
1F
100
AcDbEntity
  8
0
  6
Continuous
 62
     7
370
     0
100
AcDbLine
 10
423.3593410798
 20
26.3566497458
 30
0.0
 11
421.9588585016
 21
22.6618053525
 31
0.0
  0
LINE
  5
D4
330
1F
100
AcDbEntity
  8
0
  6
Continuous
 62
     7
370
     0
100
AcDbLine
 10
420.6640831147
 20
24.788417717
 30
0.0
 11
421.7821957966
 21
24.7886180148
 31
0.0
  0
LINE
  5
D5
330
1F
100
AcDbEntity
  8
0
  6
Continuous
 62
     7
370
     0
100
AcDbLine
 10
414.5980626801
 20
22.8431750571
 30
0.0
 11
413.4938206244
 21
22.8429747592
 31
0.0
  0
LINE
  5
D6
330
1F
100
AcDbEntity
  8
0
  6
Continuous
 62
     7
370
     0
100
AcDbLine
 10
413.4938206244
 20
22.8429747592
 30
0.0
 11
412.1790655268
 21
26.3524434909
 31
0.0
  0
LINE
  5
D7
330
1F
100
AcDbEntity
  8
0
  6
Continuous
 62
     7
370
     0
100
AcDbLine
 10
412.1790655268
 20
26.3524434909
 30
0.0
 11
410.9965070112
 21
26.3524434909
 31
0.0
  0
LINE
  5
D8
330
1F
100
AcDbEntity
  8
0
  6
Continuous
 62
     7
370
     0
100
AcDbLine
 10
410.9965070112
 20
26.3524434909
 30
0.0
 11
409.0058468134
 21
21.0974791318
 31
0.0
  0
LINE
  5
D9
330
1F
100
AcDbEntity
  8
0
  6
Continuous
 62
     7
370
     0
100
AcDbLine
 10
409.0058468134
 20
21.0974791318
 30
0.0
 11
410.1745347028
 21
21.099882706
 31
0.0
  0
LINE
  5
DA
330
1F
100
AcDbEntity
  8
0
  6
Continuous
 62
     7
370
     0
100
AcDbLine
 10
410.1745347028
 20
21.099882706
 30
0.0
 11
410.5864472346
 21
22.2686206699
 31
0.0
  0
LINE
  5
DB
330
1F
100
AcDbEntity
  8
0
  6
Continuous
 62
     7
370
     0
100
AcDbLine
 10
410.5864472346
 20
22.2686206699
 30
0.0
 11
412.5517697541
 21
22.2682200742
 31
0.0
  0
LINE
  5
DC
330
1F
100
AcDbEntity
  8
0
  6
Continuous
 62
     7
370
     0
100
AcDbLine
 10
412.5517697541
 20
22.2682200742
 30
0.0
 11
412.9486098725
 21
21.0997825571
 31
0.0
  0
LINE
  5
DD
330
1F
100
AcDbEntity
  8
0
  6
Continuous
 62
     7
370
     0
100
AcDbLine
 10
412.9486098725
 20
21.0997825571
 30
0.0
 11
414.146841695
 21
21.0994821103
 31
0.0
  0
LINE
  5
DE
330
1F
100
AcDbEntity
  8
0
  6
Continuous
 62
     7
370
     0
100
AcDbLine
 10
414.146841695
 20
21.0994821103
 30
0.0
 11
413.9626678205
 21
21.5912133359
 31
0.0
  0
LINE
  5
DF
330
1F
100
AcDbEntity
  8
0
  6
Continuous
 62
     7
370
     0
100
AcDbLine
 10
421.5600654792
 20
21.6095405893
 30
0.0
 11
421.3680799885
 21
21.1032877695
 31
0.0
  0
LINE
  5
E0
330
1F
100
AcDbEntity
  8
0
  6
Continuous
 62
     7
370
     0
100
AcDbLine
 10
421.3680799885
 20
21.1032877695
 30
0.0
 11
422.5373687714
 21
21.1030874716
 31
0.0
  0
LINE
  5
E1
330
1F
100
AcDbEntity
  8
0
  6
Continuous
 62
     7
370
     0
100
AcDbLine
 10
422.5373687714
 20
21.1030874716
 30
0.0
 11
422.9492312287
 21
22.2727267758
 31
0.0
  0
LINE
  5
E2
330
1F
100
AcDbEntity
  8
0
  6
Continuous
 62
     7
370
     0
100
AcDbLine
 10
422.9492312287
 20
22.2727267758
 30
0.0
 11
424.9146538971
 21
22.2740287119
 31
0.0
  0
LINE
  5
E3
330
1F
100
AcDbEntity
  8
0
  6
Continuous
 62
     7
370
     0
100
AcDbLine
 10
424.9146538971
 20
22.2740287119
 30
0.0
 11
425.3118946113
 21
21.1042892587
 31
0.0
  0
LINE
  5
E4
330
1F
100
AcDbEntity
  8
0
  6
Continuous
 62
     7
370
     0
100
AcDbLine
 10
425.3118946113
 20
21.1042892587
 30
0.0
 11
426.5118289655
 21
21.1044895566
 31
0.0
  0
LINE
  5
E5
330
1F
100
AcDbEntity
  8
0
  6
Continuous
 62
     7
370
     0
100
AcDbLine
 10
426.5118289655
 20
21.1044895566
 30
0.0
 11
424.5448539887
 21
26.3564995224
 31
0.0
  0
LINE
  5
E6
330
1F
100
AcDbEntity
  8
0
  6
Continuous
 62
     7
370
     0
100
AcDbLine
 10
424.5448539887
 20
26.3564995224
 30
0.0
 11
423.3593410798
 21
26.3566497458
 31
0.0
  0
LINE
  5
E7
330
1F
100
AcDbEntity
  8
0
  6
Continuous
 62
     7
370
     0
100
AcDbLine
 10
410.8865434846
 20
23.1300016153
 30
0.0
 11
411.5710114603
 21
25.0566667378
 31
0.0
  0
LINE
  5
E8
330
1F
100
AcDbEntity
  8
0
  6
Continuous
 62
     7
370
     0
100
AcDbLine
 10
411.5710114603
 20
25.0566667378
 30
0.0
 11
411.5862839662
 21
25.0567167382
 31
0.0
  0
LINE
  5
E9
330
1F
100
AcDbEntity
  8
0
  6
Continuous
 62
     7
370
     0
100
AcDbLine
 10
411.5862839662
 20
25.0567167382
 30
0.0
 11
412.2487192075
 21
23.1297010315
 31
0.0
  0
LINE
  5
EA
330
1F
100
AcDbEntity
  8
0
  6
Continuous
 62
     7
370
     0
100
AcDbLine
 10
412.2487192075
 20
23.1297010315
 30
0.0
 11
410.8865434846
 21
23.1300016153
 31
0.0
  0
LINE
  5
EB
330
1F
100
AcDbEntity
  8
0
  6
Continuous
 62
     7
370
     0
100
AcDbLine
 10
418.6543445466
 20
22.8430749082
 30
0.0
 11
417.8889063068
 21
22.8438760996
 31
0.0
  0
LINE
  5
EC
330
1F
100
AcDbEntity
  8
0
  6
Continuous
 62
     7
370
     0
100
AcDbLine
 10
416.6050972272
 20
24.7869655576
 30
0.0
 11
417.7190537287
 21
24.7870657065
 31
0.0
  0
LINE
  5
ED
330
1F
100
AcDbEntity
  8
0
  6
Continuous
 62
     7
370
     0
100
AcDbLine
 10
423.2494275613
 20
23.1342077536
 30
0.0
 11
423.9343961224
 21
25.0608728761
 31
0.0
  0
LINE
  5
EE
330
1F
100
AcDbEntity
  8
0
  6
Continuous
 62
     7
370
     0
100
AcDbLine
 10
423.9343961224
 20
25.0608728761
 30
0.0
 11
423.9484671652
 21
25.0609228765
 31
0.0
  0
LINE
  5
EF
330
1F
100
AcDbEntity
  8
0
  6
Continuous
 62
     7
370
     0
100
AcDbLine
 10
423.9484671652
 20
25.0609228765
 30
0.0
 11
424.6127047465
 21
23.1347086297
 31
0.0
  0
LINE
  5
F0
330
1F
100
AcDbEntity
  8
0
  6
Continuous
 62
     7
370
     0
100
AcDbLine
 10
424.6127047465
 20
23.1347086297
 30
0.0
 11
423.2494275613
 21
23.1342077536
 31
0.0
  0
LINE
  5
F1
330
1F
100
AcDbEntity
  8
0
  6
Continuous
 62
     7
370
     0
100
AcDbLine
 10
434.8596925995
 20
26.3609561496
 30
0.0
 11
432.3876165156
 21
26.3597543625
 31
0.0
  0
LINE
  5
F2
330
1F
100
AcDbEntity
  8
0
  6
Continuous
 62
     7
370
     0
100
AcDbLine
 10
432.3876165156
 20
26.3597543625
 30
0.0
 11
432.3904206855
 21
21.4954709628
 31
0.0
  0
LINE
  5
F3
330
1F
100
AcDbEntity
  8
0
  6
Continuous
 62
     7
370
     0
100
AcDbLine
 10
432.3904206855
 20
21.4954709628
 30
0.0
 11
430.5699135126
 21
26.3596542136
 31
0.0
  0
LINE
  5
F4
330
1F
100
AcDbEntity
  8
0
  6
Continuous
 62
     7
370
     0
100
AcDbLine
 10
430.5699135126
 20
26.3596542136
 30
0.0
 11
429.3839499335
 21
26.3588029477
 31
0.0
  0
LINE
  5
F5
330
1F
100
AcDbEntity
  8
0
  6
Continuous
 62
     7
370
     0
100
AcDbLine
 10
429.3839499335
 20
26.3588029477
 30
0.0
 11
427.3919877997
 21
21.1046898544
 31
0.0
  0
LINE
  5
F6
330
1F
100
AcDbEntity
  8
0
  6
Continuous
 62
     7
370
     0
100
AcDbLine
 10
427.3919877997
 20
21.1046898544
 30
0.0
 11
428.5633296357
 21
21.1051905991
 31
0.0
  0
LINE
  5
F7
330
1F
100
AcDbEntity
  8
0
  6
Continuous
 62
     7
370
     0
100
AcDbLine
 10
428.5633296357
 20
21.1051905991
 30
0.0
 11
428.9737399335
 21
22.2758313925
 31
0.0
  0
LINE
  5
F8
330
1F
100
AcDbEntity
  8
0
  6
Continuous
 62
     7
370
     0
100
AcDbLine
 10
428.9737399335
 20
22.2758313925
 30
0.0
 11
430.9390624531
 21
22.275230499
 31
0.0
  0
LINE
  5
F9
330
1F
100
AcDbEntity
  8
0
  6
Continuous
 62
     7
370
     0
100
AcDbLine
 10
430.9390624531
 20
22.275230499
 30
0.0
 11
431.3364533906
 21
21.1062922373
 31
0.0
  0
LINE
  5
FA
330
1F
100
AcDbEntity
  8
0
  6
Continuous
 62
     7
370
     0
100
AcDbLine
 10
431.3364533906
 20
21.1062922373
 30
0.0
 11
432.5358369257
 21
21.1072937265
 31
0.0
  0
LINE
  5
FB
330
1F
100
AcDbEntity
  8
0
  6
Continuous
 62
     7
370
     0
100
AcDbLine
 10
432.5358369257
 20
21.1072937265
 30
0.0
 11
432.53543633
 21
21.1078946201
 31
0.0
  0
LINE
  5
FC
330
1F
100
AcDbEntity
  8
0
  6
Continuous
 62
     7
370
     0
100
AcDbLine
 10
432.53543633
 20
21.1078946201
 30
0.0
 11
434.9370075702
 21
21.1084955136
 31
0.0
  0
LINE
  5
FD
330
1F
100
AcDbEntity
  8
0
  6
Continuous
 62
     7
370
     0
100
AcDbLine
 10
429.2749879747
 20
23.135810092
 30
0.0
 11
429.9598062439
 21
25.0638772606
 31
0.0
  0
LINE
  5
FE
330
1F
100
AcDbEntity
  8
0
  6
Continuous
 62
     7
370
     0
100
AcDbLine
 10
429.9598062439
 20
25.0638772606
 30
0.0
 11
429.9746281648
 21
25.0639275517
 31
0.0
  0
LINE
  5
FF
330
1F
100
AcDbEntity
  8
0
  6
Continuous
 62
     7
370
     0
100
AcDbLine
 10
429.9746281648
 20
25.0639275517
 30
0.0
 11
430.637213698
 21
23.1357100912
 31
0.0
  0
LINE
  5
100
330
1F
100
AcDbEntity
  8
0
  6
Continuous
 62
     7
370
     0
100
AcDbLine
 10
430.637213698
 20
23.1357100912
 30
0.0
 11
429.2749879747
 21
23.135810092
 31
0.0
  0
LINE
  5
101
330
1F
100
AcDbEntity
  8
0
  6
Continuous
 62
     7
370
     0
100
AcDbLine
 10
433.5443366083
 20
25.4632712534
 30
0.0
 11
434.6251438154
 21
25.4640223703
 31
0.0
  0
LINE
  5
102
330
1F
100
AcDbEntity
  8
0
  6
Continuous
 62
     7
370
     0
100
AcDbLine
 10
434.7152778486
 20
24.2348445297
 30
0.0
 11
433.5449375019
 21
24.2328415512
 31
0.0
  0
LINE
  5
103
330
1F
100
AcDbEntity
  8
0
  6
Continuous
 62
     7
370
     0
100
AcDbLine
 10
433.5449375019
 20
24.2328415512
 30
0.0
 11
433.5443366083
 21
25.4632712534
 31
0.0
  0
LINE
  5
104
330
1F
100
AcDbEntity
  8
0
  6
Continuous
 62
     7
370
     0
100
AcDbLine
 10
434.782177331
 20
22.0063306333
 30
0.0
 11
433.5457386933
 21
22.0050286972
 31
0.0
  0
LINE
  5
105
330
1F
100
AcDbEntity
  8
0
  6
Continuous
 62
     7
370
     0
100
AcDbLine
 10
433.5457386933
 20
22.0050286972
 30
0.0
 11
433.5453380976
 21
23.4474736752
 31
0.0
  0
LINE
  5
106
330
1F
100
AcDbEntity
  8
0
  6
Continuous
 62
     7
370
     0
100
AcDbLine
 10
433.5453380976
 20
23.4474736752
 30
0.0
 11
434.8032086054
 21
23.4485753134
 31
0.0
  0
LINE
  5
107
330
1F
100
AcDbEntity
  8
0
  6
Continuous
 62
     7
370
     0
100
AcDbLine
 10
440.0568431578
 20
22.0736445879
 30
0.0
 11
438.1131423499
 21
22.0743033467
 31
0.0
  0
LINE
  5
108
330
1F
100
AcDbEntity
  8
0
  6
Continuous
 62
     7
370
     0
100
AcDbLine
 10
438.1131423499
 20
22.0743033467
 30
0.0
 11
438.1131423499
 21
26.370520372
 31
0.0
  0
LINE
  5
109
330
1F
100
AcDbEntity
  8
0
  6
Continuous
 62
     7
370
     0
100
AcDbLine
 10
438.1131423499
 20
26.370520372
 30
0.0
 11
436.9588140839
 21
26.370520372
 31
0.0
  0
LINE
  5
10A
330
1F
100
AcDbEntity
  8
0
  6
Continuous
 62
     7
370
     0
100
AcDbLine
 10
436.9588140839
 20
26.370520372
 30
0.0
 11
436.9746376142
 21
21.1102981943
 31
0.0
  0
LINE
  5
10B
330
1F
100
AcDbEntity
  8
0
  6
Continuous
 62
     7
370
     0
100
AcDbLine
 10
436.9746376142
 20
21.1102981943
 30
0.0
 11
440.3152051826
 21
21.124118746
 31
0.0
  0
LINE
  5
10C
330
1F
100
AcDbEntity
  8
0
  6
Continuous
 62
     7
370
     0
100
AcDbLine
 10
440.3152051826
 20
21.124118746
 30
0.0
 11
440.2951976012
 21
21.7592771099
 31
0.0
  0
LINE
  5
10D
330
1F
100
AcDbEntity
  8
0
  6
Continuous
 62
     7
370
     0
100
AcDbLine
 10
447.722420146
 20
26.3658635485
 30
0.0
 11
446.5026060271
 21
24.2902268854
 31
0.0
  0
LINE
  5
10E
330
1F
100
AcDbEntity
  8
0
  6
Continuous
 62
     7
370
     0
100
AcDbLine
 10
446.5026060271
 20
24.2902268854
 30
0.0
 11
445.2727772932
 21
26.3634097498
 31
0.0
  0
LINE
  5
10F
330
1F
100
AcDbEntity
  8
0
  6
Continuous
 62
     7
370
     0
100
AcDbLine
 10
445.2727772932
 20
26.3634097498
 30
0.0
 11
443.9702404195
 21
26.363760334
 31
0.0
  0
LINE
  5
110
330
1F
100
AcDbEntity
  8
0
  6
Continuous
 62
     7
370
     0
100
AcDbLine
 10
443.9702404195
 20
26.363760334
 30
0.0
 11
445.9045166494
 21
23.1583437025
 31
0.0
  0
LINE
  5
111
330
1F
100
AcDbEntity
  8
0
  6
Continuous
 62
     7
370
     0
100
AcDbLine
 10
445.9045166494
 20
23.1583437025
 30
0.0
 11
445.9069204477
 21
21.1119005869
 31
0.0
  0
LINE
  5
112
330
1F
100
AcDbEntity
  8
0
  6
Continuous
 62
     7
370
     0
100
AcDbLine
 10
445.9069204477
 20
21.1119005869
 30
0.0
 11
447.0620381188
 21
21.1110994177
 31
0.0
  0
LINE
  5
113
330
1F
100
AcDbEntity
  8
0
  6
Continuous
 62
     7
370
     0
100
AcDbLine
 10
447.0620381188
 20
21.1110994177
 30
0.0
 11
447.0600349051
 21
23.1288998623
 31
0.0
  0
LINE
  5
114
330
1F
100
AcDbEntity
  8
0
  6
Continuous
 62
     7
370
     0
100
AcDbLine
 10
447.0600349051
 20
23.1288998623
 30
0.0
 11
449.0093336389
 21
26.3646115036
 31
0.0
  0
LINE
  5
115
330
1F
100
AcDbEntity
  8
0
  6
Continuous
 62
     7
370
     0
100
AcDbLine
 10
449.0093336389
 20
26.3646115036
 30
0.0
 11
447.722420146
 21
26.3658635485
 31
0.0
  0
LINE
  5
116
330
1F
100
AcDbEntity
  8
0
  6
CENTERX2
 62
     7
370
     0
100
AcDbLine
 10
532.0
 20
14.0
 30
0.0
 11
582.0
 21
14.0
 31
0.0
  0
LINE
  5
117
330
1F
100
AcDbEntity
  8
0
  6
CENTERX2
 62
     7
370
     0
100
AcDbLine
 10
587.0
 20
9.0
 30
0.0
 11
587.0
 21
66.4327970027
 31
0.0
  0
CIRCLE
  5
118
330
1F
100
AcDbEntity
  8
0
  6
Continuous
 62
     7
370
     0
100
AcDbCircle
 10
578.0848275834
 20
32.7521826334
 30
0.0
 40
1.35333162880869
  0
CIRCLE
  5
119
330
1F
100
AcDbEntity
  8
0
  6
Continuous
 62
     7
370
     0
100
AcDbCircle
 10
578.0848275834
 20
32.7521826334
 30
0.0
 40
2.217331649307813
  0
SPLINE
  5
11A
330
1F
100
AcDbEntity
  8
0
  6
Continuous
 62
     7
370
     0
100
AcDbSpline
210
0.0
220
0.0
230
1.0
 70
     8
 71
     3
 72
     8
 73
     4
 74
     0
 42
0.000000001
 43
0.00000001
 40
1.0
 40
1.0
 40
1.0
 40
1.0
 40
2.0
 40
2.0
 40
2.0
 40
2.0
 10
421.9588585016419
 20
22.66180535248849
 30
0.0
 10
421.9572060443667
 20
23.85412838837717
 30
0.0
 10
420.7814075812319
 20
24.09713975678537
 30
0.0
 10
420.3988386847474
 20
24.19127974701973
 30
0.0
  0
SPLINE
  5
11B
330
1F
100
AcDbEntity
  8
0
  6
Continuous
 62
     7
370
     0
100
AcDbSpline
210
0.0
220
0.0
230
1.0
 70
     8
 71
     3
 72
     8
 73
     4
 74
     0
 42
0.000000001
 43
0.00000001
 40
2.0
 40
2.0
 40
2.0
 40
2.0
 40
3.0
 40
3.0
 40
3.0
 40
3.0
 10
420.3988386847474
 20
24.19127974701973
 30
0.0
 10
419.0813294916323
 20
24.53088475434395
 30
0.0
 10
418.8317583685853
 20
24.57910646210762
 30
0.0
 10
418.8314078473451
 20
24.98611169648263
 30
0.0
  0
SPLINE
  5
11C
330
1F
100
AcDbEntity
  8
0
  6
Continuous
 62
     7
370
     0
100
AcDbSpline
210
0.0
220
0.0
230
1.0
 70
     8
 71
     3
 72
     8
 73
     4
 74
     0
 42
0.000000001
 43
0.00000001
 40
3.0
 40
3.0
 40
3.0
 40
3.0
 40
4.0
 40
4.0
 40
4.0
 40
4.0
 10
418.8314078473451
 20
24.98611169648263
 30
0.0
 10
418.8320087408998
 20
25.42771838471505
 30
0.0
 10
419.2584428668763
 20
25.58209795380684
 30
0.0
 10
419.6259393500306
 20
25.58129676240059
 30
0.0
  0
SPLINE
  5
11D
330
1F
100
AcDbEntity
  8
0
  6
Continuous
 62
     7
370
     0
100
AcDbSpline
210
0.0
220
0.0
230
1.0
 70
     8
 71
     3
 72
     8
 73
     4
 74
     0
 42
0.000000001
 43
0.00000001
 40
4.0
 40
4.0
 40
4.0
 40
4.0
 40
5.0
 40
5.0
 40
5.0
 40
5.0
 10
419.6259393500306
 20
25.58129676240059
 30
0.0
 10
420.1789116437319
 20
25.58174743256661
 30
0.0
 10
420.626577341974
 20
25.42030736420722
 30
0.0
 10
420.6640831146789
 20
24.78841771699044
 30
0.0
  0
SPLINE
  5
11E
330
1F
100
AcDbEntity
  8
0
  6
Continuous
 62
     7
370
     0
100
AcDbSpline
210
0.0
220
0.0
230
1.0
 70
     8
 71
     3
 72
     8
 73
     4
 74
     0
 42
0.000000001
 43
0.00000001
 40
6.0
 40
6.0
 40
6.0
 40
6.0
 40
7.0
 40
7.0
 40
7.0
 40
7.0
 10
421.7821957965638
 20
24.788618014842
 30
0.0
 10
421.7805934137514
 20
26.00217262299631
 30
0.0
 10
420.7730451459292
 20
26.47943232880684
 30
0.0
 10
419.6781169403628
 20
26.47873128632639
 30
0.0
  0
SPLINE
  5
11F
330
1F
100
AcDbEntity
  8
0
  6
Continuous
 62
     7
370
     0
100
AcDbSpline
210
0.0
220
0.0
230
1.0
 70
     8
 71
     3
 72
     8
 73
     4
 74
     0
 42
0.000000001
 43
0.00000001
 40
7.0
 40
7.0
 40
7.0
 40
7.0
 40
8.0
 40
8.0
 40
8.0
 40
8.0
 10
419.6781169403628
 20
26.47873128632639
 30
0.0
 10
418.7398717291811
 20
26.47973277558419
 30
0.0
 10
417.7410864923646
 20
25.97633420014472
 30
0.0
 10
417.7159991864564
 20
24.93067926606271
 30
0.0
  0
SPLINE
  5
120
330
1F
100
AcDbEntity
  8
0
  6
Continuous
 62
     7
370
     0
100
AcDbSpline
210
0.0
220
0.0
230
1.0
 70
     8
 71
     3
 72
     8
 73
     4
 74
     0
 42
0.000000001
 43
0.00000001
 40
8.0
 40
8.0
 40
8.0
 40
8.0
 40
9.0
 40
9.0
 40
9.0
 40
9.0
 10
417.7159991864564
 20
24.93067926606271
 30
0.0
 10
417.6373822797182
 20
26.03707452363108
 30
0.0
 10
416.6701940289857
 20
26.47788002045723
 30
0.0
 10
415.617077999933
 20
26.47677838227364
 30
0.0
  0
SPLINE
  5
121
330
1F
100
AcDbEntity
  8
0
  6
Continuous
 62
     7
370
     0
100
AcDbSpline
210
0.0
220
0.0
230
1.0
 70
     8
 71
     3
 72
     8
 73
     4
 74
     0
 42
0.000000001
 43
0.00000001
 40
9.0
 40
9.0
 40
9.0
 40
9.0
 40
10.0
 40
10.0
 40
10.0
 40
10.0
 10
415.617077999933
 20
26.47677838227364
 30
0.0
 10
414.6702700555972
 20
26.47707882905098
 30
0.0
 10
413.6551104694154
 20
25.9610614889631
 30
0.0
 10
413.6557614374331
 20
24.88776545136545
 30
0.0
  0
SPLINE
  5
122
330
1F
100
AcDbEntity
  8
0
  6
Continuous
 62
     7
370
     0
100
AcDbSpline
210
0.0
220
0.0
230
1.0
 70
     8
 71
     3
 72
     8
 73
     4
 74
     0
 42
0.000000001
 43
0.00000001
 40
10.0
 40
10.0
 40
10.0
 40
10.0
 40
11.0
 40
11.0
 40
11.0
 40
11.0
 10
413.6557614374331
 20
24.88776545136545
 30
0.0
 10
413.6560118097476
 20
23.90089793671702
 30
0.0
 10
414.4431322919252
 20
23.60110212739083
 30
0.0
 10
415.2224912323551
 20
23.39489548920723
 30
0.0
  0
SPLINE
  5
123
330
1F
100
AcDbEntity
  8
0
  6
Continuous
 62
     7
370
     0
100
AcDbSpline
210
0.0
220
0.0
230
1.0
 70
     8
 71
     3
 72
     8
 73
     4
 74
     0
 42
0.000000001
 43
0.00000001
 40
11.0
 40
11.0
 40
11.0
 40
11.0
 40
12.0
 40
12.0
 40
12.0
 40
12.0
 10
415.2224912323551
 20
23.39489548920723
 30
0.0
 10
415.9954907159974
 20
23.188989297801
 30
0.0
 10
416.7823608258608
 20
23.09374766938302
 30
0.0
 10
416.7817098578431
 20
22.52800638764474
 30
0.0
  0
SPLINE
  5
124
330
1F
100
AcDbEntity
  8
0
  6
Continuous
 62
     7
370
     0
100
AcDbSpline
210
0.0
220
0.0
230
1.0
 70
     8
 71
     3
 72
     8
 73
     4
 74
     0
 42
0.000000001
 43
0.00000001
 40
12.0
 40
12.0
 40
12.0
 40
12.0
 40
13.0
 40
13.0
 40
13.0
 40
13.0
 10
416.7817098578431
 20
22.52800638764474
 30
0.0
 10
416.7819602301576
 20
21.99100784760569
 30
0.0
 10
416.1650428473453
 20
21.87363330659003
 30
0.0
 10
415.7612924530582
 20
21.87243151948068
 30
0.0
  0
SPLINE
  5
125
330
1F
100
AcDbEntity
  8
0
  6
Continuous
 62
     7
370
     0
100
AcDbSpline
210
0.0
220
0.0
230
1.0
 70
     8
 71
     3
 72
     8
 73
     4
 74
     0
 42
0.000000001
 43
0.00000001
 40
13.0
 40
13.0
 40
13.0
 40
13.0
 40
14.0
 40
14.0
 40
14.0
 40
14.0
 10
415.7612924530582
 20
21.87243151948068
 30
0.0
 10
415.1418713471012
 20
21.87132988129706
 30
0.0
 10
414.5989640204409
 20
22.14453615082832
 30
0.0
 10
414.5980626801088
 20
22.84317505707833
 30
0.0
  0
SPLINE
  5
126
330
1F
100
AcDbEntity
  8
0
  6
Continuous
 62
     7
370
     0
100
AcDbSpline
210
0.0
220
0.0
230
1.0
 70
     8
 71
     3
 72
     8
 73
     4
 74
     0
 42
0.000000001
 43
0.00000001
 40
24.0
 40
24.0
 40
24.0
 40
24.0
 40
25.0
 40
25.0
 40
25.0
 40
25.0
 10
413.9626678204896
 20
21.59121333588693
 30
0.0
 10
414.3860974786929
 20
21.17118874116036
 30
0.0
 10
415.0371155707339
 20
20.97469654877754
 30
0.0
 10
415.7164257343081
 20
20.97589833588692
 30
0.0
  0
SPLINE
  5
127
330
1F
100
AcDbEntity
  8
0
  6
Continuous
 62
     7
370
     0
100
AcDbSpline
210
0.0
220
0.0
230
1.0
 70
     8
 71
     3
 72
     8
 73
     4
 74
     0
 42
0.000000001
 43
0.00000001
 40
25.0
 40
25.0
 40
25.0
 40
25.0
 40
26.0
 40
26.0
 40
26.0
 40
26.0
 10
415.7164257343081
 20
20.97589833588692
 30
0.0
 10
416.7675387848452
 20
20.97489684662909
 30
0.0
 10
417.4551112347963
 20
21.3680815292463
 30
0.0
 10
417.7441410346009
 20
21.96036227631662
 30
0.0
  0
SPLINE
  5
128
330
1F
100
AcDbEntity
  8
0
  6
Continuous
 62
     7
370
     0
100
AcDbSpline
210
0.0
220
0.0
230
1.0
 70
     8
 71
     3
 72
     8
 73
     4
 74
     0
 42
0.000000001
 43
0.00000001
 40
26.0
 40
26.0
 40
26.0
 40
26.0
 40
27.0
 40
27.0
 40
27.0
 40
27.0
 10
417.7441410346009
 20
21.96036227631662
 30
0.0
 10
418.1115373688294
 20
21.28575911225411
 30
0.0
 10
418.9227937421206
 20
20.97649922944161
 30
0.0
 10
419.7759123663881
 20
20.97750071869942
 30
0.0
  0
SPLINE
  5
129
330
1F
100
AcDbEntity
  8
0
  6
Continuous
 62
     7
370
     0
100
AcDbSpline
210
0.0
220
0.0
230
1.0
 70
     8
 71
     3
 72
     8
 73
     4
 74
     0
 42
0.000000001
 43
0.00000001
 40
27.0
 40
27.0
 40
27.0
 40
27.0
 40
28.0
 40
28.0
 40
28.0
 40
28.0
 10
419.7759123663881
 20
20.97750071869942
 30
0.0
 10
420.6006888446595
 20
20.97750071869942
 30
0.0
 10
421.2000300909974
 20
21.2196608212385
 30
0.0
 10
421.560065479181
 20
21.60954058930489
 30
0.0
  0
SPLINE
  5
12A
330
1F
100
AcDbEntity
  8
0
  6
Continuous
 62
     7
370
     0
100
AcDbSpline
210
0.0
220
0.0
230
1.0
 70
     8
 71
     3
 72
     8
 73
     4
 74
     0
 42
0.000000001
 43
0.00000001
 40
0.0
 40
0.0
 40
0.0
 40
0.0
 40
1.0
 40
1.0
 40
1.0
 40
1.0
 10
419.8174240961245
 20
21.875035391551
 30
0.0
 10
419.2008071600893
 20
21.87383360444162
 30
0.0
 10
418.6562974506166
 20
22.1462386825666
 30
0.0
 10
418.6543445465637
 20
22.84307490815254
 30
0.0
  0
SPLINE
  5
12B
330
1F
100
AcDbEntity
  8
0
  6
Continuous
 62
     7
370
     0
100
AcDbSpline
210
0.0
220
0.0
230
1.0
 70
     8
 71
     3
 72
     8
 73
     4
 74
     0
 42
0.000000001
 43
0.00000001
 40
2.0
 40
2.0
 40
2.0
 40
2.0
 40
3.0
 40
3.0
 40
3.0
 40
3.0
 10
417.8889063068179
 20
22.84387609955879
 30
0.0
 10
417.7744861591127
 20
23.87681212006659
 30
0.0
 10
416.7027424298647
 20
24.09924288422677
 30
0.0
 10
416.3393520526674
 20
24.19022818329902
 30
0.0
  0
SPLINE
  5
12C
330
1F
100
AcDbEntity
  8
0
  6
Continuous
 62
     7
370
     0
100
AcDbSpline
210
0.0
220
0.0
230
1.0
 70
     8
 71
     3
 72
     8
 73
     4
 74
     0
 42
0.000000001
 43
0.00000001
 40
3.0
 40
3.0
 40
3.0
 40
3.0
 40
4.0
 40
4.0
 40
4.0
 40
4.0
 10
416.3393520526674
 20
24.19022818329902
 30
0.0
 10
415.0249975507142
 20
24.52788028657052
 30
0.0
 10
414.7739241937808
 20
24.58010795136545
 30
0.0
 10
414.7729727789858
 20
24.98385834565256
 30
0.0
  0
SPLINE
  5
12D
330
1F
100
AcDbEntity
  8
0
  6
Continuous
 62
     7
370
     0
100
AcDbSpline
210
0.0
220
0.0
230
1.0
 70
     8
 71
     3
 72
     8
 73
     4
 74
     0
 42
0.000000001
 43
0.00000001
 40
4.0
 40
4.0
 40
4.0
 40
4.0
 40
5.0
 40
5.0
 40
5.0
 40
5.0
 10
414.7729727789858
 20
24.98385834565256
 30
0.0
 10
414.7746252362613
 20
25.4258656295881
 30
0.0
 10
415.2001079474429
 20
25.58059571992014
 30
0.0
 10
415.5675042816715
 20
25.57984460297677
 30
0.0
  0
SPLINE
  5
12E
330
1F
100
AcDbEntity
  8
0
  6
Continuous
 62
     7
370
     0
100
AcDbSpline
210
0.0
220
0.0
230
1.0
 70
     8
 71
     3
 72
     8
 73
     4
 74
     0
 42
0.000000001
 43
0.00000001
 40
5.0
 40
5.0
 40
5.0
 40
5.0
 40
6.0
 40
6.0
 40
6.0
 40
6.0
 10
415.5675042816715
 20
25.57984460297677
 30
0.0
 10
416.1200759796694
 20
25.5796943795881
 30
0.0
 10
416.5670406354311
 20
25.41975654511544
 30
0.0
 10
416.605097227228
 20
24.7869655575666
 30
0.0
  0
SPLINE
  5
12F
330
1F
100
AcDbEntity
  8
0
  6
Continuous
 62
     7
370
     0
100
AcDbSpline
210
0.0
220
0.0
230
1.0
 70
     8
 71
     3
 72
     8
 73
     4
 74
     0
 42
0.000000001
 43
0.00000001
 40
7.0
 40
7.0
 40
7.0
 40
7.0
 40
8.0
 40
8.0
 40
8.0
 40
8.0
 10
417.7190537286929
 20
24.78706570649239
 30
0.0
 10
417.7737350421694
 20
23.88352209809397
 30
0.0
 10
418.52885794256
 20
23.59419185151193
 30
0.0
 10
419.2803254071594
 20
23.39769965912911
 30
0.0
  0
SPLINE
  5
130
330
1F
100
AcDbEntity
  8
0
  6
Continuous
 62
     7
370
     0
100
AcDbSpline
210
0.0
220
0.0
230
1.0
 70
     8
 71
     3
 72
     8
 73
     4
 74
     0
 42
0.000000001
 43
0.00000001
 40
8.0
 40
8.0
 40
8.0
 40
8.0
 40
9.0
 40
9.0
 40
9.0
 40
9.0
 10
419.2803254071594
 20
23.39769965912911
 30
0.0
 10
420.053425039728
 20
23.19169331879709
 30
0.0
 10
420.8412465643862
 20
23.09675213715645
 30
0.0
 10
420.8416471600892
 20
22.53000936616037
 30
0.0
  0
SPLINE
  5
131
330
1F
100
AcDbEntity
  8
0
  6
Continuous
 62
     7
370
     0
100
AcDbSpline
210
0.0
220
0.0
230
1.0
 70
     8
 71
     3
 72
     8
 73
     4
 74
     0
 42
0.000000001
 43
0.00000001
 40
9.0
 40
9.0
 40
9.0
 40
9.0
 40
10.0
 40
10.0
 40
10.0
 40
10.0
 10
420.8416471600892
 20
22.53000936616037
 30
0.0
 10
420.8413967877748
 20
21.99361171967598
 30
0.0
 10
420.2239786603333
 20
21.87523568940255
 30
0.0
 10
419.8174240961245
 20
21.875035391551
 30
0.0
  0
SPLINE
  5
132
330
1F
100
AcDbEntity
  8
0
  6
Continuous
 62
     7
370
     0
100
AcDbSpline
210
0.0
220
0.0
230
1.0
 70
     8
 71
     3
 72
     8
 73
     4
 74
     0
 42
0.000000001
 43
0.00000001
 40
0.0
 40
0.0
 40
0.0
 40
0.0
 40
1.0
 40
1.0
 40
1.0
 40
1.0
 10
435.8241267548158
 20
23.96248952607247
 30
0.0
 10
436.2812064520814
 20
24.18341805634591
 30
0.0
 10
436.5381885956362
 20
24.54485552949046
 30
0.0
 10
436.5393903827456
 20
25.05982130585763
 30
0.0
  0
SPLINE
  5
133
330
1F
100
AcDbEntity
  8
0
  6
Continuous
 62
     7
370
     0
100
AcDbSpline
210
0.0
220
0.0
230
1.0
 70
     8
 71
     3
 72
     8
 73
     4
 74
     0
 42
0.000000001
 43
0.00000001
 40
1.0
 40
1.0
 40
1.0
 40
1.0
 40
2.0
 40
2.0
 40
2.0
 40
2.0
 10
436.5393903827456
 20
25.05982130585763
 30
0.0
 10
436.5381885956362
 20
26.03732489594551
 30
0.0
 10
435.8611818573549
 20
26.36230816010568
 30
0.0
 10
434.8596925995424
 20
26.36095614960762
 30
0.0
  0
SPLINE
  5
134
330
1F
100
AcDbEntity
  8
0
  6
Continuous
 62
     7
370
     0
100
AcDbSpline
210
0.0
220
0.0
230
1.0
 70
     8
 71
     3
 72
     8
 73
     4
 74
     0
 42
0.000000001
 43
0.00000001
 40
14.0
 40
14.0
 40
14.0
 40
14.0
 40
15.0
 40
15.0
 40
15.0
 40
15.0
 10
434.9370075702456
 20
21.10849551362129
 30
0.0
 10
435.885417897394
 20
21.10869581147287
 30
0.0
 10
436.7895623993471
 20
21.56637640229317
 30
0.0
 10
436.7901632929018
 20
22.63276216401191
 30
0.0
  0
SPLINE
  5
135
330
1F
100
AcDbEntity
  8
0
  6
Continuous
 62
     7
370
     0
100
AcDbSpline
210
0.0
220
0.0
230
1.0
 70
     8
 71
     3
 72
     8
 73
     4
 74
     0
 42
0.000000001
 43
0.00000001
 40
15.0
 40
15.0
 40
15.0
 40
15.0
 40
16.0
 40
16.0
 40
16.0
 40
16.0
 10
436.7901632929018
 20
22.63276216401191
 30
0.0
 10
436.7897626971985
 20
23.28743569184394
 30
0.0
 10
436.4646792841126
 20
23.7796676620588
 30
0.0
 10
435.8241267548158
 20
23.96248952607247
 30
0.0
  0
SPLINE
  5
136
330
1F
100
AcDbEntity
  8
0
  6
Continuous
 62
     7
370
     0
100
AcDbSpline
210
0.0
220
0.0
230
1.0
 70
     8
 71
     3
 72
     8
 73
     4
 74
     0
 42
0.000000001
 43
0.00000001
 40
1.0
 40
1.0
 40
1.0
 40
1.0
 40
2.0
 40
2.0
 40
2.0
 40
2.0
 10
434.6251438153627
 20
25.46402237031074
 30
0.0
 10
435.0361550067691
 20
25.46327125336738
 30
0.0
 10
435.4201259882144
 20
25.36131964692208
 30
0.0
 10
435.4215280731754
 20
24.86052494355294
 30
0.0
  0
SPLINE
  5
137
330
1F
100
AcDbEntity
  8
0
  6
Continuous
 62
     7
370
     0
100
AcDbSpline
210
0.0
220
0.0
230
1.0
 70
     8
 71
     3
 72
     8
 73
     4
 74
     0
 42
0.000000001
 43
0.00000001
 40
2.0
 40
2.0
 40
2.0
 40
2.0
 40
3.0
 40
3.0
 40
3.0
 40
3.0
 10
435.4215280731754
 20
24.86052494355294
 30
0.0
 10
435.4205265839174
 20
24.41866788300603
 30
0.0
 10
435.1174759345035
 20
24.23404333832833
 30
0.0
 10
434.7152778485658
 20
24.23484452973457
 30
0.0
  0
SPLINE
  5
138
330
1F
100
AcDbEntity
  8
0
  6
Continuous
 62
     7
370
     0
100
AcDbSpline
210
0.0
220
0.0
230
1.0
 70
     8
 71
     3
 72
     8
 73
     4
 74
     0
 42
0.000000001
 43
0.00000001
 40
3.0
 40
3.0
 40
3.0
 40
3.0
 40
4.0
 40
4.0
 40
4.0
 40
4.0
 10
434.8032086054018
 20
23.44857531342598
 30
0.0
 10
435.2959413202454
 20
23.44897590912912
 30
0.0
 10
435.6354461786439
 20
23.23485750580881
 30
0.0
 10
435.6338437958315
 20
22.69785896576973
 30
0.0
  0
SPLINE
  5
139
330
1F
100
AcDbEntity
  8
0
  6
Continuous
 62
     7
370
     0
100
AcDbSpline
210
0.0
220
0.0
230
1.0
 70
     8
 71
     3
 72
     8
 73
     4
 74
     0
 42
0.000000001
 43
0.00000001
 40
4.0
 40
4.0
 40
4.0
 40
4.0
 40
5.0
 40
5.0
 40
5.0
 40
5.0
 10
435.6338437958315
 20
22.69785896576973
 30
0.0
 10
435.6342443915345
 20
22.1526482138166
 30
0.0
 10
435.2364528583316
 20
22.00572973969554
 30
0.0
 10
434.7821773309876
 20
22.00633063325021
 30
0.0
  0
SPLINE
  5
13A
330
1F
100
AcDbEntity
  8
0
  6
Continuous
 62
     7
370
     0
100
AcDbSpline
210
0.0
220
0.0
230
1.0
 70
     8
 71
     3
 72
     8
 73
     4
 74
     0
 42
0.000000001
 43
0.00000001
 40
0.0
 40
0.0
 40
0.0
 40
0.0
 40
1.0
 40
1.0
 40
1.0
 40
1.0
 10
442.1840063414421
 20
26.47438868459466
 30
0.0
 10
440.558789573864
 20
26.47614129079583
 30
0.0
 10
439.6017664390982
 20
25.26243645925284
 30
0.0
 10
439.6031685240592
 20
23.70201604665519
 30
0.0
  0
SPLINE
  5
13B
330
1F
100
AcDbEntity
  8
0
  6
Continuous
 62
     7
370
     0
100
AcDbSpline
210
0.0
220
0.0
230
1.0
 70
     8
 71
     3
 72
     8
 73
     4
 74
     0
 42
0.000000001
 43
0.00000001
 40
1.0
 40
1.0
 40
1.0
 40
1.0
 40
2.0
 40
2.0
 40
2.0
 40
2.0
 10
439.6031685240592
 20
23.70201604665519
 30
0.0
 10
439.604170013317
 20
23.08895439748529
 30
0.0
 10
439.7632065074579
 20
22.527319221704
 30
0.0
 10
440.0568431578483
 20
22.07364458791494
 30
0.0
  0
SPLINE
  5
13C
330
1F
100
AcDbEntity
  8
0
  6
Continuous
 62
     7
370
     0
100
AcDbSpline
210
0.0
220
0.0
230
1.0
 70
     8
 71
     3
 72
     8
 73
     4
 74
     0
 42
0.000000001
 43
0.00000001
 40
8.0
 40
8.0
 40
8.0
 40
8.0
 40
9.0
 40
9.0
 40
9.0
 40
9.0
 10
440.2951976012076
 20
21.75927710988759
 30
0.0
 10
440.7370546617545
 20
21.27245318166496
 30
0.0
 10
441.3790092760125
 20
20.97300789357901
 30
0.0
 10
442.1868105113639
 20
20.9740093828368
 30
0.0
  0
SPLINE
  5
13D
330
1F
100
AcDbEntity
  8
0
  6
Continuous
 62
     7
370
     0
100
AcDbSpline
210
0.0
220
0.0
230
1.0
 70
     8
 71
     3
 72
     8
 73
     4
 74
     0
 42
0.000000001
 43
0.00000001
 40
9.0
 40
9.0
 40
9.0
 40
9.0
 40
10.0
 40
10.0
 40
10.0
 40
10.0
 10
442.1868105113639
 20
20.9740093828368
 30
0.0
 10
443.8126281724967
 20
20.97400938283683
 30
0.0
 10
444.7678486265983
 20
22.18841525686025
 30
0.0
 10
444.7666468394888
 20
23.70321783376455
 30
0.0
  0
SPLINE
  5
13E
330
1F
100
AcDbEntity
  8
0
  6
Continuous
 62
     7
370
     0
100
AcDbSpline
210
0.0
220
0.0
230
1.0
 70
     8
 71
     3
 72
     8
 73
     4
 74
     0
 42
0.000000001
 43
0.00000001
 40
10.0
 40
10.0
 40
10.0
 40
10.0
 40
11.0
 40
11.0
 40
11.0
 40
11.0
 10
444.7666468394888
 20
23.70321783376456
 30
0.0
 10
444.7676483287466
 20
25.26353809743644
 30
0.0
 10
443.8094234068718
 20
26.47699255666496
 30
0.0
 10
442.1840063414421
 20
26.47438868459465
 30
0.0
  0
SPLINE
  5
13F
330
1F
100
AcDbEntity
  8
0
  6
Continuous
 62
     7
370
     0
100
AcDbSpline
210
0.0
220
0.0
230
1.0
 70
     8
 71
     3
 72
     8
 73
     4
 74
     0
 42
0.000000001
 43
0.00000001
 40
3.0
 40
3.0
 40
3.0
 40
3.0
 40
4.0
 40
4.0
 40
4.0
 40
4.0
 10
443.6293334345033
 20
23.71682421113105
 30
0.0
 10
443.6297340302069
 20
22.83946954682437
 30
0.0
 10
443.2389529218084
 20
21.95775840424628
 30
0.0
 10
442.2022112421209
 20
21.9563563192855
 30
0.0
  0
SPLINE
  5
140
330
1F
100
AcDbEntity
  8
0
  6
Continuous
 62
     7
370
     0
100
AcDbSpline
210
0.0
220
0.0
230
1.0
 70
     8
 71
     3
 72
     8
 73
     4
 74
     0
 42
0.000000001
 43
0.00000001
 40
2.0
 40
2.0
 40
2.0
 40
2.0
 40
3.0
 40
3.0
 40
3.0
 40
3.0
 10
442.2006088593081
 20
25.51680085419747
 30
0.0
 10
443.2381517304017
 20
25.5166506308088
 30
0.0
 10
443.6273304559878
 20
24.63508971161935
 30
0.0
 10
443.6293334345033
 20
23.71682421113105
 30
0.0
  0
SPLINE
  5
141
330
1F
100
AcDbEntity
  8
0
  6
Continuous
 62
     7
370
     0
100
AcDbSpline
210
0.0
220
0.0
230
1.0
 70
     8
 71
     3
 72
     8
 73
     4
 74
     0
 42
0.000000001
 43
0.00000001
 40
1.0
 40
1.0
 40
1.0
 40
1.0
 40
2.0
 40
2.0
 40
2.0
 40
2.0
 10
440.7734866669252
 20
23.71412019013497
 30
0.0
 10
440.7730860712219
 20
24.63343725434394
 30
0.0
 10
441.1620644989563
 20
25.51625003510568
 30
0.0
 10
442.2006088593081
 20
25.51680085419747
 30
0.0
  0
SPLINE
  5
142
330
1F
100
AcDbEntity
  8
0
  6
Continuous
 62
     7
370
     0
100
AcDbSpline
210
0.0
220
0.0
230
1.0
 70
     8
 71
     3
 72
     8
 73
     4
 74
     0
 42
0.000000001
 43
0.00000001
 40
0.0
 40
0.0
 40
0.0
 40
0.0
 40
1.0
 40
1.0
 40
1.0
 40
1.0
 10
442.2022112421209
 20
21.95635631928549
 30
0.0
 10
441.1640674774726
 20
21.95585557465648
 30
0.0
 10
440.7750890497378
 20
22.83886865326973
 30
0.0
 10
440.7734866669252
 20
23.71412019013497
 30
0.0
  0
MTEXT
  5
144
330
1F
100
AcDbEntity
  8
0
  6
Continuous
 62
     7
370
     0
100
AcDbMText
 10
431.043156254
 20
63.4541336712
 30
0.0
 40
1.5875
 41
0.0
 71
     1
 72
     1
  1
Date
  7
SLDTEXTSTYLE0
 73
     1
 44
1.0
  0
MTEXT
  5
145
330
1F
100
AcDbEntity
  8
0
  6
Continuous
 62
     7
370
     0
100
AcDbMText
 10
447.0649461178
 20
63.4541336712
 30
0.0
 40
1.5875
 41
0.0
 71
     1
 72
     1
  1
Name
  7
SLDTEXTSTYLE0
 73
     1
 44
1.0
  0
MTEXT
  5
146
330
1F
100
AcDbEntity
  8
0
  6
Continuous
 62
     7
370
     0
100
AcDbMText
 10
410.0292092735
 20
63.4541336712
 30
0.0
 40
1.5875
 41
0.0
 71
     1
 72
     1
  1
Description
  7
SLDTEXTSTYLE0
 73
     1
 44
1.0
  0
MTEXT
  5
147
330
1F
100
AcDbEntity
  8
0
  6
Continuous
 62
     7
370
     0
100
AcDbMText
 10
400.0984065971
 20
63.4541336712
 30
0.0
 40
1.5875
 41
0.0
 71
     1
 72
     1
  1
State
  7
SLDTEXTSTYLE0
 73
     1
 44
1.0
  0
MTEXT
  5
149
330
1F
100
AcDbEntity
  8
0
  6
Continuous
 62
     7
370
     0
100
AcDbMText
 10
459.9678433186
 20
55.5837459836
 30
0.0
 40
2.6458333333
 41
0.0
 71
     1
 72
     1
  1
Schliessblech 8_24x3x350
  7
SLDTEXTSTYLE1
 73
     1
 44
1.0
  0
MTEXT
  5
14A
330
1F
100
AcDbEntity
  8
0
  6
Continuous
 62
     7
370
     0
100
AcDbMText
 10
459.9678433186
 20
60.262513831
 30
0.0
 40
1.5875
 41
0.0
 71
     1
 72
     1
  1
Name local language
  7
SLDTEXTSTYLE0
 73
     1
 44
1.0
  0
MTEXT
  5
14B
330
1F
100
AcDbEntity
  8
0
  6
Continuous
 62
     7
370
     0
100
AcDbMText
 10
487.1616543456
 20
68.9495436375
 30
0.0
 40
3.175
 41
0.0
 71
     2
 72
     1
  1
Maßzeichnung
  7
SLDTEXTSTYLE0
 73
     1
 44
1.0
  0
MTEXT
  5
14C
330
1F
100
AcDbEntity
  8
0
  6
Continuous
 62
     7
370
     0
100
AcDbMText
 10
16.1492421948
 20
12.7461643489
 30
0.0
 40
2.8
 41
0.0
 71
     1
 72
     1
  1
This work  is copyright and no part may be reproduced, by any process, nor may any other exclusive right be exercised without the permission of ASSA ABLOY.
  7
SLDTEXTSTYLE0
 11
-3.269436733918102E-15
 21
1.0
 31
0.0
 73
     1
 44
1.0
  0
MTEXT
  5
14D
330
1F
100
AcDbEntity
  8
0
  6
Continuous
 62
     7
370
     0
100
AcDbMText
 10
584.5092182187
 20
286.2532465111
 30
0.0
 40
2.5
 41
0.0
 71
     2
 72
     1
  1
F
  7
SLDTEXTSTYLE0
 73
     1
 44
1.0
  0
MTEXT
  5
14E
330
1F
100
AcDbEntity
  8
0
  6
Continuous
 62
     7
370
     0
100
AcDbMText
 10
584.5135584846
 20
186.2532465111
 30
0.0
 40
2.5
 41
0.0
 71
     2
 72
     1
  1
D
  7
SLDTEXTSTYLE0
 73
     1
 44
1.0
  0
MTEXT
  5
14F
330
1F
100
AcDbEntity
  8
0
  6
Continuous
 62
     7
370
     0
100
AcDbMText
 10
584.5291835582
 20
86.2532465111
 30
0.0
 40
2.5
 41
0.0
 71
     2
 72
     1
  1
B
  7
SLDTEXTSTYLE0
 73
     1
 44
1.0
  0
MTEXT
  5
150
330
1F
100
AcDbEntity
  8
0
  6
Continuous
 62
     7
370
     0
100
AcDbMText
 10
584.5135584846
 20
386.7395146782
 30
0.0
 40
2.5
 41
0.0
 71
     2
 72
     1
  1
H
  7
SLDTEXTSTYLE0
 73
     1
 44
1.0
  0
MTEXT
  5
151
330
1F
100
AcDbEntity
  8
0
  6
Continuous
 62
     7
370
     0
100
AcDbMText
 10
584.5291835582
 20
236.2532465111
 30
0.0
 40
2.5
 41
0.0
 71
     2
 72
     1
  1
E
  7
SLDTEXTSTYLE0
 73
     1
 44
1.0
  0
MTEXT
  5
152
330
1F
100
AcDbEntity
  8
0
  6
Continuous
 62
     7
370
     0
100
AcDbMText
 10
584.5135584846
 20
136.2532465111
 30
0.0
 40
2.5
 41
0.0
 71
     2
 72
     1
  1
C
  7
SLDTEXTSTYLE0
 73
     1
 44
1.0
  0
MTEXT
  5
153
330
1F
100
AcDbEntity
  8
0
  6
Continuous
 62
     7
370
     0
100
AcDbMText
 10
584.4961974257
 20
336.2532465111
 30
0.0
 40
2.5
 41
0.0
 71
     2
 72
     1
  1
G
  7
SLDTEXTSTYLE0
 73
     1
 44
1.0
  0
MTEXT
  5
154
330
1F
100
AcDbEntity
  8
0
  6
Continuous
 62
     7
370
     0
100
AcDbMText
 10
584.5291835582
 20
35.8088703169
 30
0.0
 40
2.5
 41
0.0
 71
     2
 72
     1
  1
A
  7
SLDTEXTSTYLE0
 73
     1
 44
1.0
  0
MTEXT
  5
155
330
1F
100
AcDbEntity
  8
0
  6
Continuous
 62
     7
370
     0
100
AcDbMText
 10
33.4652777752
 20
12.85309147
 30
0.0
 40
2.5
 41
0.0
 71
     2
 72
     1
  1
12
  7
SLDTEXTSTYLE0
 73
     1
 44
1.0
  0
MTEXT
  5
156
330
1F
100
AcDbEntity
  8
0
  6
Continuous
 62
     7
370
     0
100
AcDbMText
 10
521.9826388876
 20
12.85309147
 30
0.0
 40
2.5
 41
0.0
 71
     2
 72
     1
  1
2
  7
SLDTEXTSTYLE0
 73
     1
 44
1.0
  0
MTEXT
  5
157
330
1F
100
AcDbEntity
  8
0
  6
Continuous
 62
     7
370
     0
100
AcDbMText
 10
171.9826388876
 20
12.85309147
 30
0.0
 40
2.5
 41
0.0
 71
     2
 72
     1
  1
9
  7
SLDTEXTSTYLE0
 73
     1
 44
1.0
  0
MTEXT
  5
158
330
1F
100
AcDbEntity
  8
0
  6
Continuous
 62
     7
370
     0
100
AcDbMText
 10
271.9826388876
 20
12.85309147
 30
0.0
 40
2.5
 41
0.0
 71
     2
 72
     1
  1
7
  7
SLDTEXTSTYLE0
 73
     1
 44
1.0
  0
MTEXT
  5
159
330
1F
100
AcDbEntity
  8
0
  6
Continuous
 62
     7
370
     0
100
AcDbMText
 10
371.9826388876
 20
12.85309147
 30
0.0
 40
2.5
 41
0.0
 71
     2
 72
     1
  1
5
  7
SLDTEXTSTYLE0
 73
     1
 44
1.0
  0
MTEXT
  5
15A
330
1F
100
AcDbEntity
  8
0
  6
Continuous
 62
     7
370
     0
100
AcDbMText
 10
471.9826388876
 20
12.85309147
 30
0.0
 40
2.5
 41
0.0
 71
     2
 72
     1
  1
3
  7
SLDTEXTSTYLE0
 73
     1
 44
1.0
  0
MTEXT
  5
15B
330
1F
100
AcDbEntity
  8
0
  6
Continuous
 62
     7
370
     0
100
AcDbMText
 10
121.9652777752
 20
12.85309147
 30
0.0
 40
2.5
 41
0.0
 71
     2
 72
     1
  1
10
  7
SLDTEXTSTYLE0
 73
     1
 44
1.0
  0
MTEXT
  5
15C
330
1F
100
AcDbEntity
  8
0
  6
Continuous
 62
     7
370
     0
100
AcDbMText
 10
221.9826388876
 20
12.85309147
 30
0.0
 40
2.5
 41
0.0
 71
     2
 72
     1
  1
8
  7
SLDTEXTSTYLE0
 73
     1
 44
1.0
  0
MTEXT
  5
15D
330
1F
100
AcDbEntity
  8
0
  6
Continuous
 62
     7
370
     0
100
AcDbMText
 10
321.9826388876
 20
12.85309147
 30
0.0
 40
2.5
 41
0.0
 71
     2
 72
     1
  1
6
  7
SLDTEXTSTYLE0
 73
     1
 44
1.0
  0
MTEXT
  5
15E
330
1F
100
AcDbEntity
  8
0
  6
Continuous
 62
     7
370
     0
100
AcDbMText
 10
421.9826388876
 20
12.85309147
 30
0.0
 40
2.5
 41
0.0
 71
     2
 72
     1
  1
4
  7
SLDTEXTSTYLE0
 73
     1
 44
1.0
  0
MTEXT
  5
15F
330
1F
100
AcDbEntity
  8
0
  6
Continuous
 62
     7
370
     0
100
AcDbMText
 10
71.9652777752
 20
12.85309147
 30
0.0
 40
2.5
 41
0.0
 71
     2
 72
     1
  1
11
  7
SLDTEXTSTYLE0
 73
     1
 44
1.0
  0
MTEXT
  5
160
330
1F
100
AcDbEntity
  8
0
  6
Continuous
 62
     7
370
     0
100
AcDbMText
 10
564.4696180411
 20
12.85309147
 30
0.0
 40
2.5
 41
0.0
 71
     2
 72
     1
  1
A2
  7
SLDTEXTSTYLE0
 73
     1
 44
1.0
  0
MTEXT
  5
161
330
1F
100
AcDbEntity
  8
0
  6
Continuous
 62
     7
370
     0
100
AcDbMText
 10
428.5321762581
 20
18.8148557754
 30
0.0
 40
2.3
 41
0.0
 71
     2
 72
     1
  1
ASSA ABLOY Sicherheitstechnik GmbH
  7
SLDTEXTSTYLE0
 73
     1
 44
1.0
  0
MTEXT
  5
162
330
1F
100
AcDbEntity
  8
0
  6
Continuous
 62
     7
370
     0
100
AcDbMText
 10
540.4157356506
 20
7.9268951491
 30
0.0
 40
2.0
 41
0.0
 71
     3
 72
     1
  1
Configuration:00_00_Generic_LAP 8_3 mm dick_819.0L35-1209-3_215498_883357
  7
SLDTEXTSTYLE0
 73
     1
 44
1.0
  0
MTEXT
  5
163
330
1F
100
AcDbEntity
  8
0
  6
Continuous
 62
     7
370
     0
100
AcDbMText
 10
558.8314649419
 20
7.9240302479
 30
0.0
 40
2.5
 41
0.0
 71
     1
 72
     1
  1
SHEET 1 OF 1
  7
SLDTEXTSTYLE0
 73
     1
 44
1.0
  0
MTEXT
  5
164
330
1F
100
AcDbEntity
  8
0
  6
Continuous
 62
     7
370
     0
100
AcDbMText
 10
532.9
 20
18.6530806101
 30
0.0
 40
3.5
 41
0.0
 71
     1
 72
     1
  1
D000702653-001
  7
SLDTEXTSTYLE0
 73
     1
 44
1.0
  0
MTEXT
  5
165
330
1F
100
AcDbEntity
  8
0
  6
Continuous
 62
     7
370
     0
100
AcDbMText
 10
577.378331998
 20
18.6859988995
 30
0.0
 40
3.5
 41
0.0
 71
     2
 72
     1
  1
1
  7
SLDTEXTSTYLE0
 73
     1
 44
1.0
  0
MTEXT
  5
166
330
1F
100
AcDbEntity
  8
0
  6
Continuous
 62
     7
370
     0
100
AcDbMText
 10
532.9
 20
25.8182839649
 30
0.0
 40
2.9104166667
 41
0.0
 71
     1
 72
     1
  1
509ZBS0353SBL01-1000
  7
SLDTEXTSTYLE0
 73
     1
 44
1.0
  0
MTEXT
  5
167
330
1F
100
AcDbEntity
  8
0
  6
Continuous
 62
     7
370
     0
100
AcDbMText
 10
459.6224857887
 20
28.1782133692
 30
0.0
 40
3.0
 41
0.0
 71
     1
 72
     1
  1
Strike plate
  7
SLDTEXTSTYLE0
 73
     1
 44
1.0
  0
MTEXT
  5
168
330
1F
100
AcDbEntity
  8
0
  6
Continuous
 62
     7
370
     0
100
AcDbMText
 10
459.6224857887
 20
23.197381768
 30
0.0
 40
3.0
 41
0.0
 71
     1
 72
     1
  1
strike plate
  7
SLDTEXTSTYLE0
 73
     1
 44
1.0
  0
MTEXT
  5
169
330
1F
100
AcDbEntity
  8
0
  6
Continuous
 62
     7
370
     0
100
AcDbMText
 10
459.6224857887
 20
18.0924342366
 30
0.0
 40
3.0
 41
0.0
 71
     1
 72
     1
  1
509ZBS0353SBL01-1000
  7
SLDTEXTSTYLE0
 73
     1
 44
1.0
  0
MTEXT
  5
16A
330
1F
100
AcDbEntity
  8
0
  6
Continuous
 62
     7
370
     0
100
AcDbMText
 10
484.3
 20
32.670118366
 30
0.0
 40
2.5
 41
0.0
 71
     1
 72
     1
  1
gergon
  7
SLDTEXTSTYLE0
 73
     1
 44
1.0
  0
MTEXT
  5
16B
330
1F
100
AcDbEntity
  8
0
  6
Continuous
 62
     7
370
     0
100
AcDbMText
 10
459.9
 20
32.670118366
 30
0.0
 40
2.5
 41
0.0
 71
     1
 72
     1
  1
2017-04-20
  7
SLDTEXTSTYLE0
 73
     1
 44
1.0
  0
MTEXT
  5
16C
330
1F
100
AcDbEntity
  8
0
  6
Continuous
 62
     7
370
     0
100
AcDbMText
 10
508.6
 20
32.670118366
 30
0.0
 40
2.5
 41
0.0
 71
     1
 72
     1
  1
gergon
  7
SLDTEXTSTYLE0
 73
     1
 44
1.0
  0
MTEXT
  5
16D
330
1F
100
AcDbEntity
  8
0
  6
Continuous
 62
     7
370
     0
100
AcDbMText
 10
544.3967174089
 20
32.7928778464
 30
0.0
 40
2.5
 41
0.0
 71
     2
 72
     1
  1
1:1 (A2)
  7
SLDTEXTSTYLE0
 73
     1
 44
1.0
  0
MTEXT
  5
16E
330
1F
100
AcDbEntity
  8
0
  6
Continuous
 62
     7
370
     0
100
AcDbMText
 10
532.9
 20
28.4961015831
 30
0.0
 40
1.5
 41
0.0
 71
     1
 72
     1
  1
Alternate ID
  7
SLDTEXTSTYLE0
 73
     1
 44
1.0
  0
MTEXT
  5
16F
330
1F
100
AcDbEntity
  8
0
  6
Continuous
 62
     7
370
     0
100
AcDbMText
 10
557.9
 20
35.9961015831
 30
0.0
 40
1.5
 41
0.0
 71
     1
 72
     1
  1
Projection:
  7
SLDTEXTSTYLE0
 73
     1
 44
1.0
  0
MTEXT
  5
170
330
1F
100
AcDbEntity
  8
0
  6
Continuous
 62
     7
370
     0
100
AcDbMText
 10
532.9
 20
35.9961015831
 30
0.0
 40
1.5
 41
0.0
 71
     1
 72
     1
  1
Scale:
  7
SLDTEXTSTYLE0
 73
     1
 44
1.0
  0
MTEXT
  5
171
330
1F
100
AcDbEntity
  8
0
  6
Continuous
 62
     7
370
     0
100
AcDbMText
 10
508.6
 20
35.9961015831
 30
0.0
 40
1.5
 41
0.0
 71
     1
 72
     1
  1
Drawn by:
  7
SLDTEXTSTYLE0
 73
     1
 44
1.0
  0
MTEXT
  5
172
330
1F
100
AcDbEntity
  8
0
  6
Continuous
 62
     7
370
     0
100
AcDbMText
 10
484.3
 20
35.9961015831
 30
0.0
 40
1.5
 41
0.0
 71
     1
 72
     1
  1
Designed by:
  7
SLDTEXTSTYLE0
 73
     1
 44
1.0
  0
MTEXT
  5
173
330
1F
100
AcDbEntity
  8
0
  6
Continuous
 62
     7
370
     0
100
AcDbMText
 10
459.9
 20
35.9961015831
 30
0.0
 40
1.5
 41
0.0
 71
     1
 72
     1
  1
Created (YYYY-MM-DD):
  7
SLDTEXTSTYLE0
 73
     1
 44
1.0
  0
MTEXT
  5
174
330
1F
100
AcDbEntity
  8
0
  6
Continuous
 62
     7
370
     0
100
AcDbMText
 10
438.9
 20
35.9961015831
 30
0.0
 40
1.5
 41
0.0
 71
     1
 72
     1
  1
Surface area:
  7
SLDTEXTSTYLE0
 73
     1
 44
1.0
  0
MTEXT
  5
175
330
1F
100
AcDbEntity
  8
0
  6
Continuous
 62
     7
370
     0
100
AcDbMText
 10
420.9
 20
35.9961015831
 30
0.0
 40
1.5
 41
0.0
 71
     1
 72
     1
  1
Weight:
  7
SLDTEXTSTYLE0
 73
     1
 44
1.0
  0
MTEXT
  5
176
330
1F
100
AcDbEntity
  8
0
  6
Continuous
 62
     7
370
     0
100
AcDbMText
 10
399.9
 20
35.9961015831
 30
0.0
 40
1.5
 41
0.0
 71
     1
 72
     1
  1
Volume:
  7
SLDTEXTSTYLE0
 73
     1
 44
1.0
  0
MTEXT
  5
177
330
1F
100
AcDbEntity
  8
0
  6
Continuous
 62
     7
370
     0
100
AcDbMText
 10
532.8538618759
 20
47.3961015831
 30
0.0
 40
1.5
 41
0.0
 71
     1
 72
     1
  1
General tolerance:
  7
SLDTEXTSTYLE0
 73
     1
 44
1.0
  0
MTEXT
  5
178
330
1F
100
AcDbEntity
  8
0
  6
Continuous
 62
     7
370
     0
100
AcDbMText
 10
459.8538618759
 20
47.3961015831
 30
0.0
 40
1.5
 41
0.0
 71
     1
 72
     1
  1
Material:
  7
SLDTEXTSTYLE0
 73
     1
 44
1.0
  0
MTEXT
  5
179
330
1F
100
AcDbEntity
  8
0
  6
Continuous
 62
     7
370
     0
100
AcDbMText
 10
532.9
 20
20.9961015831
 30
0.0
 40
1.5
 41
0.0
 71
     1
 72
     1
  1
Document ID
  7
SLDTEXTSTYLE0
 73
     1
 44
1.0
  0
MTEXT
  5
17A
330
1F
100
AcDbEntity
  8
0
  6
Continuous
 62
     7
370
     0
100
AcDbMText
 10
577.1196512427
 20
20.9961015831
 30
0.0
 40
1.5
 41
0.0
 71
     2
 72
     1
  1
Rev.:
  7
SLDTEXTSTYLE0
 73
     1
 44
1.0
  0
MTEXT
  5
17B
330
1F
100
AcDbEntity
  8
0
  6
Continuous
 62
     7
370
     0
100
AcDbMText
 10
582.5215356241
 20
14.2107330017
 30
0.0
 40
0.5
 41
0.0
 71
     1
 72
     1
  1
V7_2016_07_07_drw
  7
SLDTEXTSTYLE0
 11
-3.491481338843133E-15
 21
1.0
 31
0.0
 73
     1
 44
1.0
  0
MTEXT
  5
17C
330
1F
100
AcDbEntity
  8
0
  6
Continuous
 62
     7
370
     0
100
AcDbMText
 10
399.8427087605
 20
47.3961015831
 30
0.0
 40
1.5
 41
0.0
 71
     1
 72
     1
  1
Surface:
  7
SLDTEXTSTYLE0
 73
     1
 44
1.0
  0
MTEXT
  5
17D
330
1F
100
AcDbEntity
  8
0
  6
Continuous
 62
     7
370
     0
100
AcDbMText
 10
22.5291835582
 20
35.8088703169
 30
0.0
 40
2.5
 41
0.0
 71
     2
 72
     1
  1
A
  7
SLDTEXTSTYLE0
 73
     1
 44
1.0
  0
MTEXT
  5
17E
330
1F
100
AcDbEntity
  8
0
  6
Continuous
 62
     7
370
     0
100
AcDbMText
 10
22.5135584846
 20
186.2532465111
 30
0.0
 40
2.5
 41
0.0
 71
     2
 72
     1
  1
D
  7
SLDTEXTSTYLE0
 73
     1
 44
1.0
  0
MTEXT
  5
17F
330
1F
100
AcDbEntity
  8
0
  6
Continuous
 62
     7
370
     0
100
AcDbMText
 10
22.4961974257
 20
336.2532465111
 30
0.0
 40
2.5
 41
0.0
 71
     2
 72
     1
  1
G
  7
SLDTEXTSTYLE0
 73
     1
 44
1.0
  0
MTEXT
  5
180
330
1F
100
AcDbEntity
  8
0
  6
Continuous
 62
     7
370
     0
100
AcDbMText
 10
22.5092182187
 20
286.2532465111
 30
0.0
 40
2.5
 41
0.0
 71
     2
 72
     1
  1
F
  7
SLDTEXTSTYLE0
 73
     1
 44
1.0
  0
MTEXT
  5
181
330
1F
100
AcDbEntity
  8
0
  6
Continuous
 62
     7
370
     0
100
AcDbMText
 10
22.5291835582
 20
86.2532465111
 30
0.0
 40
2.5
 41
0.0
 71
     2
 72
     1
  1
B
  7
SLDTEXTSTYLE0
 73
     1
 44
1.0
  0
MTEXT
  5
182
330
1F
100
AcDbEntity
  8
0
  6
Continuous
 62
     7
370
     0
100
AcDbMText
 10
22.5135584846
 20
386.7395146782
 30
0.0
 40
2.5
 41
0.0
 71
     2
 72
     1
  1
H
  7
SLDTEXTSTYLE0
 73
     1
 44
1.0
  0
MTEXT
  5
183
330
1F
100
AcDbEntity
  8
0
  6
Continuous
 62
     7
370
     0
100
AcDbMText
 10
22.5291835582
 20
236.2532465111
 30
0.0
 40
2.5
 41
0.0
 71
     2
 72
     1
  1
E
  7
SLDTEXTSTYLE0
 73
     1
 44
1.0
  0
MTEXT
  5
184
330
1F
100
AcDbEntity
  8
0
  6
Continuous
 62
     7
370
     0
100
AcDbMText
 10
22.5135584846
 20
136.2532465111
 30
0.0
 40
2.5
 41
0.0
 71
     2
 72
     1
  1
C
  7
SLDTEXTSTYLE0
 73
     1
 44
1.0
  0
MTEXT
  5
185
330
1F
100
AcDbEntity
  8
0
  6
Continuous
 62
     7
370
     0
100
AcDbMText
 10
33.4652777752
 20
409.85309147
 30
0.0
 40
2.5
 41
0.0
 71
     2
 72
     1
  1
12
  7
SLDTEXTSTYLE0
 73
     1
 44
1.0
  0
MTEXT
  5
186
330
1F
100
AcDbEntity
  8
0
  6
Continuous
 62
     7
370
     0
100
AcDbMText
 10
121.9652777752
 20
409.85309147
 30
0.0
 40
2.5
 41
0.0
 71
     2
 72
     1
  1
10
  7
SLDTEXTSTYLE0
 73
     1
 44
1.0
  0
MTEXT
  5
187
330
1F
100
AcDbEntity
  8
0
  6
Continuous
 62
     7
370
     0
100
AcDbMText
 10
471.9826388876
 20
409.85309147
 30
0.0
 40
2.5
 41
0.0
 71
     2
 72
     1
  1
3
  7
SLDTEXTSTYLE0
 73
     1
 44
1.0
  0
MTEXT
  5
188
330
1F
100
AcDbEntity
  8
0
  6
Continuous
 62
     7
370
     0
100
AcDbMText
 10
564.4826388876
 20
409.85309147
 30
0.0
 40
2.5
 41
0.0
 71
     2
 72
     1
  1
1
  7
SLDTEXTSTYLE0
 73
     1
 44
1.0
  0
MTEXT
  5
189
330
1F
100
AcDbEntity
  8
0
  6
Continuous
 62
     7
370
     0
100
AcDbMText
 10
371.9826388876
 20
409.85309147
 30
0.0
 40
2.5
 41
0.0
 71
     2
 72
     1
  1
5
  7
SLDTEXTSTYLE0
 73
     1
 44
1.0
  0
MTEXT
  5
18A
330
1F
100
AcDbEntity
  8
0
  6
Continuous
 62
     7
370
     0
100
AcDbMText
 10
321.9826388876
 20
409.85309147
 30
0.0
 40
2.5
 41
0.0
 71
     2
 72
     1
  1
6
  7
SLDTEXTSTYLE0
 73
     1
 44
1.0
  0
MTEXT
  5
18B
330
1F
100
AcDbEntity
  8
0
  6
Continuous
 62
     7
370
     0
100
AcDbMText
 10
171.9826388876
 20
409.85309147
 30
0.0
 40
2.5
 41
0.0
 71
     2
 72
     1
  1
9
  7
SLDTEXTSTYLE0
 73
     1
 44
1.0
  0
MTEXT
  5
18C
330
1F
100
AcDbEntity
  8
0
  6
Continuous
 62
     7
370
     0
100
AcDbMText
 10
71.9652777752
 20
409.85309147
 30
0.0
 40
2.5
 41
0.0
 71
     2
 72
     1
  1
11
  7
SLDTEXTSTYLE0
 73
     1
 44
1.0
  0
MTEXT
  5
18D
330
1F
100
AcDbEntity
  8
0
  6
Continuous
 62
     7
370
     0
100
AcDbMText
 10
421.9826388876
 20
409.85309147
 30
0.0
 40
2.5
 41
0.0
 71
     2
 72
     1
  1
4
  7
SLDTEXTSTYLE0
 73
     1
 44
1.0
  0
MTEXT
  5
18E
330
1F
100
AcDbEntity
  8
0
  6
Continuous
 62
     7
370
     0
100
AcDbMText
 10
521.9826388876
 20
409.85309147
 30
0.0
 40
2.5
 41
0.0
 71
     2
 72
     1
  1
2
  7
SLDTEXTSTYLE0
 73
     1
 44
1.0
  0
MTEXT
  5
18F
330
1F
100
AcDbEntity
  8
0
  6
Continuous
 62
     7
370
     0
100
AcDbMText
 10
271.9826388876
 20
409.85309147
 30
0.0
 40
2.5
 41
0.0
 71
     2
 72
     1
  1
7
  7
SLDTEXTSTYLE0
 73
     1
 44
1.0
  0
MTEXT
  5
190
330
1F
100
AcDbEntity
  8
0
  6
Continuous
 62
     7
370
     0
100
AcDbMText
 10
221.9826388876
 20
409.85309147
 30
0.0
 40
2.5
 41
0.0
 71
     2
 72
     1
  1
8
  7
SLDTEXTSTYLE0
 73
     1
 44
1.0
  0
LINE
  5
191
330
1F
100
AcDbEntity
  8
0
  6
Continuous
 62
     7
370
    40
100
AcDbLine
 10
489.3838337613
 20
207.4744312519
 30
0.0
 11
489.3838337613
 21
210.4744312779
 31
0.0
  0
LINE
  5
192
330
1F
100
AcDbEntity
  8
0
  6
Continuous
 62
     7
370
    40
100
AcDbLine
 10
139.3838248206
 20
210.4744312779
 30
0.0
 11
139.3838248206
 21
207.4744312519
 31
0.0
  0
LINE
  5
193
330
1F
100
AcDbEntity
  8
0
  6
Continuous
 62
     7
370
    40
100
AcDbLine
 10
164.3838307811
 20
207.4744312519
 30
0.0
 11
164.3838307811
 21
210.4744312779
 31
0.0
  0
LINE
  5
194
330
1F
100
AcDbEntity
  8
0
  6
Continuous
 62
     7
370
    40
100
AcDbLine
 10
328.3838273948
 20
207.4744312519
 30
0.0
 11
328.3838273948
 21
210.4744312779
 31
0.0
  0
LINE
  5
195
330
1F
100
AcDbEntity
  8
0
  6
Continuous
 62
     7
370
    40
100
AcDbLine
 10
328.3838273948
 20
210.4744312779
 30
0.0
 11
164.3838307811
 21
210.4744312779
 31
0.0
  0
LINE
  5
196
330
1F
100
AcDbEntity
  8
0
  6
Continuous
 62
     7
370
    40
100
AcDbLine
 10
328.3838273948
 20
207.4744312519
 30
0.0
 11
164.3838307811
 21
207.4744312519
 31
0.0
  0
LINE
  5
197
330
1F
100
AcDbEntity
  8
0
  6
Continuous
 62
     7
370
    40
100
AcDbLine
 10
489.3838337613
 20
210.4744312779
 30
0.0
 11
477.3838243438
 21
210.4744312779
 31
0.0
  0
LINE
  5
198
330
1F
100
AcDbEntity
  8
0
  6
Continuous
 62
     7
370
    40
100
AcDbLine
 10
489.3838337613
 20
207.4744312519
 30
0.0
 11
477.3838243438
 21
207.4744312519
 31
0.0
  0
LINE
  5
199
330
1F
100
AcDbEntity
  8
0
  6
Continuous
 62
     7
370
    40
100
AcDbLine
 10
477.3838243438
 20
210.4744312779
 30
0.0
 11
328.3838273948
 21
210.4744312779
 31
0.0
  0
LINE
  5
19A
330
1F
100
AcDbEntity
  8
0
  6
Continuous
 62
     7
370
    40
100
AcDbLine
 10
477.3838243438
 20
207.4744312519
 30
0.0
 11
328.3838273948
 21
207.4744312519
 31
0.0
  0
LINE
  5
19B
330
1F
100
AcDbEntity
  8
0
  6
Continuous
 62
     7
370
    40
100
AcDbLine
 10
164.3838307811
 20
210.4744312779
 30
0.0
 11
151.3838342381
 21
210.4744312779
 31
0.0
  0
LINE
  5
19C
330
1F
100
AcDbEntity
  8
0
  6
Continuous
 62
     7
370
    40
100
AcDbLine
 10
164.3838307811
 20
207.4744312519
 30
0.0
 11
151.3838342381
 21
207.4744312519
 31
0.0
  0
LINE
  5
19D
330
1F
100
AcDbEntity
  8
0
  6
Continuous
 62
     7
370
    40
100
AcDbLine
 10
151.3838342381
 20
210.4744312779
 30
0.0
 11
139.3838248206
 21
210.4744312779
 31
0.0
  0
LINE
  5
19E
330
1F
100
AcDbEntity
  8
0
  6
Continuous
 62
     7
370
    40
100
AcDbLine
 10
151.3838342381
 20
207.4744312519
 30
0.0
 11
139.3838248206
 21
207.4744312519
 31
0.0
  0
LINE
  5
19F
330
1F
100
AcDbEntity
  8
0
  6
Continuous
 62
     8
370
     0
100
AcDbLine
 10
477.3838243438
 20
207.4744312519
 30
0.0
 11
477.3838243438
 21
210.4744312779
 31
0.0
  0
LINE
  5
1A0
330
1F
100
AcDbEntity
  8
0
  6
Continuous
 62
     8
370
     0
100
AcDbLine
 10
151.3838342381
 20
207.4744312519
 30
0.0
 11
151.3838342381
 21
210.4744312779
 31
0.0
  0
LINE
  5
1A1
330
1F
100
AcDbEntity
  8
0
  6
HIDDEN
 62
     7
370
     0
100
AcDbLine
 10
324.3838272048
 20
207.4744312519
 30
0.0
 11
324.3838272048
 21
210.4744312779
 31
0.0
  0
LINE
  5
1A2
330
1F
100
AcDbEntity
  8
0
  6
HIDDEN
 62
     7
370
     0
100
AcDbLine
 10
274.3838264597
 20
210.4744312779
 30
0.0
 11
274.3838264597
 21
207.4744312519
 31
0.0
  0
LINE
  5
1A3
330
1F
100
AcDbEntity
  8
0
  6
HIDDEN
 62
     7
370
     0
100
AcDbLine
 10
411.3838247014
 20
207.4744312519
 30
0.0
 11
411.3838247014
 21
210.4744312779
 31
0.0
  0
LINE
  5
1A4
330
1F
100
AcDbEntity
  8
0
  6
HIDDEN
 62
     7
370
     0
100
AcDbLine
 10
356.3838287247
 20
210.4744312779
 30
0.0
 11
356.3838287247
 21
207.4744312519
 31
0.0
  0
LINE
  5
1A5
330
1F
100
AcDbEntity
  8
0
  6
HIDDEN
 62
     7
370
     0
100
AcDbLine
 10
469.3838230325
 20
210.1744313219
 30
0.0
 11
479.3838283969
 21
210.1744313219
 31
0.0
  0
LINE
  5
1A6
330
1F
100
AcDbEntity
  8
0
  6
HIDDEN
 62
     7
370
     0
100
AcDbLine
 10
474.3838331652
 20
208.9744312649
 30
0.0
 11
470.5838284446
 21
208.9744312649
 31
0.0
  0
LINE
  5
1A7
330
1F
100
AcDbEntity
  8
0
  6
HIDDEN
 62
     7
370
     0
100
AcDbLine
 10
478.1838229848
 20
208.9744312649
 30
0.0
 11
474.3838331652
 21
208.9744312649
 31
0.0
  0
LINE
  5
1A8
330
1F
100
AcDbEntity
  8
0
  6
HIDDEN
 62
     7
370
     0
100
AcDbLine
 10
474.3838331652
 20
207.7744312079
 30
0.0
 11
469.3838230325
 21
207.7744312079
 31
0.0
  0
LINE
  5
1A9
330
1F
100
AcDbEntity
  8
0
  6
HIDDEN
 62
     7
370
     0
100
AcDbLine
 10
479.3838283969
 20
207.7744312079
 30
0.0
 11
474.3838331652
 21
207.7744312079
 31
0.0
  0
LINE
  5
1AA
330
1F
100
AcDbEntity
  8
0
  6
HIDDEN
 62
     7
370
     0
100
AcDbLine
 10
424.3838286949
 20
210.1744313219
 30
0.0
 11
434.3838266087
 21
210.1744313219
 31
0.0
  0
LINE
  5
1AB
330
1F
100
AcDbEntity
  8
0
  6
HIDDEN
 62
     7
370
     0
100
AcDbLine
 10
429.3838239265
 20
208.9744312649
 30
0.0
 11
425.5838266564
 21
208.9744312649
 31
0.0
  0
LINE
  5
1AC
330
1F
100
AcDbEntity
  8
0
  6
HIDDEN
 62
     7
370
     0
100
AcDbLine
 10
433.1838286472
 20
208.9744312649
 30
0.0
 11
429.3838239265
 21
208.9744312649
 31
0.0
  0
LINE
  5
1AD
330
1F
100
AcDbEntity
  8
0
  6
HIDDEN
 62
     7
370
     0
100
AcDbLine
 10
429.3838239265
 20
207.7744312079
 30
0.0
 11
424.3838286949
 21
207.7744312079
 31
0.0
  0
LINE
  5
1AE
330
1F
100
AcDbEntity
  8
0
  6
HIDDEN
 62
     7
370
     0
100
AcDbLine
 10
434.3838266087
 20
207.7744312079
 30
0.0
 11
429.3838239265
 21
207.7744312079
 31
0.0
  0
LINE
  5
1AF
330
1F
100
AcDbEntity
  8
0
  6
HIDDEN
 62
     7
370
     0
100
AcDbLine
 10
339.3838268695
 20
208.9744312649
 30
0.0
 11
335.5838268054
 21
208.9744312649
 31
0.0
  0
LINE
  5
1B0
330
1F
100
AcDbEntity
  8
0
  6
HIDDEN
 62
     7
370
     0
100
AcDbLine
 10
343.1838269336
 20
208.9744312649
 30
0.0
 11
339.3838268695
 21
208.9744312649
 31
0.0
  0
LINE
  5
1B1
330
1F
100
AcDbEntity
  8
0
  6
HIDDEN
 62
     7
370
     0
100
AcDbLine
 10
334.3838269813
 20
210.1744313219
 30
0.0
 11
344.3838267577
 21
210.1744313219
 31
0.0
  0
LINE
  5
1B2
330
1F
100
AcDbEntity
  8
0
  6
HIDDEN
 62
     7
370
     0
100
AcDbLine
 10
339.3838268695
 20
207.7744312079
 30
0.0
 11
334.3838269813
 21
207.7744312079
 31
0.0
  0
LINE
  5
1B3
330
1F
100
AcDbEntity
  8
0
  6
HIDDEN
 62
     7
370
     0
100
AcDbLine
 10
344.3838267577
 20
207.7744312079
 30
0.0
 11
339.3838268695
 21
207.7744312079
 31
0.0
  0
LINE
  5
1B4
330
1F
100
AcDbEntity
  8
0
  6
HIDDEN
 62
     7
370
     0
100
AcDbLine
 10
244.3838289929
 20
210.1744313219
 30
0.0
 11
254.3838269068
 21
210.1744313219
 31
0.0
  0
LINE
  5
1B5
330
1F
100
AcDbEntity
  8
0
  6
HIDDEN
 62
     7
370
     0
100
AcDbLine
 10
249.3838242245
 20
208.9744312649
 30
0.0
 11
245.5838269544
 21
208.9744312649
 31
0.0
  0
LINE
  5
1B6
330
1F
100
AcDbEntity
  8
0
  6
HIDDEN
 62
     7
370
     0
100
AcDbLine
 10
253.1838289452
 20
208.9744312649
 30
0.0
 11
249.3838242245
 21
208.9744312649
 31
0.0
  0
LINE
  5
1B7
330
1F
100
AcDbEntity
  8
0
  6
HIDDEN
 62
     7
370
     0
100
AcDbLine
 10
249.3838242245
 20
207.7744312079
 30
0.0
 11
244.3838289929
 21
207.7744312079
 31
0.0
  0
LINE
  5
1B8
330
1F
100
AcDbEntity
  8
0
  6
HIDDEN
 62
     7
370
     0
100
AcDbLine
 10
254.3838269068
 20
207.7744312079
 30
0.0
 11
249.3838242245
 21
207.7744312079
 31
0.0
  0
LINE
  5
1B9
330
1F
100
AcDbEntity
  8
0
  6
HIDDEN
 62
     7
370
     0
100
AcDbLine
 10
154.3838254166
 20
208.9744312649
 30
0.0
 11
150.583820696
 21
208.9744312649
 31
0.0
  0
LINE
  5
1BA
330
1F
100
AcDbEntity
  8
0
  6
HIDDEN
 62
     7
370
     0
100
AcDbLine
 10
158.1838301373
 20
208.9744312649
 30
0.0
 11
154.3838254166
 21
208.9744312649
 31
0.0
  0
LINE
  5
1BB
330
1F
100
AcDbEntity
  8
0
  6
HIDDEN
 62
     7
370
     0
100
AcDbLine
 10
149.383830185
 20
210.1744313219
 30
0.0
 11
159.3838206483
 21
210.1744313219
 31
0.0
  0
LINE
  5
1BC
330
1F
100
AcDbEntity
  8
0
  6
HIDDEN
 62
     7
370
     0
100
AcDbLine
 10
154.3838254166
 20
207.7744312079
 30
0.0
 11
149.383830185
 21
207.7744312079
 31
0.0
  0
LINE
  5
1BD
330
1F
100
AcDbEntity
  8
0
  6
HIDDEN
 62
     7
370
     0
100
AcDbLine
 10
159.3838206483
 20
207.7744312079
 30
0.0
 11
154.3838254166
 21
207.7744312079
 31
0.0
  0
LINE
  5
1BE
330
1F
100
AcDbEntity
  8
0
  6
HIDDEN
 62
     7
370
     0
100
AcDbLine
 10
469.3838230325
 20
210.4744312779
 30
0.0
 11
469.3838230325
 21
210.1744313219
 31
0.0
  0
LINE
  5
1BF
330
1F
100
AcDbEntity
  8
0
  6
HIDDEN
 62
     7
370
     0
100
AcDbLine
 10
479.3838283969
 20
210.1744313219
 30
0.0
 11
479.3838283969
 21
210.4744312779
 31
0.0
  0
LINE
  5
1C0
330
1F
100
AcDbEntity
  8
0
  6
HIDDEN
 62
     7
370
     0
100
AcDbLine
 10
469.3838230325
 20
210.1744313219
 30
0.0
 11
470.5838284446
 21
208.9744312649
 31
0.0
  0
LINE
  5
1C1
330
1F
100
AcDbEntity
  8
0
  6
HIDDEN
 62
     7
370
     0
100
AcDbLine
 10
478.1838229848
 20
208.9744312649
 30
0.0
 11
479.3838283969
 21
210.1744313219
 31
0.0
  0
LINE
  5
1C2
330
1F
100
AcDbEntity
  8
0
  6
HIDDEN
 62
     7
370
     0
100
AcDbLine
 10
479.3838283969
 20
207.4744312519
 30
0.0
 11
479.3838283969
 21
207.7744312079
 31
0.0
  0
LINE
  5
1C3
330
1F
100
AcDbEntity
  8
0
  6
HIDDEN
 62
     7
370
     0
100
AcDbLine
 10
469.3838230325
 20
207.7744312079
 30
0.0
 11
469.3838230325
 21
207.4744312519
 31
0.0
  0
LINE
  5
1C4
330
1F
100
AcDbEntity
  8
0
  6
HIDDEN
 62
     7
370
     0
100
AcDbLine
 10
479.3838283969
 20
207.7744312079
 30
0.0
 11
478.1838229848
 21
208.9744312649
 31
0.0
  0
LINE
  5
1C5
330
1F
100
AcDbEntity
  8
0
  6
HIDDEN
 62
     7
370
     0
100
AcDbLine
 10
470.5838284446
 20
208.9744312649
 30
0.0
 11
469.3838230325
 21
207.7744312079
 31
0.0
  0
LINE
  5
1C6
330
1F
100
AcDbEntity
  8
0
  6
HIDDEN
 62
     7
370
     0
100
AcDbLine
 10
424.3838286949
 20
210.4744312779
 30
0.0
 11
424.3838286949
 21
210.1744313219
 31
0.0
  0
LINE
  5
1C7
330
1F
100
AcDbEntity
  8
0
  6
HIDDEN
 62
     7
370
     0
100
AcDbLine
 10
434.3838266087
 20
210.1744313219
 30
0.0
 11
434.3838266087
 21
210.4744312779
 31
0.0
  0
LINE
  5
1C8
330
1F
100
AcDbEntity
  8
0
  6
HIDDEN
 62
     7
370
     0
100
AcDbLine
 10
424.3838286949
 20
210.1744313219
 30
0.0
 11
425.5838266564
 21
208.9744312649
 31
0.0
  0
LINE
  5
1C9
330
1F
100
AcDbEntity
  8
0
  6
HIDDEN
 62
     7
370
     0
100
AcDbLine
 10
433.1838286472
 20
208.9744312649
 30
0.0
 11
434.3838266087
 21
210.1744313219
 31
0.0
  0
LINE
  5
1CA
330
1F
100
AcDbEntity
  8
0
  6
HIDDEN
 62
     7
370
     0
100
AcDbLine
 10
434.3838266087
 20
207.4744312519
 30
0.0
 11
434.3838266087
 21
207.7744312079
 31
0.0
  0
LINE
  5
1CB
330
1F
100
AcDbEntity
  8
0
  6
HIDDEN
 62
     7
370
     0
100
AcDbLine
 10
424.3838286949
 20
207.7744312079
 30
0.0
 11
424.3838286949
 21
207.4744312519
 31
0.0
  0
LINE
  5
1CC
330
1F
100
AcDbEntity
  8
0
  6
HIDDEN
 62
     7
370
     0
100
AcDbLine
 10
434.3838266087
 20
207.7744312079
 30
0.0
 11
433.1838286472
 21
208.9744312649
 31
0.0
  0
LINE
  5
1CD
330
1F
100
AcDbEntity
  8
0
  6
HIDDEN
 62
     7
370
     0
100
AcDbLine
 10
425.5838266564
 20
208.9744312649
 30
0.0
 11
424.3838286949
 21
207.7744312079
 31
0.0
  0
LINE
  5
1CE
330
1F
100
AcDbEntity
  8
0
  6
HIDDEN
 62
     7
370
     0
100
AcDbLine
 10
334.3838269813
 20
210.1744313219
 30
0.0
 11
335.5838268054
 21
208.9744312649
 31
0.0
  0
LINE
  5
1CF
330
1F
100
AcDbEntity
  8
0
  6
HIDDEN
 62
     7
370
     0
100
AcDbLine
 10
343.1838269336
 20
208.9744312649
 30
0.0
 11
344.3838267577
 21
210.1744313219
 31
0.0
  0
LINE
  5
1D0
330
1F
100
AcDbEntity
  8
0
  6
HIDDEN
 62
     7
370
     0
100
AcDbLine
 10
334.3838269813
 20
210.4744312779
 30
0.0
 11
334.3838269813
 21
210.1744313219
 31
0.0
  0
LINE
  5
1D1
330
1F
100
AcDbEntity
  8
0
  6
HIDDEN
 62
     7
370
     0
100
AcDbLine
 10
344.3838267577
 20
210.1744313219
 30
0.0
 11
344.3838267577
 21
210.4744312779
 31
0.0
  0
LINE
  5
1D2
330
1F
100
AcDbEntity
  8
0
  6
HIDDEN
 62
     7
370
     0
100
AcDbLine
 10
344.3838267577
 20
207.7744312079
 30
0.0
 11
343.1838269336
 21
208.9744312649
 31
0.0
  0
LINE
  5
1D3
330
1F
100
AcDbEntity
  8
0
  6
HIDDEN
 62
     7
370
     0
100
AcDbLine
 10
335.5838268054
 20
208.9744312649
 30
0.0
 11
334.3838269813
 21
207.7744312079
 31
0.0
  0
LINE
  5
1D4
330
1F
100
AcDbEntity
  8
0
  6
HIDDEN
 62
     7
370
     0
100
AcDbLine
 10
344.3838267577
 20
207.4744312519
 30
0.0
 11
344.3838267577
 21
207.7744312079
 31
0.0
  0
LINE
  5
1D5
330
1F
100
AcDbEntity
  8
0
  6
HIDDEN
 62
     7
370
     0
100
AcDbLine
 10
334.3838269813
 20
207.7744312079
 30
0.0
 11
334.3838269813
 21
207.4744312519
 31
0.0
  0
LINE
  5
1D6
330
1F
100
AcDbEntity
  8
0
  6
HIDDEN
 62
     7
370
     0
100
AcDbLine
 10
244.3838289929
 20
210.4744312779
 30
0.0
 11
244.3838289929
 21
210.1744313219
 31
0.0
  0
LINE
  5
1D7
330
1F
100
AcDbEntity
  8
0
  6
HIDDEN
 62
     7
370
     0
100
AcDbLine
 10
254.3838269068
 20
210.1744313219
 30
0.0
 11
254.3838269068
 21
210.4744312779
 31
0.0
  0
LINE
  5
1D8
330
1F
100
AcDbEntity
  8
0
  6
HIDDEN
 62
     7
370
     0
100
AcDbLine
 10
244.3838289929
 20
210.1744313219
 30
0.0
 11
245.5838269544
 21
208.9744312649
 31
0.0
  0
LINE
  5
1D9
330
1F
100
AcDbEntity
  8
0
  6
HIDDEN
 62
     7
370
     0
100
AcDbLine
 10
253.1838289452
 20
208.9744312649
 30
0.0
 11
254.3838269068
 21
210.1744313219
 31
0.0
  0
LINE
  5
1DA
330
1F
100
AcDbEntity
  8
0
  6
HIDDEN
 62
     7
370
     0
100
AcDbLine
 10
254.3838269068
 20
207.7744312079
 30
0.0
 11
253.1838289452
 21
208.9744312649
 31
0.0
  0
LINE
  5
1DB
330
1F
100
AcDbEntity
  8
0
  6
HIDDEN
 62
     7
370
     0
100
AcDbLine
 10
245.5838269544
 20
208.9744312649
 30
0.0
 11
244.3838289929
 21
207.7744312079
 31
0.0
  0
LINE
  5
1DC
330
1F
100
AcDbEntity
  8
0
  6
HIDDEN
 62
     7
370
     0
100
AcDbLine
 10
254.3838269068
 20
207.4744312519
 30
0.0
 11
254.3838269068
 21
207.7744312079
 31
0.0
  0
LINE
  5
1DD
330
1F
100
AcDbEntity
  8
0
  6
HIDDEN
 62
     7
370
     0
100
AcDbLine
 10
244.3838289929
 20
207.7744312079
 30
0.0
 11
244.3838289929
 21
207.4744312519
 31
0.0
  0
LINE
  5
1DE
330
1F
100
AcDbEntity
  8
0
  6
HIDDEN
 62
     7
370
     0
100
AcDbLine
 10
149.383830185
 20
210.1744313219
 30
0.0
 11
150.583820696
 21
208.9744312649
 31
0.0
  0
LINE
  5
1DF
330
1F
100
AcDbEntity
  8
0
  6
HIDDEN
 62
     7
370
     0
100
AcDbLine
 10
158.1838301373
 20
208.9744312649
 30
0.0
 11
159.3838206483
 21
210.1744313219
 31
0.0
  0
LINE
  5
1E0
330
1F
100
AcDbEntity
  8
0
  6
HIDDEN
 62
     7
370
     0
100
AcDbLine
 10
149.383830185
 20
210.4744312779
 30
0.0
 11
149.383830185
 21
210.1744313219
 31
0.0
  0
LINE
  5
1E1
330
1F
100
AcDbEntity
  8
0
  6
HIDDEN
 62
     7
370
     0
100
AcDbLine
 10
159.3838206483
 20
210.1744313219
 30
0.0
 11
159.3838206483
 21
210.4744312779
 31
0.0
  0
LINE
  5
1E2
330
1F
100
AcDbEntity
  8
0
  6
HIDDEN
 62
     7
370
     0
100
AcDbLine
 10
159.3838206483
 20
207.4744312519
 30
0.0
 11
159.3838206483
 21
207.7744312079
 31
0.0
  0
LINE
  5
1E3
330
1F
100
AcDbEntity
  8
0
  6
HIDDEN
 62
     7
370
     0
100
AcDbLine
 10
149.383830185
 20
207.7744312079
 30
0.0
 11
149.383830185
 21
207.4744312519
 31
0.0
  0
LINE
  5
1E4
330
1F
100
AcDbEntity
  8
0
  6
HIDDEN
 62
     7
370
     0
100
AcDbLine
 10
159.3838206483
 20
207.7744312079
 30
0.0
 11
158.1838301373
 21
208.9744312649
 31
0.0
  0
LINE
  5
1E5
330
1F
100
AcDbEntity
  8
0
  6
HIDDEN
 62
     7
370
     0
100
AcDbLine
 10
150.583820696
 20
208.9744312649
 30
0.0
 11
149.383830185
 21
207.7744312079
 31
0.0
  0
LINE
  5
1E6
330
1F
100
AcDbEntity
  8
0
  6
HIDDEN
 62
     7
370
     0
100
AcDbLine
 10
477.3838243438
 20
207.4744312519
 30
0.0
 11
477.3838243438
 21
210.4744312779
 31
0.0
  0
LINE
  5
1E7
330
1F
100
AcDbEntity
  8
0
  6
HIDDEN
 62
     7
370
     0
100
AcDbLine
 10
151.3838342381
 20
207.4744312519
 30
0.0
 11
151.3838342381
 21
210.4744312779
 31
0.0
  0
LINE
  5
1E8
330
1F
100
AcDbEntity
  8
0
  6
HIDDEN
 62
     7
370
     0
100
AcDbLine
 10
322.3838271098
 20
210.4744312779
 30
0.0
 11
322.3838271098
 21
207.4744312519
 31
0.0
  0
LINE
  5
1E9
330
1F
100
AcDbEntity
  8
0
  6
HIDDEN
 62
     7
370
     0
100
AcDbLine
 10
276.3838267875
 20
207.4744312519
 30
0.0
 11
276.3838267875
 21
210.4744312779
 31
0.0
  0
LINE
  5
1EA
330
1F
100
AcDbEntity
  8
0
  6
HIDDEN
 62
     7
370
     0
100
AcDbLine
 10
409.3838280989
 20
210.4744312779
 30
0.0
 11
409.3838280989
 21
207.4744312519
 31
0.0
  0
LINE
  5
1EB
330
1F
100
AcDbEntity
  8
0
  6
HIDDEN
 62
     7
370
     0
100
AcDbLine
 10
358.3838290525
 20
207.4744312519
 30
0.0
 11
358.3838290525
 21
210.4744312779
 31
0.0
  0
DIMENSION
  5
1EC
330
1F
100
AcDbEntity
  8
0
  6
Continuous
 62
     8
370
     0
100
AcDbDimension
  2
_D
 10
124.7547190445
 20
207.4744312649
 30
0.0
 11
124.7547190445
 21
218.1224931758
 31
0.0
 70
   160
  1
<>
 71
     2
 42
-1.0
  3
SLDDIMSTYLE0
100
AcDbAlignedDimension
 13
139.3838272048
 23
210.4744312649
 33
0.0
 14
139.3838272048
 24
207.4744312649
 34
0.0
 50
90.0
100
AcDbRotatedDimension
  0
LINE
  5
1F9
330
1F
100
AcDbEntity
  8
0
  6
Continuous
 62
     7
370
    40
100
AcDbLine
 10
164.3838307811
 20
306.4649024009
 30
0.0
 11
151.3838342381
 21
306.4649024009
 31
0.0
  0
LINE
  5
1FA
330
1F
100
AcDbEntity
  8
0
  6
Continuous
 62
     7
370
    40
100
AcDbLine
 10
164.3838307811
 20
314.4649018495
 30
0.0
 11
164.3838307811
 21
306.4649024009
 31
0.0
  0
LINE
  5
1FB
330
1F
100
AcDbEntity
  8
0
  6
Continuous
 62
     7
370
    40
100
AcDbLine
 10
328.3838273948
 20
314.4649018495
 30
0.0
 11
164.3838307811
 21
314.4649018495
 31
0.0
  0
LINE
  5
1FC
330
1F
100
AcDbEntity
  8
0
  6
Continuous
 62
     7
370
    40
100
AcDbLine
 10
328.3838273948
 20
306.4649024009
 30
0.0
 11
328.3838273948
 21
314.4649018495
 31
0.0
  0
LINE
  5
1FD
330
1F
100
AcDbEntity
  8
0
  6
Continuous
 62
     7
370
    40
100
AcDbLine
 10
477.3838243438
 20
306.4649024009
 30
0.0
 11
328.3838273948
 21
306.4649024009
 31
0.0
  0
ARC
  5
1FE
330
1F
100
AcDbEntity
  8
0
  6
Continuous
 62
     7
370
    40
100
AcDbCircle
 10
477.3838272048
 20
294.4649022965
 30
0.0
 40
12.00000000000017
100
AcDbArc
 50
270.0
 51
90.0
  0
LINE
  5
1FF
330
1F
100
AcDbEntity
  8
0
  6
Continuous
 62
     7
370
    40
100
AcDbLine
 10
151.3838342381
 20
282.4649021922
 30
0.0
 11
477.3838243438
 21
282.4649021922
 31
0.0
  0
ARC
  5
200
330
1F
100
AcDbEntity
  8
0
  6
Continuous
 62
     7
370
    40
100
AcDbCircle
 10
151.3838272048
 20
294.4649022965
 30
0.0
 40
12.00000000000006
100
AcDbArc
 50
90.0
 51
270.0
  0
ARC
  5
201
330
1F
100
AcDbEntity
  8
0
  6
Continuous
 62
     7
370
    40
100
AcDbCircle
 10
358.3838272048
 20
290.9649022965
 30
0.0
 40
2.0
100
AcDbArc
 50
180.0
 51
270.0
  0
LINE
  5
202
330
1F
100
AcDbEntity
  8
0
  6
Continuous
 62
     7
370
    40
100
AcDbLine
 10
358.3838290525
 20
288.9649023263
 30
0.0
 11
409.3838280989
 21
288.9649023263
 31
0.0
  0
ARC
  5
203
330
1F
100
AcDbEntity
  8
0
  6
Continuous
 62
     7
370
    40
100
AcDbCircle
 10
409.3838272048
 20
290.9649022965
 30
0.0
 40
2.0
100
AcDbArc
 50
270.0
 51
0.0
  0
LINE
  5
204
330
1F
100
AcDbEntity
  8
0
  6
Continuous
 62
     7
370
    40
100
AcDbLine
 10
411.3838247014
 20
290.9649021885
 30
0.0
 11
411.3838247014
 21
297.9649024046
 31
0.0
  0
ARC
  5
205
330
1F
100
AcDbEntity
  8
0
  6
Continuous
 62
     7
370
    40
100
AcDbCircle
 10
409.3838272048
 20
297.9649022965
 30
0.0
 40
2.0
100
AcDbArc
 50
0.0
 51
90.0
  0
LINE
  5
206
330
1F
100
AcDbEntity
  8
0
  6
Continuous
 62
     7
370
    40
100
AcDbLine
 10
409.3838280989
 20
299.9649022667
 30
0.0
 11
358.3838290525
 21
299.9649022667
 31
0.0
  0
ARC
  5
207
330
1F
100
AcDbEntity
  8
0
  6
Continuous
 62
     7
370
    40
100
AcDbCircle
 10
358.3838272048
 20
297.9649022965
 30
0.0
 40
2.0
100
AcDbArc
 50
90.0
 51
180.0
  0
LINE
  5
208
330
1F
100
AcDbEntity
  8
0
  6
Continuous
 62
     7
370
    40
100
AcDbLine
 10
356.3838287247
 20
297.9649024046
 30
0.0
 11
356.3838287247
 21
290.9649021885
 31
0.0
  0
ARC
  5
209
330
1F
100
AcDbEntity
  8
0
  6
Continuous
 62
     7
370
    40
100
AcDbCircle
 10
276.3838272048
 20
290.4649022965
 30
0.0
 40
2.0
100
AcDbArc
 50
180.0
 51
270.0
  0
LINE
  5
20A
330
1F
100
AcDbEntity
  8
0
  6
Continuous
 62
     7
370
    40
100
AcDbLine
 10
276.3838267875
 20
288.4649022444
 30
0.0
 11
322.3838271098
 21
288.4649022444
 31
0.0
  0
ARC
  5
20B
330
1F
100
AcDbEntity
  8
0
  6
Continuous
 62
     7
370
    40
100
AcDbCircle
 10
322.3838272048
 20
290.4649022965
 30
0.0
 40
2.0
100
AcDbArc
 50
270.0
 51
0.0
  0
LINE
  5
20C
330
1F
100
AcDbEntity
  8
0
  6
Continuous
 62
     7
370
    40
100
AcDbLine
 10
324.3838272048
 20
290.4649021066
 30
0.0
 11
324.3838272048
 21
298.4649024865
 31
0.0
  0
ARC
  5
20D
330
1F
100
AcDbEntity
  8
0
  6
Continuous
 62
     7
370
    40
100
AcDbCircle
 10
322.3838272048
 20
298.4649022965
 30
0.0
 40
2.0
100
AcDbArc
 50
0.0
 51
90.0
  0
LINE
  5
20E
330
1F
100
AcDbEntity
  8
0
  6
Continuous
 62
     7
370
    40
100
AcDbLine
 10
322.3838271098
 20
300.4649023487
 30
0.0
 11
276.3838267875
 21
300.4649023487
 31
0.0
  0
ARC
  5
20F
330
1F
100
AcDbEntity
  8
0
  6
Continuous
 62
     7
370
    40
100
AcDbCircle
 10
276.3838272048
 20
298.4649022965
 30
0.0
 40
2.0
100
AcDbArc
 50
90.0
 51
180.0
  0
LINE
  5
210
330
1F
100
AcDbEntity
  8
0
  6
Continuous
 62
     7
370
    40
100
AcDbLine
 10
274.3838264597
 20
298.4649024865
 30
0.0
 11
274.3838264597
 21
290.4649021066
 31
0.0
  0
CIRCLE
  5
211
330
1F
100
AcDbEntity
  8
0
  6
Continuous
 62
     7
370
    40
100
AcDbCircle
 10
339.3838272048
 20
294.4649022965
 30
0.0
 40
5.0
  0
CIRCLE
  5
212
330
1F
100
AcDbEntity
  8
0
  6
Continuous
 62
     7
370
    40
100
AcDbCircle
 10
429.3838272048
 20
294.4649022965
 30
0.0
 40
5.0
  0
CIRCLE
  5
213
330
1F
100
AcDbEntity
  8
0
  6
Continuous
 62
     7
370
    40
100
AcDbCircle
 10
474.3838272048
 20
294.4649022965
 30
0.0
 40
5.0
  0
CIRCLE
  5
214
330
1F
100
AcDbEntity
  8
0
  6
Continuous
 62
     7
370
    40
100
AcDbCircle
 10
249.3838272048
 20
294.4649022965
 30
0.0
 40
5.0
  0
CIRCLE
  5
215
330
1F
100
AcDbEntity
  8
0
  6
Continuous
 62
     7
370
    40
100
AcDbCircle
 10
154.3838272048
 20
294.4649022965
 30
0.0
 40
5.0
  0
CIRCLE
  5
216
330
1F
100
AcDbEntity
  8
0
  6
Continuous
 62
     7
370
    40
100
AcDbCircle
 10
154.3838272048
 20
294.4649022965
 30
0.0
 40
3.800000000000068
  0
CIRCLE
  5
217
330
1F
100
AcDbEntity
  8
0
  6
Continuous
 62
     7
370
    40
100
AcDbCircle
 10
249.3838272048
 20
294.4649022965
 30
0.0
 40
3.800000000000068
  0
CIRCLE
  5
218
330
1F
100
AcDbEntity
  8
0
  6
Continuous
 62
     7
370
    40
100
AcDbCircle
 10
339.3838272048
 20
294.4649022965
 30
0.0
 40
3.800000000000068
  0
CIRCLE
  5
219
330
1F
100
AcDbEntity
  8
0
  6
Continuous
 62
     7
370
    40
100
AcDbCircle
 10
429.3838272048
 20
294.4649022965
 30
0.0
 40
3.800000000000011
  0
CIRCLE
  5
21A
330
1F
100
AcDbEntity
  8
0
  6
Continuous
 62
     7
370
    40
100
AcDbCircle
 10
474.3838272048
 20
294.4649022965
 30
0.0
 40
3.800000000000011
  0
DIMENSION
  5
21B
330
1F
100
AcDbEntity
  8
0
  6
Continuous
 62
     8
370
     0
100
AcDbDimension
  2
_D_1
 10
139.3838272048
 20
366.4649022965
 30
0.0
 11
314.3838272048
 21
366.4649022965
 31
0.0
 70
   160
  1
<>
 71
     2
 42
-1.0
  3
SLDDIMSTYLE1
100
AcDbAlignedDimension
 13
489.3838272048
 23
294.4649022965
 33
0.0
 14
139.3838272048
 24
294.4649022965
 34
0.0
 50
0.0
100
AcDbRotatedDimension
  0
DIMENSION
  5
226
330
1F
100
AcDbEntity
  8
0
  6
Continuous
 62
     8
370
     0
100
AcDbDimension
  2
_D_2
 10
489.3838272048
 20
352.4649022965
 30
0.0
 11
408.8838272048
 21
352.4649022965
 31
0.0
 70
   160
  1
<>
 71
     2
 42
-1.0
  3
SLDDIMSTYLE1
100
AcDbAlignedDimension
 13
328.3838272048
 23
314.4649022965
 33
0.0
 14
489.3838272048
 24
294.4649022965
 34
0.0
 50
0.0
100
AcDbRotatedDimension
  0
DIMENSION
  5
230
330
1F
100
AcDbEntity
  8
0
  6
Continuous
 62
     8
370
     0
100
AcDbDimension
  2
_D_3
 10
164.3838272048
 20
352.4649022965
 30
0.0
 11
246.3838272048
 21
352.4649022965
 31
0.0
 70
   160
  1
<>
 71
     2
 42
-1.0
  3
SLDDIMSTYLE1
100
AcDbAlignedDimension
 13
328.3838272048
 23
314.4649022965
 33
0.0
 14
164.3838272048
 24
314.4649022965
 34
0.0
 50
0.0
100
AcDbRotatedDimension
  0
DIMENSION
  5
23A
330
1F
100
AcDbEntity
  8
0
  6
Continuous
 62
     8
370
     0
100
AcDbDimension
  2
_D_4
 10
429.3838272048
 20
338.4649022965
 30
0.0
 11
451.8838272048
 21
338.4649022965
 31
0.0
 70
   160
  1
<>
 71
     2
 42
-1.0
  3
SLDDIMSTYLE1
100
AcDbAlignedDimension
 13
474.3838272048
 23
301.9649022965
 33
0.0
 14
429.3838272048
 24
301.9649022965
 34
0.0
100
AcDbRotatedDimension
  0
DIMENSION
  5
244
330
1F
100
AcDbEntity
  8
0
  6
Continuous
 62
     8
370
     0
100
AcDbDimension
  2
_D_5
 10
339.3838272048
 20
338.4649022965
 30
0.0
 11
384.3838272048
 21
338.4649022965
 31
0.0
 70
   160
  1
<>
 71
     2
 42
-1.0
  3
SLDDIMSTYLE1
100
AcDbAlignedDimension
 13
429.3838272048
 23
301.9649022965
 33
0.0
 14
339.3838272048
 24
301.9649022965
 34
0.0
100
AcDbRotatedDimension
  0
DIMENSION
  5
24E
330
1F
100
AcDbEntity
  8
0
  6
Continuous
 62
     8
370
     0
100
AcDbDimension
  2
_D_6
 10
249.3838272048
 20
338.4649022965
 30
0.0
 11
294.3838272048
 21
338.4649022965
 31
0.0
 70
   160
  1
<>
 71
     2
 42
-1.0
  3
SLDDIMSTYLE1
100
AcDbAlignedDimension
 13
339.3838272048
 23
301.9649022965
 33
0.0
 14
249.3838272048
 24
301.9649022965
 34
0.0
100
AcDbRotatedDimension
  0
DIMENSION
  5
258
330
1F
100
AcDbEntity
  8
0
  6
Continuous
 62
     8
370
     0
100
AcDbDimension
  2
_D_7
 10
154.3838272048
 20
338.4649022965
 30
0.0
 11
201.8838272048
 21
338.4649022965
 31
0.0
 70
   160
  1
<>
 71
     2
 42
-1.0
  3
SLDDIMSTYLE1
100
AcDbAlignedDimension
 13
249.3838272048
 23
301.9649022965
 33
0.0
 14
154.3838272048
 24
301.9649022965
 34
0.0
 50
0.0
100
AcDbRotatedDimension
  0
DIMENSION
  5
262
330
1F
100
AcDbEntity
  8
0
  6
Continuous
 62
     8
370
     0
100
AcDbDimension
  2
_D_8
 10
328.3838272048
 20
324.3694462689
 30
0.0
 11
317.3429640629
 21
324.3694462689
 31
0.0
 70
   160
  1
<>
 71
     2
 42
-1.0
  3
SLDDIMSTYLE0
100
AcDbAlignedDimension
 13
324.3838272048
 23
298.4649022965
 33
0.0
 14
328.3838272048
 24
314.4649022965
 34
0.0
 50
0.0
100
AcDbRotatedDimension
  0
DIMENSION
  5
26E
330
1F
100
AcDbEntity
  8
0
  6
Continuous
 62
     8
370
     0
100
AcDbDimension
  2
_D_9
 10
139.3838272048
 20
338.4649022965
 30
0.0
 11
146.8838272048
 21
338.4649022965
 31
0.0
 70
   160
  1
(<>)
 71
     2
 42
-1.0
  3
SLDDIMSTYLE1
100
AcDbAlignedDimension
 13
154.3838272048
 23
301.9649022965
 33
0.0
 14
139.3838272048
 24
294.4649022965
 34
0.0
100
AcDbRotatedDimension
  0
DIMENSION
  5
27A
330
1F
100
AcDbEntity
  8
0
  6
Continuous
 62
     8
370
     0
100
AcDbDimension
  2
_D_10
 10
489.3838272048
 20
338.4649022965
 30
0.0
 11
481.8838272048
 21
338.4649022965
 31
0.0
 70
   160
  1
(<>)
 71
     2
 42
-1.0
  3
SLDDIMSTYLE1
100
AcDbAlignedDimension
 13
474.3838272048
 23
301.9649022965
 33
0.0
 14
489.3838272048
 24
294.4649022965
 34
0.0
100
AcDbRotatedDimension
  0
DIMENSION
  5
286
330
1F
100
AcDbEntity
  8
0
  6
Continuous
 62
     8
370
     0
100
AcDbDimension
  2
_D_11
 10
409.3838272048
 20
297.9649022965
 30
0.0
 11
420.70931389
 21
309.2903889818
 31
0.0
 70
   164
  1
<>
 71
     1
 42
-1.0
  3
SLDDIMSTYLE2
100
AcDbRadialDimension
 15
410.7980407672
 25
299.3791158589
 35
0.0
 40
0.0
  0
DIMENSION
  5
290
330
1F
100
AcDbEntity
  8
0
  6
Continuous
 62
     8
370
     0
100
AcDbDimension
  2
_D_12
 10
276.3838272048
 20
290.4649022965
 30
0.0
 11
267.1705034618
 21
274.5069501466
 31
0.0
 70
   164
  1
<>
 71
     1
 42
-1.0
  3
SLDDIMSTYLE2
100
AcDbRadialDimension
 15
275.3838272048
 25
288.732851489
 35
0.0
 40
0.0
  0
DIMENSION
  5
299
330
1F
100
AcDbEntity
  8
0
  6
Continuous
 62
     8
370
     0
100
AcDbDimension
  2
_D_13
 10
298.0323305379
 20
282.4649022965
 30
0.0
 11
298.0323305379
 21
285.4649022965
 31
0.0
 70
   160
  1
<>
 71
     2
 42
-1.0
  3
SLDDIMSTYLE0
100
AcDbAlignedDimension
 13
276.3838272048
 23
288.4649022965
 33
0.0
 14
151.3838272048
 24
282.4649022965
 34
0.0
 50
90.0
100
AcDbRotatedDimension
  0
DIMENSION
  5
2A3
330
1F
100
AcDbEntity
  8
0
  6
Continuous
 62
     8
370
     0
100
AcDbDimension
  2
_D_14
 10
311.1402771937
 20
288.4649022965
 30
0.0
 11
311.1402771937
 21
294.4649022965
 31
0.0
 70
   160
  1
<>
 71
     2
 42
-1.0
  3
SLDDIMSTYLE0
100
AcDbAlignedDimension
 13
322.3838272048
 23
300.4649022965
 33
0.0
 14
322.3838272048
 24
288.4649022965
 34
0.0
 50
90.0
100
AcDbRotatedDimension
  0
DIMENSION
  5
2AD
330
1F
100
AcDbEntity
  8
0
  6
Continuous
 62
     8
370
     0
100
AcDbDimension
  2
_D_15
 10
287.733229594
 20
314.4649022965
 30
0.0
 11
287.733229594
 21
307.4649022965
 31
0.0
 70
   160
  1
(<>)
 71
     2
 42
-1.0
  3
SLDDIMSTYLE0
100
AcDbAlignedDimension
 13
276.3838272048
 23
300.4649022965
 33
0.0
 14
328.3838272048
 24
314.4649022965
 34
0.0
 50
90.0
100
AcDbRotatedDimension
  0
DIMENSION
  5
2B9
330
1F
100
AcDbEntity
  8
0
  6
Continuous
 62
     8
370
     0
100
AcDbDimension
  2
_D_16
 10
392.9021661616
 20
299.9649022965
 30
0.0
 11
392.9021661616
 21
294.4649022965
 31
0.0
 70
   160
  1
<>
 71
     2
 42
-1.0
  3
SLDDIMSTYLE0
100
AcDbAlignedDimension
 13
409.3838272048
 23
288.9649022965
 33
0.0
 14
409.3838272048
 24
299.9649022965
 34
0.0
 50
90.0
100
AcDbRotatedDimension
  0
DIMENSION
  5
2C3
330
1F
100
AcDbEntity
  8
0
  6
Continuous
 62
     8
370
     0
100
AcDbDimension
  2
_D_17
 10
380.7159317138
 20
282.4649022965
 30
0.0
 11
380.7159317138
 21
273.9510107147
 31
0.0
 70
   160
  1
<>
 71
     2
 42
-1.0
  3
SLDDIMSTYLE1
100
AcDbAlignedDimension
 13
358.3838272048
 23
288.9649022965
 33
0.0
 14
477.3838272048
 24
282.4649022965
 34
0.0
 50
90.0
100
AcDbRotatedDimension
  0
DIMENSION
  5
2CC
330
1F
100
AcDbEntity
  8
0
  6
Continuous
 62
     8
370
     0
100
AcDbDimension
  2
_D_18
 10
370.7640119999
 20
306.4649022965
 30
0.0
 11
370.7640119999
 21
319.8983154087
 31
0.0
 70
   160
  1
(<>)
 71
     2
 42
-1.0
  3
SLDDIMSTYLE1
100
AcDbAlignedDimension
 13
358.3838272048
 23
299.9649022965
 33
0.0
 14
328.3838272048
 24
306.4649022965
 34
0.0
 50
90.0
100
AcDbRotatedDimension
  0
DIMENSION
  5
2D7
330
1F
100
AcDbEntity
  8
0
  6
Continuous
 62
     8
370
     0
100
AcDbDimension
  2
_D_19
 10
489.3838272048
 20
254.4188057193
 30
0.0
 11
450.3838272048
 21
254.4188057193
 31
0.0
 70
   160
  1
<>
 71
     2
 42
-1.0
  3
SLDDIMSTYLE1
100
AcDbAlignedDimension
 13
411.3838272048
 23
290.9649022965
 33
0.0
 14
489.3838272048
 24
294.4649022965
 34
0.0
 50
0.0
100
AcDbRotatedDimension
  0
DIMENSION
  5
2E1
330
1F
100
AcDbEntity
  8
0
  6
Continuous
 62
     8
370
     0
100
AcDbDimension
  2
_D_20
 10
356.3838272048
 20
254.4188057193
 30
0.0
 11
383.8838272048
 21
254.4188057193
 31
0.0
 70
   160
  1
<>
 71
     2
 42
-1.0
  3
SLDDIMSTYLE1
100
AcDbAlignedDimension
 13
411.3838272048
 23
290.9649022965
 33
0.0
 14
356.3838272048
 24
290.9649022965
 34
0.0
 50
0.0
100
AcDbRotatedDimension
  0
DIMENSION
  5
2EB
330
1F
100
AcDbEntity
  8
0
  6
Continuous
 62
     8
370
     0
100
AcDbDimension
  2
_D_21
 10
324.3838272048
 20
254.4188057193
 30
0.0
 11
340.3838272048
 21
254.4188057193
 31
0.0
 70
   160
  1
<>
 71
     2
 42
-1.0
  3
SLDDIMSTYLE1
100
AcDbAlignedDimension
 13
356.3838272048
 23
290.9649022965
 33
0.0
 14
324.3838272048
 24
290.4649022965
 34
0.0
 50
0.0
100
AcDbRotatedDimension
  0
DIMENSION
  5
2F5
330
1F
100
AcDbEntity
  8
0
  6
Continuous
 62
     8
370
     0
100
AcDbDimension
  2
_D_22
 10
489.3838272048
 20
244.4649022965
 30
0.0
 11
406.8838272048
 21
244.4649022965
 31
0.0
 70
   160
  1
<>
 71
     2
 42
-1.0
  3
SLDDIMSTYLE1
100
AcDbAlignedDimension
 13
324.3838272048
 23
290.4649022965
 33
0.0
 14
489.3838272048
 24
294.4649022965
 34
0.0
 50
0.0
100
AcDbRotatedDimension
  0
DIMENSION
  5
2FF
330
1F
100
AcDbEntity
  8
0
  6
Continuous
 62
     8
370
     0
100
AcDbDimension
  2
_D_23
 10
274.3838272048
 20
254.4188057193
 30
0.0
 11
299.3838272048
 21
254.4188057193
 31
0.0
 70
   160
  1
<>
 71
     2
 42
-1.0
  3
SLDDIMSTYLE1
100
AcDbAlignedDimension
 13
324.3838272048
 23
290.4649022965
 33
0.0
 14
274.3838272048
 24
290.4649022965
 34
0.0
 50
0.0
100
AcDbRotatedDimension
  0
DIMENSION
  5
309
330
1F
100
AcDbEntity
  8
0
  6
Continuous
 62
     8
370
     0
100
AcDbDimension
  2
_D_24
 10
151.3838272048
 20
294.4649022965
 30
0.0
 11
137.17306317
 21
269.8511296533
 31
0.0
 70
   164
  1
<>
 71
     1
 42
-1.0
  3
SLDDIMSTYLE2
100
AcDbRadialDimension
 15
145.3838272048
 25
284.0725974511
 35
0.0
 40
0.0
  0
DIMENSION
  5
312
330
1F
100
AcDbEntity
  8
0
  6
Continuous
 62
     8
370
     0
100
AcDbDimension
  2
_D_25
 10
110.1264409125
 20
282.4649022965
 30
0.0
 11
110.1264409125
 21
294.4649022965
 31
0.0
 70
   160
  1
<>
 71
     2
 42
-1.0
  3
SLDDIMSTYLE1
100
AcDbAlignedDimension
 13
151.3838272048
 23
306.4649022965
 33
0.0
 14
151.3838272048
 24
282.4649022965
 34
0.0
 50
90.0
100
AcDbRotatedDimension
  0
DIMENSION
  5
31C
330
1F
100
AcDbEntity
  8
0
  6
Continuous
 62
     8
370
     0
100
AcDbDimension
  2
_D_26
 10
110.1264409125
 20
306.4649022965
 30
0.0
 11
110.1264409125
 21
310.4649022965
 31
0.0
 70
   160
  1
<>
 71
     2
 42
-1.0
  3
SLDDIMSTYLE0
100
AcDbAlignedDimension
 13
164.3838272048
 23
314.4649022965
 33
0.0
 14
151.3838272048
 24
306.4649022965
 34
0.0
 50
90.0
100
AcDbRotatedDimension
  0
DIMENSION
  5
328
330
1F
100
AcDbEntity
  8
0
  6
Continuous
 62
     8
370
     0
100
AcDbDimension
  2
_D_27
 10
122.3838272048
 20
282.4649022965
 30
0.0
 11
122.3838272048
 21
288.4649022965
 31
0.0
 70
   160
  1
<>
 71
     2
 42
-1.0
  3
SLDDIMSTYLE1
100
AcDbAlignedDimension
 13
146.8838272048
 23
294.4649022965
 33
0.0
 14
151.3838272048
 24
282.4649022965
 34
0.0
 50
90.0
100
AcDbRotatedDimension
  0
DIMENSION
  5
332
330
1F
100
AcDbEntity
  8
0
  6
Continuous
 62
     8
370
     0
100
AcDbDimension
  2
_D_28
 10
477.3838272048
 20
294.4649022965
 30
0.0
 11
497.3898863354
 21
314.4709614271
 31
0.0
 70
   164
  1
<>
 71
     1
 42
-1.0
  3
SLDDIMSTYLE2
100
AcDbRadialDimension
 15
485.869108579
 25
302.9501836708
 35
0.0
 40
0.0
  0
DIMENSION
  5
33B
330
1F
100
AcDbEntity
  8
0
  6
Continuous
 62
     8
370
     0
100
AcDbDimension
  2
_D_29
 10
324.3838272048
 20
265.4649022965
 30
0.0
 11
331.8838272048
 21
265.4649022965
 31
0.0
 70
   160
  1
<>
 71
     2
 42
-1.0
  3
SLDDIMSTYLE1
100
AcDbAlignedDimension
 13
339.3838272048
 23
286.9649022965
 33
0.0
 14
324.3838272048
 24
290.4649022965
 34
0.0
100
AcDbRotatedDimension
  0
MTEXT
  5
345
330
1F
100
AcDbEntity
  8
0
  6
Continuous
 62
     8
370
     0
100
AcDbMText
 10
320.3955449173
 20
257.4533795889
 30
0.0
 40
2.6458333333
 41
0.0
 71
     1
 72
     1
  1
1050 bis OFF
  7
SLDTEXTSTYLE0
 11
-3.269436733918102E-15
 21
1.0
 31
0.0
 73
     1
 44
1.0
  0
INSERT
  5
351
330
1F
100
AcDbEntity
  8
0
  6
Continuous
 62
     8
370
     0
100
AcDbBlockReference
  2
SW_CENTERMARKSYMBOL_0
 10
339.3838272048
 20
294.4649022965
 30
0.0
  0
INSERT
  5
35D
330
1F
100
AcDbEntity
  8
0
  6
Continuous
 62
     8
370
     0
100
AcDbBlockReference
  2
SW_CENTERMARKSYMBOL_1
 10
429.3838272048
 20
294.4649022965
 30
0.0
  0
INSERT
  5
369
330
1F
100
AcDbEntity
  8
0
  6
Continuous
 62
     8
370
     0
100
AcDbBlockReference
  2
SW_CENTERMARKSYMBOL_2
 10
474.3838272048
 20
294.4649022965
 30
0.0
  0
INSERT
  5
375
330
1F
100
AcDbEntity
  8
0
  6
Continuous
 62
     8
370
     0
100
AcDbBlockReference
  2
SW_CENTERMARKSYMBOL_3
 10
249.3838272048
 20
294.4649022965
 30
0.0
  0
INSERT
  5
381
330
1F
100
AcDbEntity
  8
0
  6
Continuous
 62
     8
370
     0
100
AcDbBlockReference
  2
SW_CENTERMARKSYMBOL_4
 10
154.3838272048
 20
294.4649022965
 30
0.0
  0
ARC
  5
382
330
1F
100
AcDbEntity
  8
0
  6
Continuous
 62
     7
370
    40
100
AcDbCircle
 10
322.3838272048
 20
142.2313967339
 30
0.0
 40
2.0
100
AcDbArc
 50
0.0
 51
90.0
  0
LINE
  5
383
330
1F
100
AcDbEntity
  8
0
  6
Continuous
 62
     7
370
    40
100
AcDbLine
 10
276.3838267875
 20
144.231396786
 30
0.0
 11
322.3838271098
 21
144.231396786
 31
0.0
  0
ARC
  5
384
330
1F
100
AcDbEntity
  8
0
  6
Continuous
 62
     7
370
    40
100
AcDbCircle
 10
276.3838272048
 20
142.2313967339
 30
0.0
 40
2.0
100
AcDbArc
 50
90.0
 51
180.0
  0
LINE
  5
385
330
1F
100
AcDbEntity
  8
0
  6
Continuous
 62
     7
370
    40
100
AcDbLine
 10
274.3838264597
 20
134.2313965439
 30
0.0
 11
274.3838264597
 21
142.2313969239
 31
0.0
  0
ARC
  5
386
330
1F
100
AcDbEntity
  8
0
  6
Continuous
 62
     7
370
    40
100
AcDbCircle
 10
276.3838272048
 20
134.2313967339
 30
0.0
 40
2.0
100
AcDbArc
 50
180.0
 51
270.0
  0
LINE
  5
387
330
1F
100
AcDbEntity
  8
0
  6
Continuous
 62
     7
370
    40
100
AcDbLine
 10
322.3838271098
 20
132.2313966817
 30
0.0
 11
276.3838267875
 21
132.2313966817
 31
0.0
  0
ARC
  5
388
330
1F
100
AcDbEntity
  8
0
  6
Continuous
 62
     7
370
    40
100
AcDbCircle
 10
322.3838272048
 20
134.2313967339
 30
0.0
 40
2.0
100
AcDbArc
 50
270.0
 51
0.0
  0
LINE
  5
389
330
1F
100
AcDbEntity
  8
0
  6
Continuous
 62
     7
370
    40
100
AcDbLine
 10
324.3838272048
 20
142.2313969239
 30
0.0
 11
324.3838272048
 21
134.2313965439
 31
0.0
  0
LINE
  5
38A
330
1F
100
AcDbEntity
  8
0
  6
Continuous
 62
     7
370
    40
100
AcDbLine
 10
151.3838342381
 20
150.2313968382
 30
0.0
 11
477.3838243438
 21
150.2313968382
 31
0.0
  0
LINE
  5
38B
330
1F
100
AcDbEntity
  8
0
  6
Continuous
 62
     7
370
    40
100
AcDbLine
 10
477.3838243438
 20
126.2313966296
 30
0.0
 11
328.3838273948
 21
126.2313966296
 31
0.0
  0
LINE
  5
38C
330
1F
100
AcDbEntity
  8
0
  6
Continuous
 62
     7
370
    40
100
AcDbLine
 10
328.3838273948
 20
126.2313966296
 30
0.0
 11
328.3838273948
 21
118.2313971809
 31
0.0
  0
LINE
  5
38D
330
1F
100
AcDbEntity
  8
0
  6
Continuous
 62
     7
370
    40
100
AcDbLine
 10
328.3838273948
 20
118.2313971809
 30
0.0
 11
164.3838307811
 21
118.2313971809
 31
0.0
  0
LINE
  5
38E
330
1F
100
AcDbEntity
  8
0
  6
Continuous
 62
     7
370
    40
100
AcDbLine
 10
164.3838307811
 20
118.2313971809
 30
0.0
 11
164.3838307811
 21
126.2313966296
 31
0.0
  0
LINE
  5
38F
330
1F
100
AcDbEntity
  8
0
  6
Continuous
 62
     7
370
    40
100
AcDbLine
 10
164.3838307811
 20
126.2313966296
 30
0.0
 11
151.3838342381
 21
126.2313966296
 31
0.0
  0
ARC
  5
390
330
1F
100
AcDbEntity
  8
0
  6
Continuous
 62
     7
370
    40
100
AcDbCircle
 10
151.3838272048
 20
138.2313967339
 30
0.0
 40
12.0
100
AcDbArc
 50
90.0
 51
270.0
  0
ARC
  5
391
330
1F
100
AcDbEntity
  8
0
  6
Continuous
 62
     7
370
    40
100
AcDbCircle
 10
409.3838272048
 20
141.7313967339
 30
0.0
 40
2.0
100
AcDbArc
 50
0.0
 51
90.0
  0
LINE
  5
392
330
1F
100
AcDbEntity
  8
0
  6
Continuous
 62
     7
370
    40
100
AcDbLine
 10
358.3838290525
 20
143.7313967041
 30
0.0
 11
409.3838280989
 21
143.7313967041
 31
0.0
  0
ARC
  5
393
330
1F
100
AcDbEntity
  8
0
  6
Continuous
 62
     7
370
    40
100
AcDbCircle
 10
358.3838272048
 20
141.7313967339
 30
0.0
 40
2.0
100
AcDbArc
 50
90.0
 51
180.0
  0
LINE
  5
394
330
1F
100
AcDbEntity
  8
0
  6
Continuous
 62
     7
370
    40
100
AcDbLine
 10
356.3838287247
 20
134.7313966258
 30
0.0
 11
356.3838287247
 21
141.7313968419
 31
0.0
  0
ARC
  5
395
330
1F
100
AcDbEntity
  8
0
  6
Continuous
 62
     7
370
    40
100
AcDbCircle
 10
358.3838272048
 20
134.7313967339
 30
0.0
 40
2.0
100
AcDbArc
 50
180.0
 51
270.0
  0
LINE
  5
396
330
1F
100
AcDbEntity
  8
0
  6
Continuous
 62
     7
370
    40
100
AcDbLine
 10
409.3838280989
 20
132.7313967637
 30
0.0
 11
358.3838290525
 21
132.7313967637
 31
0.0
  0
ARC
  5
397
330
1F
100
AcDbEntity
  8
0
  6
Continuous
 62
     7
370
    40
100
AcDbCircle
 10
409.3838272048
 20
134.7313967339
 30
0.0
 40
2.0
100
AcDbArc
 50
270.0
 51
0.0
  0
LINE
  5
398
330
1F
100
AcDbEntity
  8
0
  6
Continuous
 62
     7
370
    40
100
AcDbLine
 10
411.3838247014
 20
141.7313968419
 30
0.0
 11
411.3838247014
 21
134.7313966258
 31
0.0
  0
CIRCLE
  5
399
330
1F
100
AcDbEntity
  8
0
  6
Continuous
 62
     7
370
    40
100
AcDbCircle
 10
474.3838272048
 20
138.2313967339
 30
0.0
 40
5.0
  0
CIRCLE
  5
39A
330
1F
100
AcDbEntity
  8
0
  6
Continuous
 62
     7
370
    40
100
AcDbCircle
 10
429.3838272048
 20
138.2313967339
 30
0.0
 40
5.0
  0
CIRCLE
  5
39B
330
1F
100
AcDbEntity
  8
0
  6
Continuous
 62
     7
370
    40
100
AcDbCircle
 10
339.3838272048
 20
138.2313967339
 30
0.0
 40
5.0
  0
CIRCLE
  5
39C
330
1F
100
AcDbEntity
  8
0
  6
Continuous
 62
     7
370
    40
100
AcDbCircle
 10
249.3838272048
 20
138.2313967339
 30
0.0
 40
5.0
  0
CIRCLE
  5
39D
330
1F
100
AcDbEntity
  8
0
  6
Continuous
 62
     7
370
    40
100
AcDbCircle
 10
154.3838272048
 20
138.2313967339
 30
0.0
 40
5.0
  0
ARC
  5
39E
330
1F
100
AcDbEntity
  8
0
  6
Continuous
 62
     7
370
    40
100
AcDbCircle
 10
477.3838272048
 20
138.2313967339
 30
0.0
 40
12.00000000000007
100
AcDbArc
 50
270.0
 51
90.0
  0
CIRCLE
  5
39F
330
1F
100
AcDbEntity
  8
0
  6
Continuous
 62
     7
370
    40
100
AcDbCircle
 10
474.3838272048
 20
138.2313967339
 30
0.0
 40
3.799999999999983
  0
CIRCLE
  5
3A0
330
1F
100
AcDbEntity
  8
0
  6
Continuous
 62
     7
370
    40
100
AcDbCircle
 10
429.3838272048
 20
138.2313967339
 30
0.0
 40
3.799999999999983
  0
CIRCLE
  5
3A1
330
1F
100
AcDbEntity
  8
0
  6
Continuous
 62
     7
370
    40
100
AcDbCircle
 10
339.3838272048
 20
138.2313967339
 30
0.0
 40
3.799999999999983
  0
CIRCLE
  5
3A2
330
1F
100
AcDbEntity
  8
0
  6
Continuous
 62
     7
370
    40
100
AcDbCircle
 10
249.3838272048
 20
138.2313967339
 30
0.0
 40
3.799999999999983
  0
CIRCLE
  5
3A3
330
1F
100
AcDbEntity
  8
0
  6
Continuous
 62
     7
370
    40
100
AcDbCircle
 10
154.3838272048
 20
138.2313967339
 30
0.0
 40
3.799999999999983
  0
DIMENSION
  5
3A4
330
1F
100
AcDbEntity
  8
0
  6
Continuous
 62
     8
370
     0
100
AcDbDimension
  2
_D_30
 10
254.3838272048
 20
164.2106874265
 30
0.0
 11
227.6116295856
 21
164.2106874265
 31
0.0
 70
   160
  1
%%c<>  x 90°
 71
     2
 42
-1.0
  3
SLDDIMSTYLE3
100
AcDbAlignedDimension
 13
244.3838272048
 23
138.2313967339
 33
0.0
 14
254.3838272048
 24
138.2313967339
 34
0.0
100
AcDbRotatedDimension
  0
DIMENSION
  5
3B7
330
1F
100
AcDbEntity
  8
0
  6
Continuous
 62
     8
370
     0
100
AcDbDimension
  2
_D_31
 10
253.1838272048
 20
103.969350228
 30
0.0
 11
264.1339171464
 21
103.969350228
 31
0.0
 70
   160
  1
%%c<>
 71
     2
 42
-1.0
  3
SLDDIMSTYLE4
100
AcDbAlignedDimension
 13
245.5838272048
 23
138.2313967339
 33
0.0
 14
253.1838272048
 24
138.2313967339
 34
0.0
100
AcDbRotatedDimension
  0
INSERT
  5
3CF
330
1F
100
AcDbEntity
  8
0
  6
Continuous
 62
     7
370
     0
100
AcDbBlockReference
  2
SW_NOTE_0
 10
258.0178222194
 20
165.3194335428
 30
0.0
  0
INSERT
  5
3DB
330
1F
100
AcDbEntity
  8
0
  6
Continuous
 62
     8
370
     0
100
AcDbBlockReference
  2
SW_CENTERMARKSYMBOL_5
 10
339.3838272048
 20
138.2313967339
 30
0.0
  0
INSERT
  5
3E7
330
1F
100
AcDbEntity
  8
0
  6
Continuous
 62
     8
370
     0
100
AcDbBlockReference
  2
SW_CENTERMARKSYMBOL_6
 10
429.3838272048
 20
138.2313967339
 30
0.0
  0
INSERT
  5
3F3
330
1F
100
AcDbEntity
  8
0
  6
Continuous
 62
     8
370
     0
100
AcDbBlockReference
  2
SW_CENTERMARKSYMBOL_7
 10
474.3838272048
 20
138.2313967339
 30
0.0
  0
INSERT
  5
3FF
330
1F
100
AcDbEntity
  8
0
  6
Continuous
 62
     8
370
     0
100
AcDbBlockReference
  2
SW_CENTERMARKSYMBOL_8
 10
249.3838272048
 20
138.2313967339
 30
0.0
  0
INSERT
  5
40B
330
1F
100
AcDbEntity
  8
0
  6
Continuous
 62
     8
370
     0
100
AcDbBlockReference
  2
SW_CENTERMARKSYMBOL_9
 10
154.3838272048
 20
138.2313967339
 30
0.0
  0
LINE
  5
40C
330
1F
100
AcDbEntity
  8
0
  6
Continuous
 62
     7
370
    40
100
AcDbLine
 10
168.3739204463
 20
33.4398065713
 30
0.0
 11
168.3739204463
 21
34.6646177891
 31
0.0
  0
LINE
  5
40D
330
1F
100
AcDbEntity
  8
0
  6
Continuous
 62
     7
370
    40
100
AcDbLine
 10
41.1155151129
 20
101.2018789027
 30
0.0
 11
41.1155151129
 21
99.9770676848
 31
0.0
  0
ARC
  5
40E
330
1F
100
AcDbEntity
  8
0
  6
Continuous
 62
     7
370
    40
100
AcDbCircle
 10
109.5395382211
 20
67.1168402341
 30
0.0
 40
0.4366153168342856
100
AcDbArc
 50
290.7834207995
 51
69.2165792005
  0
LINE
  5
40F
330
1F
100
AcDbEntity
  8
0
  6
Continuous
 62
     7
370
    40
100
AcDbLine
 10
93.4310092806
 20
76.9137375759
 30
0.0
 11
109.6944652479
 21
67.52504429
 31
0.0
  0
ARC
  5
410
330
1F
100
AcDbEntity
  8
0
  6
Continuous
 62
     7
370
    40
100
AcDbCircle
 10
92.7239024994
 20
75.549026491
 30
0.0
 40
1.537021907911765
100
AcDbArc
 50
62.6096722366
 51
117.3903277634
  0
LINE
  5
411
330
1F
100
AcDbEntity
  8
0
  6
Continuous
 62
     7
370
    40
100
AcDbLine
 10
89.1883685935
 20
75.2809213523
 30
0.0
 11
92.0167957182
 21
76.9137375759
 31
0.0
  0
ARC
  5
412
330
1F
100
AcDbEntity
  8
0
  6
Continuous
 62
     7
370
    40
100
AcDbCircle
 10
89.3432956203
 20
74.8727172964
 30
0.0
 40
0.4366153168342755
100
AcDbArc
 50
110.7834207995
 51
249.2165792005
  0
LINE
  5
413
330
1F
100
AcDbEntity
  8
0
  6
Continuous
 62
     7
370
    40
100
AcDbLine
 10
105.4518245608
 20
65.0758199545
 30
0.0
 11
89.1883685935
 21
74.4645132405
 31
0.0
  0
ARC
  5
414
330
1F
100
AcDbEntity
  8
0
  6
Continuous
 62
     7
370
    40
100
AcDbCircle
 10
106.158931342
 20
66.4405310395
 30
0.0
 40
1.53702190791162
100
AcDbArc
 50
242.6096722366
 51
297.3903277634
  0
LINE
  5
415
330
1F
100
AcDbEntity
  8
0
  6
Continuous
 62
     7
370
    40
100
AcDbLine
 10
109.6944652479
 20
66.7086361782
 30
0.0
 11
106.8660381232
 21
65.0758199545
 31
0.0
  0
LINE
  5
416
330
1F
100
AcDbEntity
  8
0
  6
Continuous
 62
     7
370
    40
100
AcDbLine
 10
51.3581558
 20
103.6511032381
 30
0.0
 11
166.6165611334
 21
37.1138421246
 31
0.0
  0
LWPOLYLINE
  5
417
330
1F
100
AcDbEntity
  8
0
  6
Continuous
 62
     7
370
    40
100
AcDbPolyline
 90
       19
 70
   128
 43
0.0
 10
166.6165611334
 20
37.1138421246
 10
167.288832712
 20
36.651329561
 10
167.8117671685
 20
36.1284517656
 10
168.169475404
 20
35.5610961155
 10
168.3510886348
 20
34.9665014251
 10
168.3510886348
 20
34.3627341532
 10
168.169475404
 20
33.7681394628
 10
167.8117671685
 20
33.2007838127
 10
167.288832712
 20
32.6779060172
 10
166.6165611334
 20
32.2153934537
 10
165.8153790644
 20
31.8272993321
 10
164.9096300167
 20
31.5254156962
 10
163.9268347169
 20
31.3189151273
 10
162.8968549028
 20
31.2140720408
 10
161.8509859898
 20
31.2140720408
 10
160.8210061757
 20
31.3189151273
 10
159.8382108759
 20
31.5254156962
 10
158.9324618282
 20
31.8272993321
 10
158.1312797592
 20
32.2153934537
  0
LINE
  5
418
330
1F
100
AcDbEntity
  8
0
  6
Continuous
 62
     7
370
    40
100
AcDbLine
 10
158.1312797592
 20
32.2153934537
 30
0.0
 11
105.4518245608
 21
62.6265956191
 31
0.0
  0
LINE
  5
419
330
1F
100
AcDbEntity
  8
0
  6
Continuous
 62
     7
370
    40
100
AcDbLine
 10
105.4518245608
 20
62.6265956191
 30
0.0
 11
102.623397436
 21
60.9937793954
 31
0.0
  0
LINE
  5
41A
330
1F
100
AcDbEntity
  8
0
  6
Continuous
 62
     7
370
    40
100
AcDbLine
 10
102.623397436
 20
60.9937793954
 30
0.0
 11
44.6406413787
 21
94.4665119801
 31
0.0
  0
LINE
  5
41B
330
1F
100
AcDbEntity
  8
0
  6
Continuous
 62
     7
370
    40
100
AcDbLine
 10
44.6406413787
 20
94.4665119801
 30
0.0
 11
47.4690685035
 21
96.0993282038
 31
0.0
  0
LINE
  5
41C
330
1F
100
AcDbEntity
  8
0
  6
Continuous
 62
     7
370
    40
100
AcDbLine
 10
47.4690685035
 20
96.0993282038
 30
0.0
 11
42.8728744258
 21
98.7526545672
 31
0.0
  0
LWPOLYLINE
  5
41D
330
1F
100
AcDbEntity
  8
0
  6
Continuous
 62
     7
370
    40
100
AcDbPolyline
 90
       19
 70
   128
 43
0.0
 10
42.8728744258
 20
98.7526545672
 10
42.2006028472
 20
99.2151671308
 10
41.6776683907
 20
99.7380449262
 10
41.3199601552
 20
100.3054005763
 10
41.1383469243
 20
100.8999952667
 10
41.1383469243
 20
101.5037625386
 10
41.3199601552
 20
102.098357229
 10
41.6776683907
 20
102.6657128791
 10
42.2006028472
 20
103.1885906746
 10
42.8728744258
 20
103.6511032381
 10
43.6740564948
 20
104.0391973597
 10
44.5798055424
 20
104.3410809956
 10
45.5626008423
 20
104.5475815645
 10
46.5925806564
 20
104.652424651
 10
47.6384495694
 20
104.652424651
 10
48.6684293835
 20
104.5475815645
 10
49.6512246833
 20
104.3410809956
 10
50.556973731
 20
104.0391973597
 10
51.3581558
 20
103.6511032381
  0
ARC
  5
41E
330
1F
100
AcDbEntity
  8
0
  6
Continuous
 62
     7
370
    40
100
AcDbCircle
 10
140.1219065074
 20
49.257912788
 30
0.0
 40
0.4366153168342755
100
AcDbArc
 50
290.7834207995
 51
69.2165792005
  0
LINE
  5
41F
330
1F
100
AcDbEntity
  8
0
  6
Continuous
 62
     7
370
    40
100
AcDbLine
 10
122.245610614
 20
60.0753202696
 30
0.0
 11
140.2768335342
 21
49.6661168439
 31
0.0
  0
ARC
  5
420
330
1F
100
AcDbEntity
  8
0
  6
Continuous
 62
     7
370
    40
100
AcDbCircle
 10
121.5385038328
 20
58.7106091846
 30
0.0
 40
1.537021907911803
100
AcDbArc
 50
62.6096722366
 51
117.3903277634
  0
LINE
  5
421
330
1F
100
AcDbEntity
  8
0
  6
Continuous
 62
     7
370
    40
100
AcDbLine
 10
118.3565233174
 20
58.6466060739
 30
0.0
 11
120.8313970516
 21
60.0753202696
 31
0.0
  0
ARC
  5
422
330
1F
100
AcDbEntity
  8
0
  6
Continuous
 62
     7
370
    40
100
AcDbCircle
 10
118.5114503442
 20
58.238402018
 30
0.0
 40
0.4366153168342771
100
AcDbArc
 50
110.7834207995
 51
249.2165792005
  0
LINE
  5
423
330
1F
100
AcDbEntity
  8
0
  6
Continuous
 62
     7
370
    40
100
AcDbLine
 10
136.3877462377
 20
47.4209945364
 30
0.0
 11
118.3565233174
 21
57.8301979621
 31
0.0
  0
ARC
  5
424
330
1F
100
AcDbEntity
  8
0
  6
Continuous
 62
     7
370
    40
100
AcDbCircle
 10
137.0948530189
 20
48.7857056213
 30
0.0
 40
1.537021907911771
100
AcDbArc
 50
242.6096722366
 51
297.3903277634
  0
LINE
  5
425
330
1F
100
AcDbEntity
  8
0
  6
Continuous
 62
     7
370
    40
100
AcDbLine
 10
140.2768335342
 20
48.849708732
 30
0.0
 11
137.8019598001
 21
47.4209945364
 31
0.0
  0
LWPOLYLINE
  5
426
330
1F
100
AcDbEntity
  8
0
  6
Continuous
 62
     7
370
    40
100
AcDbPolyline
 90
       24
 70
   128
 43
0.0
 10
163.0810272275
 20
36.2974340128
 10
162.5385358175
 20
36.5349210691
 10
161.9051713257
 20
36.6791082284
 10
161.2279074991
 20
36.7193017886
 10
160.5569738973
 20
36.6525207773
 10
159.9421305964
 20
36.4837180365
 10
159.4289777112
 20
36.2254128933
 10
159.0555734437
 20
35.8967626585
 10
158.8496114802
 20
35.5221418166
 10
158.8263670774
 20
35.1293342816
 10
158.9875641662
 20
34.7474727914
 10
159.321247496
 20
34.4048782658
 10
159.8026693007
 20
34.1269593736
 10
160.3961247275
 20
33.9343280876
 10
161.0575999022
 20
33.841270989
 10
161.7380362371
 20
33.8546896971
 10
162.3869688821
 20
33.9735890078
 10
162.9562694716
 20
34.1891507031
 10
163.4037155852
 20
34.4853875581
 10
163.6961221916
 20
34.8403290406
 10
163.8118028304
 20
35.2276507645
 10
163.742177998
 20
35.6186268495
 10
163.4924114496
 20
35.9842603879
 10
163.0810272275
 20
36.2974340128
  0
LWPOLYLINE
  5
427
330
1F
100
AcDbEntity
  8
0
  6
Continuous
 62
     7
370
    40
100
AcDbPolyline
 90
       24
 70
   128
 43
0.0
 10
147.1711246508
 20
45.4820252708
 10
146.6286332408
 20
45.7195123271
 10
145.995268749
 20
45.8636994864
 10
145.3180049224
 20
45.9038930466
 10
144.6470713206
 20
45.8371120353
 10
144.0322280197
 20
45.6683092945
 10
143.5190751345
 20
45.4100041513
 10
143.145670867
 20
45.0813539165
 10
142.9397089035
 20
44.7067330746
 10
142.9164645007
 20
44.3139255396
 10
143.0776615895
 20
43.9320640494
 10
143.4113449193
 20
43.5894695238
 10
143.892766724
 20
43.3115506316
 10
144.4862221508
 20
43.1189193456
 10
145.1476973255
 20
43.025862247
 10
145.8281336604
 20
43.0392809552
 10
146.4770663054
 20
43.1581802658
 10
147.0463668949
 20
43.3737419611
 10
147.4938130085
 20
43.6699788161
 10
147.7862196149
 20
44.0249202986
 10
147.9019002537
 20
44.4122420225
 10
147.8322754213
 20
44.8032181075
 10
147.5825088729
 20
45.1688516459
 10
147.1711246508
 20
45.4820252708
  0
LWPOLYLINE
  5
428
330
1F
100
AcDbEntity
  8
0
  6
Continuous
 62
     7
370
    40
100
AcDbPolyline
 90
       24
 70
   128
 43
0.0
 10
115.3513194974
 20
63.8512077868
 10
114.8088280874
 20
64.0886948432
 10
114.1754635956
 20
64.2328820024
 10
113.498199769
 20
64.2730755627
 10
112.8272661672
 20
64.2062945513
 10
112.2124228663
 20
64.0374918105
 10
111.6992699811
 20
63.7791866673
 10
111.3258657136
 20
63.4505364325
 10
111.1199037501
 20
63.0759155906
 10
111.0966593473
 20
62.6831080556
 10
111.2578564361
 20
62.3012465654
 10
111.5915397659
 20
61.9586520398
 10
112.0729615706
 20
61.6807331476
 10
112.6664169974
 20
61.4881018616
 10
113.3278921721
 20
61.395044763
 10
114.008328507
 20
61.4084634712
 10
114.657261152
 20
61.5273627818
 10
115.2265617415
 20
61.7429244771
 10
115.6740078551
 20
62.0391613321
 10
115.9664144615
 20
62.3941028146
 10
116.0820951003
 20
62.7814245385
 10
116.0124702679
 20
63.1724006235
 10
115.7627037195
 20
63.5380341619
 10
115.3513194974
 20
63.8512077868
  0
LWPOLYLINE
  5
429
330
1F
100
AcDbEntity
  8
0
  6
Continuous
 62
     7
370
    40
100
AcDbPolyline
 90
       24
 70
   128
 43
0.0
 10
83.531514344
 20
82.2203903028
 10
82.989022934
 20
82.4578773592
 10
82.3556584422
 20
82.6020645185
 10
81.6783946156
 20
82.6422580787
 10
81.0074610138
 20
82.5754770673
 10
80.3926177129
 20
82.4066743265
 10
79.8794648277
 20
82.1483691833
 10
79.5060605602
 20
81.8197189485
 10
79.3000985967
 20
81.4450981066
 10
79.2768541939
 20
81.0522905716
 10
79.4380512827
 20
80.6704290814
 10
79.7717346125
 20
80.3278345559
 10
80.2531564172
 20
80.0499156636
 10
80.846611844
 20
79.8572843776
 10
81.5080870187
 20
79.764227279
 10
82.1885233536
 20
79.7776459872
 10
82.8374559986
 20
79.8965452979
 10
83.4067565881
 20
80.1121069931
 10
83.8542027017
 20
80.4083438482
 10
84.1466093081
 20
80.7632853306
 10
84.2622899469
 20
81.1506070545
 10
84.1926651145
 20
81.5415831395
 10
83.9428985661
 20
81.9072166779
 10
83.531514344
 20
82.2203903028
  0
LWPOLYLINE
  5
42A
330
1F
100
AcDbEntity
  8
0
  6
Continuous
 62
     7
370
    40
100
AcDbPolyline
 90
       24
 70
   128
 43
0.0
 10
49.9439422376
 20
101.6100829586
 10
49.4014508276
 20
101.847570015
 10
48.7680863358
 20
101.9917571742
 10
48.0908225092
 20
102.0319507345
 10
47.4198889075
 20
101.9651697231
 10
46.8050456065
 20
101.7963669823
 10
46.2918927214
 20
101.5380618391
 10
45.9184884539
 20
101.2094116043
 10
45.7125264904
 20
100.8347907624
 10
45.6892820875
 20
100.4419832274
 10
45.8504791763
 20
100.0601217372
 10
46.1841625061
 20
99.7175272116
 10
46.6655843109
 20
99.4396083194
 10
47.2590397376
 20
99.2469770334
 10
47.9205149123
 20
99.1539199348
 10
48.6009512472
 20
99.167338643
 10
49.2498838922
 20
99.2862379536
 10
49.8191844817
 20
99.5017996489
 10
50.2666305953
 20
99.7980365039
 10
50.5590372017
 20
100.1529779864
 10
50.6747178406
 20
100.5402997103
 10
50.6050930082
 20
100.9312757953
 10
50.3553264598
 20
101.2969093337
 10
49.9439422376
 20
101.6100829586
  0
LWPOLYLINE
  5
42B
330
1F
100
AcDbEntity
  8
0
  6
Continuous
 62
     7
370
    40
100
AcDbPolyline
 90
       15
 70
   128
 43
0.0
 10
168.3739204463
 20
33.4398065713
 10
168.3510886348
 20
33.1379229353
 10
168.169475404
 20
32.5433282449
 10
167.8117671685
 20
31.9759725949
 10
167.288832712
 20
31.4530947994
 10
166.6165611334
 20
30.9905822358
 10
165.8153790644
 20
30.6024881143
 10
164.9096300167
 20
30.3006044784
 10
163.9268347169
 20
30.0941039095
 10
162.8968549028
 20
29.989260823
 10
161.8509859898
 20
29.989260823
 10
160.8210061757
 20
30.0941039095
 10
159.8382108759
 20
30.3006044784
 10
158.9324618282
 20
30.6024881143
 10
158.1312797592
 20
30.9905822358
  0
LINE
  5
42C
330
1F
100
AcDbEntity
  8
0
  6
Continuous
 62
     7
370
    40
100
AcDbLine
 10
105.4518245608
 20
61.4017844012
 30
0.0
 11
105.4518245608
 21
62.6265956191
 31
0.0
  0
LINE
  5
42D
330
1F
100
AcDbEntity
  8
0
  6
Continuous
 62
     7
370
    40
100
AcDbLine
 10
158.1312797592
 20
30.9905822358
 30
0.0
 11
105.4518245608
 21
61.4017844012
 31
0.0
  0
LWPOLYLINE
  5
42E
330
1F
100
AcDbEntity
  8
0
  6
Continuous
 62
     7
370
    40
100
AcDbPolyline
 90
       10
 70
   128
 43
0.0
 10
163.0810272275
 20
36.174952891
 10
162.5385358175
 20
36.4124399474
 10
161.9051713257
 20
36.5566271066
 10
161.2279074991
 20
36.5968206669
 10
160.5569738973
 20
36.5300396555
 10
159.9421305964
 20
36.3612369147
 10
159.4289777112
 20
36.1029317715
 10
159.0555734437
 20
35.7742815367
 10
158.8496114802
 20
35.3996606948
 10
158.8155120201
 20
35.2156833121
  0
ARC
  5
42F
330
1F
100
AcDbEntity
  8
0
  6
Continuous
 62
     7
370
    40
100
AcDbCircle
 10
162.5565603531
 20
35.0184621102
 30
0.0
 40
1.26985685347818
100
AcDbArc
 50
8.9347635213
 51
65.6057776659
  0
LWPOLYLINE
  5
430
330
1F
100
AcDbEntity
  8
0
  6
Continuous
 62
     7
370
    40
100
AcDbPolyline
 90
       14
 70
   128
 43
0.0
 10
159.5524758104
 20
34.2523986876
 10
159.4366524274
 20
34.4929336447
 10
159.4366524274
 20
34.8361028835
 10
159.6203478786
 20
35.1624762242
 10
159.9697573903
 20
35.4401059703
 10
160.450678325
 20
35.6418157879
 10
161.0160347909
 20
35.7478609146
 10
161.6104857581
 20
35.7478609146
 10
162.175842224
 20
35.6418157879
 10
162.6567631588
 20
35.4401059703
 10
163.0061726705
 20
35.1624762242
 10
163.1898681216
 20
34.8361028835
 10
163.1898681216
 20
34.4929336447
 10
163.0740447387
 20
34.2523986876
  0
ARC
  5
431
330
1F
100
AcDbEntity
  8
0
  6
Continuous
 62
     7
370
    40
100
AcDbCircle
 10
161.3132602745
 20
31.7346181411
 30
0.0
 40
3.894544464813642
100
AcDbArc
 50
66.9208252168
 51
113.079174779
  0
ARC
  5
432
330
1F
100
AcDbEntity
  8
0
  6
Continuous
 62
     7
370
    40
100
AcDbCircle
 10
161.3132602745
 20
31.7305155268
 30
0.0
 40
3.781123704570315
100
AcDbArc
 50
62.2459185425
 51
117.7540814548
  0
LWPOLYLINE
  5
433
330
1F
100
AcDbEntity
  8
0
  6
Continuous
 62
     7
370
    40
100
AcDbPolyline
 90
       10
 70
   128
 43
0.0
 10
147.1711246508
 20
45.359544149
 10
146.6286332408
 20
45.5970312054
 10
145.995268749
 20
45.7412183647
 10
145.3180049224
 20
45.7814119249
 10
144.6470713206
 20
45.7146309135
 10
144.0322280197
 20
45.5458281727
 10
143.5190751345
 20
45.2875230295
 10
143.145670867
 20
44.9588727947
 10
142.9397089035
 20
44.5842519528
 10
142.9056094434
 20
44.4002745701
  0
ARC
  5
434
330
1F
100
AcDbEntity
  8
0
  6
Continuous
 62
     7
370
    40
100
AcDbCircle
 10
146.6466577764
 20
44.2030533682
 30
0.0
 40
1.269856853491607
100
AcDbArc
 50
8.9347635232
 51
65.6057776657
  0
LWPOLYLINE
  5
435
330
1F
100
AcDbEntity
  8
0
  6
Continuous
 62
     7
370
    40
100
AcDbPolyline
 90
       14
 70
   128
 43
0.0
 10
143.6425732339
 20
43.4369899453
 10
143.5267498507
 20
43.6775249027
 10
143.5267498507
 20
44.0206941415
 10
143.7104453019
 20
44.3470674822
 10
144.0598548136
 20
44.6246972283
 10
144.5407757483
 20
44.8264070459
 10
145.1061322142
 20
44.9324521726
 10
145.7005831814
 20
44.9324521726
 10
146.2659396473
 20
44.8264070459
 10
146.7468605821
 20
44.6246972283
 10
147.0962700938
 20
44.3470674822
 10
147.2799655449
 20
44.0206941415
 10
147.2799655449
 20
43.6775249027
 10
147.1641421618
 20
43.4369899453
  0
ARC
  5
436
330
1F
100
AcDbEntity
  8
0
  6
Continuous
 62
     7
370
    40
100
AcDbCircle
 10
145.4033576978
 20
40.9192093982
 30
0.0
 40
3.894544465651113
100
AcDbArc
 50
66.920825255
 51
113.0791747444
  0
ARC
  5
437
330
1F
100
AcDbEntity
  8
0
  6
Continuous
 62
     7
370
    40
100
AcDbCircle
 10
145.4033576978
 20
40.9151067843
 30
0.0
 40
3.781123705093869
100
AcDbArc
 50
62.2459185641
 51
117.7540814356
  0
LINE
  5
438
330
1F
100
AcDbEntity
  8
0
  6
Continuous
 62
     7
370
    40
100
AcDbLine
 10
122.245610614
 20
58.8505090518
 30
0.0
 11
139.9231077425
 21
48.645507179
 31
0.0
  0
LINE
  5
439
330
1F
100
AcDbEntity
  8
0
  6
Continuous
 62
     7
370
    40
100
AcDbLine
 10
118.7102491091
 20
57.6259964091
 30
0.0
 11
120.8313970516
 21
58.8505090518
 31
0.0
  0
ARC
  5
43A
330
1F
100
AcDbEntity
  8
0
  6
Continuous
 62
     7
370
    40
100
AcDbCircle
 10
121.5385038328
 20
57.4857979668
 30
0.0
 40
1.537021907911696
100
AcDbArc
 50
62.6096722366
 51
117.3903277634
  0
LWPOLYLINE
  5
43B
330
1F
100
AcDbEntity
  8
0
  6
Continuous
 62
     7
370
    40
100
AcDbPolyline
 90
       10
 70
   128
 43
0.0
 10
115.3513194974
 20
63.728726665
 10
114.8088280874
 20
63.9662137214
 10
114.1754635956
 20
64.1104008807
 10
113.498199769
 20
64.1505944409
 10
112.8272661672
 20
64.0838134295
 10
112.2124228663
 20
63.9150106887
 10
111.6992699811
 20
63.6567055455
 10
111.3258657136
 20
63.3280553107
 10
111.1199037501
 20
62.9534344688
 10
111.08580429
 20
62.7694570861
  0
ARC
  5
43C
330
1F
100
AcDbEntity
  8
0
  6
Continuous
 62
     7
370
    40
100
AcDbCircle
 10
114.826852623
 20
62.5722358842
 30
0.0
 40
1.269856853489856
100
AcDbArc
 50
8.934763523
 51
65.6057776657
  0
LWPOLYLINE
  5
43D
330
1F
100
AcDbEntity
  8
0
  6
Continuous
 62
     7
370
    40
100
AcDbPolyline
 90
       14
 70
   128
 43
0.0
 10
111.8227680805
 20
61.8061724612
 10
111.7069446973
 20
62.0467074187
 10
111.7069446973
 20
62.3898766575
 10
111.8906401485
 20
62.7162499982
 10
112.2400496602
 20
62.9938797443
 10
112.7209705949
 20
63.1955895619
 10
113.2863270608
 20
63.3016346886
 10
113.880778028
 20
63.3016346886
 10
114.4461344939
 20
63.1955895619
 10
114.9270554287
 20
62.9938797443
 10
115.2764649404
 20
62.7162499982
 10
115.4601603916
 20
62.3898766575
 10
115.4601603916
 20
62.0467074187
 10
115.3443370083
 20
61.8061724612
  0
LINE
  5
43E
330
1F
100
AcDbEntity
  8
0
  6
Continuous
 62
     7
370
    40
100
AcDbLine
 10
102.623397436
 20
59.7689681776
 30
0.0
 11
102.623397436
 21
60.9937793954
 31
0.0
  0
LINE
  5
43F
330
1F
100
AcDbEntity
  8
0
  6
Continuous
 62
     7
370
    40
100
AcDbLine
 10
105.4518245608
 20
61.4017844012
 30
0.0
 11
102.623397436
 21
59.7689681776
 31
0.0
  0
LINE
  5
440
330
1F
100
AcDbEntity
  8
0
  6
Continuous
 62
     7
370
    40
100
AcDbLine
 10
44.6406413787
 20
93.2417007623
 30
0.0
 11
44.6406413787
 21
94.4665119801
 31
0.0
  0
LINE
  5
441
330
1F
100
AcDbEntity
  8
0
  6
Continuous
 62
     7
370
    40
100
AcDbLine
 10
102.623397436
 20
59.7689681776
 30
0.0
 11
44.6406413787
 21
93.2417007623
 31
0.0
  0
ARC
  5
442
330
1F
100
AcDbEntity
  8
0
  6
Continuous
 62
     7
370
    40
100
AcDbCircle
 10
113.5835525444
 20
59.2883919141
 30
0.0
 40
3.894544465741338
100
AcDbArc
 50
66.9208252593
 51
113.0791747407
  0
ARC
  5
443
330
1F
100
AcDbEntity
  8
0
  6
Continuous
 62
     7
370
    40
100
AcDbCircle
 10
113.5835525444
 20
59.2842893002
 30
0.0
 40
3.781123705154928
100
AcDbArc
 50
62.2459185666
 51
117.7540814334
  0
LINE
  5
444
330
1F
100
AcDbEntity
  8
0
  6
Continuous
 62
     7
370
    40
100
AcDbLine
 10
93.4310092806
 20
75.6889263581
 30
0.0
 11
109.3407394562
 21
66.5044346252
 31
0.0
  0
LINE
  5
445
330
1F
100
AcDbEntity
  8
0
  6
Continuous
 62
     7
370
    40
100
AcDbLine
 10
89.5420943852
 20
74.2603116875
 30
0.0
 11
92.0167957182
 21
75.6889263581
 31
0.0
  0
ARC
  5
446
330
1F
100
AcDbEntity
  8
0
  6
Continuous
 62
     7
370
    40
100
AcDbCircle
 10
92.7239024994
 20
74.3242152732
 30
0.0
 40
1.537021907911557
100
AcDbArc
 50
62.6096722366
 51
117.3903277634
  0
LWPOLYLINE
  5
447
330
1F
100
AcDbEntity
  8
0
  6
Continuous
 62
     7
370
    40
100
AcDbPolyline
 90
       10
 70
   128
 43
0.0
 10
83.531514344
 20
82.097909181
 10
82.989022934
 20
82.3353962374
 10
82.3556584422
 20
82.4795833967
 10
81.6783946156
 20
82.5197769569
 10
81.0074610138
 20
82.4529959455
 10
80.3926177129
 20
82.2841932047
 10
79.8794648277
 20
82.0258880615
 10
79.5060605602
 20
81.6972378267
 10
79.3000985967
 20
81.3226169848
 10
79.2659991366
 20
81.1386396021
  0
ARC
  5
448
330
1F
100
AcDbEntity
  8
0
  6
Continuous
 62
     7
370
    40
100
AcDbCircle
 10
83.0070474696
 20
80.9414184002
 30
0.0
 40
1.269856853484334
100
AcDbArc
 50
8.9347635222
 51
65.6057776658
  0
LWPOLYLINE
  5
449
330
1F
100
AcDbEntity
  8
0
  6
Continuous
 62
     7
370
    40
100
AcDbPolyline
 90
       14
 70
   128
 43
0.0
 10
80.0029629271
 20
80.1753549773
 10
79.8871395439
 20
80.4158899347
 10
79.8871395439
 20
80.7590591735
 10
80.0708349951
 20
81.0854325142
 10
80.4202445068
 20
81.3630622603
 10
80.9011654415
 20
81.5647720779
 10
81.4665219075
 20
81.6708172047
 10
82.0609728746
 20
81.6708172047
 10
82.6263293405
 20
81.5647720779
 10
83.1072502753
 20
81.3630622603
 10
83.456659787
 20
81.0854325142
 10
83.6403552382
 20
80.7590591735
 10
83.6403552382
 20
80.4158899347
 10
83.524531855
 20
80.1753549773
  0
ARC
  5
44A
330
1F
100
AcDbEntity
  8
0
  6
Continuous
 62
     7
370
    40
100
AcDbCircle
 10
81.763747391
 20
77.6575744301
 30
0.0
 40
3.894544465784735
100
AcDbArc
 50
66.920825261
 51
113.0791747386
  0
ARC
  5
44B
330
1F
100
AcDbEntity
  8
0
  6
Continuous
 62
     7
370
    40
100
AcDbCircle
 10
81.763747391
 20
77.6534718162
 30
0.0
 40
3.781123705149991
100
AcDbArc
 50
62.2459185664
 51
117.7540814336
  0
LINE
  5
44C
330
1F
100
AcDbEntity
  8
0
  6
Continuous
 62
     7
370
    40
100
AcDbLine
 10
46.4082359306
 20
95.4869225949
 30
0.0
 11
42.8728744258
 21
97.5278433494
 31
0.0
  0
LWPOLYLINE
  5
44D
330
1F
100
AcDbEntity
  8
0
  6
Continuous
 62
     7
370
    40
100
AcDbPolyline
 90
       10
 70
   128
 43
0.0
 10
49.9439422376
 20
101.4876018368
 10
49.4014508276
 20
101.7250888932
 10
48.7680863358
 20
101.8692760525
 10
48.0908225092
 20
101.9094696127
 10
47.4198889075
 20
101.8426886013
 10
46.8050456065
 20
101.6738858605
 10
46.2918927214
 20
101.4155807173
 10
45.9184884539
 20
101.0869304825
 10
45.7125264904
 20
100.7123096406
 10
45.6784270302
 20
100.528332258
  0
ARC
  5
44E
330
1F
100
AcDbEntity
  8
0
  6
Continuous
 62
     7
370
    40
100
AcDbCircle
 10
49.4194753632
 20
100.331111056
 30
0.0
 40
1.269856853506204
100
AcDbArc
 50
8.9347635252
 51
65.6057776655
  0
LWPOLYLINE
  5
44F
330
1F
100
AcDbEntity
  8
0
  6
Continuous
 62
     7
370
    40
100
AcDbPolyline
 90
       14
 70
   128
 43
0.0
 10
46.4153908199
 20
99.5650476343
 10
46.2995674375
 20
99.8055825905
 10
46.2995674375
 20
100.1487518293
 10
46.4832628887
 20
100.47512517
 10
46.8326724004
 20
100.7527549161
 10
47.3135933352
 20
100.9544647337
 10
47.8789498011
 20
101.0605098604
 10
48.4734007682
 20
101.0605098604
 10
49.0387572342
 20
100.9544647337
 10
49.5196781689
 20
100.7527549161
 10
49.8690876806
 20
100.47512517
 10
50.0527831318
 20
100.1487518293
 10
50.0527831318
 20
99.8055825905
 10
49.9369597494
 20
99.5650476341
  0
ARC
  5
450
330
1F
100
AcDbEntity
  8
0
  6
Continuous
 62
     7
370
    40
100
AcDbCircle
 10
44.0421725974
 20
100.2219137683
 30
0.0
 40
2.936881617686614
100
AcDbArc
 50
184.7822660226
 51
246.537874935
  0
ARC
  5
451
330
1F
100
AcDbEntity
  8
0
  6
Continuous
 62
     7
370
    40
100
AcDbCircle
 10
48.1761752847
 20
97.0472670887
 30
0.0
 40
3.894544463056692
100
AcDbArc
 50
66.9208251465
 51
113.0791748642
  0
ARC
  5
452
330
1F
100
AcDbEntity
  8
0
  6
Continuous
 62
     7
370
    40
100
AcDbCircle
 10
48.1761752847
 20
97.0431644732
 30
0.0
 40
3.781123703990201
100
AcDbArc
 50
62.245918523
 51
117.7540814816
  0
LINE
  5
453
330
1F
100
AcDbEntity
  8
0
  6
Continuous
 62
     8
370
     0
100
AcDbLine
 10
158.1312797592
 20
30.9905822358
 30
0.0
 11
158.1312797592
 21
32.2153934537
 31
0.0
  0
LINE
  5
454
330
1F
100
AcDbEntity
  8
0
  6
Continuous
 62
     8
370
     0
100
AcDbLine
 10
140.2768335342
 20
48.849708732
 30
0.0
 11
140.2768335342
 21
49.6661168439
 31
0.0
  0
LINE
  5
455
330
1F
100
AcDbEntity
  8
0
  6
Continuous
 62
     8
370
     0
100
AcDbLine
 10
122.245610614
 20
60.0753202696
 30
0.0
 11
122.245610614
 21
58.8505090518
 31
0.0
  0
LINE
  5
456
330
1F
100
AcDbEntity
  8
0
  6
Continuous
 62
     8
370
     0
100
AcDbLine
 10
118.3565233174
 20
58.6466060739
 30
0.0
 11
118.3565233174
 21
57.8301979621
 31
0.0
  0
LINE
  5
457
330
1F
100
AcDbEntity
  8
0
  6
Continuous
 62
     8
370
     0
100
AcDbLine
 10
120.8313970516
 20
58.8505090518
 30
0.0
 11
120.8313970516
 21
60.0753202696
 31
0.0
  0
LINE
  5
458
330
1F
100
AcDbEntity
  8
0
  6
Continuous
 62
     8
370
     0
100
AcDbLine
 10
109.6944652479
 20
66.7086361782
 30
0.0
 11
109.6944652479
 21
67.52504429
 31
0.0
  0
LINE
  5
459
330
1F
100
AcDbEntity
  8
0
  6
Continuous
 62
     8
370
     0
100
AcDbLine
 10
93.4310092806
 20
76.9137375759
 30
0.0
 11
93.4310092806
 21
75.6889263581
 31
0.0
  0
LINE
  5
45A
330
1F
100
AcDbEntity
  8
0
  6
Continuous
 62
     8
370
     0
100
AcDbLine
 10
89.1883685935
 20
75.2809213523
 30
0.0
 11
89.1883685935
 21
74.4645132405
 31
0.0
  0
LINE
  5
45B
330
1F
100
AcDbEntity
  8
0
  6
Continuous
 62
     8
370
     0
100
AcDbLine
 10
92.0167957182
 20
75.6889263581
 30
0.0
 11
92.0167957182
 21
76.9137375759
 31
0.0
  0
LINE
  5
45C
330
1F
100
AcDbEntity
  8
0
  6
Continuous
 62
     8
370
     0
100
AcDbLine
 10
42.8728744258
 20
97.5278433494
 30
0.0
 11
42.8728744258
 21
98.7526545672
 31
0.0
  0
MTEXT
  5
45D
330
1F
100
AcDbEntity
  8
0
  6
Continuous
 62
     7
370
     0
100
AcDbMText
 10
104.2461902042
 20
90.5590811662
 30
0.0
 40
3.5
 41
0.0
 71
     1
 72
     1
  1
1:2
  7
SLDTEXTSTYLE0
 73
     1
 44
1.0
  0
ENDSEC
  0
SECTION
  2
OBJECTS
  0
DICTIONARY
  5
C
330
0
100
AcDbDictionary
281
     1
  3
ACAD_GROUP
350
D
  3
ACAD_LAYOUT
350
1A
  3
ACAD_MLINESTYLE
350
17
  3
ACAD_PLOTSETTINGS
350
19
  3
ACAD_PLOTSTYLENAME
350
E
  3
ACAD_SCALELIST
350
47
  0
DICTIONARY
  5
D
102
{ACAD_REACTORS
330
C
102
}
330
C
100
AcDbDictionary
281
     1
  0
DICTIONARY
  5
1A
102
{ACAD_REACTORS
330
C
102
}
330
C
100
AcDbDictionary
281
     1
  3
Layout1
350
1E
  3
Layout2
350
26
  3
Model
350
22
  0
DICTIONARY
  5
17
102
{ACAD_REACTORS
330
C
102
}
330
C
100
AcDbDictionary
281
     1
  3
Standard
350
18
  0
DICTIONARY
  5
19
102
{ACAD_REACTORS
330
C
102
}
330
C
100
AcDbDictionary
281
     1
  0
ACDBDICTIONARYWDFLT
  5
E
102
{ACAD_REACTORS
330
C
102
}
330
C
100
AcDbDictionary
281
     1
  3
Normal
350
F
100
AcDbDictionaryWithDefault
340
F
  0
DICTIONARY
  5
47
102
{ACAD_REACTORS
330
C
102
}
330
C
100
AcDbDictionary
281
     1
  3
A0
350
48
  3
A1
350
49
  3
A2
350
4A
  3
A3
350
4B
  3
A4
350
4C
  3
A5
350
4D
  3
A6
350
4E
  3
A7
350
4F
  3
A8
350
50
  3
A9
350
51
  3
B0
350
52
  3
B1
350
53
  3
B2
350
54
  3
B3
350
55
  3
B4
350
56
  3
B5
350
57
  3
B6
350
58
  3
B7
350
59
  3
B8
350
5A
  3
B9
350
5B
  3
C0
350
5C
  3
C1
350
5D
  3
C2
350
5E
  3
C3
350
5F
  3
C4
350
60
  3
C5
350
61
  3
C6
350
62
  3
C7
350
63
  3
C8
350
64
  3
C9
350
65
  3
D0
350
66
  3
D1
350
67
  3
D2
350
68
  0
LAYOUT
  5
1E
102
{ACAD_REACTORS
330
1A
102
}
330
1A
100
AcDbPlotSettings
  1

  2
none_device
  4

  6

 40
0.0
 41
0.0
 42
0.0
 43
0.0
 44
0.0
 45
0.0
 46
0.0
 47
0.0
 48
0.0
 49
0.0
140
0.0
141
0.0
142
1.0
143
1.0
 70
   688
 72
     1
 73
     0
 74
     5
  7

 75
    16
147
1.0
148
0.0
149
0.0
100
AcDbLayout
  1
Layout1
 70
     1
 71
     1
 10
0.0
 20
0.0
 11
420.0
 21
297.0
 12
0.0
 22
0.0
 32
0.0
 14
1.0000000000E+20
 24
1.0000000000E+20
 34
1.0000000000E+20
 15
-1.0000000000E+20
 25
-1.0000000000E+20
 35
-1.0000000000E+20
146
0.0
 13
0.0
 23
0.0
 33
0.0
 16
1.0
 26
0.0
 36
0.0
 17
0.0
 27
1.0
 37
0.0
 76
     0
330
1B
  0
LAYOUT
  5
26
102
{ACAD_REACTORS
330
1A
102
}
330
1A
100
AcDbPlotSettings
  1

  2
none_device
  4

  6

 40
0.0
 41
0.0
 42
0.0
 43
0.0
 44
0.0
 45
0.0
 46
0.0
 47
0.0
 48
0.0
 49
0.0
140
0.0
141
0.0
142
1.0
143
1.0
 70
   688
 72
     1
 73
     0
 74
     5
  7

 75
    16
147
1.0
148
0.0
149
0.0
100
AcDbLayout
  1
Layout2
 70
     1
 71
     2
 10
0.0
 20
0.0
 11
0.0
 21
0.0
 12
0.0
 22
0.0
 32
0.0
 14
0.0
 24
0.0
 34
0.0
 15
0.0
 25
0.0
 35
0.0
146
0.0
 13
0.0
 23
0.0
 33
0.0
 16
1.0
 26
0.0
 36
0.0
 17
0.0
 27
1.0
 37
0.0
 76
     0
330
23
  0
LAYOUT
  5
22
102
{ACAD_REACTORS
330
1A
102
}
330
1A
100
AcDbPlotSettings
  1

  2
none_device
  4
Letter_(8.50_x_11.00_Inches)
  6

 40
6.35
 41
6.35
 42
6.35000508
 43
6.35000508
 44
215.9
 45
279.4
 46
0.0
 47
0.0
 48
0.0
 49
0.0
140
0.0
141
0.0
142
1.0
143
1.0
 70
  1712
 72
     1
 73
     0
 74
     0
  7

 75
     0
147
1.0
148
0.0
149
0.0
100
AcDbLayout
  1
Model
 70
     1
 71
     0
 10
0.0
 20
0.0
 11
594.0
 21
420.0
 12
0.0
 22
0.0
 32
0.0
 14
0.0
 24
0.0
 34
0.0
 15
594.0
 25
420.0
 35
0.0
146
0.0
 13
0.0
 23
0.0
 33
0.0
 16
1.0
 26
0.0
 36
0.0
 17
0.0
 27
1.0
 37
0.0
 76
     0
330
1F
331
29
  0
MLINESTYLE
  5
18
102
{ACAD_REACTORS
330
17
102
}
330
17
100
AcDbMlineStyle
  2
Standard
 70
     0
  3

 62
   256
 51
90.0
 52
90.0
 71
     2
 49
0.5
 62
   256
  6
BYLAYER
 49
-0.5
 62
   256
  6
BYLAYER
  0
ACDBPLACEHOLDER
  5
F
102
{ACAD_REACTORS
330
E
102
}
330
E
  0
SCALE
  5
48
102
{ACAD_REACTORS
330
47
102
}
330
47
100
AcDbScale
 70
     0
300
1:1
140
1.0
141
1.0
290
     1
  0
SCALE
  5
49
102
{ACAD_REACTORS
330
47
102
}
330
47
100
AcDbScale
 70
     0
300
1:2
140
1.0
141
2.0
290
     0
  0
SCALE
  5
4A
102
{ACAD_REACTORS
330
47
102
}
330
47
100
AcDbScale
 70
     0
300
1:4
140
1.0
141
4.0
290
     0
  0
SCALE
  5
4B
102
{ACAD_REACTORS
330
47
102
}
330
47
100
AcDbScale
 70
     0
300
1:5
140
1.0
141
5.0
290
     0
  0
SCALE
  5
4C
102
{ACAD_REACTORS
330
47
102
}
330
47
100
AcDbScale
 70
     0
300
1:8
140
1.0
141
8.0
290
     0
  0
SCALE
  5
4D
102
{ACAD_REACTORS
330
47
102
}
330
47
100
AcDbScale
 70
     0
300
1:10
140
1.0
141
10.0
290
     0
  0
SCALE
  5
4E
102
{ACAD_REACTORS
330
47
102
}
330
47
100
AcDbScale
 70
     0
300
1:16
140
1.0
141
16.0
290
     0
  0
SCALE
  5
4F
102
{ACAD_REACTORS
330
47
102
}
330
47
100
AcDbScale
 70
     0
300
1:20
140
1.0
141
20.0
290
     0
  0
SCALE
  5
50
102
{ACAD_REACTORS
330
47
102
}
330
47
100
AcDbScale
 70
     0
300
1:30
140
1.0
141
30.0
290
     0
  0
SCALE
  5
51
102
{ACAD_REACTORS
330
47
102
}
330
47
100
AcDbScale
 70
     0
300
1:40
140
1.0
141
40.0
290
     0
  0
SCALE
  5
52
102
{ACAD_REACTORS
330
47
102
}
330
47
100
AcDbScale
 70
     0
300
1:50
140
1.0
141
50.0
290
     0
  0
SCALE
  5
53
102
{ACAD_REACTORS
330
47
102
}
330
47
100
AcDbScale
 70
     0
300
1:100
140
1.0
141
100.0
290
     0
  0
SCALE
  5
54
102
{ACAD_REACTORS
330
47
102
}
330
47
100
AcDbScale
 70
     0
300
2:1
140
2.0
141
1.0
290
     0
  0
SCALE
  5
55
102
{ACAD_REACTORS
330
47
102
}
330
47
100
AcDbScale
 70
     0
300
4:1
140
4.0
141
1.0
290
     0
  0
SCALE
  5
56
102
{ACAD_REACTORS
330
47
102
}
330
47
100
AcDbScale
 70
     0
300
8:1
140
8.0
141
1.0
290
     0
  0
SCALE
  5
57
102
{ACAD_REACTORS
330
47
102
}
330
47
100
AcDbScale
 70
     0
300
10:1
140
10.0
141
1.0
290
     0
  0
SCALE
  5
58
102
{ACAD_REACTORS
330
47
102
}
330
47
100
AcDbScale
 70
     0
300
100:1
140
100.0
141
1.0
290
     0
  0
SCALE
  5
59
102
{ACAD_REACTORS
330
47
102
}
330
47
100
AcDbScale
 70
     0
300
1/128" = 1'-0"
140
0.0078125
141
12.0
290
     0
  0
SCALE
  5
5A
102
{ACAD_REACTORS
330
47
102
}
330
47
100
AcDbScale
 70
     0
300
1/64" = 1'-0"
140
0.015625
141
12.0
290
     0
  0
SCALE
  5
5B
102
{ACAD_REACTORS
330
47
102
}
330
47
100
AcDbScale
 70
     0
300
1/32" = 1'-0"
140
0.03125
141
12.0
290
     0
  0
SCALE
  5
5C
102
{ACAD_REACTORS
330
47
102
}
330
47
100
AcDbScale
 70
     0
300
1/16" = 1'-0"
140
0.0625
141
12.0
290
     0
  0
SCALE
  5
5D
102
{ACAD_REACTORS
330
47
102
}
330
47
100
AcDbScale
 70
     0
300
3/32" = 1'-0"
140
0.09375
141
12.0
290
     0
  0
SCALE
  5
5E
102
{ACAD_REACTORS
330
47
102
}
330
47
100
AcDbScale
 70
     0
300
1/8" = 1'-0"
140
0.125
141
12.0
290
     0
  0
SCALE
  5
5F
102
{ACAD_REACTORS
330
47
102
}
330
47
100
AcDbScale
 70
     0
300
3/16" = 1'-0"
140
0.1875
141
12.0
290
     0
  0
SCALE
  5
60
102
{ACAD_REACTORS
330
47
102
}
330
47
100
AcDbScale
 70
     0
300
1/4" = 1'-0"
140
0.25
141
12.0
290
     0
  0
SCALE
  5
61
102
{ACAD_REACTORS
330
47
102
}
330
47
100
AcDbScale
 70
     0
300
3/8" = 1'-0"
140
0.375
141
12.0
290
     0
  0
SCALE
  5
62
102
{ACAD_REACTORS
330
47
102
}
330
47
100
AcDbScale
 70
     0
300
1/2" = 1'-0"
140
0.5
141
12.0
290
     0
  0
SCALE
  5
63
102
{ACAD_REACTORS
330
47
102
}
330
47
100
AcDbScale
 70
     0
300
3/4" = 1'-0"
140
0.75
141
12.0
290
     0
  0
SCALE
  5
64
102
{ACAD_REACTORS
330
47
102
}
330
47
100
AcDbScale
 70
     0
300
1" = 1'-0"
140
1.0
141
12.0
290
     0
  0
SCALE
  5
65
102
{ACAD_REACTORS
330
47
102
}
330
47
100
AcDbScale
 70
     0
300
1-1/2" = 1'-0"
140
1.5
141
12.0
290
     0
  0
SCALE
  5
66
102
{ACAD_REACTORS
330
47
102
}
330
47
100
AcDbScale
 70
     0
300
3" = 1'-0"
140
3.0
141
12.0
290
     0
  0
SCALE
  5
67
102
{ACAD_REACTORS
330
47
102
}
330
47
100
AcDbScale
 70
     0
300
6" = 1'-0"
140
6.0
141
12.0
290
     0
  0
SCALE
  5
68
102
{ACAD_REACTORS
330
47
102
}
330
47
100
AcDbScale
 70
     0
300
1'-0" = 1'-0"
140
12.0
141
12.0
290
     0
  0
ENDSEC
  0
EOF
