  0
SECTION
  2
HEADER
  9
$ACADVER
  1
AC1015
  9
$ACADMAINTVER
 70
     6
  9
$DWGCODEPAGE
  3
ANSI_1252
  9
$INSBASE
 10
0.0
 20
0.0
 30
0.0
  9
$EXTMIN
 10
0.0
 20
0.0
 30
0.0
  9
$EXTMAX
 10
420.0
 20
297.0
 30
0.0
  9
$LIMMIN
 10
0.0
 20
0.0
  9
$LIMMAX
 10
420.0
 20
297.0
  9
$ORTHOMODE
 70
     0
  9
$REGENMODE
 70
     1
  9
$FILLMODE
 70
     1
  9
$QTEXTMODE
 70
     0
  9
$MIRRTEXT
 70
     1
  9
$LTSCALE
 40
1.0
  9
$ATTMODE
 70
     1
  9
$TEXTSIZE
 40
3.5
  9
$TRACEWID
 40
1.0
  9
$TEXTSTYLE
  7
Standard
  9
$CLAYER
  8
0
  9
$CELTYPE
  6
ByLayer
  9
$CECOLOR
 62
   256
  9
$CELTSCALE
 40
1.0
  9
$DISPSILH
 70
     0
  9
$DIMSCALE
 40
1.0
  9
$DIMASZ
 40
3.3
  9
$DIMEXO
 40
0.0
  9
$DIMDLI
 40
3.75
  9
$DIMRND
 40
0.0
  9
$DIMDLE
 40
0.0
  9
$DIMEXE
 40
1.0
  9
$DIMTP
 40
0.0
  9
$DIMTM
 40
0.0
  9
$DIMTXT
 40
3.5
  9
$DIMCEN
 40
2.5
  9
$DIMTSZ
 40
0.0
  9
$DIMTOL
 70
     0
  9
$DIMLIM
 70
     0
  9
$DIMTIH
 70
     1
  9
$DIMTOH
 70
     1
  9
$DIMSE1
 70
     0
  9
$DIMSE2
 70
     0
  9
$DIMTAD
 70
     1
  9
$DIMZIN
 70
     0
  9
$DIMBLK
  1

  9
$DIMASO
 70
     1
  9
$DIMSHO
 70
     1
  9
$DIMPOST
  1

  9
$DIMAPOST
  1

  9
$DIMALT
 70
     0
  9
$DIMALTD
 70
     3
  9
$DIMALTF
 40
0.0393700787
  9
$DIMLFAC
 40
1.0
  9
$DIMTOFL
 70
     1
  9
$DIMTVP
 40
0.0
  9
$DIMTIX
 70
     0
  9
$DIMSOXD
 70
     0
  9
$DIMSAH
 70
     0
  9
$DIMBLK1
  1

  9
$DIMBLK2
  1

  9
$DIMSTYLE
  2
ISO-25
  9
$DIMCLRD
 70
     0
  9
$DIMCLRE
 70
     0
  9
$DIMCLRT
 70
     0
  9
$DIMTFAC
 40
1.0
  9
$DIMGAP
 40
1.524
  9
$DIMJUST
 70
     0
  9
$DIMSD1
 70
     0
  9
$DIMSD2
 70
     0
  9
$DIMTOLJ
 70
     0
  9
$DIMTZIN
 70
     0
  9
$DIMALTZ
 70
     0
  9
$DIMALTTZ
 70
     0
  9
$DIMUPT
 70
     0
  9
$DIMDEC
 70
     2
  9
$DIMTDEC
 70
     2
  9
$DIMALTU
 70
     2
  9
$DIMALTTD
 70
     3
  9
$DIMTXSTY
  7
Standard
  9
$DIMAUNIT
 70
     0
  9
$DIMADEC
 70
     2
  9
$DIMALTRND
 40
0.0
  9
$DIMAZIN
 70
     0
  9
$DIMDSEP
 70
    44
  9
$DIMATFIT
 70
     3
  9
$DIMFRAC
 70
     0
  9
$DIMLDRBLK
  1

  9
$DIMLUNIT
 70
     2
  9
$DIMLWD
 70
    -2
  9
$DIMLWE
 70
    -2
  9
$DIMTMOVE
 70
     0
  9
$LUNITS
 70
     2
  9
$LUPREC
 70
     2
  9
$SKETCHINC
 40
1.0
  9
$FILLETRAD
 40
10.0
  9
$AUNITS
 70
     0
  9
$AUPREC
 70
     2
  9
$MENU
  1
.
  9
$ELEVATION
 40
0.0
  9
$PELEVATION
 40
0.0
  9
$THICKNESS
 40
0.0
  9
$LIMCHECK
 70
     0
  9
$CHAMFERA
 40
10.0
  9
$CHAMFERB
 40
10.0
  9
$CHAMFERC
 40
20.0
  9
$CHAMFERD
 40
0.0
  9
$SKPOLY
 70
     0
  9
$TDCREATE
 40
2456133.611052245
  9
$TDUCREATE
 40
2456133.527718912
  9
$TDUPDATE
 40
2456133.611052257
  9
$TDUUPDATE
 40
2456133.527718924
  9
$TDINDWG
 40
0.0000000116
  9
$TDUSRTIMER
 40
0.0000000116
  9
$USRTIMER
 70
     1
  9
$ANGBASE
 50
0.0
  9
$ANGDIR
 70
     0
  9
$PDMODE
 70
     0
  9
$PDSIZE
 40
-1.0
  9
$PLINEWID
 40
0.0
  9
$SPLFRAME
 70
     0
  9
$SPLINETYPE
 70
     6
  9
$SPLINESEGS
 70
     8
  9
$HANDSEED
  5
3D1
  9
$SURFTAB1
 70
     6
  9
$SURFTAB2
 70
     6
  9
$SURFTYPE
 70
     6
  9
$SURFU
 70
     6
  9
$SURFV
 70
     6
  9
$UCSBASE
  2

  9
$UCSNAME
  2

  9
$UCSORG
 10
0.0
 20
0.0
 30
0.0
  9
$UCSXDIR
 10
1.0
 20
0.0
 30
0.0
  9
$UCSYDIR
 10
0.0
 20
1.0
 30
0.0
  9
$UCSORTHOREF
  2

  9
$UCSORTHOVIEW
 70
     0
  9
$UCSORGTOP
 10
0.0
 20
0.0
 30
0.0
  9
$UCSORGBOTTOM
 10
0.0
 20
0.0
 30
0.0
  9
$UCSORGLEFT
 10
0.0
 20
0.0
 30
0.0
  9
$UCSORGRIGHT
 10
0.0
 20
0.0
 30
0.0
  9
$UCSORGFRONT
 10
0.0
 20
0.0
 30
0.0
  9
$UCSORGBACK
 10
0.0
 20
0.0
 30
0.0
  9
$PUCSBASE
  2

  9
$PUCSNAME
  2

  9
$PUCSORG
 10
0.0
 20
0.0
 30
0.0
  9
$PUCSXDIR
 10
1.0
 20
0.0
 30
0.0
  9
$PUCSYDIR
 10
0.0
 20
1.0
 30
0.0
  9
$PUCSORTHOREF
  2

  9
$PUCSORTHOVIEW
 70
     0
  9
$PUCSORGTOP
 10
0.0
 20
0.0
 30
0.0
  9
$PUCSORGBOTTOM
 10
0.0
 20
0.0
 30
0.0
  9
$PUCSORGLEFT
 10
0.0
 20
0.0
 30
0.0
  9
$PUCSORGRIGHT
 10
0.0
 20
0.0
 30
0.0
  9
$PUCSORGFRONT
 10
0.0
 20
0.0
 30
0.0
  9
$PUCSORGBACK
 10
0.0
 20
0.0
 30
0.0
  9
$USERI1
 70
     0
  9
$USERI2
 70
     0
  9
$USERI3
 70
     0
  9
$USERI4
 70
     0
  9
$USERI5
 70
     0
  9
$USERR1
 40
0.0
  9
$USERR2
 40
0.0
  9
$USERR3
 40
0.0
  9
$USERR4
 40
0.0
  9
$USERR5
 40
0.0
  9
$WORLDVIEW
 70
     1
  9
$SHADEDGE
 70
     3
  9
$SHADEDIF
 70
    70
  9
$TILEMODE
 70
     1
  9
$MAXACTVP
 70
    64
  9
$PINSBASE
 10
0.0
 20
0.0
 30
0.0
  9
$PLIMCHECK
 70
     0
  9
$PEXTMIN
 10
1.0000000000E+20
 20
1.0000000000E+20
 30
1.0000000000E+20
  9
$PEXTMAX
 10
-1.0000000000E+20
 20
-1.0000000000E+20
 30
-1.0000000000E+20
  9
$PLIMMIN
 10
0.0
 20
0.0
  9
$PLIMMAX
 10
420.0
 20
297.0
  9
$UNITMODE
 70
     0
  9
$VISRETAIN
 70
     1
  9
$PLINEGEN
 70
     0
  9
$PSLTSCALE
 70
     1
  9
$TREEDEPTH
 70
  3020
  9
$CMLSTYLE
  2
Standard
  9
$CMLJUST
 70
     0
  9
$CMLSCALE
 40
20.0
  9
$PROXYGRAPHICS
 70
     1
  9
$MEASUREMENT
 70
     1
  9
$CELWEIGHT
370
    -1
  9
$ENDCAPS
280
     0
  9
$JOINSTYLE
280
     0
  9
$LWDISPLAY
290
     1
  9
$INSUNITS
 70
     4
  9
$HYPERLINKBASE
  1

  9
$STYLESHEET
  1

  9
$XEDIT
290
     1
  9
$CEPSNTYPE
380
     0
  9
$PSTYLEMODE
290
     1
  9
$FINGERPRINTGUID
  2
{A6548236-324F-4E03-9D69-45E8FCDCFD1F}
  9
$VERSIONGUID
  2
{FAEB1C32-E019-11D5-929B-00C0DF256EC4}
  9
$EXTNAMES
290
     1
  9
$PSVPSCALE
 40
0.0
  9
$OLESTARTUP
290
     0
  0
ENDSEC
  0
SECTION
  2
CLASSES
  0
CLASS
  1
ACDBDICTIONARYWDFLT
  2
AcDbDictionaryWithDefault
  3
ObjectDBX Classes
 90
        0
280
     0
281
     0
  0
CLASS
  1
VISUALSTYLE
  2
AcDbVisualStyle
  3
ObjectDBX Classes
 90
     4095
280
     0
281
     0
  0
CLASS
  1
DICTIONARYVAR
  2
AcDbDictionaryVar
  3
ObjectDBX Classes
 90
        0
280
     0
281
     0
  0
CLASS
  1
ACDBPLACEHOLDER
  2
AcDbPlaceHolder
  3
ObjectDBX Classes
 90
        0
280
     0
281
     0
  0
CLASS
  1
LAYOUT
  2
AcDbLayout
  3
ObjectDBX Classes
 90
        0
280
     0
281
     0
  0
ENDSEC
  0
SECTION
  2
TABLES
  0
TABLE
  2
VPORT
  5
8
330
0
100
AcDbSymbolTable
 70
     1
  0
VPORT
  5
29
330
8
100
AcDbSymbolTableRecord
100
AcDbViewportTableRecord
  2
*Active
 70
     0
 10
0.0
 20
0.0
 11
1.0
 21
1.0
 12
210.0
 22
148.5
 13
0.0
 23
0.0
 14
10.0
 24
10.0
 15
10.0
 25
10.0
 16
0.0
 26
0.0
 36
1.0
 17
0.0
 27
0.0
 37
0.0
 40
297.0
 41
1.4141414141
 42
50.0
 43
0.0
 44
0.0
 50
0.0
 51
0.0
 71
     0
 72
  2000
 73
     1
 74
     3
 75
     0
 76
     0
 77
     0
 78
     0
281
     0
 65
     1
110
0.0
120
0.0
130
0.0
111
1.0
121
0.0
131
0.0
112
0.0
122
1.0
132
0.0
 79
     0
146
0.0
  0
ENDTAB
  0
TABLE
  2
LTYPE
  5
5
330
0
100
AcDbSymbolTable
 70
     6
  0
LTYPE
  5
14
330
5
100
AcDbSymbolTableRecord
100
AcDbLinetypeTableRecord
  2
ByBlock
 70
     0
  3

 72
    65
 73
     0
 40
0.0
  0
LTYPE
  5
15
330
5
100
AcDbSymbolTableRecord
100
AcDbLinetypeTableRecord
  2
ByLayer
 70
     0
  3

 72
    65
 73
     0
 40
0.0
  0
LTYPE
  5
16
330
5
100
AcDbSymbolTableRecord
100
AcDbLinetypeTableRecord
  2
Continuous
 70
     0
  3
Solid line
 72
    65
 73
     0
 40
0.0
  0
LTYPE
  5
3B
330
5
100
AcDbSymbolTableRecord
100
AcDbLinetypeTableRecord
  2
HIDDEN
 70
     0
  3
Hidden __ __ __ __ __ __ __ __ __ __ __ __ __ __
 72
    65
 73
     2
 40
1.905
 49
1.27
 74
     0
 49
-0.635
 74
     0
  0
LTYPE
  5
3C
330
5
100
AcDbSymbolTableRecord
100
AcDbLinetypeTableRecord
  2
PHANTOM
 70
     0
  3
Phantom ______  __  __  ______  __  __  ______
 72
    65
 73
     6
 40
12.7
 49
6.35
 74
     0
 49
-1.27
 74
     0
 49
1.27
 74
     0
 49
-1.27
 74
     0
 49
1.27
 74
     0
 49
-1.27
 74
     0
  0
LTYPE
  5
3D
330
5
100
AcDbSymbolTableRecord
100
AcDbLinetypeTableRecord
  2
CENTER
 70
     0
  3
Center ____ _ ____ _ ____ _ ____ _ ____ _ ____
 72
    65
 73
     4
 40
10.16
 49
6.35
 74
     0
 49
-1.27
 74
     0
 49
1.27
 74
     0
 49
-1.27
 74
     0
  0
LTYPE
  5
3E
330
5
100
AcDbSymbolTableRecord
100
AcDbLinetypeTableRecord
  2
CENTERX2
 70
     0
  3
Center (2x) ________  __  ________  __  _____
 72
    65
 73
     4
 40
20.32
 49
12.7
 74
     0
 49
-2.54
 74
     0
 49
2.54
 74
     0
 49
-2.54
 74
     0
  0
LTYPE
  5
3F
330
5
100
AcDbSymbolTableRecord
100
AcDbLinetypeTableRecord
  2
DOT2
 70
     0
  3
Dot (.5x) ........................................
 72
    65
 73
     2
 40
0.635
 49
0.0
 74
     0
 49
-0.635
 74
     0
  0
ENDTAB
  0
TABLE
  2
LAYER
  5
2
330
0
100
AcDbSymbolTable
 70
     9
  0
LAYER
  5
10
330
2
100
AcDbSymbolTableRecord
100
AcDbLayerTableRecord
  2
0
 70
     0
 62
     7
  6
Continuous
370
    -3
390
F
  0
LAYER
  5
40
330
2
100
AcDbSymbolTableRecord
100
AcDbLayerTableRecord
  2
VORLAGE_TEXT
 70
     0
 62
     7
  6
Continuous
370
    -3
390
F
  0
LAYER
  5
41
330
2
100
AcDbSymbolTableRecord
100
AcDbLayerTableRecord
  2
VORLAGE_BEMASSUNG
 70
     0
 62
    -5
  6
Continuous
370
    -3
390
F
  0
LAYER
  5
42
330
2
100
AcDbSymbolTableRecord
100
AcDbLayerTableRecord
  2
TEXT
 70
     0
 62
     7
  6
Continuous
370
    -3
390
F
  0
LAYER
  5
43
330
2
100
AcDbSymbolTableRecord
100
AcDbLayerTableRecord
  2
LINIEN-DICK
 70
     0
 62
     7
  6
Continuous
370
    30
390
F
  0
LAYER
  5
44
330
2
100
AcDbSymbolTableRecord
100
AcDbLayerTableRecord
  2
LINIEN-NORMAL
 70
     0
 62
     7
  6
Continuous
370
    15
390
F
  0
LAYER
  5
45
330
2
100
AcDbSymbolTableRecord
100
AcDbLayerTableRecord
  2
LINIEN-DÜNN
 70
     0
 62
     7
  6
Continuous
370
    -3
390
F
  0
LAYER
  5
46
330
2
100
AcDbSymbolTableRecord
100
AcDbLayerTableRecord
  2
TEXT-DEUTSCH
 70
     0
 62
     7
  6
Continuous
370
    -3
390
F
  0
LAYER
  5
47
330
2
100
AcDbSymbolTableRecord
100
AcDbLayerTableRecord
  2
TEXT-ENGLISCH
 70
     0
 62
    -7
  6
Continuous
370
    -3
390
F
  0
ENDTAB
  0
TABLE
  2
STYLE
  5
3
330
0
100
AcDbSymbolTable
 70
     3
  0
STYLE
  5
11
330
3
100
AcDbSymbolTableRecord
100
AcDbTextStyleTableRecord
  2
Standard
 70
     0
 40
0.0
 41
1.0
 50
0.0
 71
     0
 42
2.5
  3
txt
  4

  0
STYLE
  5
13D
330
3
100
AcDbSymbolTableRecord
100
AcDbTextStyleTableRecord
  2
SLDTEXTSTYLE0
 70
     0
 40
0.0
 41
0.7
 50
0.0
 71
     0
 42
0.2
  3
TXT
  4

  0
STYLE
  5
169
330
3
100
AcDbSymbolTableRecord
100
AcDbTextStyleTableRecord
  2
SLDTEXTSTYLE1
 70
     0
 40
0.0
 41
0.605
 50
0.0
 71
     0
 42
0.2
  3
TXT
  4

  0
ENDTAB
  0
TABLE
  2
VIEW
  5
6
330
0
100
AcDbSymbolTable
 70
     0
  0
ENDTAB
  0
TABLE
  2
UCS
  5
7
330
0
100
AcDbSymbolTable
 70
     0
  0
ENDTAB
  0
TABLE
  2
APPID
  5
9
330
0
100
AcDbSymbolTable
 70
     1
  0
APPID
  5
12
330
9
100
AcDbSymbolTableRecord
100
AcDbRegAppTableRecord
  2
ACAD
 70
     0
  0
ENDTAB
  0
TABLE
  2
DIMSTYLE
  5
A
330
0
100
AcDbSymbolTable
 70
     8
100
AcDbDimStyleTable
  0
DIMSTYLE
105
27
330
A
100
AcDbSymbolTableRecord
100
AcDbDimStyleTableRecord
  2
ISO-25
 70
     0
 41
2.5
 42
0.625
 43
3.75
 44
1.25
 73
     0
 74
     0
 77
     1
 78
     8
140
2.5
141
2.5
143
0.0393700787
147
0.625
171
     3
172
     1
271
     2
272
     2
274
     3
278
    44
283
     0
284
     8
340
11
  0
DIMSTYLE
105
1E0
102
{ACAD_REACTORS
330
1DF
330
240
102
}
330
A
100
AcDbSymbolTableRecord
100
AcDbDimStyleTableRecord
  2
SLDDIMSTYLE0
 70
     0
 41
3.3
 44
0.0
 45
0.000000001
 73
     0
 74
     0
 77
     2
 78
    12
140
3.5
147
0.875
173
     1
271
     2
272
     2
284
    12
340
169
  0
DIMSTYLE
105
1EB
102
{ACAD_REACTORS
330
1EA
330
205
330
210
330
257
330
33B
102
}
330
A
100
AcDbSymbolTableRecord
100
AcDbDimStyleTableRecord
  2
SLDDIMSTYLE1
 70
     0
 41
3.3
 44
0.0
 45
0.000000001
 73
     0
 74
     0
 77
     2
 78
    12
140
3.5
147
0.875
173
     1
271
     2
272
     2
284
    12
340
169
  0
DIMSTYLE
105
1F8
102
{ACAD_REACTORS
330
1F7
102
}
330
A
100
AcDbSymbolTableRecord
100
AcDbDimStyleTableRecord
  2
SLDDIMSTYLE2
 70
     0
 41
3.3
 44
0.0
 45
0.000000001
 48
0.3
 71
     1
 73
     0
 74
     0
 77
     2
 78
    12
140
3.5
147
0.875
173
     1
271
     2
272
     1
284
     8
340
169
  0
DIMSTYLE
105
21C
102
{ACAD_REACTORS
330
21B
330
227
330
24C
102
}
330
A
100
AcDbSymbolTableRecord
100
AcDbDimStyleTableRecord
  2
SLDDIMSTYLE3
 70
     0
 41
3.3
 44
0.0
 45
0.000000001
 47
0.2
 48
0.2
 71
     1
 73
     0
 74
     0
 77
     2
 78
    12
140
3.5
147
0.875
173
     1
271
     2
272
     1
284
     8
340
169
  0
DIMSTYLE
105
233
102
{ACAD_REACTORS
330
232
102
}
330
A
100
AcDbSymbolTableRecord
100
AcDbDimStyleTableRecord
  2
SLDDIMSTYLE4
 70
     0
 41
3.3
 44
0.0
 45
0.000000001
 48
0.2
 71
     1
 73
     0
 74
     0
 77
     2
 78
    12
140
3.5
147
0.875
173
     1
271
     2
272
     1
284
     8
340
169
  0
DIMSTYLE
105
264
102
{ACAD_REACTORS
330
263
330
271
102
}
330
A
100
AcDbSymbolTableRecord
100
AcDbDimStyleTableRecord
  2
SLDDIMSTYLE5
 70
     0
 41
3.3
 44
0.0
 45
0.000000001
 73
     0
 74
     0
 77
     2
 78
    12
140
3.5
147
0.875
173
     1
271
     2
272
     2
284
    12
340
169
  0
DIMSTYLE
105
27F
330
A
100
AcDbSymbolTableRecord
100
AcDbDimStyleTableRecord
  2
SLDDIMSTYLE6
 70
     0
 41
3.3
 44
0.0
 45
0.000000001
140
0.0
146
3.3
147
0.0
173
     1
271
     0
272
     0
340
11
  0
ENDTAB
  0
TABLE
  2
BLOCK_RECORD
  5
1
330
0
100
AcDbSymbolTable
 70
    35
  0
BLOCK_RECORD
  5
1F
330
1
100
AcDbSymbolTableRecord
100
AcDbBlockTableRecord
  2
*Model_Space
340
22
  0
BLOCK_RECORD
  5
1B
330
1
100
AcDbSymbolTableRecord
100
AcDbBlockTableRecord
  2
*Paper_Space
340
1E
  0
BLOCK_RECORD
  5
23
330
1
100
AcDbSymbolTableRecord
100
AcDbBlockTableRecord
  2
*Paper_Space0
340
26
  0
BLOCK_RECORD
  5
48
330
1
100
AcDbSymbolTableRecord
100
AcDbBlockTableRecord
  2
effeff Logo-0015_2
340
0
102
{BLKREFS
331
143
102
}
  0
BLOCK_RECORD
  5
137
330
1
100
AcDbSymbolTableRecord
100
AcDbBlockTableRecord
  2
effeff Logo fuer Schriftkopf
340
0
102
{BLKREFS
331
168
102
}
  0
BLOCK_RECORD
  5
13A
330
1
100
AcDbSymbolTableRecord
100
AcDbBlockTableRecord
  2
SW_NOTE_0
340
0
102
{BLKREFS
331
142
102
}
  0
BLOCK_RECORD
  5
16C
330
1
100
AcDbSymbolTableRecord
100
AcDbBlockTableRecord
  2
SW_NOTE_1
340
0
102
{BLKREFS
331
171
102
}
  0
BLOCK_RECORD
  5
175
330
1
100
AcDbSymbolTableRecord
100
AcDbBlockTableRecord
  2
SW_NOTE_2
340
0
102
{BLKREFS
331
17A
102
}
  0
BLOCK_RECORD
  5
17B
330
1
100
AcDbSymbolTableRecord
100
AcDbBlockTableRecord
  2
SW_NOTE_3
340
0
102
{BLKREFS
331
180
102
}
  0
BLOCK_RECORD
  5
181
330
1
100
AcDbSymbolTableRecord
100
AcDbBlockTableRecord
  2
SW_NOTE_4
340
0
102
{BLKREFS
331
186
102
}
  0
BLOCK_RECORD
  5
187
330
1
100
AcDbSymbolTableRecord
100
AcDbBlockTableRecord
  2
SW_NOTE_5
340
0
102
{BLKREFS
331
18C
102
}
  0
BLOCK_RECORD
  5
18D
330
1
100
AcDbSymbolTableRecord
100
AcDbBlockTableRecord
  2
SW_NOTE_6
340
0
102
{BLKREFS
331
192
102
}
  0
BLOCK_RECORD
  5
193
330
1
100
AcDbSymbolTableRecord
100
AcDbBlockTableRecord
  2
SW_NOTE_7
340
0
102
{BLKREFS
331
198
102
}
  0
BLOCK_RECORD
  5
199
330
1
100
AcDbSymbolTableRecord
100
AcDbBlockTableRecord
  2
SW_NOTE_8
340
0
102
{BLKREFS
331
19E
102
}
  0
BLOCK_RECORD
  5
1AC
330
1
100
AcDbSymbolTableRecord
100
AcDbBlockTableRecord
  2
SW_NOTE_9
340
0
102
{BLKREFS
331
1B1
102
}
  0
BLOCK_RECORD
  5
1E1
330
1
100
AcDbSymbolTableRecord
100
AcDbBlockTableRecord
  2
*D13
340
0
  0
BLOCK_RECORD
  5
1EC
330
1
100
AcDbSymbolTableRecord
100
AcDbBlockTableRecord
  2
*D14
340
0
  0
BLOCK_RECORD
  5
1F9
330
1
100
AcDbSymbolTableRecord
100
AcDbBlockTableRecord
  2
*D15
340
0
  0
BLOCK_RECORD
  5
206
330
1
100
AcDbSymbolTableRecord
100
AcDbBlockTableRecord
  2
*D16
340
0
  0
BLOCK_RECORD
  5
211
330
1
100
AcDbSymbolTableRecord
100
AcDbBlockTableRecord
  2
*D17
340
0
  0
BLOCK_RECORD
  5
21D
330
1
100
AcDbSymbolTableRecord
100
AcDbBlockTableRecord
  2
*D18
340
0
  0
BLOCK_RECORD
  5
228
330
1
100
AcDbSymbolTableRecord
100
AcDbBlockTableRecord
  2
*D19
340
0
  0
BLOCK_RECORD
  5
234
330
1
100
AcDbSymbolTableRecord
100
AcDbBlockTableRecord
  2
*D20
340
0
  0
BLOCK_RECORD
  5
241
330
1
100
AcDbSymbolTableRecord
100
AcDbBlockTableRecord
  2
*D21
340
0
  0
BLOCK_RECORD
  5
24D
330
1
100
AcDbSymbolTableRecord
100
AcDbBlockTableRecord
  2
*D22
340
0
  0
BLOCK_RECORD
  5
258
330
1
100
AcDbSymbolTableRecord
100
AcDbBlockTableRecord
  2
*D23
340
0
  0
BLOCK_RECORD
  5
265
330
1
100
AcDbSymbolTableRecord
100
AcDbBlockTableRecord
  2
*D24
340
0
  0
BLOCK_RECORD
  5
272
330
1
100
AcDbSymbolTableRecord
100
AcDbBlockTableRecord
  2
*D25
340
0
  0
BLOCK_RECORD
  5
281
330
1
100
AcDbSymbolTableRecord
100
AcDbBlockTableRecord
  2
SW_CENTERMARKSYMBOL_0
340
0
102
{BLKREFS
331
28C
102
}
  0
BLOCK_RECORD
  5
28D
330
1
100
AcDbSymbolTableRecord
100
AcDbBlockTableRecord
  2
SW_CENTERMARKSYMBOL_1
340
0
102
{BLKREFS
331
298
102
}
  0
BLOCK_RECORD
  5
299
330
1
100
AcDbSymbolTableRecord
100
AcDbBlockTableRecord
  2
SW_CENTERMARKSYMBOL_2
340
0
102
{BLKREFS
331
2A4
102
}
  0
BLOCK_RECORD
  5
2A5
330
1
100
AcDbSymbolTableRecord
100
AcDbBlockTableRecord
  2
SW_CENTERMARKSYMBOL_3
340
0
102
{BLKREFS
331
2B0
102
}
  0
BLOCK_RECORD
  5
2B1
330
1
100
AcDbSymbolTableRecord
100
AcDbBlockTableRecord
  2
SW_CENTERMARKSYMBOL_4
340
0
102
{BLKREFS
331
2BC
102
}
  0
BLOCK_RECORD
  5
2BD
330
1
100
AcDbSymbolTableRecord
100
AcDbBlockTableRecord
  2
SW_CENTERMARKSYMBOL_5
340
0
102
{BLKREFS
331
2C8
102
}
  0
BLOCK_RECORD
  5
2C9
330
1
100
AcDbSymbolTableRecord
100
AcDbBlockTableRecord
  2
SW_CENTERMARKSYMBOL_6
340
0
102
{BLKREFS
331
2D4
102
}
  0
BLOCK_RECORD
  5
2D5
330
1
100
AcDbSymbolTableRecord
100
AcDbBlockTableRecord
  2
SW_CENTERMARKSYMBOL_7
340
0
102
{BLKREFS
331
2E0
102
}
  0
BLOCK_RECORD
  5
33C
330
1
100
AcDbSymbolTableRecord
100
AcDbBlockTableRecord
  2
*D34
340
0
  0
ENDTAB
  0
ENDSEC
  0
SECTION
  2
BLOCKS
  0
BLOCK
  5
20
330
1F
100
AcDbEntity
  8
0
100
AcDbBlockBegin
  2
*Model_Space
 70
     0
 10
0.0
 20
0.0
 30
0.0
  3
*Model_Space
  1

  0
ENDBLK
  5
21
330
1F
100
AcDbEntity
  8
0
100
AcDbBlockEnd
  0
BLOCK
  5
1C
330
1B
100
AcDbEntity
 67
     1
  8
0
100
AcDbBlockBegin
  2
*Paper_Space
 70
     0
 10
0.0
 20
0.0
 30
0.0
  3
*Paper_Space
  1

  0
ENDBLK
  5
1D
330
1B
100
AcDbEntity
 67
     1
  8
0
100
AcDbBlockEnd
  0
BLOCK
  5
24
330
23
100
AcDbEntity
  8
0
100
AcDbBlockBegin
  2
*Paper_Space0
 70
     0
 10
0.0
 20
0.0
 30
0.0
  3
*Paper_Space0
  1

  0
ENDBLK
  5
25
330
23
100
AcDbEntity
  8
0
100
AcDbBlockEnd
  0
BLOCK
  5
49
330
48
100
AcDbEntity
  8
0
100
AcDbBlockBegin
  2
effeff Logo-0015_2
 70
     0
 10
0.0
 20
0.0
 30
0.0
  3
effeff Logo-0015_2
  1

  0
ARC
  5
4B
330
48
100
AcDbEntity
  8
0
  6
Continuous
 62
     7
100
AcDbCircle
 10
515.3784714
 20
1868.8337909
 30
0.0
 40
17.50844250400025
100
AcDbArc
 50
14.042087
 51
119.12115
  0
ARC
  5
4C
330
48
100
AcDbEntity
  8
0
  6
Continuous
 62
     7
100
AcDbCircle
 10
483.7045163087
 20
2006.1601609315
 30
0.0
 40
38.09999730848463
100
AcDbArc
 50
294.9922136483
 51
359.3292419917
  0
ARC
  5
4D
330
48
100
AcDbEntity
  8
0
  6
Continuous
 62
     7
100
AcDbCircle
 10
643.0589882
 20
1915.0686489
 30
0.0
 40
32.43300600000046
100
AcDbArc
 50
109.81992
 51
294.69529
  0
ARC
  5
4E
330
48
100
AcDbEntity
  8
0
  6
Continuous
 62
     7
100
AcDbCircle
 10
794.1722496
 20
2333.3101289
 30
0.0
 40
101.5999999999999
100
AcDbArc
 50
359.90917
 51
114.3759
  0
ARC
  5
4F
330
48
100
AcDbEntity
  8
0
  6
Continuous
 62
     7
100
AcDbCircle
 10
651.5630098
 20
2240.8061229
 30
0.0
 40
127.0000000000007
100
AcDbArc
 50
114.3759
 51
179.32923
  0
ARC
  5
50
330
48
100
AcDbEntity
  8
0
  6
Continuous
 62
     7
100
AcDbCircle
 10
681.4108292
 20
2215.3797069
 30
0.0
 40
77.14394782000088
100
AcDbArc
 50
114.7393
 51
175.97808
  0
ARC
  5
51
330
48
100
AcDbEntity
  8
0
  6
Continuous
 62
     7
100
AcDbCircle
 10
797.635311
 20
2133.9686429
 30
0.0
 40
19.05000000000007
100
AcDbArc
 50
295.35791
 51
0.0
  0
ARC
  5
52
330
48
100
AcDbEntity
  8
0
  6
Continuous
 62
     7
100
AcDbCircle
 10
658.6788706
 20
1939.1668989
 30
0.0
 40
142.5542742000001
100
AcDbArc
 50
207.77528
 51
296.18968
  0
ARC
  5
53
330
48
100
AcDbEntity
  8
0
  6
Continuous
 62
     7
100
AcDbCircle
 10
1060.486957
 20
2441.7787969
 30
0.0
 40
35.71956788000017
100
AcDbArc
 50
287.70296
 51
1.02601
  0
ARC
  5
54
330
48
100
AcDbEntity
  8
0
  6
Continuous
 62
     7
100
AcDbCircle
 10
1258.6232638
 20
2785.4504489
 30
0.0
 40
42.76302090000011
100
AcDbArc
 50
281.08067
 51
84.3963
  0
ARC
  5
55
330
48
100
AcDbEntity
  8
0
  6
Continuous
 62
     7
100
AcDbCircle
 10
1253.5129616
 20
2681.0315569
 30
0.0
 40
147.2705004799994
100
AcDbArc
 50
86.384874
 51
170.97251
  0
ARC
  5
56
330
48
100
AcDbEntity
  8
0
  6
Continuous
 62
     7
100
AcDbCircle
 10
1269.7362718
 20
2650.3145749
 30
0.0
 40
93.21482753999962
100
AcDbArc
 50
91.779404
 51
182.92195
  0
ARC
  5
57
330
48
100
AcDbEntity
  8
0
  6
Continuous
 62
     7
100
AcDbCircle
 10
1525.8716498
 20
2789.8098509
 30
0.0
 40
164.2260367999999
100
AcDbArc
 50
91.783522
 51
177.30533
  0
ARC
  5
58
330
48
100
AcDbEntity
  8
0
  6
Continuous
 62
     7
100
AcDbCircle
 10
1519.8183218
 20
2908.1235589
 30
0.0
 40
45.84234672000006
100
AcDbArc
 50
272.72508
 51
88.82243
  0
ARC
  5
59
330
48
100
AcDbEntity
  8
0
  6
Continuous
 62
     7
100
AcDbCircle
 10
1523.8810518
 20
2784.6320609
 30
0.0
 40
77.72382982000023
100
AcDbArc
 50
91.388437
 51
181.80322
  0
ARC
  5
5A
330
48
100
AcDbEntity
  8
0
  6
Continuous
 62
     7
100
AcDbCircle
 10
1615.5074878
 20
2618.8203529
 30
0.0
 40
39.90822600000038
100
AcDbArc
 50
295.29521
 51
125.42294
  0
ARC
  5
5B
330
48
100
AcDbEntity
  8
0
  6
Continuous
 62
     7
100
AcDbCircle
 10
1008.9957722
 20
1626.0628769
 30
0.0
 40
94.74884022000018
100
AcDbArc
 50
251.71354
 51
299.26417
  0
ARC
  5
5C
330
48
100
AcDbEntity
  8
0
  6
Continuous
 62
     7
100
AcDbCircle
 10
959.2877182
 20
1740.4014849
 30
0.0
 40
219.1524699999996
100
AcDbArc
 50
291.00666
 51
357.16247
  0
ARC
  5
5D
330
48
100
AcDbEntity
  8
0
  6
Continuous
 62
     7
100
AcDbCircle
 10
1228.0315546
 20
1866.1142129
 30
0.0
 40
220.0308782000004
100
AcDbArc
 50
286.42885
 51
355.30262
  0
ARC
  5
5E
330
48
100
AcDbEntity
  8
0
  6
Continuous
 62
     7
100
AcDbCircle
 10
998.211618
 20
1576.0497689
 30
0.0
 40
44.0827109200002
100
AcDbArc
 50
103.02671
 51
269.56768
  0
ARC
  5
5F
330
48
100
AcDbEntity
  8
0
  6
Continuous
 62
     7
100
AcDbCircle
 10
980.6189684
 20
1732.0931449
 30
0.0
 40
113.3538068200005
100
AcDbArc
 50
273.87284
 51
1.52447
  0
ARC
  5
60
330
48
100
AcDbEntity
  8
0
  6
Continuous
 62
     7
100
AcDbCircle
 10
1943.0120398
 20
2351.6001609
 30
0.0
 40
123.1210974200003
100
AcDbArc
 50
200.58087
 51
290.78248
  0
ARC
  5
61
330
48
100
AcDbEntity
  8
0
  6
Continuous
 62
     7
100
AcDbCircle
 10
1972.1290758
 20
2651.2973009
 30
0.0
 40
80.10880599999973
100
AcDbArc
 50
114.61159
 51
180.35762
  0
ARC
  5
62
330
48
100
AcDbEntity
  8
0
  6
Continuous
 62
     7
100
AcDbCircle
 10
2079.4783658
 20
2760.2556809
 30
0.0
 40
25.76079683999982
100
AcDbArc
 50
357.28465
 51
113.30025
  0
ARC
  5
63
330
48
100
AcDbEntity
  8
0
  6
Continuous
 62
     7
100
AcDbCircle
 10
1979.5186978
 20
2658.8764069
 30
0.0
 40
168.1565039199998
100
AcDbArc
 50
112.41504
 51
183.43965
  0
ARC
  5
64
330
48
100
AcDbEntity
  8
0
  6
Continuous
 62
     7
100
AcDbCircle
 10
2079.3511118
 20
2772.1832669
 30
0.0
 40
101.8349499999999
100
AcDbArc
 50
0.0
 51
106.97704
  0
ARC
  5
65
330
48
100
AcDbEntity
  8
0
  6
Continuous
 62
     7
100
AcDbCircle
 10
2133.6657098
 20
2533.8004569
 30
0.0
 40
48.40960600000044
100
AcDbArc
 50
295.94359
 51
0.42713
  0
ARC
  5
66
330
48
100
AcDbEntity
  8
0
  6
Continuous
 62
     7
100
AcDbCircle
 10
2270.5323398
 20
2756.3854829
 30
0.0
 40
40.07551294000061
100
AcDbArc
 50
113.66313
 51
294.00122
  0
ARC
  5
67
330
48
100
AcDbEntity
  8
0
  6
Continuous
 62
     7
100
AcDbCircle
 10
2557.3064678
 20
3078.8290849
 30
0.0
 40
184.5383660000001
100
AcDbArc
 50
96.428599
 51
180.0
  0
ARC
  5
68
330
48
100
AcDbEntity
  8
0
  6
Continuous
 62
     7
100
AcDbCircle
 10
2543.0174438
 20
3218.4876829
 30
0.0
 40
44.18166678000085
100
AcDbArc
 50
272.34792
 51
98.29338
  0
ARC
  5
69
330
48
100
AcDbEntity
  8
0
  6
Continuous
 62
     7
100
AcDbCircle
 10
2552.7387858
 20
3084.7701449
 30
0.0
 40
90.0619661799995
100
AcDbArc
 50
95.043217
 51
180.0
  0
ARC
  5
6A
330
48
100
AcDbEntity
  8
0
  6
Continuous
 62
     7
100
AcDbCircle
 10
2825.4705238
 20
3212.8046869
 30
0.0
 40
178.16516818
100
AcDbArc
 50
94.705414
 51
178.23325
  0
ARC
  5
6B
330
48
100
AcDbEntity
  8
0
  6
Continuous
 62
     7
100
AcDbCircle
 10
2811.8741578
 20
3346.5024129
 30
0.0
 40
43.87863208000022
100
AcDbArc
 50
290.29752
 51
91.33061
  0
ARC
  5
6C
330
48
100
AcDbEntity
  8
0
  6
Continuous
 62
     7
100
AcDbCircle
 10
2832.4346958
 20
3200.9238369
 30
0.0
 40
104.6670779400006
100
AcDbArc
 50
103.33264
 51
180.0
  0
ARC
  5
6D
330
48
100
AcDbEntity
  8
0
  6
Continuous
 62
     7
100
AcDbCircle
 10
2896.5221978
 20
3044.7227269
 30
0.0
 40
37.94099599999992
100
AcDbArc
 50
294.19729
 51
111.34859
  0
ARC
  5
6E
330
48
100
AcDbEntity
  8
0
  6
Continuous
 62
     7
100
AcDbCircle
 10
2237.7676098
 20
2182.2098469
 30
0.0
 40
143.5912469799999
100
AcDbArc
 50
279.16205
 51
358.88757
  0
ARC
  5
6F
330
48
100
AcDbEntity
  8
0
  6
Continuous
 62
     7
100
AcDbCircle
 10
2241.3982858
 20
2174.7833949
 30
0.0
 40
221.16562066
100
AcDbArc
 50
286.92178
 51
6.06447
  0
ARC
  5
70
330
48
100
AcDbEntity
  8
0
  6
Continuous
 62
     7
100
AcDbCircle
 10
2290.3857418
 20
2006.0196989
 30
0.0
 40
45.50614724000062
100
AcDbArc
 50
130.83302
 51
289.76215
  0
ARC
  5
71
330
48
100
AcDbEntity
  8
0
  6
Continuous
 62
     7
100
AcDbCircle
 10
2554.5663158
 20
2135.6331049
 30
0.0
 40
41.07687999999993
100
AcDbArc
 50
92.959037
 51
252.07449
  0
ARC
  5
72
330
48
100
AcDbEntity
  8
0
  6
Continuous
 62
     7
100
AcDbCircle
 10
2524.1190818
 20
2298.4867289
 30
0.0
 40
125.0812839999999
100
AcDbArc
 50
278.0904
 51
0.0
  0
ARC
  5
73
330
48
100
AcDbEntity
  8
0
  6
Continuous
 62
     7
100
AcDbCircle
 10
2489.5974338
 20
2311.4727329
 30
0.0
 40
240.0881660000007
100
AcDbArc
 50
293.25446
 51
355.30477
  0
ARC
  5
74
330
48
100
AcDbEntity
  8
0
  6
Continuous
 62
     7
100
AcDbCircle
 10
2572.3099938
 20
2162.3920049
 30
0.0
 40
72.51559283999994
100
AcDbArc
 50
227.67709
 51
279.58748
  0
ARC
  5
75
330
48
100
AcDbEntity
  8
0
  6
Continuous
 62
     7
100
AcDbCircle
 10
1811.1037438
 20
2302.0693989
 30
0.0
 40
17.77999999999994
100
AcDbArc
 50
20.580869
 51
114.22398
  0
ARC
  5
76
330
48
100
AcDbEntity
  8
0
  6
Continuous
 62
     7
100
AcDbCircle
 10
791.285311
 20
2327.7018089
 30
0.0
 40
25.40000000000041
100
AcDbArc
 50
0.0
 51
116.41669
  0
ARC
  5
77
330
48
100
AcDbEntity
  8
0
  6
Continuous
 62
     7
100
AcDbCircle
 10
1938.2444598
 20
2345.4739349
 30
0.0
 40
33.02000000000029
100
AcDbArc
 50
116.48141
 51
294.93437
  0
ARC
  5
78
330
48
100
AcDbEntity
  8
0
  6
Continuous
 62
     7
100
AcDbCircle
 10
1775.7301798
 20
2441.4435169
 30
0.0
 40
38.10000000000028
100
AcDbArc
 50
295.31863
 51
0.5988
  0
ARC
  5
79
330
48
100
AcDbEntity
  8
0
  6
Continuous
 62
     7
100
AcDbCircle
 10
985.9921352
 20
2325.6891129
 30
0.0
 40
40.64000000000044
100
AcDbArc
 50
113.79896
 51
292.78069
  0
ARC
  5
7A
330
48
100
AcDbEntity
  8
0
  6
Continuous
 62
     7
100
AcDbCircle
 10
1273.3677098
 20
1700.5333909
 30
0.0
 40
48.50378666000036
100
AcDbArc
 50
104.6236
 51
290.38355
  0
ARC
  5
7B
330
48
100
AcDbEntity
  8
0
  6
Continuous
 62
     7
100
AcDbCircle
 10
1223.5584368
 20
1884.9511069
 30
0.0
 40
142.5040761800002
100
AcDbArc
 50
285.03861
 51
359.88519
  0
ARC
  5
7C
330
48
100
AcDbEntity
  8
0
  6
Continuous
 62
     7
100
AcDbCircle
 10
2347.3978198
 20
2878.5897089
 30
0.0
 40
35.56000000000034
100
AcDbArc
 50
296.25486
 51
2.92638
  0
LINE
  5
7D
330
48
100
AcDbEntity
  8
0
  6
Continuous
 62
     7
100
AcDbLine
 10
203.7813552
 20
987.5165289
 30
0.0
 11
3194.4123818
 21
987.5165289
 31
0.0
  0
LINE
  5
7E
330
48
100
AcDbEntity
  8
0
  6
Continuous
 62
     7
100
AcDbLine
 10
0.0
 20
650.4387169
 30
0.0
 11
3309.9028798
 21
652.3208569
 31
0.0
  0
LINE
  5
7F
330
48
100
AcDbEntity
  8
0
  6
Continuous
 62
     7
100
AcDbLine
 10
203.7813552
 20
3978.0302329
 30
0.0
 11
3194.4123818
 21
3978.0302329
 31
0.0
  0
LINE
  5
80
330
48
100
AcDbEntity
  8
0
  6
Continuous
 62
     7
100
AcDbLine
 10
301.56404
 20
3876.2112849
 30
0.0
 11
3101.6236418
 21
3876.2112849
 31
0.0
  0
LINE
  5
81
330
48
100
AcDbEntity
  8
0
  6
Continuous
 62
     7
100
AcDbLine
 10
301.56404
 20
1087.6021809
 30
0.0
 11
3101.6236418
 21
1087.6021809
 31
0.0
  0
LINE
  5
82
330
48
100
AcDbEntity
  8
0
  6
Continuous
 62
     7
100
AcDbLine
 10
3194.4123818
 20
987.5165289
 30
0.0
 11
3194.4123818
 21
3978.0302329
 31
0.0
  0
LINE
  5
83
330
48
100
AcDbEntity
  8
0
  6
Continuous
 62
     7
100
AcDbLine
 10
301.56404
 20
3876.2112849
 30
0.0
 11
301.56404
 21
1087.6021809
 31
0.0
  0
LINE
  5
84
330
48
100
AcDbEntity
  8
0
  6
Continuous
 62
     7
100
AcDbLine
 10
203.7813552
 20
3978.0302329
 30
0.0
 11
203.7813552
 21
987.5165289
 31
0.0
  0
LINE
  5
85
330
48
100
AcDbEntity
  8
0
  6
Continuous
 62
     7
100
AcDbLine
 10
301.56404
 20
1879.2208669
 30
0.0
 11
499.8015658
 21
1971.6278449
 31
0.0
  0
LINE
  5
86
330
48
100
AcDbEntity
  8
0
  6
Continuous
 62
     7
100
AcDbLine
 10
301.56404
 20
1788.8408089
 30
0.0
 11
506.8578382
 21
1884.1291629
 31
0.0
  0
LINE
  5
87
330
48
100
AcDbEntity
  8
0
  6
Continuous
 62
     7
100
AcDbLine
 10
521.8019028
 20
2005.7141369
 30
0.0
 11
524.5716966
 21
2242.2930389
 31
0.0
  0
LINE
  5
88
330
48
100
AcDbEntity
  8
0
  6
Continuous
 62
     7
100
AcDbLine
 10
599.147392
 20
2356.4850889
 30
0.0
 11
752.2397706
 21
2425.8532509
 31
0.0
  0
LINE
  5
89
330
48
100
AcDbEntity
  8
0
  6
Continuous
 62
     7
100
AcDbLine
 10
895.7721226
 20
2333.1490929
 30
0.0
 11
895.375908
 21
2083.2143629
 31
0.0
  0
LINE
  5
8A
330
48
100
AcDbEntity
  8
0
  6
Continuous
 62
     7
100
AcDbLine
 10
607.3407716
 20
2022.7003869
 30
0.0
 11
805.7938926
 21
2116.7543009
 31
0.0
  0
LINE
  5
8B
330
48
100
AcDbEntity
  8
0
  6
Continuous
 62
     7
100
AcDbLine
 10
816.685311
 20
2133.9686429
 30
0.0
 11
816.685311
 21
2327.7018089
 31
0.0
  0
LINE
  5
8C
330
48
100
AcDbEntity
  8
0
  6
Continuous
 62
     7
100
AcDbLine
 10
604.456881
 20
2220.7906689
 30
0.0
 11
607.3407716
 21
2022.7003869
 31
0.0
  0
LINE
  5
8D
330
48
100
AcDbEntity
  8
0
  6
Continuous
 62
     7
100
AcDbLine
 10
649.126845
 20
2285.4435749
 30
0.0
 11
779.9849526
 21
2350.4495409
 31
0.0
  0
LINE
  5
8E
330
48
100
AcDbEntity
  8
0
  6
Continuous
 62
     7
100
AcDbLine
 10
880.6118278
 20
2060.1887549
 30
0.0
 11
626.9948598
 21
1943.2441069
 31
0.0
  0
LINE
  5
8F
330
48
100
AcDbEntity
  8
0
  6
Continuous
 62
     7
100
AcDbLine
 10
656.5043766
 20
1885.5541029
 30
0.0
 11
1096.5434254
 21
2086.9585769
 31
0.0
  0
LINE
  5
90
330
48
100
AcDbEntity
  8
0
  6
Continuous
 62
     7
100
AcDbLine
 10
719.6132674
 20
1810.2921249
 30
0.0
 11
1093.932661
 21
1990.8236409
 31
0.0
  0
LINE
  5
91
330
48
100
AcDbEntity
  8
0
  6
Continuous
 62
     7
100
AcDbLine
 10
1093.932661
 20
1990.8236409
 30
0.0
 11
1093.932661
 21
1729.2343749
 31
0.0
  0
LINE
  5
92
330
48
100
AcDbEntity
  8
0
  6
Continuous
 62
     7
100
AcDbLine
 10
1178.1714816
 20
2031.9955169
 30
0.0
 11
1178.1714816
 21
1729.5523829
 31
0.0
  0
LINE
  5
93
330
48
100
AcDbEntity
  8
0
  6
Continuous
 62
     7
100
AcDbLine
 10
1096.5434254
 20
2086.9585769
 30
0.0
 11
1095.8872164
 21
2331.9474189
 31
0.0
  0
LINE
  5
94
330
48
100
AcDbEntity
  8
0
  6
Continuous
 62
     7
100
AcDbLine
 10
1176.3572358
 20
2370.2450309
 30
0.0
 11
1177.0405466
 21
2119.3801529
 31
0.0
  0
LINE
  5
95
330
48
100
AcDbEntity
  8
0
  6
Continuous
 62
     7
100
AcDbLine
 10
1177.0405466
 20
2119.3801529
 30
0.0
 11
1366.0622158
 21
2205.0970249
 31
0.0
  0
LINE
  5
96
330
48
100
AcDbEntity
  8
0
  6
Continuous
 62
     7
100
AcDbLine
 10
1176.3572358
 20
2370.2450309
 30
0.0
 11
1360.6250918
 21
2455.3980229
 31
0.0
  0
LINE
  5
97
330
48
100
AcDbEntity
  8
0
  6
Continuous
 62
     7
100
AcDbLine
 10
969.5927268
 20
2362.8731889
 30
0.0
 11
1071.348632
 21
2407.7506709
 31
0.0
  0
LINE
  5
98
330
48
100
AcDbEntity
  8
0
  6
Continuous
 62
     7
100
AcDbLine
 10
1096.2007794
 20
2442.4183689
 30
0.0
 11
1108.0666688
 21
2704.1394609
 31
0.0
  0
LINE
  5
99
330
48
100
AcDbEntity
  8
0
  6
Continuous
 62
     7
100
AcDbLine
 10
1171.2905708
 20
2455.3228389
 30
0.0
 11
1176.6427572
 21
2645.5629969
 31
0.0
  0
LINE
  5
9A
330
48
100
AcDbEntity
  8
0
  6
Continuous
 62
     7
100
AcDbLine
 10
1171.2905708
 20
2455.3228389
 30
0.0
 11
1361.5643838
 21
2544.7288069
 31
0.0
  0
LINE
  5
9B
330
48
100
AcDbEntity
  8
0
  6
Continuous
 62
     7
100
AcDbLine
 10
1361.5643838
 20
2544.7288069
 30
0.0
 11
1361.5643838
 21
2797.5306889
 31
0.0
  0
LINE
  5
9C
330
48
100
AcDbEntity
  8
0
  6
Continuous
 62
     7
100
AcDbLine
 10
1440.1207418
 20
2583.8707149
 30
0.0
 11
1446.1959138
 21
2782.1865489
 31
0.0
  0
LINE
  5
9D
330
48
100
AcDbEntity
  8
0
  6
Continuous
 62
     7
100
AcDbLine
 10
1360.6250918
 20
2455.3980229
 30
0.0
 11
1366.0622158
 21
2205.0970249
 31
0.0
  0
LINE
  5
9E
330
48
100
AcDbEntity
  8
0
  6
Continuous
 62
     7
100
AcDbLine
 10
1178.1714816
 20
2031.9955169
 30
0.0
 11
1366.0622158
 21
2113.7154449
 31
0.0
  0
LINE
  5
9F
330
48
100
AcDbEntity
  8
0
  6
Continuous
 62
     7
100
AcDbLine
 10
1443.1270858
 20
2241.9417569
 30
0.0
 11
1792.0235178
 21
2407.0031489
 31
0.0
  0
LINE
  5
A0
330
48
100
AcDbEntity
  8
0
  6
Continuous
 62
     7
100
AcDbLine
 10
1813.8281478
 20
2441.8415349
 30
0.0
 11
1811.6650838
 21
2648.7875269
 31
0.0
  0
LINE
  5
A1
330
48
100
AcDbEntity
  8
0
  6
Continuous
 62
     7
100
AcDbLine
 10
1893.2547098
 20
2453.2458809
 30
0.0
 11
2104.8613478
 21
2553.3742049
 31
0.0
  0
LINE
  5
A2
330
48
100
AcDbEntity
  8
0
  6
Continuous
 62
     7
100
AcDbLine
 10
2104.8613478
 20
2553.3742049
 30
0.0
 11
2105.2100898
 21
2759.0354649
 31
0.0
  0
LINE
  5
A3
330
48
100
AcDbEntity
  8
0
  6
Continuous
 62
     7
100
AcDbLine
 10
1803.8086098
 20
2318.2837429
 30
0.0
 11
1446.5108738
 21
2157.5281589
 31
0.0
  0
LINE
  5
A4
330
48
100
AcDbEntity
  8
0
  6
Continuous
 62
     7
100
AcDbLine
 10
1446.5108738
 20
2157.5281589
 30
0.0
 11
1447.3302778
 21
1845.4340409
 31
0.0
  0
LINE
  5
A5
330
48
100
AcDbEntity
  8
0
  6
Continuous
 62
     7
100
AcDbLine
 10
1443.1270858
 20
2241.9417569
 30
0.0
 11
1442.4384918
 21
2492.8884229
 31
0.0
  0
LINE
  5
A6
330
48
100
AcDbEntity
  8
0
  6
Continuous
 62
     7
100
AcDbLine
 10
1442.4384918
 20
2492.8884229
 30
0.0
 11
1632.5595238
 21
2582.7386369
 31
0.0
  0
LINE
  5
A7
330
48
100
AcDbEntity
  8
0
  6
Continuous
 62
     7
100
AcDbLine
 10
1440.1207418
 20
2583.8707149
 30
0.0
 11
1605.2519838
 21
2657.3884749
 31
0.0
  0
LINE
  5
A8
330
48
100
AcDbEntity
  8
0
  6
Continuous
 62
     7
100
AcDbLine
 10
1986.6980078
 20
2236.4901549
 30
0.0
 11
2381.3317118
 21
2427.5961989
 31
0.0
  0
LINE
  5
A9
330
48
100
AcDbEntity
  8
0
  6
Continuous
 62
     7
100
AcDbLine
 10
2069.1979698
 20
2783.8764109
 30
0.0
 11
1938.7664298
 21
2724.1282449
 31
0.0
  0
LINE
  5
AA
330
48
100
AcDbEntity
  8
0
  6
Continuous
 62
     7
100
AcDbLine
 10
2049.5777398
 20
2869.6740549
 30
0.0
 11
1915.3984298
 21
2814.3282169
 31
0.0
  0
LINE
  5
AB
330
48
100
AcDbEntity
  8
0
  6
Continuous
 62
     7
100
AcDbLine
 10
2154.8442298
 20
2490.2694289
 30
0.0
 11
1923.5205878
 21
2375.0293749
 31
0.0
  0
LINE
  5
AC
330
48
100
AcDbEntity
  8
0
  6
Continuous
 62
     7
100
AcDbLine
 10
2182.0753158
 20
2533.8004569
 30
0.0
 11
2181.1852998
 21
2772.5627429
 31
0.0
  0
LINE
  5
AD
330
48
100
AcDbEntity
  8
0
  6
Continuous
 62
     7
100
AcDbLine
 10
2385.2803958
 20
2516.8929469
 30
0.0
 11
1952.1649298
 21
2315.5316529
 31
0.0
  0
LINE
  5
AE
330
48
100
AcDbEntity
  8
0
  6
Continuous
 62
     7
100
AcDbLine
 10
2385.2803958
 20
2516.8929469
 30
0.0
 11
2384.5890078
 21
2763.3011409
 31
0.0
  0
LINE
  5
AF
330
48
100
AcDbEntity
  8
0
  6
Continuous
 62
     7
100
AcDbLine
 10
2363.1282938
 20
2846.6982309
 30
0.0
 11
2251.1973518
 21
2791.4882829
 31
0.0
  0
LINE
  5
B0
330
48
100
AcDbEntity
  8
0
  6
Continuous
 62
     7
100
AcDbLine
 10
2384.5890078
 20
2763.3011409
 30
0.0
 11
2286.8332978
 21
2719.7749389
 31
0.0
  0
LINE
  5
B1
330
48
100
AcDbEntity
  8
0
  6
Continuous
 62
     7
100
AcDbLine
 10
2457.8908678
 20
2542.3404449
 30
0.0
 11
2457.2114178
 21
2800.4118109
 31
0.0
  0
LINE
  5
B2
330
48
100
AcDbEntity
  8
0
  6
Continuous
 62
     7
100
AcDbLine
 10
2457.2114178
 20
2800.4118109
 30
0.0
 11
2648.4101718
 21
2891.0445989
 31
0.0
  0
LINE
  5
B3
330
48
100
AcDbEntity
  8
0
  6
Continuous
 62
     7
100
AcDbLine
 10
2648.4101718
 20
2891.0445989
 30
0.0
 11
2653.1942618
 21
2637.3331429
 31
0.0
  0
LINE
  5
B4
330
48
100
AcDbEntity
  8
0
  6
Continuous
 62
     7
100
AcDbLine
 10
2653.1942618
 20
2637.3331429
 30
0.0
 11
2457.8908678
 21
2542.3404449
 31
0.0
  0
LINE
  5
B5
330
48
100
AcDbEntity
  8
0
  6
Continuous
 62
     7
100
AcDbLine
 10
2382.9113378
 20
2880.4050469
 30
0.0
 11
2372.7681018
 21
3078.8290849
 31
0.0
  0
LINE
  5
B6
330
48
100
AcDbEntity
  8
0
  6
Continuous
 62
     7
100
AcDbLine
 10
2461.7661458
 20
2891.1561049
 30
0.0
 11
2647.3901078
 21
2975.3052889
 31
0.0
  0
LINE
  5
B7
330
48
100
AcDbEntity
  8
0
  6
Continuous
 62
     7
100
AcDbLine
 10
2461.7661458
 20
2891.1561049
 30
0.0
 11
2462.6777518
 21
3085.1933089
 31
0.0
  0
LINE
  5
B8
330
48
100
AcDbEntity
  8
0
  6
Continuous
 62
     7
100
AcDbLine
 10
2647.3901078
 20
3218.2976909
 30
0.0
 11
2647.3901078
 21
2975.3052889
 31
0.0
  0
LINE
  5
B9
330
48
100
AcDbEntity
  8
0
  6
Continuous
 62
     7
100
AcDbLine
 10
2727.7932998
 20
3203.2497149
 30
0.0
 11
2727.7932998
 21
3019.5096709
 31
0.0
  0
LINE
  5
BA
330
48
100
AcDbEntity
  8
0
  6
Continuous
 62
     7
100
AcDbLine
 10
2727.7932998
 20
3019.5096709
 30
0.0
 11
2882.7099318
 21
3080.0604769
 31
0.0
  0
LINE
  5
BB
330
48
100
AcDbEntity
  8
0
  6
Continuous
 62
     7
100
AcDbLine
 10
2727.1743018
 20
2927.0290329
 30
0.0
 11
2912.0733478
 21
3010.1154809
 31
0.0
  0
LINE
  5
BC
330
48
100
AcDbEntity
  8
0
  6
Continuous
 62
     7
100
AcDbLine
 10
2727.1743018
 20
2927.0290329
 30
0.0
 11
2725.4120498
 21
2675.2820129
 31
0.0
  0
LINE
  5
BD
330
48
100
AcDbEntity
  8
0
  6
Continuous
 62
     7
100
AcDbLine
 10
2725.4120498
 20
2675.2820129
 30
0.0
 11
3101.6236418
 21
2848.1020889
 31
0.0
  0
LINE
  5
BE
330
48
100
AcDbEntity
  8
0
  6
Continuous
 62
     7
100
AcDbLine
 10
3101.6236418
 20
2760.6884969
 30
0.0
 11
2728.8799118
 21
2590.0391049
 31
0.0
  0
LINE
  5
BF
330
48
100
AcDbEntity
  8
0
  6
Continuous
 62
     7
100
AcDbLine
 10
2728.8799118
 20
2590.0391049
 30
0.0
 11
2728.8799118
 21
2291.8202449
 31
0.0
  0
LINE
  5
C0
330
48
100
AcDbEntity
  8
0
  6
Continuous
 62
     7
100
AcDbLine
 10
2650.4975438
 20
2552.9289429
 30
0.0
 11
2461.3262178
 21
2465.8915249
 31
0.0
  0
LINE
  5
C1
330
48
100
AcDbEntity
  8
0
  6
Continuous
 62
     7
100
AcDbLine
 10
2381.3317118
 20
2179.4219429
 30
0.0
 11
2381.3317118
 21
2427.5961989
 31
0.0
  0
LINE
  5
C2
330
48
100
AcDbEntity
  8
0
  6
Continuous
 62
     7
100
AcDbLine
 10
2461.3262178
 20
2198.1491089
 30
0.0
 11
2461.3262178
 21
2465.8915249
 31
0.0
  0
LINE
  5
C3
330
48
100
AcDbEntity
  8
0
  6
Continuous
 62
     7
100
AcDbLine
 10
2650.4975438
 20
2552.9289429
 30
0.0
 11
2649.2003658
 21
2298.4867289
 31
0.0
  0
LINE
  5
C4
330
48
100
AcDbEntity
  8
0
  6
Continuous
 62
     7
100
AcDbLine
 10
3101.6236418
 20
1087.6021809
 30
0.0
 11
3101.6236418
 21
3876.2112849
 31
0.0
  0
LINE
  5
C5
330
48
100
AcDbEntity
  8
0
  6
Continuous
 62
     7
100
AcDbLine
 10
1095.8872164
 20
2331.9474189
 30
0.0
 11
1001.728121
 21
2288.2192869
 31
0.0
  0
LINE
  5
C6
330
48
100
AcDbEntity
  8
0
  6
Continuous
 62
     7
100
AcDbLine
 10
1366.0622158
 20
2113.7154449
 30
0.0
 11
1366.0622158
 21
1884.6656109
 31
0.0
  0
LINE
  5
C7
330
48
100
AcDbEntity
  8
0
  6
Continuous
 62
     7
100
AcDbLine
 10
1892.0217938
 20
2650.7971749
 30
0.0
 11
1893.2547098
 21
2453.2458809
 31
0.0
  0
LINE
  5
C8
330
48
100
AcDbEntity
  8
0
  6
Continuous
 62
     7
100
AcDbLine
 10
1221.4602698
 20
414.3388589
 30
0.0
 11
1113.547176
 21
129.9392753
 31
0.0
  0
LINE
  5
C9
330
48
100
AcDbEntity
  8
0
  6
Continuous
 62
     7
100
AcDbLine
 10
1013.7867964
 20
293.7747109
 30
0.0
 11
1099.9257402
 21
293.7747109
 31
0.0
  0
LINE
  5
CA
330
48
100
AcDbEntity
  8
0
  6
Continuous
 62
     7
100
AcDbLine
 10
546.4238246
 20
143.9009187
 30
0.0
 11
461.355948
 21
143.9009187
 31
0.0
  0
LINE
  5
CB
330
48
100
AcDbEntity
  8
0
  6
Continuous
 62
     7
100
AcDbLine
 10
461.355948
 20
143.9009187
 30
0.0
 11
360.0456604
 21
414.2631669
 31
0.0
  0
LINE
  5
CC
330
48
100
AcDbEntity
  8
0
  6
Continuous
 62
     7
100
AcDbLine
 10
360.0456604
 20
414.2631669
 30
0.0
 11
268.9420072
 21
414.2631669
 31
0.0
  0
LINE
  5
CD
330
48
100
AcDbEntity
  8
0
  6
Continuous
 62
     7
100
AcDbLine
 10
268.9420072
 20
414.2631669
 30
0.0
 11
115.6156946
 21
9.6017969
 31
0.0
  0
LINE
  5
CE
330
48
100
AcDbEntity
  8
0
  6
Continuous
 62
     7
100
AcDbLine
 10
115.6156946
 20
9.6017969
 30
0.0
 11
205.6356822
 21
9.6017969
 31
0.0
  0
LINE
  5
CF
330
48
100
AcDbEntity
  8
0
  6
Continuous
 62
     7
100
AcDbLine
 10
205.6356822
 20
9.6017969
 30
0.0
 11
237.339251
 21
99.6721781
 31
0.0
  0
LINE
  5
D0
330
48
100
AcDbEntity
  8
0
  6
Continuous
 62
     7
100
AcDbLine
 10
237.339251
 20
99.6721781
 30
0.0
 11
388.7880464
 21
99.6974003
 31
0.0
  0
LINE
  5
D1
330
48
100
AcDbEntity
  8
0
  6
Continuous
 62
     7
100
AcDbLine
 10
388.7880464
 20
99.6974003
 30
0.0
 11
419.3449322
 21
9.6017969
 31
0.0
  0
LINE
  5
D2
330
48
100
AcDbEntity
  8
0
  6
Continuous
 62
     7
100
AcDbLine
 10
419.3449322
 20
9.6017969
 30
0.0
 11
511.6582604
 21
9.6017969
 31
0.0
  0
LINE
  5
D3
330
48
100
AcDbEntity
  8
0
  6
Continuous
 62
     7
100
AcDbLine
 10
511.6582604
 20
9.6017969
 30
0.0
 11
497.4697696
 21
47.4293565
 31
0.0
  0
LINE
  5
D4
330
48
100
AcDbEntity
  8
0
  6
Continuous
 62
     7
100
AcDbLine
 10
1082.8264602
 20
48.8910503
 30
0.0
 11
1068.0331446
 21
9.6522159
 31
0.0
  0
LINE
  5
D5
330
48
100
AcDbEntity
  8
0
  6
Continuous
 62
     7
100
AcDbLine
 10
1068.0331446
 20
9.6522159
 30
0.0
 11
1158.128748
 21
9.6522159
 31
0.0
  0
LINE
  5
D6
330
48
100
AcDbEntity
  8
0
  6
Continuous
 62
     7
100
AcDbLine
 10
1158.128748
 20
9.6522159
 30
0.0
 11
1189.8575136
 21
100.0502063
 31
0.0
  0
LINE
  5
D7
330
48
100
AcDbEntity
  8
0
  6
Continuous
 62
     7
100
AcDbLine
 10
1189.8575136
 20
100.0502063
 30
0.0
 11
1341.2558138
 21
100.0754031
 31
0.0
  0
LINE
  5
D8
330
48
100
AcDbEntity
  8
0
  6
Continuous
 62
     7
100
AcDbLine
 10
1341.2558138
 20
100.0754031
 30
0.0
 11
1371.9009138
 21
9.5262065
 31
0.0
  0
LINE
  5
D9
330
48
100
AcDbEntity
  8
0
  6
Continuous
 62
     7
100
AcDbLine
 10
1371.9009138
 20
9.5262065
 30
0.0
 11
1464.3277038
 21
9.5514033
 31
0.0
  0
LINE
  5
DA
330
48
100
AcDbEntity
  8
0
  6
Continuous
 62
     7
100
AcDbLine
 10
1464.3277038
 20
9.5514033
 30
0.0
 11
1312.7907958
 21
414.3388589
 31
0.0
  0
LINE
  5
DB
330
48
100
AcDbEntity
  8
0
  6
Continuous
 62
     7
100
AcDbLine
 10
1312.7907958
 20
414.3388589
 30
0.0
 11
1221.4602698
 21
414.3388589
 31
0.0
  0
LINE
  5
DC
330
48
100
AcDbEntity
  8
0
  6
Continuous
 62
     7
100
AcDbLine
 10
260.4868806
 20
166.0279001
 30
0.0
 11
313.208543
 21
314.4398969
 31
0.0
  0
LINE
  5
DD
330
48
100
AcDbEntity
  8
0
  6
Continuous
 62
     7
100
AcDbLine
 10
314.3930212
 20
314.4398969
 30
0.0
 11
365.4135948
 21
166.0027033
 31
0.0
  0
LINE
  5
DE
330
48
100
AcDbEntity
  8
0
  6
Continuous
 62
     7
100
AcDbLine
 10
365.4135948
 20
166.0027033
 30
0.0
 11
260.4868806
 21
166.0279001
 31
0.0
  0
LINE
  5
DF
330
48
100
AcDbEntity
  8
0
  6
Continuous
 62
     7
100
AcDbLine
 10
858.935798
 20
143.9009187
 30
0.0
 11
799.9641354
 21
143.9765345
 31
0.0
  0
LINE
  5
E0
330
48
100
AcDbEntity
  8
0
  6
Continuous
 62
     7
100
AcDbLine
 10
701.0857962
 20
293.6738729
 30
0.0
 11
786.8845324
 21
293.6738729
 31
0.0
  0
LINE
  5
E1
330
48
100
AcDbEntity
  8
0
  6
Continuous
 62
     7
100
AcDbLine
 10
1212.9925448
 20
166.3303125
 30
0.0
 11
1265.7393278
 21
314.7927029
 31
0.0
  0
LINE
  5
E2
330
48
100
AcDbEntity
  8
0
  6
Continuous
 62
     7
100
AcDbLine
 10
1266.8482918
 20
314.7927029
 30
0.0
 11
1318.0074478
 21
166.3807315
 31
0.0
  0
LINE
  5
E3
330
48
100
AcDbEntity
  8
0
  6
Continuous
 62
     7
100
AcDbLine
 10
1318.0074478
 20
166.3807315
 30
0.0
 11
1212.9925448
 21
166.3303125
 31
0.0
  0
LINE
  5
E4
330
48
100
AcDbEntity
  8
0
  6
Continuous
 62
     7
100
AcDbLine
 10
2107.4841518
 20
414.1877289
 30
0.0
 11
1917.0611138
 21
414.1625829
 31
0.0
  0
LINE
  5
E5
330
48
100
AcDbEntity
  8
0
  6
Continuous
 62
     7
100
AcDbLine
 10
1917.0611138
 20
414.1625829
 30
0.0
 11
1917.2376438
 21
39.5664563
 31
0.0
  0
LINE
  5
E6
330
48
100
AcDbEntity
  8
0
  6
Continuous
 62
     7
100
AcDbLine
 10
1917.2376438
 20
39.5664563
 30
0.0
 11
1776.9656358
 21
414.2380209
 31
0.0
  0
LINE
  5
E7
330
48
100
AcDbEntity
  8
0
  6
Continuous
 62
     7
100
AcDbLine
 10
1776.9656358
 20
414.2380209
 30
0.0
 11
1685.5848178
 21
414.2631669
 31
0.0
  0
LINE
  5
E8
330
48
100
AcDbEntity
  8
0
  6
Continuous
 62
     7
100
AcDbLine
 10
1685.5848178
 20
414.2631669
 30
0.0
 11
1532.1200498
 21
9.5262065
 31
0.0
  0
LINE
  5
E9
330
48
100
AcDbEntity
  8
0
  6
Continuous
 62
     7
100
AcDbLine
 10
1532.1200498
 20
9.5262065
 30
0.0
 11
1622.3667578
 21
9.5262065
 31
0.0
  0
LINE
  5
EA
330
48
100
AcDbEntity
  8
0
  6
Continuous
 62
     7
100
AcDbLine
 10
1622.3667578
 20
9.5262065
 30
0.0
 11
1654.0072838
 21
99.6469813
 31
0.0
  0
LINE
  5
EB
330
48
100
AcDbEntity
  8
0
  6
Continuous
 62
     7
100
AcDbLine
 10
1654.0072838
 20
99.6469813
 30
0.0
 11
1805.4433538
 21
99.6469813
 31
0.0
  0
LINE
  5
EC
330
48
100
AcDbEntity
  8
0
  6
Continuous
 62
     7
100
AcDbLine
 10
1805.4433538
 20
99.6469813
 30
0.0
 11
1836.0130158
 21
9.6269937
 31
0.0
  0
LINE
  5
ED
330
48
100
AcDbEntity
  8
0
  6
Continuous
 62
     7
100
AcDbLine
 10
1836.0130158
 20
9.6269937
 30
0.0
 11
1928.4773978
 21
9.6522159
 31
0.0
  0
LINE
  5
EE
330
48
100
AcDbEntity
  8
0
  6
Continuous
 62
     7
100
AcDbLine
 10
1928.4271058
 20
9.6269937
 30
0.0
 11
2113.4569618
 21
9.5514033
 31
0.0
  0
LINE
  5
EF
330
48
100
AcDbEntity
  8
0
  6
Continuous
 62
     7
100
AcDbLine
 10
1677.2178038
 20
165.9522843
 30
0.0
 11
1729.9901138
 21
314.4901889
 31
0.0
  0
LINE
  5
F0
330
48
100
AcDbEntity
  8
0
  6
Continuous
 62
     7
100
AcDbLine
 10
1731.1239698
 20
314.4901889
 30
0.0
 11
1782.1825418
 21
165.9522843
 31
0.0
  0
LINE
  5
F1
330
48
100
AcDbEntity
  8
0
  6
Continuous
 62
     7
100
AcDbLine
 10
1782.1825418
 20
165.9522843
 30
0.0
 11
1677.2178038
 21
165.9522843
 31
0.0
  0
LINE
  5
F2
330
48
100
AcDbEntity
  8
0
  6
Continuous
 62
     7
100
AcDbLine
 10
2006.1739658
 20
345.3621109
 30
0.0
 11
2089.4145918
 21
345.3621109
 31
0.0
  0
LINE
  5
F3
330
48
100
AcDbEntity
  8
0
  6
Continuous
 62
     7
100
AcDbLine
 10
2096.4206738
 20
250.6295089
 30
0.0
 11
2006.1991118
 21
250.5792169
 31
0.0
  0
LINE
  5
F4
330
48
100
AcDbEntity
  8
0
  6
Continuous
 62
     7
100
AcDbLine
 10
2006.1991118
 20
250.5792169
 30
0.0
 11
2006.1739658
 21
345.3621109
 31
0.0
  0
LINE
  5
F5
330
48
100
AcDbEntity
  8
0
  6
Continuous
 62
     7
100
AcDbLine
 10
2101.5367418
 20
78.9313001
 30
0.0
 11
2006.2748038
 21
78.9061033
 31
0.0
  0
LINE
  5
F6
330
48
100
AcDbEntity
  8
0
  6
Continuous
 62
     7
100
AcDbLine
 10
2006.2748038
 20
78.9061033
 30
0.0
 11
2006.1991118
 21
190.0197749
 31
0.0
  0
LINE
  5
F7
330
48
100
AcDbEntity
  8
0
  6
Continuous
 62
     7
100
AcDbLine
 10
2006.1991118
 20
190.0197749
 30
0.0
 11
2103.1496418
 21
190.0449209
 31
0.0
  0
LINE
  5
F8
330
48
100
AcDbEntity
  8
0
  6
Continuous
 62
     7
100
AcDbLine
 10
2509.0711058
 20
85.0804877
 30
0.0
 11
2358.2398098
 21
85.0804877
 31
0.0
  0
LINE
  5
F9
330
48
100
AcDbEntity
  8
0
  6
Continuous
 62
     7
100
AcDbLine
 10
2358.2398098
 20
85.0804877
 30
0.0
 11
2358.1389718
 21
414.2380209
 31
0.0
  0
LINE
  5
FA
330
48
100
AcDbEntity
  8
0
  6
Continuous
 62
     7
100
AcDbLine
 10
2358.1389718
 20
414.2380209
 30
0.0
 11
2269.2529418
 21
414.2128749
 31
0.0
  0
LINE
  5
FB
330
48
100
AcDbEntity
  8
0
  6
Continuous
 62
     7
100
AcDbLine
 10
2269.2529418
 20
414.2128749
 30
0.0
 11
2269.2783418
 21
9.5514033
 31
0.0
  0
LINE
  5
FC
330
48
100
AcDbEntity
  8
0
  6
Continuous
 62
     7
100
AcDbLine
 10
2269.2783418
 20
9.5514033
 30
0.0
 11
2527.4683258
 21
9.5514033
 31
0.0
  0
LINE
  5
FD
330
48
100
AcDbEntity
  8
0
  6
Continuous
 62
     7
100
AcDbLine
 10
2527.4683258
 20
9.5514033
 30
0.0
 11
2527.4683258
 21
60.8617909
 31
0.0
  0
LINE
  5
FE
330
48
100
AcDbEntity
  8
0
  6
Continuous
 62
     7
100
AcDbLine
 10
3098.4600718
 20
414.2631669
 30
0.0
 11
3004.5085198
 21
254.8634349
 31
0.0
  0
LINE
  5
FF
330
48
100
AcDbEntity
  8
0
  6
Continuous
 62
     7
100
AcDbLine
 10
3004.5085198
 20
254.8634349
 30
0.0
 11
2909.7759178
 21
414.2631669
 31
0.0
  0
LINE
  5
100
330
48
100
AcDbEntity
  8
0
  6
Continuous
 62
     7
100
AcDbLine
 10
2909.7759178
 20
414.2631669
 30
0.0
 11
2809.3981658
 21
414.2631669
 31
0.0
  0
LINE
  5
101
330
48
100
AcDbEntity
  8
0
  6
Continuous
 62
     7
100
AcDbLine
 10
2809.3981658
 20
414.2631669
 30
0.0
 11
2958.4400318
 21
167.6911937
 31
0.0
  0
LINE
  5
102
330
48
100
AcDbEntity
  8
0
  6
Continuous
 62
     7
100
AcDbLine
 10
2958.4400318
 20
167.6911937
 30
0.0
 11
2958.4400318
 21
9.6269937
 31
0.0
  0
LINE
  5
103
330
48
100
AcDbEntity
  8
0
  6
Continuous
 62
     7
100
AcDbLine
 10
2958.4400318
 20
9.6269937
 30
0.0
 11
3047.4771918
 21
9.6269937
 31
0.0
  0
LINE
  5
104
330
48
100
AcDbEntity
  8
0
  6
Continuous
 62
     7
100
AcDbLine
 10
3047.4771918
 20
9.6269937
 30
0.0
 11
3047.4520458
 21
165.4482721
 31
0.0
  0
LINE
  5
105
330
48
100
AcDbEntity
  8
0
  6
Continuous
 62
     7
100
AcDbLine
 10
3047.4520458
 20
165.4482721
 30
0.0
 11
3197.6534218
 21
414.2885669
 31
0.0
  0
LINE
  5
106
330
48
100
AcDbEntity
  8
0
  6
Continuous
 62
     7
100
AcDbLine
 10
3197.6534218
 20
414.2885669
 30
0.0
 11
3098.4600718
 21
414.2631669
 31
0.0
  0
LINE
  5
107
330
48
100
AcDbEntity
  8
0
  6
Continuous
 62
     7
100
AcDbLine
 10
0.0
 20
851.0987169
 30
0.0
 11
0.0
 21
650.4387169
 31
0.0
  0
LINE
  5
108
330
48
100
AcDbEntity
  8
0
  6
Continuous
 62
     7
100
AcDbLine
 10
3309.9028798
 20
652.3208569
 30
0.0
 11
3309.9028798
 21
539.6586489
 31
0.0
  0
LINE
  5
109
330
48
100
AcDbEntity
  8
0
  6
Continuous
 62
     7
100
AcDbLine
 10
3398.8028798
 20
539.6586489
 30
0.0
 11
3309.9028798
 21
539.6586489
 31
0.0
  0
LINE
  5
10A
330
48
100
AcDbEntity
  8
0
  6
Continuous
 62
     7
100
AcDbLine
 10
3398.8028798
 20
741.2714029
 30
0.0
 11
3398.8028798
 21
539.6586489
 31
0.0
  0
LINE
  5
10B
330
48
100
AcDbEntity
  8
0
  6
Continuous
 62
     7
100
AcDbLine
 10
88.9
 20
739.3892629
 30
0.0
 11
3398.8028798
 21
741.2714029
 31
0.0
  0
LINE
  5
10C
330
48
100
AcDbEntity
  8
0
  6
Continuous
 62
     7
100
AcDbLine
 10
88.9
 20
851.1492629
 30
0.0
 11
88.9
 21
739.3892629
 31
0.0
  0
LINE
  5
10D
330
48
100
AcDbEntity
  8
0
  6
Continuous
 62
     7
100
AcDbLine
 10
0.0
 20
851.0987169
 30
0.0
 11
88.9
 21
851.1492629
 31
0.0
  0
SPLINE
  5
10E
330
48
100
AcDbEntity
  8
0
  6
Continuous
 62
     7
100
AcDbSpline
210
0.0
220
0.0
230
1.0
 70
     8
 71
     3
 72
     8
 73
     4
 74
     0
 42
0.00000001
 43
0.00000001
 40
1.0
 40
1.0
 40
1.0
 40
1.0
 40
2.0
 40
2.0
 40
2.0
 40
2.0
 10
1113.547176000002
 20
129.9392752999995
 30
0.0
 10
1113.395969800002
 20
221.8241308999995
 30
0.0
 10
1022.846747800001
 20
240.5236108999995
 30
0.0
 10
993.3357324000011
 20
247.7565148999994
 30
0.0
  0
SPLINE
  5
10F
330
48
100
AcDbEntity
  8
0
  6
Continuous
 62
     7
100
AcDbSpline
210
0.0
220
0.0
230
1.0
 70
     8
 71
     3
 72
     8
 73
     4
 74
     0
 42
0.00000001
 43
0.00000001
 40
2.0
 40
2.0
 40
2.0
 40
2.0
 40
3.0
 40
3.0
 40
3.0
 40
3.0
 10
993.3357324000011
 20
247.7565148999994
 30
0.0
 10
891.8742386000007
 20
273.9408668999994
 30
0.0
 10
872.6202258000013
 20
277.6708568999995
 30
0.0
 10
872.5824306000014
 20
309.0215688999991
 30
0.0
  0
SPLINE
  5
110
330
48
100
AcDbEntity
  8
0
  6
Continuous
 62
     7
100
AcDbSpline
210
0.0
220
0.0
230
1.0
 70
     8
 71
     3
 72
     8
 73
     4
 74
     0
 42
0.00000001
 43
0.00000001
 40
3.0
 40
3.0
 40
3.0
 40
3.0
 40
4.0
 40
4.0
 40
4.0
 40
4.0
 10
872.5824306000014
 20
309.0215688999991
 30
0.0
 10
872.6202258000013
 20
343.0689988999993
 30
0.0
 10
905.4956744000018
 20
354.9135268999995
 30
0.0
 10
933.7844418000012
 20
354.8883808999994
 30
0.0
  0
SPLINE
  5
111
330
48
100
AcDbEntity
  8
0
  6
Continuous
 62
     7
100
AcDbSpline
210
0.0
220
0.0
230
1.0
 70
     8
 71
     3
 72
     8
 73
     4
 74
     0
 42
0.00000001
 43
0.00000001
 40
4.0
 40
4.0
 40
4.0
 40
4.0
 40
5.0
 40
5.0
 40
5.0
 40
5.0
 10
933.7844418000012
 20
354.8883808999994
 30
0.0
 10
976.4002824000011
 20
354.9135268999995
 30
0.0
 10
1010.901204
 20
342.4891168999995
 30
0.0
 10
1013.786796400001
 20
293.7747108999993
 30
0.0
  0
SPLINE
  5
112
330
48
100
AcDbEntity
  8
0
  6
Continuous
 62
     7
100
AcDbSpline
210
0.0
220
0.0
230
1.0
 70
     8
 71
     3
 72
     8
 73
     4
 74
     0
 42
0.00000001
 43
0.00000001
 40
6.0
 40
6.0
 40
6.0
 40
6.0
 40
7.0
 40
7.0
 40
7.0
 40
7.0
 10
1099.925740200001
 20
293.7747108999993
 30
0.0
 10
1099.812329200001
 20
387.3229108999996
 30
0.0
 10
1022.191504000001
 20
424.0668048999994
 30
0.0
 10
937.8166918000011
 20
424.0414048999992
 30
0.0
  0
SPLINE
  5
113
330
48
100
AcDbEntity
  8
0
  6
Continuous
 62
     7
100
AcDbSpline
210
0.0
220
0.0
230
1.0
 70
     8
 71
     3
 72
     8
 73
     4
 74
     0
 42
0.00000001
 43
0.00000001
 40
7.0
 40
7.0
 40
7.0
 40
7.0
 40
8.0
 40
8.0
 40
8.0
 40
8.0
 10
937.8166918000011
 20
424.0414048999992
 30
0.0
 10
865.538604200001
 20
424.1170968999994
 30
0.0
 10
788.5982196000017
 20
385.3066588999994
 30
0.0
 10
786.657710400001
 20
304.7624968999996
 30
0.0
  0
SPLINE
  5
114
330
48
100
AcDbEntity
  8
0
  6
Continuous
 62
     7
100
AcDbSpline
210
0.0
220
0.0
230
1.0
 70
     8
 71
     3
 72
     8
 73
     4
 74
     0
 42
0.00000001
 43
0.00000001
 40
8.0
 40
8.0
 40
8.0
 40
8.0
 40
9.0
 40
9.0
 40
9.0
 40
9.0
 10
786.657710400001
 20
304.7624968999996
 30
0.0
 10
780.6093354000012
 20
389.9942288999996
 30
0.0
 10
706.0757024000015
 20
423.9659668999996
 30
0.0
 10
624.9266902000014
 20
423.8651288999993
 30
0.0
  0
SPLINE
  5
115
330
48
100
AcDbEntity
  8
0
  6
Continuous
 62
     7
100
AcDbSpline
210
0.0
220
0.0
230
1.0
 70
     8
 71
     3
 72
     8
 73
     4
 74
     0
 42
0.00000001
 43
0.00000001
 40
9.0
 40
9.0
 40
9.0
 40
9.0
 40
10.0
 40
10.0
 40
10.0
 40
10.0
 10
624.9266902000014
 20
423.8651288999993
 30
0.0
 10
551.9807604000011
 20
423.8902748999993
 30
0.0
 10
473.7803072000011
 20
384.1222568999996
 30
0.0
 10
473.8307008000016
 20
301.4610048999993
 30
0.0
  0
SPLINE
  5
116
330
48
100
AcDbEntity
  8
0
  6
Continuous
 62
     7
100
AcDbSpline
210
0.0
220
0.0
230
1.0
 70
     8
 71
     3
 72
     8
 73
     4
 74
     0
 42
0.00000001
 43
0.00000001
 40
10.0
 40
10.0
 40
10.0
 40
10.0
 40
11.0
 40
11.0
 40
11.0
 40
11.0
 10
473.8307008000016
 20
301.4610048999993
 30
0.0
 10
473.8307008000016
 20
225.4027368999991
 30
0.0
 10
534.4908792000007
 20
202.2930548999993
 30
0.0
 10
594.5462074000014
 20
186.4411688999996
 30
0.0
  0
SPLINE
  5
117
330
48
100
AcDbEntity
  8
0
  6
Continuous
 62
     7
100
AcDbSpline
210
0.0
220
0.0
230
1.0
 70
     8
 71
     3
 72
     8
 73
     4
 74
     0
 42
0.00000001
 43
0.00000001
 40
11.0
 40
11.0
 40
11.0
 40
11.0
 40
12.0
 40
12.0
 40
12.0
 40
12.0
 10
594.5462074000014
 20
186.4411688999996
 30
0.0
 10
654.1100964000011
 20
170.5641876999993
 30
0.0
 10
714.7324542000009
 20
163.2305218999996
 30
0.0
 10
714.6694368000012
 20
119.6318282999993
 30
0.0
  0
SPLINE
  5
118
330
48
100
AcDbEntity
  8
0
  6
Continuous
 62
     7
100
AcDbSpline
210
0.0
220
0.0
230
1.0
 70
     8
 71
     3
 72
     8
 73
     4
 74
     0
 42
0.00000001
 43
0.00000001
 40
12.0
 40
12.0
 40
12.0
 40
12.0
 40
13.0
 40
13.0
 40
13.0
 40
13.0
 10
714.6694368000012
 20
119.6318282999993
 30
0.0
 10
714.7072574000015
 20
78.27605629999911
 30
0.0
 10
667.1519042000016
 20
69.22870329999941
 30
0.0
 10
636.027963400001
 20
69.10269389999968
 30
0.0
  0
SPLINE
  5
119
330
48
100
AcDbEntity
  8
0
  6
Continuous
 62
     7
100
AcDbSpline
210
0.0
220
0.0
230
1.0
 70
     8
 71
     3
 72
     8
 73
     4
 74
     0
 42
0.00000001
 43
0.00000001
 40
13.0
 40
13.0
 40
13.0
 40
13.0
 40
14.0
 40
14.0
 40
14.0
 40
14.0
 10
636.027963400001
 20
69.10269389999968
 30
0.0
 10
588.3466008000014
 20
69.0523002999992
 30
0.0
 10
546.4994150000014
 20
90.09559069999939
 30
0.0
 10
546.4238246000015
 20
143.9009186999996
 30
0.0
  0
SPLINE
  5
11A
330
48
100
AcDbEntity
  8
0
  6
Continuous
 62
     7
100
AcDbSpline
210
0.0
220
0.0
230
1.0
 70
     8
 71
     3
 72
     8
 73
     4
 74
     0
 42
0.00000001
 43
0.00000001
 40
24.0
 40
24.0
 40
24.0
 40
24.0
 40
25.0
 40
25.0
 40
25.0
 40
25.0
 10
497.4697696000012
 20
47.42935649999946
 30
0.0
 10
530.105797800001
 20
15.09574069999919
 30
0.0
 10
580.2569040000014
 20
-0.0504063000001942
 30
0.0
 10
632.6005636000014
 20
0.0504062999997501
 30
0.0
  0
SPLINE
  5
11B
330
48
100
AcDbEntity
  8
0
  6
Continuous
 62
     7
100
AcDbSpline
210
0.0
220
0.0
230
1.0
 70
     8
 71
     3
 72
     8
 73
     4
 74
     0
 42
0.00000001
 43
0.00000001
 40
25.0
 40
25.0
 40
25.0
 40
25.0
 40
26.0
 40
26.0
 40
26.0
 40
26.0
 10
632.6005636000014
 20
0.0504062999997501
 30
0.0
 10
713.5983696000005
 20
-0.0251841000005193
 30
0.0
 10
766.559452400001
 20
30.26708449999971
 30
0.0
 10
788.8124432000012
 20
75.90712529999965
 30
0.0
  0
SPLINE
  5
11C
330
48
100
AcDbEntity
  8
0
  6
Continuous
 62
     7
100
AcDbSpline
210
0.0
220
0.0
230
1.0
 70
     8
 71
     3
 72
     8
 73
     4
 74
     0
 42
0.00000001
 43
0.00000001
 40
26.0
 40
26.0
 40
26.0
 40
26.0
 40
27.0
 40
27.0
 40
27.0
 40
27.0
 10
788.8124432000012
 20
75.90712529999965
 30
0.0
 10
817.1390058000005
 20
23.94149389999933
 30
0.0
 10
879.6388808000008
 20
0.1008252999992187
 30
0.0
 10
945.3771542000018
 20
0.1764156999994881
 30
0.0
  0
SPLINE
  5
11D
330
48
100
AcDbEntity
  8
0
  6
Continuous
 62
     7
100
AcDbSpline
210
0.0
220
0.0
230
1.0
 70
     8
 71
     3
 72
     8
 73
     4
 74
     0
 42
0.00000001
 43
0.00000001
 40
27.0
 40
27.0
 40
27.0
 40
27.0
 40
28.0
 40
28.0
 40
28.0
 40
28.0
 10
945.3771542000018
 20
0.1764156999994881
 30
0.0
 10
1008.910275800001
 20
0.1764156999994881
 30
0.0
 10
1055.079551000001
 20
18.85077509999977
 30
0.0
 10
1082.826460200001
 20
48.89105029999952
 30
0.0
  0
SPLINE
  5
11E
330
48
100
AcDbEntity
  8
0
  6
Continuous
 62
     7
100
AcDbSpline
210
0.0
220
0.0
230
1.0
 70
     8
 71
     3
 72
     8
 73
     4
 74
     0
 42
0.00000001
 43
0.00000001
 40
0.0
 40
0.0
 40
0.0
 40
0.0
 40
1.0
 40
1.0
 40
1.0
 40
1.0
 10
948.5525352000019
 20
69.32951589999936
 30
0.0
 10
901.047601000001
 20
69.22870329999941
 30
0.0
 10
859.0870042000018
 20
90.24679689999937
 30
0.0
 10
858.935798000001
 20
143.9009186999996
 30
0.0
  0
SPLINE
  5
11F
330
48
100
AcDbEntity
  8
0
  6
Continuous
 62
     7
100
AcDbSpline
210
0.0
220
0.0
230
1.0
 70
     8
 71
     3
 72
     8
 73
     4
 74
     0
 42
0.00000001
 43
0.00000001
 40
2.0
 40
2.0
 40
2.0
 40
2.0
 40
3.0
 40
3.0
 40
3.0
 40
3.0
 10
799.9641354000007
 20
143.9765344999997
 30
0.0
 10
791.1561774000013
 20
223.5630148999994
 30
0.0
 10
708.5832666000016
 20
240.6749948999991
 30
0.0
 10
680.584338600001
 20
247.6810768999993
 30
0.0
  0
SPLINE
  5
120
330
48
100
AcDbEntity
  8
0
  6
Continuous
 62
     7
100
AcDbSpline
210
0.0
220
0.0
230
1.0
 70
     8
 71
     3
 72
     8
 73
     4
 74
     0
 42
0.00000001
 43
0.00000001
 40
3.0
 40
3.0
 40
3.0
 40
3.0
 40
4.0
 40
4.0
 40
4.0
 40
4.0
 10
680.584338600001
 20
247.6810768999993
 30
0.0
 10
579.324444600001
 20
273.7142988999994
 30
0.0
 10
559.9696446000015
 20
277.7716948999998
 30
0.0
 10
559.919251000001
 20
308.8198928999994
 30
0.0
  0
SPLINE
  5
121
330
48
100
AcDbEntity
  8
0
  6
Continuous
 62
     7
100
AcDbSpline
210
0.0
220
0.0
230
1.0
 70
     8
 71
     3
 72
     8
 73
     4
 74
     0
 42
0.00000001
 43
0.00000001
 40
4.0
 40
4.0
 40
4.0
 40
4.0
 40
5.0
 40
5.0
 40
5.0
 40
5.0
 10
559.919251000001
 20
308.8198928999994
 30
0.0
 10
560.0452604000017
 20
342.8924688999992
 30
0.0
 10
592.8072980000012
 20
354.8126888999996
 30
0.0
 10
621.1212368000014
 20
354.7372508999991
 30
0.0
  0
SPLINE
  5
122
330
48
100
AcDbEntity
  8
0
  6
Continuous
 62
     7
100
AcDbSpline
210
0.0
220
0.0
230
1.0
 70
     8
 71
     3
 72
     8
 73
     4
 74
     0
 42
0.00000001
 43
0.00000001
 40
5.0
 40
5.0
 40
5.0
 40
5.0
 40
6.0
 40
6.0
 40
6.0
 40
6.0
 10
621.1212368000014
 20
354.7372508999991
 30
0.0
 10
663.6992822000014
 20
354.7372508999991
 30
0.0
 10
698.1498102000012
 20
342.4136788999994
 30
0.0
 10
701.085796200001
 20
293.6738728999995
 30
0.0
  0
SPLINE
  5
123
330
48
100
AcDbEntity
  8
0
  6
Continuous
 62
     7
100
AcDbSpline
210
0.0
220
0.0
230
1.0
 70
     8
 71
     3
 72
     8
 73
     4
 74
     0
 42
0.00000001
 43
0.00000001
 40
7.0
 40
7.0
 40
7.0
 40
7.0
 40
8.0
 40
8.0
 40
8.0
 40
8.0
 10
786.8845324000011
 20
293.6738728999995
 30
0.0
 10
791.0931854000012
 20
224.0672048999994
 30
0.0
 10
849.2835948000011
 20
201.7888648999997
 30
0.0
 10
907.1715918000009
 20
186.6428448999997
 30
0.0
  0
SPLINE
  5
124
330
48
100
AcDbEntity
  8
0
  6
Continuous
 62
     7
100
AcDbSpline
210
0.0
220
0.0
230
1.0
 70
     8
 71
     3
 72
     8
 73
     4
 74
     0
 42
0.00000001
 43
0.00000001
 40
8.0
 40
8.0
 40
8.0
 40
8.0
 40
9.0
 40
9.0
 40
9.0
 40
9.0
 10
907.1715918000009
 20
186.6428448999997
 30
0.0
 10
966.7480792000011
 20
170.7909842999995
 30
0.0
 10
1027.446027400001
 20
163.4573438999993
 30
0.0
 10
1027.458625800001
 20
119.7830344999993
 30
0.0
  0
SPLINE
  5
125
330
48
100
AcDbEntity
  8
0
  6
Continuous
 62
     7
100
AcDbSpline
210
0.0
220
0.0
230
1.0
 70
     8
 71
     3
 72
     8
 73
     4
 74
     0
 42
0.00000001
 43
0.00000001
 40
9.0
 40
9.0
 40
9.0
 40
9.0
 40
10.0
 40
10.0
 40
10.0
 40
10.0
 10
1027.458625800001
 20
119.7830344999993
 30
0.0
 10
1027.446027400001
 20
78.45245929999933
 30
0.0
 10
979.9032980000009
 20
69.3547126999996
 30
0.0
 10
948.5525352000019
 20
69.32951589999936
 30
0.0
  0
SPLINE
  5
126
330
48
100
AcDbEntity
  8
0
  6
Continuous
 62
     7
100
AcDbSpline
210
0.0
220
0.0
230
1.0
 70
     8
 71
     3
 72
     8
 73
     4
 74
     0
 42
0.00000001
 43
0.00000001
 40
0.0
 40
0.0
 40
0.0
 40
0.0
 40
1.0
 40
1.0
 40
1.0
 40
1.0
 10
2181.828681800002
 20
229.6366628999995
 30
0.0
 10
2217.0353678
 20
246.6729508999994
 30
0.0
 10
2236.818665800001
 20
274.4953488999995
 30
0.0
 10
2236.9195038
 20
314.1879288999991
 30
0.0
  0
SPLINE
  5
127
330
48
100
AcDbEntity
  8
0
  6
Continuous
 62
     7
100
AcDbSpline
210
0.0
220
0.0
230
1.0
 70
     8
 71
     3
 72
     8
 73
     4
 74
     0
 42
0.00000001
 43
0.00000001
 40
1.0
 40
1.0
 40
1.0
 40
1.0
 40
2.0
 40
2.0
 40
2.0
 40
2.0
 10
2236.9195038
 20
314.1879288999991
 30
0.0
 10
2236.818665800001
 20
389.4900388999995
 30
0.0
 10
2184.676529800002
 20
414.4648428999993
 30
0.0
 10
2107.4841518
 20
414.1877288999996
 30
0.0
  0
SPLINE
  5
128
330
48
100
AcDbEntity
  8
0
  6
Continuous
 62
     7
100
AcDbSpline
210
0.0
220
0.0
230
1.0
 70
     8
 71
     3
 72
     8
 73
     4
 74
     0
 42
0.00000001
 43
0.00000001
 40
14.0
 40
14.0
 40
14.0
 40
14.0
 40
15.0
 40
15.0
 40
15.0
 40
15.0
 10
2113.456961800002
 20
9.551403299999706
 30
0.0
 10
2186.516251800002
 20
9.727806299999475
 30
0.0
 10
2256.148319800001
 20
45.03520329999944
 30
0.0
 10
2256.223757800002
 20
127.2174874999994
 30
0.0
  0
SPLINE
  5
129
330
48
100
AcDbEntity
  8
0
  6
Continuous
 62
     7
100
AcDbSpline
210
0.0
220
0.0
230
1.0
 70
     8
 71
     3
 72
     8
 73
     4
 74
     0
 42
0.00000001
 43
0.00000001
 40
15.0
 40
15.0
 40
15.0
 40
15.0
 40
16.0
 40
16.0
 40
16.0
 40
16.0
 10
2256.223757800002
 20
127.2174874999994
 30
0.0
 10
2256.148319800001
 20
177.6710568999995
 30
0.0
 10
2231.173515800001
 20
215.5742068999995
 30
0.0
 10
2181.828681800002
 20
229.6366628999995
 30
0.0
  0
SPLINE
  5
12A
330
48
100
AcDbEntity
  8
0
  6
Continuous
 62
     7
100
AcDbSpline
210
0.0
220
0.0
230
1.0
 70
     8
 71
     3
 72
     8
 73
     4
 74
     0
 42
0.00000001
 43
0.00000001
 40
1.0
 40
1.0
 40
1.0
 40
1.0
 40
2.0
 40
2.0
 40
2.0
 40
2.0
 10
2089.414591800002
 20
345.3621108999995
 30
0.0
 10
2121.092963800002
 20
345.2866728999995
 30
0.0
 10
2150.654499800001
 20
337.3984488999997
 30
0.0
 10
2150.755337800002
 20
298.8653788999995
 30
0.0
  0
SPLINE
  5
12B
330
48
100
AcDbEntity
  8
0
  6
Continuous
 62
     7
100
AcDbSpline
210
0.0
220
0.0
230
1.0
 70
     8
 71
     3
 72
     8
 73
     4
 74
     0
 42
0.00000001
 43
0.00000001
 40
2.0
 40
2.0
 40
2.0
 40
2.0
 40
3.0
 40
3.0
 40
3.0
 40
3.0
 10
2150.755337800002
 20
298.8653788999995
 30
0.0
 10
2150.704791800002
 20
264.7676568999993
 30
0.0
 10
2127.368287800001
 20
250.5538168999992
 30
0.0
 10
2096.420673800002
 20
250.6295088999995
 30
0.0
  0
SPLINE
  5
12C
330
48
100
AcDbEntity
  8
0
  6
Continuous
 62
     7
100
AcDbSpline
210
0.0
220
0.0
230
1.0
 70
     8
 71
     3
 72
     8
 73
     4
 74
     0
 42
0.00000001
 43
0.00000001
 40
3.0
 40
3.0
 40
3.0
 40
3.0
 40
4.0
 40
4.0
 40
4.0
 40
4.0
 10
2103.149641800001
 20
190.0449208999993
 30
0.0
 10
2141.077937800001
 20
190.0954668999995
 30
0.0
 10
2167.262289800001
 20
173.5882608999995
 30
0.0
 10
2167.161451800001
 20
132.2073936999994
 30
0.0
  0
SPLINE
  5
12D
330
48
100
AcDbEntity
  8
0
  6
Continuous
 62
     7
100
AcDbSpline
210
0.0
220
0.0
230
1.0
 70
     8
 71
     3
 72
     8
 73
     4
 74
     0
 42
0.00000001
 43
0.00000001
 40
4.0
 40
4.0
 40
4.0
 40
4.0
 40
5.0
 40
5.0
 40
5.0
 40
5.0
 10
2167.161451800001
 20
132.2073936999994
 30
0.0
 10
2167.161451800001
 20
90.22160009999958
 30
0.0
 10
2136.516351800001
 20
78.93130009999982
 30
0.0
 10
2101.536741800001
 20
78.93130009999982
 30
0.0
  0
SPLINE
  5
12E
330
48
100
AcDbEntity
  8
0
  6
Continuous
 62
     7
100
AcDbSpline
210
0.0
220
0.0
230
1.0
 70
     8
 71
     3
 72
     8
 73
     4
 74
     0
 42
0.00000001
 43
0.00000001
 40
0.0
 40
0.0
 40
0.0
 40
0.0
 40
1.0
 40
1.0
 40
1.0
 40
1.0
 10
2672.9821318
 20
424.1422428999995
 30
0.0
 10
2547.7807058
 20
424.2179348999992
 30
0.0
 10
2474.040949800002
 20
330.7705728999993
 30
0.0
 10
2474.141787800001
 20
210.5086848999997
 30
0.0
  0
SPLINE
  5
12F
330
48
100
AcDbEntity
  8
0
  6
Continuous
 62
     7
100
AcDbSpline
210
0.0
220
0.0
230
1.0
 70
     8
 71
     3
 72
     8
 73
     4
 74
     0
 42
0.00000001
 43
0.00000001
 40
1.0
 40
1.0
 40
1.0
 40
1.0
 40
2.0
 40
2.0
 40
2.0
 40
2.0
 10
2474.141787800001
 20
210.5086848999997
 30
0.0
 10
2474.242625800001
 20
163.2809408999991
 30
0.0
 10
2486.465359800001
 20
120.0350532999996
 30
0.0
 10
2509.071105800001
 20
85.08048769999954
 30
0.0
  0
SPLINE
  5
130
330
48
100
AcDbEntity
  8
0
  6
Continuous
 62
     7
100
AcDbSpline
210
0.0
220
0.0
230
1.0
 70
     8
 71
     3
 72
     8
 73
     4
 74
     0
 42
0.00000001
 43
0.00000001
 40
8.0
 40
8.0
 40
8.0
 40
8.0
 40
9.0
 40
9.0
 40
9.0
 40
9.0
 10
2527.468325800002
 20
60.86179089999977
 30
0.0
 10
2561.490355800001
 20
23.36186589999922
 30
0.0
 10
2610.986319800001
 20
0.2772282999994324
 30
0.0
 10
2673.234099800001
 20
0.3528186999997018
 30
0.0
  0
SPLINE
  5
131
330
48
100
AcDbEntity
  8
0
  6
Continuous
 62
     7
100
AcDbSpline
210
0.0
220
0.0
230
1.0
 70
     8
 71
     3
 72
     8
 73
     4
 74
     0
 42
0.00000001
 43
0.00000001
 40
9.0
 40
9.0
 40
9.0
 40
9.0
 40
10.0
 40
10.0
 40
10.0
 40
10.0
 10
2673.234099800001
 20
0.3528186999997018
 30
0.0
 10
2798.460671800001
 20
0.3528186999997018
 30
0.0
 10
2872.099589800001
 20
93.90101869999911
 30
0.0
 10
2871.973605800001
 20
210.6346688999996
 30
0.0
  0
SPLINE
  5
132
330
48
100
AcDbEntity
  8
0
  6
Continuous
 62
     7
100
AcDbSpline
210
0.0
220
0.0
230
1.0
 70
     8
 71
     3
 72
     8
 73
     4
 74
     0
 42
0.00000001
 43
0.00000001
 40
10.0
 40
10.0
 40
10.0
 40
10.0
 40
11.0
 40
11.0
 40
11.0
 40
11.0
 10
2871.973605800001
 20
210.6346688999996
 30
0.0
 10
2872.023897800001
 20
330.8460108999998
 30
0.0
 10
2798.208703800001
 20
424.3439188999991
 30
0.0
 10
2672.9821318
 20
424.1422428999995
 30
0.0
  0
SPLINE
  5
133
330
48
100
AcDbEntity
  8
0
  6
Continuous
 62
     7
100
AcDbSpline
210
0.0
220
0.0
230
1.0
 70
     8
 71
     3
 72
     8
 73
     4
 74
     0
 42
0.00000001
 43
0.00000001
 40
3.0
 40
3.0
 40
3.0
 40
3.0
 40
4.0
 40
4.0
 40
4.0
 40
4.0
 10
2783.163267800001
 20
210.7103608999994
 30
0.0
 10
2783.238959800001
 20
143.0944686999993
 30
0.0
 10
2753.097795800001
 20
75.17626569999925
 30
0.0
 10
2673.208953800001
 20
75.05025629999973
 30
0.0
  0
SPLINE
  5
134
330
48
100
AcDbEntity
  8
0
  6
Continuous
 62
     7
100
AcDbSpline
210
0.0
220
0.0
230
1.0
 70
     8
 71
     3
 72
     8
 73
     4
 74
     0
 42
0.00000001
 43
0.00000001
 40
2.0
 40
2.0
 40
2.0
 40
2.0
 40
3.0
 40
3.0
 40
3.0
 40
3.0
 10
2673.057569800001
 20
349.3943608999994
 30
0.0
 10
2753.022103800001
 20
349.3943608999994
 30
0.0
 10
2783.012137800001
 20
281.4511388999996
 30
0.0
 10
2783.163267800001
 20
210.7103608999994
 30
0.0
  0
SPLINE
  5
135
330
48
100
AcDbEntity
  8
0
  6
Continuous
 62
     7
100
AcDbSpline
210
0.0
220
0.0
230
1.0
 70
     8
 71
     3
 72
     8
 73
     4
 74
     0
 42
0.00000001
 43
0.00000001
 40
1.0
 40
1.0
 40
1.0
 40
1.0
 40
2.0
 40
2.0
 40
2.0
 40
2.0
 10
2563.153547800001
 20
210.5086848999997
 30
0.0
 10
2563.052963800001
 20
281.3251548999993
 30
0.0
 10
2593.0175978
 20
349.3440688999993
 30
0.0
 10
2673.057569800001
 20
349.3943608999994
 30
0.0
  0
SPLINE
  5
136
330
48
100
AcDbEntity
  8
0
  6
Continuous
 62
     7
100
AcDbSpline
210
0.0
220
0.0
230
1.0
 70
     8
 71
     3
 72
     8
 73
     4
 74
     0
 42
0.00000001
 43
0.00000001
 40
0.0
 40
0.0
 40
0.0
 40
0.0
 40
1.0
 40
1.0
 40
1.0
 40
1.0
 10
2673.208953800001
 20
75.05025629999973
 30
0.0
 10
2593.244419800001
 20
75.0502562999995
 30
0.0
 10
2563.254385800001
 20
143.0692718999995
 30
0.0
 10
2563.153547800001
 20
210.5086848999997
 30
0.0
  0
ENDBLK
  5
4A
330
48
100
AcDbEntity
  8
0
100
AcDbBlockEnd
  0
BLOCK
  5
138
330
137
100
AcDbEntity
  8
0
100
AcDbBlockBegin
  2
effeff Logo fuer Schriftkopf
 70
     0
 10
0.0
 20
0.0
 30
0.0
  3
effeff Logo fuer Schriftkopf
  1

  0
INSERT
  5
142
330
137
100
AcDbEntity
  8
0
  6
Continuous
 62
     7
370
     0
100
AcDbBlockReference
  2
SW_NOTE_0
 10
10.9430671197
 20
8.8581138453
 30
0.0
  0
INSERT
  5
143
330
137
100
AcDbEntity
  8
0
  6
Continuous
 62
     7
100
AcDbBlockReference
  2
effeff Logo-0015_2
 10
0.0
 20
0.0
 30
0.0
 41
0.003
 42
0.003
 43
0.003
  0
ENDBLK
  5
139
330
137
100
AcDbEntity
  8
0
100
AcDbBlockEnd
  0
BLOCK
  5
13B
330
13A
100
AcDbEntity
  8
0
100
AcDbBlockBegin
  2
SW_NOTE_0
 70
     0
 10
0.0
 20
0.0
 30
0.0
  3
SW_NOTE_0
  1

  0
MTEXT
  5
13E
330
13A
100
AcDbEntity
  8
0
  6
Continuous
 62
     0
370
     0
100
AcDbMText
 10
0.0
 20
2.3874608764
 30
0.0
 40
1.8520833333
 41
0.0
 71
     1
 72
     1
  1
ASSA ABLOY
  7
SLDTEXTSTYLE0
 73
     1
 44
1.0
  0
MTEXT
  5
13F
330
13A
100
AcDbEntity
  8
0
  6
Continuous
 62
     0
370
     0
100
AcDbMText
 10
0.0
 20
-0.0819835382
 30
0.0
 40
1.8520833333
 41
0.0
 71
     1
 72
     1
  1
Sicherheitstechnik GmbH
  7
SLDTEXTSTYLE0
 73
     1
 44
1.0
  0
MTEXT
  5
140
330
13A
100
AcDbEntity
  8
0
  6
Continuous
 62
     0
370
     0
100
AcDbMText
 10
0.0
 20
-2.5514279528
 30
0.0
 40
1.8520833333
 41
0.0
 71
     1
 72
     1
  1
Bildstockstrasse 20
  7
SLDTEXTSTYLE0
 73
     1
 44
1.0
  0
MTEXT
  5
141
330
13A
100
AcDbEntity
  8
0
  6
Continuous
 62
     0
370
     0
100
AcDbMText
 10
0.0
 20
-5.0208723674
 30
0.0
 40
1.8520833333
 41
0.0
 71
     1
 72
     1
  1
72458 Albstadt
  7
SLDTEXTSTYLE0
 73
     1
 44
1.0
  0
ENDBLK
  5
13C
330
13A
100
AcDbEntity
  8
0
100
AcDbBlockEnd
  0
BLOCK
  5
16D
330
16C
100
AcDbEntity
  8
0
100
AcDbBlockBegin
  2
SW_NOTE_1
 70
     0
 10
0.0
 20
0.0
 30
0.0
  3
SW_NOTE_1
  1

  0
MTEXT
  5
16F
330
16C
100
AcDbEntity
  8
0
  6
Continuous
 62
     0
370
     0
100
AcDbMText
 10
0.0
 20
2.0463950369
 30
0.0
 40
1.5875
 41
0.0
 71
     1
 72
     1
  1
Blatt
  7
SLDTEXTSTYLE1
 73
     1
 44
1.0
  0
MTEXT
  5
170
330
16C
100
AcDbEntity
  8
0
  6
Continuous
 62
     0
370
     0
100
AcDbMText
 10
0.0
 20
-0.0702716042
 30
0.0
 40
1.5875
 41
0.0
 71
     1
 72
     1
  1
sheet
  7
SLDTEXTSTYLE1
 73
     1
 44
1.0
  0
ENDBLK
  5
16E
330
16C
100
AcDbEntity
  8
0
100
AcDbBlockEnd
  0
BLOCK
  5
176
330
175
100
AcDbEntity
  8
0
100
AcDbBlockBegin
  2
SW_NOTE_2
 70
     0
 10
0.0
 20
0.0
 30
0.0
  3
SW_NOTE_2
  1

  0
MTEXT
  5
178
330
175
100
AcDbEntity
  8
0
  6
Continuous
 62
     0
370
     0
100
AcDbMText
 10
0.0
 20
2.0463950369
 30
0.0
 40
1.5875
 41
0.0
 71
     1
 72
     1
  1
freig.
  7
SLDTEXTSTYLE1
 73
     1
 44
1.0
  0
MTEXT
  5
179
330
175
100
AcDbEntity
  8
0
  6
Continuous
 62
     0
370
     0
100
AcDbMText
 10
0.0
 20
-0.0702716042
 30
0.0
 40
1.5875
 41
0.0
 71
     1
 72
     1
  1
approved
  7
SLDTEXTSTYLE1
 73
     1
 44
1.0
  0
ENDBLK
  5
177
330
175
100
AcDbEntity
  8
0
100
AcDbBlockEnd
  0
BLOCK
  5
17C
330
17B
100
AcDbEntity
  8
0
100
AcDbBlockBegin
  2
SW_NOTE_3
 70
     0
 10
0.0
 20
0.0
 30
0.0
  3
SW_NOTE_3
  1

  0
MTEXT
  5
17E
330
17B
100
AcDbEntity
  8
0
  6
Continuous
 62
     0
370
     0
100
AcDbMText
 10
0.0
 20
2.0463950369
 30
0.0
 40
1.5875
 41
0.0
 71
     1
 72
     1
  1
Gepr.
  7
SLDTEXTSTYLE1
 73
     1
 44
1.0
  0
MTEXT
  5
17F
330
17B
100
AcDbEntity
  8
0
  6
Continuous
 62
     0
370
     0
100
AcDbMText
 10
0.0
 20
-0.0702716042
 30
0.0
 40
1.5875
 41
0.0
 71
     1
 72
     1
  1
checked
  7
SLDTEXTSTYLE1
 73
     1
 44
1.0
  0
ENDBLK
  5
17D
330
17B
100
AcDbEntity
  8
0
100
AcDbBlockEnd
  0
BLOCK
  5
182
330
181
100
AcDbEntity
  8
0
100
AcDbBlockBegin
  2
SW_NOTE_4
 70
     0
 10
0.0
 20
0.0
 30
0.0
  3
SW_NOTE_4
  1

  0
MTEXT
  5
184
330
181
100
AcDbEntity
  8
0
  6
Continuous
 62
     0
370
     0
100
AcDbMText
 10
0.0
 20
2.0463950369
 30
0.0
 40
1.5875
 41
0.0
 71
     1
 72
     1
  1
Bearb.
  7
SLDTEXTSTYLE1
 73
     1
 44
1.0
  0
MTEXT
  5
185
330
181
100
AcDbEntity
  8
0
  6
Continuous
 62
     0
370
     0
100
AcDbMText
 10
0.0
 20
-0.0702716042
 30
0.0
 40
1.5875
 41
0.0
 71
     1
 72
     1
  1
author
  7
SLDTEXTSTYLE1
 73
     1
 44
1.0
  0
ENDBLK
  5
183
330
181
100
AcDbEntity
  8
0
100
AcDbBlockEnd
  0
BLOCK
  5
188
330
187
100
AcDbEntity
  8
0
100
AcDbBlockBegin
  2
SW_NOTE_5
 70
     0
 10
0.0
 20
0.0
 30
0.0
  3
SW_NOTE_5
  1

  0
MTEXT
  5
18A
330
187
100
AcDbEntity
  8
0
  6
Continuous
 62
     0
370
     0
100
AcDbMText
 10
0.0
 20
2.0463950369
 30
0.0
 40
1.5875
 41
0.0
 71
     1
 72
     1
  1
Name
  7
SLDTEXTSTYLE1
 73
     1
 44
1.0
  0
MTEXT
  5
18B
330
187
100
AcDbEntity
  8
0
  6
Continuous
 62
     0
370
     0
100
AcDbMText
 10
0.0
 20
-0.0702716042
 30
0.0
 40
1.5875
 41
0.0
 71
     1
 72
     1
  1
name
  7
SLDTEXTSTYLE1
 73
     1
 44
1.0
  0
ENDBLK
  5
189
330
187
100
AcDbEntity
  8
0
100
AcDbBlockEnd
  0
BLOCK
  5
18E
330
18D
100
AcDbEntity
  8
0
100
AcDbBlockBegin
  2
SW_NOTE_6
 70
     0
 10
0.0
 20
0.0
 30
0.0
  3
SW_NOTE_6
  1

  0
MTEXT
  5
190
330
18D
100
AcDbEntity
  8
0
  6
Continuous
 62
     0
370
     0
100
AcDbMText
 10
0.0
 20
2.0463950369
 30
0.0
 40
1.5875
 41
0.0
 71
     1
 72
     1
  1
Datum
  7
SLDTEXTSTYLE1
 73
     1
 44
1.0
  0
MTEXT
  5
191
330
18D
100
AcDbEntity
  8
0
  6
Continuous
 62
     0
370
     0
100
AcDbMText
 10
0.0
 20
-0.0702716042
 30
0.0
 40
1.5875
 41
0.0
 71
     1
 72
     1
  1
date
  7
SLDTEXTSTYLE1
 73
     1
 44
1.0
  0
ENDBLK
  5
18F
330
18D
100
AcDbEntity
  8
0
100
AcDbBlockEnd
  0
BLOCK
  5
194
330
193
100
AcDbEntity
  8
0
100
AcDbBlockBegin
  2
SW_NOTE_7
 70
     0
 10
0.0
 20
0.0
 30
0.0
  3
SW_NOTE_7
  1

  0
MTEXT
  5
196
330
193
100
AcDbEntity
  8
0
  6
Continuous
 62
     0
370
     0
100
AcDbMText
 10
0.0
 20
2.0463950369
 30
0.0
 40
1.5875
 41
0.0
 71
     1
 72
     1
  1
Aenderung
  7
SLDTEXTSTYLE1
 73
     1
 44
1.0
  0
MTEXT
  5
197
330
193
100
AcDbEntity
  8
0
  6
Continuous
 62
     0
370
     0
100
AcDbMText
 10
0.0
 20
-0.0702716042
 30
0.0
 40
1.5875
 41
0.0
 71
     1
 72
     1
  1
description
  7
SLDTEXTSTYLE1
 73
     1
 44
1.0
  0
ENDBLK
  5
195
330
193
100
AcDbEntity
  8
0
100
AcDbBlockEnd
  0
BLOCK
  5
19A
330
199
100
AcDbEntity
  8
0
100
AcDbBlockBegin
  2
SW_NOTE_8
 70
     0
 10
0.0
 20
0.0
 30
0.0
  3
SW_NOTE_8
  1

  0
MTEXT
  5
19C
330
199
100
AcDbEntity
  8
0
  6
Continuous
 62
     0
370
     0
100
AcDbMText
 10
0.0
 20
2.0463950369
 30
0.0
 40
1.5875
 41
0.0
 71
     1
 72
     1
  1
Stand
  7
SLDTEXTSTYLE1
 73
     1
 44
1.0
  0
MTEXT
  5
19D
330
199
100
AcDbEntity
  8
0
  6
Continuous
 62
     0
370
     0
100
AcDbMText
 10
0.0
 20
-0.0702716042
 30
0.0
 40
1.5875
 41
0.0
 71
     1
 72
     1
  1
state
  7
SLDTEXTSTYLE1
 73
     1
 44
1.0
  0
ENDBLK
  5
19B
330
199
100
AcDbEntity
  8
0
100
AcDbBlockEnd
  0
BLOCK
  5
1AD
330
1AC
100
AcDbEntity
  8
0
100
AcDbBlockBegin
  2
SW_NOTE_9
 70
     0
 10
0.0
 20
0.0
 30
0.0
  3
SW_NOTE_9
  1

  0
MTEXT
  5
1AF
330
1AC
100
AcDbEntity
  8
0
  6
Continuous
 62
     0
370
     0
100
AcDbMText
 10
0.0
 20
3.4106583948
 30
0.0
 40
2.6458333333
 41
0.0
 71
     1
 72
     1
  1
Gewicht/
  7
SLDTEXTSTYLE1
 73
     1
 44
1.0
  0
MTEXT
  5
1B0
330
1AC
100
AcDbEntity
  8
0
  6
Continuous
 62
     0
370
     0
100
AcDbMText
 10
0.0
 20
-0.1171193403
 30
0.0
 40
2.6458333333
 41
0.0
 71
     1
 72
     1
  1
weight:
  7
SLDTEXTSTYLE1
 73
     1
 44
1.0
  0
ENDBLK
  5
1AE
330
1AC
100
AcDbEntity
  8
0
100
AcDbBlockEnd
  0
BLOCK
  5
1E2
330
1E1
100
AcDbEntity
  8
0
100
AcDbBlockBegin
  2
*D13
 70
     1
 10
0.0
 20
0.0
 30
0.0
  3
*D13
  1

  0
SOLID
  5
1E4
330
1E1
100
AcDbEntity
  8
0
  6
Continuous
 62
     6
370
     0
100
AcDbTrace
 10
68.7627478196
 20
230.0263692272
 30
0.0
 11
68.2627478196
 21
226.7263692272
 31
0.0
 12
69.2627478196
 22
226.7263692272
 32
0.0
 13
69.2627478196
 23
226.7263692272
 33
0.0
  0
SOLID
  5
1E5
330
1E1
100
AcDbEntity
  8
0
  6
Continuous
 62
     6
370
     0
100
AcDbTrace
 10
68.7627478196
 20
216.0263692272
 30
0.0
 11
69.2627478196
 21
219.3263692272
 31
0.0
 12
68.2627478196
 22
219.3263692272
 32
0.0
 13
68.2627478196
 23
219.3263692272
 33
0.0
  0
LINE
  5
1E6
330
1E1
100
AcDbEntity
  8
0
  6
Continuous
 62
     6
370
     0
100
AcDbLine
 10
80.7627478196
 20
230.0263692272
 30
0.0
 11
67.7627478196
 21
230.0263692272
 31
0.0
  0
LINE
  5
1E7
330
1E1
100
AcDbEntity
  8
0
  6
Continuous
 62
     6
370
     0
100
AcDbLine
 10
80.7627478196
 20
216.0263692272
 30
0.0
 11
67.7627478196
 21
216.0263692272
 31
0.0
  0
LINE
  5
1E8
330
1E1
100
AcDbEntity
  8
0
  6
Continuous
 62
     6
370
     0
100
AcDbLine
 10
68.7627478196
 20
230.0263692272
 30
0.0
 11
68.7627478196
 21
216.0263692272
 31
0.0
  0
MTEXT
  5
1E9
330
1E1
100
AcDbEntity
  8
0
  6
Continuous
 62
     6
370
     0
100
AcDbMText
 10
64.2510104976
 20
220.3536071508
 30
0.0
 40
3.5
 41
0.0
 71
     1
 72
     1
  1
14
  7
SLDTEXTSTYLE1
 11
-7.044195017643634E-15
 21
1.0
 31
0.0
 73
     1
 44
1.0
  0
ENDBLK
  5
1E3
330
1E1
100
AcDbEntity
  8
0
100
AcDbBlockEnd
  0
BLOCK
  5
1ED
330
1EC
100
AcDbEntity
  8
0
100
AcDbBlockBegin
  2
*D14
 70
     1
 10
0.0
 20
0.0
 30
0.0
  3
*D14
  1

  0
SOLID
  5
1EF
330
1EC
100
AcDbEntity
  8
0
  6
Continuous
 62
     6
370
     0
100
AcDbTrace
 10
68.7627478196
 20
230.0263692272
 30
0.0
 11
68.2627478196
 21
226.7263692272
 31
0.0
 12
69.2627478196
 22
226.7263692272
 32
0.0
 13
69.2627478196
 23
226.7263692272
 33
0.0
  0
SOLID
  5
1F0
330
1EC
100
AcDbEntity
  8
0
  6
Continuous
 62
     6
370
     0
100
AcDbTrace
 10
68.7627478196
 20
235.5263692272
 30
0.0
 11
69.2627478196
 21
238.8263692272
 31
0.0
 12
68.2627478196
 22
238.8263692272
 32
0.0
 13
68.2627478196
 23
238.8263692272
 33
0.0
  0
LINE
  5
1F1
330
1EC
100
AcDbEntity
  8
0
  6
Continuous
 62
     6
370
     0
100
AcDbLine
 10
80.7627478196
 20
230.0263692272
 30
0.0
 11
67.7627478196
 21
230.0263692272
 31
0.0
  0
LINE
  5
1F2
330
1EC
100
AcDbEntity
  8
0
  6
Continuous
 62
     6
370
     0
100
AcDbLine
 10
78.7627478196
 20
235.5263692272
 30
0.0
 11
67.7627478196
 21
235.5263692272
 31
0.0
  0
LINE
  5
1F3
330
1EC
100
AcDbEntity
  8
0
  6
Continuous
 62
     6
370
     0
100
AcDbLine
 10
68.7627478196
 20
230.0263692272
 30
0.0
 11
68.7627478196
 21
223.7763692272
 31
0.0
  0
LINE
  5
1F4
330
1EC
100
AcDbEntity
  8
0
  6
Continuous
 62
     6
370
     0
100
AcDbLine
 10
68.7627478196
 20
230.0263692272
 30
0.0
 11
68.7627478196
 21
235.5263692272
 31
0.0
  0
LINE
  5
1F5
330
1EC
100
AcDbEntity
  8
0
  6
Continuous
 62
     6
370
     0
100
AcDbLine
 10
68.7627478196
 20
235.5263692272
 30
0.0
 11
68.7627478196
 21
247.5515496325
 31
0.0
  0
MTEXT
  5
1F6
330
1EC
100
AcDbEntity
  8
0
  6
Continuous
 62
     6
370
     0
100
AcDbMText
 10
64.2510104976
 20
239.2830347687
 30
0.0
 40
3.5
 41
0.0
 71
     1
 72
     1
  1
5,5
  7
SLDTEXTSTYLE1
 11
-1.608122649676637E-16
 21
1.0
 31
0.0
 73
     1
 44
1.0
  0
ENDBLK
  5
1EE
330
1EC
100
AcDbEntity
  8
0
100
AcDbBlockEnd
  0
BLOCK
  5
1FA
330
1F9
100
AcDbEntity
  8
0
100
AcDbBlockBegin
  2
*D15
 70
     1
 10
0.0
 20
0.0
 30
0.0
  3
*D15
  1

  0
SOLID
  5
1FC
330
1F9
100
AcDbEntity
  8
0
  6
Continuous
 62
     6
370
     0
100
AcDbTrace
 10
59.0422850026
 20
235.5263692272
 30
0.0
 11
58.5422850026
 21
232.2263692272
 31
0.0
 12
59.5422850026
 22
232.2263692272
 32
0.0
 13
59.5422850026
 23
232.2263692272
 33
0.0
  0
SOLID
  5
1FD
330
1F9
100
AcDbEntity
  8
0
  6
Continuous
 62
     6
370
     0
100
AcDbTrace
 10
59.0422850026
 20
210.5263692272
 30
0.0
 11
59.5422850026
 21
213.8263692272
 31
0.0
 12
58.5422850026
 22
213.8263692272
 32
0.0
 13
58.5422850026
 23
213.8263692272
 33
0.0
  0
LINE
  5
1FE
330
1F9
100
AcDbEntity
  8
0
  6
Continuous
 62
     6
370
     0
100
AcDbLine
 10
78.7627478196
 20
235.5263692272
 30
0.0
 11
58.0422850026
 21
235.5263692272
 31
0.0
  0
LINE
  5
1FF
330
1F9
100
AcDbEntity
  8
0
  6
Continuous
 62
     6
370
     0
100
AcDbLine
 10
78.7627478196
 20
210.5263692272
 30
0.0
 11
58.0422850026
 21
210.5263692272
 31
0.0
  0
LINE
  5
200
330
1F9
100
AcDbEntity
  8
0
  6
Continuous
 62
     6
370
     0
100
AcDbLine
 10
59.0422850026
 20
235.5263692272
 30
0.0
 11
59.0422850026
 21
210.5263692272
 31
0.0
  0
MTEXT
  5
201
330
1F9
100
AcDbEntity
  8
0
  6
Continuous
 62
     6
370
     0
100
AcDbMText
 10
54.5305476806
 20
216.5661554942
 30
0.0
 40
3.5
 41
0.0
 71
     1
 72
     1
  1
25
  7
SLDTEXTSTYLE1
 11
-7.044195017643634E-15
 21
1.0
 31
0.0
 73
     1
 44
1.0
  0
MTEXT
  5
202
330
1F9
100
AcDbEntity
  8
0
  6
Continuous
 62
     6
370
     0
100
AcDbMText
 10
55.5813579287
 20
223.2685382094
 30
0.0
 40
2.45
 41
0.0
 71
     1
 72
     1
  1
-
  7
SLDTEXTSTYLE1
 11
-7.044195017643634E-15
 21
1.0
 31
0.0
 73
     1
 44
1.0
  0
MTEXT
  5
203
330
1F9
100
AcDbEntity
  8
0
  6
Continuous
 62
     6
370
     0
100
AcDbMText
 10
55.5813579287
 20
224.8105848171
 30
0.0
 40
2.45
 41
0.0
 71
     1
 72
     1
  1
0,3
  7
SLDTEXTSTYLE1
 11
-7.044195017643634E-15
 21
1.0
 31
0.0
 73
     1
 44
1.0
  0
MTEXT
  5
204
330
1F9
100
AcDbEntity
  8
0
  6
Continuous
 62
     6
370
     0
100
AcDbMText
 10
51.824177395
 20
224.8105848171
 30
0.0
 40
2.45
 41
0.0
 71
     1
 72
     1
  1
0
  7
SLDTEXTSTYLE1
 11
-7.044195017643634E-15
 21
1.0
 31
0.0
 73
     1
 44
1.0
  0
ENDBLK
  5
1FB
330
1F9
100
AcDbEntity
  8
0
100
AcDbBlockEnd
  0
BLOCK
  5
207
330
206
100
AcDbEntity
  8
0
100
AcDbBlockBegin
  2
*D16
 70
     1
 10
0.0
 20
0.0
 30
0.0
  3
*D16
  1

  0
SOLID
  5
209
330
206
100
AcDbEntity
  8
0
  6
Continuous
 62
     6
370
     0
100
AcDbTrace
 10
114.4917801459
 20
224.5263692272
 30
0.0
 11
113.9917801459
 21
221.2263692272
 31
0.0
 12
114.9917801459
 22
221.2263692272
 32
0.0
 13
114.9917801459
 23
221.2263692272
 33
0.0
  0
SOLID
  5
20A
330
206
100
AcDbEntity
  8
0
  6
Continuous
 62
     6
370
     0
100
AcDbTrace
 10
114.4917801459
 20
235.5263692272
 30
0.0
 11
114.9917801459
 21
238.8263692272
 31
0.0
 12
113.9917801459
 22
238.8263692272
 32
0.0
 13
113.9917801459
 23
238.8263692272
 33
0.0
  0
LINE
  5
20B
330
206
100
AcDbEntity
  8
0
  6
Continuous
 62
     6
370
     0
100
AcDbLine
 10
122.6127478196
 20
224.5263692272
 30
0.0
 11
113.4917801459
 21
224.5263692272
 31
0.0
  0
LINE
  5
20C
330
206
100
AcDbEntity
  8
0
  6
Continuous
 62
     6
370
     0
100
AcDbLine
 10
114.4917801459
 20
224.5263692272
 30
0.0
 11
114.4917801459
 21
218.2763692272
 31
0.0
  0
LINE
  5
20D
330
206
100
AcDbEntity
  8
0
  6
Continuous
 62
     6
370
     0
100
AcDbLine
 10
114.4917801459
 20
224.5263692272
 30
0.0
 11
114.4917801459
 21
235.5263692272
 31
0.0
  0
LINE
  5
20E
330
206
100
AcDbEntity
  8
0
  6
Continuous
 62
     6
370
     0
100
AcDbLine
 10
114.4917801459
 20
235.5263692272
 30
0.0
 11
114.4917801459
 21
241.7763692272
 31
0.0
  0
MTEXT
  5
20F
330
206
100
AcDbEntity
  8
0
  6
Continuous
 62
     6
370
     0
100
AcDbMText
 10
109.9800428239
 20
227.3536071508
 30
0.0
 40
3.5
 41
0.0
 71
     1
 72
     1
  1
11
  7
SLDTEXTSTYLE1
 11
-1.608122649676637E-16
 21
1.0
 31
0.0
 73
     1
 44
1.0
  0
ENDBLK
  5
208
330
206
100
AcDbEntity
  8
0
100
AcDbBlockEnd
  0
BLOCK
  5
212
330
211
100
AcDbEntity
  8
0
100
AcDbBlockBegin
  2
*D17
 70
     1
 10
0.0
 20
0.0
 30
0.0
  3
*D17
  1

  0
SOLID
  5
214
330
211
100
AcDbEntity
  8
0
  6
Continuous
 62
     6
370
     0
100
AcDbTrace
 10
215.1561127166
 20
224.5263692272
 30
0.0
 11
214.6561127166
 21
221.2263692272
 31
0.0
 12
215.6561127166
 22
221.2263692272
 32
0.0
 13
215.6561127166
 23
221.2263692272
 33
0.0
  0
SOLID
  5
215
330
211
100
AcDbEntity
  8
0
  6
Continuous
 62
     6
370
     0
100
AcDbTrace
 10
215.1561127166
 20
235.5263692272
 30
0.0
 11
215.6561127166
 21
238.8263692272
 31
0.0
 12
214.6561127166
 22
238.8263692272
 32
0.0
 13
214.6561127166
 23
238.8263692272
 33
0.0
  0
LINE
  5
216
330
211
100
AcDbEntity
  8
0
  6
Continuous
 62
     6
370
     0
100
AcDbLine
 10
222.6127478196
 20
224.5263692272
 30
0.0
 11
214.1561127166
 21
224.5263692272
 31
0.0
  0
LINE
  5
217
330
211
100
AcDbEntity
  8
0
  6
Continuous
 62
     6
370
     0
100
AcDbLine
 10
215.1561127166
 20
224.5263692272
 30
0.0
 11
215.1561127166
 21
218.2763692272
 31
0.0
  0
LINE
  5
218
330
211
100
AcDbEntity
  8
0
  6
Continuous
 62
     6
370
     0
100
AcDbLine
 10
215.1561127166
 20
224.5263692272
 30
0.0
 11
215.1561127166
 21
235.5263692272
 31
0.0
  0
LINE
  5
219
330
211
100
AcDbEntity
  8
0
  6
Continuous
 62
     6
370
     0
100
AcDbLine
 10
215.1561127166
 20
235.5263692272
 30
0.0
 11
215.1561127166
 21
241.7763692272
 31
0.0
  0
MTEXT
  5
21A
330
211
100
AcDbEntity
  8
0
  6
Continuous
 62
     6
370
     0
100
AcDbMText
 10
210.6443753946
 20
227.3536071508
 30
0.0
 40
3.5
 41
0.0
 71
     1
 72
     1
  1
11
  7
SLDTEXTSTYLE1
 11
6.123233995736766E-17
 21
1.0
 31
0.0
 73
     1
 44
1.0
  0
ENDBLK
  5
213
330
211
100
AcDbEntity
  8
0
100
AcDbBlockEnd
  0
BLOCK
  5
21E
330
21D
100
AcDbEntity
  8
0
100
AcDbBlockBegin
  2
*D18
 70
     1
 10
0.0
 20
0.0
 30
0.0
  3
*D18
  1

  0
SOLID
  5
220
330
21D
100
AcDbEntity
  8
0
  6
Continuous
 62
     6
370
     0
100
AcDbTrace
 10
78.7627478196
 20
246.7702955805
 30
0.0
 11
82.0627478196
 21
246.2702955805
 31
0.0
 12
82.0627478196
 22
247.2702955805
 32
0.0
 13
82.0627478196
 23
247.2702955805
 33
0.0
  0
SOLID
  5
221
330
21D
100
AcDbEntity
  8
0
  6
Continuous
 62
     6
370
     0
100
AcDbTrace
 10
153.7627478196
 20
246.7702955805
 30
0.0
 11
150.4627478196
 21
247.2702955805
 31
0.0
 12
150.4627478196
 22
246.2702955805
 32
0.0
 13
150.4627478196
 23
246.2702955805
 33
0.0
  0
LINE
  5
222
330
21D
100
AcDbEntity
  8
0
  6
Continuous
 62
     6
370
     0
100
AcDbLine
 10
78.7627478196
 20
235.5263692272
 30
0.0
 11
78.7627478196
 21
247.7702955805
 31
0.0
  0
LINE
  5
223
330
21D
100
AcDbEntity
  8
0
  6
Continuous
 62
     6
370
     0
100
AcDbLine
 10
153.7627478196
 20
236.5263692272
 30
0.0
 11
153.7627478196
 21
247.7702955805
 31
0.0
  0
LINE
  5
224
330
21D
100
AcDbEntity
  8
0
  6
Continuous
 62
     6
370
     0
100
AcDbLine
 10
78.7627478196
 20
246.7702955805
 30
0.0
 11
153.7627478196
 21
246.7702955805
 31
0.0
  0
MTEXT
  5
225
330
21D
100
AcDbEntity
  8
0
  6
Continuous
 62
     6
370
     0
100
AcDbMText
 10
109.861295678
 20
251.2820329026
 30
0.0
 40
3.5
 41
0.0
 71
     1
 72
     1
  1
75
  7
SLDTEXTSTYLE1
 73
     1
 44
1.0
  0
MTEXT
  5
226
330
21D
100
AcDbEntity
  8
0
  6
Continuous
 62
     6
370
     0
100
AcDbMText
 10
116.5423105418
 20
250.2312226544
 30
0.0
 40
2.45
 41
0.0
 71
     1
 72
     1
  1
±0,2
  7
SLDTEXTSTYLE1
 73
     1
 44
1.0
  0
ENDBLK
  5
21F
330
21D
100
AcDbEntity
  8
0
100
AcDbBlockEnd
  0
BLOCK
  5
229
330
228
100
AcDbEntity
  8
0
100
AcDbBlockBegin
  2
*D19
 70
     1
 10
0.0
 20
0.0
 30
0.0
  3
*D19
  1

  0
SOLID
  5
22B
330
228
100
AcDbEntity
  8
0
  6
Continuous
 62
     6
370
     0
100
AcDbTrace
 10
153.7627478196
 20
246.7702955805
 30
0.0
 11
157.0627478196
 21
246.2702955805
 31
0.0
 12
157.0627478196
 22
247.2702955805
 32
0.0
 13
157.0627478196
 23
247.2702955805
 33
0.0
  0
SOLID
  5
22C
330
228
100
AcDbEntity
  8
0
  6
Continuous
 62
     6
370
     0
100
AcDbTrace
 10
253.7627478196
 20
246.7702955805
 30
0.0
 11
250.4627478196
 21
247.2702955805
 31
0.0
 12
250.4627478196
 22
246.2702955805
 32
0.0
 13
250.4627478196
 23
246.2702955805
 33
0.0
  0
LINE
  5
22D
330
228
100
AcDbEntity
  8
0
  6
Continuous
 62
     6
370
     0
100
AcDbLine
 10
153.7627478196
 20
236.5263692272
 30
0.0
 11
153.7627478196
 21
247.7702955805
 31
0.0
  0
LINE
  5
22E
330
228
100
AcDbEntity
  8
0
  6
Continuous
 62
     6
370
     0
100
AcDbLine
 10
253.7627478196
 20
236.5263692272
 30
0.0
 11
253.7627478196
 21
247.7702955805
 31
0.0
  0
LINE
  5
22F
330
228
100
AcDbEntity
  8
0
  6
Continuous
 62
     6
370
     0
100
AcDbLine
 10
153.7627478196
 20
246.7702955805
 30
0.0
 11
253.7627478196
 21
246.7702955805
 31
0.0
  0
MTEXT
  5
230
330
228
100
AcDbEntity
  8
0
  6
Continuous
 62
     6
370
     0
100
AcDbMText
 10
196.0240243127
 20
251.2820329026
 30
0.0
 40
3.5
 41
0.0
 71
     1
 72
     1
  1
100
  7
SLDTEXTSTYLE1
 73
     1
 44
1.0
  0
MTEXT
  5
231
330
228
100
AcDbEntity
  8
0
  6
Continuous
 62
     6
370
     0
100
AcDbMText
 10
205.3795819072
 20
250.2312226544
 30
0.0
 40
2.45
 41
0.0
 71
     1
 72
     1
  1
±0,2
  7
SLDTEXTSTYLE1
 73
     1
 44
1.0
  0
ENDBLK
  5
22A
330
228
100
AcDbEntity
  8
0
100
AcDbBlockEnd
  0
BLOCK
  5
235
330
234
100
AcDbEntity
  8
0
100
AcDbBlockBegin
  2
*D20
 70
     1
 10
0.0
 20
0.0
 30
0.0
  3
*D20
  1

  0
SOLID
  5
237
330
234
100
AcDbEntity
  8
0
  6
Continuous
 62
     6
370
     0
100
AcDbTrace
 10
78.7627478196
 20
256.9562829062
 30
0.0
 11
82.0627478196
 21
256.4562829062
 31
0.0
 12
82.0627478196
 22
257.4562829062
 32
0.0
 13
82.0627478196
 23
257.4562829062
 33
0.0
  0
SOLID
  5
238
330
234
100
AcDbEntity
  8
0
  6
Continuous
 62
     6
370
     0
100
AcDbTrace
 10
328.7627478196
 20
256.9562829062
 30
0.0
 11
325.4627478196
 21
257.4562829062
 31
0.0
 12
325.4627478196
 22
256.4562829062
 32
0.0
 13
325.4627478196
 23
256.4562829062
 33
0.0
  0
LINE
  5
239
330
234
100
AcDbEntity
  8
0
  6
Continuous
 62
     6
370
     0
100
AcDbLine
 10
78.7627478196
 20
235.5263692272
 30
0.0
 11
78.7627478196
 21
257.9562829062
 31
0.0
  0
LINE
  5
23A
330
234
100
AcDbEntity
  8
0
  6
Continuous
 62
     6
370
     0
100
AcDbLine
 10
328.7627478196
 20
235.5263692272
 30
0.0
 11
328.7627478196
 21
257.9562829062
 31
0.0
  0
LINE
  5
23B
330
234
100
AcDbEntity
  8
0
  6
Continuous
 62
     6
370
     0
100
AcDbLine
 10
78.7627478196
 20
256.9562829062
 30
0.0
 11
328.7627478196
 21
256.9562829062
 31
0.0
  0
MTEXT
  5
23C
330
234
100
AcDbEntity
  8
0
  6
Continuous
 62
     6
370
     0
100
AcDbMText
 10
195.9652627214
 20
261.4680202282
 30
0.0
 40
3.5
 41
0.0
 71
     1
 72
     1
  1
250
  7
SLDTEXTSTYLE1
 73
     1
 44
1.0
  0
MTEXT
  5
23D
330
234
100
AcDbEntity
  8
0
  6
Continuous
 62
     6
370
     0
100
AcDbMText
 10
205.3421881673
 20
260.41720998
 30
0.0
 40
2.45
 41
0.0
 71
     1
 72
     1
  1
-
  7
SLDTEXTSTYLE1
 73
     1
 44
1.0
  0
MTEXT
  5
23E
330
234
100
AcDbEntity
  8
0
  6
Continuous
 62
     6
370
     0
100
AcDbMText
 10
206.8842347749
 20
260.41720998
 30
0.0
 40
2.45
 41
0.0
 71
     1
 72
     1
  1
0,2
  7
SLDTEXTSTYLE1
 73
     1
 44
1.0
  0
MTEXT
  5
23F
330
234
100
AcDbEntity
  8
0
  6
Continuous
 62
     6
370
     0
100
AcDbMText
 10
206.8842347749
 20
264.1743905138
 30
0.0
 40
2.45
 41
0.0
 71
     1
 72
     1
  1
0
  7
SLDTEXTSTYLE1
 73
     1
 44
1.0
  0
ENDBLK
  5
236
330
234
100
AcDbEntity
  8
0
100
AcDbBlockEnd
  0
BLOCK
  5
242
330
241
100
AcDbEntity
  8
0
100
AcDbBlockBegin
  2
*D21
 70
     1
 10
0.0
 20
0.0
 30
0.0
  3
*D21
  1

  0
ARC
  5
244
330
241
100
AcDbEntity
  8
0
  6
Continuous
 62
     6
370
     0
100
AcDbCircle
 10
204.872939056
 20
199.301987726
 30
0.0
 40
6.004349338605396
100
AcDbArc
 50
153.4349488229
 51
206.5650511771
  0
ARC
  5
245
330
241
100
AcDbEntity
  8
0
  6
Continuous
 62
     6
370
     0
100
AcDbCircle
 10
202.6525565833
 20
199.301987726
 30
0.0
 40
6.004349338605396
100
AcDbArc
 50
333.4349488229
 51
26.5650511771
  0
SOLID
  5
246
330
241
100
AcDbEntity
  8
0
  6
Continuous
 62
     6
370
     0
100
AcDbTrace
 10
175.7627478196
 20
196.6167610696
 30
0.0
 11
179.0627478196
 21
196.1167610696
 31
0.0
 12
179.0627478196
 22
197.1167610696
 32
0.0
 13
179.0627478196
 23
197.1167610696
 33
0.0
  0
SOLID
  5
247
330
241
100
AcDbEntity
  8
0
  6
Continuous
 62
     6
370
     0
100
AcDbTrace
 10
231.7627478196
 20
196.6167610696
 30
0.0
 11
228.4627478196
 21
197.1167610696
 31
0.0
 12
228.4627478196
 22
196.1167610696
 32
0.0
 13
228.4627478196
 23
196.1167610696
 33
0.0
  0
LINE
  5
248
330
241
100
AcDbEntity
  8
0
  6
Continuous
 62
     6
370
     0
100
AcDbLine
 10
175.7627478196
 20
216.5263692272
 30
0.0
 11
175.7627478196
 21
195.6167610696
 31
0.0
  0
LINE
  5
249
330
241
100
AcDbEntity
  8
0
  6
Continuous
 62
     6
370
     0
100
AcDbLine
 10
231.7627478196
 20
216.5263692272
 30
0.0
 11
231.7627478196
 21
195.6167610696
 31
0.0
  0
LINE
  5
24A
330
241
100
AcDbEntity
  8
0
  6
Continuous
 62
     6
370
     0
100
AcDbLine
 10
175.7627478196
 20
196.6167610696
 30
0.0
 11
231.7627478196
 21
196.6167610696
 31
0.0
  0
MTEXT
  5
24B
330
241
100
AcDbEntity
  8
0
  6
Continuous
 62
     6
370
     0
100
AcDbMText
 10
201.0899857433
 20
201.1284983917
 30
0.0
 40
3.5
 41
0.0
 71
     1
 72
     1
  1
56
  7
SLDTEXTSTYLE1
 73
     1
 44
1.0
  0
ENDBLK
  5
243
330
241
100
AcDbEntity
  8
0
100
AcDbBlockEnd
  0
BLOCK
  5
24E
330
24D
100
AcDbEntity
  8
0
100
AcDbBlockBegin
  2
*D22
 70
     1
 10
0.0
 20
0.0
 30
0.0
  3
*D22
  1

  0
SOLID
  5
250
330
24D
100
AcDbEntity
  8
0
  6
Continuous
 62
     6
370
     0
100
AcDbTrace
 10
85.7627478196
 20
184.7981774058
 30
0.0
 11
89.0627478196
 21
184.2981774058
 31
0.0
 12
89.0627478196
 22
185.2981774058
 32
0.0
 13
89.0627478196
 23
185.2981774058
 33
0.0
  0
SOLID
  5
251
330
24D
100
AcDbEntity
  8
0
  6
Continuous
 62
     6
370
     0
100
AcDbTrace
 10
321.7627478196
 20
184.7981774058
 30
0.0
 11
318.4627478196
 21
185.2981774058
 31
0.0
 12
318.4627478196
 22
184.2981774058
 32
0.0
 13
318.4627478196
 23
184.2981774058
 33
0.0
  0
LINE
  5
252
330
24D
100
AcDbEntity
  8
0
  6
Continuous
 62
     6
370
     0
100
AcDbLine
 10
85.7627478196
 20
211.0263692272
 30
0.0
 11
85.7627478196
 21
183.7981774058
 31
0.0
  0
LINE
  5
253
330
24D
100
AcDbEntity
  8
0
  6
Continuous
 62
     6
370
     0
100
AcDbLine
 10
321.7627478196
 20
211.0263692272
 30
0.0
 11
321.7627478196
 21
183.7981774058
 31
0.0
  0
LINE
  5
254
330
24D
100
AcDbEntity
  8
0
  6
Continuous
 62
     6
370
     0
100
AcDbLine
 10
85.7627478196
 20
184.7981774058
 30
0.0
 11
321.7627478196
 21
184.7981774058
 31
0.0
  0
MTEXT
  5
255
330
24D
100
AcDbEntity
  8
0
  6
Continuous
 62
     6
370
     0
100
AcDbMText
 10
196.0240243127
 20
189.3099147278
 30
0.0
 40
3.5
 41
0.0
 71
     1
 72
     1
  1
236
  7
SLDTEXTSTYLE1
 73
     1
 44
1.0
  0
MTEXT
  5
256
330
24D
100
AcDbEntity
  8
0
  6
Continuous
 62
     6
370
     0
100
AcDbMText
 10
205.3795819072
 20
188.2591044797
 30
0.0
 40
2.45
 41
0.0
 71
     1
 72
     1
  1
±0,2
  7
SLDTEXTSTYLE1
 73
     1
 44
1.0
  0
ENDBLK
  5
24F
330
24D
100
AcDbEntity
  8
0
100
AcDbBlockEnd
  0
BLOCK
  5
259
330
258
100
AcDbEntity
  8
0
100
AcDbBlockBegin
  2
*D23
 70
     1
 10
0.0
 20
0.0
 30
0.0
  3
*D23
  1

  0
SOLID
  5
25B
330
258
100
AcDbEntity
  8
0
  6
Continuous
 62
     6
370
     0
100
AcDbTrace
 10
78.7627478196
 20
196.6167610696
 30
0.0
 11
75.4627478196
 21
197.1167610696
 31
0.0
 12
75.4627478196
 22
196.1167610696
 32
0.0
 13
75.4627478196
 23
196.1167610696
 33
0.0
  0
SOLID
  5
25C
330
258
100
AcDbEntity
  8
0
  6
Continuous
 62
     6
370
     0
100
AcDbTrace
 10
85.7627478196
 20
196.6167610696
 30
0.0
 11
89.0627478196
 21
196.1167610696
 31
0.0
 12
89.0627478196
 22
197.1167610696
 32
0.0
 13
89.0627478196
 23
197.1167610696
 33
0.0
  0
LINE
  5
25D
330
258
100
AcDbEntity
  8
0
  6
Continuous
 62
     6
370
     0
100
AcDbLine
 10
78.7627478196
 20
210.5263692272
 30
0.0
 11
78.7627478196
 21
195.6167610696
 31
0.0
  0
LINE
  5
25E
330
258
100
AcDbEntity
  8
0
  6
Continuous
 62
     6
370
     0
100
AcDbLine
 10
85.7627478196
 20
211.0263692272
 30
0.0
 11
85.7627478196
 21
195.6167610696
 31
0.0
  0
LINE
  5
25F
330
258
100
AcDbEntity
  8
0
  6
Continuous
 62
     6
370
     0
100
AcDbLine
 10
78.7627478196
 20
196.6167610696
 30
0.0
 11
72.5127478196
 21
196.6167610696
 31
0.0
  0
LINE
  5
260
330
258
100
AcDbEntity
  8
0
  6
Continuous
 62
     6
370
     0
100
AcDbLine
 10
78.7627478196
 20
196.6167610696
 30
0.0
 11
85.7627478196
 21
196.6167610696
 31
0.0
  0
LINE
  5
261
330
258
100
AcDbEntity
  8
0
  6
Continuous
 62
     6
370
     0
100
AcDbLine
 10
85.7627478196
 20
196.6167610696
 30
0.0
 11
92.0127478196
 21
196.6167610696
 31
0.0
  0
MTEXT
  5
262
330
258
100
AcDbEntity
  8
0
  6
Continuous
 62
     6
370
     0
100
AcDbMText
 10
80.9272571086
 20
201.1284983917
 30
0.0
 40
3.5
 41
0.0
 71
     1
 72
     1
  1
7
  7
SLDTEXTSTYLE1
 73
     1
 44
1.0
  0
ENDBLK
  5
25A
330
258
100
AcDbEntity
  8
0
100
AcDbBlockEnd
  0
BLOCK
  5
266
330
265
100
AcDbEntity
  8
0
100
AcDbBlockBegin
  2
*D24
 70
     1
 10
0.0
 20
0.0
 30
0.0
  3
*D24
  1

  0
SOLID
  5
268
330
265
100
AcDbEntity
  8
0
  6
Continuous
 62
     6
370
     0
100
AcDbTrace
 10
338.7627478196
 20
232.1763692272
 30
0.0
 11
339.2627478196
 21
235.4763692272
 31
0.0
 12
338.2627478196
 22
235.4763692272
 32
0.0
 13
338.2627478196
 23
235.4763692272
 33
0.0
  0
SOLID
  5
269
330
265
100
AcDbEntity
  8
0
  6
Continuous
 62
     6
370
     0
100
AcDbTrace
 10
338.7627478196
 20
227.8763692272
 30
0.0
 11
338.2627478196
 21
224.5763692272
 31
0.0
 12
339.2627478196
 22
224.5763692272
 32
0.0
 13
339.2627478196
 23
224.5763692272
 33
0.0
  0
LINE
  5
26A
330
265
100
AcDbEntity
  8
0
  6
Continuous
 62
     6
370
     0
100
AcDbLine
 10
321.7627478196
 20
232.1763692272
 30
0.0
 11
339.7627478196
 21
232.1763692272
 31
0.0
  0
LINE
  5
26B
330
265
100
AcDbEntity
  8
0
  6
Continuous
 62
     6
370
     0
100
AcDbLine
 10
321.7627478196
 20
227.8763692272
 30
0.0
 11
339.7627478196
 21
227.8763692272
 31
0.0
  0
LINE
  5
26C
330
265
100
AcDbEntity
  8
0
  6
Continuous
 62
     6
370
     0
100
AcDbLine
 10
338.7627478196
 20
232.1763692272
 30
0.0
 11
338.7627478196
 21
248.7433657362
 31
0.0
  0
LINE
  5
26D
330
265
100
AcDbEntity
  8
0
  6
Continuous
 62
     6
370
     0
100
AcDbLine
 10
338.7627478196
 20
232.1763692272
 30
0.0
 11
338.7627478196
 21
227.8763692272
 31
0.0
  0
LINE
  5
26E
330
265
100
AcDbEntity
  8
0
  6
Continuous
 62
     6
370
     0
100
AcDbLine
 10
338.7627478196
 20
227.8763692272
 30
0.0
 11
338.7627478196
 21
221.6263692272
 31
0.0
  0
MTEXT
  5
26F
330
265
100
AcDbEntity
  8
0
  6
Continuous
 62
     6
370
     0
100
AcDbMText
 10
334.2510107304
 20
235.3750570105
 30
0.0
 40
3.5
 41
0.0
 71
     1
 72
     1
  1
%%c
  7
SLDTEXTSTYLE1
 11
-7.044195017643634E-15
 21
1.0
 31
0.0
 73
     1
 44
1.0
  0
MTEXT
  5
270
330
265
100
AcDbEntity
  8
0
  6
Continuous
 62
     6
370
     0
100
AcDbMText
 10
334.2510104976
 20
240.4748508724
 30
0.0
 40
3.5
 41
0.0
 71
     1
 72
     1
  1
4,3
  7
SLDTEXTSTYLE1
 11
-7.044195017643634E-15
 21
1.0
 31
0.0
 73
     1
 44
1.0
  0
ENDBLK
  5
267
330
265
100
AcDbEntity
  8
0
100
AcDbBlockEnd
  0
BLOCK
  5
273
330
272
100
AcDbEntity
  8
0
100
AcDbBlockBegin
  2
*D25
 70
     1
 10
0.0
 20
0.0
 30
0.0
  3
*D25
  1

  0
SOLID
  5
275
330
272
100
AcDbEntity
  8
0
  6
Continuous
 62
     6
370
     0
100
AcDbTrace
 10
349.2805308254
 20
234.0263692272
 30
0.0
 11
349.7805308254
 21
237.3263692272
 31
0.0
 12
348.7805308254
 22
237.3263692272
 32
0.0
 13
348.7805308254
 23
237.3263692272
 33
0.0
  0
SOLID
  5
276
330
272
100
AcDbEntity
  8
0
  6
Continuous
 62
     6
370
     0
100
AcDbTrace
 10
349.2805308254
 20
226.0263692272
 30
0.0
 11
348.7805308254
 21
222.7263692272
 31
0.0
 12
349.7805308254
 22
222.7263692272
 32
0.0
 13
349.7805308254
 23
222.7263692272
 33
0.0
  0
LINE
  5
277
330
272
100
AcDbEntity
  8
0
  6
Continuous
 62
     6
370
     0
100
AcDbLine
 10
321.7627478196
 20
234.0263692272
 30
0.0
 11
350.2805308254
 21
234.0263692272
 31
0.0
  0
LINE
  5
278
330
272
100
AcDbEntity
  8
0
  6
Continuous
 62
     6
370
     0
100
AcDbLine
 10
321.7627478196
 20
226.0263692272
 30
0.0
 11
350.2805308254
 21
226.0263692272
 31
0.0
  0
LINE
  5
279
330
272
100
AcDbEntity
  8
0
  6
Continuous
 62
     6
370
     0
100
AcDbLine
 10
349.2805308254
 20
234.0263692272
 30
0.0
 11
349.2805308254
 21
240.2763692272
 31
0.0
  0
LINE
  5
27A
330
272
100
AcDbEntity
  8
0
  6
Continuous
 62
     6
370
     0
100
AcDbLine
 10
349.2805308254
 20
234.0263692272
 30
0.0
 11
349.2805308254
 21
226.0263692272
 31
0.0
  0
LINE
  5
27B
330
272
100
AcDbEntity
  8
0
  6
Continuous
 62
     6
370
     0
100
AcDbLine
 10
349.2805308254
 20
226.0263692272
 30
0.0
 11
349.2805308254
 21
219.7763692272
 31
0.0
  0
MTEXT
  5
27C
330
272
100
AcDbEntity
  8
0
  6
Continuous
 62
     6
370
     0
100
AcDbMText
 10
344.7687937362
 20
226.1409815851
 30
0.0
 40
3.5
 41
0.0
 71
     1
 72
     1
  1
%%c
  7
SLDTEXTSTYLE1
 11
-7.044195017643634E-15
 21
1.0
 31
0.0
 73
     1
 44
1.0
  0
MTEXT
  5
27D
330
272
100
AcDbEntity
  8
0
  6
Continuous
 62
     6
370
     0
100
AcDbMText
 10
344.7687935034
 20
231.2407754471
 30
0.0
 40
3.5
 41
0.0
 71
     1
 72
     1
  1
8
  7
SLDTEXTSTYLE1
 11
-7.044195017643634E-15
 21
1.0
 31
0.0
 73
     1
 44
1.0
  0
ENDBLK
  5
274
330
272
100
AcDbEntity
  8
0
100
AcDbBlockEnd
  0
BLOCK
  5
282
330
281
100
AcDbEntity
  8
0
100
AcDbBlockBegin
  2
SW_CENTERMARKSYMBOL_0
 70
     0
 10
0.0
 20
0.0
 30
0.0
  3
SW_CENTERMARKSYMBOL_0
  1

  0
LINE
  5
284
330
281
100
AcDbEntity
  8
0
  6
Continuous
 62
     0
370
     0
100
AcDbLine
 10
0.0
 20
0.0
 30
0.0
 11
0.0
 21
1.0
 31
0.0
  0
LINE
  5
285
330
281
100
AcDbEntity
  8
0
  6
Continuous
 62
     0
370
     0
100
AcDbLine
 10
0.0
 20
0.0
 30
0.0
 11
-1.0
 21
0.0
 31
0.0
  0
LINE
  5
286
330
281
100
AcDbEntity
  8
0
  6
Continuous
 62
     0
370
     0
100
AcDbLine
 10
0.0
 20
0.0
 30
0.0
 11
0.0
 21
-1.0
 31
0.0
  0
LINE
  5
287
330
281
100
AcDbEntity
  8
0
  6
Continuous
 62
     0
370
     0
100
AcDbLine
 10
0.0
 20
0.0
 30
0.0
 11
1.0
 21
0.0
 31
0.0
  0
LINE
  5
288
330
281
100
AcDbEntity
  8
0
  6
Continuous
 62
     0
370
     0
100
AcDbLine
 10
0.0
 20
2.0
 30
0.0
 11
0.0
 21
4.9
 31
0.0
  0
LINE
  5
289
330
281
100
AcDbEntity
  8
0
  6
Continuous
 62
     0
370
     0
100
AcDbLine
 10
-2.0
 20
0.0
 30
0.0
 11
-4.9
 21
0.0
 31
0.0
  0
LINE
  5
28A
330
281
100
AcDbEntity
  8
0
  6
Continuous
 62
     0
370
     0
100
AcDbLine
 10
0.0
 20
-2.0
 30
0.0
 11
0.0
 21
-4.9
 31
0.0
  0
LINE
  5
28B
330
281
100
AcDbEntity
  8
0
  6
Continuous
 62
     0
370
     0
100
AcDbLine
 10
2.0
 20
0.0
 30
0.0
 11
4.9
 21
0.0
 31
0.0
  0
ENDBLK
  5
283
330
281
100
AcDbEntity
  8
0
100
AcDbBlockEnd
  0
BLOCK
  5
28E
330
28D
100
AcDbEntity
  8
0
100
AcDbBlockBegin
  2
SW_CENTERMARKSYMBOL_1
 70
     0
 10
0.0
 20
0.0
 30
0.0
  3
SW_CENTERMARKSYMBOL_1
  1

  0
LINE
  5
290
330
28D
100
AcDbEntity
  8
0
  6
Continuous
 62
     0
370
     0
100
AcDbLine
 10
0.0
 20
0.0
 30
0.0
 11
0.0
 21
1.0
 31
0.0
  0
LINE
  5
291
330
28D
100
AcDbEntity
  8
0
  6
Continuous
 62
     0
370
     0
100
AcDbLine
 10
0.0
 20
0.0
 30
0.0
 11
-1.0
 21
0.0
 31
0.0
  0
LINE
  5
292
330
28D
100
AcDbEntity
  8
0
  6
Continuous
 62
     0
370
     0
100
AcDbLine
 10
0.0
 20
0.0
 30
0.0
 11
0.0
 21
-1.0
 31
0.0
  0
LINE
  5
293
330
28D
100
AcDbEntity
  8
0
  6
Continuous
 62
     0
370
     0
100
AcDbLine
 10
0.0
 20
0.0
 30
0.0
 11
1.0
 21
0.0
 31
0.0
  0
LINE
  5
294
330
28D
100
AcDbEntity
  8
0
  6
Continuous
 62
     0
370
     0
100
AcDbLine
 10
0.0
 20
2.0
 30
0.0
 11
0.0
 21
4.9
 31
0.0
  0
LINE
  5
295
330
28D
100
AcDbEntity
  8
0
  6
Continuous
 62
     0
370
     0
100
AcDbLine
 10
-2.0
 20
0.0
 30
0.0
 11
-4.9
 21
0.0
 31
0.0
  0
LINE
  5
296
330
28D
100
AcDbEntity
  8
0
  6
Continuous
 62
     0
370
     0
100
AcDbLine
 10
0.0
 20
-2.0
 30
0.0
 11
0.0
 21
-4.9
 31
0.0
  0
LINE
  5
297
330
28D
100
AcDbEntity
  8
0
  6
Continuous
 62
     0
370
     0
100
AcDbLine
 10
2.0
 20
0.0
 30
0.0
 11
4.9
 21
0.0
 31
0.0
  0
ENDBLK
  5
28F
330
28D
100
AcDbEntity
  8
0
100
AcDbBlockEnd
  0
BLOCK
  5
29A
330
299
100
AcDbEntity
  8
0
100
AcDbBlockBegin
  2
SW_CENTERMARKSYMBOL_2
 70
     0
 10
0.0
 20
0.0
 30
0.0
  3
SW_CENTERMARKSYMBOL_2
  1

  0
LINE
  5
29C
330
299
100
AcDbEntity
  8
0
  6
Continuous
 62
     0
370
     0
100
AcDbLine
 10
0.0
 20
0.0
 30
0.0
 11
0.0
 21
1.0
 31
0.0
  0
LINE
  5
29D
330
299
100
AcDbEntity
  8
0
  6
Continuous
 62
     0
370
     0
100
AcDbLine
 10
0.0
 20
0.0
 30
0.0
 11
-1.0
 21
0.0
 31
0.0
  0
LINE
  5
29E
330
299
100
AcDbEntity
  8
0
  6
Continuous
 62
     0
370
     0
100
AcDbLine
 10
0.0
 20
0.0
 30
0.0
 11
0.0
 21
-1.0
 31
0.0
  0
LINE
  5
29F
330
299
100
AcDbEntity
  8
0
  6
Continuous
 62
     0
370
     0
100
AcDbLine
 10
0.0
 20
0.0
 30
0.0
 11
1.0
 21
0.0
 31
0.0
  0
LINE
  5
2A0
330
299
100
AcDbEntity
  8
0
  6
Continuous
 62
     0
370
     0
100
AcDbLine
 10
0.0
 20
2.0
 30
0.0
 11
0.0
 21
4.9
 31
0.0
  0
LINE
  5
2A1
330
299
100
AcDbEntity
  8
0
  6
Continuous
 62
     0
370
     0
100
AcDbLine
 10
-2.0
 20
0.0
 30
0.0
 11
-4.9
 21
0.0
 31
0.0
  0
LINE
  5
2A2
330
299
100
AcDbEntity
  8
0
  6
Continuous
 62
     0
370
     0
100
AcDbLine
 10
0.0
 20
-2.0
 30
0.0
 11
0.0
 21
-4.9
 31
0.0
  0
LINE
  5
2A3
330
299
100
AcDbEntity
  8
0
  6
Continuous
 62
     0
370
     0
100
AcDbLine
 10
2.0
 20
0.0
 30
0.0
 11
4.9
 21
0.0
 31
0.0
  0
ENDBLK
  5
29B
330
299
100
AcDbEntity
  8
0
100
AcDbBlockEnd
  0
BLOCK
  5
2A6
330
2A5
100
AcDbEntity
  8
0
100
AcDbBlockBegin
  2
SW_CENTERMARKSYMBOL_3
 70
     0
 10
0.0
 20
0.0
 30
0.0
  3
SW_CENTERMARKSYMBOL_3
  1

  0
LINE
  5
2A8
330
2A5
100
AcDbEntity
  8
0
  6
Continuous
 62
     0
370
     0
100
AcDbLine
 10
0.0
 20
0.0
 30
0.0
 11
0.0
 21
1.0
 31
0.0
  0
LINE
  5
2A9
330
2A5
100
AcDbEntity
  8
0
  6
Continuous
 62
     0
370
     0
100
AcDbLine
 10
0.0
 20
0.0
 30
0.0
 11
-1.0
 21
0.0
 31
0.0
  0
LINE
  5
2AA
330
2A5
100
AcDbEntity
  8
0
  6
Continuous
 62
     0
370
     0
100
AcDbLine
 10
0.0
 20
0.0
 30
0.0
 11
0.0
 21
-1.0
 31
0.0
  0
LINE
  5
2AB
330
2A5
100
AcDbEntity
  8
0
  6
Continuous
 62
     0
370
     0
100
AcDbLine
 10
0.0
 20
0.0
 30
0.0
 11
1.0
 21
0.0
 31
0.0
  0
LINE
  5
2AC
330
2A5
100
AcDbEntity
  8
0
  6
Continuous
 62
     0
370
     0
100
AcDbLine
 10
0.0
 20
2.0
 30
0.0
 11
0.0
 21
4.9
 31
0.0
  0
LINE
  5
2AD
330
2A5
100
AcDbEntity
  8
0
  6
Continuous
 62
     0
370
     0
100
AcDbLine
 10
-2.0
 20
0.0
 30
0.0
 11
-4.9
 21
0.0
 31
0.0
  0
LINE
  5
2AE
330
2A5
100
AcDbEntity
  8
0
  6
Continuous
 62
     0
370
     0
100
AcDbLine
 10
0.0
 20
-2.0
 30
0.0
 11
0.0
 21
-4.9
 31
0.0
  0
LINE
  5
2AF
330
2A5
100
AcDbEntity
  8
0
  6
Continuous
 62
     0
370
     0
100
AcDbLine
 10
2.0
 20
0.0
 30
0.0
 11
4.9
 21
0.0
 31
0.0
  0
ENDBLK
  5
2A7
330
2A5
100
AcDbEntity
  8
0
100
AcDbBlockEnd
  0
BLOCK
  5
2B2
330
2B1
100
AcDbEntity
  8
0
100
AcDbBlockBegin
  2
SW_CENTERMARKSYMBOL_4
 70
     0
 10
0.0
 20
0.0
 30
0.0
  3
SW_CENTERMARKSYMBOL_4
  1

  0
LINE
  5
2B4
330
2B1
100
AcDbEntity
  8
0
  6
Continuous
 62
     0
370
     0
100
AcDbLine
 10
0.0
 20
0.0
 30
0.0
 11
0.0
 21
1.0
 31
0.0
  0
LINE
  5
2B5
330
2B1
100
AcDbEntity
  8
0
  6
Continuous
 62
     0
370
     0
100
AcDbLine
 10
0.0
 20
0.0
 30
0.0
 11
-1.0
 21
0.0
 31
0.0
  0
LINE
  5
2B6
330
2B1
100
AcDbEntity
  8
0
  6
Continuous
 62
     0
370
     0
100
AcDbLine
 10
0.0
 20
0.0
 30
0.0
 11
0.0
 21
-1.0
 31
0.0
  0
LINE
  5
2B7
330
2B1
100
AcDbEntity
  8
0
  6
Continuous
 62
     0
370
     0
100
AcDbLine
 10
0.0
 20
0.0
 30
0.0
 11
1.0
 21
0.0
 31
0.0
  0
LINE
  5
2B8
330
2B1
100
AcDbEntity
  8
0
  6
Continuous
 62
     0
370
     0
100
AcDbLine
 10
0.0
 20
2.0
 30
0.0
 11
0.0
 21
5.0
 31
0.0
  0
LINE
  5
2B9
330
2B1
100
AcDbEntity
  8
0
  6
Continuous
 62
     0
370
     0
100
AcDbLine
 10
-2.0
 20
0.0
 30
0.0
 11
-5.0
 21
0.0
 31
0.0
  0
LINE
  5
2BA
330
2B1
100
AcDbEntity
  8
0
  6
Continuous
 62
     0
370
     0
100
AcDbLine
 10
0.0
 20
-2.0
 30
0.0
 11
0.0
 21
-5.0
 31
0.0
  0
LINE
  5
2BB
330
2B1
100
AcDbEntity
  8
0
  6
Continuous
 62
     0
370
     0
100
AcDbLine
 10
2.0
 20
0.0
 30
0.0
 11
5.0
 21
0.0
 31
0.0
  0
ENDBLK
  5
2B3
330
2B1
100
AcDbEntity
  8
0
100
AcDbBlockEnd
  0
BLOCK
  5
2BE
330
2BD
100
AcDbEntity
  8
0
100
AcDbBlockBegin
  2
SW_CENTERMARKSYMBOL_5
 70
     0
 10
0.0
 20
0.0
 30
0.0
  3
SW_CENTERMARKSYMBOL_5
  1

  0
LINE
  5
2C0
330
2BD
100
AcDbEntity
  8
0
  6
Continuous
 62
     0
370
     0
100
AcDbLine
 10
0.0
 20
0.0
 30
0.0
 11
0.0
 21
1.0
 31
0.0
  0
LINE
  5
2C1
330
2BD
100
AcDbEntity
  8
0
  6
Continuous
 62
     0
370
     0
100
AcDbLine
 10
0.0
 20
0.0
 30
0.0
 11
-1.0
 21
0.0
 31
0.0
  0
LINE
  5
2C2
330
2BD
100
AcDbEntity
  8
0
  6
Continuous
 62
     0
370
     0
100
AcDbLine
 10
0.0
 20
0.0
 30
0.0
 11
0.0
 21
-1.0
 31
0.0
  0
LINE
  5
2C3
330
2BD
100
AcDbEntity
  8
0
  6
Continuous
 62
     0
370
     0
100
AcDbLine
 10
0.0
 20
0.0
 30
0.0
 11
1.0
 21
0.0
 31
0.0
  0
LINE
  5
2C4
330
2BD
100
AcDbEntity
  8
0
  6
Continuous
 62
     0
370
     0
100
AcDbLine
 10
0.0
 20
2.0
 30
0.0
 11
0.0
 21
5.0
 31
0.0
  0
LINE
  5
2C5
330
2BD
100
AcDbEntity
  8
0
  6
Continuous
 62
     0
370
     0
100
AcDbLine
 10
-2.0
 20
0.0
 30
0.0
 11
-5.0
 21
0.0
 31
0.0
  0
LINE
  5
2C6
330
2BD
100
AcDbEntity
  8
0
  6
Continuous
 62
     0
370
     0
100
AcDbLine
 10
0.0
 20
-2.0
 30
0.0
 11
0.0
 21
-5.0
 31
0.0
  0
LINE
  5
2C7
330
2BD
100
AcDbEntity
  8
0
  6
Continuous
 62
     0
370
     0
100
AcDbLine
 10
2.0
 20
0.0
 30
0.0
 11
5.0
 21
0.0
 31
0.0
  0
ENDBLK
  5
2BF
330
2BD
100
AcDbEntity
  8
0
100
AcDbBlockEnd
  0
BLOCK
  5
2CA
330
2C9
100
AcDbEntity
  8
0
100
AcDbBlockBegin
  2
SW_CENTERMARKSYMBOL_6
 70
     0
 10
0.0
 20
0.0
 30
0.0
  3
SW_CENTERMARKSYMBOL_6
  1

  0
LINE
  5
2CC
330
2C9
100
AcDbEntity
  8
0
  6
Continuous
 62
     0
370
     0
100
AcDbLine
 10
0.0
 20
0.0
 30
0.0
 11
0.0
 21
1.0
 31
0.0
  0
LINE
  5
2CD
330
2C9
100
AcDbEntity
  8
0
  6
Continuous
 62
     0
370
     0
100
AcDbLine
 10
0.0
 20
0.0
 30
0.0
 11
-1.0
 21
0.0
 31
0.0
  0
LINE
  5
2CE
330
2C9
100
AcDbEntity
  8
0
  6
Continuous
 62
     0
370
     0
100
AcDbLine
 10
0.0
 20
0.0
 30
0.0
 11
0.0
 21
-1.0
 31
0.0
  0
LINE
  5
2CF
330
2C9
100
AcDbEntity
  8
0
  6
Continuous
 62
     0
370
     0
100
AcDbLine
 10
0.0
 20
0.0
 30
0.0
 11
1.0
 21
0.0
 31
0.0
  0
LINE
  5
2D0
330
2C9
100
AcDbEntity
  8
0
  6
Continuous
 62
     0
370
     0
100
AcDbLine
 10
0.0
 20
2.0
 30
0.0
 11
0.0
 21
5.0
 31
0.0
  0
LINE
  5
2D1
330
2C9
100
AcDbEntity
  8
0
  6
Continuous
 62
     0
370
     0
100
AcDbLine
 10
-2.0
 20
0.0
 30
0.0
 11
-5.0
 21
0.0
 31
0.0
  0
LINE
  5
2D2
330
2C9
100
AcDbEntity
  8
0
  6
Continuous
 62
     0
370
     0
100
AcDbLine
 10
0.0
 20
-2.0
 30
0.0
 11
0.0
 21
-5.0
 31
0.0
  0
LINE
  5
2D3
330
2C9
100
AcDbEntity
  8
0
  6
Continuous
 62
     0
370
     0
100
AcDbLine
 10
2.0
 20
0.0
 30
0.0
 11
5.0
 21
0.0
 31
0.0
  0
ENDBLK
  5
2CB
330
2C9
100
AcDbEntity
  8
0
100
AcDbBlockEnd
  0
BLOCK
  5
2D6
330
2D5
100
AcDbEntity
  8
0
100
AcDbBlockBegin
  2
SW_CENTERMARKSYMBOL_7
 70
     0
 10
0.0
 20
0.0
 30
0.0
  3
SW_CENTERMARKSYMBOL_7
  1

  0
LINE
  5
2D8
330
2D5
100
AcDbEntity
  8
0
  6
Continuous
 62
     0
370
     0
100
AcDbLine
 10
0.0
 20
0.0
 30
0.0
 11
0.0
 21
1.0
 31
0.0
  0
LINE
  5
2D9
330
2D5
100
AcDbEntity
  8
0
  6
Continuous
 62
     0
370
     0
100
AcDbLine
 10
0.0
 20
0.0
 30
0.0
 11
-1.0
 21
0.0
 31
0.0
  0
LINE
  5
2DA
330
2D5
100
AcDbEntity
  8
0
  6
Continuous
 62
     0
370
     0
100
AcDbLine
 10
0.0
 20
0.0
 30
0.0
 11
0.0
 21
-1.0
 31
0.0
  0
LINE
  5
2DB
330
2D5
100
AcDbEntity
  8
0
  6
Continuous
 62
     0
370
     0
100
AcDbLine
 10
0.0
 20
0.0
 30
0.0
 11
1.0
 21
0.0
 31
0.0
  0
LINE
  5
2DC
330
2D5
100
AcDbEntity
  8
0
  6
Continuous
 62
     0
370
     0
100
AcDbLine
 10
0.0
 20
2.0
 30
0.0
 11
0.0
 21
5.0
 31
0.0
  0
LINE
  5
2DD
330
2D5
100
AcDbEntity
  8
0
  6
Continuous
 62
     0
370
     0
100
AcDbLine
 10
-2.0
 20
0.0
 30
0.0
 11
-5.0
 21
0.0
 31
0.0
  0
LINE
  5
2DE
330
2D5
100
AcDbEntity
  8
0
  6
Continuous
 62
     0
370
     0
100
AcDbLine
 10
0.0
 20
-2.0
 30
0.0
 11
0.0
 21
-5.0
 31
0.0
  0
LINE
  5
2DF
330
2D5
100
AcDbEntity
  8
0
  6
Continuous
 62
     0
370
     0
100
AcDbLine
 10
2.0
 20
0.0
 30
0.0
 11
5.0
 21
0.0
 31
0.0
  0
ENDBLK
  5
2D7
330
2D5
100
AcDbEntity
  8
0
100
AcDbBlockEnd
  0
BLOCK
  5
33D
330
33C
100
AcDbEntity
  8
0
100
AcDbBlockBegin
  2
*D34
 70
     1
 10
0.0
 20
0.0
 30
0.0
  3
*D34
  1

  0
SOLID
  5
33F
330
33C
100
AcDbEntity
  8
0
  6
Continuous
 62
     6
370
     0
100
AcDbTrace
 10
68.7627478196
 20
145.2207295883
 30
0.0
 11
68.2627478196
 21
141.9207295883
 31
0.0
 12
69.2627478196
 22
141.9207295883
 32
0.0
 13
69.2627478196
 23
141.9207295883
 33
0.0
  0
SOLID
  5
340
330
33C
100
AcDbEntity
  8
0
  6
Continuous
 62
     6
370
     0
100
AcDbTrace
 10
68.7627478196
 20
148.2207295883
 30
0.0
 11
69.2627478196
 21
151.5207295883
 31
0.0
 12
68.2627478196
 22
151.5207295883
 32
0.0
 13
68.2627478196
 23
151.5207295883
 33
0.0
  0
LINE
  5
341
330
33C
100
AcDbEntity
  8
0
  6
Continuous
 62
     6
370
     0
100
AcDbLine
 10
78.7627478196
 20
145.2207295883
 30
0.0
 11
67.7627478196
 21
145.2207295883
 31
0.0
  0
LINE
  5
342
330
33C
100
AcDbEntity
  8
0
  6
Continuous
 62
     6
370
     0
100
AcDbLine
 10
78.7627478196
 20
148.2207295883
 30
0.0
 11
67.7627478196
 21
148.2207295883
 31
0.0
  0
LINE
  5
343
330
33C
100
AcDbEntity
  8
0
  6
Continuous
 62
     6
370
     0
100
AcDbLine
 10
68.7627478196
 20
145.2207295883
 30
0.0
 11
68.7627478196
 21
138.9707295883
 31
0.0
  0
LINE
  5
344
330
33C
100
AcDbEntity
  8
0
  6
Continuous
 62
     6
370
     0
100
AcDbLine
 10
68.7627478196
 20
145.2207295883
 30
0.0
 11
68.7627478196
 21
148.2207295883
 31
0.0
  0
LINE
  5
345
330
33C
100
AcDbEntity
  8
0
  6
Continuous
 62
     6
370
     0
100
AcDbLine
 10
68.7627478196
 20
148.2207295883
 30
0.0
 11
68.7627478196
 21
156.9446630652
 31
0.0
  0
MTEXT
  5
346
330
33C
100
AcDbEntity
  8
0
  6
Continuous
 62
     6
370
     0
100
AcDbMText
 10
64.2510104976
 20
152.6861816431
 30
0.0
 40
3.5
 41
0.0
 71
     1
 72
     1
  1
3
  7
SLDTEXTSTYLE1
 11
6.123233995736766E-17
 21
1.0
 31
0.0
 73
     1
 44
1.0
  0
ENDBLK
  5
33E
330
33C
100
AcDbEntity
  8
0
100
AcDbBlockEnd
  0
ENDSEC
  0
SECTION
  2
ENTITIES
  0
LINE
  5
144
330
1F
100
AcDbEntity
  8
0
  6
Continuous
 62
     7
370
     0
100
AcDbLine
 10
420.0
 20
297.0
 30
0.0
 11
420.0
 21
0.1
 31
0.0
  0
LINE
  5
145
330
1F
100
AcDbEntity
  8
0
  6
Continuous
 62
     7
370
     0
100
AcDbLine
 10
420.0
 20
0.1
 30
0.0
 11
0.0
 21
0.1
 31
0.0
  0
LINE
  5
146
330
1F
100
AcDbEntity
  8
0
  6
Continuous
 62
     7
370
     0
100
AcDbLine
 10
0.0
 20
0.1
 30
0.0
 11
0.0
 21
297.0
 31
0.0
  0
LINE
  5
147
330
1F
100
AcDbEntity
  8
0
  6
Continuous
 62
     7
370
     0
100
AcDbLine
 10
0.0
 20
297.0
 30
0.0
 11
420.0
 21
297.0
 31
0.0
  0
LINE
  5
148
330
1F
100
AcDbEntity
  8
LINIEN-DICK
100
AcDbLine
 10
415.0
 20
292.0
 30
0.0
 11
5.0
 21
292.0
 31
0.0
  0
LINE
  5
149
330
1F
100
AcDbEntity
  8
LINIEN-DICK
100
AcDbLine
 10
5.0
 20
292.0
 30
0.0
 11
5.0
 21
5.0
 31
0.0
  0
LINE
  5
14A
330
1F
100
AcDbEntity
  8
0
  6
Continuous
 62
     7
370
     0
100
AcDbLine
 10
21.0
 20
292.0
 30
0.0
 11
21.0
 21
5.0
 31
0.0
  0
LINE
  5
14B
330
1F
100
AcDbEntity
  8
LINIEN-DICK
100
AcDbLine
 10
5.0
 20
5.0
 30
0.0
 11
227.8
 21
5.0
 31
0.0
  0
LINE
  5
14C
330
1F
100
AcDbEntity
  8
LINIEN-DICK
100
AcDbLine
 10
415.0
 20
60.25
 30
0.0
 11
415.0
 21
292.0
 31
0.0
  0
LINE
  5
14D
330
1F
100
AcDbEntity
  8
LINIEN-DICK
100
AcDbLine
 10
227.8
 20
60.25
 30
0.0
 11
227.8
 21
5.0
 31
0.0
  0
LINE
  5
14E
330
1F
100
AcDbEntity
  8
0
  6
Continuous
 62
     7
370
     0
100
AcDbLine
 10
235.42
 20
43.25
 30
0.0
 11
235.42
 21
5.0
 31
0.0
  0
LINE
  5
14F
330
1F
100
AcDbEntity
  8
0
  6
Continuous
 62
     7
370
     0
100
AcDbLine
 10
260.82
 20
5.0
 30
0.0
 11
260.82
 21
43.25
 31
0.0
  0
LINE
  5
150
330
1F
100
AcDbEntity
  8
0
  6
Continuous
 62
     7
370
     0
100
AcDbLine
 10
281.14
 20
22.0
 30
0.0
 11
415.0
 21
22.0
 31
0.0
  0
LINE
  5
151
330
1F
100
AcDbEntity
  8
0
  6
Continuous
 62
     7
370
     0
100
AcDbLine
 10
415.0
 20
43.25
 30
0.0
 11
227.8
 21
43.25
 31
0.0
  0
LINE
  5
152
330
1F
100
AcDbEntity
  8
LINIEN-DICK
100
AcDbLine
 10
227.8
 20
60.25
 30
0.0
 11
415.0
 21
60.25
 31
0.0
  0
LINE
  5
153
330
1F
100
AcDbEntity
  8
0
  6
Continuous
 62
     7
370
     0
100
AcDbLine
 10
281.14
 20
38.9447711707
 30
0.0
 11
227.8
 21
38.9447711707
 31
0.0
  0
LINE
  5
154
330
1F
100
AcDbEntity
  8
0
  6
Continuous
 62
     7
370
     0
100
AcDbLine
 10
281.14
 20
5.0
 30
0.0
 11
281.14
 21
60.25
 31
0.0
  0
LINE
  5
155
330
1F
100
AcDbEntity
  8
LINIEN-DICK
100
AcDbLine
 10
324.32
 20
60.25
 30
0.0
 11
324.32
 21
5.0
 31
0.0
  0
LINE
  5
156
330
1F
100
AcDbEntity
  8
0
  6
Continuous
 62
     7
370
     0
100
AcDbLine
 10
273.52
 20
43.25
 30
0.0
 11
273.52
 21
5.0
 31
0.0
  0
LINE
  5
157
330
1F
100
AcDbEntity
  8
0
  6
Continuous
 62
     7
370
     0
100
AcDbLine
 10
290.5491845626
 20
22.0
 30
0.0
 11
290.5491845626
 21
43.25
 31
0.0
  0
LINE
  5
158
330
1F
100
AcDbEntity
  8
0
  6
Continuous
 62
     7
370
     0
100
AcDbLine
 10
281.14
 20
13.5
 30
0.0
 11
227.8
 21
13.5
 31
0.0
  0
LINE
  5
159
330
1F
100
AcDbEntity
  8
0
  6
Continuous
 62
     7
370
     0
100
AcDbLine
 10
306.6969257405
 20
60.25
 30
0.0
 11
306.6969257405
 21
22.0
 31
0.0
  0
LINE
  5
15A
330
1F
100
AcDbEntity
  8
0
  6
Continuous
 62
     7
370
     0
100
AcDbLine
 10
368.48
 20
5.0
 30
0.0
 11
368.48
 21
9.25
 31
0.0
  0
LINE
  5
15B
330
1F
100
AcDbEntity
  8
0
  6
Continuous
 62
     7
370
     0
100
AcDbLine
 10
376.28
 20
53.875
 30
0.0
 11
376.28
 21
60.25
 31
0.0
  0
LINE
  5
15C
330
1F
100
AcDbEntity
  8
0
  6
Continuous
 62
     7
370
     0
100
AcDbLine
 10
227.8
 20
9.23
 30
0.0
 11
415.0
 21
9.23
 31
0.0
  0
LINE
  5
15D
330
1F
100
AcDbEntity
  8
0
  6
Continuous
 62
     7
370
     0
100
AcDbLine
 10
399.68
 20
9.25
 30
0.0
 11
399.68
 21
22.0
 31
0.0
  0
LINE
  5
15E
330
1F
100
AcDbEntity
  8
0
  6
Continuous
 62
     7
370
     0
100
AcDbLine
 10
415.0
 20
53.875
 30
0.0
 11
324.32
 21
53.875
 31
0.0
  0
LINE
  5
15F
330
1F
100
AcDbEntity
  8
LINIEN-DICK
100
AcDbLine
 10
415.0
 20
5.0
 30
0.0
 11
415.0
 21
60.25
 31
0.0
  0
LINE
  5
160
330
1F
100
AcDbEntity
  8
LINIEN-DICK
100
AcDbLine
 10
227.8
 20
5.0
 30
0.0
 11
415.0
 21
5.0
 31
0.0
  0
LINE
  5
161
330
1F
100
AcDbEntity
  8
0
  6
Continuous
 62
     7
370
     0
100
AcDbLine
 10
281.14
 20
17.75
 30
0.0
 11
227.8
 21
17.75
 31
0.0
  0
LINE
  5
162
330
1F
100
AcDbEntity
  8
0
  6
Continuous
 62
     7
370
     0
100
AcDbLine
 10
281.14
 20
22.0
 30
0.0
 11
227.8
 21
22.0
 31
0.0
  0
LINE
  5
163
330
1F
100
AcDbEntity
  8
0
  6
Continuous
 62
     7
370
     0
100
AcDbLine
 10
324.32
 20
26.25
 30
0.0
 11
227.8
 21
26.25
 31
0.0
  0
LINE
  5
164
330
1F
100
AcDbEntity
  8
0
  6
Continuous
 62
     7
370
     0
100
AcDbLine
 10
324.32
 20
30.5
 30
0.0
 11
227.8
 21
30.5
 31
0.0
  0
LINE
  5
165
330
1F
100
AcDbEntity
  8
0
  6
Continuous
 62
     7
370
     0
100
AcDbLine
 10
324.32
 20
34.75
 30
0.0
 11
227.8
 21
34.75
 31
0.0
  0
LINE
  5
166
330
1F
100
AcDbEntity
  8
0
  6
Continuous
 62
     7
370
     0
100
AcDbLine
 10
324.32
 20
38.9447711707
 30
0.0
 11
281.14
 21
38.9447711707
 31
0.0
  0
LINE
  5
167
330
1F
100
AcDbEntity
  8
0
  6
Continuous
 62
     7
370
     0
100
AcDbLine
 10
415.0
 20
13.5
 30
0.0
 11
399.68
 21
13.5
 31
0.0
  0
INSERT
  5
168
330
1F
100
AcDbEntity
  8
0
  6
Continuous
 62
     7
100
AcDbBlockReference
  2
effeff Logo fuer Schriftkopf
 10
281.4163612828
 20
9.5537357694
 30
0.0
  0
MTEXT
  5
16A
330
1F
100
AcDbEntity
  8
0
  6
Continuous
 62
     7
370
     0
100
AcDbMText
 10
325.8260642912
 20
21.0127144526
 30
0.0
 40
2.5
 41
0.0
 71
     1
 72
     1
  1
Zeichnungsnummer/drawing number:
  7
SLDTEXTSTYLE1
 73
     1
 44
1.0
  0
MTEXT
  5
16B
330
1F
100
AcDbEntity
  8
0
  6
Continuous
 62
     7
370
     0
100
AcDbMText
 10
325.8260642912
 20
52.3779131886
 30
0.0
 40
2.5
 41
0.0
 71
     1
 72
     1
  1
Werkstoff/material:
  7
SLDTEXTSTYLE1
 73
     1
 44
1.0
  0
INSERT
  5
171
330
1F
100
AcDbEntity
  8
0
  6
Continuous
 62
     7
370
     0
100
AcDbBlockReference
  2
SW_NOTE_1
 10
400.679992
 20
19.3836658113
 30
0.0
  0
MTEXT
  5
172
330
1F
100
AcDbEntity
  8
0
  6
Continuous
 62
     7
370
     0
100
AcDbMText
 10
308.6624886193
 20
42.1115838431
 30
0.0
 40
2.0
 41
0.0
 71
     1
 72
     1
  1
Name/name
  7
SLDTEXTSTYLE1
 73
     1
 44
1.0
  0
MTEXT
  5
173
330
1F
100
AcDbEntity
  8
0
  6
Continuous
 62
     7
370
     0
100
AcDbMText
 10
291.5276529145
 20
42.2400306748
 30
0.0
 40
2.1166666667
 41
0.0
 71
     1
 72
     1
  1
Datum/date
  7
SLDTEXTSTYLE1
 73
     1
 44
1.0
  0
MTEXT
  5
174
330
1F
100
AcDbEntity
  8
0
  6
Continuous
 62
     7
370
     0
100
AcDbMText
 10
325.7973605375
 20
58.5086132061
 30
0.0
 40
2.5
 41
0.0
 71
     1
 72
     1
  1
Maßstab/scale: 1:1
  7
SLDTEXTSTYLE1
 73
     1
 44
1.0
  0
INSERT
  5
17A
330
1F
100
AcDbEntity
  8
0
  6
Continuous
 62
     7
370
     0
100
AcDbBlockReference
  2
SW_NOTE_2
 10
281.5969414389
 20
24.2146643741
 30
0.0
  0
INSERT
  5
180
330
1F
100
AcDbEntity
  8
0
  6
Continuous
 62
     7
370
     0
100
AcDbBlockReference
  2
SW_NOTE_3
 10
281.5969414389
 20
32.6160489974
 30
0.0
  0
INSERT
  5
186
330
1F
100
AcDbEntity
  8
0
  6
Continuous
 62
     7
370
     0
100
AcDbBlockReference
  2
SW_NOTE_4
 10
281.5969414389
 20
36.7918740267
 30
0.0
  0
INSERT
  5
18C
330
1F
100
AcDbEntity
  8
0
  6
Continuous
 62
     7
370
     0
100
AcDbBlockReference
  2
SW_NOTE_5
 10
274.5994263081
 20
7.1633912139
 30
0.0
  0
INSERT
  5
192
330
1F
100
AcDbEntity
  8
0
  6
Continuous
 62
     7
370
     0
100
AcDbBlockReference
  2
SW_NOTE_6
 10
264.1179175561
 20
7.1633910975
 30
0.0
  0
INSERT
  5
198
330
1F
100
AcDbEntity
  8
0
  6
Continuous
 62
     7
370
     0
100
AcDbBlockReference
  2
SW_NOTE_7
 10
242.4345306832
 20
7.1633909811
 30
0.0
  0
INSERT
  5
19E
330
1F
100
AcDbEntity
  8
0
  6
Continuous
 62
     7
370
     0
100
AcDbBlockReference
  2
SW_NOTE_8
 10
228.8348455297
 20
6.9203474822
 30
0.0
  0
MTEXT
  5
19F
330
1F
100
AcDbEntity
  8
0
  6
Continuous
 62
     7
370
     0
100
AcDbMText
 10
325.5963189226
 20
41.9881722711
 30
0.0
 40
2.5
 41
0.0
 71
     1
 72
     1
  1
Benennung/name:
  7
SLDTEXTSTYLE1
 73
     1
 44
1.0
  0
MTEXT
  5
1A0
330
1F
100
AcDbEntity
  8
0
  6
Continuous
 62
     7
370
     0
100
AcDbMText
 10
389.3572359152
 20
58.6789710928
 30
0.0
 40
2.6458333333
 41
0.0
 71
     1
 72
     1
  1
190985
  7
SLDTEXTSTYLE0
 73
     1
 44
1.0
  0
MTEXT
  5
1A1
330
1F
100
AcDbEntity
  8
0
  6
Continuous
 62
     7
370
     0
100
AcDbMText
 10
349.9917583743
 20
36.8399577249
 30
0.0
 40
3.7041666667
 41
0.0
 71
     1
 72
     1
  1
Schliessblech
  7
SLDTEXTSTYLE0
 73
     1
 44
1.0
  0
MTEXT
  5
1A2
330
1F
100
AcDbEntity
  8
0
  6
Continuous
 62
     7
370
     0
100
AcDbMText
 10
354.5327913219
 20
31.79580762
 30
0.0
 40
3.7041666667
 41
0.0
 71
     1
 72
     1
  1
face plate
  7
SLDTEXTSTYLE0
 73
     1
 44
1.0
  0
MTEXT
  5
1A3
330
1F
100
AcDbEntity
  8
0
  6
Continuous
 62
     7
370
     0
100
AcDbMText
 10
347.9887647757
 20
26.9758419643
 30
0.0
 40
3.7041666667
 41
0.0
 71
     1
 72
     1
  1
Masszeichnung
  7
SLDTEXTSTYLE0
 73
     1
 44
1.0
  0
MTEXT
  5
1A4
330
1F
100
AcDbEntity
  8
0
  6
Continuous
 62
     7
370
     0
100
AcDbMText
 10
325.9399734772
 20
15.7666195091
 30
0.0
 40
3.7041666667
 41
0.0
 71
     1
 72
     1
  1
S-1285-1-1000
  7
SLDTEXTSTYLE0
 73
     1
 44
1.0
  0
MTEXT
  5
1A5
330
1F
100
AcDbEntity
  8
0
  6
Continuous
 62
     7
370
     0
100
AcDbMText
 10
311.8368324057
 20
38.0103977868
 30
0.0
 40
2.1166666667
 41
0.0
 71
     1
 72
     1
  1
Nolle
  7
SLDTEXTSTYLE0
 73
     1
 44
1.0
  0
MTEXT
  5
1A6
330
1F
100
AcDbEntity
  8
0
  6
Continuous
 62
     7
370
     0
100
AcDbMText
 10
291.5635737288
 20
38.0103977868
 30
0.0
 40
2.1166666667
 41
0.0
 71
     1
 72
     1
  1
17.07.12
  7
SLDTEXTSTYLE0
 73
     1
 44
1.0
  0
MTEXT
  5
1A7
330
1F
100
AcDbEntity
  8
0
  6
Continuous
 62
     7
370
     0
100
AcDbMText
 10
325.9399734772
 20
8.9548062719
 30
0.0
 40
2.9104166667
 41
0.0
 71
     1
 72
     1
  1
-------39D..-01
  7
SLDTEXTSTYLE0
 73
     1
 44
1.0
  0
MTEXT
  5
1A8
330
1F
100
AcDbEntity
  8
0
  6
Continuous
 62
     7
370
     0
100
AcDbMText
 10
400.4718753549
 20
16.4743802336
 30
0.0
 40
2.1166666667
 41
0.0
 71
     1
 72
     1
  1
1
  7
SLDTEXTSTYLE1
 73
     1
 44
1.0
  0
MTEXT
  5
1A9
330
1F
100
AcDbEntity
  8
0
  6
Continuous
 62
     7
370
     0
100
AcDbMText
 10
403.2139810665
 20
16.4743801754
 30
0.0
 40
2.1166666667
 41
0.0
 71
     1
 72
     1
  1
(A3)
  7
SLDTEXTSTYLE1
 73
     1
 44
1.0
  0
MTEXT
  5
1AA
330
1F
100
AcDbEntity
  8
0
  6
Continuous
 62
     7
370
     0
100
AcDbMText
 10
408.0730426314
 20
12.2318141691
 30
0.0
 40
2.1166666667
 41
0.0
 71
     1
 72
     1
  1
1
  7
SLDTEXTSTYLE1
 73
     1
 44
1.0
  0
MTEXT
  5
1AB
330
1F
100
AcDbEntity
  8
0
  6
Continuous
 62
     7
370
     0
100
AcDbMText
 10
400.4718753549
 20
12.2318141691
 30
0.0
 40
2.1166666667
 41
0.0
 71
     1
 72
     1
  1
1 von
  7
SLDTEXTSTYLE1
 73
     1
 44
1.0
  0
INSERT
  5
1B1
330
1F
100
AcDbEntity
  8
0
  6
Continuous
 62
     7
370
     0
100
AcDbBlockReference
  2
SW_NOTE_9
 10
308.7749742127
 20
55.2200058741
 30
0.0
  0
MTEXT
  5
1B2
330
1F
100
AcDbEntity
  8
0
  6
Continuous
 62
     7
370
     0
100
AcDbMText
 10
320.17368302
 20
49.2589754895
 30
0.0
 40
2.6458333333
 41
0.0
 71
     1
 72
     1
  1
g
  7
SLDTEXTSTYLE1
 73
     1
 44
1.0
  0
LINE
  5
1B3
330
1F
100
AcDbEntity
  8
0
  6
Continuous
 62
     7
370
    40
100
AcDbLine
 10
131.7627479389
 20
228.2763691433
 30
0.0
 11
129.5127471044
 21
230.5263692793
 31
0.0
  0
LINE
  5
1B4
330
1F
100
AcDbEntity
  8
0
  6
Continuous
 62
     7
370
    40
100
AcDbLine
 10
131.7627479389
 20
216.5263688472
 30
0.0
 11
131.7627479389
 21
228.2763691433
 31
0.0
  0
LINE
  5
1B5
330
1F
100
AcDbEntity
  8
0
  6
Continuous
 62
     7
370
    40
100
AcDbLine
 10
141.7627477153
 20
216.5263688472
 30
0.0
 11
131.7627479389
 21
216.5263688472
 31
0.0
  0
LINE
  5
1B6
330
1F
100
AcDbEntity
  8
0
  6
Continuous
 62
     7
370
    40
100
AcDbLine
 10
141.7627477153
 20
218.026369093
 30
0.0
 11
141.7627477153
 21
216.5263688472
 31
0.0
  0
LINE
  5
1B7
330
1F
100
AcDbEntity
  8
0
  6
Continuous
 62
     7
370
    40
100
AcDbLine
 10
165.762747924
 20
218.026369093
 30
0.0
 11
141.7627477153
 21
218.026369093
 31
0.0
  0
LINE
  5
1B8
330
1F
100
AcDbEntity
  8
0
  6
Continuous
 62
     7
370
    40
100
AcDbLine
 10
165.762747924
 20
216.5263688472
 30
0.0
 11
165.762747924
 21
218.026369093
 31
0.0
  0
LINE
  5
1B9
330
1F
100
AcDbEntity
  8
0
  6
Continuous
 62
     7
370
    40
100
AcDbLine
 10
175.7627477004
 20
216.5263688472
 30
0.0
 11
165.762747924
 21
216.5263688472
 31
0.0
  0
LINE
  5
1BA
330
1F
100
AcDbEntity
  8
0
  6
Continuous
 62
     7
370
    40
100
AcDbLine
 10
175.7627477004
 20
228.2763691433
 30
0.0
 11
175.7627477004
 21
216.5263688472
 31
0.0
  0
LINE
  5
1BB
330
1F
100
AcDbEntity
  8
0
  6
Continuous
 62
     7
370
    40
100
AcDbLine
 10
178.0127485349
 20
230.5263692793
 30
0.0
 11
175.7627477004
 21
228.2763691433
 31
0.0
  0
LINE
  5
1BC
330
1F
100
AcDbEntity
  8
0
  6
Continuous
 62
     7
370
    40
100
AcDbLine
 10
178.0127485349
 20
235.5263691675
 30
0.0
 11
178.0127485349
 21
230.5263692793
 31
0.0
  0
LINE
  5
1BD
330
1F
100
AcDbEntity
  8
0
  6
Continuous
 62
     7
370
    40
100
AcDbLine
 10
229.5127485945
 20
235.5263691675
 30
0.0
 11
178.0127485349
 21
235.5263691675
 31
0.0
  0
LINE
  5
1BE
330
1F
100
AcDbEntity
  8
0
  6
Continuous
 62
     7
370
    40
100
AcDbLine
 10
229.5127485945
 20
230.5263692793
 30
0.0
 11
229.5127485945
 21
235.5263691675
 31
0.0
  0
LINE
  5
1BF
330
1F
100
AcDbEntity
  8
0
  6
Continuous
 62
     7
370
    40
100
AcDbLine
 10
231.762749429
 20
228.2763691433
 30
0.0
 11
229.5127485945
 21
230.5263692793
 31
0.0
  0
LINE
  5
1C0
330
1F
100
AcDbEntity
  8
0
  6
Continuous
 62
     7
370
    40
100
AcDbLine
 10
231.762749429
 20
216.5263688472
 30
0.0
 11
231.762749429
 21
228.2763691433
 31
0.0
  0
LINE
  5
1C1
330
1F
100
AcDbEntity
  8
0
  6
Continuous
 62
     7
370
    40
100
AcDbLine
 10
241.7627473428
 20
216.5263688472
 30
0.0
 11
231.762749429
 21
216.5263688472
 31
0.0
  0
LINE
  5
1C2
330
1F
100
AcDbEntity
  8
0
  6
Continuous
 62
     7
370
    40
100
AcDbLine
 10
241.7627473428
 20
218.026369093
 30
0.0
 11
241.7627473428
 21
216.5263688472
 31
0.0
  0
LINE
  5
1C3
330
1F
100
AcDbEntity
  8
0
  6
Continuous
 62
     7
370
    40
100
AcDbLine
 10
265.7627512767
 20
218.026369093
 30
0.0
 11
241.7627473428
 21
218.026369093
 31
0.0
  0
LINE
  5
1C4
330
1F
100
AcDbEntity
  8
0
  6
Continuous
 62
     7
370
    40
100
AcDbLine
 10
265.7627512767
 20
216.5263688472
 30
0.0
 11
265.7627512767
 21
218.026369093
 31
0.0
  0
LINE
  5
1C5
330
1F
100
AcDbEntity
  8
0
  6
Continuous
 62
     7
370
    40
100
AcDbLine
 10
275.7627491906
 20
216.5263688472
 30
0.0
 11
265.7627512767
 21
216.5263688472
 31
0.0
  0
LINE
  5
1C6
330
1F
100
AcDbEntity
  8
0
  6
Continuous
 62
     7
370
    40
100
AcDbLine
 10
275.7627491906
 20
228.2763691433
 30
0.0
 11
275.7627491906
 21
216.5263688472
 31
0.0
  0
LINE
  5
1C7
330
1F
100
AcDbEntity
  8
0
  6
Continuous
 62
     7
370
    40
100
AcDbLine
 10
278.012750025
 20
230.5263692793
 30
0.0
 11
275.7627491906
 21
228.2763691433
 31
0.0
  0
LINE
  5
1C8
330
1F
100
AcDbEntity
  8
0
  6
Continuous
 62
     7
370
    40
100
AcDbLine
 10
278.012750025
 20
235.5263691675
 30
0.0
 11
278.012750025
 21
230.5263692793
 31
0.0
  0
LINE
  5
1C9
330
1F
100
AcDbEntity
  8
0
  6
Continuous
 62
     7
370
    40
100
AcDbLine
 10
328.7627448394
 20
235.5263691675
 30
0.0
 11
278.012750025
 21
235.5263691675
 31
0.0
  0
LINE
  5
1CA
330
1F
100
AcDbEntity
  8
0
  6
Continuous
 62
     7
370
    40
100
AcDbLine
 10
328.7627448394
 20
210.526368795
 30
0.0
 11
328.7627448394
 21
235.5263691675
 31
0.0
  0
LINE
  5
1CB
330
1F
100
AcDbEntity
  8
0
  6
Continuous
 62
     7
370
    40
100
AcDbLine
 10
78.7627448394
 20
210.526368795
 30
0.0
 11
328.7627448394
 21
210.526368795
 31
0.0
  0
LINE
  5
1CC
330
1F
100
AcDbEntity
  8
0
  6
Continuous
 62
     7
370
    40
100
AcDbLine
 10
78.7627448394
 20
235.5263691675
 30
0.0
 11
78.7627448394
 21
210.526368795
 31
0.0
  0
LINE
  5
1CD
330
1F
100
AcDbEntity
  8
0
  6
Continuous
 62
     7
370
    40
100
AcDbLine
 10
129.5127471044
 20
235.5263691675
 30
0.0
 11
78.7627448394
 21
235.5263691675
 31
0.0
  0
LINE
  5
1CE
330
1F
100
AcDbEntity
  8
0
  6
Continuous
 62
     7
370
    40
100
AcDbLine
 10
129.5127471044
 20
230.5263692793
 30
0.0
 11
129.5127471044
 21
235.5263691675
 31
0.0
  0
CIRCLE
  5
1CF
330
1F
100
AcDbEntity
  8
0
  6
Continuous
 62
     7
370
    40
100
AcDbCircle
 10
280.0127478196
 20
224.5263692272
 30
0.0
 40
3.900000000000034
  0
CIRCLE
  5
1D0
330
1F
100
AcDbEntity
  8
0
  6
Continuous
 62
     7
370
    40
100
AcDbCircle
 10
227.5127478196
 20
224.5263692272
 30
0.0
 40
3.900000000000006
  0
CIRCLE
  5
1D1
330
1F
100
AcDbEntity
  8
0
  6
Continuous
 62
     7
370
    40
100
AcDbCircle
 10
180.0127478196
 20
224.5263692272
 30
0.0
 40
3.900000000000006
  0
CIRCLE
  5
1D2
330
1F
100
AcDbEntity
  8
0
  6
Continuous
 62
     7
370
    40
100
AcDbCircle
 10
127.5127478196
 20
224.5263692272
 30
0.0
 40
3.899999999999991
  0
CIRCLE
  5
1D3
330
1F
100
AcDbEntity
  8
0
  6
Continuous
 62
     7
370
    40
100
AcDbCircle
 10
321.7627478196
 20
216.0263692272
 30
0.0
 40
4.0
  0
CIRCLE
  5
1D4
330
1F
100
AcDbEntity
  8
0
  6
Continuous
 62
     7
370
    40
100
AcDbCircle
 10
321.7627478196
 20
230.0263692272
 30
0.0
 40
4.0
  0
CIRCLE
  5
1D5
330
1F
100
AcDbEntity
  8
0
  6
Continuous
 62
     7
370
    40
100
AcDbCircle
 10
85.7627478196
 20
216.0263692272
 30
0.0
 40
4.000000000000014
  0
CIRCLE
  5
1D6
330
1F
100
AcDbEntity
  8
0
  6
Continuous
 62
     7
370
    40
100
AcDbCircle
 10
85.7627478196
 20
230.0263692272
 30
0.0
 40
4.000000000000014
  0
CIRCLE
  5
1D7
330
1F
100
AcDbEntity
  8
0
  6
Continuous
 62
     7
370
    40
100
AcDbCircle
 10
321.7627478196
 20
216.0263692272
 30
0.0
 40
2.150000000000034
  0
CIRCLE
  5
1D8
330
1F
100
AcDbEntity
  8
0
  6
Continuous
 62
     7
370
    40
100
AcDbCircle
 10
321.7627478196
 20
230.0263692272
 30
0.0
 40
2.150000000000034
  0
CIRCLE
  5
1D9
330
1F
100
AcDbEntity
  8
0
  6
Continuous
 62
     7
370
    40
100
AcDbCircle
 10
85.7627478196
 20
216.0263692272
 30
0.0
 40
2.150000000000006
  0
CIRCLE
  5
1DA
330
1F
100
AcDbEntity
  8
0
  6
Continuous
 62
     7
370
    40
100
AcDbCircle
 10
85.7627478196
 20
230.0263692272
 30
0.0
 40
2.150000000000006
  0
CIRCLE
  5
1DB
330
1F
100
AcDbEntity
  8
0
  6
Continuous
 62
     7
370
    40
100
AcDbCircle
 10
227.5127478196
 20
224.5263692272
 30
0.0
 40
2.149999999999977
  0
CIRCLE
  5
1DC
330
1F
100
AcDbEntity
  8
0
  6
Continuous
 62
     7
370
    40
100
AcDbCircle
 10
280.0127478196
 20
224.5263692272
 30
0.0
 40
2.149999999999977
  0
CIRCLE
  5
1DD
330
1F
100
AcDbEntity
  8
0
  6
Continuous
 62
     7
370
    40
100
AcDbCircle
 10
127.5127478196
 20
224.5263692272
 30
0.0
 40
2.15000000000002
  0
CIRCLE
  5
1DE
330
1F
100
AcDbEntity
  8
0
  6
Continuous
 62
     7
370
    40
100
AcDbCircle
 10
180.0127478196
 20
224.5263692272
 30
0.0
 40
2.150000000000006
  0
DIMENSION
  5
1DF
330
1F
100
AcDbEntity
  8
0
  6
Continuous
 62
     6
370
     0
100
AcDbDimension
  2
*D13
 10
68.7627478196
 20
216.0263692272
 30
0.0
 11
68.7627478196
 21
223.0263692272
 31
0.0
 70
   160
 71
     2
 42
-1.0
  3
SLDDIMSTYLE0
100
AcDbAlignedDimension
 13
80.7627478196
 23
230.0263692272
 33
0.0
 14
80.7627478196
 24
216.0263692272
 34
0.0
 50
90.0
100
AcDbRotatedDimension
  0
DIMENSION
  5
1EA
330
1F
100
AcDbEntity
  8
0
  6
Continuous
 62
     6
370
     0
100
AcDbDimension
  2
*D14
 10
68.7627478196
 20
235.5263692272
 30
0.0
 11
68.7627478196
 21
242.6235422006
 31
0.0
 70
   160
 71
     2
 42
-1.0
  3
SLDDIMSTYLE1
100
AcDbAlignedDimension
 13
80.7627478196
 23
230.0263692272
 33
0.0
 14
78.7627478196
 24
235.5263692272
 34
0.0
 50
90.0
100
AcDbRotatedDimension
  0
DIMENSION
  5
1F7
330
1F
100
AcDbEntity
  8
0
  6
Continuous
 62
     6
370
     0
100
AcDbDimension
  2
*D15
 10
59.0422850026
 20
210.5263692272
 30
0.0
 11
59.0422850026
 21
223.0263692272
 31
0.0
 70
   160
 71
     2
 42
-1.0
  3
SLDDIMSTYLE2
100
AcDbAlignedDimension
 13
78.7627478196
 23
235.5263692272
 33
0.0
 14
78.7627478196
 24
210.5263692272
 34
0.0
 50
90.0
100
AcDbRotatedDimension
  0
DIMENSION
  5
205
330
1F
100
AcDbEntity
  8
0
  6
Continuous
 62
     6
370
     0
100
AcDbDimension
  2
*D16
 10
114.4917801459
 20
235.5263692272
 30
0.0
 11
114.4917801459
 21
230.0263692272
 31
0.0
 70
   160
 71
     2
 42
-1.0
  3
SLDDIMSTYLE1
100
AcDbAlignedDimension
 13
122.6127478196
 23
224.5263692272
 33
0.0
 14
129.5127478196
 24
235.5263692272
 34
0.0
 50
90.0
100
AcDbRotatedDimension
  0
DIMENSION
  5
210
330
1F
100
AcDbEntity
  8
0
  6
Continuous
 62
     6
370
     0
100
AcDbDimension
  2
*D17
 10
215.1561127166
 20
235.5263692272
 30
0.0
 11
215.1561127166
 21
230.0263692272
 31
0.0
 70
   160
 71
     2
 42
-1.0
  3
SLDDIMSTYLE1
100
AcDbAlignedDimension
 13
222.6127478196
 23
224.5263692272
 33
0.0
 14
229.5127478196
 24
235.5263692272
 34
0.0
 50
90.0
100
AcDbRotatedDimension
  0
DIMENSION
  5
21B
330
1F
100
AcDbEntity
  8
0
  6
Continuous
 62
     6
370
     0
100
AcDbDimension
  2
*D18
 10
153.7627478196
 20
246.7702955805
 30
0.0
 11
116.2627478196
 21
246.7702955805
 31
0.0
 70
   160
 71
     2
 42
-1.0
  3
SLDDIMSTYLE3
100
AcDbAlignedDimension
 13
78.7627478196
 23
235.5263692272
 33
0.0
 14
153.7627478196
 24
236.5263692272
 34
0.0
100
AcDbRotatedDimension
  0
DIMENSION
  5
227
330
1F
100
AcDbEntity
  8
0
  6
Continuous
 62
     6
370
     0
100
AcDbDimension
  2
*D19
 10
253.7627478196
 20
246.7702955805
 30
0.0
 11
203.7627478196
 21
246.7702955805
 31
0.0
 70
   160
 71
     2
 42
-1.0
  3
SLDDIMSTYLE3
100
AcDbAlignedDimension
 13
153.7627478196
 23
236.5263692272
 33
0.0
 14
253.7627478196
 24
236.5263692272
 34
0.0
100
AcDbRotatedDimension
  0
DIMENSION
  5
232
330
1F
100
AcDbEntity
  8
0
  6
Continuous
 62
     6
370
     0
100
AcDbDimension
  2
*D20
 10
328.7627478196
 20
256.9562829062
 30
0.0
 11
203.7627478196
 21
256.9562829062
 31
0.0
 70
   160
 71
     2
 42
-1.0
  3
SLDDIMSTYLE4
100
AcDbAlignedDimension
 13
78.7627478196
 23
235.5263692272
 33
0.0
 14
328.7627478196
 24
235.5263692272
 34
0.0
100
AcDbRotatedDimension
  0
DIMENSION
  5
240
330
1F
100
AcDbEntity
  8
0
  6
Continuous
 62
     6
370
     0
100
AcDbDimension
  2
*D21
 10
231.7627478196
 20
196.6167610696
 30
0.0
 11
203.7627478196
 21
196.6167610696
 31
0.0
 70
   160
  1
(<>)
 71
     2
 42
-1.0
  3
SLDDIMSTYLE0
100
AcDbAlignedDimension
 13
175.7627478196
 23
216.5263692272
 33
0.0
 14
231.7627478196
 24
216.5263692272
 34
0.0
100
AcDbRotatedDimension
  0
DIMENSION
  5
24C
330
1F
100
AcDbEntity
  8
0
  6
Continuous
 62
     6
370
     0
100
AcDbDimension
  2
*D22
 10
321.7627478196
 20
184.7981774058
 30
0.0
 11
203.7627478196
 21
184.7981774058
 31
0.0
 70
   160
 71
     2
 42
-1.0
  3
SLDDIMSTYLE3
100
AcDbAlignedDimension
 13
85.7627478196
 23
211.0263692272
 33
0.0
 14
321.7627478196
 24
211.0263692272
 34
0.0
100
AcDbRotatedDimension
  0
DIMENSION
  5
257
330
1F
100
AcDbEntity
  8
0
  6
Continuous
 62
     6
370
     0
100
AcDbDimension
  2
*D23
 10
85.7627478196
 20
196.6167610696
 30
0.0
 11
82.2627478196
 21
196.6167610696
 31
0.0
 70
   160
 71
     2
 42
-1.0
  3
SLDDIMSTYLE1
100
AcDbAlignedDimension
 13
78.7627478196
 23
210.5263692272
 33
0.0
 14
85.7627478196
 24
211.0263692272
 34
0.0
100
AcDbRotatedDimension
  0
DIMENSION
  5
263
330
1F
100
AcDbEntity
  8
0
  6
Continuous
 62
     6
370
     0
100
AcDbDimension
  2
*D24
 10
338.7627478196
 20
227.8763692272
 30
0.0
 11
338.7627478196
 21
241.2654613733
 31
0.0
 70
   160
  1
%%c<>
 71
     2
 42
-1.0
  3
SLDDIMSTYLE5
100
AcDbAlignedDimension
 13
321.7627478196
 23
232.1763692272
 33
0.0
 14
321.7627478196
 24
227.8763692272
 34
0.0
 50
90.0
100
AcDbRotatedDimension
  0
DIMENSION
  5
271
330
1F
100
AcDbEntity
  8
0
  6
Continuous
 62
     6
370
     0
100
AcDbDimension
  2
*D25
 10
349.2805308254
 20
226.0263692272
 30
0.0
 11
349.2805308254
 21
230.0263692272
 31
0.0
 70
   160
  1
%%c<>
 71
     2
 42
-1.0
  3
SLDDIMSTYLE5
100
AcDbAlignedDimension
 13
321.7627478196
 23
234.0263692272
 33
0.0
 14
321.7627478196
 24
226.0263692272
 34
0.0
 50
90.0
100
AcDbRotatedDimension
  0
MTEXT
  5
27E
330
1F
100
AcDbEntity
  8
0
  6
Continuous
 62
     6
370
     0
100
AcDbMText
 10
337.4546350692
 20
257.2607438937
 30
0.0
 40
3.5
 41
0.0
 71
     1
 72
     1
  1
Senkung 90°
  7
SLDTEXTSTYLE1
 73
     1
 44
1.0
  0
LEADER
  5
280
330
1F
100
AcDbEntity
  8
0
  6
Continuous
 62
     6
370
     0
100
AcDbLeader
  3
SLDDIMSTYLE6
 76
     3
 10
324.5696264874
 20
232.8761818779
 30
0.0
 10
336.9541140217
 20
252.7483296503
 30
0.0
 10
365.0435714578
 20
252.7483296503
 30
0.0
  0
INSERT
  5
28C
330
1F
100
AcDbEntity
  8
0
  6
Continuous
 62
     6
370
     0
100
AcDbBlockReference
  2
SW_CENTERMARKSYMBOL_0
 10
280.0127478196
 20
224.5263692272
 30
0.0
  0
INSERT
  5
298
330
1F
100
AcDbEntity
  8
0
  6
Continuous
 62
     6
370
     0
100
AcDbBlockReference
  2
SW_CENTERMARKSYMBOL_1
 10
227.5127478196
 20
224.5263692272
 30
0.0
  0
INSERT
  5
2A4
330
1F
100
AcDbEntity
  8
0
  6
Continuous
 62
     6
370
     0
100
AcDbBlockReference
  2
SW_CENTERMARKSYMBOL_2
 10
180.0127478196
 20
224.5263692272
 30
0.0
  0
INSERT
  5
2B0
330
1F
100
AcDbEntity
  8
0
  6
Continuous
 62
     6
370
     0
100
AcDbBlockReference
  2
SW_CENTERMARKSYMBOL_3
 10
127.5127478196
 20
224.5263692272
 30
0.0
  0
INSERT
  5
2BC
330
1F
100
AcDbEntity
  8
0
  6
Continuous
 62
     6
370
     0
100
AcDbBlockReference
  2
SW_CENTERMARKSYMBOL_4
 10
321.7627478196
 20
216.0263692272
 30
0.0
  0
INSERT
  5
2C8
330
1F
100
AcDbEntity
  8
0
  6
Continuous
 62
     6
370
     0
100
AcDbBlockReference
  2
SW_CENTERMARKSYMBOL_5
 10
321.7627478196
 20
230.0263692272
 30
0.0
  0
INSERT
  5
2D4
330
1F
100
AcDbEntity
  8
0
  6
Continuous
 62
     6
370
     0
100
AcDbBlockReference
  2
SW_CENTERMARKSYMBOL_6
 10
85.7627478196
 20
216.0263692272
 30
0.0
  0
INSERT
  5
2E0
330
1F
100
AcDbEntity
  8
0
  6
Continuous
 62
     6
370
     0
100
AcDbBlockReference
  2
SW_CENTERMARKSYMBOL_7
 10
85.7627478196
 20
230.0263692272
 30
0.0
  0
LINE
  5
2E1
330
1F
100
AcDbEntity
  8
0
  6
CENTERX2
 62
     6
370
     0
100
AcDbLine
 10
153.7627478196
 20
236.5263692272
 30
0.0
 11
153.7627478196
 21
215.5434619046
 31
0.0
  0
LINE
  5
2E2
330
1F
100
AcDbEntity
  8
0
  6
CENTERX2
 62
     6
370
     0
100
AcDbLine
 10
253.7627478196
 20
236.5263692272
 30
0.0
 11
253.7627478196
 21
215.4307072838
 31
0.0
  0
LINE
  5
2E3
330
1F
100
AcDbEntity
  8
0
  6
Continuous
 62
     7
370
    40
100
AcDbLine
 10
278.012750025
 20
145.2207295622
 30
0.0
 11
278.012750025
 21
148.2207295883
 31
0.0
  0
LINE
  5
2E4
330
1F
100
AcDbEntity
  8
0
  6
Continuous
 62
     7
370
    40
100
AcDbLine
 10
328.7627448394
 20
145.2207295622
 30
0.0
 11
328.7627448394
 21
148.2207295883
 31
0.0
  0
LINE
  5
2E5
330
1F
100
AcDbEntity
  8
0
  6
Continuous
 62
     7
370
    40
100
AcDbLine
 10
328.7627448394
 20
148.2207295883
 30
0.0
 11
278.012750025
 21
148.2207295883
 31
0.0
  0
LINE
  5
2E6
330
1F
100
AcDbEntity
  8
0
  6
Continuous
 62
     7
370
    40
100
AcDbLine
 10
328.7627448394
 20
145.2207295622
 30
0.0
 11
278.012750025
 21
145.2207295622
 31
0.0
  0
LINE
  5
2E7
330
1F
100
AcDbEntity
  8
0
  6
Continuous
 62
     7
370
    40
100
AcDbLine
 10
178.0127485349
 20
145.2207295622
 30
0.0
 11
178.0127485349
 21
148.2207295883
 31
0.0
  0
LINE
  5
2E8
330
1F
100
AcDbEntity
  8
0
  6
Continuous
 62
     7
370
    40
100
AcDbLine
 10
229.5127485945
 20
145.2207295622
 30
0.0
 11
229.5127485945
 21
148.2207295883
 31
0.0
  0
LINE
  5
2E9
330
1F
100
AcDbEntity
  8
0
  6
Continuous
 62
     7
370
    40
100
AcDbLine
 10
229.5127485945
 20
148.2207295883
 30
0.0
 11
178.0127485349
 21
148.2207295883
 31
0.0
  0
LINE
  5
2EA
330
1F
100
AcDbEntity
  8
0
  6
Continuous
 62
     7
370
    40
100
AcDbLine
 10
229.5127485945
 20
145.2207295622
 30
0.0
 11
178.0127485349
 21
145.2207295622
 31
0.0
  0
LINE
  5
2EB
330
1F
100
AcDbEntity
  8
0
  6
Continuous
 62
     7
370
    40
100
AcDbLine
 10
129.5127471044
 20
145.2207295622
 30
0.0
 11
129.5127471044
 21
148.2207295883
 31
0.0
  0
LINE
  5
2EC
330
1F
100
AcDbEntity
  8
0
  6
Continuous
 62
     7
370
    40
100
AcDbLine
 10
78.7627448394
 20
145.2207295622
 30
0.0
 11
78.7627448394
 21
148.2207295883
 31
0.0
  0
LINE
  5
2ED
330
1F
100
AcDbEntity
  8
0
  6
Continuous
 62
     7
370
    40
100
AcDbLine
 10
129.5127471044
 20
148.2207295883
 30
0.0
 11
78.7627448394
 21
148.2207295883
 31
0.0
  0
LINE
  5
2EE
330
1F
100
AcDbEntity
  8
0
  6
Continuous
 62
     7
370
    40
100
AcDbLine
 10
129.5127471044
 20
145.2207295622
 30
0.0
 11
78.7627448394
 21
145.2207295622
 31
0.0
  0
LINE
  5
2EF
330
1F
100
AcDbEntity
  8
0
  6
Continuous
 62
     7
370
    40
100
AcDbLine
 10
275.7627491906
 20
145.2207295622
 30
0.0
 11
275.7627491906
 21
148.2207295883
 31
0.0
  0
LINE
  5
2F0
330
1F
100
AcDbEntity
  8
0
  6
Continuous
 62
     7
370
    40
100
AcDbLine
 10
278.012750025
 20
148.2207295883
 30
0.0
 11
275.7627491906
 21
148.2207295883
 31
0.0
  0
LINE
  5
2F1
330
1F
100
AcDbEntity
  8
0
  6
Continuous
 62
     7
370
    40
100
AcDbLine
 10
278.012750025
 20
145.2207295622
 30
0.0
 11
275.7627491906
 21
145.2207295622
 31
0.0
  0
LINE
  5
2F2
330
1F
100
AcDbEntity
  8
0
  6
Continuous
 62
     7
370
    40
100
AcDbLine
 10
175.7627477004
 20
145.2207295622
 30
0.0
 11
175.7627477004
 21
148.2207295883
 31
0.0
  0
LINE
  5
2F3
330
1F
100
AcDbEntity
  8
0
  6
Continuous
 62
     7
370
    40
100
AcDbLine
 10
178.0127485349
 20
148.2207295883
 30
0.0
 11
175.7627477004
 21
148.2207295883
 31
0.0
  0
LINE
  5
2F4
330
1F
100
AcDbEntity
  8
0
  6
Continuous
 62
     7
370
    40
100
AcDbLine
 10
178.0127485349
 20
145.2207295622
 30
0.0
 11
175.7627477004
 21
145.2207295622
 31
0.0
  0
LINE
  5
2F5
330
1F
100
AcDbEntity
  8
0
  6
Continuous
 62
     7
370
    40
100
AcDbLine
 10
231.762749429
 20
145.2207295622
 30
0.0
 11
231.762749429
 21
148.2207295883
 31
0.0
  0
LINE
  5
2F6
330
1F
100
AcDbEntity
  8
0
  6
Continuous
 62
     7
370
    40
100
AcDbLine
 10
231.762749429
 20
148.2207295883
 30
0.0
 11
229.5127485945
 21
148.2207295883
 31
0.0
  0
LINE
  5
2F7
330
1F
100
AcDbEntity
  8
0
  6
Continuous
 62
     7
370
    40
100
AcDbLine
 10
231.762749429
 20
145.2207295622
 30
0.0
 11
229.5127485945
 21
145.2207295622
 31
0.0
  0
LINE
  5
2F8
330
1F
100
AcDbEntity
  8
0
  6
Continuous
 62
     7
370
    40
100
AcDbLine
 10
131.7627479389
 20
145.2207295622
 30
0.0
 11
131.7627479389
 21
148.2207295883
 31
0.0
  0
LINE
  5
2F9
330
1F
100
AcDbEntity
  8
0
  6
Continuous
 62
     7
370
    40
100
AcDbLine
 10
131.7627479389
 20
148.2207295883
 30
0.0
 11
129.5127471044
 21
148.2207295883
 31
0.0
  0
LINE
  5
2FA
330
1F
100
AcDbEntity
  8
0
  6
Continuous
 62
     7
370
    40
100
AcDbLine
 10
131.7627479389
 20
145.2207295622
 30
0.0
 11
129.5127471044
 21
145.2207295622
 31
0.0
  0
LINE
  5
2FB
330
1F
100
AcDbEntity
  8
0
  6
Continuous
 62
     7
370
    40
100
AcDbLine
 10
141.7627477153
 20
145.2207295622
 30
0.0
 11
141.7627477153
 21
148.2207295883
 31
0.0
  0
LINE
  5
2FC
330
1F
100
AcDbEntity
  8
0
  6
Continuous
 62
     7
370
    40
100
AcDbLine
 10
165.762747924
 20
145.2207295622
 30
0.0
 11
165.762747924
 21
148.2207295883
 31
0.0
  0
LINE
  5
2FD
330
1F
100
AcDbEntity
  8
0
  6
Continuous
 62
     7
370
    40
100
AcDbLine
 10
165.762747924
 20
148.2207295883
 30
0.0
 11
141.7627477153
 21
148.2207295883
 31
0.0
  0
LINE
  5
2FE
330
1F
100
AcDbEntity
  8
0
  6
Continuous
 62
     7
370
    40
100
AcDbLine
 10
165.762747924
 20
145.2207295622
 30
0.0
 11
141.7627477153
 21
145.2207295622
 31
0.0
  0
LINE
  5
2FF
330
1F
100
AcDbEntity
  8
0
  6
Continuous
 62
     7
370
    40
100
AcDbLine
 10
265.7627512767
 20
145.2207295622
 30
0.0
 11
265.7627512767
 21
148.2207295883
 31
0.0
  0
LINE
  5
300
330
1F
100
AcDbEntity
  8
0
  6
Continuous
 62
     7
370
    40
100
AcDbLine
 10
241.7627473428
 20
145.2207295622
 30
0.0
 11
241.7627473428
 21
148.2207295883
 31
0.0
  0
LINE
  5
301
330
1F
100
AcDbEntity
  8
0
  6
Continuous
 62
     7
370
    40
100
AcDbLine
 10
265.7627512767
 20
148.2207295883
 30
0.0
 11
241.7627473428
 21
148.2207295883
 31
0.0
  0
LINE
  5
302
330
1F
100
AcDbEntity
  8
0
  6
Continuous
 62
     7
370
    40
100
AcDbLine
 10
265.7627512767
 20
145.2207295622
 30
0.0
 11
241.7627473428
 21
145.2207295622
 31
0.0
  0
LINE
  5
303
330
1F
100
AcDbEntity
  8
0
  6
Continuous
 62
     7
370
    40
100
AcDbLine
 10
275.7627491906
 20
148.2207295883
 30
0.0
 11
265.7627512767
 21
148.2207295883
 31
0.0
  0
LINE
  5
304
330
1F
100
AcDbEntity
  8
0
  6
Continuous
 62
     7
370
    40
100
AcDbLine
 10
275.7627491906
 20
145.2207295622
 30
0.0
 11
265.7627512767
 21
145.2207295622
 31
0.0
  0
LINE
  5
305
330
1F
100
AcDbEntity
  8
0
  6
Continuous
 62
     7
370
    40
100
AcDbLine
 10
175.7627477004
 20
148.2207295883
 30
0.0
 11
165.762747924
 21
148.2207295883
 31
0.0
  0
LINE
  5
306
330
1F
100
AcDbEntity
  8
0
  6
Continuous
 62
     7
370
    40
100
AcDbLine
 10
175.7627477004
 20
145.2207295622
 30
0.0
 11
165.762747924
 21
145.2207295622
 31
0.0
  0
LINE
  5
307
330
1F
100
AcDbEntity
  8
0
  6
Continuous
 62
     7
370
    40
100
AcDbLine
 10
141.7627477153
 20
148.2207295883
 30
0.0
 11
131.7627479389
 21
148.2207295883
 31
0.0
  0
LINE
  5
308
330
1F
100
AcDbEntity
  8
0
  6
Continuous
 62
     7
370
    40
100
AcDbLine
 10
141.7627477153
 20
145.2207295622
 30
0.0
 11
131.7627479389
 21
145.2207295622
 31
0.0
  0
LINE
  5
309
330
1F
100
AcDbEntity
  8
0
  6
Continuous
 62
     7
370
    40
100
AcDbLine
 10
241.7627473428
 20
148.2207295883
 30
0.0
 11
231.762749429
 21
148.2207295883
 31
0.0
  0
LINE
  5
30A
330
1F
100
AcDbEntity
  8
0
  6
Continuous
 62
     7
370
    40
100
AcDbLine
 10
241.7627473428
 20
145.2207295622
 30
0.0
 11
231.762749429
 21
145.2207295622
 31
0.0
  0
LINE
  5
30B
330
1F
100
AcDbEntity
  8
0
  6
HIDDEN
 62
     7
370
     0
100
AcDbLine
 10
325.7627536609
 20
145.5207295183
 30
0.0
 11
317.7627523496
 21
145.5207295183
 31
0.0
  0
LINE
  5
30C
330
1F
100
AcDbEntity
  8
0
  6
HIDDEN
 62
     7
370
     0
100
AcDbLine
 10
89.7627447798
 20
145.5207295183
 30
0.0
 11
81.7627509191
 21
145.5207295183
 31
0.0
  0
LINE
  5
30D
330
1F
100
AcDbEntity
  8
0
  6
HIDDEN
 62
     7
370
     0
100
AcDbLine
 10
87.9127507164
 20
147.370729577
 30
0.0
 11
83.6127449825
 21
147.370729577
 31
0.0
  0
LINE
  5
30E
330
1F
100
AcDbEntity
  8
0
  6
HIDDEN
 62
     7
370
     0
100
AcDbLine
 10
323.9127446964
 20
147.370729577
 30
0.0
 11
319.612746413
 21
147.370729577
 31
0.0
  0
LINE
  5
30F
330
1F
100
AcDbEntity
  8
0
  6
HIDDEN
 62
     7
370
     0
100
AcDbLine
 10
183.9127478256
 20
145.5207295183
 30
0.0
 11
176.1127480372
 21
145.5207295183
 31
0.0
  0
LINE
  5
310
330
1F
100
AcDbEntity
  8
0
  6
HIDDEN
 62
     7
370
     0
100
AcDbLine
 10
182.1627480044
 20
147.2707295723
 30
0.0
 11
177.8627478584
 21
147.2707295723
 31
0.0
  0
LINE
  5
311
330
1F
100
AcDbEntity
  8
0
  6
HIDDEN
 62
     7
370
     0
100
AcDbLine
 10
231.4127509549
 20
145.5207295183
 30
0.0
 11
223.6127455785
 21
145.5207295183
 31
0.0
  0
LINE
  5
312
330
1F
100
AcDbEntity
  8
0
  6
HIDDEN
 62
     7
370
     0
100
AcDbLine
 10
229.6627511337
 20
147.2707295723
 30
0.0
 11
225.3627453997
 21
147.2707295723
 31
0.0
  0
LINE
  5
313
330
1F
100
AcDbEntity
  8
0
  6
HIDDEN
 62
     7
370
     0
100
AcDbLine
 10
131.4127476021
 20
145.5207295183
 30
0.0
 11
123.6127478137
 21
145.5207295183
 31
0.0
  0
LINE
  5
314
330
1F
100
AcDbEntity
  8
0
  6
HIDDEN
 62
     7
370
     0
100
AcDbLine
 10
129.6627477809
 20
147.2707295723
 30
0.0
 11
125.3627476349
 21
147.2707295723
 31
0.0
  0
LINE
  5
315
330
1F
100
AcDbEntity
  8
0
  6
HIDDEN
 62
     7
370
     0
100
AcDbLine
 10
283.912753041
 20
145.5207295183
 30
0.0
 11
276.1127476647
 21
145.5207295183
 31
0.0
  0
LINE
  5
316
330
1F
100
AcDbEntity
  8
0
  6
HIDDEN
 62
     7
370
     0
100
AcDbLine
 10
282.1627457692
 20
147.2707295723
 30
0.0
 11
277.8627474859
 21
147.2707295723
 31
0.0
  0
LINE
  5
317
330
1F
100
AcDbEntity
  8
0
  6
HIDDEN
 62
     7
370
     0
100
AcDbLine
 10
325.7627536609
 20
145.2207295622
 30
0.0
 11
325.7627536609
 21
145.5207295183
 31
0.0
  0
LINE
  5
318
330
1F
100
AcDbEntity
  8
0
  6
HIDDEN
 62
     7
370
     0
100
AcDbLine
 10
317.7627523496
 20
145.5207295183
 30
0.0
 11
317.7627523496
 21
145.2207295622
 31
0.0
  0
LINE
  5
319
330
1F
100
AcDbEntity
  8
0
  6
HIDDEN
 62
     7
370
     0
100
AcDbLine
 10
89.7627447798
 20
145.2207295622
 30
0.0
 11
89.7627447798
 21
145.5207295183
 31
0.0
  0
LINE
  5
31A
330
1F
100
AcDbEntity
  8
0
  6
HIDDEN
 62
     7
370
     0
100
AcDbLine
 10
81.7627509191
 20
145.5207295183
 30
0.0
 11
81.7627509191
 21
145.2207295622
 31
0.0
  0
LINE
  5
31B
330
1F
100
AcDbEntity
  8
0
  6
HIDDEN
 62
     7
370
     0
100
AcDbLine
 10
89.7627447798
 20
145.5207295183
 30
0.0
 11
87.9127507164
 21
147.370729577
 31
0.0
  0
LINE
  5
31C
330
1F
100
AcDbEntity
  8
0
  6
HIDDEN
 62
     7
370
     0
100
AcDbLine
 10
83.6127449825
 20
147.370729577
 30
0.0
 11
81.7627509191
 21
145.5207295183
 31
0.0
  0
LINE
  5
31D
330
1F
100
AcDbEntity
  8
0
  6
HIDDEN
 62
     7
370
     0
100
AcDbLine
 10
325.7627536609
 20
145.5207295183
 30
0.0
 11
323.9127446964
 21
147.370729577
 31
0.0
  0
LINE
  5
31E
330
1F
100
AcDbEntity
  8
0
  6
HIDDEN
 62
     7
370
     0
100
AcDbLine
 10
319.612746413
 20
147.370729577
 30
0.0
 11
317.7627523496
 21
145.5207295183
 31
0.0
  0
LINE
  5
31F
330
1F
100
AcDbEntity
  8
0
  6
HIDDEN
 62
     7
370
     0
100
AcDbLine
 10
323.9127446964
 20
147.370729577
 30
0.0
 11
323.9127446964
 21
148.2207295883
 31
0.0
  0
LINE
  5
320
330
1F
100
AcDbEntity
  8
0
  6
HIDDEN
 62
     7
370
     0
100
AcDbLine
 10
319.612746413
 20
148.2207295883
 30
0.0
 11
319.612746413
 21
147.370729577
 31
0.0
  0
LINE
  5
321
330
1F
100
AcDbEntity
  8
0
  6
HIDDEN
 62
     7
370
     0
100
AcDbLine
 10
87.9127507164
 20
147.370729577
 30
0.0
 11
87.9127507164
 21
148.2207295883
 31
0.0
  0
LINE
  5
322
330
1F
100
AcDbEntity
  8
0
  6
HIDDEN
 62
     7
370
     0
100
AcDbLine
 10
83.6127449825
 20
148.2207295883
 30
0.0
 11
83.6127449825
 21
147.370729577
 31
0.0
  0
LINE
  5
323
330
1F
100
AcDbEntity
  8
0
  6
HIDDEN
 62
     7
370
     0
100
AcDbLine
 10
183.9127478256
 20
145.2207295622
 30
0.0
 11
183.9127478256
 21
145.5207295183
 31
0.0
  0
LINE
  5
324
330
1F
100
AcDbEntity
  8
0
  6
HIDDEN
 62
     7
370
     0
100
AcDbLine
 10
176.1127480372
 20
145.5207295183
 30
0.0
 11
176.1127480372
 21
145.2207295622
 31
0.0
  0
LINE
  5
325
330
1F
100
AcDbEntity
  8
0
  6
HIDDEN
 62
     7
370
     0
100
AcDbLine
 10
183.9127478256
 20
145.5207295183
 30
0.0
 11
182.1627480044
 21
147.2707295723
 31
0.0
  0
LINE
  5
326
330
1F
100
AcDbEntity
  8
0
  6
HIDDEN
 62
     7
370
     0
100
AcDbLine
 10
177.8627478584
 20
147.2707295723
 30
0.0
 11
176.1127480372
 21
145.5207295183
 31
0.0
  0
LINE
  5
327
330
1F
100
AcDbEntity
  8
0
  6
HIDDEN
 62
     7
370
     0
100
AcDbLine
 10
231.4127509549
 20
145.2207295622
 30
0.0
 11
231.4127509549
 21
145.5207295183
 31
0.0
  0
LINE
  5
328
330
1F
100
AcDbEntity
  8
0
  6
HIDDEN
 62
     7
370
     0
100
AcDbLine
 10
223.6127455785
 20
145.5207295183
 30
0.0
 11
223.6127455785
 21
145.2207295622
 31
0.0
  0
LINE
  5
329
330
1F
100
AcDbEntity
  8
0
  6
HIDDEN
 62
     7
370
     0
100
AcDbLine
 10
231.4127509549
 20
145.5207295183
 30
0.0
 11
229.6627511337
 21
147.2707295723
 31
0.0
  0
LINE
  5
32A
330
1F
100
AcDbEntity
  8
0
  6
HIDDEN
 62
     7
370
     0
100
AcDbLine
 10
225.3627453997
 20
147.2707295723
 30
0.0
 11
223.6127455785
 21
145.5207295183
 31
0.0
  0
LINE
  5
32B
330
1F
100
AcDbEntity
  8
0
  6
HIDDEN
 62
     7
370
     0
100
AcDbLine
 10
131.4127476021
 20
145.2207295622
 30
0.0
 11
131.4127476021
 21
145.5207295183
 31
0.0
  0
LINE
  5
32C
330
1F
100
AcDbEntity
  8
0
  6
HIDDEN
 62
     7
370
     0
100
AcDbLine
 10
123.6127478137
 20
145.5207295183
 30
0.0
 11
123.6127478137
 21
145.2207295622
 31
0.0
  0
LINE
  5
32D
330
1F
100
AcDbEntity
  8
0
  6
HIDDEN
 62
     7
370
     0
100
AcDbLine
 10
131.4127476021
 20
145.5207295183
 30
0.0
 11
129.6627477809
 21
147.2707295723
 31
0.0
  0
LINE
  5
32E
330
1F
100
AcDbEntity
  8
0
  6
HIDDEN
 62
     7
370
     0
100
AcDbLine
 10
125.3627476349
 20
147.2707295723
 30
0.0
 11
123.6127478137
 21
145.5207295183
 31
0.0
  0
LINE
  5
32F
330
1F
100
AcDbEntity
  8
0
  6
HIDDEN
 62
     7
370
     0
100
AcDbLine
 10
283.912753041
 20
145.5207295183
 30
0.0
 11
282.1627457692
 21
147.2707295723
 31
0.0
  0
LINE
  5
330
330
1F
100
AcDbEntity
  8
0
  6
HIDDEN
 62
     7
370
     0
100
AcDbLine
 10
277.8627474859
 20
147.2707295723
 30
0.0
 11
276.1127476647
 21
145.5207295183
 31
0.0
  0
LINE
  5
331
330
1F
100
AcDbEntity
  8
0
  6
HIDDEN
 62
     7
370
     0
100
AcDbLine
 10
283.912753041
 20
145.2207295622
 30
0.0
 11
283.912753041
 21
145.5207295183
 31
0.0
  0
LINE
  5
332
330
1F
100
AcDbEntity
  8
0
  6
HIDDEN
 62
     7
370
     0
100
AcDbLine
 10
276.1127476647
 20
145.5207295183
 30
0.0
 11
276.1127476647
 21
145.2207295622
 31
0.0
  0
LINE
  5
333
330
1F
100
AcDbEntity
  8
0
  6
HIDDEN
 62
     7
370
     0
100
AcDbLine
 10
282.1627457692
 20
147.2707295723
 30
0.0
 11
282.1627457692
 21
148.2207295883
 31
0.0
  0
LINE
  5
334
330
1F
100
AcDbEntity
  8
0
  6
HIDDEN
 62
     7
370
     0
100
AcDbLine
 10
277.8627474859
 20
148.2207295883
 30
0.0
 11
277.8627474859
 21
147.2707295723
 31
0.0
  0
LINE
  5
335
330
1F
100
AcDbEntity
  8
0
  6
HIDDEN
 62
     7
370
     0
100
AcDbLine
 10
182.1627480044
 20
147.2707295723
 30
0.0
 11
182.1627480044
 21
148.2207295883
 31
0.0
  0
LINE
  5
336
330
1F
100
AcDbEntity
  8
0
  6
HIDDEN
 62
     7
370
     0
100
AcDbLine
 10
177.8627478584
 20
148.2207295883
 30
0.0
 11
177.8627478584
 21
147.2707295723
 31
0.0
  0
LINE
  5
337
330
1F
100
AcDbEntity
  8
0
  6
HIDDEN
 62
     7
370
     0
100
AcDbLine
 10
129.6627477809
 20
147.2707295723
 30
0.0
 11
129.6627477809
 21
148.2207295883
 31
0.0
  0
LINE
  5
338
330
1F
100
AcDbEntity
  8
0
  6
HIDDEN
 62
     7
370
     0
100
AcDbLine
 10
125.3627476349
 20
148.2207295883
 30
0.0
 11
125.3627476349
 21
147.2707295723
 31
0.0
  0
LINE
  5
339
330
1F
100
AcDbEntity
  8
0
  6
HIDDEN
 62
     7
370
     0
100
AcDbLine
 10
229.6627511337
 20
147.2707295723
 30
0.0
 11
229.6627511337
 21
148.2207295883
 31
0.0
  0
LINE
  5
33A
330
1F
100
AcDbEntity
  8
0
  6
HIDDEN
 62
     7
370
     0
100
AcDbLine
 10
225.3627453997
 20
148.2207295883
 30
0.0
 11
225.3627453997
 21
147.2707295723
 31
0.0
  0
DIMENSION
  5
33B
330
1F
100
AcDbEntity
  8
0
  6
Continuous
 62
     6
370
     0
100
AcDbDimension
  2
*D34
 10
68.7627478196
 20
148.2207295883
 30
0.0
 11
68.7627478196
 21
154.0216723542
 31
0.0
 70
   160
 71
     2
 42
-1.0
  3
SLDDIMSTYLE1
100
AcDbAlignedDimension
 13
78.7627478196
 23
145.2207295883
 33
0.0
 14
78.7627478196
 24
148.2207295883
 34
0.0
 50
90.0
100
AcDbRotatedDimension
  0
LINE
  5
347
330
1F
100
AcDbEntity
  8
0
  6
CENTERX2
 62
     6
370
     0
100
AcDbLine
 10
280.0127478196
 20
149.2207295883
 30
0.0
 11
280.0127478196
 21
147.2707295883
 31
0.0
  0
LINE
  5
348
330
1F
100
AcDbEntity
  8
0
  6
CENTERX2
 62
     6
370
     0
100
AcDbLine
 10
280.0127478196
 20
145.5207295883
 30
0.0
 11
280.0127478196
 21
147.2707295883
 31
0.0
  0
LINE
  5
349
330
1F
100
AcDbEntity
  8
0
  6
CENTERX2
 62
     6
370
     0
100
AcDbLine
 10
280.0127478196
 20
145.5207295883
 30
0.0
 11
280.0127478196
 21
144.2207295883
 31
0.0
  0
LINE
  5
34A
330
1F
100
AcDbEntity
  8
0
  6
CENTERX2
 62
     6
370
     0
100
AcDbLine
 10
227.5127478196
 20
149.2207295883
 30
0.0
 11
227.5127478196
 21
147.2707295883
 31
0.0
  0
LINE
  5
34B
330
1F
100
AcDbEntity
  8
0
  6
CENTERX2
 62
     6
370
     0
100
AcDbLine
 10
227.5127478196
 20
145.5207295883
 30
0.0
 11
227.5127478196
 21
147.2707295883
 31
0.0
  0
LINE
  5
34C
330
1F
100
AcDbEntity
  8
0
  6
CENTERX2
 62
     6
370
     0
100
AcDbLine
 10
227.5127478196
 20
145.5207295883
 30
0.0
 11
227.5127478196
 21
144.2207295883
 31
0.0
  0
LINE
  5
34D
330
1F
100
AcDbEntity
  8
0
  6
CENTERX2
 62
     6
370
     0
100
AcDbLine
 10
180.0127478196
 20
149.2207295883
 30
0.0
 11
180.0127478196
 21
147.2707295883
 31
0.0
  0
LINE
  5
34E
330
1F
100
AcDbEntity
  8
0
  6
CENTERX2
 62
     6
370
     0
100
AcDbLine
 10
180.0127478196
 20
145.5207295883
 30
0.0
 11
180.0127478196
 21
147.2707295883
 31
0.0
  0
LINE
  5
34F
330
1F
100
AcDbEntity
  8
0
  6
CENTERX2
 62
     6
370
     0
100
AcDbLine
 10
180.0127478196
 20
145.5207295883
 30
0.0
 11
180.0127478196
 21
144.2207295883
 31
0.0
  0
LINE
  5
350
330
1F
100
AcDbEntity
  8
0
  6
CENTERX2
 62
     6
370
     0
100
AcDbLine
 10
127.5127478196
 20
149.2207295883
 30
0.0
 11
127.5127478196
 21
147.2707295883
 31
0.0
  0
LINE
  5
351
330
1F
100
AcDbEntity
  8
0
  6
CENTERX2
 62
     6
370
     0
100
AcDbLine
 10
127.5127478196
 20
145.5207295883
 30
0.0
 11
127.5127478196
 21
147.2707295883
 31
0.0
  0
LINE
  5
352
330
1F
100
AcDbEntity
  8
0
  6
CENTERX2
 62
     6
370
     0
100
AcDbLine
 10
127.5127478196
 20
145.5207295883
 30
0.0
 11
127.5127478196
 21
144.2207295883
 31
0.0
  0
LINE
  5
353
330
1F
100
AcDbEntity
  8
0
  6
CENTERX2
 62
     6
370
     0
100
AcDbLine
 10
321.7627478196
 20
149.2207295883
 30
0.0
 11
321.7627478196
 21
147.3707295883
 31
0.0
  0
LINE
  5
354
330
1F
100
AcDbEntity
  8
0
  6
CENTERX2
 62
     6
370
     0
100
AcDbLine
 10
321.7627478196
 20
145.5207295883
 30
0.0
 11
321.7627478196
 21
147.3707295883
 31
0.0
  0
LINE
  5
355
330
1F
100
AcDbEntity
  8
0
  6
CENTERX2
 62
     6
370
     0
100
AcDbLine
 10
321.7627478196
 20
145.5207295883
 30
0.0
 11
321.7627478196
 21
144.2207295883
 31
0.0
  0
LINE
  5
356
330
1F
100
AcDbEntity
  8
0
  6
CENTERX2
 62
     6
370
     0
100
AcDbLine
 10
85.7627478196
 20
149.2207295883
 30
0.0
 11
85.7627478196
 21
147.3707295883
 31
0.0
  0
LINE
  5
357
330
1F
100
AcDbEntity
  8
0
  6
CENTERX2
 62
     6
370
     0
100
AcDbLine
 10
85.7627478196
 20
145.5207295883
 30
0.0
 11
85.7627478196
 21
147.3707295883
 31
0.0
  0
LINE
  5
358
330
1F
100
AcDbEntity
  8
0
  6
CENTERX2
 62
     6
370
     0
100
AcDbLine
 10
85.7627478196
 20
145.5207295883
 30
0.0
 11
85.7627478196
 21
144.2207295883
 31
0.0
  0
LINE
  5
359
330
1F
100
AcDbEntity
  8
0
  6
CENTERX2
 62
     6
370
     0
100
AcDbLine
 10
153.7627478196
 20
144.2207295883
 30
0.0
 11
153.7627478196
 21
149.2207295883
 31
0.0
  0
LINE
  5
35A
330
1F
100
AcDbEntity
  8
0
  6
CENTERX2
 62
     6
370
     0
100
AcDbLine
 10
253.7627478196
 20
144.2207295883
 30
0.0
 11
253.7627478196
 21
149.2207295883
 31
0.0
  0
LINE
  5
35B
330
1F
100
AcDbEntity
  8
0
  6
Continuous
 62
     7
370
    40
100
AcDbLine
 10
376.5455334814
 20
235.5263691675
 30
0.0
 11
376.5455334814
 21
210.526368795
 31
0.0
  0
LINE
  5
35C
330
1F
100
AcDbEntity
  8
0
  6
Continuous
 62
     7
370
    40
100
AcDbLine
 10
373.5455334553
 20
235.5263691675
 30
0.0
 11
373.5455334553
 21
210.526368795
 31
0.0
  0
LINE
  5
35D
330
1F
100
AcDbEntity
  8
0
  6
Continuous
 62
     7
370
    40
100
AcDbLine
 10
376.5455334814
 20
235.5263691675
 30
0.0
 11
373.5455334553
 21
235.5263691675
 31
0.0
  0
LINE
  5
35E
330
1F
100
AcDbEntity
  8
0
  6
Continuous
 62
     7
370
    40
100
AcDbLine
 10
376.5455334814
 20
210.526368795
 30
0.0
 11
373.5455334553
 21
210.526368795
 31
0.0
  0
LINE
  5
35F
330
1F
100
AcDbEntity
  8
0
  6
Continuous
 62
     7
370
    40
100
AcDbLine
 10
81.7784101059
 20
75.8577351654
 30
0.0
 11
80.4144195891
 21
77.6154754048
 31
0.0
  0
LINE
  5
360
330
1F
100
AcDbEntity
  8
0
  6
Continuous
 62
     7
370
    40
100
AcDbLine
 10
81.7784101059
 20
68.7346760397
 30
0.0
 11
81.7784101059
 21
75.8577351654
 31
0.0
  0
LINE
  5
361
330
1F
100
AcDbEntity
  8
0
  6
Continuous
 62
     7
370
    40
100
AcDbLine
 10
87.8405877969
 20
66.9846760788
 30
0.0
 11
81.7784101059
 21
68.7346760397
 31
0.0
  0
LINE
  5
362
330
1F
100
AcDbEntity
  8
0
  6
Continuous
 62
     7
370
    40
100
AcDbLine
 10
87.8405877969
 20
67.8940029018
 30
0.0
 11
87.8405877969
 21
66.9846760788
 31
0.0
  0
LINE
  5
363
330
1F
100
AcDbEntity
  8
0
  6
Continuous
 62
     7
370
    40
100
AcDbLine
 10
102.389814707
 20
63.6940028653
 30
0.0
 11
87.8405877969
 21
67.8940029018
 31
0.0
  0
LINE
  5
364
330
1F
100
AcDbEntity
  8
0
  6
Continuous
 62
     7
370
    40
100
AcDbLine
 10
102.389814707
 20
62.7846760423
 30
0.0
 11
102.389814707
 21
63.6940028653
 31
0.0
  0
LINE
  5
365
330
1F
100
AcDbEntity
  8
0
  6
Continuous
 62
     7
370
    40
100
AcDbLine
 10
108.451992398
 20
61.0346760814
 30
0.0
 11
102.389814707
 21
62.7846760423
 31
0.0
  0
LINE
  5
366
330
1F
100
AcDbEntity
  8
0
  6
Continuous
 62
     7
370
    40
100
AcDbLine
 10
108.451992398
 20
68.1577352071
 30
0.0
 11
108.451992398
 21
61.0346760814
 31
0.0
  0
LINE
  5
367
330
1F
100
AcDbEntity
  8
0
  6
Continuous
 62
     7
370
    40
100
AcDbLine
 10
109.8159829148
 20
69.1279751544
 30
0.0
 11
108.451992398
 21
68.1577352071
 31
0.0
  0
LINE
  5
368
330
1F
100
AcDbEntity
  8
0
  6
Continuous
 62
     7
370
    40
100
AcDbLine
 10
109.8159829148
 20
72.1590639999
 30
0.0
 11
109.8159829148
 21
69.1279751544
 31
0.0
  0
LINE
  5
369
330
1F
100
AcDbEntity
  8
0
  6
Continuous
 62
     7
370
    40
100
AcDbLine
 10
141.0361987573
 20
63.1465639895
 30
0.0
 11
109.8159829148
 21
72.1590639999
 31
0.0
  0
LINE
  5
36A
330
1F
100
AcDbEntity
  8
0
  6
Continuous
 62
     7
370
    40
100
AcDbLine
 10
141.0361987573
 20
60.115475144
 30
0.0
 11
141.0361987573
 21
63.1465639895
 31
0.0
  0
LINE
  5
36B
330
1F
100
AcDbEntity
  8
0
  6
Continuous
 62
     7
370
    40
100
AcDbLine
 10
142.4001892742
 20
58.3577349046
 30
0.0
 11
141.0361987573
 21
60.115475144
 31
0.0
  0
LINE
  5
36C
330
1F
100
AcDbEntity
  8
0
  6
Continuous
 62
     7
370
    40
100
AcDbLine
 10
142.4001892742
 20
51.2346757789
 30
0.0
 11
142.4001892742
 21
58.3577349046
 31
0.0
  0
LINE
  5
36D
330
1F
100
AcDbEntity
  8
0
  6
Continuous
 62
     7
370
    40
100
AcDbLine
 10
148.462365836
 20
49.484676144
 30
0.0
 11
142.4001892742
 21
51.2346757789
 31
0.0
  0
LINE
  5
36E
330
1F
100
AcDbEntity
  8
0
  6
Continuous
 62
     7
370
    40
100
AcDbLine
 10
148.462365836
 20
50.394002967
 30
0.0
 11
148.462365836
 21
49.484676144
 31
0.0
  0
LINE
  5
36F
330
1F
100
AcDbEntity
  8
0
  6
Continuous
 62
     7
370
    40
100
AcDbLine
 10
163.0115950044
 20
46.1940022786
 30
0.0
 11
148.462365836
 21
50.394002967
 31
0.0
  0
LINE
  5
370
330
1F
100
AcDbEntity
  8
0
  6
Continuous
 62
     7
370
    40
100
AcDbLine
 10
163.0115950044
 20
45.2846754556
 30
0.0
 11
163.0115950044
 21
46.1940022786
 31
0.0
  0
LINE
  5
371
330
1F
100
AcDbEntity
  8
0
  6
Continuous
 62
     7
370
    40
100
AcDbLine
 10
169.0737715662
 20
43.5346758206
 30
0.0
 11
163.0115950044
 21
45.2846754556
 31
0.0
  0
LINE
  5
372
330
1F
100
AcDbEntity
  8
0
  6
Continuous
 62
     7
370
    40
100
AcDbLine
 10
169.0737715662
 20
50.6577349463
 30
0.0
 11
169.0737715662
 21
43.5346758206
 31
0.0
  0
LINE
  5
373
330
1F
100
AcDbEntity
  8
0
  6
Continuous
 62
     7
370
    40
100
AcDbLine
 10
170.437762083
 20
51.6279748937
 30
0.0
 11
169.0737715662
 21
50.6577349463
 31
0.0
  0
LINE
  5
374
330
1F
100
AcDbEntity
  8
0
  6
Continuous
 62
     7
370
    40
100
AcDbLine
 10
170.437762083
 20
54.6590637392
 30
0.0
 11
170.437762083
 21
51.6279748937
 31
0.0
  0
LINE
  5
375
330
1F
100
AcDbEntity
  8
0
  6
Continuous
 62
     7
370
    40
100
AcDbLine
 10
201.2033114089
 20
45.7778146466
 30
0.0
 11
170.437762083
 21
54.6590637392
 31
0.0
  0
LINE
  5
376
330
1F
100
AcDbEntity
  8
0
  6
Continuous
 62
     7
370
    40
100
AcDbLine
 10
201.2033114089
 20
30.6223698546
 30
0.0
 11
201.2033114089
 21
45.7778146466
 31
0.0
  0
LINE
  5
377
330
1F
100
AcDbEntity
  8
0
  6
Continuous
 62
     7
370
    40
100
AcDbLine
 10
49.6488657466
 20
74.3723698546
 30
0.0
 11
201.2033114089
 21
30.6223698546
 31
0.0
  0
LINE
  5
378
330
1F
100
AcDbEntity
  8
0
  6
Continuous
 62
     7
370
    40
100
AcDbLine
 10
49.6488657466
 20
89.5278146466
 30
0.0
 11
49.6488657466
 21
74.3723698546
 31
0.0
  0
LINE
  5
379
330
1F
100
AcDbEntity
  8
0
  6
Continuous
 62
     7
370
    40
100
AcDbLine
 10
80.4144195891
 20
80.6465642503
 30
0.0
 11
49.6488657466
 21
89.5278146466
 31
0.0
  0
LINE
  5
37A
330
1F
100
AcDbEntity
  8
0
  6
Continuous
 62
     7
370
    40
100
AcDbLine
 10
80.4144195891
 20
77.6154754048
 30
0.0
 11
80.4144195891
 21
80.6465642503
 31
0.0
  0
LWPOLYLINE
  5
37B
330
1F
100
AcDbEntity
  8
0
  6
Continuous
 62
     7
370
    40
100
AcDbPolyline
 90
       25
 70
   128
 43
0.0
 10
174.014448829
 20
46.9581676384
 10
173.9338894235
 20
47.5933359089
 10
173.6976944499
 20
48.2317313955
 10
173.3219703692
 20
48.8298457075
 10
172.8323176922
 20
49.3469194937
 10
172.2621056097
 20
49.7477150123
 10
171.6501955887
 20
50.0049180489
 10
171.0382855677
 20
50.1010014277
 10
170.4680734853
 20
50.0294180084
 10
169.9784208082
 20
49.795045327
 10
169.6026967275
 20
49.4138554141
 10
169.3665062706
 20
48.9118258553
 10
169.2859468651
 20
48.3231685792
 10
169.3665062706
 20
47.6880003087
 10
169.6026967275
 20
47.0496061259
 10
169.9784208082
 20
46.451491814
 10
170.4680734853
 20
45.9344180277
 10
171.0382855677
 20
45.5336225091
 10
171.6501955887
 20
45.2764194725
 10
172.2621056097
 20
45.1803360938
 10
172.8323176922
 20
45.251919513
 10
173.3219703692
 20
45.4862921944
 10
173.6976944499
 20
45.8674821073
 10
173.9338894235
 20
46.3695103622
 10
174.014448829
 20
46.9581676384
  0
LWPOLYLINE
  5
37C
330
1F
100
AcDbEntity
  8
0
  6
Continuous
 62
     7
370
    40
100
AcDbPolyline
 90
       25
 70
   128
 43
0.0
 10
142.1880139753
 20
56.1456680034
 10
142.1074500531
 20
56.7808375778
 10
141.8712641128
 20
57.4192304567
 10
141.4955400321
 20
58.0173447687
 10
141.0058873551
 20
58.534418555
 10
140.4356752726
 20
58.9352140736
 10
139.823760735
 20
59.192418414
 10
139.211850714
 20
59.2885017927
 10
138.6416386315
 20
59.2169183735
 10
138.1519859545
 20
58.9825456921
 10
137.7762618738
 20
58.6013557792
 10
137.5400714168
 20
58.0993262204
 10
137.4595120114
 20
57.5106689443
 10
137.5400714168
 20
56.8755006737
 10
137.7762618738
 20
56.237106491
 10
138.1519859545
 20
55.638992179
 10
138.6416386315
 20
55.1219183928
 10
139.211850714
 20
54.7211228742
 10
139.823760735
 20
54.4639198376
 10
140.4356752726
 20
54.367835155
 10
141.0058873551
 20
54.4394185743
 10
141.4955400321
 20
54.6737912557
 10
141.8712641128
 20
55.0549811685
 10
142.1074500531
 20
55.5570120312
 10
142.1880139753
 20
56.1456680034
  0
LWPOLYLINE
  5
37D
330
1F
100
AcDbEntity
  8
0
  6
Continuous
 62
     7
370
    40
100
AcDbPolyline
 90
       25
 70
   128
 43
0.0
 10
113.3926674024
 20
64.4581685511
 10
113.312107997
 20
65.0933368216
 10
113.07591754
 20
65.7317310043
 10
112.7001945885
 20
66.3298449903
 10
112.2105430406
 20
66.8469184507
 10
111.6403309581
 20
67.2477139692
 10
111.0284175496
 20
67.5049179837
 10
110.4165052703
 20
67.6010020144
 10
109.8462931878
 20
67.5294185951
 10
109.35664164
 20
67.2950455878
 10
108.9809175593
 20
66.9138556749
 10
108.7447282315
 20
66.4118257901
 10
108.664168826
 20
65.823168514
 10
108.7447282315
 20
65.1880002435
 10
108.9809175593
 20
64.5496063867
 10
109.35664164
 20
63.9514920747
 10
109.8462931878
 20
63.4344186144
 10
110.4165052703
 20
63.0336230958
 10
111.0284175496
 20
62.7764194073
 10
111.6403309581
 20
62.6803350507
 10
112.2105430406
 20
62.75191847
 10
112.7001945885
 20
62.9862914773
 10
113.07591754
 20
63.3674817161
 10
113.312107997
 20
63.8695112749
 10
113.3926674024
 20
64.4581685511
  0
LWPOLYLINE
  5
37E
330
1F
100
AcDbEntity
  8
0
  6
Continuous
 62
     7
370
    40
100
AcDbPolyline
 90
       25
 70
   128
 43
0.0
 10
81.5662336778
 20
73.6456685902
 10
81.4856742724
 20
74.2808368607
 10
81.2494849446
 20
74.9192307175
 10
80.8737608639
 20
75.5173450295
 10
80.384109316
 20
76.0344184898
 10
79.8138972336
 20
76.4352140084
 10
79.2019849542
 20
76.6924176969
 10
78.5900715457
 20
76.7885020535
 10
78.0198594633
 20
76.7169186342
 10
77.5302079154
 20
76.4825456269
 10
77.1544849639
 20
76.1013553881
 10
76.9182945069
 20
75.5993258293
 10
76.8377351015
 20
75.0106685531
 10
76.9182945069
 20
74.3755002826
 10
77.1544849639
 20
73.7371060999
 10
77.5302079154
 20
73.1389921138
 10
78.0198594633
 20
72.6219186535
 10
78.5900715457
 20
72.2211231349
 10
79.2019849542
 20
71.9639191205
 10
79.8138972336
 20
71.8678350898
 10
80.384109316
 20
71.9394185091
 10
80.8737608639
 20
72.1737915164
 10
81.2494849446
 20
72.5549814293
 10
81.4856742724
 20
73.057011314
 10
81.5662336778
 20
73.6456685902
  0
LWPOLYLINE
  5
37F
330
1F
100
AcDbEntity
  8
0
  6
Continuous
 62
     7
370
    40
100
AcDbPolyline
 90
       26
 70
   128
 43
0.0
 10
199.3846634087
 20
34.4815660973
 10
199.3084761441
 20
35.1066007146
 10
199.0847200919
 20
35.7363432604
 10
198.7274421096
 20
36.3312283794
 10
198.2590991026
 20
36.8538753161
 10
197.7091126883
 20
37.2714456235
 10
197.1120444596
 20
37.5577010721
 10
196.5054099144
 20
37.6946551997
 10
195.927329785
 20
37.6737015707
 10
195.4141181341
 20
37.4961592883
 10
194.9980240171
 20
37.173183622
 10
194.7051989793
 20
36.7250660521
 10
194.5540349188
 20
36.1799658525
 10
194.5540349188
 20
35.5721315657
 10
194.7051989793
 20
34.9397570374
 10
194.9980240171
 20
34.3225765708
 10
195.4141181341
 20
33.7593685717
 10
195.927329785
 20
33.2855236869
 10
196.5054099144
 20
32.9308153395
 10
197.1120444596
 20
32.7175285668
 10
197.7091126883
 20
32.6590667951
 10
198.2590991026
 20
32.7591025805
 10
198.7274421096
 20
33.0113512738
 10
199.0847200919
 20
33.3999618535
 10
199.3084761441
 20
33.9005190646
 10
199.3846634087
 20
34.4815660973
  0
LWPOLYLINE
  5
380
330
1F
100
AcDbEntity
  8
0
  6
Continuous
 62
     7
370
    40
100
AcDbPolyline
 90
       26
 70
   128
 43
0.0
 10
199.3846634087
 20
42.9686153164
 10
199.3084761441
 20
43.5936496514
 10
199.0847200919
 20
44.2233921972
 10
198.7274421096
 20
44.8182770338
 10
198.2590991026
 20
45.3409242528
 10
197.7091126883
 20
45.7584948426
 10
197.1120444596
 20
46.0447500089
 10
196.5054099144
 20
46.1817044188
 10
195.927329785
 20
46.1607507897
 10
195.4141181341
 20
45.9832082251
 10
194.9980240171
 20
45.6602322765
 10
194.7051989793
 20
45.2121149888
 10
194.5540349188
 20
44.667014507
 10
194.5540349188
 20
44.0591807847
 10
194.7051989793
 20
43.4268056919
 10
194.9980240171
 20
42.8096255076
 10
195.4141181341
 20
42.2464176496
 10
195.927329785
 20
41.7725725531
 10
196.5054099144
 20
41.4178642057
 10
197.1120444596
 20
41.2045777153
 10
197.7091126883
 20
41.1461156613
 10
198.2590991026
 20
41.2461513762
 10
198.7274421096
 20
41.4984002106
 10
199.0847200919
 20
41.8870109315
 10
199.3084761441
 20
42.3875677191
 10
199.3846634087
 20
42.9686153164
  0
LWPOLYLINE
  5
381
330
1F
100
AcDbEntity
  8
0
  6
Continuous
 62
     7
370
    40
100
AcDbPolyline
 90
       26
 70
   128
 43
0.0
 10
56.3172613196
 20
75.7815676515
 10
56.2410830883
 20
76.4065996611
 10
56.0173225195
 20
77.0363435107
 10
55.6600490539
 20
77.6312273259
 10
55.1917015302
 20
78.1538755664
 10
54.6417196326
 20
78.57144457
 10
54.0446514039
 20
78.8577000186
 10
53.4380168586
 20
78.9946541462
 10
52.8599322126
 20
78.973701821
 10
52.3467205617
 20
78.7961595387
 10
51.9306309614
 20
78.4731825685
 10
51.6378059235
 20
78.0250649986
 10
51.4866418631
 20
77.479964799
 10
51.4866418631
 20
76.8721305122
 10
51.6378059235
 20
76.2397559839
 10
51.9306309614
 20
75.6225755173
 10
52.3467205617
 20
75.0593688221
 10
52.8599322126
 20
74.5855239372
 10
53.4380168586
 20
74.230814286
 10
54.0446514039
 20
74.0175275133
 10
54.6417196326
 20
73.9590657416
 10
55.1917015302
 20
74.0591028309
 10
55.6600490539
 20
74.3113502203
 10
56.0173225195
 20
74.6999621039
 10
56.2410830883
 20
75.2005180111
 10
56.3172613196
 20
75.7815676515
  0
LWPOLYLINE
  5
382
330
1F
100
AcDbEntity
  8
0
  6
Continuous
 62
     7
370
    40
100
AcDbPolyline
 90
       26
 70
   128
 43
0.0
 10
56.3172613196
 20
84.2686168706
 10
56.2410830883
 20
84.8936485979
 10
56.0173225195
 20
85.5233924475
 10
55.6600490539
 20
86.1182759803
 10
55.1917015302
 20
86.6409245032
 10
54.6417196326
 20
87.0584937891
 10
54.0446514039
 20
87.3447489554
 10
53.4380168586
 20
87.4817033653
 10
52.8599322126
 20
87.46075104
 10
52.3467205617
 20
87.2832084754
 10
51.9306309614
 20
86.9602312229
 10
51.6378059235
 20
86.5121139353
 10
51.4866418631
 20
85.9670134535
 10
51.4866418631
 20
85.3591797312
 10
51.6378059235
 20
84.7268046384
 10
51.9306309614
 20
84.109624454
 10
52.3467205617
 20
83.5464179
 10
52.8599322126
 20
83.0725728034
 10
53.4380168586
 20
82.7178631522
 10
54.0446514039
 20
82.5045766618
 10
54.6417196326
 20
82.4461146078
 10
55.1917015302
 20
82.5461516265
 10
55.6600490539
 20
82.798399157
 10
56.0173225195
 20
83.1870111818
 10
56.2410830883
 20
83.6875666656
 10
56.3172613196
 20
84.2686168706
  0
LINE
  5
383
330
1F
100
AcDbEntity
  8
0
  6
Continuous
 62
     7
370
    40
100
AcDbLine
 10
201.2033114089
 20
45.7778146466
 30
0.0
 11
202.253311418
 21
46.6871413285
 31
0.0
  0
LINE
  5
384
330
1F
100
AcDbEntity
  8
0
  6
Continuous
 62
     7
370
    40
100
AcDbLine
 10
170.437762083
 20
54.6590637392
 30
0.0
 11
171.4877620922
 21
55.568390421
 31
0.0
  0
LINE
  5
385
330
1F
100
AcDbEntity
  8
0
  6
Continuous
 62
     7
370
    40
100
AcDbLine
 10
202.253311418
 20
46.6871413285
 30
0.0
 11
171.4877620922
 21
55.568390421
 31
0.0
  0
LINE
  5
386
330
1F
100
AcDbEntity
  8
0
  6
Continuous
 62
     7
370
    40
100
AcDbLine
 10
201.2033114089
 20
30.6223698546
 30
0.0
 11
202.253311418
 21
31.5316965365
 31
0.0
  0
LINE
  5
387
330
1F
100
AcDbEntity
  8
0
  6
Continuous
 62
     7
370
    40
100
AcDbLine
 10
202.253311418
 20
31.5316965365
 30
0.0
 11
202.253311418
 21
46.6871413285
 31
0.0
  0
LWPOLYLINE
  5
388
330
1F
100
AcDbEntity
  8
0
  6
Continuous
 62
     7
370
    40
100
AcDbPolyline
 90
       15
 70
   128
 43
0.0
 10
195.1802591348
 20
45.8295265457
 10
195.1030240017
 20
45.7511649305
 10
194.8101989639
 20
45.3030476429
 10
194.6590349034
 20
44.7579471611
 10
194.6590349034
 20
44.1501134388
 10
194.8101989639
 20
43.517738346
 10
195.1030240017
 20
42.9005581616
 10
195.5191181187
 20
42.3373503037
 10
196.0323297696
 20
41.8635052071
 10
196.610409899
 20
41.5087968598
 10
197.2170444442
 20
41.2955103694
 10
197.814112673
 20
41.2370483154
 10
198.3640990873
 20
41.3370840302
 10
198.8324420942
 20
41.5893328646
 10
198.8443119147
 20
41.5986406828
  0
LWPOLYLINE
  5
389
330
1F
100
AcDbEntity
  8
0
  6
Continuous
 62
     7
370
    40
100
AcDbPolyline
 90
        3
 70
   128
 43
0.0
 10
199.0156550815
 20
43.944051006
 10
198.9370559127
 20
44.4125188976
 10
198.8205708787
 20
44.6862846724
  0
LWPOLYLINE
  5
38A
330
1F
100
AcDbEntity
  8
0
  6
Continuous
 62
     7
370
    40
100
AcDbPolyline
 90
       17
 70
   128
 43
0.0
 10
198.2328431327
 20
45.3649308199
 10
197.9386179257
 20
45.5385320281
 10
197.4859568125
 20
45.6692040359
 10
197.0606035129
 20
45.6371757537
 10
196.7138493821
 20
45.4463139863
 10
196.4875188255
 20
45.119639346
 10
196.4089196567
 20
44.6965507056
 10
196.4875188255
 20
44.228082814
 10
196.7138493821
 20
43.7707361659
 10
197.0606035129
 20
43.3796758077
 10
197.4859568125
 20
43.1020696835
 10
197.9386179257
 20
42.9713976757
 10
198.3639712253
 20
43.0034259579
 10
198.7107253561
 20
43.1942877253
 10
198.9370559127
 20
43.5209623656
 10
199.0156550815
 20
43.944051006
 10
199.0156550815
 20
43.944051006
  0
LWPOLYLINE
  5
38B
330
1F
100
AcDbEntity
  8
0
  6
Continuous
 62
     7
370
    40
100
AcDbPolyline
 90
       10
 70
   128
 43
0.0
 10
196.8908716118
 20
45.5693737432
 10
196.7850188294
 20
45.377281907
 10
196.7064196607
 20
44.9541932666
 10
196.7850188294
 20
44.485725375
 10
197.0113493861
 20
44.0283787269
 10
197.3581035169
 20
43.6373183688
 10
197.7834568164
 20
43.3597122446
 10
198.2361179297
 20
43.2290402368
 10
198.6614712292
 20
43.261068519
 10
198.831207855
 20
43.3288692832
  0
LWPOLYLINE
  5
38C
330
1F
100
AcDbEntity
  8
0
  6
Continuous
 62
     7
370
    40
100
AcDbPolyline
 90
       15
 70
   128
 43
0.0
 10
195.1802591348
 20
37.3424776089
 10
195.1030240017
 20
37.2641162761
 10
194.8101989639
 20
36.8159987061
 10
194.6590349034
 20
36.2708985066
 10
194.6590349034
 20
35.6630642197
 10
194.8101989639
 20
35.0306896915
 10
195.1030240017
 20
34.4135092249
 10
195.5191181187
 20
33.8503012258
 10
196.0323297696
 20
33.376456341
 10
196.610409899
 20
33.0217479936
 10
197.2170444442
 20
32.8084612209
 10
197.814112673
 20
32.7499994492
 10
198.3640990873
 20
32.8500352346
 10
198.8324420942
 20
33.1022839279
 10
198.8443119147
 20
33.1115916049
  0
LWPOLYLINE
  5
38D
330
1F
100
AcDbEntity
  8
0
  6
Continuous
 62
     7
370
    40
100
AcDbPolyline
 90
        3
 70
   128
 43
0.0
 10
199.0156550815
 20
35.457001787
 10
198.9370559127
 20
35.9254699609
 10
198.8205708787
 20
36.1992357356
  0
LWPOLYLINE
  5
38E
330
1F
100
AcDbEntity
  8
0
  6
Continuous
 62
     7
370
    40
100
AcDbPolyline
 90
       17
 70
   128
 43
0.0
 10
198.2328431327
 20
36.8778818832
 10
197.9386179257
 20
37.0514830913
 10
197.4859568125
 20
37.1821550991
 10
197.0606035129
 20
37.1501268169
 10
196.7138493821
 20
36.9592650495
 10
196.4875188255
 20
36.6325904092
 10
196.4089196567
 20
36.2095014865
 10
196.4875188255
 20
35.7410341595
 10
196.7138493821
 20
35.2836869468
 10
197.0606035129
 20
34.892626871
 10
197.4859568125
 20
34.6150210291
 10
197.9386179257
 20
34.4843490213
 10
198.3639712253
 20
34.5163770212
 10
198.7107253561
 20
34.7072385063
 10
198.9370559127
 20
35.0339137112
 10
199.0156550815
 20
35.457001787
 10
199.0156550815
 20
35.457001787
  0
LWPOLYLINE
  5
38F
330
1F
100
AcDbEntity
  8
0
  6
Continuous
 62
     7
370
    40
100
AcDbPolyline
 90
       10
 70
   128
 43
0.0
 10
196.8908716118
 20
37.0823248064
 10
196.7850188294
 20
36.8902329703
 10
196.7064196607
 20
36.4671440476
 10
196.7850188294
 20
35.9986767206
 10
197.0113493861
 20
35.5413295079
 10
197.3581035169
 20
35.150269432
 10
197.7834568164
 20
34.8726635901
 10
198.2361179297
 20
34.7419915823
 10
198.6614712292
 20
34.7740195822
 10
198.831207855
 20
34.8418203464
  0
LWPOLYLINE
  5
390
330
1F
100
AcDbEntity
  8
0
  6
Continuous
 62
     7
370
    40
100
AcDbPolyline
 90
       14
 70
   128
 43
0.0
 10
169.9165206386
 20
49.7486332442
 10
169.7076967122
 20
49.5047880682
 10
169.4715062552
 20
49.0027585094
 10
169.3909468497
 20
48.4141012333
 10
169.4715062552
 20
47.7789329627
 10
169.7076967122
 20
47.14053878
 10
170.0834207929
 20
46.542424468
 10
170.5730734699
 20
46.0253506818
 10
171.1432855523
 20
45.6245551632
 10
171.7551955733
 20
45.3673521266
 10
172.3671055943
 20
45.2712687478
 10
172.9373176768
 20
45.3428521671
 10
173.4269703538
 20
45.5772248485
 10
173.4888758938
 20
45.623635428
  0
LWPOLYLINE
  5
391
330
1F
100
AcDbEntity
  8
0
  6
Continuous
 62
     7
370
    40
100
AcDbPolyline
 90
        3
 70
   128
 43
0.0
 10
173.6710633046
 20
47.8857921412
 10
173.5924641359
 20
48.3542599622
 10
173.5031785153
 20
48.5741303987
  0
LWPOLYLINE
  5
392
330
1F
100
AcDbEntity
  8
0
  6
Continuous
 62
     7
370
    40
100
AcDbPolyline
 90
       17
 70
   128
 43
0.0
 10
172.8387937706
 20
49.3412985835
 10
172.5940261489
 20
49.4802731633
 10
172.1413650356
 20
49.6109451711
 10
171.7160117361
 20
49.5789168888
 10
171.3692576053
 20
49.388055192
 10
171.1429315653
 20
49.0613791067
 10
171.0643278799
 20
48.6382918408
 10
171.1429315653
 20
48.1698227159
 10
171.3692576053
 20
47.7124772305
 10
171.7160117361
 20
47.3214169429
 10
172.1413650356
 20
47.0438108187
 10
172.5940261489
 20
46.9131388109
 10
173.0193794484
 20
46.9451670931
 10
173.3661335792
 20
47.1360287899
 10
173.5924641359
 20
47.4627035714
 10
173.6710633046
 20
47.8857921412
 10
173.6710633046
 20
47.8857921412
  0
LINE
  5
393
330
1F
100
AcDbEntity
  8
0
  6
Continuous
 62
     7
370
    40
100
AcDbLine
 10
169.0737715662
 20
50.6577349463
 30
0.0
 11
170.1237715753
 21
51.5670616282
 31
0.0
  0
LINE
  5
394
330
1F
100
AcDbEntity
  8
0
  6
Continuous
 62
     7
370
    40
100
AcDbLine
 10
170.4377617497
 20
51.7904105055
 30
0.0
 11
170.1237715753
 21
51.5670616282
 31
0.0
  0
LWPOLYLINE
  5
395
330
1F
100
AcDbEntity
  8
0
  6
Continuous
 62
     7
370
    40
100
AcDbPolyline
 90
       10
 70
   128
 43
0.0
 10
171.5675762463
 20
49.5218873257
 10
171.4754315709
 20
49.3493325583
 10
171.3968278855
 20
48.9262452924
 10
171.4754315709
 20
48.4577761675
 10
171.7017576109
 20
48.0004306821
 10
172.0485117417
 20
47.6093703945
 10
172.4738650412
 20
47.3317642703
 10
172.9265261545
 20
47.2010922625
 10
173.351879454
 20
47.2331205447
 10
173.5003154431
 20
47.2901499637
  0
LINE
  5
396
330
1F
100
AcDbEntity
  8
0
  6
Continuous
 62
     7
370
    40
100
AcDbLine
 10
163.0115950044
 20
45.2846754556
 30
0.0
 11
164.0615950135
 21
46.1940021374
 31
0.0
  0
LINE
  5
397
330
1F
100
AcDbEntity
  8
0
  6
Continuous
 62
     7
370
    40
100
AcDbLine
 10
169.0737712328
 20
44.7471114927
 30
0.0
 11
164.0615950135
 21
46.1940021374
 31
0.0
  0
LINE
  5
398
330
1F
100
AcDbEntity
  8
0
  6
Continuous
 62
     7
370
    40
100
AcDbLine
 10
163.0115950044
 20
46.1940022786
 30
0.0
 11
164.0615950135
 21
47.1033289605
 31
0.0
  0
LINE
  5
399
330
1F
100
AcDbEntity
  8
0
  6
Continuous
 62
     7
370
    40
100
AcDbLine
 10
164.0615950135
 20
46.1940021374
 30
0.0
 11
164.0615950135
 21
47.1033289605
 31
0.0
  0
LINE
  5
39A
330
1F
100
AcDbEntity
  8
0
  6
Continuous
 62
     7
370
    40
100
AcDbLine
 10
148.462365836
 20
50.394002967
 30
0.0
 11
149.5123658451
 21
51.3033296489
 31
0.0
  0
LINE
  5
39B
330
1F
100
AcDbEntity
  8
0
  6
Continuous
 62
     7
370
    40
100
AcDbLine
 10
164.0615950135
 20
47.1033289605
 30
0.0
 11
149.5123658451
 21
51.3033296489
 31
0.0
  0
LINE
  5
39C
330
1F
100
AcDbEntity
  8
0
  6
Continuous
 62
     7
370
    40
100
AcDbLine
 10
141.0361987573
 20
60.115475144
 30
0.0
 11
142.0861987665
 21
61.0248018259
 31
0.0
  0
LINE
  5
39D
330
1F
100
AcDbEntity
  8
0
  6
Continuous
 62
     7
370
    40
100
AcDbLine
 10
141.0361987573
 20
63.1465639895
 30
0.0
 11
142.0861987665
 21
64.0558906714
 31
0.0
  0
LINE
  5
39E
330
1F
100
AcDbEntity
  8
0
  6
Continuous
 62
     7
370
    40
100
AcDbLine
 10
142.0861987665
 20
61.0248018259
 30
0.0
 11
142.0861987665
 21
64.0558906714
 31
0.0
  0
LINE
  5
39F
330
1F
100
AcDbEntity
  8
0
  6
Continuous
 62
     7
370
    40
100
AcDbLine
 10
109.8159829148
 20
72.1590639999
 30
0.0
 11
110.8659829239
 21
73.0683906818
 31
0.0
  0
LINE
  5
3A0
330
1F
100
AcDbEntity
  8
0
  6
Continuous
 62
     7
370
    40
100
AcDbLine
 10
142.0861987665
 20
64.0558906714
 30
0.0
 11
110.8659829239
 21
73.0683906818
 31
0.0
  0
LINE
  5
3A1
330
1F
100
AcDbEntity
  8
0
  6
Continuous
 62
     7
370
    40
100
AcDbLine
 10
142.4001892742
 20
58.3577349046
 30
0.0
 11
143.4501892833
 21
59.2670615865
 31
0.0
  0
LINE
  5
3A2
330
1F
100
AcDbEntity
  8
0
  6
Continuous
 62
     7
370
    40
100
AcDbLine
 10
143.4501892833
 20
59.2670615865
 30
0.0
 11
142.0861987665
 21
61.0248018259
 31
0.0
  0
LINE
  5
3A3
330
1F
100
AcDbEntity
  8
0
  6
Continuous
 62
     7
370
    40
100
AcDbLine
 10
142.4001892742
 20
51.2346757789
 30
0.0
 11
143.4501892833
 21
52.1440024608
 31
0.0
  0
LINE
  5
3A4
330
1F
100
AcDbEntity
  8
0
  6
Continuous
 62
     7
370
    40
100
AcDbLine
 10
143.4501892833
 20
52.1440024608
 30
0.0
 11
143.4501892833
 21
59.2670615865
 31
0.0
  0
LWPOLYLINE
  5
3A5
330
1F
100
AcDbEntity
  8
0
  6
Continuous
 62
     7
370
    40
100
AcDbPolyline
 90
       14
 70
   128
 43
0.0
 10
138.0900857849
 20
58.9361336093
 10
137.8812618584
 20
58.6922884333
 10
137.6450714014
 20
58.1902588745
 10
137.564511996
 20
57.6016015984
 10
137.6450714014
 20
56.9664333278
 10
137.8812618584
 20
56.3280391451
 10
138.2569859391
 20
55.7299248331
 10
138.7466386161
 20
55.2128510468
 10
139.3168506986
 20
54.8120555282
 10
139.9287607196
 20
54.5548524917
 10
140.5406752573
 20
54.4587678091
 10
141.1108873397
 20
54.5303512283
 10
141.6005400167
 20
54.7647239097
 10
141.6624410401
 20
54.8111357931
  0
LWPOLYLINE
  5
3A6
330
1F
100
AcDbEntity
  8
0
  6
Continuous
 62
     7
370
    40
100
AcDbPolyline
 90
        3
 70
   128
 43
0.0
 10
141.8446329675
 20
57.0732912024
 10
141.7660292821
 20
57.5417603273
 10
141.6767481783
 20
57.7616294599
  0
LWPOLYLINE
  5
3A7
330
1F
100
AcDbEntity
  8
0
  6
Continuous
 62
     7
370
    40
100
AcDbPolyline
 90
       17
 70
   128
 43
0.0
 10
141.0123634335
 20
58.5287976447
 10
140.7675912951
 20
58.6677735283
 10
140.3149346985
 20
58.7984442323
 10
139.8895768823
 20
58.7664172539
 10
139.5428227515
 20
58.5755555571
 10
139.3164967116
 20
58.2488794718
 10
139.2378930261
 20
57.8257922059
 10
139.3164967116
 20
57.357323081
 10
139.5428227515
 20
56.8999775956
 10
139.8895768823
 20
56.508917308
 10
140.3149346985
 20
56.2313098799
 10
140.7675912951
 20
56.100639176
 10
141.1929445947
 20
56.1326674582
 10
141.5396987255
 20
56.323529155
 10
141.7660292821
 20
56.6502039365
 10
141.8446329675
 20
57.0732912024
 10
141.8446329675
 20
57.0732912024
  0
LINE
  5
3A8
330
1F
100
AcDbEntity
  8
0
  6
Continuous
 62
     7
370
    40
100
AcDbLine
 10
148.7248655883
 20
50.6213345685
 30
0.0
 11
143.4501892833
 21
52.1440024608
 31
0.0
  0
LWPOLYLINE
  5
3A9
330
1F
100
AcDbEntity
  8
0
  6
Continuous
 62
     7
370
    40
100
AcDbPolyline
 90
       10
 70
   128
 43
0.0
 10
139.7411413926
 20
58.7093876908
 10
139.6489967172
 20
58.5368329234
 10
139.5703930317
 20
58.1137456575
 10
139.6489967172
 20
57.6452765326
 10
139.8753227571
 20
57.1879310472
 10
140.2220768879
 20
56.7968707596
 10
140.6474347041
 20
56.5192633315
 10
141.1000913007
 20
56.3885926276
 10
141.5254446003
 20
56.4206209098
 10
141.6738851061
 20
56.477649025
  0
LWPOLYLINE
  5
3AA
330
1F
100
AcDbEntity
  8
0
  6
Continuous
 62
     7
370
    40
100
AcDbPolyline
 90
       14
 70
   128
 43
0.0
 10
109.2947414704
 20
67.248633505
 10
109.0859175439
 20
67.004788329
 10
108.8497282161
 20
66.5027584442
 10
108.7691688106
 20
65.9141011681
 10
108.8497282161
 20
65.2789328975
 10
109.0859175439
 20
64.6405390408
 10
109.4616416246
 20
64.0424247288
 10
109.9512931725
 20
63.5253512685
 10
110.5215052549
 20
63.1245557499
 10
111.1334175343
 20
62.8673520614
 10
111.7453309428
 20
62.7712677047
 10
112.3155430252
 20
62.842851124
 10
112.8051945731
 20
63.0772241314
 10
112.8670944672
 20
63.1236363407
  0
LWPOLYLINE
  5
3AB
330
1F
100
AcDbEntity
  8
0
  6
Continuous
 62
     7
370
    40
100
AcDbPolyline
 90
        3
 70
   128
 43
0.0
 10
113.0492863947
 20
65.38579175
 10
112.9706838384
 20
65.854260549
 10
112.8814049929
 20
66.0741290297
  0
LWPOLYLINE
  5
3AC
330
1F
100
AcDbEntity
  8
0
  6
Continuous
 62
     7
370
    40
100
AcDbPolyline
 90
       17
 70
   128
 43
0.0
 10
112.2170168607
 20
66.8412981923
 10
111.9722458515
 20
66.98027375
 10
111.519590384
 20
67.110944128
 10
111.094233697
 20
67.0789168236
 10
110.7474795662
 20
66.8880551268
 10
110.5211523971
 20
66.5613793675
 10
110.4425498408
 20
66.1382917756
 10
110.5211523971
 20
65.6698229766
 10
110.7474795662
 20
65.2124771653
 10
111.094233697
 20
64.8214168777
 10
111.519590384
 20
64.5438097756
 10
111.9722458515
 20
64.4131393976
 10
112.3976025385
 20
64.445166702
 10
112.7443555401
 20
64.6360287248
 10
112.9706838384
 20
64.9627041581
 10
113.0492863947
 20
65.38579175
 10
113.0492863947
 20
65.38579175
  0
LINE
  5
3AD
330
1F
100
AcDbEntity
  8
0
  6
Continuous
 62
     7
370
    40
100
AcDbLine
 10
108.451992398
 20
68.1577352071
 30
0.0
 11
109.5019924071
 21
69.067061889
 31
0.0
  0
LINE
  5
3AE
330
1F
100
AcDbEntity
  8
0
  6
Continuous
 62
     7
370
    40
100
AcDbLine
 10
109.8159825814
 20
69.2904107663
 30
0.0
 11
109.5019924071
 21
69.067061889
 31
0.0
  0
LWPOLYLINE
  5
3AF
330
1F
100
AcDbEntity
  8
0
  6
Continuous
 62
     7
370
    40
100
AcDbPolyline
 90
       10
 70
   128
 43
0.0
 10
110.9457970781
 20
67.0218875864
 10
110.8536524027
 20
66.8493328191
 10
110.7750498464
 20
66.4262452272
 10
110.8536524027
 20
65.9577764283
 10
111.0799795718
 20
65.5004306169
 10
111.4267337026
 20
65.1093703293
 10
111.8520903896
 20
64.8317632272
 10
112.3047458571
 20
64.7010928492
 10
112.7301025441
 20
64.7331201536
 10
112.8785385332
 20
64.7901495726
  0
LINE
  5
3B0
330
1F
100
AcDbEntity
  8
0
  6
Continuous
 62
     7
370
    40
100
AcDbLine
 10
102.389814707
 20
62.7846760423
 30
0.0
 11
103.4398147161
 21
63.6940027242
 31
0.0
  0
LINE
  5
3B1
330
1F
100
AcDbEntity
  8
0
  6
Continuous
 62
     7
370
    40
100
AcDbLine
 10
108.4519920646
 20
62.2471117535
 30
0.0
 11
103.4398147161
 21
63.6940027242
 31
0.0
  0
LINE
  5
3B2
330
1F
100
AcDbEntity
  8
0
  6
Continuous
 62
     7
370
    40
100
AcDbLine
 10
102.389814707
 20
63.6940028653
 30
0.0
 11
103.4398147161
 21
64.6033295472
 31
0.0
  0
LINE
  5
3B3
330
1F
100
AcDbEntity
  8
0
  6
Continuous
 62
     7
370
    40
100
AcDbLine
 10
87.8405877969
 20
67.8940029018
 30
0.0
 11
88.890587806
 21
68.8033295837
 31
0.0
  0
LINE
  5
3B4
330
1F
100
AcDbEntity
  8
0
  6
Continuous
 62
     7
370
    40
100
AcDbLine
 10
103.4398147161
 20
64.6033295472
 30
0.0
 11
88.890587806
 21
68.8033295837
 31
0.0
  0
LINE
  5
3B5
330
1F
100
AcDbEntity
  8
0
  6
Continuous
 62
     7
370
    40
100
AcDbLine
 10
103.4398147161
 20
63.6940027242
 30
0.0
 11
103.4398147161
 21
64.6033295472
 31
0.0
  0
LINE
  5
3B6
330
1F
100
AcDbEntity
  8
0
  6
Continuous
 62
     7
370
    40
100
AcDbLine
 10
80.4144195891
 20
77.6154754048
 30
0.0
 11
81.4644195982
 21
78.5248020867
 31
0.0
  0
LINE
  5
3B7
330
1F
100
AcDbEntity
  8
0
  6
Continuous
 62
     7
370
    40
100
AcDbLine
 10
80.4144195891
 20
80.6465642503
 30
0.0
 11
81.4644195982
 21
81.5558909322
 31
0.0
  0
LINE
  5
3B8
330
1F
100
AcDbEntity
  8
0
  6
Continuous
 62
     7
370
    40
100
AcDbLine
 10
81.4644195982
 20
78.5248020867
 30
0.0
 11
81.4644195982
 21
81.5558909322
 31
0.0
  0
LINE
  5
3B9
330
1F
100
AcDbEntity
  8
0
  6
Continuous
 62
     7
370
    40
100
AcDbLine
 10
49.6488657466
 20
89.5278146466
 30
0.0
 11
50.6988657557
 21
90.4371413285
 31
0.0
  0
LINE
  5
3BA
330
1F
100
AcDbEntity
  8
0
  6
Continuous
 62
     7
370
    40
100
AcDbLine
 10
81.4644195982
 20
81.5558909322
 30
0.0
 11
50.6988657557
 21
90.4371413285
 31
0.0
  0
LINE
  5
3BB
330
1F
100
AcDbEntity
  8
0
  6
Continuous
 62
     7
370
    40
100
AcDbLine
 10
81.7784101059
 20
75.8577351654
 30
0.0
 11
82.8284101151
 21
76.7670618472
 31
0.0
  0
LINE
  5
3BC
330
1F
100
AcDbEntity
  8
0
  6
Continuous
 62
     7
370
    40
100
AcDbLine
 10
82.8284101151
 20
76.7670618472
 30
0.0
 11
81.4644195982
 21
78.5248020867
 31
0.0
  0
LINE
  5
3BD
330
1F
100
AcDbEntity
  8
0
  6
Continuous
 62
     7
370
    40
100
AcDbLine
 10
81.7784101059
 20
68.7346760397
 30
0.0
 11
82.8284101151
 21
69.6440027216
 31
0.0
  0
LINE
  5
3BE
330
1F
100
AcDbEntity
  8
0
  6
Continuous
 62
     7
370
    40
100
AcDbLine
 10
82.8284101151
 20
69.6440027216
 30
0.0
 11
82.8284101151
 21
76.7670618472
 31
0.0
  0
LWPOLYLINE
  5
3BF
330
1F
100
AcDbEntity
  8
0
  6
Continuous
 62
     7
370
    40
100
AcDbPolyline
 90
       14
 70
   128
 43
0.0
 10
77.468308875
 20
76.4361332182
 10
77.2594849485
 20
76.1922880421
 10
77.0232944915
 20
75.6902584833
 10
76.9427350861
 20
75.1016012072
 10
77.0232944915
 20
74.4664329367
 10
77.2594849485
 20
73.8280387539
 10
77.6352079
 20
73.2299247679
 10
78.1248594479
 20
72.7128513076
 10
78.6950715304
 20
72.312055789
 10
79.3069849388
 20
72.0548517746
 10
79.9188972182
 20
71.9587677439
 10
80.4891093007
 20
72.0303511631
 10
80.9787608485
 20
72.2647241705
 10
81.0406607426
 20
72.3111363798
  0
LWPOLYLINE
  5
3C0
330
1F
100
AcDbEntity
  8
0
  6
Continuous
 62
     7
370
    40
100
AcDbPolyline
 90
        3
 70
   128
 43
0.0
 10
81.2228526701
 20
74.5732917891
 10
81.1442501139
 20
75.0417605881
 10
81.0549712684
 20
75.2616290688
  0
LWPOLYLINE
  5
3C1
330
1F
100
AcDbEntity
  8
0
  6
Continuous
 62
     7
370
    40
100
AcDbPolyline
 90
       17
 70
   128
 43
0.0
 10
80.3905831361
 20
76.0287982314
 10
80.1458121269
 20
76.1677737891
 10
79.6931566595
 20
76.2984441671
 10
79.2677999724
 20
76.2664168628
 10
78.9210469708
 20
76.07555484
 10
78.6947186725
 20
75.7488794066
 10
78.6161161162
 20
75.3257918147
 10
78.6947186725
 20
74.8573230158
 10
78.9210469708
 20
74.3999768785
 10
79.2677999724
 20
74.0089169168
 10
79.6931566595
 20
73.7313098147
 10
80.1458121269
 20
73.6006394368
 10
80.5711688139
 20
73.6326667411
 10
80.9179229447
 20
73.8235284379
 10
81.1442501139
 20
74.1502041972
 10
81.2228526701
 20
74.5732917891
 10
81.2228526701
 20
74.5732917891
  0
LINE
  5
3C2
330
1F
100
AcDbEntity
  8
0
  6
Continuous
 62
     7
370
    40
100
AcDbLine
 10
88.1030881138
 20
68.1213343403
 30
0.0
 11
82.8284101151
 21
69.6440027216
 31
0.0
  0
LWPOLYLINE
  5
3C3
330
1F
100
AcDbEntity
  8
0
  6
Continuous
 62
     7
370
    40
100
AcDbPolyline
 90
       10
 70
   128
 43
0.0
 10
79.1193633535
 20
76.2093876256
 10
79.0272186781
 20
76.0368328582
 10
78.9486161218
 20
75.6137452663
 10
79.0272186781
 20
75.1452764674
 10
79.2535469764
 20
74.6879303301
 10
79.600299978
 20
74.2968703684
 10
80.0256566651
 20
74.0192632663
 10
80.4783121325
 20
73.8885928884
 10
80.9036688195
 20
73.9206201927
 10
81.0521059378
 20
73.9776492857
  0
LWPOLYLINE
  5
3C4
330
1F
100
AcDbEntity
  8
0
  6
Continuous
 62
     7
370
    40
100
AcDbPolyline
 90
       15
 70
   128
 43
0.0
 10
52.1128660791
 20
87.1295254922
 10
52.035630946
 20
87.051163877
 10
51.7428059082
 20
86.6030465894
 10
51.5916418477
 20
86.0579461076
 10
51.5916418477
 20
85.4501123853
 10
51.7428059082
 20
84.8177372925
 10
52.035630946
 20
84.2005571081
 10
52.4517205463
 20
83.637350554
 10
52.9649321972
 20
83.1635054575
 10
53.5430168433
 20
82.8087958063
 10
54.1496513885
 20
82.5955093159
 10
54.7467196172
 20
82.5370472619
 10
55.2967015149
 20
82.6370842806
 10
55.7650490385
 20
82.8893318111
 10
55.7769188589
 20
82.8986396293
  0
LWPOLYLINE
  5
3C5
330
1F
100
AcDbEntity
  8
0
  6
Continuous
 62
     7
370
    40
100
AcDbPolyline
 90
        3
 70
   128
 43
0.0
 10
55.9482620258
 20
85.2440499525
 10
55.8696583403
 20
85.712519148
 10
55.7531733063
 20
85.9862849227
  0
LWPOLYLINE
  5
3C6
330
1F
100
AcDbEntity
  8
0
  6
Continuous
 62
     7
370
    40
100
AcDbPolyline
 90
       17
 70
   128
 43
0.0
 10
55.165450077
 20
86.6649297664
 10
54.8712203533
 20
86.8385322784
 10
54.4185637568
 20
86.9692029824
 10
53.9932059405
 20
86.937176004
 10
53.6464518097
 20
86.7463142366
 10
53.4201257698
 20
86.4196382925
 10
53.3415220843
 20
85.9965509559
 10
53.4201257698
 20
85.5280817605
 10
53.6464518097
 20
85.0707364162
 10
53.9932059405
 20
84.6796760581
 10
54.4185637568
 20
84.40206863
 10
54.8712203533
 20
84.2713979261
 10
55.2965781696
 20
84.3034249044
 10
55.6433277837
 20
84.4942879757
 10
55.8696583403
 20
84.820962616
 10
55.9482620258
 20
85.2440499525
 10
55.9482620258
 20
85.2440499525
  0
LWPOLYLINE
  5
3C7
330
1F
100
AcDbEntity
  8
0
  6
Continuous
 62
     7
370
    40
100
AcDbPolyline
 90
       10
 70
   128
 43
0.0
 10
53.8234740394
 20
86.8693739935
 10
53.7176257737
 20
86.6772808535
 10
53.6390220883
 20
86.254193517
 10
53.7176257737
 20
85.7857243215
 10
53.9439518137
 20
85.3283789773
 10
54.2907059445
 20
84.9373186191
 10
54.7160637607
 20
84.6597111911
 10
55.1687203573
 20
84.5290404871
 10
55.5940781735
 20
84.5610674655
 10
55.7638102826
 20
84.6288695335
  0
LWPOLYLINE
  5
3C8
330
1F
100
AcDbEntity
  8
0
  6
Continuous
 62
     7
370
    40
100
AcDbPolyline
 90
       15
 70
   128
 43
0.0
 10
52.1128660791
 20
78.6424765554
 10
52.035630946
 20
78.5641152225
 10
51.7428059082
 20
78.1159976526
 10
51.5916418477
 20
77.5708974531
 10
51.5916418477
 20
76.9630631662
 10
51.7428059082
 20
76.330688638
 10
52.035630946
 20
75.7135081714
 10
52.4517205463
 20
75.1503014761
 10
52.9649321972
 20
74.6764565913
 10
53.5430168433
 20
74.3217469401
 10
54.1496513885
 20
74.1084601674
 10
54.7467196172
 20
74.0499983957
 10
55.2967015149
 20
74.150035485
 10
55.7650490385
 20
74.4022828744
 10
55.7769188589
 20
74.4115905514
  0
LWPOLYLINE
  5
3C9
330
1F
100
AcDbEntity
  8
0
  6
Continuous
 62
     7
370
    40
100
AcDbPolyline
 90
        3
 70
   128
 43
0.0
 10
55.9482620258
 20
76.7570007334
 10
55.8696583403
 20
77.2254702112
 10
55.7531733063
 20
77.499235986
  0
LWPOLYLINE
  5
3CA
330
1F
100
AcDbEntity
  8
0
  6
Continuous
 62
     7
370
    40
100
AcDbPolyline
 90
       17
 70
   128
 43
0.0
 10
55.165450077
 20
78.1778808297
 10
54.8712203533
 20
78.3514833417
 10
54.4185637568
 20
78.4821540456
 10
53.9932059405
 20
78.4501270672
 10
53.6464518097
 20
78.2592652998
 10
53.4201257698
 20
77.9325893557
 10
53.3415220843
 20
77.5095017369
 10
53.4201257698
 20
77.041033106
 10
53.6464518097
 20
76.5836871972
 10
53.9932059405
 20
76.1926271213
 10
54.4185637568
 20
75.9150199755
 10
54.8712203533
 20
75.7843492716
 10
55.2965781696
 20
75.8163759677
 10
55.6433277837
 20
76.0072387566
 10
55.8696583403
 20
76.3339139615
 10
55.9482620258
 20
76.7570007334
 10
55.9482620258
 20
76.7570007334
  0
LWPOLYLINE
  5
3CB
330
1F
100
AcDbEntity
  8
0
  6
Continuous
 62
     7
370
    40
100
AcDbPolyline
 90
       10
 70
   128
 43
0.0
 10
53.8234740394
 20
78.3823250568
 10
53.7176257737
 20
78.1902319167
 10
53.6390220883
 20
77.7671442979
 10
53.7176257737
 20
77.298675667
 10
53.9439518137
 20
76.8413297582
 10
54.2907059445
 20
76.4502696824
 10
54.7160637607
 20
76.1726625366
 10
55.1687203573
 20
76.0419918326
 10
55.5940781735
 20
76.0740185287
 10
55.7638102826
 20
76.1418205968
  0
ENDSEC
  0
SECTION
  2
OBJECTS
  0
DICTIONARY
  5
C
330
0
100
AcDbDictionary
281
     1
  3
ACAD_GROUP
350
D
  3
ACAD_LAYOUT
350
1A
  3
ACAD_MLEADERSTYLE
350
3CD
  3
ACAD_MLINESTYLE
350
17
  3
ACAD_PLOTSETTINGS
350
19
  3
ACAD_PLOTSTYLENAME
350
E
  3
ACAD_TABLESTYLE
350
3CC
  3
ACAD_VISUALSTYLE
350
2A
  3
AcDbVariableDictionary
350
3CE
  0
DICTIONARY
  5
D
102
{ACAD_REACTORS
330
C
102
}
330
C
100
AcDbDictionary
281
     1
  0
DICTIONARY
  5
1A
102
{ACAD_REACTORS
330
C
102
}
330
C
100
AcDbDictionary
281
     1
  3
Layout1
350
1E
  3
Layout2
350
26
  3
Model
350
22
  0
DICTIONARY
  5
3CD
102
{ACAD_REACTORS
330
C
102
}
330
C
100
AcDbDictionary
281
     1
  0
DICTIONARY
  5
17
102
{ACAD_REACTORS
330
C
102
}
330
C
100
AcDbDictionary
281
     1
  3
Standard
350
18
  0
DICTIONARY
  5
19
102
{ACAD_REACTORS
330
C
102
}
330
C
100
AcDbDictionary
281
     1
  0
ACDBDICTIONARYWDFLT
  5
E
102
{ACAD_REACTORS
330
C
102
}
330
C
100
AcDbDictionary
281
     1
  3
Normal
350
F
100
AcDbDictionaryWithDefault
340
F
  0
DICTIONARY
  5
3CC
102
{ACAD_REACTORS
330
C
102
}
330
C
100
AcDbDictionary
281
     1
  0
DICTIONARY
  5
2A
102
{ACAD_REACTORS
330
C
102
}
330
C
100
AcDbDictionary
281
     1
  3
2dWireframe
350
2F
  3
3D Hidden
350
31
  3
3dWireframe
350
30
  3
Basic
350
32
  3
Brighten
350
36
  3
ColorChange
350
3A
  3
Conceptual
350
34
  3
Dim
350
35
  3
Facepattern
350
39
  3
Flat
350
2B
  3
FlatWithEdges
350
2C
  3
Gouraud
350
2D
  3
GouraudWithEdges
350
2E
  3
Linepattern
350
38
  3
Realistic
350
33
  3
Thicken
350
37
  0
DICTIONARY
  5
3CE
102
{ACAD_REACTORS
330
C
102
}
330
C
100
AcDbDictionary
281
     1
  3
PSOLHEIGHT
350
3D0
  3
PSOLWIDTH
350
3CF
  0
LAYOUT
  5
1E
102
{ACAD_REACTORS
330
1A
102
}
330
1A
100
AcDbPlotSettings
  1

  2
none_device
  4

  6

 40
0.0
 41
0.0
 42
0.0
 43
0.0
 44
0.0
 45
0.0
 46
0.0
 47
0.0
 48
0.0
 49
0.0
140
0.0
141
0.0
142
1.0
143
1.0
 70
   688
 72
     0
 73
     0
 74
     5
  7

 75
    16
147
1.0
148
0.0
149
0.0
100
AcDbLayout
  1
Layout1
 70
     1
 71
     1
 10
0.0
 20
0.0
 11
420.0
 21
297.0
 12
0.0
 22
0.0
 32
0.0
 14
1.0000000000E+20
 24
1.0000000000E+20
 34
1.0000000000E+20
 15
-1.0000000000E+20
 25
-1.0000000000E+20
 35
-1.0000000000E+20
146
0.0
 13
0.0
 23
0.0
 33
0.0
 16
1.0
 26
0.0
 36
0.0
 17
0.0
 27
1.0
 37
0.0
 76
     0
330
1B
  0
LAYOUT
  5
26
102
{ACAD_REACTORS
330
1A
102
}
330
1A
100
AcDbPlotSettings
  1

  2
none_device
  4

  6

 40
0.0
 41
0.0
 42
0.0
 43
0.0
 44
0.0
 45
0.0
 46
0.0
 47
0.0
 48
0.0
 49
0.0
140
0.0
141
0.0
142
1.0
143
1.0
 70
   688
 72
     0
 73
     0
 74
     5
  7

 75
    16
147
1.0
148
0.0
149
0.0
100
AcDbLayout
  1
Layout2
 70
     1
 71
     2
 10
0.0
 20
0.0
 11
0.0
 21
0.0
 12
0.0
 22
0.0
 32
0.0
 14
0.0
 24
0.0
 34
0.0
 15
0.0
 25
0.0
 35
0.0
146
0.0
 13
0.0
 23
0.0
 33
0.0
 16
1.0
 26
0.0
 36
0.0
 17
0.0
 27
1.0
 37
0.0
 76
     0
330
23
  0
LAYOUT
  5
22
102
{ACAD_REACTORS
330
1A
102
}
330
1A
100
AcDbPlotSettings
  1

  2
none_device
  4

  6

 40
0.0
 41
0.0
 42
0.0
 43
0.0
 44
0.0
 45
0.0
 46
0.0
 47
0.0
 48
0.0
 49
0.0
140
0.0
141
0.0
142
1.0
143
1.0
 70
  1712
 72
     0
 73
     0
 74
     0
  7

 75
     0
147
1.0
148
0.0
149
0.0
100
AcDbLayout
  1
Model
 70
     1
 71
     0
 10
0.0
 20
0.0
 11
420.0
 21
297.0
 12
0.0
 22
0.0
 32
0.0
 14
0.0
 24
0.0
 34
0.0
 15
420.0
 25
297.0
 35
0.0
146
0.0
 13
0.0
 23
0.0
 33
0.0
 16
1.0
 26
0.0
 36
0.0
 17
0.0
 27
1.0
 37
0.0
 76
     0
330
1F
331
29
  0
MLINESTYLE
  5
18
102
{ACAD_REACTORS
330
17
102
}
330
17
100
AcDbMlineStyle
  2
Standard
 70
     0
  3

 62
   256
 51
90.0
 52
90.0
 71
     2
 49
0.5
 62
   256
  6
BYLAYER
 49
-0.5
 62
   256
  6
BYLAYER
  0
ACDBPLACEHOLDER
  5
F
102
{ACAD_REACTORS
330
E
102
}
330
E
  0
VISUALSTYLE
  5
2F
102
{ACAD_REACTORS
330
2A
102
}
330
2A
100
AcDbVisualStyle
  2
2dWireframe
 70
     4
 71
     0
 72
     2
 73
     0
 90
        0
 40
-0.6
 41
-30.0
 62
     5
 63
     7
 74
     1
 91
        4
 64
     7
 65
   257
 75
     1
175
     1
 42
1.0
 92
        0
 66
   257
 43
1.0
 76
     1
 77
     6
 78
     2
 67
     7
 79
     5
170
     0
171
     0
290
     0
174
     0
 93
        1
 44
0.0
173
     0
291
     0
 45
0.0
1001
ACAD
1000
AcDbSavedByObjectVersion
1070
     0
  0
VISUALSTYLE
  5
31
102
{ACAD_REACTORS
330
2A
102
}
330
2A
100
AcDbVisualStyle
  2
3D Hidden
 70
     6
 71
     1
 72
     2
 73
     2
 90
        0
 40
-0.6
 41
-30.0
 62
     5
 63
     7
 74
     2
 91
        2
 64
     7
 65
   257
 75
     2
175
     1
 42
40.0
 92
        0
 66
   257
 43
1.0
 76
     1
 77
     6
 78
     2
 67
     7
 79
     3
170
     0
171
     0
290
     0
174
     0
 93
        1
 44
0.0
173
     0
291
     0
 45
0.0
1001
ACAD
1000
AcDbSavedByObjectVersion
1070
     0
  0
VISUALSTYLE
  5
30
102
{ACAD_REACTORS
330
2A
102
}
330
2A
100
AcDbVisualStyle
  2
3dWireframe
 70
     5
 71
     0
 72
     2
 73
     0
 90
        0
 40
-0.6
 41
-30.0
 62
     5
 63
     7
 74
     1
 91
        4
 64
     7
 65
   257
 75
     1
175
     1
 42
1.0
 92
        0
 66
   257
 43
1.0
 76
     1
 77
     6
 78
     2
 67
     7
 79
     5
170
     0
171
     0
290
     0
174
     0
 93
        1
 44
0.0
173
     0
291
     0
 45
0.0
1001
ACAD
1000
AcDbSavedByObjectVersion
1070
     0
  0
VISUALSTYLE
  5
32
102
{ACAD_REACTORS
330
2A
102
}
330
2A
100
AcDbVisualStyle
  2
Basic
 70
     7
 71
     1
 72
     0
 73
     1
 90
        0
 40
-0.6
 41
-30.0
 62
     5
 63
     7
 74
     0
 91
        4
 64
     7
 65
   257
 75
     1
175
     1
 42
1.0
 92
        8
 66
     7
 43
1.0
 76
     1
 77
     6
 78
     2
 67
     7
 79
     5
170
     0
171
     0
290
     0
174
     0
 93
        1
 44
0.0
173
     0
291
     1
 45
0.0
1001
ACAD
1000
AcDbSavedByObjectVersion
1070
     0
  0
VISUALSTYLE
  5
36
102
{ACAD_REACTORS
330
2A
102
}
330
2A
100
AcDbVisualStyle
  2
Brighten
 70
    12
 71
     2
 72
     2
 73
     0
 90
        0
 40
-0.6
 41
-30.0
 62
     5
 63
     7
 74
     1
 91
        4
 64
     7
 65
   257
 75
     1
175
     1
 42
1.0
 92
        8
 66
     7
 43
1.0
 76
     1
 77
     6
 78
     2
 67
     7
 79
     5
170
     0
171
     0
290
     0
174
     0
 93
        1
 44
50.0
173
     0
291
     1
 45
0.0
1001
ACAD
1000
AcDbSavedByObjectVersion
1070
     0
  0
VISUALSTYLE
  5
3A
102
{ACAD_REACTORS
330
2A
102
}
330
2A
100
AcDbVisualStyle
  2
ColorChange
 70
    16
 71
     2
 72
     2
 73
     3
 90
        0
 40
-0.6
 41
-30.0
 62
     5
 63
     8
 74
     1
 91
        4
 64
     7
 65
   257
 75
     1
175
     1
 42
1.0
 92
        8
 66
     8
 43
1.0
 76
     1
 77
     6
 78
     2
 67
     7
 79
     5
170
     0
171
     0
290
     0
174
     0
 93
        1
 44
0.0
173
     0
291
     1
 45
0.0
1001
ACAD
1000
AcDbSavedByObjectVersion
1070
     0
  0
VISUALSTYLE
  5
34
102
{ACAD_REACTORS
330
2A
102
}
330
2A
100
AcDbVisualStyle
  2
Conceptual
 70
     9
 71
     3
 72
     2
 73
     0
 90
        0
 40
-0.6
 41
-30.0
 62
     5
 63
     7
 74
     2
 91
        2
 64
     7
 65
   257
 75
     1
175
     1
 42
40.0
 92
        8
 66
     7
 43
1.0
 76
     1
 77
     6
 78
     2
 67
     7
 79
     3
170
     0
171
     0
290
     0
174
     0
 93
        1
 44
0.0
173
     0
291
     0
 45
0.0
1001
ACAD
1000
AcDbSavedByObjectVersion
1070
     0
  0
VISUALSTYLE
  5
35
102
{ACAD_REACTORS
330
2A
102
}
330
2A
100
AcDbVisualStyle
  2
Dim
 70
    11
 71
     2
 72
     2
 73
     0
 90
        0
 40
-0.6
 41
-30.0
 62
     5
 63
     7
 74
     1
 91
        4
 64
     7
 65
   257
 75
     1
175
     1
 42
1.0
 92
        8
 66
     7
 43
1.0
 76
     1
 77
     6
 78
     2
 67
     7
 79
     5
170
     0
171
     0
290
     0
174
     0
 93
        1
 44
-50.0
173
     0
291
     1
 45
0.0
1001
ACAD
1000
AcDbSavedByObjectVersion
1070
     0
  0
VISUALSTYLE
  5
39
102
{ACAD_REACTORS
330
2A
102
}
330
2A
100
AcDbVisualStyle
  2
Facepattern
 70
    15
 71
     2
 72
     2
 73
     0
 90
        0
 40
-0.6
 41
-30.0
 62
     5
 63
     7
 74
     1
 91
        4
 64
     7
 65
   257
 75
     1
175
     1
 42
1.0
 92
        8
 66
     7
 43
1.0
 76
     1
 77
     6
 78
     2
 67
     7
 79
     5
170
     0
171
     0
290
     0
174
     0
 93
        1
 44
0.0
173
     0
291
     1
 45
0.0
1001
ACAD
1000
AcDbSavedByObjectVersion
1070
     0
  0
VISUALSTYLE
  5
2B
102
{ACAD_REACTORS
330
2A
102
}
330
2A
100
AcDbVisualStyle
  2
Flat
 70
     0
 71
     2
 72
     1
 73
     1
 90
        2
 40
-0.6
 41
30.0
 62
     5
 63
     7
 74
     0
 91
        4
 64
     7
 65
   257
 75
     1
175
     1
 42
1.0
 92
        8
 66
     7
 43
1.0
 76
     1
 77
     6
 78
     2
 67
     7
 79
     5
170
     0
171
     0
290
     0
174
     0
 93
       13
 44
0.0
173
     0
291
     1
 45
0.0
1001
ACAD
1000
AcDbSavedByObjectVersion
1070
     0
  0
VISUALSTYLE
  5
2C
102
{ACAD_REACTORS
330
2A
102
}
330
2A
100
AcDbVisualStyle
  2
FlatWithEdges
 70
     1
 71
     2
 72
     1
 73
     1
 90
        2
 40
-0.6
 41
30.0
 62
     5
 63
     7
 74
     1
 91
        4
 64
     7
 65
   257
 75
     1
175
     1
 42
1.0
 92
        0
 66
   257
 43
1.0
 76
     1
 77
     6
 78
     2
 67
     7
 79
     5
170
     0
171
     0
290
     0
174
     0
 93
       13
 44
0.0
173
     0
291
     1
 45
0.0
1001
ACAD
1000
AcDbSavedByObjectVersion
1070
     0
  0
VISUALSTYLE
  5
2D
102
{ACAD_REACTORS
330
2A
102
}
330
2A
100
AcDbVisualStyle
  2
Gouraud
 70
     2
 71
     2
 72
     2
 73
     1
 90
        2
 40
-0.6
 41
30.0
 62
     5
 63
     7
 74
     0
 91
        4
 64
     7
 65
   257
 75
     1
175
     1
 42
1.0
 92
        0
 66
     7
 43
1.0
 76
     1
 77
     6
 78
     2
 67
     7
 79
     5
170
     0
171
     0
290
     0
174
     0
 93
       13
 44
0.0
173
     0
291
     1
 45
0.0
1001
ACAD
1000
AcDbSavedByObjectVersion
1070
     0
  0
VISUALSTYLE
  5
2E
102
{ACAD_REACTORS
330
2A
102
}
330
2A
100
AcDbVisualStyle
  2
GouraudWithEdges
 70
     3
 71
     2
 72
     2
 73
     1
 90
        2
 40
-0.6
 41
30.0
 62
     5
 63
     7
 74
     1
 91
        4
 64
     7
 65
   257
 75
     1
175
     1
 42
1.0
 92
        0
 66
   257
 43
1.0
 76
     1
 77
     6
 78
     2
 67
     7
 79
     5
170
     0
171
     0
290
     0
174
     0
 93
       13
 44
0.0
173
     0
291
     1
 45
0.0
1001
ACAD
1000
AcDbSavedByObjectVersion
1070
     0
  0
VISUALSTYLE
  5
38
102
{ACAD_REACTORS
330
2A
102
}
330
2A
100
AcDbVisualStyle
  2
Linepattern
 70
    14
 71
     2
 72
     2
 73
     0
 90
        0
 40
-0.6
 41
-30.0
 62
     5
 63
     7
 74
     1
 91
        4
 64
     7
 65
   257
 75
     7
175
     7
 42
1.0
 92
        8
 66
     7
 43
1.0
 76
     1
 77
     6
 78
     2
 67
     7
 79
     5
170
     0
171
     0
290
     0
174
     0
 93
        1
 44
0.0
173
     0
291
     1
 45
0.0
1001
ACAD
1000
AcDbSavedByObjectVersion
1070
     0
  0
VISUALSTYLE
  5
33
102
{ACAD_REACTORS
330
2A
102
}
330
2A
100
AcDbVisualStyle
  2
Realistic
 70
     8
 71
     2
 72
     2
 73
     0
 90
        0
 40
-0.6
 41
-30.0
 62
     5
 63
     7
 74
     1
 91
        0
 64
     7
 65
   257
 75
     1
175
     1
 42
1.0
 92
        8
 66
     8
 43
1.0
 76
     1
 77
     6
 78
     2
 67
     7
 79
     5
170
     0
171
     0
290
     0
174
     0
 93
       13
 44
0.0
173
     0
291
     0
 45
0.0
1001
ACAD
1000
AcDbSavedByObjectVersion
1070
     0
  0
VISUALSTYLE
  5
37
102
{ACAD_REACTORS
330
2A
102
}
330
2A
100
AcDbVisualStyle
  2
Thicken
 70
    13
 71
     2
 72
     2
 73
     0
 90
        0
 40
-0.6
 41
-30.0
 62
     5
 63
     7
 74
     1
 91
        4
 64
     7
 65
   257
 75
     1
175
     1
 42
1.0
 92
       12
 66
     7
 43
1.0
 76
     1
 77
     6
 78
     2
 67
     7
 79
     5
170
     0
171
     0
290
     0
174
     0
 93
        1
 44
0.0
173
     0
291
     1
 45
0.0
1001
ACAD
1000
AcDbSavedByObjectVersion
1070
     0
  0
DICTIONARYVAR
  5
3D0
102
{ACAD_REACTORS
330
3CE
102
}
330
3CE
100
DictionaryVariables
280
     0
  1
80.000000
  0
DICTIONARYVAR
  5
3CF
102
{ACAD_REACTORS
330
3CE
102
}
330
3CE
100
DictionaryVariables
280
     0
  1
5.000000
  0
ENDSEC
  0
EOF
