  0
SECTION
  2
HEADER
  9
$ACADVER
  1
AC1009
  9
$INSBASE
 10
0.0
 20
0.0
 30
0.0
  9
$EXTMIN
 10
-507.306856
 20
-326.749003
 30
0.000000
  9
$EXTMAX
 10
507.306856
 20
326.758318
 30
0.000000
  9
$LIMMIN
 10
0.0
 20
0.0
  9
$LIMMAX
 10
420.0
 20
297.0
  9
$ORTHOMODE
 70
     0
  9
$REGENMODE
 70
     1
  9
$FILLMODE
 70
     1
  9
$QTEXTMODE
 70
     0
  9
$MIRRTEXT
 70
     1
  9
$DRAGMODE
 70
     2
  9
$LTSCALE
 40
1.0
  9
$OSMODE
 70
     0
  9
$ATTMODE
 70
     1
  9
$TEXTSIZE
 40
3.0
  9
$TRACEWID
 40
10.0
  9
$TEXTSTYLE
  7
STANDARD
  9
$CLAYER
  8
0
  9
$CELTYPE
  6
BYLAYER
  9
$CECOLOR
 62
   256
  9
$DIMSCALE
 40
1.0
  9
$DIMASZ
 40
3.0
  9
$DIMEXO
 40
2.5
  9
$DIMDLI
 40
10.0
  9
$DIMRND
 40
0.0
  9
$DIMDLE
 40
1.25
  9
$DIMEXE
 40
2.5
  9
$DIMTP
 40
0.0
  9
$DIMTM
 40
0.0
  9
$DIMTXT
 40
3.0
  9
$DIMCEN
 40
-3.0
  9
$DIMTSZ
 40
0.0
  9
$DIMTOL
 70
     0
  9
$DIMLIM
 70
     0
  9
$DIMTIH
 70
     0
  9
$DIMTOH
 70
     0
  9
$DIMSE1
 70
     0
  9
$DIMSE2
 70
     0
  9
$DIMTAD
 70
     0
  9
$DIMZIN
 70
     0
  9
$DIMBLK
  1

  9
$DIMASO
 70
     1
  9
$DIMSHO
 70
     0
  9
$DIMPOST
  1

  9
$DIMAPOST
  1

  9
$DIMALT
 70
     0
  9
$DIMALTD
 70
     2
  9
$DIMALTF
 40
0.039
  9
$DIMLFAC
 40
1.0
  9
$DIMTOFL
 70
     0
  9
$DIMTVP
 40
1.5
  9
$DIMTIX
 70
     0
  9
$DIMSOXD
 70
     0
  9
$DIMSAH
 70
     0
  9
$DIMBLK1
  1

  9
$DIMBLK2
  1

  9
$DIMSTYLE
  2
STANDARD
  9
$DIMCLRD
 70
     0
  9
$DIMCLRE
 70
     0
  9
$DIMCLRT
 70
     0
  9
$DIMTFAC
 40
0.75
  9
$DIMGAP
 40
1.5
  9
$LUNITS
 70
     2
  9
$LUPREC
 70
     4
  9
$SKETCHINC
 40
1.0
  9
$FILLETRAD
 40
0.0
  9
$AUNITS
 70
     0
  9
$AUPREC
 70
     4
  9
$MENU
  1
acad
  9
$ELEVATION
 40
0.0
  9
$PELEVATION
 40
0.0
  9
$THICKNESS
 40
0.0
  9
$LIMCHECK
 70
     0
  9
$BLIPMODE
 70
     0
  9
$CHAMFERA
 40
0.0
  9
$CHAMFERB
 40
0.0
  9
$SKPOLY
 70
     0
  9
$TDCREATE
 40
2449470.688965856
  9
$TDUPDATE
 40
2449470.688965856
  9
$TDINDWG
 40
0.0000000000
  9
$TDUSRTIMER
 40
0.0000000000
  9
$USRTIMER
 70
     1
  9
$ANGBASE
 50
0.0
  9
$ANGDIR
 70
     0
  9
$PDMODE
 70
     0
  9
$PDSIZE
 40
0.0
  9
$PLINEWID
 40
0.0
  9
$COORDS
 70
     1
  9
$SPLFRAME
 70
     0
  9
$SPLINETYPE
 70
     6
  9
$SPLINESEGS
 70
     8
  9
$ATTDIA
 70
     0
  9
$ATTREQ
 70
     1
  9
$HANDLING
 70
     0
  9
$HANDSEED
  5
0
  9
$SURFTAB1
 70
    18
  9
$SURFTAB2
 70
    18
  9
$SURFTYPE
 70
     6
  9
$SURFU
 70
    18
  9
$SURFV
 70
    18
  9
$UCSNAME
  2

  9
$UCSORG
 10
0.0
 20
0.0
 30
0.0
  9
$UCSXDIR
 10
1.0
 20
0.0
 30
0.0
  9
$UCSYDIR
 10
0.0
 20
1.0
 30
0.0
  9
$PUCSNAME
  2

  9
$PUCSORG
 10
0.0
 20
0.0
 30
0.0
  9
$PUCSXDIR
 10
1.0
 20
0.0
 30
0.0
  9
$PUCSYDIR
 10
0.0
 20
1.0
 30
0.0
  9
$USERI1
 70
     0
  9
$USERI2
 70
     0
  9
$USERI3
 70
     0
  9
$USERI4
 70
     0
  9
$USERI5
 70
     0
  9
$USERR1
 40
0.0
  9
$USERR2
 40
0.0
  9
$USERR3
 40
0.0
  9
$USERR4
 40
0.0
  9
$USERR5
 40
0.0
  9
$WORLDVIEW
 70
     1
  9
$SHADEDGE
 70
     3
  9
$SHADEDIF
 70
    70
  9
$TILEMODE
 70
     1
  9
$MAXACTVP
 70
    16
  9
$PINSBASE
 10
0.0
 20
0.0
 30
0.0
  9
$PLIMCHECK
 70
     0
  9
$PEXTMIN
 10
1.000000E+20
 20
1.000000E+20
 30
1.000000E+20
  9
$PEXTMAX
 10
-1.000000E+20
 20
-1.000000E+20
 30
-1.000000E+20
  9
$PLIMMIN
 10
0.0
 20
0.0
  9
$PLIMMAX
 10
420.0
 20
297.0
  9
$UNITMODE
 70
     0
  9
$VISRETAIN
 70
     0
  9
$PLINEGEN
 70
     0
  9
$PSLTSCALE
 70
     1
  9
$TREEDEPTH
 70
  3020
  9
$DWGCODEPAGE
  3
dos850
  0
ENDSEC
  0
SECTION
  2
TABLES
  0
TABLE
  2
VPORT
 70
     2
  0
VPORT
  2
*ACTIVE
 70
     0
 10
0.0
 20
0.0
 11
1.0
 21
1.0
 12
50
 22
50
 13
0.0
 23
0.0
 14
1.0
 24
1.0
 15
10.0
 25
10.0
 16
0.0
 26
0.0
 36
1.0
 17
0.0
 27
0.0
 37
0.0
 40
100.0
 41
1.387409
 42
50.0
 43
0.0
 44
0.0
 50
0.0
 51
0.0
 71
     0
 72
   100
 73
     1
 74
     1
 75
     0
 76
     0
 77
     0
 78
     0
  0
ENDTAB
  0
TABLE
  2
LTYPE
 70
     8
  0
LTYPE
  2
AUSGEZOGEN
 70
     0
  3
Solid line
 72
    65
 73
     0
 40
0.000000
  0
LTYPE
  2
VERDECKT
 70
     0
  3
_ _ _ _ _ _ _ _ _ _ _ _ _ _ _ _ _ _ _ _ _ _ _
 72
    65
 73
     2
 40
0.375000
 49
0.250000
 49
-0.125000
  0
LTYPE
  2
PUNKT
 70
     0
  3
...............................................
 72
    65
 73
     2
 40
0.250000
 49
0.000000
 49
-0.250000
  0
LTYPE
  2
GESTRICHELT
 70
     0
  3
__ __ __ __ __ __ __ __ __ __ __ __ __ __ __ 
 72
    65
 73
     2
 40
0.750000
 49
0.500000
 49
-0.250000
  0
LTYPE
  2
STRICHPUNKT
 70
     0
  3
__ . __ . __ . __ . __ . __ . __ . __ . __ . __
 72
    65
 73
     4
 40
1.000000
 49
0.500000
 49
-0.250000
 49
0.000000
 49
-0.250000
  0
LTYPE
  2
RAND
 70
     0
  3
__ __ . __ __ . __ __ . __ __ . __ __ . __ __
 72
    65
 73
     6
 40
1.750000
 49
0.500000
 49
-0.250000
 49
0.500000
 49
-0.250000
 49
0.000000
 49
-0.250000
  0
LTYPE
  2
MITTE
 70
     0
  3
____ _ ____ _ ____ _ ____ _ ____ _ ____ _ ____
 72
    65
 73
     4
 40
2.000000
 49
1.250000
 49
-0.250000
 49
0.250000
 49
-0.250000
  0
LTYPE
  2
GETRENNT
 70
     0
  3
__ . . __ . . __ . . __ . . __ . . __ . . __
 72
    65
 73
     6
 40
1.250000
 49
0.500000
 49
-0.250000
 49
0.000000
 49
-0.250000
 49
0.000000
 49
-0.250000
  0
ENDTAB
  0
TABLE
  2
LAYER
 70
     4
  0
LAYER
  2
0
 70
     0
 62
     7
  6
AUSGEZOGEN
  0
LAYER
  2
TEXT
 70
     0
 62
     7
  6
AUSGEZOGEN
  0
LAYER
  2
HATCH
 70
     0
 62
     7
  6
AUSGEZOGEN
  0
LAYER
  2
DIMENSION
 70
     0
 62
     7
  6
AUSGEZOGEN
  0
LAYER
  2
C
 70
     0
 62
     7
  6
AUSGEZOGEN
  0
ENDTAB
  0
TABLE
  2
STYLE
 70
     1
  0
STYLE
  2
STANDARD
 70
     0
 40
0.000000
 41
1.000000
 50
0.000000
 71
     0
 42
3.500000
  3
txt
  4

  0
ENDTAB
  0
TABLE
  2
DIMSTYLE
 70
     1
  0
DIMSTYLE
  2
CAD400-DIM0
 70
     0
  3
-3000mm (Bedienseite rechts oder links lieferbar)
  4
 links lieferbar)
  5

  6

  7

 40
1.000000
 41
4.000000
 42
1.000000
 43
0.000000
 44
1.500000
 45
0.000000
 46
0.000000
 47
0.000000
 48
0.000000
140
3.500000
141
0.000000
142
0.000000
143
25.400000
144
1.000000
145
0.000000
146
1.000000
147
0.090000
 71
     0
 72
     0
 73
     0
 74
     0
 75
     0
 76
     0
 77
     0
 78
    12
170
     0
171
     2
172
     1
173
     0
174
     0
175
     0
176
     2
177
     2
178
     1
  0
ENDTAB
  0
ENDSEC
  0
SECTION
  2
BLOCKS
  0
BLOCK
  8
DIMENSION
  2
*D0
 70
    65
 10
0.000000
 20
0.000000
 30
0.000000
  3
*D
  0
LINE
  8
DIMENSION
  6
BYBLOCK
 62
     2
 10
-507.306856
 20
316.218334
 11
-507.306856
 21
326.718318
  0
LINE
  8
DIMENSION
  6
BYBLOCK
 62
     2
 10
-507.306856
 20
325.218318
 11
92.693144
 21
325.218318
  0
LINE
  8
DIMENSION
  6
BYBLOCK
 62
     2
 10
-503.306856
 20
324.468318
 11
-507.306856
 21
325.218318
  0
LINE
  8
DIMENSION
  6
BYBLOCK
 62
     2
 10
-507.306856
 20
325.218318
 11
-503.306856
 21
325.968318
  0
LINE
  8
DIMENSION
  6
BYBLOCK
 62
     2
 10
-503.306856
 20
325.968318
 11
-503.306856
 21
324.468318
  0
LINE
  8
DIMENSION
  6
BYBLOCK
 62
     2
 10
88.693144
 20
325.968318
 11
92.693144
 21
325.218318
  0
LINE
  8
DIMENSION
  6
BYBLOCK
 62
     2
 10
92.693144
 20
325.218318
 11
88.693144
 21
324.468318
  0
LINE
  8
DIMENSION
  6
BYBLOCK
 62
     2
 10
88.693144
 20
324.468318
 11
88.693144
 21
325.968318
  0
LINE
  8
DIMENSION
  6
BYBLOCK
 62
     2
 10
92.693144
 20
326.718318
 11
92.693144
 21
316.218318
  0
TEXT
  8
DIMENSION
 62
     1
 10
-275.119356
 20
326.758318
 40
3.500000
  1
600-3000mm (Bedienseite rechts oder links lieferbar)
 50
0.000000
 41
0.840017
 51
0.000000
  7
STANDARD
 72
     5
 11
-139.494356
 21
326.758318
  0
POINT
  8
DIMENSION
  6
BYBLOCK
 62
     9
 10
-507.306856
 20
315.218334
  0
POINT
  8
DIMENSION
  6
BYBLOCK
 62
     9
 10
92.693144
 20
315.218318
  0
ENDBLK
  8
0
  0
BLOCK
  8
C
  2
B
 70
    66
 10
0.000000
 20
0.000000
 30
0.000000
  0
LINE
  8
C
  6
AUSGEZOGEN
 62
     7
 10
-504.306855
 20
120.427070
 11
-504.306855
 21
-34.372925
  0
LINE
  8
C
  6
AUSGEZOGEN
 62
     7
 10
-507.306855
 20
115.427070
 11
-507.306855
 21
-34.372925
  0
LINE
  8
C
  6
AUSGEZOGEN
 62
     7
 10
-507.306855
 20
115.427070
 11
92.693144
 21
115.427074
  0
LINE
  8
C
  6
AUSGEZOGEN
 62
     7
 10
89.693148
 20
115.427070
 11
89.693148
 21
-34.372925
  0
LINE
  8
C
  6
AUSGEZOGEN
 62
     7
 10
92.693144
 20
115.427070
 11
92.693144
 21
-34.372925
  0
LINE
  8
C
  6
AUSGEZOGEN
 62
     7
 10
-507.306855
 20
-34.372925
 11
-146.556859
 21
-34.372925
  0
LINE
  8
C
  6
AUSGEZOGEN
 62
     7
 10
-146.556859
 20
-34.372925
 11
-17.306852
 21
-34.372925
  0
LINE
  8
C
  6
AUSGEZOGEN
 62
     7
 10
-14.306852
 20
-34.372925
 11
92.693144
 21
-34.372925
  0
LINE
  8
C
  6
AUSGEZOGEN
 62
     7
 10
-504.306855
 20
-24.572929
 11
-146.556859
 21
-24.572929
  0
LINE
  8
C
  6
AUSGEZOGEN
 62
     7
 10
-146.556859
 20
-24.572929
 11
89.693148
 21
-24.572929
  0
LINE
  8
C
  6
AUSGEZOGEN
 62
     7
 10
89.693148
 20
-25.572929
 11
-146.556859
 21
-25.572929
  0
LINE
  8
C
  6
AUSGEZOGEN
 62
     7
 10
-146.556859
 20
-25.572929
 11
-504.306855
 21
-25.572929
  0
LINE
  8
C
  6
AUSGEZOGEN
 62
     7
 10
-17.306852
 20
-25.572929
 11
-17.306852
 21
-34.872925
  0
LINE
  8
C
  6
AUSGEZOGEN
 62
     7
 10
-17.306852
 20
-34.872925
 11
-14.306852
 21
-34.872925
  0
LINE
  8
C
  6
AUSGEZOGEN
 62
     7
 10
-14.306852
 20
-34.872925
 11
-14.306852
 21
-25.572929
  0
LINE
  8
C
  6
AUSGEZOGEN
 62
     7
 10
-504.306855
 20
120.427070
 11
89.693148
 21
120.427070
  0
LINE
  8
C
  6
AUSGEZOGEN
 62
     7
 10
89.693148
 20
115.427074
 11
89.693148
 21
120.427070
  0
LINE
  8
C
  6
AUSGEZOGEN
 62
     7
 10
16.193146
 20
-34.372925
 11
59.193144
 21
-34.372925
  0
LINE
  8
C
  6
AUSGEZOGEN
 62
     7
 10
66.791940
 20
-34.572723
 11
8.594348
 21
-34.572725
  0
LINE
  8
C
  6
AUSGEZOGEN
 62
     7
 10
7.693146
 20
-35.473927
 11
7.693146
 21
-52.272923
  0
ARC
  8
C
  6
AUSGEZOGEN
 62
     7
 10
7.993145
 20
-52.272927
 40
0.300000
 50
179.999236
 51
270.000191
  0
LINE
  8
C
  6
AUSGEZOGEN
 62
     7
 10
7.993146
 20
-52.572923
 11
67.393144
 21
-52.572923
  0
ARC
  8
C
  6
AUSGEZOGEN
 62
     7
 10
16.193145
 20
-34.872927
 40
0.500000
 50
89.999885
 51
143.255924
  0
LINE
  8
C
  6
AUSGEZOGEN
 62
     7
 10
7.693146
 20
-35.473927
 11
8.594348
 21
-34.572725
  0
LINE
  8
C
  6
AUSGEZOGEN
 62
     7
 10
67.693144
 20
-35.473927
 11
67.693144
 21
-52.272923
  0
ARC
  8
C
  6
AUSGEZOGEN
 62
     7
 10
67.393145
 20
-52.272927
 40
0.300000
 50
269.999809
 51
0.000764
  0
ARC
  8
C
  6
AUSGEZOGEN
 62
     7
 10
59.193145
 20
-34.872927
 40
0.500000
 50
36.744236
 51
90.000115
  0
LINE
  8
C
  6
AUSGEZOGEN
 62
     7
 10
67.693144
 20
-35.473927
 11
66.791942
 21
-34.572725
  0
LINE
  8
C
  6
AUSGEZOGEN
 62
     7
 10
7.693146
 20
-35.473925
 11
67.693142
 21
-35.473925
  0
LINE
  8
C
  6
AUSGEZOGEN
 62
     7
 10
8.412746
 20
-38.572721
 11
66.973540
 21
-38.572721
  0
LINE
  8
C
  6
AUSGEZOGEN
 62
     7
 10
8.112746
 20
-38.872721
 11
8.112746
 21
-52.272923
  0
LINE
  8
C
  6
AUSGEZOGEN
 62
     7
 10
67.273540
 20
-38.872721
 11
67.273542
 21
-52.272923
  0
ARC
  8
C
  6
AUSGEZOGEN
 62
     2
 10
66.973543
 20
-38.872725
 40
0.300000
 50
0.000764
 51
90.000573
  0
ARC
  8
C
  6
AUSGEZOGEN
 62
     2
 10
8.412746
 20
-38.872726
 40
0.300000
 50
90.000000
 51
179.999045
  0
ENDBLK
  8
0
  0
BLOCK
  8
C
  2
B-3
 70
    66
 10
0.000000
 20
0.000000
 30
0.000000
  0
CIRCLE
  8
C
  6
AUSGEZOGEN
 62
     7
 10
334.227183
 20
170.418326
 40
3.750000
  0
LINE
  8
C
  6
AUSGEZOGEN
 62
     7
 10
333.166524
 20
171.213830
 11
333.431688
 21
170.418334
  0
LINE
  8
C
  6
AUSGEZOGEN
 62
     7
 10
333.166524
 20
170.418334
 11
332.676948
 21
171.519750
  0
LINE
  8
C
  6
AUSGEZOGEN
 62
     7
 10
332.676948
 20
169.316918
 11
333.166524
 21
170.418334
  0
LINE
  8
C
  6
AUSGEZOGEN
 62
     7
 10
333.166524
 20
169.622838
 11
333.431688
 21
170.418334
  0
LINE
  8
C
  6
AUSGEZOGEN
 62
     7
 10
333.166524
 20
169.622838
 11
332.187372
 21
169.010998
  0
LINE
  8
C
  6
AUSGEZOGEN
 62
     7
 10
332.513756
 20
169.214946
 11
333.023792
 21
168.704906
  0
LINE
  8
C
  6
AUSGEZOGEN
 62
     7
 10
333.166524
 20
169.622838
 11
333.431688
 21
169.357674
  0
LINE
  8
C
  6
AUSGEZOGEN
 62
     7
 10
333.431688
 20
169.357674
 11
332.819848
 21
168.378526
  0
LINE
  8
C
  6
AUSGEZOGEN
 62
     7
 10
334.227184
 20
169.357674
 11
333.125768
 21
168.868098
  0
LINE
  8
C
  6
AUSGEZOGEN
 62
     7
 10
333.431688
 20
169.357674
 11
334.227184
 21
169.622838
  0
LINE
  8
C
  6
AUSGEZOGEN
 62
     7
 10
334.227184
 20
169.357674
 11
334.227184
 21
169.622838
  0
LINE
  8
C
  6
AUSGEZOGEN
 62
     7
 10
335.328600
 20
168.868102
 11
334.227184
 21
169.357674
  0
LINE
  8
C
  6
AUSGEZOGEN
 62
     7
 10
334.227184
 20
169.622838
 11
335.022680
 21
169.357674
  0
LINE
  8
C
  6
AUSGEZOGEN
 62
     7
 10
335.022680
 20
169.357674
 11
335.634520
 21
168.378526
  0
LINE
  8
C
  6
AUSGEZOGEN
 62
     7
 10
335.022680
 20
169.357674
 11
335.287844
 21
169.622838
  0
LINE
  8
C
  6
AUSGEZOGEN
 62
     7
 10
335.287844
 20
169.622838
 11
336.266992
 21
169.010998
  0
LINE
  8
C
  6
AUSGEZOGEN
 62
     7
 10
335.430572
 20
168.704906
 11
335.940608
 21
169.214946
  0
LINE
  8
C
  6
AUSGEZOGEN
 62
     7
 10
335.287844
 20
170.418334
 11
335.777416
 21
169.316918
  0
LINE
  8
C
  6
AUSGEZOGEN
 62
     7
 10
335.287844
 20
169.622838
 11
335.022680
 21
170.418334
  0
LINE
  8
C
  6
AUSGEZOGEN
 62
     7
 10
335.022680
 20
170.418334
 11
335.287844
 21
170.418334
  0
LINE
  8
C
  6
AUSGEZOGEN
 62
     7
 10
335.287844
 20
171.213830
 11
335.022680
 21
170.418334
  0
LINE
  8
C
  6
AUSGEZOGEN
 62
     7
 10
335.777416
 20
171.519750
 11
335.287844
 21
170.418334
  0
LINE
  8
C
  6
AUSGEZOGEN
 62
     7
 10
335.287844
 20
171.213830
 11
336.266992
 21
171.825670
  0
LINE
  8
C
  6
AUSGEZOGEN
 62
     7
 10
335.287844
 20
171.213830
 11
335.022676
 21
171.478994
  0
LINE
  8
C
  6
AUSGEZOGEN
 62
     7
 10
335.022676
 20
171.478994
 11
335.634520
 21
172.458142
  0
LINE
  8
C
  6
AUSGEZOGEN
 62
     7
 10
335.940608
 20
171.621722
 11
335.430572
 21
172.131762
  0
LINE
  8
C
  6
AUSGEZOGEN
 62
     7
 10
335.022676
 20
171.478994
 11
334.227184
 21
171.213830
  0
LINE
  8
C
  6
AUSGEZOGEN
 62
     7
 10
334.227184
 20
171.478994
 11
335.328600
 21
171.968570
  0
LINE
  8
C
  6
AUSGEZOGEN
 62
     7
 10
333.431688
 20
171.478994
 11
334.227184
 21
171.213830
  0
LINE
  8
C
  6
AUSGEZOGEN
 62
     7
 10
333.125768
 20
171.968570
 11
334.227184
 21
171.478994
  0
LINE
  8
C
  6
AUSGEZOGEN
 62
     7
 10
334.227184
 20
171.478994
 11
334.227184
 21
171.213830
  0
LINE
  8
C
  6
AUSGEZOGEN
 62
     7
 10
333.166524
 20
170.418334
 11
333.431688
 21
170.418334
  0
LINE
  8
C
  6
AUSGEZOGEN
 62
     7
 10
333.166524
 20
171.213830
 11
332.187372
 21
171.825670
  0
LINE
  8
C
  6
AUSGEZOGEN
 62
     7
 10
333.431688
 20
171.478994
 11
332.819848
 21
172.458142
  0
LINE
  8
C
  6
AUSGEZOGEN
 62
     7
 10
333.023796
 20
172.131762
 11
332.513756
 21
171.621722
  0
LINE
  8
C
  6
AUSGEZOGEN
 62
     7
 10
333.431688
 20
171.478994
 11
333.166524
 21
171.213830
  0
CIRCLE
  8
C
  6
AUSGEZOGEN
 62
     7
 10
334.227183
 20
310.218318
 40
3.750000
  0
LINE
  8
C
  6
AUSGEZOGEN
 62
     7
 10
333.166524
 20
311.013810
 11
333.431688
 21
310.218314
  0
LINE
  8
C
  6
AUSGEZOGEN
 62
     7
 10
333.166524
 20
310.218314
 11
332.676948
 21
311.319730
  0
LINE
  8
C
  6
AUSGEZOGEN
 62
     7
 10
332.676948
 20
309.116902
 11
333.166524
 21
310.218314
  0
LINE
  8
C
  6
AUSGEZOGEN
 62
     7
 10
333.166524
 20
309.422822
 11
333.431688
 21
310.218314
  0
LINE
  8
C
  6
AUSGEZOGEN
 62
     7
 10
333.166524
 20
309.422822
 11
332.187372
 21
308.810982
  0
LINE
  8
C
  6
AUSGEZOGEN
 62
     7
 10
332.513756
 20
309.014926
 11
333.023792
 21
308.504890
  0
LINE
  8
C
  6
AUSGEZOGEN
 62
     7
 10
333.166524
 20
309.422822
 11
333.431688
 21
309.157654
  0
LINE
  8
C
  6
AUSGEZOGEN
 62
     7
 10
333.431688
 20
309.157654
 11
332.819848
 21
308.178506
  0
LINE
  8
C
  6
AUSGEZOGEN
 62
     7
 10
334.227184
 20
309.157654
 11
333.125768
 21
308.668082
  0
LINE
  8
C
  6
AUSGEZOGEN
 62
     7
 10
333.431688
 20
309.157654
 11
334.227184
 21
309.422822
  0
LINE
  8
C
  6
AUSGEZOGEN
 62
     7
 10
334.227184
 20
309.157654
 11
334.227184
 21
309.422822
  0
LINE
  8
C
  6
AUSGEZOGEN
 62
     7
 10
335.328600
 20
308.668082
 11
334.227184
 21
309.157654
  0
LINE
  8
C
  6
AUSGEZOGEN
 62
     7
 10
334.227184
 20
309.422822
 11
335.022680
 21
309.157654
  0
LINE
  8
C
  6
AUSGEZOGEN
 62
     7
 10
335.022680
 20
309.157654
 11
335.634520
 21
308.178506
  0
LINE
  8
C
  6
AUSGEZOGEN
 62
     7
 10
335.022680
 20
309.157654
 11
335.287844
 21
309.422822
  0
LINE
  8
C
  6
AUSGEZOGEN
 62
     7
 10
335.287844
 20
309.422822
 11
336.266992
 21
308.810982
  0
LINE
  8
C
  6
AUSGEZOGEN
 62
     7
 10
335.430572
 20
308.504890
 11
335.940608
 21
309.014926
  0
LINE
  8
C
  6
AUSGEZOGEN
 62
     7
 10
335.287844
 20
310.218314
 11
335.777416
 21
309.116902
  0
LINE
  8
C
  6
AUSGEZOGEN
 62
     7
 10
335.287844
 20
309.422822
 11
335.022680
 21
310.218314
  0
LINE
  8
C
  6
AUSGEZOGEN
 62
     7
 10
335.022680
 20
310.218314
 11
335.287844
 21
310.218314
  0
LINE
  8
C
  6
AUSGEZOGEN
 62
     7
 10
335.287844
 20
311.013810
 11
335.022680
 21
310.218314
  0
LINE
  8
C
  6
AUSGEZOGEN
 62
     7
 10
335.777416
 20
311.319730
 11
335.287844
 21
310.218314
  0
LINE
  8
C
  6
AUSGEZOGEN
 62
     7
 10
335.287844
 20
311.013810
 11
336.266992
 21
311.625650
  0
LINE
  8
C
  6
AUSGEZOGEN
 62
     7
 10
335.287844
 20
311.013810
 11
335.022676
 21
311.278978
  0
LINE
  8
C
  6
AUSGEZOGEN
 62
     7
 10
335.022676
 20
311.278978
 11
335.634520
 21
312.258126
  0
LINE
  8
C
  6
AUSGEZOGEN
 62
     7
 10
335.940608
 20
311.421706
 11
335.430572
 21
311.931742
  0
LINE
  8
C
  6
AUSGEZOGEN
 62
     7
 10
335.022676
 20
311.278978
 11
334.227184
 21
311.013810
  0
LINE
  8
C
  6
AUSGEZOGEN
 62
     7
 10
334.227184
 20
311.278974
 11
335.328600
 21
311.768550
  0
LINE
  8
C
  6
AUSGEZOGEN
 62
     7
 10
333.431688
 20
311.278974
 11
334.227184
 21
311.013810
  0
LINE
  8
C
  6
AUSGEZOGEN
 62
     7
 10
333.125768
 20
311.768550
 11
334.227184
 21
311.278974
  0
LINE
  8
C
  6
AUSGEZOGEN
 62
     7
 10
334.227184
 20
311.278974
 11
334.227184
 21
311.013810
  0
LINE
  8
C
  6
AUSGEZOGEN
 62
     7
 10
333.166524
 20
310.218314
 11
333.431688
 21
310.218314
  0
LINE
  8
C
  6
AUSGEZOGEN
 62
     7
 10
333.166524
 20
311.013810
 11
332.187372
 21
311.625650
  0
LINE
  8
C
  6
AUSGEZOGEN
 62
     7
 10
333.431688
 20
311.278974
 11
332.819848
 21
312.258126
  0
LINE
  8
C
  6
AUSGEZOGEN
 62
     7
 10
333.023796
 20
311.931742
 11
332.513756
 21
311.421706
  0
LINE
  8
C
  6
AUSGEZOGEN
 62
     7
 10
333.431688
 20
311.278974
 11
333.166524
 21
311.013810
  0
LINE
  8
C
  6
AUSGEZOGEN
 62
     7
 10
361.227184
 20
315.218318
 11
229.966548
 21
315.218318
  0
LINE
  8
C
  6
AUSGEZOGEN
 62
     7
 10
212.427188
 20
165.418330
 11
361.227184
 21
165.418330
  0
ARC
  8
C
  6
AUSGEZOGEN
 62
     7
 10
361.227185
 20
166.418321
 40
1.000000
 50
269.999943
 51
0.000745
  0
LINE
  8
C
  6
AUSGEZOGEN
 62
     7
 10
362.227184
 20
314.218318
 11
362.227184
 21
166.418334
  0
ARC
  8
C
  6
AUSGEZOGEN
 62
     7
 10
361.227185
 20
314.218319
 40
1.000000
 50
359.999943
 51
90.000057
  0
LINE
  8
C
  6
AUSGEZOGEN
 62
     7
 10
212.427188
 20
165.418330
 11
212.427188
 21
314.713350
  0
ARC
  8
C
  6
AUSGEZOGEN
 62
     7
 10
212.927188
 20
314.713358
 40
0.500000
 50
90.000000
 51
180.000917
  0
LINE
  8
C
  6
AUSGEZOGEN
 62
     7
 10
212.927188
 20
315.213350
 11
238.865560
 21
315.213350
  0
LINE
  8
C
  6
AUSGEZOGEN
 62
     7
 10
207.427188
 20
172.417840
 11
207.427188
 21
307.713354
  0
LINE
  8
C
  6
AUSGEZOGEN
 62
     7
 10
207.427188
 20
307.713350
 11
212.427188
 21
307.713350
  0
LINE
  8
C
  6
AUSGEZOGEN
 62
     7
 10
212.427188
 20
172.417840
 11
212.427188
 21
172.417840
  0
LINE
  8
C
  6
AUSGEZOGEN
 62
     7
 10
212.427188
 20
172.417840
 11
207.427188
 21
172.417840
  0
CIRCLE
  8
C
  6
AUSGEZOGEN
 62
     7
 10
219.927188
 20
310.218318
 40
3.750000
  0
LINE
  8
C
  6
AUSGEZOGEN
 62
     7
 10
218.866530
 20
311.013810
 11
219.131694
 21
310.218314
  0
LINE
  8
C
  6
AUSGEZOGEN
 62
     7
 10
218.866530
 20
310.218314
 11
218.376954
 21
311.319730
  0
LINE
  8
C
  6
AUSGEZOGEN
 62
     7
 10
218.376954
 20
309.116902
 11
218.866530
 21
310.218314
  0
LINE
  8
C
  6
AUSGEZOGEN
 62
     7
 10
218.866530
 20
309.422822
 11
219.131694
 21
310.218314
  0
LINE
  8
C
  6
AUSGEZOGEN
 62
     7
 10
218.866530
 20
309.422822
 11
217.887378
 21
308.810982
  0
LINE
  8
C
  6
AUSGEZOGEN
 62
     7
 10
218.213762
 20
309.014926
 11
218.723798
 21
308.504890
  0
LINE
  8
C
  6
AUSGEZOGEN
 62
     7
 10
218.866530
 20
309.422822
 11
219.131694
 21
309.157654
  0
LINE
  8
C
  6
AUSGEZOGEN
 62
     7
 10
219.131694
 20
309.157654
 11
218.519854
 21
308.178506
  0
LINE
  8
C
  6
AUSGEZOGEN
 62
     7
 10
219.927190
 20
309.157654
 11
218.825774
 21
308.668082
  0
LINE
  8
C
  6
AUSGEZOGEN
 62
     7
 10
219.131694
 20
309.157654
 11
219.927190
 21
309.422822
  0
LINE
  8
C
  6
AUSGEZOGEN
 62
     7
 10
219.927190
 20
309.157654
 11
219.927190
 21
309.422822
  0
LINE
  8
C
  6
AUSGEZOGEN
 62
     7
 10
221.028606
 20
308.668082
 11
219.927190
 21
309.157654
  0
LINE
  8
C
  6
AUSGEZOGEN
 62
     7
 10
219.927190
 20
309.422822
 11
220.722686
 21
309.157654
  0
LINE
  8
C
  6
AUSGEZOGEN
 62
     7
 10
220.722686
 20
309.157654
 11
221.334526
 21
308.178506
  0
LINE
  8
C
  6
AUSGEZOGEN
 62
     7
 10
220.722686
 20
309.157654
 11
220.987850
 21
309.422822
  0
LINE
  8
C
  6
AUSGEZOGEN
 62
     7
 10
220.987850
 20
309.422822
 11
221.966998
 21
308.810982
  0
LINE
  8
C
  6
AUSGEZOGEN
 62
     7
 10
221.130578
 20
308.504890
 11
221.640614
 21
309.014926
  0
LINE
  8
C
  6
AUSGEZOGEN
 62
     7
 10
220.987850
 20
310.218314
 11
221.477422
 21
309.116902
  0
LINE
  8
C
  6
AUSGEZOGEN
 62
     7
 10
220.987850
 20
309.422822
 11
220.722686
 21
310.218314
  0
LINE
  8
C
  6
AUSGEZOGEN
 62
     7
 10
220.722686
 20
310.218314
 11
220.987850
 21
310.218314
  0
LINE
  8
C
  6
AUSGEZOGEN
 62
     7
 10
220.987850
 20
311.013810
 11
220.722686
 21
310.218314
  0
LINE
  8
C
  6
AUSGEZOGEN
 62
     7
 10
221.477422
 20
311.319730
 11
220.987850
 21
310.218314
  0
LINE
  8
C
  6
AUSGEZOGEN
 62
     7
 10
220.987850
 20
311.013810
 11
221.966998
 21
311.625650
  0
LINE
  8
C
  6
AUSGEZOGEN
 62
     7
 10
220.987850
 20
311.013810
 11
220.722682
 21
311.278978
  0
LINE
  8
C
  6
AUSGEZOGEN
 62
     7
 10
220.722682
 20
311.278978
 11
221.334526
 21
312.258126
  0
LINE
  8
C
  6
AUSGEZOGEN
 62
     7
 10
221.640614
 20
311.421706
 11
221.130578
 21
311.931742
  0
LINE
  8
C
  6
AUSGEZOGEN
 62
     7
 10
220.722682
 20
311.278978
 11
219.927190
 21
311.013810
  0
LINE
  8
C
  6
AUSGEZOGEN
 62
     7
 10
219.927190
 20
311.278974
 11
221.028606
 21
311.768550
  0
LINE
  8
C
  6
AUSGEZOGEN
 62
     7
 10
219.131694
 20
311.278974
 11
219.927190
 21
311.013810
  0
LINE
  8
C
  6
AUSGEZOGEN
 62
     7
 10
218.825774
 20
311.768550
 11
219.927190
 21
311.278974
  0
LINE
  8
C
  6
AUSGEZOGEN
 62
     7
 10
219.927190
 20
311.278974
 11
219.927190
 21
311.013810
  0
LINE
  8
C
  6
AUSGEZOGEN
 62
     7
 10
218.866530
 20
310.218314
 11
219.131694
 21
310.218314
  0
LINE
  8
C
  6
AUSGEZOGEN
 62
     7
 10
218.866530
 20
311.013810
 11
217.887378
 21
311.625650
  0
LINE
  8
C
  6
AUSGEZOGEN
 62
     7
 10
219.131694
 20
311.278974
 11
218.519854
 21
312.258126
  0
LINE
  8
C
  6
AUSGEZOGEN
 62
     7
 10
218.723802
 20
311.931742
 11
218.213762
 21
311.421706
  0
LINE
  8
C
  6
AUSGEZOGEN
 62
     7
 10
219.131694
 20
311.278974
 11
218.866530
 21
311.013810
  0
CIRCLE
  8
C
  6
AUSGEZOGEN
 62
     7
 10
219.927188
 20
170.213356
 40
3.750000
  0
LINE
  8
C
  6
AUSGEZOGEN
 62
     7
 10
218.866530
 20
171.008848
 11
219.131694
 21
170.213352
  0
LINE
  8
C
  6
AUSGEZOGEN
 62
     7
 10
218.866530
 20
170.213352
 11
218.376954
 21
171.314768
  0
LINE
  8
C
  6
AUSGEZOGEN
 62
     7
 10
218.376954
 20
169.111940
 11
218.866530
 21
170.213352
  0
LINE
  8
C
  6
AUSGEZOGEN
 62
     7
 10
218.866530
 20
169.417860
 11
219.131694
 21
170.213352
  0
LINE
  8
C
  6
AUSGEZOGEN
 62
     7
 10
218.866530
 20
169.417860
 11
217.887378
 21
168.806020
  0
LINE
  8
C
  6
AUSGEZOGEN
 62
     7
 10
218.213762
 20
169.009964
 11
218.723798
 21
168.499928
  0
LINE
  8
C
  6
AUSGEZOGEN
 62
     7
 10
218.866530
 20
169.417860
 11
219.131694
 21
169.152692
  0
LINE
  8
C
  6
AUSGEZOGEN
 62
     7
 10
219.131694
 20
169.152692
 11
218.519854
 21
168.173544
  0
LINE
  8
C
  6
AUSGEZOGEN
 62
     7
 10
219.927190
 20
169.152692
 11
218.825774
 21
168.663120
  0
LINE
  8
C
  6
AUSGEZOGEN
 62
     7
 10
219.131694
 20
169.152692
 11
219.927190
 21
169.417860
  0
LINE
  8
C
  6
AUSGEZOGEN
 62
     7
 10
219.927190
 20
169.152692
 11
219.927190
 21
169.417860
  0
LINE
  8
C
  6
AUSGEZOGEN
 62
     7
 10
221.028606
 20
168.663120
 11
219.927190
 21
169.152692
  0
LINE
  8
C
  6
AUSGEZOGEN
 62
     7
 10
219.927190
 20
169.417860
 11
220.722686
 21
169.152692
  0
LINE
  8
C
  6
AUSGEZOGEN
 62
     7
 10
220.722686
 20
169.152692
 11
221.334526
 21
168.173544
  0
LINE
  8
C
  6
AUSGEZOGEN
 62
     7
 10
220.722686
 20
169.152692
 11
220.987850
 21
169.417860
  0
LINE
  8
C
  6
AUSGEZOGEN
 62
     7
 10
220.987850
 20
169.417860
 11
221.966998
 21
168.806020
  0
LINE
  8
C
  6
AUSGEZOGEN
 62
     7
 10
221.130578
 20
168.499928
 11
221.640614
 21
169.009964
  0
LINE
  8
C
  6
AUSGEZOGEN
 62
     7
 10
220.987850
 20
170.213352
 11
221.477422
 21
169.111940
  0
LINE
  8
C
  6
AUSGEZOGEN
 62
     7
 10
220.987850
 20
169.417860
 11
220.722686
 21
170.213352
  0
LINE
  8
C
  6
AUSGEZOGEN
 62
     7
 10
220.722686
 20
170.213352
 11
220.987850
 21
170.213352
  0
LINE
  8
C
  6
AUSGEZOGEN
 62
     7
 10
220.987850
 20
171.008848
 11
220.722686
 21
170.213352
  0
LINE
  8
C
  6
AUSGEZOGEN
 62
     7
 10
221.477422
 20
171.314768
 11
220.987850
 21
170.213352
  0
LINE
  8
C
  6
AUSGEZOGEN
 62
     7
 10
220.987850
 20
171.008848
 11
221.966998
 21
171.620688
  0
LINE
  8
C
  6
AUSGEZOGEN
 62
     7
 10
220.987850
 20
171.008848
 11
220.722682
 21
171.274016
  0
LINE
  8
C
  6
AUSGEZOGEN
 62
     7
 10
220.722682
 20
171.274016
 11
221.334526
 21
172.253164
  0
LINE
  8
C
  6
AUSGEZOGEN
 62
     7
 10
221.640614
 20
171.416744
 11
221.130578
 21
171.926780
  0
LINE
  8
C
  6
AUSGEZOGEN
 62
     7
 10
220.722682
 20
171.274016
 11
219.927190
 21
171.008848
  0
LINE
  8
C
  6
AUSGEZOGEN
 62
     7
 10
219.927190
 20
171.274012
 11
221.028606
 21
171.763588
  0
LINE
  8
C
  6
AUSGEZOGEN
 62
     7
 10
219.131694
 20
171.274012
 11
219.927190
 21
171.008848
  0
LINE
  8
C
  6
AUSGEZOGEN
 62
     7
 10
218.825774
 20
171.763588
 11
219.927190
 21
171.274012
  0
LINE
  8
C
  6
AUSGEZOGEN
 62
     7
 10
219.927190
 20
171.274012
 11
219.927190
 21
171.008848
  0
LINE
  8
C
  6
AUSGEZOGEN
 62
     7
 10
218.866530
 20
170.213352
 11
219.131694
 21
170.213352
  0
LINE
  8
C
  6
AUSGEZOGEN
 62
     7
 10
218.866530
 20
171.008848
 11
217.887378
 21
171.620688
  0
LINE
  8
C
  6
AUSGEZOGEN
 62
     7
 10
219.131694
 20
171.274012
 11
218.519854
 21
172.253164
  0
LINE
  8
C
  6
AUSGEZOGEN
 62
     7
 10
218.723802
 20
171.926780
 11
218.213762
 21
171.416744
  0
LINE
  8
C
  6
AUSGEZOGEN
 62
     7
 10
219.131694
 20
171.274012
 11
218.866530
 21
171.008848
  0
LINE
  8
C
  6
AUSGEZOGEN
 62
     7
 10
362.227182
 20
218.565840
 11
362.227182
 21
261.565838
  0
LINE
  8
C
  6
AUSGEZOGEN
 62
     7
 10
362.426982
 20
269.164634
 11
362.426982
 21
210.967042
  0
LINE
  8
C
  6
AUSGEZOGEN
 62
     7
 10
363.328184
 20
210.065840
 11
366.426980
 21
210.065840
  0
LINE
  8
C
  6
AUSGEZOGEN
 62
     7
 10
380.427182
 20
235.065838
 11
380.427182
 21
245.065838
  0
ARC
  8
C
  6
AUSGEZOGEN
 62
     7
 10
362.727186
 20
218.565841
 40
0.500000
 50
180.000115
 51
233.256084
  0
LINE
  8
C
  6
AUSGEZOGEN
 62
     7
 10
363.328184
 20
210.065840
 11
362.426982
 21
210.967042
  0
LINE
  8
C
  6
AUSGEZOGEN
 62
     7
 10
363.328184
 20
270.065838
 11
366.426978
 21
270.065838
  0
ARC
  8
C
  6
AUSGEZOGEN
 62
     7
 10
362.727186
 20
261.565841
 40
0.500000
 50
126.744397
 51
180.000344
  0
LINE
  8
C
  6
AUSGEZOGEN
 62
     7
 10
363.328184
 20
270.065838
 11
362.426982
 21
269.164636
  0
LINE
  8
C
  6
AUSGEZOGEN
 62
     7
 10
363.328184
 20
210.065840
 11
363.328184
 21
270.065836
  0
LINE
  8
C
  6
AUSGEZOGEN
 62
     7
 10
366.426980
 20
210.065840
 11
366.426980
 21
235.065838
  0
LINE
  8
C
  6
AUSGEZOGEN
 62
     7
 10
366.426978
 20
245.065838
 11
366.426978
 21
270.065838
  0
LINE
  8
C
  6
AUSGEZOGEN
 62
     7
 10
366.426980
 20
235.065838
 11
380.427182
 21
235.065838
  0
LINE
  8
C
  6
AUSGEZOGEN
 62
     7
 10
380.427182
 20
245.065838
 11
366.426978
 21
245.065838
  0
TEXT
  8
TEXT
 62
     7
 10
255.978189
 20
250.907267
 40
10.000000
  1
AEROMAT 150
 50
0.000000
 41
0.786627
 51
0.000000
  7
STANDARD
 72
     5
 11
335.978189
 21
250.907267
  0
TEXT
  8
TEXT
 62
     7
 10
255.978189
 20
232.107267
 40
10.000000
  1
Typ DD
 50
0.000000
 41
0.749559
 51
0.000000
  7
STANDARD
 72
     5
 11
298.478189
 21
232.107267
  0
ENDBLK
  8
0
  0
BLOCK
  8
C
  2
B-5
 70
    66
 10
0.000000
 20
0.000000
 30
0.000000
  0
LINE
  8
C
  6
AUSGEZOGEN
 62
     2
 10
17.962378
 20
240.565842
 11
13.154684
 21
240.565842
  0
ARC
  8
C
  6
AUSGEZOGEN
 62
     2
 10
13.154682
 20
240.104301
 40
0.461538
 50
89.999503
 51
179.999628
  0
LINE
  8
C
  6
AUSGEZOGEN
 62
     2
 10
12.693148
 20
240.104304
 11
12.693148
 21
239.258150
  0
LINE
  8
C
  6
AUSGEZOGEN
 62
     2
 10
18.423914
 20
239.785622
 11
18.423912
 21
240.104304
  0
ARC
  8
C
  6
AUSGEZOGEN
 62
     2
 10
17.962373
 20
240.104302
 40
0.461538
 50
0.000248
 51
89.999379
  0
LINE
  8
C
  6
AUSGEZOGEN
 62
     2
 10
12.693148
 20
238.346062
 11
12.693146
 21
238.027382
  0
ARC
  8
C
  6
AUSGEZOGEN
 62
     2
 10
13.154682
 20
238.027378
 40
0.461538
 50
179.999503
 51
270.000497
  0
LINE
  8
C
  6
AUSGEZOGEN
 62
     2
 10
13.154686
 20
237.565844
 11
17.962376
 21
237.565844
  0
ARC
  8
C
  6
AUSGEZOGEN
 62
     2
 10
17.962373
 20
238.027379
 40
0.461538
 50
270.000621
 51
0.000621
  0
LINE
  8
C
  6
AUSGEZOGEN
 62
     2
 10
18.423914
 20
238.027384
 11
18.423916
 21
238.873536
  0
LINE
  8
C
  6
AUSGEZOGEN
 62
     2
 10
20.000836
 20
240.565840
 11
20.000836
 21
237.565842
  0
LINE
  8
C
  6
AUSGEZOGEN
 62
     2
 10
22.308528
 20
237.565842
 11
22.308528
 21
240.565840
  0
LINE
  8
C
  6
AUSGEZOGEN
 62
     2
 10
22.308528
 20
240.565840
 11
20.000836
 21
240.565840
  0
LINE
  8
C
  6
AUSGEZOGEN
 62
     2
 10
20.000836
 20
237.565842
 11
22.308528
 21
237.565842
  0
LINE
  8
C
  6
AUSGEZOGEN
 62
     2
 10
29.616220
 20
239.796610
 11
27.116220
 21
239.796610
  0
LINE
  8
C
  6
AUSGEZOGEN
 62
     2
 10
29.616220
 20
238.335074
 11
27.116220
 21
238.335074
  0
ARC
  8
C
  6
AUSGEZOGEN
 62
     2
 10
26.731604
 20
239.796610
 40
0.384615
 50
0.000000
 51
90.000000
  0
ARC
  8
C
  6
AUSGEZOGEN
 62
     2
 10
26.731604
 20
239.796610
 40
0.384615
 50
90.000000
 51
180.000000
  0
LINE
  8
C
  6
AUSGEZOGEN
 62
     2
 10
26.346988
 20
239.796610
 11
26.346990
 21
239.326278
  0
LINE
  8
C
  6
AUSGEZOGEN
 62
     2
 10
26.346990
 20
238.805402
 11
26.346988
 21
238.335074
  0
ARC
  8
C
  6
AUSGEZOGEN
 62
     2
 10
26.731604
 20
238.335071
 40
0.384615
 50
179.999553
 51
270.000000
  0
ARC
  8
C
  6
AUSGEZOGEN
 62
     2
 10
26.731604
 20
238.335071
 40
0.384615
 50
270.000000
 51
0.000447
  0
LINE
  8
C
  6
AUSGEZOGEN
 62
     2
 10
29.616220
 20
239.796610
 11
29.616220
 21
240.565840
  0
LINE
  8
C
  6
AUSGEZOGEN
 62
     2
 10
29.616220
 20
240.565840
 11
23.846988
 21
240.565840
  0
LINE
  8
C
  6
AUSGEZOGEN
 62
     2
 10
23.846988
 20
240.565840
 11
23.846988
 21
237.565842
  0
LINE
  8
C
  6
AUSGEZOGEN
 62
     2
 10
23.846988
 20
237.565842
 11
29.616220
 21
237.565842
  0
LINE
  8
C
  6
AUSGEZOGEN
 62
     2
 10
29.616220
 20
237.565842
 11
29.616220
 21
238.335074
  0
ARC
  8
C
  6
AUSGEZOGEN
 62
     2
 10
34.231604
 20
239.796610
 40
0.384615
 50
0.000000
 51
90.000000
  0
ARC
  8
C
  6
AUSGEZOGEN
 62
     2
 10
34.231604
 20
239.796610
 40
0.384615
 50
90.000000
 51
180.000000
  0
LINE
  8
C
  6
AUSGEZOGEN
 62
     2
 10
33.846988
 20
239.796610
 11
33.846988
 21
238.335074
  0
ARC
  8
C
  6
AUSGEZOGEN
 62
     2
 10
34.231604
 20
238.335071
 40
0.384615
 50
179.999553
 51
270.000000
  0
ARC
  8
C
  6
AUSGEZOGEN
 62
     2
 10
34.231604
 20
238.335071
 40
0.384615
 50
270.000000
 51
0.000447
  0
LINE
  8
C
  6
AUSGEZOGEN
 62
     2
 10
34.616222
 20
238.653754
 11
34.616220
 21
238.335074
  0
LINE
  8
C
  6
AUSGEZOGEN
 62
     2
 10
37.116222
 20
239.796608
 11
37.116220
 21
240.181226
  0
LINE
  8
C
  6
AUSGEZOGEN
 62
     2
 10
36.731604
 20
240.565840
 11
31.731604
 21
240.565840
  0
ARC
  8
C
  6
AUSGEZOGEN
 62
     2
 10
36.731604
 20
240.181225
 40
0.384615
 50
0.000149
 51
90.000000
  0
LINE
  8
C
  6
AUSGEZOGEN
 62
     2
 10
31.346988
 20
240.181226
 11
31.346988
 21
237.950458
  0
ARC
  8
C
  6
AUSGEZOGEN
 62
     2
 10
31.731604
 20
240.181225
 40
0.384615
 50
90.000000
 51
179.999851
  0
ARC
  8
C
  6
AUSGEZOGEN
 62
     2
 10
31.731604
 20
237.950456
 40
0.384615
 50
179.999702
 51
270.000000
  0
LINE
  8
C
  6
AUSGEZOGEN
 62
     2
 10
31.731604
 20
237.565842
 11
36.731604
 21
237.565842
  0
ARC
  8
C
  6
AUSGEZOGEN
 62
     2
 10
36.731604
 20
237.950456
 40
0.384615
 50
270.000000
 51
0.000298
  0
LINE
  8
C
  6
AUSGEZOGEN
 62
     2
 10
37.116220
 20
237.950458
 11
37.116220
 21
239.192216
  0
LINE
  8
C
  6
AUSGEZOGEN
 62
     2
 10
44.423912
 20
239.796610
 11
41.923912
 21
239.796610
  0
LINE
  8
C
  6
AUSGEZOGEN
 62
     2
 10
44.423912
 20
238.335074
 11
41.923912
 21
238.335074
  0
ARC
  8
C
  6
AUSGEZOGEN
 62
     2
 10
41.539297
 20
239.796610
 40
0.384615
 50
0.000000
 51
89.999851
  0
ARC
  8
C
  6
AUSGEZOGEN
 62
     2
 10
41.539297
 20
239.796610
 40
0.384615
 50
89.999851
 51
180.000000
  0
LINE
  8
C
  6
AUSGEZOGEN
 62
     2
 10
41.154682
 20
239.796610
 11
41.154680
 21
239.340566
  0
LINE
  8
C
  6
AUSGEZOGEN
 62
     2
 10
41.154680
 20
238.791116
 11
41.154682
 21
238.335074
  0
ARC
  8
C
  6
AUSGEZOGEN
 62
     2
 10
41.539297
 20
238.335071
 40
0.384615
 50
179.999553
 51
270.000149
  0
ARC
  8
C
  6
AUSGEZOGEN
 62
     2
 10
41.539297
 20
238.335071
 40
0.384615
 50
270.000149
 51
0.000447
  0
LINE
  8
C
  6
AUSGEZOGEN
 62
     2
 10
44.423912
 20
239.796610
 11
44.423912
 21
240.565840
  0
LINE
  8
C
  6
AUSGEZOGEN
 62
     2
 10
44.423912
 20
240.565840
 11
38.654682
 21
240.565840
  0
LINE
  8
C
  6
AUSGEZOGEN
 62
     2
 10
38.654682
 20
240.565840
 11
38.654682
 21
237.565842
  0
LINE
  8
C
  6
AUSGEZOGEN
 62
     2
 10
38.654682
 20
237.565842
 11
44.423912
 21
237.565842
  0
LINE
  8
C
  6
AUSGEZOGEN
 62
     2
 10
44.423912
 20
237.565842
 11
44.423912
 21
238.335074
  0
LINE
  8
C
  6
AUSGEZOGEN
 62
     2
 10
45.770066
 20
240.565840
 11
45.770066
 21
237.565842
  0
LINE
  8
C
  6
AUSGEZOGEN
 62
     2
 10
51.539298
 20
240.565840
 11
51.539298
 21
237.565842
  0
LINE
  8
C
  6
AUSGEZOGEN
 62
     2
 10
48.411134
 20
237.565842
 11
51.539298
 21
237.565842
  0
LINE
  8
C
  6
AUSGEZOGEN
 62
     2
 10
48.898228
 20
240.565840
 11
45.770066
 21
240.565840
  0
LINE
  8
C
  6
AUSGEZOGEN
 62
     2
 10
55.385450
 20
237.565842
 11
55.385450
 21
240.565840
  0
LINE
  8
C
  6
AUSGEZOGEN
 62
     2
 10
55.385450
 20
240.565840
 11
53.077758
 21
240.565840
  0
LINE
  8
C
  6
AUSGEZOGEN
 62
     2
 10
53.077758
 20
240.565840
 11
53.077758
 21
237.565842
  0
LINE
  8
C
  6
AUSGEZOGEN
 62
     2
 10
53.077758
 20
237.565842
 11
55.385450
 21
237.565842
  0
LINE
  8
C
  6
AUSGEZOGEN
 62
     2
 10
56.923912
 20
237.565842
 11
58.655962
 21
240.565840
  0
LINE
  8
C
  6
AUSGEZOGEN
 62
     2
 10
58.655962
 20
240.565840
 11
60.961092
 21
240.565840
  0
LINE
  8
C
  6
AUSGEZOGEN
 62
     2
 10
60.961092
 20
240.565840
 11
62.693142
 21
237.565842
  0
LINE
  8
C
  6
AUSGEZOGEN
 62
     2
 10
62.693142
 20
237.565842
 11
60.385450
 21
237.565842
  0
LINE
  8
C
  6
AUSGEZOGEN
 62
     2
 10
60.163392
 20
237.950458
 11
58.034202
 21
237.950458
  0
LINE
  8
C
  6
AUSGEZOGEN
 62
     2
 10
46.539298
 20
239.796610
 11
48.411134
 21
237.565842
  0
LINE
  8
C
  6
AUSGEZOGEN
 62
     2
 10
46.539298
 20
237.565842
 11
46.539298
 21
239.796610
  0
LINE
  8
C
  6
AUSGEZOGEN
 62
     2
 10
45.770066
 20
237.565842
 11
46.539298
 21
237.565842
  0
LINE
  8
C
  6
AUSGEZOGEN
 62
     2
 10
48.898228
 20
240.565840
 11
50.770066
 21
238.335074
  0
LINE
  8
C
  6
AUSGEZOGEN
 62
     2
 10
50.770066
 20
240.565840
 11
50.770066
 21
238.335074
  0
LINE
  8
C
  6
AUSGEZOGEN
 62
     2
 10
51.539298
 20
240.565840
 11
50.770066
 21
240.565840
  0
LINE
  8
C
  6
AUSGEZOGEN
 62
     2
 10
59.098798
 20
239.794390
 11
58.395838
 21
238.576830
  0
LINE
  8
C
  6
AUSGEZOGEN
 62
     2
 10
58.034202
 20
237.950458
 11
57.812144
 21
237.565842
  0
LINE
  8
C
  6
AUSGEZOGEN
 62
     2
 10
56.923912
 20
237.565842
 11
57.812144
 21
237.565842
  0
ARC
  8
C
  6
AUSGEZOGEN
 62
     2
 10
21.154681
 20
240.795596
 40
1.789474
 50
80.073398
 51
89.999968
  0
ARC
  8
C
  6
AUSGEZOGEN
 62
     2
 10
21.208440
 20
241.102783
 40
1.477619
 50
67.095827
 51
80.073378
  0
ARC
  8
C
  6
AUSGEZOGEN
 62
     2
 10
21.291469
 20
241.299300
 40
1.264282
 50
57.694148
 51
67.095831
  0
ARC
  8
C
  6
AUSGEZOGEN
 62
     2
 10
21.489360
 20
241.612262
 40
0.894003
 50
44.432476
 51
57.694142
  0
ARC
  8
C
  6
AUSGEZOGEN
 62
     2
 10
21.627405
 20
241.747600
 40
0.700682
 50
25.210947
 51
44.432476
  0
ARC
  8
C
  6
AUSGEZOGEN
 62
     2
 10
21.819026
 20
241.835071
 40
0.489501
 50
342.692801
 51
359.999883
  0
ARC
  8
C
  6
AUSGEZOGEN
 62
     2
 10
21.724091
 20
241.864652
 40
0.588938
 50
327.617130
 51
342.692805
  0
ARC
  8
C
  6
AUSGEZOGEN
 62
     2
 10
21.813196
 20
241.835071
 40
0.495331
 50
359.999884
 51
25.210894
  0
ARC
  8
C
  6
AUSGEZOGEN
 62
     2
 10
21.639493
 20
241.918304
 40
0.689114
 50
315.567468
 51
327.617204
  0
ARC
  8
C
  6
AUSGEZOGEN
 62
     2
 10
21.471295
 20
242.083204
 40
0.924662
 50
306.196358
 51
315.567460
  0
ARC
  8
C
  6
AUSGEZOGEN
 62
     2
 10
21.396208
 20
242.185811
 40
1.051808
 50
298.837781
 51
306.196360
  0
ARC
  8
C
  6
AUSGEZOGEN
 62
     2
 10
21.282039
 20
242.393160
 40
1.288512
 50
292.904158
 51
298.837752
  0
ARC
  8
C
  6
AUSGEZOGEN
 62
     2
 10
21.208440
 20
242.567358
 40
1.477618
 50
279.926622
 51
292.904137
  0
ARC
  8
C
  6
AUSGEZOGEN
 62
     2
 10
21.154681
 20
242.874545
 40
1.789474
 50
270.000032
 51
279.926596
  0
ARC
  8
C
  6
AUSGEZOGEN
 62
     2
 10
21.154681
 20
242.874545
 40
1.789474
 50
260.073467
 51
270.000032
  0
ARC
  8
C
  6
AUSGEZOGEN
 62
     2
 10
21.100922
 20
242.567358
 40
1.477619
 50
247.095914
 51
260.073455
  0
ARC
  8
C
  6
AUSGEZOGEN
 62
     2
 10
21.017893
 20
242.370841
 40
1.264282
 50
237.694273
 51
247.095932
  0
ARC
  8
C
  6
AUSGEZOGEN
 62
     2
 10
20.681956
 20
241.922541
 40
0.700682
 50
205.211129
 51
224.432650
  0
ARC
  8
C
  6
AUSGEZOGEN
 62
     2
 10
20.496166
 20
241.835071
 40
0.495331
 50
180.000116
 51
205.211153
  0
ARC
  8
C
  6
AUSGEZOGEN
 62
     2
 10
20.490336
 20
241.835071
 40
0.489501
 50
162.692912
 51
180.000117
  0
ARC
  8
C
  6
AUSGEZOGEN
 62
     2
 10
20.669868
 20
241.751837
 40
0.689114
 50
135.567408
 51
147.617204
  0
ARC
  8
C
  6
AUSGEZOGEN
 62
     2
 10
20.838067
 20
241.586937
 40
0.924662
 50
126.196271
 51
135.567416
  0
ARC
  8
C
  6
AUSGEZOGEN
 62
     2
 10
20.913154
 20
241.484330
 40
1.051808
 50
118.837659
 51
126.196316
  0
ARC
  8
C
  6
AUSGEZOGEN
 62
     2
 10
21.100922
 20
241.102783
 40
1.477619
 50
99.926545
 51
112.904086
  0
ARC
  8
C
  6
AUSGEZOGEN
 62
     2
 10
21.154681
 20
240.795596
 40
1.789474
 50
89.999968
 51
99.926533
  0
ARC
  8
C
  6
AUSGEZOGEN
 62
     2
 10
21.027323
 20
241.276981
 40
1.288512
 50
112.904100
 51
118.837691
  0
ARC
  8
C
  6
AUSGEZOGEN
 62
     2
 10
20.585271
 20
241.805489
 40
0.588938
 50
147.617130
 51
162.692805
  0
ARC
  8
C
  6
AUSGEZOGEN
 62
     2
 10
20.820002
 20
242.057879
 40
0.894003
 50
224.432657
 51
237.694285
  0
ARC
  8
C
  6
AUSGEZOGEN
 62
     2
 10
54.231604
 20
240.795596
 40
1.789474
 50
90.000000
 51
99.926502
  0
ARC
  8
C
  6
AUSGEZOGEN
 62
     2
 10
54.231604
 20
240.795596
 40
1.789474
 50
80.073435
 51
90.000000
  0
ARC
  8
C
  6
AUSGEZOGEN
 62
     2
 10
54.285363
 20
241.102783
 40
1.477619
 50
67.095878
 51
80.073416
  0
ARC
  8
C
  6
AUSGEZOGEN
 62
     2
 10
54.566283
 20
241.612262
 40
0.894003
 50
44.432567
 51
57.694197
  0
ARC
  8
C
  6
AUSGEZOGEN
 62
     2
 10
54.704329
 20
241.747600
 40
0.700682
 50
25.210947
 51
44.432534
  0
ARC
  8
C
  6
AUSGEZOGEN
 62
     2
 10
54.368392
 20
241.299300
 40
1.264282
 50
57.694172
 51
67.095891
  0
ARC
  8
C
  6
AUSGEZOGEN
 62
     2
 10
54.890119
 20
241.835071
 40
0.495331
 50
359.999884
 51
25.210894
  0
ARC
  8
C
  6
AUSGEZOGEN
 62
     2
 10
54.801014
 20
241.864652
 40
0.588938
 50
327.617130
 51
342.692805
  0
ARC
  8
C
  6
AUSGEZOGEN
 62
     2
 10
54.548218
 20
242.083204
 40
0.924662
 50
306.196408
 51
315.567416
  0
ARC
  8
C
  6
AUSGEZOGEN
 62
     2
 10
54.895949
 20
241.835071
 40
0.489501
 50
342.692801
 51
359.999883
  0
ARC
  8
C
  6
AUSGEZOGEN
 62
     2
 10
54.716416
 20
241.918304
 40
0.689114
 50
315.567408
 51
327.617134
  0
ARC
  8
C
  6
AUSGEZOGEN
 62
     2
 10
54.177845
 20
241.102783
 40
1.477619
 50
99.926500
 51
112.904051
  0
ARC
  8
C
  6
AUSGEZOGEN
 62
     2
 10
54.104246
 20
241.276981
 40
1.288512
 50
112.904059
 51
118.837730
  0
ARC
  8
C
  6
AUSGEZOGEN
 62
     2
 10
53.746792
 20
241.751837
 40
0.689114
 50
135.567468
 51
147.617204
  0
ARC
  8
C
  6
AUSGEZOGEN
 62
     2
 10
53.567259
 20
241.835071
 40
0.489501
 50
162.692801
 51
180.000117
  0
ARC
  8
C
  6
AUSGEZOGEN
 62
     2
 10
53.914990
 20
241.586937
 40
0.924662
 50
126.196358
 51
135.567460
  0
ARC
  8
C
  6
AUSGEZOGEN
 62
     2
 10
53.662194
 20
241.805489
 40
0.588938
 50
147.617264
 51
162.692805
  0
ARC
  8
C
  6
AUSGEZOGEN
 62
     2
 10
53.990077
 20
241.484330
 40
1.051808
 50
118.837707
 51
126.196360
  0
ARC
  8
C
  6
AUSGEZOGEN
 62
     2
 10
53.573089
 20
241.835071
 40
0.495331
 50
180.000116
 51
205.211048
  0
ARC
  8
C
  6
AUSGEZOGEN
 62
     2
 10
53.758879
 20
241.922541
 40
0.700682
 50
205.211055
 51
224.432592
  0
ARC
  8
C
  6
AUSGEZOGEN
 62
     2
 10
53.896925
 20
242.057879
 40
0.894003
 50
224.432567
 51
237.694197
  0
ARC
  8
C
  6
AUSGEZOGEN
 62
     2
 10
54.094816
 20
242.370841
 40
1.264282
 50
237.694211
 51
247.095992
  0
ARC
  8
C
  6
AUSGEZOGEN
 62
     2
 10
54.177845
 20
242.567358
 40
1.477619
 50
247.095964
 51
260.073500
  0
ARC
  8
C
  6
AUSGEZOGEN
 62
     2
 10
54.231604
 20
242.874545
 40
1.789474
 50
260.073498
 51
270.000000
  0
ARC
  8
C
  6
AUSGEZOGEN
 62
     2
 10
54.231604
 20
242.874545
 40
1.789474
 50
270.000000
 51
279.926565
  0
ARC
  8
C
  6
AUSGEZOGEN
 62
     2
 10
54.285363
 20
242.567358
 40
1.477619
 50
279.926584
 51
292.904086
  0
ARC
  8
C
  6
AUSGEZOGEN
 62
     2
 10
54.358962
 20
242.393160
 40
1.288512
 50
292.904117
 51
298.837791
  0
ARC
  8
C
  6
AUSGEZOGEN
 62
     2
 10
54.473131
 20
242.185811
 40
1.051807
 50
298.837781
 51
306.196392
  0
LINE
  8
C
  6
AUSGEZOGEN
 62
     2
 10
27.270070
 20
239.326278
 11
27.270070
 21
238.805402
  0
LINE
  8
C
  6
AUSGEZOGEN
 62
     2
 10
42.077758
 20
239.340566
 11
42.077758
 21
238.791116
  0
LINE
  8
C
  6
AUSGEZOGEN
 62
     2
 10
13.011828
 20
238.939470
 11
15.645068
 21
238.939470
  0
ARC
  8
C
  6
AUSGEZOGEN
 62
     2
 10
13.011824
 20
239.258148
 40
0.318681
 50
179.999640
 51
270.000719
  0
LINE
  8
C
  6
AUSGEZOGEN
 62
     2
 10
18.105230
 20
239.192216
 11
15.471992
 21
239.192214
  0
ARC
  8
C
  6
AUSGEZOGEN
 62
     2
 10
18.105230
 20
238.873532
 40
0.318681
 50
0.000360
 51
90.000000
  0
LINE
  8
C
  6
AUSGEZOGEN
 62
     2
 10
15.986778
 20
239.785620
 11
18.423914
 21
239.785622
  0
ARC
  8
C
  6
AUSGEZOGEN
 62
     2
 10
15.645066
 20
238.421609
 40
0.517857
 50
0.004536
 51
89.999779
  0
LINE
  8
C
  6
AUSGEZOGEN
 62
     2
 10
16.162928
 20
238.421650
 11
16.162928
 21
238.402420
  0
ARC
  8
C
  6
AUSGEZOGEN
 62
     2
 10
15.645066
 20
238.402378
 40
0.517857
 50
270.000664
 51
0.004647
  0
ARC
  8
C
  6
AUSGEZOGEN
 62
     2
 10
15.645066
 20
238.402378
 40
0.517857
 50
186.243265
 51
270.000664
  0
LINE
  8
C
  6
AUSGEZOGEN
 62
     2
 10
15.130286
 20
238.346062
 11
12.693148
 21
238.346062
  0
ARC
  8
C
  6
AUSGEZOGEN
 62
     2
 10
15.471988
 20
239.710070
 40
0.517857
 50
180.000000
 51
270.000443
  0
LINE
  8
C
  6
AUSGEZOGEN
 62
     2
 10
14.954136
 20
239.710070
 11
14.954136
 21
239.729302
  0
ARC
  8
C
  6
AUSGEZOGEN
 62
     2
 10
15.471988
 20
239.729301
 40
0.517857
 50
89.999336
 51
179.999889
  0
ARC
  8
C
  6
AUSGEZOGEN
 62
     2
 10
15.471989
 20
239.729301
 40
0.517857
 50
6.243387
 51
89.999447
  0
LINE
  8
C
  6
AUSGEZOGEN
 62
     2
 10
27.270068
 20
238.805402
 11
26.346990
 21
238.805402
  0
LINE
  8
C
  6
AUSGEZOGEN
 62
     2
 10
27.270068
 20
239.326280
 11
26.346990
 21
239.326280
  0
LINE
  8
C
  6
AUSGEZOGEN
 62
     2
 10
34.616220
 20
239.796610
 11
37.116222
 21
239.796610
  0
LINE
  8
C
  6
AUSGEZOGEN
 62
     2
 10
42.077758
 20
239.340566
 11
41.154680
 21
239.340566
  0
LINE
  8
C
  6
AUSGEZOGEN
 62
     2
 10
42.077758
 20
238.791116
 11
41.154680
 21
238.791116
  0
LINE
  8
C
  6
AUSGEZOGEN
 62
     2
 10
59.098796
 20
239.794390
 11
59.801752
 21
238.576830
  0
LINE
  8
C
  6
AUSGEZOGEN
 62
     2
 10
60.385448
 20
237.565842
 11
60.163390
 21
237.950456
  0
LINE
  8
C
  6
AUSGEZOGEN
 62
     2
 10
58.395838
 20
238.576830
 11
59.801752
 21
238.576830
  0
LINE
  8
C
  6
AUSGEZOGEN
 62
     2
 10
34.231606
 20
239.192216
 11
37.116222
 21
239.192216
  0
LINE
  8
C
  6
AUSGEZOGEN
 62
     2
 10
34.231606
 20
239.192216
 11
34.231606
 21
238.653754
  0
LINE
  8
C
  6
AUSGEZOGEN
 62
     2
 10
34.231606
 20
238.653754
 11
34.616220
 21
238.653754
  0
LINE
  8
C
  6
AUSGEZOGEN
 62
     2
 10
23.881606
 20
178.318348
 11
20.516222
 21
178.318348
  0
ARC
  8
C
  6
AUSGEZOGEN
 62
     2
 10
20.516220
 20
177.995268
 40
0.323077
 50
89.999645
 51
179.999645
  0
LINE
  8
C
  6
AUSGEZOGEN
 62
     2
 10
20.193146
 20
177.995270
 11
20.193146
 21
177.402964
  0
LINE
  8
C
  6
AUSGEZOGEN
 62
     2
 10
24.204684
 20
177.772194
 11
24.204682
 21
177.995270
  0
ARC
  8
C
  6
AUSGEZOGEN
 62
     2
 10
23.881605
 20
177.995269
 40
0.323077
 50
0.000177
 51
89.999823
  0
LINE
  8
C
  6
AUSGEZOGEN
 62
     2
 10
20.193146
 20
176.764500
 11
20.193144
 21
176.541424
  0
ARC
  8
C
  6
AUSGEZOGEN
 62
     2
 10
20.516221
 20
176.541422
 40
0.323077
 50
179.999645
 51
270.000177
  0
LINE
  8
C
  6
AUSGEZOGEN
 62
     2
 10
20.516222
 20
176.218348
 11
23.881606
 21
176.218348
  0
ARC
  8
C
  6
AUSGEZOGEN
 62
     2
 10
23.881605
 20
176.541423
 40
0.323077
 50
270.000177
 51
0.000532
  0
LINE
  8
C
  6
AUSGEZOGEN
 62
     2
 10
24.204684
 20
176.541426
 11
24.204684
 21
177.133732
  0
LINE
  8
C
  6
AUSGEZOGEN
 62
     2
 10
25.308528
 20
178.318346
 11
25.308528
 21
176.218346
  0
LINE
  8
C
  6
AUSGEZOGEN
 62
     2
 10
26.923912
 20
176.218346
 11
26.923912
 21
178.318346
  0
LINE
  8
C
  6
AUSGEZOGEN
 62
     2
 10
26.923912
 20
178.318346
 11
25.308528
 21
178.318346
  0
LINE
  8
C
  6
AUSGEZOGEN
 62
     2
 10
25.308528
 20
176.218346
 11
26.923912
 21
176.218346
  0
LINE
  8
C
  6
AUSGEZOGEN
 62
     2
 10
32.039298
 20
177.779886
 11
30.289298
 21
177.779886
  0
LINE
  8
C
  6
AUSGEZOGEN
 62
     2
 10
32.039298
 20
176.756808
 11
30.289298
 21
176.756808
  0
ARC
  8
C
  6
AUSGEZOGEN
 62
     2
 10
30.020066
 20
177.779884
 40
0.269231
 50
0.000426
 51
90.000000
  0
ARC
  8
C
  6
AUSGEZOGEN
 62
     2
 10
30.020066
 20
177.779884
 40
0.269231
 50
90.000000
 51
179.999574
  0
LINE
  8
C
  6
AUSGEZOGEN
 62
     2
 10
29.750836
 20
177.779886
 11
29.750836
 21
177.450652
  0
LINE
  8
C
  6
AUSGEZOGEN
 62
     2
 10
29.750836
 20
177.086038
 11
29.750836
 21
176.756808
  0
ARC
  8
C
  6
AUSGEZOGEN
 62
     2
 10
30.020066
 20
176.756807
 40
0.269231
 50
179.999787
 51
270.000000
  0
ARC
  8
C
  6
AUSGEZOGEN
 62
     2
 10
30.020066
 20
176.756807
 40
0.269231
 50
270.000000
 51
0.000213
  0
LINE
  8
C
  6
AUSGEZOGEN
 62
     2
 10
32.039298
 20
177.779886
 11
32.039298
 21
178.318346
  0
LINE
  8
C
  6
AUSGEZOGEN
 62
     2
 10
32.039298
 20
178.318346
 11
28.000836
 21
178.318346
  0
LINE
  8
C
  6
AUSGEZOGEN
 62
     2
 10
28.000836
 20
178.318346
 11
28.000836
 21
176.218346
  0
LINE
  8
C
  6
AUSGEZOGEN
 62
     2
 10
28.000836
 20
176.218346
 11
32.039298
 21
176.218346
  0
LINE
  8
C
  6
AUSGEZOGEN
 62
     2
 10
32.039298
 20
176.218346
 11
32.039298
 21
176.756808
  0
ARC
  8
C
  6
AUSGEZOGEN
 62
     2
 10
35.270066
 20
177.779884
 40
0.269231
 50
0.000426
 51
90.000000
  0
ARC
  8
C
  6
AUSGEZOGEN
 62
     2
 10
35.270066
 20
177.779884
 40
0.269231
 50
90.000000
 51
179.999574
  0
LINE
  8
C
  6
AUSGEZOGEN
 62
     2
 10
35.000836
 20
177.779886
 11
35.000836
 21
176.756808
  0
ARC
  8
C
  6
AUSGEZOGEN
 62
     2
 10
35.270066
 20
176.756807
 40
0.269231
 50
179.999787
 51
270.000000
  0
ARC
  8
C
  6
AUSGEZOGEN
 62
     2
 10
35.270066
 20
176.756807
 40
0.269231
 50
270.000000
 51
0.000213
  0
LINE
  8
C
  6
AUSGEZOGEN
 62
     2
 10
35.539298
 20
176.979886
 11
35.539298
 21
176.756808
  0
LINE
  8
C
  6
AUSGEZOGEN
 62
     2
 10
37.289298
 20
177.779884
 11
37.289298
 21
178.049116
  0
LINE
  8
C
  6
AUSGEZOGEN
 62
     2
 10
37.020066
 20
178.318346
 11
33.520066
 21
178.318346
  0
ARC
  8
C
  6
AUSGEZOGEN
 62
     2
 10
37.020066
 20
178.049115
 40
0.269231
 50
0.000213
 51
90.000000
  0
LINE
  8
C
  6
AUSGEZOGEN
 62
     2
 10
33.250836
 20
178.049116
 11
33.250836
 21
176.487578
  0
ARC
  8
C
  6
AUSGEZOGEN
 62
     2
 10
33.520066
 20
178.049115
 40
0.269231
 50
90.000000
 51
179.999787
  0
ARC
  8
C
  6
AUSGEZOGEN
 62
     2
 10
33.520066
 20
176.487577
 40
0.269231
 50
179.999787
 51
270.000000
  0
LINE
  8
C
  6
AUSGEZOGEN
 62
     2
 10
33.520066
 20
176.218346
 11
37.020066
 21
176.218346
  0
ARC
  8
C
  6
AUSGEZOGEN
 62
     2
 10
37.020066
 20
176.487577
 40
0.269231
 50
270.000000
 51
0.000213
  0
LINE
  8
C
  6
AUSGEZOGEN
 62
     2
 10
37.289298
 20
176.487578
 11
37.289298
 21
177.356808
  0
LINE
  8
C
  6
AUSGEZOGEN
 62
     2
 10
42.404682
 20
177.779886
 11
40.654682
 21
177.779886
  0
LINE
  8
C
  6
AUSGEZOGEN
 62
     2
 10
42.404682
 20
176.756808
 11
40.654682
 21
176.756808
  0
ARC
  8
C
  6
AUSGEZOGEN
 62
     2
 10
40.385451
 20
177.779884
 40
0.269231
 50
0.000426
 51
89.999787
  0
ARC
  8
C
  6
AUSGEZOGEN
 62
     2
 10
40.385451
 20
177.779884
 40
0.269231
 50
89.999787
 51
179.999574
  0
LINE
  8
C
  6
AUSGEZOGEN
 62
     2
 10
40.116220
 20
177.779886
 11
40.116220
 21
177.460654
  0
LINE
  8
C
  6
AUSGEZOGEN
 62
     2
 10
40.116220
 20
177.076038
 11
40.116220
 21
176.756808
  0
ARC
  8
C
  6
AUSGEZOGEN
 62
     2
 10
40.385451
 20
176.756807
 40
0.269231
 50
179.999787
 51
270.000213
  0
ARC
  8
C
  6
AUSGEZOGEN
 62
     2
 10
40.385451
 20
176.756807
 40
0.269231
 50
270.000213
 51
0.000213
  0
LINE
  8
C
  6
AUSGEZOGEN
 62
     2
 10
42.404682
 20
177.779886
 11
42.404682
 21
178.318346
  0
LINE
  8
C
  6
AUSGEZOGEN
 62
     2
 10
42.404682
 20
178.318346
 11
38.366220
 21
178.318346
  0
LINE
  8
C
  6
AUSGEZOGEN
 62
     2
 10
38.366220
 20
178.318346
 11
38.366220
 21
176.218346
  0
LINE
  8
C
  6
AUSGEZOGEN
 62
     2
 10
38.366220
 20
176.218346
 11
42.404682
 21
176.218346
  0
LINE
  8
C
  6
AUSGEZOGEN
 62
     2
 10
42.404682
 20
176.218346
 11
42.404682
 21
176.756808
  0
LINE
  8
C
  6
AUSGEZOGEN
 62
     2
 10
43.346990
 20
178.318346
 11
43.346990
 21
176.218346
  0
LINE
  8
C
  6
AUSGEZOGEN
 62
     2
 10
47.385452
 20
178.318346
 11
47.385452
 21
176.218346
  0
LINE
  8
C
  6
AUSGEZOGEN
 62
     2
 10
45.195738
 20
176.218346
 11
47.385452
 21
176.218346
  0
LINE
  8
C
  6
AUSGEZOGEN
 62
     2
 10
45.536704
 20
178.318346
 11
43.346990
 21
178.318346
  0
LINE
  8
C
  6
AUSGEZOGEN
 62
     2
 10
50.077758
 20
176.218346
 11
50.077758
 21
178.318346
  0
LINE
  8
C
  6
AUSGEZOGEN
 62
     2
 10
50.077758
 20
178.318346
 11
48.462374
 21
178.318346
  0
LINE
  8
C
  6
AUSGEZOGEN
 62
     2
 10
48.462374
 20
178.318346
 11
48.462374
 21
176.218346
  0
LINE
  8
C
  6
AUSGEZOGEN
 62
     2
 10
48.462374
 20
176.218346
 11
50.077758
 21
176.218346
  0
LINE
  8
C
  6
AUSGEZOGEN
 62
     2
 10
51.154682
 20
176.218346
 11
52.367118
 21
178.318346
  0
LINE
  8
C
  6
AUSGEZOGEN
 62
     2
 10
52.367118
 20
178.318346
 11
53.980708
 21
178.318346
  0
LINE
  8
C
  6
AUSGEZOGEN
 62
     2
 10
53.980708
 20
178.318346
 11
55.193144
 21
176.218346
  0
LINE
  8
C
  6
AUSGEZOGEN
 62
     2
 10
55.193144
 20
176.218346
 11
53.577758
 21
176.218346
  0
LINE
  8
C
  6
AUSGEZOGEN
 62
     2
 10
53.422318
 20
176.487578
 11
51.931884
 21
176.487578
  0
LINE
  8
C
  6
AUSGEZOGEN
 62
     2
 10
43.885452
 20
177.779886
 11
45.195738
 21
176.218346
  0
LINE
  8
C
  6
AUSGEZOGEN
 62
     2
 10
43.885452
 20
176.218346
 11
43.885452
 21
177.779886
  0
LINE
  8
C
  6
AUSGEZOGEN
 62
     2
 10
43.346990
 20
176.218346
 11
43.885452
 21
176.218346
  0
LINE
  8
C
  6
AUSGEZOGEN
 62
     2
 10
45.536704
 20
178.318346
 11
46.846990
 21
176.756808
  0
LINE
  8
C
  6
AUSGEZOGEN
 62
     2
 10
46.846990
 20
178.318346
 11
46.846990
 21
176.756808
  0
LINE
  8
C
  6
AUSGEZOGEN
 62
     2
 10
47.385452
 20
178.318346
 11
46.846990
 21
178.318346
  0
LINE
  8
C
  6
AUSGEZOGEN
 62
     2
 10
52.677102
 20
177.778332
 11
52.185030
 21
176.926038
  0
LINE
  8
C
  6
AUSGEZOGEN
 62
     2
 10
51.931884
 20
176.487578
 11
51.776444
 21
176.218346
  0
LINE
  8
C
  6
AUSGEZOGEN
 62
     2
 10
51.154682
 20
176.218346
 11
51.776444
 21
176.218346
  0
ARC
  8
C
  6
AUSGEZOGEN
 62
     2
 10
26.116220
 20
178.479175
 40
1.252632
 50
80.073439
 51
90.000000
  0
ARC
  8
C
  6
AUSGEZOGEN
 62
     2
 10
26.153852
 20
178.694205
 40
1.034333
 50
67.095903
 51
80.073458
  0
ARC
  8
C
  6
AUSGEZOGEN
 62
     2
 10
26.211971
 20
178.831767
 40
0.884997
 50
57.694256
 51
67.095900
  0
ARC
  8
C
  6
AUSGEZOGEN
 62
     2
 10
26.350495
 20
179.050841
 40
0.625802
 50
44.432612
 51
57.694239
  0
ARC
  8
C
  6
AUSGEZOGEN
 62
     2
 10
26.447127
 20
179.145578
 40
0.490478
 50
25.211078
 51
44.432601
  0
ARC
  8
C
  6
AUSGEZOGEN
 62
     2
 10
26.581261
 20
179.206807
 40
0.342651
 50
342.692948
 51
0.000167
  0
ARC
  8
C
  6
AUSGEZOGEN
 62
     2
 10
26.514807
 20
179.227514
 40
0.412257
 50
327.617344
 51
342.692869
  0
ARC
  8
C
  6
AUSGEZOGEN
 62
     2
 10
26.577181
 20
179.206807
 40
0.346732
 50
0.000165
 51
25.211080
  0
ARC
  8
C
  6
AUSGEZOGEN
 62
     2
 10
26.455589
 20
179.265071
 40
0.482380
 50
315.567685
 51
327.617319
  0
ARC
  8
C
  6
AUSGEZOGEN
 62
     2
 10
26.337850
 20
179.380500
 40
0.647264
 50
306.196474
 51
315.567604
  0
ARC
  8
C
  6
AUSGEZOGEN
 62
     2
 10
26.285289
 20
179.452325
 40
0.736266
 50
298.837864
 51
306.196464
  0
ARC
  8
C
  6
AUSGEZOGEN
 62
     2
 10
26.205371
 20
179.597470
 40
0.901958
 50
292.904174
 51
298.837889
  0
ARC
  8
C
  6
AUSGEZOGEN
 62
     2
 10
26.153852
 20
179.719408
 40
1.034333
 50
279.926606
 51
292.904169
  0
ARC
  8
C
  6
AUSGEZOGEN
 62
     2
 10
26.116220
 20
179.934439
 40
1.252632
 50
270.000000
 51
279.926569
  0
ARC
  8
C
  6
AUSGEZOGEN
 62
     2
 10
26.116220
 20
179.934439
 40
1.252632
 50
260.073529
 51
270.000000
  0
ARC
  8
C
  6
AUSGEZOGEN
 62
     2
 10
26.078589
 20
179.719408
 40
1.034333
 50
247.095954
 51
260.073513
  0
ARC
  8
C
  6
AUSGEZOGEN
 62
     2
 10
26.020469
 20
179.581846
 40
0.884998
 50
237.694310
 51
247.095925
  0
ARC
  8
C
  6
AUSGEZOGEN
 62
     2
 10
25.785313
 20
179.268036
 40
0.490478
 50
205.210922
 51
224.432601
  0
ARC
  8
C
  6
AUSGEZOGEN
 62
     2
 10
25.655259
 20
179.206807
 40
0.346732
 50
179.999835
 51
205.210930
  0
ARC
  8
C
  6
AUSGEZOGEN
 62
     2
 10
25.651179
 20
179.206807
 40
0.342651
 50
162.692789
 51
179.999833
  0
ARC
  8
C
  6
AUSGEZOGEN
 62
     2
 10
25.776851
 20
179.148543
 40
0.482380
 50
135.567350
 51
147.617054
  0
ARC
  8
C
  6
AUSGEZOGEN
 62
     2
 10
25.894590
 20
179.033114
 40
0.647263
 50
126.196155
 51
135.567291
  0
ARC
  8
C
  6
AUSGEZOGEN
 62
     2
 10
25.947151
 20
178.961289
 40
0.736266
 50
118.837690
 51
126.196246
  0
ARC
  8
C
  6
AUSGEZOGEN
 62
     2
 10
26.078589
 20
178.694205
 40
1.034333
 50
99.926432
 51
112.903995
  0
ARC
  8
C
  6
AUSGEZOGEN
 62
     2
 10
26.116220
 20
178.479175
 40
1.252632
 50
90.000000
 51
99.926471
  0
ARC
  8
C
  6
AUSGEZOGEN
 62
     2
 10
26.027069
 20
178.816144
 40
0.901958
 50
112.903974
 51
118.837661
  0
ARC
  8
C
  6
AUSGEZOGEN
 62
     2
 10
25.717633
 20
179.186100
 40
0.412257
 50
147.617035
 51
162.692695
  0
ARC
  8
C
  6
AUSGEZOGEN
 62
     2
 10
25.881945
 20
179.362773
 40
0.625802
 50
224.432612
 51
237.694317
  0
ARC
  8
C
  6
AUSGEZOGEN
 62
     2
 10
49.270066
 20
178.479175
 40
1.252632
 50
90.000000
 51
99.926471
  0
ARC
  8
C
  6
AUSGEZOGEN
 62
     2
 10
49.270066
 20
178.479175
 40
1.252632
 50
80.073439
 51
90.000000
  0
ARC
  8
C
  6
AUSGEZOGEN
 62
     2
 10
49.307698
 20
178.694205
 40
1.034333
 50
67.095903
 51
80.073458
  0
ARC
  8
C
  6
AUSGEZOGEN
 62
     2
 10
49.504341
 20
179.050841
 40
0.625802
 50
44.432612
 51
57.694239
  0
ARC
  8
C
  6
AUSGEZOGEN
 62
     2
 10
49.600973
 20
179.145578
 40
0.490478
 50
25.211078
 51
44.432601
  0
ARC
  8
C
  6
AUSGEZOGEN
 62
     2
 10
49.365818
 20
178.831767
 40
0.884998
 50
57.694256
 51
67.095925
  0
ARC
  8
C
  6
AUSGEZOGEN
 62
     2
 10
49.731027
 20
179.206807
 40
0.346732
 50
0.000165
 51
25.211080
  0
ARC
  8
C
  6
AUSGEZOGEN
 62
     2
 10
49.668653
 20
179.227514
 40
0.412257
 50
327.617344
 51
342.692827
  0
ARC
  8
C
  6
AUSGEZOGEN
 62
     2
 10
49.491696
 20
179.380500
 40
0.647263
 50
306.196474
 51
315.567416
  0
ARC
  8
C
  6
AUSGEZOGEN
 62
     2
 10
49.735107
 20
179.206807
 40
0.342651
 50
342.692789
 51
0.000167
  0
ARC
  8
C
  6
AUSGEZOGEN
 62
     2
 10
49.609435
 20
179.265071
 40
0.482380
 50
315.567518
 51
327.617319
  0
ARC
  8
C
  6
AUSGEZOGEN
 62
     2
 10
49.232435
 20
178.694205
 40
1.034333
 50
99.926432
 51
112.904046
  0
ARC
  8
C
  6
AUSGEZOGEN
 62
     2
 10
49.180916
 20
178.816144
 40
0.901958
 50
112.904032
 51
118.837661
  0
ARC
  8
C
  6
AUSGEZOGEN
 62
     2
 10
48.930697
 20
179.148543
 40
0.482380
 50
135.567350
 51
147.617054
  0
ARC
  8
C
  6
AUSGEZOGEN
 62
     2
 10
48.805025
 20
179.206807
 40
0.342651
 50
162.692789
 51
179.999833
  0
ARC
  8
C
  6
AUSGEZOGEN
 62
     2
 10
49.048436
 20
179.033114
 40
0.647264
 50
126.196351
 51
135.567353
  0
ARC
  8
C
  6
AUSGEZOGEN
 62
     2
 10
48.871479
 20
179.186100
 40
0.412257
 50
147.617035
 51
162.692695
  0
ARC
  8
C
  6
AUSGEZOGEN
 62
     2
 10
49.100997
 20
178.961289
 40
0.736266
 50
118.837690
 51
126.196355
  0
ARC
  8
C
  6
AUSGEZOGEN
 62
     2
 10
48.809105
 20
179.206807
 40
0.346732
 50
179.999835
 51
205.210930
  0
ARC
  8
C
  6
AUSGEZOGEN
 62
     2
 10
48.939159
 20
179.268036
 40
0.490478
 50
205.210922
 51
224.432601
  0
ARC
  8
C
  6
AUSGEZOGEN
 62
     2
 10
49.035791
 20
179.362773
 40
0.625802
 50
224.432612
 51
237.694113
  0
ARC
  8
C
  6
AUSGEZOGEN
 62
     2
 10
49.174315
 20
179.581846
 40
0.884998
 50
237.694166
 51
247.095925
  0
ARC
  8
C
  6
AUSGEZOGEN
 62
     2
 10
49.232435
 20
179.719408
 40
1.034333
 50
247.095954
 51
260.073513
  0
ARC
  8
C
  6
AUSGEZOGEN
 62
     2
 10
49.270066
 20
179.934439
 40
1.252632
 50
260.073529
 51
270.000000
  0
ARC
  8
C
  6
AUSGEZOGEN
 62
     2
 10
49.270066
 20
179.934439
 40
1.252632
 50
270.000000
 51
279.926569
  0
ARC
  8
C
  6
AUSGEZOGEN
 62
     2
 10
49.307698
 20
179.719408
 40
1.034333
 50
279.926542
 51
292.904169
  0
ARC
  8
C
  6
AUSGEZOGEN
 62
     2
 10
49.359217
 20
179.597470
 40
0.901959
 50
292.904174
 51
298.837859
  0
ARC
  8
C
  6
AUSGEZOGEN
 62
     2
 10
49.439135
 20
179.452325
 40
0.736266
 50
298.837864
 51
306.196418
  0
LINE
  8
C
  6
AUSGEZOGEN
 62
     2
 10
30.396992
 20
177.450652
 11
30.396992
 21
177.086038
  0
LINE
  8
C
  6
AUSGEZOGEN
 62
     2
 10
40.762374
 20
177.460654
 11
40.762374
 21
177.076038
  0
LINE
  8
C
  6
AUSGEZOGEN
 62
     2
 10
20.416222
 20
177.179886
 11
22.259490
 21
177.179886
  0
ARC
  8
C
  6
AUSGEZOGEN
 62
     2
 10
20.416220
 20
177.402961
 40
0.223077
 50
179.999743
 51
270.000514
  0
LINE
  8
C
  6
AUSGEZOGEN
 62
     2
 10
23.981604
 20
177.356808
 11
22.138336
 21
177.356808
  0
ARC
  8
C
  6
AUSGEZOGEN
 62
     2
 10
23.981605
 20
177.133730
 40
0.223077
 50
0.000000
 51
90.000257
  0
LINE
  8
C
  6
AUSGEZOGEN
 62
     2
 10
22.498688
 20
177.772192
 11
24.204684
 21
177.772194
  0
ARC
  8
C
  6
AUSGEZOGEN
 62
     2
 10
22.259489
 20
176.817384
 40
0.362500
 50
0.004426
 51
89.999842
  0
LINE
  8
C
  6
AUSGEZOGEN
 62
     2
 10
22.621992
 20
176.817412
 11
22.621992
 21
176.803952
  0
ARC
  8
C
  6
AUSGEZOGEN
 62
     2
 10
22.259489
 20
176.803922
 40
0.362500
 50
270.000790
 51
0.004742
  0
ARC
  8
C
  6
AUSGEZOGEN
 62
     2
 10
22.259489
 20
176.803922
 40
0.362500
 50
186.243441
 51
270.000790
  0
LINE
  8
C
  6
AUSGEZOGEN
 62
     2
 10
21.899142
 20
176.764500
 11
20.193146
 21
176.764500
  0
ARC
  8
C
  6
AUSGEZOGEN
 62
     2
 10
22.138335
 20
177.719307
 40
0.362500
 50
179.999842
 51
270.000158
  0
LINE
  8
C
  6
AUSGEZOGEN
 62
     2
 10
21.775838
 20
177.719308
 11
21.775838
 21
177.732770
  0
ARC
  8
C
  6
AUSGEZOGEN
 62
     2
 10
22.138335
 20
177.732768
 40
0.362500
 50
89.999526
 51
179.999684
  0
ARC
  8
C
  6
AUSGEZOGEN
 62
     2
 10
22.138335
 20
177.732768
 40
0.362500
 50
6.243441
 51
89.999526
  0
LINE
  8
C
  6
AUSGEZOGEN
 62
     2
 10
30.396992
 20
177.086038
 11
29.750836
 21
177.086038
  0
LINE
  8
C
  6
AUSGEZOGEN
 62
     2
 10
30.396992
 20
177.450654
 11
29.750836
 21
177.450654
  0
LINE
  8
C
  6
AUSGEZOGEN
 62
     2
 10
35.539298
 20
177.779884
 11
37.289298
 21
177.779884
  0
LINE
  8
C
  6
AUSGEZOGEN
 62
     2
 10
40.762374
 20
177.460654
 11
40.116220
 21
177.460654
  0
LINE
  8
C
  6
AUSGEZOGEN
 62
     2
 10
40.762374
 20
177.076038
 11
40.116220
 21
177.076038
  0
LINE
  8
C
  6
AUSGEZOGEN
 62
     2
 10
52.677100
 20
177.778332
 11
53.169170
 21
176.926038
  0
LINE
  8
C
  6
AUSGEZOGEN
 62
     2
 10
53.577758
 20
176.218346
 11
53.422316
 21
176.487576
  0
LINE
  8
C
  6
AUSGEZOGEN
 62
     2
 10
52.185030
 20
176.926038
 11
53.169170
 21
176.926038
  0
LINE
  8
C
  6
AUSGEZOGEN
 62
     2
 10
35.270068
 20
177.356808
 11
37.289298
 21
177.356808
  0
LINE
  8
C
  6
AUSGEZOGEN
 62
     2
 10
35.270068
 20
177.356808
 11
35.270068
 21
176.979886
  0
LINE
  8
C
  6
AUSGEZOGEN
 62
     2
 10
35.270068
 20
176.979886
 11
35.539298
 21
176.979886
  0
LINE
  8
C
  6
AUSGEZOGEN
 62
     2
 10
51.504682
 20
302.118316
 11
54.870068
 21
302.118316
  0
ARC
  8
C
  6
AUSGEZOGEN
 62
     2
 10
54.870068
 20
302.441396
 40
0.323077
 50
269.999645
 51
359.999645
  0
LINE
  8
C
  6
AUSGEZOGEN
 62
     2
 10
55.193144
 20
302.441394
 11
55.193144
 21
303.033700
  0
LINE
  8
C
  6
AUSGEZOGEN
 62
     2
 10
51.181606
 20
302.664470
 11
51.181606
 21
302.441394
  0
ARC
  8
C
  6
AUSGEZOGEN
 62
     2
 10
51.504683
 20
302.441395
 40
0.323077
 50
180.000177
 51
269.999823
  0
LINE
  8
C
  6
AUSGEZOGEN
 62
     2
 10
55.193142
 20
303.672164
 11
55.193144
 21
303.895240
  0
ARC
  8
C
  6
AUSGEZOGEN
 62
     2
 10
54.870067
 20
303.895242
 40
0.323077
 50
359.999645
 51
90.000177
  0
LINE
  8
C
  6
AUSGEZOGEN
 62
     2
 10
54.870066
 20
304.218316
 11
51.504684
 21
304.218316
  0
ARC
  8
C
  6
AUSGEZOGEN
 62
     2
 10
51.504683
 20
303.895241
 40
0.323077
 50
90.000177
 51
180.000532
  0
LINE
  8
C
  6
AUSGEZOGEN
 62
     2
 10
51.181606
 20
303.895238
 11
51.181604
 21
303.302932
  0
LINE
  8
C
  6
AUSGEZOGEN
 62
     2
 10
50.077760
 20
302.118318
 11
50.077760
 21
304.218318
  0
LINE
  8
C
  6
AUSGEZOGEN
 62
     2
 10
48.462376
 20
304.218318
 11
48.462376
 21
302.118318
  0
LINE
  8
C
  6
AUSGEZOGEN
 62
     2
 10
48.462376
 20
302.118318
 11
50.077760
 21
302.118318
  0
LINE
  8
C
  6
AUSGEZOGEN
 62
     2
 10
50.077760
 20
304.218318
 11
48.462376
 21
304.218318
  0
LINE
  8
C
  6
AUSGEZOGEN
 62
     2
 10
43.346992
 20
302.656778
 11
45.096992
 21
302.656778
  0
LINE
  8
C
  6
AUSGEZOGEN
 62
     2
 10
43.346992
 20
303.679856
 11
45.096992
 21
303.679856
  0
ARC
  8
C
  6
AUSGEZOGEN
 62
     2
 10
45.366222
 20
302.656780
 40
0.269231
 50
180.000426
 51
270.000000
  0
ARC
  8
C
  6
AUSGEZOGEN
 62
     2
 10
45.366222
 20
302.656780
 40
0.269231
 50
270.000000
 51
359.999574
  0
LINE
  8
C
  6
AUSGEZOGEN
 62
     2
 10
45.635454
 20
302.656778
 11
45.635452
 21
302.986012
  0
LINE
  8
C
  6
AUSGEZOGEN
 62
     2
 10
45.635452
 20
303.350626
 11
45.635454
 21
303.679856
  0
ARC
  8
C
  6
AUSGEZOGEN
 62
     2
 10
45.366222
 20
303.679857
 40
0.269231
 50
359.999787
 51
90.000000
  0
ARC
  8
C
  6
AUSGEZOGEN
 62
     2
 10
45.366222
 20
303.679857
 40
0.269231
 50
90.000000
 51
180.000213
  0
LINE
  8
C
  6
AUSGEZOGEN
 62
     2
 10
43.346992
 20
302.656778
 11
43.346992
 21
302.118318
  0
LINE
  8
C
  6
AUSGEZOGEN
 62
     2
 10
43.346992
 20
302.118318
 11
47.385454
 21
302.118318
  0
LINE
  8
C
  6
AUSGEZOGEN
 62
     2
 10
47.385454
 20
302.118318
 11
47.385454
 21
304.218318
  0
LINE
  8
C
  6
AUSGEZOGEN
 62
     2
 10
47.385454
 20
304.218318
 11
43.346992
 21
304.218318
  0
LINE
  8
C
  6
AUSGEZOGEN
 62
     2
 10
43.346992
 20
304.218318
 11
43.346992
 21
303.679856
  0
ARC
  8
C
  6
AUSGEZOGEN
 62
     2
 10
40.116222
 20
302.656780
 40
0.269231
 50
180.000426
 51
270.000000
  0
ARC
  8
C
  6
AUSGEZOGEN
 62
     2
 10
40.116222
 20
302.656780
 40
0.269231
 50
270.000000
 51
359.999574
  0
LINE
  8
C
  6
AUSGEZOGEN
 62
     2
 10
40.385454
 20
302.656778
 11
40.385454
 21
303.679856
  0
ARC
  8
C
  6
AUSGEZOGEN
 62
     2
 10
40.116222
 20
303.679857
 40
0.269231
 50
359.999787
 51
90.000000
  0
ARC
  8
C
  6
AUSGEZOGEN
 62
     2
 10
40.116222
 20
303.679857
 40
0.269231
 50
90.000000
 51
180.000213
  0
LINE
  8
C
  6
AUSGEZOGEN
 62
     2
 10
39.846990
 20
303.456778
 11
39.846992
 21
303.679856
  0
LINE
  8
C
  6
AUSGEZOGEN
 62
     2
 10
38.096990
 20
302.656780
 11
38.096992
 21
302.387548
  0
LINE
  8
C
  6
AUSGEZOGEN
 62
     2
 10
38.366222
 20
302.118318
 11
41.866222
 21
302.118318
  0
ARC
  8
C
  6
AUSGEZOGEN
 62
     2
 10
38.366222
 20
302.387549
 40
0.269231
 50
180.000213
 51
270.000000
  0
LINE
  8
C
  6
AUSGEZOGEN
 62
     2
 10
42.135454
 20
302.387548
 11
42.135454
 21
303.949086
  0
ARC
  8
C
  6
AUSGEZOGEN
 62
     2
 10
41.866222
 20
302.387549
 40
0.269231
 50
270.000000
 51
359.999787
  0
ARC
  8
C
  6
AUSGEZOGEN
 62
     2
 10
41.866222
 20
303.949087
 40
0.269231
 50
359.999787
 51
90.000000
  0
LINE
  8
C
  6
AUSGEZOGEN
 62
     2
 10
41.866222
 20
304.218318
 11
38.366222
 21
304.218318
  0
ARC
  8
C
  6
AUSGEZOGEN
 62
     2
 10
38.366222
 20
303.949087
 40
0.269231
 50
90.000000
 51
180.000213
  0
LINE
  8
C
  6
AUSGEZOGEN
 62
     2
 10
38.096992
 20
303.949086
 11
38.096992
 21
303.079856
  0
LINE
  8
C
  6
AUSGEZOGEN
 62
     2
 10
32.981608
 20
302.656778
 11
34.731608
 21
302.656778
  0
LINE
  8
C
  6
AUSGEZOGEN
 62
     2
 10
32.981608
 20
303.679856
 11
34.731608
 21
303.679856
  0
ARC
  8
C
  6
AUSGEZOGEN
 62
     2
 10
35.000837
 20
302.656780
 40
0.269231
 50
180.000426
 51
270.000213
  0
ARC
  8
C
  6
AUSGEZOGEN
 62
     2
 10
35.000837
 20
302.656780
 40
0.269231
 50
270.000213
 51
359.999574
  0
LINE
  8
C
  6
AUSGEZOGEN
 62
     2
 10
35.270068
 20
302.656778
 11
35.270070
 21
302.976010
  0
LINE
  8
C
  6
AUSGEZOGEN
 62
     2
 10
35.270070
 20
303.360626
 11
35.270068
 21
303.679856
  0
ARC
  8
C
  6
AUSGEZOGEN
 62
     2
 10
35.000837
 20
303.679857
 40
0.269231
 50
359.999787
 51
89.999787
  0
ARC
  8
C
  6
AUSGEZOGEN
 62
     2
 10
35.000837
 20
303.679857
 40
0.269231
 50
89.999787
 51
180.000213
  0
LINE
  8
C
  6
AUSGEZOGEN
 62
     2
 10
32.981608
 20
302.656778
 11
32.981608
 21
302.118318
  0
LINE
  8
C
  6
AUSGEZOGEN
 62
     2
 10
32.981608
 20
302.118318
 11
37.020068
 21
302.118318
  0
LINE
  8
C
  6
AUSGEZOGEN
 62
     2
 10
37.020068
 20
302.118318
 11
37.020068
 21
304.218318
  0
LINE
  8
C
  6
AUSGEZOGEN
 62
     2
 10
37.020068
 20
304.218318
 11
32.981608
 21
304.218318
  0
LINE
  8
C
  6
AUSGEZOGEN
 62
     2
 10
32.981608
 20
304.218318
 11
32.981608
 21
303.679856
  0
LINE
  8
C
  6
AUSGEZOGEN
 62
     2
 10
32.039300
 20
302.118318
 11
32.039300
 21
304.218318
  0
LINE
  8
C
  6
AUSGEZOGEN
 62
     2
 10
28.000838
 20
302.118318
 11
28.000838
 21
304.218318
  0
LINE
  8
C
  6
AUSGEZOGEN
 62
     2
 10
30.190552
 20
304.218318
 11
28.000838
 21
304.218318
  0
LINE
  8
C
  6
AUSGEZOGEN
 62
     2
 10
29.849586
 20
302.118318
 11
32.039300
 21
302.118318
  0
LINE
  8
C
  6
AUSGEZOGEN
 62
     2
 10
25.308530
 20
304.218318
 11
25.308530
 21
302.118318
  0
LINE
  8
C
  6
AUSGEZOGEN
 62
     2
 10
25.308530
 20
302.118318
 11
26.923914
 21
302.118318
  0
LINE
  8
C
  6
AUSGEZOGEN
 62
     2
 10
26.923914
 20
302.118318
 11
26.923914
 21
304.218318
  0
LINE
  8
C
  6
AUSGEZOGEN
 62
     2
 10
26.923914
 20
304.218318
 11
25.308530
 21
304.218318
  0
LINE
  8
C
  6
AUSGEZOGEN
 62
     2
 10
24.231608
 20
304.218318
 11
23.019172
 21
302.118318
  0
LINE
  8
C
  6
AUSGEZOGEN
 62
     2
 10
23.019172
 20
302.118318
 11
21.405582
 21
302.118318
  0
LINE
  8
C
  6
AUSGEZOGEN
 62
     2
 10
21.405582
 20
302.118318
 11
20.193146
 21
304.218318
  0
LINE
  8
C
  6
AUSGEZOGEN
 62
     2
 10
20.193146
 20
304.218318
 11
21.808530
 21
304.218318
  0
LINE
  8
C
  6
AUSGEZOGEN
 62
     2
 10
21.963970
 20
303.949086
 11
23.454404
 21
303.949086
  0
LINE
  8
C
  6
AUSGEZOGEN
 62
     2
 10
31.500838
 20
302.656778
 11
30.190552
 21
304.218318
  0
LINE
  8
C
  6
AUSGEZOGEN
 62
     2
 10
31.500838
 20
304.218318
 11
31.500838
 21
302.656778
  0
LINE
  8
C
  6
AUSGEZOGEN
 62
     2
 10
32.039300
 20
304.218318
 11
31.500838
 21
304.218318
  0
LINE
  8
C
  6
AUSGEZOGEN
 62
     2
 10
29.849586
 20
302.118318
 11
28.539300
 21
303.679856
  0
LINE
  8
C
  6
AUSGEZOGEN
 62
     2
 10
28.539300
 20
302.118318
 11
28.539300
 21
303.679856
  0
LINE
  8
C
  6
AUSGEZOGEN
 62
     2
 10
28.000838
 20
302.118318
 11
28.539300
 21
302.118318
  0
LINE
  8
C
  6
AUSGEZOGEN
 62
     2
 10
22.709188
 20
302.658332
 11
23.201258
 21
303.510626
  0
LINE
  8
C
  6
AUSGEZOGEN
 62
     2
 10
23.454404
 20
303.949086
 11
23.609844
 21
304.218318
  0
LINE
  8
C
  6
AUSGEZOGEN
 62
     2
 10
24.231608
 20
304.218318
 11
23.609844
 21
304.218318
  0
ARC
  8
C
  6
AUSGEZOGEN
 62
     2
 10
49.270068
 20
301.957489
 40
1.252632
 50
260.073439
 51
270.000000
  0
ARC
  8
C
  6
AUSGEZOGEN
 62
     2
 10
49.232436
 20
301.742459
 40
1.034333
 50
247.095903
 51
260.073458
  0
ARC
  8
C
  6
AUSGEZOGEN
 62
     2
 10
49.174317
 20
301.604897
 40
0.884997
 50
237.694256
 51
247.095900
  0
ARC
  8
C
  6
AUSGEZOGEN
 62
     2
 10
49.035793
 20
301.385823
 40
0.625802
 50
224.432741
 51
237.694239
  0
ARC
  8
C
  6
AUSGEZOGEN
 62
     2
 10
48.939161
 20
301.291086
 40
0.490478
 50
205.211184
 51
224.432766
  0
ARC
  8
C
  6
AUSGEZOGEN
 62
     2
 10
48.805027
 20
301.229857
 40
0.342651
 50
162.692789
 51
180.000167
  0
ARC
  8
C
  6
AUSGEZOGEN
 62
     2
 10
48.871481
 20
301.209150
 40
0.412257
 50
147.617344
 51
162.692827
  0
ARC
  8
C
  6
AUSGEZOGEN
 62
     2
 10
48.809107
 20
301.229857
 40
0.346732
 50
180.000165
 51
205.211300
  0
ARC
  8
C
  6
AUSGEZOGEN
 62
     2
 10
48.930699
 20
301.171593
 40
0.482380
 50
135.567518
 51
147.617319
  0
ARC
  8
C
  6
AUSGEZOGEN
 62
     2
 10
49.048438
 20
301.056164
 40
0.647264
 50
126.196474
 51
135.567478
  0
ARC
  8
C
  6
AUSGEZOGEN
 62
     2
 10
49.100999
 20
300.984339
 40
0.736266
 50
118.837758
 51
126.196464
  0
ARC
  8
C
  6
AUSGEZOGEN
 62
     2
 10
49.180917
 20
300.839194
 40
0.901958
 50
112.904174
 51
118.837747
  0
ARC
  8
C
  6
AUSGEZOGEN
 62
     2
 10
49.232436
 20
300.717256
 40
1.034333
 50
99.926606
 51
112.904169
  0
ARC
  8
C
  6
AUSGEZOGEN
 62
     2
 10
49.270068
 20
300.502225
 40
1.252632
 50
90.000000
 51
99.926569
  0
ARC
  8
C
  6
AUSGEZOGEN
 62
     2
 10
49.270068
 20
300.502225
 40
1.252632
 50
80.073431
 51
90.000000
  0
ARC
  8
C
  6
AUSGEZOGEN
 62
     2
 10
49.307699
 20
300.717256
 40
1.034333
 50
67.095831
 51
80.073394
  0
ARC
  8
C
  6
AUSGEZOGEN
 62
     2
 10
49.365819
 20
300.854818
 40
0.884998
 50
57.694166
 51
67.095841
  0
ARC
  8
C
  6
AUSGEZOGEN
 62
     2
 10
49.600975
 20
301.168628
 40
0.490478
 50
25.210922
 51
44.432601
  0
ARC
  8
C
  6
AUSGEZOGEN
 62
     2
 10
49.731029
 20
301.229857
 40
0.346732
 50
359.999835
 51
25.210930
  0
ARC
  8
C
  6
AUSGEZOGEN
 62
     2
 10
49.735109
 20
301.229857
 40
0.342651
 50
342.692789
 51
359.999833
  0
ARC
  8
C
  6
AUSGEZOGEN
 62
     2
 10
49.609437
 20
301.288121
 40
0.482380
 50
315.567350
 51
327.617155
  0
ARC
  8
C
  6
AUSGEZOGEN
 62
     2
 10
49.491698
 20
301.403550
 40
0.647263
 50
306.196351
 51
315.567291
  0
ARC
  8
C
  6
AUSGEZOGEN
 62
     2
 10
49.439137
 20
301.475375
 40
0.736266
 50
298.837690
 51
306.196355
  0
ARC
  8
C
  6
AUSGEZOGEN
 62
     2
 10
49.307699
 20
301.742459
 40
1.034333
 50
279.926542
 51
292.904097
  0
ARC
  8
C
  6
AUSGEZOGEN
 62
     2
 10
49.270068
 20
301.957489
 40
1.252633
 50
270.000000
 51
279.926561
  0
ARC
  8
C
  6
AUSGEZOGEN
 62
     2
 10
49.359219
 20
301.620520
 40
0.901958
 50
292.904116
 51
298.837661
  0
ARC
  8
C
  6
AUSGEZOGEN
 62
     2
 10
49.668655
 20
301.250564
 40
0.412257
 50
327.617152
 51
342.692695
  0
ARC
  8
C
  6
AUSGEZOGEN
 62
     2
 10
49.504343
 20
301.073891
 40
0.625802
 50
44.432612
 51
57.694113
  0
ARC
  8
C
  6
AUSGEZOGEN
 62
     2
 10
26.116222
 20
301.957489
 40
1.252633
 50
270.000000
 51
279.926561
  0
ARC
  8
C
  6
AUSGEZOGEN
 62
     2
 10
26.116222
 20
301.957489
 40
1.252632
 50
260.073439
 51
270.000000
  0
ARC
  8
C
  6
AUSGEZOGEN
 62
     2
 10
26.078590
 20
301.742459
 40
1.034333
 50
247.096005
 51
260.073458
  0
ARC
  8
C
  6
AUSGEZOGEN
 62
     2
 10
25.881947
 20
301.385823
 40
0.625802
 50
224.432741
 51
237.694239
  0
ARC
  8
C
  6
AUSGEZOGEN
 62
     2
 10
25.785315
 20
301.291086
 40
0.490478
 50
205.211184
 51
224.432766
  0
ARC
  8
C
  6
AUSGEZOGEN
 62
     2
 10
26.020470
 20
301.604897
 40
0.884998
 50
237.694256
 51
247.095985
  0
ARC
  8
C
  6
AUSGEZOGEN
 62
     2
 10
25.655261
 20
301.229857
 40
0.346732
 50
180.000165
 51
205.211300
  0
ARC
  8
C
  6
AUSGEZOGEN
 62
     2
 10
25.717635
 20
301.209150
 40
0.412257
 50
147.617227
 51
162.692827
  0
ARC
  8
C
  6
AUSGEZOGEN
 62
     2
 10
25.894592
 20
301.056164
 40
0.647263
 50
126.196474
 51
135.567416
  0
ARC
  8
C
  6
AUSGEZOGEN
 62
     2
 10
25.651181
 20
301.229857
 40
0.342651
 50
162.692789
 51
180.000167
  0
ARC
  8
C
  6
AUSGEZOGEN
 62
     2
 10
25.776853
 20
301.171593
 40
0.482381
 50
135.567518
 51
147.617218
  0
ARC
  8
C
  6
AUSGEZOGEN
 62
     2
 10
26.153853
 20
301.742459
 40
1.034333
 50
279.926542
 51
292.904097
  0
ARC
  8
C
  6
AUSGEZOGEN
 62
     2
 10
26.205372
 20
301.620520
 40
0.901958
 50
292.904116
 51
298.837803
  0
ARC
  8
C
  6
AUSGEZOGEN
 62
     2
 10
26.455591
 20
301.288121
 40
0.482380
 50
315.567350
 51
327.617155
  0
ARC
  8
C
  6
AUSGEZOGEN
 62
     2
 10
26.581263
 20
301.229857
 40
0.342651
 50
342.692789
 51
359.999833
  0
ARC
  8
C
  6
AUSGEZOGEN
 62
     2
 10
26.337852
 20
301.403550
 40
0.647264
 50
306.196351
 51
315.567353
  0
ARC
  8
C
  6
AUSGEZOGEN
 62
     2
 10
26.514809
 20
301.250564
 40
0.412257
 50
327.617152
 51
342.692695
  0
ARC
  8
C
  6
AUSGEZOGEN
 62
     2
 10
26.285291
 20
301.475375
 40
0.736266
 50
298.837826
 51
306.196355
  0
ARC
  8
C
  6
AUSGEZOGEN
 62
     2
 10
26.577183
 20
301.229857
 40
0.346733
 50
359.999835
 51
25.210860
  0
ARC
  8
C
  6
AUSGEZOGEN
 62
     2
 10
26.447129
 20
301.168628
 40
0.490478
 50
25.210922
 51
44.432436
  0
ARC
  8
C
  6
AUSGEZOGEN
 62
     2
 10
26.350497
 20
301.073891
 40
0.625802
 50
44.432482
 51
57.694113
  0
ARC
  8
C
  6
AUSGEZOGEN
 62
     2
 10
26.211973
 20
300.854818
 40
0.884998
 50
57.694166
 51
67.095841
  0
ARC
  8
C
  6
AUSGEZOGEN
 62
     2
 10
26.153853
 20
300.717256
 40
1.034333
 50
67.095831
 51
80.073394
  0
ARC
  8
C
  6
AUSGEZOGEN
 62
     2
 10
26.116222
 20
300.502225
 40
1.252632
 50
80.073431
 51
90.000000
  0
ARC
  8
C
  6
AUSGEZOGEN
 62
     2
 10
26.116222
 20
300.502225
 40
1.252632
 50
90.000000
 51
99.926569
  0
ARC
  8
C
  6
AUSGEZOGEN
 62
     2
 10
26.078590
 20
300.717256
 40
1.034333
 50
99.926542
 51
112.904046
  0
ARC
  8
C
  6
AUSGEZOGEN
 62
     2
 10
26.027071
 20
300.839194
 40
0.901958
 50
112.904032
 51
118.837747
  0
ARC
  8
C
  6
AUSGEZOGEN
 62
     2
 10
25.947153
 20
300.984339
 40
0.736266
 50
118.837758
 51
126.196418
  0
LINE
  8
C
  6
AUSGEZOGEN
 62
     2
 10
44.989296
 20
302.986012
 11
44.989296
 21
303.350626
  0
LINE
  8
C
  6
AUSGEZOGEN
 62
     2
 10
34.623914
 20
302.976010
 11
34.623914
 21
303.360626
  0
LINE
  8
C
  6
AUSGEZOGEN
 62
     2
 10
54.970068
 20
303.256778
 11
53.126800
 21
303.256778
  0
ARC
  8
C
  6
AUSGEZOGEN
 62
     2
 10
54.970068
 20
303.033703
 40
0.223077
 50
359.999743
 51
90.000000
  0
LINE
  8
C
  6
AUSGEZOGEN
 62
     2
 10
51.404684
 20
303.079856
 11
53.247952
 21
303.079856
  0
ARC
  8
C
  6
AUSGEZOGEN
 62
     2
 10
51.404683
 20
303.302934
 40
0.223077
 50
180.000000
 51
270.000257
  0
LINE
  8
C
  6
AUSGEZOGEN
 62
     2
 10
52.887602
 20
302.664472
 11
51.181606
 21
302.664470
  0
ARC
  8
C
  6
AUSGEZOGEN
 62
     2
 10
53.126799
 20
303.619280
 40
0.362500
 50
180.004426
 51
270.000158
  0
LINE
  8
C
  6
AUSGEZOGEN
 62
     2
 10
52.764298
 20
303.619252
 11
52.764296
 21
303.632712
  0
ARC
  8
C
  6
AUSGEZOGEN
 62
     2
 10
53.126799
 20
303.632742
 40
0.362500
 50
90.000474
 51
180.004742
  0
ARC
  8
C
  6
AUSGEZOGEN
 62
     2
 10
53.126799
 20
303.632742
 40
0.362500
 50
6.243441
 51
90.000474
  0
LINE
  8
C
  6
AUSGEZOGEN
 62
     2
 10
53.487146
 20
303.672164
 11
55.193142
 21
303.672164
  0
ARC
  8
C
  6
AUSGEZOGEN
 62
     2
 10
53.247953
 20
302.717357
 40
0.362500
 50
359.999842
 51
90.000158
  0
LINE
  8
C
  6
AUSGEZOGEN
 62
     2
 10
53.610452
 20
302.717356
 11
53.610452
 21
302.703894
  0
ARC
  8
C
  6
AUSGEZOGEN
 62
     2
 10
53.247953
 20
302.703896
 40
0.362500
 50
269.999526
 51
359.999684
  0
ARC
  8
C
  6
AUSGEZOGEN
 62
     2
 10
53.247953
 20
302.703896
 40
0.362500
 50
186.243598
 51
269.999526
  0
LINE
  8
C
  6
AUSGEZOGEN
 62
     2
 10
44.989298
 20
303.350626
 11
45.635452
 21
303.350626
  0
LINE
  8
C
  6
AUSGEZOGEN
 62
     2
 10
44.989298
 20
302.986010
 11
45.635452
 21
302.986010
  0
LINE
  8
C
  6
AUSGEZOGEN
 62
     2
 10
39.846992
 20
302.656780
 11
38.096990
 21
302.656780
  0
LINE
  8
C
  6
AUSGEZOGEN
 62
     2
 10
34.623914
 20
302.976010
 11
35.270070
 21
302.976010
  0
LINE
  8
C
  6
AUSGEZOGEN
 62
     2
 10
34.623914
 20
303.360626
 11
35.270070
 21
303.360626
  0
LINE
  8
C
  6
AUSGEZOGEN
 62
     2
 10
22.709188
 20
302.658332
 11
22.217120
 21
303.510626
  0
LINE
  8
C
  6
AUSGEZOGEN
 62
     2
 10
21.808532
 20
304.218318
 11
21.963972
 21
303.949088
  0
LINE
  8
C
  6
AUSGEZOGEN
 62
     2
 10
23.201258
 20
303.510626
 11
22.217120
 21
303.510626
  0
LINE
  8
C
  6
AUSGEZOGEN
 62
     2
 10
40.116222
 20
303.079856
 11
38.096990
 21
303.079856
  0
LINE
  8
C
  6
AUSGEZOGEN
 62
     2
 10
40.116222
 20
303.079856
 11
40.116222
 21
303.456778
  0
LINE
  8
C
  6
AUSGEZOGEN
 62
     2
 10
40.116222
 20
303.456778
 11
39.846992
 21
303.456778
  0
LINE
  8
C
  6
AUSGEZOGEN
 62
     7
 10
89.693144
 20
315.218318
 11
89.693144
 21
165.218346
  0
LINE
  8
C
  6
AUSGEZOGEN
 62
     7
 10
92.693144
 20
165.218346
 11
92.693144
 21
315.218318
  0
LINE
  8
C
  6
AUSGEZOGEN
 62
     7
 10
-13.306856
 20
315.218318
 11
-13.306856
 21
165.218346
  0
LINE
  8
C
  6
AUSGEZOGEN
 62
     7
 10
88.693140
 20
165.218346
 11
88.693140
 21
315.218318
  0
LINE
  8
C
  6
AUSGEZOGEN
 62
     7
 10
-148.206843
 20
273.218342
 11
-172.206839
 21
273.218342
  0
ARC
  8
C
  6
AUSGEZOGEN
 62
     7
 10
-148.206831
 20
270.218364
 40
3.000000
 50
359.999580
 51
90.000229
  0
LINE
  8
C
  6
AUSGEZOGEN
 62
     7
 10
-145.206843
 20
258.218342
 11
-145.206843
 21
270.218342
  0
ARC
  8
C
  6
AUSGEZOGEN
 62
     7
 10
-148.206831
 20
258.218364
 40
3.000000
 50
269.999771
 51
359.999580
  0
LINE
  8
C
  6
AUSGEZOGEN
 62
     7
 10
-172.206839
 20
255.218342
 11
-148.206843
 21
255.218342
  0
ARC
  8
C
  6
AUSGEZOGEN
 62
     7
 10
-172.206831
 20
258.218364
 40
3.000000
 50
180.000420
 51
269.999847
  0
LINE
  8
C
  6
AUSGEZOGEN
 62
     7
 10
-175.206839
 20
270.218342
 11
-175.206839
 21
258.218342
  0
ARC
  8
C
  6
AUSGEZOGEN
 62
     7
 10
-172.206831
 20
270.218364
 40
3.000000
 50
90.000153
 51
180.000420
  0
ARC
  8
C
  6
AUSGEZOGEN
 62
     7
 10
-172.206831
 20
246.218364
 40
3.000000
 50
90.000153
 51
180.000420
  0
LINE
  8
C
  6
AUSGEZOGEN
 62
     7
 10
-148.206843
 20
249.218342
 11
-172.206839
 21
249.218342
  0
ARC
  8
C
  6
AUSGEZOGEN
 62
     7
 10
-148.206831
 20
246.218364
 40
3.000000
 50
359.999580
 51
90.000229
  0
LINE
  8
C
  6
AUSGEZOGEN
 62
     7
 10
-145.206843
 20
234.218342
 11
-145.206843
 21
246.218342
  0
ARC
  8
C
  6
AUSGEZOGEN
 62
     7
 10
-148.206831
 20
234.218364
 40
3.000000
 50
269.999771
 51
359.999580
  0
LINE
  8
C
  6
AUSGEZOGEN
 62
     7
 10
-172.206839
 20
231.218342
 11
-148.206843
 21
231.218342
  0
ARC
  8
C
  6
AUSGEZOGEN
 62
     7
 10
-172.206831
 20
234.218364
 40
3.000000
 50
180.000420
 51
269.999847
  0
LINE
  8
C
  6
AUSGEZOGEN
 62
     7
 10
-175.206839
 20
246.218342
 11
-175.206839
 21
234.218342
  0
LINE
  8
C
  6
AUSGEZOGEN
 62
     7
 10
-148.206843
 20
225.218346
 11
-172.206839
 21
225.218346
  0
ARC
  8
C
  6
AUSGEZOGEN
 62
     7
 10
-172.206831
 20
222.218364
 40
3.000000
 50
90.000153
 51
180.000344
  0
LINE
  8
C
  6
AUSGEZOGEN
 62
     7
 10
-175.206839
 20
222.218346
 11
-175.206839
 21
210.218346
  0
ARC
  8
C
  6
AUSGEZOGEN
 62
     7
 10
-172.206831
 20
210.218364
 40
3.000000
 50
180.000344
 51
269.999847
  0
LINE
  8
C
  6
AUSGEZOGEN
 62
     7
 10
-172.206839
 20
207.218346
 11
-148.206843
 21
207.218346
  0
LINE
  8
C
  6
AUSGEZOGEN
 62
     7
 10
-145.206843
 20
210.218346
 11
-145.206843
 21
222.218346
  0
ARC
  8
C
  6
AUSGEZOGEN
 62
     7
 10
-148.206831
 20
222.218364
 40
3.000000
 50
359.999656
 51
90.000229
  0
ARC
  8
C
  6
AUSGEZOGEN
 62
     7
 10
-148.206831
 20
210.218364
 40
3.000000
 50
269.999771
 51
359.999656
  0
LINE
  8
C
  6
AUSGEZOGEN
 62
     7
 10
-108.206843
 20
273.218342
 11
-132.206843
 21
273.218342
  0
ARC
  8
C
  6
AUSGEZOGEN
 62
     7
 10
-108.206833
 20
270.218364
 40
3.000000
 50
359.999580
 51
90.000191
  0
LINE
  8
C
  6
AUSGEZOGEN
 62
     7
 10
-105.206843
 20
258.218342
 11
-105.206843
 21
270.218342
  0
ARC
  8
C
  6
AUSGEZOGEN
 62
     7
 10
-108.206833
 20
258.218364
 40
3.000000
 50
269.999809
 51
359.999580
  0
LINE
  8
C
  6
AUSGEZOGEN
 62
     7
 10
-132.206843
 20
255.218342
 11
-108.206843
 21
255.218342
  0
ARC
  8
C
  6
AUSGEZOGEN
 62
     7
 10
-132.206833
 20
258.218364
 40
3.000000
 50
180.000420
 51
269.999809
  0
LINE
  8
C
  6
AUSGEZOGEN
 62
     7
 10
-135.206843
 20
270.218342
 11
-135.206843
 21
258.218342
  0
ARC
  8
C
  6
AUSGEZOGEN
 62
     7
 10
-132.206833
 20
270.218364
 40
3.000000
 50
90.000191
 51
180.000420
  0
ARC
  8
C
  6
AUSGEZOGEN
 62
     7
 10
-132.206833
 20
246.218364
 40
3.000000
 50
90.000191
 51
180.000420
  0
LINE
  8
C
  6
AUSGEZOGEN
 62
     7
 10
-108.206843
 20
249.218342
 11
-132.206843
 21
249.218342
  0
ARC
  8
C
  6
AUSGEZOGEN
 62
     7
 10
-108.206833
 20
246.218364
 40
3.000000
 50
359.999580
 51
90.000191
  0
LINE
  8
C
  6
AUSGEZOGEN
 62
     7
 10
-105.206843
 20
234.218342
 11
-105.206843
 21
246.218342
  0
ARC
  8
C
  6
AUSGEZOGEN
 62
     7
 10
-108.206833
 20
234.218364
 40
3.000000
 50
269.999809
 51
359.999580
  0
LINE
  8
C
  6
AUSGEZOGEN
 62
     7
 10
-132.206843
 20
231.218342
 11
-108.206843
 21
231.218342
  0
ARC
  8
C
  6
AUSGEZOGEN
 62
     7
 10
-132.206833
 20
234.218364
 40
3.000000
 50
180.000420
 51
269.999809
  0
LINE
  8
C
  6
AUSGEZOGEN
 62
     7
 10
-135.206843
 20
246.218342
 11
-135.206843
 21
234.218342
  0
LINE
  8
C
  6
AUSGEZOGEN
 62
     7
 10
-108.206843
 20
225.218346
 11
-132.206843
 21
225.218346
  0
ARC
  8
C
  6
AUSGEZOGEN
 62
     7
 10
-132.206833
 20
222.218364
 40
3.000000
 50
90.000191
 51
180.000344
  0
LINE
  8
C
  6
AUSGEZOGEN
 62
     7
 10
-135.206843
 20
222.218346
 11
-135.206843
 21
210.218346
  0
ARC
  8
C
  6
AUSGEZOGEN
 62
     7
 10
-132.206833
 20
210.218364
 40
3.000000
 50
180.000344
 51
269.999809
  0
LINE
  8
C
  6
AUSGEZOGEN
 62
     7
 10
-132.206843
 20
207.218346
 11
-108.206843
 21
207.218346
  0
LINE
  8
C
  6
AUSGEZOGEN
 62
     7
 10
-105.206843
 20
210.218346
 11
-105.206843
 21
222.218346
  0
ARC
  8
C
  6
AUSGEZOGEN
 62
     7
 10
-108.206833
 20
222.218364
 40
3.000000
 50
359.999656
 51
90.000191
  0
ARC
  8
C
  6
AUSGEZOGEN
 62
     7
 10
-108.206833
 20
210.218364
 40
3.000000
 50
269.999809
 51
359.999656
  0
LINE
  8
C
  6
AUSGEZOGEN
 62
     7
 10
-68.206847
 20
273.218342
 11
-92.206847
 21
273.218342
  0
ARC
  8
C
  6
AUSGEZOGEN
 62
     7
 10
-68.206835
 20
270.218364
 40
3.000000
 50
359.999580
 51
90.000229
  0
LINE
  8
C
  6
AUSGEZOGEN
 62
     7
 10
-65.206848
 20
258.218342
 11
-65.206848
 21
270.218342
  0
ARC
  8
C
  6
AUSGEZOGEN
 62
     7
 10
-68.206835
 20
258.218364
 40
3.000000
 50
269.999771
 51
359.999580
  0
LINE
  8
C
  6
AUSGEZOGEN
 62
     7
 10
-92.206847
 20
255.218342
 11
-68.206847
 21
255.218342
  0
ARC
  8
C
  6
AUSGEZOGEN
 62
     7
 10
-92.206835
 20
258.218364
 40
3.000000
 50
180.000420
 51
269.999771
  0
LINE
  8
C
  6
AUSGEZOGEN
 62
     7
 10
-95.206847
 20
270.218342
 11
-95.206847
 21
258.218342
  0
ARC
  8
C
  6
AUSGEZOGEN
 62
     7
 10
-92.206835
 20
270.218364
 40
3.000000
 50
90.000229
 51
180.000420
  0
ARC
  8
C
  6
AUSGEZOGEN
 62
     7
 10
-92.206835
 20
246.218364
 40
3.000000
 50
90.000229
 51
180.000420
  0
LINE
  8
C
  6
AUSGEZOGEN
 62
     7
 10
-68.206847
 20
249.218342
 11
-92.206847
 21
249.218342
  0
ARC
  8
C
  6
AUSGEZOGEN
 62
     7
 10
-68.206835
 20
246.218364
 40
3.000000
 50
359.999580
 51
90.000229
  0
LINE
  8
C
  6
AUSGEZOGEN
 62
     7
 10
-65.206848
 20
234.218342
 11
-65.206848
 21
246.218342
  0
ARC
  8
C
  6
AUSGEZOGEN
 62
     7
 10
-68.206835
 20
234.218364
 40
3.000000
 50
269.999771
 51
359.999580
  0
LINE
  8
C
  6
AUSGEZOGEN
 62
     7
 10
-92.206847
 20
231.218342
 11
-68.206847
 21
231.218342
  0
ARC
  8
C
  6
AUSGEZOGEN
 62
     7
 10
-92.206835
 20
234.218364
 40
3.000000
 50
180.000420
 51
269.999771
  0
LINE
  8
C
  6
AUSGEZOGEN
 62
     7
 10
-95.206847
 20
246.218342
 11
-95.206847
 21
234.218342
  0
LINE
  8
C
  6
AUSGEZOGEN
 62
     7
 10
-68.206847
 20
225.218346
 11
-92.206847
 21
225.218346
  0
ARC
  8
C
  6
AUSGEZOGEN
 62
     7
 10
-92.206835
 20
222.218364
 40
3.000000
 50
90.000229
 51
180.000344
  0
LINE
  8
C
  6
AUSGEZOGEN
 62
     7
 10
-95.206847
 20
222.218346
 11
-95.206847
 21
210.218346
  0
ARC
  8
C
  6
AUSGEZOGEN
 62
     7
 10
-92.206835
 20
210.218364
 40
3.000000
 50
180.000344
 51
269.999771
  0
LINE
  8
C
  6
AUSGEZOGEN
 62
     7
 10
-92.206847
 20
207.218346
 11
-68.206847
 21
207.218346
  0
LINE
  8
C
  6
AUSGEZOGEN
 62
     7
 10
-65.206848
 20
210.218346
 11
-65.206848
 21
222.218346
  0
ARC
  8
C
  6
AUSGEZOGEN
 62
     7
 10
-68.206835
 20
222.218364
 40
3.000000
 50
359.999656
 51
90.000229
  0
ARC
  8
C
  6
AUSGEZOGEN
 62
     7
 10
-68.206835
 20
210.218364
 40
3.000000
 50
269.999771
 51
359.999656
  0
LINE
  8
C
  6
AUSGEZOGEN
 62
     7
 10
-28.206848
 20
273.218342
 11
-52.206848
 21
273.218342
  0
ARC
  8
C
  6
AUSGEZOGEN
 62
     7
 10
-28.206837
 20
270.218364
 40
3.000000
 50
359.999580
 51
90.000210
  0
LINE
  8
C
  6
AUSGEZOGEN
 62
     7
 10
-25.206848
 20
258.218342
 11
-25.206848
 21
270.218342
  0
ARC
  8
C
  6
AUSGEZOGEN
 62
     7
 10
-28.206837
 20
258.218364
 40
3.000000
 50
269.999790
 51
359.999580
  0
LINE
  8
C
  6
AUSGEZOGEN
 62
     7
 10
-52.206848
 20
255.218342
 11
-28.206848
 21
255.218342
  0
ARC
  8
C
  6
AUSGEZOGEN
 62
     7
 10
-52.206837
 20
258.218364
 40
3.000000
 50
180.000420
 51
269.999790
  0
LINE
  8
C
  6
AUSGEZOGEN
 62
     7
 10
-55.206848
 20
270.218342
 11
-55.206848
 21
258.218342
  0
ARC
  8
C
  6
AUSGEZOGEN
 62
     7
 10
-52.206837
 20
270.218364
 40
3.000000
 50
90.000210
 51
180.000420
  0
ARC
  8
C
  6
AUSGEZOGEN
 62
     7
 10
-52.206837
 20
246.218364
 40
3.000000
 50
90.000210
 51
180.000420
  0
LINE
  8
C
  6
AUSGEZOGEN
 62
     7
 10
-28.206848
 20
249.218342
 11
-52.206848
 21
249.218342
  0
ARC
  8
C
  6
AUSGEZOGEN
 62
     7
 10
-28.206837
 20
246.218364
 40
3.000000
 50
359.999580
 51
90.000210
  0
LINE
  8
C
  6
AUSGEZOGEN
 62
     7
 10
-25.206848
 20
234.218342
 11
-25.206848
 21
246.218342
  0
ARC
  8
C
  6
AUSGEZOGEN
 62
     7
 10
-28.206837
 20
234.218364
 40
3.000000
 50
269.999790
 51
359.999580
  0
LINE
  8
C
  6
AUSGEZOGEN
 62
     7
 10
-52.206848
 20
231.218342
 11
-28.206848
 21
231.218342
  0
ARC
  8
C
  6
AUSGEZOGEN
 62
     7
 10
-52.206837
 20
234.218364
 40
3.000000
 50
180.000420
 51
269.999790
  0
LINE
  8
C
  6
AUSGEZOGEN
 62
     7
 10
-55.206848
 20
246.218342
 11
-55.206848
 21
234.218342
  0
LINE
  8
C
  6
AUSGEZOGEN
 62
     7
 10
-28.206848
 20
225.218346
 11
-52.206848
 21
225.218346
  0
ARC
  8
C
  6
AUSGEZOGEN
 62
     7
 10
-52.206837
 20
222.218364
 40
3.000000
 50
90.000210
 51
180.000344
  0
LINE
  8
C
  6
AUSGEZOGEN
 62
     7
 10
-55.206848
 20
222.218346
 11
-55.206848
 21
210.218346
  0
ARC
  8
C
  6
AUSGEZOGEN
 62
     7
 10
-52.206837
 20
210.218364
 40
3.000000
 50
180.000344
 51
269.999790
  0
LINE
  8
C
  6
AUSGEZOGEN
 62
     7
 10
-52.206848
 20
207.218346
 11
-28.206848
 21
207.218346
  0
LINE
  8
C
  6
AUSGEZOGEN
 62
     7
 10
-25.206848
 20
210.218346
 11
-25.206848
 21
222.218346
  0
ARC
  8
C
  6
AUSGEZOGEN
 62
     7
 10
-28.206837
 20
222.218364
 40
3.000000
 50
359.999656
 51
90.000210
  0
ARC
  8
C
  6
AUSGEZOGEN
 62
     7
 10
-28.206837
 20
210.218364
 40
3.000000
 50
269.999790
 51
359.999656
  0
LINE
  8
C
  6
AUSGEZOGEN
 62
     7
 10
-17.106848
 20
315.218342
 11
-17.106848
 21
165.218366
  0
LINE
  8
C
  6
AUSGEZOGEN
 62
     7
 10
-14.306848
 20
165.218366
 11
-14.306848
 21
315.218342
  0
LINE
  8
C
  6
AUSGEZOGEN
 62
     7
 10
92.693144
 20
315.218318
 11
-504.306855
 21
315.218334
  0
LINE
  8
C
  6
AUSGEZOGEN
 62
     7
 10
-504.306855
 20
165.218366
 11
92.693144
 21
165.218346
  0
LINE
  8
C
  6
AUSGEZOGEN
 62
     7
 10
-503.306867
 20
315.218314
 11
-503.306859
 21
165.218346
  0
LINE
  8
C
  6
AUSGEZOGEN
 62
     7
 10
-348.206827
 20
273.218342
 11
-372.206827
 21
273.218342
  0
ARC
  8
C
  6
AUSGEZOGEN
 62
     7
 10
-348.206841
 20
270.218364
 40
3.000000
 50
359.999656
 51
89.999733
  0
LINE
  8
C
  6
AUSGEZOGEN
 62
     7
 10
-345.206827
 20
258.218346
 11
-345.206827
 21
270.218346
  0
ARC
  8
C
  6
AUSGEZOGEN
 62
     7
 10
-348.206841
 20
258.218364
 40
3.000000
 50
270.000267
 51
359.999656
  0
LINE
  8
C
  6
AUSGEZOGEN
 62
     7
 10
-372.206827
 20
255.218346
 11
-348.206827
 21
255.218346
  0
ARC
  8
C
  6
AUSGEZOGEN
 62
     7
 10
-372.206841
 20
258.218364
 40
3.000000
 50
180.000344
 51
270.000267
  0
LINE
  8
C
  6
AUSGEZOGEN
 62
     7
 10
-375.206827
 20
270.218346
 11
-375.206827
 21
258.218346
  0
ARC
  8
C
  6
AUSGEZOGEN
 62
     7
 10
-372.206841
 20
270.218364
 40
3.000000
 50
89.999733
 51
180.000344
  0
ARC
  8
C
  6
AUSGEZOGEN
 62
     7
 10
-372.206841
 20
246.218364
 40
3.000000
 50
89.999733
 51
180.000344
  0
LINE
  8
C
  6
AUSGEZOGEN
 62
     7
 10
-348.206827
 20
249.218346
 11
-372.206827
 21
249.218346
  0
ARC
  8
C
  6
AUSGEZOGEN
 62
     7
 10
-348.206841
 20
246.218364
 40
3.000000
 50
359.999656
 51
89.999733
  0
LINE
  8
C
  6
AUSGEZOGEN
 62
     7
 10
-345.206827
 20
234.218346
 11
-345.206827
 21
246.218346
  0
ARC
  8
C
  6
AUSGEZOGEN
 62
     7
 10
-348.206841
 20
234.218364
 40
3.000000
 50
270.000267
 51
359.999656
  0
LINE
  8
C
  6
AUSGEZOGEN
 62
     7
 10
-372.206827
 20
231.218346
 11
-348.206827
 21
231.218346
  0
ARC
  8
C
  6
AUSGEZOGEN
 62
     7
 10
-372.206841
 20
234.218364
 40
3.000000
 50
180.000344
 51
270.000267
  0
LINE
  8
C
  6
AUSGEZOGEN
 62
     7
 10
-375.206827
 20
246.218346
 11
-375.206827
 21
234.218346
  0
LINE
  8
C
  6
AUSGEZOGEN
 62
     7
 10
-348.206827
 20
225.218346
 11
-372.206827
 21
225.218346
  0
ARC
  8
C
  6
AUSGEZOGEN
 62
     7
 10
-372.206841
 20
222.218364
 40
3.000000
 50
89.999733
 51
180.000344
  0
LINE
  8
C
  6
AUSGEZOGEN
 62
     7
 10
-375.206827
 20
222.218346
 11
-375.206827
 21
210.218346
  0
ARC
  8
C
  6
AUSGEZOGEN
 62
     7
 10
-372.206841
 20
210.218364
 40
3.000000
 50
180.000344
 51
270.000267
  0
LINE
  8
C
  6
AUSGEZOGEN
 62
     7
 10
-372.206827
 20
207.218346
 11
-348.206827
 21
207.218346
  0
LINE
  8
C
  6
AUSGEZOGEN
 62
     7
 10
-345.206827
 20
210.218346
 11
-345.206827
 21
222.218346
  0
ARC
  8
C
  6
AUSGEZOGEN
 62
     7
 10
-348.206841
 20
222.218364
 40
3.000000
 50
359.999656
 51
89.999733
  0
ARC
  8
C
  6
AUSGEZOGEN
 62
     7
 10
-348.206841
 20
210.218364
 40
3.000000
 50
270.000267
 51
359.999656
  0
LINE
  8
C
  6
AUSGEZOGEN
 62
     7
 10
-308.206835
 20
273.218342
 11
-332.206835
 21
273.218342
  0
ARC
  8
C
  6
AUSGEZOGEN
 62
     7
 10
-308.206843
 20
270.218364
 40
3.000000
 50
359.999580
 51
89.999847
  0
LINE
  8
C
  6
AUSGEZOGEN
 62
     7
 10
-305.206835
 20
258.218342
 11
-305.206835
 21
270.218342
  0
ARC
  8
C
  6
AUSGEZOGEN
 62
     7
 10
-308.206843
 20
258.218364
 40
3.000000
 50
270.000153
 51
359.999580
  0
LINE
  8
C
  6
AUSGEZOGEN
 62
     7
 10
-332.206835
 20
255.218342
 11
-308.206835
 21
255.218342
  0
ARC
  8
C
  6
AUSGEZOGEN
 62
     7
 10
-332.206843
 20
258.218364
 40
3.000000
 50
180.000420
 51
270.000153
  0
LINE
  8
C
  6
AUSGEZOGEN
 62
     7
 10
-335.206835
 20
270.218342
 11
-335.206835
 21
258.218342
  0
ARC
  8
C
  6
AUSGEZOGEN
 62
     7
 10
-332.206843
 20
270.218364
 40
3.000000
 50
89.999847
 51
180.000420
  0
ARC
  8
C
  6
AUSGEZOGEN
 62
     7
 10
-332.206843
 20
246.218364
 40
3.000000
 50
89.999847
 51
180.000420
  0
LINE
  8
C
  6
AUSGEZOGEN
 62
     7
 10
-308.206835
 20
249.218342
 11
-332.206835
 21
249.218342
  0
ARC
  8
C
  6
AUSGEZOGEN
 62
     7
 10
-308.206843
 20
246.218364
 40
3.000000
 50
359.999580
 51
89.999847
  0
LINE
  8
C
  6
AUSGEZOGEN
 62
     7
 10
-305.206835
 20
234.218342
 11
-305.206835
 21
246.218342
  0
ARC
  8
C
  6
AUSGEZOGEN
 62
     7
 10
-308.206843
 20
234.218364
 40
3.000000
 50
270.000153
 51
359.999580
  0
LINE
  8
C
  6
AUSGEZOGEN
 62
     7
 10
-332.206835
 20
231.218342
 11
-308.206835
 21
231.218342
  0
ARC
  8
C
  6
AUSGEZOGEN
 62
     7
 10
-332.206843
 20
234.218364
 40
3.000000
 50
180.000420
 51
270.000153
  0
LINE
  8
C
  6
AUSGEZOGEN
 62
     7
 10
-335.206835
 20
246.218342
 11
-335.206835
 21
234.218342
  0
LINE
  8
C
  6
AUSGEZOGEN
 62
     7
 10
-308.206835
 20
225.218346
 11
-332.206835
 21
225.218346
  0
ARC
  8
C
  6
AUSGEZOGEN
 62
     7
 10
-332.206843
 20
222.218364
 40
3.000000
 50
89.999847
 51
180.000344
  0
LINE
  8
C
  6
AUSGEZOGEN
 62
     7
 10
-335.206835
 20
222.218346
 11
-335.206835
 21
210.218346
  0
ARC
  8
C
  6
AUSGEZOGEN
 62
     7
 10
-332.206843
 20
210.218364
 40
3.000000
 50
180.000344
 51
270.000153
  0
LINE
  8
C
  6
AUSGEZOGEN
 62
     7
 10
-332.206835
 20
207.218346
 11
-308.206835
 21
207.218346
  0
LINE
  8
C
  6
AUSGEZOGEN
 62
     7
 10
-305.206835
 20
210.218346
 11
-305.206835
 21
222.218346
  0
ARC
  8
C
  6
AUSGEZOGEN
 62
     7
 10
-308.206843
 20
222.218364
 40
3.000000
 50
359.999656
 51
89.999847
  0
ARC
  8
C
  6
AUSGEZOGEN
 62
     7
 10
-308.206843
 20
210.218364
 40
3.000000
 50
270.000153
 51
359.999656
  0
LINE
  8
C
  6
AUSGEZOGEN
 62
     7
 10
-268.206835
 20
273.218342
 11
-292.206835
 21
273.218342
  0
ARC
  8
C
  6
AUSGEZOGEN
 62
     7
 10
-268.206847
 20
270.218364
 40
3.000000
 50
359.999580
 51
89.999771
  0
LINE
  8
C
  6
AUSGEZOGEN
 62
     7
 10
-265.206835
 20
258.218342
 11
-265.206835
 21
270.218342
  0
ARC
  8
C
  6
AUSGEZOGEN
 62
     7
 10
-268.206847
 20
258.218364
 40
3.000000
 50
270.000229
 51
359.999580
  0
LINE
  8
C
  6
AUSGEZOGEN
 62
     7
 10
-292.206835
 20
255.218342
 11
-268.206835
 21
255.218342
  0
ARC
  8
C
  6
AUSGEZOGEN
 62
     7
 10
-292.206847
 20
258.218364
 40
3.000000
 50
180.000420
 51
270.000229
  0
LINE
  8
C
  6
AUSGEZOGEN
 62
     7
 10
-295.206835
 20
270.218342
 11
-295.206835
 21
258.218342
  0
ARC
  8
C
  6
AUSGEZOGEN
 62
     7
 10
-292.206847
 20
270.218364
 40
3.000000
 50
89.999771
 51
180.000420
  0
ARC
  8
C
  6
AUSGEZOGEN
 62
     7
 10
-292.206847
 20
246.218364
 40
3.000000
 50
89.999771
 51
180.000420
  0
LINE
  8
C
  6
AUSGEZOGEN
 62
     7
 10
-268.206835
 20
249.218342
 11
-292.206835
 21
249.218342
  0
ARC
  8
C
  6
AUSGEZOGEN
 62
     7
 10
-268.206847
 20
246.218364
 40
3.000000
 50
359.999580
 51
89.999771
  0
LINE
  8
C
  6
AUSGEZOGEN
 62
     7
 10
-265.206835
 20
234.218342
 11
-265.206835
 21
246.218342
  0
ARC
  8
C
  6
AUSGEZOGEN
 62
     7
 10
-268.206847
 20
234.218364
 40
3.000000
 50
270.000229
 51
359.999580
  0
LINE
  8
C
  6
AUSGEZOGEN
 62
     7
 10
-292.206835
 20
231.218342
 11
-268.206835
 21
231.218342
  0
ARC
  8
C
  6
AUSGEZOGEN
 62
     7
 10
-292.206847
 20
234.218364
 40
3.000000
 50
180.000420
 51
270.000229
  0
LINE
  8
C
  6
AUSGEZOGEN
 62
     7
 10
-295.206835
 20
246.218342
 11
-295.206835
 21
234.218342
  0
LINE
  8
C
  6
AUSGEZOGEN
 62
     7
 10
-268.206835
 20
225.218346
 11
-292.206835
 21
225.218346
  0
ARC
  8
C
  6
AUSGEZOGEN
 62
     7
 10
-292.206847
 20
222.218364
 40
3.000000
 50
89.999771
 51
180.000344
  0
LINE
  8
C
  6
AUSGEZOGEN
 62
     7
 10
-295.206835
 20
222.218346
 11
-295.206835
 21
210.218346
  0
ARC
  8
C
  6
AUSGEZOGEN
 62
     7
 10
-292.206847
 20
210.218364
 40
3.000000
 50
180.000344
 51
270.000229
  0
LINE
  8
C
  6
AUSGEZOGEN
 62
     7
 10
-292.206835
 20
207.218346
 11
-268.206835
 21
207.218346
  0
LINE
  8
C
  6
AUSGEZOGEN
 62
     7
 10
-265.206835
 20
210.218346
 11
-265.206835
 21
222.218346
  0
ARC
  8
C
  6
AUSGEZOGEN
 62
     7
 10
-268.206847
 20
222.218364
 40
3.000000
 50
359.999656
 51
89.999771
  0
ARC
  8
C
  6
AUSGEZOGEN
 62
     7
 10
-268.206847
 20
210.218364
 40
3.000000
 50
270.000229
 51
359.999656
  0
LINE
  8
C
  6
AUSGEZOGEN
 62
     7
 10
-228.206839
 20
273.218342
 11
-252.206839
 21
273.218342
  0
ARC
  8
C
  6
AUSGEZOGEN
 62
     7
 10
-228.206849
 20
270.218364
 40
3.000000
 50
359.999580
 51
89.999809
  0
LINE
  8
C
  6
AUSGEZOGEN
 62
     7
 10
-225.206839
 20
258.218342
 11
-225.206839
 21
270.218342
  0
ARC
  8
C
  6
AUSGEZOGEN
 62
     7
 10
-228.206849
 20
258.218364
 40
3.000000
 50
270.000191
 51
359.999580
  0
LINE
  8
C
  6
AUSGEZOGEN
 62
     7
 10
-252.206839
 20
255.218342
 11
-228.206839
 21
255.218342
  0
ARC
  8
C
  6
AUSGEZOGEN
 62
     7
 10
-252.206849
 20
258.218364
 40
3.000000
 50
180.000420
 51
270.000191
  0
LINE
  8
C
  6
AUSGEZOGEN
 62
     7
 10
-255.206839
 20
270.218342
 11
-255.206839
 21
258.218342
  0
ARC
  8
C
  6
AUSGEZOGEN
 62
     7
 10
-252.206849
 20
270.218364
 40
3.000000
 50
89.999809
 51
180.000420
  0
ARC
  8
C
  6
AUSGEZOGEN
 62
     7
 10
-252.206849
 20
246.218364
 40
3.000000
 50
89.999809
 51
180.000420
  0
LINE
  8
C
  6
AUSGEZOGEN
 62
     7
 10
-228.206839
 20
249.218342
 11
-252.206839
 21
249.218342
  0
ARC
  8
C
  6
AUSGEZOGEN
 62
     7
 10
-228.206849
 20
246.218364
 40
3.000000
 50
359.999580
 51
89.999809
  0
LINE
  8
C
  6
AUSGEZOGEN
 62
     7
 10
-225.206839
 20
234.218342
 11
-225.206839
 21
246.218342
  0
ARC
  8
C
  6
AUSGEZOGEN
 62
     7
 10
-228.206849
 20
234.218364
 40
3.000000
 50
270.000191
 51
359.999580
  0
LINE
  8
C
  6
AUSGEZOGEN
 62
     7
 10
-252.206839
 20
231.218342
 11
-228.206839
 21
231.218342
  0
ARC
  8
C
  6
AUSGEZOGEN
 62
     7
 10
-252.206849
 20
234.218364
 40
3.000000
 50
180.000420
 51
270.000191
  0
LINE
  8
C
  6
AUSGEZOGEN
 62
     7
 10
-255.206839
 20
246.218342
 11
-255.206839
 21
234.218342
  0
LINE
  8
C
  6
AUSGEZOGEN
 62
     7
 10
-228.206839
 20
225.218346
 11
-252.206839
 21
225.218346
  0
ARC
  8
C
  6
AUSGEZOGEN
 62
     7
 10
-252.206849
 20
222.218364
 40
3.000000
 50
89.999809
 51
180.000344
  0
LINE
  8
C
  6
AUSGEZOGEN
 62
     7
 10
-255.206839
 20
222.218346
 11
-255.206839
 21
210.218346
  0
ARC
  8
C
  6
AUSGEZOGEN
 62
     7
 10
-252.206849
 20
210.218364
 40
3.000000
 50
180.000344
 51
270.000191
  0
LINE
  8
C
  6
AUSGEZOGEN
 62
     7
 10
-252.206839
 20
207.218346
 11
-228.206839
 21
207.218346
  0
LINE
  8
C
  6
AUSGEZOGEN
 62
     7
 10
-225.206839
 20
210.218346
 11
-225.206839
 21
222.218346
  0
ARC
  8
C
  6
AUSGEZOGEN
 62
     7
 10
-228.206849
 20
222.218364
 40
3.000000
 50
359.999656
 51
89.999809
  0
ARC
  8
C
  6
AUSGEZOGEN
 62
     7
 10
-228.206849
 20
210.218364
 40
3.000000
 50
270.000191
 51
359.999656
  0
LINE
  8
C
  6
AUSGEZOGEN
 62
     7
 10
-188.206839
 20
273.218342
 11
-212.206839
 21
273.218342
  0
ARC
  8
C
  6
AUSGEZOGEN
 62
     7
 10
-188.206851
 20
270.218364
 40
3.000000
 50
359.999580
 51
89.999771
  0
LINE
  8
C
  6
AUSGEZOGEN
 62
     7
 10
-185.206839
 20
258.218342
 11
-185.206839
 21
270.218342
  0
ARC
  8
C
  6
AUSGEZOGEN
 62
     7
 10
-188.206851
 20
258.218364
 40
3.000000
 50
270.000229
 51
359.999580
  0
LINE
  8
C
  6
AUSGEZOGEN
 62
     7
 10
-212.206839
 20
255.218342
 11
-188.206839
 21
255.218342
  0
ARC
  8
C
  6
AUSGEZOGEN
 62
     7
 10
-212.206851
 20
258.218364
 40
3.000000
 50
180.000420
 51
270.000229
  0
LINE
  8
C
  6
AUSGEZOGEN
 62
     7
 10
-215.206839
 20
270.218342
 11
-215.206839
 21
258.218342
  0
ARC
  8
C
  6
AUSGEZOGEN
 62
     7
 10
-212.206851
 20
270.218364
 40
3.000000
 50
89.999771
 51
180.000420
  0
LINE
  8
C
  6
AUSGEZOGEN
 62
     7
 10
-188.206839
 20
249.218342
 11
-212.206839
 21
249.218342
  0
ARC
  8
C
  6
AUSGEZOGEN
 62
     7
 10
-188.206851
 20
246.218364
 40
3.000000
 50
359.999580
 51
89.999771
  0
LINE
  8
C
  6
AUSGEZOGEN
 62
     7
 10
-185.206839
 20
234.218342
 11
-185.206839
 21
246.218342
  0
ARC
  8
C
  6
AUSGEZOGEN
 62
     7
 10
-188.206851
 20
234.218364
 40
3.000000
 50
270.000229
 51
359.999580
  0
LINE
  8
C
  6
AUSGEZOGEN
 62
     7
 10
-212.206839
 20
231.218342
 11
-188.206839
 21
231.218342
  0
LINE
  8
C
  6
AUSGEZOGEN
 62
     7
 10
-215.206839
 20
246.218342
 11
-215.206839
 21
234.218342
  0
LINE
  8
C
  6
AUSGEZOGEN
 62
     7
 10
-188.206839
 20
225.218346
 11
-212.206839
 21
225.218346
  0
ARC
  8
C
  6
AUSGEZOGEN
 62
     7
 10
-212.206851
 20
222.218364
 40
3.000000
 50
89.999771
 51
180.000344
  0
LINE
  8
C
  6
AUSGEZOGEN
 62
     7
 10
-215.206839
 20
222.218346
 11
-215.206839
 21
210.218346
  0
ARC
  8
C
  6
AUSGEZOGEN
 62
     7
 10
-212.206851
 20
210.218364
 40
3.000000
 50
180.000344
 51
270.000229
  0
LINE
  8
C
  6
AUSGEZOGEN
 62
     7
 10
-212.206839
 20
207.218350
 11
-188.206839
 21
207.218346
  0
LINE
  8
C
  6
AUSGEZOGEN
 62
     7
 10
-185.206839
 20
210.218346
 11
-185.206839
 21
222.218346
  0
ARC
  8
C
  6
AUSGEZOGEN
 62
     7
 10
-188.206851
 20
222.218364
 40
3.000000
 50
359.999656
 51
89.999771
  0
ARC
  8
C
  6
AUSGEZOGEN
 62
     7
 10
-188.206851
 20
210.218364
 40
3.000000
 50
270.000229
 51
359.999656
  0
LINE
  8
C
  6
AUSGEZOGEN
 62
     7
 10
-507.306855
 20
315.218334
 11
-507.306855
 21
165.218366
  0
LINE
  8
C
  6
AUSGEZOGEN
 62
     7
 10
-504.306855
 20
165.218366
 11
-504.306855
 21
315.218334
  0
LINE
  8
C
  6
AUSGEZOGEN
 62
     7
 10
-504.306855
 20
315.218334
 11
-507.306855
 21
315.218334
  0
LINE
  8
C
  6
AUSGEZOGEN
 62
     7
 10
-507.306855
 20
165.218366
 11
-504.306855
 21
165.218366
  0
ARC
  8
C
  6
AUSGEZOGEN
 62
     7
 10
-212.206838
 20
246.218341
 40
3.000000
 50
89.999943
 51
179.999981
  0
ARC
  8
C
  6
AUSGEZOGEN
 62
     7
 10
-212.206838
 20
234.218341
 40
3.000000
 50
179.999981
 51
270.000057
  0
CIRCLE
  8
C
  6
AUSGEZOGEN
 62
     7
 10
37.693144
 20
240.065840
 40
30.000000
  0
LINE
  8
C
  6
AUSGEZOGEN
 62
     7
 10
8.367388
 20
245.065840
 11
67.018898
 21
245.065840
  0
LINE
  8
C
  6
AUSGEZOGEN
 62
     7
 10
8.367388
 20
235.065840
 11
67.018898
 21
235.065840
  0
ARC
  8
C
  6
AUSGEZOGEN
 62
     7
 10
8.367387
 20
244.765840
 40
0.300000
 50
89.999809
 51
170.894485
  0
ARC
  8
C
  6
AUSGEZOGEN
 62
     7
 10
67.018901
 20
244.765840
 40
0.300000
 50
9.105515
 51
90.000573
  0
ARC
  8
C
  6
AUSGEZOGEN
 62
     7
 10
67.018901
 20
235.365840
 40
0.300000
 50
269.999427
 51
350.894862
  0
ARC
  8
C
  6
AUSGEZOGEN
 62
     7
 10
8.367387
 20
235.365840
 40
0.300000
 50
189.105138
 51
270.000191
  0
LINE
  8
C
  6
AUSGEZOGEN
 62
     7
 10
-388.206827
 20
273.218342
 11
-412.206827
 21
273.218342
  0
ARC
  8
C
  6
AUSGEZOGEN
 62
     7
 10
-388.206841
 20
270.218364
 40
3.000000
 50
359.999656
 51
89.999733
  0
LINE
  8
C
  6
AUSGEZOGEN
 62
     7
 10
-385.206827
 20
258.218346
 11
-385.206827
 21
270.218346
  0
ARC
  8
C
  6
AUSGEZOGEN
 62
     7
 10
-388.206841
 20
258.218364
 40
3.000000
 50
270.000267
 51
359.999656
  0
LINE
  8
C
  6
AUSGEZOGEN
 62
     7
 10
-412.206827
 20
255.218346
 11
-388.206827
 21
255.218346
  0
ARC
  8
C
  6
AUSGEZOGEN
 62
     7
 10
-412.206841
 20
258.218364
 40
3.000000
 50
180.000344
 51
270.000267
  0
LINE
  8
C
  6
AUSGEZOGEN
 62
     7
 10
-415.206827
 20
270.218346
 11
-415.206827
 21
258.218346
  0
ARC
  8
C
  6
AUSGEZOGEN
 62
     7
 10
-412.206841
 20
270.218364
 40
3.000000
 50
89.999733
 51
180.000344
  0
ARC
  8
C
  6
AUSGEZOGEN
 62
     7
 10
-412.206841
 20
246.218364
 40
3.000000
 50
89.999733
 51
180.000344
  0
LINE
  8
C
  6
AUSGEZOGEN
 62
     7
 10
-388.206827
 20
249.218346
 11
-412.206827
 21
249.218346
  0
ARC
  8
C
  6
AUSGEZOGEN
 62
     7
 10
-388.206841
 20
246.218364
 40
3.000000
 50
359.999656
 51
89.999733
  0
LINE
  8
C
  6
AUSGEZOGEN
 62
     7
 10
-385.206827
 20
234.218346
 11
-385.206827
 21
246.218346
  0
ARC
  8
C
  6
AUSGEZOGEN
 62
     7
 10
-388.206841
 20
234.218364
 40
3.000000
 50
270.000267
 51
359.999656
  0
LINE
  8
C
  6
AUSGEZOGEN
 62
     7
 10
-412.206827
 20
231.218346
 11
-388.206827
 21
231.218346
  0
ARC
  8
C
  6
AUSGEZOGEN
 62
     7
 10
-412.206841
 20
234.218364
 40
3.000000
 50
180.000344
 51
270.000267
  0
LINE
  8
C
  6
AUSGEZOGEN
 62
     7
 10
-415.206827
 20
246.218346
 11
-415.206827
 21
234.218346
  0
LINE
  8
C
  6
AUSGEZOGEN
 62
     7
 10
-388.206827
 20
225.218346
 11
-412.206827
 21
225.218346
  0
ARC
  8
C
  6
AUSGEZOGEN
 62
     7
 10
-412.206841
 20
222.218364
 40
3.000000
 50
89.999733
 51
180.000344
  0
LINE
  8
C
  6
AUSGEZOGEN
 62
     7
 10
-415.206827
 20
222.218346
 11
-415.206827
 21
210.218346
  0
ARC
  8
C
  6
AUSGEZOGEN
 62
     7
 10
-412.206841
 20
210.218364
 40
3.000000
 50
180.000344
 51
270.000267
  0
LINE
  8
C
  6
AUSGEZOGEN
 62
     7
 10
-412.206827
 20
207.218346
 11
-388.206827
 21
207.218346
  0
LINE
  8
C
  6
AUSGEZOGEN
 62
     7
 10
-385.206827
 20
210.218346
 11
-385.206827
 21
222.218346
  0
ARC
  8
C
  6
AUSGEZOGEN
 62
     7
 10
-388.206841
 20
222.218364
 40
3.000000
 50
359.999656
 51
89.999733
  0
ARC
  8
C
  6
AUSGEZOGEN
 62
     7
 10
-388.206841
 20
210.218364
 40
3.000000
 50
270.000267
 51
359.999656
  0
LINE
  8
C
  6
AUSGEZOGEN
 62
     7
 10
-428.206827
 20
273.218342
 11
-452.206827
 21
273.218342
  0
ARC
  8
C
  6
AUSGEZOGEN
 62
     7
 10
-428.206841
 20
270.218364
 40
3.000000
 50
359.999656
 51
89.999733
  0
LINE
  8
C
  6
AUSGEZOGEN
 62
     7
 10
-425.206827
 20
258.218346
 11
-425.206827
 21
270.218346
  0
ARC
  8
C
  6
AUSGEZOGEN
 62
     7
 10
-428.206841
 20
258.218364
 40
3.000000
 50
270.000267
 51
359.999656
  0
LINE
  8
C
  6
AUSGEZOGEN
 62
     7
 10
-452.206827
 20
255.218346
 11
-428.206827
 21
255.218346
  0
ARC
  8
C
  6
AUSGEZOGEN
 62
     7
 10
-452.206841
 20
258.218364
 40
3.000000
 50
180.000344
 51
270.000267
  0
LINE
  8
C
  6
AUSGEZOGEN
 62
     7
 10
-455.206827
 20
270.218346
 11
-455.206827
 21
258.218346
  0
ARC
  8
C
  6
AUSGEZOGEN
 62
     7
 10
-452.206841
 20
270.218364
 40
3.000000
 50
89.999733
 51
180.000344
  0
ARC
  8
C
  6
AUSGEZOGEN
 62
     7
 10
-452.206841
 20
246.218364
 40
3.000000
 50
89.999733
 51
180.000344
  0
LINE
  8
C
  6
AUSGEZOGEN
 62
     7
 10
-428.206827
 20
249.218346
 11
-452.206827
 21
249.218346
  0
ARC
  8
C
  6
AUSGEZOGEN
 62
     7
 10
-428.206841
 20
246.218364
 40
3.000000
 50
359.999656
 51
89.999733
  0
LINE
  8
C
  6
AUSGEZOGEN
 62
     7
 10
-425.206827
 20
234.218346
 11
-425.206827
 21
246.218346
  0
ARC
  8
C
  6
AUSGEZOGEN
 62
     7
 10
-428.206841
 20
234.218364
 40
3.000000
 50
270.000267
 51
359.999656
  0
LINE
  8
C
  6
AUSGEZOGEN
 62
     7
 10
-452.206827
 20
231.218346
 11
-428.206827
 21
231.218346
  0
ARC
  8
C
  6
AUSGEZOGEN
 62
     7
 10
-452.206841
 20
234.218364
 40
3.000000
 50
180.000344
 51
270.000267
  0
LINE
  8
C
  6
AUSGEZOGEN
 62
     7
 10
-455.206827
 20
246.218346
 11
-455.206827
 21
234.218346
  0
LINE
  8
C
  6
AUSGEZOGEN
 62
     7
 10
-428.206827
 20
225.218346
 11
-452.206827
 21
225.218346
  0
ARC
  8
C
  6
AUSGEZOGEN
 62
     7
 10
-452.206841
 20
222.218364
 40
3.000000
 50
89.999733
 51
180.000344
  0
LINE
  8
C
  6
AUSGEZOGEN
 62
     7
 10
-455.206827
 20
222.218346
 11
-455.206827
 21
210.218346
  0
ARC
  8
C
  6
AUSGEZOGEN
 62
     7
 10
-452.206841
 20
210.218364
 40
3.000000
 50
180.000344
 51
270.000267
  0
LINE
  8
C
  6
AUSGEZOGEN
 62
     7
 10
-452.206827
 20
207.218346
 11
-428.206827
 21
207.218346
  0
LINE
  8
C
  6
AUSGEZOGEN
 62
     7
 10
-425.206827
 20
210.218346
 11
-425.206827
 21
222.218346
  0
ARC
  8
C
  6
AUSGEZOGEN
 62
     7
 10
-428.206841
 20
222.218364
 40
3.000000
 50
359.999656
 51
89.999733
  0
ARC
  8
C
  6
AUSGEZOGEN
 62
     7
 10
-428.206841
 20
210.218364
 40
3.000000
 50
270.000267
 51
359.999656
  0
LINE
  8
C
  6
AUSGEZOGEN
 62
     7
 10
-468.206827
 20
273.218342
 11
-492.206827
 21
273.218342
  0
ARC
  8
C
  6
AUSGEZOGEN
 62
     7
 10
-468.206841
 20
270.218364
 40
3.000000
 50
359.999656
 51
89.999733
  0
LINE
  8
C
  6
AUSGEZOGEN
 62
     7
 10
-465.206827
 20
258.218346
 11
-465.206827
 21
270.218346
  0
ARC
  8
C
  6
AUSGEZOGEN
 62
     7
 10
-468.206841
 20
258.218364
 40
3.000000
 50
270.000267
 51
359.999656
  0
LINE
  8
C
  6
AUSGEZOGEN
 62
     7
 10
-492.206827
 20
255.218346
 11
-468.206827
 21
255.218346
  0
ARC
  8
C
  6
AUSGEZOGEN
 62
     7
 10
-492.206841
 20
258.218364
 40
3.000000
 50
180.000344
 51
270.000267
  0
LINE
  8
C
  6
AUSGEZOGEN
 62
     7
 10
-495.206827
 20
270.218346
 11
-495.206827
 21
258.218346
  0
ARC
  8
C
  6
AUSGEZOGEN
 62
     7
 10
-492.206841
 20
270.218364
 40
3.000000
 50
89.999733
 51
180.000344
  0
ARC
  8
C
  6
AUSGEZOGEN
 62
     7
 10
-492.206841
 20
246.218364
 40
3.000000
 50
89.999733
 51
180.000344
  0
LINE
  8
C
  6
AUSGEZOGEN
 62
     7
 10
-468.206827
 20
249.218346
 11
-492.206827
 21
249.218346
  0
ARC
  8
C
  6
AUSGEZOGEN
 62
     7
 10
-468.206841
 20
246.218364
 40
3.000000
 50
359.999656
 51
89.999733
  0
LINE
  8
C
  6
AUSGEZOGEN
 62
     7
 10
-465.206827
 20
234.218346
 11
-465.206827
 21
246.218346
  0
ARC
  8
C
  6
AUSGEZOGEN
 62
     7
 10
-468.206841
 20
234.218364
 40
3.000000
 50
270.000267
 51
359.999656
  0
LINE
  8
C
  6
AUSGEZOGEN
 62
     7
 10
-492.206827
 20
231.218346
 11
-468.206827
 21
231.218346
  0
ARC
  8
C
  6
AUSGEZOGEN
 62
     7
 10
-492.206841
 20
234.218364
 40
3.000000
 50
180.000344
 51
270.000267
  0
LINE
  8
C
  6
AUSGEZOGEN
 62
     7
 10
-495.206827
 20
246.218346
 11
-495.206827
 21
234.218346
  0
LINE
  8
C
  6
AUSGEZOGEN
 62
     7
 10
-468.206827
 20
225.218346
 11
-492.206827
 21
225.218346
  0
ARC
  8
C
  6
AUSGEZOGEN
 62
     7
 10
-492.206841
 20
222.218364
 40
3.000000
 50
89.999733
 51
180.000344
  0
LINE
  8
C
  6
AUSGEZOGEN
 62
     7
 10
-495.206827
 20
222.218346
 11
-495.206827
 21
210.218346
  0
ARC
  8
C
  6
AUSGEZOGEN
 62
     7
 10
-492.206841
 20
210.218364
 40
3.000000
 50
180.000344
 51
270.000267
  0
LINE
  8
C
  6
AUSGEZOGEN
 62
     7
 10
-492.206827
 20
207.218346
 11
-468.206827
 21
207.218346
  0
LINE
  8
C
  6
AUSGEZOGEN
 62
     7
 10
-465.206827
 20
210.218346
 11
-465.206827
 21
222.218346
  0
ARC
  8
C
  6
AUSGEZOGEN
 62
     7
 10
-468.206841
 20
222.218364
 40
3.000000
 50
359.999656
 51
89.999733
  0
ARC
  8
C
  6
AUSGEZOGEN
 62
     7
 10
-468.206841
 20
210.218364
 40
3.000000
 50
270.000267
 51
359.999656
  0
ENDBLK
  8
0
  0
BLOCK
  8
C
  2
B-6
 70
    66
 10
0.000000
 20
0.000000
 30
0.000000
  0
LINE
  8
C
  6
AUSGEZOGEN
 62
     2
 10
497.904917
 20
-294.202666
 11
496.442037
 21
-291.437207
  0
LINE
  8
C
  6
AUSGEZOGEN
 62
     2
 10
496.442037
 20
-291.437207
 11
496.403016
 21
-291.349604
  0
LINE
  8
C
  6
AUSGEZOGEN
 62
     2
 10
496.403016
 20
-291.349604
 11
496.359404
 21
-291.437207
  0
LINE
  8
C
  6
AUSGEZOGEN
 62
     2
 10
496.359404
 20
-291.437207
 11
494.998472
 21
-294.168618
  0
LINE
  8
C
  6
AUSGEZOGEN
 62
     2
 10
494.998472
 20
-294.168618
 11
494.978965
 21
-294.202666
  0
LINE
  8
C
  6
AUSGEZOGEN
 62
     2
 10
494.978965
 20
-294.202666
 11
495.042284
 21
-294.192919
  0
LINE
  8
C
  6
AUSGEZOGEN
 62
     2
 10
495.042284
 20
-294.192919
 11
497.885407
 21
-294.192919
  0
LINE
  8
C
  6
AUSGEZOGEN
 62
     2
 10
497.885407
 20
-294.192919
 11
497.904917
 21
-294.202666
  0
LINE
  8
C
  6
AUSGEZOGEN
 62
     2
 10
494.765122
 20
-290.931661
 11
494.993695
 21
-290.508749
  0
LINE
  8
C
  6
AUSGEZOGEN
 62
     2
 10
494.993695
 20
-290.508749
 11
495.202568
 21
-290.207489
  0
LINE
  8
C
  6
AUSGEZOGEN
 62
     2
 10
495.202568
 20
-290.207489
 11
495.324034
 21
-290.095594
  0
LINE
  8
C
  6
AUSGEZOGEN
 62
     2
 10
495.324034
 20
-290.095594
 11
495.469973
 21
-290.008183
  0
LINE
  8
C
  6
AUSGEZOGEN
 62
     2
 10
495.469973
 20
-290.008183
 11
495.644802
 21
-289.945060
  0
LINE
  8
C
  6
AUSGEZOGEN
 62
     2
 10
495.644802
 20
-289.945060
 11
495.858645
 21
-289.906039
  0
LINE
  8
C
  6
AUSGEZOGEN
 62
     2
 10
495.858645
 20
-289.906039
 11
496.004588
 21
-289.906039
  0
LINE
  8
C
  6
AUSGEZOGEN
 62
     2
 10
496.004588
 20
-289.906039
 11
499.503986
 21
-289.906039
  0
LINE
  8
C
  6
AUSGEZOGEN
 62
     2
 10
499.503986
 20
-289.906039
 11
499.863580
 21
-289.930327
  0
LINE
  8
C
  6
AUSGEZOGEN
 62
     2
 10
499.863580
 20
-289.930327
 11
500.096936
 21
-289.964375
  0
LINE
  8
C
  6
AUSGEZOGEN
 62
     2
 10
500.096936
 20
-289.964375
 11
500.291285
 21
-290.027690
  0
LINE
  8
C
  6
AUSGEZOGEN
 62
     2
 10
500.291285
 20
-290.027690
 11
500.451762
 21
-290.124855
  0
LINE
  8
C
  6
AUSGEZOGEN
 62
     2
 10
500.451762
 20
-290.124855
 11
500.597512
 21
-290.251300
  0
LINE
  8
C
  6
AUSGEZOGEN
 62
     2
 10
500.597512
 20
-290.251300
 11
500.733695
 21
-290.406797
  0
LINE
  8
C
  6
AUSGEZOGEN
 62
     2
 10
500.733695
 20
-290.406797
 11
500.864917
 21
-290.591383
  0
LINE
  8
C
  6
AUSGEZOGEN
 62
     2
 10
500.864917
 20
-290.591383
 11
501.166172
 21
-291.048343
  0
LINE
  8
C
  6
AUSGEZOGEN
 62
     2
 10
501.166172
 20
-291.048343
 11
504.320511
 21
-296.895265
  0
LINE
  8
C
  6
AUSGEZOGEN
 62
     2
 10
504.320511
 20
-296.895265
 11
504.296220
 21
-296.919562
  0
LINE
  8
C
  6
AUSGEZOGEN
 62
     2
 10
504.296220
 20
-296.919562
 11
499.411605
 21
-296.919562
  0
LINE
  8
C
  6
AUSGEZOGEN
 62
     2
 10
499.411605
 20
-296.919562
 11
499.367986
 21
-296.939069
  0
LINE
  8
C
  6
AUSGEZOGEN
 62
     2
 10
499.367986
 20
-296.939069
 11
499.367986
 21
-296.895265
  0
LINE
  8
C
  6
AUSGEZOGEN
 62
     2
 10
499.367986
 20
-296.895265
 11
498.600021
 21
-295.480970
  0
LINE
  8
C
  6
AUSGEZOGEN
 62
     2
 10
498.600021
 20
-295.480970
 11
494.361717
 21
-295.480970
  0
LINE
  8
C
  6
AUSGEZOGEN
 62
     2
 10
494.361717
 20
-295.480970
 11
493.647304
 21
-296.905021
  0
LINE
  8
C
  6
AUSGEZOGEN
 62
     2
 10
493.647304
 20
-296.905021
 11
493.642517
 21
-296.939069
  0
LINE
  8
C
  6
AUSGEZOGEN
 62
     2
 10
493.642517
 20
-296.939069
 11
493.603500
 21
-296.919562
  0
LINE
  8
C
  6
AUSGEZOGEN
 62
     2
 10
493.603500
 20
-296.919562
 11
491.771266
 21
-296.919562
  0
LINE
  8
C
  6
AUSGEZOGEN
 62
     2
 10
491.771266
 20
-296.919562
 11
491.727468
 21
-296.939069
  0
LINE
  8
C
  6
AUSGEZOGEN
 62
     2
 10
491.727468
 20
-296.939069
 11
491.746975
 21
-296.905021
  0
LINE
  8
C
  6
AUSGEZOGEN
 62
     2
 10
491.746975
 20
-296.905021
 11
494.765122
 21
-290.931661
  0
LINE
  8
C
  6
AUSGEZOGEN
 62
     2
 10
473.442997
 20
-294.042189
 11
473.433237
 21
-294.042189
  0
LINE
  8
C
  6
AUSGEZOGEN
 62
     2
 10
473.433237
 20
-294.042189
 11
468.237599
 21
-294.042189
  0
LINE
  8
C
  6
AUSGEZOGEN
 62
     2
 10
468.237599
 20
-294.042189
 11
468.223061
 21
-294.032631
  0
LINE
  8
C
  6
AUSGEZOGEN
 62
     2
 10
468.223061
 20
-294.032631
 11
468.232821
 21
-294.051946
  0
LINE
  8
C
  6
AUSGEZOGEN
 62
     2
 10
468.232821
 20
-294.051946
 11
468.232821
 21
-295.067818
  0
LINE
  8
C
  6
AUSGEZOGEN
 62
     2
 10
468.232821
 20
-295.067818
 11
468.262088
 21
-295.218538
  0
LINE
  8
C
  6
AUSGEZOGEN
 62
     2
 10
468.262088
 20
-295.218538
 11
468.339743
 21
-295.344778
  0
LINE
  8
C
  6
AUSGEZOGEN
 62
     2
 10
468.339743
 20
-295.344778
 11
468.451445
 21
-295.427412
  0
LINE
  8
C
  6
AUSGEZOGEN
 62
     2
 10
468.451445
 20
-295.427412
 11
468.587637
 21
-295.456682
  0
LINE
  8
C
  6
AUSGEZOGEN
 62
     2
 10
468.587637
 20
-295.456682
 11
473.724744
 21
-295.456682
  0
LINE
  8
C
  6
AUSGEZOGEN
 62
     2
 10
473.724744
 20
-295.456682
 11
473.788053
 21
-295.446922
  0
LINE
  8
C
  6
AUSGEZOGEN
 62
     2
 10
473.788053
 20
-295.446922
 11
473.783084
 21
-295.505258
  0
LINE
  8
C
  6
AUSGEZOGEN
 62
     2
 10
473.783084
 20
-295.505258
 11
473.783084
 21
-295.757943
  0
LINE
  8
C
  6
AUSGEZOGEN
 62
     2
 10
473.783084
 20
-295.757943
 11
473.763765
 21
-295.986324
  0
LINE
  8
C
  6
AUSGEZOGEN
 62
     2
 10
473.763765
 20
-295.986324
 11
473.700447
 21
-296.205140
  0
LINE
  8
C
  6
AUSGEZOGEN
 62
     2
 10
473.700447
 20
-296.205140
 11
473.603285
 21
-296.404449
  0
LINE
  8
C
  6
AUSGEZOGEN
 62
     2
 10
473.603285
 20
-296.404449
 11
473.472066
 21
-296.574497
  0
LINE
  8
C
  6
AUSGEZOGEN
 62
     2
 10
473.472066
 20
-296.574497
 11
473.316552
 21
-296.715466
  0
LINE
  8
C
  6
AUSGEZOGEN
 62
     2
 10
473.316552
 20
-296.715466
 11
473.136757
 21
-296.822391
  0
LINE
  8
C
  6
AUSGEZOGEN
 62
     2
 10
473.136757
 20
-296.822391
 11
472.937452
 21
-296.890487
  0
LINE
  8
C
  6
AUSGEZOGEN
 62
     2
 10
472.937452
 20
-296.890487
 11
472.723605
 21
-296.914772
  0
LINE
  8
C
  6
AUSGEZOGEN
 62
     2
 10
472.723605
 20
-296.914772
 11
464.888940
 21
-296.914772
  0
LINE
  8
C
  6
AUSGEZOGEN
 62
     2
 10
464.888940
 20
-296.914772
 11
464.679874
 21
-296.890487
  0
LINE
  8
C
  6
AUSGEZOGEN
 62
     2
 10
464.679874
 20
-296.890487
 11
464.480757
 21
-296.822391
  0
LINE
  8
C
  6
AUSGEZOGEN
 62
     2
 10
464.480757
 20
-296.822391
 11
464.300767
 21
-296.715466
  0
LINE
  8
C
  6
AUSGEZOGEN
 62
     2
 10
464.300767
 20
-296.715466
 11
464.145260
 21
-296.574497
  0
LINE
  8
C
  6
AUSGEZOGEN
 62
     2
 10
464.145260
 20
-296.574497
 11
464.019016
 21
-296.399479
  0
LINE
  8
C
  6
AUSGEZOGEN
 62
     2
 10
464.019016
 20
-296.399479
 11
463.921653
 21
-296.200170
  0
LINE
  8
C
  6
AUSGEZOGEN
 62
     2
 10
463.921653
 20
-296.200170
 11
463.858540
 21
-295.981537
  0
LINE
  8
C
  6
AUSGEZOGEN
 62
     2
 10
463.858540
 20
-295.981537
 11
463.839029
 21
-295.748180
  0
LINE
  8
C
  6
AUSGEZOGEN
 62
     2
 10
463.839029
 20
-295.748180
 11
463.839029
 21
-290.999757
  0
LINE
  8
C
  6
AUSGEZOGEN
 62
     2
 10
463.839029
 20
-290.999757
 11
463.858540
 21
-290.771178
  0
LINE
  8
C
  6
AUSGEZOGEN
 62
     2
 10
463.858540
 20
-290.771178
 11
463.921653
 21
-290.562305
  0
LINE
  8
C
  6
AUSGEZOGEN
 62
     2
 10
463.921653
 20
-290.562305
 11
464.019016
 21
-290.372759
  0
LINE
  8
C
  6
AUSGEZOGEN
 62
     2
 10
464.019016
 20
-290.372759
 11
464.145260
 21
-290.212279
  0
LINE
  8
C
  6
AUSGEZOGEN
 62
     2
 10
464.145260
 20
-290.212279
 11
464.300767
 21
-290.076279
  0
LINE
  8
C
  6
AUSGEZOGEN
 62
     2
 10
464.300767
 20
-290.076279
 11
464.480757
 21
-289.969357
  0
LINE
  8
C
  6
AUSGEZOGEN
 62
     2
 10
464.480757
 20
-289.969357
 11
464.684844
 21
-289.891498
  0
LINE
  8
C
  6
AUSGEZOGEN
 62
     2
 10
464.684844
 20
-289.891498
 11
464.898690
 21
-289.852673
  0
LINE
  8
C
  6
AUSGEZOGEN
 62
     2
 10
464.898690
 20
-289.852673
 11
464.971573
 21
-289.833165
  0
LINE
  8
C
  6
AUSGEZOGEN
 62
     2
 10
464.971573
 20
-289.833165
 11
472.529077
 21
-289.833165
  0
LINE
  8
C
  6
AUSGEZOGEN
 62
     2
 10
472.529077
 20
-289.833165
 11
472.723605
 21
-289.857450
  0
LINE
  8
C
  6
AUSGEZOGEN
 62
     2
 10
472.723605
 20
-289.857450
 11
472.937452
 21
-289.891498
  0
LINE
  8
C
  6
AUSGEZOGEN
 62
     2
 10
472.937452
 20
-289.891498
 11
473.039596
 21
-289.920769
  0
LINE
  8
C
  6
AUSGEZOGEN
 62
     2
 10
473.039596
 20
-289.920769
 11
473.131784
 21
-289.964375
  0
LINE
  8
C
  6
AUSGEZOGEN
 62
     2
 10
473.131784
 20
-289.964375
 11
473.311583
 21
-290.071309
  0
LINE
  8
C
  6
AUSGEZOGEN
 62
     2
 10
473.311583
 20
-290.071309
 11
473.467285
 21
-290.207489
  0
LINE
  8
C
  6
AUSGEZOGEN
 62
     2
 10
473.467285
 20
-290.207489
 11
473.593525
 21
-290.367780
  0
LINE
  8
C
  6
AUSGEZOGEN
 62
     2
 10
473.593525
 20
-290.367780
 11
473.690696
 21
-290.557335
  0
LINE
  8
C
  6
AUSGEZOGEN
 62
     2
 10
473.690696
 20
-290.557335
 11
473.754005
 21
-290.766401
  0
LINE
  8
C
  6
AUSGEZOGEN
 62
     2
 10
473.754005
 20
-290.766401
 11
473.773320
 21
-290.999757
  0
LINE
  8
C
  6
AUSGEZOGEN
 62
     2
 10
473.773320
 20
-290.999757
 11
473.773320
 21
-291.301015
  0
LINE
  8
C
  6
AUSGEZOGEN
 62
     2
 10
473.773320
 20
-291.301015
 11
473.783084
 21
-291.315556
  0
LINE
  8
C
  6
AUSGEZOGEN
 62
     2
 10
473.783084
 20
-291.315556
 11
473.763765
 21
-291.305997
  0
LINE
  8
C
  6
AUSGEZOGEN
 62
     2
 10
473.763765
 20
-291.305997
 11
468.587637
 21
-291.305997
  0
LINE
  8
C
  6
AUSGEZOGEN
 62
     2
 10
468.587637
 20
-291.305997
 11
468.514760
 21
-291.310775
  0
LINE
  8
C
  6
AUSGEZOGEN
 62
     2
 10
468.514760
 20
-291.310775
 11
468.446664
 21
-291.335063
  0
LINE
  8
C
  6
AUSGEZOGEN
 62
     2
 10
468.446664
 20
-291.335063
 11
468.334965
 21
-291.422477
  0
LINE
  8
C
  6
AUSGEZOGEN
 62
     2
 10
468.334965
 20
-291.422477
 11
468.291157
 21
-291.480810
  0
LINE
  8
C
  6
AUSGEZOGEN
 62
     2
 10
468.291157
 20
-291.480810
 11
468.262088
 21
-291.548906
  0
LINE
  8
C
  6
AUSGEZOGEN
 62
     2
 10
468.262088
 20
-291.548906
 11
468.242581
 21
-291.621783
  0
LINE
  8
C
  6
AUSGEZOGEN
 62
     2
 10
468.242581
 20
-291.621783
 11
468.232821
 21
-291.704420
  0
LINE
  8
C
  6
AUSGEZOGEN
 62
     2
 10
468.232821
 20
-291.704420
 11
468.232821
 21
-292.681450
  0
LINE
  8
C
  6
AUSGEZOGEN
 62
     2
 10
468.232821
 20
-292.681450
 11
468.223061
 21
-292.700772
  0
LINE
  8
C
  6
AUSGEZOGEN
 62
     2
 10
468.223061
 20
-292.700772
 11
468.237599
 21
-292.691021
  0
LINE
  8
C
  6
AUSGEZOGEN
 62
     2
 10
468.237599
 20
-292.691021
 11
473.423477
 21
-292.700772
  0
LINE
  8
C
  6
AUSGEZOGEN
 62
     2
 10
473.423477
 20
-292.700772
 11
473.442997
 21
-292.691021
  0
LINE
  8
C
  6
AUSGEZOGEN
 62
     2
 10
473.442997
 20
-292.691021
 11
473.442997
 21
-292.705741
  0
LINE
  8
C
  6
AUSGEZOGEN
 62
     2
 10
473.442997
 20
-292.705741
 11
473.442997
 21
-294.032631
  0
LINE
  8
C
  6
AUSGEZOGEN
 62
     2
 10
473.442997
 20
-294.032631
 11
473.442997
 21
-294.042189
  0
LINE
  8
C
  6
AUSGEZOGEN
 62
     2
 10
449.812168
 20
-294.051946
 11
449.802421
 21
-294.051946
  0
LINE
  8
C
  6
AUSGEZOGEN
 62
     2
 10
449.802421
 20
-294.051946
 11
444.611564
 21
-294.051946
  0
LINE
  8
C
  6
AUSGEZOGEN
 62
     2
 10
444.611564
 20
-294.051946
 11
444.602005
 21
-294.042189
  0
LINE
  8
C
  6
AUSGEZOGEN
 62
     2
 10
444.602005
 20
-294.042189
 11
444.602005
 21
-294.056919
  0
LINE
  8
C
  6
AUSGEZOGEN
 62
     2
 10
444.602005
 20
-294.056919
 11
444.602005
 21
-295.077565
  0
LINE
  8
C
  6
AUSGEZOGEN
 62
     2
 10
444.602005
 20
-295.077565
 11
444.631071
 21
-295.223316
  0
LINE
  8
C
  6
AUSGEZOGEN
 62
     2
 10
444.631071
 20
-295.223316
 11
444.708930
 21
-295.349751
  0
LINE
  8
C
  6
AUSGEZOGEN
 62
     2
 10
444.708930
 20
-295.349751
 11
444.820629
 21
-295.437162
  0
LINE
  8
C
  6
AUSGEZOGEN
 62
     2
 10
444.820629
 20
-295.437162
 11
444.956821
 21
-295.466237
  0
LINE
  8
C
  6
AUSGEZOGEN
 62
     2
 10
444.956821
 20
-295.466237
 11
450.094111
 21
-295.466237
  0
LINE
  8
C
  6
AUSGEZOGEN
 62
     2
 10
450.094111
 20
-295.466237
 11
450.166984
 21
-295.456682
  0
LINE
  8
C
  6
AUSGEZOGEN
 62
     2
 10
450.166984
 20
-295.456682
 11
450.152450
 21
-295.515018
  0
LINE
  8
C
  6
AUSGEZOGEN
 62
     2
 10
450.152450
 20
-295.515018
 11
450.152450
 21
-295.757943
  0
LINE
  8
C
  6
AUSGEZOGEN
 62
     2
 10
450.152450
 20
-295.757943
 11
450.132936
 21
-295.991293
  0
LINE
  8
C
  6
AUSGEZOGEN
 62
     2
 10
450.132936
 20
-295.991293
 11
450.069826
 21
-296.209917
  0
LINE
  8
C
  6
AUSGEZOGEN
 62
     2
 10
450.069826
 20
-296.209917
 11
449.972652
 21
-296.409226
  0
LINE
  8
C
  6
AUSGEZOGEN
 62
     2
 10
449.972652
 20
-296.409226
 11
449.841439
 21
-296.579274
  0
LINE
  8
C
  6
AUSGEZOGEN
 62
     2
 10
449.841439
 20
-296.579274
 11
449.685740
 21
-296.720247
  0
LINE
  8
C
  6
AUSGEZOGEN
 62
     2
 10
449.685740
 20
-296.720247
 11
449.505941
 21
-296.827169
  0
LINE
  8
C
  6
AUSGEZOGEN
 62
     2
 10
449.505941
 20
-296.827169
 11
449.306818
 21
-296.895265
  0
LINE
  8
C
  6
AUSGEZOGEN
 62
     2
 10
449.306818
 20
-296.895265
 11
449.092780
 21
-296.919562
  0
LINE
  8
C
  6
AUSGEZOGEN
 62
     2
 10
449.092780
 20
-296.919562
 11
441.267679
 21
-296.919562
  0
LINE
  8
C
  6
AUSGEZOGEN
 62
     2
 10
441.267679
 20
-296.919562
 11
441.053826
 21
-296.895265
  0
LINE
  8
C
  6
AUSGEZOGEN
 62
     2
 10
441.053826
 20
-296.895265
 11
440.854709
 21
-296.827169
  0
LINE
  8
C
  6
AUSGEZOGEN
 62
     2
 10
440.854709
 20
-296.827169
 11
440.674719
 21
-296.720247
  0
LINE
  8
C
  6
AUSGEZOGEN
 62
     2
 10
440.674719
 20
-296.720247
 11
440.519212
 21
-296.579274
  0
LINE
  8
C
  6
AUSGEZOGEN
 62
     2
 10
440.519212
 20
-296.579274
 11
440.387999
 21
-296.409226
  0
LINE
  8
C
  6
AUSGEZOGEN
 62
     2
 10
440.387999
 20
-296.409226
 11
440.290824
 21
-296.209917
  0
LINE
  8
C
  6
AUSGEZOGEN
 62
     2
 10
440.290824
 20
-296.209917
 11
440.227714
 21
-295.991293
  0
LINE
  8
C
  6
AUSGEZOGEN
 62
     2
 10
440.227714
 20
-295.991293
 11
440.208194
 21
-295.757943
  0
LINE
  8
C
  6
AUSGEZOGEN
 62
     2
 10
440.208194
 20
-295.757943
 11
440.208194
 21
-291.009514
  0
LINE
  8
C
  6
AUSGEZOGEN
 62
     2
 10
440.208194
 20
-291.009514
 11
440.227714
 21
-290.776151
  0
LINE
  8
C
  6
AUSGEZOGEN
 62
     2
 10
440.227714
 20
-290.776151
 11
440.290824
 21
-290.567095
  0
LINE
  8
C
  6
AUSGEZOGEN
 62
     2
 10
440.290824
 20
-290.567095
 11
440.387999
 21
-290.377537
  0
LINE
  8
C
  6
AUSGEZOGEN
 62
     2
 10
440.387999
 20
-290.377537
 11
440.514434
 21
-290.217252
  0
LINE
  8
C
  6
AUSGEZOGEN
 62
     2
 10
440.514434
 20
-290.217252
 11
440.669941
 21
-290.081060
  0
LINE
  8
C
  6
AUSGEZOGEN
 62
     2
 10
440.669941
 20
-290.081060
 11
440.849736
 21
-289.974135
  0
LINE
  8
C
  6
AUSGEZOGEN
 62
     2
 10
440.849736
 20
-289.974135
 11
441.053826
 21
-289.896471
  0
LINE
  8
C
  6
AUSGEZOGEN
 62
     2
 10
441.053826
 20
-289.896471
 11
441.160748
 21
-289.867213
  0
LINE
  8
C
  6
AUSGEZOGEN
 62
     2
 10
441.160748
 20
-289.867213
 11
441.267679
 21
-289.852673
  0
LINE
  8
C
  6
AUSGEZOGEN
 62
     2
 10
441.267679
 20
-289.852673
 11
441.340744
 21
-289.842922
  0
LINE
  8
C
  6
AUSGEZOGEN
 62
     2
 10
441.340744
 20
-289.842922
 11
448.903234
 21
-289.842922
  0
LINE
  8
C
  6
AUSGEZOGEN
 62
     2
 10
448.903234
 20
-289.842922
 11
449.092780
 21
-289.857450
  0
LINE
  8
C
  6
AUSGEZOGEN
 62
     2
 10
449.092780
 20
-289.857450
 11
449.306818
 21
-289.891498
  0
LINE
  8
C
  6
AUSGEZOGEN
 62
     2
 10
449.306818
 20
-289.891498
 11
449.505941
 21
-289.964375
  0
LINE
  8
C
  6
AUSGEZOGEN
 62
     2
 10
449.505941
 20
-289.964375
 11
449.685740
 21
-290.071309
  0
LINE
  8
C
  6
AUSGEZOGEN
 62
     2
 10
449.685740
 20
-290.071309
 11
449.836469
 21
-290.207489
  0
LINE
  8
C
  6
AUSGEZOGEN
 62
     2
 10
449.836469
 20
-290.207489
 11
449.962901
 21
-290.372759
  0
LINE
  8
C
  6
AUSGEZOGEN
 62
     2
 10
449.962901
 20
-290.372759
 11
450.060063
 21
-290.562305
  0
LINE
  8
C
  6
AUSGEZOGEN
 62
     2
 10
450.060063
 20
-290.562305
 11
450.123189
 21
-290.776151
  0
LINE
  8
C
  6
AUSGEZOGEN
 62
     2
 10
450.123189
 20
-290.776151
 11
450.142700
 21
-291.009514
  0
LINE
  8
C
  6
AUSGEZOGEN
 62
     2
 10
450.142700
 20
-291.009514
 11
450.142700
 21
-291.305997
  0
LINE
  8
C
  6
AUSGEZOGEN
 62
     2
 10
450.142700
 20
-291.305997
 11
450.152450
 21
-291.315556
  0
LINE
  8
C
  6
AUSGEZOGEN
 62
     2
 10
450.152450
 20
-291.315556
 11
450.132936
 21
-291.315556
  0
LINE
  8
C
  6
AUSGEZOGEN
 62
     2
 10
450.132936
 20
-291.315556
 11
444.956821
 21
-291.315556
  0
LINE
  8
C
  6
AUSGEZOGEN
 62
     2
 10
444.956821
 20
-291.315556
 11
444.888725
 21
-291.320525
  0
LINE
  8
C
  6
AUSGEZOGEN
 62
     2
 10
444.888725
 20
-291.320525
 11
444.820629
 21
-291.344823
  0
LINE
  8
C
  6
AUSGEZOGEN
 62
     2
 10
444.820629
 20
-291.344823
 11
444.708930
 21
-291.427447
  0
LINE
  8
C
  6
AUSGEZOGEN
 62
     2
 10
444.708930
 20
-291.427447
 11
444.631071
 21
-291.548906
  0
LINE
  8
C
  6
AUSGEZOGEN
 62
     2
 10
444.631071
 20
-291.548906
 11
444.611564
 21
-291.621783
  0
LINE
  8
C
  6
AUSGEZOGEN
 62
     2
 10
444.611564
 20
-291.621783
 11
444.602005
 21
-291.704420
  0
LINE
  8
C
  6
AUSGEZOGEN
 62
     2
 10
444.602005
 20
-291.704420
 11
444.602005
 21
-292.691021
  0
LINE
  8
C
  6
AUSGEZOGEN
 62
     2
 10
444.602005
 20
-292.691021
 11
444.602005
 21
-292.700772
  0
LINE
  8
C
  6
AUSGEZOGEN
 62
     2
 10
444.602005
 20
-292.700772
 11
444.611564
 21
-292.700772
  0
LINE
  8
C
  6
AUSGEZOGEN
 62
     2
 10
444.611564
 20
-292.700772
 11
449.802421
 21
-292.705741
  0
LINE
  8
C
  6
AUSGEZOGEN
 62
     2
 10
449.802421
 20
-292.705741
 11
449.812168
 21
-292.700772
  0
LINE
  8
C
  6
AUSGEZOGEN
 62
     2
 10
449.812168
 20
-292.700772
 11
449.812168
 21
-292.715306
  0
LINE
  8
C
  6
AUSGEZOGEN
 62
     2
 10
449.812168
 20
-292.715306
 11
449.812168
 21
-294.042189
  0
LINE
  8
C
  6
AUSGEZOGEN
 62
     2
 10
449.812168
 20
-294.042189
 11
449.812168
 21
-294.051946
  0
LINE
  8
C
  6
AUSGEZOGEN
 62
     2
 10
438.171679
 20
-286.785751
 11
434.482732
 21
-286.785751
  0
LINE
  8
C
  6
AUSGEZOGEN
 62
     2
 10
434.482732
 20
-286.785751
 11
434.414636
 21
-286.790721
  0
LINE
  8
C
  6
AUSGEZOGEN
 62
     2
 10
434.414636
 20
-286.790721
 11
434.346732
 21
-286.815018
  0
LINE
  8
C
  6
AUSGEZOGEN
 62
     2
 10
434.346732
 20
-286.815018
 11
434.230047
 21
-286.902436
  0
LINE
  8
C
  6
AUSGEZOGEN
 62
     2
 10
434.230047
 20
-286.902436
 11
434.152200
 21
-287.023895
  0
LINE
  8
C
  6
AUSGEZOGEN
 62
     2
 10
434.152200
 20
-287.023895
 11
434.132693
 21
-287.096769
  0
LINE
  8
C
  6
AUSGEZOGEN
 62
     2
 10
434.132693
 20
-287.096769
 11
434.123125
 21
-287.179393
  0
LINE
  8
C
  6
AUSGEZOGEN
 62
     2
 10
434.123125
 20
-287.179393
 11
434.123125
 21
-288.336234
  0
LINE
  8
C
  6
AUSGEZOGEN
 62
     2
 10
434.123125
 20
-288.336234
 11
434.152200
 21
-288.486967
  0
LINE
  8
C
  6
AUSGEZOGEN
 62
     2
 10
434.152200
 20
-288.486967
 11
434.230047
 21
-288.613207
  0
LINE
  8
C
  6
AUSGEZOGEN
 62
     2
 10
434.230047
 20
-288.613207
 11
434.346732
 21
-288.695831
  0
LINE
  8
C
  6
AUSGEZOGEN
 62
     2
 10
434.346732
 20
-288.695831
 11
434.482732
 21
-288.725098
  0
LINE
  8
C
  6
AUSGEZOGEN
 62
     2
 10
434.482732
 20
-288.725098
 11
438.171679
 21
-288.725098
  0
LINE
  8
C
  6
AUSGEZOGEN
 62
     2
 10
438.171679
 20
-288.725098
 11
438.307871
 21
-288.695831
  0
LINE
  8
C
  6
AUSGEZOGEN
 62
     2
 10
438.307871
 20
-288.695831
 11
438.424543
 21
-288.608426
  0
LINE
  8
C
  6
AUSGEZOGEN
 62
     2
 10
438.424543
 20
-288.608426
 11
438.497416
 21
-288.486967
  0
LINE
  8
C
  6
AUSGEZOGEN
 62
     2
 10
438.497416
 20
-288.486967
 11
438.526495
 21
-288.336234
  0
LINE
  8
C
  6
AUSGEZOGEN
 62
     2
 10
438.526495
 20
-288.336234
 11
438.526495
 21
-287.179393
  0
LINE
  8
C
  6
AUSGEZOGEN
 62
     2
 10
438.526495
 20
-287.179393
 11
438.497416
 21
-287.023895
  0
LINE
  8
C
  6
AUSGEZOGEN
 62
     2
 10
438.497416
 20
-287.023895
 11
438.424543
 21
-286.902436
  0
LINE
  8
C
  6
AUSGEZOGEN
 62
     2
 10
438.424543
 20
-286.902436
 11
438.307871
 21
-286.815018
  0
LINE
  8
C
  6
AUSGEZOGEN
 62
     2
 10
438.307871
 20
-286.815018
 11
438.171679
 21
-286.785751
  0
LINE
  8
C
  6
AUSGEZOGEN
 62
     2
 10
434.123125
 20
-289.876964
 11
434.142444
 21
-289.876964
  0
LINE
  8
C
  6
AUSGEZOGEN
 62
     2
 10
434.142444
 20
-289.876964
 11
438.511957
 21
-289.876964
  0
LINE
  8
C
  6
AUSGEZOGEN
 62
     2
 10
438.511957
 20
-289.876964
 11
438.526495
 21
-289.876964
  0
LINE
  8
C
  6
AUSGEZOGEN
 62
     2
 10
438.526495
 20
-289.876964
 11
438.516738
 21
-289.881751
  0
LINE
  8
C
  6
AUSGEZOGEN
 62
     2
 10
438.516738
 20
-289.881751
 11
438.516738
 21
-296.914772
  0
LINE
  8
C
  6
AUSGEZOGEN
 62
     2
 10
438.516738
 20
-296.914772
 11
438.526495
 21
-296.919562
  0
LINE
  8
C
  6
AUSGEZOGEN
 62
     2
 10
438.526495
 20
-296.919562
 11
438.516738
 21
-296.919562
  0
LINE
  8
C
  6
AUSGEZOGEN
 62
     2
 10
438.516738
 20
-296.919562
 11
434.142444
 21
-296.919562
  0
LINE
  8
C
  6
AUSGEZOGEN
 62
     2
 10
434.142444
 20
-296.919562
 11
434.123125
 21
-296.919562
  0
LINE
  8
C
  6
AUSGEZOGEN
 62
     2
 10
434.123125
 20
-296.919562
 11
434.132693
 21
-296.914772
  0
LINE
  8
C
  6
AUSGEZOGEN
 62
     2
 10
434.132693
 20
-296.914772
 11
434.132693
 21
-289.881751
  0
LINE
  8
C
  6
AUSGEZOGEN
 62
     2
 10
434.132693
 20
-289.881751
 11
434.123125
 21
-289.876964
  0
LINE
  8
C
  6
AUSGEZOGEN
 62
     2
 10
427.853292
 20
-295.446922
 11
427.994261
 21
-295.417655
  0
LINE
  8
C
  6
AUSGEZOGEN
 62
     2
 10
427.994261
 20
-295.417655
 11
428.105964
 21
-295.335031
  0
LINE
  8
C
  6
AUSGEZOGEN
 62
     2
 10
428.105964
 20
-295.335031
 11
428.183810
 21
-295.213565
  0
LINE
  8
C
  6
AUSGEZOGEN
 62
     2
 10
428.183810
 20
-295.213565
 11
428.212885
 21
-295.062839
  0
LINE
  8
C
  6
AUSGEZOGEN
 62
     2
 10
428.212885
 20
-295.062839
 11
428.212885
 21
-294.591530
  0
LINE
  8
C
  6
AUSGEZOGEN
 62
     2
 10
428.212885
 20
-294.591530
 11
428.183810
 21
-294.436029
  0
LINE
  8
C
  6
AUSGEZOGEN
 62
     2
 10
428.183810
 20
-294.436029
 11
428.105964
 21
-294.309588
  0
LINE
  8
C
  6
AUSGEZOGEN
 62
     2
 10
428.105964
 20
-294.309588
 11
428.057375
 21
-294.256033
  0
LINE
  8
C
  6
AUSGEZOGEN
 62
     2
 10
428.057375
 20
-294.256033
 11
427.994261
 21
-294.222186
  0
LINE
  8
C
  6
AUSGEZOGEN
 62
     2
 10
427.994261
 20
-294.222186
 11
427.853292
 21
-294.192919
  0
LINE
  8
C
  6
AUSGEZOGEN
 62
     2
 10
427.853292
 20
-294.192919
 11
427.012437
 21
-294.192919
  0
LINE
  8
C
  6
AUSGEZOGEN
 62
     2
 10
427.012437
 20
-294.192919
 11
425.850818
 21
-294.192919
  0
LINE
  8
C
  6
AUSGEZOGEN
 62
     2
 10
425.850818
 20
-294.192919
 11
425.219029
 21
-294.188138
  0
LINE
  8
C
  6
AUSGEZOGEN
 62
     2
 10
425.219029
 20
-294.188138
 11
424.684226
 21
-294.178381
  0
LINE
  8
C
  6
AUSGEZOGEN
 62
     2
 10
424.684226
 20
-294.178381
 11
424.212917
 21
-294.168618
  0
LINE
  8
C
  6
AUSGEZOGEN
 62
     2
 10
424.212917
 20
-294.168618
 11
423.687861
 21
-294.154090
  0
LINE
  8
C
  6
AUSGEZOGEN
 62
     2
 10
423.687861
 20
-294.154090
 11
423.478984
 21
-294.124823
  0
LINE
  8
C
  6
AUSGEZOGEN
 62
     2
 10
423.478984
 20
-294.124823
 11
423.279682
 21
-294.047159
  0
LINE
  8
C
  6
AUSGEZOGEN
 62
     2
 10
423.279682
 20
-294.047159
 11
423.099884
 21
-293.925709
  0
LINE
  8
C
  6
AUSGEZOGEN
 62
     2
 10
423.099884
 20
-293.925709
 11
422.944373
 21
-293.765226
  0
LINE
  8
C
  6
AUSGEZOGEN
 62
     2
 10
422.944373
 20
-293.765226
 11
422.817941
 21
-293.575671
  0
LINE
  8
C
  6
AUSGEZOGEN
 62
     2
 10
422.817941
 20
-293.575671
 11
422.720776
 21
-293.366605
  0
LINE
  8
C
  6
AUSGEZOGEN
 62
     2
 10
422.720776
 20
-293.366605
 11
422.657461
 21
-293.138218
  0
LINE
  8
C
  6
AUSGEZOGEN
 62
     2
 10
422.657461
 20
-293.138218
 11
422.638146
 21
-292.900074
  0
LINE
  8
C
  6
AUSGEZOGEN
 62
     2
 10
422.638146
 20
-292.900074
 11
422.638146
 21
-291.009514
  0
LINE
  8
C
  6
AUSGEZOGEN
 62
     2
 10
422.638146
 20
-291.009514
 11
422.657461
 21
-290.771178
  0
LINE
  8
C
  6
AUSGEZOGEN
 62
     2
 10
422.657461
 20
-290.771178
 11
422.720776
 21
-290.557335
  0
LINE
  8
C
  6
AUSGEZOGEN
 62
     2
 10
422.720776
 20
-290.557335
 11
422.822722
 21
-290.362999
  0
LINE
  8
C
  6
AUSGEZOGEN
 62
     2
 10
422.822722
 20
-290.362999
 11
422.949164
 21
-290.192951
  0
LINE
  8
C
  6
AUSGEZOGEN
 62
     2
 10
422.949164
 20
-290.192951
 11
423.109640
 21
-290.051981
  0
LINE
  8
C
  6
AUSGEZOGEN
 62
     2
 10
423.109640
 20
-290.051981
 11
423.289439
 21
-289.945060
  0
LINE
  8
C
  6
AUSGEZOGEN
 62
     2
 10
423.289439
 20
-289.945060
 11
423.488748
 21
-289.872183
  0
LINE
  8
C
  6
AUSGEZOGEN
 62
     2
 10
423.488748
 20
-289.872183
 11
423.590700
 21
-289.847895
  0
LINE
  8
C
  6
AUSGEZOGEN
 62
     2
 10
423.590700
 20
-289.847895
 11
423.697621
 21
-289.842922
  0
LINE
  8
C
  6
AUSGEZOGEN
 62
     2
 10
423.697621
 20
-289.842922
 11
423.794796
 21
-289.833165
  0
LINE
  8
C
  6
AUSGEZOGEN
 62
     2
 10
423.794796
 20
-289.833165
 11
431.090248
 21
-289.833165
  0
LINE
  8
C
  6
AUSGEZOGEN
 62
     2
 10
431.090248
 20
-289.833165
 11
431.445064
 21
-289.847895
  0
LINE
  8
C
  6
AUSGEZOGEN
 62
     2
 10
431.445064
 20
-289.847895
 11
431.586037
 21
-289.867213
  0
LINE
  8
C
  6
AUSGEZOGEN
 62
     2
 10
431.586037
 20
-289.867213
 11
431.809644
 21
-289.906039
  0
LINE
  8
C
  6
AUSGEZOGEN
 62
     2
 10
431.809644
 20
-289.906039
 11
432.008757
 21
-289.979108
  0
LINE
  8
C
  6
AUSGEZOGEN
 62
     2
 10
432.008757
 20
-289.979108
 11
432.188552
 21
-290.081060
  0
LINE
  8
C
  6
AUSGEZOGEN
 62
     2
 10
432.188552
 20
-290.081060
 11
432.339285
 21
-290.217252
  0
LINE
  8
C
  6
AUSGEZOGEN
 62
     2
 10
432.339285
 20
-290.217252
 11
432.465717
 21
-290.377537
  0
LINE
  8
C
  6
AUSGEZOGEN
 62
     2
 10
432.465717
 20
-290.377537
 11
432.558111
 21
-290.567095
  0
LINE
  8
C
  6
AUSGEZOGEN
 62
     2
 10
432.558111
 20
-290.567095
 11
432.616450
 21
-290.776151
  0
LINE
  8
C
  6
AUSGEZOGEN
 62
     2
 10
432.616450
 20
-290.776151
 11
432.635765
 21
-291.009514
  0
LINE
  8
C
  6
AUSGEZOGEN
 62
     2
 10
432.635765
 20
-291.009514
 11
432.635765
 21
-291.305997
  0
LINE
  8
C
  6
AUSGEZOGEN
 62
     2
 10
432.635765
 20
-291.305997
 11
432.635765
 21
-291.315556
  0
LINE
  8
C
  6
AUSGEZOGEN
 62
     2
 10
432.635765
 20
-291.315556
 11
432.626005
 21
-291.315556
  0
LINE
  8
C
  6
AUSGEZOGEN
 62
     2
 10
432.626005
 20
-291.315556
 11
427.420616
 21
-291.315556
  0
LINE
  8
C
  6
AUSGEZOGEN
 62
     2
 10
427.420616
 20
-291.315556
 11
427.347743
 21
-291.320525
  0
LINE
  8
C
  6
AUSGEZOGEN
 62
     2
 10
427.347743
 20
-291.320525
 11
427.279647
 21
-291.344823
  0
LINE
  8
C
  6
AUSGEZOGEN
 62
     2
 10
427.279647
 20
-291.344823
 11
427.163167
 21
-291.432234
  0
LINE
  8
C
  6
AUSGEZOGEN
 62
     2
 10
427.163167
 20
-291.432234
 11
427.119362
 21
-291.485796
  0
LINE
  8
C
  6
AUSGEZOGEN
 62
     2
 10
427.119362
 20
-291.485796
 11
427.090092
 21
-291.553687
  0
LINE
  8
C
  6
AUSGEZOGEN
 62
     2
 10
427.090092
 20
-291.553687
 11
427.070773
 21
-291.626765
  0
LINE
  8
C
  6
AUSGEZOGEN
 62
     2
 10
427.070773
 20
-291.626765
 11
427.061023
 21
-291.704420
  0
LINE
  8
C
  6
AUSGEZOGEN
 62
     2
 10
427.061023
 20
-291.704420
 11
427.061023
 21
-292.195415
  0
LINE
  8
C
  6
AUSGEZOGEN
 62
     2
 10
427.061023
 20
-292.195415
 11
427.090092
 21
-292.345956
  0
LINE
  8
C
  6
AUSGEZOGEN
 62
     2
 10
427.090092
 20
-292.345956
 11
427.167944
 21
-292.472385
  0
LINE
  8
C
  6
AUSGEZOGEN
 62
     2
 10
427.167944
 20
-292.472385
 11
427.284616
 21
-292.555021
  0
LINE
  8
C
  6
AUSGEZOGEN
 62
     2
 10
427.284616
 20
-292.555021
 11
427.420616
 21
-292.584100
  0
LINE
  8
C
  6
AUSGEZOGEN
 62
     2
 10
427.420616
 20
-292.584100
 11
428.339317
 21
-292.593847
  0
LINE
  8
C
  6
AUSGEZOGEN
 62
     2
 10
428.339317
 20
-292.593847
 11
429.636936
 21
-292.593847
  0
LINE
  8
C
  6
AUSGEZOGEN
 62
     2
 10
429.636936
 20
-292.593847
 11
430.652802
 21
-292.608385
  0
LINE
  8
C
  6
AUSGEZOGEN
 62
     2
 10
430.652802
 20
-292.608385
 11
431.586037
 21
-292.627895
  0
LINE
  8
C
  6
AUSGEZOGEN
 62
     2
 10
431.586037
 20
-292.627895
 11
431.799880
 21
-292.652183
  0
LINE
  8
C
  6
AUSGEZOGEN
 62
     2
 10
431.799880
 20
-292.652183
 11
431.994220
 21
-292.720279
  0
LINE
  8
C
  6
AUSGEZOGEN
 62
     2
 10
431.994220
 20
-292.720279
 11
432.174024
 21
-292.827201
  0
LINE
  8
C
  6
AUSGEZOGEN
 62
     2
 10
432.174024
 20
-292.827201
 11
432.329538
 21
-292.968170
  0
LINE
  8
C
  6
AUSGEZOGEN
 62
     2
 10
432.329538
 20
-292.968170
 11
432.455967
 21
-293.143191
  0
LINE
  8
C
  6
AUSGEZOGEN
 62
     2
 10
432.455967
 20
-293.143191
 11
432.553132
 21
-293.337527
  0
LINE
  8
C
  6
AUSGEZOGEN
 62
     2
 10
432.553132
 20
-293.337527
 11
432.616450
 21
-293.556161
  0
LINE
  8
C
  6
AUSGEZOGEN
 62
     2
 10
432.616450
 20
-293.556161
 11
432.635765
 21
-293.789517
  0
LINE
  8
C
  6
AUSGEZOGEN
 62
     2
 10
432.635765
 20
-293.789517
 11
432.635765
 21
-295.757943
  0
LINE
  8
C
  6
AUSGEZOGEN
 62
     2
 10
432.635765
 20
-295.757943
 11
432.616450
 21
-295.991293
  0
LINE
  8
C
  6
AUSGEZOGEN
 62
     2
 10
432.616450
 20
-295.991293
 11
432.553132
 21
-296.209917
  0
LINE
  8
C
  6
AUSGEZOGEN
 62
     2
 10
432.553132
 20
-296.209917
 11
432.455967
 21
-296.409226
  0
LINE
  8
C
  6
AUSGEZOGEN
 62
     2
 10
432.455967
 20
-296.409226
 11
432.329538
 21
-296.579274
  0
LINE
  8
C
  6
AUSGEZOGEN
 62
     2
 10
432.329538
 20
-296.579274
 11
432.174024
 21
-296.720247
  0
LINE
  8
C
  6
AUSGEZOGEN
 62
     2
 10
432.174024
 20
-296.720247
 11
431.994220
 21
-296.827169
  0
LINE
  8
C
  6
AUSGEZOGEN
 62
     2
 10
431.994220
 20
-296.827169
 11
431.794911
 21
-296.895265
  0
LINE
  8
C
  6
AUSGEZOGEN
 62
     2
 10
431.794911
 20
-296.895265
 11
431.576287
 21
-296.919562
  0
LINE
  8
C
  6
AUSGEZOGEN
 62
     2
 10
431.576287
 20
-296.919562
 11
423.687861
 21
-296.919562
  0
LINE
  8
C
  6
AUSGEZOGEN
 62
     2
 10
423.687861
 20
-296.919562
 11
423.478984
 21
-296.895265
  0
LINE
  8
C
  6
AUSGEZOGEN
 62
     2
 10
423.478984
 20
-296.895265
 11
423.279682
 21
-296.827169
  0
LINE
  8
C
  6
AUSGEZOGEN
 62
     2
 10
423.279682
 20
-296.827169
 11
423.099884
 21
-296.720247
  0
LINE
  8
C
  6
AUSGEZOGEN
 62
     2
 10
423.099884
 20
-296.720247
 11
422.944373
 21
-296.579274
  0
LINE
  8
C
  6
AUSGEZOGEN
 62
     2
 10
422.944373
 20
-296.579274
 11
422.817941
 21
-296.409226
  0
LINE
  8
C
  6
AUSGEZOGEN
 62
     2
 10
422.817941
 20
-296.409226
 11
422.720776
 21
-296.209917
  0
LINE
  8
C
  6
AUSGEZOGEN
 62
     2
 10
422.720776
 20
-296.209917
 11
422.657461
 21
-295.991293
  0
LINE
  8
C
  6
AUSGEZOGEN
 62
     2
 10
422.657461
 20
-295.991293
 11
422.638146
 21
-295.757943
  0
LINE
  8
C
  6
AUSGEZOGEN
 62
     2
 10
422.638146
 20
-295.757943
 11
422.638146
 21
-295.446922
  0
LINE
  8
C
  6
AUSGEZOGEN
 62
     2
 10
422.638146
 20
-295.446922
 11
422.642924
 21
-295.446922
  0
LINE
  8
C
  6
AUSGEZOGEN
 62
     2
 10
422.642924
 20
-295.446922
 11
427.853292
 21
-295.446922
  0
LINE
  8
C
  6
AUSGEZOGEN
 62
     2
 10
457.923999
 20
-295.077565
 11
457.923999
 21
-294.027661
  0
LINE
  8
C
  6
AUSGEZOGEN
 62
     2
 10
457.923999
 20
-294.027661
 11
457.943509
 21
-293.969316
  0
LINE
  8
C
  6
AUSGEZOGEN
 62
     2
 10
457.943509
 20
-293.969316
 11
457.885173
 21
-293.979073
  0
LINE
  8
C
  6
AUSGEZOGEN
 62
     2
 10
457.885173
 20
-293.979073
 11
457.068616
 21
-293.979073
  0
LINE
  8
C
  6
AUSGEZOGEN
 62
     2
 10
457.068616
 20
-293.979073
 11
457.000712
 21
-294.003364
  0
LINE
  8
C
  6
AUSGEZOGEN
 62
     2
 10
457.000712
 20
-294.003364
 11
457.020034
 21
-293.935268
  0
LINE
  8
C
  6
AUSGEZOGEN
 62
     2
 10
457.020034
 20
-293.935268
 11
457.020034
 21
-292.754327
  0
LINE
  8
C
  6
AUSGEZOGEN
 62
     2
 10
457.020034
 20
-292.754327
 11
457.000712
 21
-292.691021
  0
LINE
  8
C
  6
AUSGEZOGEN
 62
     2
 10
457.000712
 20
-292.691021
 11
457.073589
 21
-292.700772
  0
LINE
  8
C
  6
AUSGEZOGEN
 62
     2
 10
457.073589
 20
-292.700772
 11
462.084447
 21
-292.700772
  0
LINE
  8
C
  6
AUSGEZOGEN
 62
     2
 10
462.084447
 20
-292.700772
 11
462.157512
 21
-292.681450
  0
LINE
  8
C
  6
AUSGEZOGEN
 62
     2
 10
462.157512
 20
-292.681450
 11
462.138005
 21
-292.749354
  0
LINE
  8
C
  6
AUSGEZOGEN
 62
     2
 10
462.138005
 20
-292.749354
 11
462.138005
 21
-295.466237
  0
LINE
  8
C
  6
AUSGEZOGEN
 62
     2
 10
462.138005
 20
-295.466237
 11
462.138005
 21
-295.757943
  0
LINE
  8
C
  6
AUSGEZOGEN
 62
     2
 10
462.138005
 20
-295.757943
 11
462.118495
 21
-295.991293
  0
LINE
  8
C
  6
AUSGEZOGEN
 62
     2
 10
462.118495
 20
-295.991293
 11
462.055381
 21
-296.209917
  0
LINE
  8
C
  6
AUSGEZOGEN
 62
     2
 10
462.055381
 20
-296.209917
 11
461.958210
 21
-296.409226
  0
LINE
  8
C
  6
AUSGEZOGEN
 62
     2
 10
461.958210
 20
-296.409226
 11
461.826997
 21
-296.579274
  0
LINE
  8
C
  6
AUSGEZOGEN
 62
     2
 10
461.826997
 20
-296.579274
 11
461.671490
 21
-296.720247
  0
LINE
  8
C
  6
AUSGEZOGEN
 62
     2
 10
461.671490
 20
-296.720247
 11
461.491500
 21
-296.827169
  0
LINE
  8
C
  6
AUSGEZOGEN
 62
     2
 10
461.491500
 20
-296.827169
 11
461.292373
 21
-296.895265
  0
LINE
  8
C
  6
AUSGEZOGEN
 62
     2
 10
461.292373
 20
-296.895265
 11
461.078530
 21
-296.919562
  0
LINE
  8
C
  6
AUSGEZOGEN
 62
     2
 10
461.078530
 20
-296.919562
 11
452.689538
 21
-296.919562
  0
LINE
  8
C
  6
AUSGEZOGEN
 62
     2
 10
452.689538
 20
-296.919562
 11
452.480469
 21
-296.895265
  0
LINE
  8
C
  6
AUSGEZOGEN
 62
     2
 10
452.480469
 20
-296.895265
 11
452.281160
 21
-296.827169
  0
LINE
  8
C
  6
AUSGEZOGEN
 62
     2
 10
452.281160
 20
-296.827169
 11
452.101365
 21
-296.720247
  0
LINE
  8
C
  6
AUSGEZOGEN
 62
     2
 10
452.101365
 20
-296.720247
 11
451.945858
 21
-296.579274
  0
LINE
  8
C
  6
AUSGEZOGEN
 62
     2
 10
451.945858
 20
-296.579274
 11
451.819423
 21
-296.404449
  0
LINE
  8
C
  6
AUSGEZOGEN
 62
     2
 10
451.819423
 20
-296.404449
 11
451.722261
 21
-296.205140
  0
LINE
  8
C
  6
AUSGEZOGEN
 62
     2
 10
451.722261
 20
-296.205140
 11
451.659138
 21
-295.986324
  0
LINE
  8
C
  6
AUSGEZOGEN
 62
     2
 10
451.659138
 20
-295.986324
 11
451.639624
 21
-295.757943
  0
LINE
  8
C
  6
AUSGEZOGEN
 62
     2
 10
451.639624
 20
-295.757943
 11
451.639624
 21
-291.009514
  0
LINE
  8
C
  6
AUSGEZOGEN
 62
     2
 10
451.639624
 20
-291.009514
 11
451.659138
 21
-290.776151
  0
LINE
  8
C
  6
AUSGEZOGEN
 62
     2
 10
451.659138
 20
-290.776151
 11
451.707720
 21
-290.567095
  0
LINE
  8
C
  6
AUSGEZOGEN
 62
     2
 10
451.707720
 20
-290.567095
 11
451.795138
 21
-290.377537
  0
LINE
  8
C
  6
AUSGEZOGEN
 62
     2
 10
451.795138
 20
-290.377537
 11
451.907029
 21
-290.217252
  0
LINE
  8
C
  6
AUSGEZOGEN
 62
     2
 10
451.907029
 20
-290.217252
 11
452.048002
 21
-290.081060
  0
LINE
  8
C
  6
AUSGEZOGEN
 62
     2
 10
452.048002
 20
-290.081060
 11
452.218050
 21
-289.974135
  0
LINE
  8
C
  6
AUSGEZOGEN
 62
     2
 10
452.218050
 20
-289.974135
 11
452.407596
 21
-289.901261
  0
LINE
  8
C
  6
AUSGEZOGEN
 62
     2
 10
452.407596
 20
-289.901261
 11
452.509740
 21
-289.872183
  0
LINE
  8
C
  6
AUSGEZOGEN
 62
     2
 10
452.509740
 20
-289.872183
 11
452.616661
 21
-289.857450
  0
LINE
  8
C
  6
AUSGEZOGEN
 62
     2
 10
452.616661
 20
-289.857450
 11
452.810997
 21
-289.842922
  0
LINE
  8
C
  6
AUSGEZOGEN
 62
     2
 10
452.810997
 20
-289.842922
 11
460.903509
 21
-289.842922
  0
LINE
  8
C
  6
AUSGEZOGEN
 62
     2
 10
460.903509
 20
-289.842922
 11
461.097845
 21
-289.857450
  0
LINE
  8
C
  6
AUSGEZOGEN
 62
     2
 10
461.097845
 20
-289.857450
 11
461.306911
 21
-289.896471
  0
LINE
  8
C
  6
AUSGEZOGEN
 62
     2
 10
461.306911
 20
-289.896471
 11
461.501250
 21
-289.969357
  0
LINE
  8
C
  6
AUSGEZOGEN
 62
     2
 10
461.501250
 20
-289.969357
 11
461.676268
 21
-290.076279
  0
LINE
  8
C
  6
AUSGEZOGEN
 62
     2
 10
461.676268
 20
-290.076279
 11
461.822018
 21
-290.212279
  0
LINE
  8
C
  6
AUSGEZOGEN
 62
     2
 10
461.822018
 20
-290.212279
 11
461.943669
 21
-290.372759
  0
LINE
  8
C
  6
AUSGEZOGEN
 62
     2
 10
461.943669
 20
-290.372759
 11
462.031084
 21
-290.562305
  0
LINE
  8
C
  6
AUSGEZOGEN
 62
     2
 10
462.031084
 20
-290.562305
 11
462.089416
 21
-290.776151
  0
LINE
  8
C
  6
AUSGEZOGEN
 62
     2
 10
462.089416
 20
-290.776151
 11
462.108744
 21
-291.009514
  0
LINE
  8
C
  6
AUSGEZOGEN
 62
     2
 10
462.108744
 20
-291.009514
 11
462.108744
 21
-291.301015
  0
LINE
  8
C
  6
AUSGEZOGEN
 62
     2
 10
462.108744
 20
-291.301015
 11
462.108744
 21
-291.325313
  0
LINE
  8
C
  6
AUSGEZOGEN
 62
     2
 10
462.108744
 20
-291.325313
 11
462.089416
 21
-291.315556
  0
LINE
  8
C
  6
AUSGEZOGEN
 62
     2
 10
462.089416
 20
-291.315556
 11
456.388245
 21
-291.315556
  0
LINE
  8
C
  6
AUSGEZOGEN
 62
     2
 10
456.388245
 20
-291.315556
 11
456.315372
 21
-291.320525
  0
LINE
  8
C
  6
AUSGEZOGEN
 62
     2
 10
456.315372
 20
-291.320525
 11
456.247276
 21
-291.344823
  0
LINE
  8
C
  6
AUSGEZOGEN
 62
     2
 10
456.247276
 20
-291.344823
 11
456.135573
 21
-291.427447
  0
LINE
  8
C
  6
AUSGEZOGEN
 62
     2
 10
456.135573
 20
-291.427447
 11
456.091765
 21
-291.480810
  0
LINE
  8
C
  6
AUSGEZOGEN
 62
     2
 10
456.091765
 20
-291.480810
 11
456.062508
 21
-291.548906
  0
LINE
  8
C
  6
AUSGEZOGEN
 62
     2
 10
456.062508
 20
-291.548906
 11
456.043189
 21
-291.621783
  0
LINE
  8
C
  6
AUSGEZOGEN
 62
     2
 10
456.043189
 20
-291.621783
 11
456.033429
 21
-291.704420
  0
LINE
  8
C
  6
AUSGEZOGEN
 62
     2
 10
456.033429
 20
-291.704420
 11
456.033429
 21
-295.067818
  0
LINE
  8
C
  6
AUSGEZOGEN
 62
     2
 10
456.033429
 20
-295.067818
 11
456.062508
 21
-295.223316
  0
LINE
  8
C
  6
AUSGEZOGEN
 62
     2
 10
456.062508
 20
-295.223316
 11
456.140354
 21
-295.349751
  0
LINE
  8
C
  6
AUSGEZOGEN
 62
     2
 10
456.140354
 20
-295.349751
 11
456.252053
 21
-295.437162
  0
LINE
  8
C
  6
AUSGEZOGEN
 62
     2
 10
456.252053
 20
-295.437162
 11
456.388245
 21
-295.466237
  0
LINE
  8
C
  6
AUSGEZOGEN
 62
     2
 10
456.388245
 20
-295.466237
 11
457.559624
 21
-295.466237
  0
LINE
  8
C
  6
AUSGEZOGEN
 62
     2
 10
457.559624
 20
-295.466237
 11
457.705375
 21
-295.437162
  0
LINE
  8
C
  6
AUSGEZOGEN
 62
     2
 10
457.705375
 20
-295.437162
 11
457.817077
 21
-295.354538
  0
LINE
  8
C
  6
AUSGEZOGEN
 62
     2
 10
457.817077
 20
-295.354538
 11
457.894933
 21
-295.228106
  0
LINE
  8
C
  6
AUSGEZOGEN
 62
     2
 10
457.894933
 20
-295.228106
 11
457.923999
 21
-295.077565
  0
LINE
  8
C
  6
AUSGEZOGEN
 62
     2
 10
490.444383
 20
-286.785751
 11
486.755436
 21
-286.785751
  0
LINE
  8
C
  6
AUSGEZOGEN
 62
     2
 10
486.755436
 20
-286.785751
 11
486.619244
 21
-286.815018
  0
LINE
  8
C
  6
AUSGEZOGEN
 62
     2
 10
486.619244
 20
-286.815018
 11
486.507541
 21
-286.902436
  0
LINE
  8
C
  6
AUSGEZOGEN
 62
     2
 10
486.507541
 20
-286.902436
 11
486.429685
 21
-287.023895
  0
LINE
  8
C
  6
AUSGEZOGEN
 62
     2
 10
486.429685
 20
-287.023895
 11
486.400620
 21
-287.179393
  0
LINE
  8
C
  6
AUSGEZOGEN
 62
     2
 10
486.400620
 20
-287.179393
 11
486.400620
 21
-288.336234
  0
LINE
  8
C
  6
AUSGEZOGEN
 62
     2
 10
486.400620
 20
-288.336234
 11
486.429685
 21
-288.486967
  0
LINE
  8
C
  6
AUSGEZOGEN
 62
     2
 10
486.429685
 20
-288.486967
 11
486.507541
 21
-288.608426
  0
LINE
  8
C
  6
AUSGEZOGEN
 62
     2
 10
486.507541
 20
-288.608426
 11
486.619244
 21
-288.695831
  0
LINE
  8
C
  6
AUSGEZOGEN
 62
     2
 10
486.619244
 20
-288.695831
 11
486.755436
 21
-288.725098
  0
LINE
  8
C
  6
AUSGEZOGEN
 62
     2
 10
486.755436
 20
-288.725098
 11
490.439413
 21
-288.725098
  0
LINE
  8
C
  6
AUSGEZOGEN
 62
     2
 10
490.439413
 20
-288.725098
 11
490.580383
 21
-288.695831
  0
LINE
  8
C
  6
AUSGEZOGEN
 62
     2
 10
490.580383
 20
-288.695831
 11
490.692277
 21
-288.608426
  0
LINE
  8
C
  6
AUSGEZOGEN
 62
     2
 10
490.692277
 20
-288.608426
 11
490.735880
 21
-288.550081
  0
LINE
  8
C
  6
AUSGEZOGEN
 62
     2
 10
490.735880
 20
-288.550081
 11
490.765151
 21
-288.481985
  0
LINE
  8
C
  6
AUSGEZOGEN
 62
     2
 10
490.765151
 20
-288.481985
 11
490.794229
 21
-288.331457
  0
LINE
  8
C
  6
AUSGEZOGEN
 62
     2
 10
490.794229
 20
-288.331457
 11
490.794229
 21
-287.179393
  0
LINE
  8
C
  6
AUSGEZOGEN
 62
     2
 10
490.794229
 20
-287.179393
 11
490.789442
 21
-287.096769
  0
LINE
  8
C
  6
AUSGEZOGEN
 62
     2
 10
490.789442
 20
-287.096769
 11
490.765151
 21
-287.023895
  0
LINE
  8
C
  6
AUSGEZOGEN
 62
     2
 10
490.765151
 20
-287.023895
 11
490.735880
 21
-286.955991
  0
LINE
  8
C
  6
AUSGEZOGEN
 62
     2
 10
490.735880
 20
-286.955991
 11
490.692277
 21
-286.902436
  0
LINE
  8
C
  6
AUSGEZOGEN
 62
     2
 10
490.692277
 20
-286.902436
 11
490.643692
 21
-286.849066
  0
LINE
  8
C
  6
AUSGEZOGEN
 62
     2
 10
490.643692
 20
-286.849066
 11
490.580383
 21
-286.815018
  0
LINE
  8
C
  6
AUSGEZOGEN
 62
     2
 10
490.580383
 20
-286.815018
 11
490.517256
 21
-286.790721
  0
LINE
  8
C
  6
AUSGEZOGEN
 62
     2
 10
490.517256
 20
-286.790721
 11
490.444383
 21
-286.785751
  0
LINE
  8
C
  6
AUSGEZOGEN
 62
     2
 10
486.400620
 20
-289.876964
 11
486.415148
 21
-289.876964
  0
LINE
  8
C
  6
AUSGEZOGEN
 62
     2
 10
486.415148
 20
-289.876964
 11
490.784469
 21
-289.876964
  0
LINE
  8
C
  6
AUSGEZOGEN
 62
     2
 10
490.784469
 20
-289.876964
 11
490.794229
 21
-289.867213
  0
LINE
  8
C
  6
AUSGEZOGEN
 62
     2
 10
490.794229
 20
-289.867213
 11
490.794229
 21
-289.881751
  0
LINE
  8
C
  6
AUSGEZOGEN
 62
     2
 10
490.794229
 20
-289.881751
 11
490.794229
 21
-296.914772
  0
LINE
  8
C
  6
AUSGEZOGEN
 62
     2
 10
490.794229
 20
-296.914772
 11
490.803976
 21
-296.919562
  0
LINE
  8
C
  6
AUSGEZOGEN
 62
     2
 10
490.803976
 20
-296.919562
 11
490.784469
 21
-296.919562
  0
LINE
  8
C
  6
AUSGEZOGEN
 62
     2
 10
490.784469
 20
-296.919562
 11
486.410178
 21
-296.919562
  0
LINE
  8
C
  6
AUSGEZOGEN
 62
     2
 10
486.410178
 20
-296.919562
 11
486.400620
 21
-296.919562
  0
LINE
  8
C
  6
AUSGEZOGEN
 62
     2
 10
486.400620
 20
-296.919562
 11
486.400620
 21
-296.914772
  0
LINE
  8
C
  6
AUSGEZOGEN
 62
     2
 10
486.400620
 20
-296.914772
 11
486.400620
 21
-289.881751
  0
LINE
  8
C
  6
AUSGEZOGEN
 62
     2
 10
486.400620
 20
-289.881751
 11
486.400620
 21
-289.876964
  0
LINE
  8
C
  6
AUSGEZOGEN
 62
     2
 10
483.620418
 20
-296.919562
 11
479.110124
 21
-296.919562
  0
LINE
  8
C
  6
AUSGEZOGEN
 62
     2
 10
479.110124
 20
-296.919562
 11
479.110124
 21
-296.914772
  0
LINE
  8
C
  6
AUSGEZOGEN
 62
     2
 10
479.110124
 20
-296.914772
 11
478.050453
 21
-294.450570
  0
LINE
  8
C
  6
AUSGEZOGEN
 62
     2
 10
478.050453
 20
-294.450570
 11
477.287455
 21
-292.730039
  0
LINE
  8
C
  6
AUSGEZOGEN
 62
     2
 10
477.287455
 20
-292.730039
 11
477.010485
 21
-292.141866
  0
LINE
  8
C
  6
AUSGEZOGEN
 62
     2
 10
477.010485
 20
-292.141866
 11
476.869512
 21
-291.889188
  0
LINE
  8
C
  6
AUSGEZOGEN
 62
     2
 10
476.869512
 20
-291.889188
 11
476.884053
 21
-291.937770
  0
LINE
  8
C
  6
AUSGEZOGEN
 62
     2
 10
476.884053
 20
-291.937770
 11
476.893804
 21
-292.020407
  0
LINE
  8
C
  6
AUSGEZOGEN
 62
     2
 10
476.893804
 20
-292.020407
 11
476.893804
 21
-296.914772
  0
LINE
  8
C
  6
AUSGEZOGEN
 62
     2
 10
476.893804
 20
-296.914772
 11
476.893804
 21
-296.919562
  0
LINE
  8
C
  6
AUSGEZOGEN
 62
     2
 10
476.893804
 20
-296.919562
 11
476.888834
 21
-296.919562
  0
LINE
  8
C
  6
AUSGEZOGEN
 62
     2
 10
476.888834
 20
-296.919562
 11
475.294741
 21
-296.919562
  0
LINE
  8
C
  6
AUSGEZOGEN
 62
     2
 10
475.294741
 20
-296.919562
 11
475.260693
 21
-296.929313
  0
LINE
  8
C
  6
AUSGEZOGEN
 62
     2
 10
475.260693
 20
-296.929313
 11
475.270444
 21
-296.895265
  0
LINE
  8
C
  6
AUSGEZOGEN
 62
     2
 10
475.270444
 20
-296.895265
 11
475.270444
 21
-291.009514
  0
LINE
  8
C
  6
AUSGEZOGEN
 62
     2
 10
475.270444
 20
-291.009514
 11
475.289772
 21
-290.771178
  0
LINE
  8
C
  6
AUSGEZOGEN
 62
     2
 10
475.289772
 20
-290.771178
 11
475.348104
 21
-290.557335
  0
LINE
  8
C
  6
AUSGEZOGEN
 62
     2
 10
475.348104
 20
-290.557335
 11
475.440492
 21
-290.362999
  0
LINE
  8
C
  6
AUSGEZOGEN
 62
     2
 10
475.440492
 20
-290.362999
 11
475.557164
 21
-290.197738
  0
LINE
  8
C
  6
AUSGEZOGEN
 62
     2
 10
475.557164
 20
-290.197738
 11
475.707893
 21
-290.056769
  0
LINE
  8
C
  6
AUSGEZOGEN
 62
     2
 10
475.707893
 20
-290.056769
 11
475.877941
 21
-289.949847
  0
LINE
  8
C
  6
AUSGEZOGEN
 62
     2
 10
475.877941
 20
-289.949847
 11
476.072277
 21
-289.881751
  0
LINE
  8
C
  6
AUSGEZOGEN
 62
     2
 10
476.072277
 20
-289.881751
 11
476.281346
 21
-289.852673
  0
LINE
  8
C
  6
AUSGEZOGEN
 62
     2
 10
476.281346
 20
-289.852673
 11
476.451381
 21
-289.842922
  0
LINE
  8
C
  6
AUSGEZOGEN
 62
     2
 10
476.451381
 20
-289.842922
 11
480.801388
 21
-289.842922
  0
LINE
  8
C
  6
AUSGEZOGEN
 62
     2
 10
480.801388
 20
-289.842922
 11
481.865836
 21
-292.341175
  0
LINE
  8
C
  6
AUSGEZOGEN
 62
     2
 10
481.865836
 20
-292.341175
 11
482.633813
 21
-294.085994
  0
LINE
  8
C
  6
AUSGEZOGEN
 62
     2
 10
482.633813
 20
-294.085994
 11
482.910786
 21
-294.678945
  0
LINE
  8
C
  6
AUSGEZOGEN
 62
     2
 10
482.910786
 20
-294.678945
 11
483.051756
 21
-294.941373
  0
LINE
  8
C
  6
AUSGEZOGEN
 62
     2
 10
483.051756
 20
-294.941373
 11
483.027458
 21
-294.800404
  0
LINE
  8
C
  6
AUSGEZOGEN
 62
     2
 10
483.027458
 20
-294.800404
 11
483.027458
 21
-289.842922
  0
LINE
  8
C
  6
AUSGEZOGEN
 62
     2
 10
483.027458
 20
-289.842922
 11
483.027458
 21
-289.833165
  0
LINE
  8
C
  6
AUSGEZOGEN
 62
     2
 10
483.027458
 20
-289.833165
 11
483.037215
 21
-289.842922
  0
LINE
  8
C
  6
AUSGEZOGEN
 62
     2
 10
483.037215
 20
-289.842922
 11
484.670338
 21
-289.842922
  0
LINE
  8
C
  6
AUSGEZOGEN
 62
     2
 10
484.670338
 20
-289.842922
 11
484.679893
 21
-289.833165
  0
LINE
  8
C
  6
AUSGEZOGEN
 62
     2
 10
484.679893
 20
-289.833165
 11
484.679893
 21
-289.842922
  0
LINE
  8
C
  6
AUSGEZOGEN
 62
     2
 10
484.679893
 20
-289.842922
 11
484.679893
 21
-295.748180
  0
LINE
  8
C
  6
AUSGEZOGEN
 62
     2
 10
484.679893
 20
-295.748180
 11
484.660575
 21
-295.981537
  0
LINE
  8
C
  6
AUSGEZOGEN
 62
     2
 10
484.660575
 20
-295.981537
 11
484.597448
 21
-296.205140
  0
LINE
  8
C
  6
AUSGEZOGEN
 62
     2
 10
484.597448
 20
-296.205140
 11
484.500098
 21
-296.399479
  0
LINE
  8
C
  6
AUSGEZOGEN
 62
     2
 10
484.500098
 20
-296.399479
 11
484.368876
 21
-296.574497
  0
LINE
  8
C
  6
AUSGEZOGEN
 62
     2
 10
484.368876
 20
-296.574497
 11
484.213378
 21
-296.720247
  0
LINE
  8
C
  6
AUSGEZOGEN
 62
     2
 10
484.213378
 20
-296.720247
 11
484.033567
 21
-296.827169
  0
LINE
  8
C
  6
AUSGEZOGEN
 62
     2
 10
484.033567
 20
-296.827169
 11
483.834261
 21
-296.895265
  0
LINE
  8
C
  6
AUSGEZOGEN
 62
     2
 10
483.834261
 20
-296.895265
 11
483.620418
 21
-296.919562
  0
LINE
  8
C
  6
AUSGEZOGEN
 62
     2
 10
504.550770
 20
-290.810282
 11
504.550770
 21
-290.180215
  0
LINE
  8
C
  6
AUSGEZOGEN
 62
     2
 10
504.550770
 20
-290.180215
 11
505.206997
 21
-290.180215
  0
LINE
  8
C
  6
AUSGEZOGEN
 62
     2
 10
505.206997
 20
-290.180215
 11
505.408405
 21
-290.188823
  0
LINE
  8
C
  6
AUSGEZOGEN
 62
     2
 10
505.408405
 20
-290.188823
 11
505.600860
 21
-290.232554
  0
LINE
  8
C
  6
AUSGEZOGEN
 62
     2
 10
505.600860
 20
-290.232554
 11
505.749608
 21
-290.320356
  0
LINE
  8
C
  6
AUSGEZOGEN
 62
     2
 10
505.749608
 20
-290.320356
 11
505.793330
 21
-290.390244
  0
LINE
  8
C
  6
AUSGEZOGEN
 62
     2
 10
505.793330
 20
-290.390244
 11
505.801941
 21
-290.477687
  0
LINE
  8
C
  6
AUSGEZOGEN
 62
     2
 10
505.801941
 20
-290.477687
 11
505.775772
 21
-290.600257
  0
LINE
  8
C
  6
AUSGEZOGEN
 62
     2
 10
505.775772
 20
-290.600257
 11
505.714482
 21
-290.696321
  0
LINE
  8
C
  6
AUSGEZOGEN
 62
     2
 10
505.714482
 20
-290.696321
 11
505.504469
 21
-290.792717
  0
LINE
  8
C
  6
AUSGEZOGEN
 62
     2
 10
505.504469
 20
-290.792717
 11
505.242111
 21
-290.810282
  0
LINE
  8
C
  6
AUSGEZOGEN
 62
     2
 10
505.242111
 20
-290.810282
 11
504.979762
 21
-290.810282
  0
LINE
  8
C
  6
AUSGEZOGEN
 62
     2
 10
504.979762
 20
-290.810282
 11
504.550770
 21
-290.810282
  0
LINE
  8
C
  6
AUSGEZOGEN
 62
     2
 10
505.381896
 20
-291.160077
 11
505.688319
 21
-291.116353
  0
LINE
  8
C
  6
AUSGEZOGEN
 62
     2
 10
505.688319
 20
-291.116353
 11
505.933119
 21
-290.993793
  0
LINE
  8
C
  6
AUSGEZOGEN
 62
     2
 10
505.933119
 20
-290.993793
 11
506.099413
 21
-290.792717
  0
LINE
  8
C
  6
AUSGEZOGEN
 62
     2
 10
506.099413
 20
-290.792717
 11
506.151743
 21
-290.486295
  0
LINE
  8
C
  6
AUSGEZOGEN
 62
     2
 10
506.151743
 20
-290.486295
 11
506.134527
 21
-290.311396
  0
LINE
  8
C
  6
AUSGEZOGEN
 62
     2
 10
506.134527
 20
-290.311396
 11
506.081855
 21
-290.162660
  0
LINE
  8
C
  6
AUSGEZOGEN
 62
     2
 10
506.081855
 20
-290.162660
 11
505.994396
 21
-290.049037
  0
LINE
  8
C
  6
AUSGEZOGEN
 62
     2
 10
505.994396
 20
-290.049037
 11
505.880776
 21
-289.970199
  0
LINE
  8
C
  6
AUSGEZOGEN
 62
     2
 10
505.880776
 20
-289.970199
 11
505.749608
 21
-289.908906
  0
LINE
  8
C
  6
AUSGEZOGEN
 62
     2
 10
505.749608
 20
-289.908906
 11
505.600860
 21
-289.865188
  0
LINE
  8
C
  6
AUSGEZOGEN
 62
     2
 10
505.600860
 20
-289.865188
 11
505.285832
 21
-289.839018
  0
LINE
  8
C
  6
AUSGEZOGEN
 62
     2
 10
505.285832
 20
-289.839018
 11
504.218524
 21
-289.839018
  0
LINE
  8
C
  6
AUSGEZOGEN
 62
     2
 10
504.218524
 20
-289.839018
 11
504.218524
 21
-292.279722
  0
LINE
  8
C
  6
AUSGEZOGEN
 62
     2
 10
504.218524
 20
-292.279722
 11
504.550770
 21
-292.279722
  0
LINE
  8
C
  6
AUSGEZOGEN
 62
     2
 10
504.550770
 20
-292.279722
 11
504.550770
 21
-291.160077
  0
LINE
  8
C
  6
AUSGEZOGEN
 62
     2
 10
504.550770
 20
-291.160077
 11
504.979762
 21
-291.160077
  0
LINE
  8
C
  6
AUSGEZOGEN
 62
     2
 10
504.979762
 20
-291.160077
 11
505.705877
 21
-292.279722
  0
LINE
  8
C
  6
AUSGEZOGEN
 62
     2
 10
505.705877
 20
-292.279722
 11
506.125576
 21
-292.279722
  0
LINE
  8
C
  6
AUSGEZOGEN
 62
     2
 10
506.125576
 20
-292.279722
 11
505.381896
 21
-291.160077
  0
LINE
  8
C
  6
AUSGEZOGEN
 62
     2
 10
505.049650
 20
-292.962125
 11
504.673343
 21
-292.927351
  0
LINE
  8
C
  6
AUSGEZOGEN
 62
     2
 10
504.673343
 20
-292.927351
 11
504.323541
 21
-292.813389
  0
LINE
  8
C
  6
AUSGEZOGEN
 62
     2
 10
504.323541
 20
-292.813389
 11
503.999893
 21
-292.638487
  0
LINE
  8
C
  6
AUSGEZOGEN
 62
     2
 10
503.999893
 20
-292.638487
 11
503.711026
 21
-292.419853
  0
LINE
  8
C
  6
AUSGEZOGEN
 62
     2
 10
503.711026
 20
-292.419853
 11
503.474837
 21
-292.139940
  0
LINE
  8
C
  6
AUSGEZOGEN
 62
     2
 10
503.474837
 20
-292.139940
 11
503.299932
 21
-291.816311
  0
LINE
  8
C
  6
AUSGEZOGEN
 62
     2
 10
503.299932
 20
-291.816311
 11
503.185970
 21
-291.457559
  0
LINE
  8
C
  6
AUSGEZOGEN
 62
     2
 10
503.185970
 20
-291.457559
 11
503.142248
 21
-291.072641
  0
LINE
  8
C
  6
AUSGEZOGEN
 62
     2
 10
503.142248
 20
-291.072641
 11
503.185970
 21
-290.687716
  0
LINE
  8
C
  6
AUSGEZOGEN
 62
     2
 10
503.185970
 20
-290.687716
 11
503.299932
 21
-290.337559
  0
LINE
  8
C
  6
AUSGEZOGEN
 62
     2
 10
503.299932
 20
-290.337559
 11
503.474837
 21
-290.013924
  0
LINE
  8
C
  6
AUSGEZOGEN
 62
     2
 10
503.474837
 20
-290.013924
 11
503.711026
 21
-289.734007
  0
LINE
  8
C
  6
AUSGEZOGEN
 62
     2
 10
503.711026
 20
-289.734007
 11
503.999893
 21
-289.506433
  0
LINE
  8
C
  6
AUSGEZOGEN
 62
     2
 10
503.999893
 20
-289.506433
 11
504.323541
 21
-289.331521
  0
LINE
  8
C
  6
AUSGEZOGEN
 62
     2
 10
504.323541
 20
-289.331521
 11
504.673343
 21
-289.217911
  0
LINE
  8
C
  6
AUSGEZOGEN
 62
     2
 10
504.673343
 20
-289.217911
 11
505.049650
 21
-289.182797
  0
LINE
  8
C
  6
AUSGEZOGEN
 62
     2
 10
505.049650
 20
-289.182797
 11
505.434581
 21
-289.217911
  0
LINE
  8
C
  6
AUSGEZOGEN
 62
     2
 10
505.434581
 20
-289.217911
 11
505.784383
 21
-289.331521
  0
LINE
  8
C
  6
AUSGEZOGEN
 62
     2
 10
505.784383
 20
-289.331521
 11
506.108018
 21
-289.506433
  0
LINE
  8
C
  6
AUSGEZOGEN
 62
     2
 10
506.108018
 20
-289.506433
 11
506.388274
 21
-289.734007
  0
LINE
  8
C
  6
AUSGEZOGEN
 62
     2
 10
506.388274
 20
-289.734007
 11
506.624456
 21
-290.013924
  0
LINE
  8
C
  6
AUSGEZOGEN
 62
     2
 10
506.624456
 20
-290.013924
 11
506.807976
 21
-290.337559
  0
LINE
  8
C
  6
AUSGEZOGEN
 62
     2
 10
506.807976
 20
-290.337559
 11
506.921941
 21
-290.687716
  0
LINE
  8
C
  6
AUSGEZOGEN
 62
     2
 10
506.921941
 20
-290.687716
 11
506.956712
 21
-291.072641
  0
LINE
  8
C
  6
AUSGEZOGEN
 62
     2
 10
506.956712
 20
-291.072641
 11
506.921941
 21
-291.457559
  0
LINE
  8
C
  6
AUSGEZOGEN
 62
     2
 10
506.921941
 20
-291.457559
 11
506.807976
 21
-291.816311
  0
LINE
  8
C
  6
AUSGEZOGEN
 62
     2
 10
506.807976
 20
-291.816311
 11
506.624456
 21
-292.139940
  0
LINE
  8
C
  6
AUSGEZOGEN
 62
     2
 10
506.624456
 20
-292.139940
 11
506.388274
 21
-292.419853
  0
LINE
  8
C
  6
AUSGEZOGEN
 62
     2
 10
506.388274
 20
-292.419853
 11
506.108018
 21
-292.638487
  0
LINE
  8
C
  6
AUSGEZOGEN
 62
     2
 10
506.108018
 20
-292.638487
 11
505.784383
 21
-292.813389
  0
LINE
  8
C
  6
AUSGEZOGEN
 62
     2
 10
505.784383
 20
-292.813389
 11
505.434581
 21
-292.927351
  0
LINE
  8
C
  6
AUSGEZOGEN
 62
     2
 10
505.434581
 20
-292.927351
 11
505.049650
 21
-292.962125
  0
LINE
  8
C
  6
AUSGEZOGEN
 62
     2
 10
505.049650
 20
-293.312279
 11
505.513416
 21
-293.268545
  0
LINE
  8
C
  6
AUSGEZOGEN
 62
     2
 10
505.513416
 20
-293.268545
 11
505.942066
 21
-293.137380
  0
LINE
  8
C
  6
AUSGEZOGEN
 62
     2
 10
505.942066
 20
-293.137380
 11
506.326984
 21
-292.935959
  0
LINE
  8
C
  6
AUSGEZOGEN
 62
     2
 10
506.326984
 20
-292.935959
 11
506.650632
 21
-292.664653
  0
LINE
  8
C
  6
AUSGEZOGEN
 62
     2
 10
506.650632
 20
-292.664653
 11
506.930546
 21
-292.332394
  0
LINE
  8
C
  6
AUSGEZOGEN
 62
     2
 10
506.930546
 20
-292.332394
 11
507.131612
 21
-291.947479
  0
LINE
  8
C
  6
AUSGEZOGEN
 62
     2
 10
507.131612
 20
-291.947479
 11
507.263132
 21
-291.518839
  0
LINE
  8
C
  6
AUSGEZOGEN
 62
     2
 10
507.263132
 20
-291.518839
 11
507.306856
 21
-291.072641
  0
LINE
  8
C
  6
AUSGEZOGEN
 62
     2
 10
507.306856
 20
-291.072641
 11
507.263132
 21
-290.617828
  0
LINE
  8
C
  6
AUSGEZOGEN
 62
     2
 10
507.263132
 20
-290.617828
 11
507.210460
 21
-290.407799
  0
LINE
  8
C
  6
AUSGEZOGEN
 62
     2
 10
507.210460
 20
-290.407799
 11
507.131612
 21
-290.206378
  0
LINE
  8
C
  6
AUSGEZOGEN
 62
     2
 10
507.131612
 20
-290.206378
 11
506.930546
 21
-289.821463
  0
LINE
  8
C
  6
AUSGEZOGEN
 62
     2
 10
506.930546
 20
-289.821463
 11
506.650632
 21
-289.497828
  0
LINE
  8
C
  6
AUSGEZOGEN
 62
     2
 10
506.650632
 20
-289.497828
 11
506.326984
 21
-289.217911
  0
LINE
  8
C
  6
AUSGEZOGEN
 62
     2
 10
506.326984
 20
-289.217911
 11
505.942066
 21
-289.016490
  0
LINE
  8
C
  6
AUSGEZOGEN
 62
     2
 10
505.942066
 20
-289.016490
 11
505.732040
 21
-288.937997
  0
LINE
  8
C
  6
AUSGEZOGEN
 62
     2
 10
505.732040
 20
-288.937997
 11
505.513416
 21
-288.885313
  0
LINE
  8
C
  6
AUSGEZOGEN
 62
     2
 10
505.513416
 20
-288.885313
 11
505.049650
 21
-288.841591
  0
LINE
  8
C
  6
AUSGEZOGEN
 62
     2
 10
505.049650
 20
-288.841591
 11
504.594495
 21
-288.885313
  0
LINE
  8
C
  6
AUSGEZOGEN
 62
     2
 10
504.594495
 20
-288.885313
 11
504.165845
 21
-289.016490
  0
LINE
  8
C
  6
AUSGEZOGEN
 62
     2
 10
504.165845
 20
-289.016490
 11
503.789874
 21
-289.217911
  0
LINE
  8
C
  6
AUSGEZOGEN
 62
     2
 10
503.789874
 20
-289.217911
 11
503.457279
 21
-289.497828
  0
LINE
  8
C
  6
AUSGEZOGEN
 62
     2
 10
503.457279
 20
-289.497828
 11
503.185970
 21
-289.821463
  0
LINE
  8
C
  6
AUSGEZOGEN
 62
     2
 10
503.185970
 20
-289.821463
 11
502.984904
 21
-290.206378
  0
LINE
  8
C
  6
AUSGEZOGEN
 62
     2
 10
502.984904
 20
-290.206378
 11
502.853736
 21
-290.617828
  0
LINE
  8
C
  6
AUSGEZOGEN
 62
     2
 10
502.853736
 20
-290.617828
 11
502.810005
 21
-291.072641
  0
LINE
  8
C
  6
AUSGEZOGEN
 62
     2
 10
502.810005
 20
-291.072641
 11
502.853736
 21
-291.518839
  0
LINE
  8
C
  6
AUSGEZOGEN
 62
     2
 10
502.853736
 20
-291.518839
 11
502.984904
 21
-291.947479
  0
LINE
  8
C
  6
AUSGEZOGEN
 62
     2
 10
502.984904
 20
-291.947479
 11
503.185970
 21
-292.332394
  0
LINE
  8
C
  6
AUSGEZOGEN
 62
     2
 10
503.185970
 20
-292.332394
 11
503.457279
 21
-292.664653
  0
LINE
  8
C
  6
AUSGEZOGEN
 62
     2
 10
503.457279
 20
-292.664653
 11
503.789874
 21
-292.935959
  0
LINE
  8
C
  6
AUSGEZOGEN
 62
     2
 10
503.789874
 20
-292.935959
 11
504.165845
 21
-293.137380
  0
LINE
  8
C
  6
AUSGEZOGEN
 62
     2
 10
504.165845
 20
-293.137380
 11
504.594495
 21
-293.268545
  0
LINE
  8
C
  6
AUSGEZOGEN
 62
     2
 10
504.594495
 20
-293.268545
 11
505.049650
 21
-293.312279
  0
TEXT
  8
TEXT
 62
     2
 10
439.548784
 20
-305.049834
 40
4.000000
  1
L%%129ften mit System
 50
0.000000
 41
0.750158
 51
0.000000
  7
STANDARD
 72
     5
 11
487.048784
 21
-305.049834
  0
TEXT
  8
TEXT
 62
     7
 10
427.714564
 20
-326.749003
 40
8.000000
  1
zch/lu/910.1
 50
0.000000
 41
0.905797
 51
0.000000
  7
STANDARD
 72
     5
 11
497.714564
 21
-326.749003
  0
ENDBLK
  8
0
  0
ENDSEC
  0
SECTION
  2
ENTITIES
  0
DIMENSION
  8
DIMENSION
 62
     2
  2
*D0
  3
CAD400-DIM0
 10
-507.306856
 20
325.218318
 30
0.000000
 11
-207.306856
 21
328.508318
 31
0.000000
 13
-507.306856
 23
315.218334
 33
0.000000
 14
92.693144
 24
315.218318
 34
0.000000
 70
   128
 50
0.000000
  0
INSERT
  8
C
  2
B
 10
0.000000
 20
0.000000
 30
0.000000
 41
1.000000
 42
1.000000
 43
1.000000
 50
0.000000
  0
INSERT
  8
C
  2
B-3
 10
0.000000
 20
0.000000
 30
0.000000
 41
1.000000
 42
1.000000
 43
1.000000
 50
0.000000
  0
INSERT
  8
C
  2
B-5
 10
0.000000
 20
0.000000
 30
0.000000
 41
1.000000
 42
1.000000
 43
1.000000
 50
0.000000
  0
INSERT
  8
C
  2
B-6
 10
0.000000
 20
0.000000
 30
0.000000
 41
1.000000
 42
1.000000
 43
1.000000
 50
0.000000
  0
ENDSEC
  0
EOF
