  0
SECTION
  2
HEADER
  9
$ACADVER
  1
AC1018
  9
$ACADMAINTVER
 70
     0
  9
$DWGCODEPAGE
  3
ANSI_1252
  9
$INSBASE
 10
0.0
 20
0.0
 30
0.0
  9
$EXTMIN
 10
-0.5
 20
-0.5
 30
-0.5
  9
$EXTMAX
 10
5.0
 20
5.0
 30
5.0
  9
$LIMMIN
 10
-0.5
 20
-0.5
  9
$LIMMAX
 10
5.0
 20
5.0
  9
$ORTHOMODE
 70
     0
  9
$REGENMODE
 70
     1
  9
$FILLMODE
 70
     1
  9
$QTEXTMODE
 70
     0
  9
$MIRRTEXT
 70
     1
  9
$LTSCALE
 40
1.0
  9
$ATTMODE
 70
     1
  9
$TEXTSIZE
 40
0.2
  9
$TRACEWID
 40
0.05
  9
$TEXTSTYLE
  7
Standard
  9
$CLAYER
  8
0
  9
$CELTYPE
  6
ByLayer
  9
$CECOLOR
 62
   256
  9
$CELTSCALE
 40
1.0
  9
$DISPSILH
 70
     0
  9
$DIMSCALE
 40
1.0
  9
$DIMASZ
 40
0.18
  9
$DIMEXO
 40
0.0625
  9
$DIMDLI
 40
0.38
  9
$DIMRND
 40
0.0
  9
$DIMDLE
 40
0.0
  9
$DIMEXE
 40
0.18
  9
$DIMTP
 40
0.0
  9
$DIMTM
 40
0.0
  9
$DIMTXT
 40
0.18
  9
$DIMCEN
 40
0.09
  9
$DIMTSZ
 40
0.0
  9
$DIMTOL
 70
     0
  9
$DIMLIM
 70
     0
  9
$DIMTIH
 70
     1
  9
$DIMTOH
 70
     1
  9
$DIMSE1
 70
     0
  9
$DIMSE2
 70
     0
  9
$DIMTAD
 70
     0
  9
$DIMZIN
 70
     0
  9
$DIMBLK
  1

  9
$DIMASO
 70
     1
  9
$DIMSHO
 70
     1
  9
$DIMPOST
  1

  9
$DIMAPOST
  1

  9
$DIMALT
 70
     0
  9
$DIMALTD
 70
     2
  9
$DIMALTF
 40
25.4
  9
$DIMLFAC
 40
1.0
  9
$DIMTOFL
 70
     0
  9
$DIMTVP
 40
0.0
  9
$DIMTIX
 70
     0
  9
$DIMSOXD
 70
     0
  9
$DIMSAH
 70
     0
  9
$DIMBLK1
  1

  9
$DIMBLK2
  1

  9
$DIMSTYLE
  2
Standard
  9
$DIMCLRD
 70
     0
  9
$DIMCLRE
 70
     0
  9
$DIMCLRT
 70
     0
  9
$DIMTFAC
 40
1.0
  9
$DIMGAP
 40
0.09
  9
$DIMJUST
 70
     0
  9
$DIMSD1
 70
     0
  9
$DIMSD2
 70
     0
  9
$DIMTOLJ
 70
     1
  9
$DIMTZIN
 70
     0
  9
$DIMALTZ
 70
     0
  9
$DIMALTTZ
 70
     0
  9
$DIMUPT
 70
     0
  9
$DIMDEC
 70
     4
  9
$DIMTDEC
 70
     4
  9
$DIMALTU
 70
     2
  9
$DIMALTTD
 70
     2
  9
$DIMTXSTY
  7
Standard
  9
$DIMAUNIT
 70
     0
  9
$DIMADEC
 70
     0
  9
$DIMALTRND
 40
0.0
  9
$DIMAZIN
 70
     0
  9
$DIMDSEP
 70
    46
  9
$DIMATFIT
 70
     3
  9
$DIMFRAC
 70
     0
  9
$DIMLDRBLK
  1

  9
$DIMLUNIT
 70
     2
  9
$DIMLWD
 70
    -2
  9
$DIMLWE
 70
    -2
  9
$DIMTMOVE
 70
     0
  9
$LUNITS
 70
     2
  9
$LUPREC
 70
     4
  9
$SKETCHINC
 40
0.1
  9
$FILLETRAD
 40
0.5
  9
$AUNITS
 70
     0
  9
$AUPREC
 70
     0
  9
$MENU
  1
.
  9
$ELEVATION
 40
0.0
  9
$PELEVATION
 40
0.0
  9
$THICKNESS
 40
0.0
  9
$LIMCHECK
 70
     0
  9
$CHAMFERA
 40
0.0
  9
$CHAMFERB
 40
0.0
  9
$CHAMFERC
 40
0.0
  9
$CHAMFERD
 40
0.0
  9
$SKPOLY
 70
     0
  9
$TDCREATE
 40
2458561.5680211
  9
$TDUCREATE
 40
2458561.526354433
  9
$TDUPDATE
 40
2458561.56802309
  9
$TDUUPDATE
 40
2458561.526356424
  9
$TDINDWG
 40
0.0000000116
  9
$TDUSRTIMER
 40
0.0000000116
  9
$USRTIMER
 70
     1
  9
$ANGBASE
 50
0.0
  9
$ANGDIR
 70
     0
  9
$PDMODE
 70
     0
  9
$PDSIZE
 40
0.0
  9
$PLINEWID
 40
0.0
  9
$SPLFRAME
 70
     0
  9
$SPLINETYPE
 70
     6
  9
$SPLINESEGS
 70
     8
  9
$HANDSEED
  5
245
  9
$SURFTAB1
 70
     6
  9
$SURFTAB2
 70
     6
  9
$SURFTYPE
 70
     6
  9
$SURFU
 70
     6
  9
$SURFV
 70
     6
  9
$UCSBASE
  2

  9
$UCSNAME
  2

  9
$UCSORG
 10
0.0
 20
0.0
 30
0.0
  9
$UCSXDIR
 10
1.0
 20
0.0
 30
0.0
  9
$UCSYDIR
 10
0.0
 20
1.0
 30
0.0
  9
$UCSORTHOREF
  2

  9
$UCSORTHOVIEW
 70
     0
  9
$UCSORGTOP
 10
0.0
 20
0.0
 30
0.0
  9
$UCSORGBOTTOM
 10
0.0
 20
0.0
 30
0.0
  9
$UCSORGLEFT
 10
0.0
 20
0.0
 30
0.0
  9
$UCSORGRIGHT
 10
0.0
 20
0.0
 30
0.0
  9
$UCSORGFRONT
 10
0.0
 20
0.0
 30
0.0
  9
$UCSORGBACK
 10
0.0
 20
0.0
 30
0.0
  9
$PUCSBASE
  2

  9
$PUCSNAME
  2

  9
$PUCSORG
 10
0.0
 20
0.0
 30
0.0
  9
$PUCSXDIR
 10
1.0
 20
0.0
 30
0.0
  9
$PUCSYDIR
 10
0.0
 20
1.0
 30
0.0
  9
$PUCSORTHOREF
  2

  9
$PUCSORTHOVIEW
 70
     0
  9
$PUCSORGTOP
 10
0.0
 20
0.0
 30
0.0
  9
$PUCSORGBOTTOM
 10
0.0
 20
0.0
 30
0.0
  9
$PUCSORGLEFT
 10
0.0
 20
0.0
 30
0.0
  9
$PUCSORGRIGHT
 10
0.0
 20
0.0
 30
0.0
  9
$PUCSORGFRONT
 10
0.0
 20
0.0
 30
0.0
  9
$PUCSORGBACK
 10
0.0
 20
0.0
 30
0.0
  9
$USERI1
 70
     0
  9
$USERI2
 70
     0
  9
$USERI3
 70
     0
  9
$USERI4
 70
     0
  9
$USERI5
 70
     0
  9
$USERR1
 40
0.0
  9
$USERR2
 40
0.0
  9
$USERR3
 40
0.0
  9
$USERR4
 40
0.0
  9
$USERR5
 40
0.0
  9
$WORLDVIEW
 70
     1
  9
$SHADEDGE
 70
     3
  9
$SHADEDIF
 70
    70
  9
$TILEMODE
 70
     1
  9
$MAXACTVP
 70
    64
  9
$PINSBASE
 10
0.0
 20
0.0
 30
0.0
  9
$PLIMCHECK
 70
     0
  9
$PEXTMIN
 10
-0.5
 20
-0.5
 30
-0.5
  9
$PEXTMAX
 10
5.0
 20
5.0
 30
5.0
  9
$PLIMMIN
 10
-0.5
 20
-0.5
  9
$PLIMMAX
 10
5.0
 20
5.0
  9
$UNITMODE
 70
     0
  9
$VISRETAIN
 70
     1
  9
$PLINEGEN
 70
     0
  9
$PSLTSCALE
 70
     1
  9
$TREEDEPTH
 70
  3020
  9
$CMLSTYLE
  2
Standard
  9
$CMLJUST
 70
     0
  9
$CMLSCALE
 40
1.0
  9
$PROXYGRAPHICS
 70
     1
  9
$MEASUREMENT
 70
     1
  9
$CELWEIGHT
370
    18
  9
$ENDCAPS
280
     0
  9
$JOINSTYLE
280
     0
  9
$LWDISPLAY
290
     1
  9
$INSUNITS
 70
     4
  9
$HYPERLINKBASE
  1

  9
$STYLESHEET
  1

  9
$XEDIT
290
     1
  9
$CEPSNTYPE
380
     0
  9
$PSTYLEMODE
290
     1
  9
$FINGERPRINTGUID
  2
{727F6ABC-12A5-426F-B840-01056C34A31E}
  9
$VERSIONGUID
  2
{FAEB1C32-E019-11D5-929B-00C0DF256EC4}
  9
$EXTNAMES
290
     1
  9
$PSVPSCALE
 40
0.0
  9
$OLESTARTUP
290
     0
  9
$SORTENTS
280
   127
  9
$INDEXCTL
280
     0
  9
$HIDETEXT
280
     1
  9
$XCLIPFRAME
290
     0
  9
$HALOGAP
280
     0
  9
$OBSCOLOR
 70
   257
  9
$OBSLTYPE
280
     0
  9
$INTERSECTIONDISPLAY
280
     0
  9
$INTERSECTIONCOLOR
 70
   257
  9
$DIMASSOC
280
     2
  9
$PROJECTNAME
  1

  0
ENDSEC
  0
SECTION
  2
CLASSES
  0
CLASS
  1
ACDBDICTIONARYWDFLT
  2
AcDbDictionaryWithDefault
  3
ObjectDBX Classes
 90
        0
 91
        4
280
     0
281
     0
  0
CLASS
  1
VISUALSTYLE
  2
AcDbVisualStyle
  3
ObjectDBX Classes
 90
     4095
 91
        4
280
     0
281
     0
  0
CLASS
  1
MATERIAL
  2
AcDbMaterial
  3
ObjectDBX Classes
 90
     1153
 91
        4
280
     0
281
     0
  0
CLASS
  1
SCALE
  2
AcDbScale
  3
ObjectDBX Classes
 90
     1153
 91
        4
280
     0
281
     0
  0
CLASS
  1
SUN
  2
AcDbSun
  3
SCENEOE
 90
     1153
 91
        4
280
     0
281
     0
  0
CLASS
  1
DIMASSOC
  2
AcDbDimAssoc
  3
"AcDbDimAssoc|Product Desc:     AcDim ARX App For Dimension|Company:          Autodesk, Inc.|WEB Address:      www.autodesk.com"
 90
        0
 91
        4
280
     0
281
     0
  0
CLASS
  1
DICTIONARYVAR
  2
AcDbDictionaryVar
  3
ObjectDBX Classes
 90
        0
 91
        4
280
     0
281
     0
  0
ENDSEC
  0
SECTION
  2
TABLES
  0
TABLE
  2
VPORT
  5
8
330
0
100
AcDbSymbolTable
 70
    17
  0
VPORT
  5
29
330
8
100
AcDbSymbolTableRecord
100
AcDbViewportTableRecord
  2
DUMMY
 70
     0
 10
0.0
 20
0.0
 11
1.0
 21
1.0
 12
10.429907
 22
4.5
 13
0.0
 23
0.0
 14
0.5
 24
0.5
 15
0.5
 25
0.5
 16
0.0
 26
0.0
 36
1.0
 17
0.0
 27
0.0
 37
0.0
 40
9.0
 41
1.972973
 42
50.0
 43
0.0
 44
0.0
 50
0.0
 51
0.0
 71
     0
 72
   100
 73
     1
 74
     3
 75
     0
 76
     0
 77
     0
 78
     0
281
     0
 65
     1
110
0.0
120
0.0
130
0.0
111
1.0
121
0.0
131
0.0
112
0.0
122
1.0
132
0.0
 79
     0
146
0.0
  0
VPORT
  5
1F4
330
8
100
AcDbSymbolTableRecord
100
AcDbViewportTableRecord
  2
*ACTIVE
 70
     0
 10
0.0
 20
0.0
 11
1.0
 21
1.0
 12
459.757405
 22
210.0
 13
0.0
 23
0.0
 14
0.5
 24
0.5
 15
0.5
 25
0.5
 16
0.0
 26
0.0
 36
1.0
 17
0.0
 27
0.0
 37
0.0
 40
254.0
 41
0.069908
 42
50.0
 43
1592.68875
 44
-1592.68875
 50
0.0
 51
0.0
 71
     0
 72
   100
 73
     1
 74
     3
 75
     0
 76
     0
 77
     0
 78
     0
281
     0
 65
     1
110
0.0
120
0.0
130
0.0
111
1.0
121
0.0
131
0.0
112
0.0
122
1.0
132
0.0
 79
     0
146
0.0
  0
VPORT
  5
1F6
330
8
100
AcDbSymbolTableRecord
100
AcDbViewportTableRecord
  2
L1
 70
     0
 10
0.0
 20
0.0
 11
1.0
 21
1.0
 12
459.757405
 22
210.0
 13
0.0
 23
0.0
 14
0.5
 24
0.5
 15
0.5
 25
0.5
 16
0.0
 26
0.0
 36
1.0
 17
0.0
 27
0.0
 37
0.0
 40
254.0
 41
0.069908
 42
50.0
 43
1592.68875
 44
-1592.68875
 50
0.0
 51
0.0
 71
     0
 72
   100
 73
     1
 74
     3
 75
     0
 76
     0
 77
     0
 78
     0
281
     0
 65
     1
110
0.0
120
0.0
130
0.0
111
1.0
121
0.0
131
0.0
112
0.0
122
1.0
132
0.0
 79
     0
146
0.0
  0
VPORT
  5
1F7
330
8
100
AcDbSymbolTableRecord
100
AcDbViewportTableRecord
  2
L2
 70
     0
 10
0.0
 20
0.0
 11
0.5
 21
1.0
 12
0.0
 22
0.0
 13
0.0
 23
0.0
 14
0.5
 24
0.5
 15
0.5
 25
0.5
 16
0.0
 26
-1.0
 36
0.0
 17
0.0
 27
0.0
 37
0.0
 40
1319.822715
 41
0.013454
 42
50.0
 43
672.020833
 44
-672.020833
 50
0.0
 51
0.0
 71
     0
 72
   100
 73
     1
 74
     3
 75
     0
 76
     0
 77
     0
 78
     0
281
     0
 65
     1
110
0.0
120
0.0
130
0.0
111
1.0
121
0.0
131
0.0
112
0.0
122
1.0
132
0.0
 79
     0
146
0.0
  0
VPORT
  5
1F8
330
8
100
AcDbSymbolTableRecord
100
AcDbViewportTableRecord
  2
L2
 70
     0
 10
0.5
 20
0.0
 11
1.0
 21
1.0
 12
0.0
 22
0.0
 13
0.0
 23
0.0
 14
0.5
 24
0.5
 15
0.5
 25
0.5
 16
1.0
 26
0.0
 36
0.0
 17
0.0
 27
0.0
 37
0.0
 40
1319.822715
 41
0.013454
 42
50.0
 43
672.020833
 44
-672.020833
 50
0.0
 51
0.0
 71
     0
 72
   100
 73
     1
 74
     3
 75
     0
 76
     0
 77
     0
 78
     0
281
     0
 65
     1
110
0.0
120
0.0
130
0.0
111
1.0
121
0.0
131
0.0
112
0.0
122
1.0
132
0.0
 79
     0
146
0.0
  0
VPORT
  5
1F9
330
8
100
AcDbSymbolTableRecord
100
AcDbViewportTableRecord
  2
L3
 70
     0
 10
0.0
 20
0.5
 11
1.0
 21
1.0
 12
459.757405
 22
210.0
 13
0.0
 23
0.0
 14
0.5
 24
0.5
 15
0.5
 25
0.5
 16
0.0
 26
0.0
 36
1.0
 17
0.0
 27
0.0
 37
0.0
 40
254.0
 41
0.069908
 42
50.0
 43
1592.68875
 44
-1592.68875
 50
0.0
 51
0.0
 71
     0
 72
   100
 73
     1
 74
     3
 75
     0
 76
     0
 77
     0
 78
     0
281
     0
 65
     1
110
0.0
120
0.0
130
0.0
111
1.0
121
0.0
131
0.0
112
0.0
122
1.0
132
0.0
 79
     0
146
0.0
  0
VPORT
  5
1FA
330
8
100
AcDbSymbolTableRecord
100
AcDbViewportTableRecord
  2
L3
 70
     0
 10
0.0
 20
0.0
 11
1.0
 21
0.5
 12
0.0
 22
0.0
 13
0.0
 23
0.0
 14
0.5
 24
0.5
 15
0.5
 25
0.5
 16
0.0
 26
-1.0
 36
0.0
 17
0.0
 27
0.0
 37
0.0
 40
1319.822715
 41
0.013454
 42
50.0
 43
672.020833
 44
-672.020833
 50
0.0
 51
0.0
 71
     0
 72
   100
 73
     1
 74
     3
 75
     0
 76
     0
 77
     0
 78
     0
281
     0
 65
     1
110
0.0
120
0.0
130
0.0
111
1.0
121
0.0
131
0.0
112
0.0
122
1.0
132
0.0
 79
     0
146
0.0
  0
VPORT
  5
1FB
330
8
100
AcDbSymbolTableRecord
100
AcDbViewportTableRecord
  2
L4
 70
     0
 10
0.0
 20
0.5
 11
0.5
 21
1.0
 12
459.757405
 22
210.0
 13
0.0
 23
0.0
 14
0.5
 24
0.5
 15
0.5
 25
0.5
 16
0.0
 26
0.0
 36
1.0
 17
0.0
 27
0.0
 37
0.0
 40
254.0
 41
0.069908
 42
50.0
 43
1592.68875
 44
-1592.68875
 50
0.0
 51
0.0
 71
     0
 72
   100
 73
     1
 74
     3
 75
     0
 76
     0
 77
     0
 78
     0
281
     0
 65
     1
110
0.0
120
0.0
130
0.0
111
1.0
121
0.0
131
0.0
112
0.0
122
1.0
132
0.0
 79
     0
146
0.0
  0
VPORT
  5
1FC
330
8
100
AcDbSymbolTableRecord
100
AcDbViewportTableRecord
  2
L4
 70
     0
 10
0.0
 20
0.0
 11
0.5
 21
0.5
 12
0.0
 22
0.0
 13
0.0
 23
0.0
 14
0.5
 24
0.5
 15
0.5
 25
0.5
 16
0.0
 26
-1.0
 36
0.0
 17
0.0
 27
0.0
 37
0.0
 40
1319.822715
 41
0.013454
 42
50.0
 43
672.020833
 44
-672.020833
 50
0.0
 51
0.0
 71
     0
 72
   100
 73
     1
 74
     3
 75
     0
 76
     0
 77
     0
 78
     0
281
     0
 65
     1
110
0.0
120
0.0
130
0.0
111
1.0
121
0.0
131
0.0
112
0.0
122
1.0
132
0.0
 79
     0
146
0.0
  0
VPORT
  5
1FD
330
8
100
AcDbSymbolTableRecord
100
AcDbViewportTableRecord
  2
L4
 70
     0
 10
0.5
 20
0.0
 11
1.0
 21
0.5
 12
0.0
 22
0.0
 13
0.0
 23
0.0
 14
0.5
 24
0.5
 15
0.5
 25
0.5
 16
1.0
 26
0.0
 36
0.0
 17
0.0
 27
0.0
 37
0.0
 40
1319.822715
 41
0.013454
 42
50.0
 43
672.020833
 44
-672.020833
 50
0.0
 51
0.0
 71
     0
 72
   100
 73
     1
 74
     3
 75
     0
 76
     0
 77
     0
 78
     0
281
     0
 65
     1
110
0.0
120
0.0
130
0.0
111
1.0
121
0.0
131
0.0
112
0.0
122
1.0
132
0.0
 79
     0
146
0.0
  0
VPORT
  5
1FE
330
8
100
AcDbSymbolTableRecord
100
AcDbViewportTableRecord
  2
L4
 70
     0
 10
0.5
 20
0.5
 11
1.0
 21
1.0
 12
0.0
 22
0.0
 13
0.0
 23
0.0
 14
0.5
 24
0.5
 15
0.5
 25
0.5
 16
0.5773502691896258
 26
-0.5773502691896258
 36
0.5773502691896258
 17
0.0
 27
0.0
 37
0.0
 40
1285.020866
 41
0.013818
 42
50.0
 43
667.141407
 44
-667.141407
 50
0.0
 51
0.0
 71
     0
 72
   100
 73
     1
 74
     3
 75
     0
 76
     0
 77
     0
 78
     0
281
     0
 65
     1
110
0.0
120
0.0
130
0.0
111
1.0
121
0.0
131
0.0
112
0.0
122
1.0
132
0.0
 79
     0
146
0.0
  0
VPORT
  5
1FF
330
8
100
AcDbSymbolTableRecord
100
AcDbViewportTableRecord
  2
L6
 70
     0
 10
0.0
 20
0.5
 11
0.333333
 21
1.0
 12
0.0
 22
0.0
 13
0.0
 23
0.0
 14
0.5
 24
0.5
 15
0.5
 25
0.5
 16
0.7188730927569433
 26
-0.5850486126764433
 36
0.3754192287502549
 17
0.0
 27
0.0
 37
0.0
 40
1357.434192
 41
0.013081
 42
50.0
 43
701.839477
 44
-701.839477
 50
0.0
 51
0.0
 71
     0
 72
   100
 73
     1
 74
     3
 75
     0
 76
     0
 77
     0
 78
     0
281
     0
 65
     1
110
0.0
120
0.0
130
0.0
111
1.0
121
0.0
131
0.0
112
0.0
122
1.0
132
0.0
 79
     0
146
0.0
  0
VPORT
  5
200
330
8
100
AcDbSymbolTableRecord
100
AcDbViewportTableRecord
  2
L6
 70
     0
 10
0.0
 20
0.0
 11
0.333333
 21
0.5
 12
0.0
 22
0.0
 13
0.0
 23
0.0
 14
0.5
 24
0.5
 15
0.5
 25
0.5
 16
-1.0
 26
0.0
 36
0.0
 17
0.0
 27
0.0
 37
0.0
 40
1319.822715
 41
0.013454
 42
50.0
 43
672.020833
 44
-672.020833
 50
0.0
 51
0.0
 71
     0
 72
   100
 73
     1
 74
     3
 75
     0
 76
     0
 77
     0
 78
     0
281
     0
 65
     1
110
0.0
120
0.0
130
0.0
111
1.0
121
0.0
131
0.0
112
0.0
122
1.0
132
0.0
 79
     0
146
0.0
  0
VPORT
  5
201
330
8
100
AcDbSymbolTableRecord
100
AcDbViewportTableRecord
  2
L6
 70
     0
 10
0.333333
 20
0.5
 11
0.666667
 21
1.0
 12
459.757405
 22
210.0
 13
0.0
 23
0.0
 14
0.5
 24
0.5
 15
0.5
 25
0.5
 16
0.0
 26
0.0
 36
1.0
 17
0.0
 27
0.0
 37
0.0
 40
254.0
 41
0.069908
 42
50.0
 43
1592.68875
 44
-1592.68875
 50
0.0
 51
0.0
 71
     0
 72
   100
 73
     1
 74
     3
 75
     0
 76
     0
 77
     0
 78
     0
281
     0
 65
     1
110
0.0
120
0.0
130
0.0
111
1.0
121
0.0
131
0.0
112
0.0
122
1.0
132
0.0
 79
     0
146
0.0
  0
VPORT
  5
202
330
8
100
AcDbSymbolTableRecord
100
AcDbViewportTableRecord
  2
L6
 70
     0
 10
0.333333
 20
0.0
 11
0.666667
 21
0.5
 12
0.0
 22
0.0
 13
0.0
 23
0.0
 14
0.5
 24
0.5
 15
0.5
 25
0.5
 16
0.0
 26
-1.0
 36
0.0
 17
0.0
 27
0.0
 37
0.0
 40
1319.822715
 41
0.013454
 42
50.0
 43
672.020833
 44
-672.020833
 50
0.0
 51
0.0
 71
     0
 72
   100
 73
     1
 74
     3
 75
     0
 76
     0
 77
     0
 78
     0
281
     0
 65
     1
110
0.0
120
0.0
130
0.0
111
1.0
121
0.0
131
0.0
112
0.0
122
1.0
132
0.0
 79
     0
146
0.0
  0
VPORT
  5
203
330
8
100
AcDbSymbolTableRecord
100
AcDbViewportTableRecord
  2
L6
 70
     0
 10
0.666667
 20
0.5
 11
1.0
 21
1.0
 12
0.0
 22
0.0
 13
0.0
 23
0.0
 14
0.5
 24
0.5
 15
0.5
 25
0.5
 16
0.5773502691896258
 26
-0.5773502691896258
 36
0.5773502691896258
 17
0.0
 27
0.0
 37
0.0
 40
1285.020866
 41
0.013818
 42
50.0
 43
667.141407
 44
-667.141407
 50
0.0
 51
0.0
 71
     0
 72
   100
 73
     1
 74
     3
 75
     0
 76
     0
 77
     0
 78
     0
281
     0
 65
     1
110
0.0
120
0.0
130
0.0
111
1.0
121
0.0
131
0.0
112
0.0
122
1.0
132
0.0
 79
     0
146
0.0
  0
VPORT
  5
204
330
8
100
AcDbSymbolTableRecord
100
AcDbViewportTableRecord
  2
L6
 70
     0
 10
0.666667
 20
0.0
 11
1.0
 21
0.5
 12
0.0
 22
0.0
 13
0.0
 23
0.0
 14
0.5
 24
0.5
 15
0.5
 25
0.5
 16
1.0
 26
0.0
 36
0.0
 17
0.0
 27
0.0
 37
0.0
 40
1319.822715
 41
0.013454
 42
50.0
 43
672.020833
 44
-672.020833
 50
0.0
 51
0.0
 71
     0
 72
   100
 73
     1
 74
     3
 75
     0
 76
     0
 77
     0
 78
     0
281
     0
 65
     1
110
0.0
120
0.0
130
0.0
111
1.0
121
0.0
131
0.0
112
0.0
122
1.0
132
0.0
 79
     0
146
0.0
  0
ENDTAB
  0
TABLE
  2
LTYPE
  5
5
330
0
100
AcDbSymbolTable
 70
     6
  0
LTYPE
  5
14
330
5
100
AcDbSymbolTableRecord
100
AcDbLinetypeTableRecord
  2
ByBlock
 70
     0
  3

 72
    65
 73
     0
 40
0.0
  0
LTYPE
  5
15
330
5
100
AcDbSymbolTableRecord
100
AcDbLinetypeTableRecord
  2
ByLayer
 70
     0
  3

 72
    65
 73
     0
 40
0.0
  0
LTYPE
  5
16
330
5
100
AcDbSymbolTableRecord
100
AcDbLinetypeTableRecord
  2
Continuous
 70
     0
  3
Solid line
 72
    65
 73
     0
 40
0.0
  0
LTYPE
  5
6A
330
5
100
AcDbSymbolTableRecord
100
AcDbLinetypeTableRecord
  2
CENTER
 70
     0
  3
____ _ ____ _ ____ _ ____
 72
    65
 73
     4
 40
47.4
 49
22.0
 74
     4
 75
     0
340
0
 46
0.0
 50
0.0
 44
0.0
 45
0.0
 49
-8.5
 74
     4
 75
     0
340
0
 46
0.0
 50
0.0
 44
0.0
 45
0.0
 49
8.5
 74
     4
 75
     0
340
0
 46
0.0
 50
0.0
 44
0.0
 45
0.0
 49
-8.5
 74
     4
 75
     0
340
0
 46
0.0
 50
0.0
 44
0.0
 45
0.0
  0
LTYPE
  5
6B
330
5
100
AcDbSymbolTableRecord
100
AcDbLinetypeTableRecord
  2
DASHDOT
 70
     0
  3
_._._._._._._._._._._._._._._._.
 72
    65
 73
     4
 40
70.0
 49
31.0
 74
     4
 75
     0
340
0
 46
0.0
 50
0.0
 44
0.0
 45
0.0
 49
-13.0
 74
     4
 75
     0
340
0
 46
0.0
 50
0.0
 44
0.0
 45
0.0
 49
13.0
 74
     4
 75
     0
340
0
 46
0.0
 50
0.0
 44
0.0
 45
0.0
 49
-13.0
 74
     4
 75
     0
340
0
 46
0.0
 50
0.0
 44
0.0
 45
0.0
  0
LTYPE
  5
6C
330
5
100
AcDbSymbolTableRecord
100
AcDbLinetypeTableRecord
  2
DASHED
 70
     0
  3
__ __ __ __ __ __ __ __ __
 72
    65
 73
     2
 40
25.72
 49
12.86
 74
     4
 75
     0
340
0
 46
0.0
 50
0.0
 44
0.0
 45
0.0
 49
-12.86
 74
     4
 75
     0
340
0
 46
0.0
 50
0.0
 44
0.0
 45
0.0
  0
LTYPE
  5
6D
330
5
100
AcDbSymbolTableRecord
100
AcDbLinetypeTableRecord
  2
DOT
 70
     0
  3
.........................
 72
    65
 73
     2
 40
10.0
 49
0.0
 74
     4
 75
     0
340
0
 46
0.0
 50
0.0
 44
0.0
 45
0.0
 49
-10.0
 74
     4
 75
     0
340
0
 46
0.0
 50
0.0
 44
0.0
 45
0.0
  0
LTYPE
  5
6E
330
5
100
AcDbSymbolTableRecord
100
AcDbLinetypeTableRecord
  2
PHANTOM
 70
     0
  3
____ _ _ ____ _ _ _____ _ _ ____
 72
    65
 73
     6
 40
50.5
 49
18.0
 74
     4
 75
     0
340
0
 46
0.0
 50
0.0
 44
0.0
 45
0.0
 49
-6.5
 74
     4
 75
     0
340
0
 46
0.0
 50
0.0
 44
0.0
 45
0.0
 49
6.5
 74
     4
 75
     0
340
0
 46
0.0
 50
0.0
 44
0.0
 45
0.0
 49
-6.5
 74
     4
 75
     0
340
0
 46
0.0
 50
0.0
 44
0.0
 45
0.0
 49
6.5
 74
     4
 75
     0
340
0
 46
0.0
 50
0.0
 44
0.0
 45
0.0
 49
-6.5
 74
     4
 75
     0
340
0
 46
0.0
 50
0.0
 44
0.0
 45
0.0
  0
ENDTAB
  0
TABLE
  2
LAYER
  5
2
330
0
100
AcDbSymbolTable
 70
     5
  0
LAYER
  5
10
330
2
100
AcDbSymbolTableRecord
100
AcDbLayerTableRecord
  2
0
 70
     0
 62
     7
  6
Continuous
370
    -3
390
F
  0
LAYER
  5
70
330
2
100
AcDbSymbolTableRecord
100
AcDbLayerTableRecord
  2
1
 70
     0
 62
     7
420
 16777215
  6
Continuous
370
    -3
390
F
  0
LAYER
  5
9B
330
2
100
AcDbSymbolTableRecord
100
AcDbLayerTableRecord
  2
256
 70
     0
 62
     7
420
 16777215
  6
Continuous
370
    -3
390
F
  0
LAYER
  5
B8
330
2
100
AcDbSymbolTableRecord
100
AcDbLayerTableRecord
  2
255
 70
     0
 62
     7
420
 16777215
  6
Continuous
370
    -3
390
F
  0
LAYER
  5
1CD
330
2
100
AcDbSymbolTableRecord
100
AcDbLayerTableRecord
  2
Defpoints
 70
     0
 62
     7
  6
Continuous
290
     0
370
    -3
390
F
  0
ENDTAB
  0
TABLE
  2
STYLE
  5
3
330
0
100
AcDbSymbolTable
 70
     4
  0
STYLE
  5
11
330
3
100
AcDbSymbolTableRecord
100
AcDbTextStyleTableRecord
  2
Standard
 70
     0
 40
0.0
 41
1.0
 50
0.0
 71
     0
 42
0.2
  3
txt
  4

  0
STYLE
  5
126
330
3
100
AcDbSymbolTableRecord
100
AcDbTextStyleTableRecord
  2
ISOCPEUR
 70
     0
 40
0.0
 41
1.0
 50
0.0
 71
     0
 42
0.2
  3
ISOCPEUR
  4

1001
ACAD
1000
ISOCPEUR
1071
        0
  0
STYLE
  5
140
330
3
100
AcDbSymbolTableRecord
100
AcDbTextStyleTableRecord
  2
ideas_iso
 70
     0
 40
0.0
 41
1.0
 50
0.0
 71
     0
 42
0.2
  3
simplex.shx
  4

  0
STYLE
  5
141
330
3
100
AcDbSymbolTableRecord
100
AcDbTextStyleTableRecord
  2
DWGDirectTextStyle
 70
     0
 40
0.0
 41
1.0
 50
0.0
 71
     0
 42
0.2
  3
simplex
  4

  0
ENDTAB
  0
TABLE
  2
VIEW
  5
6
330
0
100
AcDbSymbolTable
 70
     8
  0
VIEW
  5
1E5
330
6
100
AcDbSymbolTableRecord
100
AcDbViewTableRecord
  2
Top
 70
     0
 40
254.0
 10
459.757405
 20
210.0
 41
254.0
 11
0.0
 21
0.0
 31
1.0
 12
0.0
 22
0.0
 32
0.0
 42
50.0
 43
1592.68875
 44
-1592.68875
 50
0.0
 71
     0
281
     0
 72
     0
  0
VIEW
  5
1E6
330
6
100
AcDbSymbolTableRecord
100
AcDbViewTableRecord
  2
Front
 70
     0
 40
1319.822715
 10
0.0
 20
0.0
 41
254.0
 11
0.0
 21
-1.0
 31
0.0
 12
0.0
 22
0.0
 32
0.0
 42
50.0
 43
672.020833
 44
-672.020833
 50
0.0
 71
     0
281
     0
 72
     0
  0
VIEW
  5
1E7
330
6
100
AcDbSymbolTableRecord
100
AcDbViewTableRecord
  2
Right
 70
     0
 40
1319.822715
 10
0.0
 20
0.0
 41
254.0
 11
1.0
 21
0.0
 31
0.0
 12
0.0
 22
0.0
 32
0.0
 42
50.0
 43
672.020833
 44
-672.020833
 50
0.0
 71
     0
281
     0
 72
     0
  0
VIEW
  5
1E8
330
6
100
AcDbSymbolTableRecord
100
AcDbViewTableRecord
  2
Back
 70
     0
 40
1319.822715
 10
0.0
 20
0.0
 41
254.0
 11
0.0
 21
1.0
 31
0.0
 12
0.0
 22
0.0
 32
0.0
 42
50.0
 43
672.020833
 44
-672.020833
 50
0.0
 71
     0
281
     0
 72
     0
  0
VIEW
  5
1E9
330
6
100
AcDbSymbolTableRecord
100
AcDbViewTableRecord
  2
Bottom
 70
     0
 40
254.0
 10
0.0
 20
0.0
 41
254.0
 11
0.0
 21
0.0
 31
-1.0
 12
0.0
 22
0.0
 32
0.0
 42
50.0
 43
659.911358
 44
-659.911358
 50
180.0
 71
     0
281
     0
 72
     0
  0
VIEW
  5
1EA
330
6
100
AcDbSymbolTableRecord
100
AcDbViewTableRecord
  2
Left
 70
     0
 40
1319.822715
 10
0.0
 20
0.0
 41
254.0
 11
-1.0
 21
0.0
 31
0.0
 12
0.0
 22
0.0
 32
0.0
 42
50.0
 43
672.020833
 44
-672.020833
 50
0.0
 71
     0
281
     0
 72
     0
  0
VIEW
  5
1EB
330
6
100
AcDbSymbolTableRecord
100
AcDbViewTableRecord
  2
Isometric
 70
     0
 40
1285.020866
 10
0.0
 20
0.0
 41
359.210245
 11
0.5773502691896258
 21
-0.5773502691896258
 31
0.5773502691896258
 12
0.0
 22
0.0
 32
0.0
 42
50.0
 43
667.141407
 44
-667.141407
 50
0.0
 71
     0
281
     0
 72
     0
  0
VIEW
  5
1EC
330
6
100
AcDbSymbolTableRecord
100
AcDbViewTableRecord
  2
Trimetric
 70
     0
 40
1357.434192
 10
0.0
 20
0.0
 41
357.33321
 11
0.7188730927569433
 21
-0.5850486126764433
 31
0.3754192287502549
 12
0.0
 22
0.0
 32
0.0
 42
50.0
 43
701.839477
 44
-701.839477
 50
0.0
 71
     0
281
     0
 72
     0
  0
ENDTAB
  0
TABLE
  2
UCS
  5
7
330
0
100
AcDbSymbolTable
 70
     0
  0
ENDTAB
  0
TABLE
  2
APPID
  5
9
330
0
100
AcDbSymbolTable
 70
     4
  0
APPID
  5
12
330
9
100
AcDbSymbolTableRecord
100
AcDbRegAppTableRecord
  2
ACAD
 70
     0
  0
APPID
  5
205
330
9
100
AcDbSymbolTableRecord
100
AcDbRegAppTableRecord
  2
ACAD_DSTYLE_DIM_LINETYPE
 70
     0
  0
APPID
  5
206
330
9
100
AcDbSymbolTableRecord
100
AcDbRegAppTableRecord
  2
ACAD_DSTYLE_DIM_EXT1_LINETYPE
 70
     0
  0
APPID
  5
207
330
9
100
AcDbSymbolTableRecord
100
AcDbRegAppTableRecord
  2
ACAD_DSTYLE_DIM_EXT2_LINETYPE
 70
     0
  0
ENDTAB
  0
TABLE
  2
DIMSTYLE
  5
A
330
0
100
AcDbSymbolTable
 70
     1
100
AcDbDimStyleTable
  0
DIMSTYLE
105
27
102
{ACAD_REACTORS
330
1CA
102
}
330
A
100
AcDbSymbolTableRecord
100
AcDbDimStyleTableRecord
  2
Standard
 70
     0
178
     0
340
11
  0
ENDTAB
  0
TABLE
  2
BLOCK_RECORD
  5
1
330
0
100
AcDbSymbolTable
 70
    12
  0
BLOCK_RECORD
  5
1F
330
1
100
AcDbSymbolTableRecord
100
AcDbBlockTableRecord
  2
*Model_Space
340
22
  0
BLOCK_RECORD
  5
1B
330
1
100
AcDbSymbolTableRecord
100
AcDbBlockTableRecord
  2
*Paper_Space
340
1E
  0
BLOCK_RECORD
  5
23
330
1
100
AcDbSymbolTableRecord
100
AcDbBlockTableRecord
  2
*Paper_Space0
340
26
  0
BLOCK_RECORD
  5
120
330
1
100
AcDbSymbolTableRecord
100
AcDbBlockTableRecord
  2
LABLE3D_1
340
0
102
{BLKREFS
331
127
102
}
  0
BLOCK_RECORD
  5
121
330
1
100
AcDbSymbolTableRecord
100
AcDbBlockTableRecord
  2
_NONE
340
0
  0
BLOCK_RECORD
  5
150
330
1
100
AcDbSymbolTableRecord
100
AcDbBlockTableRecord
  2
ASSORTED_DRAFT1
340
0
102
{BLKREFS
331
154
102
}
  0
BLOCK_RECORD
  5
157
330
1
100
AcDbSymbolTableRecord
100
AcDbBlockTableRecord
  2
ASSORTED_DRAFT2
340
0
102
{BLKREFS
331
15B
102
}
  0
BLOCK_RECORD
  5
199
330
1
100
AcDbSymbolTableRecord
100
AcDbBlockTableRecord
  2
_U0
340
0
102
{BLKREFS
331
1A0
102
}
  0
BLOCK_RECORD
  5
1A3
330
1
100
AcDbSymbolTableRecord
100
AcDbBlockTableRecord
  2
_U1
340
0
102
{BLKREFS
331
1AA
102
}
  0
BLOCK_RECORD
  5
1AD
330
1
100
AcDbSymbolTableRecord
100
AcDbBlockTableRecord
  2
_U2
340
0
102
{BLKREFS
331
1B4
102
}
  0
BLOCK_RECORD
  5
1B7
330
1
100
AcDbSymbolTableRecord
100
AcDbBlockTableRecord
  2
_U3
340
0
102
{BLKREFS
331
1BE
102
}
  0
BLOCK_RECORD
  5
1C1
330
1
100
AcDbSymbolTableRecord
100
AcDbBlockTableRecord
  2
_U4
340
0
102
{BLKREFS
331
1C7
102
}
  0
BLOCK_RECORD
  5
1CE
330
1
100
AcDbSymbolTableRecord
100
AcDbBlockTableRecord
  2
*D10
340
0
  0
BLOCK_RECORD
  5
1DC
330
1
100
AcDbSymbolTableRecord
100
AcDbBlockTableRecord
  2
_U5
340
0
  0
ENDTAB
  0
ENDSEC
  0
SECTION
  2
BLOCKS
  0
BLOCK
  5
20
330
1F
100
AcDbEntity
  8
0
100
AcDbBlockBegin
  2
*Model_Space
 70
     0
 10
0.0
 20
0.0
 30
0.0
  3
*Model_Space
  1
*Model_Space
  0
ENDBLK
  5
21
330
1F
100
AcDbEntity
  8
0
100
AcDbBlockEnd
  0
BLOCK
  5
1C
330
1B
100
AcDbEntity
 67
     1
  8
0
100
AcDbBlockBegin
  2
*Paper_Space
 70
     0
 10
0.0
 20
0.0
 30
0.0
  3
*Paper_Space
  1
*Paper_Space
  0
ENDBLK
  5
1D
330
1B
100
AcDbEntity
 67
     1
  8
0
100
AcDbBlockEnd
  0
BLOCK
  5
24
330
23
100
AcDbEntity
  8
0
100
AcDbBlockBegin
  2
*Paper_Space0
 70
     0
 10
0.0
 20
0.0
 30
0.0
  3
*Paper_Space0
  1
*Paper_Space0
  0
ENDBLK
  5
25
330
23
100
AcDbEntity
  8
0
100
AcDbBlockEnd
  0
BLOCK
  5
128
330
120
100
AcDbEntity
  8
0
100
AcDbBlockBegin
  2
LABLE3D_1
 70
     0
 10
0.0
 20
0.0
 30
0.0
  3
LABLE3D_1
  1
LABLE3D_1
  0
MTEXT
  5
125
330
120
100
AcDbEntity
  8
1
  6
Continuous
 62
    35
370
    18
100
AcDbMText
 10
124.17549
 20
97.409992
 30
0.0
 40
3.5
 41
0.0
 71
     7
 72
     5
  1
\W1.0000;fuer M5
  7
ISOCPEUR
 73
     2
 44
0.85889
  0
ENDBLK
  5
129
330
120
100
AcDbEntity
  8
0
100
AcDbBlockEnd
  0
BLOCK
  5
122
330
121
100
AcDbEntity
  8
0
100
AcDbBlockBegin
  2
_NONE
 70
     0
 10
0.0
 20
0.0
 30
0.0
  3
_NONE
  1
_NONE
  0
ENDBLK
  5
123
330
121
100
AcDbEntity
  8
0
100
AcDbBlockEnd
  0
BLOCK
  5
155
330
150
100
AcDbEntity
  8
0
100
AcDbBlockBegin
  2
ASSORTED_DRAFT1
 70
     0
 10
0.0
 20
0.0
 30
0.0
  3
ASSORTED_DRAFT1
  1
ASSORTED_DRAFT1
  0
LINE
  5
151
330
150
100
AcDbEntity
  8
0
 62
   232
370
    13
100
AcDbLine
 10
183.52549
 20
109.515956
 30
0.0
 11
182.735575
 21
115.515953
 31
0.0
  0
LINE
  5
152
330
150
100
AcDbEntity
  8
0
 62
   232
370
    13
100
AcDbLine
 10
183.52549
 20
109.515956
 30
0.0
 11
184.315405
 21
115.515959
 31
0.0
  0
LINE
  5
153
330
150
100
AcDbEntity
  8
0
 62
   232
370
    13
100
AcDbLine
 10
182.735575
 20
115.515953
 30
0.0
 11
184.315405
 21
115.515959
 31
0.0
  0
ENDBLK
  5
156
330
150
100
AcDbEntity
  8
0
100
AcDbBlockEnd
  0
BLOCK
  5
15C
330
157
100
AcDbEntity
  8
0
100
AcDbBlockBegin
  2
ASSORTED_DRAFT2
 70
     0
 10
0.0
 20
0.0
 30
0.0
  3
ASSORTED_DRAFT2
  1
ASSORTED_DRAFT2
  0
LINE
  5
158
330
157
100
AcDbEntity
  8
0
 62
   232
370
    13
100
AcDbLine
 10
143.52549
 20
109.515956
 30
0.0
 11
142.735575
 21
115.515953
 31
0.0
  0
LINE
  5
159
330
157
100
AcDbEntity
  8
0
 62
   232
370
    13
100
AcDbLine
 10
143.52549
 20
109.515956
 30
0.0
 11
144.315405
 21
115.515959
 31
0.0
  0
LINE
  5
15A
330
157
100
AcDbEntity
  8
0
 62
   232
370
    13
100
AcDbLine
 10
142.735575
 20
115.515953
 30
0.0
 11
144.315405
 21
115.515959
 31
0.0
  0
ENDBLK
  5
15D
330
157
100
AcDbEntity
  8
0
100
AcDbBlockEnd
  0
BLOCK
  5
1A1
330
199
100
AcDbEntity
  8
0
100
AcDbBlockBegin
  2
_U0
 70
     0
 10
0.0
 20
0.0
 30
0.0
  3
_U0
  1
_U0
  0
MTEXT
  5
19A
330
199
100
AcDbEntity
  8
1
  6
Continuous
 62
    35
370
    13
100
AcDbMText
 10
220.825298
 20
228.710956
 30
0.0
 40
3.5
 41
0.0
 71
     7
 72
     5
  1
\W1.0000;270
  7
ISOCPEUR
 11
6.123233995736766E-17
 21
1.0
 31
0.0
 73
     2
 44
1.115371
  0
LINE
  5
19B
330
199
100
AcDbEntity
  8
1
 62
    35
370
    13
100
AcDbLine
 10
175.52549
 20
96.335956
 30
0.0
 11
222.52549
 21
96.335956
 31
0.0
  0
LINE
  5
19C
330
199
100
AcDbEntity
  8
1
 62
    35
370
    13
100
AcDbLine
 10
175.52549
 20
366.335956
 30
0.0
 11
222.52549
 21
366.335956
 31
0.0
  0
LINE
  5
19D
330
199
100
AcDbEntity
  8
1
 62
    35
370
    13
100
AcDbLine
 10
221.52549
 20
96.335956
 30
0.0
 11
221.52549
 21
366.335956
 31
0.0
  0
SOLID
  5
19E
330
199
100
AcDbEntity
  8
1
 62
    35
370
    18
100
AcDbTrace
 10
221.52549
 20
96.335956
 30
0.0
 11
220.47227
 21
104.335952
 31
0.0
 12
222.57871
 22
104.33596
 32
0.0
 13
221.52549
 23
96.335956
 33
0.0
  0
SOLID
  5
19F
330
199
100
AcDbEntity
  8
1
 62
    35
370
    18
100
AcDbTrace
 10
221.52549
 20
366.335956
 30
0.0
 11
222.57871
 21
358.33596
 31
0.0
 12
220.47227
 22
358.335952
 32
0.0
 13
221.52549
 23
366.335956
 33
0.0
  0
ENDBLK
  5
1A2
330
199
100
AcDbEntity
  8
0
100
AcDbBlockEnd
  0
BLOCK
  5
1AB
330
1A3
100
AcDbEntity
  8
0
100
AcDbBlockBegin
  2
_U1
 70
     0
 10
0.0
 20
0.0
 30
0.0
  3
_U1
  1
_U1
  0
MTEXT
  5
1A4
330
1A3
100
AcDbEntity
  8
1
  6
Continuous
 62
    35
370
    13
100
AcDbMText
 10
161.95049
 20
79.036148
 30
0.0
 40
3.5
 41
0.0
 71
     7
 72
     5
  1
\W1.0000;24
  7
ISOCPEUR
 73
     2
 44
1.115371
  0
LINE
  5
1A5
330
1A3
100
AcDbEntity
  8
1
 62
    35
370
    13
100
AcDbLine
 10
175.52549
 20
96.335956
 30
0.0
 11
175.52549
 21
77.335956
 31
0.0
  0
LINE
  5
1A6
330
1A3
100
AcDbEntity
  8
1
 62
    35
370
    13
100
AcDbLine
 10
151.52549
 20
96.335956
 30
0.0
 11
151.52549
 21
77.335956
 31
0.0
  0
LINE
  5
1A7
330
1A3
100
AcDbEntity
  8
1
 62
    35
370
    13
100
AcDbLine
 10
175.52549
 20
78.335956
 30
0.0
 11
151.52549
 21
78.335956
 31
0.0
  0
SOLID
  5
1A8
330
1A3
100
AcDbEntity
  8
1
 62
    35
370
    18
100
AcDbTrace
 10
175.52549
 20
78.335956
 30
0.0
 11
167.525494
 21
77.282736
 31
0.0
 12
167.525486
 22
79.389176
 32
0.0
 13
175.52549
 23
78.335956
 33
0.0
  0
SOLID
  5
1A9
330
1A3
100
AcDbEntity
  8
1
 62
    35
370
    18
100
AcDbTrace
 10
151.52549
 20
78.335956
 30
0.0
 11
159.525486
 21
79.389176
 31
0.0
 12
159.525494
 22
77.282736
 32
0.0
 13
151.52549
 23
78.335956
 33
0.0
  0
ENDBLK
  5
1AC
330
1A3
100
AcDbEntity
  8
0
100
AcDbBlockEnd
  0
BLOCK
  5
1B5
330
1AD
100
AcDbEntity
  8
0
100
AcDbBlockBegin
  2
_U2
 70
     0
 10
0.0
 20
0.0
 30
0.0
  3
_U2
  1
_U2
  0
MTEXT
  5
1AE
330
1AD
100
AcDbEntity
  8
1
  6
Continuous
 62
    35
370
    13
100
AcDbMText
 10
133.825298
 20
338.160956
 30
0.0
 40
3.5
 41
0.0
 71
     7
 72
     5
  1
\W1.0000;47.25
  7
ISOCPEUR
 11
6.123233995736766E-17
 21
1.0
 31
0.0
 73
     2
 44
1.115371
  0
LINE
  5
1AF
330
1AD
100
AcDbEntity
  8
1
 62
    35
370
    13
100
AcDbLine
 10
151.52549
 20
319.085956
 30
0.0
 11
133.52549
 21
319.085956
 31
0.0
  0
LINE
  5
1B0
330
1AD
100
AcDbEntity
  8
1
 62
    35
370
    13
100
AcDbLine
 10
151.52549
 20
366.335956
 30
0.0
 11
133.52549
 21
366.335956
 31
0.0
  0
LINE
  5
1B1
330
1AD
100
AcDbEntity
  8
1
 62
    35
370
    13
100
AcDbLine
 10
134.52549
 20
319.085956
 30
0.0
 11
134.52549
 21
366.335956
 31
0.0
  0
SOLID
  5
1B2
330
1AD
100
AcDbEntity
  8
1
 62
    35
370
    18
100
AcDbTrace
 10
134.52549
 20
319.085956
 30
0.0
 11
133.47227
 21
327.085952
 31
0.0
 12
135.57871
 22
327.08596
 32
0.0
 13
134.52549
 23
319.085956
 33
0.0
  0
SOLID
  5
1B3
330
1AD
100
AcDbEntity
  8
1
 62
    35
370
    18
100
AcDbTrace
 10
134.52549
 20
366.335956
 30
0.0
 11
135.57871
 21
358.33596
 31
0.0
 12
133.47227
 22
358.335952
 32
0.0
 13
134.52549
 23
366.335956
 33
0.0
  0
ENDBLK
  5
1B6
330
1AD
100
AcDbEntity
  8
0
100
AcDbBlockEnd
  0
BLOCK
  5
1BF
330
1B7
100
AcDbEntity
  8
0
100
AcDbBlockBegin
  2
_U3
 70
     0
 10
0.0
 20
0.0
 30
0.0
  3
_U3
  1
_U3
  0
MTEXT
  5
1B8
330
1B7
100
AcDbEntity
  8
1
  6
Continuous
 62
    35
370
    13
100
AcDbMText
 10
133.825298
 20
291.510956
 30
0.0
 40
3.5
 41
0.0
 71
     7
 72
     5
  1
\W1.0000;48.5
  7
ISOCPEUR
 11
6.123233995736766E-17
 21
1.0
 31
0.0
 73
     2
 44
1.115371
  0
LINE
  5
1B9
330
1B7
100
AcDbEntity
  8
1
 62
    35
370
    13
100
AcDbLine
 10
151.52549
 20
270.585956
 30
0.0
 11
133.52549
 21
270.585956
 31
0.0
  0
LINE
  5
1BA
330
1B7
100
AcDbEntity
  8
1
 62
    35
370
    13
100
AcDbLine
 10
151.52549
 20
319.085956
 30
0.0
 11
133.52549
 21
319.085956
 31
0.0
  0
LINE
  5
1BB
330
1B7
100
AcDbEntity
  8
1
 62
    35
370
    13
100
AcDbLine
 10
134.52549
 20
270.585956
 30
0.0
 11
134.52549
 21
319.085956
 31
0.0
  0
SOLID
  5
1BC
330
1B7
100
AcDbEntity
  8
1
 62
    35
370
    18
100
AcDbTrace
 10
134.52549
 20
270.585956
 30
0.0
 11
133.47227
 21
278.585952
 31
0.0
 12
135.57871
 22
278.58596
 32
0.0
 13
134.52549
 23
270.585956
 33
0.0
  0
SOLID
  5
1BD
330
1B7
100
AcDbEntity
  8
1
 62
    35
370
    18
100
AcDbTrace
 10
134.52549
 20
319.085956
 30
0.0
 11
135.57871
 21
311.08596
 31
0.0
 12
133.47227
 22
311.085952
 32
0.0
 13
134.52549
 23
319.085956
 33
0.0
  0
ENDBLK
  5
1C0
330
1B7
100
AcDbEntity
  8
0
100
AcDbBlockEnd
  0
BLOCK
  5
1C8
330
1C1
100
AcDbEntity
  8
0
100
AcDbBlockBegin
  2
_U4
 70
     0
 10
0.0
 20
0.0
 30
0.0
  3
_U4
  1
_U4
  0
MTEXT
  5
1C2
330
1C1
100
AcDbEntity
  8
1
  6
Continuous
 62
    35
370
    13
100
AcDbMText
 10
134.415919
 20
148.946684
 30
0.0
 40
3.5
 41
0.0
 71
     7
 72
     5
  1
\W1.0000;5.5
  7
ISOCPEUR
 73
     2
 44
1.115371
  0
LINE
  5
1C3
330
1C1
100
AcDbEntity
  8
1
 62
    35
370
    13
100
AcDbLine
 10
157.02549
 20
172.335956
 30
0.0
 11
157.02549
 21
147.246492
 31
0.0
  0
LINE
  5
1C4
330
1C1
100
AcDbEntity
  8
1
 62
    35
370
    13
100
AcDbLine
 10
133.540919
 20
148.246492
 30
0.0
 11
167.52549
 21
148.246492
 31
0.0
  0
SOLID
  5
1C5
330
1C1
100
AcDbEntity
  8
1
 62
    35
370
    18
100
AcDbTrace
 10
157.02549
 20
148.246492
 30
0.0
 11
165.025486
 21
149.299712
 31
0.0
 12
165.025494
 22
147.193272
 32
0.0
 13
157.02549
 23
148.246492
 33
0.0
  0
SOLID
  5
1C6
330
1C1
100
AcDbEntity
  8
1
 62
    35
370
    18
100
AcDbTrace
 10
151.52549
 20
148.246492
 30
0.0
 11
143.525494
 21
147.193272
 31
0.0
 12
143.525486
 22
149.299712
 32
0.0
 13
151.52549
 23
148.246492
 33
0.0
  0
ENDBLK
  5
1C9
330
1C1
100
AcDbEntity
  8
0
100
AcDbBlockEnd
  0
BLOCK
  5
1CF
330
1CE
100
AcDbEntity
  8
0
100
AcDbBlockBegin
  2
*D10
 70
     1
 10
0.0
 20
0.0
 30
0.0
  3
*D10
  1
*D10
  0
LINE
  5
1D1
330
1CE
100
AcDbEntity
  8
0
 62
    35
370
    -2
100
AcDbLine
 10
157.02549
 20
172.335956
 30
0.0
 11
157.02549
 21
132.82767
 31
0.0
  0
LINE
  5
1D2
330
1CE
100
AcDbEntity
  8
0
 62
    35
370
    -2
100
AcDbLine
 10
168.02549
 20
172.335956
 30
0.0
 11
168.02549
 21
132.82767
 31
0.0
  0
LINE
  5
1D3
330
1CE
100
AcDbEntity
  8
0
 62
    35
370
    -2
100
AcDbLine
 10
157.02549
 20
133.82767
 30
0.0
 11
127.72549
 21
133.82767
 31
0.0
  0
LINE
  5
1D4
330
1CE
100
AcDbEntity
  8
0
 62
    35
370
    -2
100
AcDbLine
 10
149.02549
 20
133.82767
 30
0.0
 11
141.02549
 21
133.82767
 31
0.0
  0
LINE
  5
1D5
330
1CE
100
AcDbEntity
  8
0
 62
    35
370
    -2
100
AcDbLine
 10
176.02549
 20
133.82767
 30
0.0
 11
184.02549
 21
133.82767
 31
0.0
  0
SOLID
  5
1D6
330
1CE
100
AcDbEntity
  8
0
 62
    35
100
AcDbTrace
 10
149.02549
 20
132.494337
 30
0.0
 11
149.02549
 21
135.161004
 31
0.0
 12
157.02549
 22
133.82767
 32
0.0
 13
157.02549
 23
133.82767
 33
0.0
  0
SOLID
  5
1D7
330
1CE
100
AcDbEntity
  8
0
 62
    35
100
AcDbTrace
 10
176.02549
 20
135.161004
 30
0.0
 11
176.02549
 21
132.494337
 31
0.0
 12
168.02549
 22
133.82767
 32
0.0
 13
168.02549
 23
133.82767
 33
0.0
  0
MTEXT
  5
1D8
330
1CE
100
AcDbEntity
  8
0
 62
    35
370
    18
100
AcDbMText
 10
134.37549
 20
140.82767
 30
0.0
 40
3.5
 41
0.0
 71
     5
 72
     1
  1
\A1;11
  7
ISOCPEUR
 73
     1
 44
1.0
  0
POINT
  5
1D9
330
1CE
100
AcDbEntity
  8
Defpoints
 62
     0
100
AcDbPoint
 10
157.02549
 20
172.335956
 30
0.0
  0
POINT
  5
1DA
330
1CE
100
AcDbEntity
  8
Defpoints
 62
     0
100
AcDbPoint
 10
168.02549
 20
172.335956
 30
0.0
  0
POINT
  5
1DB
330
1CE
100
AcDbEntity
  8
Defpoints
 62
     0
100
AcDbPoint
 10
168.02549
 20
133.82767
 30
0.0
  0
ENDBLK
  5
1D0
330
1CE
100
AcDbEntity
  8
0
100
AcDbBlockEnd
  0
BLOCK
  5
1E3
330
1DC
100
AcDbEntity
  8
0
100
AcDbBlockBegin
  2
_U5
 70
     0
 10
0.0
 20
0.0
 30
0.0
  3
_U5
  1
_U5
  0
MTEXT
  5
1DD
330
1DC
100
AcDbEntity
  8
1
  6
Continuous
 62
    35
370
    13
100
AcDbMText
 10
142.639196
 20
134.527863
 30
0.0
 40
3.5
 41
0.0
 71
     7
 72
     5
  1
\W1.0000;11
  7
ISOCPEUR
 73
     2
 44
1.115371
  0
LINE
  5
1DE
330
1DC
100
AcDbEntity
  8
1
 62
    35
370
    13
100
AcDbLine
 10
157.02549
 20
172.335956
 30
0.0
 11
157.02549
 21
132.82767
 31
0.0
  0
LINE
  5
1DF
330
1DC
100
AcDbEntity
  8
1
 62
    35
370
    13
100
AcDbLine
 10
168.02549
 20
172.335956
 30
0.0
 11
168.02549
 21
132.82767
 31
0.0
  0
LINE
  5
1E0
330
1DC
100
AcDbEntity
  8
1
 62
    35
370
    13
100
AcDbLine
 10
178.52549
 20
133.82767
 30
0.0
 11
141.764196
 21
133.82767
 31
0.0
  0
SOLID
  5
1E1
330
1DC
100
AcDbEntity
  8
1
 62
    35
370
    18
100
AcDbTrace
 10
157.02549
 20
133.82767
 30
0.0
 11
149.025494
 21
132.77445
 31
0.0
 12
149.025486
 22
134.88089
 32
0.0
 13
157.02549
 23
133.82767
 33
0.0
  0
SOLID
  5
1E2
330
1DC
100
AcDbEntity
  8
1
 62
    35
370
    18
100
AcDbTrace
 10
168.02549
 20
133.82767
 30
0.0
 11
176.025486
 21
134.88089
 31
0.0
 12
176.025494
 22
132.77445
 32
0.0
 13
168.02549
 23
133.82767
 33
0.0
  0
ENDBLK
  5
1E4
330
1DC
100
AcDbEntity
  8
0
100
AcDbBlockEnd
  0
ENDSEC
  0
SECTION
  2
ENTITIES
  0
POINT
  5
6F
330
1F
100
AcDbEntity
  8
1
  6
Continuous
 62
   203
 60
     1
370
    13
100
AcDbPoint
 10
163.52549
 20
48.013635
 30
0.0
  0
LINE
  5
71
102
{ACAD_REACTORS
330
1CC
102
}
330
1F
100
AcDbEntity
  8
1
  6
Continuous
 62
   155
370
    25
100
AcDbLine
 10
157.02549
 20
172.335956
 30
0.0
 11
157.02549
 21
216.335956
 31
0.0
  0
LINE
  5
72
330
1F
100
AcDbEntity
  8
1
  6
Continuous
 62
   155
370
    25
100
AcDbLine
 10
175.52549
 20
96.335956
 30
0.0
 11
175.52549
 21
366.335956
 31
0.0
  0
LINE
  5
73
330
1F
100
AcDbEntity
  8
1
  6
Continuous
 62
   155
370
    25
100
AcDbLine
 10
151.52549
 20
270.585956
 30
0.0
 11
151.52549
 21
96.335956
 31
0.0
  0
LINE
  5
74
330
1F
100
AcDbEntity
  8
1
  6
Continuous
 62
   155
370
    25
100
AcDbLine
 10
151.52549
 20
96.335956
 30
0.0
 11
175.52549
 21
96.335956
 31
0.0
  0
LINE
  5
75
330
1F
100
AcDbEntity
  8
1
  6
Continuous
 62
   155
370
    25
100
AcDbLine
 10
175.52549
 20
366.335956
 30
0.0
 11
151.52549
 21
366.335956
 31
0.0
  0
LINE
  5
76
330
1F
100
AcDbEntity
  8
1
  6
Continuous
 62
   155
370
    25
100
AcDbLine
 10
159.77549
 20
270.585956
 30
0.0
 11
151.52549
 21
270.585956
 31
0.0
  0
LINE
  5
77
102
{ACAD_REACTORS
330
1CC
102
}
330
1F
100
AcDbEntity
  8
1
  6
Continuous
 62
   155
370
    25
100
AcDbLine
 10
168.02549
 20
216.335956
 30
0.0
 11
168.02549
 21
172.335956
 31
0.0
  0
LINE
  5
78
330
1F
100
AcDbEntity
  8
1
  6
Continuous
 62
   155
370
    25
100
AcDbLine
 10
151.52549
 20
319.085956
 30
0.0
 11
159.77549
 21
319.085956
 31
0.0
  0
LINE
  5
79
330
1F
100
AcDbEntity
  8
1
  6
Continuous
 62
   155
370
    25
100
AcDbLine
 10
162.02549
 20
272.835956
 30
0.0
 11
159.77549
 21
270.585956
 31
0.0
  0
LINE
  5
7A
330
1F
100
AcDbEntity
  8
1
  6
Continuous
 62
   155
370
    25
100
AcDbLine
 10
169.77549
 20
272.835956
 30
0.0
 11
162.02549
 21
272.835956
 31
0.0
  0
LINE
  5
7B
330
1F
100
AcDbEntity
  8
1
  6
Continuous
 62
   155
370
    25
100
AcDbLine
 10
170.77549
 20
283.835956
 30
0.0
 11
170.77549
 21
273.835956
 31
0.0
  0
LINE
  5
7C
330
1F
100
AcDbEntity
  8
1
  6
Continuous
 62
   155
370
    25
100
AcDbLine
 10
168.77549
 20
284.835956
 30
0.0
 11
169.77549
 21
284.835956
 31
0.0
  0
LINE
  5
7D
330
1F
100
AcDbEntity
  8
1
  6
Continuous
 62
   155
370
    25
100
AcDbLine
 10
168.77549
 20
304.835956
 30
0.0
 11
168.77549
 21
284.835956
 31
0.0
  0
LINE
  5
7E
330
1F
100
AcDbEntity
  8
1
  6
Continuous
 62
   155
370
    25
100
AcDbLine
 10
169.77549
 20
304.835956
 30
0.0
 11
168.77549
 21
304.835956
 31
0.0
  0
LINE
  5
7F
330
1F
100
AcDbEntity
  8
1
  6
Continuous
 62
   155
370
    25
100
AcDbLine
 10
170.77549
 20
315.835956
 30
0.0
 11
170.77549
 21
305.835956
 31
0.0
  0
LINE
  5
80
330
1F
100
AcDbEntity
  8
1
  6
Continuous
 62
   155
370
    25
100
AcDbLine
 10
162.02549
 20
316.835956
 30
0.0
 11
169.77549
 21
316.835956
 31
0.0
  0
LINE
  5
81
330
1F
100
AcDbEntity
  8
1
  6
Continuous
 62
   155
370
    25
100
AcDbLine
 10
159.77549
 20
319.085956
 30
0.0
 11
162.02549
 21
316.835956
 31
0.0
  0
LINE
  5
82
330
1F
100
AcDbEntity
  8
1
  6
Continuous
 62
   155
370
    25
100
AcDbLine
 10
151.52549
 20
366.335956
 30
0.0
 11
151.52549
 21
319.085956
 31
0.0
  0
LINE
  5
83
330
1F
100
AcDbEntity
  8
1
  6
Continuous
 62
   155
370
    25
100
AcDbLine
 10
167.02549
 20
46.513635
 30
0.0
 11
160.02549
 21
46.513635
 31
0.0
  0
LINE
  5
84
330
1F
100
AcDbEntity
  8
1
  6
Continuous
 62
   163
 60
     1
370
    13
100
AcDbLine
 10
151.52549
 20
45.013635
 30
0.0
 11
151.52549
 21
48.013635
 31
0.0
  0
LINE
  5
85
330
1F
100
AcDbEntity
  8
1
  6
Continuous
 62
   163
 60
     1
370
    13
100
AcDbLine
 10
158.52549
 20
45.013635
 30
0.0
 11
151.52549
 21
45.013635
 31
0.0
  0
LINE
  5
86
330
1F
100
AcDbEntity
  8
1
  6
Continuous
 62
   163
 60
     1
370
    13
100
AcDbLine
 10
160.02549
 20
46.513635
 30
0.0
 11
158.52549
 21
45.013635
 31
0.0
  0
LINE
  5
87
330
1F
100
AcDbEntity
  8
1
  6
Continuous
 62
   163
 60
     1
370
    13
100
AcDbLine
 10
158.52549
 20
48.013635
 30
0.0
 11
160.02549
 21
46.513635
 31
0.0
  0
LINE
  5
88
330
1F
100
AcDbEntity
  8
1
  6
Continuous
 62
   163
 60
     1
370
    13
100
AcDbLine
 10
151.52549
 20
48.013635
 30
0.0
 11
158.52549
 21
48.013635
 31
0.0
  0
LINE
  5
89
330
1F
100
AcDbEntity
  8
1
  6
Continuous
 62
   163
 60
     1
370
    13
100
AcDbLine
 10
175.52549
 20
48.013635
 30
0.0
 11
175.52549
 21
45.013635
 31
0.0
  0
LINE
  5
8A
330
1F
100
AcDbEntity
  8
1
  6
Continuous
 62
   163
 60
     1
370
    13
100
AcDbLine
 10
168.52549
 20
48.013635
 30
0.0
 11
175.52549
 21
48.013635
 31
0.0
  0
LINE
  5
8B
330
1F
100
AcDbEntity
  8
1
  6
Continuous
 62
   163
 60
     1
370
    13
100
AcDbLine
 10
167.02549
 20
46.513635
 30
0.0
 11
168.52549
 21
48.013635
 31
0.0
  0
LINE
  5
8C
330
1F
100
AcDbEntity
  8
1
  6
Continuous
 62
   163
 60
     1
370
    13
100
AcDbLine
 10
168.52549
 20
45.013635
 30
0.0
 11
167.02549
 21
46.513635
 31
0.0
  0
LINE
  5
8D
330
1F
100
AcDbEntity
  8
1
  6
Continuous
 62
   163
 60
     1
370
    13
100
AcDbLine
 10
175.52549
 20
45.013635
 30
0.0
 11
168.52549
 21
45.013635
 31
0.0
  0
LINE
  5
8E
330
1F
100
AcDbEntity
  8
1
  6
Continuous
 62
   155
370
    25
100
AcDbLine
 10
175.52549
 20
45.013635
 30
0.0
 11
168.52549
 21
45.013635
 31
0.0
  0
LINE
  5
8F
330
1F
100
AcDbEntity
  8
1
  6
Continuous
 62
   155
370
    25
100
AcDbLine
 10
151.52549
 20
45.013635
 30
0.0
 11
151.52549
 21
48.013635
 31
0.0
  0
LINE
  5
90
330
1F
100
AcDbEntity
  8
1
  6
Continuous
 62
   155
370
    25
100
AcDbLine
 10
158.52549
 20
45.013635
 30
0.0
 11
151.52549
 21
45.013635
 31
0.0
  0
LINE
  5
91
330
1F
100
AcDbEntity
  8
1
  6
Continuous
 62
   155
370
    25
100
AcDbLine
 10
160.02549
 20
46.513635
 30
0.0
 11
158.52549
 21
45.013635
 31
0.0
  0
LINE
  5
92
330
1F
100
AcDbEntity
  8
1
  6
Continuous
 62
   155
370
    25
100
AcDbLine
 10
158.52549
 20
48.013635
 30
0.0
 11
160.02549
 21
46.513635
 31
0.0
  0
LINE
  5
93
330
1F
100
AcDbEntity
  8
1
  6
Continuous
 62
   155
370
    25
100
AcDbLine
 10
151.52549
 20
48.013635
 30
0.0
 11
158.52549
 21
48.013635
 31
0.0
  0
LINE
  5
94
330
1F
100
AcDbEntity
  8
1
  6
Continuous
 62
   155
370
    25
100
AcDbLine
 10
175.52549
 20
48.013635
 30
0.0
 11
175.52549
 21
45.013635
 31
0.0
  0
LINE
  5
95
330
1F
100
AcDbEntity
  8
1
  6
Continuous
 62
   155
370
    25
100
AcDbLine
 10
168.52549
 20
48.013635
 30
0.0
 11
175.52549
 21
48.013635
 31
0.0
  0
LINE
  5
96
330
1F
100
AcDbEntity
  8
1
  6
Continuous
 62
   155
370
    25
100
AcDbLine
 10
167.02549
 20
46.513635
 30
0.0
 11
168.52549
 21
48.013635
 31
0.0
  0
LINE
  5
97
330
1F
100
AcDbEntity
  8
1
  6
Continuous
 62
   155
370
    25
100
AcDbLine
 10
168.52549
 20
45.013635
 30
0.0
 11
167.02549
 21
46.513635
 31
0.0
  0
LINE
  5
98
330
1F
100
AcDbEntity
  8
1
  6
Continuous
 62
   155
370
    25
100
AcDbLine
 10
168.52549
 20
45.013635
 30
0.0
 11
158.52549
 21
45.013635
 31
0.0
  0
LINE
  5
99
330
1F
100
AcDbEntity
  8
1
  6
Continuous
 62
   155
370
    25
100
AcDbLine
 10
168.52549
 20
48.013635
 30
0.0
 11
158.52549
 21
48.013635
 31
0.0
  0
LINE
  5
9A
102
{ACAD_REACTORS
330
1F3
102
}
330
1F
100
AcDbEntity
  8
256
  6
Continuous
 62
     2
370
    13
100
AcDbLine
 10
490.914809
 20
24.5
 30
0.0
 11
589.0
 21
24.5
 31
0.0
  0
LINE
  5
9C
102
{ACAD_REACTORS
330
1F3
102
}
330
1F
100
AcDbEntity
  8
256
  6
Continuous
 62
     2
370
    18
100
AcDbLine
 10
449.932916
 20
5.054708
 30
0.0
 11
449.932916
 21
30.530208
 31
0.0
  0
LINE
  5
9D
102
{ACAD_REACTORS
330
1F3
102
}
330
1F
100
AcDbEntity
  8
256
  6
Continuous
 62
     2
370
    13
100
AcDbLine
 10
404.0
 20
24.5
 30
0.0
 11
490.914809
 21
24.5
 31
0.0
  0
LINE
  5
9E
102
{ACAD_REACTORS
330
1F3
102
}
330
1F
100
AcDbEntity
  8
256
  6
Continuous
 62
     2
370
    18
100
AcDbLine
 10
522.3325
 20
18.5
 30
0.0
 11
522.3325
 21
30.4755
 31
0.0
  0
LINE
  5
9F
102
{ACAD_REACTORS
330
1F3
102
}
330
1F
100
AcDbEntity
  8
256
  6
Continuous
 62
     2
370
    18
100
AcDbLine
 10
522.3325
 20
5.0
 30
0.0
 11
522.3325
 21
18.5
 31
0.0
  0
LINE
  5
A0
102
{ACAD_REACTORS
330
1F3
102
}
330
1F
100
AcDbEntity
  8
256
  6
Continuous
 62
   140
370
    18
100
AcDbLine
 10
0.1
 20
419.9
 30
0.0
 11
0.1
 21
0.1
 31
0.0
  0
LINE
  5
A1
102
{ACAD_REACTORS
330
1F3
102
}
330
1F
100
AcDbEntity
  8
256
  6
Continuous
 62
   140
370
    18
100
AcDbLine
 10
593.9
 20
419.9
 30
0.0
 11
0.1
 21
419.9
 31
0.0
  0
LINE
  5
A2
102
{ACAD_REACTORS
330
1F3
102
}
330
1F
100
AcDbEntity
  8
256
  6
Continuous
 62
     2
370
    25
100
AcDbLine
 10
297.0
 20
5.0
 30
0.0
 11
297.0
 21
0.1
 31
0.0
  0
LINE
  5
A3
102
{ACAD_REACTORS
330
1F3
102
}
330
1F
100
AcDbEntity
  8
256
  6
Continuous
 62
   140
370
    18
100
AcDbLine
 10
402.0
 20
0.1
 30
0.0
 11
402.0
 21
5.0
 31
0.0
  0
LINE
  5
A4
102
{ACAD_REACTORS
330
1F3
102
}
330
1F
100
AcDbEntity
  8
256
  6
Continuous
 62
   140
370
    18
100
AcDbLine
 10
0.1
 20
0.1
 30
0.0
 11
593.9
 21
0.1
 31
0.0
  0
LINE
  5
A5
102
{ACAD_REACTORS
330
1F3
102
}
330
1F
100
AcDbEntity
  8
256
  6
Continuous
 62
     2
370
    25
100
AcDbLine
 10
589.0
 20
5.0
 30
0.0
 11
589.0
 21
415.0
 31
0.0
  0
LINE
  5
A6
102
{ACAD_REACTORS
330
1F3
102
}
330
1F
100
AcDbEntity
  8
256
  6
Continuous
 62
   140
370
    18
100
AcDbLine
 10
589.0
 20
297.0
 30
0.0
 11
593.9
 21
297.0
 31
0.0
  0
LINE
  5
A7
102
{ACAD_REACTORS
330
1F3
102
}
330
1F
100
AcDbEntity
  8
256
  6
Continuous
 62
     2
370
    25
100
AcDbLine
 10
589.0
 20
415.0
 30
0.0
 11
20.1
 21
415.0
 31
0.0
  0
LINE
  5
A8
102
{ACAD_REACTORS
330
1F3
102
}
330
1F
100
AcDbEntity
  8
256
  6
Continuous
 62
   140
370
    18
100
AcDbLine
 10
402.0
 20
415.0
 30
0.0
 11
402.0
 21
419.9
 31
0.0
  0
LINE
  5
A9
102
{ACAD_REACTORS
330
1F3
102
}
330
1F
100
AcDbEntity
  8
256
  6
Continuous
 62
     2
370
    25
100
AcDbLine
 10
589.0
 20
210.0
 30
0.0
 11
593.9
 21
210.0
 31
0.0
  0
LINE
  5
AA
102
{ACAD_REACTORS
330
1F3
102
}
330
1F
100
AcDbEntity
  8
256
  6
Continuous
 62
   140
370
    18
100
AcDbLine
 10
210.0
 20
415.0
 30
0.0
 11
210.0
 21
419.9
 31
0.0
  0
LINE
  5
AB
102
{ACAD_REACTORS
330
1F3
102
}
330
1F
100
AcDbEntity
  8
256
  6
Continuous
 62
   140
370
    18
100
AcDbLine
 10
593.9
 20
0.1
 30
0.0
 11
593.9
 21
419.9
 31
0.0
  0
LINE
  5
AC
102
{ACAD_REACTORS
330
1F3
102
}
330
1F
100
AcDbEntity
  8
256
  6
Continuous
 62
     2
370
    25
100
AcDbLine
 10
297.0
 20
419.9
 30
0.0
 11
297.0
 21
415.0
 31
0.0
  0
LINE
  5
AD
102
{ACAD_REACTORS
330
1F3
102
}
330
1F
100
AcDbEntity
  8
256
  6
Continuous
 62
   140
370
    18
100
AcDbLine
 10
100.817657
 20
415.0
 30
0.0
 11
105.0
 21
419.9
 31
0.0
  0
LINE
  5
AE
102
{ACAD_REACTORS
330
1F3
102
}
330
1F
100
AcDbEntity
  8
256
  6
Continuous
 62
   140
370
    18
100
AcDbLine
 10
210.0
 20
0.1
 30
0.0
 11
210.0
 21
5.0
 31
0.0
  0
LINE
  5
AF
102
{ACAD_REACTORS
330
1F3
102
}
330
1F
100
AcDbEntity
  8
256
  6
Continuous
 62
     2
370
    25
100
AcDbLine
 10
20.1
 20
5.0
 30
0.0
 11
589.0
 21
5.0
 31
0.0
  0
LINE
  5
B0
102
{ACAD_REACTORS
330
1F3
102
}
330
1F
100
AcDbEntity
  8
256
  6
Continuous
 62
   140
370
    18
100
AcDbLine
 10
20.1
 20
415.0
 30
0.0
 11
20.1
 21
5.0
 31
0.0
  0
LINE
  5
B1
330
1F
100
AcDbEntity
  8
1
  6
Continuous
 62
   232
370
    18
100
AcDbLine
 10
143.52549
 20
121.335956
 30
0.0
 11
143.52549
 21
109.335956
 31
0.0
  0
LINE
  5
B2
330
1F
100
AcDbEntity
  8
1
  6
Continuous
 62
   232
370
    18
100
AcDbLine
 10
183.52549
 20
121.335956
 30
0.0
 11
183.52549
 21
109.335956
 31
0.0
  0
LINE
  5
B3
102
{ACAD_REACTORS
330
1F3
102
}
330
1F
100
AcDbEntity
  8
256
  6
Continuous
 62
     2
370
    25
100
AcDbLine
 10
404.0
 20
5.0
 30
0.0
 11
404.0
 21
30.4755
 31
0.0
  0
LINE
  5
B4
102
{ACAD_REACTORS
330
1F3
102
}
330
1F
100
AcDbEntity
  8
256
  6
Continuous
 62
     2
370
    25
100
AcDbLine
 10
404.0
 20
30.4755
 30
0.0
 11
589.0
 21
30.4755
 31
0.0
  0
LINE
  5
B5
102
{ACAD_REACTORS
330
1F3
102
}
330
1F
100
AcDbEntity
  8
256
  6
Continuous
 62
     2
370
    13
100
AcDbLine
 10
522.322529
 20
14.00233
 30
0.0
 11
589.0
 21
14.0
 31
0.0
  0
LINE
  5
B6
102
{ACAD_REACTORS
330
1F3
102
}
330
1F
100
AcDbEntity
  8
256
  6
Continuous
 62
     2
370
    13
100
AcDbLine
 10
557.356458
 20
18.5
 30
0.0
 11
557.356458
 21
14.0
 31
0.0
  0
LINE
  5
B7
102
{ACAD_REACTORS
330
1F3
102
}
330
1F
100
AcDbEntity
  8
255
  6
Continuous
 62
   163
370
    13
100
AcDbLine
 10
589.0
 20
130.4755
 30
0.0
 11
589.0
 21
120.4755
 31
0.0
  0
LINE
  5
B9
102
{ACAD_REACTORS
330
1F3
102
}
330
1F
100
AcDbEntity
  8
255
  6
Continuous
 62
   163
370
    13
100
AcDbLine
 10
589.0
 20
30.4755
 30
0.0
 11
589.0
 21
20.4755
 31
0.0
  0
LINE
  5
BA
102
{ACAD_REACTORS
330
1F3
102
}
330
1F
100
AcDbEntity
  8
255
  6
Continuous
 62
   163
370
    13
100
AcDbLine
 10
589.0
 20
45.4755
 30
0.0
 11
589.0
 21
35.4755
 31
0.0
  0
LINE
  5
BB
102
{ACAD_REACTORS
330
1F3
102
}
330
1F
100
AcDbEntity
  8
255
  6
Continuous
 62
   163
370
    13
100
AcDbLine
 10
589.0
 20
130.4755
 30
0.0
 11
589.0
 21
120.4755
 31
0.0
  0
LINE
  5
BC
102
{ACAD_REACTORS
330
1F3
102
}
330
1F
100
AcDbEntity
  8
256
  6
Continuous
 62
     2
370
    18
100
AcDbLine
 10
404.0
 20
18.5
 30
0.0
 11
449.932916
 21
18.5
 31
0.0
  0
LINE
  5
BD
102
{ACAD_REACTORS
330
1F3
102
}
330
1F
100
AcDbEntity
  8
256
  6
Continuous
 62
     2
370
    13
100
AcDbLine
 10
522.3325
 20
18.5
 30
0.0
 11
589.0
 21
18.5
 31
0.0
  0
LINE
  5
BE
102
{ACAD_REACTORS
330
1F3
102
}
330
1F
100
AcDbEntity
  8
256
  6
Continuous
 62
     2
370
    13
100
AcDbLine
 10
490.914809
 20
24.5
 30
0.0
 11
490.914809
 21
30.4755
 31
0.0
  0
LWPOLYLINE
  5
BF
330
1F
100
AcDbEntity
  8
1
  6
Continuous
 62
   232
370
    35
100
AcDbPolyline
 90
        2
 70
     0
 43
0.36
 10
140.52549
 20
109.335956
 10
146.52549
 20
109.335956
  0
LWPOLYLINE
  5
C0
330
1F
100
AcDbEntity
  8
1
  6
Continuous
 62
   232
370
    35
100
AcDbPolyline
 90
        2
 70
     0
 43
0.36
 10
186.52549
 20
109.335956
 10
180.52549
 20
109.335956
  0
LINE
  5
C1
102
{ACAD_REACTORS
330
1EE
102
}
330
1F
100
AcDbEntity
  8
1
  6
Continuous
 62
    35
370
    13
100
AcDbLine
 10
193.52549
 20
233.835956
 30
0.0
 11
193.52549
 21
109.335956
 31
0.0
  0
LINE
  5
C2
102
{ACAD_REACTORS
330
1EE
102
}
330
1F
100
AcDbEntity
  8
1
  6
Continuous
 62
    35
370
    13
100
AcDbLine
 10
170.52549
 20
109.335956
 30
0.0
 11
194.52549
 21
109.335956
 31
0.0
  0
LINE
  5
C3
102
{ACAD_REACTORS
330
1EE
102
}
330
1F
100
AcDbEntity
  8
1
  6
Continuous
 62
    35
370
    13
100
AcDbLine
 10
170.52549
 20
233.835956
 30
0.0
 11
194.52549
 21
233.835956
 31
0.0
  0
LINE
  5
C4
330
1F
100
AcDbEntity
  8
1
  6
Continuous
 62
    35
 60
     1
370
    18
100
AcDbLine
 10
193.52549
 20
109.335956
 30
0.0
 11
192.47227
 21
117.335952
 31
0.0
  0
LINE
  5
C5
330
1F
100
AcDbEntity
  8
1
  6
Continuous
 62
    35
 60
     1
370
    18
100
AcDbLine
 10
192.47227
 20
117.335952
 30
0.0
 11
194.57871
 21
117.33596
 31
0.0
  0
LINE
  5
C6
330
1F
100
AcDbEntity
  8
1
  6
Continuous
 62
    35
 60
     1
370
    18
100
AcDbLine
 10
194.57871
 20
117.33596
 30
0.0
 11
193.52549
 21
109.335956
 31
0.0
  0
LINE
  5
C7
330
1F
100
AcDbEntity
  8
1
  6
Continuous
 62
    35
 60
     1
370
    18
100
AcDbLine
 10
193.52549
 20
233.835956
 30
0.0
 11
194.57871
 21
225.83596
 31
0.0
  0
LINE
  5
C8
330
1F
100
AcDbEntity
  8
1
  6
Continuous
 62
    35
 60
     1
370
    18
100
AcDbLine
 10
194.57871
 20
225.83596
 30
0.0
 11
192.47227
 21
225.835952
 31
0.0
  0
LINE
  5
C9
330
1F
100
AcDbEntity
  8
1
  6
Continuous
 62
    35
 60
     1
370
    18
100
AcDbLine
 10
192.47227
 20
225.835952
 30
0.0
 11
193.52549
 21
233.835956
 31
0.0
  0
LINE
  5
CA
102
{ACAD_REACTORS
330
1EF
102
}
330
1F
100
AcDbEntity
  8
1
  6
Continuous
 62
    35
370
    13
100
AcDbLine
 10
207.52549
 20
353.335956
 30
0.0
 11
207.52549
 21
109.335956
 31
0.0
  0
LINE
  5
CB
102
{ACAD_REACTORS
330
1EF
102
}
330
1F
100
AcDbEntity
  8
1
  6
Continuous
 62
    35
370
    13
100
AcDbLine
 10
170.52549
 20
109.335956
 30
0.0
 11
208.52549
 21
109.335956
 31
0.0
  0
LINE
  5
CC
102
{ACAD_REACTORS
330
1EF
102
}
330
1F
100
AcDbEntity
  8
1
  6
Continuous
 62
    35
370
    13
100
AcDbLine
 10
170.52549
 20
353.335956
 30
0.0
 11
208.52549
 21
353.335956
 31
0.0
  0
LINE
  5
CD
330
1F
100
AcDbEntity
  8
1
  6
Continuous
 62
    35
 60
     1
370
    18
100
AcDbLine
 10
207.52549
 20
109.335956
 30
0.0
 11
206.47227
 21
117.335952
 31
0.0
  0
LINE
  5
CE
330
1F
100
AcDbEntity
  8
1
  6
Continuous
 62
    35
 60
     1
370
    18
100
AcDbLine
 10
206.47227
 20
117.335952
 30
0.0
 11
208.57871
 21
117.33596
 31
0.0
  0
LINE
  5
CF
330
1F
100
AcDbEntity
  8
1
  6
Continuous
 62
    35
 60
     1
370
    18
100
AcDbLine
 10
208.57871
 20
117.33596
 30
0.0
 11
207.52549
 21
109.335956
 31
0.0
  0
LINE
  5
D0
330
1F
100
AcDbEntity
  8
1
  6
Continuous
 62
    35
 60
     1
370
    18
100
AcDbLine
 10
207.52549
 20
353.335956
 30
0.0
 11
208.57871
 21
345.33596
 31
0.0
  0
LINE
  5
D1
330
1F
100
AcDbEntity
  8
1
  6
Continuous
 62
    35
 60
     1
370
    18
100
AcDbLine
 10
208.57871
 20
345.33596
 30
0.0
 11
206.47227
 21
345.335952
 31
0.0
  0
LINE
  5
D2
330
1F
100
AcDbEntity
  8
1
  6
Continuous
 62
    35
 60
     1
370
    18
100
AcDbLine
 10
206.47227
 20
345.335952
 30
0.0
 11
207.52549
 21
353.335956
 31
0.0
  0
LINE
  5
D3
102
{ACAD_REACTORS
330
1F0
102
}
330
1F
100
AcDbEntity
  8
1
  6
Continuous
 62
    35
370
    13
100
AcDbLine
 10
134.52549
 20
216.335956
 30
0.0
 11
134.52549
 21
270.585956
 31
0.0
  0
LINE
  5
D4
102
{ACAD_REACTORS
330
1F0
102
}
330
1F
100
AcDbEntity
  8
1
  6
Continuous
 62
    35
370
    13
100
AcDbLine
 10
151.52549
 20
270.585956
 30
0.0
 11
133.52549
 21
270.585956
 31
0.0
  0
LINE
  5
D5
102
{ACAD_REACTORS
330
1F0
102
}
330
1F
100
AcDbEntity
  8
1
  6
Continuous
 62
    35
370
    13
100
AcDbLine
 10
157.02549
 20
216.335956
 30
0.0
 11
133.52549
 21
216.335956
 31
0.0
  0
LINE
  5
D6
330
1F
100
AcDbEntity
  8
1
  6
Continuous
 62
    35
 60
     1
370
    18
100
AcDbLine
 10
134.52549
 20
270.585956
 30
0.0
 11
135.57871
 21
262.58596
 31
0.0
  0
LINE
  5
D7
330
1F
100
AcDbEntity
  8
1
  6
Continuous
 62
    35
 60
     1
370
    18
100
AcDbLine
 10
135.57871
 20
262.58596
 30
0.0
 11
133.47227
 21
262.585952
 31
0.0
  0
LINE
  5
D8
330
1F
100
AcDbEntity
  8
1
  6
Continuous
 62
    35
 60
     1
370
    18
100
AcDbLine
 10
133.47227
 20
262.585952
 30
0.0
 11
134.52549
 21
270.585956
 31
0.0
  0
LINE
  5
D9
330
1F
100
AcDbEntity
  8
1
  6
Continuous
 62
    35
 60
     1
370
    18
100
AcDbLine
 10
134.52549
 20
216.335956
 30
0.0
 11
133.47227
 21
224.335952
 31
0.0
  0
LINE
  5
DA
330
1F
100
AcDbEntity
  8
1
  6
Continuous
 62
    35
 60
     1
370
    18
100
AcDbLine
 10
133.47227
 20
224.335952
 30
0.0
 11
135.57871
 21
224.33596
 31
0.0
  0
LINE
  5
DB
330
1F
100
AcDbEntity
  8
1
  6
Continuous
 62
    35
 60
     1
370
    18
100
AcDbLine
 10
135.57871
 20
224.33596
 30
0.0
 11
134.52549
 21
216.335956
 31
0.0
  0
LINE
  5
DC
102
{ACAD_REACTORS
330
1F1
102
}
330
1F
100
AcDbEntity
  8
1
  6
Continuous
 62
    35
370
    13
100
AcDbLine
 10
134.52549
 20
172.335956
 30
0.0
 11
134.52549
 21
216.335956
 31
0.0
  0
LINE
  5
DD
102
{ACAD_REACTORS
330
1F1
102
}
330
1F
100
AcDbEntity
  8
1
  6
Continuous
 62
    35
370
    13
100
AcDbLine
 10
155.02549
 20
216.335956
 30
0.0
 11
133.52549
 21
216.335956
 31
0.0
  0
LINE
  5
DE
102
{ACAD_REACTORS
330
1F1
102
}
330
1F
100
AcDbEntity
  8
1
  6
Continuous
 62
    35
370
    13
100
AcDbLine
 10
157.02549
 20
172.335956
 30
0.0
 11
133.52549
 21
172.335956
 31
0.0
  0
LINE
  5
DF
330
1F
100
AcDbEntity
  8
1
  6
Continuous
 62
    35
 60
     1
370
    18
100
AcDbLine
 10
134.52549
 20
216.335956
 30
0.0
 11
135.57871
 21
208.33596
 31
0.0
  0
LINE
  5
E0
330
1F
100
AcDbEntity
  8
1
  6
Continuous
 62
    35
 60
     1
370
    18
100
AcDbLine
 10
135.57871
 20
208.33596
 30
0.0
 11
133.47227
 21
208.335952
 31
0.0
  0
LINE
  5
E1
330
1F
100
AcDbEntity
  8
1
  6
Continuous
 62
    35
 60
     1
370
    18
100
AcDbLine
 10
133.47227
 20
208.335952
 30
0.0
 11
134.52549
 21
216.335956
 31
0.0
  0
LINE
  5
E2
330
1F
100
AcDbEntity
  8
1
  6
Continuous
 62
    35
 60
     1
370
    18
100
AcDbLine
 10
134.52549
 20
172.335956
 30
0.0
 11
133.47227
 21
180.335952
 31
0.0
  0
LINE
  5
E3
330
1F
100
AcDbEntity
  8
1
  6
Continuous
 62
    35
 60
     1
370
    18
100
AcDbLine
 10
133.47227
 20
180.335952
 30
0.0
 11
135.57871
 21
180.33596
 31
0.0
  0
LINE
  5
E4
330
1F
100
AcDbEntity
  8
1
  6
Continuous
 62
    35
 60
     1
370
    18
100
AcDbLine
 10
135.57871
 20
180.33596
 30
0.0
 11
134.52549
 21
172.335956
 31
0.0
  0
LINE
  5
E5
102
{ACAD_REACTORS
330
1F2
102
}
330
1F
100
AcDbEntity
  8
1
  6
Continuous
 62
    35
370
    13
100
AcDbLine
 10
193.52549
 20
80.225689
 30
0.0
 11
193.52549
 21
119.835956
 31
0.0
  0
LINE
  5
E6
102
{ACAD_REACTORS
330
1F2
102
}
330
1F
100
AcDbEntity
  8
1
  6
Continuous
 62
    35
370
    13
100
AcDbLine
 10
175.52549
 20
96.335956
 30
0.0
 11
194.52549
 21
96.335956
 31
0.0
  0
LINE
  5
E7
102
{ACAD_REACTORS
330
1F2
102
}
330
1F
100
AcDbEntity
  8
1
  6
Continuous
 62
    35
370
    13
100
AcDbLine
 10
170.52549
 20
109.335956
 30
0.0
 11
194.52549
 21
109.335956
 31
0.0
  0
LINE
  5
E8
330
1F
100
AcDbEntity
  8
1
  6
Continuous
 62
    35
 60
     1
370
    18
100
AcDbLine
 10
193.52549
 20
96.335956
 30
0.0
 11
194.57871
 21
88.33596
 31
0.0
  0
LINE
  5
E9
330
1F
100
AcDbEntity
  8
1
  6
Continuous
 62
    35
 60
     1
370
    18
100
AcDbLine
 10
194.57871
 20
88.33596
 30
0.0
 11
192.47227
 21
88.335952
 31
0.0
  0
LINE
  5
EA
330
1F
100
AcDbEntity
  8
1
  6
Continuous
 62
    35
 60
     1
370
    18
100
AcDbLine
 10
192.47227
 20
88.335952
 30
0.0
 11
193.52549
 21
96.335956
 31
0.0
  0
LINE
  5
EB
330
1F
100
AcDbEntity
  8
1
  6
Continuous
 62
    35
 60
     1
370
    18
100
AcDbLine
 10
193.52549
 20
109.335956
 30
0.0
 11
192.47227
 21
117.335952
 31
0.0
  0
LINE
  5
EC
330
1F
100
AcDbEntity
  8
1
  6
Continuous
 62
    35
 60
     1
370
    18
100
AcDbLine
 10
192.47227
 20
117.335952
 30
0.0
 11
194.57871
 21
117.33596
 31
0.0
  0
LINE
  5
ED
330
1F
100
AcDbEntity
  8
1
  6
Continuous
 62
    35
 60
     1
370
    18
100
AcDbLine
 10
194.57871
 20
117.33596
 30
0.0
 11
193.52549
 21
109.335956
 31
0.0
  0
CIRCLE
  5
EE
330
1F
100
AcDbEntity
  8
1
  6
Continuous
 62
   155
370
    25
100
AcDbCircle
 10
163.52549
 20
109.335956
 30
0.0
 40
5.0
  0
CIRCLE
  5
EF
330
1F
100
AcDbEntity
  8
1
  6
Continuous
 62
   155
370
    25
100
AcDbCircle
 10
163.52549
 20
353.335956
 30
0.0
 40
5.0
  0
CIRCLE
  5
F0
330
1F
100
AcDbEntity
  8
1
  6
Continuous
 62
   155
370
    25
100
AcDbCircle
 10
163.52549
 20
233.835956
 30
0.0
 40
5.0
  0
CIRCLE
  5
F1
330
1F
100
AcDbEntity
  8
1
  6
Continuous
 62
   155
370
    25
100
AcDbCircle
 10
164.27549
 20
321.085956
 30
0.0
 40
3.9
  0
ARC
  5
F2
330
1F
100
AcDbEntity
  8
1
  6
Continuous
 62
   155
370
    25
100
AcDbCircle
 10
162.52549
 20
216.335956
 30
0.0
 40
5.499999999999998
100
AcDbArc
 50
0.0
 51
180.0
  0
ARC
  5
F3
330
1F
100
AcDbEntity
  8
1
  6
Continuous
 62
   155
370
    25
100
AcDbCircle
 10
162.52549
 20
172.335956
 30
0.0
 40
5.500000000000002
100
AcDbArc
 50
180.0
 51
0.0
  0
CIRCLE
  5
F4
330
1F
100
AcDbEntity
  8
1
  6
Continuous
 62
   155
370
    25
100
AcDbCircle
 10
164.27549
 20
268.585956
 30
0.0
 40
3.9
  0
CIRCLE
  5
F5
330
1F
100
AcDbEntity
  8
1
  6
Continuous
 62
   155
370
    25
100
AcDbCircle
 10
163.52549
 20
109.335956
 30
0.0
 40
3.5
  0
CIRCLE
  5
F6
330
1F
100
AcDbEntity
  8
1
  6
Continuous
 62
   155
370
    25
100
AcDbCircle
 10
163.52549
 20
233.835956
 30
0.0
 40
3.5
  0
CIRCLE
  5
F7
330
1F
100
AcDbEntity
  8
1
  6
Continuous
 62
   155
370
    25
100
AcDbCircle
 10
164.27549
 20
268.585956
 30
0.0
 40
2.4
  0
CIRCLE
  5
F8
330
1F
100
AcDbEntity
  8
1
  6
Continuous
 62
   155
370
    25
100
AcDbCircle
 10
163.52549
 20
353.335956
 30
0.0
 40
3.5
  0
CIRCLE
  5
F9
330
1F
100
AcDbEntity
  8
1
  6
Continuous
 62
   155
370
    25
100
AcDbCircle
 10
164.27549
 20
321.085956
 30
0.0
 40
2.4
  0
ARC
  5
FA
330
1F
100
AcDbEntity
  8
1
  6
Continuous
 62
   155
370
    25
100
AcDbCircle
 10
169.77549
 20
273.835956
 30
0.0
 40
1.0
100
AcDbArc
 50
270.0
 51
360.0
  0
ARC
  5
FB
330
1F
100
AcDbEntity
  8
1
  6
Continuous
 62
   155
370
    25
100
AcDbCircle
 10
169.77549
 20
283.835956
 30
0.0
 40
1.0
100
AcDbArc
 50
360.0
 51
90.0
  0
ARC
  5
FC
330
1F
100
AcDbEntity
  8
1
  6
Continuous
 62
   155
370
    25
100
AcDbCircle
 10
169.77549
 20
305.835956
 30
0.0
 40
1.0
100
AcDbArc
 50
270.0
 51
0.0
  0
ARC
  5
FD
330
1F
100
AcDbEntity
  8
1
  6
Continuous
 62
   155
370
    25
100
AcDbCircle
 10
169.77549
 20
315.835956
 30
0.0
 40
1.0
100
AcDbArc
 50
0.0
 51
90.0
  0
SPLINE
  5
FE
330
1F
100
AcDbEntity
  8
1
  6
CENTER
 62
   203
370
    13
100
AcDbSpline
210
0.0
220
0.0
230
1.0
 70
    24
 71
     1
 72
     5
 73
     3
 74
     0
 42
0.000000001
 43
0.0000000001
 40
0.0
 40
0.0
 40
0.5
 40
1.0
 40
1.0
 10
163.525490093312
 20
42.61363488000647
 30
0.0
 10
163.525490093312
 20
46.51363488000646
 30
0.0
 10
163.525490093312
 20
50.41363488000646
 30
0.0
  0
SPLINE
  5
FF
102
{ACAD_REACTORS
330
1ED
102
}
330
1F
100
AcDbEntity
  8
256
  6
Continuous
 62
     7
370
    13
100
AcDbSpline
210
0.0
220
0.0
230
1.0
 70
    11
 71
     3
 72
    17
 73
    13
 74
     0
 42
0.000000001
 43
0.0000000001
 40
0.0
 40
0.0
 40
0.0
 40
0.0
 40
0.2500749063670416
 40
0.2500749063670416
 40
0.2500749063670416
 40
0.4999999999999989
 40
0.4999999999999989
 40
0.4999999999999989
 40
0.7500749063670404
 40
0.7500749063670404
 40
0.7500749063670404
 40
1.0
 40
1.0
 40
1.0
 40
1.0
 10
439.9591737241307
 20
11.85614106663957
 30
0.0
 10
438.42564587547
 20
11.85614106663957
 30
0.0
 10
436.8921180268093
 20
11.85614106663957
 30
0.0
 10
435.3585901781486
 20
11.85614106663957
 30
0.0
 10
435.3585901781486
 20
13.3887502225648
 30
0.0
 10
435.3585901781486
 20
14.92135937849003
 30
0.0
 10
435.3585901781486
 20
16.45396853441526
 30
0.0
 10
436.8921180268093
 20
16.45396853441526
 30
0.0
 10
438.42564587547
 20
16.45396853441526
 30
0.0
 10
439.9591737241307
 20
16.45396853441526
 30
0.0
 10
439.9591737241307
 20
14.92135937849003
 30
0.0
 10
439.9591737241307
 20
13.3887502225648
 30
0.0
 10
439.9591737241307
 20
11.85614106663957
 30
0.0
  0
SPLINE
  5
100
102
{ACAD_REACTORS
330
1ED
102
}
330
1F
100
AcDbEntity
  8
256
  6
Continuous
 62
     7
370
    13
100
AcDbSpline
210
0.0
220
0.0
230
1.0
 70
    11
 71
     3
 72
    41
 73
    37
 74
     0
 42
0.000000001
 43
0.0000000001
 40
0.0
 40
0.0
 40
0.0
 40
0.0
 40
0.0833333333333333
 40
0.0833333333333333
 40
0.0833333333333333
 40
0.1666666666666667
 40
0.1666666666666667
 40
0.1666666666666667
 40
0.25
 40
0.25
 40
0.25
 40
0.3333333333333333
 40
0.3333333333333333
 40
0.3333333333333333
 40
0.4166666666666667
 40
0.4166666666666667
 40
0.4166666666666667
 40
0.5
 40
0.5
 40
0.5
 40
0.5833333333333334
 40
0.5833333333333334
 40
0.5833333333333334
 40
0.6666666666666666
 40
0.6666666666666666
 40
0.6666666666666666
 40
0.75
 40
0.75
 40
0.75
 40
0.8333333333333334
 40
0.8333333333333334
 40
0.8333333333333334
 40
0.9166666666666666
 40
0.9166666666666666
 40
0.9166666666666666
 40
1.0
 40
1.0
 40
1.0
 40
1.0
 10
428.3962347132863
 20
8.727305110428624
 30
0.0
 10
428.8296131621474
 20
8.429474581683005
 30
0.0
 10
429.5334466340991
 20
8.090993726963271
 30
0.0
 10
430.0481442391385
 20
8.090993726963271
 30
0.0
 10
431.0093265136098
 20
8.090993726963271
 30
0.0
 10
431.5510681360494
 20
8.700259265458792
 30
0.0
 10
431.5510681360494
 20
9.444917145842206
 30
0.0
 10
431.5374599999054
 20
11.31353816976063
 30
0.0
 10
427.7056500186125
 20
10.51461999968931
 30
0.0
 10
427.7056500186125
 20
13.71012042508668
 30
0.0
 10
427.7056500186125
 20
15.24026059428534
 30
0.0
 10
428.9513973678914
 20
16.43174765387639
 30
0.0
 10
430.8334542730659
 20
16.43174765387639
 30
0.0
 10
431.7677647850251
 20
16.43174765387639
 30
0.0
 10
432.6748590246964
 20
16.10670268041273
 30
0.0
 10
433.4736130860201
 20
15.64644135906617
 30
0.0
 10
433.4736016277316
 20
15.64643320030638
 30
0.0
 10
432.7425590922489
 20
14.40068274680042
 30
0.0
 10
432.7425505515666
 20
14.4006934180556
 30
0.0
 10
432.1739418106888
 20
14.71212710798984
 30
0.0
 10
431.6458083243933
 20
15.02356394530955
 30
0.0
 10
430.9688466149538
 20
15.02356394530955
 30
0.0
 10
430.1835365810265
 20
15.02356394530955
 30
0.0
 10
429.438878700643
 20
14.60377878350193
 30
0.0
 10
429.438878700643
 20
13.76438071477455
 30
0.0
 10
429.438878700643
 20
11.92280370825615
 30
0.0
 10
433.3654288702799
 20
12.50502522935168
 30
0.0
 10
433.3654288702799
 20
9.512613316786153
 30
0.0
 10
433.3654288702799
 20
7.914949231531418
 30
0.0
 10
432.079029367457
 20
6.682810018396404
 30
0.0
 10
430.2646686332264
 20
6.682810018396404
 30
0.0
 10
429.3575743935551
 20
6.682810018396404
 30
0.0
 10
428.5045681886838
 20
6.940158820916148
 30
0.0
 10
427.7190788807986
 20
7.400592083519152
 30
0.0
 10
427.7190888794303
 20
7.400600963125905
 30
0.0
 10
428.3962244106452
 20
8.727312190709236
 30
0.0
 10
428.3962347132863
 20
8.727305110428624
 30
0.0
  0
SPLINE
  5
101
102
{ACAD_REACTORS
330
1ED
102
}
330
1F
100
AcDbEntity
  8
256
  6
Continuous
 62
     7
370
    13
100
AcDbSpline
210
0.0
220
0.0
230
1.0
 70
    11
 71
     3
 72
    17
 73
    13
 74
     0
 42
0.000000001
 43
0.0000000001
 40
0.0
 40
0.0
 40
0.0
 40
0.0
 40
0.2499153546639537
 40
0.2499153546639537
 40
0.2499153546639537
 40
0.4999999999999934
 40
0.4999999999999934
 40
0.4999999999999934
 40
0.749915354663955
 40
0.749915354663955
 40
0.749915354663955
 40
1.0
 40
1.0
 40
1.0
 40
1.0
 10
439.6945902163192
 20
11.0089915279568
 30
0.0
 10
439.6945902163192
 20
9.652771377239228
 30
0.0
 10
439.6945902163192
 20
8.296551226521624
 30
0.0
 10
439.6945902163192
 20
6.940331075804048
 30
0.0
 10
438.3374513728661
 20
6.940331075804048
 30
0.0
 10
436.980312529413
 20
6.940331075804048
 30
0.0
 10
435.6231736859601
 20
6.940331075804048
 30
0.0
 10
435.6231736859601
 20
8.296551226521652
 30
0.0
 10
435.6231736859601
 20
9.652771377239228
 30
0.0
 10
435.6231736859601
 20
11.0089915279568
 30
0.0
 10
436.980312529413
 20
11.0089915279568
 30
0.0
 10
438.3374513728661
 20
11.0089915279568
 30
0.0
 10
439.6945902163192
 20
11.0089915279568
 30
0.0
  0
SPLINE
  5
102
330
1F
100
AcDbEntity
  8
1
  6
Continuous
 62
   163
 60
     1
370
    18
100
AcDbSpline
210
0.0
220
0.0
230
1.0
 70
    11
 71
     3
 72
    53
 73
    49
 74
     0
 42
0.000000001
 43
0.0000000001
 40
0.0
 40
0.0
 40
0.0
 40
0.0
 40
0.024233419787787
 40
0.024233419787787
 40
0.024233419787787
 40
0.1280418012427934
 40
0.1280418012427934
 40
0.1280418012427934
 40
0.1284086704647148
 40
0.1284086704647148
 40
0.1284086704647148
 40
0.2309459700568215
 40
0.2309459700568215
 40
0.2309459700568215
 40
0.2557435253627113
 40
0.2557435253627113
 40
0.2557435253627113
 40
0.3573149299809463
 40
0.3573149299809463
 40
0.3573149299809463
 40
0.3576817992028669
 40
0.3576817992028669
 40
0.3576817992028669
 40
0.4624443157722517
 40
0.4624443157722517
 40
0.4624443157722517
 40
0.4860156317106226
 40
0.4860156317106226
 40
0.4860156317106226
 40
0.6156754647053586
 40
0.6156754647053586
 40
0.6156754647053586
 40
0.6406552862488913
 40
0.6406552862488913
 40
0.6406552862488913
 40
0.7430727925756138
 40
0.7430727925756138
 40
0.7430727925756138
 40
0.7434419985441709
 40
0.7434419985441709
 40
0.7434419985441709
 40
0.8467092888241766
 40
0.8467092888241766
 40
0.8467092888241766
 40
0.8713245778924228
 40
0.8713245778924228
 40
0.8713245778924228
 40
1.0
 40
1.0
 40
1.0
 40
1.0
 10
407.1392776780207
 20
15.99852661081272
 30
0.0
 10
407.7169631537349
 20
16.14293362516728
 30
0.0
 10
408.2946486294491
 20
16.28734063952184
 30
0.0
 10
408.8723341051633
 20
16.43174765387639
 30
0.0
 10
409.4590916716402
 20
13.94938246437707
 30
0.0
 10
410.0458492381171
 20
11.46701727487778
 30
0.0
 10
410.6326068045938
 20
8.984652085378494
 30
0.0
 10
410.6416214770605
 20
8.984652085378494
 30
0.0
 10
410.6506361495271
 20
8.984652085378494
 30
0.0
 10
410.6596508219939
 20
8.984652085378494
 30
0.0
 10
411.3637713854253
 20
11.40379973101924
 30
0.0
 10
412.0678919488566
 20
13.82294737665993
 30
0.0
 10
412.772012512288
 20
16.24209502230062
 30
0.0
 10
413.3813354690795
 20
16.24209502230062
 30
0.0
 10
413.9906584258711
 20
16.24209502230062
 30
0.0
 10
414.5999813826626
 20
16.24209502230062
 30
0.0
 10
415.2137829665394
 20
13.82294737665993
 30
0.0
 10
415.8275845504162
 20
11.40379973101924
 30
0.0
 10
416.4413861342931
 20
8.984652085378494
 30
0.0
 10
416.4504008067597
 20
8.984652085378494
 30
0.0
 10
416.4594154792264
 20
8.984652085378494
 30
0.0
 10
416.468430151693
 20
8.984652085378494
 30
0.0
 10
417.1499279065139
 20
11.46701727487778
 30
0.0
 10
417.8314256613346
 20
13.9493824643771
 30
0.0
 10
418.5129234161554
 20
16.43174765387639
 30
0.0
 10
419.0726369652323
 20
16.28280459414052
 30
0.0
 10
419.6323505143091
 20
16.13386153440465
 30
0.0
 10
420.1920640633859
 20
15.98491847466878
 30
0.0
 10
419.2307095340267
 20
12.94743319976991
 30
0.0
 10
418.2693550046675
 20
9.909947924871071
 30
0.0
 10
417.3080004753083
 20
6.872462649972229
 30
0.0
 10
416.6941988914315
 20
6.872462649972229
 30
0.0
 10
416.0803973075547
 20
6.872462649972229
 30
0.0
 10
415.4665957236778
 20
6.872462649972229
 30
0.0
 10
414.8572727668864
 20
9.31417568592756
 30
0.0
 10
414.2479498100948
 20
11.75588872188289
 30
0.0
 10
413.6386268533033
 20
14.19760175783825
 30
0.0
 10
413.6295547625407
 20
14.19760175783825
 30
0.0
 10
413.6204826717781
 20
14.19760175783825
 30
0.0
 10
413.6114105810154
 20
14.19760175783825
 30
0.0
 10
412.920898153728
 20
11.75588872188289
 30
0.0
 10
412.2303857264405
 20
9.31417568592756
 30
0.0
 10
411.5398732991531
 20
6.872462649972229
 30
0.0
 10
410.9350289694469
 20
6.872462649972229
 30
0.0
 10
410.3301846397408
 20
6.872462649972229
 30
0.0
 10
409.7253403100347
 20
6.872462649972229
 30
0.0
 10
408.8633194326967
 20
9.914483970252357
 30
0.0
 10
408.0012985553586
 20
12.95650529053254
 30
0.0
 10
407.1392776780207
 20
15.99852661081272
 30
0.0
  0
SPLINE
  5
103
330
1F
100
AcDbEntity
  8
1
  6
Continuous
 62
   163
 60
     1
370
    18
100
AcDbSpline
210
0.0
220
0.0
230
1.0
 70
    11
 71
     3
 72
    41
 73
    37
 74
     0
 42
0.000000001
 43
0.0000000001
 40
0.0
 40
0.0
 40
0.0
 40
0.0
 40
0.0833333333333333
 40
0.0833333333333333
 40
0.0833333333333333
 40
0.1666666666666667
 40
0.1666666666666667
 40
0.1666666666666667
 40
0.25
 40
0.25
 40
0.25
 40
0.3333333333333333
 40
0.3333333333333333
 40
0.3333333333333333
 40
0.4166666666666667
 40
0.4166666666666667
 40
0.4166666666666667
 40
0.5
 40
0.5
 40
0.5
 40
0.5833333333333334
 40
0.5833333333333334
 40
0.5833333333333334
 40
0.6666666666666666
 40
0.6666666666666666
 40
0.6666666666666666
 40
0.75
 40
0.75
 40
0.75
 40
0.8333333333333334
 40
0.8333333333333334
 40
0.8333333333333334
 40
0.9166666666666666
 40
0.9166666666666666
 40
0.9166666666666666
 40
1.0
 40
1.0
 40
1.0
 40
1.0
 10
421.6264453630861
 20
8.727305110896879
 30
0.0
 10
422.0598238128649
 20
8.429474581683005
 30
0.0
 10
422.7638295397044
 20
8.090993726963271
 30
0.0
 10
423.2783548898559
 20
8.090993726963271
 30
0.0
 10
424.2397094192152
 20
8.090993726963271
 30
0.0
 10
424.7812787867667
 20
8.700259265458792
 30
0.0
 10
424.7812787867667
 20
9.444917145842206
 30
0.0
 10
424.7676706506228
 20
11.31353816976063
 30
0.0
 10
420.9360329242178
 20
10.51461999968931
 30
0.0
 10
420.9360329242178
 20
13.71012042508668
 30
0.0
 10
420.9360329242178
 20
15.24026059428534
 30
0.0
 10
422.1816080186088
 20
16.43174765387639
 30
0.0
 10
424.0638371786712
 20
16.43174765387639
 30
0.0
 10
424.9981476906304
 20
16.43174765387639
 30
0.0
 10
425.9050696754139
 20
16.10670268041273
 30
0.0
 10
426.7039959946654
 20
15.64644135862842
 30
0.0
 10
426.7039845327498
 20
15.6464332013328
 30
0.0
 10
425.9727697420537
 20
14.4006827459659
 30
0.0
 10
425.972761202769
 20
14.4006934186719
 30
0.0
 10
425.4043247162941
 20
14.71212710798984
 30
0.0
 10
424.8761912299985
 20
15.02356394530955
 30
0.0
 10
424.1992295205591
 20
15.02356394530955
 30
0.0
 10
423.4137472317439
 20
15.02356394530955
 30
0.0
 10
422.6690893513604
 20
14.60377878350193
 30
0.0
 10
422.6690893513604
 20
13.76438071477455
 30
0.0
 10
422.6690893513604
 20
11.92280370825615
 30
0.0
 10
426.5958117758852
 20
12.50502522935168
 30
0.0
 10
426.5958117758852
 20
9.512613316786153
 30
0.0
 10
426.5958117758852
 20
7.914949231531418
 30
0.0
 10
425.3092400181744
 20
6.682810018396404
 30
0.0
 10
423.4950515388317
 20
6.682810018396404
 30
0.0
 10
422.5877850442726
 20
6.682810018396404
 30
0.0
 10
421.7347788394012
 20
6.940158820916148
 30
0.0
 10
420.9494617895082
 20
7.400592083187442
 30
0.0
 10
420.949471784316
 20
7.400600964059331
 30
0.0
 10
421.626435060445
 20
8.727312191177512
 30
0.0
 10
421.6264453630861
 20
8.727305110896879
 30
0.0
  0
SPLINE
  5
104
330
1F
100
AcDbEntity
  8
1
  6
Continuous
 62
   163
 60
     1
370
    18
100
AcDbSpline
210
0.0
220
0.0
230
1.0
 70
    11
 71
     3
 72
    41
 73
    37
 74
     0
 42
0.000000001
 43
0.0000000001
 40
0.0
 40
0.0
 40
0.0
 40
0.0
 40
0.0833333333333333
 40
0.0833333333333333
 40
0.0833333333333333
 40
0.1666666666666667
 40
0.1666666666666667
 40
0.1666666666666667
 40
0.25
 40
0.25
 40
0.25
 40
0.3333333333333333
 40
0.3333333333333333
 40
0.3333333333333333
 40
0.4166666666666667
 40
0.4166666666666667
 40
0.4166666666666667
 40
0.5
 40
0.5
 40
0.5
 40
0.5833333333333334
 40
0.5833333333333334
 40
0.5833333333333334
 40
0.6666666666666666
 40
0.6666666666666666
 40
0.6666666666666666
 40
0.75
 40
0.75
 40
0.75
 40
0.8333333333333334
 40
0.8333333333333334
 40
0.8333333333333334
 40
0.9166666666666666
 40
0.9166666666666666
 40
0.9166666666666666
 40
1.0
 40
1.0
 40
1.0
 40
1.0
 10
428.3962347132863
 20
8.727305110428624
 30
0.0
 10
428.8296131621474
 20
8.429474581683005
 30
0.0
 10
429.5334466340991
 20
8.090993726963271
 30
0.0
 10
430.0481442391385
 20
8.090993726963271
 30
0.0
 10
431.0093265136098
 20
8.090993726963271
 30
0.0
 10
431.5510681360494
 20
8.700259265458792
 30
0.0
 10
431.5510681360494
 20
9.444917145842206
 30
0.0
 10
431.5374599999054
 20
11.31353816976063
 30
0.0
 10
427.7056500186125
 20
10.51461999968931
 30
0.0
 10
427.7056500186125
 20
13.71012042508668
 30
0.0
 10
427.7056500186125
 20
15.24026059428534
 30
0.0
 10
428.9513973678914
 20
16.43174765387639
 30
0.0
 10
430.8334542730659
 20
16.43174765387639
 30
0.0
 10
431.7677647850251
 20
16.43174765387639
 30
0.0
 10
432.6748590246964
 20
16.10670268041273
 30
0.0
 10
433.4736130860201
 20
15.64644135906617
 30
0.0
 10
433.4736016277316
 20
15.64643320030638
 30
0.0
 10
432.7425590922489
 20
14.40068274680042
 30
0.0
 10
432.7425505515666
 20
14.4006934180556
 30
0.0
 10
432.1739418106888
 20
14.71212710798984
 30
0.0
 10
431.6458083243933
 20
15.02356394530955
 30
0.0
 10
430.9688466149538
 20
15.02356394530955
 30
0.0
 10
430.1835365810265
 20
15.02356394530955
 30
0.0
 10
429.438878700643
 20
14.60377878350193
 30
0.0
 10
429.438878700643
 20
13.76438071477455
 30
0.0
 10
429.438878700643
 20
11.92280370825615
 30
0.0
 10
433.3654288702799
 20
12.50502522935168
 30
0.0
 10
433.3654288702799
 20
9.512613316786153
 30
0.0
 10
433.3654288702799
 20
7.914949231531418
 30
0.0
 10
432.079029367457
 20
6.682810018396404
 30
0.0
 10
430.2646686332264
 20
6.682810018396404
 30
0.0
 10
429.3575743935551
 20
6.682810018396404
 30
0.0
 10
428.5045681886838
 20
6.940158820916148
 30
0.0
 10
427.7190788807986
 20
7.400592083519152
 30
0.0
 10
427.7190888794303
 20
7.400600963125905
 30
0.0
 10
428.3962244106452
 20
8.727312190709236
 30
0.0
 10
428.3962347132863
 20
8.727305110428624
 30
0.0
  0
SPLINE
  5
105
330
1F
100
AcDbEntity
  8
1
  6
Continuous
 62
   163
 60
     1
370
    18
100
AcDbSpline
210
0.0
220
0.0
230
1.0
 70
    11
 71
     3
 72
    17
 73
    13
 74
     0
 42
0.000000001
 43
0.0000000001
 40
0.0
 40
0.0
 40
0.0
 40
0.0
 40
0.2500749063670416
 40
0.2500749063670416
 40
0.2500749063670416
 40
0.4999999999999989
 40
0.4999999999999989
 40
0.4999999999999989
 40
0.7500749063670404
 40
0.7500749063670404
 40
0.7500749063670404
 40
1.0
 40
1.0
 40
1.0
 40
1.0
 10
439.9591737241307
 20
11.85614106663957
 30
0.0
 10
438.42564587547
 20
11.85614106663957
 30
0.0
 10
436.8921180268093
 20
11.85614106663957
 30
0.0
 10
435.3585901781486
 20
11.85614106663957
 30
0.0
 10
435.3585901781486
 20
13.3887502225648
 30
0.0
 10
435.3585901781486
 20
14.92135937849003
 30
0.0
 10
435.3585901781486
 20
16.45396853441526
 30
0.0
 10
436.8921180268093
 20
16.45396853441526
 30
0.0
 10
438.42564587547
 20
16.45396853441526
 30
0.0
 10
439.9591737241307
 20
16.45396853441526
 30
0.0
 10
439.9591737241307
 20
14.92135937849003
 30
0.0
 10
439.9591737241307
 20
13.3887502225648
 30
0.0
 10
439.9591737241307
 20
11.85614106663957
 30
0.0
  0
SPLINE
  5
106
330
1F
100
AcDbEntity
  8
1
  6
Continuous
 62
   163
 60
     1
370
    18
100
AcDbSpline
210
0.0
220
0.0
230
1.0
 70
    11
 71
     3
 72
    17
 73
    13
 74
     0
 42
0.000000001
 43
0.0000000001
 40
0.0
 40
0.0
 40
0.0
 40
0.0
 40
0.2500749063670398
 40
0.2500749063670398
 40
0.2500749063670398
 40
0.5000000000000023
 40
0.5000000000000023
 40
0.5000000000000023
 40
0.7500749063670421
 40
0.7500749063670421
 40
0.7500749063670421
 40
1.0
 40
1.0
 40
1.0
 40
1.0
 10
445.1392227130018
 20
6.675747567992611
 30
0.0
 10
443.6056948643411
 20
6.675747567992611
 30
0.0
 10
442.0721670156804
 20
6.675747567992611
 30
0.0
 10
440.5386391670198
 20
6.675747567992611
 30
0.0
 10
440.5386391670198
 20
8.20835672391784
 30
0.0
 10
440.5386391670198
 20
9.740965879843069
 30
0.0
 10
440.5386391670198
 20
11.2735750357683
 30
0.0
 10
442.0721670156804
 20
11.2735750357683
 30
0.0
 10
443.6056948643411
 20
11.2735750357683
 30
0.0
 10
445.1392227130018
 20
11.2735750357683
 30
0.0
 10
445.1392227130018
 20
9.740965879843069
 30
0.0
 10
445.1392227130018
 20
8.20835672391784
 30
0.0
 10
445.1392227130018
 20
6.675747567992611
 30
0.0
  0
SPLINE
  5
107
330
1F
100
AcDbEntity
  8
1
  6
Continuous
 62
   163
 60
     1
370
    18
100
AcDbSpline
210
0.0
220
0.0
230
1.0
 70
    11
 71
     3
 72
    17
 73
    13
 74
     0
 42
0.000000001
 43
0.0000000001
 40
0.0
 40
0.0
 40
0.0
 40
0.0
 40
0.2500749063670398
 40
0.2500749063670398
 40
0.2500749063670398
 40
0.5000000000000023
 40
0.5000000000000023
 40
0.5000000000000023
 40
0.7500749063670421
 40
0.7500749063670421
 40
0.7500749063670421
 40
1.0
 40
1.0
 40
1.0
 40
1.0
 10
445.1392227130018
 20
16.45396853441526
 30
0.0
 10
443.6056948643411
 20
16.45396853441526
 30
0.0
 10
442.0721670156804
 20
16.45396853441526
 30
0.0
 10
440.5386391670198
 20
16.45396853441526
 30
0.0
 10
440.5386391670198
 20
14.92135937849003
 30
0.0
 10
440.5386391670198
 20
13.3887502225648
 30
0.0
 10
440.5386391670198
 20
11.85614106663957
 30
0.0
 10
442.0721670156804
 20
11.85614106663957
 30
0.0
 10
443.6056948643411
 20
11.85614106663957
 30
0.0
 10
445.1392227130018
 20
11.85614106663957
 30
0.0
 10
445.1392227130018
 20
13.3887502225648
 30
0.0
 10
445.1392227130018
 20
14.92135937849003
 30
0.0
 10
445.1392227130018
 20
16.45396853441526
 30
0.0
  0
SPLINE
  5
108
330
1F
100
AcDbEntity
  8
1
  6
Continuous
 62
   163
 60
     1
370
    18
100
AcDbSpline
210
0.0
220
0.0
230
1.0
 70
    11
 71
     3
 72
    17
 73
    13
 74
     0
 42
0.000000001
 43
0.0000000001
 40
0.0
 40
0.0
 40
0.0
 40
0.0
 40
0.2499153546639589
 40
0.2499153546639589
 40
0.2499153546639589
 40
0.4999999999999987
 40
0.4999999999999987
 40
0.4999999999999987
 40
0.7499153546639602
 40
0.7499153546639602
 40
0.7499153546639602
 40
1.0
 40
1.0
 40
1.0
 40
1.0
 10
444.8746392051903
 20
16.18938502660379
 30
0.0
 10
444.8746392051903
 20
14.83316487588619
 30
0.0
 10
444.8746392051903
 20
13.47694472516864
 30
0.0
 10
444.8746392051903
 20
12.12072457445104
 30
0.0
 10
443.5175003617373
 20
12.12072457445104
 30
0.0
 10
442.1603615182843
 20
12.12072457445104
 30
0.0
 10
440.8032226748312
 20
12.12072457445104
 30
0.0
 10
440.8032226748312
 20
13.47694472516864
 30
0.0
 10
440.8032226748312
 20
14.83316487588619
 30
0.0
 10
440.8032226748312
 20
16.18938502660379
 30
0.0
 10
442.1603615182843
 20
16.18938502660379
 30
0.0
 10
443.5175003617373
 20
16.18938502660379
 30
0.0
 10
444.8746392051903
 20
16.18938502660379
 30
0.0
  0
SPLINE
  5
109
330
1F
100
AcDbEntity
  8
1
  6
Continuous
 62
   163
 60
     1
370
    18
100
AcDbSpline
210
0.0
220
0.0
230
1.0
 70
    11
 71
     3
 72
    17
 73
    13
 74
     0
 42
0.000000001
 43
0.0000000001
 40
0.0
 40
0.0
 40
0.0
 40
0.0
 40
0.2500749063670416
 40
0.2500749063670416
 40
0.2500749063670416
 40
0.4999999999999989
 40
0.4999999999999989
 40
0.4999999999999989
 40
0.7500749063670404
 40
0.7500749063670404
 40
0.7500749063670404
 40
1.0
 40
1.0
 40
1.0
 40
1.0
 10
439.9591737241307
 20
11.2735750357683
 30
0.0
 10
438.42564587547
 20
11.2735750357683
 30
0.0
 10
436.8921180268093
 20
11.2735750357683
 30
0.0
 10
435.3585901781486
 20
11.2735750357683
 30
0.0
 10
435.3585901781486
 20
9.740965879843069
 30
0.0
 10
435.3585901781486
 20
8.20835672391784
 30
0.0
 10
435.3585901781486
 20
6.675747567992611
 30
0.0
 10
436.8921180268093
 20
6.675747567992611
 30
0.0
 10
438.42564587547
 20
6.675747567992611
 30
0.0
 10
439.9591737241307
 20
6.675747567992611
 30
0.0
 10
439.9591737241307
 20
8.20835672391784
 30
0.0
 10
439.9591737241307
 20
9.740965879843069
 30
0.0
 10
439.9591737241307
 20
11.2735750357683
 30
0.0
  0
SPLINE
  5
10A
330
1F
100
AcDbEntity
  8
1
  6
Continuous
 62
   163
 60
     1
370
    18
100
AcDbSpline
210
0.0
220
0.0
230
1.0
 70
    11
 71
     3
 72
    17
 73
    13
 74
     0
 42
0.000000001
 43
0.0000000001
 40
0.0
 40
0.0
 40
0.0
 40
0.0
 40
0.2499153546639537
 40
0.2499153546639537
 40
0.2499153546639537
 40
0.4999999999999934
 40
0.4999999999999934
 40
0.4999999999999934
 40
0.749915354663955
 40
0.749915354663955
 40
0.749915354663955
 40
1.0
 40
1.0
 40
1.0
 40
1.0
 10
439.6945902163192
 20
11.0089915279568
 30
0.0
 10
439.6945902163192
 20
9.652771377239228
 30
0.0
 10
439.6945902163192
 20
8.296551226521624
 30
0.0
 10
439.6945902163192
 20
6.940331075804048
 30
0.0
 10
438.3374513728661
 20
6.940331075804048
 30
0.0
 10
436.980312529413
 20
6.940331075804048
 30
0.0
 10
435.6231736859601
 20
6.940331075804048
 30
0.0
 10
435.6231736859601
 20
8.296551226521652
 30
0.0
 10
435.6231736859601
 20
9.652771377239228
 30
0.0
 10
435.6231736859601
 20
11.0089915279568
 30
0.0
 10
436.980312529413
 20
11.0089915279568
 30
0.0
 10
438.3374513728661
 20
11.0089915279568
 30
0.0
 10
439.6945902163192
 20
11.0089915279568
 30
0.0
  0
SPLINE
  5
10B
102
{ACAD_REACTORS
330
1ED
102
}
330
1F
100
AcDbEntity
  8
256
  6
Continuous
 62
     7
370
    13
100
AcDbSpline
210
0.0
220
0.0
230
1.0
 70
    11
 71
     3
 72
    17
 73
    13
 74
     0
 42
0.000000001
 43
0.0000000001
 40
0.0
 40
0.0
 40
0.0
 40
0.0
 40
0.2500749063670416
 40
0.2500749063670416
 40
0.2500749063670416
 40
0.4999999999999989
 40
0.4999999999999989
 40
0.4999999999999989
 40
0.7500749063670404
 40
0.7500749063670404
 40
0.7500749063670404
 40
1.0
 40
1.0
 40
1.0
 40
1.0
 10
439.9591737241307
 20
11.85614106663957
 30
0.0
 10
438.42564587547
 20
11.85614106663957
 30
0.0
 10
436.8921180268093
 20
11.85614106663957
 30
0.0
 10
435.3585901781486
 20
11.85614106663957
 30
0.0
 10
435.3585901781486
 20
13.3887502225648
 30
0.0
 10
435.3585901781486
 20
14.92135937849003
 30
0.0
 10
435.3585901781486
 20
16.45396853441526
 30
0.0
 10
436.8921180268093
 20
16.45396853441526
 30
0.0
 10
438.42564587547
 20
16.45396853441526
 30
0.0
 10
439.9591737241307
 20
16.45396853441526
 30
0.0
 10
439.9591737241307
 20
14.92135937849003
 30
0.0
 10
439.9591737241307
 20
13.3887502225648
 30
0.0
 10
439.9591737241307
 20
11.85614106663957
 30
0.0
  0
SPLINE
  5
10C
102
{ACAD_REACTORS
330
1ED
102
}
330
1F
100
AcDbEntity
  8
256
  6
Continuous
 62
     7
370
    13
100
AcDbSpline
210
0.0
220
0.0
230
1.0
 70
    11
 71
     3
 72
    17
 73
    13
 74
     0
 42
0.000000001
 43
0.0000000001
 40
0.0
 40
0.0
 40
0.0
 40
0.0
 40
0.2500749063670398
 40
0.2500749063670398
 40
0.2500749063670398
 40
0.5000000000000023
 40
0.5000000000000023
 40
0.5000000000000023
 40
0.7500749063670421
 40
0.7500749063670421
 40
0.7500749063670421
 40
1.0
 40
1.0
 40
1.0
 40
1.0
 10
445.1392227130018
 20
6.675747567992611
 30
0.0
 10
443.6056948643411
 20
6.675747567992611
 30
0.0
 10
442.0721670156804
 20
6.675747567992611
 30
0.0
 10
440.5386391670198
 20
6.675747567992611
 30
0.0
 10
440.5386391670198
 20
8.20835672391784
 30
0.0
 10
440.5386391670198
 20
9.740965879843069
 30
0.0
 10
440.5386391670198
 20
11.2735750357683
 30
0.0
 10
442.0721670156804
 20
11.2735750357683
 30
0.0
 10
443.6056948643411
 20
11.2735750357683
 30
0.0
 10
445.1392227130018
 20
11.2735750357683
 30
0.0
 10
445.1392227130018
 20
9.740965879843069
 30
0.0
 10
445.1392227130018
 20
8.20835672391784
 30
0.0
 10
445.1392227130018
 20
6.675747567992611
 30
0.0
  0
SPLINE
  5
10D
102
{ACAD_REACTORS
330
1ED
102
}
330
1F
100
AcDbEntity
  8
256
  6
Continuous
 62
     7
370
    13
100
AcDbSpline
210
0.0
220
0.0
230
1.0
 70
    11
 71
     3
 72
    17
 73
    13
 74
     0
 42
0.000000001
 43
0.0000000001
 40
0.0
 40
0.0
 40
0.0
 40
0.0
 40
0.2500749063670416
 40
0.2500749063670416
 40
0.2500749063670416
 40
0.4999999999999989
 40
0.4999999999999989
 40
0.4999999999999989
 40
0.7500749063670404
 40
0.7500749063670404
 40
0.7500749063670404
 40
1.0
 40
1.0
 40
1.0
 40
1.0
 10
439.9591737241307
 20
11.2735750357683
 30
0.0
 10
438.42564587547
 20
11.2735750357683
 30
0.0
 10
436.8921180268093
 20
11.2735750357683
 30
0.0
 10
435.3585901781486
 20
11.2735750357683
 30
0.0
 10
435.3585901781486
 20
9.740965879843069
 30
0.0
 10
435.3585901781486
 20
8.20835672391784
 30
0.0
 10
435.3585901781486
 20
6.675747567992611
 30
0.0
 10
436.8921180268093
 20
6.675747567992611
 30
0.0
 10
438.42564587547
 20
6.675747567992611
 30
0.0
 10
439.9591737241307
 20
6.675747567992611
 30
0.0
 10
439.9591737241307
 20
8.20835672391784
 30
0.0
 10
439.9591737241307
 20
9.740965879843069
 30
0.0
 10
439.9591737241307
 20
11.2735750357683
 30
0.0
  0
SPLINE
  5
10E
102
{ACAD_REACTORS
330
1ED
102
}
330
1F
100
AcDbEntity
  8
256
  6
Continuous
 62
     7
370
    13
100
AcDbSpline
210
0.0
220
0.0
230
1.0
 70
    11
 71
     3
 72
    53
 73
    49
 74
     0
 42
0.000000001
 43
0.0000000001
 40
0.0
 40
0.0
 40
0.0
 40
0.0
 40
0.024233419787787
 40
0.024233419787787
 40
0.024233419787787
 40
0.1280418012427934
 40
0.1280418012427934
 40
0.1280418012427934
 40
0.1284086704647148
 40
0.1284086704647148
 40
0.1284086704647148
 40
0.2309459700568215
 40
0.2309459700568215
 40
0.2309459700568215
 40
0.2557435253627113
 40
0.2557435253627113
 40
0.2557435253627113
 40
0.3573149299809463
 40
0.3573149299809463
 40
0.3573149299809463
 40
0.3576817992028669
 40
0.3576817992028669
 40
0.3576817992028669
 40
0.4624443157722517
 40
0.4624443157722517
 40
0.4624443157722517
 40
0.4860156317106226
 40
0.4860156317106226
 40
0.4860156317106226
 40
0.6156754647053586
 40
0.6156754647053586
 40
0.6156754647053586
 40
0.6406552862488913
 40
0.6406552862488913
 40
0.6406552862488913
 40
0.7430727925756138
 40
0.7430727925756138
 40
0.7430727925756138
 40
0.7434419985441709
 40
0.7434419985441709
 40
0.7434419985441709
 40
0.8467092888241766
 40
0.8467092888241766
 40
0.8467092888241766
 40
0.8713245778924228
 40
0.8713245778924228
 40
0.8713245778924228
 40
1.0
 40
1.0
 40
1.0
 40
1.0
 10
407.1392776780207
 20
15.99852661081272
 30
0.0
 10
407.7169631537349
 20
16.14293362516728
 30
0.0
 10
408.2946486294491
 20
16.28734063952184
 30
0.0
 10
408.8723341051633
 20
16.43174765387639
 30
0.0
 10
409.4590916716402
 20
13.94938246437707
 30
0.0
 10
410.0458492381171
 20
11.46701727487778
 30
0.0
 10
410.6326068045938
 20
8.984652085378494
 30
0.0
 10
410.6416214770605
 20
8.984652085378494
 30
0.0
 10
410.6506361495271
 20
8.984652085378494
 30
0.0
 10
410.6596508219939
 20
8.984652085378494
 30
0.0
 10
411.3637713854253
 20
11.40379973101924
 30
0.0
 10
412.0678919488566
 20
13.82294737665993
 30
0.0
 10
412.772012512288
 20
16.24209502230062
 30
0.0
 10
413.3813354690795
 20
16.24209502230062
 30
0.0
 10
413.9906584258711
 20
16.24209502230062
 30
0.0
 10
414.5999813826626
 20
16.24209502230062
 30
0.0
 10
415.2137829665394
 20
13.82294737665993
 30
0.0
 10
415.8275845504162
 20
11.40379973101924
 30
0.0
 10
416.4413861342931
 20
8.984652085378494
 30
0.0
 10
416.4504008067597
 20
8.984652085378494
 30
0.0
 10
416.4594154792264
 20
8.984652085378494
 30
0.0
 10
416.468430151693
 20
8.984652085378494
 30
0.0
 10
417.1499279065139
 20
11.46701727487778
 30
0.0
 10
417.8314256613346
 20
13.9493824643771
 30
0.0
 10
418.5129234161554
 20
16.43174765387639
 30
0.0
 10
419.0726369652323
 20
16.28280459414052
 30
0.0
 10
419.6323505143091
 20
16.13386153440465
 30
0.0
 10
420.1920640633859
 20
15.98491847466878
 30
0.0
 10
419.2307095340267
 20
12.94743319976991
 30
0.0
 10
418.2693550046675
 20
9.909947924871071
 30
0.0
 10
417.3080004753083
 20
6.872462649972229
 30
0.0
 10
416.6941988914315
 20
6.872462649972229
 30
0.0
 10
416.0803973075547
 20
6.872462649972229
 30
0.0
 10
415.4665957236778
 20
6.872462649972229
 30
0.0
 10
414.8572727668864
 20
9.31417568592756
 30
0.0
 10
414.2479498100948
 20
11.75588872188289
 30
0.0
 10
413.6386268533033
 20
14.19760175783825
 30
0.0
 10
413.6295547625407
 20
14.19760175783825
 30
0.0
 10
413.6204826717781
 20
14.19760175783825
 30
0.0
 10
413.6114105810154
 20
14.19760175783825
 30
0.0
 10
412.920898153728
 20
11.75588872188289
 30
0.0
 10
412.2303857264405
 20
9.31417568592756
 30
0.0
 10
411.5398732991531
 20
6.872462649972229
 30
0.0
 10
410.9350289694469
 20
6.872462649972229
 30
0.0
 10
410.3301846397408
 20
6.872462649972229
 30
0.0
 10
409.7253403100347
 20
6.872462649972229
 30
0.0
 10
408.8633194326967
 20
9.914483970252357
 30
0.0
 10
408.0012985553586
 20
12.95650529053254
 30
0.0
 10
407.1392776780207
 20
15.99852661081272
 30
0.0
  0
SPLINE
  5
10F
102
{ACAD_REACTORS
330
1ED
102
}
330
1F
100
AcDbEntity
  8
256
  6
Continuous
 62
     7
370
    13
100
AcDbSpline
210
0.0
220
0.0
230
1.0
 70
    11
 71
     3
 72
    17
 73
    13
 74
     0
 42
0.000000001
 43
0.0000000001
 40
0.0
 40
0.0
 40
0.0
 40
0.0
 40
0.2500749063670398
 40
0.2500749063670398
 40
0.2500749063670398
 40
0.5000000000000023
 40
0.5000000000000023
 40
0.5000000000000023
 40
0.7500749063670421
 40
0.7500749063670421
 40
0.7500749063670421
 40
1.0
 40
1.0
 40
1.0
 40
1.0
 10
445.1392227130018
 20
16.45396853441526
 30
0.0
 10
443.6056948643411
 20
16.45396853441526
 30
0.0
 10
442.0721670156804
 20
16.45396853441526
 30
0.0
 10
440.5386391670198
 20
16.45396853441526
 30
0.0
 10
440.5386391670198
 20
14.92135937849003
 30
0.0
 10
440.5386391670198
 20
13.3887502225648
 30
0.0
 10
440.5386391670198
 20
11.85614106663957
 30
0.0
 10
442.0721670156804
 20
11.85614106663957
 30
0.0
 10
443.6056948643411
 20
11.85614106663957
 30
0.0
 10
445.1392227130018
 20
11.85614106663957
 30
0.0
 10
445.1392227130018
 20
13.3887502225648
 30
0.0
 10
445.1392227130018
 20
14.92135937849003
 30
0.0
 10
445.1392227130018
 20
16.45396853441526
 30
0.0
  0
SPLINE
  5
110
102
{ACAD_REACTORS
330
1ED
102
}
330
1F
100
AcDbEntity
  8
256
  6
Continuous
 62
     7
370
    13
100
AcDbSpline
210
0.0
220
0.0
230
1.0
 70
    11
 71
     3
 72
    41
 73
    37
 74
     0
 42
0.000000001
 43
0.0000000001
 40
0.0
 40
0.0
 40
0.0
 40
0.0
 40
0.0833333333333333
 40
0.0833333333333333
 40
0.0833333333333333
 40
0.1666666666666667
 40
0.1666666666666667
 40
0.1666666666666667
 40
0.25
 40
0.25
 40
0.25
 40
0.3333333333333333
 40
0.3333333333333333
 40
0.3333333333333333
 40
0.4166666666666667
 40
0.4166666666666667
 40
0.4166666666666667
 40
0.5
 40
0.5
 40
0.5
 40
0.5833333333333334
 40
0.5833333333333334
 40
0.5833333333333334
 40
0.6666666666666666
 40
0.6666666666666666
 40
0.6666666666666666
 40
0.75
 40
0.75
 40
0.75
 40
0.8333333333333334
 40
0.8333333333333334
 40
0.8333333333333334
 40
0.9166666666666666
 40
0.9166666666666666
 40
0.9166666666666666
 40
1.0
 40
1.0
 40
1.0
 40
1.0
 10
421.6264453630861
 20
8.727305110896879
 30
0.0
 10
422.0598238128649
 20
8.429474581683005
 30
0.0
 10
422.7638295397044
 20
8.090993726963271
 30
0.0
 10
423.2783548898559
 20
8.090993726963271
 30
0.0
 10
424.2397094192152
 20
8.090993726963271
 30
0.0
 10
424.7812787867667
 20
8.700259265458792
 30
0.0
 10
424.7812787867667
 20
9.444917145842206
 30
0.0
 10
424.7676706506228
 20
11.31353816976063
 30
0.0
 10
420.9360329242178
 20
10.51461999968931
 30
0.0
 10
420.9360329242178
 20
13.71012042508668
 30
0.0
 10
420.9360329242178
 20
15.24026059428534
 30
0.0
 10
422.1816080186088
 20
16.43174765387639
 30
0.0
 10
424.0638371786712
 20
16.43174765387639
 30
0.0
 10
424.9981476906304
 20
16.43174765387639
 30
0.0
 10
425.9050696754139
 20
16.10670268041273
 30
0.0
 10
426.7039959946654
 20
15.64644135862842
 30
0.0
 10
426.7039845327498
 20
15.6464332013328
 30
0.0
 10
425.9727697420537
 20
14.4006827459659
 30
0.0
 10
425.972761202769
 20
14.4006934186719
 30
0.0
 10
425.4043247162941
 20
14.71212710798984
 30
0.0
 10
424.8761912299985
 20
15.02356394530955
 30
0.0
 10
424.1992295205591
 20
15.02356394530955
 30
0.0
 10
423.4137472317439
 20
15.02356394530955
 30
0.0
 10
422.6690893513604
 20
14.60377878350193
 30
0.0
 10
422.6690893513604
 20
13.76438071477455
 30
0.0
 10
422.6690893513604
 20
11.92280370825615
 30
0.0
 10
426.5958117758852
 20
12.50502522935168
 30
0.0
 10
426.5958117758852
 20
9.512613316786153
 30
0.0
 10
426.5958117758852
 20
7.914949231531418
 30
0.0
 10
425.3092400181744
 20
6.682810018396404
 30
0.0
 10
423.4950515388317
 20
6.682810018396404
 30
0.0
 10
422.5877850442726
 20
6.682810018396404
 30
0.0
 10
421.7347788394012
 20
6.940158820916148
 30
0.0
 10
420.9494617895082
 20
7.400592083187442
 30
0.0
 10
420.949471784316
 20
7.400600964059331
 30
0.0
 10
421.626435060445
 20
8.727312191177512
 30
0.0
 10
421.6264453630861
 20
8.727305110896879
 30
0.0
  0
SPLINE
  5
111
102
{ACAD_REACTORS
330
1ED
102
}
330
1F
100
AcDbEntity
  8
256
  6
Continuous
 62
     7
370
    13
100
AcDbSpline
210
0.0
220
0.0
230
1.0
 70
    11
 71
     3
 72
    17
 73
    13
 74
     0
 42
0.000000001
 43
0.0000000001
 40
0.0
 40
0.0
 40
0.0
 40
0.0
 40
0.2499153546639589
 40
0.2499153546639589
 40
0.2499153546639589
 40
0.4999999999999987
 40
0.4999999999999987
 40
0.4999999999999987
 40
0.7499153546639602
 40
0.7499153546639602
 40
0.7499153546639602
 40
1.0
 40
1.0
 40
1.0
 40
1.0
 10
444.8746392051903
 20
16.18938502660379
 30
0.0
 10
444.8746392051903
 20
14.83316487588619
 30
0.0
 10
444.8746392051903
 20
13.47694472516864
 30
0.0
 10
444.8746392051903
 20
12.12072457445104
 30
0.0
 10
443.5175003617373
 20
12.12072457445104
 30
0.0
 10
442.1603615182843
 20
12.12072457445104
 30
0.0
 10
440.8032226748312
 20
12.12072457445104
 30
0.0
 10
440.8032226748312
 20
13.47694472516864
 30
0.0
 10
440.8032226748312
 20
14.83316487588619
 30
0.0
 10
440.8032226748312
 20
16.18938502660379
 30
0.0
 10
442.1603615182843
 20
16.18938502660379
 30
0.0
 10
443.5175003617373
 20
16.18938502660379
 30
0.0
 10
444.8746392051903
 20
16.18938502660379
 30
0.0
  0
LINE
  5
112
102
{ACAD_REACTORS
330
11C
102
}
330
1F
100
AcDbEntity
  8
1
  6
Continuous
 62
   163
 60
     1
370
    18
100
AcDbLine
 10
158.52549
 20
48.013635
 30
0.0
 11
160.02549
 21
46.513635
 31
0.0
  0
LINE
  5
113
102
{ACAD_REACTORS
330
11C
102
}
330
1F
100
AcDbEntity
  8
1
  6
Continuous
 62
   163
 60
     1
370
    18
100
AcDbLine
 10
160.02549
 20
46.513635
 30
0.0
 11
158.52549
 21
45.013635
 31
0.0
  0
LINE
  5
114
102
{ACAD_REACTORS
330
11C
102
}
330
1F
100
AcDbEntity
  8
1
  6
Continuous
 62
   163
 60
     1
370
    18
100
AcDbLine
 10
158.52549
 20
45.013635
 30
0.0
 11
151.52549
 21
45.013635
 31
0.0
  0
LINE
  5
115
102
{ACAD_REACTORS
330
11C
102
}
330
1F
100
AcDbEntity
  8
1
  6
Continuous
 62
   163
 60
     1
370
    18
100
AcDbLine
 10
151.52549
 20
45.013635
 30
0.0
 11
151.52549
 21
48.013635
 31
0.0
  0
LINE
  5
116
102
{ACAD_REACTORS
330
11C
102
}
330
1F
100
AcDbEntity
  8
1
  6
Continuous
 62
   163
 60
     1
370
    18
100
AcDbLine
 10
151.52549
 20
48.013635
 30
0.0
 11
158.52549
 21
48.013635
 31
0.0
  0
LINE
  5
117
102
{ACAD_REACTORS
330
11C
102
}
330
1F
100
AcDbEntity
  8
1
  6
Continuous
 62
   163
 60
     1
370
    18
100
AcDbLine
 10
168.52549
 20
45.013635
 30
0.0
 11
167.02549
 21
46.513635
 31
0.0
  0
LINE
  5
118
102
{ACAD_REACTORS
330
11C
102
}
330
1F
100
AcDbEntity
  8
1
  6
Continuous
 62
   163
 60
     1
370
    18
100
AcDbLine
 10
167.02549
 20
46.513635
 30
0.0
 11
168.52549
 21
48.013635
 31
0.0
  0
LINE
  5
119
102
{ACAD_REACTORS
330
11C
102
}
330
1F
100
AcDbEntity
  8
1
  6
Continuous
 62
   163
 60
     1
370
    18
100
AcDbLine
 10
168.52549
 20
48.013635
 30
0.0
 11
175.52549
 21
48.013635
 31
0.0
  0
LINE
  5
11A
102
{ACAD_REACTORS
330
11C
102
}
330
1F
100
AcDbEntity
  8
1
  6
Continuous
 62
   163
 60
     1
370
    18
100
AcDbLine
 10
175.52549
 20
48.013635
 30
0.0
 11
175.52549
 21
45.013635
 31
0.0
  0
LINE
  5
11B
102
{ACAD_REACTORS
330
11C
102
}
330
1F
100
AcDbEntity
  8
1
  6
Continuous
 62
   163
 60
     1
370
    18
100
AcDbLine
 10
175.52549
 20
45.013635
 30
0.0
 11
168.52549
 21
45.013635
 31
0.0
  0
HATCH
  5
11C
330
1F
100
AcDbEntity
  8
1
  6
Continuous
 62
     9
370
    13
100
AcDbHatch
 10
0.0
 20
0.0
 30
0.0
210
0.0
220
0.0
230
1.0
  2
ANSI31
 70
     0
 71
     1
 91
        2
 92
        0
 93
        5
 72
     1
 10
158.525490093312
 20
48.01363488000646
 11
160.025490093312
 21
46.51363488000646
 72
     1
 10
160.025490093312
 20
46.51363488000646
 11
158.525490093312
 21
45.01363488000646
 72
     1
 10
158.525490093312
 20
45.01363488000646
 11
151.525490093312
 21
45.01363488000646
 72
     1
 10
151.525490093312
 20
45.01363488000646
 11
151.525490093312
 21
48.01363488000646
 72
     1
 10
151.525490093312
 20
48.01363488000646
 11
158.525490093312
 21
48.01363488000646
 97
        5
330
112
330
113
330
114
330
115
330
116
 92
        0
 93
        5
 72
     1
 10
168.525490093312
 20
45.01363488000646
 11
167.025490093312
 21
46.51363488000646
 72
     1
 10
167.025490093312
 20
46.51363488000646
 11
168.525490093312
 21
48.01363488000646
 72
     1
 10
168.525490093312
 20
48.01363488000646
 11
175.525490093312
 21
48.01363488000646
 72
     1
 10
175.525490093312
 20
48.01363488000646
 11
175.525490093312
 21
45.01363488000646
 72
     1
 10
175.525490093312
 20
45.01363488000646
 11
168.525490093312
 21
45.01363488000646
 97
        5
330
117
330
118
330
119
330
11A
330
11B
 75
     0
 76
     1
 52
0.0
 41
1.8
 77
     0
 78
     1
 53
44.99999999999995
 43
0.0
 44
0.0
 45
-4.041115254481115
 46
4.041115254481123
 79
     0
 98
        0
  0
LINE
  5
11D
330
1F
100
AcDbEntity
  8
1
  6
CENTER
 62
   203
370
    13
100
AcDbLine
 10
162.52549
 20
164.835956
 30
0.0
 11
162.52549
 21
223.835956
 31
0.0
  0
LINE
  5
11E
330
1F
100
AcDbEntity
  8
1
  6
CENTER
 62
   203
370
    13
100
AcDbLine
 10
155.02549
 20
216.335956
 30
0.0
 11
170.02549
 21
216.335956
 31
0.0
  0
LINE
  5
11F
330
1F
100
AcDbEntity
  8
1
  6
CENTER
 62
   203
370
    13
100
AcDbLine
 10
155.02549
 20
172.335956
 30
0.0
 11
170.02549
 21
172.335956
 31
0.0
  0
LEADER
  5
124
330
1F
100
AcDbEntity
  8
1
  6
Continuous
 62
    35
370
    13
100
AcDbLeader
  3
Standard
 73
     2
 76
     3
 10
163.52549
 20
109.335956
 30
0.0
 10
147.25049
 20
100.2098
 30
0.0
 10
141.25049
 20
100.2098
 30
0.0
340
127
212
141.250490093312
222
100.2097995219821
232
0.0
1001
ACAD
1000
DSTYLE
1002
{
1070
   341
1005
121
1070
    41
1040
8.0
1002
}
  0
INSERT
  5
127
102
{ACAD_REACTORS
330
124
102
}
330
1F
100
AcDbEntity
  8
1
  6
Continuous
 62
    35
370
    13
100
AcDbBlockReference
  2
LABLE3D_1
 10
0.0
 20
0.0
 30
0.0
  0
MTEXT
  5
12A
102
{ACAD_REACTORS
330
1F3
102
}
330
1F
100
AcDbEntity
  8
256
  6
Continuous
 62
     1
370
    13
100
AcDbMText
 10
524.252831
 20
26.032512
 30
0.0
 40
1.8
 41
0.0
 71
     7
 72
     5
  1
\W1.0000;Kunde:
  7
ISOCPEUR
 73
     2
 44
0.60241
  0
MTEXT
  5
12B
102
{ACAD_REACTORS
330
1F3
102
}
330
1F
100
AcDbEntity
  8
256
  6
Continuous
 62
     1
370
    13
100
AcDbMText
 10
524.338651
 20
20.025128
 30
0.0
 40
1.8
 41
0.0
 71
     7
 72
     5
  1
\W1.0000;Obj.:
  7
ISOCPEUR
 73
     2
 44
0.60241
  0
MTEXT
  5
12C
102
{ACAD_REACTORS
330
1F3
102
}
330
1F
100
AcDbEntity
  8
256
  6
Continuous
 62
     1
370
    13
100
AcDbMText
 10
452.475407
 20
25.544246
 30
0.0
 40
1.8
 41
0.0
 71
     7
 72
     5
  1
\W1.0000;Ident- Nr.:
  7
ISOCPEUR
 73
     2
 44
0.60241
  0
MTEXT
  5
12D
102
{ACAD_REACTORS
330
1F3
102
}
330
1F
100
AcDbEntity
  8
256
  6
Continuous
 62
     1
370
    13
100
AcDbMText
 10
452.034306
 20
5.784298
 30
0.0
 40
1.8
 41
0.0
 71
     7
 72
     5
  1
\W1.0000;Schliessblech - Serie 200
  7
ISOCPEUR
 73
     2
 44
0.60241
  0
MTEXT
  5
12E
102
{ACAD_REACTORS
330
1F3
102
}
330
1F
100
AcDbEntity
  8
256
  6
Continuous
 62
     1
370
    13
100
AcDbMText
 10
524.338651
 20
14.532663
 30
0.0
 40
1.8
 41
0.0
 71
     7
 72
     5
  1
\W1.0000;Bestell- Nr.:
  7
ISOCPEUR
 73
     2
 44
0.60241
  0
MTEXT
  5
12F
102
{ACAD_REACTORS
330
1F3
102
}
330
1F
100
AcDbEntity
  8
256
  6
Continuous
 62
     1
370
    13
100
AcDbMText
 10
406.312209
 20
20.102235
 30
0.0
 40
1.8
 41
0.0
 71
     7
 72
     5
  1
\W1.0000;Datum:
  7
ISOCPEUR
 73
     2
 44
0.60241
  0
MTEXT
  5
130
102
{ACAD_REACTORS
330
1F3
102
}
330
1F
100
AcDbEntity
  8
256
  6
Continuous
 62
     1
370
    13
100
AcDbMText
 10
406.203121
 20
25.836315
 30
0.0
 40
1.8
 41
0.0
 71
     7
 72
     5
  1
\W1.0000;Ersteller:
  7
ISOCPEUR
 73
     2
 44
0.60241
  0
MTEXT
  5
131
102
{ACAD_REACTORS
330
1F3
102
}
330
1F
100
AcDbEntity
  8
256
  6
Continuous
 62
     1
370
    13
100
AcDbMText
 10
559.595795
 20
14.566103
 30
0.0
 40
1.8
 41
0.0
 71
     7
 72
     5
  1
\W1.0000;Pos.:
  7
ISOCPEUR
 73
     2
 44
0.60241
  0
MTEXT
  5
132
102
{ACAD_REACTORS
330
1F3
102
}
330
1F
100
AcDbEntity
  8
256
  6
Continuous
 62
     1
370
    13
100
AcDbMText
 10
465.289248
 20
25.334284
 30
0.0
 40
2.5
 41
0.0
 71
     7
 72
     5
  1
\W1.0000;124557
  7
ISOCPEUR
 73
     2
 44
0.60241
  0
MTEXT
  5
133
102
{ACAD_REACTORS
330
1F3
102
}
330
1F
100
AcDbEntity
  8
256
  6
Continuous
 62
     1
370
    18
100
AcDbMText
 10
487.53529
 20
25.16909
 30
0.0
 40
2.5
 41
0.0
 71
     7
 72
     5
  1
\fISOCPEUR|b1|i0;\W1.0000;01
  7
ISOCPEUR
 73
     2
 44
0.60241
  0
MTEXT
  5
134
102
{ACAD_REACTORS
330
1F3
102
}
330
1F
100
AcDbEntity
  8
256
  6
Continuous
 62
     1
370
    13
100
AcDbMText
 10
524.167012
 20
10.241675
 30
0.0
 40
1.8
 41
0.0
 71
     7
 72
     5
  1
\W1.0000;Änderung:
  7
ISOCPEUR
 73
     2
 44
0.60241
  0
LINE
  5
135
330
1F
100
AcDbEntity
  8
1
  6
CENTER
 62
   203
370
    13
100
AcDbLine
 10
156.52549
 20
109.335956
 30
0.0
 11
170.52549
 21
109.335956
 31
0.0
  0
LINE
  5
136
330
1F
100
AcDbEntity
  8
1
  6
CENTER
 62
   203
370
    13
100
AcDbLine
 10
163.52549
 20
92.835956
 30
0.0
 11
163.52549
 21
116.335956
 31
0.0
  0
LINE
  5
137
330
1F
100
AcDbEntity
  8
1
  6
CENTER
 62
   203
370
    13
100
AcDbLine
 10
156.52549
 20
233.835956
 30
0.0
 11
170.52549
 21
233.835956
 31
0.0
  0
LINE
  5
138
330
1F
100
AcDbEntity
  8
1
  6
CENTER
 62
   203
370
    13
100
AcDbLine
 10
163.52549
 20
226.835956
 30
0.0
 11
163.52549
 21
240.835956
 31
0.0
  0
LINE
  5
139
330
1F
100
AcDbEntity
  8
1
  6
CENTER
 62
   203
370
    13
100
AcDbLine
 10
156.52549
 20
353.335956
 30
0.0
 11
170.52549
 21
353.335956
 31
0.0
  0
LINE
  5
13A
330
1F
100
AcDbEntity
  8
1
  6
CENTER
 62
   203
370
    13
100
AcDbLine
 10
163.52549
 20
346.335956
 30
0.0
 11
163.52549
 21
369.835956
 31
0.0
  0
MTEXT
  5
13B
102
{ACAD_REACTORS
330
1F3
102
}
330
1F
100
AcDbEntity
  8
256
  6
Continuous
 62
    87
370
    13
100
AcDbMText
 10
18.103207
 20
5.601339
 30
0.0
 40
1.8
 41
0.0
 71
     7
 72
     5
  3
\W1.0000;Diese Zeichnung entspricht dem Entwicklungsstand des Zeichnungsdatums bzw. der letzten\PAenderungseintragung. Aus der Benutzung der Zeichnung koennen keine Ansprueche, gleich welcher Art,\Peinschliesslich Schadensersatzansprueche, abgeleite
  3
t und gegen WSS geltend gemacht werden. Die\PZeichnung bleibt unser Eigentum und ist Dritten nur fuer die Vertragsdauer zur Benutzung ueberlassen.\PSaemtliche sich aus der Zeichnung ergebenden Ansprueche stehen ausschliesslich WSS zu. Ohne vorherige
  1
\PZustimmung von WSS darf diese Zeichnung weder vervielfaeltigt noch Dritten zugaenglich gemacht werden. 
  7
ISOCPEUR
 11
1.005323956158378E-14
 21
1.0
 31
0.0
 73
     1
 44
0.961482
  0
MTEXT
  5
13C
102
{ACAD_REACTORS
330
1F3
102
}
330
1F
100
AcDbEntity
  8
256
  6
Continuous
 62
     1
370
    13
100
AcDbMText
 10
538.841428
 20
14.532663
 30
0.0
 40
1.8
 41
0.0
 71
     7
 72
     5
  1
\W1.0000;
  7
ISOCPEUR
 73
     2
 44
0.60241
  0
MTEXT
  5
13D
102
{ACAD_REACTORS
330
1F3
102
}
330
1F
100
AcDbEntity
  8
256
  6
Continuous
 62
     1
370
    13
100
AcDbMText
 10
493.542744
 20
24.922437
 30
0.0
 40
2.5
 41
0.0
 71
     7
 72
     5
  1
\W1.0000;Serienfreigabe
  7
ISOCPEUR
 73
     2
 44
0.60241
  0
MTEXT
  5
13E
102
{ACAD_REACTORS
330
1F3
102
}
330
1F
100
AcDbEntity
  8
256
  6
Continuous
 62
    87
370
    13
100
AcDbMText
 10
17.993532
 20
183.378455
 30
0.0
 40
1.8
 41
0.0
 71
     7
 72
     5
  3
\W1.0000;Zeichnung fuer Sonder- bzw. Objektkonstruktionen sind vom Anwender auf Richtigkeit sowie\PAus- und Durchfuehrbarkeit zu pruefen. Um eine einwandfreie Serienproduktion sicherzustellen ist die \PFertigung eines Musterelementes unbedingt erfor
  3
derlich. Die hierzu benoetigten Mustermengen sind\Prechtzeitig zu bestellen. Alle angegebenen Masse sind theoretisch ermittelt und vom Verarbeiter \Pverantwortlich zu ueberpruefen. Die Haftung WSS ist auf Vorsatz und grobe Fahrlaessigkeit beschraenk
  7
ISOCPEUR
 11
1.094141798128390E-14
 21
1.0
 31
0.0
 73
     1
 44
0.961482
  0
MTEXT
  5
13F
102
{ACAD_REACTORS
330
1F3
102
}
330
1F
100
AcDbEntity
  8
256
  6
Continuous
 62
    20
370
    13
100
AcDbMText
 10
919.689809
 20
15.244179
 30
0.0
 40
2.0
 41
0.0
 71
     7
 72
     5
  1
\W0.5852;\Q359.999790;\Q;
  7
ideas_iso
 73
     2
 44
0.60241
  0
MTEXT
  5
142
102
{ACAD_REACTORS
330
1F3
102
}
330
1F
100
AcDbEntity
  8
256
  6
Continuous
 62
    20
370
    13
100
AcDbMText
 10
919.452157
 20
10.519599
 30
0.0
 40
2.0
 41
0.0
 71
     7
 72
     5
  1
\W0.5852;\Q359.999790;\Q;
  7
ideas_iso
 73
     2
 44
0.60241
  0
MTEXT
  5
143
102
{ACAD_REACTORS
330
1F3
102
}
330
1F
100
AcDbEntity
  8
256
  6
Continuous
 62
     1
370
    13
100
AcDbMText
 10
565.91213
 20
14.566103
 30
0.0
 40
1.8
 41
0.0
 71
     7
 72
     5
  1
\W1.0000;
  7
ISOCPEUR
 73
     2
 44
0.60241
  0
MTEXT
  5
144
102
{ACAD_REACTORS
330
1F3
102
}
330
1F
100
AcDbEntity
  8
256
  6
Continuous
 62
     1
370
    13
100
AcDbMText
 10
532.436109
 20
26.032512
 30
0.0
 40
1.8
 41
0.0
 71
     7
 72
     5
  1
\W0.8000;
  7
ISOCPEUR
 73
     2
 44
0.60241
  0
MTEXT
  5
145
102
{ACAD_REACTORS
330
1F3
102
}
330
1F
100
AcDbEntity
  8
256
  6
Continuous
 62
     1
370
    13
100
AcDbMText
 10
529.807848
 20
20.025128
 30
0.0
 40
1.8
 41
0.0
 71
     7
 72
     5
  1
\W1.0000;
  7
ISOCPEUR
 73
     2
 44
0.60241
  0
MTEXT
  5
146
102
{ACAD_REACTORS
330
1F3
102
}
330
1F
100
AcDbEntity
  8
256
  6
Continuous
 62
     1
370
    13
100
AcDbMText
 10
405.388756
 20
0.704258
 30
0.0
 40
1.0
 41
0.0
 71
     7
 72
     5
  1
\W1.0000;18.03.2019
  7
ISOCPEUR
 73
     2
 44
0.60241
  0
MTEXT
  5
147
102
{ACAD_REACTORS
330
1F3
102
}
330
1F
100
AcDbEntity
  8
256
  6
Continuous
 62
     1
370
    13
100
AcDbMText
 10
411.712006
 20
0.722997
 30
0.0
 40
1.0
 41
0.0
 71
     7
 72
     5
  1
\W1.0000;/
  7
ISOCPEUR
 73
     2
 44
0.60241
  0
MTEXT
  5
148
102
{ACAD_REACTORS
330
1F3
102
}
330
1F
100
AcDbEntity
  8
256
  6
Continuous
 62
     1
370
    13
100
AcDbMText
 10
412.590482
 20
0.704258
 30
0.0
 40
1.0
 41
0.0
 71
     7
 72
     5
  1
\W1.0000;Jung, Thorsten
  7
ISOCPEUR
 73
     2
 44
0.60241
  0
MTEXT
  5
149
330
1F
100
AcDbEntity
  8
1
  6
Continuous
 62
    35
370
    13
100
AcDbMText
 10
134.79078
 20
61.090877
 30
0.0
 40
3.5
 41
0.0
 71
     7
 72
     5
  1
\W1.0000;t = 3\Prechts und links verwendbar
  7
ISOCPEUR
 73
     1
 44
0.85889
  0
MTEXT
  5
14A
102
{ACAD_REACTORS
330
1F3
102
}
330
1F
100
AcDbEntity
  8
256
  6
Continuous
 62
     1
370
    13
100
AcDbMText
 10
452.600925
 20
14.67194
 30
0.0
 40
3.5
 41
0.0
 71
     7
 72
     5
  1
\W0.9000;SBV O 14.341.2401.426 270x24x3
  7
ISOCPEUR
 73
     2
 44
0.60241
  0
MTEXT
  5
14B
102
{ACAD_REACTORS
330
1F3
102
}
330
1F
100
AcDbEntity
  8
256
  6
Continuous
 62
     1
370
    13
100
AcDbMText
 10
452.314863
 20
10.031713
 30
0.0
 40
2.5
 41
0.0
 71
     7
 72
     5
  1
\W1.0000;f. E-Oeffner - 3 Anschraubl.
  7
ISOCPEUR
 73
     2
 44
0.60241
  0
MTEXT
  5
14C
102
{ACAD_REACTORS
330
1F3
102
}
330
1F
100
AcDbEntity
  8
256
  6
Continuous
 62
     1
370
    13
100
AcDbMText
 10
419.917402
 20
20.102235
 30
0.0
 40
1.8
 41
0.0
 71
     7
 72
     5
  1
\W1.0000;16.06.2017
  7
ISOCPEUR
 73
     2
 44
0.60241
  0
MTEXT
  5
14D
102
{ACAD_REACTORS
330
1F3
102
}
330
1F
100
AcDbEntity
  8
256
  6
Continuous
 62
     1
370
    13
100
AcDbMText
 10
419.997708
 20
25.836315
 30
0.0
 40
1.8
 41
0.0
 71
     7
 72
     5
  1
\W1.0000;S. Mielke
  7
ISOCPEUR
 73
     2
 44
0.60241
  0
MTEXT
  5
14E
102
{ACAD_REACTORS
330
1F3
102
}
330
1F
100
AcDbEntity
  8
256
  6
Continuous
 62
     1
370
    13
100
AcDbMText
 10
480.761446
 20
25.544246
 30
0.0
 40
1.8
 41
0.0
 71
     7
 72
     5
  1
\W1.0000;Index:
  7
ISOCPEUR
 73
     2
 44
0.60241
  0
MTEXT
  5
14F
102
{ACAD_REACTORS
330
1F3
102
}
330
1F
100
AcDbEntity
  8
256
  6
Continuous
 62
     1
370
    13
100
AcDbMText
 10
452.318349
 20
20.550442
 30
0.0
 40
1.8
 41
0.0
 71
     7
 72
     5
  1
\W1.0000;Bezeichnung:
  7
ISOCPEUR
 73
     2
 44
0.60241
  0
INSERT
  5
154
330
1F
100
AcDbEntity
  8
1
  6
Continuous
 62
   232
370
    18
100
AcDbBlockReference
  2
ASSORTED_DRAFT1
 10
0.0
 20
0.0
 30
0.0
  0
INSERT
  5
15B
330
1F
100
AcDbEntity
  8
1
  6
Continuous
 62
   232
370
    18
100
AcDbBlockReference
  2
ASSORTED_DRAFT2
 10
0.0
 20
0.0
 30
0.0
  0
LINE
  5
15E
330
1F
100
AcDbEntity
  8
1
  6
CENTER
 62
   203
370
    13
100
AcDbLine
 10
164.27549
 20
262.685956
 30
0.0
 11
164.27549
 21
326.985956
 31
0.0
  0
LINE
  5
15F
330
1F
100
AcDbEntity
  8
1
  6
CENTER
 62
   203
370
    13
100
AcDbLine
 10
158.37549
 20
321.085956
 30
0.0
 11
170.17549
 21
321.085956
 31
0.0
  0
LINE
  5
160
330
1F
100
AcDbEntity
  8
1
  6
CENTER
 62
   203
370
    13
100
AcDbLine
 10
158.37549
 20
268.585956
 30
0.0
 11
170.17549
 21
268.585956
 31
0.0
  0
SPLINE
  5
161
330
1F
100
AcDbEntity
  8
1
  6
CENTER
 62
   203
370
    13
100
AcDbSpline
210
0.0
220
0.0
230
1.0
 70
    24
 71
     1
 72
     5
 73
     3
 74
     0
 42
0.000000001
 43
0.0000000001
 40
0.0
 40
0.0
 40
0.4408602150537634
 40
1.0
 40
1.0
 10
149.525490093312
 20
294.8359557562076
 30
0.0
 10
159.775490093312
 20
294.8359557562076
 30
0.0
 10
172.775490093312
 20
294.8359557562076
 30
0.0
  0
SPLINE
  5
162
102
{ACAD_REACTORS
330
16B
102
}
330
1F
100
AcDbEntity
  8
1
  6
Continuous
 62
   163
 60
     1
370
    18
100
AcDbSpline
210
0.0
220
0.0
230
1.0
 70
    11
 71
     3
 72
    53
 73
    49
 74
     0
 42
0.000000001
 43
0.0000000001
 40
0.0
 40
0.0
 40
0.0
 40
0.0
 40
0.024233419787787
 40
0.024233419787787
 40
0.024233419787787
 40
0.1280418012427934
 40
0.1280418012427934
 40
0.1280418012427934
 40
0.1284086704647148
 40
0.1284086704647148
 40
0.1284086704647148
 40
0.2309459700568215
 40
0.2309459700568215
 40
0.2309459700568215
 40
0.2557435253627113
 40
0.2557435253627113
 40
0.2557435253627113
 40
0.3573149299809463
 40
0.3573149299809463
 40
0.3573149299809463
 40
0.3576817992028669
 40
0.3576817992028669
 40
0.3576817992028669
 40
0.4624443157722517
 40
0.4624443157722517
 40
0.4624443157722517
 40
0.4860156317106226
 40
0.4860156317106226
 40
0.4860156317106226
 40
0.6156754647053586
 40
0.6156754647053586
 40
0.6156754647053586
 40
0.6406552862488913
 40
0.6406552862488913
 40
0.6406552862488913
 40
0.7430727925756138
 40
0.7430727925756138
 40
0.7430727925756138
 40
0.7434419985441709
 40
0.7434419985441709
 40
0.7434419985441709
 40
0.8467092888241766
 40
0.8467092888241766
 40
0.8467092888241766
 40
0.8713245778924228
 40
0.8713245778924228
 40
0.8713245778924228
 40
1.0
 40
1.0
 40
1.0
 40
1.0
 10
407.1392776780207
 20
15.99852661081272
 30
0.0
 10
407.7169631537349
 20
16.14293362516728
 30
0.0
 10
408.2946486294491
 20
16.28734063952184
 30
0.0
 10
408.8723341051633
 20
16.43174765387639
 30
0.0
 10
409.4590916716402
 20
13.94938246437707
 30
0.0
 10
410.0458492381171
 20
11.46701727487778
 30
0.0
 10
410.6326068045938
 20
8.984652085378494
 30
0.0
 10
410.6416214770605
 20
8.984652085378494
 30
0.0
 10
410.6506361495271
 20
8.984652085378494
 30
0.0
 10
410.6596508219939
 20
8.984652085378494
 30
0.0
 10
411.3637713854253
 20
11.40379973101924
 30
0.0
 10
412.0678919488566
 20
13.82294737665993
 30
0.0
 10
412.772012512288
 20
16.24209502230062
 30
0.0
 10
413.3813354690795
 20
16.24209502230062
 30
0.0
 10
413.9906584258711
 20
16.24209502230062
 30
0.0
 10
414.5999813826626
 20
16.24209502230062
 30
0.0
 10
415.2137829665394
 20
13.82294737665993
 30
0.0
 10
415.8275845504162
 20
11.40379973101924
 30
0.0
 10
416.4413861342931
 20
8.984652085378494
 30
0.0
 10
416.4504008067597
 20
8.984652085378494
 30
0.0
 10
416.4594154792264
 20
8.984652085378494
 30
0.0
 10
416.468430151693
 20
8.984652085378494
 30
0.0
 10
417.1499279065139
 20
11.46701727487778
 30
0.0
 10
417.8314256613346
 20
13.9493824643771
 30
0.0
 10
418.5129234161554
 20
16.43174765387639
 30
0.0
 10
419.0726369652323
 20
16.28280459414052
 30
0.0
 10
419.6323505143091
 20
16.13386153440465
 30
0.0
 10
420.1920640633859
 20
15.98491847466878
 30
0.0
 10
419.2307095340267
 20
12.94743319976991
 30
0.0
 10
418.2693550046675
 20
9.909947924871071
 30
0.0
 10
417.3080004753083
 20
6.872462649972229
 30
0.0
 10
416.6941988914315
 20
6.872462649972229
 30
0.0
 10
416.0803973075547
 20
6.872462649972229
 30
0.0
 10
415.4665957236778
 20
6.872462649972229
 30
0.0
 10
414.8572727668864
 20
9.31417568592756
 30
0.0
 10
414.2479498100948
 20
11.75588872188289
 30
0.0
 10
413.6386268533033
 20
14.19760175783825
 30
0.0
 10
413.6295547625407
 20
14.19760175783825
 30
0.0
 10
413.6204826717781
 20
14.19760175783825
 30
0.0
 10
413.6114105810154
 20
14.19760175783825
 30
0.0
 10
412.920898153728
 20
11.75588872188289
 30
0.0
 10
412.2303857264405
 20
9.31417568592756
 30
0.0
 10
411.5398732991531
 20
6.872462649972229
 30
0.0
 10
410.9350289694469
 20
6.872462649972229
 30
0.0
 10
410.3301846397408
 20
6.872462649972229
 30
0.0
 10
409.7253403100347
 20
6.872462649972229
 30
0.0
 10
408.8633194326967
 20
9.914483970252357
 30
0.0
 10
408.0012985553586
 20
12.95650529053254
 30
0.0
 10
407.1392776780207
 20
15.99852661081272
 30
0.0
  0
SPLINE
  5
163
102
{ACAD_REACTORS
330
16B
102
}
330
1F
100
AcDbEntity
  8
1
  6
Continuous
 62
   163
 60
     1
370
    18
100
AcDbSpline
210
0.0
220
0.0
230
1.0
 70
    11
 71
     3
 72
    41
 73
    37
 74
     0
 42
0.000000001
 43
0.0000000001
 40
0.0
 40
0.0
 40
0.0
 40
0.0
 40
0.0833333333333333
 40
0.0833333333333333
 40
0.0833333333333333
 40
0.1666666666666667
 40
0.1666666666666667
 40
0.1666666666666667
 40
0.25
 40
0.25
 40
0.25
 40
0.3333333333333333
 40
0.3333333333333333
 40
0.3333333333333333
 40
0.4166666666666667
 40
0.4166666666666667
 40
0.4166666666666667
 40
0.5
 40
0.5
 40
0.5
 40
0.5833333333333334
 40
0.5833333333333334
 40
0.5833333333333334
 40
0.6666666666666666
 40
0.6666666666666666
 40
0.6666666666666666
 40
0.75
 40
0.75
 40
0.75
 40
0.8333333333333334
 40
0.8333333333333334
 40
0.8333333333333334
 40
0.9166666666666666
 40
0.9166666666666666
 40
0.9166666666666666
 40
1.0
 40
1.0
 40
1.0
 40
1.0
 10
421.6264453630861
 20
8.727305110896879
 30
0.0
 10
422.0598238128649
 20
8.429474581683005
 30
0.0
 10
422.7638295397044
 20
8.090993726963271
 30
0.0
 10
423.2783548898559
 20
8.090993726963271
 30
0.0
 10
424.2397094192152
 20
8.090993726963271
 30
0.0
 10
424.7812787867667
 20
8.700259265458792
 30
0.0
 10
424.7812787867667
 20
9.444917145842206
 30
0.0
 10
424.7676706506228
 20
11.31353816976063
 30
0.0
 10
420.9360329242178
 20
10.51461999968931
 30
0.0
 10
420.9360329242178
 20
13.71012042508668
 30
0.0
 10
420.9360329242178
 20
15.24026059428534
 30
0.0
 10
422.1816080186088
 20
16.43174765387639
 30
0.0
 10
424.0638371786712
 20
16.43174765387639
 30
0.0
 10
424.9981476906304
 20
16.43174765387639
 30
0.0
 10
425.9050696754139
 20
16.10670268041273
 30
0.0
 10
426.7039959946654
 20
15.64644135862842
 30
0.0
 10
426.7039845327498
 20
15.6464332013328
 30
0.0
 10
425.9727697420537
 20
14.4006827459659
 30
0.0
 10
425.972761202769
 20
14.4006934186719
 30
0.0
 10
425.4043247162941
 20
14.71212710798984
 30
0.0
 10
424.8761912299985
 20
15.02356394530955
 30
0.0
 10
424.1992295205591
 20
15.02356394530955
 30
0.0
 10
423.4137472317439
 20
15.02356394530955
 30
0.0
 10
422.6690893513604
 20
14.60377878350193
 30
0.0
 10
422.6690893513604
 20
13.76438071477455
 30
0.0
 10
422.6690893513604
 20
11.92280370825615
 30
0.0
 10
426.5958117758852
 20
12.50502522935168
 30
0.0
 10
426.5958117758852
 20
9.512613316786153
 30
0.0
 10
426.5958117758852
 20
7.914949231531418
 30
0.0
 10
425.3092400181744
 20
6.682810018396404
 30
0.0
 10
423.4950515388317
 20
6.682810018396404
 30
0.0
 10
422.5877850442726
 20
6.682810018396404
 30
0.0
 10
421.7347788394012
 20
6.940158820916148
 30
0.0
 10
420.9494617895082
 20
7.400592083187442
 30
0.0
 10
420.949471784316
 20
7.400600964059331
 30
0.0
 10
421.626435060445
 20
8.727312191177512
 30
0.0
 10
421.6264453630861
 20
8.727305110896879
 30
0.0
  0
SPLINE
  5
164
102
{ACAD_REACTORS
330
16B
102
}
330
1F
100
AcDbEntity
  8
1
  6
Continuous
 62
   163
 60
     1
370
    18
100
AcDbSpline
210
0.0
220
0.0
230
1.0
 70
    11
 71
     3
 72
    41
 73
    37
 74
     0
 42
0.000000001
 43
0.0000000001
 40
0.0
 40
0.0
 40
0.0
 40
0.0
 40
0.0833333333333333
 40
0.0833333333333333
 40
0.0833333333333333
 40
0.1666666666666667
 40
0.1666666666666667
 40
0.1666666666666667
 40
0.25
 40
0.25
 40
0.25
 40
0.3333333333333333
 40
0.3333333333333333
 40
0.3333333333333333
 40
0.4166666666666667
 40
0.4166666666666667
 40
0.4166666666666667
 40
0.5
 40
0.5
 40
0.5
 40
0.5833333333333334
 40
0.5833333333333334
 40
0.5833333333333334
 40
0.6666666666666666
 40
0.6666666666666666
 40
0.6666666666666666
 40
0.75
 40
0.75
 40
0.75
 40
0.8333333333333334
 40
0.8333333333333334
 40
0.8333333333333334
 40
0.9166666666666666
 40
0.9166666666666666
 40
0.9166666666666666
 40
1.0
 40
1.0
 40
1.0
 40
1.0
 10
428.3962347132863
 20
8.727305110428624
 30
0.0
 10
428.8296131621474
 20
8.429474581683005
 30
0.0
 10
429.5334466340991
 20
8.090993726963271
 30
0.0
 10
430.0481442391385
 20
8.090993726963271
 30
0.0
 10
431.0093265136098
 20
8.090993726963271
 30
0.0
 10
431.5510681360494
 20
8.700259265458792
 30
0.0
 10
431.5510681360494
 20
9.444917145842206
 30
0.0
 10
431.5374599999054
 20
11.31353816976063
 30
0.0
 10
427.7056500186125
 20
10.51461999968931
 30
0.0
 10
427.7056500186125
 20
13.71012042508668
 30
0.0
 10
427.7056500186125
 20
15.24026059428534
 30
0.0
 10
428.9513973678914
 20
16.43174765387639
 30
0.0
 10
430.8334542730659
 20
16.43174765387639
 30
0.0
 10
431.7677647850251
 20
16.43174765387639
 30
0.0
 10
432.6748590246964
 20
16.10670268041273
 30
0.0
 10
433.4736130860201
 20
15.64644135906617
 30
0.0
 10
433.4736016277316
 20
15.64643320030638
 30
0.0
 10
432.7425590922489
 20
14.40068274680042
 30
0.0
 10
432.7425505515666
 20
14.4006934180556
 30
0.0
 10
432.1739418106888
 20
14.71212710798984
 30
0.0
 10
431.6458083243933
 20
15.02356394530955
 30
0.0
 10
430.9688466149538
 20
15.02356394530955
 30
0.0
 10
430.1835365810265
 20
15.02356394530955
 30
0.0
 10
429.438878700643
 20
14.60377878350193
 30
0.0
 10
429.438878700643
 20
13.76438071477455
 30
0.0
 10
429.438878700643
 20
11.92280370825615
 30
0.0
 10
433.3654288702799
 20
12.50502522935168
 30
0.0
 10
433.3654288702799
 20
9.512613316786153
 30
0.0
 10
433.3654288702799
 20
7.914949231531418
 30
0.0
 10
432.079029367457
 20
6.682810018396404
 30
0.0
 10
430.2646686332264
 20
6.682810018396404
 30
0.0
 10
429.3575743935551
 20
6.682810018396404
 30
0.0
 10
428.5045681886838
 20
6.940158820916148
 30
0.0
 10
427.7190788807986
 20
7.400592083519152
 30
0.0
 10
427.7190888794303
 20
7.400600963125905
 30
0.0
 10
428.3962244106452
 20
8.727312190709236
 30
0.0
 10
428.3962347132863
 20
8.727305110428624
 30
0.0
  0
SPLINE
  5
165
102
{ACAD_REACTORS
330
16B
102
}
330
1F
100
AcDbEntity
  8
1
  6
Continuous
 62
   163
 60
     1
370
    18
100
AcDbSpline
210
0.0
220
0.0
230
1.0
 70
    11
 71
     3
 72
    17
 73
    13
 74
     0
 42
0.000000001
 43
0.0000000001
 40
0.0
 40
0.0
 40
0.0
 40
0.0
 40
0.2500749063670416
 40
0.2500749063670416
 40
0.2500749063670416
 40
0.4999999999999989
 40
0.4999999999999989
 40
0.4999999999999989
 40
0.7500749063670404
 40
0.7500749063670404
 40
0.7500749063670404
 40
1.0
 40
1.0
 40
1.0
 40
1.0
 10
439.9591737241307
 20
11.85614106663957
 30
0.0
 10
438.42564587547
 20
11.85614106663957
 30
0.0
 10
436.8921180268093
 20
11.85614106663957
 30
0.0
 10
435.3585901781486
 20
11.85614106663957
 30
0.0
 10
435.3585901781486
 20
13.3887502225648
 30
0.0
 10
435.3585901781486
 20
14.92135937849003
 30
0.0
 10
435.3585901781486
 20
16.45396853441526
 30
0.0
 10
436.8921180268093
 20
16.45396853441526
 30
0.0
 10
438.42564587547
 20
16.45396853441526
 30
0.0
 10
439.9591737241307
 20
16.45396853441526
 30
0.0
 10
439.9591737241307
 20
14.92135937849003
 30
0.0
 10
439.9591737241307
 20
13.3887502225648
 30
0.0
 10
439.9591737241307
 20
11.85614106663957
 30
0.0
  0
SPLINE
  5
166
102
{ACAD_REACTORS
330
16B
102
}
330
1F
100
AcDbEntity
  8
1
  6
Continuous
 62
   163
 60
     1
370
    18
100
AcDbSpline
210
0.0
220
0.0
230
1.0
 70
    11
 71
     3
 72
    17
 73
    13
 74
     0
 42
0.000000001
 43
0.0000000001
 40
0.0
 40
0.0
 40
0.0
 40
0.0
 40
0.2500749063670398
 40
0.2500749063670398
 40
0.2500749063670398
 40
0.5000000000000023
 40
0.5000000000000023
 40
0.5000000000000023
 40
0.7500749063670421
 40
0.7500749063670421
 40
0.7500749063670421
 40
1.0
 40
1.0
 40
1.0
 40
1.0
 10
445.1392227130018
 20
6.675747567992611
 30
0.0
 10
443.6056948643411
 20
6.675747567992611
 30
0.0
 10
442.0721670156804
 20
6.675747567992611
 30
0.0
 10
440.5386391670198
 20
6.675747567992611
 30
0.0
 10
440.5386391670198
 20
8.20835672391784
 30
0.0
 10
440.5386391670198
 20
9.740965879843069
 30
0.0
 10
440.5386391670198
 20
11.2735750357683
 30
0.0
 10
442.0721670156804
 20
11.2735750357683
 30
0.0
 10
443.6056948643411
 20
11.2735750357683
 30
0.0
 10
445.1392227130018
 20
11.2735750357683
 30
0.0
 10
445.1392227130018
 20
9.740965879843069
 30
0.0
 10
445.1392227130018
 20
8.20835672391784
 30
0.0
 10
445.1392227130018
 20
6.675747567992611
 30
0.0
  0
SPLINE
  5
167
102
{ACAD_REACTORS
330
16B
102
}
330
1F
100
AcDbEntity
  8
1
  6
Continuous
 62
   163
 60
     1
370
    18
100
AcDbSpline
210
0.0
220
0.0
230
1.0
 70
    11
 71
     3
 72
    17
 73
    13
 74
     0
 42
0.000000001
 43
0.0000000001
 40
0.0
 40
0.0
 40
0.0
 40
0.0
 40
0.2500749063670398
 40
0.2500749063670398
 40
0.2500749063670398
 40
0.5000000000000023
 40
0.5000000000000023
 40
0.5000000000000023
 40
0.7500749063670421
 40
0.7500749063670421
 40
0.7500749063670421
 40
1.0
 40
1.0
 40
1.0
 40
1.0
 10
445.1392227130018
 20
16.45396853441526
 30
0.0
 10
443.6056948643411
 20
16.45396853441526
 30
0.0
 10
442.0721670156804
 20
16.45396853441526
 30
0.0
 10
440.5386391670198
 20
16.45396853441526
 30
0.0
 10
440.5386391670198
 20
14.92135937849003
 30
0.0
 10
440.5386391670198
 20
13.3887502225648
 30
0.0
 10
440.5386391670198
 20
11.85614106663957
 30
0.0
 10
442.0721670156804
 20
11.85614106663957
 30
0.0
 10
443.6056948643411
 20
11.85614106663957
 30
0.0
 10
445.1392227130018
 20
11.85614106663957
 30
0.0
 10
445.1392227130018
 20
13.3887502225648
 30
0.0
 10
445.1392227130018
 20
14.92135937849003
 30
0.0
 10
445.1392227130018
 20
16.45396853441526
 30
0.0
  0
SPLINE
  5
168
102
{ACAD_REACTORS
330
16B
102
}
330
1F
100
AcDbEntity
  8
1
  6
Continuous
 62
   163
 60
     1
370
    18
100
AcDbSpline
210
0.0
220
0.0
230
1.0
 70
    11
 71
     3
 72
    17
 73
    13
 74
     0
 42
0.000000001
 43
0.0000000001
 40
0.0
 40
0.0
 40
0.0
 40
0.0
 40
0.2499153546639589
 40
0.2499153546639589
 40
0.2499153546639589
 40
0.4999999999999987
 40
0.4999999999999987
 40
0.4999999999999987
 40
0.7499153546639602
 40
0.7499153546639602
 40
0.7499153546639602
 40
1.0
 40
1.0
 40
1.0
 40
1.0
 10
444.8746392051903
 20
16.18938502660379
 30
0.0
 10
444.8746392051903
 20
14.83316487588619
 30
0.0
 10
444.8746392051903
 20
13.47694472516864
 30
0.0
 10
444.8746392051903
 20
12.12072457445104
 30
0.0
 10
443.5175003617373
 20
12.12072457445104
 30
0.0
 10
442.1603615182843
 20
12.12072457445104
 30
0.0
 10
440.8032226748312
 20
12.12072457445104
 30
0.0
 10
440.8032226748312
 20
13.47694472516864
 30
0.0
 10
440.8032226748312
 20
14.83316487588619
 30
0.0
 10
440.8032226748312
 20
16.18938502660379
 30
0.0
 10
442.1603615182843
 20
16.18938502660379
 30
0.0
 10
443.5175003617373
 20
16.18938502660379
 30
0.0
 10
444.8746392051903
 20
16.18938502660379
 30
0.0
  0
SPLINE
  5
169
102
{ACAD_REACTORS
330
16B
102
}
330
1F
100
AcDbEntity
  8
1
  6
Continuous
 62
   163
 60
     1
370
    18
100
AcDbSpline
210
0.0
220
0.0
230
1.0
 70
    11
 71
     3
 72
    17
 73
    13
 74
     0
 42
0.000000001
 43
0.0000000001
 40
0.0
 40
0.0
 40
0.0
 40
0.0
 40
0.2500749063670416
 40
0.2500749063670416
 40
0.2500749063670416
 40
0.4999999999999989
 40
0.4999999999999989
 40
0.4999999999999989
 40
0.7500749063670404
 40
0.7500749063670404
 40
0.7500749063670404
 40
1.0
 40
1.0
 40
1.0
 40
1.0
 10
439.9591737241307
 20
11.2735750357683
 30
0.0
 10
438.42564587547
 20
11.2735750357683
 30
0.0
 10
436.8921180268093
 20
11.2735750357683
 30
0.0
 10
435.3585901781486
 20
11.2735750357683
 30
0.0
 10
435.3585901781486
 20
9.740965879843069
 30
0.0
 10
435.3585901781486
 20
8.20835672391784
 30
0.0
 10
435.3585901781486
 20
6.675747567992611
 30
0.0
 10
436.8921180268093
 20
6.675747567992611
 30
0.0
 10
438.42564587547
 20
6.675747567992611
 30
0.0
 10
439.9591737241307
 20
6.675747567992611
 30
0.0
 10
439.9591737241307
 20
8.20835672391784
 30
0.0
 10
439.9591737241307
 20
9.740965879843069
 30
0.0
 10
439.9591737241307
 20
11.2735750357683
 30
0.0
  0
SPLINE
  5
16A
102
{ACAD_REACTORS
330
16B
102
}
330
1F
100
AcDbEntity
  8
1
  6
Continuous
 62
   163
 60
     1
370
    18
100
AcDbSpline
210
0.0
220
0.0
230
1.0
 70
    11
 71
     3
 72
    17
 73
    13
 74
     0
 42
0.000000001
 43
0.0000000001
 40
0.0
 40
0.0
 40
0.0
 40
0.0
 40
0.2499153546639537
 40
0.2499153546639537
 40
0.2499153546639537
 40
0.4999999999999934
 40
0.4999999999999934
 40
0.4999999999999934
 40
0.749915354663955
 40
0.749915354663955
 40
0.749915354663955
 40
1.0
 40
1.0
 40
1.0
 40
1.0
 10
439.6945902163192
 20
11.0089915279568
 30
0.0
 10
439.6945902163192
 20
9.652771377239228
 30
0.0
 10
439.6945902163192
 20
8.296551226521624
 30
0.0
 10
439.6945902163192
 20
6.940331075804048
 30
0.0
 10
438.3374513728661
 20
6.940331075804048
 30
0.0
 10
436.980312529413
 20
6.940331075804048
 30
0.0
 10
435.6231736859601
 20
6.940331075804048
 30
0.0
 10
435.6231736859601
 20
8.296551226521652
 30
0.0
 10
435.6231736859601
 20
9.652771377239228
 30
0.0
 10
435.6231736859601
 20
11.0089915279568
 30
0.0
 10
436.980312529413
 20
11.0089915279568
 30
0.0
 10
438.3374513728661
 20
11.0089915279568
 30
0.0
 10
439.6945902163192
 20
11.0089915279568
 30
0.0
  0
HATCH
  5
16B
102
{ACAD_REACTORS
330
1ED
102
}
330
1F
100
AcDbEntity
  8
256
  6
Continuous
 62
   155
370
    13
100
AcDbHatch
 10
0.0
 20
0.0
 30
0.0
210
0.0
220
0.0
230
1.0
  2
ANSI31
 70
     0
 71
     1
 91
        9
 92
        0
 93
        1
 72
     4
 94
        3
 73
     0
 74
     1
 95
       53
 96
       49
 40
0.0
 40
0.0
 40
0.0
 40
0.0
 40
0.024233419787787
 40
0.024233419787787
 40
0.024233419787787
 40
0.1280418012427934
 40
0.1280418012427934
 40
0.1280418012427934
 40
0.1284086704647148
 40
0.1284086704647148
 40
0.1284086704647148
 40
0.2309459700568215
 40
0.2309459700568215
 40
0.2309459700568215
 40
0.2557435253627113
 40
0.2557435253627113
 40
0.2557435253627113
 40
0.3573149299809463
 40
0.3573149299809463
 40
0.3573149299809463
 40
0.3576817992028669
 40
0.3576817992028669
 40
0.3576817992028669
 40
0.4624443157722517
 40
0.4624443157722517
 40
0.4624443157722517
 40
0.4860156317106226
 40
0.4860156317106226
 40
0.4860156317106226
 40
0.6156754647053586
 40
0.6156754647053586
 40
0.6156754647053586
 40
0.6406552862488913
 40
0.6406552862488913
 40
0.6406552862488913
 40
0.7430727925756138
 40
0.7430727925756138
 40
0.7430727925756138
 40
0.7434419985441709
 40
0.7434419985441709
 40
0.7434419985441709
 40
0.8467092888241766
 40
0.8467092888241766
 40
0.8467092888241766
 40
0.8713245778924228
 40
0.8713245778924228
 40
0.8713245778924228
 40
1.0
 40
1.0
 40
1.0
 40
1.0
 10
407.1392776780207
 20
15.99852661081272
 10
407.7169631537349
 20
16.14293362516728
 10
408.2946486294491
 20
16.28734063952184
 10
408.8723341051633
 20
16.43174765387639
 10
409.4590916716402
 20
13.94938246437707
 10
410.0458492381171
 20
11.46701727487778
 10
410.6326068045938
 20
8.984652085378494
 10
410.6416214770605
 20
8.984652085378494
 10
410.6506361495271
 20
8.984652085378494
 10
410.6596508219939
 20
8.984652085378494
 10
411.3637713854253
 20
11.40379973101924
 10
412.0678919488566
 20
13.82294737665993
 10
412.772012512288
 20
16.24209502230062
 10
413.3813354690795
 20
16.24209502230062
 10
413.9906584258711
 20
16.24209502230062
 10
414.5999813826626
 20
16.24209502230062
 10
415.2137829665394
 20
13.82294737665993
 10
415.8275845504162
 20
11.40379973101924
 10
416.4413861342931
 20
8.984652085378494
 10
416.4504008067597
 20
8.984652085378494
 10
416.4594154792264
 20
8.984652085378494
 10
416.468430151693
 20
8.984652085378494
 10
417.1499279065139
 20
11.46701727487778
 10
417.8314256613346
 20
13.9493824643771
 10
418.5129234161554
 20
16.43174765387639
 10
419.0726369652323
 20
16.28280459414052
 10
419.6323505143091
 20
16.13386153440465
 10
420.1920640633859
 20
15.98491847466878
 10
419.2307095340267
 20
12.94743319976991
 10
418.2693550046675
 20
9.909947924871071
 10
417.3080004753083
 20
6.872462649972229
 10
416.6941988914315
 20
6.872462649972229
 10
416.0803973075547
 20
6.872462649972229
 10
415.4665957236778
 20
6.872462649972229
 10
414.8572727668864
 20
9.31417568592756
 10
414.2479498100948
 20
11.75588872188289
 10
413.6386268533033
 20
14.19760175783825
 10
413.6295547625407
 20
14.19760175783825
 10
413.6204826717781
 20
14.19760175783825
 10
413.6114105810154
 20
14.19760175783825
 10
412.920898153728
 20
11.75588872188289
 10
412.2303857264405
 20
9.31417568592756
 10
411.5398732991531
 20
6.872462649972229
 10
410.9350289694469
 20
6.872462649972229
 10
410.3301846397408
 20
6.872462649972229
 10
409.7253403100347
 20
6.872462649972229
 10
408.8633194326967
 20
9.914483970252357
 10
408.0012985553586
 20
12.95650529053254
 10
407.1392776780207
 20
15.99852661081272
 97
        1
330
162
 92
        0
 93
        1
 72
     4
 94
        3
 73
     0
 74
     1
 95
       41
 96
       37
 40
0.0
 40
0.0
 40
0.0
 40
0.0
 40
0.0833333333333333
 40
0.0833333333333333
 40
0.0833333333333333
 40
0.1666666666666667
 40
0.1666666666666667
 40
0.1666666666666667
 40
0.25
 40
0.25
 40
0.25
 40
0.3333333333333333
 40
0.3333333333333333
 40
0.3333333333333333
 40
0.4166666666666667
 40
0.4166666666666667
 40
0.4166666666666667
 40
0.5
 40
0.5
 40
0.5
 40
0.5833333333333334
 40
0.5833333333333334
 40
0.5833333333333334
 40
0.6666666666666666
 40
0.6666666666666666
 40
0.6666666666666666
 40
0.75
 40
0.75
 40
0.75
 40
0.8333333333333334
 40
0.8333333333333334
 40
0.8333333333333334
 40
0.9166666666666666
 40
0.9166666666666666
 40
0.9166666666666666
 40
1.0
 40
1.0
 40
1.0
 40
1.0
 10
421.6264453630861
 20
8.727305110896879
 10
422.0598238128649
 20
8.429474581683005
 10
422.7638295397044
 20
8.090993726963271
 10
423.2783548898559
 20
8.090993726963271
 10
424.2397094192152
 20
8.090993726963271
 10
424.7812787867667
 20
8.700259265458792
 10
424.7812787867667
 20
9.444917145842206
 10
424.7676706506228
 20
11.31353816976063
 10
420.9360329242178
 20
10.51461999968931
 10
420.9360329242178
 20
13.71012042508668
 10
420.9360329242178
 20
15.24026059428534
 10
422.1816080186088
 20
16.43174765387639
 10
424.0638371786712
 20
16.43174765387639
 10
424.9981476906304
 20
16.43174765387639
 10
425.9050696754139
 20
16.10670268041273
 10
426.7039959946654
 20
15.64644135862842
 10
426.7039845327498
 20
15.6464332013328
 10
425.9727697420537
 20
14.4006827459659
 10
425.972761202769
 20
14.4006934186719
 10
425.4043247162941
 20
14.71212710798984
 10
424.8761912299985
 20
15.02356394530955
 10
424.1992295205591
 20
15.02356394530955
 10
423.4137472317439
 20
15.02356394530955
 10
422.6690893513604
 20
14.60377878350193
 10
422.6690893513604
 20
13.76438071477455
 10
422.6690893513604
 20
11.92280370825615
 10
426.5958117758852
 20
12.50502522935168
 10
426.5958117758852
 20
9.512613316786153
 10
426.5958117758852
 20
7.914949231531418
 10
425.3092400181744
 20
6.682810018396404
 10
423.4950515388317
 20
6.682810018396404
 10
422.5877850442726
 20
6.682810018396404
 10
421.7347788394012
 20
6.940158820916148
 10
420.9494617895082
 20
7.400592083187442
 10
420.949471784316
 20
7.400600964059331
 10
421.626435060445
 20
8.727312191177512
 10
421.6264453630861
 20
8.727305110896879
 97
        1
330
163
 92
        0
 93
        1
 72
     4
 94
        3
 73
     0
 74
     1
 95
       41
 96
       37
 40
0.0
 40
0.0
 40
0.0
 40
0.0
 40
0.0833333333333333
 40
0.0833333333333333
 40
0.0833333333333333
 40
0.1666666666666667
 40
0.1666666666666667
 40
0.1666666666666667
 40
0.25
 40
0.25
 40
0.25
 40
0.3333333333333333
 40
0.3333333333333333
 40
0.3333333333333333
 40
0.4166666666666667
 40
0.4166666666666667
 40
0.4166666666666667
 40
0.5
 40
0.5
 40
0.5
 40
0.5833333333333334
 40
0.5833333333333334
 40
0.5833333333333334
 40
0.6666666666666666
 40
0.6666666666666666
 40
0.6666666666666666
 40
0.75
 40
0.75
 40
0.75
 40
0.8333333333333334
 40
0.8333333333333334
 40
0.8333333333333334
 40
0.9166666666666666
 40
0.9166666666666666
 40
0.9166666666666666
 40
1.0
 40
1.0
 40
1.0
 40
1.0
 10
428.3962347132863
 20
8.727305110428624
 10
428.8296131621474
 20
8.429474581683005
 10
429.5334466340991
 20
8.090993726963271
 10
430.0481442391385
 20
8.090993726963271
 10
431.0093265136098
 20
8.090993726963271
 10
431.5510681360494
 20
8.700259265458792
 10
431.5510681360494
 20
9.444917145842206
 10
431.5374599999054
 20
11.31353816976063
 10
427.7056500186125
 20
10.51461999968931
 10
427.7056500186125
 20
13.71012042508668
 10
427.7056500186125
 20
15.24026059428534
 10
428.9513973678914
 20
16.43174765387639
 10
430.8334542730659
 20
16.43174765387639
 10
431.7677647850251
 20
16.43174765387639
 10
432.6748590246964
 20
16.10670268041273
 10
433.4736130860201
 20
15.64644135906617
 10
433.4736016277316
 20
15.64643320030638
 10
432.7425590922489
 20
14.40068274680042
 10
432.7425505515666
 20
14.4006934180556
 10
432.1739418106888
 20
14.71212710798984
 10
431.6458083243933
 20
15.02356394530955
 10
430.9688466149538
 20
15.02356394530955
 10
430.1835365810265
 20
15.02356394530955
 10
429.438878700643
 20
14.60377878350193
 10
429.438878700643
 20
13.76438071477455
 10
429.438878700643
 20
11.92280370825615
 10
433.3654288702799
 20
12.50502522935168
 10
433.3654288702799
 20
9.512613316786153
 10
433.3654288702799
 20
7.914949231531418
 10
432.079029367457
 20
6.682810018396404
 10
430.2646686332264
 20
6.682810018396404
 10
429.3575743935551
 20
6.682810018396404
 10
428.5045681886838
 20
6.940158820916148
 10
427.7190788807986
 20
7.400592083519152
 10
427.7190888794303
 20
7.400600963125905
 10
428.3962244106452
 20
8.727312190709236
 10
428.3962347132863
 20
8.727305110428624
 97
        1
330
164
 92
        0
 93
        1
 72
     4
 94
        3
 73
     0
 74
     1
 95
       17
 96
       13
 40
0.0
 40
0.0
 40
0.0
 40
0.0
 40
0.2500749063670416
 40
0.2500749063670416
 40
0.2500749063670416
 40
0.4999999999999989
 40
0.4999999999999989
 40
0.4999999999999989
 40
0.7500749063670404
 40
0.7500749063670404
 40
0.7500749063670404
 40
1.0
 40
1.0
 40
1.0
 40
1.0
 10
439.9591737241307
 20
11.85614106663957
 10
438.42564587547
 20
11.85614106663957
 10
436.8921180268093
 20
11.85614106663957
 10
435.3585901781486
 20
11.85614106663957
 10
435.3585901781486
 20
13.3887502225648
 10
435.3585901781486
 20
14.92135937849003
 10
435.3585901781486
 20
16.45396853441526
 10
436.8921180268093
 20
16.45396853441526
 10
438.42564587547
 20
16.45396853441526
 10
439.9591737241307
 20
16.45396853441526
 10
439.9591737241307
 20
14.92135937849003
 10
439.9591737241307
 20
13.3887502225648
 10
439.9591737241307
 20
11.85614106663957
 97
        1
330
165
 92
        0
 93
        1
 72
     4
 94
        3
 73
     0
 74
     1
 95
       17
 96
       13
 40
0.0
 40
0.0
 40
0.0
 40
0.0
 40
0.2500749063670398
 40
0.2500749063670398
 40
0.2500749063670398
 40
0.5000000000000023
 40
0.5000000000000023
 40
0.5000000000000023
 40
0.7500749063670421
 40
0.7500749063670421
 40
0.7500749063670421
 40
1.0
 40
1.0
 40
1.0
 40
1.0
 10
445.1392227130018
 20
6.675747567992611
 10
443.6056948643411
 20
6.675747567992611
 10
442.0721670156804
 20
6.675747567992611
 10
440.5386391670198
 20
6.675747567992611
 10
440.5386391670198
 20
8.20835672391784
 10
440.5386391670198
 20
9.740965879843069
 10
440.5386391670198
 20
11.2735750357683
 10
442.0721670156804
 20
11.2735750357683
 10
443.6056948643411
 20
11.2735750357683
 10
445.1392227130018
 20
11.2735750357683
 10
445.1392227130018
 20
9.740965879843069
 10
445.1392227130018
 20
8.20835672391784
 10
445.1392227130018
 20
6.675747567992611
 97
        1
330
166
 92
        0
 93
        1
 72
     4
 94
        3
 73
     0
 74
     1
 95
       17
 96
       13
 40
0.0
 40
0.0
 40
0.0
 40
0.0
 40
0.2500749063670398
 40
0.2500749063670398
 40
0.2500749063670398
 40
0.5000000000000023
 40
0.5000000000000023
 40
0.5000000000000023
 40
0.7500749063670421
 40
0.7500749063670421
 40
0.7500749063670421
 40
1.0
 40
1.0
 40
1.0
 40
1.0
 10
445.1392227130018
 20
16.45396853441526
 10
443.6056948643411
 20
16.45396853441526
 10
442.0721670156804
 20
16.45396853441526
 10
440.5386391670198
 20
16.45396853441526
 10
440.5386391670198
 20
14.92135937849003
 10
440.5386391670198
 20
13.3887502225648
 10
440.5386391670198
 20
11.85614106663957
 10
442.0721670156804
 20
11.85614106663957
 10
443.6056948643411
 20
11.85614106663957
 10
445.1392227130018
 20
11.85614106663957
 10
445.1392227130018
 20
13.3887502225648
 10
445.1392227130018
 20
14.92135937849003
 10
445.1392227130018
 20
16.45396853441526
 97
        1
330
167
 92
        0
 93
        1
 72
     4
 94
        3
 73
     0
 74
     1
 95
       17
 96
       13
 40
0.0
 40
0.0
 40
0.0
 40
0.0
 40
0.2499153546639589
 40
0.2499153546639589
 40
0.2499153546639589
 40
0.4999999999999987
 40
0.4999999999999987
 40
0.4999999999999987
 40
0.7499153546639602
 40
0.7499153546639602
 40
0.7499153546639602
 40
1.0
 40
1.0
 40
1.0
 40
1.0
 10
444.8746392051903
 20
16.18938502660379
 10
444.8746392051903
 20
14.83316487588619
 10
444.8746392051903
 20
13.47694472516864
 10
444.8746392051903
 20
12.12072457445104
 10
443.5175003617373
 20
12.12072457445104
 10
442.1603615182843
 20
12.12072457445104
 10
440.8032226748312
 20
12.12072457445104
 10
440.8032226748312
 20
13.47694472516864
 10
440.8032226748312
 20
14.83316487588619
 10
440.8032226748312
 20
16.18938502660379
 10
442.1603615182843
 20
16.18938502660379
 10
443.5175003617373
 20
16.18938502660379
 10
444.8746392051903
 20
16.18938502660379
 97
        1
330
168
 92
        0
 93
        1
 72
     4
 94
        3
 73
     0
 74
     1
 95
       17
 96
       13
 40
0.0
 40
0.0
 40
0.0
 40
0.0
 40
0.2500749063670416
 40
0.2500749063670416
 40
0.2500749063670416
 40
0.4999999999999989
 40
0.4999999999999989
 40
0.4999999999999989
 40
0.7500749063670404
 40
0.7500749063670404
 40
0.7500749063670404
 40
1.0
 40
1.0
 40
1.0
 40
1.0
 10
439.9591737241307
 20
11.2735750357683
 10
438.42564587547
 20
11.2735750357683
 10
436.8921180268093
 20
11.2735750357683
 10
435.3585901781486
 20
11.2735750357683
 10
435.3585901781486
 20
9.740965879843069
 10
435.3585901781486
 20
8.20835672391784
 10
435.3585901781486
 20
6.675747567992611
 10
436.8921180268093
 20
6.675747567992611
 10
438.42564587547
 20
6.675747567992611
 10
439.9591737241307
 20
6.675747567992611
 10
439.9591737241307
 20
8.20835672391784
 10
439.9591737241307
 20
9.740965879843069
 10
439.9591737241307
 20
11.2735750357683
 97
        1
330
169
 92
        0
 93
        1
 72
     4
 94
        3
 73
     0
 74
     1
 95
       17
 96
       13
 40
0.0
 40
0.0
 40
0.0
 40
0.0
 40
0.2499153546639537
 40
0.2499153546639537
 40
0.2499153546639537
 40
0.4999999999999934
 40
0.4999999999999934
 40
0.4999999999999934
 40
0.749915354663955
 40
0.749915354663955
 40
0.749915354663955
 40
1.0
 40
1.0
 40
1.0
 40
1.0
 10
439.6945902163192
 20
11.0089915279568
 10
439.6945902163192
 20
9.652771377239228
 10
439.6945902163192
 20
8.296551226521624
 10
439.6945902163192
 20
6.940331075804048
 10
438.3374513728661
 20
6.940331075804048
 10
436.980312529413
 20
6.940331075804048
 10
435.6231736859601
 20
6.940331075804048
 10
435.6231736859601
 20
8.296551226521652
 10
435.6231736859601
 20
9.652771377239228
 10
435.6231736859601
 20
11.0089915279568
 10
436.980312529413
 20
11.0089915279568
 10
438.3374513728661
 20
11.0089915279568
 10
439.6945902163192
 20
11.0089915279568
 97
        1
330
16A
 75
     0
 76
     1
 52
0.0
 41
0.1
 77
     0
 78
     1
 53
44.99999999999989
 43
0.0
 44
0.0
 45
-0.2245064030267284
 46
0.2245064030267293
 79
     0
 98
        0
  0
MTEXT
  5
16C
102
{ACAD_REACTORS
330
1EE
102
}
330
1F
100
AcDbEntity
  8
1
  6
Continuous
 62
    35
370
    13
100
AcDbMText
 10
192.825298
 20
167.385956
 30
0.0
 40
3.5
 41
0.0
 71
     7
 72
     5
  1
\W1.0000;124.5
  7
ISOCPEUR
 11
7.273661547324616E-16
 21
1.0
 31
0.0
 73
     2
 44
1.115371
  0
LINE
  5
16D
102
{ACAD_REACTORS
330
170
102
}
330
1F
100
AcDbEntity
  8
1
  6
Continuous
 62
    35
 60
     1
370
    18
100
AcDbLine
 10
193.52549
 20
109.335956
 30
0.0
 11
192.47227
 21
117.335952
 31
0.0
  0
LINE
  5
16E
102
{ACAD_REACTORS
330
170
102
}
330
1F
100
AcDbEntity
  8
1
  6
Continuous
 62
    35
 60
     1
370
    18
100
AcDbLine
 10
192.47227
 20
117.335952
 30
0.0
 11
194.57871
 21
117.33596
 31
0.0
  0
LINE
  5
16F
102
{ACAD_REACTORS
330
170
102
}
330
1F
100
AcDbEntity
  8
1
  6
Continuous
 62
    35
 60
     1
370
    18
100
AcDbLine
 10
194.57871
 20
117.33596
 30
0.0
 11
193.52549
 21
109.335956
 31
0.0
  0
HATCH
  5
170
102
{ACAD_REACTORS
330
1EE
102
}
330
1F
100
AcDbEntity
  8
1
  6
Continuous
 62
    35
370
    13
100
AcDbHatch
 10
0.0
 20
0.0
 30
0.0
210
0.0
220
0.0
230
1.0
  2
ANSI31
 70
     0
 71
     1
 91
        1
 92
        0
 93
        3
 72
     1
 10
193.525490093312
 20
109.3359557562077
 11
192.4722701126199
 21
117.3359518875146
 72
     1
 10
192.4722701126199
 20
117.3359518875146
 11
194.5787100740041
 21
117.3359596249007
 72
     1
 10
194.5787100740041
 20
117.3359596249007
 11
193.525490093312
 21
109.3359557562077
 97
        3
330
16D
330
16E
330
16F
 75
     0
 76
     1
 52
0.0
 41
0.02
 77
     0
 78
     1
 53
44.99999999999987
 43
0.0
 44
0.0
 45
-0.0449012806053457
 46
0.0449012806053459
 79
     0
 98
        0
  0
LINE
  5
171
102
{ACAD_REACTORS
330
174
102
}
330
1F
100
AcDbEntity
  8
1
  6
Continuous
 62
    35
 60
     1
370
    18
100
AcDbLine
 10
193.52549
 20
233.835956
 30
0.0
 11
194.57871
 21
225.83596
 31
0.0
  0
LINE
  5
172
102
{ACAD_REACTORS
330
174
102
}
330
1F
100
AcDbEntity
  8
1
  6
Continuous
 62
    35
 60
     1
370
    18
100
AcDbLine
 10
194.57871
 20
225.83596
 30
0.0
 11
192.47227
 21
225.835952
 31
0.0
  0
LINE
  5
173
102
{ACAD_REACTORS
330
174
102
}
330
1F
100
AcDbEntity
  8
1
  6
Continuous
 62
    35
 60
     1
370
    18
100
AcDbLine
 10
192.47227
 20
225.835952
 30
0.0
 11
193.52549
 21
233.835956
 31
0.0
  0
HATCH
  5
174
102
{ACAD_REACTORS
330
1EE
102
}
330
1F
100
AcDbEntity
  8
1
  6
Continuous
 62
    35
370
    13
100
AcDbHatch
 10
0.0
 20
0.0
 30
0.0
210
0.0
220
0.0
230
1.0
  2
ANSI31
 70
     0
 71
     1
 91
        1
 92
        0
 93
        3
 72
     1
 10
193.525490093312
 20
233.8359557562057
 11
194.5787100740041
 21
225.8359596248987
 72
     1
 10
194.5787100740041
 20
225.8359596248987
 11
192.4722701126199
 21
225.8359518875127
 72
     1
 10
192.4722701126199
 20
225.8359518875127
 11
193.525490093312
 21
233.8359557562057
 97
        3
330
171
330
172
330
173
 75
     0
 76
     1
 52
0.0
 41
0.02
 77
     0
 78
     1
 53
44.99999999999986
 43
0.0
 44
0.0
 45
-0.0449012806053457
 46
0.0449012806053459
 79
     0
 98
        0
  0
MTEXT
  5
175
102
{ACAD_REACTORS
330
1EF
102
}
330
1F
100
AcDbEntity
  8
1
  6
Continuous
 62
    35
370
    13
100
AcDbMText
 10
206.825298
 20
228.360956
 30
0.0
 40
3.5
 41
0.0
 71
     7
 72
     5
  1
\W1.0000;244
  7
ISOCPEUR
 11
7.273661547324616E-16
 21
1.0
 31
0.0
 73
     2
 44
1.115371
  0
LINE
  5
176
102
{ACAD_REACTORS
330
179
102
}
330
1F
100
AcDbEntity
  8
1
  6
Continuous
 62
    35
 60
     1
370
    18
100
AcDbLine
 10
207.52549
 20
109.335956
 30
0.0
 11
206.47227
 21
117.335952
 31
0.0
  0
LINE
  5
177
102
{ACAD_REACTORS
330
179
102
}
330
1F
100
AcDbEntity
  8
1
  6
Continuous
 62
    35
 60
     1
370
    18
100
AcDbLine
 10
206.47227
 20
117.335952
 30
0.0
 11
208.57871
 21
117.33596
 31
0.0
  0
LINE
  5
178
102
{ACAD_REACTORS
330
179
102
}
330
1F
100
AcDbEntity
  8
1
  6
Continuous
 62
    35
 60
     1
370
    18
100
AcDbLine
 10
208.57871
 20
117.33596
 30
0.0
 11
207.52549
 21
109.335956
 31
0.0
  0
HATCH
  5
179
102
{ACAD_REACTORS
330
1EF
102
}
330
1F
100
AcDbEntity
  8
1
  6
Continuous
 62
    35
370
    13
100
AcDbHatch
 10
0.0
 20
0.0
 30
0.0
210
0.0
220
0.0
230
1.0
  2
ANSI31
 70
     0
 71
     1
 91
        1
 92
        0
 93
        3
 72
     1
 10
207.525490093312
 20
109.3359557562077
 11
206.4722701126199
 21
117.3359518875146
 72
     1
 10
206.4722701126199
 20
117.3359518875146
 11
208.5787100740041
 21
117.3359596249007
 72
     1
 10
208.5787100740041
 20
117.3359596249007
 11
207.525490093312
 21
109.3359557562077
 97
        3
330
176
330
177
330
178
 75
     0
 76
     1
 52
0.0
 41
0.02
 77
     0
 78
     1
 53
44.99999999999982
 43
0.0
 44
0.0
 45
-0.0449012806053456
 46
0.0449012806053459
 79
     0
 98
        0
  0
LINE
  5
17A
102
{ACAD_REACTORS
330
17D
102
}
330
1F
100
AcDbEntity
  8
1
  6
Continuous
 62
    35
 60
     1
370
    18
100
AcDbLine
 10
207.52549
 20
353.335956
 30
0.0
 11
208.57871
 21
345.33596
 31
0.0
  0
LINE
  5
17B
102
{ACAD_REACTORS
330
17D
102
}
330
1F
100
AcDbEntity
  8
1
  6
Continuous
 62
    35
 60
     1
370
    18
100
AcDbLine
 10
208.57871
 20
345.33596
 30
0.0
 11
206.47227
 21
345.335952
 31
0.0
  0
LINE
  5
17C
102
{ACAD_REACTORS
330
17D
102
}
330
1F
100
AcDbEntity
  8
1
  6
Continuous
 62
    35
 60
     1
370
    18
100
AcDbLine
 10
206.47227
 20
345.335952
 30
0.0
 11
207.52549
 21
353.335956
 31
0.0
  0
HATCH
  5
17D
102
{ACAD_REACTORS
330
1EF
102
}
330
1F
100
AcDbEntity
  8
1
  6
Continuous
 62
    35
370
    13
100
AcDbHatch
 10
0.0
 20
0.0
 30
0.0
210
0.0
220
0.0
230
1.0
  2
ANSI31
 70
     0
 71
     1
 91
        1
 92
        0
 93
        3
 72
     1
 10
207.525490093312
 20
353.3359557562077
 11
208.5787100740041
 21
345.3359596249007
 72
     1
 10
208.5787100740041
 20
345.3359596249007
 11
206.4722701126199
 21
345.3359518875147
 72
     1
 10
206.4722701126199
 20
345.3359518875147
 11
207.525490093312
 21
353.3359557562077
 97
        3
330
17A
330
17B
330
17C
 75
     0
 76
     1
 52
0.0
 41
0.02
 77
     0
 78
     1
 53
44.99999999999981
 43
0.0
 44
0.0
 45
-0.0449012806053456
 46
0.0449012806053459
 79
     0
 98
        0
  0
MTEXT
  5
17E
102
{ACAD_REACTORS
330
1F0
102
}
330
1F
100
AcDbEntity
  8
1
  6
Continuous
 62
    35
370
    13
100
AcDbMText
 10
133.825298
 20
238.910956
 30
0.0
 40
3.5
 41
0.0
 71
     7
 72
     5
  1
\W1.0000;54.25
  7
ISOCPEUR
 11
7.273661547324616E-16
 21
1.0
 31
0.0
 73
     2
 44
1.115371
  0
LINE
  5
17F
102
{ACAD_REACTORS
330
182
102
}
330
1F
100
AcDbEntity
  8
1
  6
Continuous
 62
    35
 60
     1
370
    18
100
AcDbLine
 10
134.52549
 20
270.585956
 30
0.0
 11
135.57871
 21
262.58596
 31
0.0
  0
LINE
  5
180
102
{ACAD_REACTORS
330
182
102
}
330
1F
100
AcDbEntity
  8
1
  6
Continuous
 62
    35
 60
     1
370
    18
100
AcDbLine
 10
135.57871
 20
262.58596
 30
0.0
 11
133.47227
 21
262.585952
 31
0.0
  0
LINE
  5
181
102
{ACAD_REACTORS
330
182
102
}
330
1F
100
AcDbEntity
  8
1
  6
Continuous
 62
    35
 60
     1
370
    18
100
AcDbLine
 10
133.47227
 20
262.585952
 30
0.0
 11
134.52549
 21
270.585956
 31
0.0
  0
HATCH
  5
182
102
{ACAD_REACTORS
330
1F0
102
}
330
1F
100
AcDbEntity
  8
1
  6
Continuous
 62
    35
370
    13
100
AcDbHatch
 10
0.0
 20
0.0
 30
0.0
210
0.0
220
0.0
230
1.0
  2
ANSI31
 70
     0
 71
     1
 91
        1
 92
        0
 93
        3
 72
     1
 10
134.525490093312
 20
270.5859557562076
 11
135.5787100740041
 21
262.5859596249006
 72
     1
 10
135.5787100740041
 20
262.5859596249006
 11
133.4722701126199
 21
262.5859518875146
 72
     1
 10
133.4722701126199
 20
262.5859518875146
 11
134.525490093312
 21
270.5859557562076
 97
        3
330
17F
330
180
330
181
 75
     0
 76
     1
 52
0.0
 41
0.02
 77
     0
 78
     1
 53
44.99999999999987
 43
0.0
 44
0.0
 45
-0.0449012806053457
 46
0.0449012806053459
 79
     0
 98
        0
  0
LINE
  5
183
102
{ACAD_REACTORS
330
186
102
}
330
1F
100
AcDbEntity
  8
1
  6
Continuous
 62
    35
 60
     1
370
    18
100
AcDbLine
 10
134.52549
 20
216.335956
 30
0.0
 11
133.47227
 21
224.335952
 31
0.0
  0
LINE
  5
184
102
{ACAD_REACTORS
330
186
102
}
330
1F
100
AcDbEntity
  8
1
  6
Continuous
 62
    35
 60
     1
370
    18
100
AcDbLine
 10
133.47227
 20
224.335952
 30
0.0
 11
135.57871
 21
224.33596
 31
0.0
  0
LINE
  5
185
102
{ACAD_REACTORS
330
186
102
}
330
1F
100
AcDbEntity
  8
1
  6
Continuous
 62
    35
 60
     1
370
    18
100
AcDbLine
 10
135.57871
 20
224.33596
 30
0.0
 11
134.52549
 21
216.335956
 31
0.0
  0
HATCH
  5
186
102
{ACAD_REACTORS
330
1F0
102
}
330
1F
100
AcDbEntity
  8
1
  6
Continuous
 62
    35
370
    13
100
AcDbHatch
 10
0.0
 20
0.0
 30
0.0
210
0.0
220
0.0
230
1.0
  2
ANSI31
 70
     0
 71
     1
 91
        1
 92
        0
 93
        3
 72
     1
 10
134.525490093312
 20
216.3359557562077
 11
133.4722701126199
 21
224.3359518875147
 72
     1
 10
133.4722701126199
 20
224.3359518875147
 11
135.5787100740041
 21
224.3359596249007
 72
     1
 10
135.5787100740041
 20
224.3359596249007
 11
134.525490093312
 21
216.3359557562077
 97
        3
330
183
330
184
330
185
 75
     0
 76
     1
 52
0.0
 41
0.02
 77
     0
 78
     1
 53
44.99999999999986
 43
0.0
 44
0.0
 45
-0.0449012806053457
 46
0.0449012806053459
 79
     0
 98
        0
  0
MTEXT
  5
187
102
{ACAD_REACTORS
330
1F1
102
}
330
1F
100
AcDbEntity
  8
1
  6
Continuous
 62
    35
370
    13
100
AcDbMText
 10
133.825298
 20
192.585956
 30
0.0
 40
3.5
 41
0.0
 71
     7
 72
     5
  1
\W1.0000;44
  7
ISOCPEUR
 11
7.273661547324616E-16
 21
1.0
 31
0.0
 73
     2
 44
1.115371
  0
LINE
  5
188
102
{ACAD_REACTORS
330
18B
102
}
330
1F
100
AcDbEntity
  8
1
  6
Continuous
 62
    35
 60
     1
370
    18
100
AcDbLine
 10
134.52549
 20
216.335956
 30
0.0
 11
135.57871
 21
208.33596
 31
0.0
  0
LINE
  5
189
102
{ACAD_REACTORS
330
18B
102
}
330
1F
100
AcDbEntity
  8
1
  6
Continuous
 62
    35
 60
     1
370
    18
100
AcDbLine
 10
135.57871
 20
208.33596
 30
0.0
 11
133.47227
 21
208.335952
 31
0.0
  0
LINE
  5
18A
102
{ACAD_REACTORS
330
18B
102
}
330
1F
100
AcDbEntity
  8
1
  6
Continuous
 62
    35
 60
     1
370
    18
100
AcDbLine
 10
133.47227
 20
208.335952
 30
0.0
 11
134.52549
 21
216.335956
 31
0.0
  0
HATCH
  5
18B
102
{ACAD_REACTORS
330
1F1
102
}
330
1F
100
AcDbEntity
  8
1
  6
Continuous
 62
    35
370
    13
100
AcDbHatch
 10
0.0
 20
0.0
 30
0.0
210
0.0
220
0.0
230
1.0
  2
ANSI31
 70
     0
 71
     1
 91
        1
 92
        0
 93
        3
 72
     1
 10
134.525490093312
 20
216.3359557562077
 11
135.5787100740041
 21
208.3359596249007
 72
     1
 10
135.5787100740041
 20
208.3359596249007
 11
133.4722701126199
 21
208.3359518875147
 72
     1
 10
133.4722701126199
 20
208.3359518875147
 11
134.525490093312
 21
216.3359557562077
 97
        3
330
188
330
189
330
18A
 75
     0
 76
     1
 52
0.0
 41
0.02
 77
     0
 78
     1
 53
44.99999999999982
 43
0.0
 44
0.0
 45
-0.0449012806053456
 46
0.0449012806053459
 79
     0
 98
        0
  0
LINE
  5
18C
102
{ACAD_REACTORS
330
18F
102
}
330
1F
100
AcDbEntity
  8
1
  6
Continuous
 62
    35
 60
     1
370
    18
100
AcDbLine
 10
134.52549
 20
172.335956
 30
0.0
 11
133.47227
 21
180.335952
 31
0.0
  0
LINE
  5
18D
102
{ACAD_REACTORS
330
18F
102
}
330
1F
100
AcDbEntity
  8
1
  6
Continuous
 62
    35
 60
     1
370
    18
100
AcDbLine
 10
133.47227
 20
180.335952
 30
0.0
 11
135.57871
 21
180.33596
 31
0.0
  0
LINE
  5
18E
102
{ACAD_REACTORS
330
18F
102
}
330
1F
100
AcDbEntity
  8
1
  6
Continuous
 62
    35
 60
     1
370
    18
100
AcDbLine
 10
135.57871
 20
180.33596
 30
0.0
 11
134.52549
 21
172.335956
 31
0.0
  0
HATCH
  5
18F
102
{ACAD_REACTORS
330
1F1
102
}
330
1F
100
AcDbEntity
  8
1
  6
Continuous
 62
    35
370
    13
100
AcDbHatch
 10
0.0
 20
0.0
 30
0.0
210
0.0
220
0.0
230
1.0
  2
ANSI31
 70
     0
 71
     1
 91
        1
 92
        0
 93
        3
 72
     1
 10
134.525490093312
 20
172.3359557562077
 11
133.4722701126199
 21
180.3359518875147
 72
     1
 10
133.4722701126199
 20
180.3359518875147
 11
135.5787100740041
 21
180.3359596249007
 72
     1
 10
135.5787100740041
 20
180.3359596249007
 11
134.525490093312
 21
172.3359557562077
 97
        3
330
18C
330
18D
330
18E
 75
     0
 76
     1
 52
0.0
 41
0.02
 77
     0
 78
     1
 53
44.99999999999981
 43
0.0
 44
0.0
 45
-0.0449012806053456
 46
0.0449012806053459
 79
     0
 98
        0
  0
MTEXT
  5
190
102
{ACAD_REACTORS
330
1F2
102
}
330
1F
100
AcDbEntity
  8
1
  6
Continuous
 62
    35
370
    13
100
AcDbMText
 10
192.825298
 20
81.100689
 30
0.0
 40
3.5
 41
0.0
 71
     7
 72
     5
  1
\W1.0000;13
  7
ISOCPEUR
 11
7.273661547324616E-16
 21
1.0
 31
0.0
 73
     2
 44
1.115371
  0
LINE
  5
191
102
{ACAD_REACTORS
330
194
102
}
330
1F
100
AcDbEntity
  8
1
  6
Continuous
 62
    35
 60
     1
370
    18
100
AcDbLine
 10
193.52549
 20
96.335956
 30
0.0
 11
194.57871
 21
88.33596
 31
0.0
  0
LINE
  5
192
102
{ACAD_REACTORS
330
194
102
}
330
1F
100
AcDbEntity
  8
1
  6
Continuous
 62
    35
 60
     1
370
    18
100
AcDbLine
 10
194.57871
 20
88.33596
 30
0.0
 11
192.47227
 21
88.335952
 31
0.0
  0
LINE
  5
193
102
{ACAD_REACTORS
330
194
102
}
330
1F
100
AcDbEntity
  8
1
  6
Continuous
 62
    35
 60
     1
370
    18
100
AcDbLine
 10
192.47227
 20
88.335952
 30
0.0
 11
193.52549
 21
96.335956
 31
0.0
  0
HATCH
  5
194
102
{ACAD_REACTORS
330
1F2
102
}
330
1F
100
AcDbEntity
  8
1
  6
Continuous
 62
    35
370
    13
100
AcDbHatch
 10
0.0
 20
0.0
 30
0.0
210
0.0
220
0.0
230
1.0
  2
ANSI31
 70
     0
 71
     1
 91
        1
 92
        0
 93
        3
 72
     1
 10
193.525490093312
 20
96.33595575620765
 11
194.5787100740041
 21
88.33595962490067
 72
     1
 10
194.5787100740041
 20
88.33595962490067
 11
192.4722701126199
 21
88.33595188751464
 72
     1
 10
192.4722701126199
 20
88.33595188751464
 11
193.525490093312
 21
96.33595575620765
 97
        3
330
191
330
192
330
193
 75
     0
 76
     1
 52
0.0
 41
0.02
 77
     0
 78
     1
 53
44.99999999999987
 43
0.0
 44
0.0
 45
-0.0449012806053457
 46
0.0449012806053459
 79
     0
 98
        0
  0
LINE
  5
195
102
{ACAD_REACTORS
330
198
102
}
330
1F
100
AcDbEntity
  8
1
  6
Continuous
 62
    35
 60
     1
370
    18
100
AcDbLine
 10
193.52549
 20
109.335956
 30
0.0
 11
192.47227
 21
117.335952
 31
0.0
  0
LINE
  5
196
102
{ACAD_REACTORS
330
198
102
}
330
1F
100
AcDbEntity
  8
1
  6
Continuous
 62
    35
 60
     1
370
    18
100
AcDbLine
 10
192.47227
 20
117.335952
 30
0.0
 11
194.57871
 21
117.33596
 31
0.0
  0
LINE
  5
197
102
{ACAD_REACTORS
330
198
102
}
330
1F
100
AcDbEntity
  8
1
  6
Continuous
 62
    35
 60
     1
370
    18
100
AcDbLine
 10
194.57871
 20
117.33596
 30
0.0
 11
193.52549
 21
109.335956
 31
0.0
  0
HATCH
  5
198
102
{ACAD_REACTORS
330
1F2
102
}
330
1F
100
AcDbEntity
  8
1
  6
Continuous
 62
    35
370
    13
100
AcDbHatch
 10
0.0
 20
0.0
 30
0.0
210
0.0
220
0.0
230
1.0
  2
ANSI31
 70
     0
 71
     1
 91
        1
 92
        0
 93
        3
 72
     1
 10
193.525490093312
 20
109.3359557562077
 11
192.4722701126199
 21
117.3359518875146
 72
     1
 10
192.4722701126199
 20
117.3359518875146
 11
194.5787100740041
 21
117.3359596249007
 72
     1
 10
194.5787100740041
 20
117.3359596249007
 11
193.525490093312
 21
109.3359557562077
 97
        3
330
195
330
196
330
197
 75
     0
 76
     1
 52
0.0
 41
0.02
 77
     0
 78
     1
 53
44.99999999999986
 43
0.0
 44
0.0
 45
-0.0449012806053457
 46
0.0449012806053459
 79
     0
 98
        0
  0
INSERT
  5
1A0
330
1F
100
AcDbEntity
  8
1
  6
Continuous
 62
    35
370
    13
100
AcDbBlockReference
  2
_U0
 10
0.0
 20
0.0
 30
0.0
  0
INSERT
  5
1AA
330
1F
100
AcDbEntity
  8
1
  6
Continuous
 62
    35
370
    13
100
AcDbBlockReference
  2
_U1
 10
0.0
 20
0.0
 30
0.0
  0
INSERT
  5
1B4
330
1F
100
AcDbEntity
  8
1
  6
Continuous
 62
    35
370
    13
100
AcDbBlockReference
  2
_U2
 10
0.0
 20
0.0
 30
0.0
  0
INSERT
  5
1BE
330
1F
100
AcDbEntity
  8
1
  6
Continuous
 62
    35
370
    13
100
AcDbBlockReference
  2
_U3
 10
0.0
 20
0.0
 30
0.0
  0
INSERT
  5
1C7
330
1F
100
AcDbEntity
  8
1
  6
Continuous
 62
    35
370
    13
100
AcDbBlockReference
  2
_U4
 10
0.0
 20
0.0
 30
0.0
  0
DIMENSION
  5
1CA
102
{ACAD_REACTORS
330
1CC
102
}
102
{ACAD_XDICTIONARY
360
1CB
102
}
330
1F
100
AcDbEntity
  8
1
  6
Continuous
 62
    35
370
    13
100
AcDbDimension
  2
_U5
 10
168.02549
 20
133.82767
 30
0.0
 11
134.37549
 21
133.82767
 31
0.0
 70
   160
 71
     1
 42
11.0
 52
90.0
  3
Standard
100
AcDbAlignedDimension
 13
157.02549
 23
172.335956
 33
0.0
 14
168.02549
 24
172.335956
 34
0.0
100
AcDbRotatedDimension
1001
ACAD
1000
DSTYLE
1002
{
1070
   371
1070
    13
1070
   372
1070
    13
1070
   170
1070
     0
1070
   144
1040
1.0
1070
   277
1070
     2
1070
   284
1070
     8
1070
   278
1070
    46
1070
   146
1040
0.714286
1070
   345
1005
16
1070
   347
1005
16
1070
   346
1005
16
1070
   344
1005
0
1070
   343
1005
0
1070
   172
1070
     1
1070
    76
1070
     0
1070
    75
1070
     0
1070
   282
1070
     0
1070
   281
1070
     0
1070
    71
1070
     0
1070
   289
1070
     1
1070
    74
1070
     0
1070
   279
1070
     0
1070
   173
1070
     1
1070
   340
1005
126
1070
   271
1070
     3
1070
   272
1070
     1
1070
    77
1070
     1
1070
    73
1070
     1
1070
   171
1070
     3
1070
   274
1070
     4
1070
   177
1070
    35
1070
   176
1070
    35
1070
   178
1070
    35
1070
    78
1070
     8
1070
    48
1040
-0.1
1070
    41
1040
8.0
1070
   147
1040
1.75
1070
    42
1040
0.0
1070
    44
1040
1.0
1070
   140
1040
3.5
1002
}
1001
ACAD_DSTYLE_DIM_LINETYPE
1070
   380
1005
16
1001
ACAD_DSTYLE_DIM_EXT1_LINETYPE
1070
   381
1005
16
1001
ACAD_DSTYLE_DIM_EXT2_LINETYPE
1070
   382
1005
16
  0
ENDSEC
  0
SECTION
  2
OBJECTS
  0
DICTIONARY
  5
C
330
0
100
AcDbDictionary
281
     1
  3
ACAD_DETAILVIEWSTYLE
350
243
  3
ACAD_GROUP
350
D
  3
ACAD_LAYOUT
350
1A
  3
ACAD_MATERIAL
350
43
  3
ACAD_MLEADERSTYLE
350
242
  3
ACAD_MLINESTYLE
350
17
  3
ACAD_PLOTSETTINGS
350
19
  3
ACAD_PLOTSTYLENAME
350
E
  3
ACAD_SCALELIST
350
47
  3
ACAD_SECTIONVIEWSTYLE
350
244
  3
ACAD_TABLESTYLE
350
241
  3
ACAD_VISUALSTYLE
350
2A
  3
AcDbVariableDictionary
350
208
  0
DICTIONARY
  5
1CB
330
1CA
100
AcDbDictionary
280
     1
281
     1
  3
ACAD_DIMASSOC
360
1CC
  0
DICTIONARY
  5
243
102
{ACAD_REACTORS
330
C
102
}
330
C
100
AcDbDictionary
281
     1
  0
DICTIONARY
  5
D
102
{ACAD_REACTORS
330
C
102
}
330
C
100
AcDbDictionary
281
     1
  3
DIMENSION
350
1EE
  3
DIMENSION3
350
1EF
  3
DIMENSION4
350
1F0
  3
DIMENSION5
350
1F1
  3
DIMENSION6
350
1F2
  3
Group1
350
1ED
  3
NXE_RSD
350
1F3
  0
DICTIONARY
  5
1A
102
{ACAD_REACTORS
330
C
102
}
330
C
100
AcDbDictionary
281
     1
  3
Layout1
350
1E
  3
Layout2
350
26
  3
Model
350
22
  0
DICTIONARY
  5
43
102
{ACAD_REACTORS
330
C
102
}
330
C
100
AcDbDictionary
281
     1
  3
ByBlock
350
45
  3
ByLayer
350
44
  3
Global
350
46
  0
DICTIONARY
  5
242
102
{ACAD_REACTORS
330
C
102
}
330
C
100
AcDbDictionary
281
     1
  0
DICTIONARY
  5
17
102
{ACAD_REACTORS
330
C
102
}
330
C
100
AcDbDictionary
281
     1
  3
Standard
350
18
  0
DICTIONARY
  5
19
102
{ACAD_REACTORS
330
C
102
}
330
C
100
AcDbDictionary
281
     1
  0
ACDBDICTIONARYWDFLT
  5
E
102
{ACAD_REACTORS
330
C
102
}
330
C
100
AcDbDictionary
281
     1
  3
Normal
350
F
100
AcDbDictionaryWithDefault
340
F
  0
DICTIONARY
  5
47
102
{ACAD_REACTORS
330
C
102
}
330
C
100
AcDbDictionary
281
     1
  3
A0
350
48
  3
A1
350
49
  3
A2
350
4A
  3
A3
350
4B
  3
A4
350
4C
  3
A5
350
4D
  3
A6
350
4E
  3
A7
350
4F
  3
A8
350
50
  3
A9
350
51
  3
B0
350
52
  3
B1
350
53
  3
B2
350
54
  3
B3
350
55
  3
B4
350
56
  3
B5
350
57
  3
B6
350
58
  3
B7
350
59
  3
B8
350
5A
  3
B9
350
5B
  3
C0
350
5C
  3
C1
350
5D
  3
C2
350
5E
  3
C3
350
5F
  3
C4
350
60
  3
C5
350
61
  3
C6
350
62
  3
C7
350
63
  3
C8
350
64
  3
C9
350
65
  3
D0
350
66
  3
D1
350
67
  3
D2
350
68
  0
DICTIONARY
  5
244
102
{ACAD_REACTORS
330
C
102
}
330
C
100
AcDbDictionary
281
     1
  0
DICTIONARY
  5
241
102
{ACAD_REACTORS
330
C
102
}
330
C
100
AcDbDictionary
281
     1
  0
DICTIONARY
  5
2A
102
{ACAD_REACTORS
330
C
102
}
330
C
100
AcDbDictionary
281
     1
  3
2dWireframe
350
2F
  3
Basic
350
32
  3
Brighten
350
36
  3
ColorChange
350
3A
  3
Conceptual
350
34
  3
Dim
350
35
  3
EdgeColorOff
350
3D
  3
Facepattern
350
39
  3
Flat
350
2B
  3
FlatWithEdges
350
2C
  3
Gouraud
350
2D
  3
GouraudWithEdges
350
2E
  3
Hidden
350
31
  3
JitterOff
350
3B
  3
Linepattern
350
38
  3
OverhangOff
350
3C
  3
Realistic
350
33
  3
Shaded
350
42
  3
Shaded with edges
350
41
  3
Shades of Gray
350
3E
  3
Sketchy
350
3F
  3
Thicken
350
37
  3
Wireframe
350
30
  3
X-Ray
350
40
  0
DICTIONARY
  5
208
102
{ACAD_REACTORS
330
C
102
}
330
C
100
AcDbDictionary
281
     1
  3
CANNOSCALE
350
209
  3
MSLTSCALE
350
20A
  0
DIMASSOC
  5
1CC
102
{ACAD_REACTORS
330
1CB
102
}
330
1CB
100
AcDbDimAssoc
330
1CA
 90
        3
 70
     0
 71
     1
  1
AcDbOsnapPointRef
 72
    13
331
71
 73
     2
 91
        1
 40
0.0
 10
157.02549
 20
172.335956
 30
0.0
 75
     0
  1
AcDbOsnapPointRef
 72
     1
331
77
 73
     2
 91
        2
 40
1.0
 10
168.02549
 20
172.335956
 30
0.0
 75
     0
  0
GROUP
  5
1EE
102
{ACAD_REACTORS
330
D
102
}
330
D
100
AcDbGroup
300

 70
     0
 71
     1
340
16C
340
C1
340
C2
340
C3
340
170
340
174
  0
GROUP
  5
1EF
102
{ACAD_REACTORS
330
D
102
}
330
D
100
AcDbGroup
300

 70
     0
 71
     1
340
175
340
CA
340
CB
340
CC
340
179
340
17D
  0
GROUP
  5
1F0
102
{ACAD_REACTORS
330
D
102
}
330
D
100
AcDbGroup
300

 70
     0
 71
     1
340
17E
340
D3
340
D4
340
D5
340
182
340
186
  0
GROUP
  5
1F1
102
{ACAD_REACTORS
330
D
102
}
330
D
100
AcDbGroup
300

 70
     0
 71
     1
340
187
340
DC
340
DD
340
DE
340
18B
340
18F
  0
GROUP
  5
1F2
102
{ACAD_REACTORS
330
D
102
}
330
D
100
AcDbGroup
300

 70
     0
 71
     1
340
190
340
E5
340
E6
340
E7
340
194
340
198
  0
GROUP
  5
1ED
102
{ACAD_REACTORS
330
D
102
}
330
D
100
AcDbGroup
300

 70
     0
 71
     1
340
FF
340
100
340
101
340
16B
340
10B
340
10C
340
10D
340
10E
340
10F
340
110
340
111
  0
GROUP
  5
1F3
102
{ACAD_REACTORS
330
D
102
}
330
D
100
AcDbGroup
300

 70
     0
 71
     1
340
A2
340
A3
340
A4
340
A0
340
A5
340
A6
340
A7
340
A8
340
A9
340
AA
340
AB
340
A1
340
AC
340
AD
340
AE
340
AF
340
B0
340
13B
340
13E
340
B3
340
9F
340
B4
340
B5
340
9A
340
B6
340
B7
340
B9
340
BA
340
BB
340
9D
340
9C
340
BC
340
9E
340
BD
340
BE
340
12A
340
12B
340
134
340
12C
340
12E
340
130
340
12F
340
131
340
14A
340
12D
340
144
340
145
340
132
340
13F
340
142
340
143
340
14E
340
133
340
13D
340
13C
340
14F
340
14B
340
14C
340
14D
340
146
340
147
340
148
  0
LAYOUT
  5
1E
102
{ACAD_REACTORS
330
1A
102
}
330
1A
100
AcDbPlotSettings
  1

  2
none_device
  4

  6

 40
0.0
 41
0.0
 42
0.0
 43
0.0
 44
0.0
 45
0.0
 46
0.0
 47
0.0
 48
0.0
 49
0.0
140
0.0
141
0.0
142
1.0
143
1.0
 70
   688
 72
     0
 73
     0
 74
     5
  7

 75
    16
 76
     0
 77
     2
 78
   300
147
1.0
148
0.0
149
0.0
100
AcDbLayout
  1
Layout1
 70
     1
 71
     1
 10
-0.5
 20
-0.5
 11
5.0
 21
5.0
 12
0.0
 22
0.0
 32
0.0
 14
-0.5
 24
-0.5
 34
-0.5
 15
5.0
 25
5.0
 35
5.0
146
0.0
 13
0.0
 23
0.0
 33
0.0
 16
1.0
 26
0.0
 36
0.0
 17
0.0
 27
1.0
 37
0.0
 76
     0
330
1B
  0
LAYOUT
  5
26
102
{ACAD_REACTORS
330
1A
102
}
330
1A
100
AcDbPlotSettings
  1

  2
none_device
  4

  6

 40
0.0
 41
0.0
 42
0.0
 43
0.0
 44
0.0
 45
0.0
 46
0.0
 47
0.0
 48
0.0
 49
0.0
140
0.0
141
0.0
142
1.0
143
1.0
 70
   688
 72
     0
 73
     0
 74
     5
  7

 75
    16
 76
     0
 77
     2
 78
   300
147
1.0
148
0.0
149
0.0
100
AcDbLayout
  1
Layout2
 70
     1
 71
     2
 10
0.0
 20
0.0
 11
0.0
 21
0.0
 12
0.0
 22
0.0
 32
0.0
 14
0.0
 24
0.0
 34
0.0
 15
0.0
 25
0.0
 35
0.0
146
0.0
 13
0.0
 23
0.0
 33
0.0
 16
1.0
 26
0.0
 36
0.0
 17
0.0
 27
1.0
 37
0.0
 76
     0
330
23
  0
LAYOUT
  5
22
102
{ACAD_REACTORS
330
1A
102
}
330
1A
100
AcDbPlotSettings
  1

  2
none_device
  4
Letter_(8.50_x_11.00_Inches)
  6

 40
6.35
 41
6.35
 42
6.350005
 43
6.350005
 44
215.9
 45
279.4
 46
0.0
 47
0.0
 48
0.0
 49
0.0
140
0.0
141
0.0
142
1.0
143
1.0
 70
  1712
 72
     0
 73
     0
 74
     0
  7

 75
     0
 76
     0
 77
     2
 78
   300
147
1.0
148
0.0
149
0.0
100
AcDbLayout
  1
Model
 70
     1
 71
     0
 10
-0.5
 20
-0.5
 11
5.0
 21
5.0
 12
0.0
 22
0.0
 32
0.0
 14
-0.5
 24
-0.5
 34
-0.5
 15
5.0
 25
5.0
 35
5.0
146
0.0
 13
0.0
 23
0.0
 33
0.0
 16
1.0
 26
0.0
 36
0.0
 17
0.0
 27
1.0
 37
0.0
 76
     0
330
1F
331
1F4
  0
MATERIAL
  5
45
102
{ACAD_REACTORS
330
43
102
}
102
{ACAD_XDICTIONARY
360
23D
102
}
330
43
100
AcDbMaterial
  1
ByBlock
  0
MATERIAL
  5
44
102
{ACAD_REACTORS
330
43
102
}
102
{ACAD_XDICTIONARY
360
23B
102
}
330
43
100
AcDbMaterial
  1
ByLayer
  0
MATERIAL
  5
46
102
{ACAD_REACTORS
330
43
102
}
102
{ACAD_XDICTIONARY
360
23F
102
}
330
43
100
AcDbMaterial
  1
Global
  0
MLINESTYLE
  5
18
102
{ACAD_REACTORS
330
17
102
}
330
17
100
AcDbMlineStyle
  2
Standard
 70
     0
  3

 62
   256
 51
90.0
 52
90.0
 71
     2
 49
0.5
 62
   256
  6
BYLAYER
 49
-0.5
 62
   256
  6
BYLAYER
  0
ACDBPLACEHOLDER
  5
F
102
{ACAD_REACTORS
330
E
102
}
330
E
  0
SCALE
  5
48
102
{ACAD_REACTORS
330
47
102
}
330
47
100
AcDbScale
 70
     0
300
1:1
140
1.0
141
1.0
290
     1
  0
SCALE
  5
49
102
{ACAD_REACTORS
330
47
102
}
330
47
100
AcDbScale
 70
     0
300
1:2
140
1.0
141
2.0
290
     0
  0
SCALE
  5
4A
102
{ACAD_REACTORS
330
47
102
}
330
47
100
AcDbScale
 70
     0
300
1:4
140
1.0
141
4.0
290
     0
  0
SCALE
  5
4B
102
{ACAD_REACTORS
330
47
102
}
330
47
100
AcDbScale
 70
     0
300
1:5
140
1.0
141
5.0
290
     0
  0
SCALE
  5
4C
102
{ACAD_REACTORS
330
47
102
}
330
47
100
AcDbScale
 70
     0
300
1:8
140
1.0
141
8.0
290
     0
  0
SCALE
  5
4D
102
{ACAD_REACTORS
330
47
102
}
330
47
100
AcDbScale
 70
     0
300
1:10
140
1.0
141
10.0
290
     0
  0
SCALE
  5
4E
102
{ACAD_REACTORS
330
47
102
}
330
47
100
AcDbScale
 70
     0
300
1:16
140
1.0
141
16.0
290
     0
  0
SCALE
  5
4F
102
{ACAD_REACTORS
330
47
102
}
330
47
100
AcDbScale
 70
     0
300
1:20
140
1.0
141
20.0
290
     0
  0
SCALE
  5
50
102
{ACAD_REACTORS
330
47
102
}
330
47
100
AcDbScale
 70
     0
300
1:30
140
1.0
141
30.0
290
     0
  0
SCALE
  5
51
102
{ACAD_REACTORS
330
47
102
}
330
47
100
AcDbScale
 70
     0
300
1:40
140
1.0
141
40.0
290
     0
  0
SCALE
  5
52
102
{ACAD_REACTORS
330
47
102
}
330
47
100
AcDbScale
 70
     0
300
1:50
140
1.0
141
50.0
290
     0
  0
SCALE
  5
53
102
{ACAD_REACTORS
330
47
102
}
330
47
100
AcDbScale
 70
     0
300
1:100
140
1.0
141
100.0
290
     0
  0
SCALE
  5
54
102
{ACAD_REACTORS
330
47
102
}
330
47
100
AcDbScale
 70
     0
300
2:1
140
2.0
141
1.0
290
     0
  0
SCALE
  5
55
102
{ACAD_REACTORS
330
47
102
}
330
47
100
AcDbScale
 70
     0
300
4:1
140
4.0
141
1.0
290
     0
  0
SCALE
  5
56
102
{ACAD_REACTORS
330
47
102
}
330
47
100
AcDbScale
 70
     0
300
8:1
140
8.0
141
1.0
290
     0
  0
SCALE
  5
57
102
{ACAD_REACTORS
330
47
102
}
330
47
100
AcDbScale
 70
     0
300
10:1
140
10.0
141
1.0
290
     0
  0
SCALE
  5
58
102
{ACAD_REACTORS
330
47
102
}
330
47
100
AcDbScale
 70
     0
300
100:1
140
100.0
141
1.0
290
     0
  0
SCALE
  5
59
102
{ACAD_REACTORS
330
47
102
}
330
47
100
AcDbScale
 70
     0
300
1/128" = 1'-0"
140
0.007812
141
12.0
290
     0
  0
SCALE
  5
5A
102
{ACAD_REACTORS
330
47
102
}
330
47
100
AcDbScale
 70
     0
300
1/64" = 1'-0"
140
0.015625
141
12.0
290
     0
  0
SCALE
  5
5B
102
{ACAD_REACTORS
330
47
102
}
330
47
100
AcDbScale
 70
     0
300
1/32" = 1'-0"
140
0.03125
141
12.0
290
     0
  0
SCALE
  5
5C
102
{ACAD_REACTORS
330
47
102
}
330
47
100
AcDbScale
 70
     0
300
1/16" = 1'-0"
140
0.0625
141
12.0
290
     0
  0
SCALE
  5
5D
102
{ACAD_REACTORS
330
47
102
}
330
47
100
AcDbScale
 70
     0
300
3/32" = 1'-0"
140
0.09375
141
12.0
290
     0
  0
SCALE
  5
5E
102
{ACAD_REACTORS
330
47
102
}
330
47
100
AcDbScale
 70
     0
300
1/8" = 1'-0"
140
0.125
141
12.0
290
     0
  0
SCALE
  5
5F
102
{ACAD_REACTORS
330
47
102
}
330
47
100
AcDbScale
 70
     0
300
3/16" = 1'-0"
140
0.1875
141
12.0
290
     0
  0
SCALE
  5
60
102
{ACAD_REACTORS
330
47
102
}
330
47
100
AcDbScale
 70
     0
300
1/4" = 1'-0"
140
0.25
141
12.0
290
     0
  0
SCALE
  5
61
102
{ACAD_REACTORS
330
47
102
}
330
47
100
AcDbScale
 70
     0
300
3/8" = 1'-0"
140
0.375
141
12.0
290
     0
  0
SCALE
  5
62
102
{ACAD_REACTORS
330
47
102
}
330
47
100
AcDbScale
 70
     0
300
1/2" = 1'-0"
140
0.5
141
12.0
290
     0
  0
SCALE
  5
63
102
{ACAD_REACTORS
330
47
102
}
330
47
100
AcDbScale
 70
     0
300
3/4" = 1'-0"
140
0.75
141
12.0
290
     0
  0
SCALE
  5
64
102
{ACAD_REACTORS
330
47
102
}
330
47
100
AcDbScale
 70
     0
300
1" = 1'-0"
140
1.0
141
12.0
290
     0
  0
SCALE
  5
65
102
{ACAD_REACTORS
330
47
102
}
330
47
100
AcDbScale
 70
     0
300
1-1/2" = 1'-0"
140
1.5
141
12.0
290
     0
  0
SCALE
  5
66
102
{ACAD_REACTORS
330
47
102
}
330
47
100
AcDbScale
 70
     0
300
3" = 1'-0"
140
3.0
141
12.0
290
     0
  0
SCALE
  5
67
102
{ACAD_REACTORS
330
47
102
}
330
47
100
AcDbScale
 70
     0
300
6" = 1'-0"
140
6.0
141
12.0
290
     0
  0
SCALE
  5
68
102
{ACAD_REACTORS
330
47
102
}
330
47
100
AcDbScale
 70
     0
300
1'-0" = 1'-0"
140
12.0
141
12.0
290
     0
  0
VISUALSTYLE
  5
2F
102
{ACAD_REACTORS
330
2A
102
}
102
{ACAD_XDICTIONARY
360
213
102
}
330
2A
100
AcDbVisualStyle
  2
2dWireframe
 70
     4
 71
     0
 72
     2
 73
     0
 90
        0
 40
0.6
 41
30.0
 62
     5
 63
     7
421
 16777215
 74
     1
 91
        4
 64
     7
 65
   257
 75
     1
175
     1
 42
1.0
 92
        0
 66
   257
 43
1.0
 76
     1
 77
     6
 78
     2
 67
     7
 79
     5
170
     0
171
     0
290
     0
174
     0
 93
        1
 44
0.0
173
     0
291
     0
 45
0.0
1001
ACAD
1000
AcDbSavedByObjectVersion
1070
     0
  0
VISUALSTYLE
  5
32
102
{ACAD_REACTORS
330
2A
102
}
102
{ACAD_XDICTIONARY
360
219
102
}
330
2A
100
AcDbVisualStyle
  2
Basic
 70
     7
 71
     1
 72
     0
 73
     1
 90
        0
 40
0.6
 41
30.0
 62
     5
 63
     7
421
 16777215
 74
     0
 91
        4
 64
     7
 65
   257
 75
     1
175
     1
 42
1.0
 92
        8
 66
     7
 43
1.0
 76
     1
 77
     6
 78
     2
 67
     7
 79
     5
170
     0
171
     0
290
     0
174
     0
 93
        1
 44
0.0
173
     0
291
     1
 45
0.0
1001
ACAD
1000
AcDbSavedByObjectVersion
1070
     0
  0
VISUALSTYLE
  5
36
102
{ACAD_REACTORS
330
2A
102
}
102
{ACAD_XDICTIONARY
360
221
102
}
330
2A
100
AcDbVisualStyle
  2
Brighten
 70
    12
 71
     2
 72
     2
 73
     0
 90
        0
 40
0.6
 41
30.0
 62
     5
 63
     7
421
 16777215
 74
     1
 91
        4
 64
     7
 65
   257
 75
     1
175
     1
 42
1.0
 92
        8
 66
     7
 43
1.0
 76
     1
 77
     6
 78
     2
 67
     7
 79
     5
170
     0
171
     0
290
     0
174
     0
 93
        1
 44
50.0
173
     0
291
     1
 45
0.0
1001
ACAD
1000
AcDbSavedByObjectVersion
1070
     0
  0
VISUALSTYLE
  5
3A
102
{ACAD_REACTORS
330
2A
102
}
102
{ACAD_XDICTIONARY
360
229
102
}
330
2A
100
AcDbVisualStyle
  2
ColorChange
 70
    16
 71
     2
 72
     2
 73
     3
 90
        0
 40
0.6
 41
30.0
 62
     5
 63
     8
421
  8421504
 74
     1
 91
        4
 64
     7
 65
   257
 75
     1
175
     1
 42
1.0
 92
        8
 66
     8
424
  8421504
 43
1.0
 76
     1
 77
     6
 78
     2
 67
     7
 79
     5
170
     0
171
     0
290
     0
174
     0
 93
        1
 44
0.0
173
     0
291
     1
 45
0.0
1001
ACAD
1000
AcDbSavedByObjectVersion
1070
     0
  0
VISUALSTYLE
  5
34
102
{ACAD_REACTORS
330
2A
102
}
102
{ACAD_XDICTIONARY
360
21D
102
}
330
2A
100
AcDbVisualStyle
  2
Conceptual
 70
     9
 71
     3
 72
     2
 73
     0
 90
        0
 40
0.6
 41
30.0
 62
     5
 63
     7
421
 16777215
 74
     2
 91
        2
 64
     7
 65
   257
 75
     1
175
     1
 42
179.0
 92
        8
 66
     7
 43
1.0
 76
     1
 77
     6
 78
     2
 67
     7
 79
     3
170
     0
171
     0
290
     0
174
     0
 93
        1
 44
0.0
173
     0
291
     0
 45
0.0
1001
ACAD
1000
AcDbSavedByObjectVersion
1070
     0
  0
VISUALSTYLE
  5
35
102
{ACAD_REACTORS
330
2A
102
}
102
{ACAD_XDICTIONARY
360
21F
102
}
330
2A
100
AcDbVisualStyle
  2
Dim
 70
    11
 71
     2
 72
     2
 73
     0
 90
        0
 40
0.6
 41
30.0
 62
     5
 63
     7
421
 16777215
 74
     1
 91
        4
 64
     7
 65
   257
 75
     1
175
     1
 42
1.0
 92
        8
 66
     7
 43
1.0
 76
     1
 77
     6
 78
     2
 67
     7
 79
     5
170
     0
171
     0
290
     0
174
     0
 93
        1
 44
-50.0
173
     0
291
     1
 45
0.0
1001
ACAD
1000
AcDbSavedByObjectVersion
1070
     0
  0
VISUALSTYLE
  5
3D
102
{ACAD_REACTORS
330
2A
102
}
102
{ACAD_XDICTIONARY
360
22F
102
}
330
2A
100
AcDbVisualStyle
  2
EdgeColorOff
 70
    22
 71
     2
 72
     2
 73
     0
 90
        0
 40
0.6
 41
30.0
 62
     5
 63
     7
421
 16777215
 74
     1
 91
        4
 64
     7
 65
   257
 75
     1
175
     1
 42
1.0
 92
        8
 66
     7
 43
1.0
 76
     1
 77
     6
 78
     2
 67
     7
 79
     5
170
     0
171
     0
290
     0
174
     0
 93
        1
 44
0.0
173
     0
291
     1
 45
0.0
1001
ACAD
1000
AcDbSavedByObjectVersion
1070
     0
  0
VISUALSTYLE
  5
39
102
{ACAD_REACTORS
330
2A
102
}
102
{ACAD_XDICTIONARY
360
227
102
}
330
2A
100
AcDbVisualStyle
  2
Facepattern
 70
    15
 71
     2
 72
     2
 73
     0
 90
        0
 40
0.6
 41
30.0
 62
     5
 63
     7
421
 16777215
 74
     1
 91
        4
 64
     7
 65
   257
 75
     1
175
     1
 42
1.0
 92
        8
 66
     7
 43
1.0
 76
     1
 77
     6
 78
     2
 67
     7
 79
     5
170
     0
171
     0
290
     0
174
     0
 93
        1
 44
0.0
173
     0
291
     1
 45
0.0
1001
ACAD
1000
AcDbSavedByObjectVersion
1070
     0
  0
VISUALSTYLE
  5
2B
102
{ACAD_REACTORS
330
2A
102
}
102
{ACAD_XDICTIONARY
360
20B
102
}
330
2A
100
AcDbVisualStyle
  2
Flat
 70
     0
 71
     2
 72
     1
 73
     1
 90
        2
 40
0.6
 41
30.0
 62
     5
 63
     7
421
 16777215
 74
     0
 91
        0
 64
     7
 65
   257
 75
     1
175
     1
 42
1.0
 92
        8
 66
     7
 43
1.0
 76
     1
 77
     6
 78
     2
 67
     7
 79
     5
170
     0
171
     0
290
     0
174
     0
 93
       13
 44
0.0
173
     0
291
     1
 45
0.0
1001
ACAD
1000
AcDbSavedByObjectVersion
1070
     0
  0
VISUALSTYLE
  5
2C
102
{ACAD_REACTORS
330
2A
102
}
102
{ACAD_XDICTIONARY
360
20D
102
}
330
2A
100
AcDbVisualStyle
  2
FlatWithEdges
 70
     1
 71
     2
 72
     1
 73
     1
 90
        2
 40
0.6
 41
30.0
 62
     5
 63
     7
421
 16777215
 74
     1
 91
        0
 64
     7
 65
   257
 75
     1
175
     1
 42
1.0
 92
        0
 66
   257
 43
1.0
 76
     1
 77
     6
 78
     2
 67
     7
 79
     5
170
     0
171
     0
290
     0
174
     0
 93
       13
 44
0.0
173
     0
291
     1
 45
0.0
1001
ACAD
1000
AcDbSavedByObjectVersion
1070
     0
  0
VISUALSTYLE
  5
2D
102
{ACAD_REACTORS
330
2A
102
}
102
{ACAD_XDICTIONARY
360
20F
102
}
330
2A
100
AcDbVisualStyle
  2
Gouraud
 70
     2
 71
     2
 72
     2
 73
     1
 90
        2
 40
0.6
 41
30.0
 62
     5
 63
     7
421
 16777215
 74
     0
 91
        0
 64
     7
 65
   257
 75
     1
175
     1
 42
1.0
 92
        0
 66
     7
 43
1.0
 76
     1
 77
     6
 78
     2
 67
     7
 79
     5
170
     0
171
     0
290
     0
174
     0
 93
       13
 44
0.0
173
     0
291
     1
 45
0.0
1001
ACAD
1000
AcDbSavedByObjectVersion
1070
     0
  0
VISUALSTYLE
  5
2E
102
{ACAD_REACTORS
330
2A
102
}
102
{ACAD_XDICTIONARY
360
211
102
}
330
2A
100
AcDbVisualStyle
  2
GouraudWithEdges
 70
     3
 71
     2
 72
     2
 73
     1
 90
        2
 40
0.6
 41
30.0
 62
     5
 63
     7
421
 16777215
 74
     1
 91
        0
 64
     7
 65
   257
 75
     1
175
     1
 42
1.0
 92
        0
 66
   257
 43
1.0
 76
     1
 77
     6
 78
     2
 67
     7
 79
     5
170
     0
171
     0
290
     0
174
     0
 93
       13
 44
0.0
173
     0
291
     1
 45
0.0
1001
ACAD
1000
AcDbSavedByObjectVersion
1070
     0
  0
VISUALSTYLE
  5
31
102
{ACAD_REACTORS
330
2A
102
}
102
{ACAD_XDICTIONARY
360
217
102
}
330
2A
100
AcDbVisualStyle
  2
Hidden
 70
     6
 71
     1
 72
     2
 73
     2
 90
        0
 40
0.6
 41
30.0
 62
     5
 63
     7
421
 16777215
 74
     2
 91
        2
 64
     7
 65
   257
 75
     2
175
     1
 42
40.0
 92
        0
 66
   257
 43
1.0
 76
     1
 77
     6
 78
     2
 67
     7
 79
     3
170
     0
171
     0
290
     0
174
     0
 93
        1
 44
0.0
173
     0
291
     0
 45
0.0
1001
ACAD
1000
AcDbSavedByObjectVersion
1070
     0
  0
VISUALSTYLE
  5
3B
102
{ACAD_REACTORS
330
2A
102
}
102
{ACAD_XDICTIONARY
360
22B
102
}
330
2A
100
AcDbVisualStyle
  2
JitterOff
 70
    20
 71
     2
 72
     2
 73
     0
 90
        0
 40
0.6
 41
30.0
 62
     5
 63
     7
421
 16777215
 74
     1
 91
        4
 64
     7
 65
   257
 75
     1
175
     1
 42
1.0
 92
       10
 66
     7
 43
1.0
 76
     1
 77
     6
 78
     2
 67
     7
 79
     5
170
     0
171
     0
290
     0
174
     0
 93
        1
 44
0.0
173
     0
291
     1
 45
0.0
1001
ACAD
1000
AcDbSavedByObjectVersion
1070
     0
  0
VISUALSTYLE
  5
38
102
{ACAD_REACTORS
330
2A
102
}
102
{ACAD_XDICTIONARY
360
225
102
}
330
2A
100
AcDbVisualStyle
  2
Linepattern
 70
    14
 71
     2
 72
     2
 73
     0
 90
        0
 40
0.6
 41
30.0
 62
     5
 63
     7
421
 16777215
 74
     1
 91
        4
 64
     7
 65
   257
 75
     7
175
     7
 42
1.0
 92
        8
 66
     7
 43
1.0
 76
     1
 77
     6
 78
     2
 67
     7
 79
     5
170
     0
171
     0
290
     0
174
     0
 93
        1
 44
0.0
173
     0
291
     1
 45
0.0
1001
ACAD
1000
AcDbSavedByObjectVersion
1070
     0
  0
VISUALSTYLE
  5
3C
102
{ACAD_REACTORS
330
2A
102
}
102
{ACAD_XDICTIONARY
360
22D
102
}
330
2A
100
AcDbVisualStyle
  2
OverhangOff
 70
    21
 71
     2
 72
     2
 73
     0
 90
        0
 40
0.6
 41
30.0
 62
     5
 63
     7
421
 16777215
 74
     1
 91
        4
 64
     7
 65
   257
 75
     1
175
     1
 42
1.0
 92
        9
 66
     7
 43
1.0
 76
     1
 77
     6
 78
     2
 67
     7
 79
     5
170
     0
171
     0
290
     0
174
     0
 93
        1
 44
0.0
173
     0
291
     1
 45
0.0
1001
ACAD
1000
AcDbSavedByObjectVersion
1070
     0
  0
VISUALSTYLE
  5
33
102
{ACAD_REACTORS
330
2A
102
}
102
{ACAD_XDICTIONARY
360
21B
102
}
330
2A
100
AcDbVisualStyle
  2
Realistic
 70
     8
 71
     2
 72
     3
 73
     0
 90
        2
 40
0.6
 41
30.0
 62
     5
 63
     7
421
 16777215
 74
     0
 91
        0
 64
     7
 65
   257
 75
     1
175
     1
 42
1.0
 92
        8
 66
   257
 43
1.0
 76
     1
 77
     6
 78
     2
 67
     7
 79
     3
170
     0
171
     0
290
     0
174
     0
 93
       13
 44
0.0
173
     0
291
     0
 45
0.0
1001
ACAD
1000
AcDbSavedByObjectVersion
1070
     0
  0
VISUALSTYLE
  5
42
102
{ACAD_REACTORS
330
2A
102
}
102
{ACAD_XDICTIONARY
360
239
102
}
330
2A
100
AcDbVisualStyle
  2
Shaded
 70
    27
 71
     2
 72
     2
 73
     1
 90
        2
 40
0.6
 41
30.0
 62
     5
 63
     7
421
 16777215
 74
     0
 91
        4
 64
     7
 65
   257
 75
     1
175
     1
 42
1.0
 92
        8
 66
   257
 43
1.0
 76
     1
 77
     6
 78
     2
 67
     8
425
  7895160
 79
     3
170
     0
171
     0
290
     0
174
     0
 93
        5
 44
0.0
173
     0
291
     0
 45
0.0
1001
ACAD
1000
AcDbSavedByObjectVersion
1070
     0
  0
VISUALSTYLE
  5
41
102
{ACAD_REACTORS
330
2A
102
}
102
{ACAD_XDICTIONARY
360
237
102
}
330
2A
100
AcDbVisualStyle
  2
Shaded with edges
 70
    26
 71
     2
 72
     2
 73
     1
 90
        2
 40
0.6
 41
30.0
 62
     5
 63
     7
421
 16777215
 74
     1
 91
       10
 64
     7
 65
   257
 75
     2
175
     1
 42
1.0
 92
        8
 66
   257
 43
1.0
 76
     1
 77
     6
 78
     2
 67
     7
 79
     3
170
     0
171
     0
290
     0
174
     0
 93
        5
 44
0.0
173
     0
291
     0
 45
0.0
1001
ACAD
1000
AcDbSavedByObjectVersion
1070
     0
  0
VISUALSTYLE
  5
3E
102
{ACAD_REACTORS
330
2A
102
}
102
{ACAD_XDICTIONARY
360
231
102
}
330
2A
100
AcDbVisualStyle
  2
Shades of Gray
 70
    23
 71
     2
 72
     2
 73
     3
 90
        0
 40
0.6
 41
30.0
 62
     5
 63
     7
421
 16777215
 74
     2
 91
        2
 64
     7
 65
     7
 75
     1
175
     1
 42
40.0
 92
        8
 66
     7
 43
1.0
 76
     1
 77
     6
 78
     2
 67
     7
 79
     3
170
     0
171
     0
290
     0
174
     0
 93
        1
 44
0.0
173
     0
291
     0
 45
0.0
1001
ACAD
1000
AcDbSavedByObjectVersion
1070
     0
  0
VISUALSTYLE
  5
3F
102
{ACAD_REACTORS
330
2A
102
}
102
{ACAD_XDICTIONARY
360
233
102
}
330
2A
100
AcDbVisualStyle
  2
Sketchy
 70
    24
 71
     1
 72
     2
 73
     2
 90
        0
 40
0.6
 41
30.0
 62
     5
 63
     7
421
 16777215
 74
     2
 91
        2
 64
     7
 65
     7
 75
     1
175
     1
 42
40.0
 92
       11
 66
     7
 43
1.0
 76
     1
 77
     6
 78
     2
 67
     7
 79
     6
170
     0
171
     0
290
     0
174
     0
 93
        1
 44
0.0
173
     0
291
     0
 45
0.0
1001
ACAD
1000
AcDbSavedByObjectVersion
1070
     0
  0
VISUALSTYLE
  5
37
102
{ACAD_REACTORS
330
2A
102
}
102
{ACAD_XDICTIONARY
360
223
102
}
330
2A
100
AcDbVisualStyle
  2
Thicken
 70
    13
 71
     2
 72
     2
 73
     0
 90
        0
 40
0.6
 41
30.0
 62
     5
 63
     7
421
 16777215
 74
     1
 91
        4
 64
     7
 65
   257
 75
     1
175
     1
 42
1.0
 92
       12
 66
     7
 43
1.0
 76
     1
 77
     6
 78
     2
 67
     7
 79
     5
170
     0
171
     0
290
     0
174
     0
 93
        1
 44
0.0
173
     0
291
     1
 45
0.0
1001
ACAD
1000
AcDbSavedByObjectVersion
1070
     0
  0
VISUALSTYLE
  5
30
102
{ACAD_REACTORS
330
2A
102
}
102
{ACAD_XDICTIONARY
360
215
102
}
330
2A
100
AcDbVisualStyle
  2
Wireframe
 70
     5
 71
     0
 72
     2
 73
     0
 90
        0
 40
0.6
 41
30.0
 62
     5
 63
     7
421
 16777215
 74
     1
 91
        4
 64
     7
 65
   257
 75
     1
175
     1
 42
1.0
 92
        0
 66
   257
 43
1.0
 76
     1
 77
     6
 78
     2
 67
     7
 79
     3
170
     0
171
     0
290
     0
174
     0
 93
        1
 44
0.0
173
     0
291
     0
 45
0.0
1001
ACAD
1000
AcDbSavedByObjectVersion
1070
     0
  0
VISUALSTYLE
  5
40
102
{ACAD_REACTORS
330
2A
102
}
102
{ACAD_XDICTIONARY
360
235
102
}
330
2A
100
AcDbVisualStyle
  2
X-Ray
 70
    25
 71
     2
 72
     2
 73
     1
 90
        1
 40
0.5
 41
30.0
 62
     5
 63
     7
421
 16777215
 74
     1
 91
        0
 64
     7
 65
   257
 75
     1
175
     1
 42
1.0
 92
        8
 66
     7
 43
1.0
 76
     1
 77
     6
 78
     2
 67
     7
 79
     3
170
     0
171
     0
290
     0
174
     0
 93
       13
 44
0.0
173
     0
291
     0
 45
0.0
1001
ACAD
1000
AcDbSavedByObjectVersion
1070
     0
  0
DICTIONARYVAR
  5
209
102
{ACAD_REACTORS
330
208
102
}
330
208
100
DictionaryVariables
280
     0
  1
1:1
  0
DICTIONARYVAR
  5
20A
102
{ACAD_REACTORS
330
208
102
}
330
208
100
DictionaryVariables
280
     0
  1
1
  0
DICTIONARY
  5
23D
330
45
100
AcDbDictionary
280
     1
281
     1
  3
ACAD_XREC_ROUNDTRIP
360
23E
  0
DICTIONARY
  5
23B
330
44
100
AcDbDictionary
280
     1
281
     1
  3
ACAD_XREC_ROUNDTRIP
360
23C
  0
DICTIONARY
  5
23F
330
46
100
AcDbDictionary
280
     1
281
     1
  3
ACAD_XREC_ROUNDTRIP
360
240
  0
DICTIONARY
  5
213
330
2F
100
AcDbDictionary
280
     1
281
     1
  3
ACAD_XREC_ROUNDTRIP
360
214
  0
DICTIONARY
  5
219
330
32
100
AcDbDictionary
280
     1
281
     1
  3
ACAD_XREC_ROUNDTRIP
360
21A
  0
DICTIONARY
  5
221
330
36
100
AcDbDictionary
280
     1
281
     1
  3
ACAD_XREC_ROUNDTRIP
360
222
  0
DICTIONARY
  5
229
330
3A
100
AcDbDictionary
280
     1
281
     1
  3
ACAD_XREC_ROUNDTRIP
360
22A
  0
DICTIONARY
  5
21D
330
34
100
AcDbDictionary
280
     1
281
     1
  3
ACAD_XREC_ROUNDTRIP
360
21E
  0
DICTIONARY
  5
21F
330
35
100
AcDbDictionary
280
     1
281
     1
  3
ACAD_XREC_ROUNDTRIP
360
220
  0
DICTIONARY
  5
22F
330
3D
100
AcDbDictionary
280
     1
281
     1
  3
ACAD_XREC_ROUNDTRIP
360
230
  0
DICTIONARY
  5
227
330
39
100
AcDbDictionary
280
     1
281
     1
  3
ACAD_XREC_ROUNDTRIP
360
228
  0
DICTIONARY
  5
20B
330
2B
100
AcDbDictionary
280
     1
281
     1
  3
ACAD_XREC_ROUNDTRIP
360
20C
  0
DICTIONARY
  5
20D
330
2C
100
AcDbDictionary
280
     1
281
     1
  3
ACAD_XREC_ROUNDTRIP
360
20E
  0
DICTIONARY
  5
20F
330
2D
100
AcDbDictionary
280
     1
281
     1
  3
ACAD_XREC_ROUNDTRIP
360
210
  0
DICTIONARY
  5
211
330
2E
100
AcDbDictionary
280
     1
281
     1
  3
ACAD_XREC_ROUNDTRIP
360
212
  0
DICTIONARY
  5
217
330
31
100
AcDbDictionary
280
     1
281
     1
  3
ACAD_XREC_ROUNDTRIP
360
218
  0
DICTIONARY
  5
22B
330
3B
100
AcDbDictionary
280
     1
281
     1
  3
ACAD_XREC_ROUNDTRIP
360
22C
  0
DICTIONARY
  5
225
330
38
100
AcDbDictionary
280
     1
281
     1
  3
ACAD_XREC_ROUNDTRIP
360
226
  0
DICTIONARY
  5
22D
330
3C
100
AcDbDictionary
280
     1
281
     1
  3
ACAD_XREC_ROUNDTRIP
360
22E
  0
DICTIONARY
  5
21B
330
33
100
AcDbDictionary
280
     1
281
     1
  3
ACAD_XREC_ROUNDTRIP
360
21C
  0
DICTIONARY
  5
239
330
42
100
AcDbDictionary
280
     1
281
     1
  3
ACAD_XREC_ROUNDTRIP
360
23A
  0
DICTIONARY
  5
237
330
41
100
AcDbDictionary
280
     1
281
     1
  3
ACAD_XREC_ROUNDTRIP
360
238
  0
DICTIONARY
  5
231
330
3E
100
AcDbDictionary
280
     1
281
     1
  3
ACAD_XREC_ROUNDTRIP
360
232
  0
DICTIONARY
  5
233
330
3F
100
AcDbDictionary
280
     1
281
     1
  3
ACAD_XREC_ROUNDTRIP
360
234
  0
DICTIONARY
  5
223
330
37
100
AcDbDictionary
280
     1
281
     1
  3
ACAD_XREC_ROUNDTRIP
360
224
  0
DICTIONARY
  5
215
330
30
100
AcDbDictionary
280
     1
281
     1
  3
ACAD_XREC_ROUNDTRIP
360
216
  0
DICTIONARY
  5
235
330
40
100
AcDbDictionary
280
     1
281
     1
  3
ACAD_XREC_ROUNDTRIP
360
236
  0
XRECORD
  5
23E
102
{ACAD_REACTORS
330
23D
102
}
330
23D
100
AcDbXrecord
280
     1
102
MATERIAL
148
0.0
149
0.0
149
0.0
 93
        0
 94
      127
282
     0
 72
     1
 77
     1
171
     1
175
     1
179
     1
273
     0
  0
XRECORD
  5
23C
102
{ACAD_REACTORS
330
23B
102
}
330
23B
100
AcDbXrecord
280
     1
102
MATERIAL
148
0.0
149
0.0
149
0.0
 93
        0
 94
      127
282
     0
 72
     1
 77
     1
171
     1
175
     1
179
     1
273
     0
  0
XRECORD
  5
240
102
{ACAD_REACTORS
330
23F
102
}
330
23F
100
AcDbXrecord
280
     1
102
MATERIAL
148
0.0
149
0.0
149
0.0
 93
        0
 94
      127
282
     0
 72
     1
 77
     1
171
     1
175
     1
179
     1
273
     0
  0
XRECORD
  5
214
102
{ACAD_REACTORS
330
213
102
}
330
213
100
AcDbXrecord
280
     1
102
RTVSPropertyOp0
 70
     1
102
RTVSPropertyOp1
 70
     1
102
RTVSPropertyOp2
 70
     1
102
RTVSPropertyOp3
 70
     1
102
RTVSPropertyOp4
 70
     1
102
RTVSPropertyOp5
 70
     1
102
RTVSPropertyOp6
 70
     1
102
RTVSPropertyOp7
 70
     1
102
RTVSPropertyOp8
 70
     1
102
RTVSPropertyOp9
 70
     1
102
RTVSPropertyOp10
 70
     1
102
RTVSPropertyOp11
 70
     1
102
RTVSPropertyOp12
 70
     1
102
RTVSPropertyOp13
 70
     1
102
RTVSPropertyOp14
 70
     1
102
RTVSPropertyOp15
 70
     1
102
RTVSPropertyOp16
 70
     1
102
RTVSPropertyOp17
 70
     1
102
RTVSPropertyOp18
 70
     1
102
RTVSPropertyOp19
 70
     1
102
RTVSPropertyOp20
 70
     1
102
RTVSPropertyOp21
 70
     1
102
RTVSPropertyOp22
 70
     1
102
RTVSPropertyOp23
 70
     1
102
RTVSPropertyOp24
 70
     1
102
RTVSPropertyOp25
 70
     1
102
RTVSPropertyOp26
 70
     1
102
RTVSPropertyOp27
 70
     1
102
RTVSPropertyOp28
 70
     1
102
RTVSPropertyOp29
 70
     1
102
RTVSPropertyOp30
 70
     1
102
RTVSPropertyOp31
 70
     1
102
RTVSPropertyOp32
 70
     1
102
RTVSPropertyOp33
 70
     1
102
RTVSPropertyOp34
 70
     1
102
RTVSPropertyOp35
 70
     1
102
RTVSPropertyOp36
 70
     1
102
RTVSPropertyOp37
 70
     1
102
RTVSPropertyOp38
 70
     1
102
RTVSPropertyOp39
 70
     1
102
RTVSPropertyOp40
 70
     1
102
RTVSPropertyOp41
 70
     1
102
RTVSPropertyOp42
 70
     1
102
RTVSPropertyOp43
 70
     1
102
RTVSPropertyOp44
 70
     1
102
RTVSPropertyOp45
 70
     1
102
RTVSPropertyOp46
 70
     1
102
RTVSPropertyOp47
 70
     1
102
RTVSPropertyOp48
 70
     1
102
RTVSPropertyOp49
 70
     1
102
RTVSPropertyOp50
 70
     1
102
RTVSPropertyOp51
 70
     0
102
RTVSPropertyOp52
 70
     0
102
RTVSPropertyOp53
 70
     1
102
RTVSPropertyOp54
 70
     1
102
RTVSPropertyOp55
 70
     1
102
RTVSPropertyOp56
 70
     1
102
RTVSPropertyOp57
 70
     1
102
RTVSPost2010Prop28
280
     1
102
RTVSPost2010PropOp28
 70
     1
102
RTVSPost2010Prop29
280
     1
102
RTVSPost2010PropOp29
 70
     1
102
RTVSPost2010Prop30
280
     0
102
RTVSPost2010PropOp30
 70
     1
102
RTVSPost2010Prop31
280
     0
102
RTVSPost2010PropOp31
 70
     1
102
RTVSPost2010Prop32
280
     0
102
RTVSPost2010PropOp32
 70
     1
102
RTVSPost2010Prop33
280
     0
102
RTVSPost2010PropOp33
 70
     1
102
RTVSPost2010Prop34
280
     0
102
RTVSPost2010PropOp34
 70
     1
102
RTVSPost2010Prop35
280
     0
102
RTVSPost2010PropOp35
 70
     1
102
RTVSPost2010Prop36
280
     0
102
RTVSPost2010PropOp36
 70
     1
102
RTVSPost2010Prop37
 90
       50
102
RTVSPost2010PropOp37
 70
     1
102
RTVSPost2010Prop38
140
0.0
102
RTVSPost2010PropOp38
 70
     1
102
RTVSPost2010Prop39
140
1.0
102
RTVSPost2010PropOp39
 70
     1
102
RTVSPost2010Prop40
 90
        0
102
RTVSPost2010PropOp40
 70
     1
102
RTVSPost2010Prop41ColorIndex
 90
       18
102
RTVSPost2010Prop41ColorRGB
 90
        0
102
RTVSPost2010PropOp41
 70
     1
102
RTVSPost2010Prop42
 90
       50
102
RTVSPost2010PropOp42
 70
     1
102
RTVSPost2010Prop43
 90
        3
102
RTVSPost2010PropOp43
 70
     1
102
RTVSPost2010Prop44ColorIndex
 90
        5
102
RTVSPost2010Prop44ColorRGB
 90
      255
102
RTVSPost2010PropOp44
 70
     1
102
RTVSPost2010Prop45
280
     0
102
RTVSPost2010PropOp45
 70
     1
102
RTVSPost2010Prop46
 90
       50
102
RTVSPost2010PropOp46
 70
     1
102
RTVSPost2010Prop47
 90
       50
102
RTVSPost2010PropOp47
 70
     1
102
RTVSPost2010Prop48
 90
       50
102
RTVSPost2010PropOp48
 70
     1
102
RTVSPost2010Prop49
280
     0
102
RTVSPost2010PropOp49
 70
     1
102
RTVSPost2010Prop50
 90
       50
102
RTVSPost2010PropOp50
 70
     1
102
RTVSPost2010Prop51ColorIndex
 90
      256
102
RTVSPost2010Prop51ColorRGB
 90
-16777216
102
RTVSPost2010PropOp51
 70
     0
102
RTVSPost2010Prop52
140
1.0
102
RTVSPost2010PropOp52
 70
     0
102
RTVSPost2010Prop53
 90
        2
102
RTVSPost2010PropOp53
 70
     1
102
RTVSPost2010Prop54
  1
strokes_ogs.tif
102
RTVSPost2010PropOp54
 70
     1
102
RTVSPost2010Prop55
280
     0
102
RTVSPost2010PropOp55
 70
     1
102
RTVSPost2010Prop56
140
1.0
102
RTVSPost2010PropOp56
 70
     1
102
RTVSPost2010Prop57
140
1.0
102
RTVSPost2010PropOp57
 70
     1
  0
XRECORD
  5
21A
102
{ACAD_REACTORS
330
219
102
}
330
219
100
AcDbXrecord
280
     1
102
RTVSPropertyOp0
 70
     1
102
RTVSPropertyOp1
 70
     1
102
RTVSPropertyOp2
 70
     1
102
RTVSPropertyOp3
 70
     1
102
RTVSPropertyOp4
 70
     1
102
RTVSPropertyOp5
 70
     1
102
RTVSPropertyOp6
 70
     1
102
RTVSPropertyOp7
 70
     1
102
RTVSPropertyOp8
 70
     1
102
RTVSPropertyOp9
 70
     1
102
RTVSPropertyOp10
 70
     1
102
RTVSPropertyOp11
 70
     1
102
RTVSPropertyOp12
 70
     1
102
RTVSPropertyOp13
 70
     1
102
RTVSPropertyOp14
 70
     1
102
RTVSPropertyOp15
 70
     1
102
RTVSPropertyOp16
 70
     1
102
RTVSPropertyOp17
 70
     1
102
RTVSPropertyOp18
 70
     1
102
RTVSPropertyOp19
 70
     1
102
RTVSPropertyOp20
 70
     1
102
RTVSPropertyOp21
 70
     1
102
RTVSPropertyOp22
 70
     1
102
RTVSPropertyOp23
 70
     1
102
RTVSPropertyOp24
 70
     1
102
RTVSPropertyOp25
 70
     1
102
RTVSPropertyOp26
 70
     1
102
RTVSPropertyOp27
 70
     1
102
RTVSPropertyOp28
 70
     1
102
RTVSPropertyOp29
 70
     1
102
RTVSPropertyOp30
 70
     1
102
RTVSPropertyOp31
 70
     1
102
RTVSPropertyOp32
 70
     1
102
RTVSPropertyOp33
 70
     1
102
RTVSPropertyOp34
 70
     1
102
RTVSPropertyOp35
 70
     1
102
RTVSPropertyOp36
 70
     1
102
RTVSPropertyOp37
 70
     1
102
RTVSPropertyOp38
 70
     1
102
RTVSPropertyOp39
 70
     1
102
RTVSPropertyOp40
 70
     1
102
RTVSPropertyOp41
 70
     1
102
RTVSPropertyOp42
 70
     1
102
RTVSPropertyOp43
 70
     1
102
RTVSPropertyOp44
 70
     1
102
RTVSPropertyOp45
 70
     1
102
RTVSPropertyOp46
 70
     1
102
RTVSPropertyOp47
 70
     1
102
RTVSPropertyOp48
 70
     1
102
RTVSPropertyOp49
 70
     1
102
RTVSPropertyOp50
 70
     1
102
RTVSPropertyOp51
 70
     0
102
RTVSPropertyOp52
 70
     0
102
RTVSPropertyOp53
 70
     1
102
RTVSPropertyOp54
 70
     1
102
RTVSPropertyOp55
 70
     1
102
RTVSPropertyOp56
 70
     1
102
RTVSPropertyOp57
 70
     1
102
RTVSPost2010Prop28
280
     0
102
RTVSPost2010PropOp28
 70
     1
102
RTVSPost2010Prop29
280
     1
102
RTVSPost2010PropOp29
 70
     1
102
RTVSPost2010Prop30
280
     1
102
RTVSPost2010PropOp30
 70
     1
102
RTVSPost2010Prop31
280
     0
102
RTVSPost2010PropOp31
 70
     1
102
RTVSPost2010Prop32
280
     0
102
RTVSPost2010PropOp32
 70
     1
102
RTVSPost2010Prop33
280
     0
102
RTVSPost2010PropOp33
 70
     1
102
RTVSPost2010Prop34
280
     0
102
RTVSPost2010PropOp34
 70
     1
102
RTVSPost2010Prop35
280
     0
102
RTVSPost2010PropOp35
 70
     1
102
RTVSPost2010Prop36
280
     0
102
RTVSPost2010PropOp36
 70
     1
102
RTVSPost2010Prop37
 90
       50
102
RTVSPost2010PropOp37
 70
     1
102
RTVSPost2010Prop38
140
0.0
102
RTVSPost2010PropOp38
 70
     1
102
RTVSPost2010Prop39
140
1.0
102
RTVSPost2010PropOp39
 70
     1
102
RTVSPost2010Prop40
 90
        0
102
RTVSPost2010PropOp40
 70
     1
102
RTVSPost2010Prop41ColorIndex
 90
       18
102
RTVSPost2010Prop41ColorRGB
 90
        0
102
RTVSPost2010PropOp41
 70
     1
102
RTVSPost2010Prop42
 90
       50
102
RTVSPost2010PropOp42
 70
     1
102
RTVSPost2010Prop43
 90
        3
102
RTVSPost2010PropOp43
 70
     1
102
RTVSPost2010Prop44ColorIndex
 90
        5
102
RTVSPost2010Prop44ColorRGB
 90
      255
102
RTVSPost2010PropOp44
 70
     1
102
RTVSPost2010Prop45
280
     0
102
RTVSPost2010PropOp45
 70
     1
102
RTVSPost2010Prop46
 90
       50
102
RTVSPost2010PropOp46
 70
     1
102
RTVSPost2010Prop47
 90
       50
102
RTVSPost2010PropOp47
 70
     1
102
RTVSPost2010Prop48
 90
       50
102
RTVSPost2010PropOp48
 70
     1
102
RTVSPost2010Prop49
280
     0
102
RTVSPost2010PropOp49
 70
     1
102
RTVSPost2010Prop50
 90
       50
102
RTVSPost2010PropOp50
 70
     1
102
RTVSPost2010Prop51ColorIndex
 90
      256
102
RTVSPost2010Prop51ColorRGB
 90
-16777216
102
RTVSPost2010PropOp51
 70
     0
102
RTVSPost2010Prop52
140
1.0
102
RTVSPost2010PropOp52
 70
     0
102
RTVSPost2010Prop53
 90
        2
102
RTVSPost2010PropOp53
 70
     1
102
RTVSPost2010Prop54
  1
strokes_ogs.tif
102
RTVSPost2010PropOp54
 70
     1
102
RTVSPost2010Prop55
280
     0
102
RTVSPost2010PropOp55
 70
     1
102
RTVSPost2010Prop56
140
1.0
102
RTVSPost2010PropOp56
 70
     1
102
RTVSPost2010Prop57
140
1.0
102
RTVSPost2010PropOp57
 70
     1
  0
XRECORD
  5
222
102
{ACAD_REACTORS
330
221
102
}
330
221
100
AcDbXrecord
280
     1
102
RTVSPropertyOp0
 70
     1
102
RTVSPropertyOp1
 70
     1
102
RTVSPropertyOp2
 70
     1
102
RTVSPropertyOp3
 70
     1
102
RTVSPropertyOp4
 70
     1
102
RTVSPropertyOp5
 70
     1
102
RTVSPropertyOp6
 70
     1
102
RTVSPropertyOp7
 70
     1
102
RTVSPropertyOp8
 70
     1
102
RTVSPropertyOp9
 70
     1
102
RTVSPropertyOp10
 70
     1
102
RTVSPropertyOp11
 70
     1
102
RTVSPropertyOp12
 70
     1
102
RTVSPropertyOp13
 70
     1
102
RTVSPropertyOp14
 70
     1
102
RTVSPropertyOp15
 70
     1
102
RTVSPropertyOp16
 70
     1
102
RTVSPropertyOp17
 70
     1
102
RTVSPropertyOp18
 70
     1
102
RTVSPropertyOp19
 70
     1
102
RTVSPropertyOp20
 70
     1
102
RTVSPropertyOp21
 70
     1
102
RTVSPropertyOp22
 70
     1
102
RTVSPropertyOp23
 70
     1
102
RTVSPropertyOp24
 70
     1
102
RTVSPropertyOp25
 70
     1
102
RTVSPropertyOp26
 70
     1
102
RTVSPropertyOp27
 70
     1
102
RTVSPropertyOp28
 70
     1
102
RTVSPropertyOp29
 70
     1
102
RTVSPropertyOp30
 70
     1
102
RTVSPropertyOp31
 70
     1
102
RTVSPropertyOp32
 70
     1
102
RTVSPropertyOp33
 70
     1
102
RTVSPropertyOp34
 70
     1
102
RTVSPropertyOp35
 70
     1
102
RTVSPropertyOp36
 70
     1
102
RTVSPropertyOp37
 70
     1
102
RTVSPropertyOp38
 70
     1
102
RTVSPropertyOp39
 70
     1
102
RTVSPropertyOp40
 70
     1
102
RTVSPropertyOp41
 70
     1
102
RTVSPropertyOp42
 70
     1
102
RTVSPropertyOp43
 70
     1
102
RTVSPropertyOp44
 70
     1
102
RTVSPropertyOp45
 70
     1
102
RTVSPropertyOp46
 70
     1
102
RTVSPropertyOp47
 70
     1
102
RTVSPropertyOp48
 70
     1
102
RTVSPropertyOp49
 70
     1
102
RTVSPropertyOp50
 70
     1
102
RTVSPropertyOp51
 70
     0
102
RTVSPropertyOp52
 70
     0
102
RTVSPropertyOp53
 70
     1
102
RTVSPropertyOp54
 70
     1
102
RTVSPropertyOp55
 70
     1
102
RTVSPropertyOp56
 70
     1
102
RTVSPropertyOp57
 70
     1
102
RTVSPost2010Prop28
280
     0
102
RTVSPost2010PropOp28
 70
     1
102
RTVSPost2010Prop29
280
     1
102
RTVSPost2010PropOp29
 70
     1
102
RTVSPost2010Prop30
280
     1
102
RTVSPost2010PropOp30
 70
     1
102
RTVSPost2010Prop31
280
     0
102
RTVSPost2010PropOp31
 70
     1
102
RTVSPost2010Prop32
280
     0
102
RTVSPost2010PropOp32
 70
     1
102
RTVSPost2010Prop33
280
     0
102
RTVSPost2010PropOp33
 70
     1
102
RTVSPost2010Prop34
280
     0
102
RTVSPost2010PropOp34
 70
     1
102
RTVSPost2010Prop35
280
     0
102
RTVSPost2010PropOp35
 70
     1
102
RTVSPost2010Prop36
280
     0
102
RTVSPost2010PropOp36
 70
     1
102
RTVSPost2010Prop37
 90
       50
102
RTVSPost2010PropOp37
 70
     1
102
RTVSPost2010Prop38
140
0.0
102
RTVSPost2010PropOp38
 70
     1
102
RTVSPost2010Prop39
140
1.0
102
RTVSPost2010PropOp39
 70
     1
102
RTVSPost2010Prop40
 90
        0
102
RTVSPost2010PropOp40
 70
     1
102
RTVSPost2010Prop41ColorIndex
 90
       18
102
RTVSPost2010Prop41ColorRGB
 90
        0
102
RTVSPost2010PropOp41
 70
     1
102
RTVSPost2010Prop42
 90
       50
102
RTVSPost2010PropOp42
 70
     1
102
RTVSPost2010Prop43
 90
        3
102
RTVSPost2010PropOp43
 70
     1
102
RTVSPost2010Prop44ColorIndex
 90
        5
102
RTVSPost2010Prop44ColorRGB
 90
      255
102
RTVSPost2010PropOp44
 70
     1
102
RTVSPost2010Prop45
280
     0
102
RTVSPost2010PropOp45
 70
     1
102
RTVSPost2010Prop46
 90
       50
102
RTVSPost2010PropOp46
 70
     1
102
RTVSPost2010Prop47
 90
       50
102
RTVSPost2010PropOp47
 70
     1
102
RTVSPost2010Prop48
 90
       50
102
RTVSPost2010PropOp48
 70
     1
102
RTVSPost2010Prop49
280
     0
102
RTVSPost2010PropOp49
 70
     1
102
RTVSPost2010Prop50
 90
       50
102
RTVSPost2010PropOp50
 70
     1
102
RTVSPost2010Prop51ColorIndex
 90
      256
102
RTVSPost2010Prop51ColorRGB
 90
-16777216
102
RTVSPost2010PropOp51
 70
     0
102
RTVSPost2010Prop52
140
1.0
102
RTVSPost2010PropOp52
 70
     0
102
RTVSPost2010Prop53
 90
        2
102
RTVSPost2010PropOp53
 70
     1
102
RTVSPost2010Prop54
  1
strokes_ogs.tif
102
RTVSPost2010PropOp54
 70
     1
102
RTVSPost2010Prop55
280
     0
102
RTVSPost2010PropOp55
 70
     1
102
RTVSPost2010Prop56
140
1.0
102
RTVSPost2010PropOp56
 70
     1
102
RTVSPost2010Prop57
140
1.0
102
RTVSPost2010PropOp57
 70
     1
  0
XRECORD
  5
22A
102
{ACAD_REACTORS
330
229
102
}
330
229
100
AcDbXrecord
280
     1
102
RTVSPropertyOp0
 70
     1
102
RTVSPropertyOp1
 70
     1
102
RTVSPropertyOp2
 70
     1
102
RTVSPropertyOp3
 70
     1
102
RTVSPropertyOp4
 70
     1
102
RTVSPropertyOp5
 70
     1
102
RTVSPropertyOp6
 70
     1
102
RTVSPropertyOp7
 70
     1
102
RTVSPropertyOp8
 70
     1
102
RTVSPropertyOp9
 70
     1
102
RTVSPropertyOp10
 70
     1
102
RTVSPropertyOp11
 70
     1
102
RTVSPropertyOp12
 70
     1
102
RTVSPropertyOp13
 70
     1
102
RTVSPropertyOp14
 70
     1
102
RTVSPropertyOp15
 70
     1
102
RTVSPropertyOp16
 70
     1
102
RTVSPropertyOp17
 70
     1
102
RTVSPropertyOp18
 70
     1
102
RTVSPropertyOp19
 70
     1
102
RTVSPropertyOp20
 70
     1
102
RTVSPropertyOp21
 70
     1
102
RTVSPropertyOp22
 70
     1
102
RTVSPropertyOp23
 70
     1
102
RTVSPropertyOp24
 70
     1
102
RTVSPropertyOp25
 70
     1
102
RTVSPropertyOp26
 70
     1
102
RTVSPropertyOp27
 70
     1
102
RTVSPropertyOp28
 70
     1
102
RTVSPropertyOp29
 70
     1
102
RTVSPropertyOp30
 70
     1
102
RTVSPropertyOp31
 70
     1
102
RTVSPropertyOp32
 70
     1
102
RTVSPropertyOp33
 70
     1
102
RTVSPropertyOp34
 70
     1
102
RTVSPropertyOp35
 70
     1
102
RTVSPropertyOp36
 70
     1
102
RTVSPropertyOp37
 70
     1
102
RTVSPropertyOp38
 70
     1
102
RTVSPropertyOp39
 70
     1
102
RTVSPropertyOp40
 70
     1
102
RTVSPropertyOp41
 70
     1
102
RTVSPropertyOp42
 70
     1
102
RTVSPropertyOp43
 70
     1
102
RTVSPropertyOp44
 70
     1
102
RTVSPropertyOp45
 70
     1
102
RTVSPropertyOp46
 70
     1
102
RTVSPropertyOp47
 70
     1
102
RTVSPropertyOp48
 70
     1
102
RTVSPropertyOp49
 70
     1
102
RTVSPropertyOp50
 70
     1
102
RTVSPropertyOp51
 70
     0
102
RTVSPropertyOp52
 70
     0
102
RTVSPropertyOp53
 70
     1
102
RTVSPropertyOp54
 70
     1
102
RTVSPropertyOp55
 70
     1
102
RTVSPropertyOp56
 70
     1
102
RTVSPropertyOp57
 70
     1
102
RTVSPost2010Prop28
280
     0
102
RTVSPost2010PropOp28
 70
     1
102
RTVSPost2010Prop29
280
     1
102
RTVSPost2010PropOp29
 70
     1
102
RTVSPost2010Prop30
280
     1
102
RTVSPost2010PropOp30
 70
     1
102
RTVSPost2010Prop31
280
     0
102
RTVSPost2010PropOp31
 70
     1
102
RTVSPost2010Prop32
280
     0
102
RTVSPost2010PropOp32
 70
     1
102
RTVSPost2010Prop33
280
     0
102
RTVSPost2010PropOp33
 70
     1
102
RTVSPost2010Prop34
280
     0
102
RTVSPost2010PropOp34
 70
     1
102
RTVSPost2010Prop35
280
     0
102
RTVSPost2010PropOp35
 70
     1
102
RTVSPost2010Prop36
280
     0
102
RTVSPost2010PropOp36
 70
     1
102
RTVSPost2010Prop37
 90
       50
102
RTVSPost2010PropOp37
 70
     1
102
RTVSPost2010Prop38
140
0.0
102
RTVSPost2010PropOp38
 70
     1
102
RTVSPost2010Prop39
140
1.0
102
RTVSPost2010PropOp39
 70
     1
102
RTVSPost2010Prop40
 90
        0
102
RTVSPost2010PropOp40
 70
     1
102
RTVSPost2010Prop41ColorIndex
 90
       18
102
RTVSPost2010Prop41ColorRGB
 90
        0
102
RTVSPost2010PropOp41
 70
     1
102
RTVSPost2010Prop42
 90
       50
102
RTVSPost2010PropOp42
 70
     1
102
RTVSPost2010Prop43
 90
        3
102
RTVSPost2010PropOp43
 70
     1
102
RTVSPost2010Prop44ColorIndex
 90
        5
102
RTVSPost2010Prop44ColorRGB
 90
      255
102
RTVSPost2010PropOp44
 70
     1
102
RTVSPost2010Prop45
280
     0
102
RTVSPost2010PropOp45
 70
     1
102
RTVSPost2010Prop46
 90
       50
102
RTVSPost2010PropOp46
 70
     1
102
RTVSPost2010Prop47
 90
       50
102
RTVSPost2010PropOp47
 70
     1
102
RTVSPost2010Prop48
 90
       50
102
RTVSPost2010PropOp48
 70
     1
102
RTVSPost2010Prop49
280
     0
102
RTVSPost2010PropOp49
 70
     1
102
RTVSPost2010Prop50
 90
       50
102
RTVSPost2010PropOp50
 70
     1
102
RTVSPost2010Prop51ColorIndex
 90
      256
102
RTVSPost2010Prop51ColorRGB
 90
-16777216
102
RTVSPost2010PropOp51
 70
     0
102
RTVSPost2010Prop52
140
1.0
102
RTVSPost2010PropOp52
 70
     0
102
RTVSPost2010Prop53
 90
        2
102
RTVSPost2010PropOp53
 70
     1
102
RTVSPost2010Prop54
  1
strokes_ogs.tif
102
RTVSPost2010PropOp54
 70
     1
102
RTVSPost2010Prop55
280
     0
102
RTVSPost2010PropOp55
 70
     1
102
RTVSPost2010Prop56
140
1.0
102
RTVSPost2010PropOp56
 70
     1
102
RTVSPost2010Prop57
140
1.0
102
RTVSPost2010PropOp57
 70
     1
  0
XRECORD
  5
21E
102
{ACAD_REACTORS
330
21D
102
}
330
21D
100
AcDbXrecord
280
     1
102
RTVSPropertyOp0
 70
     1
102
RTVSPropertyOp1
 70
     1
102
RTVSPropertyOp2
 70
     1
102
RTVSPropertyOp3
 70
     1
102
RTVSPropertyOp4
 70
     1
102
RTVSPropertyOp5
 70
     1
102
RTVSPropertyOp6
 70
     1
102
RTVSPropertyOp7
 70
     1
102
RTVSPropertyOp8
 70
     1
102
RTVSPropertyOp9
 70
     1
102
RTVSPropertyOp10
 70
     1
102
RTVSPropertyOp11
 70
     1
102
RTVSPropertyOp12
 70
     1
102
RTVSPropertyOp13
 70
     1
102
RTVSPropertyOp14
 70
     1
102
RTVSPropertyOp15
 70
     1
102
RTVSPropertyOp16
 70
     1
102
RTVSPropertyOp17
 70
     1
102
RTVSPropertyOp18
 70
     1
102
RTVSPropertyOp19
 70
     1
102
RTVSPropertyOp20
 70
     1
102
RTVSPropertyOp21
 70
     1
102
RTVSPropertyOp22
 70
     1
102
RTVSPropertyOp23
 70
     1
102
RTVSPropertyOp24
 70
     1
102
RTVSPropertyOp25
 70
     1
102
RTVSPropertyOp26
 70
     1
102
RTVSPropertyOp27
 70
     1
102
RTVSPropertyOp28
 70
     1
102
RTVSPropertyOp29
 70
     1
102
RTVSPropertyOp30
 70
     1
102
RTVSPropertyOp31
 70
     1
102
RTVSPropertyOp32
 70
     1
102
RTVSPropertyOp33
 70
     1
102
RTVSPropertyOp34
 70
     1
102
RTVSPropertyOp35
 70
     1
102
RTVSPropertyOp36
 70
     1
102
RTVSPropertyOp37
 70
     1
102
RTVSPropertyOp38
 70
     1
102
RTVSPropertyOp39
 70
     1
102
RTVSPropertyOp40
 70
     1
102
RTVSPropertyOp41
 70
     1
102
RTVSPropertyOp42
 70
     1
102
RTVSPropertyOp43
 70
     1
102
RTVSPropertyOp44
 70
     1
102
RTVSPropertyOp45
 70
     1
102
RTVSPropertyOp46
 70
     1
102
RTVSPropertyOp47
 70
     1
102
RTVSPropertyOp48
 70
     1
102
RTVSPropertyOp49
 70
     1
102
RTVSPropertyOp50
 70
     1
102
RTVSPropertyOp51
 70
     0
102
RTVSPropertyOp52
 70
     0
102
RTVSPropertyOp53
 70
     1
102
RTVSPropertyOp54
 70
     1
102
RTVSPropertyOp55
 70
     1
102
RTVSPropertyOp56
 70
     1
102
RTVSPropertyOp57
 70
     1
102
RTVSPost2010Prop28
280
     0
102
RTVSPost2010PropOp28
 70
     1
102
RTVSPost2010Prop29
280
     1
102
RTVSPost2010PropOp29
 70
     1
102
RTVSPost2010Prop30
280
     1
102
RTVSPost2010PropOp30
 70
     1
102
RTVSPost2010Prop31
280
     0
102
RTVSPost2010PropOp31
 70
     1
102
RTVSPost2010Prop32
280
     0
102
RTVSPost2010PropOp32
 70
     1
102
RTVSPost2010Prop33
280
     0
102
RTVSPost2010PropOp33
 70
     1
102
RTVSPost2010Prop34
280
     0
102
RTVSPost2010PropOp34
 70
     1
102
RTVSPost2010Prop35
280
     0
102
RTVSPost2010PropOp35
 70
     1
102
RTVSPost2010Prop36
280
     0
102
RTVSPost2010PropOp36
 70
     1
102
RTVSPost2010Prop37
 90
       50
102
RTVSPost2010PropOp37
 70
     1
102
RTVSPost2010Prop38
140
0.0
102
RTVSPost2010PropOp38
 70
     1
102
RTVSPost2010Prop39
140
1.0
102
RTVSPost2010PropOp39
 70
     1
102
RTVSPost2010Prop40
 90
        0
102
RTVSPost2010PropOp40
 70
     1
102
RTVSPost2010Prop41ColorIndex
 90
       18
102
RTVSPost2010Prop41ColorRGB
 90
        0
102
RTVSPost2010PropOp41
 70
     1
102
RTVSPost2010Prop42
 90
       50
102
RTVSPost2010PropOp42
 70
     1
102
RTVSPost2010Prop43
 90
        3
102
RTVSPost2010PropOp43
 70
     1
102
RTVSPost2010Prop44ColorIndex
 90
        5
102
RTVSPost2010Prop44ColorRGB
 90
      255
102
RTVSPost2010PropOp44
 70
     1
102
RTVSPost2010Prop45
280
     0
102
RTVSPost2010PropOp45
 70
     1
102
RTVSPost2010Prop46
 90
       50
102
RTVSPost2010PropOp46
 70
     1
102
RTVSPost2010Prop47
 90
       50
102
RTVSPost2010PropOp47
 70
     1
102
RTVSPost2010Prop48
 90
       50
102
RTVSPost2010PropOp48
 70
     1
102
RTVSPost2010Prop49
280
     0
102
RTVSPost2010PropOp49
 70
     1
102
RTVSPost2010Prop50
 90
       50
102
RTVSPost2010PropOp50
 70
     1
102
RTVSPost2010Prop51ColorIndex
 90
      256
102
RTVSPost2010Prop51ColorRGB
 90
-16777216
102
RTVSPost2010PropOp51
 70
     0
102
RTVSPost2010Prop52
140
1.0
102
RTVSPost2010PropOp52
 70
     0
102
RTVSPost2010Prop53
 90
        2
102
RTVSPost2010PropOp53
 70
     1
102
RTVSPost2010Prop54
  1
strokes_ogs.tif
102
RTVSPost2010PropOp54
 70
     1
102
RTVSPost2010Prop55
280
     0
102
RTVSPost2010PropOp55
 70
     1
102
RTVSPost2010Prop56
140
1.0
102
RTVSPost2010PropOp56
 70
     1
102
RTVSPost2010Prop57
140
1.0
102
RTVSPost2010PropOp57
 70
     1
  0
XRECORD
  5
220
102
{ACAD_REACTORS
330
21F
102
}
330
21F
100
AcDbXrecord
280
     1
102
RTVSPropertyOp0
 70
     1
102
RTVSPropertyOp1
 70
     1
102
RTVSPropertyOp2
 70
     1
102
RTVSPropertyOp3
 70
     1
102
RTVSPropertyOp4
 70
     1
102
RTVSPropertyOp5
 70
     1
102
RTVSPropertyOp6
 70
     1
102
RTVSPropertyOp7
 70
     1
102
RTVSPropertyOp8
 70
     1
102
RTVSPropertyOp9
 70
     1
102
RTVSPropertyOp10
 70
     1
102
RTVSPropertyOp11
 70
     1
102
RTVSPropertyOp12
 70
     1
102
RTVSPropertyOp13
 70
     1
102
RTVSPropertyOp14
 70
     1
102
RTVSPropertyOp15
 70
     1
102
RTVSPropertyOp16
 70
     1
102
RTVSPropertyOp17
 70
     1
102
RTVSPropertyOp18
 70
     1
102
RTVSPropertyOp19
 70
     1
102
RTVSPropertyOp20
 70
     1
102
RTVSPropertyOp21
 70
     1
102
RTVSPropertyOp22
 70
     1
102
RTVSPropertyOp23
 70
     1
102
RTVSPropertyOp24
 70
     1
102
RTVSPropertyOp25
 70
     1
102
RTVSPropertyOp26
 70
     1
102
RTVSPropertyOp27
 70
     1
102
RTVSPropertyOp28
 70
     1
102
RTVSPropertyOp29
 70
     1
102
RTVSPropertyOp30
 70
     1
102
RTVSPropertyOp31
 70
     1
102
RTVSPropertyOp32
 70
     1
102
RTVSPropertyOp33
 70
     1
102
RTVSPropertyOp34
 70
     1
102
RTVSPropertyOp35
 70
     1
102
RTVSPropertyOp36
 70
     1
102
RTVSPropertyOp37
 70
     1
102
RTVSPropertyOp38
 70
     1
102
RTVSPropertyOp39
 70
     1
102
RTVSPropertyOp40
 70
     1
102
RTVSPropertyOp41
 70
     1
102
RTVSPropertyOp42
 70
     1
102
RTVSPropertyOp43
 70
     1
102
RTVSPropertyOp44
 70
     1
102
RTVSPropertyOp45
 70
     1
102
RTVSPropertyOp46
 70
     1
102
RTVSPropertyOp47
 70
     1
102
RTVSPropertyOp48
 70
     1
102
RTVSPropertyOp49
 70
     1
102
RTVSPropertyOp50
 70
     1
102
RTVSPropertyOp51
 70
     0
102
RTVSPropertyOp52
 70
     0
102
RTVSPropertyOp53
 70
     1
102
RTVSPropertyOp54
 70
     1
102
RTVSPropertyOp55
 70
     1
102
RTVSPropertyOp56
 70
     1
102
RTVSPropertyOp57
 70
     1
102
RTVSPost2010Prop28
280
     0
102
RTVSPost2010PropOp28
 70
     1
102
RTVSPost2010Prop29
280
     1
102
RTVSPost2010PropOp29
 70
     1
102
RTVSPost2010Prop30
280
     1
102
RTVSPost2010PropOp30
 70
     1
102
RTVSPost2010Prop31
280
     0
102
RTVSPost2010PropOp31
 70
     1
102
RTVSPost2010Prop32
280
     0
102
RTVSPost2010PropOp32
 70
     1
102
RTVSPost2010Prop33
280
     0
102
RTVSPost2010PropOp33
 70
     1
102
RTVSPost2010Prop34
280
     0
102
RTVSPost2010PropOp34
 70
     1
102
RTVSPost2010Prop35
280
     0
102
RTVSPost2010PropOp35
 70
     1
102
RTVSPost2010Prop36
280
     0
102
RTVSPost2010PropOp36
 70
     1
102
RTVSPost2010Prop37
 90
       50
102
RTVSPost2010PropOp37
 70
     1
102
RTVSPost2010Prop38
140
0.0
102
RTVSPost2010PropOp38
 70
     1
102
RTVSPost2010Prop39
140
1.0
102
RTVSPost2010PropOp39
 70
     1
102
RTVSPost2010Prop40
 90
        0
102
RTVSPost2010PropOp40
 70
     1
102
RTVSPost2010Prop41ColorIndex
 90
       18
102
RTVSPost2010Prop41ColorRGB
 90
        0
102
RTVSPost2010PropOp41
 70
     1
102
RTVSPost2010Prop42
 90
       50
102
RTVSPost2010PropOp42
 70
     1
102
RTVSPost2010Prop43
 90
        3
102
RTVSPost2010PropOp43
 70
     1
102
RTVSPost2010Prop44ColorIndex
 90
        5
102
RTVSPost2010Prop44ColorRGB
 90
      255
102
RTVSPost2010PropOp44
 70
     1
102
RTVSPost2010Prop45
280
     0
102
RTVSPost2010PropOp45
 70
     1
102
RTVSPost2010Prop46
 90
       50
102
RTVSPost2010PropOp46
 70
     1
102
RTVSPost2010Prop47
 90
       50
102
RTVSPost2010PropOp47
 70
     1
102
RTVSPost2010Prop48
 90
       50
102
RTVSPost2010PropOp48
 70
     1
102
RTVSPost2010Prop49
280
     0
102
RTVSPost2010PropOp49
 70
     1
102
RTVSPost2010Prop50
 90
       50
102
RTVSPost2010PropOp50
 70
     1
102
RTVSPost2010Prop51ColorIndex
 90
      256
102
RTVSPost2010Prop51ColorRGB
 90
-16777216
102
RTVSPost2010PropOp51
 70
     0
102
RTVSPost2010Prop52
140
1.0
102
RTVSPost2010PropOp52
 70
     0
102
RTVSPost2010Prop53
 90
        2
102
RTVSPost2010PropOp53
 70
     1
102
RTVSPost2010Prop54
  1
strokes_ogs.tif
102
RTVSPost2010PropOp54
 70
     1
102
RTVSPost2010Prop55
280
     0
102
RTVSPost2010PropOp55
 70
     1
102
RTVSPost2010Prop56
140
1.0
102
RTVSPost2010PropOp56
 70
     1
102
RTVSPost2010Prop57
140
1.0
102
RTVSPost2010PropOp57
 70
     1
  0
XRECORD
  5
230
102
{ACAD_REACTORS
330
22F
102
}
330
22F
100
AcDbXrecord
280
     1
102
RTVSPropertyOp0
 70
     0
102
RTVSPropertyOp1
 70
     0
102
RTVSPropertyOp2
 70
     0
102
RTVSPropertyOp3
 70
     0
102
RTVSPropertyOp4
 70
     0
102
RTVSPropertyOp5
 70
     0
102
RTVSPropertyOp6
 70
     0
102
RTVSPropertyOp7
 70
     0
102
RTVSPropertyOp8
 70
     0
102
RTVSPropertyOp9
 70
     0
102
RTVSPropertyOp10
 70
     0
102
RTVSPropertyOp11
 70
     0
102
RTVSPropertyOp12
 70
     0
102
RTVSPropertyOp13
 70
     0
102
RTVSPropertyOp14
 70
     2
102
RTVSPropertyOp15
 70
     0
102
RTVSPropertyOp16
 70
     0
102
RTVSPropertyOp17
 70
     0
102
RTVSPropertyOp18
 70
     0
102
RTVSPropertyOp19
 70
     0
102
RTVSPropertyOp20
 70
     0
102
RTVSPropertyOp21
 70
     0
102
RTVSPropertyOp22
 70
     0
102
RTVSPropertyOp23
 70
     0
102
RTVSPropertyOp24
 70
     0
102
RTVSPropertyOp25
 70
     0
102
RTVSPropertyOp26
 70
     0
102
RTVSPropertyOp27
 70
     0
102
RTVSPropertyOp28
 70
     0
102
RTVSPropertyOp29
 70
     0
102
RTVSPropertyOp30
 70
     0
102
RTVSPropertyOp31
 70
     0
102
RTVSPropertyOp32
 70
     0
102
RTVSPropertyOp33
 70
     0
102
RTVSPropertyOp34
 70
     0
102
RTVSPropertyOp35
 70
     0
102
RTVSPropertyOp36
 70
     0
102
RTVSPropertyOp37
 70
     0
102
RTVSPropertyOp38
 70
     0
102
RTVSPropertyOp39
 70
     0
102
RTVSPropertyOp40
 70
     0
102
RTVSPropertyOp41
 70
     0
102
RTVSPropertyOp42
 70
     0
102
RTVSPropertyOp43
 70
     0
102
RTVSPropertyOp44
 70
     0
102
RTVSPropertyOp45
 70
     0
102
RTVSPropertyOp46
 70
     0
102
RTVSPropertyOp47
 70
     0
102
RTVSPropertyOp48
 70
     0
102
RTVSPropertyOp49
 70
     0
102
RTVSPropertyOp50
 70
     0
102
RTVSPropertyOp51
 70
     0
102
RTVSPropertyOp52
 70
     0
102
RTVSPropertyOp53
 70
     0
102
RTVSPropertyOp54
 70
     0
102
RTVSPropertyOp55
 70
     0
102
RTVSPropertyOp56
 70
     0
102
RTVSPropertyOp57
 70
     0
102
RTVSPost2010Prop28
280
     0
102
RTVSPost2010PropOp28
 70
     0
102
RTVSPost2010Prop29
280
     1
102
RTVSPost2010PropOp29
 70
     0
102
RTVSPost2010Prop30
280
     1
102
RTVSPost2010PropOp30
 70
     0
102
RTVSPost2010Prop31
280
     0
102
RTVSPost2010PropOp31
 70
     0
102
RTVSPost2010Prop32
280
     0
102
RTVSPost2010PropOp32
 70
     0
102
RTVSPost2010Prop33
280
     0
102
RTVSPost2010PropOp33
 70
     0
102
RTVSPost2010Prop34
280
     0
102
RTVSPost2010PropOp34
 70
     0
102
RTVSPost2010Prop35
280
     0
102
RTVSPost2010PropOp35
 70
     0
102
RTVSPost2010Prop36
280
     0
102
RTVSPost2010PropOp36
 70
     0
102
RTVSPost2010Prop37
 90
       50
102
RTVSPost2010PropOp37
 70
     0
102
RTVSPost2010Prop38
140
0.0
102
RTVSPost2010PropOp38
 70
     0
102
RTVSPost2010Prop39
140
1.0
102
RTVSPost2010PropOp39
 70
     0
102
RTVSPost2010Prop40
 90
        0
102
RTVSPost2010PropOp40
 70
     0
102
RTVSPost2010Prop41ColorIndex
 90
       18
102
RTVSPost2010Prop41ColorRGB
 90
        0
102
RTVSPost2010PropOp41
 70
     0
102
RTVSPost2010Prop42
 90
       50
102
RTVSPost2010PropOp42
 70
     0
102
RTVSPost2010Prop43
 90
        3
102
RTVSPost2010PropOp43
 70
     0
102
RTVSPost2010Prop44ColorIndex
 90
        5
102
RTVSPost2010Prop44ColorRGB
 90
      255
102
RTVSPost2010PropOp44
 70
     0
102
RTVSPost2010Prop45
280
     0
102
RTVSPost2010PropOp45
 70
     0
102
RTVSPost2010Prop46
 90
       50
102
RTVSPost2010PropOp46
 70
     0
102
RTVSPost2010Prop47
 90
       50
102
RTVSPost2010PropOp47
 70
     0
102
RTVSPost2010Prop48
 90
       50
102
RTVSPost2010PropOp48
 70
     0
102
RTVSPost2010Prop49
280
     0
102
RTVSPost2010PropOp49
 70
     0
102
RTVSPost2010Prop50
 90
       50
102
RTVSPost2010PropOp50
 70
     0
102
RTVSPost2010Prop51ColorIndex
 90
      256
102
RTVSPost2010Prop51ColorRGB
 90
-16777216
102
RTVSPost2010PropOp51
 70
     0
102
RTVSPost2010Prop52
140
1.0
102
RTVSPost2010PropOp52
 70
     0
102
RTVSPost2010Prop53
 90
        2
102
RTVSPost2010PropOp53
 70
     0
102
RTVSPost2010Prop54
  1
strokes_ogs.tif
102
RTVSPost2010PropOp54
 70
     0
102
RTVSPost2010Prop55
280
     0
102
RTVSPost2010PropOp55
 70
     0
102
RTVSPost2010Prop56
140
1.0
102
RTVSPost2010PropOp56
 70
     0
102
RTVSPost2010Prop57
140
1.0
102
RTVSPost2010PropOp57
 70
     0
  0
XRECORD
  5
228
102
{ACAD_REACTORS
330
227
102
}
330
227
100
AcDbXrecord
280
     1
102
RTVSPropertyOp0
 70
     1
102
RTVSPropertyOp1
 70
     1
102
RTVSPropertyOp2
 70
     1
102
RTVSPropertyOp3
 70
     1
102
RTVSPropertyOp4
 70
     1
102
RTVSPropertyOp5
 70
     1
102
RTVSPropertyOp6
 70
     1
102
RTVSPropertyOp7
 70
     1
102
RTVSPropertyOp8
 70
     1
102
RTVSPropertyOp9
 70
     1
102
RTVSPropertyOp10
 70
     1
102
RTVSPropertyOp11
 70
     1
102
RTVSPropertyOp12
 70
     1
102
RTVSPropertyOp13
 70
     1
102
RTVSPropertyOp14
 70
     1
102
RTVSPropertyOp15
 70
     1
102
RTVSPropertyOp16
 70
     1
102
RTVSPropertyOp17
 70
     1
102
RTVSPropertyOp18
 70
     1
102
RTVSPropertyOp19
 70
     1
102
RTVSPropertyOp20
 70
     1
102
RTVSPropertyOp21
 70
     1
102
RTVSPropertyOp22
 70
     1
102
RTVSPropertyOp23
 70
     1
102
RTVSPropertyOp24
 70
     1
102
RTVSPropertyOp25
 70
     1
102
RTVSPropertyOp26
 70
     1
102
RTVSPropertyOp27
 70
     1
102
RTVSPropertyOp28
 70
     1
102
RTVSPropertyOp29
 70
     1
102
RTVSPropertyOp30
 70
     1
102
RTVSPropertyOp31
 70
     1
102
RTVSPropertyOp32
 70
     1
102
RTVSPropertyOp33
 70
     1
102
RTVSPropertyOp34
 70
     1
102
RTVSPropertyOp35
 70
     1
102
RTVSPropertyOp36
 70
     1
102
RTVSPropertyOp37
 70
     1
102
RTVSPropertyOp38
 70
     1
102
RTVSPropertyOp39
 70
     1
102
RTVSPropertyOp40
 70
     1
102
RTVSPropertyOp41
 70
     1
102
RTVSPropertyOp42
 70
     1
102
RTVSPropertyOp43
 70
     1
102
RTVSPropertyOp44
 70
     1
102
RTVSPropertyOp45
 70
     1
102
RTVSPropertyOp46
 70
     1
102
RTVSPropertyOp47
 70
     1
102
RTVSPropertyOp48
 70
     1
102
RTVSPropertyOp49
 70
     1
102
RTVSPropertyOp50
 70
     1
102
RTVSPropertyOp51
 70
     0
102
RTVSPropertyOp52
 70
     0
102
RTVSPropertyOp53
 70
     1
102
RTVSPropertyOp54
 70
     1
102
RTVSPropertyOp55
 70
     1
102
RTVSPropertyOp56
 70
     1
102
RTVSPropertyOp57
 70
     1
102
RTVSPost2010Prop28
280
     0
102
RTVSPost2010PropOp28
 70
     1
102
RTVSPost2010Prop29
280
     1
102
RTVSPost2010PropOp29
 70
     1
102
RTVSPost2010Prop30
280
     1
102
RTVSPost2010PropOp30
 70
     1
102
RTVSPost2010Prop31
280
     0
102
RTVSPost2010PropOp31
 70
     1
102
RTVSPost2010Prop32
280
     0
102
RTVSPost2010PropOp32
 70
     1
102
RTVSPost2010Prop33
280
     0
102
RTVSPost2010PropOp33
 70
     1
102
RTVSPost2010Prop34
280
     0
102
RTVSPost2010PropOp34
 70
     1
102
RTVSPost2010Prop35
280
     0
102
RTVSPost2010PropOp35
 70
     1
102
RTVSPost2010Prop36
280
     0
102
RTVSPost2010PropOp36
 70
     1
102
RTVSPost2010Prop37
 90
       50
102
RTVSPost2010PropOp37
 70
     1
102
RTVSPost2010Prop38
140
0.0
102
RTVSPost2010PropOp38
 70
     1
102
RTVSPost2010Prop39
140
1.0
102
RTVSPost2010PropOp39
 70
     1
102
RTVSPost2010Prop40
 90
        0
102
RTVSPost2010PropOp40
 70
     1
102
RTVSPost2010Prop41ColorIndex
 90
       18
102
RTVSPost2010Prop41ColorRGB
 90
        0
102
RTVSPost2010PropOp41
 70
     1
102
RTVSPost2010Prop42
 90
       50
102
RTVSPost2010PropOp42
 70
     1
102
RTVSPost2010Prop43
 90
        3
102
RTVSPost2010PropOp43
 70
     1
102
RTVSPost2010Prop44ColorIndex
 90
        5
102
RTVSPost2010Prop44ColorRGB
 90
      255
102
RTVSPost2010PropOp44
 70
     1
102
RTVSPost2010Prop45
280
     0
102
RTVSPost2010PropOp45
 70
     1
102
RTVSPost2010Prop46
 90
       50
102
RTVSPost2010PropOp46
 70
     1
102
RTVSPost2010Prop47
 90
       50
102
RTVSPost2010PropOp47
 70
     1
102
RTVSPost2010Prop48
 90
       50
102
RTVSPost2010PropOp48
 70
     1
102
RTVSPost2010Prop49
280
     0
102
RTVSPost2010PropOp49
 70
     1
102
RTVSPost2010Prop50
 90
       50
102
RTVSPost2010PropOp50
 70
     1
102
RTVSPost2010Prop51ColorIndex
 90
      256
102
RTVSPost2010Prop51ColorRGB
 90
-16777216
102
RTVSPost2010PropOp51
 70
     0
102
RTVSPost2010Prop52
140
1.0
102
RTVSPost2010PropOp52
 70
     0
102
RTVSPost2010Prop53
 90
        2
102
RTVSPost2010PropOp53
 70
     1
102
RTVSPost2010Prop54
  1
strokes_ogs.tif
102
RTVSPost2010PropOp54
 70
     1
102
RTVSPost2010Prop55
280
     0
102
RTVSPost2010PropOp55
 70
     1
102
RTVSPost2010Prop56
140
1.0
102
RTVSPost2010PropOp56
 70
     1
102
RTVSPost2010Prop57
140
1.0
102
RTVSPost2010PropOp57
 70
     1
  0
XRECORD
  5
20C
102
{ACAD_REACTORS
330
20B
102
}
330
20B
100
AcDbXrecord
280
     1
102
RTVSPropertyOp0
 70
     1
102
RTVSPropertyOp1
 70
     1
102
RTVSPropertyOp2
 70
     1
102
RTVSPropertyOp3
 70
     1
102
RTVSPropertyOp4
 70
     1
102
RTVSPropertyOp5
 70
     1
102
RTVSPropertyOp6
 70
     1
102
RTVSPropertyOp7
 70
     1
102
RTVSPropertyOp8
 70
     1
102
RTVSPropertyOp9
 70
     1
102
RTVSPropertyOp10
 70
     1
102
RTVSPropertyOp11
 70
     1
102
RTVSPropertyOp12
 70
     1
102
RTVSPropertyOp13
 70
     1
102
RTVSPropertyOp14
 70
     1
102
RTVSPropertyOp15
 70
     1
102
RTVSPropertyOp16
 70
     1
102
RTVSPropertyOp17
 70
     1
102
RTVSPropertyOp18
 70
     1
102
RTVSPropertyOp19
 70
     1
102
RTVSPropertyOp20
 70
     1
102
RTVSPropertyOp21
 70
     1
102
RTVSPropertyOp22
 70
     1
102
RTVSPropertyOp23
 70
     1
102
RTVSPropertyOp24
 70
     1
102
RTVSPropertyOp25
 70
     1
102
RTVSPropertyOp26
 70
     1
102
RTVSPropertyOp27
 70
     1
102
RTVSPropertyOp28
 70
     1
102
RTVSPropertyOp29
 70
     1
102
RTVSPropertyOp30
 70
     1
102
RTVSPropertyOp31
 70
     1
102
RTVSPropertyOp32
 70
     1
102
RTVSPropertyOp33
 70
     1
102
RTVSPropertyOp34
 70
     1
102
RTVSPropertyOp35
 70
     1
102
RTVSPropertyOp36
 70
     1
102
RTVSPropertyOp37
 70
     1
102
RTVSPropertyOp38
 70
     1
102
RTVSPropertyOp39
 70
     1
102
RTVSPropertyOp40
 70
     1
102
RTVSPropertyOp41
 70
     1
102
RTVSPropertyOp42
 70
     1
102
RTVSPropertyOp43
 70
     1
102
RTVSPropertyOp44
 70
     1
102
RTVSPropertyOp45
 70
     1
102
RTVSPropertyOp46
 70
     1
102
RTVSPropertyOp47
 70
     1
102
RTVSPropertyOp48
 70
     1
102
RTVSPropertyOp49
 70
     1
102
RTVSPropertyOp50
 70
     1
102
RTVSPropertyOp51
 70
     0
102
RTVSPropertyOp52
 70
     0
102
RTVSPropertyOp53
 70
     1
102
RTVSPropertyOp54
 70
     1
102
RTVSPropertyOp55
 70
     1
102
RTVSPropertyOp56
 70
     1
102
RTVSPropertyOp57
 70
     1
102
RTVSPost2010Prop28
280
     0
102
RTVSPost2010PropOp28
 70
     1
102
RTVSPost2010Prop29
280
     1
102
RTVSPost2010PropOp29
 70
     1
102
RTVSPost2010Prop30
280
     1
102
RTVSPost2010PropOp30
 70
     1
102
RTVSPost2010Prop31
280
     0
102
RTVSPost2010PropOp31
 70
     1
102
RTVSPost2010Prop32
280
     0
102
RTVSPost2010PropOp32
 70
     1
102
RTVSPost2010Prop33
280
     0
102
RTVSPost2010PropOp33
 70
     1
102
RTVSPost2010Prop34
280
     0
102
RTVSPost2010PropOp34
 70
     1
102
RTVSPost2010Prop35
280
     0
102
RTVSPost2010PropOp35
 70
     1
102
RTVSPost2010Prop36
280
     0
102
RTVSPost2010PropOp36
 70
     1
102
RTVSPost2010Prop37
 90
       50
102
RTVSPost2010PropOp37
 70
     1
102
RTVSPost2010Prop38
140
0.0
102
RTVSPost2010PropOp38
 70
     1
102
RTVSPost2010Prop39
140
1.0
102
RTVSPost2010PropOp39
 70
     1
102
RTVSPost2010Prop40
 90
        0
102
RTVSPost2010PropOp40
 70
     1
102
RTVSPost2010Prop41ColorIndex
 90
       18
102
RTVSPost2010Prop41ColorRGB
 90
        0
102
RTVSPost2010PropOp41
 70
     1
102
RTVSPost2010Prop42
 90
       50
102
RTVSPost2010PropOp42
 70
     1
102
RTVSPost2010Prop43
 90
        3
102
RTVSPost2010PropOp43
 70
     1
102
RTVSPost2010Prop44ColorIndex
 90
        5
102
RTVSPost2010Prop44ColorRGB
 90
      255
102
RTVSPost2010PropOp44
 70
     1
102
RTVSPost2010Prop45
280
     0
102
RTVSPost2010PropOp45
 70
     1
102
RTVSPost2010Prop46
 90
       50
102
RTVSPost2010PropOp46
 70
     1
102
RTVSPost2010Prop47
 90
       50
102
RTVSPost2010PropOp47
 70
     1
102
RTVSPost2010Prop48
 90
       50
102
RTVSPost2010PropOp48
 70
     1
102
RTVSPost2010Prop49
280
     0
102
RTVSPost2010PropOp49
 70
     1
102
RTVSPost2010Prop50
 90
       50
102
RTVSPost2010PropOp50
 70
     1
102
RTVSPost2010Prop51ColorIndex
 90
      256
102
RTVSPost2010Prop51ColorRGB
 90
-16777216
102
RTVSPost2010PropOp51
 70
     0
102
RTVSPost2010Prop52
140
1.0
102
RTVSPost2010PropOp52
 70
     0
102
RTVSPost2010Prop53
 90
        2
102
RTVSPost2010PropOp53
 70
     1
102
RTVSPost2010Prop54
  1
strokes_ogs.tif
102
RTVSPost2010PropOp54
 70
     1
102
RTVSPost2010Prop55
280
     0
102
RTVSPost2010PropOp55
 70
     1
102
RTVSPost2010Prop56
140
1.0
102
RTVSPost2010PropOp56
 70
     1
102
RTVSPost2010Prop57
140
1.0
102
RTVSPost2010PropOp57
 70
     1
  0
XRECORD
  5
20E
102
{ACAD_REACTORS
330
20D
102
}
330
20D
100
AcDbXrecord
280
     1
102
RTVSPropertyOp0
 70
     1
102
RTVSPropertyOp1
 70
     1
102
RTVSPropertyOp2
 70
     1
102
RTVSPropertyOp3
 70
     1
102
RTVSPropertyOp4
 70
     1
102
RTVSPropertyOp5
 70
     1
102
RTVSPropertyOp6
 70
     1
102
RTVSPropertyOp7
 70
     1
102
RTVSPropertyOp8
 70
     1
102
RTVSPropertyOp9
 70
     1
102
RTVSPropertyOp10
 70
     1
102
RTVSPropertyOp11
 70
     1
102
RTVSPropertyOp12
 70
     1
102
RTVSPropertyOp13
 70
     1
102
RTVSPropertyOp14
 70
     1
102
RTVSPropertyOp15
 70
     1
102
RTVSPropertyOp16
 70
     1
102
RTVSPropertyOp17
 70
     1
102
RTVSPropertyOp18
 70
     1
102
RTVSPropertyOp19
 70
     1
102
RTVSPropertyOp20
 70
     1
102
RTVSPropertyOp21
 70
     1
102
RTVSPropertyOp22
 70
     1
102
RTVSPropertyOp23
 70
     1
102
RTVSPropertyOp24
 70
     1
102
RTVSPropertyOp25
 70
     1
102
RTVSPropertyOp26
 70
     1
102
RTVSPropertyOp27
 70
     1
102
RTVSPropertyOp28
 70
     1
102
RTVSPropertyOp29
 70
     1
102
RTVSPropertyOp30
 70
     1
102
RTVSPropertyOp31
 70
     1
102
RTVSPropertyOp32
 70
     1
102
RTVSPropertyOp33
 70
     1
102
RTVSPropertyOp34
 70
     1
102
RTVSPropertyOp35
 70
     1
102
RTVSPropertyOp36
 70
     1
102
RTVSPropertyOp37
 70
     1
102
RTVSPropertyOp38
 70
     1
102
RTVSPropertyOp39
 70
     1
102
RTVSPropertyOp40
 70
     1
102
RTVSPropertyOp41
 70
     1
102
RTVSPropertyOp42
 70
     1
102
RTVSPropertyOp43
 70
     1
102
RTVSPropertyOp44
 70
     1
102
RTVSPropertyOp45
 70
     1
102
RTVSPropertyOp46
 70
     1
102
RTVSPropertyOp47
 70
     1
102
RTVSPropertyOp48
 70
     1
102
RTVSPropertyOp49
 70
     1
102
RTVSPropertyOp50
 70
     1
102
RTVSPropertyOp51
 70
     0
102
RTVSPropertyOp52
 70
     0
102
RTVSPropertyOp53
 70
     1
102
RTVSPropertyOp54
 70
     1
102
RTVSPropertyOp55
 70
     1
102
RTVSPropertyOp56
 70
     1
102
RTVSPropertyOp57
 70
     1
102
RTVSPost2010Prop28
280
     0
102
RTVSPost2010PropOp28
 70
     1
102
RTVSPost2010Prop29
280
     1
102
RTVSPost2010PropOp29
 70
     1
102
RTVSPost2010Prop30
280
     1
102
RTVSPost2010PropOp30
 70
     1
102
RTVSPost2010Prop31
280
     0
102
RTVSPost2010PropOp31
 70
     1
102
RTVSPost2010Prop32
280
     0
102
RTVSPost2010PropOp32
 70
     1
102
RTVSPost2010Prop33
280
     0
102
RTVSPost2010PropOp33
 70
     1
102
RTVSPost2010Prop34
280
     0
102
RTVSPost2010PropOp34
 70
     1
102
RTVSPost2010Prop35
280
     0
102
RTVSPost2010PropOp35
 70
     1
102
RTVSPost2010Prop36
280
     0
102
RTVSPost2010PropOp36
 70
     1
102
RTVSPost2010Prop37
 90
       50
102
RTVSPost2010PropOp37
 70
     1
102
RTVSPost2010Prop38
140
0.0
102
RTVSPost2010PropOp38
 70
     1
102
RTVSPost2010Prop39
140
1.0
102
RTVSPost2010PropOp39
 70
     1
102
RTVSPost2010Prop40
 90
        0
102
RTVSPost2010PropOp40
 70
     1
102
RTVSPost2010Prop41ColorIndex
 90
       18
102
RTVSPost2010Prop41ColorRGB
 90
        0
102
RTVSPost2010PropOp41
 70
     1
102
RTVSPost2010Prop42
 90
       50
102
RTVSPost2010PropOp42
 70
     1
102
RTVSPost2010Prop43
 90
        3
102
RTVSPost2010PropOp43
 70
     1
102
RTVSPost2010Prop44ColorIndex
 90
        5
102
RTVSPost2010Prop44ColorRGB
 90
      255
102
RTVSPost2010PropOp44
 70
     1
102
RTVSPost2010Prop45
280
     0
102
RTVSPost2010PropOp45
 70
     1
102
RTVSPost2010Prop46
 90
       50
102
RTVSPost2010PropOp46
 70
     1
102
RTVSPost2010Prop47
 90
       50
102
RTVSPost2010PropOp47
 70
     1
102
RTVSPost2010Prop48
 90
       50
102
RTVSPost2010PropOp48
 70
     1
102
RTVSPost2010Prop49
280
     0
102
RTVSPost2010PropOp49
 70
     1
102
RTVSPost2010Prop50
 90
       50
102
RTVSPost2010PropOp50
 70
     1
102
RTVSPost2010Prop51ColorIndex
 90
      256
102
RTVSPost2010Prop51ColorRGB
 90
-16777216
102
RTVSPost2010PropOp51
 70
     0
102
RTVSPost2010Prop52
140
1.0
102
RTVSPost2010PropOp52
 70
     0
102
RTVSPost2010Prop53
 90
        2
102
RTVSPost2010PropOp53
 70
     1
102
RTVSPost2010Prop54
  1
strokes_ogs.tif
102
RTVSPost2010PropOp54
 70
     1
102
RTVSPost2010Prop55
280
     0
102
RTVSPost2010PropOp55
 70
     1
102
RTVSPost2010Prop56
140
1.0
102
RTVSPost2010PropOp56
 70
     1
102
RTVSPost2010Prop57
140
1.0
102
RTVSPost2010PropOp57
 70
     1
  0
XRECORD
  5
210
102
{ACAD_REACTORS
330
20F
102
}
330
20F
100
AcDbXrecord
280
     1
102
RTVSPropertyOp0
 70
     1
102
RTVSPropertyOp1
 70
     1
102
RTVSPropertyOp2
 70
     1
102
RTVSPropertyOp3
 70
     1
102
RTVSPropertyOp4
 70
     1
102
RTVSPropertyOp5
 70
     1
102
RTVSPropertyOp6
 70
     1
102
RTVSPropertyOp7
 70
     1
102
RTVSPropertyOp8
 70
     1
102
RTVSPropertyOp9
 70
     1
102
RTVSPropertyOp10
 70
     1
102
RTVSPropertyOp11
 70
     1
102
RTVSPropertyOp12
 70
     1
102
RTVSPropertyOp13
 70
     1
102
RTVSPropertyOp14
 70
     1
102
RTVSPropertyOp15
 70
     1
102
RTVSPropertyOp16
 70
     1
102
RTVSPropertyOp17
 70
     1
102
RTVSPropertyOp18
 70
     1
102
RTVSPropertyOp19
 70
     1
102
RTVSPropertyOp20
 70
     1
102
RTVSPropertyOp21
 70
     1
102
RTVSPropertyOp22
 70
     1
102
RTVSPropertyOp23
 70
     1
102
RTVSPropertyOp24
 70
     1
102
RTVSPropertyOp25
 70
     1
102
RTVSPropertyOp26
 70
     1
102
RTVSPropertyOp27
 70
     1
102
RTVSPropertyOp28
 70
     1
102
RTVSPropertyOp29
 70
     1
102
RTVSPropertyOp30
 70
     1
102
RTVSPropertyOp31
 70
     1
102
RTVSPropertyOp32
 70
     1
102
RTVSPropertyOp33
 70
     1
102
RTVSPropertyOp34
 70
     1
102
RTVSPropertyOp35
 70
     1
102
RTVSPropertyOp36
 70
     1
102
RTVSPropertyOp37
 70
     1
102
RTVSPropertyOp38
 70
     1
102
RTVSPropertyOp39
 70
     1
102
RTVSPropertyOp40
 70
     1
102
RTVSPropertyOp41
 70
     1
102
RTVSPropertyOp42
 70
     1
102
RTVSPropertyOp43
 70
     1
102
RTVSPropertyOp44
 70
     1
102
RTVSPropertyOp45
 70
     1
102
RTVSPropertyOp46
 70
     1
102
RTVSPropertyOp47
 70
     1
102
RTVSPropertyOp48
 70
     1
102
RTVSPropertyOp49
 70
     1
102
RTVSPropertyOp50
 70
     1
102
RTVSPropertyOp51
 70
     0
102
RTVSPropertyOp52
 70
     0
102
RTVSPropertyOp53
 70
     1
102
RTVSPropertyOp54
 70
     1
102
RTVSPropertyOp55
 70
     1
102
RTVSPropertyOp56
 70
     1
102
RTVSPropertyOp57
 70
     1
102
RTVSPost2010Prop28
280
     0
102
RTVSPost2010PropOp28
 70
     1
102
RTVSPost2010Prop29
280
     1
102
RTVSPost2010PropOp29
 70
     1
102
RTVSPost2010Prop30
280
     1
102
RTVSPost2010PropOp30
 70
     1
102
RTVSPost2010Prop31
280
     0
102
RTVSPost2010PropOp31
 70
     1
102
RTVSPost2010Prop32
280
     0
102
RTVSPost2010PropOp32
 70
     1
102
RTVSPost2010Prop33
280
     0
102
RTVSPost2010PropOp33
 70
     1
102
RTVSPost2010Prop34
280
     0
102
RTVSPost2010PropOp34
 70
     1
102
RTVSPost2010Prop35
280
     0
102
RTVSPost2010PropOp35
 70
     1
102
RTVSPost2010Prop36
280
     0
102
RTVSPost2010PropOp36
 70
     1
102
RTVSPost2010Prop37
 90
       50
102
RTVSPost2010PropOp37
 70
     1
102
RTVSPost2010Prop38
140
0.0
102
RTVSPost2010PropOp38
 70
     1
102
RTVSPost2010Prop39
140
1.0
102
RTVSPost2010PropOp39
 70
     1
102
RTVSPost2010Prop40
 90
        0
102
RTVSPost2010PropOp40
 70
     1
102
RTVSPost2010Prop41ColorIndex
 90
       18
102
RTVSPost2010Prop41ColorRGB
 90
        0
102
RTVSPost2010PropOp41
 70
     1
102
RTVSPost2010Prop42
 90
       50
102
RTVSPost2010PropOp42
 70
     1
102
RTVSPost2010Prop43
 90
        3
102
RTVSPost2010PropOp43
 70
     1
102
RTVSPost2010Prop44ColorIndex
 90
        5
102
RTVSPost2010Prop44ColorRGB
 90
      255
102
RTVSPost2010PropOp44
 70
     1
102
RTVSPost2010Prop45
280
     0
102
RTVSPost2010PropOp45
 70
     1
102
RTVSPost2010Prop46
 90
       50
102
RTVSPost2010PropOp46
 70
     1
102
RTVSPost2010Prop47
 90
       50
102
RTVSPost2010PropOp47
 70
     1
102
RTVSPost2010Prop48
 90
       50
102
RTVSPost2010PropOp48
 70
     1
102
RTVSPost2010Prop49
280
     0
102
RTVSPost2010PropOp49
 70
     1
102
RTVSPost2010Prop50
 90
       50
102
RTVSPost2010PropOp50
 70
     1
102
RTVSPost2010Prop51ColorIndex
 90
      256
102
RTVSPost2010Prop51ColorRGB
 90
-16777216
102
RTVSPost2010PropOp51
 70
     0
102
RTVSPost2010Prop52
140
1.0
102
RTVSPost2010PropOp52
 70
     0
102
RTVSPost2010Prop53
 90
        2
102
RTVSPost2010PropOp53
 70
     1
102
RTVSPost2010Prop54
  1
strokes_ogs.tif
102
RTVSPost2010PropOp54
 70
     1
102
RTVSPost2010Prop55
280
     0
102
RTVSPost2010PropOp55
 70
     1
102
RTVSPost2010Prop56
140
1.0
102
RTVSPost2010PropOp56
 70
     1
102
RTVSPost2010Prop57
140
1.0
102
RTVSPost2010PropOp57
 70
     1
  0
XRECORD
  5
212
102
{ACAD_REACTORS
330
211
102
}
330
211
100
AcDbXrecord
280
     1
102
RTVSPropertyOp0
 70
     1
102
RTVSPropertyOp1
 70
     1
102
RTVSPropertyOp2
 70
     1
102
RTVSPropertyOp3
 70
     1
102
RTVSPropertyOp4
 70
     1
102
RTVSPropertyOp5
 70
     1
102
RTVSPropertyOp6
 70
     1
102
RTVSPropertyOp7
 70
     1
102
RTVSPropertyOp8
 70
     1
102
RTVSPropertyOp9
 70
     1
102
RTVSPropertyOp10
 70
     1
102
RTVSPropertyOp11
 70
     1
102
RTVSPropertyOp12
 70
     1
102
RTVSPropertyOp13
 70
     1
102
RTVSPropertyOp14
 70
     1
102
RTVSPropertyOp15
 70
     1
102
RTVSPropertyOp16
 70
     1
102
RTVSPropertyOp17
 70
     1
102
RTVSPropertyOp18
 70
     1
102
RTVSPropertyOp19
 70
     1
102
RTVSPropertyOp20
 70
     1
102
RTVSPropertyOp21
 70
     1
102
RTVSPropertyOp22
 70
     1
102
RTVSPropertyOp23
 70
     1
102
RTVSPropertyOp24
 70
     1
102
RTVSPropertyOp25
 70
     1
102
RTVSPropertyOp26
 70
     1
102
RTVSPropertyOp27
 70
     1
102
RTVSPropertyOp28
 70
     1
102
RTVSPropertyOp29
 70
     1
102
RTVSPropertyOp30
 70
     1
102
RTVSPropertyOp31
 70
     1
102
RTVSPropertyOp32
 70
     1
102
RTVSPropertyOp33
 70
     1
102
RTVSPropertyOp34
 70
     1
102
RTVSPropertyOp35
 70
     1
102
RTVSPropertyOp36
 70
     1
102
RTVSPropertyOp37
 70
     1
102
RTVSPropertyOp38
 70
     1
102
RTVSPropertyOp39
 70
     1
102
RTVSPropertyOp40
 70
     1
102
RTVSPropertyOp41
 70
     1
102
RTVSPropertyOp42
 70
     1
102
RTVSPropertyOp43
 70
     1
102
RTVSPropertyOp44
 70
     1
102
RTVSPropertyOp45
 70
     1
102
RTVSPropertyOp46
 70
     1
102
RTVSPropertyOp47
 70
     1
102
RTVSPropertyOp48
 70
     1
102
RTVSPropertyOp49
 70
     1
102
RTVSPropertyOp50
 70
     1
102
RTVSPropertyOp51
 70
     0
102
RTVSPropertyOp52
 70
     0
102
RTVSPropertyOp53
 70
     1
102
RTVSPropertyOp54
 70
     1
102
RTVSPropertyOp55
 70
     1
102
RTVSPropertyOp56
 70
     1
102
RTVSPropertyOp57
 70
     1
102
RTVSPost2010Prop28
280
     0
102
RTVSPost2010PropOp28
 70
     1
102
RTVSPost2010Prop29
280
     1
102
RTVSPost2010PropOp29
 70
     1
102
RTVSPost2010Prop30
280
     1
102
RTVSPost2010PropOp30
 70
     1
102
RTVSPost2010Prop31
280
     0
102
RTVSPost2010PropOp31
 70
     1
102
RTVSPost2010Prop32
280
     0
102
RTVSPost2010PropOp32
 70
     1
102
RTVSPost2010Prop33
280
     0
102
RTVSPost2010PropOp33
 70
     1
102
RTVSPost2010Prop34
280
     0
102
RTVSPost2010PropOp34
 70
     1
102
RTVSPost2010Prop35
280
     0
102
RTVSPost2010PropOp35
 70
     1
102
RTVSPost2010Prop36
280
     0
102
RTVSPost2010PropOp36
 70
     1
102
RTVSPost2010Prop37
 90
       50
102
RTVSPost2010PropOp37
 70
     1
102
RTVSPost2010Prop38
140
0.0
102
RTVSPost2010PropOp38
 70
     1
102
RTVSPost2010Prop39
140
1.0
102
RTVSPost2010PropOp39
 70
     1
102
RTVSPost2010Prop40
 90
        0
102
RTVSPost2010PropOp40
 70
     1
102
RTVSPost2010Prop41ColorIndex
 90
       18
102
RTVSPost2010Prop41ColorRGB
 90
        0
102
RTVSPost2010PropOp41
 70
     1
102
RTVSPost2010Prop42
 90
       50
102
RTVSPost2010PropOp42
 70
     1
102
RTVSPost2010Prop43
 90
        3
102
RTVSPost2010PropOp43
 70
     1
102
RTVSPost2010Prop44ColorIndex
 90
        5
102
RTVSPost2010Prop44ColorRGB
 90
      255
102
RTVSPost2010PropOp44
 70
     1
102
RTVSPost2010Prop45
280
     0
102
RTVSPost2010PropOp45
 70
     1
102
RTVSPost2010Prop46
 90
       50
102
RTVSPost2010PropOp46
 70
     1
102
RTVSPost2010Prop47
 90
       50
102
RTVSPost2010PropOp47
 70
     1
102
RTVSPost2010Prop48
 90
       50
102
RTVSPost2010PropOp48
 70
     1
102
RTVSPost2010Prop49
280
     0
102
RTVSPost2010PropOp49
 70
     1
102
RTVSPost2010Prop50
 90
       50
102
RTVSPost2010PropOp50
 70
     1
102
RTVSPost2010Prop51ColorIndex
 90
      256
102
RTVSPost2010Prop51ColorRGB
 90
-16777216
102
RTVSPost2010PropOp51
 70
     0
102
RTVSPost2010Prop52
140
1.0
102
RTVSPost2010PropOp52
 70
     0
102
RTVSPost2010Prop53
 90
        2
102
RTVSPost2010PropOp53
 70
     1
102
RTVSPost2010Prop54
  1
strokes_ogs.tif
102
RTVSPost2010PropOp54
 70
     1
102
RTVSPost2010Prop55
280
     0
102
RTVSPost2010PropOp55
 70
     1
102
RTVSPost2010Prop56
140
1.0
102
RTVSPost2010PropOp56
 70
     1
102
RTVSPost2010Prop57
140
1.0
102
RTVSPost2010PropOp57
 70
     1
  0
XRECORD
  5
218
102
{ACAD_REACTORS
330
217
102
}
330
217
100
AcDbXrecord
280
     1
102
RTVSPropertyOp0
 70
     1
102
RTVSPropertyOp1
 70
     1
102
RTVSPropertyOp2
 70
     1
102
RTVSPropertyOp3
 70
     1
102
RTVSPropertyOp4
 70
     1
102
RTVSPropertyOp5
 70
     1
102
RTVSPropertyOp6
 70
     1
102
RTVSPropertyOp7
 70
     1
102
RTVSPropertyOp8
 70
     1
102
RTVSPropertyOp9
 70
     1
102
RTVSPropertyOp10
 70
     1
102
RTVSPropertyOp11
 70
     1
102
RTVSPropertyOp12
 70
     1
102
RTVSPropertyOp13
 70
     1
102
RTVSPropertyOp14
 70
     1
102
RTVSPropertyOp15
 70
     1
102
RTVSPropertyOp16
 70
     1
102
RTVSPropertyOp17
 70
     1
102
RTVSPropertyOp18
 70
     1
102
RTVSPropertyOp19
 70
     1
102
RTVSPropertyOp20
 70
     1
102
RTVSPropertyOp21
 70
     1
102
RTVSPropertyOp22
 70
     1
102
RTVSPropertyOp23
 70
     1
102
RTVSPropertyOp24
 70
     1
102
RTVSPropertyOp25
 70
     1
102
RTVSPropertyOp26
 70
     1
102
RTVSPropertyOp27
 70
     1
102
RTVSPropertyOp28
 70
     1
102
RTVSPropertyOp29
 70
     1
102
RTVSPropertyOp30
 70
     1
102
RTVSPropertyOp31
 70
     1
102
RTVSPropertyOp32
 70
     1
102
RTVSPropertyOp33
 70
     1
102
RTVSPropertyOp34
 70
     1
102
RTVSPropertyOp35
 70
     1
102
RTVSPropertyOp36
 70
     1
102
RTVSPropertyOp37
 70
     1
102
RTVSPropertyOp38
 70
     1
102
RTVSPropertyOp39
 70
     1
102
RTVSPropertyOp40
 70
     1
102
RTVSPropertyOp41
 70
     1
102
RTVSPropertyOp42
 70
     1
102
RTVSPropertyOp43
 70
     1
102
RTVSPropertyOp44
 70
     1
102
RTVSPropertyOp45
 70
     1
102
RTVSPropertyOp46
 70
     1
102
RTVSPropertyOp47
 70
     1
102
RTVSPropertyOp48
 70
     1
102
RTVSPropertyOp49
 70
     1
102
RTVSPropertyOp50
 70
     1
102
RTVSPropertyOp51
 70
     0
102
RTVSPropertyOp52
 70
     0
102
RTVSPropertyOp53
 70
     1
102
RTVSPropertyOp54
 70
     1
102
RTVSPropertyOp55
 70
     1
102
RTVSPropertyOp56
 70
     1
102
RTVSPropertyOp57
 70
     1
102
RTVSPost2010Prop28
280
     0
102
RTVSPost2010PropOp28
 70
     1
102
RTVSPost2010Prop29
280
     1
102
RTVSPost2010PropOp29
 70
     1
102
RTVSPost2010Prop30
280
     1
102
RTVSPost2010PropOp30
 70
     1
102
RTVSPost2010Prop31
280
     0
102
RTVSPost2010PropOp31
 70
     1
102
RTVSPost2010Prop32
280
     0
102
RTVSPost2010PropOp32
 70
     1
102
RTVSPost2010Prop33
280
     0
102
RTVSPost2010PropOp33
 70
     1
102
RTVSPost2010Prop34
280
     0
102
RTVSPost2010PropOp34
 70
     1
102
RTVSPost2010Prop35
280
     0
102
RTVSPost2010PropOp35
 70
     1
102
RTVSPost2010Prop36
280
     0
102
RTVSPost2010PropOp36
 70
     1
102
RTVSPost2010Prop37
 90
       50
102
RTVSPost2010PropOp37
 70
     1
102
RTVSPost2010Prop38
140
0.0
102
RTVSPost2010PropOp38
 70
     1
102
RTVSPost2010Prop39
140
1.0
102
RTVSPost2010PropOp39
 70
     1
102
RTVSPost2010Prop40
 90
        0
102
RTVSPost2010PropOp40
 70
     1
102
RTVSPost2010Prop41ColorIndex
 90
       18
102
RTVSPost2010Prop41ColorRGB
 90
        0
102
RTVSPost2010PropOp41
 70
     1
102
RTVSPost2010Prop42
 90
       50
102
RTVSPost2010PropOp42
 70
     1
102
RTVSPost2010Prop43
 90
        3
102
RTVSPost2010PropOp43
 70
     1
102
RTVSPost2010Prop44ColorIndex
 90
        5
102
RTVSPost2010Prop44ColorRGB
 90
      255
102
RTVSPost2010PropOp44
 70
     1
102
RTVSPost2010Prop45
280
     0
102
RTVSPost2010PropOp45
 70
     1
102
RTVSPost2010Prop46
 90
       50
102
RTVSPost2010PropOp46
 70
     1
102
RTVSPost2010Prop47
 90
       50
102
RTVSPost2010PropOp47
 70
     1
102
RTVSPost2010Prop48
 90
       50
102
RTVSPost2010PropOp48
 70
     1
102
RTVSPost2010Prop49
280
     0
102
RTVSPost2010PropOp49
 70
     1
102
RTVSPost2010Prop50
 90
       50
102
RTVSPost2010PropOp50
 70
     1
102
RTVSPost2010Prop51ColorIndex
 90
      256
102
RTVSPost2010Prop51ColorRGB
 90
-16777216
102
RTVSPost2010PropOp51
 70
     0
102
RTVSPost2010Prop52
140
1.0
102
RTVSPost2010PropOp52
 70
     0
102
RTVSPost2010Prop53
 90
        2
102
RTVSPost2010PropOp53
 70
     1
102
RTVSPost2010Prop54
  1
strokes_ogs.tif
102
RTVSPost2010PropOp54
 70
     1
102
RTVSPost2010Prop55
280
     0
102
RTVSPost2010PropOp55
 70
     1
102
RTVSPost2010Prop56
140
1.0
102
RTVSPost2010PropOp56
 70
     1
102
RTVSPost2010Prop57
140
1.0
102
RTVSPost2010PropOp57
 70
     1
  0
XRECORD
  5
22C
102
{ACAD_REACTORS
330
22B
102
}
330
22B
100
AcDbXrecord
280
     1
102
RTVSPropertyOp0
 70
     0
102
RTVSPropertyOp1
 70
     0
102
RTVSPropertyOp2
 70
     0
102
RTVSPropertyOp3
 70
     0
102
RTVSPropertyOp4
 70
     0
102
RTVSPropertyOp5
 70
     0
102
RTVSPropertyOp6
 70
     0
102
RTVSPropertyOp7
 70
     0
102
RTVSPropertyOp8
 70
     0
102
RTVSPropertyOp9
 70
     0
102
RTVSPropertyOp10
 70
     0
102
RTVSPropertyOp11
 70
     0
102
RTVSPropertyOp12
 70
     0
102
RTVSPropertyOp13
 70
     0
102
RTVSPropertyOp14
 70
     2
102
RTVSPropertyOp15
 70
     0
102
RTVSPropertyOp16
 70
     0
102
RTVSPropertyOp17
 70
     0
102
RTVSPropertyOp18
 70
     0
102
RTVSPropertyOp19
 70
     0
102
RTVSPropertyOp20
 70
     0
102
RTVSPropertyOp21
 70
     0
102
RTVSPropertyOp22
 70
     0
102
RTVSPropertyOp23
 70
     0
102
RTVSPropertyOp24
 70
     0
102
RTVSPropertyOp25
 70
     0
102
RTVSPropertyOp26
 70
     0
102
RTVSPropertyOp27
 70
     0
102
RTVSPropertyOp28
 70
     0
102
RTVSPropertyOp29
 70
     0
102
RTVSPropertyOp30
 70
     0
102
RTVSPropertyOp31
 70
     0
102
RTVSPropertyOp32
 70
     0
102
RTVSPropertyOp33
 70
     0
102
RTVSPropertyOp34
 70
     0
102
RTVSPropertyOp35
 70
     0
102
RTVSPropertyOp36
 70
     0
102
RTVSPropertyOp37
 70
     0
102
RTVSPropertyOp38
 70
     0
102
RTVSPropertyOp39
 70
     0
102
RTVSPropertyOp40
 70
     0
102
RTVSPropertyOp41
 70
     0
102
RTVSPropertyOp42
 70
     0
102
RTVSPropertyOp43
 70
     0
102
RTVSPropertyOp44
 70
     0
102
RTVSPropertyOp45
 70
     0
102
RTVSPropertyOp46
 70
     0
102
RTVSPropertyOp47
 70
     0
102
RTVSPropertyOp48
 70
     0
102
RTVSPropertyOp49
 70
     0
102
RTVSPropertyOp50
 70
     0
102
RTVSPropertyOp51
 70
     0
102
RTVSPropertyOp52
 70
     0
102
RTVSPropertyOp53
 70
     0
102
RTVSPropertyOp54
 70
     0
102
RTVSPropertyOp55
 70
     0
102
RTVSPropertyOp56
 70
     0
102
RTVSPropertyOp57
 70
     0
102
RTVSPost2010Prop28
280
     0
102
RTVSPost2010PropOp28
 70
     0
102
RTVSPost2010Prop29
280
     1
102
RTVSPost2010PropOp29
 70
     0
102
RTVSPost2010Prop30
280
     1
102
RTVSPost2010PropOp30
 70
     0
102
RTVSPost2010Prop31
280
     0
102
RTVSPost2010PropOp31
 70
     0
102
RTVSPost2010Prop32
280
     0
102
RTVSPost2010PropOp32
 70
     0
102
RTVSPost2010Prop33
280
     0
102
RTVSPost2010PropOp33
 70
     0
102
RTVSPost2010Prop34
280
     0
102
RTVSPost2010PropOp34
 70
     0
102
RTVSPost2010Prop35
280
     0
102
RTVSPost2010PropOp35
 70
     0
102
RTVSPost2010Prop36
280
     0
102
RTVSPost2010PropOp36
 70
     0
102
RTVSPost2010Prop37
 90
       50
102
RTVSPost2010PropOp37
 70
     0
102
RTVSPost2010Prop38
140
0.0
102
RTVSPost2010PropOp38
 70
     0
102
RTVSPost2010Prop39
140
1.0
102
RTVSPost2010PropOp39
 70
     0
102
RTVSPost2010Prop40
 90
        0
102
RTVSPost2010PropOp40
 70
     0
102
RTVSPost2010Prop41ColorIndex
 90
       18
102
RTVSPost2010Prop41ColorRGB
 90
        0
102
RTVSPost2010PropOp41
 70
     0
102
RTVSPost2010Prop42
 90
       50
102
RTVSPost2010PropOp42
 70
     0
102
RTVSPost2010Prop43
 90
        3
102
RTVSPost2010PropOp43
 70
     0
102
RTVSPost2010Prop44ColorIndex
 90
        5
102
RTVSPost2010Prop44ColorRGB
 90
      255
102
RTVSPost2010PropOp44
 70
     0
102
RTVSPost2010Prop45
280
     0
102
RTVSPost2010PropOp45
 70
     0
102
RTVSPost2010Prop46
 90
       50
102
RTVSPost2010PropOp46
 70
     0
102
RTVSPost2010Prop47
 90
       50
102
RTVSPost2010PropOp47
 70
     0
102
RTVSPost2010Prop48
 90
       50
102
RTVSPost2010PropOp48
 70
     0
102
RTVSPost2010Prop49
280
     0
102
RTVSPost2010PropOp49
 70
     0
102
RTVSPost2010Prop50
 90
       50
102
RTVSPost2010PropOp50
 70
     0
102
RTVSPost2010Prop51ColorIndex
 90
      256
102
RTVSPost2010Prop51ColorRGB
 90
-16777216
102
RTVSPost2010PropOp51
 70
     0
102
RTVSPost2010Prop52
140
1.0
102
RTVSPost2010PropOp52
 70
     0
102
RTVSPost2010Prop53
 90
        2
102
RTVSPost2010PropOp53
 70
     0
102
RTVSPost2010Prop54
  1
strokes_ogs.tif
102
RTVSPost2010PropOp54
 70
     0
102
RTVSPost2010Prop55
280
     0
102
RTVSPost2010PropOp55
 70
     0
102
RTVSPost2010Prop56
140
1.0
102
RTVSPost2010PropOp56
 70
     0
102
RTVSPost2010Prop57
140
1.0
102
RTVSPost2010PropOp57
 70
     0
  0
XRECORD
  5
226
102
{ACAD_REACTORS
330
225
102
}
330
225
100
AcDbXrecord
280
     1
102
RTVSPropertyOp0
 70
     1
102
RTVSPropertyOp1
 70
     1
102
RTVSPropertyOp2
 70
     1
102
RTVSPropertyOp3
 70
     1
102
RTVSPropertyOp4
 70
     1
102
RTVSPropertyOp5
 70
     1
102
RTVSPropertyOp6
 70
     1
102
RTVSPropertyOp7
 70
     1
102
RTVSPropertyOp8
 70
     1
102
RTVSPropertyOp9
 70
     1
102
RTVSPropertyOp10
 70
     1
102
RTVSPropertyOp11
 70
     1
102
RTVSPropertyOp12
 70
     1
102
RTVSPropertyOp13
 70
     1
102
RTVSPropertyOp14
 70
     1
102
RTVSPropertyOp15
 70
     1
102
RTVSPropertyOp16
 70
     1
102
RTVSPropertyOp17
 70
     1
102
RTVSPropertyOp18
 70
     1
102
RTVSPropertyOp19
 70
     1
102
RTVSPropertyOp20
 70
     1
102
RTVSPropertyOp21
 70
     1
102
RTVSPropertyOp22
 70
     1
102
RTVSPropertyOp23
 70
     1
102
RTVSPropertyOp24
 70
     1
102
RTVSPropertyOp25
 70
     1
102
RTVSPropertyOp26
 70
     1
102
RTVSPropertyOp27
 70
     1
102
RTVSPropertyOp28
 70
     1
102
RTVSPropertyOp29
 70
     1
102
RTVSPropertyOp30
 70
     1
102
RTVSPropertyOp31
 70
     1
102
RTVSPropertyOp32
 70
     1
102
RTVSPropertyOp33
 70
     1
102
RTVSPropertyOp34
 70
     1
102
RTVSPropertyOp35
 70
     1
102
RTVSPropertyOp36
 70
     1
102
RTVSPropertyOp37
 70
     1
102
RTVSPropertyOp38
 70
     1
102
RTVSPropertyOp39
 70
     1
102
RTVSPropertyOp40
 70
     1
102
RTVSPropertyOp41
 70
     1
102
RTVSPropertyOp42
 70
     1
102
RTVSPropertyOp43
 70
     1
102
RTVSPropertyOp44
 70
     1
102
RTVSPropertyOp45
 70
     1
102
RTVSPropertyOp46
 70
     1
102
RTVSPropertyOp47
 70
     1
102
RTVSPropertyOp48
 70
     1
102
RTVSPropertyOp49
 70
     1
102
RTVSPropertyOp50
 70
     1
102
RTVSPropertyOp51
 70
     0
102
RTVSPropertyOp52
 70
     0
102
RTVSPropertyOp53
 70
     1
102
RTVSPropertyOp54
 70
     1
102
RTVSPropertyOp55
 70
     1
102
RTVSPropertyOp56
 70
     1
102
RTVSPropertyOp57
 70
     1
102
RTVSPost2010Prop28
280
     0
102
RTVSPost2010PropOp28
 70
     1
102
RTVSPost2010Prop29
280
     1
102
RTVSPost2010PropOp29
 70
     1
102
RTVSPost2010Prop30
280
     1
102
RTVSPost2010PropOp30
 70
     1
102
RTVSPost2010Prop31
280
     0
102
RTVSPost2010PropOp31
 70
     1
102
RTVSPost2010Prop32
280
     0
102
RTVSPost2010PropOp32
 70
     1
102
RTVSPost2010Prop33
280
     0
102
RTVSPost2010PropOp33
 70
     1
102
RTVSPost2010Prop34
280
     0
102
RTVSPost2010PropOp34
 70
     1
102
RTVSPost2010Prop35
280
     0
102
RTVSPost2010PropOp35
 70
     1
102
RTVSPost2010Prop36
280
     0
102
RTVSPost2010PropOp36
 70
     1
102
RTVSPost2010Prop37
 90
       50
102
RTVSPost2010PropOp37
 70
     1
102
RTVSPost2010Prop38
140
0.0
102
RTVSPost2010PropOp38
 70
     1
102
RTVSPost2010Prop39
140
1.0
102
RTVSPost2010PropOp39
 70
     1
102
RTVSPost2010Prop40
 90
        0
102
RTVSPost2010PropOp40
 70
     1
102
RTVSPost2010Prop41ColorIndex
 90
       18
102
RTVSPost2010Prop41ColorRGB
 90
        0
102
RTVSPost2010PropOp41
 70
     1
102
RTVSPost2010Prop42
 90
       50
102
RTVSPost2010PropOp42
 70
     1
102
RTVSPost2010Prop43
 90
        3
102
RTVSPost2010PropOp43
 70
     1
102
RTVSPost2010Prop44ColorIndex
 90
        5
102
RTVSPost2010Prop44ColorRGB
 90
      255
102
RTVSPost2010PropOp44
 70
     1
102
RTVSPost2010Prop45
280
     0
102
RTVSPost2010PropOp45
 70
     1
102
RTVSPost2010Prop46
 90
       50
102
RTVSPost2010PropOp46
 70
     1
102
RTVSPost2010Prop47
 90
       50
102
RTVSPost2010PropOp47
 70
     1
102
RTVSPost2010Prop48
 90
       50
102
RTVSPost2010PropOp48
 70
     1
102
RTVSPost2010Prop49
280
     0
102
RTVSPost2010PropOp49
 70
     1
102
RTVSPost2010Prop50
 90
       50
102
RTVSPost2010PropOp50
 70
     1
102
RTVSPost2010Prop51ColorIndex
 90
      256
102
RTVSPost2010Prop51ColorRGB
 90
-16777216
102
RTVSPost2010PropOp51
 70
     0
102
RTVSPost2010Prop52
140
1.0
102
RTVSPost2010PropOp52
 70
     0
102
RTVSPost2010Prop53
 90
        2
102
RTVSPost2010PropOp53
 70
     1
102
RTVSPost2010Prop54
  1
strokes_ogs.tif
102
RTVSPost2010PropOp54
 70
     1
102
RTVSPost2010Prop55
280
     0
102
RTVSPost2010PropOp55
 70
     1
102
RTVSPost2010Prop56
140
1.0
102
RTVSPost2010PropOp56
 70
     1
102
RTVSPost2010Prop57
140
1.0
102
RTVSPost2010PropOp57
 70
     1
  0
XRECORD
  5
22E
102
{ACAD_REACTORS
330
22D
102
}
330
22D
100
AcDbXrecord
280
     1
102
RTVSPropertyOp0
 70
     0
102
RTVSPropertyOp1
 70
     0
102
RTVSPropertyOp2
 70
     0
102
RTVSPropertyOp3
 70
     0
102
RTVSPropertyOp4
 70
     0
102
RTVSPropertyOp5
 70
     0
102
RTVSPropertyOp6
 70
     0
102
RTVSPropertyOp7
 70
     0
102
RTVSPropertyOp8
 70
     0
102
RTVSPropertyOp9
 70
     0
102
RTVSPropertyOp10
 70
     0
102
RTVSPropertyOp11
 70
     0
102
RTVSPropertyOp12
 70
     0
102
RTVSPropertyOp13
 70
     0
102
RTVSPropertyOp14
 70
     2
102
RTVSPropertyOp15
 70
     0
102
RTVSPropertyOp16
 70
     0
102
RTVSPropertyOp17
 70
     0
102
RTVSPropertyOp18
 70
     0
102
RTVSPropertyOp19
 70
     0
102
RTVSPropertyOp20
 70
     0
102
RTVSPropertyOp21
 70
     0
102
RTVSPropertyOp22
 70
     0
102
RTVSPropertyOp23
 70
     0
102
RTVSPropertyOp24
 70
     0
102
RTVSPropertyOp25
 70
     0
102
RTVSPropertyOp26
 70
     0
102
RTVSPropertyOp27
 70
     0
102
RTVSPropertyOp28
 70
     0
102
RTVSPropertyOp29
 70
     0
102
RTVSPropertyOp30
 70
     0
102
RTVSPropertyOp31
 70
     0
102
RTVSPropertyOp32
 70
     0
102
RTVSPropertyOp33
 70
     0
102
RTVSPropertyOp34
 70
     0
102
RTVSPropertyOp35
 70
     0
102
RTVSPropertyOp36
 70
     0
102
RTVSPropertyOp37
 70
     0
102
RTVSPropertyOp38
 70
     0
102
RTVSPropertyOp39
 70
     0
102
RTVSPropertyOp40
 70
     0
102
RTVSPropertyOp41
 70
     0
102
RTVSPropertyOp42
 70
     0
102
RTVSPropertyOp43
 70
     0
102
RTVSPropertyOp44
 70
     0
102
RTVSPropertyOp45
 70
     0
102
RTVSPropertyOp46
 70
     0
102
RTVSPropertyOp47
 70
     0
102
RTVSPropertyOp48
 70
     0
102
RTVSPropertyOp49
 70
     0
102
RTVSPropertyOp50
 70
     0
102
RTVSPropertyOp51
 70
     0
102
RTVSPropertyOp52
 70
     0
102
RTVSPropertyOp53
 70
     0
102
RTVSPropertyOp54
 70
     0
102
RTVSPropertyOp55
 70
     0
102
RTVSPropertyOp56
 70
     0
102
RTVSPropertyOp57
 70
     0
102
RTVSPost2010Prop28
280
     0
102
RTVSPost2010PropOp28
 70
     0
102
RTVSPost2010Prop29
280
     1
102
RTVSPost2010PropOp29
 70
     0
102
RTVSPost2010Prop30
280
     1
102
RTVSPost2010PropOp30
 70
     0
102
RTVSPost2010Prop31
280
     0
102
RTVSPost2010PropOp31
 70
     0
102
RTVSPost2010Prop32
280
     0
102
RTVSPost2010PropOp32
 70
     0
102
RTVSPost2010Prop33
280
     0
102
RTVSPost2010PropOp33
 70
     0
102
RTVSPost2010Prop34
280
     0
102
RTVSPost2010PropOp34
 70
     0
102
RTVSPost2010Prop35
280
     0
102
RTVSPost2010PropOp35
 70
     0
102
RTVSPost2010Prop36
280
     0
102
RTVSPost2010PropOp36
 70
     0
102
RTVSPost2010Prop37
 90
       50
102
RTVSPost2010PropOp37
 70
     0
102
RTVSPost2010Prop38
140
0.0
102
RTVSPost2010PropOp38
 70
     0
102
RTVSPost2010Prop39
140
1.0
102
RTVSPost2010PropOp39
 70
     0
102
RTVSPost2010Prop40
 90
        0
102
RTVSPost2010PropOp40
 70
     0
102
RTVSPost2010Prop41ColorIndex
 90
       18
102
RTVSPost2010Prop41ColorRGB
 90
        0
102
RTVSPost2010PropOp41
 70
     0
102
RTVSPost2010Prop42
 90
       50
102
RTVSPost2010PropOp42
 70
     0
102
RTVSPost2010Prop43
 90
        3
102
RTVSPost2010PropOp43
 70
     0
102
RTVSPost2010Prop44ColorIndex
 90
        5
102
RTVSPost2010Prop44ColorRGB
 90
      255
102
RTVSPost2010PropOp44
 70
     0
102
RTVSPost2010Prop45
280
     0
102
RTVSPost2010PropOp45
 70
     0
102
RTVSPost2010Prop46
 90
       50
102
RTVSPost2010PropOp46
 70
     0
102
RTVSPost2010Prop47
 90
       50
102
RTVSPost2010PropOp47
 70
     0
102
RTVSPost2010Prop48
 90
       50
102
RTVSPost2010PropOp48
 70
     0
102
RTVSPost2010Prop49
280
     0
102
RTVSPost2010PropOp49
 70
     0
102
RTVSPost2010Prop50
 90
       50
102
RTVSPost2010PropOp50
 70
     0
102
RTVSPost2010Prop51ColorIndex
 90
      256
102
RTVSPost2010Prop51ColorRGB
 90
-16777216
102
RTVSPost2010PropOp51
 70
     0
102
RTVSPost2010Prop52
140
1.0
102
RTVSPost2010PropOp52
 70
     0
102
RTVSPost2010Prop53
 90
        2
102
RTVSPost2010PropOp53
 70
     0
102
RTVSPost2010Prop54
  1
strokes_ogs.tif
102
RTVSPost2010PropOp54
 70
     0
102
RTVSPost2010Prop55
280
     0
102
RTVSPost2010PropOp55
 70
     0
102
RTVSPost2010Prop56
140
1.0
102
RTVSPost2010PropOp56
 70
     0
102
RTVSPost2010Prop57
140
1.0
102
RTVSPost2010PropOp57
 70
     0
  0
XRECORD
  5
21C
102
{ACAD_REACTORS
330
21B
102
}
330
21B
100
AcDbXrecord
280
     1
102
RTVSPropertyOp0
 70
     1
102
RTVSPropertyOp1
 70
     1
102
RTVSPropertyOp2
 70
     1
102
RTVSPropertyOp3
 70
     1
102
RTVSPropertyOp4
 70
     1
102
RTVSPropertyOp5
 70
     1
102
RTVSPropertyOp6
 70
     1
102
RTVSPropertyOp7
 70
     1
102
RTVSPropertyOp8
 70
     1
102
RTVSPropertyOp9
 70
     1
102
RTVSPropertyOp10
 70
     1
102
RTVSPropertyOp11
 70
     1
102
RTVSPropertyOp12
 70
     1
102
RTVSPropertyOp13
 70
     1
102
RTVSPropertyOp14
 70
     1
102
RTVSPropertyOp15
 70
     1
102
RTVSPropertyOp16
 70
     1
102
RTVSPropertyOp17
 70
     1
102
RTVSPropertyOp18
 70
     1
102
RTVSPropertyOp19
 70
     1
102
RTVSPropertyOp20
 70
     1
102
RTVSPropertyOp21
 70
     1
102
RTVSPropertyOp22
 70
     1
102
RTVSPropertyOp23
 70
     1
102
RTVSPropertyOp24
 70
     1
102
RTVSPropertyOp25
 70
     1
102
RTVSPropertyOp26
 70
     1
102
RTVSPropertyOp27
 70
     1
102
RTVSPropertyOp28
 70
     1
102
RTVSPropertyOp29
 70
     1
102
RTVSPropertyOp30
 70
     1
102
RTVSPropertyOp31
 70
     1
102
RTVSPropertyOp32
 70
     1
102
RTVSPropertyOp33
 70
     1
102
RTVSPropertyOp34
 70
     1
102
RTVSPropertyOp35
 70
     1
102
RTVSPropertyOp36
 70
     1
102
RTVSPropertyOp37
 70
     1
102
RTVSPropertyOp38
 70
     1
102
RTVSPropertyOp39
 70
     1
102
RTVSPropertyOp40
 70
     1
102
RTVSPropertyOp41
 70
     1
102
RTVSPropertyOp42
 70
     1
102
RTVSPropertyOp43
 70
     1
102
RTVSPropertyOp44
 70
     1
102
RTVSPropertyOp45
 70
     1
102
RTVSPropertyOp46
 70
     1
102
RTVSPropertyOp47
 70
     1
102
RTVSPropertyOp48
 70
     1
102
RTVSPropertyOp49
 70
     1
102
RTVSPropertyOp50
 70
     1
102
RTVSPropertyOp51
 70
     0
102
RTVSPropertyOp52
 70
     0
102
RTVSPropertyOp53
 70
     1
102
RTVSPropertyOp54
 70
     1
102
RTVSPropertyOp55
 70
     1
102
RTVSPropertyOp56
 70
     1
102
RTVSPropertyOp57
 70
     1
102
RTVSPost2010Prop28
280
     0
102
RTVSPost2010PropOp28
 70
     1
102
RTVSPost2010Prop29
280
     1
102
RTVSPost2010PropOp29
 70
     1
102
RTVSPost2010Prop30
280
     1
102
RTVSPost2010PropOp30
 70
     1
102
RTVSPost2010Prop31
280
     0
102
RTVSPost2010PropOp31
 70
     1
102
RTVSPost2010Prop32
280
     0
102
RTVSPost2010PropOp32
 70
     1
102
RTVSPost2010Prop33
280
     0
102
RTVSPost2010PropOp33
 70
     1
102
RTVSPost2010Prop34
280
     0
102
RTVSPost2010PropOp34
 70
     1
102
RTVSPost2010Prop35
280
     0
102
RTVSPost2010PropOp35
 70
     1
102
RTVSPost2010Prop36
280
     0
102
RTVSPost2010PropOp36
 70
     1
102
RTVSPost2010Prop37
 90
       50
102
RTVSPost2010PropOp37
 70
     1
102
RTVSPost2010Prop38
140
0.0
102
RTVSPost2010PropOp38
 70
     1
102
RTVSPost2010Prop39
140
1.0
102
RTVSPost2010PropOp39
 70
     1
102
RTVSPost2010Prop40
 90
        0
102
RTVSPost2010PropOp40
 70
     1
102
RTVSPost2010Prop41ColorIndex
 90
       18
102
RTVSPost2010Prop41ColorRGB
 90
        0
102
RTVSPost2010PropOp41
 70
     1
102
RTVSPost2010Prop42
 90
       50
102
RTVSPost2010PropOp42
 70
     1
102
RTVSPost2010Prop43
 90
        3
102
RTVSPost2010PropOp43
 70
     1
102
RTVSPost2010Prop44ColorIndex
 90
        5
102
RTVSPost2010Prop44ColorRGB
 90
      255
102
RTVSPost2010PropOp44
 70
     1
102
RTVSPost2010Prop45
280
     0
102
RTVSPost2010PropOp45
 70
     1
102
RTVSPost2010Prop46
 90
       50
102
RTVSPost2010PropOp46
 70
     1
102
RTVSPost2010Prop47
 90
       50
102
RTVSPost2010PropOp47
 70
     1
102
RTVSPost2010Prop48
 90
       50
102
RTVSPost2010PropOp48
 70
     1
102
RTVSPost2010Prop49
280
     0
102
RTVSPost2010PropOp49
 70
     1
102
RTVSPost2010Prop50
 90
       50
102
RTVSPost2010PropOp50
 70
     1
102
RTVSPost2010Prop51ColorIndex
 90
      256
102
RTVSPost2010Prop51ColorRGB
 90
-16777216
102
RTVSPost2010PropOp51
 70
     0
102
RTVSPost2010Prop52
140
1.0
102
RTVSPost2010PropOp52
 70
     0
102
RTVSPost2010Prop53
 90
        2
102
RTVSPost2010PropOp53
 70
     1
102
RTVSPost2010Prop54
  1
strokes_ogs.tif
102
RTVSPost2010PropOp54
 70
     1
102
RTVSPost2010Prop55
280
     0
102
RTVSPost2010PropOp55
 70
     1
102
RTVSPost2010Prop56
140
1.0
102
RTVSPost2010PropOp56
 70
     1
102
RTVSPost2010Prop57
140
1.0
102
RTVSPost2010PropOp57
 70
     1
  0
XRECORD
  5
23A
102
{ACAD_REACTORS
330
239
102
}
330
239
100
AcDbXrecord
280
     1
102
RTVSPropertyOp0
 70
     1
102
RTVSPropertyOp1
 70
     1
102
RTVSPropertyOp2
 70
     1
102
RTVSPropertyOp3
 70
     1
102
RTVSPropertyOp4
 70
     1
102
RTVSPropertyOp5
 70
     1
102
RTVSPropertyOp6
 70
     1
102
RTVSPropertyOp7
 70
     1
102
RTVSPropertyOp8
 70
     1
102
RTVSPropertyOp9
 70
     1
102
RTVSPropertyOp10
 70
     1
102
RTVSPropertyOp11
 70
     1
102
RTVSPropertyOp12
 70
     1
102
RTVSPropertyOp13
 70
     1
102
RTVSPropertyOp14
 70
     1
102
RTVSPropertyOp15
 70
     1
102
RTVSPropertyOp16
 70
     1
102
RTVSPropertyOp17
 70
     1
102
RTVSPropertyOp18
 70
     1
102
RTVSPropertyOp19
 70
     1
102
RTVSPropertyOp20
 70
     1
102
RTVSPropertyOp21
 70
     1
102
RTVSPropertyOp22
 70
     1
102
RTVSPropertyOp23
 70
     1
102
RTVSPropertyOp24
 70
     1
102
RTVSPropertyOp25
 70
     1
102
RTVSPropertyOp26
 70
     1
102
RTVSPropertyOp27
 70
     1
102
RTVSPropertyOp28
 70
     1
102
RTVSPropertyOp29
 70
     1
102
RTVSPropertyOp30
 70
     1
102
RTVSPropertyOp31
 70
     1
102
RTVSPropertyOp32
 70
     1
102
RTVSPropertyOp33
 70
     1
102
RTVSPropertyOp34
 70
     1
102
RTVSPropertyOp35
 70
     1
102
RTVSPropertyOp36
 70
     1
102
RTVSPropertyOp37
 70
     1
102
RTVSPropertyOp38
 70
     1
102
RTVSPropertyOp39
 70
     1
102
RTVSPropertyOp40
 70
     1
102
RTVSPropertyOp41
 70
     1
102
RTVSPropertyOp42
 70
     1
102
RTVSPropertyOp43
 70
     1
102
RTVSPropertyOp44
 70
     1
102
RTVSPropertyOp45
 70
     1
102
RTVSPropertyOp46
 70
     1
102
RTVSPropertyOp47
 70
     1
102
RTVSPropertyOp48
 70
     1
102
RTVSPropertyOp49
 70
     1
102
RTVSPropertyOp50
 70
     1
102
RTVSPropertyOp51
 70
     0
102
RTVSPropertyOp52
 70
     0
102
RTVSPropertyOp53
 70
     1
102
RTVSPropertyOp54
 70
     1
102
RTVSPropertyOp55
 70
     1
102
RTVSPropertyOp56
 70
     1
102
RTVSPropertyOp57
 70
     1
102
RTVSPost2010Prop28
280
     0
102
RTVSPost2010PropOp28
 70
     1
102
RTVSPost2010Prop29
280
     1
102
RTVSPost2010PropOp29
 70
     1
102
RTVSPost2010Prop30
280
     1
102
RTVSPost2010PropOp30
 70
     1
102
RTVSPost2010Prop31
280
     0
102
RTVSPost2010PropOp31
 70
     1
102
RTVSPost2010Prop32
280
     0
102
RTVSPost2010PropOp32
 70
     1
102
RTVSPost2010Prop33
280
     0
102
RTVSPost2010PropOp33
 70
     1
102
RTVSPost2010Prop34
280
     0
102
RTVSPost2010PropOp34
 70
     1
102
RTVSPost2010Prop35
280
     0
102
RTVSPost2010PropOp35
 70
     1
102
RTVSPost2010Prop36
280
     0
102
RTVSPost2010PropOp36
 70
     1
102
RTVSPost2010Prop37
 90
       50
102
RTVSPost2010PropOp37
 70
     1
102
RTVSPost2010Prop38
140
0.0
102
RTVSPost2010PropOp38
 70
     1
102
RTVSPost2010Prop39
140
1.0
102
RTVSPost2010PropOp39
 70
     1
102
RTVSPost2010Prop40
 90
        0
102
RTVSPost2010PropOp40
 70
     1
102
RTVSPost2010Prop41ColorIndex
 90
       18
102
RTVSPost2010Prop41ColorRGB
 90
        0
102
RTVSPost2010PropOp41
 70
     1
102
RTVSPost2010Prop42
 90
       50
102
RTVSPost2010PropOp42
 70
     1
102
RTVSPost2010Prop43
 90
        3
102
RTVSPost2010PropOp43
 70
     1
102
RTVSPost2010Prop44ColorIndex
 90
        5
102
RTVSPost2010Prop44ColorRGB
 90
      255
102
RTVSPost2010PropOp44
 70
     1
102
RTVSPost2010Prop45
280
     0
102
RTVSPost2010PropOp45
 70
     1
102
RTVSPost2010Prop46
 90
       50
102
RTVSPost2010PropOp46
 70
     1
102
RTVSPost2010Prop47
 90
       50
102
RTVSPost2010PropOp47
 70
     1
102
RTVSPost2010Prop48
 90
       50
102
RTVSPost2010PropOp48
 70
     1
102
RTVSPost2010Prop49
280
     0
102
RTVSPost2010PropOp49
 70
     1
102
RTVSPost2010Prop50
 90
       50
102
RTVSPost2010PropOp50
 70
     1
102
RTVSPost2010Prop51ColorIndex
 90
      256
102
RTVSPost2010Prop51ColorRGB
 90
-16777216
102
RTVSPost2010PropOp51
 70
     0
102
RTVSPost2010Prop52
140
1.0
102
RTVSPost2010PropOp52
 70
     0
102
RTVSPost2010Prop53
 90
        2
102
RTVSPost2010PropOp53
 70
     1
102
RTVSPost2010Prop54
  1
strokes_ogs.tif
102
RTVSPost2010PropOp54
 70
     1
102
RTVSPost2010Prop55
280
     0
102
RTVSPost2010PropOp55
 70
     1
102
RTVSPost2010Prop56
140
1.0
102
RTVSPost2010PropOp56
 70
     1
102
RTVSPost2010Prop57
140
1.0
102
RTVSPost2010PropOp57
 70
     1
  0
XRECORD
  5
238
102
{ACAD_REACTORS
330
237
102
}
330
237
100
AcDbXrecord
280
     1
102
RTVSPropertyOp0
 70
     1
102
RTVSPropertyOp1
 70
     1
102
RTVSPropertyOp2
 70
     1
102
RTVSPropertyOp3
 70
     1
102
RTVSPropertyOp4
 70
     1
102
RTVSPropertyOp5
 70
     1
102
RTVSPropertyOp6
 70
     1
102
RTVSPropertyOp7
 70
     1
102
RTVSPropertyOp8
 70
     1
102
RTVSPropertyOp9
 70
     1
102
RTVSPropertyOp10
 70
     1
102
RTVSPropertyOp11
 70
     1
102
RTVSPropertyOp12
 70
     1
102
RTVSPropertyOp13
 70
     1
102
RTVSPropertyOp14
 70
     1
102
RTVSPropertyOp15
 70
     1
102
RTVSPropertyOp16
 70
     1
102
RTVSPropertyOp17
 70
     1
102
RTVSPropertyOp18
 70
     1
102
RTVSPropertyOp19
 70
     1
102
RTVSPropertyOp20
 70
     1
102
RTVSPropertyOp21
 70
     1
102
RTVSPropertyOp22
 70
     1
102
RTVSPropertyOp23
 70
     1
102
RTVSPropertyOp24
 70
     1
102
RTVSPropertyOp25
 70
     1
102
RTVSPropertyOp26
 70
     1
102
RTVSPropertyOp27
 70
     1
102
RTVSPropertyOp28
 70
     1
102
RTVSPropertyOp29
 70
     1
102
RTVSPropertyOp30
 70
     1
102
RTVSPropertyOp31
 70
     1
102
RTVSPropertyOp32
 70
     1
102
RTVSPropertyOp33
 70
     1
102
RTVSPropertyOp34
 70
     1
102
RTVSPropertyOp35
 70
     1
102
RTVSPropertyOp36
 70
     1
102
RTVSPropertyOp37
 70
     1
102
RTVSPropertyOp38
 70
     1
102
RTVSPropertyOp39
 70
     1
102
RTVSPropertyOp40
 70
     1
102
RTVSPropertyOp41
 70
     1
102
RTVSPropertyOp42
 70
     1
102
RTVSPropertyOp43
 70
     1
102
RTVSPropertyOp44
 70
     1
102
RTVSPropertyOp45
 70
     1
102
RTVSPropertyOp46
 70
     1
102
RTVSPropertyOp47
 70
     1
102
RTVSPropertyOp48
 70
     1
102
RTVSPropertyOp49
 70
     1
102
RTVSPropertyOp50
 70
     1
102
RTVSPropertyOp51
 70
     0
102
RTVSPropertyOp52
 70
     0
102
RTVSPropertyOp53
 70
     1
102
RTVSPropertyOp54
 70
     1
102
RTVSPropertyOp55
 70
     1
102
RTVSPropertyOp56
 70
     1
102
RTVSPropertyOp57
 70
     1
102
RTVSPost2010Prop28
280
     0
102
RTVSPost2010PropOp28
 70
     1
102
RTVSPost2010Prop29
280
     1
102
RTVSPost2010PropOp29
 70
     1
102
RTVSPost2010Prop30
280
     1
102
RTVSPost2010PropOp30
 70
     1
102
RTVSPost2010Prop31
280
     0
102
RTVSPost2010PropOp31
 70
     1
102
RTVSPost2010Prop32
280
     0
102
RTVSPost2010PropOp32
 70
     1
102
RTVSPost2010Prop33
280
     0
102
RTVSPost2010PropOp33
 70
     1
102
RTVSPost2010Prop34
280
     0
102
RTVSPost2010PropOp34
 70
     1
102
RTVSPost2010Prop35
280
     0
102
RTVSPost2010PropOp35
 70
     1
102
RTVSPost2010Prop36
280
     0
102
RTVSPost2010PropOp36
 70
     1
102
RTVSPost2010Prop37
 90
       50
102
RTVSPost2010PropOp37
 70
     1
102
RTVSPost2010Prop38
140
0.0
102
RTVSPost2010PropOp38
 70
     1
102
RTVSPost2010Prop39
140
1.0
102
RTVSPost2010PropOp39
 70
     1
102
RTVSPost2010Prop40
 90
        0
102
RTVSPost2010PropOp40
 70
     1
102
RTVSPost2010Prop41ColorIndex
 90
       18
102
RTVSPost2010Prop41ColorRGB
 90
        0
102
RTVSPost2010PropOp41
 70
     1
102
RTVSPost2010Prop42
 90
       50
102
RTVSPost2010PropOp42
 70
     1
102
RTVSPost2010Prop43
 90
        3
102
RTVSPost2010PropOp43
 70
     1
102
RTVSPost2010Prop44ColorIndex
 90
        5
102
RTVSPost2010Prop44ColorRGB
 90
      255
102
RTVSPost2010PropOp44
 70
     1
102
RTVSPost2010Prop45
280
     0
102
RTVSPost2010PropOp45
 70
     1
102
RTVSPost2010Prop46
 90
       50
102
RTVSPost2010PropOp46
 70
     1
102
RTVSPost2010Prop47
 90
       50
102
RTVSPost2010PropOp47
 70
     1
102
RTVSPost2010Prop48
 90
       50
102
RTVSPost2010PropOp48
 70
     1
102
RTVSPost2010Prop49
280
     0
102
RTVSPost2010PropOp49
 70
     1
102
RTVSPost2010Prop50
 90
       50
102
RTVSPost2010PropOp50
 70
     1
102
RTVSPost2010Prop51ColorIndex
 90
      256
102
RTVSPost2010Prop51ColorRGB
 90
-16777216
102
RTVSPost2010PropOp51
 70
     0
102
RTVSPost2010Prop52
140
1.0
102
RTVSPost2010PropOp52
 70
     0
102
RTVSPost2010Prop53
 90
        2
102
RTVSPost2010PropOp53
 70
     1
102
RTVSPost2010Prop54
  1
strokes_ogs.tif
102
RTVSPost2010PropOp54
 70
     1
102
RTVSPost2010Prop55
280
     0
102
RTVSPost2010PropOp55
 70
     1
102
RTVSPost2010Prop56
140
1.0
102
RTVSPost2010PropOp56
 70
     1
102
RTVSPost2010Prop57
140
1.0
102
RTVSPost2010PropOp57
 70
     1
  0
XRECORD
  5
232
102
{ACAD_REACTORS
330
231
102
}
330
231
100
AcDbXrecord
280
     1
102
RTVSPropertyOp0
 70
     1
102
RTVSPropertyOp1
 70
     1
102
RTVSPropertyOp2
 70
     1
102
RTVSPropertyOp3
 70
     1
102
RTVSPropertyOp4
 70
     1
102
RTVSPropertyOp5
 70
     1
102
RTVSPropertyOp6
 70
     1
102
RTVSPropertyOp7
 70
     1
102
RTVSPropertyOp8
 70
     1
102
RTVSPropertyOp9
 70
     1
102
RTVSPropertyOp10
 70
     1
102
RTVSPropertyOp11
 70
     1
102
RTVSPropertyOp12
 70
     1
102
RTVSPropertyOp13
 70
     1
102
RTVSPropertyOp14
 70
     1
102
RTVSPropertyOp15
 70
     1
102
RTVSPropertyOp16
 70
     1
102
RTVSPropertyOp17
 70
     1
102
RTVSPropertyOp18
 70
     1
102
RTVSPropertyOp19
 70
     1
102
RTVSPropertyOp20
 70
     1
102
RTVSPropertyOp21
 70
     1
102
RTVSPropertyOp22
 70
     1
102
RTVSPropertyOp23
 70
     1
102
RTVSPropertyOp24
 70
     1
102
RTVSPropertyOp25
 70
     1
102
RTVSPropertyOp26
 70
     1
102
RTVSPropertyOp27
 70
     1
102
RTVSPropertyOp28
 70
     1
102
RTVSPropertyOp29
 70
     1
102
RTVSPropertyOp30
 70
     1
102
RTVSPropertyOp31
 70
     1
102
RTVSPropertyOp32
 70
     1
102
RTVSPropertyOp33
 70
     1
102
RTVSPropertyOp34
 70
     1
102
RTVSPropertyOp35
 70
     1
102
RTVSPropertyOp36
 70
     1
102
RTVSPropertyOp37
 70
     1
102
RTVSPropertyOp38
 70
     1
102
RTVSPropertyOp39
 70
     1
102
RTVSPropertyOp40
 70
     1
102
RTVSPropertyOp41
 70
     1
102
RTVSPropertyOp42
 70
     1
102
RTVSPropertyOp43
 70
     1
102
RTVSPropertyOp44
 70
     1
102
RTVSPropertyOp45
 70
     1
102
RTVSPropertyOp46
 70
     1
102
RTVSPropertyOp47
 70
     1
102
RTVSPropertyOp48
 70
     1
102
RTVSPropertyOp49
 70
     1
102
RTVSPropertyOp50
 70
     1
102
RTVSPropertyOp51
 70
     0
102
RTVSPropertyOp52
 70
     0
102
RTVSPropertyOp53
 70
     1
102
RTVSPropertyOp54
 70
     1
102
RTVSPropertyOp55
 70
     1
102
RTVSPropertyOp56
 70
     1
102
RTVSPropertyOp57
 70
     1
102
RTVSPost2010Prop28
280
     0
102
RTVSPost2010PropOp28
 70
     1
102
RTVSPost2010Prop29
280
     1
102
RTVSPost2010PropOp29
 70
     1
102
RTVSPost2010Prop30
280
     1
102
RTVSPost2010PropOp30
 70
     1
102
RTVSPost2010Prop31
280
     0
102
RTVSPost2010PropOp31
 70
     1
102
RTVSPost2010Prop32
280
     0
102
RTVSPost2010PropOp32
 70
     1
102
RTVSPost2010Prop33
280
     0
102
RTVSPost2010PropOp33
 70
     1
102
RTVSPost2010Prop34
280
     0
102
RTVSPost2010PropOp34
 70
     1
102
RTVSPost2010Prop35
280
     0
102
RTVSPost2010PropOp35
 70
     1
102
RTVSPost2010Prop36
280
     0
102
RTVSPost2010PropOp36
 70
     1
102
RTVSPost2010Prop37
 90
       50
102
RTVSPost2010PropOp37
 70
     1
102
RTVSPost2010Prop38
140
0.0
102
RTVSPost2010PropOp38
 70
     1
102
RTVSPost2010Prop39
140
1.0
102
RTVSPost2010PropOp39
 70
     1
102
RTVSPost2010Prop40
 90
        0
102
RTVSPost2010PropOp40
 70
     1
102
RTVSPost2010Prop41ColorIndex
 90
       18
102
RTVSPost2010Prop41ColorRGB
 90
        0
102
RTVSPost2010PropOp41
 70
     1
102
RTVSPost2010Prop42
 90
       50
102
RTVSPost2010PropOp42
 70
     1
102
RTVSPost2010Prop43
 90
        3
102
RTVSPost2010PropOp43
 70
     1
102
RTVSPost2010Prop44ColorIndex
 90
        5
102
RTVSPost2010Prop44ColorRGB
 90
      255
102
RTVSPost2010PropOp44
 70
     1
102
RTVSPost2010Prop45
280
     0
102
RTVSPost2010PropOp45
 70
     1
102
RTVSPost2010Prop46
 90
       50
102
RTVSPost2010PropOp46
 70
     1
102
RTVSPost2010Prop47
 90
       50
102
RTVSPost2010PropOp47
 70
     1
102
RTVSPost2010Prop48
 90
       50
102
RTVSPost2010PropOp48
 70
     1
102
RTVSPost2010Prop49
280
     0
102
RTVSPost2010PropOp49
 70
     1
102
RTVSPost2010Prop50
 90
       50
102
RTVSPost2010PropOp50
 70
     1
102
RTVSPost2010Prop51ColorIndex
 90
      256
102
RTVSPost2010Prop51ColorRGB
 90
-16777216
102
RTVSPost2010PropOp51
 70
     0
102
RTVSPost2010Prop52
140
1.0
102
RTVSPost2010PropOp52
 70
     0
102
RTVSPost2010Prop53
 90
        2
102
RTVSPost2010PropOp53
 70
     1
102
RTVSPost2010Prop54
  1
strokes_ogs.tif
102
RTVSPost2010PropOp54
 70
     1
102
RTVSPost2010Prop55
280
     0
102
RTVSPost2010PropOp55
 70
     1
102
RTVSPost2010Prop56
140
1.0
102
RTVSPost2010PropOp56
 70
     1
102
RTVSPost2010Prop57
140
1.0
102
RTVSPost2010PropOp57
 70
     1
  0
XRECORD
  5
234
102
{ACAD_REACTORS
330
233
102
}
330
233
100
AcDbXrecord
280
     1
102
RTVSPropertyOp0
 70
     1
102
RTVSPropertyOp1
 70
     1
102
RTVSPropertyOp2
 70
     1
102
RTVSPropertyOp3
 70
     1
102
RTVSPropertyOp4
 70
     1
102
RTVSPropertyOp5
 70
     1
102
RTVSPropertyOp6
 70
     1
102
RTVSPropertyOp7
 70
     1
102
RTVSPropertyOp8
 70
     1
102
RTVSPropertyOp9
 70
     1
102
RTVSPropertyOp10
 70
     1
102
RTVSPropertyOp11
 70
     1
102
RTVSPropertyOp12
 70
     1
102
RTVSPropertyOp13
 70
     1
102
RTVSPropertyOp14
 70
     1
102
RTVSPropertyOp15
 70
     1
102
RTVSPropertyOp16
 70
     1
102
RTVSPropertyOp17
 70
     1
102
RTVSPropertyOp18
 70
     1
102
RTVSPropertyOp19
 70
     1
102
RTVSPropertyOp20
 70
     1
102
RTVSPropertyOp21
 70
     1
102
RTVSPropertyOp22
 70
     1
102
RTVSPropertyOp23
 70
     1
102
RTVSPropertyOp24
 70
     1
102
RTVSPropertyOp25
 70
     1
102
RTVSPropertyOp26
 70
     1
102
RTVSPropertyOp27
 70
     1
102
RTVSPropertyOp28
 70
     1
102
RTVSPropertyOp29
 70
     1
102
RTVSPropertyOp30
 70
     1
102
RTVSPropertyOp31
 70
     1
102
RTVSPropertyOp32
 70
     1
102
RTVSPropertyOp33
 70
     1
102
RTVSPropertyOp34
 70
     1
102
RTVSPropertyOp35
 70
     1
102
RTVSPropertyOp36
 70
     1
102
RTVSPropertyOp37
 70
     1
102
RTVSPropertyOp38
 70
     1
102
RTVSPropertyOp39
 70
     1
102
RTVSPropertyOp40
 70
     1
102
RTVSPropertyOp41
 70
     1
102
RTVSPropertyOp42
 70
     1
102
RTVSPropertyOp43
 70
     1
102
RTVSPropertyOp44
 70
     1
102
RTVSPropertyOp45
 70
     1
102
RTVSPropertyOp46
 70
     1
102
RTVSPropertyOp47
 70
     1
102
RTVSPropertyOp48
 70
     1
102
RTVSPropertyOp49
 70
     1
102
RTVSPropertyOp50
 70
     1
102
RTVSPropertyOp51
 70
     0
102
RTVSPropertyOp52
 70
     0
102
RTVSPropertyOp53
 70
     1
102
RTVSPropertyOp54
 70
     1
102
RTVSPropertyOp55
 70
     1
102
RTVSPropertyOp56
 70
     1
102
RTVSPropertyOp57
 70
     1
102
RTVSPost2010Prop28
280
     0
102
RTVSPost2010PropOp28
 70
     1
102
RTVSPost2010Prop29
280
     1
102
RTVSPost2010PropOp29
 70
     1
102
RTVSPost2010Prop30
280
     1
102
RTVSPost2010PropOp30
 70
     1
102
RTVSPost2010Prop31
280
     0
102
RTVSPost2010PropOp31
 70
     1
102
RTVSPost2010Prop32
280
     0
102
RTVSPost2010PropOp32
 70
     1
102
RTVSPost2010Prop33
280
     0
102
RTVSPost2010PropOp33
 70
     1
102
RTVSPost2010Prop34
280
     0
102
RTVSPost2010PropOp34
 70
     1
102
RTVSPost2010Prop35
280
     0
102
RTVSPost2010PropOp35
 70
     1
102
RTVSPost2010Prop36
280
     0
102
RTVSPost2010PropOp36
 70
     1
102
RTVSPost2010Prop37
 90
       50
102
RTVSPost2010PropOp37
 70
     1
102
RTVSPost2010Prop38
140
0.0
102
RTVSPost2010PropOp38
 70
     1
102
RTVSPost2010Prop39
140
1.0
102
RTVSPost2010PropOp39
 70
     1
102
RTVSPost2010Prop40
 90
        0
102
RTVSPost2010PropOp40
 70
     1
102
RTVSPost2010Prop41ColorIndex
 90
       18
102
RTVSPost2010Prop41ColorRGB
 90
        0
102
RTVSPost2010PropOp41
 70
     1
102
RTVSPost2010Prop42
 90
       50
102
RTVSPost2010PropOp42
 70
     1
102
RTVSPost2010Prop43
 90
        3
102
RTVSPost2010PropOp43
 70
     1
102
RTVSPost2010Prop44ColorIndex
 90
        5
102
RTVSPost2010Prop44ColorRGB
 90
      255
102
RTVSPost2010PropOp44
 70
     1
102
RTVSPost2010Prop45
280
     0
102
RTVSPost2010PropOp45
 70
     1
102
RTVSPost2010Prop46
 90
       50
102
RTVSPost2010PropOp46
 70
     1
102
RTVSPost2010Prop47
 90
       50
102
RTVSPost2010PropOp47
 70
     1
102
RTVSPost2010Prop48
 90
       50
102
RTVSPost2010PropOp48
 70
     1
102
RTVSPost2010Prop49
280
     0
102
RTVSPost2010PropOp49
 70
     1
102
RTVSPost2010Prop50
 90
       50
102
RTVSPost2010PropOp50
 70
     1
102
RTVSPost2010Prop51ColorIndex
 90
      256
102
RTVSPost2010Prop51ColorRGB
 90
-16777216
102
RTVSPost2010PropOp51
 70
     0
102
RTVSPost2010Prop52
140
1.0
102
RTVSPost2010PropOp52
 70
     0
102
RTVSPost2010Prop53
 90
        2
102
RTVSPost2010PropOp53
 70
     1
102
RTVSPost2010Prop54
  1
strokes_ogs.tif
102
RTVSPost2010PropOp54
 70
     1
102
RTVSPost2010Prop55
280
     0
102
RTVSPost2010PropOp55
 70
     1
102
RTVSPost2010Prop56
140
1.0
102
RTVSPost2010PropOp56
 70
     1
102
RTVSPost2010Prop57
140
1.0
102
RTVSPost2010PropOp57
 70
     1
  0
XRECORD
  5
224
102
{ACAD_REACTORS
330
223
102
}
330
223
100
AcDbXrecord
280
     1
102
RTVSPropertyOp0
 70
     1
102
RTVSPropertyOp1
 70
     1
102
RTVSPropertyOp2
 70
     1
102
RTVSPropertyOp3
 70
     1
102
RTVSPropertyOp4
 70
     1
102
RTVSPropertyOp5
 70
     1
102
RTVSPropertyOp6
 70
     1
102
RTVSPropertyOp7
 70
     1
102
RTVSPropertyOp8
 70
     1
102
RTVSPropertyOp9
 70
     1
102
RTVSPropertyOp10
 70
     1
102
RTVSPropertyOp11
 70
     1
102
RTVSPropertyOp12
 70
     1
102
RTVSPropertyOp13
 70
     1
102
RTVSPropertyOp14
 70
     1
102
RTVSPropertyOp15
 70
     1
102
RTVSPropertyOp16
 70
     1
102
RTVSPropertyOp17
 70
     1
102
RTVSPropertyOp18
 70
     1
102
RTVSPropertyOp19
 70
     1
102
RTVSPropertyOp20
 70
     1
102
RTVSPropertyOp21
 70
     1
102
RTVSPropertyOp22
 70
     1
102
RTVSPropertyOp23
 70
     1
102
RTVSPropertyOp24
 70
     1
102
RTVSPropertyOp25
 70
     1
102
RTVSPropertyOp26
 70
     1
102
RTVSPropertyOp27
 70
     1
102
RTVSPropertyOp28
 70
     1
102
RTVSPropertyOp29
 70
     1
102
RTVSPropertyOp30
 70
     1
102
RTVSPropertyOp31
 70
     1
102
RTVSPropertyOp32
 70
     1
102
RTVSPropertyOp33
 70
     1
102
RTVSPropertyOp34
 70
     1
102
RTVSPropertyOp35
 70
     1
102
RTVSPropertyOp36
 70
     1
102
RTVSPropertyOp37
 70
     1
102
RTVSPropertyOp38
 70
     1
102
RTVSPropertyOp39
 70
     1
102
RTVSPropertyOp40
 70
     1
102
RTVSPropertyOp41
 70
     1
102
RTVSPropertyOp42
 70
     1
102
RTVSPropertyOp43
 70
     1
102
RTVSPropertyOp44
 70
     1
102
RTVSPropertyOp45
 70
     1
102
RTVSPropertyOp46
 70
     1
102
RTVSPropertyOp47
 70
     1
102
RTVSPropertyOp48
 70
     1
102
RTVSPropertyOp49
 70
     1
102
RTVSPropertyOp50
 70
     1
102
RTVSPropertyOp51
 70
     0
102
RTVSPropertyOp52
 70
     0
102
RTVSPropertyOp53
 70
     1
102
RTVSPropertyOp54
 70
     1
102
RTVSPropertyOp55
 70
     1
102
RTVSPropertyOp56
 70
     1
102
RTVSPropertyOp57
 70
     1
102
RTVSPost2010Prop28
280
     0
102
RTVSPost2010PropOp28
 70
     1
102
RTVSPost2010Prop29
280
     1
102
RTVSPost2010PropOp29
 70
     1
102
RTVSPost2010Prop30
280
     1
102
RTVSPost2010PropOp30
 70
     1
102
RTVSPost2010Prop31
280
     0
102
RTVSPost2010PropOp31
 70
     1
102
RTVSPost2010Prop32
280
     0
102
RTVSPost2010PropOp32
 70
     1
102
RTVSPost2010Prop33
280
     0
102
RTVSPost2010PropOp33
 70
     1
102
RTVSPost2010Prop34
280
     0
102
RTVSPost2010PropOp34
 70
     1
102
RTVSPost2010Prop35
280
     0
102
RTVSPost2010PropOp35
 70
     1
102
RTVSPost2010Prop36
280
     0
102
RTVSPost2010PropOp36
 70
     1
102
RTVSPost2010Prop37
 90
       50
102
RTVSPost2010PropOp37
 70
     1
102
RTVSPost2010Prop38
140
0.0
102
RTVSPost2010PropOp38
 70
     1
102
RTVSPost2010Prop39
140
1.0
102
RTVSPost2010PropOp39
 70
     1
102
RTVSPost2010Prop40
 90
        0
102
RTVSPost2010PropOp40
 70
     1
102
RTVSPost2010Prop41ColorIndex
 90
       18
102
RTVSPost2010Prop41ColorRGB
 90
        0
102
RTVSPost2010PropOp41
 70
     1
102
RTVSPost2010Prop42
 90
       50
102
RTVSPost2010PropOp42
 70
     1
102
RTVSPost2010Prop43
 90
        3
102
RTVSPost2010PropOp43
 70
     1
102
RTVSPost2010Prop44ColorIndex
 90
        5
102
RTVSPost2010Prop44ColorRGB
 90
      255
102
RTVSPost2010PropOp44
 70
     1
102
RTVSPost2010Prop45
280
     0
102
RTVSPost2010PropOp45
 70
     1
102
RTVSPost2010Prop46
 90
       50
102
RTVSPost2010PropOp46
 70
     1
102
RTVSPost2010Prop47
 90
       50
102
RTVSPost2010PropOp47
 70
     1
102
RTVSPost2010Prop48
 90
       50
102
RTVSPost2010PropOp48
 70
     1
102
RTVSPost2010Prop49
280
     0
102
RTVSPost2010PropOp49
 70
     1
102
RTVSPost2010Prop50
 90
       50
102
RTVSPost2010PropOp50
 70
     1
102
RTVSPost2010Prop51ColorIndex
 90
      256
102
RTVSPost2010Prop51ColorRGB
 90
-16777216
102
RTVSPost2010PropOp51
 70
     0
102
RTVSPost2010Prop52
140
1.0
102
RTVSPost2010PropOp52
 70
     0
102
RTVSPost2010Prop53
 90
        2
102
RTVSPost2010PropOp53
 70
     1
102
RTVSPost2010Prop54
  1
strokes_ogs.tif
102
RTVSPost2010PropOp54
 70
     1
102
RTVSPost2010Prop55
280
     0
102
RTVSPost2010PropOp55
 70
     1
102
RTVSPost2010Prop56
140
1.0
102
RTVSPost2010PropOp56
 70
     1
102
RTVSPost2010Prop57
140
1.0
102
RTVSPost2010PropOp57
 70
     1
  0
XRECORD
  5
216
102
{ACAD_REACTORS
330
215
102
}
330
215
100
AcDbXrecord
280
     1
102
RTVSPropertyOp0
 70
     1
102
RTVSPropertyOp1
 70
     1
102
RTVSPropertyOp2
 70
     1
102
RTVSPropertyOp3
 70
     1
102
RTVSPropertyOp4
 70
     1
102
RTVSPropertyOp5
 70
     1
102
RTVSPropertyOp6
 70
     1
102
RTVSPropertyOp7
 70
     1
102
RTVSPropertyOp8
 70
     1
102
RTVSPropertyOp9
 70
     1
102
RTVSPropertyOp10
 70
     1
102
RTVSPropertyOp11
 70
     1
102
RTVSPropertyOp12
 70
     1
102
RTVSPropertyOp13
 70
     1
102
RTVSPropertyOp14
 70
     1
102
RTVSPropertyOp15
 70
     1
102
RTVSPropertyOp16
 70
     1
102
RTVSPropertyOp17
 70
     1
102
RTVSPropertyOp18
 70
     1
102
RTVSPropertyOp19
 70
     1
102
RTVSPropertyOp20
 70
     1
102
RTVSPropertyOp21
 70
     1
102
RTVSPropertyOp22
 70
     1
102
RTVSPropertyOp23
 70
     1
102
RTVSPropertyOp24
 70
     1
102
RTVSPropertyOp25
 70
     1
102
RTVSPropertyOp26
 70
     1
102
RTVSPropertyOp27
 70
     1
102
RTVSPropertyOp28
 70
     1
102
RTVSPropertyOp29
 70
     1
102
RTVSPropertyOp30
 70
     1
102
RTVSPropertyOp31
 70
     1
102
RTVSPropertyOp32
 70
     1
102
RTVSPropertyOp33
 70
     1
102
RTVSPropertyOp34
 70
     1
102
RTVSPropertyOp35
 70
     1
102
RTVSPropertyOp36
 70
     1
102
RTVSPropertyOp37
 70
     1
102
RTVSPropertyOp38
 70
     1
102
RTVSPropertyOp39
 70
     1
102
RTVSPropertyOp40
 70
     1
102
RTVSPropertyOp41
 70
     1
102
RTVSPropertyOp42
 70
     1
102
RTVSPropertyOp43
 70
     1
102
RTVSPropertyOp44
 70
     1
102
RTVSPropertyOp45
 70
     1
102
RTVSPropertyOp46
 70
     1
102
RTVSPropertyOp47
 70
     1
102
RTVSPropertyOp48
 70
     1
102
RTVSPropertyOp49
 70
     1
102
RTVSPropertyOp50
 70
     1
102
RTVSPropertyOp51
 70
     0
102
RTVSPropertyOp52
 70
     0
102
RTVSPropertyOp53
 70
     1
102
RTVSPropertyOp54
 70
     1
102
RTVSPropertyOp55
 70
     1
102
RTVSPropertyOp56
 70
     1
102
RTVSPropertyOp57
 70
     1
102
RTVSPost2010Prop28
280
     0
102
RTVSPost2010PropOp28
 70
     1
102
RTVSPost2010Prop29
280
     1
102
RTVSPost2010PropOp29
 70
     1
102
RTVSPost2010Prop30
280
     1
102
RTVSPost2010PropOp30
 70
     1
102
RTVSPost2010Prop31
280
     0
102
RTVSPost2010PropOp31
 70
     1
102
RTVSPost2010Prop32
280
     0
102
RTVSPost2010PropOp32
 70
     1
102
RTVSPost2010Prop33
280
     0
102
RTVSPost2010PropOp33
 70
     1
102
RTVSPost2010Prop34
280
     0
102
RTVSPost2010PropOp34
 70
     1
102
RTVSPost2010Prop35
280
     0
102
RTVSPost2010PropOp35
 70
     1
102
RTVSPost2010Prop36
280
     0
102
RTVSPost2010PropOp36
 70
     1
102
RTVSPost2010Prop37
 90
       50
102
RTVSPost2010PropOp37
 70
     1
102
RTVSPost2010Prop38
140
0.0
102
RTVSPost2010PropOp38
 70
     1
102
RTVSPost2010Prop39
140
1.0
102
RTVSPost2010PropOp39
 70
     1
102
RTVSPost2010Prop40
 90
        0
102
RTVSPost2010PropOp40
 70
     1
102
RTVSPost2010Prop41ColorIndex
 90
       18
102
RTVSPost2010Prop41ColorRGB
 90
        0
102
RTVSPost2010PropOp41
 70
     1
102
RTVSPost2010Prop42
 90
       50
102
RTVSPost2010PropOp42
 70
     1
102
RTVSPost2010Prop43
 90
        3
102
RTVSPost2010PropOp43
 70
     1
102
RTVSPost2010Prop44ColorIndex
 90
        5
102
RTVSPost2010Prop44ColorRGB
 90
      255
102
RTVSPost2010PropOp44
 70
     1
102
RTVSPost2010Prop45
280
     0
102
RTVSPost2010PropOp45
 70
     1
102
RTVSPost2010Prop46
 90
       50
102
RTVSPost2010PropOp46
 70
     1
102
RTVSPost2010Prop47
 90
       50
102
RTVSPost2010PropOp47
 70
     1
102
RTVSPost2010Prop48
 90
       50
102
RTVSPost2010PropOp48
 70
     1
102
RTVSPost2010Prop49
280
     0
102
RTVSPost2010PropOp49
 70
     1
102
RTVSPost2010Prop50
 90
       50
102
RTVSPost2010PropOp50
 70
     1
102
RTVSPost2010Prop51ColorIndex
 90
      256
102
RTVSPost2010Prop51ColorRGB
 90
-16777216
102
RTVSPost2010PropOp51
 70
     0
102
RTVSPost2010Prop52
140
1.0
102
RTVSPost2010PropOp52
 70
     0
102
RTVSPost2010Prop53
 90
        2
102
RTVSPost2010PropOp53
 70
     1
102
RTVSPost2010Prop54
  1
strokes_ogs.tif
102
RTVSPost2010PropOp54
 70
     1
102
RTVSPost2010Prop55
280
     0
102
RTVSPost2010PropOp55
 70
     1
102
RTVSPost2010Prop56
140
1.0
102
RTVSPost2010PropOp56
 70
     1
102
RTVSPost2010Prop57
140
1.0
102
RTVSPost2010PropOp57
 70
     1
  0
XRECORD
  5
236
102
{ACAD_REACTORS
330
235
102
}
330
235
100
AcDbXrecord
280
     1
102
RTVSPropertyOp0
 70
     1
102
RTVSPropertyOp1
 70
     1
102
RTVSPropertyOp2
 70
     1
102
RTVSPropertyOp3
 70
     1
102
RTVSPropertyOp4
 70
     1
102
RTVSPropertyOp5
 70
     1
102
RTVSPropertyOp6
 70
     1
102
RTVSPropertyOp7
 70
     1
102
RTVSPropertyOp8
 70
     1
102
RTVSPropertyOp9
 70
     1
102
RTVSPropertyOp10
 70
     1
102
RTVSPropertyOp11
 70
     1
102
RTVSPropertyOp12
 70
     1
102
RTVSPropertyOp13
 70
     1
102
RTVSPropertyOp14
 70
     1
102
RTVSPropertyOp15
 70
     1
102
RTVSPropertyOp16
 70
     1
102
RTVSPropertyOp17
 70
     1
102
RTVSPropertyOp18
 70
     1
102
RTVSPropertyOp19
 70
     1
102
RTVSPropertyOp20
 70
     1
102
RTVSPropertyOp21
 70
     1
102
RTVSPropertyOp22
 70
     1
102
RTVSPropertyOp23
 70
     1
102
RTVSPropertyOp24
 70
     1
102
RTVSPropertyOp25
 70
     1
102
RTVSPropertyOp26
 70
     1
102
RTVSPropertyOp27
 70
     1
102
RTVSPropertyOp28
 70
     1
102
RTVSPropertyOp29
 70
     1
102
RTVSPropertyOp30
 70
     1
102
RTVSPropertyOp31
 70
     1
102
RTVSPropertyOp32
 70
     1
102
RTVSPropertyOp33
 70
     1
102
RTVSPropertyOp34
 70
     1
102
RTVSPropertyOp35
 70
     1
102
RTVSPropertyOp36
 70
     1
102
RTVSPropertyOp37
 70
     1
102
RTVSPropertyOp38
 70
     1
102
RTVSPropertyOp39
 70
     1
102
RTVSPropertyOp40
 70
     1
102
RTVSPropertyOp41
 70
     1
102
RTVSPropertyOp42
 70
     1
102
RTVSPropertyOp43
 70
     1
102
RTVSPropertyOp44
 70
     1
102
RTVSPropertyOp45
 70
     1
102
RTVSPropertyOp46
 70
     1
102
RTVSPropertyOp47
 70
     1
102
RTVSPropertyOp48
 70
     1
102
RTVSPropertyOp49
 70
     1
102
RTVSPropertyOp50
 70
     1
102
RTVSPropertyOp51
 70
     0
102
RTVSPropertyOp52
 70
     0
102
RTVSPropertyOp53
 70
     1
102
RTVSPropertyOp54
 70
     1
102
RTVSPropertyOp55
 70
     1
102
RTVSPropertyOp56
 70
     1
102
RTVSPropertyOp57
 70
     1
102
RTVSPost2010Prop28
280
     0
102
RTVSPost2010PropOp28
 70
     1
102
RTVSPost2010Prop29
280
     1
102
RTVSPost2010PropOp29
 70
     1
102
RTVSPost2010Prop30
280
     1
102
RTVSPost2010PropOp30
 70
     1
102
RTVSPost2010Prop31
280
     0
102
RTVSPost2010PropOp31
 70
     1
102
RTVSPost2010Prop32
280
     0
102
RTVSPost2010PropOp32
 70
     1
102
RTVSPost2010Prop33
280
     0
102
RTVSPost2010PropOp33
 70
     1
102
RTVSPost2010Prop34
280
     0
102
RTVSPost2010PropOp34
 70
     1
102
RTVSPost2010Prop35
280
     0
102
RTVSPost2010PropOp35
 70
     1
102
RTVSPost2010Prop36
280
     0
102
RTVSPost2010PropOp36
 70
     1
102
RTVSPost2010Prop37
 90
       50
102
RTVSPost2010PropOp37
 70
     1
102
RTVSPost2010Prop38
140
0.0
102
RTVSPost2010PropOp38
 70
     1
102
RTVSPost2010Prop39
140
1.0
102
RTVSPost2010PropOp39
 70
     1
102
RTVSPost2010Prop40
 90
        0
102
RTVSPost2010PropOp40
 70
     1
102
RTVSPost2010Prop41ColorIndex
 90
       18
102
RTVSPost2010Prop41ColorRGB
 90
        0
102
RTVSPost2010PropOp41
 70
     1
102
RTVSPost2010Prop42
 90
       50
102
RTVSPost2010PropOp42
 70
     1
102
RTVSPost2010Prop43
 90
        3
102
RTVSPost2010PropOp43
 70
     1
102
RTVSPost2010Prop44ColorIndex
 90
        5
102
RTVSPost2010Prop44ColorRGB
 90
      255
102
RTVSPost2010PropOp44
 70
     1
102
RTVSPost2010Prop45
280
     0
102
RTVSPost2010PropOp45
 70
     1
102
RTVSPost2010Prop46
 90
       50
102
RTVSPost2010PropOp46
 70
     1
102
RTVSPost2010Prop47
 90
       50
102
RTVSPost2010PropOp47
 70
     1
102
RTVSPost2010Prop48
 90
       50
102
RTVSPost2010PropOp48
 70
     1
102
RTVSPost2010Prop49
280
     0
102
RTVSPost2010PropOp49
 70
     1
102
RTVSPost2010Prop50
 90
       50
102
RTVSPost2010PropOp50
 70
     1
102
RTVSPost2010Prop51ColorIndex
 90
      256
102
RTVSPost2010Prop51ColorRGB
 90
-16777216
102
RTVSPost2010PropOp51
 70
     0
102
RTVSPost2010Prop52
140
1.0
102
RTVSPost2010PropOp52
 70
     0
102
RTVSPost2010Prop53
 90
        2
102
RTVSPost2010PropOp53
 70
     1
102
RTVSPost2010Prop54
  1
strokes_ogs.tif
102
RTVSPost2010PropOp54
 70
     1
102
RTVSPost2010Prop55
280
     0
102
RTVSPost2010PropOp55
 70
     1
102
RTVSPost2010Prop56
140
1.0
102
RTVSPost2010PropOp56
 70
     1
102
RTVSPost2010Prop57
140
1.0
102
RTVSPost2010PropOp57
 70
     1
  0
ENDSEC
  0
EOF
