  0
SECTION
  2
HEADER
  9
$ACADVER
  1
AC1018
  9
$ACADMAINTVER
 70
     0
  9
$DWGCODEPAGE
  3
ANSI_1252
  9
$INSBASE
 10
0.0
 20
0.0
 30
0.0
  9
$EXTMIN
 10
-0.5
 20
-0.5
 30
-0.5
  9
$EXTMAX
 10
5.0
 20
5.0
 30
5.0
  9
$LIMMIN
 10
-0.5
 20
-0.5
  9
$LIMMAX
 10
5.0
 20
5.0
  9
$ORTHOMODE
 70
     0
  9
$REGENMODE
 70
     1
  9
$FILLMODE
 70
     1
  9
$QTEXTMODE
 70
     0
  9
$MIRRTEXT
 70
     1
  9
$LTSCALE
 40
1.0
  9
$ATTMODE
 70
     1
  9
$TEXTSIZE
 40
0.2
  9
$TRACEWID
 40
0.05
  9
$TEXTSTYLE
  7
Standard
  9
$CLAYER
  8
0
  9
$CELTYPE
  6
ByLayer
  9
$CECOLOR
 62
   256
  9
$CELTSCALE
 40
1.0
  9
$DISPSILH
 70
     0
  9
$DIMSCALE
 40
1.0
  9
$DIMASZ
 40
0.18
  9
$DIMEXO
 40
0.0625
  9
$DIMDLI
 40
0.38
  9
$DIMRND
 40
0.0
  9
$DIMDLE
 40
0.0
  9
$DIMEXE
 40
0.18
  9
$DIMTP
 40
0.0
  9
$DIMTM
 40
0.0
  9
$DIMTXT
 40
0.18
  9
$DIMCEN
 40
0.09
  9
$DIMTSZ
 40
0.0
  9
$DIMTOL
 70
     0
  9
$DIMLIM
 70
     0
  9
$DIMTIH
 70
     1
  9
$DIMTOH
 70
     1
  9
$DIMSE1
 70
     0
  9
$DIMSE2
 70
     0
  9
$DIMTAD
 70
     0
  9
$DIMZIN
 70
     0
  9
$DIMBLK
  1

  9
$DIMASO
 70
     1
  9
$DIMSHO
 70
     1
  9
$DIMPOST
  1

  9
$DIMAPOST
  1

  9
$DIMALT
 70
     0
  9
$DIMALTD
 70
     2
  9
$DIMALTF
 40
25.4
  9
$DIMLFAC
 40
1.0
  9
$DIMTOFL
 70
     0
  9
$DIMTVP
 40
0.0
  9
$DIMTIX
 70
     0
  9
$DIMSOXD
 70
     0
  9
$DIMSAH
 70
     0
  9
$DIMBLK1
  1

  9
$DIMBLK2
  1

  9
$DIMSTYLE
  2
Standard
  9
$DIMCLRD
 70
     0
  9
$DIMCLRE
 70
     0
  9
$DIMCLRT
 70
     0
  9
$DIMTFAC
 40
1.0
  9
$DIMGAP
 40
0.09
  9
$DIMJUST
 70
     0
  9
$DIMSD1
 70
     0
  9
$DIMSD2
 70
     0
  9
$DIMTOLJ
 70
     1
  9
$DIMTZIN
 70
     0
  9
$DIMALTZ
 70
     0
  9
$DIMALTTZ
 70
     0
  9
$DIMUPT
 70
     0
  9
$DIMDEC
 70
     4
  9
$DIMTDEC
 70
     4
  9
$DIMALTU
 70
     2
  9
$DIMALTTD
 70
     2
  9
$DIMTXSTY
  7
Standard
  9
$DIMAUNIT
 70
     0
  9
$DIMADEC
 70
     0
  9
$DIMALTRND
 40
0.0
  9
$DIMAZIN
 70
     0
  9
$DIMDSEP
 70
    46
  9
$DIMATFIT
 70
     3
  9
$DIMFRAC
 70
     0
  9
$DIMLDRBLK
  1

  9
$DIMLUNIT
 70
     2
  9
$DIMLWD
 70
    -2
  9
$DIMLWE
 70
    -2
  9
$DIMTMOVE
 70
     0
  9
$LUNITS
 70
     2
  9
$LUPREC
 70
     4
  9
$SKETCHINC
 40
0.1
  9
$FILLETRAD
 40
0.5
  9
$AUNITS
 70
     0
  9
$AUPREC
 70
     0
  9
$MENU
  1
.
  9
$ELEVATION
 40
0.0
  9
$PELEVATION
 40
0.0
  9
$THICKNESS
 40
0.0
  9
$LIMCHECK
 70
     0
  9
$CHAMFERA
 40
0.0
  9
$CHAMFERB
 40
0.0
  9
$CHAMFERC
 40
0.0
  9
$CHAMFERD
 40
0.0
  9
$SKPOLY
 70
     0
  9
$TDCREATE
 40
2458506.300553391
  9
$TDUCREATE
 40
2458506.258886725
  9
$TDUPDATE
 40
2458506.300554838
  9
$TDUUPDATE
 40
2458506.258888172
  9
$TDINDWG
 40
0.0000000116
  9
$TDUSRTIMER
 40
0.0000000116
  9
$USRTIMER
 70
     1
  9
$ANGBASE
 50
0.0
  9
$ANGDIR
 70
     0
  9
$PDMODE
 70
     0
  9
$PDSIZE
 40
0.0
  9
$PLINEWID
 40
0.0
  9
$SPLFRAME
 70
     0
  9
$SPLINETYPE
 70
     6
  9
$SPLINESEGS
 70
     8
  9
$HANDSEED
  5
219
  9
$SURFTAB1
 70
     6
  9
$SURFTAB2
 70
     6
  9
$SURFTYPE
 70
     6
  9
$SURFU
 70
     6
  9
$SURFV
 70
     6
  9
$UCSBASE
  2

  9
$UCSNAME
  2

  9
$UCSORG
 10
0.0
 20
0.0
 30
0.0
  9
$UCSXDIR
 10
1.0
 20
0.0
 30
0.0
  9
$UCSYDIR
 10
0.0
 20
1.0
 30
0.0
  9
$UCSORTHOREF
  2

  9
$UCSORTHOVIEW
 70
     0
  9
$UCSORGTOP
 10
0.0
 20
0.0
 30
0.0
  9
$UCSORGBOTTOM
 10
0.0
 20
0.0
 30
0.0
  9
$UCSORGLEFT
 10
0.0
 20
0.0
 30
0.0
  9
$UCSORGRIGHT
 10
0.0
 20
0.0
 30
0.0
  9
$UCSORGFRONT
 10
0.0
 20
0.0
 30
0.0
  9
$UCSORGBACK
 10
0.0
 20
0.0
 30
0.0
  9
$PUCSBASE
  2

  9
$PUCSNAME
  2

  9
$PUCSORG
 10
0.0
 20
0.0
 30
0.0
  9
$PUCSXDIR
 10
1.0
 20
0.0
 30
0.0
  9
$PUCSYDIR
 10
0.0
 20
1.0
 30
0.0
  9
$PUCSORTHOREF
  2

  9
$PUCSORTHOVIEW
 70
     0
  9
$PUCSORGTOP
 10
0.0
 20
0.0
 30
0.0
  9
$PUCSORGBOTTOM
 10
0.0
 20
0.0
 30
0.0
  9
$PUCSORGLEFT
 10
0.0
 20
0.0
 30
0.0
  9
$PUCSORGRIGHT
 10
0.0
 20
0.0
 30
0.0
  9
$PUCSORGFRONT
 10
0.0
 20
0.0
 30
0.0
  9
$PUCSORGBACK
 10
0.0
 20
0.0
 30
0.0
  9
$USERI1
 70
     0
  9
$USERI2
 70
     0
  9
$USERI3
 70
     0
  9
$USERI4
 70
     0
  9
$USERI5
 70
     0
  9
$USERR1
 40
0.0
  9
$USERR2
 40
0.0
  9
$USERR3
 40
0.0
  9
$USERR4
 40
0.0
  9
$USERR5
 40
0.0
  9
$WORLDVIEW
 70
     1
  9
$SHADEDGE
 70
     3
  9
$SHADEDIF
 70
    70
  9
$TILEMODE
 70
     1
  9
$MAXACTVP
 70
    64
  9
$PINSBASE
 10
0.0
 20
0.0
 30
0.0
  9
$PLIMCHECK
 70
     0
  9
$PEXTMIN
 10
-0.5
 20
-0.5
 30
-0.5
  9
$PEXTMAX
 10
5.0
 20
5.0
 30
5.0
  9
$PLIMMIN
 10
-0.5
 20
-0.5
  9
$PLIMMAX
 10
5.0
 20
5.0
  9
$UNITMODE
 70
     0
  9
$VISRETAIN
 70
     1
  9
$PLINEGEN
 70
     0
  9
$PSLTSCALE
 70
     1
  9
$TREEDEPTH
 70
  3020
  9
$CMLSTYLE
  2
Standard
  9
$CMLJUST
 70
     0
  9
$CMLSCALE
 40
1.0
  9
$PROXYGRAPHICS
 70
     1
  9
$MEASUREMENT
 70
     1
  9
$CELWEIGHT
370
    18
  9
$ENDCAPS
280
     0
  9
$JOINSTYLE
280
     0
  9
$LWDISPLAY
290
     1
  9
$INSUNITS
 70
     4
  9
$HYPERLINKBASE
  1

  9
$STYLESHEET
  1

  9
$XEDIT
290
     1
  9
$CEPSNTYPE
380
     0
  9
$PSTYLEMODE
290
     1
  9
$FINGERPRINTGUID
  2
{B20EAE09-29F3-4005-B6EB-736EE2932C06}
  9
$VERSIONGUID
  2
{FAEB1C32-E019-11D5-929B-00C0DF256EC4}
  9
$EXTNAMES
290
     1
  9
$PSVPSCALE
 40
0.0
  9
$OLESTARTUP
290
     0
  9
$SORTENTS
280
   127
  9
$INDEXCTL
280
     0
  9
$HIDETEXT
280
     1
  9
$XCLIPFRAME
290
     0
  9
$HALOGAP
280
     0
  9
$OBSCOLOR
 70
   257
  9
$OBSLTYPE
280
     0
  9
$INTERSECTIONDISPLAY
280
     0
  9
$INTERSECTIONCOLOR
 70
   257
  9
$DIMASSOC
280
     2
  9
$PROJECTNAME
  1

  0
ENDSEC
  0
SECTION
  2
CLASSES
  0
CLASS
  1
ACDBDICTIONARYWDFLT
  2
AcDbDictionaryWithDefault
  3
ObjectDBX Classes
 90
        0
 91
        4
280
     0
281
     0
  0
CLASS
  1
VISUALSTYLE
  2
AcDbVisualStyle
  3
ObjectDBX Classes
 90
     4095
 91
        4
280
     0
281
     0
  0
CLASS
  1
MATERIAL
  2
AcDbMaterial
  3
ObjectDBX Classes
 90
     1153
 91
        4
280
     0
281
     0
  0
CLASS
  1
SCALE
  2
AcDbScale
  3
ObjectDBX Classes
 90
     1153
 91
        4
280
     0
281
     0
  0
CLASS
  1
SUN
  2
AcDbSun
  3
SCENEOE
 90
     1153
 91
        4
280
     0
281
     0
  0
CLASS
  1
DIMASSOC
  2
AcDbDimAssoc
  3
"AcDbDimAssoc|Product Desc:     AcDim ARX App For Dimension|Company:          Autodesk, Inc.|WEB Address:      www.autodesk.com"
 90
        0
 91
        4
280
     0
281
     0
  0
CLASS
  1
DICTIONARYVAR
  2
AcDbDictionaryVar
  3
ObjectDBX Classes
 90
        0
 91
        4
280
     0
281
     0
  0
ENDSEC
  0
SECTION
  2
TABLES
  0
TABLE
  2
VPORT
  5
8
330
0
100
AcDbSymbolTable
 70
    17
  0
VPORT
  5
29
330
8
100
AcDbSymbolTableRecord
100
AcDbViewportTableRecord
  2
DUMMY
 70
     0
 10
0.0
 20
0.0
 11
1.0
 21
1.0
 12
10.429907
 22
4.5
 13
0.0
 23
0.0
 14
0.5
 24
0.5
 15
0.5
 25
0.5
 16
0.0
 26
0.0
 36
1.0
 17
0.0
 27
0.0
 37
0.0
 40
9.0
 41
1.972973
 42
50.0
 43
0.0
 44
0.0
 50
0.0
 51
0.0
 71
     0
 72
   100
 73
     1
 74
     3
 75
     0
 76
     0
 77
     0
 78
     0
281
     0
 65
     1
110
0.0
120
0.0
130
0.0
111
1.0
121
0.0
131
0.0
112
0.0
122
1.0
132
0.0
 79
     0
146
0.0
  0
VPORT
  5
1C8
330
8
100
AcDbSymbolTableRecord
100
AcDbViewportTableRecord
  2
*ACTIVE
 70
     0
 10
0.0
 20
0.0
 11
1.0
 21
1.0
 12
268.20741
 22
148.5
 13
0.0
 23
0.0
 14
0.5
 24
0.5
 15
0.5
 25
0.5
 16
0.0
 26
0.0
 36
1.0
 17
0.0
 27
0.0
 37
0.0
 40
254.0
 41
0.069908
 42
50.0
 43
965.853733
 44
-965.853733
 50
0.0
 51
0.0
 71
     0
 72
   100
 73
     1
 74
     3
 75
     0
 76
     0
 77
     0
 78
     0
281
     0
 65
     1
110
0.0
120
0.0
130
0.0
111
1.0
121
0.0
131
0.0
112
0.0
122
1.0
132
0.0
 79
     0
146
0.0
  0
VPORT
  5
1CA
330
8
100
AcDbSymbolTableRecord
100
AcDbViewportTableRecord
  2
L1
 70
     0
 10
0.0
 20
0.0
 11
1.0
 21
1.0
 12
268.20741
 22
148.5
 13
0.0
 23
0.0
 14
0.5
 24
0.5
 15
0.5
 25
0.5
 16
0.0
 26
0.0
 36
1.0
 17
0.0
 27
0.0
 37
0.0
 40
254.0
 41
0.069908
 42
50.0
 43
965.853733
 44
-965.853733
 50
0.0
 51
0.0
 71
     0
 72
   100
 73
     1
 74
     3
 75
     0
 76
     0
 77
     0
 78
     0
281
     0
 65
     1
110
0.0
120
0.0
130
0.0
111
1.0
121
0.0
131
0.0
112
0.0
122
1.0
132
0.0
 79
     0
146
0.0
  0
VPORT
  5
1CB
330
8
100
AcDbSymbolTableRecord
100
AcDbViewportTableRecord
  2
L2
 70
     0
 10
0.0
 20
0.0
 11
0.5
 21
1.0
 12
0.0
 22
0.0
 13
0.0
 23
0.0
 14
0.5
 24
0.5
 15
0.5
 25
0.5
 16
0.0
 26
-1.0
 36
0.0
 17
0.0
 27
0.0
 37
0.0
 40
1319.822715
 41
0.013454
 42
50.0
 43
672.020833
 44
-672.020833
 50
0.0
 51
0.0
 71
     0
 72
   100
 73
     1
 74
     3
 75
     0
 76
     0
 77
     0
 78
     0
281
     0
 65
     1
110
0.0
120
0.0
130
0.0
111
1.0
121
0.0
131
0.0
112
0.0
122
1.0
132
0.0
 79
     0
146
0.0
  0
VPORT
  5
1CC
330
8
100
AcDbSymbolTableRecord
100
AcDbViewportTableRecord
  2
L2
 70
     0
 10
0.5
 20
0.0
 11
1.0
 21
1.0
 12
0.0
 22
0.0
 13
0.0
 23
0.0
 14
0.5
 24
0.5
 15
0.5
 25
0.5
 16
1.0
 26
0.0
 36
0.0
 17
0.0
 27
0.0
 37
0.0
 40
1319.822715
 41
0.013454
 42
50.0
 43
672.020833
 44
-672.020833
 50
0.0
 51
0.0
 71
     0
 72
   100
 73
     1
 74
     3
 75
     0
 76
     0
 77
     0
 78
     0
281
     0
 65
     1
110
0.0
120
0.0
130
0.0
111
1.0
121
0.0
131
0.0
112
0.0
122
1.0
132
0.0
 79
     0
146
0.0
  0
VPORT
  5
1CD
330
8
100
AcDbSymbolTableRecord
100
AcDbViewportTableRecord
  2
L3
 70
     0
 10
0.0
 20
0.5
 11
1.0
 21
1.0
 12
268.20741
 22
148.5
 13
0.0
 23
0.0
 14
0.5
 24
0.5
 15
0.5
 25
0.5
 16
0.0
 26
0.0
 36
1.0
 17
0.0
 27
0.0
 37
0.0
 40
254.0
 41
0.069908
 42
50.0
 43
965.853733
 44
-965.853733
 50
0.0
 51
0.0
 71
     0
 72
   100
 73
     1
 74
     3
 75
     0
 76
     0
 77
     0
 78
     0
281
     0
 65
     1
110
0.0
120
0.0
130
0.0
111
1.0
121
0.0
131
0.0
112
0.0
122
1.0
132
0.0
 79
     0
146
0.0
  0
VPORT
  5
1CE
330
8
100
AcDbSymbolTableRecord
100
AcDbViewportTableRecord
  2
L3
 70
     0
 10
0.0
 20
0.0
 11
1.0
 21
0.5
 12
0.0
 22
0.0
 13
0.0
 23
0.0
 14
0.5
 24
0.5
 15
0.5
 25
0.5
 16
0.0
 26
-1.0
 36
0.0
 17
0.0
 27
0.0
 37
0.0
 40
1319.822715
 41
0.013454
 42
50.0
 43
672.020833
 44
-672.020833
 50
0.0
 51
0.0
 71
     0
 72
   100
 73
     1
 74
     3
 75
     0
 76
     0
 77
     0
 78
     0
281
     0
 65
     1
110
0.0
120
0.0
130
0.0
111
1.0
121
0.0
131
0.0
112
0.0
122
1.0
132
0.0
 79
     0
146
0.0
  0
VPORT
  5
1CF
330
8
100
AcDbSymbolTableRecord
100
AcDbViewportTableRecord
  2
L4
 70
     0
 10
0.0
 20
0.5
 11
0.5
 21
1.0
 12
268.20741
 22
148.5
 13
0.0
 23
0.0
 14
0.5
 24
0.5
 15
0.5
 25
0.5
 16
0.0
 26
0.0
 36
1.0
 17
0.0
 27
0.0
 37
0.0
 40
254.0
 41
0.069908
 42
50.0
 43
965.853733
 44
-965.853733
 50
0.0
 51
0.0
 71
     0
 72
   100
 73
     1
 74
     3
 75
     0
 76
     0
 77
     0
 78
     0
281
     0
 65
     1
110
0.0
120
0.0
130
0.0
111
1.0
121
0.0
131
0.0
112
0.0
122
1.0
132
0.0
 79
     0
146
0.0
  0
VPORT
  5
1D0
330
8
100
AcDbSymbolTableRecord
100
AcDbViewportTableRecord
  2
L4
 70
     0
 10
0.0
 20
0.0
 11
0.5
 21
0.5
 12
0.0
 22
0.0
 13
0.0
 23
0.0
 14
0.5
 24
0.5
 15
0.5
 25
0.5
 16
0.0
 26
-1.0
 36
0.0
 17
0.0
 27
0.0
 37
0.0
 40
1319.822715
 41
0.013454
 42
50.0
 43
672.020833
 44
-672.020833
 50
0.0
 51
0.0
 71
     0
 72
   100
 73
     1
 74
     3
 75
     0
 76
     0
 77
     0
 78
     0
281
     0
 65
     1
110
0.0
120
0.0
130
0.0
111
1.0
121
0.0
131
0.0
112
0.0
122
1.0
132
0.0
 79
     0
146
0.0
  0
VPORT
  5
1D1
330
8
100
AcDbSymbolTableRecord
100
AcDbViewportTableRecord
  2
L4
 70
     0
 10
0.5
 20
0.0
 11
1.0
 21
0.5
 12
0.0
 22
0.0
 13
0.0
 23
0.0
 14
0.5
 24
0.5
 15
0.5
 25
0.5
 16
1.0
 26
0.0
 36
0.0
 17
0.0
 27
0.0
 37
0.0
 40
1319.822715
 41
0.013454
 42
50.0
 43
672.020833
 44
-672.020833
 50
0.0
 51
0.0
 71
     0
 72
   100
 73
     1
 74
     3
 75
     0
 76
     0
 77
     0
 78
     0
281
     0
 65
     1
110
0.0
120
0.0
130
0.0
111
1.0
121
0.0
131
0.0
112
0.0
122
1.0
132
0.0
 79
     0
146
0.0
  0
VPORT
  5
1D2
330
8
100
AcDbSymbolTableRecord
100
AcDbViewportTableRecord
  2
L4
 70
     0
 10
0.5
 20
0.5
 11
1.0
 21
1.0
 12
0.0
 22
0.0
 13
0.0
 23
0.0
 14
0.5
 24
0.5
 15
0.5
 25
0.5
 16
0.5773502691896258
 26
-0.5773502691896258
 36
0.5773502691896258
 17
0.0
 27
0.0
 37
0.0
 40
1285.020866
 41
0.013818
 42
50.0
 43
667.141407
 44
-667.141407
 50
0.0
 51
0.0
 71
     0
 72
   100
 73
     1
 74
     3
 75
     0
 76
     0
 77
     0
 78
     0
281
     0
 65
     1
110
0.0
120
0.0
130
0.0
111
1.0
121
0.0
131
0.0
112
0.0
122
1.0
132
0.0
 79
     0
146
0.0
  0
VPORT
  5
1D3
330
8
100
AcDbSymbolTableRecord
100
AcDbViewportTableRecord
  2
L6
 70
     0
 10
0.0
 20
0.5
 11
0.333333
 21
1.0
 12
0.0
 22
0.0
 13
0.0
 23
0.0
 14
0.5
 24
0.5
 15
0.5
 25
0.5
 16
0.7188730927569433
 26
-0.5850486126764433
 36
0.3754192287502549
 17
0.0
 27
0.0
 37
0.0
 40
1357.434192
 41
0.013081
 42
50.0
 43
701.839477
 44
-701.839477
 50
0.0
 51
0.0
 71
     0
 72
   100
 73
     1
 74
     3
 75
     0
 76
     0
 77
     0
 78
     0
281
     0
 65
     1
110
0.0
120
0.0
130
0.0
111
1.0
121
0.0
131
0.0
112
0.0
122
1.0
132
0.0
 79
     0
146
0.0
  0
VPORT
  5
1D4
330
8
100
AcDbSymbolTableRecord
100
AcDbViewportTableRecord
  2
L6
 70
     0
 10
0.0
 20
0.0
 11
0.333333
 21
0.5
 12
0.0
 22
0.0
 13
0.0
 23
0.0
 14
0.5
 24
0.5
 15
0.5
 25
0.5
 16
-1.0
 26
0.0
 36
0.0
 17
0.0
 27
0.0
 37
0.0
 40
1319.822715
 41
0.013454
 42
50.0
 43
672.020833
 44
-672.020833
 50
0.0
 51
0.0
 71
     0
 72
   100
 73
     1
 74
     3
 75
     0
 76
     0
 77
     0
 78
     0
281
     0
 65
     1
110
0.0
120
0.0
130
0.0
111
1.0
121
0.0
131
0.0
112
0.0
122
1.0
132
0.0
 79
     0
146
0.0
  0
VPORT
  5
1D5
330
8
100
AcDbSymbolTableRecord
100
AcDbViewportTableRecord
  2
L6
 70
     0
 10
0.333333
 20
0.5
 11
0.666667
 21
1.0
 12
268.20741
 22
148.5
 13
0.0
 23
0.0
 14
0.5
 24
0.5
 15
0.5
 25
0.5
 16
0.0
 26
0.0
 36
1.0
 17
0.0
 27
0.0
 37
0.0
 40
254.0
 41
0.069908
 42
50.0
 43
965.853733
 44
-965.853733
 50
0.0
 51
0.0
 71
     0
 72
   100
 73
     1
 74
     3
 75
     0
 76
     0
 77
     0
 78
     0
281
     0
 65
     1
110
0.0
120
0.0
130
0.0
111
1.0
121
0.0
131
0.0
112
0.0
122
1.0
132
0.0
 79
     0
146
0.0
  0
VPORT
  5
1D6
330
8
100
AcDbSymbolTableRecord
100
AcDbViewportTableRecord
  2
L6
 70
     0
 10
0.333333
 20
0.0
 11
0.666667
 21
0.5
 12
0.0
 22
0.0
 13
0.0
 23
0.0
 14
0.5
 24
0.5
 15
0.5
 25
0.5
 16
0.0
 26
-1.0
 36
0.0
 17
0.0
 27
0.0
 37
0.0
 40
1319.822715
 41
0.013454
 42
50.0
 43
672.020833
 44
-672.020833
 50
0.0
 51
0.0
 71
     0
 72
   100
 73
     1
 74
     3
 75
     0
 76
     0
 77
     0
 78
     0
281
     0
 65
     1
110
0.0
120
0.0
130
0.0
111
1.0
121
0.0
131
0.0
112
0.0
122
1.0
132
0.0
 79
     0
146
0.0
  0
VPORT
  5
1D7
330
8
100
AcDbSymbolTableRecord
100
AcDbViewportTableRecord
  2
L6
 70
     0
 10
0.666667
 20
0.5
 11
1.0
 21
1.0
 12
0.0
 22
0.0
 13
0.0
 23
0.0
 14
0.5
 24
0.5
 15
0.5
 25
0.5
 16
0.5773502691896258
 26
-0.5773502691896258
 36
0.5773502691896258
 17
0.0
 27
0.0
 37
0.0
 40
1285.020866
 41
0.013818
 42
50.0
 43
667.141407
 44
-667.141407
 50
0.0
 51
0.0
 71
     0
 72
   100
 73
     1
 74
     3
 75
     0
 76
     0
 77
     0
 78
     0
281
     0
 65
     1
110
0.0
120
0.0
130
0.0
111
1.0
121
0.0
131
0.0
112
0.0
122
1.0
132
0.0
 79
     0
146
0.0
  0
VPORT
  5
1D8
330
8
100
AcDbSymbolTableRecord
100
AcDbViewportTableRecord
  2
L6
 70
     0
 10
0.666667
 20
0.0
 11
1.0
 21
0.5
 12
0.0
 22
0.0
 13
0.0
 23
0.0
 14
0.5
 24
0.5
 15
0.5
 25
0.5
 16
1.0
 26
0.0
 36
0.0
 17
0.0
 27
0.0
 37
0.0
 40
1319.822715
 41
0.013454
 42
50.0
 43
672.020833
 44
-672.020833
 50
0.0
 51
0.0
 71
     0
 72
   100
 73
     1
 74
     3
 75
     0
 76
     0
 77
     0
 78
     0
281
     0
 65
     1
110
0.0
120
0.0
130
0.0
111
1.0
121
0.0
131
0.0
112
0.0
122
1.0
132
0.0
 79
     0
146
0.0
  0
ENDTAB
  0
TABLE
  2
LTYPE
  5
5
330
0
100
AcDbSymbolTable
 70
     6
  0
LTYPE
  5
14
330
5
100
AcDbSymbolTableRecord
100
AcDbLinetypeTableRecord
  2
ByBlock
 70
     0
  3

 72
    65
 73
     0
 40
0.0
  0
LTYPE
  5
15
330
5
100
AcDbSymbolTableRecord
100
AcDbLinetypeTableRecord
  2
ByLayer
 70
     0
  3

 72
    65
 73
     0
 40
0.0
  0
LTYPE
  5
16
330
5
100
AcDbSymbolTableRecord
100
AcDbLinetypeTableRecord
  2
Continuous
 70
     0
  3
Solid line
 72
    65
 73
     0
 40
0.0
  0
LTYPE
  5
6A
330
5
100
AcDbSymbolTableRecord
100
AcDbLinetypeTableRecord
  2
CENTER
 70
     0
  3
____ _ ____ _ ____ _ ____
 72
    65
 73
     4
 40
47.4
 49
22.0
 74
     4
 75
     0
340
0
 46
0.0
 50
0.0
 44
0.0
 45
0.0
 49
-8.5
 74
     4
 75
     0
340
0
 46
0.0
 50
0.0
 44
0.0
 45
0.0
 49
8.5
 74
     4
 75
     0
340
0
 46
0.0
 50
0.0
 44
0.0
 45
0.0
 49
-8.5
 74
     4
 75
     0
340
0
 46
0.0
 50
0.0
 44
0.0
 45
0.0
  0
LTYPE
  5
6B
330
5
100
AcDbSymbolTableRecord
100
AcDbLinetypeTableRecord
  2
DASHDOT
 70
     0
  3
_._._._._._._._._._._._._._._._.
 72
    65
 73
     4
 40
70.0
 49
31.0
 74
     4
 75
     0
340
0
 46
0.0
 50
0.0
 44
0.0
 45
0.0
 49
-13.0
 74
     4
 75
     0
340
0
 46
0.0
 50
0.0
 44
0.0
 45
0.0
 49
13.0
 74
     4
 75
     0
340
0
 46
0.0
 50
0.0
 44
0.0
 45
0.0
 49
-13.0
 74
     4
 75
     0
340
0
 46
0.0
 50
0.0
 44
0.0
 45
0.0
  0
LTYPE
  5
6C
330
5
100
AcDbSymbolTableRecord
100
AcDbLinetypeTableRecord
  2
DASHED
 70
     0
  3
__ __ __ __ __ __ __ __ __
 72
    65
 73
     2
 40
25.72
 49
12.86
 74
     4
 75
     0
340
0
 46
0.0
 50
0.0
 44
0.0
 45
0.0
 49
-12.86
 74
     4
 75
     0
340
0
 46
0.0
 50
0.0
 44
0.0
 45
0.0
  0
LTYPE
  5
6D
330
5
100
AcDbSymbolTableRecord
100
AcDbLinetypeTableRecord
  2
DOT
 70
     0
  3
.........................
 72
    65
 73
     2
 40
10.0
 49
0.0
 74
     4
 75
     0
340
0
 46
0.0
 50
0.0
 44
0.0
 45
0.0
 49
-10.0
 74
     4
 75
     0
340
0
 46
0.0
 50
0.0
 44
0.0
 45
0.0
  0
LTYPE
  5
6E
330
5
100
AcDbSymbolTableRecord
100
AcDbLinetypeTableRecord
  2
PHANTOM
 70
     0
  3
____ _ _ ____ _ _ _____ _ _ ____
 72
    65
 73
     6
 40
50.5
 49
18.0
 74
     4
 75
     0
340
0
 46
0.0
 50
0.0
 44
0.0
 45
0.0
 49
-6.5
 74
     4
 75
     0
340
0
 46
0.0
 50
0.0
 44
0.0
 45
0.0
 49
6.5
 74
     4
 75
     0
340
0
 46
0.0
 50
0.0
 44
0.0
 45
0.0
 49
-6.5
 74
     4
 75
     0
340
0
 46
0.0
 50
0.0
 44
0.0
 45
0.0
 49
6.5
 74
     4
 75
     0
340
0
 46
0.0
 50
0.0
 44
0.0
 45
0.0
 49
-6.5
 74
     4
 75
     0
340
0
 46
0.0
 50
0.0
 44
0.0
 45
0.0
  0
ENDTAB
  0
TABLE
  2
LAYER
  5
2
330
0
100
AcDbSymbolTable
 70
     5
  0
LAYER
  5
10
330
2
100
AcDbSymbolTableRecord
100
AcDbLayerTableRecord
  2
0
 70
     0
 62
     7
  6
Continuous
370
    -3
390
F
  0
LAYER
  5
70
330
2
100
AcDbSymbolTableRecord
100
AcDbLayerTableRecord
  2
1
 70
     0
 62
     7
420
 16777215
  6
Continuous
370
    -3
390
F
  0
LAYER
  5
9A
330
2
100
AcDbSymbolTableRecord
100
AcDbLayerTableRecord
  2
256
 70
     0
 62
     7
420
 16777215
  6
Continuous
370
    -3
390
F
  0
LAYER
  5
AF
330
2
100
AcDbSymbolTableRecord
100
AcDbLayerTableRecord
  2
255
 70
     0
 62
     7
420
 16777215
  6
Continuous
370
    -3
390
F
  0
LAYER
  5
144
330
2
100
AcDbSymbolTableRecord
100
AcDbLayerTableRecord
  2
Defpoints
 70
     0
 62
     7
  6
Continuous
290
     0
370
    -3
390
F
  0
ENDTAB
  0
TABLE
  2
STYLE
  5
3
330
0
100
AcDbSymbolTable
 70
     4
  0
STYLE
  5
11
330
3
100
AcDbSymbolTableRecord
100
AcDbTextStyleTableRecord
  2
Standard
 70
     0
 40
0.0
 41
1.0
 50
0.0
 71
     0
 42
0.2
  3
txt
  4

  0
STYLE
  5
F0
330
3
100
AcDbSymbolTableRecord
100
AcDbTextStyleTableRecord
  2
ISOCPEUR
 70
     0
 40
0.0
 41
1.0
 50
0.0
 71
     0
 42
0.2
  3
ISOCPEUR
  4

1001
ACAD
1000
ISOCPEUR
1071
        0
  0
STYLE
  5
115
330
3
100
AcDbSymbolTableRecord
100
AcDbTextStyleTableRecord
  2
ideas_iso
 70
     0
 40
0.0
 41
1.0
 50
0.0
 71
     0
 42
0.2
  3
simplex.shx
  4

  0
STYLE
  5
116
330
3
100
AcDbSymbolTableRecord
100
AcDbTextStyleTableRecord
  2
DWGDirectTextStyle
 70
     0
 40
0.0
 41
1.0
 50
0.0
 71
     0
 42
0.2
  3
simplex
  4

  0
ENDTAB
  0
TABLE
  2
VIEW
  5
6
330
0
100
AcDbSymbolTable
 70
     8
  0
VIEW
  5
1BC
330
6
100
AcDbSymbolTableRecord
100
AcDbViewTableRecord
  2
Top
 70
     0
 40
254.0
 10
268.20741
 20
148.5
 41
254.0
 11
0.0
 21
0.0
 31
1.0
 12
0.0
 22
0.0
 32
0.0
 42
50.0
 43
965.853733
 44
-965.853733
 50
0.0
 71
     0
281
     0
 72
     0
  0
VIEW
  5
1BD
330
6
100
AcDbSymbolTableRecord
100
AcDbViewTableRecord
  2
Front
 70
     0
 40
1319.822715
 10
0.0
 20
0.0
 41
254.0
 11
0.0
 21
-1.0
 31
0.0
 12
0.0
 22
0.0
 32
0.0
 42
50.0
 43
672.020833
 44
-672.020833
 50
0.0
 71
     0
281
     0
 72
     0
  0
VIEW
  5
1BE
330
6
100
AcDbSymbolTableRecord
100
AcDbViewTableRecord
  2
Right
 70
     0
 40
1319.822715
 10
0.0
 20
0.0
 41
254.0
 11
1.0
 21
0.0
 31
0.0
 12
0.0
 22
0.0
 32
0.0
 42
50.0
 43
672.020833
 44
-672.020833
 50
0.0
 71
     0
281
     0
 72
     0
  0
VIEW
  5
1BF
330
6
100
AcDbSymbolTableRecord
100
AcDbViewTableRecord
  2
Back
 70
     0
 40
1319.822715
 10
0.0
 20
0.0
 41
254.0
 11
0.0
 21
1.0
 31
0.0
 12
0.0
 22
0.0
 32
0.0
 42
50.0
 43
672.020833
 44
-672.020833
 50
0.0
 71
     0
281
     0
 72
     0
  0
VIEW
  5
1C0
330
6
100
AcDbSymbolTableRecord
100
AcDbViewTableRecord
  2
Bottom
 70
     0
 40
254.0
 10
0.0
 20
0.0
 41
254.0
 11
0.0
 21
0.0
 31
-1.0
 12
0.0
 22
0.0
 32
0.0
 42
50.0
 43
659.911358
 44
-659.911358
 50
180.0
 71
     0
281
     0
 72
     0
  0
VIEW
  5
1C1
330
6
100
AcDbSymbolTableRecord
100
AcDbViewTableRecord
  2
Left
 70
     0
 40
1319.822715
 10
0.0
 20
0.0
 41
254.0
 11
-1.0
 21
0.0
 31
0.0
 12
0.0
 22
0.0
 32
0.0
 42
50.0
 43
672.020833
 44
-672.020833
 50
0.0
 71
     0
281
     0
 72
     0
  0
VIEW
  5
1C2
330
6
100
AcDbSymbolTableRecord
100
AcDbViewTableRecord
  2
Isometric
 70
     0
 40
1285.020866
 10
0.0
 20
0.0
 41
359.210245
 11
0.5773502691896258
 21
-0.5773502691896258
 31
0.5773502691896258
 12
0.0
 22
0.0
 32
0.0
 42
50.0
 43
667.141407
 44
-667.141407
 50
0.0
 71
     0
281
     0
 72
     0
  0
VIEW
  5
1C3
330
6
100
AcDbSymbolTableRecord
100
AcDbViewTableRecord
  2
Trimetric
 70
     0
 40
1357.434192
 10
0.0
 20
0.0
 41
357.33321
 11
0.7188730927569433
 21
-0.5850486126764433
 31
0.3754192287502549
 12
0.0
 22
0.0
 32
0.0
 42
50.0
 43
701.839477
 44
-701.839477
 50
0.0
 71
     0
281
     0
 72
     0
  0
ENDTAB
  0
TABLE
  2
UCS
  5
7
330
0
100
AcDbSymbolTable
 70
     0
  0
ENDTAB
  0
TABLE
  2
APPID
  5
9
330
0
100
AcDbSymbolTable
 70
     4
  0
APPID
  5
12
330
9
100
AcDbSymbolTableRecord
100
AcDbRegAppTableRecord
  2
ACAD
 70
     0
  0
APPID
  5
1D9
330
9
100
AcDbSymbolTableRecord
100
AcDbRegAppTableRecord
  2
ACAD_DSTYLE_DIM_LINETYPE
 70
     0
  0
APPID
  5
1DA
330
9
100
AcDbSymbolTableRecord
100
AcDbRegAppTableRecord
  2
ACAD_DSTYLE_DIM_EXT1_LINETYPE
 70
     0
  0
APPID
  5
1DB
330
9
100
AcDbSymbolTableRecord
100
AcDbRegAppTableRecord
  2
ACAD_DSTYLE_DIM_EXT2_LINETYPE
 70
     0
  0
ENDTAB
  0
TABLE
  2
DIMSTYLE
  5
A
330
0
100
AcDbSymbolTable
 70
     1
100
AcDbDimStyleTable
  0
DIMSTYLE
105
27
102
{ACAD_REACTORS
330
141
330
15B
102
}
330
A
100
AcDbSymbolTableRecord
100
AcDbDimStyleTableRecord
  2
Standard
 70
     0
178
     0
340
11
  0
ENDTAB
  0
TABLE
  2
BLOCK_RECORD
  5
1
330
0
100
AcDbSymbolTable
 70
    16
  0
BLOCK_RECORD
  5
1F
330
1
100
AcDbSymbolTableRecord
100
AcDbBlockTableRecord
  2
*Model_Space
340
22
  0
BLOCK_RECORD
  5
1B
330
1
100
AcDbSymbolTableRecord
100
AcDbBlockTableRecord
  2
*Paper_Space
340
1E
  0
BLOCK_RECORD
  5
23
330
1
100
AcDbSymbolTableRecord
100
AcDbBlockTableRecord
  2
*Paper_Space0
340
26
  0
BLOCK_RECORD
  5
EA
330
1
100
AcDbSymbolTableRecord
100
AcDbBlockTableRecord
  2
LABLE3D_1
340
0
102
{BLKREFS
331
F1
102
}
  0
BLOCK_RECORD
  5
EB
330
1
100
AcDbSymbolTableRecord
100
AcDbBlockTableRecord
  2
_NONE
340
0
  0
BLOCK_RECORD
  5
137
330
1
100
AcDbSymbolTableRecord
100
AcDbBlockTableRecord
  2
_U0
340
0
102
{BLKREFS
331
13E
102
}
  0
BLOCK_RECORD
  5
145
330
1
100
AcDbSymbolTableRecord
100
AcDbBlockTableRecord
  2
*D4
340
0
  0
BLOCK_RECORD
  5
152
330
1
100
AcDbSymbolTableRecord
100
AcDbBlockTableRecord
  2
_U1
340
0
  0
BLOCK_RECORD
  5
15E
330
1
100
AcDbSymbolTableRecord
100
AcDbBlockTableRecord
  2
*D6
340
0
  0
BLOCK_RECORD
  5
16A
330
1
100
AcDbSymbolTableRecord
100
AcDbBlockTableRecord
  2
_U2
340
0
  0
BLOCK_RECORD
  5
173
330
1
100
AcDbSymbolTableRecord
100
AcDbBlockTableRecord
  2
_U3
340
0
102
{BLKREFS
331
17A
102
}
  0
BLOCK_RECORD
  5
17D
330
1
100
AcDbSymbolTableRecord
100
AcDbBlockTableRecord
  2
GAP251
340
0
102
{BLKREFS
331
17E
102
}
  0
BLOCK_RECORD
  5
181
330
1
100
AcDbSymbolTableRecord
100
AcDbBlockTableRecord
  2
_U4
340
0
102
{BLKREFS
331
188
102
}
  0
BLOCK_RECORD
  5
18B
330
1
100
AcDbSymbolTableRecord
100
AcDbBlockTableRecord
  2
_U5
340
0
102
{BLKREFS
331
192
102
}
  0
BLOCK_RECORD
  5
195
330
1
100
AcDbSymbolTableRecord
100
AcDbBlockTableRecord
  2
_U6
340
0
102
{BLKREFS
331
19B
102
}
  0
BLOCK_RECORD
  5
19E
330
1
100
AcDbSymbolTableRecord
100
AcDbBlockTableRecord
  2
_U7
340
0
102
{BLKREFS
331
1A5
102
}
  0
BLOCK_RECORD
  5
1A8
330
1
100
AcDbSymbolTableRecord
100
AcDbBlockTableRecord
  2
_U8
340
0
102
{BLKREFS
331
1AF
102
}
  0
BLOCK_RECORD
  5
1B2
330
1
100
AcDbSymbolTableRecord
100
AcDbBlockTableRecord
  2
_U9
340
0
102
{BLKREFS
331
1B9
102
}
  0
ENDTAB
  0
ENDSEC
  0
SECTION
  2
BLOCKS
  0
BLOCK
  5
20
330
1F
100
AcDbEntity
  8
0
100
AcDbBlockBegin
  2
*Model_Space
 70
     0
 10
0.0
 20
0.0
 30
0.0
  3
*Model_Space
  1
*Model_Space
  0
ENDBLK
  5
21
330
1F
100
AcDbEntity
  8
0
100
AcDbBlockEnd
  0
BLOCK
  5
1C
330
1B
100
AcDbEntity
 67
     1
  8
0
100
AcDbBlockBegin
  2
*Paper_Space
 70
     0
 10
0.0
 20
0.0
 30
0.0
  3
*Paper_Space
  1
*Paper_Space
  0
ENDBLK
  5
1D
330
1B
100
AcDbEntity
 67
     1
  8
0
100
AcDbBlockEnd
  0
BLOCK
  5
24
330
23
100
AcDbEntity
  8
0
100
AcDbBlockBegin
  2
*Paper_Space0
 70
     0
 10
0.0
 20
0.0
 30
0.0
  3
*Paper_Space0
  1
*Paper_Space0
  0
ENDBLK
  5
25
330
23
100
AcDbEntity
  8
0
100
AcDbBlockEnd
  0
BLOCK
  5
F2
330
EA
100
AcDbEntity
  8
0
100
AcDbBlockBegin
  2
LABLE3D_1
 70
     0
 10
0.0
 20
0.0
 30
0.0
  3
LABLE3D_1
  1
LABLE3D_1
  0
MTEXT
  5
EF
330
EA
100
AcDbEntity
  8
1
  6
Continuous
 62
    35
370
    18
100
AcDbMText
 10
85.821474
 20
132.228458
 30
0.0
 40
3.5
 41
0.0
 71
     7
 72
     5
  1
\W1.0000;fuer M5
  7
ISOCPEUR
 73
     2
 44
0.85889
  0
ENDBLK
  5
F3
330
EA
100
AcDbEntity
  8
0
100
AcDbBlockEnd
  0
BLOCK
  5
EC
330
EB
100
AcDbEntity
  8
0
100
AcDbBlockBegin
  2
_NONE
 70
     0
 10
0.0
 20
0.0
 30
0.0
  3
_NONE
  1
_NONE
  0
ENDBLK
  5
ED
330
EB
100
AcDbEntity
  8
0
100
AcDbBlockEnd
  0
BLOCK
  5
13F
330
137
100
AcDbEntity
  8
0
100
AcDbBlockBegin
  2
_U0
 70
     0
 10
0.0
 20
0.0
 30
0.0
  3
_U0
  1
_U0
  0
MTEXT
  5
138
330
137
100
AcDbEntity
  8
1
  6
Continuous
 62
    35
370
    13
100
AcDbMText
 10
66.401316
 20
202.133385
 30
0.0
 40
3.5
 41
0.0
 71
     7
 72
     5
  1
\W1.0000;48
  7
ISOCPEUR
 11
6.123233995736766E-17
 21
1.0
 31
0.0
 73
     2
 44
1.115371
  0
LINE
  5
139
330
137
100
AcDbEntity
  8
1
 62
    35
370
    13
100
AcDbLine
 10
103.851508
 20
179.583385
 30
0.0
 11
66.101508
 21
179.583385
 31
0.0
  0
LINE
  5
13A
330
137
100
AcDbEntity
  8
1
 62
    35
370
    13
100
AcDbLine
 10
103.851508
 20
227.833385
 30
0.0
 11
66.101508
 21
227.833385
 31
0.0
  0
LINE
  5
13B
330
137
100
AcDbEntity
  8
1
 62
    35
370
    13
100
AcDbLine
 10
67.101508
 20
179.583385
 30
0.0
 11
67.101508
 21
227.833385
 31
0.0
  0
SOLID
  5
13C
330
137
100
AcDbEntity
  8
1
 62
    35
370
    18
100
AcDbTrace
 10
67.101508
 20
179.583385
 30
0.0
 11
66.048288
 21
187.583381
 31
0.0
 12
68.154728
 22
187.583389
 32
0.0
 13
67.101508
 23
179.583385
 33
0.0
  0
SOLID
  5
13D
330
137
100
AcDbEntity
  8
1
 62
    35
370
    18
100
AcDbTrace
 10
67.101508
 20
227.833385
 30
0.0
 11
68.154728
 21
219.833389
 31
0.0
 12
66.048288
 22
219.833381
 32
0.0
 13
67.101508
 23
227.833385
 33
0.0
  0
ENDBLK
  5
140
330
137
100
AcDbEntity
  8
0
100
AcDbBlockEnd
  0
BLOCK
  5
146
330
145
100
AcDbEntity
  8
0
100
AcDbBlockBegin
  2
*D4
 70
     1
 10
0.0
 20
0.0
 30
0.0
  3
*D4
  1
*D4
  0
LINE
  5
148
330
145
100
AcDbEntity
  8
0
 62
    35
370
    -2
100
AcDbLine
 10
115.851508
 20
249.708385
 30
0.0
 11
115.851508
 21
260.708385
 31
0.0
  0
LINE
  5
149
330
145
100
AcDbEntity
  8
0
 62
    35
370
    -2
100
AcDbLine
 10
139.851508
 20
249.708385
 30
0.0
 11
139.851508
 21
260.708385
 31
0.0
  0
LINE
  5
14A
330
145
100
AcDbEntity
  8
0
 62
    35
370
    -2
100
AcDbLine
 10
107.851508
 20
259.708385
 30
0.0
 11
99.851508
 21
259.708385
 31
0.0
  0
LINE
  5
14B
330
145
100
AcDbEntity
  8
0
 62
    35
370
    -2
100
AcDbLine
 10
147.851508
 20
259.708385
 30
0.0
 11
155.851508
 21
259.708385
 31
0.0
  0
SOLID
  5
14C
330
145
100
AcDbEntity
  8
0
 62
    35
100
AcDbTrace
 10
107.851508
 20
258.375052
 30
0.0
 11
107.851508
 21
261.041718
 31
0.0
 12
115.851508
 22
259.708385
 32
0.0
 13
115.851508
 23
259.708385
 33
0.0
  0
SOLID
  5
14D
330
145
100
AcDbEntity
  8
0
 62
    35
100
AcDbTrace
 10
147.851508
 20
261.041718
 30
0.0
 11
147.851508
 21
258.375052
 31
0.0
 12
139.851508
 22
259.708385
 32
0.0
 13
139.851508
 23
259.708385
 33
0.0
  0
MTEXT
  5
14E
330
145
100
AcDbEntity
  8
0
 62
    35
370
    18
100
AcDbMText
 10
127.851508
 20
266.708385
 30
0.0
 40
3.5
 41
0.0
 71
     5
 72
     1
  1
\A1;24
  7
ISOCPEUR
 73
     1
 44
1.0
  0
POINT
  5
14F
330
145
100
AcDbEntity
  8
Defpoints
 62
     0
100
AcDbPoint
 10
115.851508
 20
249.708385
 30
0.0
  0
POINT
  5
150
330
145
100
AcDbEntity
  8
Defpoints
 62
     0
100
AcDbPoint
 10
139.851508
 20
249.708385
 30
0.0
  0
POINT
  5
151
330
145
100
AcDbEntity
  8
Defpoints
 62
     0
100
AcDbPoint
 10
139.851508
 20
259.708385
 30
0.0
  0
ENDBLK
  5
147
330
145
100
AcDbEntity
  8
0
100
AcDbBlockEnd
  0
BLOCK
  5
159
330
152
100
AcDbEntity
  8
0
100
AcDbBlockBegin
  2
_U1
 70
     0
 10
0.0
 20
0.0
 30
0.0
  3
_U1
  1
_U1
  0
MTEXT
  5
153
330
152
100
AcDbEntity
  8
1
  6
Continuous
 62
    35
370
    13
100
AcDbMText
 10
126.276508
 20
260.408577
 30
0.0
 40
3.5
 41
0.0
 71
     7
 72
     5
  1
\W1.0000;24
  7
ISOCPEUR
 73
     2
 44
1.115371
  0
LINE
  5
154
330
152
100
AcDbEntity
  8
1
 62
    35
370
    13
100
AcDbLine
 10
115.851508
 20
249.708385
 30
0.0
 11
115.851508
 21
260.708385
 31
0.0
  0
LINE
  5
155
330
152
100
AcDbEntity
  8
1
 62
    35
370
    13
100
AcDbLine
 10
139.851508
 20
249.708385
 30
0.0
 11
139.851508
 21
260.708385
 31
0.0
  0
LINE
  5
156
330
152
100
AcDbEntity
  8
1
 62
    35
370
    13
100
AcDbLine
 10
115.851508
 20
259.708385
 30
0.0
 11
139.851508
 21
259.708385
 31
0.0
  0
SOLID
  5
157
330
152
100
AcDbEntity
  8
1
 62
    35
370
    18
100
AcDbTrace
 10
115.851508
 20
259.708385
 30
0.0
 11
123.851504
 21
260.761605
 31
0.0
 12
123.851512
 22
258.655165
 32
0.0
 13
115.851508
 23
259.708385
 33
0.0
  0
SOLID
  5
158
330
152
100
AcDbEntity
  8
1
 62
    35
370
    18
100
AcDbTrace
 10
139.851508
 20
259.708385
 30
0.0
 11
131.851512
 21
258.655165
 31
0.0
 12
131.851504
 22
260.761605
 32
0.0
 13
139.851508
 23
259.708385
 33
0.0
  0
ENDBLK
  5
15A
330
152
100
AcDbEntity
  8
0
100
AcDbBlockEnd
  0
BLOCK
  5
15F
330
15E
100
AcDbEntity
  8
0
100
AcDbBlockBegin
  2
*D6
 70
     1
 10
0.0
 20
0.0
 30
0.0
  3
*D6
  1
*D6
  0
LINE
  5
161
330
15E
100
AcDbEntity
  8
0
 62
    35
370
    -2
100
AcDbLine
 10
80.101508
 20
238.708385
 30
0.0
 11
80.101508
 21
271.708385
 31
0.0
  0
LINE
  5
162
330
15E
100
AcDbEntity
  8
0
 62
    35
370
    -2
100
AcDbLine
 10
139.851508
 20
249.708385
 30
0.0
 11
139.851508
 21
271.708385
 31
0.0
  0
LINE
  5
163
330
15E
100
AcDbEntity
  8
0
 62
    35
370
    -2
100
AcDbLine
 10
88.101508
 20
270.708385
 30
0.0
 11
131.851508
 21
270.708385
 31
0.0
  0
SOLID
  5
164
330
15E
100
AcDbEntity
  8
0
 62
    35
100
AcDbTrace
 10
88.101508
 20
272.041718
 30
0.0
 11
88.101508
 21
269.375052
 31
0.0
 12
80.101508
 22
270.708385
 32
0.0
 13
80.101508
 23
270.708385
 33
0.0
  0
SOLID
  5
165
330
15E
100
AcDbEntity
  8
0
 62
    35
100
AcDbTrace
 10
131.851508
 20
269.375052
 30
0.0
 11
131.851508
 21
272.041718
 31
0.0
 12
139.851508
 22
270.708385
 32
0.0
 13
139.851508
 23
270.708385
 33
0.0
  0
MTEXT
  5
166
330
15E
100
AcDbEntity
  8
0
 62
    35
370
    18
100
AcDbMText
 10
109.976508
 20
277.708385
 30
0.0
 40
3.5
 41
0.0
 71
     5
 72
     1
  1
\A1;60
  7
ISOCPEUR
 73
     1
 44
1.0
  0
POINT
  5
167
330
15E
100
AcDbEntity
  8
Defpoints
 62
     0
100
AcDbPoint
 10
80.101508
 20
238.708385
 30
0.0
  0
POINT
  5
168
330
15E
100
AcDbEntity
  8
Defpoints
 62
     0
100
AcDbPoint
 10
139.851508
 20
249.708385
 30
0.0
  0
POINT
  5
169
330
15E
100
AcDbEntity
  8
Defpoints
 62
     0
100
AcDbPoint
 10
139.851508
 20
270.708385
 30
0.0
  0
ENDBLK
  5
160
330
15E
100
AcDbEntity
  8
0
100
AcDbBlockEnd
  0
BLOCK
  5
171
330
16A
100
AcDbEntity
  8
0
100
AcDbBlockBegin
  2
_U2
 70
     0
 10
0.0
 20
0.0
 30
0.0
  3
_U2
  1
_U2
  0
MTEXT
  5
16B
330
16A
100
AcDbEntity
  8
1
  6
Continuous
 62
    35
370
    13
100
AcDbMText
 10
108.576508
 20
271.408577
 30
0.0
 40
3.5
 41
0.0
 71
     7
 72
     5
  1
\W1.0000;60
  7
ISOCPEUR
 73
     2
 44
1.115371
  0
LINE
  5
16C
330
16A
100
AcDbEntity
  8
1
 62
    35
370
    13
100
AcDbLine
 10
80.101508
 20
238.708385
 30
0.0
 11
80.101508
 21
271.708385
 31
0.0
  0
LINE
  5
16D
330
16A
100
AcDbEntity
  8
1
 62
    35
370
    13
100
AcDbLine
 10
139.851508
 20
249.708385
 30
0.0
 11
139.851508
 21
271.708385
 31
0.0
  0
LINE
  5
16E
330
16A
100
AcDbEntity
  8
1
 62
    35
370
    13
100
AcDbLine
 10
80.101508
 20
270.708385
 30
0.0
 11
139.851508
 21
270.708385
 31
0.0
  0
SOLID
  5
16F
330
16A
100
AcDbEntity
  8
1
 62
    35
370
    18
100
AcDbTrace
 10
80.101508
 20
270.708385
 30
0.0
 11
88.101504
 21
271.761605
 31
0.0
 12
88.101512
 22
269.655165
 32
0.0
 13
80.101508
 23
270.708385
 33
0.0
  0
SOLID
  5
170
330
16A
100
AcDbEntity
  8
1
 62
    35
370
    18
100
AcDbTrace
 10
139.851508
 20
270.708385
 30
0.0
 11
131.851512
 21
269.655165
 31
0.0
 12
131.851504
 22
271.761605
 32
0.0
 13
139.851508
 23
270.708385
 33
0.0
  0
ENDBLK
  5
172
330
16A
100
AcDbEntity
  8
0
100
AcDbBlockEnd
  0
BLOCK
  5
17B
330
173
100
AcDbEntity
  8
0
100
AcDbBlockBegin
  2
_U3
 70
     0
 10
0.0
 20
0.0
 30
0.0
  3
_U3
  1
_U3
  0
MTEXT
  5
174
330
173
100
AcDbEntity
  8
1
  6
Continuous
 62
    35
370
    13
100
AcDbMText
 10
166.151316
 20
182.433385
 30
0.0
 40
3.5
 41
0.0
 71
     7
 72
     5
  1
\W1.0000;130
  7
ISOCPEUR
 11
6.123233995736766E-17
 21
1.0
 31
0.0
 73
     2
 44
1.115371
  0
LINE
  5
175
330
173
100
AcDbEntity
  8
1
 62
    35
370
    13
100
AcDbLine
 10
139.851508
 20
119.708385
 30
0.0
 11
167.851508
 21
119.708385
 31
0.0
  0
LINE
  5
176
330
173
100
AcDbEntity
  8
1
 62
    35
370
    13
100
AcDbLine
 10
139.851508
 20
249.708385
 30
0.0
 11
167.851508
 21
249.708385
 31
0.0
  0
LINE
  5
177
330
173
100
AcDbEntity
  8
1
 62
    35
370
    13
100
AcDbLine
 10
166.851508
 20
119.708385
 30
0.0
 11
166.851508
 21
249.708385
 31
0.0
  0
SOLID
  5
178
330
173
100
AcDbEntity
  8
1
 62
    35
370
    18
100
AcDbTrace
 10
166.851508
 20
119.708385
 30
0.0
 11
165.798288
 21
127.708381
 31
0.0
 12
167.904728
 22
127.708389
 32
0.0
 13
166.851508
 23
119.708385
 33
0.0
  0
SOLID
  5
179
330
173
100
AcDbEntity
  8
1
 62
    35
370
    18
100
AcDbTrace
 10
166.851508
 20
249.708385
 30
0.0
 11
167.904728
 21
241.708389
 31
0.0
 12
165.798288
 22
241.708381
 32
0.0
 13
166.851508
 23
249.708385
 33
0.0
  0
ENDBLK
  5
17C
330
173
100
AcDbEntity
  8
0
100
AcDbBlockEnd
  0
BLOCK
  5
17F
330
17D
100
AcDbEntity
  8
0
100
AcDbBlockBegin
  2
GAP251
 70
     0
 10
0.0
 20
0.0
 30
0.0
  3
GAP251
  1
GAP251
  0
ENDBLK
  5
180
330
17D
100
AcDbEntity
  8
0
100
AcDbBlockEnd
  0
BLOCK
  5
189
330
181
100
AcDbEntity
  8
0
100
AcDbBlockBegin
  2
_U4
 70
     0
 10
0.0
 20
0.0
 30
0.0
  3
_U4
  1
_U4
  0
MTEXT
  5
182
330
181
100
AcDbEntity
  8
1
  6
Continuous
 62
    35
370
    13
100
AcDbMText
 10
52.401316
 20
202.308385
 30
0.0
 40
3.5
 41
0.0
 71
     7
 72
     5
  1
\W1.0000;70
  7
ISOCPEUR
 11
6.123233995736766E-17
 21
1.0
 31
0.0
 73
     2
 44
1.115371
  0
LINE
  5
183
330
181
100
AcDbEntity
  8
1
 62
    35
370
    13
100
AcDbLine
 10
80.101508
 20
168.708385
 30
0.0
 11
52.101508
 21
168.708385
 31
0.0
  0
LINE
  5
184
330
181
100
AcDbEntity
  8
1
 62
    35
370
    13
100
AcDbLine
 10
80.101508
 20
238.708385
 30
0.0
 11
52.101508
 21
238.708385
 31
0.0
  0
LINE
  5
185
330
181
100
AcDbEntity
  8
1
 62
    35
370
    13
100
AcDbLine
 10
53.101508
 20
168.708385
 30
0.0
 11
53.101508
 21
238.708385
 31
0.0
  0
SOLID
  5
186
330
181
100
AcDbEntity
  8
1
 62
    35
370
    18
100
AcDbTrace
 10
53.101508
 20
168.708385
 30
0.0
 11
52.048288
 21
176.708381
 31
0.0
 12
54.154728
 22
176.708389
 32
0.0
 13
53.101508
 23
168.708385
 33
0.0
  0
SOLID
  5
187
330
181
100
AcDbEntity
  8
1
 62
    35
370
    18
100
AcDbTrace
 10
53.101508
 20
238.708385
 30
0.0
 11
54.154728
 21
230.708389
 31
0.0
 12
52.048288
 22
230.708381
 32
0.0
 13
53.101508
 23
238.708385
 33
0.0
  0
ENDBLK
  5
18A
330
181
100
AcDbEntity
  8
0
100
AcDbBlockEnd
  0
BLOCK
  5
193
330
18B
100
AcDbEntity
  8
0
100
AcDbBlockBegin
  2
_U5
 70
     0
 10
0.0
 20
0.0
 30
0.0
  3
_U5
  1
_U5
  0
MTEXT
  5
18C
330
18B
100
AcDbEntity
  8
1
  6
Continuous
 62
    35
370
    13
100
AcDbMText
 10
66.401316
 20
237.370885
 30
0.0
 40
3.5
 41
0.0
 71
     7
 72
     5
  1
\W1.0000;22
  7
ISOCPEUR
 11
6.123233995736766E-17
 21
1.0
 31
0.0
 73
     2
 44
1.115371
  0
LINE
  5
18D
330
18B
100
AcDbEntity
  8
1
 62
    35
370
    13
100
AcDbLine
 10
103.851508
 20
227.833385
 30
0.0
 11
66.101508
 21
227.833385
 31
0.0
  0
LINE
  5
18E
330
18B
100
AcDbEntity
  8
1
 62
    35
370
    13
100
AcDbLine
 10
115.851508
 20
249.708385
 30
0.0
 11
66.101508
 21
249.708385
 31
0.0
  0
LINE
  5
18F
330
18B
100
AcDbEntity
  8
1
 62
    35
370
    13
100
AcDbLine
 10
67.101508
 20
227.833385
 30
0.0
 11
67.101508
 21
249.708385
 31
0.0
  0
SOLID
  5
190
330
18B
100
AcDbEntity
  8
1
 62
    35
370
    18
100
AcDbTrace
 10
67.101508
 20
227.833385
 30
0.0
 11
66.048288
 21
235.833381
 31
0.0
 12
68.154728
 22
235.833389
 32
0.0
 13
67.101508
 23
227.833385
 33
0.0
  0
SOLID
  5
191
330
18B
100
AcDbEntity
  8
1
 62
    35
370
    18
100
AcDbTrace
 10
67.101508
 20
249.708385
 30
0.0
 11
68.154728
 21
241.708389
 31
0.0
 12
66.048288
 22
241.708381
 32
0.0
 13
67.101508
 23
249.708385
 33
0.0
  0
ENDBLK
  5
194
330
18B
100
AcDbEntity
  8
0
100
AcDbBlockEnd
  0
BLOCK
  5
19C
330
195
100
AcDbEntity
  8
0
100
AcDbBlockBegin
  2
_U6
 70
     0
 10
0.0
 20
0.0
 30
0.0
  3
_U6
  1
_U6
  0
MTEXT
  5
196
330
195
100
AcDbEntity
  8
1
  6
Continuous
 62
    35
370
    13
100
AcDbMText
 10
52.401316
 20
262.225243
 30
0.0
 40
3.5
 41
0.0
 71
     7
 72
     5
  1
\W1.0000;11
  7
ISOCPEUR
 11
6.123233995736766E-17
 21
1.0
 31
0.0
 73
     2
 44
1.115371
  0
LINE
  5
197
330
195
100
AcDbEntity
  8
1
 62
    35
370
    13
100
AcDbLine
 10
115.851508
 20
249.708385
 30
0.0
 11
52.101508
 21
249.708385
 31
0.0
  0
LINE
  5
198
330
195
100
AcDbEntity
  8
1
 62
    35
370
    13
100
AcDbLine
 10
53.101508
 20
264.500243
 30
0.0
 11
53.101508
 21
228.208385
 31
0.0
  0
SOLID
  5
199
330
195
100
AcDbEntity
  8
1
 62
    35
370
    18
100
AcDbTrace
 10
53.101508
 20
238.708385
 30
0.0
 11
54.154728
 21
230.708389
 31
0.0
 12
52.048288
 22
230.708381
 32
0.0
 13
53.101508
 23
238.708385
 33
0.0
  0
SOLID
  5
19A
330
195
100
AcDbEntity
  8
1
 62
    35
370
    18
100
AcDbTrace
 10
53.101508
 20
249.708385
 30
0.0
 11
52.048288
 21
257.708381
 31
0.0
 12
54.154728
 22
257.708389
 32
0.0
 13
53.101508
 23
249.708385
 33
0.0
  0
ENDBLK
  5
19D
330
195
100
AcDbEntity
  8
0
100
AcDbBlockEnd
  0
BLOCK
  5
1A6
330
19E
100
AcDbEntity
  8
0
100
AcDbBlockBegin
  2
_U7
 70
     0
 10
0.0
 20
0.0
 30
0.0
  3
_U7
  1
_U7
  0
MTEXT
  5
19F
330
19E
100
AcDbEntity
  8
1
  6
Continuous
 62
    35
370
    13
100
AcDbMText
 10
126.195817
 20
92.317472
 30
0.0
 40
3.5
 41
0.0
 71
     7
 72
     5
  1
\W1.0000;25
  7
ISOCPEUR
 73
     2
 44
1.115371
  0
LINE
  5
1A0
330
19E
100
AcDbEntity
  8
1
 62
    35
370
    13
100
AcDbLine
 10
115.340126
 20
80.49596
 30
0.0
 11
115.340126
 21
92.61728
 31
0.0
  0
LINE
  5
1A1
330
19E
100
AcDbEntity
  8
1
 62
    35
370
    13
100
AcDbLine
 10
139.851508
 20
74.492623
 30
0.0
 11
139.851508
 21
92.61728
 31
0.0
  0
LINE
  5
1A2
330
19E
100
AcDbEntity
  8
1
 62
    35
370
    13
100
AcDbLine
 10
115.340126
 20
91.61728
 30
0.0
 11
139.851508
 21
91.61728
 31
0.0
  0
SOLID
  5
1A3
330
19E
100
AcDbEntity
  8
1
 62
    35
370
    18
100
AcDbTrace
 10
115.340126
 20
91.61728
 30
0.0
 11
123.340122
 21
92.6705
 31
0.0
 12
123.34013
 22
90.56406
 32
0.0
 13
115.340126
 23
91.61728
 33
0.0
  0
SOLID
  5
1A4
330
19E
100
AcDbEntity
  8
1
 62
    35
370
    18
100
AcDbTrace
 10
139.851508
 20
91.61728
 30
0.0
 11
131.851512
 21
90.56406
 31
0.0
 12
131.851504
 22
92.6705
 32
0.0
 13
139.851508
 23
91.61728
 33
0.0
  0
ENDBLK
  5
1A7
330
19E
100
AcDbEntity
  8
0
100
AcDbBlockEnd
  0
BLOCK
  5
1B0
330
1A8
100
AcDbEntity
  8
0
100
AcDbBlockBegin
  2
_U8
 70
     0
 10
0.0
 20
0.0
 30
0.0
  3
_U8
  1
_U8
  0
MTEXT
  5
1A9
330
1A8
100
AcDbEntity
  8
1
  6
Continuous
 62
    35
370
    13
100
AcDbMText
 10
154.151316
 20
93.69583
 30
0.0
 40
3.5
 41
0.0
 71
     7
 72
     5
  1
\W1.0000;9
  7
ISOCPEUR
 11
6.123233995736766E-17
 21
1.0
 31
0.0
 73
     2
 44
1.115371
  0
LINE
  5
1AA
330
1A8
100
AcDbEntity
  8
1
 62
    35
370
    13
100
AcDbLine
 10
115.340126
 20
80.49596
 30
0.0
 11
155.851508
 21
80.49596
 31
0.0
  0
LINE
  5
1AB
330
1A8
100
AcDbEntity
  8
1
 62
    35
370
    13
100
AcDbLine
 10
139.851508
 20
71.492623
 30
0.0
 11
155.851508
 21
71.492623
 31
0.0
  0
LINE
  5
1AC
330
1A8
100
AcDbEntity
  8
1
 62
    35
370
    13
100
AcDbLine
 10
154.851508
 20
60.992623
 30
0.0
 11
154.851508
 21
94.92083
 31
0.0
  0
SOLID
  5
1AD
330
1A8
100
AcDbEntity
  8
1
 62
    35
370
    18
100
AcDbTrace
 10
154.851508
 20
80.49596
 30
0.0
 11
153.798288
 21
88.495956
 31
0.0
 12
155.904728
 22
88.495964
 32
0.0
 13
154.851508
 23
80.49596
 33
0.0
  0
SOLID
  5
1AE
330
1A8
100
AcDbEntity
  8
1
 62
    35
370
    18
100
AcDbTrace
 10
154.851508
 20
71.492623
 30
0.0
 11
155.904728
 21
63.492627
 31
0.0
 12
153.798288
 22
63.492619
 32
0.0
 13
154.851508
 23
71.492623
 33
0.0
  0
ENDBLK
  5
1B1
330
1A8
100
AcDbEntity
  8
0
100
AcDbBlockEnd
  0
BLOCK
  5
1BA
330
1B2
100
AcDbEntity
  8
0
100
AcDbBlockBegin
  2
_U9
 70
     0
 10
0.0
 20
0.0
 30
0.0
  3
_U9
  1
_U9
  0
MTEXT
  5
1B3
330
1B2
100
AcDbEntity
  8
1
  6
Continuous
 62
    35
370
    13
100
AcDbMText
 10
66.401316
 20
86.886594
 30
0.0
 40
3.5
 41
0.0
 71
     7
 72
     5
  1
\W1.0000;3
  7
ISOCPEUR
 11
6.123233995736766E-17
 21
1.0
 31
0.0
 73
     2
 44
1.115371
  0
LINE
  5
1B4
330
1B2
100
AcDbEntity
  8
1
 62
    35
370
    13
100
AcDbLine
 10
80.101508
 20
71.492623
 30
0.0
 11
66.101508
 21
71.492623
 31
0.0
  0
LINE
  5
1B5
330
1B2
100
AcDbEntity
  8
1
 62
    35
370
    13
100
AcDbLine
 10
80.101508
 20
74.492623
 30
0.0
 11
66.101508
 21
74.492623
 31
0.0
  0
LINE
  5
1B6
330
1B2
100
AcDbEntity
  8
1
 62
    35
370
    13
100
AcDbLine
 10
67.101508
 20
88.111594
 30
0.0
 11
67.101508
 21
60.992623
 31
0.0
  0
SOLID
  5
1B7
330
1B2
100
AcDbEntity
  8
1
 62
    35
370
    18
100
AcDbTrace
 10
67.101508
 20
71.492623
 30
0.0
 11
68.154728
 21
63.492627
 31
0.0
 12
66.048288
 22
63.492619
 32
0.0
 13
67.101508
 23
71.492623
 33
0.0
  0
SOLID
  5
1B8
330
1B2
100
AcDbEntity
  8
1
 62
    35
370
    18
100
AcDbTrace
 10
67.101508
 20
74.492623
 30
0.0
 11
66.048288
 21
82.492619
 31
0.0
 12
68.154728
 22
82.492627
 32
0.0
 13
67.101508
 23
74.492623
 33
0.0
  0
ENDBLK
  5
1BB
330
1B2
100
AcDbEntity
  8
0
100
AcDbBlockEnd
  0
ENDSEC
  0
SECTION
  2
ENTITIES
  0
POINT
  5
6F
330
1F
100
AcDbEntity
  8
1
  6
Continuous
 62
   203
 60
     1
370
    13
100
AcDbPoint
 10
127.851508
 20
71.492623
 30
0.0
  0
POINT
  5
71
330
1F
100
AcDbEntity
  8
1
  6
Continuous
 62
   163
 60
     1
370
    18
100
AcDbPoint
 10
59.381508
 20
238.708385
 30
0.0
  0
LINE
  5
72
330
1F
100
AcDbEntity
  8
1
  6
Continuous
 62
   155
370
    25
100
AcDbLine
 10
108.094149
 20
183.583385
 30
0.0
 11
115.340126
 21
183.583385
 31
0.0
  0
LINE
  5
73
102
{ACAD_REACTORS
330
143
102
}
330
1F
100
AcDbEntity
  8
1
  6
Continuous
 62
   155
370
    25
100
AcDbLine
 10
115.851508
 20
249.708385
 30
0.0
 11
115.851508
 21
238.708385
 31
0.0
  0
LINE
  5
74
102
{ACAD_REACTORS
330
15D
102
}
330
1F
100
AcDbEntity
  8
1
  6
Continuous
 62
   155
370
    25
100
AcDbLine
 10
80.101508
 20
238.708385
 30
0.0
 11
80.101508
 21
168.708385
 31
0.0
  0
LINE
  5
75
330
1F
100
AcDbEntity
  8
1
  6
Continuous
 62
   155
370
    25
100
AcDbLine
 10
129.085404
 20
119.708385
 30
0.0
 11
139.851508
 21
119.708385
 31
0.0
  0
LINE
  5
76
330
1F
100
AcDbEntity
  8
1
  6
Continuous
 62
   155
370
    25
100
AcDbLine
 10
139.851508
 20
249.708385
 30
0.0
 11
129.085404
 21
249.708385
 31
0.0
  0
LINE
  5
77
330
1F
100
AcDbEntity
  8
1
  6
Continuous
 62
   155
370
    25
100
AcDbLine
 10
122.351508
 20
227.833385
 30
0.0
 11
103.851508
 21
227.833385
 31
0.0
  0
LINE
  5
78
330
1F
100
AcDbEntity
  8
1
  6
Continuous
 62
   155
370
    25
100
AcDbLine
 10
103.851508
 20
179.583385
 30
0.0
 11
122.351508
 21
179.583385
 31
0.0
  0
LINE
  5
79
330
1F
100
AcDbEntity
  8
1
  6
Continuous
 62
   155
370
    25
100
AcDbLine
 10
115.851508
 20
238.708385
 30
0.0
 11
80.101508
 21
238.708385
 31
0.0
  0
LINE
  5
7A
330
1F
100
AcDbEntity
  8
1
  6
Continuous
 62
   155
370
    25
100
AcDbLine
 10
80.101508
 20
168.708385
 30
0.0
 11
115.851508
 21
168.708385
 31
0.0
  0
LINE
  5
7B
330
1F
100
AcDbEntity
  8
1
  6
Continuous
 62
   155
370
    25
100
AcDbLine
 10
126.617612
 20
249.708385
 30
0.0
 11
115.851508
 21
249.708385
 31
0.0
  0
LINE
  5
7C
102
{ACAD_REACTORS
330
143
330
15D
102
}
330
1F
100
AcDbEntity
  8
1
  6
Continuous
 62
   155
370
    25
100
AcDbLine
 10
139.851508
 20
119.708385
 30
0.0
 11
139.851508
 21
249.708385
 31
0.0
  0
LINE
  5
7D
330
1F
100
AcDbEntity
  8
1
  6
Continuous
 62
   155
370
    25
100
AcDbLine
 10
115.851508
 20
168.708385
 30
0.0
 11
115.851508
 21
119.708385
 31
0.0
  0
LINE
  5
7E
330
1F
100
AcDbEntity
  8
1
  6
Continuous
 62
   155
370
    25
100
AcDbLine
 10
122.351508
 20
179.583385
 30
0.0
 11
124.601508
 21
181.833385
 31
0.0
  0
LINE
  5
7F
330
1F
100
AcDbEntity
  8
1
  6
Continuous
 62
   155
370
    25
100
AcDbLine
 10
124.601508
 20
181.833385
 30
0.0
 11
136.351508
 21
181.833385
 31
0.0
  0
LINE
  5
80
330
1F
100
AcDbEntity
  8
1
  6
Continuous
 62
   155
370
    25
100
AcDbLine
 10
136.351508
 20
181.833385
 30
0.0
 11
136.351508
 21
193.708385
 31
0.0
  0
LINE
  5
81
330
1F
100
AcDbEntity
  8
1
  6
Continuous
 62
   155
370
    25
100
AcDbLine
 10
136.351508
 20
193.708385
 30
0.0
 11
134.351508
 21
193.708385
 31
0.0
  0
LINE
  5
82
330
1F
100
AcDbEntity
  8
1
  6
Continuous
 62
   155
370
    25
100
AcDbLine
 10
134.351508
 20
193.708385
 30
0.0
 11
134.351508
 21
213.708385
 31
0.0
  0
LINE
  5
83
330
1F
100
AcDbEntity
  8
1
  6
Continuous
 62
   155
370
    25
100
AcDbLine
 10
134.351508
 20
213.708385
 30
0.0
 11
136.351508
 21
213.708385
 31
0.0
  0
LINE
  5
84
330
1F
100
AcDbEntity
  8
1
  6
Continuous
 62
   155
370
    25
100
AcDbLine
 10
136.351508
 20
213.708385
 30
0.0
 11
136.351508
 21
225.583385
 31
0.0
  0
LINE
  5
85
330
1F
100
AcDbEntity
  8
1
  6
Continuous
 62
   155
370
    25
100
AcDbLine
 10
136.351508
 20
225.583385
 30
0.0
 11
124.601508
 21
225.583385
 31
0.0
  0
LINE
  5
86
330
1F
100
AcDbEntity
  8
1
  6
Continuous
 62
   155
370
    25
100
AcDbLine
 10
124.601508
 20
225.583385
 30
0.0
 11
122.351508
 21
227.833385
 31
0.0
  0
LINE
  5
87
330
1F
100
AcDbEntity
  8
1
  6
Continuous
 62
   155
370
    25
100
AcDbLine
 10
115.851508
 20
119.708385
 30
0.0
 11
126.617612
 21
119.708385
 31
0.0
  0
LINE
  5
88
330
1F
100
AcDbEntity
  8
1
  6
Continuous
 62
   155
370
    25
100
AcDbLine
 10
108.094149
 20
183.583385
 30
0.0
 11
103.851508
 21
183.583385
 31
0.0
  0
LINE
  5
89
330
1F
100
AcDbEntity
  8
1
  6
Continuous
 62
   155
370
    25
100
AcDbLine
 10
103.851508
 20
223.833385
 30
0.0
 11
108.094149
 21
223.833385
 31
0.0
  0
LINE
  5
8A
330
1F
100
AcDbEntity
  8
1
  6
Continuous
 62
   155
370
    25
100
AcDbLine
 10
115.340126
 20
183.583385
 30
0.0
 11
115.340126
 21
223.833385
 31
0.0
  0
LINE
  5
8B
330
1F
100
AcDbEntity
  8
1
  6
Continuous
 62
   155
370
    25
100
AcDbLine
 10
115.340126
 20
223.833385
 30
0.0
 11
108.094149
 21
223.833385
 31
0.0
  0
LINE
  5
8C
330
1F
100
AcDbEntity
  8
1
  6
Continuous
 62
   230
370
    13
100
AcDbLine
 10
106.336789
 20
184.583975
 30
0.0
 11
106.336789
 21
223.833385
 31
0.0
  0
LINE
  5
8D
330
1F
100
AcDbEntity
  8
1
  6
Continuous
 62
   155
370
    25
100
AcDbLine
 10
139.851508
 20
74.492623
 30
0.0
 11
139.851508
 21
71.492623
 31
0.0
  0
LINE
  5
8E
330
1F
100
AcDbEntity
  8
1
  6
Continuous
 62
   155
370
    25
100
AcDbLine
 10
115.340126
 20
80.49596
 30
0.0
 11
109.336834
 21
74.492668
 31
0.0
  0
LINE
  5
8F
330
1F
100
AcDbEntity
  8
1
  6
Continuous
 62
   155
370
    25
100
AcDbLine
 10
139.851508
 20
71.492623
 30
0.0
 11
129.085404
 21
71.492623
 31
0.0
  0
LINE
  5
90
330
1F
100
AcDbEntity
  8
1
  6
Continuous
 62
   155
370
    25
100
AcDbLine
 10
115.851508
 20
74.492623
 30
0.0
 11
80.101508
 21
74.492623
 31
0.0
  0
LINE
  5
91
330
1F
100
AcDbEntity
  8
1
  6
Continuous
 62
   155
370
    25
100
AcDbLine
 10
115.851508
 20
71.492623
 30
0.0
 11
80.101508
 21
71.492623
 31
0.0
  0
LINE
  5
92
330
1F
100
AcDbEntity
  8
1
  6
Continuous
 62
   155
370
    25
100
AcDbLine
 10
115.851508
 20
74.492623
 30
0.0
 11
115.851508
 21
71.492623
 31
0.0
  0
LINE
  5
93
330
1F
100
AcDbEntity
  8
1
  6
Continuous
 62
   155
370
    25
100
AcDbLine
 10
139.851508
 20
74.492623
 30
0.0
 11
115.851508
 21
74.492623
 31
0.0
  0
LINE
  5
94
330
1F
100
AcDbEntity
  8
1
  6
Continuous
 62
   155
370
    25
100
AcDbLine
 10
126.617612
 20
71.492623
 30
0.0
 11
115.851508
 21
71.492623
 31
0.0
  0
LINE
  5
95
330
1F
100
AcDbEntity
  8
1
  6
Continuous
 62
   155
370
    25
100
AcDbLine
 10
126.615375
 20
71.492623
 30
0.0
 11
129.09217
 21
71.492623
 31
0.0
  0
LINE
  5
96
330
1F
100
AcDbEntity
  8
1
  6
Continuous
 62
   155
370
    25
100
AcDbLine
 10
80.101508
 20
74.492623
 30
0.0
 11
80.101508
 21
71.492623
 31
0.0
  0
LINE
  5
97
330
1F
100
AcDbEntity
  8
1
  6
Continuous
 62
   155
370
    25
100
AcDbLine
 10
115.340126
 20
80.49596
 30
0.0
 11
113.218805
 21
82.61728
 31
0.0
  0
LINE
  5
98
330
1F
100
AcDbEntity
  8
1
  6
Continuous
 62
   155
370
    25
100
AcDbLine
 10
113.218805
 20
82.61728
 30
0.0
 11
105.972828
 21
75.371303
 31
0.0
  0
LINE
  5
99
102
{ACAD_REACTORS
330
1C7
102
}
330
1F
100
AcDbEntity
  8
256
  6
Continuous
 62
     2
370
    13
100
AcDbLine
 10
106.914809
 20
24.5
 30
0.0
 11
205.0
 21
24.5
 31
0.0
  0
LINE
  5
9B
102
{ACAD_REACTORS
330
1C7
102
}
330
1F
100
AcDbEntity
  8
256
  6
Continuous
 62
     2
370
    18
100
AcDbLine
 10
65.932916
 20
5.054708
 30
0.0
 11
65.932916
 21
30.530208
 31
0.0
  0
LINE
  5
9C
102
{ACAD_REACTORS
330
1C7
102
}
330
1F
100
AcDbEntity
  8
256
  6
Continuous
 62
     2
370
    13
100
AcDbLine
 10
20.0
 20
24.5
 30
0.0
 11
106.914809
 21
24.5
 31
0.0
  0
LINE
  5
9D
102
{ACAD_REACTORS
330
1C7
102
}
330
1F
100
AcDbEntity
  8
256
  6
Continuous
 62
     2
370
    18
100
AcDbLine
 10
138.3325
 20
18.5
 30
0.0
 11
138.3325
 21
30.4755
 31
0.0
  0
LINE
  5
9E
102
{ACAD_REACTORS
330
1C7
102
}
330
1F
100
AcDbEntity
  8
256
  6
Continuous
 62
     2
370
    18
100
AcDbLine
 10
138.3325
 20
5.0
 30
0.0
 11
138.3325
 21
18.5
 31
0.0
  0
LINE
  5
9F
102
{ACAD_REACTORS
330
1C7
102
}
330
1F
100
AcDbEntity
  8
256
  6
Continuous
 62
   140
370
    18
100
AcDbLine
 10
209.9
 20
296.9
 30
0.0
 11
0.1
 21
296.9
 31
0.0
  0
LINE
  5
A0
102
{ACAD_REACTORS
330
1C7
102
}
330
1F
100
AcDbEntity
  8
256
  6
Continuous
 62
   140
370
    18
100
AcDbLine
 10
0.1
 20
296.9
 30
0.0
 11
0.1
 21
0.1
 31
0.0
  0
LINE
  5
A1
102
{ACAD_REACTORS
330
1C7
102
}
330
1F
100
AcDbEntity
  8
256
  6
Continuous
 62
     2
370
    25
100
AcDbLine
 10
205.0
 20
148.5
 30
0.0
 11
209.9
 21
148.5
 31
0.0
  0
LINE
  5
A2
102
{ACAD_REACTORS
330
1C7
102
}
330
1F
100
AcDbEntity
  8
256
  6
Continuous
 62
     2
370
    25
100
AcDbLine
 10
205.0
 20
292.0
 30
0.0
 11
20.0
 21
292.0
 31
0.0
  0
LINE
  5
A3
102
{ACAD_REACTORS
330
1C7
102
}
330
1F
100
AcDbEntity
  8
256
  6
Continuous
 62
   140
370
    18
100
AcDbLine
 10
0.1
 20
0.1
 30
0.0
 11
209.9
 21
0.1
 31
0.0
  0
LINE
  5
A4
102
{ACAD_REACTORS
330
1C7
102
}
330
1F
100
AcDbEntity
  8
256
  6
Continuous
 62
     2
370
    25
100
AcDbLine
 10
105.0
 20
292.0
 30
0.0
 11
105.0
 21
296.9
 31
0.0
  0
LINE
  5
A5
102
{ACAD_REACTORS
330
1C7
102
}
330
1F
100
AcDbEntity
  8
256
  6
Continuous
 62
     2
370
    25
100
AcDbLine
 10
205.0
 20
5.0
 30
0.0
 11
205.0
 21
292.0
 31
0.0
  0
LINE
  5
A6
102
{ACAD_REACTORS
330
1C7
102
}
330
1F
100
AcDbEntity
  8
256
  6
Continuous
 62
     2
370
    25
100
AcDbLine
 10
105.0
 20
0.1
 30
0.0
 11
105.0
 21
5.0
 31
0.0
  0
LINE
  5
A7
102
{ACAD_REACTORS
330
1C7
102
}
330
1F
100
AcDbEntity
  8
256
  6
Continuous
 62
   140
370
    18
100
AcDbLine
 10
209.9
 20
0.1
 30
0.0
 11
209.9
 21
296.9
 31
0.0
  0
LINE
  5
A8
102
{ACAD_REACTORS
330
1C7
102
}
330
1F
100
AcDbEntity
  8
256
  6
Continuous
 62
     2
370
    25
100
AcDbLine
 10
20.0
 20
5.0
 30
0.0
 11
205.0
 21
5.0
 31
0.0
  0
LINE
  5
A9
102
{ACAD_REACTORS
330
1C7
102
}
330
1F
100
AcDbEntity
  8
256
  6
Continuous
 62
   140
370
    18
100
AcDbLine
 10
20.0
 20
292.0
 30
0.0
 11
20.0
 21
5.0
 31
0.0
  0
LINE
  5
AA
102
{ACAD_REACTORS
330
1C7
102
}
330
1F
100
AcDbEntity
  8
256
  6
Continuous
 62
     2
370
    25
100
AcDbLine
 10
20.0
 20
5.0
 30
0.0
 11
20.0
 21
30.4755
 31
0.0
  0
LINE
  5
AB
102
{ACAD_REACTORS
330
1C7
102
}
330
1F
100
AcDbEntity
  8
256
  6
Continuous
 62
     2
370
    25
100
AcDbLine
 10
20.0
 20
30.4755
 30
0.0
 11
205.0
 21
30.4755
 31
0.0
  0
LINE
  5
AC
102
{ACAD_REACTORS
330
1C7
102
}
330
1F
100
AcDbEntity
  8
256
  6
Continuous
 62
     2
370
    13
100
AcDbLine
 10
138.322529
 20
14.00233
 30
0.0
 11
205.0
 21
14.0
 31
0.0
  0
LINE
  5
AD
102
{ACAD_REACTORS
330
1C7
102
}
330
1F
100
AcDbEntity
  8
256
  6
Continuous
 62
     2
370
    13
100
AcDbLine
 10
173.356458
 20
18.5
 30
0.0
 11
173.356458
 21
14.0
 31
0.0
  0
LINE
  5
AE
102
{ACAD_REACTORS
330
1C7
102
}
330
1F
100
AcDbEntity
  8
255
  6
Continuous
 62
   163
370
    13
100
AcDbLine
 10
205.0
 20
130.4755
 30
0.0
 11
205.0
 21
120.4755
 31
0.0
  0
LINE
  5
B0
102
{ACAD_REACTORS
330
1C7
102
}
330
1F
100
AcDbEntity
  8
255
  6
Continuous
 62
   163
370
    13
100
AcDbLine
 10
205.0
 20
30.4755
 30
0.0
 11
205.0
 21
20.4755
 31
0.0
  0
LINE
  5
B1
102
{ACAD_REACTORS
330
1C7
102
}
330
1F
100
AcDbEntity
  8
255
  6
Continuous
 62
   163
370
    13
100
AcDbLine
 10
205.0
 20
45.4755
 30
0.0
 11
205.0
 21
35.4755
 31
0.0
  0
LINE
  5
B2
102
{ACAD_REACTORS
330
1C7
102
}
330
1F
100
AcDbEntity
  8
255
  6
Continuous
 62
   163
370
    13
100
AcDbLine
 10
205.0
 20
130.4755
 30
0.0
 11
205.0
 21
120.4755
 31
0.0
  0
LINE
  5
B3
102
{ACAD_REACTORS
330
1C7
102
}
330
1F
100
AcDbEntity
  8
256
  6
Continuous
 62
     2
370
    18
100
AcDbLine
 10
20.0
 20
18.5
 30
0.0
 11
65.932916
 21
18.5
 31
0.0
  0
LINE
  5
B4
102
{ACAD_REACTORS
330
1C7
102
}
330
1F
100
AcDbEntity
  8
256
  6
Continuous
 62
     2
370
    13
100
AcDbLine
 10
138.3325
 20
18.5
 30
0.0
 11
205.0
 21
18.5
 31
0.0
  0
LINE
  5
B5
102
{ACAD_REACTORS
330
1C7
102
}
330
1F
100
AcDbEntity
  8
256
  6
Continuous
 62
     2
370
    13
100
AcDbLine
 10
106.914809
 20
24.5
 30
0.0
 11
106.914809
 21
30.4755
 31
0.0
  0
LINE
  5
B6
102
{ACAD_REACTORS
330
1C5
102
}
330
1F
100
AcDbEntity
  8
1
  6
Continuous
 62
    35
370
    13
100
AcDbLine
 10
154.851508
 20
105.231211
 30
0.0
 11
154.851508
 21
135.208385
 31
0.0
  0
LINE
  5
B7
102
{ACAD_REACTORS
330
1C5
102
}
330
1F
100
AcDbEntity
  8
1
  6
Continuous
 62
    35
370
    13
100
AcDbLine
 10
139.851508
 20
119.708385
 30
0.0
 11
155.851508
 21
119.708385
 31
0.0
  0
LINE
  5
B8
102
{ACAD_REACTORS
330
1C5
102
}
330
1F
100
AcDbEntity
  8
1
  6
Continuous
 62
    35
370
    13
100
AcDbLine
 10
135.501508
 20
124.708385
 30
0.0
 11
155.851508
 21
124.708385
 31
0.0
  0
LINE
  5
B9
330
1F
100
AcDbEntity
  8
1
  6
Continuous
 62
    35
 60
     1
370
    18
100
AcDbLine
 10
154.851508
 20
119.708385
 30
0.0
 11
155.904728
 21
111.708389
 31
0.0
  0
LINE
  5
BA
330
1F
100
AcDbEntity
  8
1
  6
Continuous
 62
    35
 60
     1
370
    18
100
AcDbLine
 10
155.904728
 20
111.708389
 30
0.0
 11
153.798288
 21
111.708381
 31
0.0
  0
LINE
  5
BB
330
1F
100
AcDbEntity
  8
1
  6
Continuous
 62
    35
 60
     1
370
    18
100
AcDbLine
 10
153.798288
 20
111.708381
 30
0.0
 11
154.851508
 21
119.708385
 31
0.0
  0
LINE
  5
BC
330
1F
100
AcDbEntity
  8
1
  6
Continuous
 62
    35
 60
     1
370
    18
100
AcDbLine
 10
154.851508
 20
124.708385
 30
0.0
 11
153.798288
 21
132.708381
 31
0.0
  0
LINE
  5
BD
330
1F
100
AcDbEntity
  8
1
  6
Continuous
 62
    35
 60
     1
370
    18
100
AcDbLine
 10
153.798288
 20
132.708381
 30
0.0
 11
155.904728
 21
132.708389
 31
0.0
  0
LINE
  5
BE
330
1F
100
AcDbEntity
  8
1
  6
Continuous
 62
    35
 60
     1
370
    18
100
AcDbLine
 10
155.904728
 20
132.708389
 30
0.0
 11
154.851508
 21
124.708385
 31
0.0
  0
LINE
  5
BF
102
{ACAD_REACTORS
330
1C6
102
}
330
1F
100
AcDbEntity
  8
1
  6
Continuous
 62
    35
370
    13
100
AcDbLine
 10
154.851508
 20
124.708385
 30
0.0
 11
154.851508
 21
244.708385
 31
0.0
  0
LINE
  5
C0
102
{ACAD_REACTORS
330
1C6
102
}
330
1F
100
AcDbEntity
  8
1
  6
Continuous
 62
    35
370
    13
100
AcDbLine
 10
135.501508
 20
244.708385
 30
0.0
 11
155.851508
 21
244.708385
 31
0.0
  0
LINE
  5
C1
102
{ACAD_REACTORS
330
1C6
102
}
330
1F
100
AcDbEntity
  8
1
  6
Continuous
 62
    35
370
    13
100
AcDbLine
 10
135.501508
 20
124.708385
 30
0.0
 11
155.851508
 21
124.708385
 31
0.0
  0
LINE
  5
C2
330
1F
100
AcDbEntity
  8
1
  6
Continuous
 62
    35
 60
     1
370
    18
100
AcDbLine
 10
154.851508
 20
244.708385
 30
0.0
 11
155.904728
 21
236.708389
 31
0.0
  0
LINE
  5
C3
330
1F
100
AcDbEntity
  8
1
  6
Continuous
 62
    35
 60
     1
370
    18
100
AcDbLine
 10
155.904728
 20
236.708389
 30
0.0
 11
153.798288
 21
236.708381
 31
0.0
  0
LINE
  5
C4
330
1F
100
AcDbEntity
  8
1
  6
Continuous
 62
    35
 60
     1
370
    18
100
AcDbLine
 10
153.798288
 20
236.708381
 30
0.0
 11
154.851508
 21
244.708385
 31
0.0
  0
LINE
  5
C5
330
1F
100
AcDbEntity
  8
1
  6
Continuous
 62
    35
 60
     1
370
    18
100
AcDbLine
 10
154.851508
 20
124.708385
 30
0.0
 11
153.798288
 21
132.708381
 31
0.0
  0
LINE
  5
C6
330
1F
100
AcDbEntity
  8
1
  6
Continuous
 62
    35
 60
     1
370
    18
100
AcDbLine
 10
153.798288
 20
132.708381
 30
0.0
 11
155.904728
 21
132.708389
 31
0.0
  0
LINE
  5
C7
330
1F
100
AcDbEntity
  8
1
  6
Continuous
 62
    35
 60
     1
370
    18
100
AcDbLine
 10
155.904728
 20
132.708389
 30
0.0
 11
154.851508
 21
124.708385
 31
0.0
  0
ARC
  5
C8
330
1F
100
AcDbEntity
  8
1
  6
Continuous
 62
   155
370
    25
100
AcDbCircle
 10
127.851508
 20
124.708385
 30
0.0
 40
5.149999999999999
100
AcDbArc
 50
283.862432
 51
256.137568
  0
ARC
  5
C9
330
1F
100
AcDbEntity
  8
1
  6
Continuous
 62
   155
370
    25
100
AcDbCircle
 10
127.851508
 20
244.708385
 30
0.0
 40
5.150000000000015
100
AcDbArc
 50
103.862432
 51
76.137568
  0
CIRCLE
  5
CA
330
1F
100
AcDbEntity
  8
1
  6
Continuous
 62
   155
370
    25
100
AcDbCircle
 10
127.851508
 20
229.958385
 30
0.0
 40
3.900000000000001
  0
CIRCLE
  5
CB
330
1F
100
AcDbEntity
  8
1
  6
Continuous
 62
   155
370
    25
100
AcDbCircle
 10
127.851508
 20
177.458385
 30
0.0
 40
3.900000000000001
  0
CIRCLE
  5
CC
330
1F
100
AcDbEntity
  8
1
  6
Continuous
 62
   155
370
    25
100
AcDbCircle
 10
127.851508
 20
124.708385
 30
0.0
 40
2.75
  0
CIRCLE
  5
CD
330
1F
100
AcDbEntity
  8
1
  6
Continuous
 62
   155
370
    25
100
AcDbCircle
 10
127.851508
 20
244.708385
 30
0.0
 40
2.75
  0
ARC
  5
CE
330
1F
100
AcDbEntity
  8
1
  6
Continuous
 62
   155
370
    25
100
AcDbCircle
 10
103.851508
 20
225.833385
 30
0.0
 40
2.0
100
AcDbArc
 50
90.0
 51
270.0
  0
ARC
  5
CF
330
1F
100
AcDbEntity
  8
1
  6
Continuous
 62
   155
370
    25
100
AcDbCircle
 10
103.851508
 20
181.583385
 30
0.0
 40
2.0
100
AcDbArc
 50
90.0
 51
270.0
  0
CIRCLE
  5
D0
330
1F
100
AcDbEntity
  8
1
  6
Continuous
 62
   155
370
    25
100
AcDbCircle
 10
127.851508
 20
229.958385
 30
0.0
 40
2.400000000000006
  0
CIRCLE
  5
D1
330
1F
100
AcDbEntity
  8
1
  6
Continuous
 62
   155
370
    25
100
AcDbCircle
 10
127.851508
 20
177.458385
 30
0.0
 40
2.399999999999999
  0
ARC
  5
D2
330
1F
100
AcDbEntity
  8
1
  6
Continuous
 62
   155
370
    25
100
AcDbCircle
 10
103.851508
 20
77.492623
 30
0.0
 40
3.0
100
AcDbArc
 50
270.0
 51
315.0
  0
SPLINE
  5
D3
330
1F
100
AcDbEntity
  8
1
  6
Continuous
 62
   155
370
    25
100
AcDbSpline
210
0.0
220
0.0
230
1.0
 70
    24
 71
     3
 72
    18
 73
    14
 74
     0
 42
0.000000001
 43
0.0000000001
 40
0.0
 40
0.0
 40
0.0
 40
0.0
 40
0.2499999999999999
 40
0.2499999999999999
 40
0.4999999999999999
 40
0.4999999999999999
 40
0.5624999999999999
 40
0.5624999999999999
 40
0.6249999999999999
 40
0.6249999999999999
 40
0.7499999999999998
 40
0.7499999999999998
 40
1.0
 40
1.0
 40
1.0
 40
1.0
 10
129.0854041596952
 20
119.708385005637
 30
0.0
 10
128.8825327446166
 20
119.708385005637
 30
0.0
 10
128.6786246551042
 20
119.708385005637
 30
0.0
 10
128.2685221796889
 20
119.708385005637
 30
0.0
 10
128.0623266253833
 20
119.708385005637
 30
0.0
 10
127.8030673882956
 20
119.708385005637
 30
0.0
 10
127.7511400371649
 20
119.708385005637
 30
0.0
 10
127.6471332112457
 20
119.708385005637
 30
0.0
 10
127.5950054640344
 20
119.708385005637
 30
0.0
 10
127.4387293758583
 20
119.708385005637
 30
0.0
 10
127.3350247927587
 20
119.708385005637
 30
0.0
 10
127.0252871263081
 20
119.708385005637
 30
0.0
 10
126.8206321875523
 20
119.708385005637
 30
0.0
 10
126.6176116238446
 20
119.708385005637
 30
0.0
  0
SPLINE
  5
D4
330
1F
100
AcDbEntity
  8
1
  6
Continuous
 62
   155
370
    25
100
AcDbSpline
210
0.0
220
0.0
230
1.0
 70
    24
 71
     3
 72
    18
 73
    14
 74
     0
 42
0.000000001
 43
0.0000000001
 40
0.0
 40
0.0
 40
0.0
 40
0.0
 40
0.2499999999999999
 40
0.2499999999999999
 40
0.4999999999999999
 40
0.4999999999999999
 40
0.5624999999999999
 40
0.5624999999999999
 40
0.6249999999999998
 40
0.6249999999999998
 40
0.7499999999999999
 40
0.7499999999999999
 40
1.0
 40
1.0
 40
1.0
 40
1.0
 10
126.6176116238447
 20
249.708385005637
 30
0.0
 10
126.8204830389233
 20
249.708385005637
 30
0.0
 10
127.0243911284358
 20
249.708385005637
 30
0.0
 10
127.434493603851
 20
249.708385005637
 30
0.0
 10
127.6406891581566
 20
249.708385005637
 30
0.0
 10
127.8999483952443
 20
249.708385005637
 30
0.0
 10
127.951875746375
 20
249.708385005637
 30
0.0
 10
128.0558825722942
 20
249.7083850056369
 30
0.0
 10
128.1080103195054
 20
249.7083850056369
 30
0.0
 10
128.2642864076816
 20
249.708385005637
 30
0.0
 10
128.3679909907812
 20
249.7083850056369
 30
0.0
 10
128.6777286572318
 20
249.708385005637
 30
0.0
 10
128.8823835959877
 20
249.708385005637
 30
0.0
 10
129.0854041596954
 20
249.708385005637
 30
0.0
  0
SPLINE
  5
D5
330
1F
100
AcDbEntity
  8
1
  6
Continuous
 62
   155
370
    25
100
AcDbSpline
210
0.0
220
0.0
230
1.0
 70
     8
 71
     3
 72
    18
 73
    14
 74
     0
 42
0.000000001
 43
0.0000000001
 40
0.0
 40
0.0
 40
0.0
 40
0.0
 40
0.2499999999999999
 40
0.2499999999999999
 40
0.4999999999999999
 40
0.4999999999999999
 40
0.5624999999999999
 40
0.5624999999999999
 40
0.6249999999999998
 40
0.6249999999999998
 40
0.7499999999999999
 40
0.7499999999999999
 40
1.0
 40
1.0
 40
1.0
 40
1.0
 10
126.6176116238446
 20
71.49262322567645
 30
0.0
 10
126.8204830389232
 20
71.5412294940132
 30
0.0
 10
127.0243911284357
 20
71.57875938230647
 30
0.0
 10
127.434493603851
 20
71.62939115441445
 30
0.0
 10
127.6406891581565
 20
71.64248055439427
 30
0.0
 10
127.8999483952442
 20
71.64265743883874
 30
0.0
 10
127.9518757463749
 20
71.64188609396986
 30
0.0
 10
128.0558825722942
 20
71.63871803430537
 30
0.0
 10
128.1080103195054
 20
71.63631817970607
 30
0.0
 10
128.2642864076815
 20
71.62669131079805
 30
0.0
 10
128.3679909907811
 20
71.61706292250756
 30
0.0
 10
128.6777286572317
 20
71.5789637752225
 30
0.0
 10
128.8823835959876
 20
71.54126522875819
 30
0.0
 10
129.0854041596953
 20
71.49262322567644
 30
0.0
  0
SPLINE
  5
D6
330
1F
100
AcDbEntity
  8
1
  6
CENTER
 62
   203
370
    13
100
AcDbSpline
210
0.0
220
0.0
230
1.0
 70
    24
 71
     1
 72
     5
 73
     3
 74
     0
 42
0.000000001
 43
0.0000000001
 40
0.0
 40
0.0
 40
0.384615384615385
 40
1.0
 40
1.0
 10
127.85150789177
 20
77.89262322567646
 30
0.0
 10
127.85150789177
 20
73.89262322567646
 30
0.0
 10
127.85150789177
 20
67.49262322567644
 30
0.0
  0
SPLINE
  5
D7
102
{ACAD_REACTORS
330
1C4
102
}
330
1F
100
AcDbEntity
  8
256
  6
Continuous
 62
     7
370
    13
100
AcDbSpline
210
0.0
220
0.0
230
1.0
 70
    11
 71
     3
 72
    17
 73
    13
 74
     0
 42
0.000000001
 43
0.0000000001
 40
0.0
 40
0.0
 40
0.0
 40
0.0
 40
0.2500749063670416
 40
0.2500749063670416
 40
0.2500749063670416
 40
0.4999999999999989
 40
0.4999999999999989
 40
0.4999999999999989
 40
0.7500749063670404
 40
0.7500749063670404
 40
0.7500749063670404
 40
1.0
 40
1.0
 40
1.0
 40
1.0
 10
55.95917372413066
 20
11.85614106663957
 30
0.0
 10
54.42564587546997
 20
11.85614106663957
 30
0.0
 10
52.89211802680927
 20
11.85614106663957
 30
0.0
 10
51.35859017814857
 20
11.85614106663957
 30
0.0
 10
51.35859017814857
 20
13.3887502225648
 30
0.0
 10
51.35859017814857
 20
14.92135937849003
 30
0.0
 10
51.35859017814857
 20
16.45396853441526
 30
0.0
 10
52.89211802680927
 20
16.45396853441526
 30
0.0
 10
54.42564587546997
 20
16.45396853441526
 30
0.0
 10
55.95917372413066
 20
16.45396853441526
 30
0.0
 10
55.95917372413066
 20
14.92135937849003
 30
0.0
 10
55.95917372413066
 20
13.3887502225648
 30
0.0
 10
55.95917372413066
 20
11.85614106663957
 30
0.0
  0
SPLINE
  5
D8
102
{ACAD_REACTORS
330
1C4
102
}
330
1F
100
AcDbEntity
  8
256
  6
Continuous
 62
     7
370
    13
100
AcDbSpline
210
0.0
220
0.0
230
1.0
 70
    11
 71
     3
 72
    41
 73
    37
 74
     0
 42
0.000000001
 43
0.0000000001
 40
0.0
 40
0.0
 40
0.0
 40
0.0
 40
0.0833333333333333
 40
0.0833333333333333
 40
0.0833333333333333
 40
0.1666666666666667
 40
0.1666666666666667
 40
0.1666666666666667
 40
0.25
 40
0.25
 40
0.25
 40
0.3333333333333333
 40
0.3333333333333333
 40
0.3333333333333333
 40
0.4166666666666667
 40
0.4166666666666667
 40
0.4166666666666667
 40
0.5
 40
0.5
 40
0.5
 40
0.5833333333333334
 40
0.5833333333333334
 40
0.5833333333333334
 40
0.6666666666666666
 40
0.6666666666666666
 40
0.6666666666666666
 40
0.75
 40
0.75
 40
0.75
 40
0.8333333333333334
 40
0.8333333333333334
 40
0.8333333333333334
 40
0.9166666666666666
 40
0.9166666666666666
 40
0.9166666666666666
 40
1.0
 40
1.0
 40
1.0
 40
1.0
 10
44.39623471328623
 20
8.727305110428638
 30
0.0
 10
44.82961316214747
 20
8.429474581683005
 30
0.0
 10
45.53344663409908
 20
8.090993726963271
 30
0.0
 10
46.04814423913854
 20
8.090993726963271
 30
0.0
 10
47.00932651360984
 20
8.090993726963271
 30
0.0
 10
47.55106813604937
 20
8.700259265458792
 30
0.0
 10
47.55106813604937
 20
9.444917145842206
 30
0.0
 10
47.53745999990542
 20
11.31353816976063
 30
0.0
 10
43.70565001861249
 20
10.51461999968931
 30
0.0
 10
43.70565001861249
 20
13.71012042508668
 30
0.0
 10
43.70565001861249
 20
15.24026059428534
 30
0.0
 10
44.95139736789142
 20
16.43174765387639
 30
0.0
 10
46.83345427306585
 20
16.43174765387639
 30
0.0
 10
47.76776478502507
 20
16.43174765387639
 30
0.0
 10
48.67485902469639
 20
16.10670268041273
 30
0.0
 10
49.47361308602012
 20
15.64644135906617
 30
0.0
 10
49.47360162773157
 20
15.64643320030638
 30
0.0
 10
48.74255909224894
 20
14.40068274680042
 30
0.0
 10
48.74255055156664
 20
14.4006934180556
 30
0.0
 10
48.1739418106888
 20
14.71212710798984
 30
0.0
 10
47.64580832439333
 20
15.02356394530955
 30
0.0
 10
46.9688466149538
 20
15.02356394530955
 30
0.0
 10
46.18353658102649
 20
15.02356394530955
 30
0.0
 10
45.43887870064302
 20
14.60377878350193
 30
0.0
 10
45.43887870064302
 20
13.76438071477455
 30
0.0
 10
45.43887870064302
 20
11.92280370825615
 30
0.0
 10
49.36542887027986
 20
12.50502522935168
 30
0.0
 10
49.36542887027986
 20
9.512613316786153
 30
0.0
 10
49.36542887027986
 20
7.914949231531418
 30
0.0
 10
48.079029367457
 20
6.682810018396404
 30
0.0
 10
46.26466863322639
 20
6.682810018396404
 30
0.0
 10
45.3575743935551
 20
6.682810018396404
 30
0.0
 10
44.50456818868381
 20
6.940158820916148
 30
0.0
 10
43.71907888079861
 20
7.400592083519152
 30
0.0
 10
43.71908887943025
 20
7.400600963125905
 30
0.0
 10
44.3962244106452
 20
8.727312190709236
 30
0.0
 10
44.39623471328623
 20
8.727305110428638
 30
0.0
  0
SPLINE
  5
D9
102
{ACAD_REACTORS
330
1C4
102
}
330
1F
100
AcDbEntity
  8
256
  6
Continuous
 62
     7
370
    13
100
AcDbSpline
210
0.0
220
0.0
230
1.0
 70
    11
 71
     3
 72
    17
 73
    13
 74
     0
 42
0.000000001
 43
0.0000000001
 40
0.0
 40
0.0
 40
0.0
 40
0.0
 40
0.2499153546639537
 40
0.2499153546639537
 40
0.2499153546639537
 40
0.4999999999999934
 40
0.4999999999999934
 40
0.4999999999999934
 40
0.749915354663955
 40
0.749915354663955
 40
0.749915354663955
 40
1.0
 40
1.0
 40
1.0
 40
1.0
 10
55.69459021631917
 20
11.0089915279568
 30
0.0
 10
55.69459021631917
 20
9.652771377239228
 30
0.0
 10
55.69459021631917
 20
8.296551226521624
 30
0.0
 10
55.69459021631917
 20
6.940331075804048
 30
0.0
 10
54.3374513728661
 20
6.940331075804048
 30
0.0
 10
52.98031252941303
 20
6.940331075804048
 30
0.0
 10
51.62317368596007
 20
6.940331075804048
 30
0.0
 10
51.62317368596007
 20
8.296551226521652
 30
0.0
 10
51.62317368596007
 20
9.652771377239228
 30
0.0
 10
51.62317368596007
 20
11.0089915279568
 30
0.0
 10
52.98031252941303
 20
11.0089915279568
 30
0.0
 10
54.3374513728661
 20
11.0089915279568
 30
0.0
 10
55.69459021631917
 20
11.0089915279568
 30
0.0
  0
SPLINE
  5
DA
330
1F
100
AcDbEntity
  8
1
  6
Continuous
 62
   163
 60
     1
370
    18
100
AcDbSpline
210
0.0
220
0.0
230
1.0
 70
    11
 71
     3
 72
    53
 73
    49
 74
     0
 42
0.000000001
 43
0.0000000001
 40
0.0
 40
0.0
 40
0.0
 40
0.0
 40
0.024233419787787
 40
0.024233419787787
 40
0.024233419787787
 40
0.1280418012427934
 40
0.1280418012427934
 40
0.1280418012427934
 40
0.1284086704647148
 40
0.1284086704647148
 40
0.1284086704647148
 40
0.2309459700568215
 40
0.2309459700568215
 40
0.2309459700568215
 40
0.2557435253627113
 40
0.2557435253627113
 40
0.2557435253627113
 40
0.3573149299809463
 40
0.3573149299809463
 40
0.3573149299809463
 40
0.3576817992028669
 40
0.3576817992028669
 40
0.3576817992028669
 40
0.4624443157722517
 40
0.4624443157722517
 40
0.4624443157722517
 40
0.4860156317106226
 40
0.4860156317106226
 40
0.4860156317106226
 40
0.6156754647053586
 40
0.6156754647053586
 40
0.6156754647053586
 40
0.6406552862488913
 40
0.6406552862488913
 40
0.6406552862488913
 40
0.7430727925756138
 40
0.7430727925756138
 40
0.7430727925756138
 40
0.7434419985441709
 40
0.7434419985441709
 40
0.7434419985441709
 40
0.8467092888241766
 40
0.8467092888241766
 40
0.8467092888241766
 40
0.8713245778924228
 40
0.8713245778924228
 40
0.8713245778924228
 40
1.0
 40
1.0
 40
1.0
 40
1.0
 10
23.1392776780207
 20
15.99852661081272
 30
0.0
 10
23.71696315373489
 20
16.14293362516728
 30
0.0
 10
24.29464862944909
 20
16.28734063952184
 30
0.0
 10
24.87233410516333
 20
16.43174765387639
 30
0.0
 10
25.45909167164015
 20
13.94938246437707
 30
0.0
 10
26.04584923811703
 20
11.46701727487778
 30
0.0
 10
26.63260680459385
 20
8.984652085378494
 30
0.0
 10
26.64162147706051
 20
8.984652085378494
 30
0.0
 10
26.65063614952717
 20
8.984652085378494
 30
0.0
 10
26.65965082199384
 20
8.984652085378494
 30
0.0
 10
27.36377138542528
 20
11.40379973101924
 30
0.0
 10
28.06789194885667
 20
13.82294737665993
 30
0.0
 10
28.77201251228806
 20
16.24209502230062
 30
0.0
 10
29.38133546907952
 20
16.24209502230062
 30
0.0
 10
29.99065842587103
 20
16.24209502230062
 30
0.0
 10
30.59998138266255
 20
16.24209502230062
 30
0.0
 10
31.21378296653936
 20
13.82294737665993
 30
0.0
 10
31.82758455041622
 20
11.40379973101924
 30
0.0
 10
32.44138613429308
 20
8.984652085378494
 30
0.0
 10
32.45040080675975
 20
8.984652085378494
 30
0.0
 10
32.45941547922641
 20
8.984652085378494
 30
0.0
 10
32.46843015169307
 20
8.984652085378494
 30
0.0
 10
33.14992790651385
 20
11.46701727487778
 30
0.0
 10
33.83142566133463
 20
13.9493824643771
 30
0.0
 10
34.51292341615542
 20
16.43174765387639
 30
0.0
 10
35.07263696523225
 20
16.28280459414052
 30
0.0
 10
35.63235051430908
 20
16.13386153440465
 30
0.0
 10
36.19206406338597
 20
15.98491847466878
 30
0.0
 10
35.23070953402672
 20
12.94743319976991
 30
0.0
 10
34.26935500466752
 20
9.909947924871071
 30
0.0
 10
33.30800047530832
 20
6.872462649972229
 30
0.0
 10
32.69419889143145
 20
6.872462649972229
 30
0.0
 10
32.08039730755465
 20
6.872462649972229
 30
0.0
 10
31.46659572367778
 20
6.872462649972229
 30
0.0
 10
30.85727276688633
 20
9.31417568592756
 30
0.0
 10
30.24794981009481
 20
11.75588872188289
 30
0.0
 10
29.63862685330335
 20
14.19760175783825
 30
0.0
 10
29.62955476254072
 20
14.19760175783825
 30
0.0
 10
29.62048267177803
 20
14.19760175783825
 30
0.0
 10
29.61141058101541
 20
14.19760175783825
 30
0.0
 10
28.92089815372796
 20
11.75588872188289
 30
0.0
 10
28.23038572644052
 20
9.31417568592756
 30
0.0
 10
27.53987329915307
 20
6.872462649972229
 30
0.0
 10
26.9350289694469
 20
6.872462649972229
 30
0.0
 10
26.33018463974079
 20
6.872462649972229
 30
0.0
 10
25.72534031003462
 20
6.872462649972229
 30
0.0
 10
24.86331943269667
 20
9.914483970252357
 30
0.0
 10
24.00129855535866
 20
12.95650529053254
 30
0.0
 10
23.1392776780207
 20
15.99852661081272
 30
0.0
  0
SPLINE
  5
DB
330
1F
100
AcDbEntity
  8
1
  6
Continuous
 62
   163
 60
     1
370
    18
100
AcDbSpline
210
0.0
220
0.0
230
1.0
 70
    11
 71
     3
 72
    41
 73
    37
 74
     0
 42
0.000000001
 43
0.0000000001
 40
0.0
 40
0.0
 40
0.0
 40
0.0
 40
0.0833333333333333
 40
0.0833333333333333
 40
0.0833333333333333
 40
0.1666666666666667
 40
0.1666666666666667
 40
0.1666666666666667
 40
0.25
 40
0.25
 40
0.25
 40
0.3333333333333333
 40
0.3333333333333333
 40
0.3333333333333333
 40
0.4166666666666667
 40
0.4166666666666667
 40
0.4166666666666667
 40
0.5
 40
0.5
 40
0.5
 40
0.5833333333333334
 40
0.5833333333333334
 40
0.5833333333333334
 40
0.6666666666666666
 40
0.6666666666666666
 40
0.6666666666666666
 40
0.75
 40
0.75
 40
0.75
 40
0.8333333333333334
 40
0.8333333333333334
 40
0.8333333333333334
 40
0.9166666666666666
 40
0.9166666666666666
 40
0.9166666666666666
 40
1.0
 40
1.0
 40
1.0
 40
1.0
 10
37.62644536308606
 20
8.727305110896895
 30
0.0
 10
38.05982381286489
 20
8.429474581683005
 30
0.0
 10
38.76382953970435
 20
8.090993726963271
 30
0.0
 10
39.27835488985593
 20
8.090993726963271
 30
0.0
 10
40.23970941921513
 20
8.090993726963271
 30
0.0
 10
40.78127878676671
 20
8.700259265458792
 30
0.0
 10
40.78127878676671
 20
9.444917145842206
 30
0.0
 10
40.76767065062276
 20
11.31353816976063
 30
0.0
 10
36.93603292421776
 20
10.51461999968931
 30
0.0
 10
36.93603292421776
 20
13.71012042508668
 30
0.0
 10
36.93603292421776
 20
15.24026059428534
 30
0.0
 10
38.18160801860884
 20
16.43174765387639
 30
0.0
 10
40.06383717867121
 20
16.43174765387639
 30
0.0
 10
40.99814769063042
 20
16.43174765387639
 30
0.0
 10
41.90506967541384
 20
16.10670268041273
 30
0.0
 10
42.70399599466541
 20
15.64644135862842
 30
0.0
 10
42.70398453274984
 20
15.6464332013328
 30
0.0
 10
41.97276974205371
 20
14.4006827459659
 30
0.0
 10
41.97276120276902
 20
14.4006934186719
 30
0.0
 10
41.4043247162941
 20
14.71212710798984
 30
0.0
 10
40.87619122999857
 20
15.02356394530955
 30
0.0
 10
40.1992295205591
 20
15.02356394530955
 30
0.0
 10
39.41374723174383
 20
15.02356394530955
 30
0.0
 10
38.66908935136038
 20
14.60377878350193
 30
0.0
 10
38.66908935136038
 20
13.76438071477455
 30
0.0
 10
38.66908935136038
 20
11.92280370825615
 30
0.0
 10
42.59581177588515
 20
12.50502522935168
 30
0.0
 10
42.59581177588515
 20
9.512613316786153
 30
0.0
 10
42.59581177588515
 20
7.914949231531418
 30
0.0
 10
41.30924001817434
 20
6.682810018396404
 30
0.0
 10
39.49505153883169
 20
6.682810018396404
 30
0.0
 10
38.58778504427252
 20
6.682810018396404
 30
0.0
 10
37.73477883940117
 20
6.940158820916148
 30
0.0
 10
36.94946178950815
 20
7.400592083187442
 30
0.0
 10
36.94947178431599
 20
7.400600964059331
 30
0.0
 10
37.626435060445
 20
8.727312191177512
 30
0.0
 10
37.62644536308606
 20
8.727305110896895
 30
0.0
  0
SPLINE
  5
DC
330
1F
100
AcDbEntity
  8
1
  6
Continuous
 62
   163
 60
     1
370
    18
100
AcDbSpline
210
0.0
220
0.0
230
1.0
 70
    11
 71
     3
 72
    41
 73
    37
 74
     0
 42
0.000000001
 43
0.0000000001
 40
0.0
 40
0.0
 40
0.0
 40
0.0
 40
0.0833333333333333
 40
0.0833333333333333
 40
0.0833333333333333
 40
0.1666666666666667
 40
0.1666666666666667
 40
0.1666666666666667
 40
0.25
 40
0.25
 40
0.25
 40
0.3333333333333333
 40
0.3333333333333333
 40
0.3333333333333333
 40
0.4166666666666667
 40
0.4166666666666667
 40
0.4166666666666667
 40
0.5
 40
0.5
 40
0.5
 40
0.5833333333333334
 40
0.5833333333333334
 40
0.5833333333333334
 40
0.6666666666666666
 40
0.6666666666666666
 40
0.6666666666666666
 40
0.75
 40
0.75
 40
0.75
 40
0.8333333333333334
 40
0.8333333333333334
 40
0.8333333333333334
 40
0.9166666666666666
 40
0.9166666666666666
 40
0.9166666666666666
 40
1.0
 40
1.0
 40
1.0
 40
1.0
 10
44.39623471328623
 20
8.727305110428638
 30
0.0
 10
44.82961316214747
 20
8.429474581683005
 30
0.0
 10
45.53344663409908
 20
8.090993726963271
 30
0.0
 10
46.04814423913854
 20
8.090993726963271
 30
0.0
 10
47.00932651360984
 20
8.090993726963271
 30
0.0
 10
47.55106813604937
 20
8.700259265458792
 30
0.0
 10
47.55106813604937
 20
9.444917145842206
 30
0.0
 10
47.53745999990542
 20
11.31353816976063
 30
0.0
 10
43.70565001861249
 20
10.51461999968931
 30
0.0
 10
43.70565001861249
 20
13.71012042508668
 30
0.0
 10
43.70565001861249
 20
15.24026059428534
 30
0.0
 10
44.95139736789142
 20
16.43174765387639
 30
0.0
 10
46.83345427306585
 20
16.43174765387639
 30
0.0
 10
47.76776478502507
 20
16.43174765387639
 30
0.0
 10
48.67485902469639
 20
16.10670268041273
 30
0.0
 10
49.47361308602012
 20
15.64644135906617
 30
0.0
 10
49.47360162773157
 20
15.64643320030638
 30
0.0
 10
48.74255909224894
 20
14.40068274680042
 30
0.0
 10
48.74255055156664
 20
14.4006934180556
 30
0.0
 10
48.1739418106888
 20
14.71212710798984
 30
0.0
 10
47.64580832439333
 20
15.02356394530955
 30
0.0
 10
46.9688466149538
 20
15.02356394530955
 30
0.0
 10
46.18353658102649
 20
15.02356394530955
 30
0.0
 10
45.43887870064302
 20
14.60377878350193
 30
0.0
 10
45.43887870064302
 20
13.76438071477455
 30
0.0
 10
45.43887870064302
 20
11.92280370825615
 30
0.0
 10
49.36542887027986
 20
12.50502522935168
 30
0.0
 10
49.36542887027986
 20
9.512613316786153
 30
0.0
 10
49.36542887027986
 20
7.914949231531418
 30
0.0
 10
48.079029367457
 20
6.682810018396404
 30
0.0
 10
46.26466863322639
 20
6.682810018396404
 30
0.0
 10
45.3575743935551
 20
6.682810018396404
 30
0.0
 10
44.50456818868381
 20
6.940158820916148
 30
0.0
 10
43.71907888079861
 20
7.400592083519152
 30
0.0
 10
43.71908887943025
 20
7.400600963125905
 30
0.0
 10
44.3962244106452
 20
8.727312190709236
 30
0.0
 10
44.39623471328623
 20
8.727305110428638
 30
0.0
  0
SPLINE
  5
DD
330
1F
100
AcDbEntity
  8
1
  6
Continuous
 62
   163
 60
     1
370
    18
100
AcDbSpline
210
0.0
220
0.0
230
1.0
 70
    11
 71
     3
 72
    17
 73
    13
 74
     0
 42
0.000000001
 43
0.0000000001
 40
0.0
 40
0.0
 40
0.0
 40
0.0
 40
0.2500749063670416
 40
0.2500749063670416
 40
0.2500749063670416
 40
0.4999999999999989
 40
0.4999999999999989
 40
0.4999999999999989
 40
0.7500749063670404
 40
0.7500749063670404
 40
0.7500749063670404
 40
1.0
 40
1.0
 40
1.0
 40
1.0
 10
55.95917372413066
 20
11.85614106663957
 30
0.0
 10
54.42564587546997
 20
11.85614106663957
 30
0.0
 10
52.89211802680927
 20
11.85614106663957
 30
0.0
 10
51.35859017814857
 20
11.85614106663957
 30
0.0
 10
51.35859017814857
 20
13.3887502225648
 30
0.0
 10
51.35859017814857
 20
14.92135937849003
 30
0.0
 10
51.35859017814857
 20
16.45396853441526
 30
0.0
 10
52.89211802680927
 20
16.45396853441526
 30
0.0
 10
54.42564587546997
 20
16.45396853441526
 30
0.0
 10
55.95917372413066
 20
16.45396853441526
 30
0.0
 10
55.95917372413066
 20
14.92135937849003
 30
0.0
 10
55.95917372413066
 20
13.3887502225648
 30
0.0
 10
55.95917372413066
 20
11.85614106663957
 30
0.0
  0
SPLINE
  5
DE
330
1F
100
AcDbEntity
  8
1
  6
Continuous
 62
   163
 60
     1
370
    18
100
AcDbSpline
210
0.0
220
0.0
230
1.0
 70
    11
 71
     3
 72
    17
 73
    13
 74
     0
 42
0.000000001
 43
0.0000000001
 40
0.0
 40
0.0
 40
0.0
 40
0.0
 40
0.2500749063670398
 40
0.2500749063670398
 40
0.2500749063670398
 40
0.5000000000000023
 40
0.5000000000000023
 40
0.5000000000000023
 40
0.7500749063670421
 40
0.7500749063670421
 40
0.7500749063670421
 40
1.0
 40
1.0
 40
1.0
 40
1.0
 10
61.1392227130018
 20
6.675747567992611
 30
0.0
 10
59.6056948643411
 20
6.675747567992611
 30
0.0
 10
58.07216701568041
 20
6.675747567992611
 30
0.0
 10
56.53863916701982
 20
6.675747567992611
 30
0.0
 10
56.53863916701982
 20
8.20835672391784
 30
0.0
 10
56.53863916701982
 20
9.740965879843069
 30
0.0
 10
56.53863916701982
 20
11.2735750357683
 30
0.0
 10
58.07216701568041
 20
11.2735750357683
 30
0.0
 10
59.6056948643411
 20
11.2735750357683
 30
0.0
 10
61.1392227130018
 20
11.2735750357683
 30
0.0
 10
61.1392227130018
 20
9.740965879843069
 30
0.0
 10
61.1392227130018
 20
8.20835672391784
 30
0.0
 10
61.1392227130018
 20
6.675747567992611
 30
0.0
  0
SPLINE
  5
DF
330
1F
100
AcDbEntity
  8
1
  6
Continuous
 62
   163
 60
     1
370
    18
100
AcDbSpline
210
0.0
220
0.0
230
1.0
 70
    11
 71
     3
 72
    17
 73
    13
 74
     0
 42
0.000000001
 43
0.0000000001
 40
0.0
 40
0.0
 40
0.0
 40
0.0
 40
0.2500749063670398
 40
0.2500749063670398
 40
0.2500749063670398
 40
0.5000000000000023
 40
0.5000000000000023
 40
0.5000000000000023
 40
0.7500749063670421
 40
0.7500749063670421
 40
0.7500749063670421
 40
1.0
 40
1.0
 40
1.0
 40
1.0
 10
61.1392227130018
 20
16.45396853441526
 30
0.0
 10
59.6056948643411
 20
16.45396853441526
 30
0.0
 10
58.07216701568041
 20
16.45396853441526
 30
0.0
 10
56.53863916701982
 20
16.45396853441526
 30
0.0
 10
56.53863916701982
 20
14.92135937849003
 30
0.0
 10
56.53863916701982
 20
13.3887502225648
 30
0.0
 10
56.53863916701982
 20
11.85614106663957
 30
0.0
 10
58.07216701568041
 20
11.85614106663957
 30
0.0
 10
59.6056948643411
 20
11.85614106663957
 30
0.0
 10
61.1392227130018
 20
11.85614106663957
 30
0.0
 10
61.1392227130018
 20
13.3887502225648
 30
0.0
 10
61.1392227130018
 20
14.92135937849003
 30
0.0
 10
61.1392227130018
 20
16.45396853441526
 30
0.0
  0
SPLINE
  5
E0
330
1F
100
AcDbEntity
  8
1
  6
Continuous
 62
   163
 60
     1
370
    18
100
AcDbSpline
210
0.0
220
0.0
230
1.0
 70
    11
 71
     3
 72
    17
 73
    13
 74
     0
 42
0.000000001
 43
0.0000000001
 40
0.0
 40
0.0
 40
0.0
 40
0.0
 40
0.2499153546639589
 40
0.2499153546639589
 40
0.2499153546639589
 40
0.4999999999999987
 40
0.4999999999999987
 40
0.4999999999999987
 40
0.7499153546639602
 40
0.7499153546639602
 40
0.7499153546639602
 40
1.0
 40
1.0
 40
1.0
 40
1.0
 10
60.87463920519031
 20
16.18938502660379
 30
0.0
 10
60.87463920519031
 20
14.83316487588619
 30
0.0
 10
60.87463920519031
 20
13.47694472516864
 30
0.0
 10
60.87463920519031
 20
12.12072457445104
 30
0.0
 10
59.51750036173735
 20
12.12072457445104
 30
0.0
 10
58.16036151828428
 20
12.12072457445104
 30
0.0
 10
56.8032226748312
 20
12.12072457445104
 30
0.0
 10
56.8032226748312
 20
13.47694472516864
 30
0.0
 10
56.8032226748312
 20
14.83316487588619
 30
0.0
 10
56.8032226748312
 20
16.18938502660379
 30
0.0
 10
58.16036151828428
 20
16.18938502660379
 30
0.0
 10
59.51750036173735
 20
16.18938502660379
 30
0.0
 10
60.87463920519031
 20
16.18938502660379
 30
0.0
  0
SPLINE
  5
E1
330
1F
100
AcDbEntity
  8
1
  6
Continuous
 62
   163
 60
     1
370
    18
100
AcDbSpline
210
0.0
220
0.0
230
1.0
 70
    11
 71
     3
 72
    17
 73
    13
 74
     0
 42
0.000000001
 43
0.0000000001
 40
0.0
 40
0.0
 40
0.0
 40
0.0
 40
0.2500749063670416
 40
0.2500749063670416
 40
0.2500749063670416
 40
0.4999999999999989
 40
0.4999999999999989
 40
0.4999999999999989
 40
0.7500749063670404
 40
0.7500749063670404
 40
0.7500749063670404
 40
1.0
 40
1.0
 40
1.0
 40
1.0
 10
55.95917372413066
 20
11.2735750357683
 30
0.0
 10
54.42564587546997
 20
11.2735750357683
 30
0.0
 10
52.89211802680927
 20
11.2735750357683
 30
0.0
 10
51.35859017814857
 20
11.2735750357683
 30
0.0
 10
51.35859017814857
 20
9.740965879843069
 30
0.0
 10
51.35859017814857
 20
8.20835672391784
 30
0.0
 10
51.35859017814857
 20
6.675747567992611
 30
0.0
 10
52.89211802680927
 20
6.675747567992611
 30
0.0
 10
54.42564587546997
 20
6.675747567992611
 30
0.0
 10
55.95917372413066
 20
6.675747567992611
 30
0.0
 10
55.95917372413066
 20
8.20835672391784
 30
0.0
 10
55.95917372413066
 20
9.740965879843069
 30
0.0
 10
55.95917372413066
 20
11.2735750357683
 30
0.0
  0
SPLINE
  5
E2
330
1F
100
AcDbEntity
  8
1
  6
Continuous
 62
   163
 60
     1
370
    18
100
AcDbSpline
210
0.0
220
0.0
230
1.0
 70
    11
 71
     3
 72
    17
 73
    13
 74
     0
 42
0.000000001
 43
0.0000000001
 40
0.0
 40
0.0
 40
0.0
 40
0.0
 40
0.2499153546639537
 40
0.2499153546639537
 40
0.2499153546639537
 40
0.4999999999999934
 40
0.4999999999999934
 40
0.4999999999999934
 40
0.749915354663955
 40
0.749915354663955
 40
0.749915354663955
 40
1.0
 40
1.0
 40
1.0
 40
1.0
 10
55.69459021631917
 20
11.0089915279568
 30
0.0
 10
55.69459021631917
 20
9.652771377239228
 30
0.0
 10
55.69459021631917
 20
8.296551226521624
 30
0.0
 10
55.69459021631917
 20
6.940331075804048
 30
0.0
 10
54.3374513728661
 20
6.940331075804048
 30
0.0
 10
52.98031252941303
 20
6.940331075804048
 30
0.0
 10
51.62317368596007
 20
6.940331075804048
 30
0.0
 10
51.62317368596007
 20
8.296551226521652
 30
0.0
 10
51.62317368596007
 20
9.652771377239228
 30
0.0
 10
51.62317368596007
 20
11.0089915279568
 30
0.0
 10
52.98031252941303
 20
11.0089915279568
 30
0.0
 10
54.3374513728661
 20
11.0089915279568
 30
0.0
 10
55.69459021631917
 20
11.0089915279568
 30
0.0
  0
SPLINE
  5
E3
102
{ACAD_REACTORS
330
1C4
102
}
330
1F
100
AcDbEntity
  8
256
  6
Continuous
 62
     7
370
    13
100
AcDbSpline
210
0.0
220
0.0
230
1.0
 70
    11
 71
     3
 72
    17
 73
    13
 74
     0
 42
0.000000001
 43
0.0000000001
 40
0.0
 40
0.0
 40
0.0
 40
0.0
 40
0.2500749063670416
 40
0.2500749063670416
 40
0.2500749063670416
 40
0.4999999999999989
 40
0.4999999999999989
 40
0.4999999999999989
 40
0.7500749063670404
 40
0.7500749063670404
 40
0.7500749063670404
 40
1.0
 40
1.0
 40
1.0
 40
1.0
 10
55.95917372413066
 20
11.85614106663957
 30
0.0
 10
54.42564587546997
 20
11.85614106663957
 30
0.0
 10
52.89211802680927
 20
11.85614106663957
 30
0.0
 10
51.35859017814857
 20
11.85614106663957
 30
0.0
 10
51.35859017814857
 20
13.3887502225648
 30
0.0
 10
51.35859017814857
 20
14.92135937849003
 30
0.0
 10
51.35859017814857
 20
16.45396853441526
 30
0.0
 10
52.89211802680927
 20
16.45396853441526
 30
0.0
 10
54.42564587546997
 20
16.45396853441526
 30
0.0
 10
55.95917372413066
 20
16.45396853441526
 30
0.0
 10
55.95917372413066
 20
14.92135937849003
 30
0.0
 10
55.95917372413066
 20
13.3887502225648
 30
0.0
 10
55.95917372413066
 20
11.85614106663957
 30
0.0
  0
SPLINE
  5
E4
102
{ACAD_REACTORS
330
1C4
102
}
330
1F
100
AcDbEntity
  8
256
  6
Continuous
 62
     7
370
    13
100
AcDbSpline
210
0.0
220
0.0
230
1.0
 70
    11
 71
     3
 72
    17
 73
    13
 74
     0
 42
0.000000001
 43
0.0000000001
 40
0.0
 40
0.0
 40
0.0
 40
0.0
 40
0.2500749063670398
 40
0.2500749063670398
 40
0.2500749063670398
 40
0.5000000000000023
 40
0.5000000000000023
 40
0.5000000000000023
 40
0.7500749063670421
 40
0.7500749063670421
 40
0.7500749063670421
 40
1.0
 40
1.0
 40
1.0
 40
1.0
 10
61.1392227130018
 20
6.675747567992611
 30
0.0
 10
59.6056948643411
 20
6.675747567992611
 30
0.0
 10
58.07216701568041
 20
6.675747567992611
 30
0.0
 10
56.53863916701982
 20
6.675747567992611
 30
0.0
 10
56.53863916701982
 20
8.20835672391784
 30
0.0
 10
56.53863916701982
 20
9.740965879843069
 30
0.0
 10
56.53863916701982
 20
11.2735750357683
 30
0.0
 10
58.07216701568041
 20
11.2735750357683
 30
0.0
 10
59.6056948643411
 20
11.2735750357683
 30
0.0
 10
61.1392227130018
 20
11.2735750357683
 30
0.0
 10
61.1392227130018
 20
9.740965879843069
 30
0.0
 10
61.1392227130018
 20
8.20835672391784
 30
0.0
 10
61.1392227130018
 20
6.675747567992611
 30
0.0
  0
SPLINE
  5
E5
102
{ACAD_REACTORS
330
1C4
102
}
330
1F
100
AcDbEntity
  8
256
  6
Continuous
 62
     7
370
    13
100
AcDbSpline
210
0.0
220
0.0
230
1.0
 70
    11
 71
     3
 72
    17
 73
    13
 74
     0
 42
0.000000001
 43
0.0000000001
 40
0.0
 40
0.0
 40
0.0
 40
0.0
 40
0.2500749063670416
 40
0.2500749063670416
 40
0.2500749063670416
 40
0.4999999999999989
 40
0.4999999999999989
 40
0.4999999999999989
 40
0.7500749063670404
 40
0.7500749063670404
 40
0.7500749063670404
 40
1.0
 40
1.0
 40
1.0
 40
1.0
 10
55.95917372413066
 20
11.2735750357683
 30
0.0
 10
54.42564587546997
 20
11.2735750357683
 30
0.0
 10
52.89211802680927
 20
11.2735750357683
 30
0.0
 10
51.35859017814857
 20
11.2735750357683
 30
0.0
 10
51.35859017814857
 20
9.740965879843069
 30
0.0
 10
51.35859017814857
 20
8.20835672391784
 30
0.0
 10
51.35859017814857
 20
6.675747567992611
 30
0.0
 10
52.89211802680927
 20
6.675747567992611
 30
0.0
 10
54.42564587546997
 20
6.675747567992611
 30
0.0
 10
55.95917372413066
 20
6.675747567992611
 30
0.0
 10
55.95917372413066
 20
8.20835672391784
 30
0.0
 10
55.95917372413066
 20
9.740965879843069
 30
0.0
 10
55.95917372413066
 20
11.2735750357683
 30
0.0
  0
SPLINE
  5
E6
102
{ACAD_REACTORS
330
1C4
102
}
330
1F
100
AcDbEntity
  8
256
  6
Continuous
 62
     7
370
    13
100
AcDbSpline
210
0.0
220
0.0
230
1.0
 70
    11
 71
     3
 72
    53
 73
    49
 74
     0
 42
0.000000001
 43
0.0000000001
 40
0.0
 40
0.0
 40
0.0
 40
0.0
 40
0.024233419787787
 40
0.024233419787787
 40
0.024233419787787
 40
0.1280418012427934
 40
0.1280418012427934
 40
0.1280418012427934
 40
0.1284086704647148
 40
0.1284086704647148
 40
0.1284086704647148
 40
0.2309459700568215
 40
0.2309459700568215
 40
0.2309459700568215
 40
0.2557435253627113
 40
0.2557435253627113
 40
0.2557435253627113
 40
0.3573149299809463
 40
0.3573149299809463
 40
0.3573149299809463
 40
0.3576817992028669
 40
0.3576817992028669
 40
0.3576817992028669
 40
0.4624443157722517
 40
0.4624443157722517
 40
0.4624443157722517
 40
0.4860156317106226
 40
0.4860156317106226
 40
0.4860156317106226
 40
0.6156754647053586
 40
0.6156754647053586
 40
0.6156754647053586
 40
0.6406552862488913
 40
0.6406552862488913
 40
0.6406552862488913
 40
0.7430727925756138
 40
0.7430727925756138
 40
0.7430727925756138
 40
0.7434419985441709
 40
0.7434419985441709
 40
0.7434419985441709
 40
0.8467092888241766
 40
0.8467092888241766
 40
0.8467092888241766
 40
0.8713245778924228
 40
0.8713245778924228
 40
0.8713245778924228
 40
1.0
 40
1.0
 40
1.0
 40
1.0
 10
23.1392776780207
 20
15.99852661081272
 30
0.0
 10
23.71696315373489
 20
16.14293362516728
 30
0.0
 10
24.29464862944909
 20
16.28734063952184
 30
0.0
 10
24.87233410516333
 20
16.43174765387639
 30
0.0
 10
25.45909167164015
 20
13.94938246437707
 30
0.0
 10
26.04584923811703
 20
11.46701727487778
 30
0.0
 10
26.63260680459385
 20
8.984652085378494
 30
0.0
 10
26.64162147706051
 20
8.984652085378494
 30
0.0
 10
26.65063614952717
 20
8.984652085378494
 30
0.0
 10
26.65965082199384
 20
8.984652085378494
 30
0.0
 10
27.36377138542528
 20
11.40379973101924
 30
0.0
 10
28.06789194885667
 20
13.82294737665993
 30
0.0
 10
28.77201251228806
 20
16.24209502230062
 30
0.0
 10
29.38133546907952
 20
16.24209502230062
 30
0.0
 10
29.99065842587103
 20
16.24209502230062
 30
0.0
 10
30.59998138266255
 20
16.24209502230062
 30
0.0
 10
31.21378296653936
 20
13.82294737665993
 30
0.0
 10
31.82758455041622
 20
11.40379973101924
 30
0.0
 10
32.44138613429308
 20
8.984652085378494
 30
0.0
 10
32.45040080675975
 20
8.984652085378494
 30
0.0
 10
32.45941547922641
 20
8.984652085378494
 30
0.0
 10
32.46843015169307
 20
8.984652085378494
 30
0.0
 10
33.14992790651385
 20
11.46701727487778
 30
0.0
 10
33.83142566133463
 20
13.9493824643771
 30
0.0
 10
34.51292341615542
 20
16.43174765387639
 30
0.0
 10
35.07263696523225
 20
16.28280459414052
 30
0.0
 10
35.63235051430908
 20
16.13386153440465
 30
0.0
 10
36.19206406338597
 20
15.98491847466878
 30
0.0
 10
35.23070953402672
 20
12.94743319976991
 30
0.0
 10
34.26935500466752
 20
9.909947924871071
 30
0.0
 10
33.30800047530832
 20
6.872462649972229
 30
0.0
 10
32.69419889143145
 20
6.872462649972229
 30
0.0
 10
32.08039730755465
 20
6.872462649972229
 30
0.0
 10
31.46659572367778
 20
6.872462649972229
 30
0.0
 10
30.85727276688633
 20
9.31417568592756
 30
0.0
 10
30.24794981009481
 20
11.75588872188289
 30
0.0
 10
29.63862685330335
 20
14.19760175783825
 30
0.0
 10
29.62955476254072
 20
14.19760175783825
 30
0.0
 10
29.62048267177803
 20
14.19760175783825
 30
0.0
 10
29.61141058101541
 20
14.19760175783825
 30
0.0
 10
28.92089815372796
 20
11.75588872188289
 30
0.0
 10
28.23038572644052
 20
9.31417568592756
 30
0.0
 10
27.53987329915307
 20
6.872462649972229
 30
0.0
 10
26.9350289694469
 20
6.872462649972229
 30
0.0
 10
26.33018463974079
 20
6.872462649972229
 30
0.0
 10
25.72534031003462
 20
6.872462649972229
 30
0.0
 10
24.86331943269667
 20
9.914483970252357
 30
0.0
 10
24.00129855535866
 20
12.95650529053254
 30
0.0
 10
23.1392776780207
 20
15.99852661081272
 30
0.0
  0
SPLINE
  5
E7
102
{ACAD_REACTORS
330
1C4
102
}
330
1F
100
AcDbEntity
  8
256
  6
Continuous
 62
     7
370
    13
100
AcDbSpline
210
0.0
220
0.0
230
1.0
 70
    11
 71
     3
 72
    17
 73
    13
 74
     0
 42
0.000000001
 43
0.0000000001
 40
0.0
 40
0.0
 40
0.0
 40
0.0
 40
0.2500749063670398
 40
0.2500749063670398
 40
0.2500749063670398
 40
0.5000000000000023
 40
0.5000000000000023
 40
0.5000000000000023
 40
0.7500749063670421
 40
0.7500749063670421
 40
0.7500749063670421
 40
1.0
 40
1.0
 40
1.0
 40
1.0
 10
61.1392227130018
 20
16.45396853441526
 30
0.0
 10
59.6056948643411
 20
16.45396853441526
 30
0.0
 10
58.07216701568041
 20
16.45396853441526
 30
0.0
 10
56.53863916701982
 20
16.45396853441526
 30
0.0
 10
56.53863916701982
 20
14.92135937849003
 30
0.0
 10
56.53863916701982
 20
13.3887502225648
 30
0.0
 10
56.53863916701982
 20
11.85614106663957
 30
0.0
 10
58.07216701568041
 20
11.85614106663957
 30
0.0
 10
59.6056948643411
 20
11.85614106663957
 30
0.0
 10
61.1392227130018
 20
11.85614106663957
 30
0.0
 10
61.1392227130018
 20
13.3887502225648
 30
0.0
 10
61.1392227130018
 20
14.92135937849003
 30
0.0
 10
61.1392227130018
 20
16.45396853441526
 30
0.0
  0
SPLINE
  5
E8
102
{ACAD_REACTORS
330
1C4
102
}
330
1F
100
AcDbEntity
  8
256
  6
Continuous
 62
     7
370
    13
100
AcDbSpline
210
0.0
220
0.0
230
1.0
 70
    11
 71
     3
 72
    41
 73
    37
 74
     0
 42
0.000000001
 43
0.0000000001
 40
0.0
 40
0.0
 40
0.0
 40
0.0
 40
0.0833333333333333
 40
0.0833333333333333
 40
0.0833333333333333
 40
0.1666666666666667
 40
0.1666666666666667
 40
0.1666666666666667
 40
0.25
 40
0.25
 40
0.25
 40
0.3333333333333333
 40
0.3333333333333333
 40
0.3333333333333333
 40
0.4166666666666667
 40
0.4166666666666667
 40
0.4166666666666667
 40
0.5
 40
0.5
 40
0.5
 40
0.5833333333333334
 40
0.5833333333333334
 40
0.5833333333333334
 40
0.6666666666666666
 40
0.6666666666666666
 40
0.6666666666666666
 40
0.75
 40
0.75
 40
0.75
 40
0.8333333333333334
 40
0.8333333333333334
 40
0.8333333333333334
 40
0.9166666666666666
 40
0.9166666666666666
 40
0.9166666666666666
 40
1.0
 40
1.0
 40
1.0
 40
1.0
 10
37.62644536308606
 20
8.727305110896895
 30
0.0
 10
38.05982381286489
 20
8.429474581683005
 30
0.0
 10
38.76382953970435
 20
8.090993726963271
 30
0.0
 10
39.27835488985593
 20
8.090993726963271
 30
0.0
 10
40.23970941921513
 20
8.090993726963271
 30
0.0
 10
40.78127878676671
 20
8.700259265458792
 30
0.0
 10
40.78127878676671
 20
9.444917145842206
 30
0.0
 10
40.76767065062276
 20
11.31353816976063
 30
0.0
 10
36.93603292421776
 20
10.51461999968931
 30
0.0
 10
36.93603292421776
 20
13.71012042508668
 30
0.0
 10
36.93603292421776
 20
15.24026059428534
 30
0.0
 10
38.18160801860884
 20
16.43174765387639
 30
0.0
 10
40.06383717867121
 20
16.43174765387639
 30
0.0
 10
40.99814769063042
 20
16.43174765387639
 30
0.0
 10
41.90506967541384
 20
16.10670268041273
 30
0.0
 10
42.70399599466541
 20
15.64644135862842
 30
0.0
 10
42.70398453274984
 20
15.6464332013328
 30
0.0
 10
41.97276974205371
 20
14.4006827459659
 30
0.0
 10
41.97276120276902
 20
14.4006934186719
 30
0.0
 10
41.4043247162941
 20
14.71212710798984
 30
0.0
 10
40.87619122999857
 20
15.02356394530955
 30
0.0
 10
40.1992295205591
 20
15.02356394530955
 30
0.0
 10
39.41374723174383
 20
15.02356394530955
 30
0.0
 10
38.66908935136038
 20
14.60377878350193
 30
0.0
 10
38.66908935136038
 20
13.76438071477455
 30
0.0
 10
38.66908935136038
 20
11.92280370825615
 30
0.0
 10
42.59581177588515
 20
12.50502522935168
 30
0.0
 10
42.59581177588515
 20
9.512613316786153
 30
0.0
 10
42.59581177588515
 20
7.914949231531418
 30
0.0
 10
41.30924001817434
 20
6.682810018396404
 30
0.0
 10
39.49505153883169
 20
6.682810018396404
 30
0.0
 10
38.58778504427252
 20
6.682810018396404
 30
0.0
 10
37.73477883940117
 20
6.940158820916148
 30
0.0
 10
36.94946178950815
 20
7.400592083187442
 30
0.0
 10
36.94947178431599
 20
7.400600964059331
 30
0.0
 10
37.626435060445
 20
8.727312191177512
 30
0.0
 10
37.62644536308606
 20
8.727305110896895
 30
0.0
  0
SPLINE
  5
E9
102
{ACAD_REACTORS
330
1C4
102
}
330
1F
100
AcDbEntity
  8
256
  6
Continuous
 62
     7
370
    13
100
AcDbSpline
210
0.0
220
0.0
230
1.0
 70
    11
 71
     3
 72
    17
 73
    13
 74
     0
 42
0.000000001
 43
0.0000000001
 40
0.0
 40
0.0
 40
0.0
 40
0.0
 40
0.2499153546639589
 40
0.2499153546639589
 40
0.2499153546639589
 40
0.4999999999999987
 40
0.4999999999999987
 40
0.4999999999999987
 40
0.7499153546639602
 40
0.7499153546639602
 40
0.7499153546639602
 40
1.0
 40
1.0
 40
1.0
 40
1.0
 10
60.87463920519031
 20
16.18938502660379
 30
0.0
 10
60.87463920519031
 20
14.83316487588619
 30
0.0
 10
60.87463920519031
 20
13.47694472516864
 30
0.0
 10
60.87463920519031
 20
12.12072457445104
 30
0.0
 10
59.51750036173735
 20
12.12072457445104
 30
0.0
 10
58.16036151828428
 20
12.12072457445104
 30
0.0
 10
56.8032226748312
 20
12.12072457445104
 30
0.0
 10
56.8032226748312
 20
13.47694472516864
 30
0.0
 10
56.8032226748312
 20
14.83316487588619
 30
0.0
 10
56.8032226748312
 20
16.18938502660379
 30
0.0
 10
58.16036151828428
 20
16.18938502660379
 30
0.0
 10
59.51750036173735
 20
16.18938502660379
 30
0.0
 10
60.87463920519031
 20
16.18938502660379
 30
0.0
  0
LEADER
  5
EE
330
1F
100
AcDbEntity
  8
1
  6
Continuous
 62
    35
370
    13
100
AcDbLeader
  3
Standard
 73
     2
 76
     3
 10
127.851508
 20
124.708385
 30
0.0
 10
108.896474
 20
135.028266
 30
0.0
 10
102.896474
 20
135.028266
 30
0.0
340
F1
212
102.8964735806549
222
135.0282659663779
232
0.0
1001
ACAD
1000
DSTYLE
1002
{
1070
   341
1005
EB
1070
    41
1040
8.0
1002
}
  0
INSERT
  5
F1
102
{ACAD_REACTORS
330
EE
102
}
330
1F
100
AcDbEntity
  8
1
  6
Continuous
 62
    35
370
    13
100
AcDbBlockReference
  2
LABLE3D_1
 10
0.0
 20
0.0
 30
0.0
  0
MTEXT
  5
F4
102
{ACAD_REACTORS
330
1C7
102
}
330
1F
100
AcDbEntity
  8
256
  6
Continuous
 62
     1
370
    13
100
AcDbMText
 10
140.252831
 20
26.032512
 30
0.0
 40
1.8
 41
0.0
 71
     7
 72
     5
  1
\W1.0000;Kunde:
  7
ISOCPEUR
 73
     2
 44
0.60241
  0
MTEXT
  5
F5
102
{ACAD_REACTORS
330
1C7
102
}
330
1F
100
AcDbEntity
  8
256
  6
Continuous
 62
     1
370
    13
100
AcDbMText
 10
140.338651
 20
20.025128
 30
0.0
 40
1.8
 41
0.0
 71
     7
 72
     5
  1
\W1.0000;Obj.:
  7
ISOCPEUR
 73
     2
 44
0.60241
  0
MTEXT
  5
F6
102
{ACAD_REACTORS
330
1C7
102
}
330
1F
100
AcDbEntity
  8
256
  6
Continuous
 62
     1
370
    13
100
AcDbMText
 10
68.475407
 20
25.544246
 30
0.0
 40
1.8
 41
0.0
 71
     7
 72
     5
  1
\W1.0000;Ident- Nr.:
  7
ISOCPEUR
 73
     2
 44
0.60241
  0
MTEXT
  5
F7
102
{ACAD_REACTORS
330
1C7
102
}
330
1F
100
AcDbEntity
  8
256
  6
Continuous
 62
     1
370
    13
100
AcDbMText
 10
68.034306
 20
5.784298
 30
0.0
 40
1.8
 41
0.0
 71
     7
 72
     5
  1
\W1.0000;Serie 200
  7
ISOCPEUR
 73
     2
 44
0.60241
  0
MTEXT
  5
F8
102
{ACAD_REACTORS
330
1C7
102
}
330
1F
100
AcDbEntity
  8
256
  6
Continuous
 62
     1
370
    13
100
AcDbMText
 10
140.338651
 20
14.532663
 30
0.0
 40
1.8
 41
0.0
 71
     7
 72
     5
  1
\W1.0000;Bestell- Nr.:
  7
ISOCPEUR
 73
     2
 44
0.60241
  0
MTEXT
  5
F9
102
{ACAD_REACTORS
330
1C7
102
}
330
1F
100
AcDbEntity
  8
256
  6
Continuous
 62
     1
370
    13
100
AcDbMText
 10
22.312209
 20
20.102235
 30
0.0
 40
1.8
 41
0.0
 71
     7
 72
     5
  1
\W1.0000;Datum:
  7
ISOCPEUR
 73
     2
 44
0.60241
  0
MTEXT
  5
FA
102
{ACAD_REACTORS
330
1C7
102
}
330
1F
100
AcDbEntity
  8
256
  6
Continuous
 62
     1
370
    13
100
AcDbMText
 10
22.203121
 20
25.836315
 30
0.0
 40
1.8
 41
0.0
 71
     7
 72
     5
  1
\W1.0000;Ersteller:
  7
ISOCPEUR
 73
     2
 44
0.60241
  0
MTEXT
  5
FB
102
{ACAD_REACTORS
330
1C7
102
}
330
1F
100
AcDbEntity
  8
256
  6
Continuous
 62
     1
370
    13
100
AcDbMText
 10
175.595795
 20
14.566103
 30
0.0
 40
1.8
 41
0.0
 71
     7
 72
     5
  1
\W1.0000;Pos.:
  7
ISOCPEUR
 73
     2
 44
0.60241
  0
MTEXT
  5
FC
102
{ACAD_REACTORS
330
1C7
102
}
330
1F
100
AcDbEntity
  8
256
  6
Continuous
 62
     1
370
    13
100
AcDbMText
 10
81.289248
 20
25.334284
 30
0.0
 40
2.5
 41
0.0
 71
     7
 72
     5
  1
\W1.0000;114027
  7
ISOCPEUR
 73
     2
 44
0.60241
  0
MTEXT
  5
FD
102
{ACAD_REACTORS
330
1C7
102
}
330
1F
100
AcDbEntity
  8
256
  6
Continuous
 62
     1
370
    18
100
AcDbMText
 10
103.53529
 20
25.16909
 30
0.0
 40
2.5
 41
0.0
 71
     7
 72
     5
  1
\fISOCPEUR|b1|i0;\W1.0000;01
  7
ISOCPEUR
 73
     2
 44
0.60241
  0
MTEXT
  5
FE
102
{ACAD_REACTORS
330
1C7
102
}
330
1F
100
AcDbEntity
  8
256
  6
Continuous
 62
     1
370
    13
100
AcDbMText
 10
140.167012
 20
10.241675
 30
0.0
 40
1.8
 41
0.0
 71
     7
 72
     5
  1
\W1.0000;Änderung:
  7
ISOCPEUR
 73
     2
 44
0.60241
  0
LINE
  5
FF
330
1F
100
AcDbEntity
  8
1
  6
CENTER
 62
   203
370
    13
100
AcDbLine
 10
120.201508
 20
124.708385
 30
0.0
 11
135.501508
 21
124.708385
 31
0.0
  0
LINE
  5
100
330
1F
100
AcDbEntity
  8
1
  6
CENTER
 62
   203
370
    13
100
AcDbLine
 10
127.851508
 20
117.058385
 30
0.0
 11
127.851508
 21
132.358385
 31
0.0
  0
LINE
  5
101
330
1F
100
AcDbEntity
  8
1
  6
CENTER
 62
   203
370
    13
100
AcDbLine
 10
127.851508
 20
223.558385
 30
0.0
 11
127.851508
 21
252.358385
 31
0.0
  0
LINE
  5
102
330
1F
100
AcDbEntity
  8
1
  6
CENTER
 62
   203
370
    13
100
AcDbLine
 10
120.201508
 20
244.708385
 30
0.0
 11
135.501508
 21
244.708385
 31
0.0
  0
LINE
  5
103
330
1F
100
AcDbEntity
  8
1
  6
CENTER
 62
   203
370
    13
100
AcDbLine
 10
121.451508
 20
229.958385
 30
0.0
 11
134.251508
 21
229.958385
 31
0.0
  0
MTEXT
  5
104
102
{ACAD_REACTORS
330
1C7
102
}
330
1F
100
AcDbEntity
  8
256
  6
Continuous
 62
    87
370
    13
100
AcDbMText
 10
17.685762
 20
5.805962
 30
0.0
 40
1.8
 41
0.0
 71
     7
 72
     5
  3
\W0.9000;Diese Zeichnung entspricht dem Entwicklungsstand des Zeichnungsdatums bzw. der letzten\PAenderungseintragung. Aus der Benutzung der Zeichnung koennen keine Ansprueche, gleich welcher Art,\Peinschliesslich Schadensersatzansprueche, abgeleite
  3
t und gegen WSS geltend gemacht werden. Die\PZeichnung bleibt unser Eigentum und ist Dritten nur fuer die Vertragsdauer zur Benutzung ueberlassen.\PSaemtliche sich aus der Zeichnung ergebenden Ansprueche stehen ausschliesslich WSS zu. Ohne vorherige
  1
\PZustimmung von WSS darf diese Zeichnung weder vervielfaeltigt noch Dritten zugaenglich gemacht werden. 
  7
ISOCPEUR
 11
8.276882722183526E-15
 21
1.0
 31
0.0
 73
     1
 44
0.961482
  0
MTEXT
  5
105
102
{ACAD_REACTORS
330
1C7
102
}
330
1F
100
AcDbEntity
  8
256
  6
Continuous
 62
     1
370
    13
100
AcDbMText
 10
154.841428
 20
14.532663
 30
0.0
 40
1.8
 41
0.0
 71
     7
 72
     5
  1
\W1.0000;
  7
ISOCPEUR
 73
     2
 44
0.60241
  0
MTEXT
  5
106
102
{ACAD_REACTORS
330
1C7
102
}
330
1F
100
AcDbEntity
  8
256
  6
Continuous
 62
     1
370
    13
100
AcDbMText
 10
145.807848
 20
20.025128
 30
0.0
 40
1.8
 41
0.0
 71
     7
 72
     5
  1
\W1.0000;
  7
ISOCPEUR
 73
     2
 44
0.60241
  0
MTEXT
  5
107
102
{ACAD_REACTORS
330
1C7
102
}
330
1F
100
AcDbEntity
  8
256
  6
Continuous
 62
    87
370
    13
100
AcDbMText
 10
18.167109
 20
177.357362
 30
0.0
 40
1.8
 41
0.0
 71
     7
 72
     5
  3
\W0.9000;Zeichnung fuer Sonder- bzw. Objektkonstruktionen sind vom Anwender auf Richtigkeit sowie\PAus- und Durchfuehrbarkeit zu pruefen. Um eine einwandfreie Serienproduktion sicherzustellen ist die \PFertigung eines Musterelementes unbedingt erfor
  3
derlich. Die hierzu benoetigten Mustermengen sind\Prechtzeitig zu bestellen. Alle angegebenen Masse sind theoretisch ermittelt und vom Verarbeiter \Pverantwortlich zu ueberpruefen. Die Haftung WSS ist auf Vorsatz und grobe Fahrlaessigkeit beschraenk
  7
ISOCPEUR
 11
9.165061141883651E-15
 21
1.0
 31
0.0
 73
     1
 44
0.961482
  0
MTEXT
  5
108
102
{ACAD_REACTORS
330
1C7
102
}
330
1F
100
AcDbEntity
  8
256
  6
Continuous
 62
     1
370
    13
100
AcDbMText
 10
68.600925
 20
14.67194
 30
0.0
 40
3.5
 41
0.0
 71
     7
 72
     5
  1
\W0.9000;SBH E 14.307.6000.426 L
  7
ISOCPEUR
 73
     2
 44
0.60241
  0
MTEXT
  5
109
102
{ACAD_REACTORS
330
1C7
102
}
330
1F
100
AcDbEntity
  8
256
  6
Continuous
 62
     1
370
    13
100
AcDbMText
 10
148.436109
 20
26.032512
 30
0.0
 40
1.8
 41
0.0
 71
     7
 72
     5
  1
\W0.8000;
  7
ISOCPEUR
 73
     2
 44
0.60241
  0
MTEXT
  5
10A
102
{ACAD_REACTORS
330
1C7
102
}
330
1F
100
AcDbEntity
  8
256
  6
Continuous
 62
     1
370
    13
100
AcDbMText
 10
109.542744
 20
24.922437
 30
0.0
 40
2.5
 41
0.0
 71
     7
 72
     5
  1
\W1.0000;Serienfreigabe
  7
ISOCPEUR
 73
     2
 44
0.60241
  0
MTEXT
  5
10B
102
{ACAD_REACTORS
330
1C7
102
}
330
1F
100
AcDbEntity
  8
256
  6
Continuous
 62
     1
370
    13
100
AcDbMText
 10
181.91213
 20
14.566103
 30
0.0
 40
1.8
 41
0.0
 71
     7
 72
     5
  1
\W1.0000;
  7
ISOCPEUR
 73
     2
 44
0.60241
  0
MTEXT
  5
10C
102
{ACAD_REACTORS
330
1C7
102
}
330
1F
100
AcDbEntity
  8
256
  6
Continuous
 62
     1
370
    13
100
AcDbMText
 10
96.761446
 20
25.544246
 30
0.0
 40
1.8
 41
0.0
 71
     7
 72
     5
  1
\W1.0000;Index:
  7
ISOCPEUR
 73
     2
 44
0.60241
  0
MTEXT
  5
10D
102
{ACAD_REACTORS
330
1C7
102
}
330
1F
100
AcDbEntity
  8
256
  6
Continuous
 62
     1
370
    13
100
AcDbMText
 10
68.314863
 20
10.031713
 30
0.0
 40
2.5
 41
0.0
 71
     7
 72
     5
  1
\W1.0000;130x24/60x3 - f. E-Oeffn. oben
  7
ISOCPEUR
 73
     2
 44
0.60241
  0
MTEXT
  5
10E
102
{ACAD_REACTORS
330
1C7
102
}
330
1F
100
AcDbEntity
  8
256
  6
Continuous
 62
     1
370
    13
100
AcDbMText
 10
35.917402
 20
20.102235
 30
0.0
 40
1.8
 41
0.0
 71
     7
 72
     5
  1
\W1.0000;29.08.2014
  7
ISOCPEUR
 73
     2
 44
0.60241
  0
MTEXT
  5
10F
102
{ACAD_REACTORS
330
1C7
102
}
330
1F
100
AcDbEntity
  8
256
  6
Continuous
 62
     1
370
    13
100
AcDbMText
 10
35.997708
 20
25.836315
 30
0.0
 40
1.8
 41
0.0
 71
     7
 72
     5
  1
\W1.0000;KNICKT
  7
ISOCPEUR
 73
     2
 44
0.60241
  0
MTEXT
  5
110
102
{ACAD_REACTORS
330
1C7
102
}
330
1F
100
AcDbEntity
  8
256
  6
Continuous
 62
     1
370
    13
100
AcDbMText
 10
21.388756
 20
0.704258
 30
0.0
 40
1.0
 41
0.0
 71
     7
 72
     5
  1
\W1.0000;22.01.2019
  7
ISOCPEUR
 73
     2
 44
0.60241
  0
MTEXT
  5
111
102
{ACAD_REACTORS
330
1C7
102
}
330
1F
100
AcDbEntity
  8
256
  6
Continuous
 62
     1
370
    13
100
AcDbMText
 10
27.712006
 20
0.722997
 30
0.0
 40
1.0
 41
0.0
 71
     7
 72
     5
  1
\W1.0000;/
  7
ISOCPEUR
 73
     2
 44
0.60241
  0
MTEXT
  5
112
102
{ACAD_REACTORS
330
1C7
102
}
330
1F
100
AcDbEntity
  8
256
  6
Continuous
 62
     1
370
    13
100
AcDbMText
 10
28.590482
 20
0.704258
 30
0.0
 40
1.0
 41
0.0
 71
     7
 72
     5
  1
\W1.0000;Jung, Thorsten
  7
ISOCPEUR
 73
     2
 44
0.60241
  0
MTEXT
  5
113
330
1F
100
AcDbEntity
  8
1
  6
Continuous
 62
    35
370
    13
100
AcDbMText
 10
79.343261
 20
42.922085
 30
0.0
 40
3.5
 41
0.0
 71
     7
 72
     5
  1
\W1.0000;Abbildung Gehfluegel DIN links\PDIN rechts spiegelbildgleich
  7
ISOCPEUR
 73
     1
 44
0.85889
  0
MTEXT
  5
114
102
{ACAD_REACTORS
330
1C7
102
}
330
1F
100
AcDbEntity
  8
256
  6
Continuous
 62
    20
370
    13
100
AcDbMText
 10
535.452157
 20
10.519599
 30
0.0
 40
2.0
 41
0.0
 71
     7
 72
     5
  1
\W1.5750;\Q359.999790;.\Q;
  7
ideas_iso
 73
     2
 44
0.60241
  0
MTEXT
  5
117
102
{ACAD_REACTORS
330
1C7
102
}
330
1F
100
AcDbEntity
  8
256
  6
Continuous
 62
    20
370
    13
100
AcDbMText
 10
535.689809
 20
15.244179
 30
0.0
 40
2.0
 41
0.0
 71
     7
 72
     5
  1
\W1.5750;\Q359.999790;.\Q;
  7
ideas_iso
 73
     2
 44
0.60241
  0
MTEXT
  5
118
102
{ACAD_REACTORS
330
1C7
102
}
330
1F
100
AcDbEntity
  8
256
  6
Continuous
 62
     1
370
    13
100
AcDbMText
 10
68.318349
 20
20.550442
 30
0.0
 40
1.8
 41
0.0
 71
     7
 72
     5
  1
\W1.0000;Bezeichnung:
  7
ISOCPEUR
 73
     2
 44
0.60241
  0
LINE
  5
119
330
1F
100
AcDbEntity
  8
1
  6
CENTER
 62
   203
370
    13
100
AcDbLine
 10
121.451508
 20
177.458385
 30
0.0
 11
134.251508
 21
177.458385
 31
0.0
  0
LINE
  5
11A
330
1F
100
AcDbEntity
  8
1
  6
CENTER
 62
   203
370
    13
100
AcDbLine
 10
127.851508
 20
171.058385
 30
0.0
 11
127.851508
 21
183.858385
 31
0.0
  0
SPLINE
  5
11B
102
{ACAD_REACTORS
330
124
102
}
330
1F
100
AcDbEntity
  8
1
  6
Continuous
 62
   163
 60
     1
370
    18
100
AcDbSpline
210
0.0
220
0.0
230
1.0
 70
    11
 71
     3
 72
    53
 73
    49
 74
     0
 42
0.000000001
 43
0.0000000001
 40
0.0
 40
0.0
 40
0.0
 40
0.0
 40
0.024233419787787
 40
0.024233419787787
 40
0.024233419787787
 40
0.1280418012427934
 40
0.1280418012427934
 40
0.1280418012427934
 40
0.1284086704647148
 40
0.1284086704647148
 40
0.1284086704647148
 40
0.2309459700568215
 40
0.2309459700568215
 40
0.2309459700568215
 40
0.2557435253627113
 40
0.2557435253627113
 40
0.2557435253627113
 40
0.3573149299809463
 40
0.3573149299809463
 40
0.3573149299809463
 40
0.3576817992028669
 40
0.3576817992028669
 40
0.3576817992028669
 40
0.4624443157722517
 40
0.4624443157722517
 40
0.4624443157722517
 40
0.4860156317106226
 40
0.4860156317106226
 40
0.4860156317106226
 40
0.6156754647053586
 40
0.6156754647053586
 40
0.6156754647053586
 40
0.6406552862488913
 40
0.6406552862488913
 40
0.6406552862488913
 40
0.7430727925756138
 40
0.7430727925756138
 40
0.7430727925756138
 40
0.7434419985441709
 40
0.7434419985441709
 40
0.7434419985441709
 40
0.8467092888241766
 40
0.8467092888241766
 40
0.8467092888241766
 40
0.8713245778924228
 40
0.8713245778924228
 40
0.8713245778924228
 40
1.0
 40
1.0
 40
1.0
 40
1.0
 10
23.1392776780207
 20
15.99852661081272
 30
0.0
 10
23.71696315373489
 20
16.14293362516728
 30
0.0
 10
24.29464862944909
 20
16.28734063952184
 30
0.0
 10
24.87233410516333
 20
16.43174765387639
 30
0.0
 10
25.45909167164015
 20
13.94938246437707
 30
0.0
 10
26.04584923811703
 20
11.46701727487778
 30
0.0
 10
26.63260680459385
 20
8.984652085378494
 30
0.0
 10
26.64162147706051
 20
8.984652085378494
 30
0.0
 10
26.65063614952717
 20
8.984652085378494
 30
0.0
 10
26.65965082199384
 20
8.984652085378494
 30
0.0
 10
27.36377138542528
 20
11.40379973101924
 30
0.0
 10
28.06789194885667
 20
13.82294737665993
 30
0.0
 10
28.77201251228806
 20
16.24209502230062
 30
0.0
 10
29.38133546907952
 20
16.24209502230062
 30
0.0
 10
29.99065842587103
 20
16.24209502230062
 30
0.0
 10
30.59998138266255
 20
16.24209502230062
 30
0.0
 10
31.21378296653936
 20
13.82294737665993
 30
0.0
 10
31.82758455041622
 20
11.40379973101924
 30
0.0
 10
32.44138613429308
 20
8.984652085378494
 30
0.0
 10
32.45040080675975
 20
8.984652085378494
 30
0.0
 10
32.45941547922641
 20
8.984652085378494
 30
0.0
 10
32.46843015169307
 20
8.984652085378494
 30
0.0
 10
33.14992790651385
 20
11.46701727487778
 30
0.0
 10
33.83142566133463
 20
13.9493824643771
 30
0.0
 10
34.51292341615542
 20
16.43174765387639
 30
0.0
 10
35.07263696523225
 20
16.28280459414052
 30
0.0
 10
35.63235051430908
 20
16.13386153440465
 30
0.0
 10
36.19206406338597
 20
15.98491847466878
 30
0.0
 10
35.23070953402672
 20
12.94743319976991
 30
0.0
 10
34.26935500466752
 20
9.909947924871071
 30
0.0
 10
33.30800047530832
 20
6.872462649972229
 30
0.0
 10
32.69419889143145
 20
6.872462649972229
 30
0.0
 10
32.08039730755465
 20
6.872462649972229
 30
0.0
 10
31.46659572367778
 20
6.872462649972229
 30
0.0
 10
30.85727276688633
 20
9.31417568592756
 30
0.0
 10
30.24794981009481
 20
11.75588872188289
 30
0.0
 10
29.63862685330335
 20
14.19760175783825
 30
0.0
 10
29.62955476254072
 20
14.19760175783825
 30
0.0
 10
29.62048267177803
 20
14.19760175783825
 30
0.0
 10
29.61141058101541
 20
14.19760175783825
 30
0.0
 10
28.92089815372796
 20
11.75588872188289
 30
0.0
 10
28.23038572644052
 20
9.31417568592756
 30
0.0
 10
27.53987329915307
 20
6.872462649972229
 30
0.0
 10
26.9350289694469
 20
6.872462649972229
 30
0.0
 10
26.33018463974079
 20
6.872462649972229
 30
0.0
 10
25.72534031003462
 20
6.872462649972229
 30
0.0
 10
24.86331943269667
 20
9.914483970252357
 30
0.0
 10
24.00129855535866
 20
12.95650529053254
 30
0.0
 10
23.1392776780207
 20
15.99852661081272
 30
0.0
  0
SPLINE
  5
11C
102
{ACAD_REACTORS
330
124
102
}
330
1F
100
AcDbEntity
  8
1
  6
Continuous
 62
   163
 60
     1
370
    18
100
AcDbSpline
210
0.0
220
0.0
230
1.0
 70
    11
 71
     3
 72
    41
 73
    37
 74
     0
 42
0.000000001
 43
0.0000000001
 40
0.0
 40
0.0
 40
0.0
 40
0.0
 40
0.0833333333333333
 40
0.0833333333333333
 40
0.0833333333333333
 40
0.1666666666666667
 40
0.1666666666666667
 40
0.1666666666666667
 40
0.25
 40
0.25
 40
0.25
 40
0.3333333333333333
 40
0.3333333333333333
 40
0.3333333333333333
 40
0.4166666666666667
 40
0.4166666666666667
 40
0.4166666666666667
 40
0.5
 40
0.5
 40
0.5
 40
0.5833333333333334
 40
0.5833333333333334
 40
0.5833333333333334
 40
0.6666666666666666
 40
0.6666666666666666
 40
0.6666666666666666
 40
0.75
 40
0.75
 40
0.75
 40
0.8333333333333334
 40
0.8333333333333334
 40
0.8333333333333334
 40
0.9166666666666666
 40
0.9166666666666666
 40
0.9166666666666666
 40
1.0
 40
1.0
 40
1.0
 40
1.0
 10
37.62644536308606
 20
8.727305110896895
 30
0.0
 10
38.05982381286489
 20
8.429474581683005
 30
0.0
 10
38.76382953970435
 20
8.090993726963271
 30
0.0
 10
39.27835488985593
 20
8.090993726963271
 30
0.0
 10
40.23970941921513
 20
8.090993726963271
 30
0.0
 10
40.78127878676671
 20
8.700259265458792
 30
0.0
 10
40.78127878676671
 20
9.444917145842206
 30
0.0
 10
40.76767065062276
 20
11.31353816976063
 30
0.0
 10
36.93603292421776
 20
10.51461999968931
 30
0.0
 10
36.93603292421776
 20
13.71012042508668
 30
0.0
 10
36.93603292421776
 20
15.24026059428534
 30
0.0
 10
38.18160801860884
 20
16.43174765387639
 30
0.0
 10
40.06383717867121
 20
16.43174765387639
 30
0.0
 10
40.99814769063042
 20
16.43174765387639
 30
0.0
 10
41.90506967541384
 20
16.10670268041273
 30
0.0
 10
42.70399599466541
 20
15.64644135862842
 30
0.0
 10
42.70398453274984
 20
15.6464332013328
 30
0.0
 10
41.97276974205371
 20
14.4006827459659
 30
0.0
 10
41.97276120276902
 20
14.4006934186719
 30
0.0
 10
41.4043247162941
 20
14.71212710798984
 30
0.0
 10
40.87619122999857
 20
15.02356394530955
 30
0.0
 10
40.1992295205591
 20
15.02356394530955
 30
0.0
 10
39.41374723174383
 20
15.02356394530955
 30
0.0
 10
38.66908935136038
 20
14.60377878350193
 30
0.0
 10
38.66908935136038
 20
13.76438071477455
 30
0.0
 10
38.66908935136038
 20
11.92280370825615
 30
0.0
 10
42.59581177588515
 20
12.50502522935168
 30
0.0
 10
42.59581177588515
 20
9.512613316786153
 30
0.0
 10
42.59581177588515
 20
7.914949231531418
 30
0.0
 10
41.30924001817434
 20
6.682810018396404
 30
0.0
 10
39.49505153883169
 20
6.682810018396404
 30
0.0
 10
38.58778504427252
 20
6.682810018396404
 30
0.0
 10
37.73477883940117
 20
6.940158820916148
 30
0.0
 10
36.94946178950815
 20
7.400592083187442
 30
0.0
 10
36.94947178431599
 20
7.400600964059331
 30
0.0
 10
37.626435060445
 20
8.727312191177512
 30
0.0
 10
37.62644536308606
 20
8.727305110896895
 30
0.0
  0
SPLINE
  5
11D
102
{ACAD_REACTORS
330
124
102
}
330
1F
100
AcDbEntity
  8
1
  6
Continuous
 62
   163
 60
     1
370
    18
100
AcDbSpline
210
0.0
220
0.0
230
1.0
 70
    11
 71
     3
 72
    41
 73
    37
 74
     0
 42
0.000000001
 43
0.0000000001
 40
0.0
 40
0.0
 40
0.0
 40
0.0
 40
0.0833333333333333
 40
0.0833333333333333
 40
0.0833333333333333
 40
0.1666666666666667
 40
0.1666666666666667
 40
0.1666666666666667
 40
0.25
 40
0.25
 40
0.25
 40
0.3333333333333333
 40
0.3333333333333333
 40
0.3333333333333333
 40
0.4166666666666667
 40
0.4166666666666667
 40
0.4166666666666667
 40
0.5
 40
0.5
 40
0.5
 40
0.5833333333333334
 40
0.5833333333333334
 40
0.5833333333333334
 40
0.6666666666666666
 40
0.6666666666666666
 40
0.6666666666666666
 40
0.75
 40
0.75
 40
0.75
 40
0.8333333333333334
 40
0.8333333333333334
 40
0.8333333333333334
 40
0.9166666666666666
 40
0.9166666666666666
 40
0.9166666666666666
 40
1.0
 40
1.0
 40
1.0
 40
1.0
 10
44.39623471328623
 20
8.727305110428638
 30
0.0
 10
44.82961316214747
 20
8.429474581683005
 30
0.0
 10
45.53344663409908
 20
8.090993726963271
 30
0.0
 10
46.04814423913854
 20
8.090993726963271
 30
0.0
 10
47.00932651360984
 20
8.090993726963271
 30
0.0
 10
47.55106813604937
 20
8.700259265458792
 30
0.0
 10
47.55106813604937
 20
9.444917145842206
 30
0.0
 10
47.53745999990542
 20
11.31353816976063
 30
0.0
 10
43.70565001861249
 20
10.51461999968931
 30
0.0
 10
43.70565001861249
 20
13.71012042508668
 30
0.0
 10
43.70565001861249
 20
15.24026059428534
 30
0.0
 10
44.95139736789142
 20
16.43174765387639
 30
0.0
 10
46.83345427306585
 20
16.43174765387639
 30
0.0
 10
47.76776478502507
 20
16.43174765387639
 30
0.0
 10
48.67485902469639
 20
16.10670268041273
 30
0.0
 10
49.47361308602012
 20
15.64644135906617
 30
0.0
 10
49.47360162773157
 20
15.64643320030638
 30
0.0
 10
48.74255909224894
 20
14.40068274680042
 30
0.0
 10
48.74255055156664
 20
14.4006934180556
 30
0.0
 10
48.1739418106888
 20
14.71212710798984
 30
0.0
 10
47.64580832439333
 20
15.02356394530955
 30
0.0
 10
46.9688466149538
 20
15.02356394530955
 30
0.0
 10
46.18353658102649
 20
15.02356394530955
 30
0.0
 10
45.43887870064302
 20
14.60377878350193
 30
0.0
 10
45.43887870064302
 20
13.76438071477455
 30
0.0
 10
45.43887870064302
 20
11.92280370825615
 30
0.0
 10
49.36542887027986
 20
12.50502522935168
 30
0.0
 10
49.36542887027986
 20
9.512613316786153
 30
0.0
 10
49.36542887027986
 20
7.914949231531418
 30
0.0
 10
48.079029367457
 20
6.682810018396404
 30
0.0
 10
46.26466863322639
 20
6.682810018396404
 30
0.0
 10
45.3575743935551
 20
6.682810018396404
 30
0.0
 10
44.50456818868381
 20
6.940158820916148
 30
0.0
 10
43.71907888079861
 20
7.400592083519152
 30
0.0
 10
43.71908887943025
 20
7.400600963125905
 30
0.0
 10
44.3962244106452
 20
8.727312190709236
 30
0.0
 10
44.39623471328623
 20
8.727305110428638
 30
0.0
  0
SPLINE
  5
11E
102
{ACAD_REACTORS
330
124
102
}
330
1F
100
AcDbEntity
  8
1
  6
Continuous
 62
   163
 60
     1
370
    18
100
AcDbSpline
210
0.0
220
0.0
230
1.0
 70
    11
 71
     3
 72
    17
 73
    13
 74
     0
 42
0.000000001
 43
0.0000000001
 40
0.0
 40
0.0
 40
0.0
 40
0.0
 40
0.2500749063670416
 40
0.2500749063670416
 40
0.2500749063670416
 40
0.4999999999999989
 40
0.4999999999999989
 40
0.4999999999999989
 40
0.7500749063670404
 40
0.7500749063670404
 40
0.7500749063670404
 40
1.0
 40
1.0
 40
1.0
 40
1.0
 10
55.95917372413066
 20
11.85614106663957
 30
0.0
 10
54.42564587546997
 20
11.85614106663957
 30
0.0
 10
52.89211802680927
 20
11.85614106663957
 30
0.0
 10
51.35859017814857
 20
11.85614106663957
 30
0.0
 10
51.35859017814857
 20
13.3887502225648
 30
0.0
 10
51.35859017814857
 20
14.92135937849003
 30
0.0
 10
51.35859017814857
 20
16.45396853441526
 30
0.0
 10
52.89211802680927
 20
16.45396853441526
 30
0.0
 10
54.42564587546997
 20
16.45396853441526
 30
0.0
 10
55.95917372413066
 20
16.45396853441526
 30
0.0
 10
55.95917372413066
 20
14.92135937849003
 30
0.0
 10
55.95917372413066
 20
13.3887502225648
 30
0.0
 10
55.95917372413066
 20
11.85614106663957
 30
0.0
  0
SPLINE
  5
11F
102
{ACAD_REACTORS
330
124
102
}
330
1F
100
AcDbEntity
  8
1
  6
Continuous
 62
   163
 60
     1
370
    18
100
AcDbSpline
210
0.0
220
0.0
230
1.0
 70
    11
 71
     3
 72
    17
 73
    13
 74
     0
 42
0.000000001
 43
0.0000000001
 40
0.0
 40
0.0
 40
0.0
 40
0.0
 40
0.2500749063670398
 40
0.2500749063670398
 40
0.2500749063670398
 40
0.5000000000000023
 40
0.5000000000000023
 40
0.5000000000000023
 40
0.7500749063670421
 40
0.7500749063670421
 40
0.7500749063670421
 40
1.0
 40
1.0
 40
1.0
 40
1.0
 10
61.1392227130018
 20
6.675747567992611
 30
0.0
 10
59.6056948643411
 20
6.675747567992611
 30
0.0
 10
58.07216701568041
 20
6.675747567992611
 30
0.0
 10
56.53863916701982
 20
6.675747567992611
 30
0.0
 10
56.53863916701982
 20
8.20835672391784
 30
0.0
 10
56.53863916701982
 20
9.740965879843069
 30
0.0
 10
56.53863916701982
 20
11.2735750357683
 30
0.0
 10
58.07216701568041
 20
11.2735750357683
 30
0.0
 10
59.6056948643411
 20
11.2735750357683
 30
0.0
 10
61.1392227130018
 20
11.2735750357683
 30
0.0
 10
61.1392227130018
 20
9.740965879843069
 30
0.0
 10
61.1392227130018
 20
8.20835672391784
 30
0.0
 10
61.1392227130018
 20
6.675747567992611
 30
0.0
  0
SPLINE
  5
120
102
{ACAD_REACTORS
330
124
102
}
330
1F
100
AcDbEntity
  8
1
  6
Continuous
 62
   163
 60
     1
370
    18
100
AcDbSpline
210
0.0
220
0.0
230
1.0
 70
    11
 71
     3
 72
    17
 73
    13
 74
     0
 42
0.000000001
 43
0.0000000001
 40
0.0
 40
0.0
 40
0.0
 40
0.0
 40
0.2500749063670398
 40
0.2500749063670398
 40
0.2500749063670398
 40
0.5000000000000023
 40
0.5000000000000023
 40
0.5000000000000023
 40
0.7500749063670421
 40
0.7500749063670421
 40
0.7500749063670421
 40
1.0
 40
1.0
 40
1.0
 40
1.0
 10
61.1392227130018
 20
16.45396853441526
 30
0.0
 10
59.6056948643411
 20
16.45396853441526
 30
0.0
 10
58.07216701568041
 20
16.45396853441526
 30
0.0
 10
56.53863916701982
 20
16.45396853441526
 30
0.0
 10
56.53863916701982
 20
14.92135937849003
 30
0.0
 10
56.53863916701982
 20
13.3887502225648
 30
0.0
 10
56.53863916701982
 20
11.85614106663957
 30
0.0
 10
58.07216701568041
 20
11.85614106663957
 30
0.0
 10
59.6056948643411
 20
11.85614106663957
 30
0.0
 10
61.1392227130018
 20
11.85614106663957
 30
0.0
 10
61.1392227130018
 20
13.3887502225648
 30
0.0
 10
61.1392227130018
 20
14.92135937849003
 30
0.0
 10
61.1392227130018
 20
16.45396853441526
 30
0.0
  0
SPLINE
  5
121
102
{ACAD_REACTORS
330
124
102
}
330
1F
100
AcDbEntity
  8
1
  6
Continuous
 62
   163
 60
     1
370
    18
100
AcDbSpline
210
0.0
220
0.0
230
1.0
 70
    11
 71
     3
 72
    17
 73
    13
 74
     0
 42
0.000000001
 43
0.0000000001
 40
0.0
 40
0.0
 40
0.0
 40
0.0
 40
0.2499153546639589
 40
0.2499153546639589
 40
0.2499153546639589
 40
0.4999999999999987
 40
0.4999999999999987
 40
0.4999999999999987
 40
0.7499153546639602
 40
0.7499153546639602
 40
0.7499153546639602
 40
1.0
 40
1.0
 40
1.0
 40
1.0
 10
60.87463920519031
 20
16.18938502660379
 30
0.0
 10
60.87463920519031
 20
14.83316487588619
 30
0.0
 10
60.87463920519031
 20
13.47694472516864
 30
0.0
 10
60.87463920519031
 20
12.12072457445104
 30
0.0
 10
59.51750036173735
 20
12.12072457445104
 30
0.0
 10
58.16036151828428
 20
12.12072457445104
 30
0.0
 10
56.8032226748312
 20
12.12072457445104
 30
0.0
 10
56.8032226748312
 20
13.47694472516864
 30
0.0
 10
56.8032226748312
 20
14.83316487588619
 30
0.0
 10
56.8032226748312
 20
16.18938502660379
 30
0.0
 10
58.16036151828428
 20
16.18938502660379
 30
0.0
 10
59.51750036173735
 20
16.18938502660379
 30
0.0
 10
60.87463920519031
 20
16.18938502660379
 30
0.0
  0
SPLINE
  5
122
102
{ACAD_REACTORS
330
124
102
}
330
1F
100
AcDbEntity
  8
1
  6
Continuous
 62
   163
 60
     1
370
    18
100
AcDbSpline
210
0.0
220
0.0
230
1.0
 70
    11
 71
     3
 72
    17
 73
    13
 74
     0
 42
0.000000001
 43
0.0000000001
 40
0.0
 40
0.0
 40
0.0
 40
0.0
 40
0.2500749063670416
 40
0.2500749063670416
 40
0.2500749063670416
 40
0.4999999999999989
 40
0.4999999999999989
 40
0.4999999999999989
 40
0.7500749063670404
 40
0.7500749063670404
 40
0.7500749063670404
 40
1.0
 40
1.0
 40
1.0
 40
1.0
 10
55.95917372413066
 20
11.2735750357683
 30
0.0
 10
54.42564587546997
 20
11.2735750357683
 30
0.0
 10
52.89211802680927
 20
11.2735750357683
 30
0.0
 10
51.35859017814857
 20
11.2735750357683
 30
0.0
 10
51.35859017814857
 20
9.740965879843069
 30
0.0
 10
51.35859017814857
 20
8.20835672391784
 30
0.0
 10
51.35859017814857
 20
6.675747567992611
 30
0.0
 10
52.89211802680927
 20
6.675747567992611
 30
0.0
 10
54.42564587546997
 20
6.675747567992611
 30
0.0
 10
55.95917372413066
 20
6.675747567992611
 30
0.0
 10
55.95917372413066
 20
8.20835672391784
 30
0.0
 10
55.95917372413066
 20
9.740965879843069
 30
0.0
 10
55.95917372413066
 20
11.2735750357683
 30
0.0
  0
SPLINE
  5
123
102
{ACAD_REACTORS
330
124
102
}
330
1F
100
AcDbEntity
  8
1
  6
Continuous
 62
   163
 60
     1
370
    18
100
AcDbSpline
210
0.0
220
0.0
230
1.0
 70
    11
 71
     3
 72
    17
 73
    13
 74
     0
 42
0.000000001
 43
0.0000000001
 40
0.0
 40
0.0
 40
0.0
 40
0.0
 40
0.2499153546639537
 40
0.2499153546639537
 40
0.2499153546639537
 40
0.4999999999999934
 40
0.4999999999999934
 40
0.4999999999999934
 40
0.749915354663955
 40
0.749915354663955
 40
0.749915354663955
 40
1.0
 40
1.0
 40
1.0
 40
1.0
 10
55.69459021631917
 20
11.0089915279568
 30
0.0
 10
55.69459021631917
 20
9.652771377239228
 30
0.0
 10
55.69459021631917
 20
8.296551226521624
 30
0.0
 10
55.69459021631917
 20
6.940331075804048
 30
0.0
 10
54.3374513728661
 20
6.940331075804048
 30
0.0
 10
52.98031252941303
 20
6.940331075804048
 30
0.0
 10
51.62317368596007
 20
6.940331075804048
 30
0.0
 10
51.62317368596007
 20
8.296551226521652
 30
0.0
 10
51.62317368596007
 20
9.652771377239228
 30
0.0
 10
51.62317368596007
 20
11.0089915279568
 30
0.0
 10
52.98031252941303
 20
11.0089915279568
 30
0.0
 10
54.3374513728661
 20
11.0089915279568
 30
0.0
 10
55.69459021631917
 20
11.0089915279568
 30
0.0
  0
HATCH
  5
124
102
{ACAD_REACTORS
330
1C4
102
}
330
1F
100
AcDbEntity
  8
256
  6
Continuous
 62
   155
370
    13
100
AcDbHatch
 10
0.0
 20
0.0
 30
0.0
210
0.0
220
0.0
230
1.0
  2
ANSI31
 70
     0
 71
     1
 91
        9
 92
        0
 93
        1
 72
     4
 94
        3
 73
     0
 74
     1
 95
       53
 96
       49
 40
0.0
 40
0.0
 40
0.0
 40
0.0
 40
0.024233419787787
 40
0.024233419787787
 40
0.024233419787787
 40
0.1280418012427934
 40
0.1280418012427934
 40
0.1280418012427934
 40
0.1284086704647148
 40
0.1284086704647148
 40
0.1284086704647148
 40
0.2309459700568215
 40
0.2309459700568215
 40
0.2309459700568215
 40
0.2557435253627113
 40
0.2557435253627113
 40
0.2557435253627113
 40
0.3573149299809463
 40
0.3573149299809463
 40
0.3573149299809463
 40
0.3576817992028669
 40
0.3576817992028669
 40
0.3576817992028669
 40
0.4624443157722517
 40
0.4624443157722517
 40
0.4624443157722517
 40
0.4860156317106226
 40
0.4860156317106226
 40
0.4860156317106226
 40
0.6156754647053586
 40
0.6156754647053586
 40
0.6156754647053586
 40
0.6406552862488913
 40
0.6406552862488913
 40
0.6406552862488913
 40
0.7430727925756138
 40
0.7430727925756138
 40
0.7430727925756138
 40
0.7434419985441709
 40
0.7434419985441709
 40
0.7434419985441709
 40
0.8467092888241766
 40
0.8467092888241766
 40
0.8467092888241766
 40
0.8713245778924228
 40
0.8713245778924228
 40
0.8713245778924228
 40
1.0
 40
1.0
 40
1.0
 40
1.0
 10
23.1392776780207
 20
15.99852661081272
 10
23.71696315373489
 20
16.14293362516728
 10
24.29464862944909
 20
16.28734063952184
 10
24.87233410516333
 20
16.43174765387639
 10
25.45909167164015
 20
13.94938246437707
 10
26.04584923811703
 20
11.46701727487778
 10
26.63260680459385
 20
8.984652085378494
 10
26.64162147706051
 20
8.984652085378494
 10
26.65063614952717
 20
8.984652085378494
 10
26.65965082199384
 20
8.984652085378494
 10
27.36377138542528
 20
11.40379973101924
 10
28.06789194885667
 20
13.82294737665993
 10
28.77201251228806
 20
16.24209502230062
 10
29.38133546907952
 20
16.24209502230062
 10
29.99065842587103
 20
16.24209502230062
 10
30.59998138266255
 20
16.24209502230062
 10
31.21378296653936
 20
13.82294737665993
 10
31.82758455041622
 20
11.40379973101924
 10
32.44138613429308
 20
8.984652085378494
 10
32.45040080675975
 20
8.984652085378494
 10
32.45941547922641
 20
8.984652085378494
 10
32.46843015169307
 20
8.984652085378494
 10
33.14992790651385
 20
11.46701727487778
 10
33.83142566133463
 20
13.9493824643771
 10
34.51292341615542
 20
16.43174765387639
 10
35.07263696523225
 20
16.28280459414052
 10
35.63235051430908
 20
16.13386153440465
 10
36.19206406338597
 20
15.98491847466878
 10
35.23070953402672
 20
12.94743319976991
 10
34.26935500466752
 20
9.909947924871071
 10
33.30800047530832
 20
6.872462649972229
 10
32.69419889143145
 20
6.872462649972229
 10
32.08039730755465
 20
6.872462649972229
 10
31.46659572367778
 20
6.872462649972229
 10
30.85727276688633
 20
9.31417568592756
 10
30.24794981009481
 20
11.75588872188289
 10
29.63862685330335
 20
14.19760175783825
 10
29.62955476254072
 20
14.19760175783825
 10
29.62048267177803
 20
14.19760175783825
 10
29.61141058101541
 20
14.19760175783825
 10
28.92089815372796
 20
11.75588872188289
 10
28.23038572644052
 20
9.31417568592756
 10
27.53987329915307
 20
6.872462649972229
 10
26.9350289694469
 20
6.872462649972229
 10
26.33018463974079
 20
6.872462649972229
 10
25.72534031003462
 20
6.872462649972229
 10
24.86331943269667
 20
9.914483970252357
 10
24.00129855535866
 20
12.95650529053254
 10
23.1392776780207
 20
15.99852661081272
 97
        1
330
11B
 92
        0
 93
        1
 72
     4
 94
        3
 73
     0
 74
     1
 95
       41
 96
       37
 40
0.0
 40
0.0
 40
0.0
 40
0.0
 40
0.0833333333333333
 40
0.0833333333333333
 40
0.0833333333333333
 40
0.1666666666666667
 40
0.1666666666666667
 40
0.1666666666666667
 40
0.25
 40
0.25
 40
0.25
 40
0.3333333333333333
 40
0.3333333333333333
 40
0.3333333333333333
 40
0.4166666666666667
 40
0.4166666666666667
 40
0.4166666666666667
 40
0.5
 40
0.5
 40
0.5
 40
0.5833333333333334
 40
0.5833333333333334
 40
0.5833333333333334
 40
0.6666666666666666
 40
0.6666666666666666
 40
0.6666666666666666
 40
0.75
 40
0.75
 40
0.75
 40
0.8333333333333334
 40
0.8333333333333334
 40
0.8333333333333334
 40
0.9166666666666666
 40
0.9166666666666666
 40
0.9166666666666666
 40
1.0
 40
1.0
 40
1.0
 40
1.0
 10
37.62644536308606
 20
8.727305110896895
 10
38.05982381286489
 20
8.429474581683005
 10
38.76382953970435
 20
8.090993726963271
 10
39.27835488985593
 20
8.090993726963271
 10
40.23970941921513
 20
8.090993726963271
 10
40.78127878676671
 20
8.700259265458792
 10
40.78127878676671
 20
9.444917145842206
 10
40.76767065062276
 20
11.31353816976063
 10
36.93603292421776
 20
10.51461999968931
 10
36.93603292421776
 20
13.71012042508668
 10
36.93603292421776
 20
15.24026059428534
 10
38.18160801860884
 20
16.43174765387639
 10
40.06383717867121
 20
16.43174765387639
 10
40.99814769063042
 20
16.43174765387639
 10
41.90506967541384
 20
16.10670268041273
 10
42.70399599466541
 20
15.64644135862842
 10
42.70398453274984
 20
15.6464332013328
 10
41.97276974205371
 20
14.4006827459659
 10
41.97276120276902
 20
14.4006934186719
 10
41.4043247162941
 20
14.71212710798984
 10
40.87619122999857
 20
15.02356394530955
 10
40.1992295205591
 20
15.02356394530955
 10
39.41374723174383
 20
15.02356394530955
 10
38.66908935136038
 20
14.60377878350193
 10
38.66908935136038
 20
13.76438071477455
 10
38.66908935136038
 20
11.92280370825615
 10
42.59581177588515
 20
12.50502522935168
 10
42.59581177588515
 20
9.512613316786153
 10
42.59581177588515
 20
7.914949231531418
 10
41.30924001817434
 20
6.682810018396404
 10
39.49505153883169
 20
6.682810018396404
 10
38.58778504427252
 20
6.682810018396404
 10
37.73477883940117
 20
6.940158820916148
 10
36.94946178950815
 20
7.400592083187442
 10
36.94947178431599
 20
7.400600964059331
 10
37.626435060445
 20
8.727312191177512
 10
37.62644536308606
 20
8.727305110896895
 97
        1
330
11C
 92
        0
 93
        1
 72
     4
 94
        3
 73
     0
 74
     1
 95
       41
 96
       37
 40
0.0
 40
0.0
 40
0.0
 40
0.0
 40
0.0833333333333333
 40
0.0833333333333333
 40
0.0833333333333333
 40
0.1666666666666667
 40
0.1666666666666667
 40
0.1666666666666667
 40
0.25
 40
0.25
 40
0.25
 40
0.3333333333333333
 40
0.3333333333333333
 40
0.3333333333333333
 40
0.4166666666666667
 40
0.4166666666666667
 40
0.4166666666666667
 40
0.5
 40
0.5
 40
0.5
 40
0.5833333333333334
 40
0.5833333333333334
 40
0.5833333333333334
 40
0.6666666666666666
 40
0.6666666666666666
 40
0.6666666666666666
 40
0.75
 40
0.75
 40
0.75
 40
0.8333333333333334
 40
0.8333333333333334
 40
0.8333333333333334
 40
0.9166666666666666
 40
0.9166666666666666
 40
0.9166666666666666
 40
1.0
 40
1.0
 40
1.0
 40
1.0
 10
44.39623471328623
 20
8.727305110428638
 10
44.82961316214747
 20
8.429474581683005
 10
45.53344663409908
 20
8.090993726963271
 10
46.04814423913854
 20
8.090993726963271
 10
47.00932651360984
 20
8.090993726963271
 10
47.55106813604937
 20
8.700259265458792
 10
47.55106813604937
 20
9.444917145842206
 10
47.53745999990542
 20
11.31353816976063
 10
43.70565001861249
 20
10.51461999968931
 10
43.70565001861249
 20
13.71012042508668
 10
43.70565001861249
 20
15.24026059428534
 10
44.95139736789142
 20
16.43174765387639
 10
46.83345427306585
 20
16.43174765387639
 10
47.76776478502507
 20
16.43174765387639
 10
48.67485902469639
 20
16.10670268041273
 10
49.47361308602012
 20
15.64644135906617
 10
49.47360162773157
 20
15.64643320030638
 10
48.74255909224894
 20
14.40068274680042
 10
48.74255055156664
 20
14.4006934180556
 10
48.1739418106888
 20
14.71212710798984
 10
47.64580832439333
 20
15.02356394530955
 10
46.9688466149538
 20
15.02356394530955
 10
46.18353658102649
 20
15.02356394530955
 10
45.43887870064302
 20
14.60377878350193
 10
45.43887870064302
 20
13.76438071477455
 10
45.43887870064302
 20
11.92280370825615
 10
49.36542887027986
 20
12.50502522935168
 10
49.36542887027986
 20
9.512613316786153
 10
49.36542887027986
 20
7.914949231531418
 10
48.079029367457
 20
6.682810018396404
 10
46.26466863322639
 20
6.682810018396404
 10
45.3575743935551
 20
6.682810018396404
 10
44.50456818868381
 20
6.940158820916148
 10
43.71907888079861
 20
7.400592083519152
 10
43.71908887943025
 20
7.400600963125905
 10
44.3962244106452
 20
8.727312190709236
 10
44.39623471328623
 20
8.727305110428638
 97
        1
330
11D
 92
        0
 93
        1
 72
     4
 94
        3
 73
     0
 74
     1
 95
       17
 96
       13
 40
0.0
 40
0.0
 40
0.0
 40
0.0
 40
0.2500749063670416
 40
0.2500749063670416
 40
0.2500749063670416
 40
0.4999999999999989
 40
0.4999999999999989
 40
0.4999999999999989
 40
0.7500749063670404
 40
0.7500749063670404
 40
0.7500749063670404
 40
1.0
 40
1.0
 40
1.0
 40
1.0
 10
55.95917372413066
 20
11.85614106663957
 10
54.42564587546997
 20
11.85614106663957
 10
52.89211802680927
 20
11.85614106663957
 10
51.35859017814857
 20
11.85614106663957
 10
51.35859017814857
 20
13.3887502225648
 10
51.35859017814857
 20
14.92135937849003
 10
51.35859017814857
 20
16.45396853441526
 10
52.89211802680927
 20
16.45396853441526
 10
54.42564587546997
 20
16.45396853441526
 10
55.95917372413066
 20
16.45396853441526
 10
55.95917372413066
 20
14.92135937849003
 10
55.95917372413066
 20
13.3887502225648
 10
55.95917372413066
 20
11.85614106663957
 97
        1
330
11E
 92
        0
 93
        1
 72
     4
 94
        3
 73
     0
 74
     1
 95
       17
 96
       13
 40
0.0
 40
0.0
 40
0.0
 40
0.0
 40
0.2500749063670398
 40
0.2500749063670398
 40
0.2500749063670398
 40
0.5000000000000023
 40
0.5000000000000023
 40
0.5000000000000023
 40
0.7500749063670421
 40
0.7500749063670421
 40
0.7500749063670421
 40
1.0
 40
1.0
 40
1.0
 40
1.0
 10
61.1392227130018
 20
6.675747567992611
 10
59.6056948643411
 20
6.675747567992611
 10
58.07216701568041
 20
6.675747567992611
 10
56.53863916701982
 20
6.675747567992611
 10
56.53863916701982
 20
8.20835672391784
 10
56.53863916701982
 20
9.740965879843069
 10
56.53863916701982
 20
11.2735750357683
 10
58.07216701568041
 20
11.2735750357683
 10
59.6056948643411
 20
11.2735750357683
 10
61.1392227130018
 20
11.2735750357683
 10
61.1392227130018
 20
9.740965879843069
 10
61.1392227130018
 20
8.20835672391784
 10
61.1392227130018
 20
6.675747567992611
 97
        1
330
11F
 92
        0
 93
        1
 72
     4
 94
        3
 73
     0
 74
     1
 95
       17
 96
       13
 40
0.0
 40
0.0
 40
0.0
 40
0.0
 40
0.2500749063670398
 40
0.2500749063670398
 40
0.2500749063670398
 40
0.5000000000000023
 40
0.5000000000000023
 40
0.5000000000000023
 40
0.7500749063670421
 40
0.7500749063670421
 40
0.7500749063670421
 40
1.0
 40
1.0
 40
1.0
 40
1.0
 10
61.1392227130018
 20
16.45396853441526
 10
59.6056948643411
 20
16.45396853441526
 10
58.07216701568041
 20
16.45396853441526
 10
56.53863916701982
 20
16.45396853441526
 10
56.53863916701982
 20
14.92135937849003
 10
56.53863916701982
 20
13.3887502225648
 10
56.53863916701982
 20
11.85614106663957
 10
58.07216701568041
 20
11.85614106663957
 10
59.6056948643411
 20
11.85614106663957
 10
61.1392227130018
 20
11.85614106663957
 10
61.1392227130018
 20
13.3887502225648
 10
61.1392227130018
 20
14.92135937849003
 10
61.1392227130018
 20
16.45396853441526
 97
        1
330
120
 92
        0
 93
        1
 72
     4
 94
        3
 73
     0
 74
     1
 95
       17
 96
       13
 40
0.0
 40
0.0
 40
0.0
 40
0.0
 40
0.2499153546639589
 40
0.2499153546639589
 40
0.2499153546639589
 40
0.4999999999999987
 40
0.4999999999999987
 40
0.4999999999999987
 40
0.7499153546639602
 40
0.7499153546639602
 40
0.7499153546639602
 40
1.0
 40
1.0
 40
1.0
 40
1.0
 10
60.87463920519031
 20
16.18938502660379
 10
60.87463920519031
 20
14.83316487588619
 10
60.87463920519031
 20
13.47694472516864
 10
60.87463920519031
 20
12.12072457445104
 10
59.51750036173735
 20
12.12072457445104
 10
58.16036151828428
 20
12.12072457445104
 10
56.8032226748312
 20
12.12072457445104
 10
56.8032226748312
 20
13.47694472516864
 10
56.8032226748312
 20
14.83316487588619
 10
56.8032226748312
 20
16.18938502660379
 10
58.16036151828428
 20
16.18938502660379
 10
59.51750036173735
 20
16.18938502660379
 10
60.87463920519031
 20
16.18938502660379
 97
        1
330
121
 92
        0
 93
        1
 72
     4
 94
        3
 73
     0
 74
     1
 95
       17
 96
       13
 40
0.0
 40
0.0
 40
0.0
 40
0.0
 40
0.2500749063670416
 40
0.2500749063670416
 40
0.2500749063670416
 40
0.4999999999999989
 40
0.4999999999999989
 40
0.4999999999999989
 40
0.7500749063670404
 40
0.7500749063670404
 40
0.7500749063670404
 40
1.0
 40
1.0
 40
1.0
 40
1.0
 10
55.95917372413066
 20
11.2735750357683
 10
54.42564587546997
 20
11.2735750357683
 10
52.89211802680927
 20
11.2735750357683
 10
51.35859017814857
 20
11.2735750357683
 10
51.35859017814857
 20
9.740965879843069
 10
51.35859017814857
 20
8.20835672391784
 10
51.35859017814857
 20
6.675747567992611
 10
52.89211802680927
 20
6.675747567992611
 10
54.42564587546997
 20
6.675747567992611
 10
55.95917372413066
 20
6.675747567992611
 10
55.95917372413066
 20
8.20835672391784
 10
55.95917372413066
 20
9.740965879843069
 10
55.95917372413066
 20
11.2735750357683
 97
        1
330
122
 92
        0
 93
        1
 72
     4
 94
        3
 73
     0
 74
     1
 95
       17
 96
       13
 40
0.0
 40
0.0
 40
0.0
 40
0.0
 40
0.2499153546639537
 40
0.2499153546639537
 40
0.2499153546639537
 40
0.4999999999999934
 40
0.4999999999999934
 40
0.4999999999999934
 40
0.749915354663955
 40
0.749915354663955
 40
0.749915354663955
 40
1.0
 40
1.0
 40
1.0
 40
1.0
 10
55.69459021631917
 20
11.0089915279568
 10
55.69459021631917
 20
9.652771377239228
 10
55.69459021631917
 20
8.296551226521624
 10
55.69459021631917
 20
6.940331075804048
 10
54.3374513728661
 20
6.940331075804048
 10
52.98031252941303
 20
6.940331075804048
 10
51.62317368596007
 20
6.940331075804048
 10
51.62317368596007
 20
8.296551226521652
 10
51.62317368596007
 20
9.652771377239228
 10
51.62317368596007
 20
11.0089915279568
 10
52.98031252941303
 20
11.0089915279568
 10
54.3374513728661
 20
11.0089915279568
 10
55.69459021631917
 20
11.0089915279568
 97
        1
330
123
 75
     0
 76
     1
 52
0.0
 41
0.1
 77
     0
 78
     1
 53
44.99999999999989
 43
0.0
 44
0.0
 45
-0.2245064030267284
 46
0.2245064030267293
 79
     0
 98
        0
  0
MTEXT
  5
125
102
{ACAD_REACTORS
330
1C5
102
}
330
1F
100
AcDbEntity
  8
1
  6
Continuous
 62
    35
370
    13
100
AcDbMText
 10
154.151316
 20
106.106211
 30
0.0
 40
3.5
 41
0.0
 71
     7
 72
     5
  1
\W1.0000;5
  7
ISOCPEUR
 11
7.273661547324616E-16
 21
1.0
 31
0.0
 73
     2
 44
1.115371
  0
LINE
  5
126
102
{ACAD_REACTORS
330
129
102
}
330
1F
100
AcDbEntity
  8
1
  6
Continuous
 62
    35
 60
     1
370
    18
100
AcDbLine
 10
154.851508
 20
119.708385
 30
0.0
 11
155.904728
 21
111.708389
 31
0.0
  0
LINE
  5
127
102
{ACAD_REACTORS
330
129
102
}
330
1F
100
AcDbEntity
  8
1
  6
Continuous
 62
    35
 60
     1
370
    18
100
AcDbLine
 10
155.904728
 20
111.708389
 30
0.0
 11
153.798288
 21
111.708381
 31
0.0
  0
LINE
  5
128
102
{ACAD_REACTORS
330
129
102
}
330
1F
100
AcDbEntity
  8
1
  6
Continuous
 62
    35
 60
     1
370
    18
100
AcDbLine
 10
153.798288
 20
111.708381
 30
0.0
 11
154.851508
 21
119.708385
 31
0.0
  0
HATCH
  5
129
102
{ACAD_REACTORS
330
1C5
102
}
330
1F
100
AcDbEntity
  8
1
  6
Continuous
 62
    35
370
    13
100
AcDbHatch
 10
0.0
 20
0.0
 30
0.0
210
0.0
220
0.0
230
1.0
  2
ANSI31
 70
     0
 71
     1
 91
        1
 92
        0
 93
        3
 72
     1
 10
154.85150789177
 20
119.708385005637
 11
155.9047278724621
 21
111.70838887433
 72
     1
 10
155.9047278724621
 20
111.70838887433
 11
153.798287911078
 21
111.7083811369439
 72
     1
 10
153.798287911078
 20
111.7083811369439
 11
154.85150789177
 21
119.708385005637
 97
        3
330
126
330
127
330
128
 75
     0
 76
     1
 52
-44.977187
 41
0.02
 77
     0
 78
     1
 53
0.0228130822303746
 43
0.0
 44
0.0
 45
-0.0000252833750699
 46
0.0634999949665427
 79
     0
 98
        0
  0
LINE
  5
12A
102
{ACAD_REACTORS
330
12D
102
}
330
1F
100
AcDbEntity
  8
1
  6
Continuous
 62
    35
 60
     1
370
    18
100
AcDbLine
 10
154.851508
 20
124.708385
 30
0.0
 11
153.798288
 21
132.708381
 31
0.0
  0
LINE
  5
12B
102
{ACAD_REACTORS
330
12D
102
}
330
1F
100
AcDbEntity
  8
1
  6
Continuous
 62
    35
 60
     1
370
    18
100
AcDbLine
 10
153.798288
 20
132.708381
 30
0.0
 11
155.904728
 21
132.708389
 31
0.0
  0
LINE
  5
12C
102
{ACAD_REACTORS
330
12D
102
}
330
1F
100
AcDbEntity
  8
1
  6
Continuous
 62
    35
 60
     1
370
    18
100
AcDbLine
 10
155.904728
 20
132.708389
 30
0.0
 11
154.851508
 21
124.708385
 31
0.0
  0
HATCH
  5
12D
102
{ACAD_REACTORS
330
1C5
102
}
330
1F
100
AcDbEntity
  8
1
  6
Continuous
 62
    35
370
    13
100
AcDbHatch
 10
0.0
 20
0.0
 30
0.0
210
0.0
220
0.0
230
1.0
  2
ANSI31
 70
     0
 71
     1
 91
        1
 92
        0
 93
        3
 72
     1
 10
154.85150789177
 20
124.708385005637
 11
153.798287911078
 21
132.708381136944
 72
     1
 10
153.798287911078
 20
132.708381136944
 11
155.9047278724621
 21
132.70838887433
 72
     1
 10
155.9047278724621
 20
132.70838887433
 11
154.85150789177
 21
124.708385005637
 97
        3
330
12A
330
12B
330
12C
 75
     0
 76
     1
 52
-44.977187
 41
0.02
 77
     0
 78
     1
 53
0.0228130822303746
 43
0.0
 44
0.0
 45
-0.0000252833750699
 46
0.0634999949665427
 79
     0
 98
        0
  0
MTEXT
  5
12E
102
{ACAD_REACTORS
330
1C6
102
}
330
1F
100
AcDbEntity
  8
1
  6
Continuous
 62
    35
370
    13
100
AcDbMText
 10
154.151316
 20
182.433385
 30
0.0
 40
3.5
 41
0.0
 71
     7
 72
     5
  1
\W1.0000;120
  7
ISOCPEUR
 11
7.273661547324616E-16
 21
1.0
 31
0.0
 73
     2
 44
1.115371
  0
LINE
  5
12F
102
{ACAD_REACTORS
330
132
102
}
330
1F
100
AcDbEntity
  8
1
  6
Continuous
 62
    35
 60
     1
370
    18
100
AcDbLine
 10
154.851508
 20
244.708385
 30
0.0
 11
155.904728
 21
236.708389
 31
0.0
  0
LINE
  5
130
102
{ACAD_REACTORS
330
132
102
}
330
1F
100
AcDbEntity
  8
1
  6
Continuous
 62
    35
 60
     1
370
    18
100
AcDbLine
 10
155.904728
 20
236.708389
 30
0.0
 11
153.798288
 21
236.708381
 31
0.0
  0
LINE
  5
131
102
{ACAD_REACTORS
330
132
102
}
330
1F
100
AcDbEntity
  8
1
  6
Continuous
 62
    35
 60
     1
370
    18
100
AcDbLine
 10
153.798288
 20
236.708381
 30
0.0
 11
154.851508
 21
244.708385
 31
0.0
  0
HATCH
  5
132
102
{ACAD_REACTORS
330
1C6
102
}
330
1F
100
AcDbEntity
  8
1
  6
Continuous
 62
    35
370
    13
100
AcDbHatch
 10
0.0
 20
0.0
 30
0.0
210
0.0
220
0.0
230
1.0
  2
ANSI31
 70
     0
 71
     1
 91
        1
 92
        0
 93
        3
 72
     1
 10
154.85150789177
 20
244.708385005637
 11
155.9047278724621
 21
236.70838887433
 72
     1
 10
155.9047278724621
 20
236.70838887433
 11
153.798287911078
 21
236.708381136944
 72
     1
 10
153.798287911078
 20
236.708381136944
 11
154.85150789177
 21
244.708385005637
 97
        3
330
12F
330
130
330
131
 75
     0
 76
     1
 52
0.0
 41
0.02
 77
     0
 78
     1
 53
44.99999999999989
 43
0.0
 44
0.0
 45
-0.0449012806053457
 46
0.0449012806053459
 79
     0
 98
        0
  0
LINE
  5
133
102
{ACAD_REACTORS
330
136
102
}
330
1F
100
AcDbEntity
  8
1
  6
Continuous
 62
    35
 60
     1
370
    18
100
AcDbLine
 10
154.851508
 20
124.708385
 30
0.0
 11
153.798288
 21
132.708381
 31
0.0
  0
LINE
  5
134
102
{ACAD_REACTORS
330
136
102
}
330
1F
100
AcDbEntity
  8
1
  6
Continuous
 62
    35
 60
     1
370
    18
100
AcDbLine
 10
153.798288
 20
132.708381
 30
0.0
 11
155.904728
 21
132.708389
 31
0.0
  0
LINE
  5
135
102
{ACAD_REACTORS
330
136
102
}
330
1F
100
AcDbEntity
  8
1
  6
Continuous
 62
    35
 60
     1
370
    18
100
AcDbLine
 10
155.904728
 20
132.708389
 30
0.0
 11
154.851508
 21
124.708385
 31
0.0
  0
HATCH
  5
136
102
{ACAD_REACTORS
330
1C6
102
}
330
1F
100
AcDbEntity
  8
1
  6
Continuous
 62
    35
370
    13
100
AcDbHatch
 10
0.0
 20
0.0
 30
0.0
210
0.0
220
0.0
230
1.0
  2
ANSI31
 70
     0
 71
     1
 91
        1
 92
        0
 93
        3
 72
     1
 10
154.85150789177
 20
124.708385005637
 11
153.798287911078
 21
132.708381136944
 72
     1
 10
153.798287911078
 20
132.708381136944
 11
155.9047278724621
 21
132.70838887433
 72
     1
 10
155.9047278724621
 20
132.70838887433
 11
154.85150789177
 21
124.708385005637
 97
        3
330
133
330
134
330
135
 75
     0
 76
     1
 52
0.0
 41
0.02
 77
     0
 78
     1
 53
44.99999999999988
 43
0.0
 44
0.0
 45
-0.0449012806053457
 46
0.0449012806053459
 79
     0
 98
        0
  0
INSERT
  5
13E
330
1F
100
AcDbEntity
  8
1
  6
Continuous
 62
    35
370
    13
100
AcDbBlockReference
  2
_U0
 10
0.0
 20
0.0
 30
0.0
  0
DIMENSION
  5
141
102
{ACAD_REACTORS
330
143
102
}
102
{ACAD_XDICTIONARY
360
142
102
}
330
1F
100
AcDbEntity
  8
1
  6
Continuous
 62
    35
370
    13
100
AcDbDimension
  2
_U1
 10
139.851508
 20
259.708385
 30
0.0
 11
127.851508
 21
259.708385
 31
0.0
 70
   160
 71
     1
 42
24.0
 52
90.0
  3
Standard
100
AcDbAlignedDimension
 13
115.851508
 23
249.708385
 33
0.0
 14
139.851508
 24
249.708385
 34
0.0
100
AcDbRotatedDimension
1001
ACAD
1000
DSTYLE
1002
{
1070
   371
1070
    13
1070
   372
1070
    13
1070
   170
1070
     0
1070
   144
1040
1.0
1070
   277
1070
     2
1070
   284
1070
     8
1070
   278
1070
    46
1070
   146
1040
0.714286
1070
   345
1005
16
1070
   347
1005
16
1070
   346
1005
16
1070
   344
1005
0
1070
   343
1005
0
1070
   172
1070
     1
1070
    76
1070
     0
1070
    75
1070
     0
1070
   282
1070
     0
1070
   281
1070
     0
1070
    71
1070
     0
1070
   289
1070
     2
1070
    74
1070
     0
1070
   279
1070
     0
1070
   173
1070
     1
1070
   340
1005
F0
1070
   271
1070
     3
1070
   272
1070
     1
1070
    77
1070
     1
1070
    73
1070
     1
1070
   171
1070
     3
1070
   274
1070
     4
1070
   177
1070
    35
1070
   176
1070
    35
1070
   178
1070
    35
1070
    78
1070
     8
1070
    48
1040
-0.1
1070
    41
1040
8.0
1070
   147
1040
1.75
1070
    42
1040
0.0
1070
    44
1040
1.0
1070
   140
1040
3.5
1002
}
1001
ACAD_DSTYLE_DIM_LINETYPE
1070
   380
1005
16
1001
ACAD_DSTYLE_DIM_EXT1_LINETYPE
1070
   381
1005
16
1001
ACAD_DSTYLE_DIM_EXT2_LINETYPE
1070
   382
1005
16
  0
DIMENSION
  5
15B
102
{ACAD_REACTORS
330
15D
102
}
102
{ACAD_XDICTIONARY
360
15C
102
}
330
1F
100
AcDbEntity
  8
1
  6
Continuous
 62
    35
370
    13
100
AcDbDimension
  2
_U2
 10
139.851508
 20
270.708385
 30
0.0
 11
109.976508
 21
270.708385
 31
0.0
 70
   160
 71
     1
 42
59.75
 52
90.0
  3
Standard
100
AcDbAlignedDimension
 13
80.101508
 23
238.708385
 33
0.0
 14
139.851508
 24
249.708385
 34
0.0
100
AcDbRotatedDimension
1001
ACAD
1000
DSTYLE
1002
{
1070
   371
1070
    13
1070
   372
1070
    13
1070
   170
1070
     0
1070
   144
1040
1.0
1070
   277
1070
     2
1070
   284
1070
     8
1070
   278
1070
    46
1070
   146
1040
0.714286
1070
   345
1005
16
1070
   347
1005
16
1070
   346
1005
16
1070
   344
1005
0
1070
   343
1005
0
1070
   172
1070
     1
1070
    76
1070
     0
1070
    75
1070
     0
1070
   282
1070
     0
1070
   281
1070
     0
1070
    71
1070
     0
1070
   289
1070
     2
1070
    74
1070
     0
1070
   279
1070
     0
1070
   173
1070
     1
1070
   340
1005
F0
1070
   271
1070
     0
1070
   272
1070
     1
1070
    77
1070
     1
1070
    73
1070
     1
1070
   171
1070
     3
1070
   274
1070
     4
1070
   177
1070
    35
1070
   176
1070
    35
1070
   178
1070
    35
1070
    78
1070
     8
1070
    48
1040
-0.1
1070
    41
1040
8.0
1070
   147
1040
1.75
1070
    42
1040
0.0
1070
    44
1040
1.0
1070
   140
1040
3.5
1002
}
1001
ACAD_DSTYLE_DIM_LINETYPE
1070
   380
1005
16
1001
ACAD_DSTYLE_DIM_EXT1_LINETYPE
1070
   381
1005
16
1001
ACAD_DSTYLE_DIM_EXT2_LINETYPE
1070
   382
1005
16
  0
INSERT
  5
17A
330
1F
100
AcDbEntity
  8
1
  6
Continuous
 62
    35
370
    13
100
AcDbBlockReference
  2
_U3
 10
0.0
 20
0.0
 30
0.0
  0
INSERT
  5
17E
330
1F
100
AcDbEntity
  8
1
  6
Continuous
 62
    35
370
    13
100
AcDbBlockReference
  2
GAP251
 10
59.420878
 20
238.714385
 30
0.0
 41
10.0
 42
1.524
  0
INSERT
  5
188
330
1F
100
AcDbEntity
  8
1
  6
Continuous
 62
    35
370
    13
100
AcDbBlockReference
  2
_U4
 10
0.0
 20
0.0
 30
0.0
  0
INSERT
  5
192
330
1F
100
AcDbEntity
  8
1
  6
Continuous
 62
    35
370
    13
100
AcDbBlockReference
  2
_U5
 10
0.0
 20
0.0
 30
0.0
  0
INSERT
  5
19B
330
1F
100
AcDbEntity
  8
1
  6
Continuous
 62
    35
370
    13
100
AcDbBlockReference
  2
_U6
 10
0.0
 20
0.0
 30
0.0
  0
INSERT
  5
1A5
330
1F
100
AcDbEntity
  8
1
  6
Continuous
 62
    35
370
    13
100
AcDbBlockReference
  2
_U7
 10
0.0
 20
0.0
 30
0.0
  0
INSERT
  5
1AF
330
1F
100
AcDbEntity
  8
1
  6
Continuous
 62
    35
370
    13
100
AcDbBlockReference
  2
_U8
 10
0.0
 20
0.0
 30
0.0
  0
INSERT
  5
1B9
330
1F
100
AcDbEntity
  8
1
  6
Continuous
 62
    35
370
    13
100
AcDbBlockReference
  2
_U9
 10
0.0
 20
0.0
 30
0.0
  0
ENDSEC
  0
SECTION
  2
OBJECTS
  0
DICTIONARY
  5
C
330
0
100
AcDbDictionary
281
     1
  3
ACAD_DETAILVIEWSTYLE
350
217
  3
ACAD_GROUP
350
D
  3
ACAD_LAYOUT
350
1A
  3
ACAD_MATERIAL
350
43
  3
ACAD_MLEADERSTYLE
350
216
  3
ACAD_MLINESTYLE
350
17
  3
ACAD_PLOTSETTINGS
350
19
  3
ACAD_PLOTSTYLENAME
350
E
  3
ACAD_SCALELIST
350
47
  3
ACAD_SECTIONVIEWSTYLE
350
218
  3
ACAD_TABLESTYLE
350
215
  3
ACAD_VISUALSTYLE
350
2A
  3
AcDbVariableDictionary
350
1DC
  0
DICTIONARY
  5
142
330
141
100
AcDbDictionary
280
     1
281
     1
  3
ACAD_DIMASSOC
360
143
  0
DICTIONARY
  5
15C
330
15B
100
AcDbDictionary
280
     1
281
     1
  3
ACAD_DIMASSOC
360
15D
  0
DICTIONARY
  5
217
102
{ACAD_REACTORS
330
C
102
}
330
C
100
AcDbDictionary
281
     1
  0
DICTIONARY
  5
D
102
{ACAD_REACTORS
330
C
102
}
330
C
100
AcDbDictionary
281
     1
  3
DIMENSION
350
1C5
  3
DIMENSION3
350
1C6
  3
Group1
350
1C4
  3
NXE_RSD
350
1C7
  0
DICTIONARY
  5
1A
102
{ACAD_REACTORS
330
C
102
}
330
C
100
AcDbDictionary
281
     1
  3
Layout1
350
1E
  3
Layout2
350
26
  3
Model
350
22
  0
DICTIONARY
  5
43
102
{ACAD_REACTORS
330
C
102
}
330
C
100
AcDbDictionary
281
     1
  3
ByBlock
350
45
  3
ByLayer
350
44
  3
Global
350
46
  0
DICTIONARY
  5
216
102
{ACAD_REACTORS
330
C
102
}
330
C
100
AcDbDictionary
281
     1
  0
DICTIONARY
  5
17
102
{ACAD_REACTORS
330
C
102
}
330
C
100
AcDbDictionary
281
     1
  3
Standard
350
18
  0
DICTIONARY
  5
19
102
{ACAD_REACTORS
330
C
102
}
330
C
100
AcDbDictionary
281
     1
  0
ACDBDICTIONARYWDFLT
  5
E
102
{ACAD_REACTORS
330
C
102
}
330
C
100
AcDbDictionary
281
     1
  3
Normal
350
F
100
AcDbDictionaryWithDefault
340
F
  0
DICTIONARY
  5
47
102
{ACAD_REACTORS
330
C
102
}
330
C
100
AcDbDictionary
281
     1
  3
A0
350
48
  3
A1
350
49
  3
A2
350
4A
  3
A3
350
4B
  3
A4
350
4C
  3
A5
350
4D
  3
A6
350
4E
  3
A7
350
4F
  3
A8
350
50
  3
A9
350
51
  3
B0
350
52
  3
B1
350
53
  3
B2
350
54
  3
B3
350
55
  3
B4
350
56
  3
B5
350
57
  3
B6
350
58
  3
B7
350
59
  3
B8
350
5A
  3
B9
350
5B
  3
C0
350
5C
  3
C1
350
5D
  3
C2
350
5E
  3
C3
350
5F
  3
C4
350
60
  3
C5
350
61
  3
C6
350
62
  3
C7
350
63
  3
C8
350
64
  3
C9
350
65
  3
D0
350
66
  3
D1
350
67
  3
D2
350
68
  0
DICTIONARY
  5
218
102
{ACAD_REACTORS
330
C
102
}
330
C
100
AcDbDictionary
281
     1
  0
DICTIONARY
  5
215
102
{ACAD_REACTORS
330
C
102
}
330
C
100
AcDbDictionary
281
     1
  0
DICTIONARY
  5
2A
102
{ACAD_REACTORS
330
C
102
}
330
C
100
AcDbDictionary
281
     1
  3
2dWireframe
350
2F
  3
Basic
350
32
  3
Brighten
350
36
  3
ColorChange
350
3A
  3
Conceptual
350
34
  3
Dim
350
35
  3
EdgeColorOff
350
3D
  3
Facepattern
350
39
  3
Flat
350
2B
  3
FlatWithEdges
350
2C
  3
Gouraud
350
2D
  3
GouraudWithEdges
350
2E
  3
Hidden
350
31
  3
JitterOff
350
3B
  3
Linepattern
350
38
  3
OverhangOff
350
3C
  3
Realistic
350
33
  3
Shaded
350
42
  3
Shaded with edges
350
41
  3
Shades of Gray
350
3E
  3
Sketchy
350
3F
  3
Thicken
350
37
  3
Wireframe
350
30
  3
X-Ray
350
40
  0
DICTIONARY
  5
1DC
102
{ACAD_REACTORS
330
C
102
}
330
C
100
AcDbDictionary
281
     1
  3
CANNOSCALE
350
1DD
  3
MSLTSCALE
350
1DE
  0
DIMASSOC
  5
143
102
{ACAD_REACTORS
330
142
102
}
330
142
100
AcDbDimAssoc
330
141
 90
        3
 70
     0
 71
     1
  1
AcDbOsnapPointRef
 72
    13
331
73
 73
     2
 91
        1
 40
0.0
 10
115.851508
 20
249.708385
 30
0.0
 75
     0
  1
AcDbOsnapPointRef
 72
     1
331
7C
 73
     2
 91
        2
 40
1.0
 10
139.851508
 20
249.708385
 30
0.0
 75
     0
  0
DIMASSOC
  5
15D
102
{ACAD_REACTORS
330
15C
102
}
330
15C
100
AcDbDimAssoc
330
15B
 90
        3
 70
     0
 71
     1
  1
AcDbOsnapPointRef
 72
    13
331
74
 73
     2
 91
        1
 40
0.0
 10
80.101508
 20
238.708385
 30
0.0
 75
     0
  1
AcDbOsnapPointRef
 72
     1
331
7C
 73
     2
 91
        2
 40
1.0
 10
139.851508
 20
249.708385
 30
0.0
 75
     0
  0
GROUP
  5
1C5
102
{ACAD_REACTORS
330
D
102
}
330
D
100
AcDbGroup
300

 70
     0
 71
     1
340
125
340
B6
340
B7
340
B8
340
129
340
12D
  0
GROUP
  5
1C6
102
{ACAD_REACTORS
330
D
102
}
330
D
100
AcDbGroup
300

 70
     0
 71
     1
340
12E
340
BF
340
C0
340
C1
340
132
340
136
  0
GROUP
  5
1C4
102
{ACAD_REACTORS
330
D
102
}
330
D
100
AcDbGroup
300

 70
     0
 71
     1
340
D7
340
D8
340
D9
340
124
340
E3
340
E4
340
E5
340
E6
340
E7
340
E8
340
E9
  0
GROUP
  5
1C7
102
{ACAD_REACTORS
330
D
102
}
330
D
100
AcDbGroup
300

 70
     0
 71
     1
340
A1
340
A2
340
A3
340
A0
340
A4
340
A5
340
9F
340
A6
340
A7
340
A8
340
A9
340
104
340
107
340
AA
340
9E
340
AB
340
AC
340
99
340
AD
340
AE
340
B0
340
B1
340
B2
340
9C
340
9B
340
B3
340
9D
340
B4
340
B5
340
F4
340
F5
340
FE
340
F6
340
F8
340
FA
340
F9
340
FB
340
108
340
F7
340
109
340
106
340
FC
340
117
340
114
340
10B
340
10C
340
FD
340
10A
340
105
340
118
340
10D
340
10E
340
10F
340
110
340
111
340
112
  0
LAYOUT
  5
1E
102
{ACAD_REACTORS
330
1A
102
}
330
1A
100
AcDbPlotSettings
  1

  2
none_device
  4

  6

 40
0.0
 41
0.0
 42
0.0
 43
0.0
 44
0.0
 45
0.0
 46
0.0
 47
0.0
 48
0.0
 49
0.0
140
0.0
141
0.0
142
1.0
143
1.0
 70
   688
 72
     0
 73
     0
 74
     5
  7

 75
    16
 76
     0
 77
     2
 78
   300
147
1.0
148
0.0
149
0.0
100
AcDbLayout
  1
Layout1
 70
     1
 71
     1
 10
-0.5
 20
-0.5
 11
5.0
 21
5.0
 12
0.0
 22
0.0
 32
0.0
 14
-0.5
 24
-0.5
 34
-0.5
 15
5.0
 25
5.0
 35
5.0
146
0.0
 13
0.0
 23
0.0
 33
0.0
 16
1.0
 26
0.0
 36
0.0
 17
0.0
 27
1.0
 37
0.0
 76
     0
330
1B
  0
LAYOUT
  5
26
102
{ACAD_REACTORS
330
1A
102
}
330
1A
100
AcDbPlotSettings
  1

  2
none_device
  4

  6

 40
0.0
 41
0.0
 42
0.0
 43
0.0
 44
0.0
 45
0.0
 46
0.0
 47
0.0
 48
0.0
 49
0.0
140
0.0
141
0.0
142
1.0
143
1.0
 70
   688
 72
     0
 73
     0
 74
     5
  7

 75
    16
 76
     0
 77
     2
 78
   300
147
1.0
148
0.0
149
0.0
100
AcDbLayout
  1
Layout2
 70
     1
 71
     2
 10
0.0
 20
0.0
 11
0.0
 21
0.0
 12
0.0
 22
0.0
 32
0.0
 14
0.0
 24
0.0
 34
0.0
 15
0.0
 25
0.0
 35
0.0
146
0.0
 13
0.0
 23
0.0
 33
0.0
 16
1.0
 26
0.0
 36
0.0
 17
0.0
 27
1.0
 37
0.0
 76
     0
330
23
  0
LAYOUT
  5
22
102
{ACAD_REACTORS
330
1A
102
}
330
1A
100
AcDbPlotSettings
  1

  2
none_device
  4
Letter_(8.50_x_11.00_Inches)
  6

 40
6.35
 41
6.35
 42
6.350005
 43
6.350005
 44
215.9
 45
279.4
 46
0.0
 47
0.0
 48
0.0
 49
0.0
140
0.0
141
0.0
142
1.0
143
1.0
 70
  1712
 72
     0
 73
     0
 74
     0
  7

 75
     0
 76
     0
 77
     2
 78
   300
147
1.0
148
0.0
149
0.0
100
AcDbLayout
  1
Model
 70
     1
 71
     0
 10
-0.5
 20
-0.5
 11
5.0
 21
5.0
 12
0.0
 22
0.0
 32
0.0
 14
-0.5
 24
-0.5
 34
-0.5
 15
5.0
 25
5.0
 35
5.0
146
0.0
 13
0.0
 23
0.0
 33
0.0
 16
1.0
 26
0.0
 36
0.0
 17
0.0
 27
1.0
 37
0.0
 76
     0
330
1F
331
1C8
  0
MATERIAL
  5
45
102
{ACAD_REACTORS
330
43
102
}
102
{ACAD_XDICTIONARY
360
211
102
}
330
43
100
AcDbMaterial
  1
ByBlock
  0
MATERIAL
  5
44
102
{ACAD_REACTORS
330
43
102
}
102
{ACAD_XDICTIONARY
360
20F
102
}
330
43
100
AcDbMaterial
  1
ByLayer
  0
MATERIAL
  5
46
102
{ACAD_REACTORS
330
43
102
}
102
{ACAD_XDICTIONARY
360
213
102
}
330
43
100
AcDbMaterial
  1
Global
  0
MLINESTYLE
  5
18
102
{ACAD_REACTORS
330
17
102
}
330
17
100
AcDbMlineStyle
  2
Standard
 70
     0
  3

 62
   256
 51
90.0
 52
90.0
 71
     2
 49
0.5
 62
   256
  6
BYLAYER
 49
-0.5
 62
   256
  6
BYLAYER
  0
ACDBPLACEHOLDER
  5
F
102
{ACAD_REACTORS
330
E
102
}
330
E
  0
SCALE
  5
48
102
{ACAD_REACTORS
330
47
102
}
330
47
100
AcDbScale
 70
     0
300
1:1
140
1.0
141
1.0
290
     1
  0
SCALE
  5
49
102
{ACAD_REACTORS
330
47
102
}
330
47
100
AcDbScale
 70
     0
300
1:2
140
1.0
141
2.0
290
     0
  0
SCALE
  5
4A
102
{ACAD_REACTORS
330
47
102
}
330
47
100
AcDbScale
 70
     0
300
1:4
140
1.0
141
4.0
290
     0
  0
SCALE
  5
4B
102
{ACAD_REACTORS
330
47
102
}
330
47
100
AcDbScale
 70
     0
300
1:5
140
1.0
141
5.0
290
     0
  0
SCALE
  5
4C
102
{ACAD_REACTORS
330
47
102
}
330
47
100
AcDbScale
 70
     0
300
1:8
140
1.0
141
8.0
290
     0
  0
SCALE
  5
4D
102
{ACAD_REACTORS
330
47
102
}
330
47
100
AcDbScale
 70
     0
300
1:10
140
1.0
141
10.0
290
     0
  0
SCALE
  5
4E
102
{ACAD_REACTORS
330
47
102
}
330
47
100
AcDbScale
 70
     0
300
1:16
140
1.0
141
16.0
290
     0
  0
SCALE
  5
4F
102
{ACAD_REACTORS
330
47
102
}
330
47
100
AcDbScale
 70
     0
300
1:20
140
1.0
141
20.0
290
     0
  0
SCALE
  5
50
102
{ACAD_REACTORS
330
47
102
}
330
47
100
AcDbScale
 70
     0
300
1:30
140
1.0
141
30.0
290
     0
  0
SCALE
  5
51
102
{ACAD_REACTORS
330
47
102
}
330
47
100
AcDbScale
 70
     0
300
1:40
140
1.0
141
40.0
290
     0
  0
SCALE
  5
52
102
{ACAD_REACTORS
330
47
102
}
330
47
100
AcDbScale
 70
     0
300
1:50
140
1.0
141
50.0
290
     0
  0
SCALE
  5
53
102
{ACAD_REACTORS
330
47
102
}
330
47
100
AcDbScale
 70
     0
300
1:100
140
1.0
141
100.0
290
     0
  0
SCALE
  5
54
102
{ACAD_REACTORS
330
47
102
}
330
47
100
AcDbScale
 70
     0
300
2:1
140
2.0
141
1.0
290
     0
  0
SCALE
  5
55
102
{ACAD_REACTORS
330
47
102
}
330
47
100
AcDbScale
 70
     0
300
4:1
140
4.0
141
1.0
290
     0
  0
SCALE
  5
56
102
{ACAD_REACTORS
330
47
102
}
330
47
100
AcDbScale
 70
     0
300
8:1
140
8.0
141
1.0
290
     0
  0
SCALE
  5
57
102
{ACAD_REACTORS
330
47
102
}
330
47
100
AcDbScale
 70
     0
300
10:1
140
10.0
141
1.0
290
     0
  0
SCALE
  5
58
102
{ACAD_REACTORS
330
47
102
}
330
47
100
AcDbScale
 70
     0
300
100:1
140
100.0
141
1.0
290
     0
  0
SCALE
  5
59
102
{ACAD_REACTORS
330
47
102
}
330
47
100
AcDbScale
 70
     0
300
1/128" = 1'-0"
140
0.007812
141
12.0
290
     0
  0
SCALE
  5
5A
102
{ACAD_REACTORS
330
47
102
}
330
47
100
AcDbScale
 70
     0
300
1/64" = 1'-0"
140
0.015625
141
12.0
290
     0
  0
SCALE
  5
5B
102
{ACAD_REACTORS
330
47
102
}
330
47
100
AcDbScale
 70
     0
300
1/32" = 1'-0"
140
0.03125
141
12.0
290
     0
  0
SCALE
  5
5C
102
{ACAD_REACTORS
330
47
102
}
330
47
100
AcDbScale
 70
     0
300
1/16" = 1'-0"
140
0.0625
141
12.0
290
     0
  0
SCALE
  5
5D
102
{ACAD_REACTORS
330
47
102
}
330
47
100
AcDbScale
 70
     0
300
3/32" = 1'-0"
140
0.09375
141
12.0
290
     0
  0
SCALE
  5
5E
102
{ACAD_REACTORS
330
47
102
}
330
47
100
AcDbScale
 70
     0
300
1/8" = 1'-0"
140
0.125
141
12.0
290
     0
  0
SCALE
  5
5F
102
{ACAD_REACTORS
330
47
102
}
330
47
100
AcDbScale
 70
     0
300
3/16" = 1'-0"
140
0.1875
141
12.0
290
     0
  0
SCALE
  5
60
102
{ACAD_REACTORS
330
47
102
}
330
47
100
AcDbScale
 70
     0
300
1/4" = 1'-0"
140
0.25
141
12.0
290
     0
  0
SCALE
  5
61
102
{ACAD_REACTORS
330
47
102
}
330
47
100
AcDbScale
 70
     0
300
3/8" = 1'-0"
140
0.375
141
12.0
290
     0
  0
SCALE
  5
62
102
{ACAD_REACTORS
330
47
102
}
330
47
100
AcDbScale
 70
     0
300
1/2" = 1'-0"
140
0.5
141
12.0
290
     0
  0
SCALE
  5
63
102
{ACAD_REACTORS
330
47
102
}
330
47
100
AcDbScale
 70
     0
300
3/4" = 1'-0"
140
0.75
141
12.0
290
     0
  0
SCALE
  5
64
102
{ACAD_REACTORS
330
47
102
}
330
47
100
AcDbScale
 70
     0
300
1" = 1'-0"
140
1.0
141
12.0
290
     0
  0
SCALE
  5
65
102
{ACAD_REACTORS
330
47
102
}
330
47
100
AcDbScale
 70
     0
300
1-1/2" = 1'-0"
140
1.5
141
12.0
290
     0
  0
SCALE
  5
66
102
{ACAD_REACTORS
330
47
102
}
330
47
100
AcDbScale
 70
     0
300
3" = 1'-0"
140
3.0
141
12.0
290
     0
  0
SCALE
  5
67
102
{ACAD_REACTORS
330
47
102
}
330
47
100
AcDbScale
 70
     0
300
6" = 1'-0"
140
6.0
141
12.0
290
     0
  0
SCALE
  5
68
102
{ACAD_REACTORS
330
47
102
}
330
47
100
AcDbScale
 70
     0
300
1'-0" = 1'-0"
140
12.0
141
12.0
290
     0
  0
VISUALSTYLE
  5
2F
102
{ACAD_REACTORS
330
2A
102
}
102
{ACAD_XDICTIONARY
360
1E7
102
}
330
2A
100
AcDbVisualStyle
  2
2dWireframe
 70
     4
 71
     0
 72
     2
 73
     0
 90
        0
 40
0.6
 41
30.0
 62
     5
 63
     7
421
 16777215
 74
     1
 91
        4
 64
     7
 65
   257
 75
     1
175
     1
 42
1.0
 92
        0
 66
   257
 43
1.0
 76
     1
 77
     6
 78
     2
 67
     7
 79
     5
170
     0
171
     0
290
     0
174
     0
 93
        1
 44
0.0
173
     0
291
     0
 45
0.0
1001
ACAD
1000
AcDbSavedByObjectVersion
1070
     0
  0
VISUALSTYLE
  5
32
102
{ACAD_REACTORS
330
2A
102
}
102
{ACAD_XDICTIONARY
360
1ED
102
}
330
2A
100
AcDbVisualStyle
  2
Basic
 70
     7
 71
     1
 72
     0
 73
     1
 90
        0
 40
0.6
 41
30.0
 62
     5
 63
     7
421
 16777215
 74
     0
 91
        4
 64
     7
 65
   257
 75
     1
175
     1
 42
1.0
 92
        8
 66
     7
 43
1.0
 76
     1
 77
     6
 78
     2
 67
     7
 79
     5
170
     0
171
     0
290
     0
174
     0
 93
        1
 44
0.0
173
     0
291
     1
 45
0.0
1001
ACAD
1000
AcDbSavedByObjectVersion
1070
     0
  0
VISUALSTYLE
  5
36
102
{ACAD_REACTORS
330
2A
102
}
102
{ACAD_XDICTIONARY
360
1F5
102
}
330
2A
100
AcDbVisualStyle
  2
Brighten
 70
    12
 71
     2
 72
     2
 73
     0
 90
        0
 40
0.6
 41
30.0
 62
     5
 63
     7
421
 16777215
 74
     1
 91
        4
 64
     7
 65
   257
 75
     1
175
     1
 42
1.0
 92
        8
 66
     7
 43
1.0
 76
     1
 77
     6
 78
     2
 67
     7
 79
     5
170
     0
171
     0
290
     0
174
     0
 93
        1
 44
50.0
173
     0
291
     1
 45
0.0
1001
ACAD
1000
AcDbSavedByObjectVersion
1070
     0
  0
VISUALSTYLE
  5
3A
102
{ACAD_REACTORS
330
2A
102
}
102
{ACAD_XDICTIONARY
360
1FD
102
}
330
2A
100
AcDbVisualStyle
  2
ColorChange
 70
    16
 71
     2
 72
     2
 73
     3
 90
        0
 40
0.6
 41
30.0
 62
     5
 63
     8
421
  8421504
 74
     1
 91
        4
 64
     7
 65
   257
 75
     1
175
     1
 42
1.0
 92
        8
 66
     8
424
  8421504
 43
1.0
 76
     1
 77
     6
 78
     2
 67
     7
 79
     5
170
     0
171
     0
290
     0
174
     0
 93
        1
 44
0.0
173
     0
291
     1
 45
0.0
1001
ACAD
1000
AcDbSavedByObjectVersion
1070
     0
  0
VISUALSTYLE
  5
34
102
{ACAD_REACTORS
330
2A
102
}
102
{ACAD_XDICTIONARY
360
1F1
102
}
330
2A
100
AcDbVisualStyle
  2
Conceptual
 70
     9
 71
     3
 72
     2
 73
     0
 90
        0
 40
0.6
 41
30.0
 62
     5
 63
     7
421
 16777215
 74
     2
 91
        2
 64
     7
 65
   257
 75
     1
175
     1
 42
179.0
 92
        8
 66
     7
 43
1.0
 76
     1
 77
     6
 78
     2
 67
     7
 79
     3
170
     0
171
     0
290
     0
174
     0
 93
        1
 44
0.0
173
     0
291
     0
 45
0.0
1001
ACAD
1000
AcDbSavedByObjectVersion
1070
     0
  0
VISUALSTYLE
  5
35
102
{ACAD_REACTORS
330
2A
102
}
102
{ACAD_XDICTIONARY
360
1F3
102
}
330
2A
100
AcDbVisualStyle
  2
Dim
 70
    11
 71
     2
 72
     2
 73
     0
 90
        0
 40
0.6
 41
30.0
 62
     5
 63
     7
421
 16777215
 74
     1
 91
        4
 64
     7
 65
   257
 75
     1
175
     1
 42
1.0
 92
        8
 66
     7
 43
1.0
 76
     1
 77
     6
 78
     2
 67
     7
 79
     5
170
     0
171
     0
290
     0
174
     0
 93
        1
 44
-50.0
173
     0
291
     1
 45
0.0
1001
ACAD
1000
AcDbSavedByObjectVersion
1070
     0
  0
VISUALSTYLE
  5
3D
102
{ACAD_REACTORS
330
2A
102
}
102
{ACAD_XDICTIONARY
360
203
102
}
330
2A
100
AcDbVisualStyle
  2
EdgeColorOff
 70
    22
 71
     2
 72
     2
 73
     0
 90
        0
 40
0.6
 41
30.0
 62
     5
 63
     7
421
 16777215
 74
     1
 91
        4
 64
     7
 65
   257
 75
     1
175
     1
 42
1.0
 92
        8
 66
     7
 43
1.0
 76
     1
 77
     6
 78
     2
 67
     7
 79
     5
170
     0
171
     0
290
     0
174
     0
 93
        1
 44
0.0
173
     0
291
     1
 45
0.0
1001
ACAD
1000
AcDbSavedByObjectVersion
1070
     0
  0
VISUALSTYLE
  5
39
102
{ACAD_REACTORS
330
2A
102
}
102
{ACAD_XDICTIONARY
360
1FB
102
}
330
2A
100
AcDbVisualStyle
  2
Facepattern
 70
    15
 71
     2
 72
     2
 73
     0
 90
        0
 40
0.6
 41
30.0
 62
     5
 63
     7
421
 16777215
 74
     1
 91
        4
 64
     7
 65
   257
 75
     1
175
     1
 42
1.0
 92
        8
 66
     7
 43
1.0
 76
     1
 77
     6
 78
     2
 67
     7
 79
     5
170
     0
171
     0
290
     0
174
     0
 93
        1
 44
0.0
173
     0
291
     1
 45
0.0
1001
ACAD
1000
AcDbSavedByObjectVersion
1070
     0
  0
VISUALSTYLE
  5
2B
102
{ACAD_REACTORS
330
2A
102
}
102
{ACAD_XDICTIONARY
360
1DF
102
}
330
2A
100
AcDbVisualStyle
  2
Flat
 70
     0
 71
     2
 72
     1
 73
     1
 90
        2
 40
0.6
 41
30.0
 62
     5
 63
     7
421
 16777215
 74
     0
 91
        0
 64
     7
 65
   257
 75
     1
175
     1
 42
1.0
 92
        8
 66
     7
 43
1.0
 76
     1
 77
     6
 78
     2
 67
     7
 79
     5
170
     0
171
     0
290
     0
174
     0
 93
       13
 44
0.0
173
     0
291
     1
 45
0.0
1001
ACAD
1000
AcDbSavedByObjectVersion
1070
     0
  0
VISUALSTYLE
  5
2C
102
{ACAD_REACTORS
330
2A
102
}
102
{ACAD_XDICTIONARY
360
1E1
102
}
330
2A
100
AcDbVisualStyle
  2
FlatWithEdges
 70
     1
 71
     2
 72
     1
 73
     1
 90
        2
 40
0.6
 41
30.0
 62
     5
 63
     7
421
 16777215
 74
     1
 91
        0
 64
     7
 65
   257
 75
     1
175
     1
 42
1.0
 92
        0
 66
   257
 43
1.0
 76
     1
 77
     6
 78
     2
 67
     7
 79
     5
170
     0
171
     0
290
     0
174
     0
 93
       13
 44
0.0
173
     0
291
     1
 45
0.0
1001
ACAD
1000
AcDbSavedByObjectVersion
1070
     0
  0
VISUALSTYLE
  5
2D
102
{ACAD_REACTORS
330
2A
102
}
102
{ACAD_XDICTIONARY
360
1E3
102
}
330
2A
100
AcDbVisualStyle
  2
Gouraud
 70
     2
 71
     2
 72
     2
 73
     1
 90
        2
 40
0.6
 41
30.0
 62
     5
 63
     7
421
 16777215
 74
     0
 91
        0
 64
     7
 65
   257
 75
     1
175
     1
 42
1.0
 92
        0
 66
     7
 43
1.0
 76
     1
 77
     6
 78
     2
 67
     7
 79
     5
170
     0
171
     0
290
     0
174
     0
 93
       13
 44
0.0
173
     0
291
     1
 45
0.0
1001
ACAD
1000
AcDbSavedByObjectVersion
1070
     0
  0
VISUALSTYLE
  5
2E
102
{ACAD_REACTORS
330
2A
102
}
102
{ACAD_XDICTIONARY
360
1E5
102
}
330
2A
100
AcDbVisualStyle
  2
GouraudWithEdges
 70
     3
 71
     2
 72
     2
 73
     1
 90
        2
 40
0.6
 41
30.0
 62
     5
 63
     7
421
 16777215
 74
     1
 91
        0
 64
     7
 65
   257
 75
     1
175
     1
 42
1.0
 92
        0
 66
   257
 43
1.0
 76
     1
 77
     6
 78
     2
 67
     7
 79
     5
170
     0
171
     0
290
     0
174
     0
 93
       13
 44
0.0
173
     0
291
     1
 45
0.0
1001
ACAD
1000
AcDbSavedByObjectVersion
1070
     0
  0
VISUALSTYLE
  5
31
102
{ACAD_REACTORS
330
2A
102
}
102
{ACAD_XDICTIONARY
360
1EB
102
}
330
2A
100
AcDbVisualStyle
  2
Hidden
 70
     6
 71
     1
 72
     2
 73
     2
 90
        0
 40
0.6
 41
30.0
 62
     5
 63
     7
421
 16777215
 74
     2
 91
        2
 64
     7
 65
   257
 75
     2
175
     1
 42
40.0
 92
        0
 66
   257
 43
1.0
 76
     1
 77
     6
 78
     2
 67
     7
 79
     3
170
     0
171
     0
290
     0
174
     0
 93
        1
 44
0.0
173
     0
291
     0
 45
0.0
1001
ACAD
1000
AcDbSavedByObjectVersion
1070
     0
  0
VISUALSTYLE
  5
3B
102
{ACAD_REACTORS
330
2A
102
}
102
{ACAD_XDICTIONARY
360
1FF
102
}
330
2A
100
AcDbVisualStyle
  2
JitterOff
 70
    20
 71
     2
 72
     2
 73
     0
 90
        0
 40
0.6
 41
30.0
 62
     5
 63
     7
421
 16777215
 74
     1
 91
        4
 64
     7
 65
   257
 75
     1
175
     1
 42
1.0
 92
       10
 66
     7
 43
1.0
 76
     1
 77
     6
 78
     2
 67
     7
 79
     5
170
     0
171
     0
290
     0
174
     0
 93
        1
 44
0.0
173
     0
291
     1
 45
0.0
1001
ACAD
1000
AcDbSavedByObjectVersion
1070
     0
  0
VISUALSTYLE
  5
38
102
{ACAD_REACTORS
330
2A
102
}
102
{ACAD_XDICTIONARY
360
1F9
102
}
330
2A
100
AcDbVisualStyle
  2
Linepattern
 70
    14
 71
     2
 72
     2
 73
     0
 90
        0
 40
0.6
 41
30.0
 62
     5
 63
     7
421
 16777215
 74
     1
 91
        4
 64
     7
 65
   257
 75
     7
175
     7
 42
1.0
 92
        8
 66
     7
 43
1.0
 76
     1
 77
     6
 78
     2
 67
     7
 79
     5
170
     0
171
     0
290
     0
174
     0
 93
        1
 44
0.0
173
     0
291
     1
 45
0.0
1001
ACAD
1000
AcDbSavedByObjectVersion
1070
     0
  0
VISUALSTYLE
  5
3C
102
{ACAD_REACTORS
330
2A
102
}
102
{ACAD_XDICTIONARY
360
201
102
}
330
2A
100
AcDbVisualStyle
  2
OverhangOff
 70
    21
 71
     2
 72
     2
 73
     0
 90
        0
 40
0.6
 41
30.0
 62
     5
 63
     7
421
 16777215
 74
     1
 91
        4
 64
     7
 65
   257
 75
     1
175
     1
 42
1.0
 92
        9
 66
     7
 43
1.0
 76
     1
 77
     6
 78
     2
 67
     7
 79
     5
170
     0
171
     0
290
     0
174
     0
 93
        1
 44
0.0
173
     0
291
     1
 45
0.0
1001
ACAD
1000
AcDbSavedByObjectVersion
1070
     0
  0
VISUALSTYLE
  5
33
102
{ACAD_REACTORS
330
2A
102
}
102
{ACAD_XDICTIONARY
360
1EF
102
}
330
2A
100
AcDbVisualStyle
  2
Realistic
 70
     8
 71
     2
 72
     3
 73
     0
 90
        2
 40
0.6
 41
30.0
 62
     5
 63
     7
421
 16777215
 74
     0
 91
        0
 64
     7
 65
   257
 75
     1
175
     1
 42
1.0
 92
        8
 66
   257
 43
1.0
 76
     1
 77
     6
 78
     2
 67
     7
 79
     3
170
     0
171
     0
290
     0
174
     0
 93
       13
 44
0.0
173
     0
291
     0
 45
0.0
1001
ACAD
1000
AcDbSavedByObjectVersion
1070
     0
  0
VISUALSTYLE
  5
42
102
{ACAD_REACTORS
330
2A
102
}
102
{ACAD_XDICTIONARY
360
20D
102
}
330
2A
100
AcDbVisualStyle
  2
Shaded
 70
    27
 71
     2
 72
     2
 73
     1
 90
        2
 40
0.6
 41
30.0
 62
     5
 63
     7
421
 16777215
 74
     0
 91
        4
 64
     7
 65
   257
 75
     1
175
     1
 42
1.0
 92
        8
 66
   257
 43
1.0
 76
     1
 77
     6
 78
     2
 67
     8
425
  7895160
 79
     3
170
     0
171
     0
290
     0
174
     0
 93
        5
 44
0.0
173
     0
291
     0
 45
0.0
1001
ACAD
1000
AcDbSavedByObjectVersion
1070
     0
  0
VISUALSTYLE
  5
41
102
{ACAD_REACTORS
330
2A
102
}
102
{ACAD_XDICTIONARY
360
20B
102
}
330
2A
100
AcDbVisualStyle
  2
Shaded with edges
 70
    26
 71
     2
 72
     2
 73
     1
 90
        2
 40
0.6
 41
30.0
 62
     5
 63
     7
421
 16777215
 74
     1
 91
       10
 64
     7
 65
   257
 75
     2
175
     1
 42
1.0
 92
        8
 66
   257
 43
1.0
 76
     1
 77
     6
 78
     2
 67
     7
 79
     3
170
     0
171
     0
290
     0
174
     0
 93
        5
 44
0.0
173
     0
291
     0
 45
0.0
1001
ACAD
1000
AcDbSavedByObjectVersion
1070
     0
  0
VISUALSTYLE
  5
3E
102
{ACAD_REACTORS
330
2A
102
}
102
{ACAD_XDICTIONARY
360
205
102
}
330
2A
100
AcDbVisualStyle
  2
Shades of Gray
 70
    23
 71
     2
 72
     2
 73
     3
 90
        0
 40
0.6
 41
30.0
 62
     5
 63
     7
421
 16777215
 74
     2
 91
        2
 64
     7
 65
     7
 75
     1
175
     1
 42
40.0
 92
        8
 66
     7
 43
1.0
 76
     1
 77
     6
 78
     2
 67
     7
 79
     3
170
     0
171
     0
290
     0
174
     0
 93
        1
 44
0.0
173
     0
291
     0
 45
0.0
1001
ACAD
1000
AcDbSavedByObjectVersion
1070
     0
  0
VISUALSTYLE
  5
3F
102
{ACAD_REACTORS
330
2A
102
}
102
{ACAD_XDICTIONARY
360
207
102
}
330
2A
100
AcDbVisualStyle
  2
Sketchy
 70
    24
 71
     1
 72
     2
 73
     2
 90
        0
 40
0.6
 41
30.0
 62
     5
 63
     7
421
 16777215
 74
     2
 91
        2
 64
     7
 65
     7
 75
     1
175
     1
 42
40.0
 92
       11
 66
     7
 43
1.0
 76
     1
 77
     6
 78
     2
 67
     7
 79
     6
170
     0
171
     0
290
     0
174
     0
 93
        1
 44
0.0
173
     0
291
     0
 45
0.0
1001
ACAD
1000
AcDbSavedByObjectVersion
1070
     0
  0
VISUALSTYLE
  5
37
102
{ACAD_REACTORS
330
2A
102
}
102
{ACAD_XDICTIONARY
360
1F7
102
}
330
2A
100
AcDbVisualStyle
  2
Thicken
 70
    13
 71
     2
 72
     2
 73
     0
 90
        0
 40
0.6
 41
30.0
 62
     5
 63
     7
421
 16777215
 74
     1
 91
        4
 64
     7
 65
   257
 75
     1
175
     1
 42
1.0
 92
       12
 66
     7
 43
1.0
 76
     1
 77
     6
 78
     2
 67
     7
 79
     5
170
     0
171
     0
290
     0
174
     0
 93
        1
 44
0.0
173
     0
291
     1
 45
0.0
1001
ACAD
1000
AcDbSavedByObjectVersion
1070
     0
  0
VISUALSTYLE
  5
30
102
{ACAD_REACTORS
330
2A
102
}
102
{ACAD_XDICTIONARY
360
1E9
102
}
330
2A
100
AcDbVisualStyle
  2
Wireframe
 70
     5
 71
     0
 72
     2
 73
     0
 90
        0
 40
0.6
 41
30.0
 62
     5
 63
     7
421
 16777215
 74
     1
 91
        4
 64
     7
 65
   257
 75
     1
175
     1
 42
1.0
 92
        0
 66
   257
 43
1.0
 76
     1
 77
     6
 78
     2
 67
     7
 79
     3
170
     0
171
     0
290
     0
174
     0
 93
        1
 44
0.0
173
     0
291
     0
 45
0.0
1001
ACAD
1000
AcDbSavedByObjectVersion
1070
     0
  0
VISUALSTYLE
  5
40
102
{ACAD_REACTORS
330
2A
102
}
102
{ACAD_XDICTIONARY
360
209
102
}
330
2A
100
AcDbVisualStyle
  2
X-Ray
 70
    25
 71
     2
 72
     2
 73
     1
 90
        1
 40
0.5
 41
30.0
 62
     5
 63
     7
421
 16777215
 74
     1
 91
        0
 64
     7
 65
   257
 75
     1
175
     1
 42
1.0
 92
        8
 66
     7
 43
1.0
 76
     1
 77
     6
 78
     2
 67
     7
 79
     3
170
     0
171
     0
290
     0
174
     0
 93
       13
 44
0.0
173
     0
291
     0
 45
0.0
1001
ACAD
1000
AcDbSavedByObjectVersion
1070
     0
  0
DICTIONARYVAR
  5
1DD
102
{ACAD_REACTORS
330
1DC
102
}
330
1DC
100
DictionaryVariables
280
     0
  1
1:1
  0
DICTIONARYVAR
  5
1DE
102
{ACAD_REACTORS
330
1DC
102
}
330
1DC
100
DictionaryVariables
280
     0
  1
1
  0
DICTIONARY
  5
211
330
45
100
AcDbDictionary
280
     1
281
     1
  3
ACAD_XREC_ROUNDTRIP
360
212
  0
DICTIONARY
  5
20F
330
44
100
AcDbDictionary
280
     1
281
     1
  3
ACAD_XREC_ROUNDTRIP
360
210
  0
DICTIONARY
  5
213
330
46
100
AcDbDictionary
280
     1
281
     1
  3
ACAD_XREC_ROUNDTRIP
360
214
  0
DICTIONARY
  5
1E7
330
2F
100
AcDbDictionary
280
     1
281
     1
  3
ACAD_XREC_ROUNDTRIP
360
1E8
  0
DICTIONARY
  5
1ED
330
32
100
AcDbDictionary
280
     1
281
     1
  3
ACAD_XREC_ROUNDTRIP
360
1EE
  0
DICTIONARY
  5
1F5
330
36
100
AcDbDictionary
280
     1
281
     1
  3
ACAD_XREC_ROUNDTRIP
360
1F6
  0
DICTIONARY
  5
1FD
330
3A
100
AcDbDictionary
280
     1
281
     1
  3
ACAD_XREC_ROUNDTRIP
360
1FE
  0
DICTIONARY
  5
1F1
330
34
100
AcDbDictionary
280
     1
281
     1
  3
ACAD_XREC_ROUNDTRIP
360
1F2
  0
DICTIONARY
  5
1F3
330
35
100
AcDbDictionary
280
     1
281
     1
  3
ACAD_XREC_ROUNDTRIP
360
1F4
  0
DICTIONARY
  5
203
330
3D
100
AcDbDictionary
280
     1
281
     1
  3
ACAD_XREC_ROUNDTRIP
360
204
  0
DICTIONARY
  5
1FB
330
39
100
AcDbDictionary
280
     1
281
     1
  3
ACAD_XREC_ROUNDTRIP
360
1FC
  0
DICTIONARY
  5
1DF
330
2B
100
AcDbDictionary
280
     1
281
     1
  3
ACAD_XREC_ROUNDTRIP
360
1E0
  0
DICTIONARY
  5
1E1
330
2C
100
AcDbDictionary
280
     1
281
     1
  3
ACAD_XREC_ROUNDTRIP
360
1E2
  0
DICTIONARY
  5
1E3
330
2D
100
AcDbDictionary
280
     1
281
     1
  3
ACAD_XREC_ROUNDTRIP
360
1E4
  0
DICTIONARY
  5
1E5
330
2E
100
AcDbDictionary
280
     1
281
     1
  3
ACAD_XREC_ROUNDTRIP
360
1E6
  0
DICTIONARY
  5
1EB
330
31
100
AcDbDictionary
280
     1
281
     1
  3
ACAD_XREC_ROUNDTRIP
360
1EC
  0
DICTIONARY
  5
1FF
330
3B
100
AcDbDictionary
280
     1
281
     1
  3
ACAD_XREC_ROUNDTRIP
360
200
  0
DICTIONARY
  5
1F9
330
38
100
AcDbDictionary
280
     1
281
     1
  3
ACAD_XREC_ROUNDTRIP
360
1FA
  0
DICTIONARY
  5
201
330
3C
100
AcDbDictionary
280
     1
281
     1
  3
ACAD_XREC_ROUNDTRIP
360
202
  0
DICTIONARY
  5
1EF
330
33
100
AcDbDictionary
280
     1
281
     1
  3
ACAD_XREC_ROUNDTRIP
360
1F0
  0
DICTIONARY
  5
20D
330
42
100
AcDbDictionary
280
     1
281
     1
  3
ACAD_XREC_ROUNDTRIP
360
20E
  0
DICTIONARY
  5
20B
330
41
100
AcDbDictionary
280
     1
281
     1
  3
ACAD_XREC_ROUNDTRIP
360
20C
  0
DICTIONARY
  5
205
330
3E
100
AcDbDictionary
280
     1
281
     1
  3
ACAD_XREC_ROUNDTRIP
360
206
  0
DICTIONARY
  5
207
330
3F
100
AcDbDictionary
280
     1
281
     1
  3
ACAD_XREC_ROUNDTRIP
360
208
  0
DICTIONARY
  5
1F7
330
37
100
AcDbDictionary
280
     1
281
     1
  3
ACAD_XREC_ROUNDTRIP
360
1F8
  0
DICTIONARY
  5
1E9
330
30
100
AcDbDictionary
280
     1
281
     1
  3
ACAD_XREC_ROUNDTRIP
360
1EA
  0
DICTIONARY
  5
209
330
40
100
AcDbDictionary
280
     1
281
     1
  3
ACAD_XREC_ROUNDTRIP
360
20A
  0
XRECORD
  5
212
102
{ACAD_REACTORS
330
211
102
}
330
211
100
AcDbXrecord
280
     1
102
MATERIAL
148
0.0
149
0.0
149
0.0
 93
        0
 94
      127
282
     0
 72
     1
 77
     1
171
     1
175
     1
179
     1
273
     0
  0
XRECORD
  5
210
102
{ACAD_REACTORS
330
20F
102
}
330
20F
100
AcDbXrecord
280
     1
102
MATERIAL
148
0.0
149
0.0
149
0.0
 93
        0
 94
      127
282
     0
 72
     1
 77
     1
171
     1
175
     1
179
     1
273
     0
  0
XRECORD
  5
214
102
{ACAD_REACTORS
330
213
102
}
330
213
100
AcDbXrecord
280
     1
102
MATERIAL
148
0.0
149
0.0
149
0.0
 93
        0
 94
      127
282
     0
 72
     1
 77
     1
171
     1
175
     1
179
     1
273
     0
  0
XRECORD
  5
1E8
102
{ACAD_REACTORS
330
1E7
102
}
330
1E7
100
AcDbXrecord
280
     1
102
RTVSPropertyOp0
 70
     1
102
RTVSPropertyOp1
 70
     1
102
RTVSPropertyOp2
 70
     1
102
RTVSPropertyOp3
 70
     1
102
RTVSPropertyOp4
 70
     1
102
RTVSPropertyOp5
 70
     1
102
RTVSPropertyOp6
 70
     1
102
RTVSPropertyOp7
 70
     1
102
RTVSPropertyOp8
 70
     1
102
RTVSPropertyOp9
 70
     1
102
RTVSPropertyOp10
 70
     1
102
RTVSPropertyOp11
 70
     1
102
RTVSPropertyOp12
 70
     1
102
RTVSPropertyOp13
 70
     1
102
RTVSPropertyOp14
 70
     1
102
RTVSPropertyOp15
 70
     1
102
RTVSPropertyOp16
 70
     1
102
RTVSPropertyOp17
 70
     1
102
RTVSPropertyOp18
 70
     1
102
RTVSPropertyOp19
 70
     1
102
RTVSPropertyOp20
 70
     1
102
RTVSPropertyOp21
 70
     1
102
RTVSPropertyOp22
 70
     1
102
RTVSPropertyOp23
 70
     1
102
RTVSPropertyOp24
 70
     1
102
RTVSPropertyOp25
 70
     1
102
RTVSPropertyOp26
 70
     1
102
RTVSPropertyOp27
 70
     1
102
RTVSPropertyOp28
 70
     1
102
RTVSPropertyOp29
 70
     1
102
RTVSPropertyOp30
 70
     1
102
RTVSPropertyOp31
 70
     1
102
RTVSPropertyOp32
 70
     1
102
RTVSPropertyOp33
 70
     1
102
RTVSPropertyOp34
 70
     1
102
RTVSPropertyOp35
 70
     1
102
RTVSPropertyOp36
 70
     1
102
RTVSPropertyOp37
 70
     1
102
RTVSPropertyOp38
 70
     1
102
RTVSPropertyOp39
 70
     1
102
RTVSPropertyOp40
 70
     1
102
RTVSPropertyOp41
 70
     1
102
RTVSPropertyOp42
 70
     1
102
RTVSPropertyOp43
 70
     1
102
RTVSPropertyOp44
 70
     1
102
RTVSPropertyOp45
 70
     1
102
RTVSPropertyOp46
 70
     1
102
RTVSPropertyOp47
 70
     1
102
RTVSPropertyOp48
 70
     1
102
RTVSPropertyOp49
 70
     1
102
RTVSPropertyOp50
 70
     1
102
RTVSPropertyOp51
 70
     0
102
RTVSPropertyOp52
 70
     0
102
RTVSPropertyOp53
 70
     1
102
RTVSPropertyOp54
 70
     1
102
RTVSPropertyOp55
 70
     1
102
RTVSPropertyOp56
 70
     1
102
RTVSPropertyOp57
 70
     1
102
RTVSPost2010Prop28
280
     1
102
RTVSPost2010PropOp28
 70
     1
102
RTVSPost2010Prop29
280
     1
102
RTVSPost2010PropOp29
 70
     1
102
RTVSPost2010Prop30
280
     0
102
RTVSPost2010PropOp30
 70
     1
102
RTVSPost2010Prop31
280
     0
102
RTVSPost2010PropOp31
 70
     1
102
RTVSPost2010Prop32
280
     0
102
RTVSPost2010PropOp32
 70
     1
102
RTVSPost2010Prop33
280
     0
102
RTVSPost2010PropOp33
 70
     1
102
RTVSPost2010Prop34
280
     0
102
RTVSPost2010PropOp34
 70
     1
102
RTVSPost2010Prop35
280
     0
102
RTVSPost2010PropOp35
 70
     1
102
RTVSPost2010Prop36
280
     0
102
RTVSPost2010PropOp36
 70
     1
102
RTVSPost2010Prop37
 90
       50
102
RTVSPost2010PropOp37
 70
     1
102
RTVSPost2010Prop38
140
0.0
102
RTVSPost2010PropOp38
 70
     1
102
RTVSPost2010Prop39
140
1.0
102
RTVSPost2010PropOp39
 70
     1
102
RTVSPost2010Prop40
 90
        0
102
RTVSPost2010PropOp40
 70
     1
102
RTVSPost2010Prop41ColorIndex
 90
       18
102
RTVSPost2010Prop41ColorRGB
 90
        0
102
RTVSPost2010PropOp41
 70
     1
102
RTVSPost2010Prop42
 90
       50
102
RTVSPost2010PropOp42
 70
     1
102
RTVSPost2010Prop43
 90
        3
102
RTVSPost2010PropOp43
 70
     1
102
RTVSPost2010Prop44ColorIndex
 90
        5
102
RTVSPost2010Prop44ColorRGB
 90
      255
102
RTVSPost2010PropOp44
 70
     1
102
RTVSPost2010Prop45
280
     0
102
RTVSPost2010PropOp45
 70
     1
102
RTVSPost2010Prop46
 90
       50
102
RTVSPost2010PropOp46
 70
     1
102
RTVSPost2010Prop47
 90
       50
102
RTVSPost2010PropOp47
 70
     1
102
RTVSPost2010Prop48
 90
       50
102
RTVSPost2010PropOp48
 70
     1
102
RTVSPost2010Prop49
280
     0
102
RTVSPost2010PropOp49
 70
     1
102
RTVSPost2010Prop50
 90
       50
102
RTVSPost2010PropOp50
 70
     1
102
RTVSPost2010Prop51ColorIndex
 90
      256
102
RTVSPost2010Prop51ColorRGB
 90
-16777216
102
RTVSPost2010PropOp51
 70
     0
102
RTVSPost2010Prop52
140
1.0
102
RTVSPost2010PropOp52
 70
     0
102
RTVSPost2010Prop53
 90
        2
102
RTVSPost2010PropOp53
 70
     1
102
RTVSPost2010Prop54
  1
strokes_ogs.tif
102
RTVSPost2010PropOp54
 70
     1
102
RTVSPost2010Prop55
280
     0
102
RTVSPost2010PropOp55
 70
     1
102
RTVSPost2010Prop56
140
1.0
102
RTVSPost2010PropOp56
 70
     1
102
RTVSPost2010Prop57
140
1.0
102
RTVSPost2010PropOp57
 70
     1
  0
XRECORD
  5
1EE
102
{ACAD_REACTORS
330
1ED
102
}
330
1ED
100
AcDbXrecord
280
     1
102
RTVSPropertyOp0
 70
     1
102
RTVSPropertyOp1
 70
     1
102
RTVSPropertyOp2
 70
     1
102
RTVSPropertyOp3
 70
     1
102
RTVSPropertyOp4
 70
     1
102
RTVSPropertyOp5
 70
     1
102
RTVSPropertyOp6
 70
     1
102
RTVSPropertyOp7
 70
     1
102
RTVSPropertyOp8
 70
     1
102
RTVSPropertyOp9
 70
     1
102
RTVSPropertyOp10
 70
     1
102
RTVSPropertyOp11
 70
     1
102
RTVSPropertyOp12
 70
     1
102
RTVSPropertyOp13
 70
     1
102
RTVSPropertyOp14
 70
     1
102
RTVSPropertyOp15
 70
     1
102
RTVSPropertyOp16
 70
     1
102
RTVSPropertyOp17
 70
     1
102
RTVSPropertyOp18
 70
     1
102
RTVSPropertyOp19
 70
     1
102
RTVSPropertyOp20
 70
     1
102
RTVSPropertyOp21
 70
     1
102
RTVSPropertyOp22
 70
     1
102
RTVSPropertyOp23
 70
     1
102
RTVSPropertyOp24
 70
     1
102
RTVSPropertyOp25
 70
     1
102
RTVSPropertyOp26
 70
     1
102
RTVSPropertyOp27
 70
     1
102
RTVSPropertyOp28
 70
     1
102
RTVSPropertyOp29
 70
     1
102
RTVSPropertyOp30
 70
     1
102
RTVSPropertyOp31
 70
     1
102
RTVSPropertyOp32
 70
     1
102
RTVSPropertyOp33
 70
     1
102
RTVSPropertyOp34
 70
     1
102
RTVSPropertyOp35
 70
     1
102
RTVSPropertyOp36
 70
     1
102
RTVSPropertyOp37
 70
     1
102
RTVSPropertyOp38
 70
     1
102
RTVSPropertyOp39
 70
     1
102
RTVSPropertyOp40
 70
     1
102
RTVSPropertyOp41
 70
     1
102
RTVSPropertyOp42
 70
     1
102
RTVSPropertyOp43
 70
     1
102
RTVSPropertyOp44
 70
     1
102
RTVSPropertyOp45
 70
     1
102
RTVSPropertyOp46
 70
     1
102
RTVSPropertyOp47
 70
     1
102
RTVSPropertyOp48
 70
     1
102
RTVSPropertyOp49
 70
     1
102
RTVSPropertyOp50
 70
     1
102
RTVSPropertyOp51
 70
     0
102
RTVSPropertyOp52
 70
     0
102
RTVSPropertyOp53
 70
     1
102
RTVSPropertyOp54
 70
     1
102
RTVSPropertyOp55
 70
     1
102
RTVSPropertyOp56
 70
     1
102
RTVSPropertyOp57
 70
     1
102
RTVSPost2010Prop28
280
     0
102
RTVSPost2010PropOp28
 70
     1
102
RTVSPost2010Prop29
280
     1
102
RTVSPost2010PropOp29
 70
     1
102
RTVSPost2010Prop30
280
     1
102
RTVSPost2010PropOp30
 70
     1
102
RTVSPost2010Prop31
280
     0
102
RTVSPost2010PropOp31
 70
     1
102
RTVSPost2010Prop32
280
     0
102
RTVSPost2010PropOp32
 70
     1
102
RTVSPost2010Prop33
280
     0
102
RTVSPost2010PropOp33
 70
     1
102
RTVSPost2010Prop34
280
     0
102
RTVSPost2010PropOp34
 70
     1
102
RTVSPost2010Prop35
280
     0
102
RTVSPost2010PropOp35
 70
     1
102
RTVSPost2010Prop36
280
     0
102
RTVSPost2010PropOp36
 70
     1
102
RTVSPost2010Prop37
 90
       50
102
RTVSPost2010PropOp37
 70
     1
102
RTVSPost2010Prop38
140
0.0
102
RTVSPost2010PropOp38
 70
     1
102
RTVSPost2010Prop39
140
1.0
102
RTVSPost2010PropOp39
 70
     1
102
RTVSPost2010Prop40
 90
        0
102
RTVSPost2010PropOp40
 70
     1
102
RTVSPost2010Prop41ColorIndex
 90
       18
102
RTVSPost2010Prop41ColorRGB
 90
        0
102
RTVSPost2010PropOp41
 70
     1
102
RTVSPost2010Prop42
 90
       50
102
RTVSPost2010PropOp42
 70
     1
102
RTVSPost2010Prop43
 90
        3
102
RTVSPost2010PropOp43
 70
     1
102
RTVSPost2010Prop44ColorIndex
 90
        5
102
RTVSPost2010Prop44ColorRGB
 90
      255
102
RTVSPost2010PropOp44
 70
     1
102
RTVSPost2010Prop45
280
     0
102
RTVSPost2010PropOp45
 70
     1
102
RTVSPost2010Prop46
 90
       50
102
RTVSPost2010PropOp46
 70
     1
102
RTVSPost2010Prop47
 90
       50
102
RTVSPost2010PropOp47
 70
     1
102
RTVSPost2010Prop48
 90
       50
102
RTVSPost2010PropOp48
 70
     1
102
RTVSPost2010Prop49
280
     0
102
RTVSPost2010PropOp49
 70
     1
102
RTVSPost2010Prop50
 90
       50
102
RTVSPost2010PropOp50
 70
     1
102
RTVSPost2010Prop51ColorIndex
 90
      256
102
RTVSPost2010Prop51ColorRGB
 90
-16777216
102
RTVSPost2010PropOp51
 70
     0
102
RTVSPost2010Prop52
140
1.0
102
RTVSPost2010PropOp52
 70
     0
102
RTVSPost2010Prop53
 90
        2
102
RTVSPost2010PropOp53
 70
     1
102
RTVSPost2010Prop54
  1
strokes_ogs.tif
102
RTVSPost2010PropOp54
 70
     1
102
RTVSPost2010Prop55
280
     0
102
RTVSPost2010PropOp55
 70
     1
102
RTVSPost2010Prop56
140
1.0
102
RTVSPost2010PropOp56
 70
     1
102
RTVSPost2010Prop57
140
1.0
102
RTVSPost2010PropOp57
 70
     1
  0
XRECORD
  5
1F6
102
{ACAD_REACTORS
330
1F5
102
}
330
1F5
100
AcDbXrecord
280
     1
102
RTVSPropertyOp0
 70
     1
102
RTVSPropertyOp1
 70
     1
102
RTVSPropertyOp2
 70
     1
102
RTVSPropertyOp3
 70
     1
102
RTVSPropertyOp4
 70
     1
102
RTVSPropertyOp5
 70
     1
102
RTVSPropertyOp6
 70
     1
102
RTVSPropertyOp7
 70
     1
102
RTVSPropertyOp8
 70
     1
102
RTVSPropertyOp9
 70
     1
102
RTVSPropertyOp10
 70
     1
102
RTVSPropertyOp11
 70
     1
102
RTVSPropertyOp12
 70
     1
102
RTVSPropertyOp13
 70
     1
102
RTVSPropertyOp14
 70
     1
102
RTVSPropertyOp15
 70
     1
102
RTVSPropertyOp16
 70
     1
102
RTVSPropertyOp17
 70
     1
102
RTVSPropertyOp18
 70
     1
102
RTVSPropertyOp19
 70
     1
102
RTVSPropertyOp20
 70
     1
102
RTVSPropertyOp21
 70
     1
102
RTVSPropertyOp22
 70
     1
102
RTVSPropertyOp23
 70
     1
102
RTVSPropertyOp24
 70
     1
102
RTVSPropertyOp25
 70
     1
102
RTVSPropertyOp26
 70
     1
102
RTVSPropertyOp27
 70
     1
102
RTVSPropertyOp28
 70
     1
102
RTVSPropertyOp29
 70
     1
102
RTVSPropertyOp30
 70
     1
102
RTVSPropertyOp31
 70
     1
102
RTVSPropertyOp32
 70
     1
102
RTVSPropertyOp33
 70
     1
102
RTVSPropertyOp34
 70
     1
102
RTVSPropertyOp35
 70
     1
102
RTVSPropertyOp36
 70
     1
102
RTVSPropertyOp37
 70
     1
102
RTVSPropertyOp38
 70
     1
102
RTVSPropertyOp39
 70
     1
102
RTVSPropertyOp40
 70
     1
102
RTVSPropertyOp41
 70
     1
102
RTVSPropertyOp42
 70
     1
102
RTVSPropertyOp43
 70
     1
102
RTVSPropertyOp44
 70
     1
102
RTVSPropertyOp45
 70
     1
102
RTVSPropertyOp46
 70
     1
102
RTVSPropertyOp47
 70
     1
102
RTVSPropertyOp48
 70
     1
102
RTVSPropertyOp49
 70
     1
102
RTVSPropertyOp50
 70
     1
102
RTVSPropertyOp51
 70
     0
102
RTVSPropertyOp52
 70
     0
102
RTVSPropertyOp53
 70
     1
102
RTVSPropertyOp54
 70
     1
102
RTVSPropertyOp55
 70
     1
102
RTVSPropertyOp56
 70
     1
102
RTVSPropertyOp57
 70
     1
102
RTVSPost2010Prop28
280
     0
102
RTVSPost2010PropOp28
 70
     1
102
RTVSPost2010Prop29
280
     1
102
RTVSPost2010PropOp29
 70
     1
102
RTVSPost2010Prop30
280
     1
102
RTVSPost2010PropOp30
 70
     1
102
RTVSPost2010Prop31
280
     0
102
RTVSPost2010PropOp31
 70
     1
102
RTVSPost2010Prop32
280
     0
102
RTVSPost2010PropOp32
 70
     1
102
RTVSPost2010Prop33
280
     0
102
RTVSPost2010PropOp33
 70
     1
102
RTVSPost2010Prop34
280
     0
102
RTVSPost2010PropOp34
 70
     1
102
RTVSPost2010Prop35
280
     0
102
RTVSPost2010PropOp35
 70
     1
102
RTVSPost2010Prop36
280
     0
102
RTVSPost2010PropOp36
 70
     1
102
RTVSPost2010Prop37
 90
       50
102
RTVSPost2010PropOp37
 70
     1
102
RTVSPost2010Prop38
140
0.0
102
RTVSPost2010PropOp38
 70
     1
102
RTVSPost2010Prop39
140
1.0
102
RTVSPost2010PropOp39
 70
     1
102
RTVSPost2010Prop40
 90
        0
102
RTVSPost2010PropOp40
 70
     1
102
RTVSPost2010Prop41ColorIndex
 90
       18
102
RTVSPost2010Prop41ColorRGB
 90
        0
102
RTVSPost2010PropOp41
 70
     1
102
RTVSPost2010Prop42
 90
       50
102
RTVSPost2010PropOp42
 70
     1
102
RTVSPost2010Prop43
 90
        3
102
RTVSPost2010PropOp43
 70
     1
102
RTVSPost2010Prop44ColorIndex
 90
        5
102
RTVSPost2010Prop44ColorRGB
 90
      255
102
RTVSPost2010PropOp44
 70
     1
102
RTVSPost2010Prop45
280
     0
102
RTVSPost2010PropOp45
 70
     1
102
RTVSPost2010Prop46
 90
       50
102
RTVSPost2010PropOp46
 70
     1
102
RTVSPost2010Prop47
 90
       50
102
RTVSPost2010PropOp47
 70
     1
102
RTVSPost2010Prop48
 90
       50
102
RTVSPost2010PropOp48
 70
     1
102
RTVSPost2010Prop49
280
     0
102
RTVSPost2010PropOp49
 70
     1
102
RTVSPost2010Prop50
 90
       50
102
RTVSPost2010PropOp50
 70
     1
102
RTVSPost2010Prop51ColorIndex
 90
      256
102
RTVSPost2010Prop51ColorRGB
 90
-16777216
102
RTVSPost2010PropOp51
 70
     0
102
RTVSPost2010Prop52
140
1.0
102
RTVSPost2010PropOp52
 70
     0
102
RTVSPost2010Prop53
 90
        2
102
RTVSPost2010PropOp53
 70
     1
102
RTVSPost2010Prop54
  1
strokes_ogs.tif
102
RTVSPost2010PropOp54
 70
     1
102
RTVSPost2010Prop55
280
     0
102
RTVSPost2010PropOp55
 70
     1
102
RTVSPost2010Prop56
140
1.0
102
RTVSPost2010PropOp56
 70
     1
102
RTVSPost2010Prop57
140
1.0
102
RTVSPost2010PropOp57
 70
     1
  0
XRECORD
  5
1FE
102
{ACAD_REACTORS
330
1FD
102
}
330
1FD
100
AcDbXrecord
280
     1
102
RTVSPropertyOp0
 70
     1
102
RTVSPropertyOp1
 70
     1
102
RTVSPropertyOp2
 70
     1
102
RTVSPropertyOp3
 70
     1
102
RTVSPropertyOp4
 70
     1
102
RTVSPropertyOp5
 70
     1
102
RTVSPropertyOp6
 70
     1
102
RTVSPropertyOp7
 70
     1
102
RTVSPropertyOp8
 70
     1
102
RTVSPropertyOp9
 70
     1
102
RTVSPropertyOp10
 70
     1
102
RTVSPropertyOp11
 70
     1
102
RTVSPropertyOp12
 70
     1
102
RTVSPropertyOp13
 70
     1
102
RTVSPropertyOp14
 70
     1
102
RTVSPropertyOp15
 70
     1
102
RTVSPropertyOp16
 70
     1
102
RTVSPropertyOp17
 70
     1
102
RTVSPropertyOp18
 70
     1
102
RTVSPropertyOp19
 70
     1
102
RTVSPropertyOp20
 70
     1
102
RTVSPropertyOp21
 70
     1
102
RTVSPropertyOp22
 70
     1
102
RTVSPropertyOp23
 70
     1
102
RTVSPropertyOp24
 70
     1
102
RTVSPropertyOp25
 70
     1
102
RTVSPropertyOp26
 70
     1
102
RTVSPropertyOp27
 70
     1
102
RTVSPropertyOp28
 70
     1
102
RTVSPropertyOp29
 70
     1
102
RTVSPropertyOp30
 70
     1
102
RTVSPropertyOp31
 70
     1
102
RTVSPropertyOp32
 70
     1
102
RTVSPropertyOp33
 70
     1
102
RTVSPropertyOp34
 70
     1
102
RTVSPropertyOp35
 70
     1
102
RTVSPropertyOp36
 70
     1
102
RTVSPropertyOp37
 70
     1
102
RTVSPropertyOp38
 70
     1
102
RTVSPropertyOp39
 70
     1
102
RTVSPropertyOp40
 70
     1
102
RTVSPropertyOp41
 70
     1
102
RTVSPropertyOp42
 70
     1
102
RTVSPropertyOp43
 70
     1
102
RTVSPropertyOp44
 70
     1
102
RTVSPropertyOp45
 70
     1
102
RTVSPropertyOp46
 70
     1
102
RTVSPropertyOp47
 70
     1
102
RTVSPropertyOp48
 70
     1
102
RTVSPropertyOp49
 70
     1
102
RTVSPropertyOp50
 70
     1
102
RTVSPropertyOp51
 70
     0
102
RTVSPropertyOp52
 70
     0
102
RTVSPropertyOp53
 70
     1
102
RTVSPropertyOp54
 70
     1
102
RTVSPropertyOp55
 70
     1
102
RTVSPropertyOp56
 70
     1
102
RTVSPropertyOp57
 70
     1
102
RTVSPost2010Prop28
280
     0
102
RTVSPost2010PropOp28
 70
     1
102
RTVSPost2010Prop29
280
     1
102
RTVSPost2010PropOp29
 70
     1
102
RTVSPost2010Prop30
280
     1
102
RTVSPost2010PropOp30
 70
     1
102
RTVSPost2010Prop31
280
     0
102
RTVSPost2010PropOp31
 70
     1
102
RTVSPost2010Prop32
280
     0
102
RTVSPost2010PropOp32
 70
     1
102
RTVSPost2010Prop33
280
     0
102
RTVSPost2010PropOp33
 70
     1
102
RTVSPost2010Prop34
280
     0
102
RTVSPost2010PropOp34
 70
     1
102
RTVSPost2010Prop35
280
     0
102
RTVSPost2010PropOp35
 70
     1
102
RTVSPost2010Prop36
280
     0
102
RTVSPost2010PropOp36
 70
     1
102
RTVSPost2010Prop37
 90
       50
102
RTVSPost2010PropOp37
 70
     1
102
RTVSPost2010Prop38
140
0.0
102
RTVSPost2010PropOp38
 70
     1
102
RTVSPost2010Prop39
140
1.0
102
RTVSPost2010PropOp39
 70
     1
102
RTVSPost2010Prop40
 90
        0
102
RTVSPost2010PropOp40
 70
     1
102
RTVSPost2010Prop41ColorIndex
 90
       18
102
RTVSPost2010Prop41ColorRGB
 90
        0
102
RTVSPost2010PropOp41
 70
     1
102
RTVSPost2010Prop42
 90
       50
102
RTVSPost2010PropOp42
 70
     1
102
RTVSPost2010Prop43
 90
        3
102
RTVSPost2010PropOp43
 70
     1
102
RTVSPost2010Prop44ColorIndex
 90
        5
102
RTVSPost2010Prop44ColorRGB
 90
      255
102
RTVSPost2010PropOp44
 70
     1
102
RTVSPost2010Prop45
280
     0
102
RTVSPost2010PropOp45
 70
     1
102
RTVSPost2010Prop46
 90
       50
102
RTVSPost2010PropOp46
 70
     1
102
RTVSPost2010Prop47
 90
       50
102
RTVSPost2010PropOp47
 70
     1
102
RTVSPost2010Prop48
 90
       50
102
RTVSPost2010PropOp48
 70
     1
102
RTVSPost2010Prop49
280
     0
102
RTVSPost2010PropOp49
 70
     1
102
RTVSPost2010Prop50
 90
       50
102
RTVSPost2010PropOp50
 70
     1
102
RTVSPost2010Prop51ColorIndex
 90
      256
102
RTVSPost2010Prop51ColorRGB
 90
-16777216
102
RTVSPost2010PropOp51
 70
     0
102
RTVSPost2010Prop52
140
1.0
102
RTVSPost2010PropOp52
 70
     0
102
RTVSPost2010Prop53
 90
        2
102
RTVSPost2010PropOp53
 70
     1
102
RTVSPost2010Prop54
  1
strokes_ogs.tif
102
RTVSPost2010PropOp54
 70
     1
102
RTVSPost2010Prop55
280
     0
102
RTVSPost2010PropOp55
 70
     1
102
RTVSPost2010Prop56
140
1.0
102
RTVSPost2010PropOp56
 70
     1
102
RTVSPost2010Prop57
140
1.0
102
RTVSPost2010PropOp57
 70
     1
  0
XRECORD
  5
1F2
102
{ACAD_REACTORS
330
1F1
102
}
330
1F1
100
AcDbXrecord
280
     1
102
RTVSPropertyOp0
 70
     1
102
RTVSPropertyOp1
 70
     1
102
RTVSPropertyOp2
 70
     1
102
RTVSPropertyOp3
 70
     1
102
RTVSPropertyOp4
 70
     1
102
RTVSPropertyOp5
 70
     1
102
RTVSPropertyOp6
 70
     1
102
RTVSPropertyOp7
 70
     1
102
RTVSPropertyOp8
 70
     1
102
RTVSPropertyOp9
 70
     1
102
RTVSPropertyOp10
 70
     1
102
RTVSPropertyOp11
 70
     1
102
RTVSPropertyOp12
 70
     1
102
RTVSPropertyOp13
 70
     1
102
RTVSPropertyOp14
 70
     1
102
RTVSPropertyOp15
 70
     1
102
RTVSPropertyOp16
 70
     1
102
RTVSPropertyOp17
 70
     1
102
RTVSPropertyOp18
 70
     1
102
RTVSPropertyOp19
 70
     1
102
RTVSPropertyOp20
 70
     1
102
RTVSPropertyOp21
 70
     1
102
RTVSPropertyOp22
 70
     1
102
RTVSPropertyOp23
 70
     1
102
RTVSPropertyOp24
 70
     1
102
RTVSPropertyOp25
 70
     1
102
RTVSPropertyOp26
 70
     1
102
RTVSPropertyOp27
 70
     1
102
RTVSPropertyOp28
 70
     1
102
RTVSPropertyOp29
 70
     1
102
RTVSPropertyOp30
 70
     1
102
RTVSPropertyOp31
 70
     1
102
RTVSPropertyOp32
 70
     1
102
RTVSPropertyOp33
 70
     1
102
RTVSPropertyOp34
 70
     1
102
RTVSPropertyOp35
 70
     1
102
RTVSPropertyOp36
 70
     1
102
RTVSPropertyOp37
 70
     1
102
RTVSPropertyOp38
 70
     1
102
RTVSPropertyOp39
 70
     1
102
RTVSPropertyOp40
 70
     1
102
RTVSPropertyOp41
 70
     1
102
RTVSPropertyOp42
 70
     1
102
RTVSPropertyOp43
 70
     1
102
RTVSPropertyOp44
 70
     1
102
RTVSPropertyOp45
 70
     1
102
RTVSPropertyOp46
 70
     1
102
RTVSPropertyOp47
 70
     1
102
RTVSPropertyOp48
 70
     1
102
RTVSPropertyOp49
 70
     1
102
RTVSPropertyOp50
 70
     1
102
RTVSPropertyOp51
 70
     0
102
RTVSPropertyOp52
 70
     0
102
RTVSPropertyOp53
 70
     1
102
RTVSPropertyOp54
 70
     1
102
RTVSPropertyOp55
 70
     1
102
RTVSPropertyOp56
 70
     1
102
RTVSPropertyOp57
 70
     1
102
RTVSPost2010Prop28
280
     0
102
RTVSPost2010PropOp28
 70
     1
102
RTVSPost2010Prop29
280
     1
102
RTVSPost2010PropOp29
 70
     1
102
RTVSPost2010Prop30
280
     1
102
RTVSPost2010PropOp30
 70
     1
102
RTVSPost2010Prop31
280
     0
102
RTVSPost2010PropOp31
 70
     1
102
RTVSPost2010Prop32
280
     0
102
RTVSPost2010PropOp32
 70
     1
102
RTVSPost2010Prop33
280
     0
102
RTVSPost2010PropOp33
 70
     1
102
RTVSPost2010Prop34
280
     0
102
RTVSPost2010PropOp34
 70
     1
102
RTVSPost2010Prop35
280
     0
102
RTVSPost2010PropOp35
 70
     1
102
RTVSPost2010Prop36
280
     0
102
RTVSPost2010PropOp36
 70
     1
102
RTVSPost2010Prop37
 90
       50
102
RTVSPost2010PropOp37
 70
     1
102
RTVSPost2010Prop38
140
0.0
102
RTVSPost2010PropOp38
 70
     1
102
RTVSPost2010Prop39
140
1.0
102
RTVSPost2010PropOp39
 70
     1
102
RTVSPost2010Prop40
 90
        0
102
RTVSPost2010PropOp40
 70
     1
102
RTVSPost2010Prop41ColorIndex
 90
       18
102
RTVSPost2010Prop41ColorRGB
 90
        0
102
RTVSPost2010PropOp41
 70
     1
102
RTVSPost2010Prop42
 90
       50
102
RTVSPost2010PropOp42
 70
     1
102
RTVSPost2010Prop43
 90
        3
102
RTVSPost2010PropOp43
 70
     1
102
RTVSPost2010Prop44ColorIndex
 90
        5
102
RTVSPost2010Prop44ColorRGB
 90
      255
102
RTVSPost2010PropOp44
 70
     1
102
RTVSPost2010Prop45
280
     0
102
RTVSPost2010PropOp45
 70
     1
102
RTVSPost2010Prop46
 90
       50
102
RTVSPost2010PropOp46
 70
     1
102
RTVSPost2010Prop47
 90
       50
102
RTVSPost2010PropOp47
 70
     1
102
RTVSPost2010Prop48
 90
       50
102
RTVSPost2010PropOp48
 70
     1
102
RTVSPost2010Prop49
280
     0
102
RTVSPost2010PropOp49
 70
     1
102
RTVSPost2010Prop50
 90
       50
102
RTVSPost2010PropOp50
 70
     1
102
RTVSPost2010Prop51ColorIndex
 90
      256
102
RTVSPost2010Prop51ColorRGB
 90
-16777216
102
RTVSPost2010PropOp51
 70
     0
102
RTVSPost2010Prop52
140
1.0
102
RTVSPost2010PropOp52
 70
     0
102
RTVSPost2010Prop53
 90
        2
102
RTVSPost2010PropOp53
 70
     1
102
RTVSPost2010Prop54
  1
strokes_ogs.tif
102
RTVSPost2010PropOp54
 70
     1
102
RTVSPost2010Prop55
280
     0
102
RTVSPost2010PropOp55
 70
     1
102
RTVSPost2010Prop56
140
1.0
102
RTVSPost2010PropOp56
 70
     1
102
RTVSPost2010Prop57
140
1.0
102
RTVSPost2010PropOp57
 70
     1
  0
XRECORD
  5
1F4
102
{ACAD_REACTORS
330
1F3
102
}
330
1F3
100
AcDbXrecord
280
     1
102
RTVSPropertyOp0
 70
     1
102
RTVSPropertyOp1
 70
     1
102
RTVSPropertyOp2
 70
     1
102
RTVSPropertyOp3
 70
     1
102
RTVSPropertyOp4
 70
     1
102
RTVSPropertyOp5
 70
     1
102
RTVSPropertyOp6
 70
     1
102
RTVSPropertyOp7
 70
     1
102
RTVSPropertyOp8
 70
     1
102
RTVSPropertyOp9
 70
     1
102
RTVSPropertyOp10
 70
     1
102
RTVSPropertyOp11
 70
     1
102
RTVSPropertyOp12
 70
     1
102
RTVSPropertyOp13
 70
     1
102
RTVSPropertyOp14
 70
     1
102
RTVSPropertyOp15
 70
     1
102
RTVSPropertyOp16
 70
     1
102
RTVSPropertyOp17
 70
     1
102
RTVSPropertyOp18
 70
     1
102
RTVSPropertyOp19
 70
     1
102
RTVSPropertyOp20
 70
     1
102
RTVSPropertyOp21
 70
     1
102
RTVSPropertyOp22
 70
     1
102
RTVSPropertyOp23
 70
     1
102
RTVSPropertyOp24
 70
     1
102
RTVSPropertyOp25
 70
     1
102
RTVSPropertyOp26
 70
     1
102
RTVSPropertyOp27
 70
     1
102
RTVSPropertyOp28
 70
     1
102
RTVSPropertyOp29
 70
     1
102
RTVSPropertyOp30
 70
     1
102
RTVSPropertyOp31
 70
     1
102
RTVSPropertyOp32
 70
     1
102
RTVSPropertyOp33
 70
     1
102
RTVSPropertyOp34
 70
     1
102
RTVSPropertyOp35
 70
     1
102
RTVSPropertyOp36
 70
     1
102
RTVSPropertyOp37
 70
     1
102
RTVSPropertyOp38
 70
     1
102
RTVSPropertyOp39
 70
     1
102
RTVSPropertyOp40
 70
     1
102
RTVSPropertyOp41
 70
     1
102
RTVSPropertyOp42
 70
     1
102
RTVSPropertyOp43
 70
     1
102
RTVSPropertyOp44
 70
     1
102
RTVSPropertyOp45
 70
     1
102
RTVSPropertyOp46
 70
     1
102
RTVSPropertyOp47
 70
     1
102
RTVSPropertyOp48
 70
     1
102
RTVSPropertyOp49
 70
     1
102
RTVSPropertyOp50
 70
     1
102
RTVSPropertyOp51
 70
     0
102
RTVSPropertyOp52
 70
     0
102
RTVSPropertyOp53
 70
     1
102
RTVSPropertyOp54
 70
     1
102
RTVSPropertyOp55
 70
     1
102
RTVSPropertyOp56
 70
     1
102
RTVSPropertyOp57
 70
     1
102
RTVSPost2010Prop28
280
     0
102
RTVSPost2010PropOp28
 70
     1
102
RTVSPost2010Prop29
280
     1
102
RTVSPost2010PropOp29
 70
     1
102
RTVSPost2010Prop30
280
     1
102
RTVSPost2010PropOp30
 70
     1
102
RTVSPost2010Prop31
280
     0
102
RTVSPost2010PropOp31
 70
     1
102
RTVSPost2010Prop32
280
     0
102
RTVSPost2010PropOp32
 70
     1
102
RTVSPost2010Prop33
280
     0
102
RTVSPost2010PropOp33
 70
     1
102
RTVSPost2010Prop34
280
     0
102
RTVSPost2010PropOp34
 70
     1
102
RTVSPost2010Prop35
280
     0
102
RTVSPost2010PropOp35
 70
     1
102
RTVSPost2010Prop36
280
     0
102
RTVSPost2010PropOp36
 70
     1
102
RTVSPost2010Prop37
 90
       50
102
RTVSPost2010PropOp37
 70
     1
102
RTVSPost2010Prop38
140
0.0
102
RTVSPost2010PropOp38
 70
     1
102
RTVSPost2010Prop39
140
1.0
102
RTVSPost2010PropOp39
 70
     1
102
RTVSPost2010Prop40
 90
        0
102
RTVSPost2010PropOp40
 70
     1
102
RTVSPost2010Prop41ColorIndex
 90
       18
102
RTVSPost2010Prop41ColorRGB
 90
        0
102
RTVSPost2010PropOp41
 70
     1
102
RTVSPost2010Prop42
 90
       50
102
RTVSPost2010PropOp42
 70
     1
102
RTVSPost2010Prop43
 90
        3
102
RTVSPost2010PropOp43
 70
     1
102
RTVSPost2010Prop44ColorIndex
 90
        5
102
RTVSPost2010Prop44ColorRGB
 90
      255
102
RTVSPost2010PropOp44
 70
     1
102
RTVSPost2010Prop45
280
     0
102
RTVSPost2010PropOp45
 70
     1
102
RTVSPost2010Prop46
 90
       50
102
RTVSPost2010PropOp46
 70
     1
102
RTVSPost2010Prop47
 90
       50
102
RTVSPost2010PropOp47
 70
     1
102
RTVSPost2010Prop48
 90
       50
102
RTVSPost2010PropOp48
 70
     1
102
RTVSPost2010Prop49
280
     0
102
RTVSPost2010PropOp49
 70
     1
102
RTVSPost2010Prop50
 90
       50
102
RTVSPost2010PropOp50
 70
     1
102
RTVSPost2010Prop51ColorIndex
 90
      256
102
RTVSPost2010Prop51ColorRGB
 90
-16777216
102
RTVSPost2010PropOp51
 70
     0
102
RTVSPost2010Prop52
140
1.0
102
RTVSPost2010PropOp52
 70
     0
102
RTVSPost2010Prop53
 90
        2
102
RTVSPost2010PropOp53
 70
     1
102
RTVSPost2010Prop54
  1
strokes_ogs.tif
102
RTVSPost2010PropOp54
 70
     1
102
RTVSPost2010Prop55
280
     0
102
RTVSPost2010PropOp55
 70
     1
102
RTVSPost2010Prop56
140
1.0
102
RTVSPost2010PropOp56
 70
     1
102
RTVSPost2010Prop57
140
1.0
102
RTVSPost2010PropOp57
 70
     1
  0
XRECORD
  5
204
102
{ACAD_REACTORS
330
203
102
}
330
203
100
AcDbXrecord
280
     1
102
RTVSPropertyOp0
 70
     0
102
RTVSPropertyOp1
 70
     0
102
RTVSPropertyOp2
 70
     0
102
RTVSPropertyOp3
 70
     0
102
RTVSPropertyOp4
 70
     0
102
RTVSPropertyOp5
 70
     0
102
RTVSPropertyOp6
 70
     0
102
RTVSPropertyOp7
 70
     0
102
RTVSPropertyOp8
 70
     0
102
RTVSPropertyOp9
 70
     0
102
RTVSPropertyOp10
 70
     0
102
RTVSPropertyOp11
 70
     0
102
RTVSPropertyOp12
 70
     0
102
RTVSPropertyOp13
 70
     0
102
RTVSPropertyOp14
 70
     2
102
RTVSPropertyOp15
 70
     0
102
RTVSPropertyOp16
 70
     0
102
RTVSPropertyOp17
 70
     0
102
RTVSPropertyOp18
 70
     0
102
RTVSPropertyOp19
 70
     0
102
RTVSPropertyOp20
 70
     0
102
RTVSPropertyOp21
 70
     0
102
RTVSPropertyOp22
 70
     0
102
RTVSPropertyOp23
 70
     0
102
RTVSPropertyOp24
 70
     0
102
RTVSPropertyOp25
 70
     0
102
RTVSPropertyOp26
 70
     0
102
RTVSPropertyOp27
 70
     0
102
RTVSPropertyOp28
 70
     0
102
RTVSPropertyOp29
 70
     0
102
RTVSPropertyOp30
 70
     0
102
RTVSPropertyOp31
 70
     0
102
RTVSPropertyOp32
 70
     0
102
RTVSPropertyOp33
 70
     0
102
RTVSPropertyOp34
 70
     0
102
RTVSPropertyOp35
 70
     0
102
RTVSPropertyOp36
 70
     0
102
RTVSPropertyOp37
 70
     0
102
RTVSPropertyOp38
 70
     0
102
RTVSPropertyOp39
 70
     0
102
RTVSPropertyOp40
 70
     0
102
RTVSPropertyOp41
 70
     0
102
RTVSPropertyOp42
 70
     0
102
RTVSPropertyOp43
 70
     0
102
RTVSPropertyOp44
 70
     0
102
RTVSPropertyOp45
 70
     0
102
RTVSPropertyOp46
 70
     0
102
RTVSPropertyOp47
 70
     0
102
RTVSPropertyOp48
 70
     0
102
RTVSPropertyOp49
 70
     0
102
RTVSPropertyOp50
 70
     0
102
RTVSPropertyOp51
 70
     0
102
RTVSPropertyOp52
 70
     0
102
RTVSPropertyOp53
 70
     0
102
RTVSPropertyOp54
 70
     0
102
RTVSPropertyOp55
 70
     0
102
RTVSPropertyOp56
 70
     0
102
RTVSPropertyOp57
 70
     0
102
RTVSPost2010Prop28
280
     0
102
RTVSPost2010PropOp28
 70
     0
102
RTVSPost2010Prop29
280
     1
102
RTVSPost2010PropOp29
 70
     0
102
RTVSPost2010Prop30
280
     1
102
RTVSPost2010PropOp30
 70
     0
102
RTVSPost2010Prop31
280
     0
102
RTVSPost2010PropOp31
 70
     0
102
RTVSPost2010Prop32
280
     0
102
RTVSPost2010PropOp32
 70
     0
102
RTVSPost2010Prop33
280
     0
102
RTVSPost2010PropOp33
 70
     0
102
RTVSPost2010Prop34
280
     0
102
RTVSPost2010PropOp34
 70
     0
102
RTVSPost2010Prop35
280
     0
102
RTVSPost2010PropOp35
 70
     0
102
RTVSPost2010Prop36
280
     0
102
RTVSPost2010PropOp36
 70
     0
102
RTVSPost2010Prop37
 90
       50
102
RTVSPost2010PropOp37
 70
     0
102
RTVSPost2010Prop38
140
0.0
102
RTVSPost2010PropOp38
 70
     0
102
RTVSPost2010Prop39
140
1.0
102
RTVSPost2010PropOp39
 70
     0
102
RTVSPost2010Prop40
 90
        0
102
RTVSPost2010PropOp40
 70
     0
102
RTVSPost2010Prop41ColorIndex
 90
       18
102
RTVSPost2010Prop41ColorRGB
 90
        0
102
RTVSPost2010PropOp41
 70
     0
102
RTVSPost2010Prop42
 90
       50
102
RTVSPost2010PropOp42
 70
     0
102
RTVSPost2010Prop43
 90
        3
102
RTVSPost2010PropOp43
 70
     0
102
RTVSPost2010Prop44ColorIndex
 90
        5
102
RTVSPost2010Prop44ColorRGB
 90
      255
102
RTVSPost2010PropOp44
 70
     0
102
RTVSPost2010Prop45
280
     0
102
RTVSPost2010PropOp45
 70
     0
102
RTVSPost2010Prop46
 90
       50
102
RTVSPost2010PropOp46
 70
     0
102
RTVSPost2010Prop47
 90
       50
102
RTVSPost2010PropOp47
 70
     0
102
RTVSPost2010Prop48
 90
       50
102
RTVSPost2010PropOp48
 70
     0
102
RTVSPost2010Prop49
280
     0
102
RTVSPost2010PropOp49
 70
     0
102
RTVSPost2010Prop50
 90
       50
102
RTVSPost2010PropOp50
 70
     0
102
RTVSPost2010Prop51ColorIndex
 90
      256
102
RTVSPost2010Prop51ColorRGB
 90
-16777216
102
RTVSPost2010PropOp51
 70
     0
102
RTVSPost2010Prop52
140
1.0
102
RTVSPost2010PropOp52
 70
     0
102
RTVSPost2010Prop53
 90
        2
102
RTVSPost2010PropOp53
 70
     0
102
RTVSPost2010Prop54
  1
strokes_ogs.tif
102
RTVSPost2010PropOp54
 70
     0
102
RTVSPost2010Prop55
280
     0
102
RTVSPost2010PropOp55
 70
     0
102
RTVSPost2010Prop56
140
1.0
102
RTVSPost2010PropOp56
 70
     0
102
RTVSPost2010Prop57
140
1.0
102
RTVSPost2010PropOp57
 70
     0
  0
XRECORD
  5
1FC
102
{ACAD_REACTORS
330
1FB
102
}
330
1FB
100
AcDbXrecord
280
     1
102
RTVSPropertyOp0
 70
     1
102
RTVSPropertyOp1
 70
     1
102
RTVSPropertyOp2
 70
     1
102
RTVSPropertyOp3
 70
     1
102
RTVSPropertyOp4
 70
     1
102
RTVSPropertyOp5
 70
     1
102
RTVSPropertyOp6
 70
     1
102
RTVSPropertyOp7
 70
     1
102
RTVSPropertyOp8
 70
     1
102
RTVSPropertyOp9
 70
     1
102
RTVSPropertyOp10
 70
     1
102
RTVSPropertyOp11
 70
     1
102
RTVSPropertyOp12
 70
     1
102
RTVSPropertyOp13
 70
     1
102
RTVSPropertyOp14
 70
     1
102
RTVSPropertyOp15
 70
     1
102
RTVSPropertyOp16
 70
     1
102
RTVSPropertyOp17
 70
     1
102
RTVSPropertyOp18
 70
     1
102
RTVSPropertyOp19
 70
     1
102
RTVSPropertyOp20
 70
     1
102
RTVSPropertyOp21
 70
     1
102
RTVSPropertyOp22
 70
     1
102
RTVSPropertyOp23
 70
     1
102
RTVSPropertyOp24
 70
     1
102
RTVSPropertyOp25
 70
     1
102
RTVSPropertyOp26
 70
     1
102
RTVSPropertyOp27
 70
     1
102
RTVSPropertyOp28
 70
     1
102
RTVSPropertyOp29
 70
     1
102
RTVSPropertyOp30
 70
     1
102
RTVSPropertyOp31
 70
     1
102
RTVSPropertyOp32
 70
     1
102
RTVSPropertyOp33
 70
     1
102
RTVSPropertyOp34
 70
     1
102
RTVSPropertyOp35
 70
     1
102
RTVSPropertyOp36
 70
     1
102
RTVSPropertyOp37
 70
     1
102
RTVSPropertyOp38
 70
     1
102
RTVSPropertyOp39
 70
     1
102
RTVSPropertyOp40
 70
     1
102
RTVSPropertyOp41
 70
     1
102
RTVSPropertyOp42
 70
     1
102
RTVSPropertyOp43
 70
     1
102
RTVSPropertyOp44
 70
     1
102
RTVSPropertyOp45
 70
     1
102
RTVSPropertyOp46
 70
     1
102
RTVSPropertyOp47
 70
     1
102
RTVSPropertyOp48
 70
     1
102
RTVSPropertyOp49
 70
     1
102
RTVSPropertyOp50
 70
     1
102
RTVSPropertyOp51
 70
     0
102
RTVSPropertyOp52
 70
     0
102
RTVSPropertyOp53
 70
     1
102
RTVSPropertyOp54
 70
     1
102
RTVSPropertyOp55
 70
     1
102
RTVSPropertyOp56
 70
     1
102
RTVSPropertyOp57
 70
     1
102
RTVSPost2010Prop28
280
     0
102
RTVSPost2010PropOp28
 70
     1
102
RTVSPost2010Prop29
280
     1
102
RTVSPost2010PropOp29
 70
     1
102
RTVSPost2010Prop30
280
     1
102
RTVSPost2010PropOp30
 70
     1
102
RTVSPost2010Prop31
280
     0
102
RTVSPost2010PropOp31
 70
     1
102
RTVSPost2010Prop32
280
     0
102
RTVSPost2010PropOp32
 70
     1
102
RTVSPost2010Prop33
280
     0
102
RTVSPost2010PropOp33
 70
     1
102
RTVSPost2010Prop34
280
     0
102
RTVSPost2010PropOp34
 70
     1
102
RTVSPost2010Prop35
280
     0
102
RTVSPost2010PropOp35
 70
     1
102
RTVSPost2010Prop36
280
     0
102
RTVSPost2010PropOp36
 70
     1
102
RTVSPost2010Prop37
 90
       50
102
RTVSPost2010PropOp37
 70
     1
102
RTVSPost2010Prop38
140
0.0
102
RTVSPost2010PropOp38
 70
     1
102
RTVSPost2010Prop39
140
1.0
102
RTVSPost2010PropOp39
 70
     1
102
RTVSPost2010Prop40
 90
        0
102
RTVSPost2010PropOp40
 70
     1
102
RTVSPost2010Prop41ColorIndex
 90
       18
102
RTVSPost2010Prop41ColorRGB
 90
        0
102
RTVSPost2010PropOp41
 70
     1
102
RTVSPost2010Prop42
 90
       50
102
RTVSPost2010PropOp42
 70
     1
102
RTVSPost2010Prop43
 90
        3
102
RTVSPost2010PropOp43
 70
     1
102
RTVSPost2010Prop44ColorIndex
 90
        5
102
RTVSPost2010Prop44ColorRGB
 90
      255
102
RTVSPost2010PropOp44
 70
     1
102
RTVSPost2010Prop45
280
     0
102
RTVSPost2010PropOp45
 70
     1
102
RTVSPost2010Prop46
 90
       50
102
RTVSPost2010PropOp46
 70
     1
102
RTVSPost2010Prop47
 90
       50
102
RTVSPost2010PropOp47
 70
     1
102
RTVSPost2010Prop48
 90
       50
102
RTVSPost2010PropOp48
 70
     1
102
RTVSPost2010Prop49
280
     0
102
RTVSPost2010PropOp49
 70
     1
102
RTVSPost2010Prop50
 90
       50
102
RTVSPost2010PropOp50
 70
     1
102
RTVSPost2010Prop51ColorIndex
 90
      256
102
RTVSPost2010Prop51ColorRGB
 90
-16777216
102
RTVSPost2010PropOp51
 70
     0
102
RTVSPost2010Prop52
140
1.0
102
RTVSPost2010PropOp52
 70
     0
102
RTVSPost2010Prop53
 90
        2
102
RTVSPost2010PropOp53
 70
     1
102
RTVSPost2010Prop54
  1
strokes_ogs.tif
102
RTVSPost2010PropOp54
 70
     1
102
RTVSPost2010Prop55
280
     0
102
RTVSPost2010PropOp55
 70
     1
102
RTVSPost2010Prop56
140
1.0
102
RTVSPost2010PropOp56
 70
     1
102
RTVSPost2010Prop57
140
1.0
102
RTVSPost2010PropOp57
 70
     1
  0
XRECORD
  5
1E0
102
{ACAD_REACTORS
330
1DF
102
}
330
1DF
100
AcDbXrecord
280
     1
102
RTVSPropertyOp0
 70
     1
102
RTVSPropertyOp1
 70
     1
102
RTVSPropertyOp2
 70
     1
102
RTVSPropertyOp3
 70
     1
102
RTVSPropertyOp4
 70
     1
102
RTVSPropertyOp5
 70
     1
102
RTVSPropertyOp6
 70
     1
102
RTVSPropertyOp7
 70
     1
102
RTVSPropertyOp8
 70
     1
102
RTVSPropertyOp9
 70
     1
102
RTVSPropertyOp10
 70
     1
102
RTVSPropertyOp11
 70
     1
102
RTVSPropertyOp12
 70
     1
102
RTVSPropertyOp13
 70
     1
102
RTVSPropertyOp14
 70
     1
102
RTVSPropertyOp15
 70
     1
102
RTVSPropertyOp16
 70
     1
102
RTVSPropertyOp17
 70
     1
102
RTVSPropertyOp18
 70
     1
102
RTVSPropertyOp19
 70
     1
102
RTVSPropertyOp20
 70
     1
102
RTVSPropertyOp21
 70
     1
102
RTVSPropertyOp22
 70
     1
102
RTVSPropertyOp23
 70
     1
102
RTVSPropertyOp24
 70
     1
102
RTVSPropertyOp25
 70
     1
102
RTVSPropertyOp26
 70
     1
102
RTVSPropertyOp27
 70
     1
102
RTVSPropertyOp28
 70
     1
102
RTVSPropertyOp29
 70
     1
102
RTVSPropertyOp30
 70
     1
102
RTVSPropertyOp31
 70
     1
102
RTVSPropertyOp32
 70
     1
102
RTVSPropertyOp33
 70
     1
102
RTVSPropertyOp34
 70
     1
102
RTVSPropertyOp35
 70
     1
102
RTVSPropertyOp36
 70
     1
102
RTVSPropertyOp37
 70
     1
102
RTVSPropertyOp38
 70
     1
102
RTVSPropertyOp39
 70
     1
102
RTVSPropertyOp40
 70
     1
102
RTVSPropertyOp41
 70
     1
102
RTVSPropertyOp42
 70
     1
102
RTVSPropertyOp43
 70
     1
102
RTVSPropertyOp44
 70
     1
102
RTVSPropertyOp45
 70
     1
102
RTVSPropertyOp46
 70
     1
102
RTVSPropertyOp47
 70
     1
102
RTVSPropertyOp48
 70
     1
102
RTVSPropertyOp49
 70
     1
102
RTVSPropertyOp50
 70
     1
102
RTVSPropertyOp51
 70
     0
102
RTVSPropertyOp52
 70
     0
102
RTVSPropertyOp53
 70
     1
102
RTVSPropertyOp54
 70
     1
102
RTVSPropertyOp55
 70
     1
102
RTVSPropertyOp56
 70
     1
102
RTVSPropertyOp57
 70
     1
102
RTVSPost2010Prop28
280
     0
102
RTVSPost2010PropOp28
 70
     1
102
RTVSPost2010Prop29
280
     1
102
RTVSPost2010PropOp29
 70
     1
102
RTVSPost2010Prop30
280
     1
102
RTVSPost2010PropOp30
 70
     1
102
RTVSPost2010Prop31
280
     0
102
RTVSPost2010PropOp31
 70
     1
102
RTVSPost2010Prop32
280
     0
102
RTVSPost2010PropOp32
 70
     1
102
RTVSPost2010Prop33
280
     0
102
RTVSPost2010PropOp33
 70
     1
102
RTVSPost2010Prop34
280
     0
102
RTVSPost2010PropOp34
 70
     1
102
RTVSPost2010Prop35
280
     0
102
RTVSPost2010PropOp35
 70
     1
102
RTVSPost2010Prop36
280
     0
102
RTVSPost2010PropOp36
 70
     1
102
RTVSPost2010Prop37
 90
       50
102
RTVSPost2010PropOp37
 70
     1
102
RTVSPost2010Prop38
140
0.0
102
RTVSPost2010PropOp38
 70
     1
102
RTVSPost2010Prop39
140
1.0
102
RTVSPost2010PropOp39
 70
     1
102
RTVSPost2010Prop40
 90
        0
102
RTVSPost2010PropOp40
 70
     1
102
RTVSPost2010Prop41ColorIndex
 90
       18
102
RTVSPost2010Prop41ColorRGB
 90
        0
102
RTVSPost2010PropOp41
 70
     1
102
RTVSPost2010Prop42
 90
       50
102
RTVSPost2010PropOp42
 70
     1
102
RTVSPost2010Prop43
 90
        3
102
RTVSPost2010PropOp43
 70
     1
102
RTVSPost2010Prop44ColorIndex
 90
        5
102
RTVSPost2010Prop44ColorRGB
 90
      255
102
RTVSPost2010PropOp44
 70
     1
102
RTVSPost2010Prop45
280
     0
102
RTVSPost2010PropOp45
 70
     1
102
RTVSPost2010Prop46
 90
       50
102
RTVSPost2010PropOp46
 70
     1
102
RTVSPost2010Prop47
 90
       50
102
RTVSPost2010PropOp47
 70
     1
102
RTVSPost2010Prop48
 90
       50
102
RTVSPost2010PropOp48
 70
     1
102
RTVSPost2010Prop49
280
     0
102
RTVSPost2010PropOp49
 70
     1
102
RTVSPost2010Prop50
 90
       50
102
RTVSPost2010PropOp50
 70
     1
102
RTVSPost2010Prop51ColorIndex
 90
      256
102
RTVSPost2010Prop51ColorRGB
 90
-16777216
102
RTVSPost2010PropOp51
 70
     0
102
RTVSPost2010Prop52
140
1.0
102
RTVSPost2010PropOp52
 70
     0
102
RTVSPost2010Prop53
 90
        2
102
RTVSPost2010PropOp53
 70
     1
102
RTVSPost2010Prop54
  1
strokes_ogs.tif
102
RTVSPost2010PropOp54
 70
     1
102
RTVSPost2010Prop55
280
     0
102
RTVSPost2010PropOp55
 70
     1
102
RTVSPost2010Prop56
140
1.0
102
RTVSPost2010PropOp56
 70
     1
102
RTVSPost2010Prop57
140
1.0
102
RTVSPost2010PropOp57
 70
     1
  0
XRECORD
  5
1E2
102
{ACAD_REACTORS
330
1E1
102
}
330
1E1
100
AcDbXrecord
280
     1
102
RTVSPropertyOp0
 70
     1
102
RTVSPropertyOp1
 70
     1
102
RTVSPropertyOp2
 70
     1
102
RTVSPropertyOp3
 70
     1
102
RTVSPropertyOp4
 70
     1
102
RTVSPropertyOp5
 70
     1
102
RTVSPropertyOp6
 70
     1
102
RTVSPropertyOp7
 70
     1
102
RTVSPropertyOp8
 70
     1
102
RTVSPropertyOp9
 70
     1
102
RTVSPropertyOp10
 70
     1
102
RTVSPropertyOp11
 70
     1
102
RTVSPropertyOp12
 70
     1
102
RTVSPropertyOp13
 70
     1
102
RTVSPropertyOp14
 70
     1
102
RTVSPropertyOp15
 70
     1
102
RTVSPropertyOp16
 70
     1
102
RTVSPropertyOp17
 70
     1
102
RTVSPropertyOp18
 70
     1
102
RTVSPropertyOp19
 70
     1
102
RTVSPropertyOp20
 70
     1
102
RTVSPropertyOp21
 70
     1
102
RTVSPropertyOp22
 70
     1
102
RTVSPropertyOp23
 70
     1
102
RTVSPropertyOp24
 70
     1
102
RTVSPropertyOp25
 70
     1
102
RTVSPropertyOp26
 70
     1
102
RTVSPropertyOp27
 70
     1
102
RTVSPropertyOp28
 70
     1
102
RTVSPropertyOp29
 70
     1
102
RTVSPropertyOp30
 70
     1
102
RTVSPropertyOp31
 70
     1
102
RTVSPropertyOp32
 70
     1
102
RTVSPropertyOp33
 70
     1
102
RTVSPropertyOp34
 70
     1
102
RTVSPropertyOp35
 70
     1
102
RTVSPropertyOp36
 70
     1
102
RTVSPropertyOp37
 70
     1
102
RTVSPropertyOp38
 70
     1
102
RTVSPropertyOp39
 70
     1
102
RTVSPropertyOp40
 70
     1
102
RTVSPropertyOp41
 70
     1
102
RTVSPropertyOp42
 70
     1
102
RTVSPropertyOp43
 70
     1
102
RTVSPropertyOp44
 70
     1
102
RTVSPropertyOp45
 70
     1
102
RTVSPropertyOp46
 70
     1
102
RTVSPropertyOp47
 70
     1
102
RTVSPropertyOp48
 70
     1
102
RTVSPropertyOp49
 70
     1
102
RTVSPropertyOp50
 70
     1
102
RTVSPropertyOp51
 70
     0
102
RTVSPropertyOp52
 70
     0
102
RTVSPropertyOp53
 70
     1
102
RTVSPropertyOp54
 70
     1
102
RTVSPropertyOp55
 70
     1
102
RTVSPropertyOp56
 70
     1
102
RTVSPropertyOp57
 70
     1
102
RTVSPost2010Prop28
280
     0
102
RTVSPost2010PropOp28
 70
     1
102
RTVSPost2010Prop29
280
     1
102
RTVSPost2010PropOp29
 70
     1
102
RTVSPost2010Prop30
280
     1
102
RTVSPost2010PropOp30
 70
     1
102
RTVSPost2010Prop31
280
     0
102
RTVSPost2010PropOp31
 70
     1
102
RTVSPost2010Prop32
280
     0
102
RTVSPost2010PropOp32
 70
     1
102
RTVSPost2010Prop33
280
     0
102
RTVSPost2010PropOp33
 70
     1
102
RTVSPost2010Prop34
280
     0
102
RTVSPost2010PropOp34
 70
     1
102
RTVSPost2010Prop35
280
     0
102
RTVSPost2010PropOp35
 70
     1
102
RTVSPost2010Prop36
280
     0
102
RTVSPost2010PropOp36
 70
     1
102
RTVSPost2010Prop37
 90
       50
102
RTVSPost2010PropOp37
 70
     1
102
RTVSPost2010Prop38
140
0.0
102
RTVSPost2010PropOp38
 70
     1
102
RTVSPost2010Prop39
140
1.0
102
RTVSPost2010PropOp39
 70
     1
102
RTVSPost2010Prop40
 90
        0
102
RTVSPost2010PropOp40
 70
     1
102
RTVSPost2010Prop41ColorIndex
 90
       18
102
RTVSPost2010Prop41ColorRGB
 90
        0
102
RTVSPost2010PropOp41
 70
     1
102
RTVSPost2010Prop42
 90
       50
102
RTVSPost2010PropOp42
 70
     1
102
RTVSPost2010Prop43
 90
        3
102
RTVSPost2010PropOp43
 70
     1
102
RTVSPost2010Prop44ColorIndex
 90
        5
102
RTVSPost2010Prop44ColorRGB
 90
      255
102
RTVSPost2010PropOp44
 70
     1
102
RTVSPost2010Prop45
280
     0
102
RTVSPost2010PropOp45
 70
     1
102
RTVSPost2010Prop46
 90
       50
102
RTVSPost2010PropOp46
 70
     1
102
RTVSPost2010Prop47
 90
       50
102
RTVSPost2010PropOp47
 70
     1
102
RTVSPost2010Prop48
 90
       50
102
RTVSPost2010PropOp48
 70
     1
102
RTVSPost2010Prop49
280
     0
102
RTVSPost2010PropOp49
 70
     1
102
RTVSPost2010Prop50
 90
       50
102
RTVSPost2010PropOp50
 70
     1
102
RTVSPost2010Prop51ColorIndex
 90
      256
102
RTVSPost2010Prop51ColorRGB
 90
-16777216
102
RTVSPost2010PropOp51
 70
     0
102
RTVSPost2010Prop52
140
1.0
102
RTVSPost2010PropOp52
 70
     0
102
RTVSPost2010Prop53
 90
        2
102
RTVSPost2010PropOp53
 70
     1
102
RTVSPost2010Prop54
  1
strokes_ogs.tif
102
RTVSPost2010PropOp54
 70
     1
102
RTVSPost2010Prop55
280
     0
102
RTVSPost2010PropOp55
 70
     1
102
RTVSPost2010Prop56
140
1.0
102
RTVSPost2010PropOp56
 70
     1
102
RTVSPost2010Prop57
140
1.0
102
RTVSPost2010PropOp57
 70
     1
  0
XRECORD
  5
1E4
102
{ACAD_REACTORS
330
1E3
102
}
330
1E3
100
AcDbXrecord
280
     1
102
RTVSPropertyOp0
 70
     1
102
RTVSPropertyOp1
 70
     1
102
RTVSPropertyOp2
 70
     1
102
RTVSPropertyOp3
 70
     1
102
RTVSPropertyOp4
 70
     1
102
RTVSPropertyOp5
 70
     1
102
RTVSPropertyOp6
 70
     1
102
RTVSPropertyOp7
 70
     1
102
RTVSPropertyOp8
 70
     1
102
RTVSPropertyOp9
 70
     1
102
RTVSPropertyOp10
 70
     1
102
RTVSPropertyOp11
 70
     1
102
RTVSPropertyOp12
 70
     1
102
RTVSPropertyOp13
 70
     1
102
RTVSPropertyOp14
 70
     1
102
RTVSPropertyOp15
 70
     1
102
RTVSPropertyOp16
 70
     1
102
RTVSPropertyOp17
 70
     1
102
RTVSPropertyOp18
 70
     1
102
RTVSPropertyOp19
 70
     1
102
RTVSPropertyOp20
 70
     1
102
RTVSPropertyOp21
 70
     1
102
RTVSPropertyOp22
 70
     1
102
RTVSPropertyOp23
 70
     1
102
RTVSPropertyOp24
 70
     1
102
RTVSPropertyOp25
 70
     1
102
RTVSPropertyOp26
 70
     1
102
RTVSPropertyOp27
 70
     1
102
RTVSPropertyOp28
 70
     1
102
RTVSPropertyOp29
 70
     1
102
RTVSPropertyOp30
 70
     1
102
RTVSPropertyOp31
 70
     1
102
RTVSPropertyOp32
 70
     1
102
RTVSPropertyOp33
 70
     1
102
RTVSPropertyOp34
 70
     1
102
RTVSPropertyOp35
 70
     1
102
RTVSPropertyOp36
 70
     1
102
RTVSPropertyOp37
 70
     1
102
RTVSPropertyOp38
 70
     1
102
RTVSPropertyOp39
 70
     1
102
RTVSPropertyOp40
 70
     1
102
RTVSPropertyOp41
 70
     1
102
RTVSPropertyOp42
 70
     1
102
RTVSPropertyOp43
 70
     1
102
RTVSPropertyOp44
 70
     1
102
RTVSPropertyOp45
 70
     1
102
RTVSPropertyOp46
 70
     1
102
RTVSPropertyOp47
 70
     1
102
RTVSPropertyOp48
 70
     1
102
RTVSPropertyOp49
 70
     1
102
RTVSPropertyOp50
 70
     1
102
RTVSPropertyOp51
 70
     0
102
RTVSPropertyOp52
 70
     0
102
RTVSPropertyOp53
 70
     1
102
RTVSPropertyOp54
 70
     1
102
RTVSPropertyOp55
 70
     1
102
RTVSPropertyOp56
 70
     1
102
RTVSPropertyOp57
 70
     1
102
RTVSPost2010Prop28
280
     0
102
RTVSPost2010PropOp28
 70
     1
102
RTVSPost2010Prop29
280
     1
102
RTVSPost2010PropOp29
 70
     1
102
RTVSPost2010Prop30
280
     1
102
RTVSPost2010PropOp30
 70
     1
102
RTVSPost2010Prop31
280
     0
102
RTVSPost2010PropOp31
 70
     1
102
RTVSPost2010Prop32
280
     0
102
RTVSPost2010PropOp32
 70
     1
102
RTVSPost2010Prop33
280
     0
102
RTVSPost2010PropOp33
 70
     1
102
RTVSPost2010Prop34
280
     0
102
RTVSPost2010PropOp34
 70
     1
102
RTVSPost2010Prop35
280
     0
102
RTVSPost2010PropOp35
 70
     1
102
RTVSPost2010Prop36
280
     0
102
RTVSPost2010PropOp36
 70
     1
102
RTVSPost2010Prop37
 90
       50
102
RTVSPost2010PropOp37
 70
     1
102
RTVSPost2010Prop38
140
0.0
102
RTVSPost2010PropOp38
 70
     1
102
RTVSPost2010Prop39
140
1.0
102
RTVSPost2010PropOp39
 70
     1
102
RTVSPost2010Prop40
 90
        0
102
RTVSPost2010PropOp40
 70
     1
102
RTVSPost2010Prop41ColorIndex
 90
       18
102
RTVSPost2010Prop41ColorRGB
 90
        0
102
RTVSPost2010PropOp41
 70
     1
102
RTVSPost2010Prop42
 90
       50
102
RTVSPost2010PropOp42
 70
     1
102
RTVSPost2010Prop43
 90
        3
102
RTVSPost2010PropOp43
 70
     1
102
RTVSPost2010Prop44ColorIndex
 90
        5
102
RTVSPost2010Prop44ColorRGB
 90
      255
102
RTVSPost2010PropOp44
 70
     1
102
RTVSPost2010Prop45
280
     0
102
RTVSPost2010PropOp45
 70
     1
102
RTVSPost2010Prop46
 90
       50
102
RTVSPost2010PropOp46
 70
     1
102
RTVSPost2010Prop47
 90
       50
102
RTVSPost2010PropOp47
 70
     1
102
RTVSPost2010Prop48
 90
       50
102
RTVSPost2010PropOp48
 70
     1
102
RTVSPost2010Prop49
280
     0
102
RTVSPost2010PropOp49
 70
     1
102
RTVSPost2010Prop50
 90
       50
102
RTVSPost2010PropOp50
 70
     1
102
RTVSPost2010Prop51ColorIndex
 90
      256
102
RTVSPost2010Prop51ColorRGB
 90
-16777216
102
RTVSPost2010PropOp51
 70
     0
102
RTVSPost2010Prop52
140
1.0
102
RTVSPost2010PropOp52
 70
     0
102
RTVSPost2010Prop53
 90
        2
102
RTVSPost2010PropOp53
 70
     1
102
RTVSPost2010Prop54
  1
strokes_ogs.tif
102
RTVSPost2010PropOp54
 70
     1
102
RTVSPost2010Prop55
280
     0
102
RTVSPost2010PropOp55
 70
     1
102
RTVSPost2010Prop56
140
1.0
102
RTVSPost2010PropOp56
 70
     1
102
RTVSPost2010Prop57
140
1.0
102
RTVSPost2010PropOp57
 70
     1
  0
XRECORD
  5
1E6
102
{ACAD_REACTORS
330
1E5
102
}
330
1E5
100
AcDbXrecord
280
     1
102
RTVSPropertyOp0
 70
     1
102
RTVSPropertyOp1
 70
     1
102
RTVSPropertyOp2
 70
     1
102
RTVSPropertyOp3
 70
     1
102
RTVSPropertyOp4
 70
     1
102
RTVSPropertyOp5
 70
     1
102
RTVSPropertyOp6
 70
     1
102
RTVSPropertyOp7
 70
     1
102
RTVSPropertyOp8
 70
     1
102
RTVSPropertyOp9
 70
     1
102
RTVSPropertyOp10
 70
     1
102
RTVSPropertyOp11
 70
     1
102
RTVSPropertyOp12
 70
     1
102
RTVSPropertyOp13
 70
     1
102
RTVSPropertyOp14
 70
     1
102
RTVSPropertyOp15
 70
     1
102
RTVSPropertyOp16
 70
     1
102
RTVSPropertyOp17
 70
     1
102
RTVSPropertyOp18
 70
     1
102
RTVSPropertyOp19
 70
     1
102
RTVSPropertyOp20
 70
     1
102
RTVSPropertyOp21
 70
     1
102
RTVSPropertyOp22
 70
     1
102
RTVSPropertyOp23
 70
     1
102
RTVSPropertyOp24
 70
     1
102
RTVSPropertyOp25
 70
     1
102
RTVSPropertyOp26
 70
     1
102
RTVSPropertyOp27
 70
     1
102
RTVSPropertyOp28
 70
     1
102
RTVSPropertyOp29
 70
     1
102
RTVSPropertyOp30
 70
     1
102
RTVSPropertyOp31
 70
     1
102
RTVSPropertyOp32
 70
     1
102
RTVSPropertyOp33
 70
     1
102
RTVSPropertyOp34
 70
     1
102
RTVSPropertyOp35
 70
     1
102
RTVSPropertyOp36
 70
     1
102
RTVSPropertyOp37
 70
     1
102
RTVSPropertyOp38
 70
     1
102
RTVSPropertyOp39
 70
     1
102
RTVSPropertyOp40
 70
     1
102
RTVSPropertyOp41
 70
     1
102
RTVSPropertyOp42
 70
     1
102
RTVSPropertyOp43
 70
     1
102
RTVSPropertyOp44
 70
     1
102
RTVSPropertyOp45
 70
     1
102
RTVSPropertyOp46
 70
     1
102
RTVSPropertyOp47
 70
     1
102
RTVSPropertyOp48
 70
     1
102
RTVSPropertyOp49
 70
     1
102
RTVSPropertyOp50
 70
     1
102
RTVSPropertyOp51
 70
     0
102
RTVSPropertyOp52
 70
     0
102
RTVSPropertyOp53
 70
     1
102
RTVSPropertyOp54
 70
     1
102
RTVSPropertyOp55
 70
     1
102
RTVSPropertyOp56
 70
     1
102
RTVSPropertyOp57
 70
     1
102
RTVSPost2010Prop28
280
     0
102
RTVSPost2010PropOp28
 70
     1
102
RTVSPost2010Prop29
280
     1
102
RTVSPost2010PropOp29
 70
     1
102
RTVSPost2010Prop30
280
     1
102
RTVSPost2010PropOp30
 70
     1
102
RTVSPost2010Prop31
280
     0
102
RTVSPost2010PropOp31
 70
     1
102
RTVSPost2010Prop32
280
     0
102
RTVSPost2010PropOp32
 70
     1
102
RTVSPost2010Prop33
280
     0
102
RTVSPost2010PropOp33
 70
     1
102
RTVSPost2010Prop34
280
     0
102
RTVSPost2010PropOp34
 70
     1
102
RTVSPost2010Prop35
280
     0
102
RTVSPost2010PropOp35
 70
     1
102
RTVSPost2010Prop36
280
     0
102
RTVSPost2010PropOp36
 70
     1
102
RTVSPost2010Prop37
 90
       50
102
RTVSPost2010PropOp37
 70
     1
102
RTVSPost2010Prop38
140
0.0
102
RTVSPost2010PropOp38
 70
     1
102
RTVSPost2010Prop39
140
1.0
102
RTVSPost2010PropOp39
 70
     1
102
RTVSPost2010Prop40
 90
        0
102
RTVSPost2010PropOp40
 70
     1
102
RTVSPost2010Prop41ColorIndex
 90
       18
102
RTVSPost2010Prop41ColorRGB
 90
        0
102
RTVSPost2010PropOp41
 70
     1
102
RTVSPost2010Prop42
 90
       50
102
RTVSPost2010PropOp42
 70
     1
102
RTVSPost2010Prop43
 90
        3
102
RTVSPost2010PropOp43
 70
     1
102
RTVSPost2010Prop44ColorIndex
 90
        5
102
RTVSPost2010Prop44ColorRGB
 90
      255
102
RTVSPost2010PropOp44
 70
     1
102
RTVSPost2010Prop45
280
     0
102
RTVSPost2010PropOp45
 70
     1
102
RTVSPost2010Prop46
 90
       50
102
RTVSPost2010PropOp46
 70
     1
102
RTVSPost2010Prop47
 90
       50
102
RTVSPost2010PropOp47
 70
     1
102
RTVSPost2010Prop48
 90
       50
102
RTVSPost2010PropOp48
 70
     1
102
RTVSPost2010Prop49
280
     0
102
RTVSPost2010PropOp49
 70
     1
102
RTVSPost2010Prop50
 90
       50
102
RTVSPost2010PropOp50
 70
     1
102
RTVSPost2010Prop51ColorIndex
 90
      256
102
RTVSPost2010Prop51ColorRGB
 90
-16777216
102
RTVSPost2010PropOp51
 70
     0
102
RTVSPost2010Prop52
140
1.0
102
RTVSPost2010PropOp52
 70
     0
102
RTVSPost2010Prop53
 90
        2
102
RTVSPost2010PropOp53
 70
     1
102
RTVSPost2010Prop54
  1
strokes_ogs.tif
102
RTVSPost2010PropOp54
 70
     1
102
RTVSPost2010Prop55
280
     0
102
RTVSPost2010PropOp55
 70
     1
102
RTVSPost2010Prop56
140
1.0
102
RTVSPost2010PropOp56
 70
     1
102
RTVSPost2010Prop57
140
1.0
102
RTVSPost2010PropOp57
 70
     1
  0
XRECORD
  5
1EC
102
{ACAD_REACTORS
330
1EB
102
}
330
1EB
100
AcDbXrecord
280
     1
102
RTVSPropertyOp0
 70
     1
102
RTVSPropertyOp1
 70
     1
102
RTVSPropertyOp2
 70
     1
102
RTVSPropertyOp3
 70
     1
102
RTVSPropertyOp4
 70
     1
102
RTVSPropertyOp5
 70
     1
102
RTVSPropertyOp6
 70
     1
102
RTVSPropertyOp7
 70
     1
102
RTVSPropertyOp8
 70
     1
102
RTVSPropertyOp9
 70
     1
102
RTVSPropertyOp10
 70
     1
102
RTVSPropertyOp11
 70
     1
102
RTVSPropertyOp12
 70
     1
102
RTVSPropertyOp13
 70
     1
102
RTVSPropertyOp14
 70
     1
102
RTVSPropertyOp15
 70
     1
102
RTVSPropertyOp16
 70
     1
102
RTVSPropertyOp17
 70
     1
102
RTVSPropertyOp18
 70
     1
102
RTVSPropertyOp19
 70
     1
102
RTVSPropertyOp20
 70
     1
102
RTVSPropertyOp21
 70
     1
102
RTVSPropertyOp22
 70
     1
102
RTVSPropertyOp23
 70
     1
102
RTVSPropertyOp24
 70
     1
102
RTVSPropertyOp25
 70
     1
102
RTVSPropertyOp26
 70
     1
102
RTVSPropertyOp27
 70
     1
102
RTVSPropertyOp28
 70
     1
102
RTVSPropertyOp29
 70
     1
102
RTVSPropertyOp30
 70
     1
102
RTVSPropertyOp31
 70
     1
102
RTVSPropertyOp32
 70
     1
102
RTVSPropertyOp33
 70
     1
102
RTVSPropertyOp34
 70
     1
102
RTVSPropertyOp35
 70
     1
102
RTVSPropertyOp36
 70
     1
102
RTVSPropertyOp37
 70
     1
102
RTVSPropertyOp38
 70
     1
102
RTVSPropertyOp39
 70
     1
102
RTVSPropertyOp40
 70
     1
102
RTVSPropertyOp41
 70
     1
102
RTVSPropertyOp42
 70
     1
102
RTVSPropertyOp43
 70
     1
102
RTVSPropertyOp44
 70
     1
102
RTVSPropertyOp45
 70
     1
102
RTVSPropertyOp46
 70
     1
102
RTVSPropertyOp47
 70
     1
102
RTVSPropertyOp48
 70
     1
102
RTVSPropertyOp49
 70
     1
102
RTVSPropertyOp50
 70
     1
102
RTVSPropertyOp51
 70
     0
102
RTVSPropertyOp52
 70
     0
102
RTVSPropertyOp53
 70
     1
102
RTVSPropertyOp54
 70
     1
102
RTVSPropertyOp55
 70
     1
102
RTVSPropertyOp56
 70
     1
102
RTVSPropertyOp57
 70
     1
102
RTVSPost2010Prop28
280
     0
102
RTVSPost2010PropOp28
 70
     1
102
RTVSPost2010Prop29
280
     1
102
RTVSPost2010PropOp29
 70
     1
102
RTVSPost2010Prop30
280
     1
102
RTVSPost2010PropOp30
 70
     1
102
RTVSPost2010Prop31
280
     0
102
RTVSPost2010PropOp31
 70
     1
102
RTVSPost2010Prop32
280
     0
102
RTVSPost2010PropOp32
 70
     1
102
RTVSPost2010Prop33
280
     0
102
RTVSPost2010PropOp33
 70
     1
102
RTVSPost2010Prop34
280
     0
102
RTVSPost2010PropOp34
 70
     1
102
RTVSPost2010Prop35
280
     0
102
RTVSPost2010PropOp35
 70
     1
102
RTVSPost2010Prop36
280
     0
102
RTVSPost2010PropOp36
 70
     1
102
RTVSPost2010Prop37
 90
       50
102
RTVSPost2010PropOp37
 70
     1
102
RTVSPost2010Prop38
140
0.0
102
RTVSPost2010PropOp38
 70
     1
102
RTVSPost2010Prop39
140
1.0
102
RTVSPost2010PropOp39
 70
     1
102
RTVSPost2010Prop40
 90
        0
102
RTVSPost2010PropOp40
 70
     1
102
RTVSPost2010Prop41ColorIndex
 90
       18
102
RTVSPost2010Prop41ColorRGB
 90
        0
102
RTVSPost2010PropOp41
 70
     1
102
RTVSPost2010Prop42
 90
       50
102
RTVSPost2010PropOp42
 70
     1
102
RTVSPost2010Prop43
 90
        3
102
RTVSPost2010PropOp43
 70
     1
102
RTVSPost2010Prop44ColorIndex
 90
        5
102
RTVSPost2010Prop44ColorRGB
 90
      255
102
RTVSPost2010PropOp44
 70
     1
102
RTVSPost2010Prop45
280
     0
102
RTVSPost2010PropOp45
 70
     1
102
RTVSPost2010Prop46
 90
       50
102
RTVSPost2010PropOp46
 70
     1
102
RTVSPost2010Prop47
 90
       50
102
RTVSPost2010PropOp47
 70
     1
102
RTVSPost2010Prop48
 90
       50
102
RTVSPost2010PropOp48
 70
     1
102
RTVSPost2010Prop49
280
     0
102
RTVSPost2010PropOp49
 70
     1
102
RTVSPost2010Prop50
 90
       50
102
RTVSPost2010PropOp50
 70
     1
102
RTVSPost2010Prop51ColorIndex
 90
      256
102
RTVSPost2010Prop51ColorRGB
 90
-16777216
102
RTVSPost2010PropOp51
 70
     0
102
RTVSPost2010Prop52
140
1.0
102
RTVSPost2010PropOp52
 70
     0
102
RTVSPost2010Prop53
 90
        2
102
RTVSPost2010PropOp53
 70
     1
102
RTVSPost2010Prop54
  1
strokes_ogs.tif
102
RTVSPost2010PropOp54
 70
     1
102
RTVSPost2010Prop55
280
     0
102
RTVSPost2010PropOp55
 70
     1
102
RTVSPost2010Prop56
140
1.0
102
RTVSPost2010PropOp56
 70
     1
102
RTVSPost2010Prop57
140
1.0
102
RTVSPost2010PropOp57
 70
     1
  0
XRECORD
  5
200
102
{ACAD_REACTORS
330
1FF
102
}
330
1FF
100
AcDbXrecord
280
     1
102
RTVSPropertyOp0
 70
     0
102
RTVSPropertyOp1
 70
     0
102
RTVSPropertyOp2
 70
     0
102
RTVSPropertyOp3
 70
     0
102
RTVSPropertyOp4
 70
     0
102
RTVSPropertyOp5
 70
     0
102
RTVSPropertyOp6
 70
     0
102
RTVSPropertyOp7
 70
     0
102
RTVSPropertyOp8
 70
     0
102
RTVSPropertyOp9
 70
     0
102
RTVSPropertyOp10
 70
     0
102
RTVSPropertyOp11
 70
     0
102
RTVSPropertyOp12
 70
     0
102
RTVSPropertyOp13
 70
     0
102
RTVSPropertyOp14
 70
     2
102
RTVSPropertyOp15
 70
     0
102
RTVSPropertyOp16
 70
     0
102
RTVSPropertyOp17
 70
     0
102
RTVSPropertyOp18
 70
     0
102
RTVSPropertyOp19
 70
     0
102
RTVSPropertyOp20
 70
     0
102
RTVSPropertyOp21
 70
     0
102
RTVSPropertyOp22
 70
     0
102
RTVSPropertyOp23
 70
     0
102
RTVSPropertyOp24
 70
     0
102
RTVSPropertyOp25
 70
     0
102
RTVSPropertyOp26
 70
     0
102
RTVSPropertyOp27
 70
     0
102
RTVSPropertyOp28
 70
     0
102
RTVSPropertyOp29
 70
     0
102
RTVSPropertyOp30
 70
     0
102
RTVSPropertyOp31
 70
     0
102
RTVSPropertyOp32
 70
     0
102
RTVSPropertyOp33
 70
     0
102
RTVSPropertyOp34
 70
     0
102
RTVSPropertyOp35
 70
     0
102
RTVSPropertyOp36
 70
     0
102
RTVSPropertyOp37
 70
     0
102
RTVSPropertyOp38
 70
     0
102
RTVSPropertyOp39
 70
     0
102
RTVSPropertyOp40
 70
     0
102
RTVSPropertyOp41
 70
     0
102
RTVSPropertyOp42
 70
     0
102
RTVSPropertyOp43
 70
     0
102
RTVSPropertyOp44
 70
     0
102
RTVSPropertyOp45
 70
     0
102
RTVSPropertyOp46
 70
     0
102
RTVSPropertyOp47
 70
     0
102
RTVSPropertyOp48
 70
     0
102
RTVSPropertyOp49
 70
     0
102
RTVSPropertyOp50
 70
     0
102
RTVSPropertyOp51
 70
     0
102
RTVSPropertyOp52
 70
     0
102
RTVSPropertyOp53
 70
     0
102
RTVSPropertyOp54
 70
     0
102
RTVSPropertyOp55
 70
     0
102
RTVSPropertyOp56
 70
     0
102
RTVSPropertyOp57
 70
     0
102
RTVSPost2010Prop28
280
     0
102
RTVSPost2010PropOp28
 70
     0
102
RTVSPost2010Prop29
280
     1
102
RTVSPost2010PropOp29
 70
     0
102
RTVSPost2010Prop30
280
     1
102
RTVSPost2010PropOp30
 70
     0
102
RTVSPost2010Prop31
280
     0
102
RTVSPost2010PropOp31
 70
     0
102
RTVSPost2010Prop32
280
     0
102
RTVSPost2010PropOp32
 70
     0
102
RTVSPost2010Prop33
280
     0
102
RTVSPost2010PropOp33
 70
     0
102
RTVSPost2010Prop34
280
     0
102
RTVSPost2010PropOp34
 70
     0
102
RTVSPost2010Prop35
280
     0
102
RTVSPost2010PropOp35
 70
     0
102
RTVSPost2010Prop36
280
     0
102
RTVSPost2010PropOp36
 70
     0
102
RTVSPost2010Prop37
 90
       50
102
RTVSPost2010PropOp37
 70
     0
102
RTVSPost2010Prop38
140
0.0
102
RTVSPost2010PropOp38
 70
     0
102
RTVSPost2010Prop39
140
1.0
102
RTVSPost2010PropOp39
 70
     0
102
RTVSPost2010Prop40
 90
        0
102
RTVSPost2010PropOp40
 70
     0
102
RTVSPost2010Prop41ColorIndex
 90
       18
102
RTVSPost2010Prop41ColorRGB
 90
        0
102
RTVSPost2010PropOp41
 70
     0
102
RTVSPost2010Prop42
 90
       50
102
RTVSPost2010PropOp42
 70
     0
102
RTVSPost2010Prop43
 90
        3
102
RTVSPost2010PropOp43
 70
     0
102
RTVSPost2010Prop44ColorIndex
 90
        5
102
RTVSPost2010Prop44ColorRGB
 90
      255
102
RTVSPost2010PropOp44
 70
     0
102
RTVSPost2010Prop45
280
     0
102
RTVSPost2010PropOp45
 70
     0
102
RTVSPost2010Prop46
 90
       50
102
RTVSPost2010PropOp46
 70
     0
102
RTVSPost2010Prop47
 90
       50
102
RTVSPost2010PropOp47
 70
     0
102
RTVSPost2010Prop48
 90
       50
102
RTVSPost2010PropOp48
 70
     0
102
RTVSPost2010Prop49
280
     0
102
RTVSPost2010PropOp49
 70
     0
102
RTVSPost2010Prop50
 90
       50
102
RTVSPost2010PropOp50
 70
     0
102
RTVSPost2010Prop51ColorIndex
 90
      256
102
RTVSPost2010Prop51ColorRGB
 90
-16777216
102
RTVSPost2010PropOp51
 70
     0
102
RTVSPost2010Prop52
140
1.0
102
RTVSPost2010PropOp52
 70
     0
102
RTVSPost2010Prop53
 90
        2
102
RTVSPost2010PropOp53
 70
     0
102
RTVSPost2010Prop54
  1
strokes_ogs.tif
102
RTVSPost2010PropOp54
 70
     0
102
RTVSPost2010Prop55
280
     0
102
RTVSPost2010PropOp55
 70
     0
102
RTVSPost2010Prop56
140
1.0
102
RTVSPost2010PropOp56
 70
     0
102
RTVSPost2010Prop57
140
1.0
102
RTVSPost2010PropOp57
 70
     0
  0
XRECORD
  5
1FA
102
{ACAD_REACTORS
330
1F9
102
}
330
1F9
100
AcDbXrecord
280
     1
102
RTVSPropertyOp0
 70
     1
102
RTVSPropertyOp1
 70
     1
102
RTVSPropertyOp2
 70
     1
102
RTVSPropertyOp3
 70
     1
102
RTVSPropertyOp4
 70
     1
102
RTVSPropertyOp5
 70
     1
102
RTVSPropertyOp6
 70
     1
102
RTVSPropertyOp7
 70
     1
102
RTVSPropertyOp8
 70
     1
102
RTVSPropertyOp9
 70
     1
102
RTVSPropertyOp10
 70
     1
102
RTVSPropertyOp11
 70
     1
102
RTVSPropertyOp12
 70
     1
102
RTVSPropertyOp13
 70
     1
102
RTVSPropertyOp14
 70
     1
102
RTVSPropertyOp15
 70
     1
102
RTVSPropertyOp16
 70
     1
102
RTVSPropertyOp17
 70
     1
102
RTVSPropertyOp18
 70
     1
102
RTVSPropertyOp19
 70
     1
102
RTVSPropertyOp20
 70
     1
102
RTVSPropertyOp21
 70
     1
102
RTVSPropertyOp22
 70
     1
102
RTVSPropertyOp23
 70
     1
102
RTVSPropertyOp24
 70
     1
102
RTVSPropertyOp25
 70
     1
102
RTVSPropertyOp26
 70
     1
102
RTVSPropertyOp27
 70
     1
102
RTVSPropertyOp28
 70
     1
102
RTVSPropertyOp29
 70
     1
102
RTVSPropertyOp30
 70
     1
102
RTVSPropertyOp31
 70
     1
102
RTVSPropertyOp32
 70
     1
102
RTVSPropertyOp33
 70
     1
102
RTVSPropertyOp34
 70
     1
102
RTVSPropertyOp35
 70
     1
102
RTVSPropertyOp36
 70
     1
102
RTVSPropertyOp37
 70
     1
102
RTVSPropertyOp38
 70
     1
102
RTVSPropertyOp39
 70
     1
102
RTVSPropertyOp40
 70
     1
102
RTVSPropertyOp41
 70
     1
102
RTVSPropertyOp42
 70
     1
102
RTVSPropertyOp43
 70
     1
102
RTVSPropertyOp44
 70
     1
102
RTVSPropertyOp45
 70
     1
102
RTVSPropertyOp46
 70
     1
102
RTVSPropertyOp47
 70
     1
102
RTVSPropertyOp48
 70
     1
102
RTVSPropertyOp49
 70
     1
102
RTVSPropertyOp50
 70
     1
102
RTVSPropertyOp51
 70
     0
102
RTVSPropertyOp52
 70
     0
102
RTVSPropertyOp53
 70
     1
102
RTVSPropertyOp54
 70
     1
102
RTVSPropertyOp55
 70
     1
102
RTVSPropertyOp56
 70
     1
102
RTVSPropertyOp57
 70
     1
102
RTVSPost2010Prop28
280
     0
102
RTVSPost2010PropOp28
 70
     1
102
RTVSPost2010Prop29
280
     1
102
RTVSPost2010PropOp29
 70
     1
102
RTVSPost2010Prop30
280
     1
102
RTVSPost2010PropOp30
 70
     1
102
RTVSPost2010Prop31
280
     0
102
RTVSPost2010PropOp31
 70
     1
102
RTVSPost2010Prop32
280
     0
102
RTVSPost2010PropOp32
 70
     1
102
RTVSPost2010Prop33
280
     0
102
RTVSPost2010PropOp33
 70
     1
102
RTVSPost2010Prop34
280
     0
102
RTVSPost2010PropOp34
 70
     1
102
RTVSPost2010Prop35
280
     0
102
RTVSPost2010PropOp35
 70
     1
102
RTVSPost2010Prop36
280
     0
102
RTVSPost2010PropOp36
 70
     1
102
RTVSPost2010Prop37
 90
       50
102
RTVSPost2010PropOp37
 70
     1
102
RTVSPost2010Prop38
140
0.0
102
RTVSPost2010PropOp38
 70
     1
102
RTVSPost2010Prop39
140
1.0
102
RTVSPost2010PropOp39
 70
     1
102
RTVSPost2010Prop40
 90
        0
102
RTVSPost2010PropOp40
 70
     1
102
RTVSPost2010Prop41ColorIndex
 90
       18
102
RTVSPost2010Prop41ColorRGB
 90
        0
102
RTVSPost2010PropOp41
 70
     1
102
RTVSPost2010Prop42
 90
       50
102
RTVSPost2010PropOp42
 70
     1
102
RTVSPost2010Prop43
 90
        3
102
RTVSPost2010PropOp43
 70
     1
102
RTVSPost2010Prop44ColorIndex
 90
        5
102
RTVSPost2010Prop44ColorRGB
 90
      255
102
RTVSPost2010PropOp44
 70
     1
102
RTVSPost2010Prop45
280
     0
102
RTVSPost2010PropOp45
 70
     1
102
RTVSPost2010Prop46
 90
       50
102
RTVSPost2010PropOp46
 70
     1
102
RTVSPost2010Prop47
 90
       50
102
RTVSPost2010PropOp47
 70
     1
102
RTVSPost2010Prop48
 90
       50
102
RTVSPost2010PropOp48
 70
     1
102
RTVSPost2010Prop49
280
     0
102
RTVSPost2010PropOp49
 70
     1
102
RTVSPost2010Prop50
 90
       50
102
RTVSPost2010PropOp50
 70
     1
102
RTVSPost2010Prop51ColorIndex
 90
      256
102
RTVSPost2010Prop51ColorRGB
 90
-16777216
102
RTVSPost2010PropOp51
 70
     0
102
RTVSPost2010Prop52
140
1.0
102
RTVSPost2010PropOp52
 70
     0
102
RTVSPost2010Prop53
 90
        2
102
RTVSPost2010PropOp53
 70
     1
102
RTVSPost2010Prop54
  1
strokes_ogs.tif
102
RTVSPost2010PropOp54
 70
     1
102
RTVSPost2010Prop55
280
     0
102
RTVSPost2010PropOp55
 70
     1
102
RTVSPost2010Prop56
140
1.0
102
RTVSPost2010PropOp56
 70
     1
102
RTVSPost2010Prop57
140
1.0
102
RTVSPost2010PropOp57
 70
     1
  0
XRECORD
  5
202
102
{ACAD_REACTORS
330
201
102
}
330
201
100
AcDbXrecord
280
     1
102
RTVSPropertyOp0
 70
     0
102
RTVSPropertyOp1
 70
     0
102
RTVSPropertyOp2
 70
     0
102
RTVSPropertyOp3
 70
     0
102
RTVSPropertyOp4
 70
     0
102
RTVSPropertyOp5
 70
     0
102
RTVSPropertyOp6
 70
     0
102
RTVSPropertyOp7
 70
     0
102
RTVSPropertyOp8
 70
     0
102
RTVSPropertyOp9
 70
     0
102
RTVSPropertyOp10
 70
     0
102
RTVSPropertyOp11
 70
     0
102
RTVSPropertyOp12
 70
     0
102
RTVSPropertyOp13
 70
     0
102
RTVSPropertyOp14
 70
     2
102
RTVSPropertyOp15
 70
     0
102
RTVSPropertyOp16
 70
     0
102
RTVSPropertyOp17
 70
     0
102
RTVSPropertyOp18
 70
     0
102
RTVSPropertyOp19
 70
     0
102
RTVSPropertyOp20
 70
     0
102
RTVSPropertyOp21
 70
     0
102
RTVSPropertyOp22
 70
     0
102
RTVSPropertyOp23
 70
     0
102
RTVSPropertyOp24
 70
     0
102
RTVSPropertyOp25
 70
     0
102
RTVSPropertyOp26
 70
     0
102
RTVSPropertyOp27
 70
     0
102
RTVSPropertyOp28
 70
     0
102
RTVSPropertyOp29
 70
     0
102
RTVSPropertyOp30
 70
     0
102
RTVSPropertyOp31
 70
     0
102
RTVSPropertyOp32
 70
     0
102
RTVSPropertyOp33
 70
     0
102
RTVSPropertyOp34
 70
     0
102
RTVSPropertyOp35
 70
     0
102
RTVSPropertyOp36
 70
     0
102
RTVSPropertyOp37
 70
     0
102
RTVSPropertyOp38
 70
     0
102
RTVSPropertyOp39
 70
     0
102
RTVSPropertyOp40
 70
     0
102
RTVSPropertyOp41
 70
     0
102
RTVSPropertyOp42
 70
     0
102
RTVSPropertyOp43
 70
     0
102
RTVSPropertyOp44
 70
     0
102
RTVSPropertyOp45
 70
     0
102
RTVSPropertyOp46
 70
     0
102
RTVSPropertyOp47
 70
     0
102
RTVSPropertyOp48
 70
     0
102
RTVSPropertyOp49
 70
     0
102
RTVSPropertyOp50
 70
     0
102
RTVSPropertyOp51
 70
     0
102
RTVSPropertyOp52
 70
     0
102
RTVSPropertyOp53
 70
     0
102
RTVSPropertyOp54
 70
     0
102
RTVSPropertyOp55
 70
     0
102
RTVSPropertyOp56
 70
     0
102
RTVSPropertyOp57
 70
     0
102
RTVSPost2010Prop28
280
     0
102
RTVSPost2010PropOp28
 70
     0
102
RTVSPost2010Prop29
280
     1
102
RTVSPost2010PropOp29
 70
     0
102
RTVSPost2010Prop30
280
     1
102
RTVSPost2010PropOp30
 70
     0
102
RTVSPost2010Prop31
280
     0
102
RTVSPost2010PropOp31
 70
     0
102
RTVSPost2010Prop32
280
     0
102
RTVSPost2010PropOp32
 70
     0
102
RTVSPost2010Prop33
280
     0
102
RTVSPost2010PropOp33
 70
     0
102
RTVSPost2010Prop34
280
     0
102
RTVSPost2010PropOp34
 70
     0
102
RTVSPost2010Prop35
280
     0
102
RTVSPost2010PropOp35
 70
     0
102
RTVSPost2010Prop36
280
     0
102
RTVSPost2010PropOp36
 70
     0
102
RTVSPost2010Prop37
 90
       50
102
RTVSPost2010PropOp37
 70
     0
102
RTVSPost2010Prop38
140
0.0
102
RTVSPost2010PropOp38
 70
     0
102
RTVSPost2010Prop39
140
1.0
102
RTVSPost2010PropOp39
 70
     0
102
RTVSPost2010Prop40
 90
        0
102
RTVSPost2010PropOp40
 70
     0
102
RTVSPost2010Prop41ColorIndex
 90
       18
102
RTVSPost2010Prop41ColorRGB
 90
        0
102
RTVSPost2010PropOp41
 70
     0
102
RTVSPost2010Prop42
 90
       50
102
RTVSPost2010PropOp42
 70
     0
102
RTVSPost2010Prop43
 90
        3
102
RTVSPost2010PropOp43
 70
     0
102
RTVSPost2010Prop44ColorIndex
 90
        5
102
RTVSPost2010Prop44ColorRGB
 90
      255
102
RTVSPost2010PropOp44
 70
     0
102
RTVSPost2010Prop45
280
     0
102
RTVSPost2010PropOp45
 70
     0
102
RTVSPost2010Prop46
 90
       50
102
RTVSPost2010PropOp46
 70
     0
102
RTVSPost2010Prop47
 90
       50
102
RTVSPost2010PropOp47
 70
     0
102
RTVSPost2010Prop48
 90
       50
102
RTVSPost2010PropOp48
 70
     0
102
RTVSPost2010Prop49
280
     0
102
RTVSPost2010PropOp49
 70
     0
102
RTVSPost2010Prop50
 90
       50
102
RTVSPost2010PropOp50
 70
     0
102
RTVSPost2010Prop51ColorIndex
 90
      256
102
RTVSPost2010Prop51ColorRGB
 90
-16777216
102
RTVSPost2010PropOp51
 70
     0
102
RTVSPost2010Prop52
140
1.0
102
RTVSPost2010PropOp52
 70
     0
102
RTVSPost2010Prop53
 90
        2
102
RTVSPost2010PropOp53
 70
     0
102
RTVSPost2010Prop54
  1
strokes_ogs.tif
102
RTVSPost2010PropOp54
 70
     0
102
RTVSPost2010Prop55
280
     0
102
RTVSPost2010PropOp55
 70
     0
102
RTVSPost2010Prop56
140
1.0
102
RTVSPost2010PropOp56
 70
     0
102
RTVSPost2010Prop57
140
1.0
102
RTVSPost2010PropOp57
 70
     0
  0
XRECORD
  5
1F0
102
{ACAD_REACTORS
330
1EF
102
}
330
1EF
100
AcDbXrecord
280
     1
102
RTVSPropertyOp0
 70
     1
102
RTVSPropertyOp1
 70
     1
102
RTVSPropertyOp2
 70
     1
102
RTVSPropertyOp3
 70
     1
102
RTVSPropertyOp4
 70
     1
102
RTVSPropertyOp5
 70
     1
102
RTVSPropertyOp6
 70
     1
102
RTVSPropertyOp7
 70
     1
102
RTVSPropertyOp8
 70
     1
102
RTVSPropertyOp9
 70
     1
102
RTVSPropertyOp10
 70
     1
102
RTVSPropertyOp11
 70
     1
102
RTVSPropertyOp12
 70
     1
102
RTVSPropertyOp13
 70
     1
102
RTVSPropertyOp14
 70
     1
102
RTVSPropertyOp15
 70
     1
102
RTVSPropertyOp16
 70
     1
102
RTVSPropertyOp17
 70
     1
102
RTVSPropertyOp18
 70
     1
102
RTVSPropertyOp19
 70
     1
102
RTVSPropertyOp20
 70
     1
102
RTVSPropertyOp21
 70
     1
102
RTVSPropertyOp22
 70
     1
102
RTVSPropertyOp23
 70
     1
102
RTVSPropertyOp24
 70
     1
102
RTVSPropertyOp25
 70
     1
102
RTVSPropertyOp26
 70
     1
102
RTVSPropertyOp27
 70
     1
102
RTVSPropertyOp28
 70
     1
102
RTVSPropertyOp29
 70
     1
102
RTVSPropertyOp30
 70
     1
102
RTVSPropertyOp31
 70
     1
102
RTVSPropertyOp32
 70
     1
102
RTVSPropertyOp33
 70
     1
102
RTVSPropertyOp34
 70
     1
102
RTVSPropertyOp35
 70
     1
102
RTVSPropertyOp36
 70
     1
102
RTVSPropertyOp37
 70
     1
102
RTVSPropertyOp38
 70
     1
102
RTVSPropertyOp39
 70
     1
102
RTVSPropertyOp40
 70
     1
102
RTVSPropertyOp41
 70
     1
102
RTVSPropertyOp42
 70
     1
102
RTVSPropertyOp43
 70
     1
102
RTVSPropertyOp44
 70
     1
102
RTVSPropertyOp45
 70
     1
102
RTVSPropertyOp46
 70
     1
102
RTVSPropertyOp47
 70
     1
102
RTVSPropertyOp48
 70
     1
102
RTVSPropertyOp49
 70
     1
102
RTVSPropertyOp50
 70
     1
102
RTVSPropertyOp51
 70
     0
102
RTVSPropertyOp52
 70
     0
102
RTVSPropertyOp53
 70
     1
102
RTVSPropertyOp54
 70
     1
102
RTVSPropertyOp55
 70
     1
102
RTVSPropertyOp56
 70
     1
102
RTVSPropertyOp57
 70
     1
102
RTVSPost2010Prop28
280
     0
102
RTVSPost2010PropOp28
 70
     1
102
RTVSPost2010Prop29
280
     1
102
RTVSPost2010PropOp29
 70
     1
102
RTVSPost2010Prop30
280
     1
102
RTVSPost2010PropOp30
 70
     1
102
RTVSPost2010Prop31
280
     0
102
RTVSPost2010PropOp31
 70
     1
102
RTVSPost2010Prop32
280
     0
102
RTVSPost2010PropOp32
 70
     1
102
RTVSPost2010Prop33
280
     0
102
RTVSPost2010PropOp33
 70
     1
102
RTVSPost2010Prop34
280
     0
102
RTVSPost2010PropOp34
 70
     1
102
RTVSPost2010Prop35
280
     0
102
RTVSPost2010PropOp35
 70
     1
102
RTVSPost2010Prop36
280
     0
102
RTVSPost2010PropOp36
 70
     1
102
RTVSPost2010Prop37
 90
       50
102
RTVSPost2010PropOp37
 70
     1
102
RTVSPost2010Prop38
140
0.0
102
RTVSPost2010PropOp38
 70
     1
102
RTVSPost2010Prop39
140
1.0
102
RTVSPost2010PropOp39
 70
     1
102
RTVSPost2010Prop40
 90
        0
102
RTVSPost2010PropOp40
 70
     1
102
RTVSPost2010Prop41ColorIndex
 90
       18
102
RTVSPost2010Prop41ColorRGB
 90
        0
102
RTVSPost2010PropOp41
 70
     1
102
RTVSPost2010Prop42
 90
       50
102
RTVSPost2010PropOp42
 70
     1
102
RTVSPost2010Prop43
 90
        3
102
RTVSPost2010PropOp43
 70
     1
102
RTVSPost2010Prop44ColorIndex
 90
        5
102
RTVSPost2010Prop44ColorRGB
 90
      255
102
RTVSPost2010PropOp44
 70
     1
102
RTVSPost2010Prop45
280
     0
102
RTVSPost2010PropOp45
 70
     1
102
RTVSPost2010Prop46
 90
       50
102
RTVSPost2010PropOp46
 70
     1
102
RTVSPost2010Prop47
 90
       50
102
RTVSPost2010PropOp47
 70
     1
102
RTVSPost2010Prop48
 90
       50
102
RTVSPost2010PropOp48
 70
     1
102
RTVSPost2010Prop49
280
     0
102
RTVSPost2010PropOp49
 70
     1
102
RTVSPost2010Prop50
 90
       50
102
RTVSPost2010PropOp50
 70
     1
102
RTVSPost2010Prop51ColorIndex
 90
      256
102
RTVSPost2010Prop51ColorRGB
 90
-16777216
102
RTVSPost2010PropOp51
 70
     0
102
RTVSPost2010Prop52
140
1.0
102
RTVSPost2010PropOp52
 70
     0
102
RTVSPost2010Prop53
 90
        2
102
RTVSPost2010PropOp53
 70
     1
102
RTVSPost2010Prop54
  1
strokes_ogs.tif
102
RTVSPost2010PropOp54
 70
     1
102
RTVSPost2010Prop55
280
     0
102
RTVSPost2010PropOp55
 70
     1
102
RTVSPost2010Prop56
140
1.0
102
RTVSPost2010PropOp56
 70
     1
102
RTVSPost2010Prop57
140
1.0
102
RTVSPost2010PropOp57
 70
     1
  0
XRECORD
  5
20E
102
{ACAD_REACTORS
330
20D
102
}
330
20D
100
AcDbXrecord
280
     1
102
RTVSPropertyOp0
 70
     1
102
RTVSPropertyOp1
 70
     1
102
RTVSPropertyOp2
 70
     1
102
RTVSPropertyOp3
 70
     1
102
RTVSPropertyOp4
 70
     1
102
RTVSPropertyOp5
 70
     1
102
RTVSPropertyOp6
 70
     1
102
RTVSPropertyOp7
 70
     1
102
RTVSPropertyOp8
 70
     1
102
RTVSPropertyOp9
 70
     1
102
RTVSPropertyOp10
 70
     1
102
RTVSPropertyOp11
 70
     1
102
RTVSPropertyOp12
 70
     1
102
RTVSPropertyOp13
 70
     1
102
RTVSPropertyOp14
 70
     1
102
RTVSPropertyOp15
 70
     1
102
RTVSPropertyOp16
 70
     1
102
RTVSPropertyOp17
 70
     1
102
RTVSPropertyOp18
 70
     1
102
RTVSPropertyOp19
 70
     1
102
RTVSPropertyOp20
 70
     1
102
RTVSPropertyOp21
 70
     1
102
RTVSPropertyOp22
 70
     1
102
RTVSPropertyOp23
 70
     1
102
RTVSPropertyOp24
 70
     1
102
RTVSPropertyOp25
 70
     1
102
RTVSPropertyOp26
 70
     1
102
RTVSPropertyOp27
 70
     1
102
RTVSPropertyOp28
 70
     1
102
RTVSPropertyOp29
 70
     1
102
RTVSPropertyOp30
 70
     1
102
RTVSPropertyOp31
 70
     1
102
RTVSPropertyOp32
 70
     1
102
RTVSPropertyOp33
 70
     1
102
RTVSPropertyOp34
 70
     1
102
RTVSPropertyOp35
 70
     1
102
RTVSPropertyOp36
 70
     1
102
RTVSPropertyOp37
 70
     1
102
RTVSPropertyOp38
 70
     1
102
RTVSPropertyOp39
 70
     1
102
RTVSPropertyOp40
 70
     1
102
RTVSPropertyOp41
 70
     1
102
RTVSPropertyOp42
 70
     1
102
RTVSPropertyOp43
 70
     1
102
RTVSPropertyOp44
 70
     1
102
RTVSPropertyOp45
 70
     1
102
RTVSPropertyOp46
 70
     1
102
RTVSPropertyOp47
 70
     1
102
RTVSPropertyOp48
 70
     1
102
RTVSPropertyOp49
 70
     1
102
RTVSPropertyOp50
 70
     1
102
RTVSPropertyOp51
 70
     0
102
RTVSPropertyOp52
 70
     0
102
RTVSPropertyOp53
 70
     1
102
RTVSPropertyOp54
 70
     1
102
RTVSPropertyOp55
 70
     1
102
RTVSPropertyOp56
 70
     1
102
RTVSPropertyOp57
 70
     1
102
RTVSPost2010Prop28
280
     0
102
RTVSPost2010PropOp28
 70
     1
102
RTVSPost2010Prop29
280
     1
102
RTVSPost2010PropOp29
 70
     1
102
RTVSPost2010Prop30
280
     1
102
RTVSPost2010PropOp30
 70
     1
102
RTVSPost2010Prop31
280
     0
102
RTVSPost2010PropOp31
 70
     1
102
RTVSPost2010Prop32
280
     0
102
RTVSPost2010PropOp32
 70
     1
102
RTVSPost2010Prop33
280
     0
102
RTVSPost2010PropOp33
 70
     1
102
RTVSPost2010Prop34
280
     0
102
RTVSPost2010PropOp34
 70
     1
102
RTVSPost2010Prop35
280
     0
102
RTVSPost2010PropOp35
 70
     1
102
RTVSPost2010Prop36
280
     0
102
RTVSPost2010PropOp36
 70
     1
102
RTVSPost2010Prop37
 90
       50
102
RTVSPost2010PropOp37
 70
     1
102
RTVSPost2010Prop38
140
0.0
102
RTVSPost2010PropOp38
 70
     1
102
RTVSPost2010Prop39
140
1.0
102
RTVSPost2010PropOp39
 70
     1
102
RTVSPost2010Prop40
 90
        0
102
RTVSPost2010PropOp40
 70
     1
102
RTVSPost2010Prop41ColorIndex
 90
       18
102
RTVSPost2010Prop41ColorRGB
 90
        0
102
RTVSPost2010PropOp41
 70
     1
102
RTVSPost2010Prop42
 90
       50
102
RTVSPost2010PropOp42
 70
     1
102
RTVSPost2010Prop43
 90
        3
102
RTVSPost2010PropOp43
 70
     1
102
RTVSPost2010Prop44ColorIndex
 90
        5
102
RTVSPost2010Prop44ColorRGB
 90
      255
102
RTVSPost2010PropOp44
 70
     1
102
RTVSPost2010Prop45
280
     0
102
RTVSPost2010PropOp45
 70
     1
102
RTVSPost2010Prop46
 90
       50
102
RTVSPost2010PropOp46
 70
     1
102
RTVSPost2010Prop47
 90
       50
102
RTVSPost2010PropOp47
 70
     1
102
RTVSPost2010Prop48
 90
       50
102
RTVSPost2010PropOp48
 70
     1
102
RTVSPost2010Prop49
280
     0
102
RTVSPost2010PropOp49
 70
     1
102
RTVSPost2010Prop50
 90
       50
102
RTVSPost2010PropOp50
 70
     1
102
RTVSPost2010Prop51ColorIndex
 90
      256
102
RTVSPost2010Prop51ColorRGB
 90
-16777216
102
RTVSPost2010PropOp51
 70
     0
102
RTVSPost2010Prop52
140
1.0
102
RTVSPost2010PropOp52
 70
     0
102
RTVSPost2010Prop53
 90
        2
102
RTVSPost2010PropOp53
 70
     1
102
RTVSPost2010Prop54
  1
strokes_ogs.tif
102
RTVSPost2010PropOp54
 70
     1
102
RTVSPost2010Prop55
280
     0
102
RTVSPost2010PropOp55
 70
     1
102
RTVSPost2010Prop56
140
1.0
102
RTVSPost2010PropOp56
 70
     1
102
RTVSPost2010Prop57
140
1.0
102
RTVSPost2010PropOp57
 70
     1
  0
XRECORD
  5
20C
102
{ACAD_REACTORS
330
20B
102
}
330
20B
100
AcDbXrecord
280
     1
102
RTVSPropertyOp0
 70
     1
102
RTVSPropertyOp1
 70
     1
102
RTVSPropertyOp2
 70
     1
102
RTVSPropertyOp3
 70
     1
102
RTVSPropertyOp4
 70
     1
102
RTVSPropertyOp5
 70
     1
102
RTVSPropertyOp6
 70
     1
102
RTVSPropertyOp7
 70
     1
102
RTVSPropertyOp8
 70
     1
102
RTVSPropertyOp9
 70
     1
102
RTVSPropertyOp10
 70
     1
102
RTVSPropertyOp11
 70
     1
102
RTVSPropertyOp12
 70
     1
102
RTVSPropertyOp13
 70
     1
102
RTVSPropertyOp14
 70
     1
102
RTVSPropertyOp15
 70
     1
102
RTVSPropertyOp16
 70
     1
102
RTVSPropertyOp17
 70
     1
102
RTVSPropertyOp18
 70
     1
102
RTVSPropertyOp19
 70
     1
102
RTVSPropertyOp20
 70
     1
102
RTVSPropertyOp21
 70
     1
102
RTVSPropertyOp22
 70
     1
102
RTVSPropertyOp23
 70
     1
102
RTVSPropertyOp24
 70
     1
102
RTVSPropertyOp25
 70
     1
102
RTVSPropertyOp26
 70
     1
102
RTVSPropertyOp27
 70
     1
102
RTVSPropertyOp28
 70
     1
102
RTVSPropertyOp29
 70
     1
102
RTVSPropertyOp30
 70
     1
102
RTVSPropertyOp31
 70
     1
102
RTVSPropertyOp32
 70
     1
102
RTVSPropertyOp33
 70
     1
102
RTVSPropertyOp34
 70
     1
102
RTVSPropertyOp35
 70
     1
102
RTVSPropertyOp36
 70
     1
102
RTVSPropertyOp37
 70
     1
102
RTVSPropertyOp38
 70
     1
102
RTVSPropertyOp39
 70
     1
102
RTVSPropertyOp40
 70
     1
102
RTVSPropertyOp41
 70
     1
102
RTVSPropertyOp42
 70
     1
102
RTVSPropertyOp43
 70
     1
102
RTVSPropertyOp44
 70
     1
102
RTVSPropertyOp45
 70
     1
102
RTVSPropertyOp46
 70
     1
102
RTVSPropertyOp47
 70
     1
102
RTVSPropertyOp48
 70
     1
102
RTVSPropertyOp49
 70
     1
102
RTVSPropertyOp50
 70
     1
102
RTVSPropertyOp51
 70
     0
102
RTVSPropertyOp52
 70
     0
102
RTVSPropertyOp53
 70
     1
102
RTVSPropertyOp54
 70
     1
102
RTVSPropertyOp55
 70
     1
102
RTVSPropertyOp56
 70
     1
102
RTVSPropertyOp57
 70
     1
102
RTVSPost2010Prop28
280
     0
102
RTVSPost2010PropOp28
 70
     1
102
RTVSPost2010Prop29
280
     1
102
RTVSPost2010PropOp29
 70
     1
102
RTVSPost2010Prop30
280
     1
102
RTVSPost2010PropOp30
 70
     1
102
RTVSPost2010Prop31
280
     0
102
RTVSPost2010PropOp31
 70
     1
102
RTVSPost2010Prop32
280
     0
102
RTVSPost2010PropOp32
 70
     1
102
RTVSPost2010Prop33
280
     0
102
RTVSPost2010PropOp33
 70
     1
102
RTVSPost2010Prop34
280
     0
102
RTVSPost2010PropOp34
 70
     1
102
RTVSPost2010Prop35
280
     0
102
RTVSPost2010PropOp35
 70
     1
102
RTVSPost2010Prop36
280
     0
102
RTVSPost2010PropOp36
 70
     1
102
RTVSPost2010Prop37
 90
       50
102
RTVSPost2010PropOp37
 70
     1
102
RTVSPost2010Prop38
140
0.0
102
RTVSPost2010PropOp38
 70
     1
102
RTVSPost2010Prop39
140
1.0
102
RTVSPost2010PropOp39
 70
     1
102
RTVSPost2010Prop40
 90
        0
102
RTVSPost2010PropOp40
 70
     1
102
RTVSPost2010Prop41ColorIndex
 90
       18
102
RTVSPost2010Prop41ColorRGB
 90
        0
102
RTVSPost2010PropOp41
 70
     1
102
RTVSPost2010Prop42
 90
       50
102
RTVSPost2010PropOp42
 70
     1
102
RTVSPost2010Prop43
 90
        3
102
RTVSPost2010PropOp43
 70
     1
102
RTVSPost2010Prop44ColorIndex
 90
        5
102
RTVSPost2010Prop44ColorRGB
 90
      255
102
RTVSPost2010PropOp44
 70
     1
102
RTVSPost2010Prop45
280
     0
102
RTVSPost2010PropOp45
 70
     1
102
RTVSPost2010Prop46
 90
       50
102
RTVSPost2010PropOp46
 70
     1
102
RTVSPost2010Prop47
 90
       50
102
RTVSPost2010PropOp47
 70
     1
102
RTVSPost2010Prop48
 90
       50
102
RTVSPost2010PropOp48
 70
     1
102
RTVSPost2010Prop49
280
     0
102
RTVSPost2010PropOp49
 70
     1
102
RTVSPost2010Prop50
 90
       50
102
RTVSPost2010PropOp50
 70
     1
102
RTVSPost2010Prop51ColorIndex
 90
      256
102
RTVSPost2010Prop51ColorRGB
 90
-16777216
102
RTVSPost2010PropOp51
 70
     0
102
RTVSPost2010Prop52
140
1.0
102
RTVSPost2010PropOp52
 70
     0
102
RTVSPost2010Prop53
 90
        2
102
RTVSPost2010PropOp53
 70
     1
102
RTVSPost2010Prop54
  1
strokes_ogs.tif
102
RTVSPost2010PropOp54
 70
     1
102
RTVSPost2010Prop55
280
     0
102
RTVSPost2010PropOp55
 70
     1
102
RTVSPost2010Prop56
140
1.0
102
RTVSPost2010PropOp56
 70
     1
102
RTVSPost2010Prop57
140
1.0
102
RTVSPost2010PropOp57
 70
     1
  0
XRECORD
  5
206
102
{ACAD_REACTORS
330
205
102
}
330
205
100
AcDbXrecord
280
     1
102
RTVSPropertyOp0
 70
     1
102
RTVSPropertyOp1
 70
     1
102
RTVSPropertyOp2
 70
     1
102
RTVSPropertyOp3
 70
     1
102
RTVSPropertyOp4
 70
     1
102
RTVSPropertyOp5
 70
     1
102
RTVSPropertyOp6
 70
     1
102
RTVSPropertyOp7
 70
     1
102
RTVSPropertyOp8
 70
     1
102
RTVSPropertyOp9
 70
     1
102
RTVSPropertyOp10
 70
     1
102
RTVSPropertyOp11
 70
     1
102
RTVSPropertyOp12
 70
     1
102
RTVSPropertyOp13
 70
     1
102
RTVSPropertyOp14
 70
     1
102
RTVSPropertyOp15
 70
     1
102
RTVSPropertyOp16
 70
     1
102
RTVSPropertyOp17
 70
     1
102
RTVSPropertyOp18
 70
     1
102
RTVSPropertyOp19
 70
     1
102
RTVSPropertyOp20
 70
     1
102
RTVSPropertyOp21
 70
     1
102
RTVSPropertyOp22
 70
     1
102
RTVSPropertyOp23
 70
     1
102
RTVSPropertyOp24
 70
     1
102
RTVSPropertyOp25
 70
     1
102
RTVSPropertyOp26
 70
     1
102
RTVSPropertyOp27
 70
     1
102
RTVSPropertyOp28
 70
     1
102
RTVSPropertyOp29
 70
     1
102
RTVSPropertyOp30
 70
     1
102
RTVSPropertyOp31
 70
     1
102
RTVSPropertyOp32
 70
     1
102
RTVSPropertyOp33
 70
     1
102
RTVSPropertyOp34
 70
     1
102
RTVSPropertyOp35
 70
     1
102
RTVSPropertyOp36
 70
     1
102
RTVSPropertyOp37
 70
     1
102
RTVSPropertyOp38
 70
     1
102
RTVSPropertyOp39
 70
     1
102
RTVSPropertyOp40
 70
     1
102
RTVSPropertyOp41
 70
     1
102
RTVSPropertyOp42
 70
     1
102
RTVSPropertyOp43
 70
     1
102
RTVSPropertyOp44
 70
     1
102
RTVSPropertyOp45
 70
     1
102
RTVSPropertyOp46
 70
     1
102
RTVSPropertyOp47
 70
     1
102
RTVSPropertyOp48
 70
     1
102
RTVSPropertyOp49
 70
     1
102
RTVSPropertyOp50
 70
     1
102
RTVSPropertyOp51
 70
     0
102
RTVSPropertyOp52
 70
     0
102
RTVSPropertyOp53
 70
     1
102
RTVSPropertyOp54
 70
     1
102
RTVSPropertyOp55
 70
     1
102
RTVSPropertyOp56
 70
     1
102
RTVSPropertyOp57
 70
     1
102
RTVSPost2010Prop28
280
     0
102
RTVSPost2010PropOp28
 70
     1
102
RTVSPost2010Prop29
280
     1
102
RTVSPost2010PropOp29
 70
     1
102
RTVSPost2010Prop30
280
     1
102
RTVSPost2010PropOp30
 70
     1
102
RTVSPost2010Prop31
280
     0
102
RTVSPost2010PropOp31
 70
     1
102
RTVSPost2010Prop32
280
     0
102
RTVSPost2010PropOp32
 70
     1
102
RTVSPost2010Prop33
280
     0
102
RTVSPost2010PropOp33
 70
     1
102
RTVSPost2010Prop34
280
     0
102
RTVSPost2010PropOp34
 70
     1
102
RTVSPost2010Prop35
280
     0
102
RTVSPost2010PropOp35
 70
     1
102
RTVSPost2010Prop36
280
     0
102
RTVSPost2010PropOp36
 70
     1
102
RTVSPost2010Prop37
 90
       50
102
RTVSPost2010PropOp37
 70
     1
102
RTVSPost2010Prop38
140
0.0
102
RTVSPost2010PropOp38
 70
     1
102
RTVSPost2010Prop39
140
1.0
102
RTVSPost2010PropOp39
 70
     1
102
RTVSPost2010Prop40
 90
        0
102
RTVSPost2010PropOp40
 70
     1
102
RTVSPost2010Prop41ColorIndex
 90
       18
102
RTVSPost2010Prop41ColorRGB
 90
        0
102
RTVSPost2010PropOp41
 70
     1
102
RTVSPost2010Prop42
 90
       50
102
RTVSPost2010PropOp42
 70
     1
102
RTVSPost2010Prop43
 90
        3
102
RTVSPost2010PropOp43
 70
     1
102
RTVSPost2010Prop44ColorIndex
 90
        5
102
RTVSPost2010Prop44ColorRGB
 90
      255
102
RTVSPost2010PropOp44
 70
     1
102
RTVSPost2010Prop45
280
     0
102
RTVSPost2010PropOp45
 70
     1
102
RTVSPost2010Prop46
 90
       50
102
RTVSPost2010PropOp46
 70
     1
102
RTVSPost2010Prop47
 90
       50
102
RTVSPost2010PropOp47
 70
     1
102
RTVSPost2010Prop48
 90
       50
102
RTVSPost2010PropOp48
 70
     1
102
RTVSPost2010Prop49
280
     0
102
RTVSPost2010PropOp49
 70
     1
102
RTVSPost2010Prop50
 90
       50
102
RTVSPost2010PropOp50
 70
     1
102
RTVSPost2010Prop51ColorIndex
 90
      256
102
RTVSPost2010Prop51ColorRGB
 90
-16777216
102
RTVSPost2010PropOp51
 70
     0
102
RTVSPost2010Prop52
140
1.0
102
RTVSPost2010PropOp52
 70
     0
102
RTVSPost2010Prop53
 90
        2
102
RTVSPost2010PropOp53
 70
     1
102
RTVSPost2010Prop54
  1
strokes_ogs.tif
102
RTVSPost2010PropOp54
 70
     1
102
RTVSPost2010Prop55
280
     0
102
RTVSPost2010PropOp55
 70
     1
102
RTVSPost2010Prop56
140
1.0
102
RTVSPost2010PropOp56
 70
     1
102
RTVSPost2010Prop57
140
1.0
102
RTVSPost2010PropOp57
 70
     1
  0
XRECORD
  5
208
102
{ACAD_REACTORS
330
207
102
}
330
207
100
AcDbXrecord
280
     1
102
RTVSPropertyOp0
 70
     1
102
RTVSPropertyOp1
 70
     1
102
RTVSPropertyOp2
 70
     1
102
RTVSPropertyOp3
 70
     1
102
RTVSPropertyOp4
 70
     1
102
RTVSPropertyOp5
 70
     1
102
RTVSPropertyOp6
 70
     1
102
RTVSPropertyOp7
 70
     1
102
RTVSPropertyOp8
 70
     1
102
RTVSPropertyOp9
 70
     1
102
RTVSPropertyOp10
 70
     1
102
RTVSPropertyOp11
 70
     1
102
RTVSPropertyOp12
 70
     1
102
RTVSPropertyOp13
 70
     1
102
RTVSPropertyOp14
 70
     1
102
RTVSPropertyOp15
 70
     1
102
RTVSPropertyOp16
 70
     1
102
RTVSPropertyOp17
 70
     1
102
RTVSPropertyOp18
 70
     1
102
RTVSPropertyOp19
 70
     1
102
RTVSPropertyOp20
 70
     1
102
RTVSPropertyOp21
 70
     1
102
RTVSPropertyOp22
 70
     1
102
RTVSPropertyOp23
 70
     1
102
RTVSPropertyOp24
 70
     1
102
RTVSPropertyOp25
 70
     1
102
RTVSPropertyOp26
 70
     1
102
RTVSPropertyOp27
 70
     1
102
RTVSPropertyOp28
 70
     1
102
RTVSPropertyOp29
 70
     1
102
RTVSPropertyOp30
 70
     1
102
RTVSPropertyOp31
 70
     1
102
RTVSPropertyOp32
 70
     1
102
RTVSPropertyOp33
 70
     1
102
RTVSPropertyOp34
 70
     1
102
RTVSPropertyOp35
 70
     1
102
RTVSPropertyOp36
 70
     1
102
RTVSPropertyOp37
 70
     1
102
RTVSPropertyOp38
 70
     1
102
RTVSPropertyOp39
 70
     1
102
RTVSPropertyOp40
 70
     1
102
RTVSPropertyOp41
 70
     1
102
RTVSPropertyOp42
 70
     1
102
RTVSPropertyOp43
 70
     1
102
RTVSPropertyOp44
 70
     1
102
RTVSPropertyOp45
 70
     1
102
RTVSPropertyOp46
 70
     1
102
RTVSPropertyOp47
 70
     1
102
RTVSPropertyOp48
 70
     1
102
RTVSPropertyOp49
 70
     1
102
RTVSPropertyOp50
 70
     1
102
RTVSPropertyOp51
 70
     0
102
RTVSPropertyOp52
 70
     0
102
RTVSPropertyOp53
 70
     1
102
RTVSPropertyOp54
 70
     1
102
RTVSPropertyOp55
 70
     1
102
RTVSPropertyOp56
 70
     1
102
RTVSPropertyOp57
 70
     1
102
RTVSPost2010Prop28
280
     0
102
RTVSPost2010PropOp28
 70
     1
102
RTVSPost2010Prop29
280
     1
102
RTVSPost2010PropOp29
 70
     1
102
RTVSPost2010Prop30
280
     1
102
RTVSPost2010PropOp30
 70
     1
102
RTVSPost2010Prop31
280
     0
102
RTVSPost2010PropOp31
 70
     1
102
RTVSPost2010Prop32
280
     0
102
RTVSPost2010PropOp32
 70
     1
102
RTVSPost2010Prop33
280
     0
102
RTVSPost2010PropOp33
 70
     1
102
RTVSPost2010Prop34
280
     0
102
RTVSPost2010PropOp34
 70
     1
102
RTVSPost2010Prop35
280
     0
102
RTVSPost2010PropOp35
 70
     1
102
RTVSPost2010Prop36
280
     0
102
RTVSPost2010PropOp36
 70
     1
102
RTVSPost2010Prop37
 90
       50
102
RTVSPost2010PropOp37
 70
     1
102
RTVSPost2010Prop38
140
0.0
102
RTVSPost2010PropOp38
 70
     1
102
RTVSPost2010Prop39
140
1.0
102
RTVSPost2010PropOp39
 70
     1
102
RTVSPost2010Prop40
 90
        0
102
RTVSPost2010PropOp40
 70
     1
102
RTVSPost2010Prop41ColorIndex
 90
       18
102
RTVSPost2010Prop41ColorRGB
 90
        0
102
RTVSPost2010PropOp41
 70
     1
102
RTVSPost2010Prop42
 90
       50
102
RTVSPost2010PropOp42
 70
     1
102
RTVSPost2010Prop43
 90
        3
102
RTVSPost2010PropOp43
 70
     1
102
RTVSPost2010Prop44ColorIndex
 90
        5
102
RTVSPost2010Prop44ColorRGB
 90
      255
102
RTVSPost2010PropOp44
 70
     1
102
RTVSPost2010Prop45
280
     0
102
RTVSPost2010PropOp45
 70
     1
102
RTVSPost2010Prop46
 90
       50
102
RTVSPost2010PropOp46
 70
     1
102
RTVSPost2010Prop47
 90
       50
102
RTVSPost2010PropOp47
 70
     1
102
RTVSPost2010Prop48
 90
       50
102
RTVSPost2010PropOp48
 70
     1
102
RTVSPost2010Prop49
280
     0
102
RTVSPost2010PropOp49
 70
     1
102
RTVSPost2010Prop50
 90
       50
102
RTVSPost2010PropOp50
 70
     1
102
RTVSPost2010Prop51ColorIndex
 90
      256
102
RTVSPost2010Prop51ColorRGB
 90
-16777216
102
RTVSPost2010PropOp51
 70
     0
102
RTVSPost2010Prop52
140
1.0
102
RTVSPost2010PropOp52
 70
     0
102
RTVSPost2010Prop53
 90
        2
102
RTVSPost2010PropOp53
 70
     1
102
RTVSPost2010Prop54
  1
strokes_ogs.tif
102
RTVSPost2010PropOp54
 70
     1
102
RTVSPost2010Prop55
280
     0
102
RTVSPost2010PropOp55
 70
     1
102
RTVSPost2010Prop56
140
1.0
102
RTVSPost2010PropOp56
 70
     1
102
RTVSPost2010Prop57
140
1.0
102
RTVSPost2010PropOp57
 70
     1
  0
XRECORD
  5
1F8
102
{ACAD_REACTORS
330
1F7
102
}
330
1F7
100
AcDbXrecord
280
     1
102
RTVSPropertyOp0
 70
     1
102
RTVSPropertyOp1
 70
     1
102
RTVSPropertyOp2
 70
     1
102
RTVSPropertyOp3
 70
     1
102
RTVSPropertyOp4
 70
     1
102
RTVSPropertyOp5
 70
     1
102
RTVSPropertyOp6
 70
     1
102
RTVSPropertyOp7
 70
     1
102
RTVSPropertyOp8
 70
     1
102
RTVSPropertyOp9
 70
     1
102
RTVSPropertyOp10
 70
     1
102
RTVSPropertyOp11
 70
     1
102
RTVSPropertyOp12
 70
     1
102
RTVSPropertyOp13
 70
     1
102
RTVSPropertyOp14
 70
     1
102
RTVSPropertyOp15
 70
     1
102
RTVSPropertyOp16
 70
     1
102
RTVSPropertyOp17
 70
     1
102
RTVSPropertyOp18
 70
     1
102
RTVSPropertyOp19
 70
     1
102
RTVSPropertyOp20
 70
     1
102
RTVSPropertyOp21
 70
     1
102
RTVSPropertyOp22
 70
     1
102
RTVSPropertyOp23
 70
     1
102
RTVSPropertyOp24
 70
     1
102
RTVSPropertyOp25
 70
     1
102
RTVSPropertyOp26
 70
     1
102
RTVSPropertyOp27
 70
     1
102
RTVSPropertyOp28
 70
     1
102
RTVSPropertyOp29
 70
     1
102
RTVSPropertyOp30
 70
     1
102
RTVSPropertyOp31
 70
     1
102
RTVSPropertyOp32
 70
     1
102
RTVSPropertyOp33
 70
     1
102
RTVSPropertyOp34
 70
     1
102
RTVSPropertyOp35
 70
     1
102
RTVSPropertyOp36
 70
     1
102
RTVSPropertyOp37
 70
     1
102
RTVSPropertyOp38
 70
     1
102
RTVSPropertyOp39
 70
     1
102
RTVSPropertyOp40
 70
     1
102
RTVSPropertyOp41
 70
     1
102
RTVSPropertyOp42
 70
     1
102
RTVSPropertyOp43
 70
     1
102
RTVSPropertyOp44
 70
     1
102
RTVSPropertyOp45
 70
     1
102
RTVSPropertyOp46
 70
     1
102
RTVSPropertyOp47
 70
     1
102
RTVSPropertyOp48
 70
     1
102
RTVSPropertyOp49
 70
     1
102
RTVSPropertyOp50
 70
     1
102
RTVSPropertyOp51
 70
     0
102
RTVSPropertyOp52
 70
     0
102
RTVSPropertyOp53
 70
     1
102
RTVSPropertyOp54
 70
     1
102
RTVSPropertyOp55
 70
     1
102
RTVSPropertyOp56
 70
     1
102
RTVSPropertyOp57
 70
     1
102
RTVSPost2010Prop28
280
     0
102
RTVSPost2010PropOp28
 70
     1
102
RTVSPost2010Prop29
280
     1
102
RTVSPost2010PropOp29
 70
     1
102
RTVSPost2010Prop30
280
     1
102
RTVSPost2010PropOp30
 70
     1
102
RTVSPost2010Prop31
280
     0
102
RTVSPost2010PropOp31
 70
     1
102
RTVSPost2010Prop32
280
     0
102
RTVSPost2010PropOp32
 70
     1
102
RTVSPost2010Prop33
280
     0
102
RTVSPost2010PropOp33
 70
     1
102
RTVSPost2010Prop34
280
     0
102
RTVSPost2010PropOp34
 70
     1
102
RTVSPost2010Prop35
280
     0
102
RTVSPost2010PropOp35
 70
     1
102
RTVSPost2010Prop36
280
     0
102
RTVSPost2010PropOp36
 70
     1
102
RTVSPost2010Prop37
 90
       50
102
RTVSPost2010PropOp37
 70
     1
102
RTVSPost2010Prop38
140
0.0
102
RTVSPost2010PropOp38
 70
     1
102
RTVSPost2010Prop39
140
1.0
102
RTVSPost2010PropOp39
 70
     1
102
RTVSPost2010Prop40
 90
        0
102
RTVSPost2010PropOp40
 70
     1
102
RTVSPost2010Prop41ColorIndex
 90
       18
102
RTVSPost2010Prop41ColorRGB
 90
        0
102
RTVSPost2010PropOp41
 70
     1
102
RTVSPost2010Prop42
 90
       50
102
RTVSPost2010PropOp42
 70
     1
102
RTVSPost2010Prop43
 90
        3
102
RTVSPost2010PropOp43
 70
     1
102
RTVSPost2010Prop44ColorIndex
 90
        5
102
RTVSPost2010Prop44ColorRGB
 90
      255
102
RTVSPost2010PropOp44
 70
     1
102
RTVSPost2010Prop45
280
     0
102
RTVSPost2010PropOp45
 70
     1
102
RTVSPost2010Prop46
 90
       50
102
RTVSPost2010PropOp46
 70
     1
102
RTVSPost2010Prop47
 90
       50
102
RTVSPost2010PropOp47
 70
     1
102
RTVSPost2010Prop48
 90
       50
102
RTVSPost2010PropOp48
 70
     1
102
RTVSPost2010Prop49
280
     0
102
RTVSPost2010PropOp49
 70
     1
102
RTVSPost2010Prop50
 90
       50
102
RTVSPost2010PropOp50
 70
     1
102
RTVSPost2010Prop51ColorIndex
 90
      256
102
RTVSPost2010Prop51ColorRGB
 90
-16777216
102
RTVSPost2010PropOp51
 70
     0
102
RTVSPost2010Prop52
140
1.0
102
RTVSPost2010PropOp52
 70
     0
102
RTVSPost2010Prop53
 90
        2
102
RTVSPost2010PropOp53
 70
     1
102
RTVSPost2010Prop54
  1
strokes_ogs.tif
102
RTVSPost2010PropOp54
 70
     1
102
RTVSPost2010Prop55
280
     0
102
RTVSPost2010PropOp55
 70
     1
102
RTVSPost2010Prop56
140
1.0
102
RTVSPost2010PropOp56
 70
     1
102
RTVSPost2010Prop57
140
1.0
102
RTVSPost2010PropOp57
 70
     1
  0
XRECORD
  5
1EA
102
{ACAD_REACTORS
330
1E9
102
}
330
1E9
100
AcDbXrecord
280
     1
102
RTVSPropertyOp0
 70
     1
102
RTVSPropertyOp1
 70
     1
102
RTVSPropertyOp2
 70
     1
102
RTVSPropertyOp3
 70
     1
102
RTVSPropertyOp4
 70
     1
102
RTVSPropertyOp5
 70
     1
102
RTVSPropertyOp6
 70
     1
102
RTVSPropertyOp7
 70
     1
102
RTVSPropertyOp8
 70
     1
102
RTVSPropertyOp9
 70
     1
102
RTVSPropertyOp10
 70
     1
102
RTVSPropertyOp11
 70
     1
102
RTVSPropertyOp12
 70
     1
102
RTVSPropertyOp13
 70
     1
102
RTVSPropertyOp14
 70
     1
102
RTVSPropertyOp15
 70
     1
102
RTVSPropertyOp16
 70
     1
102
RTVSPropertyOp17
 70
     1
102
RTVSPropertyOp18
 70
     1
102
RTVSPropertyOp19
 70
     1
102
RTVSPropertyOp20
 70
     1
102
RTVSPropertyOp21
 70
     1
102
RTVSPropertyOp22
 70
     1
102
RTVSPropertyOp23
 70
     1
102
RTVSPropertyOp24
 70
     1
102
RTVSPropertyOp25
 70
     1
102
RTVSPropertyOp26
 70
     1
102
RTVSPropertyOp27
 70
     1
102
RTVSPropertyOp28
 70
     1
102
RTVSPropertyOp29
 70
     1
102
RTVSPropertyOp30
 70
     1
102
RTVSPropertyOp31
 70
     1
102
RTVSPropertyOp32
 70
     1
102
RTVSPropertyOp33
 70
     1
102
RTVSPropertyOp34
 70
     1
102
RTVSPropertyOp35
 70
     1
102
RTVSPropertyOp36
 70
     1
102
RTVSPropertyOp37
 70
     1
102
RTVSPropertyOp38
 70
     1
102
RTVSPropertyOp39
 70
     1
102
RTVSPropertyOp40
 70
     1
102
RTVSPropertyOp41
 70
     1
102
RTVSPropertyOp42
 70
     1
102
RTVSPropertyOp43
 70
     1
102
RTVSPropertyOp44
 70
     1
102
RTVSPropertyOp45
 70
     1
102
RTVSPropertyOp46
 70
     1
102
RTVSPropertyOp47
 70
     1
102
RTVSPropertyOp48
 70
     1
102
RTVSPropertyOp49
 70
     1
102
RTVSPropertyOp50
 70
     1
102
RTVSPropertyOp51
 70
     0
102
RTVSPropertyOp52
 70
     0
102
RTVSPropertyOp53
 70
     1
102
RTVSPropertyOp54
 70
     1
102
RTVSPropertyOp55
 70
     1
102
RTVSPropertyOp56
 70
     1
102
RTVSPropertyOp57
 70
     1
102
RTVSPost2010Prop28
280
     0
102
RTVSPost2010PropOp28
 70
     1
102
RTVSPost2010Prop29
280
     1
102
RTVSPost2010PropOp29
 70
     1
102
RTVSPost2010Prop30
280
     1
102
RTVSPost2010PropOp30
 70
     1
102
RTVSPost2010Prop31
280
     0
102
RTVSPost2010PropOp31
 70
     1
102
RTVSPost2010Prop32
280
     0
102
RTVSPost2010PropOp32
 70
     1
102
RTVSPost2010Prop33
280
     0
102
RTVSPost2010PropOp33
 70
     1
102
RTVSPost2010Prop34
280
     0
102
RTVSPost2010PropOp34
 70
     1
102
RTVSPost2010Prop35
280
     0
102
RTVSPost2010PropOp35
 70
     1
102
RTVSPost2010Prop36
280
     0
102
RTVSPost2010PropOp36
 70
     1
102
RTVSPost2010Prop37
 90
       50
102
RTVSPost2010PropOp37
 70
     1
102
RTVSPost2010Prop38
140
0.0
102
RTVSPost2010PropOp38
 70
     1
102
RTVSPost2010Prop39
140
1.0
102
RTVSPost2010PropOp39
 70
     1
102
RTVSPost2010Prop40
 90
        0
102
RTVSPost2010PropOp40
 70
     1
102
RTVSPost2010Prop41ColorIndex
 90
       18
102
RTVSPost2010Prop41ColorRGB
 90
        0
102
RTVSPost2010PropOp41
 70
     1
102
RTVSPost2010Prop42
 90
       50
102
RTVSPost2010PropOp42
 70
     1
102
RTVSPost2010Prop43
 90
        3
102
RTVSPost2010PropOp43
 70
     1
102
RTVSPost2010Prop44ColorIndex
 90
        5
102
RTVSPost2010Prop44ColorRGB
 90
      255
102
RTVSPost2010PropOp44
 70
     1
102
RTVSPost2010Prop45
280
     0
102
RTVSPost2010PropOp45
 70
     1
102
RTVSPost2010Prop46
 90
       50
102
RTVSPost2010PropOp46
 70
     1
102
RTVSPost2010Prop47
 90
       50
102
RTVSPost2010PropOp47
 70
     1
102
RTVSPost2010Prop48
 90
       50
102
RTVSPost2010PropOp48
 70
     1
102
RTVSPost2010Prop49
280
     0
102
RTVSPost2010PropOp49
 70
     1
102
RTVSPost2010Prop50
 90
       50
102
RTVSPost2010PropOp50
 70
     1
102
RTVSPost2010Prop51ColorIndex
 90
      256
102
RTVSPost2010Prop51ColorRGB
 90
-16777216
102
RTVSPost2010PropOp51
 70
     0
102
RTVSPost2010Prop52
140
1.0
102
RTVSPost2010PropOp52
 70
     0
102
RTVSPost2010Prop53
 90
        2
102
RTVSPost2010PropOp53
 70
     1
102
RTVSPost2010Prop54
  1
strokes_ogs.tif
102
RTVSPost2010PropOp54
 70
     1
102
RTVSPost2010Prop55
280
     0
102
RTVSPost2010PropOp55
 70
     1
102
RTVSPost2010Prop56
140
1.0
102
RTVSPost2010PropOp56
 70
     1
102
RTVSPost2010Prop57
140
1.0
102
RTVSPost2010PropOp57
 70
     1
  0
XRECORD
  5
20A
102
{ACAD_REACTORS
330
209
102
}
330
209
100
AcDbXrecord
280
     1
102
RTVSPropertyOp0
 70
     1
102
RTVSPropertyOp1
 70
     1
102
RTVSPropertyOp2
 70
     1
102
RTVSPropertyOp3
 70
     1
102
RTVSPropertyOp4
 70
     1
102
RTVSPropertyOp5
 70
     1
102
RTVSPropertyOp6
 70
     1
102
RTVSPropertyOp7
 70
     1
102
RTVSPropertyOp8
 70
     1
102
RTVSPropertyOp9
 70
     1
102
RTVSPropertyOp10
 70
     1
102
RTVSPropertyOp11
 70
     1
102
RTVSPropertyOp12
 70
     1
102
RTVSPropertyOp13
 70
     1
102
RTVSPropertyOp14
 70
     1
102
RTVSPropertyOp15
 70
     1
102
RTVSPropertyOp16
 70
     1
102
RTVSPropertyOp17
 70
     1
102
RTVSPropertyOp18
 70
     1
102
RTVSPropertyOp19
 70
     1
102
RTVSPropertyOp20
 70
     1
102
RTVSPropertyOp21
 70
     1
102
RTVSPropertyOp22
 70
     1
102
RTVSPropertyOp23
 70
     1
102
RTVSPropertyOp24
 70
     1
102
RTVSPropertyOp25
 70
     1
102
RTVSPropertyOp26
 70
     1
102
RTVSPropertyOp27
 70
     1
102
RTVSPropertyOp28
 70
     1
102
RTVSPropertyOp29
 70
     1
102
RTVSPropertyOp30
 70
     1
102
RTVSPropertyOp31
 70
     1
102
RTVSPropertyOp32
 70
     1
102
RTVSPropertyOp33
 70
     1
102
RTVSPropertyOp34
 70
     1
102
RTVSPropertyOp35
 70
     1
102
RTVSPropertyOp36
 70
     1
102
RTVSPropertyOp37
 70
     1
102
RTVSPropertyOp38
 70
     1
102
RTVSPropertyOp39
 70
     1
102
RTVSPropertyOp40
 70
     1
102
RTVSPropertyOp41
 70
     1
102
RTVSPropertyOp42
 70
     1
102
RTVSPropertyOp43
 70
     1
102
RTVSPropertyOp44
 70
     1
102
RTVSPropertyOp45
 70
     1
102
RTVSPropertyOp46
 70
     1
102
RTVSPropertyOp47
 70
     1
102
RTVSPropertyOp48
 70
     1
102
RTVSPropertyOp49
 70
     1
102
RTVSPropertyOp50
 70
     1
102
RTVSPropertyOp51
 70
     0
102
RTVSPropertyOp52
 70
     0
102
RTVSPropertyOp53
 70
     1
102
RTVSPropertyOp54
 70
     1
102
RTVSPropertyOp55
 70
     1
102
RTVSPropertyOp56
 70
     1
102
RTVSPropertyOp57
 70
     1
102
RTVSPost2010Prop28
280
     0
102
RTVSPost2010PropOp28
 70
     1
102
RTVSPost2010Prop29
280
     1
102
RTVSPost2010PropOp29
 70
     1
102
RTVSPost2010Prop30
280
     1
102
RTVSPost2010PropOp30
 70
     1
102
RTVSPost2010Prop31
280
     0
102
RTVSPost2010PropOp31
 70
     1
102
RTVSPost2010Prop32
280
     0
102
RTVSPost2010PropOp32
 70
     1
102
RTVSPost2010Prop33
280
     0
102
RTVSPost2010PropOp33
 70
     1
102
RTVSPost2010Prop34
280
     0
102
RTVSPost2010PropOp34
 70
     1
102
RTVSPost2010Prop35
280
     0
102
RTVSPost2010PropOp35
 70
     1
102
RTVSPost2010Prop36
280
     0
102
RTVSPost2010PropOp36
 70
     1
102
RTVSPost2010Prop37
 90
       50
102
RTVSPost2010PropOp37
 70
     1
102
RTVSPost2010Prop38
140
0.0
102
RTVSPost2010PropOp38
 70
     1
102
RTVSPost2010Prop39
140
1.0
102
RTVSPost2010PropOp39
 70
     1
102
RTVSPost2010Prop40
 90
        0
102
RTVSPost2010PropOp40
 70
     1
102
RTVSPost2010Prop41ColorIndex
 90
       18
102
RTVSPost2010Prop41ColorRGB
 90
        0
102
RTVSPost2010PropOp41
 70
     1
102
RTVSPost2010Prop42
 90
       50
102
RTVSPost2010PropOp42
 70
     1
102
RTVSPost2010Prop43
 90
        3
102
RTVSPost2010PropOp43
 70
     1
102
RTVSPost2010Prop44ColorIndex
 90
        5
102
RTVSPost2010Prop44ColorRGB
 90
      255
102
RTVSPost2010PropOp44
 70
     1
102
RTVSPost2010Prop45
280
     0
102
RTVSPost2010PropOp45
 70
     1
102
RTVSPost2010Prop46
 90
       50
102
RTVSPost2010PropOp46
 70
     1
102
RTVSPost2010Prop47
 90
       50
102
RTVSPost2010PropOp47
 70
     1
102
RTVSPost2010Prop48
 90
       50
102
RTVSPost2010PropOp48
 70
     1
102
RTVSPost2010Prop49
280
     0
102
RTVSPost2010PropOp49
 70
     1
102
RTVSPost2010Prop50
 90
       50
102
RTVSPost2010PropOp50
 70
     1
102
RTVSPost2010Prop51ColorIndex
 90
      256
102
RTVSPost2010Prop51ColorRGB
 90
-16777216
102
RTVSPost2010PropOp51
 70
     0
102
RTVSPost2010Prop52
140
1.0
102
RTVSPost2010PropOp52
 70
     0
102
RTVSPost2010Prop53
 90
        2
102
RTVSPost2010PropOp53
 70
     1
102
RTVSPost2010Prop54
  1
strokes_ogs.tif
102
RTVSPost2010PropOp54
 70
     1
102
RTVSPost2010Prop55
280
     0
102
RTVSPost2010PropOp55
 70
     1
102
RTVSPost2010Prop56
140
1.0
102
RTVSPost2010PropOp56
 70
     1
102
RTVSPost2010Prop57
140
1.0
102
RTVSPost2010PropOp57
 70
     1
  0
ENDSEC
  0
EOF
