  0
SECTION
  2
HEADER
  9
$ACADVER
  1
AC1018
  9
$ACADMAINTVER
 70
     0
  9
$DWGCODEPAGE
  3
ANSI_1252
  9
$INSBASE
 10
0.0
 20
0.0
 30
0.0
  9
$EXTMIN
 10
-0.5
 20
-0.5
 30
-0.5
  9
$EXTMAX
 10
5.0
 20
5.0
 30
5.0
  9
$LIMMIN
 10
-0.5
 20
-0.5
  9
$LIMMAX
 10
5.0
 20
5.0
  9
$ORTHOMODE
 70
     0
  9
$REGENMODE
 70
     1
  9
$FILLMODE
 70
     1
  9
$QTEXTMODE
 70
     0
  9
$MIRRTEXT
 70
     1
  9
$LTSCALE
 40
1.0
  9
$ATTMODE
 70
     1
  9
$TEXTSIZE
 40
0.2
  9
$TRACEWID
 40
0.05
  9
$TEXTSTYLE
  7
Standard
  9
$CLAYER
  8
0
  9
$CELTYPE
  6
ByLayer
  9
$CECOLOR
 62
   256
  9
$CELTSCALE
 40
1.0
  9
$DISPSILH
 70
     0
  9
$DIMSCALE
 40
1.0
  9
$DIMASZ
 40
0.18
  9
$DIMEXO
 40
0.0625
  9
$DIMDLI
 40
0.38
  9
$DIMRND
 40
0.0
  9
$DIMDLE
 40
0.0
  9
$DIMEXE
 40
0.18
  9
$DIMTP
 40
0.0
  9
$DIMTM
 40
0.0
  9
$DIMTXT
 40
0.18
  9
$DIMCEN
 40
0.09
  9
$DIMTSZ
 40
0.0
  9
$DIMTOL
 70
     0
  9
$DIMLIM
 70
     0
  9
$DIMTIH
 70
     1
  9
$DIMTOH
 70
     1
  9
$DIMSE1
 70
     0
  9
$DIMSE2
 70
     0
  9
$DIMTAD
 70
     0
  9
$DIMZIN
 70
     0
  9
$DIMBLK
  1

  9
$DIMASO
 70
     1
  9
$DIMSHO
 70
     1
  9
$DIMPOST
  1

  9
$DIMAPOST
  1

  9
$DIMALT
 70
     0
  9
$DIMALTD
 70
     2
  9
$DIMALTF
 40
25.4
  9
$DIMLFAC
 40
1.0
  9
$DIMTOFL
 70
     0
  9
$DIMTVP
 40
0.0
  9
$DIMTIX
 70
     0
  9
$DIMSOXD
 70
     0
  9
$DIMSAH
 70
     0
  9
$DIMBLK1
  1

  9
$DIMBLK2
  1

  9
$DIMSTYLE
  2
Standard
  9
$DIMCLRD
 70
     0
  9
$DIMCLRE
 70
     0
  9
$DIMCLRT
 70
     0
  9
$DIMTFAC
 40
1.0
  9
$DIMGAP
 40
0.09
  9
$DIMJUST
 70
     0
  9
$DIMSD1
 70
     0
  9
$DIMSD2
 70
     0
  9
$DIMTOLJ
 70
     1
  9
$DIMTZIN
 70
     0
  9
$DIMALTZ
 70
     0
  9
$DIMALTTZ
 70
     0
  9
$DIMUPT
 70
     0
  9
$DIMDEC
 70
     4
  9
$DIMTDEC
 70
     4
  9
$DIMALTU
 70
     2
  9
$DIMALTTD
 70
     2
  9
$DIMTXSTY
  7
Standard
  9
$DIMAUNIT
 70
     0
  9
$DIMADEC
 70
     0
  9
$DIMALTRND
 40
0.0
  9
$DIMAZIN
 70
     0
  9
$DIMDSEP
 70
    46
  9
$DIMATFIT
 70
     3
  9
$DIMFRAC
 70
     0
  9
$DIMLDRBLK
  1

  9
$DIMLUNIT
 70
     2
  9
$DIMLWD
 70
    -2
  9
$DIMLWE
 70
    -2
  9
$DIMTMOVE
 70
     0
  9
$LUNITS
 70
     2
  9
$LUPREC
 70
     4
  9
$SKETCHINC
 40
0.1
  9
$FILLETRAD
 40
0.5
  9
$AUNITS
 70
     0
  9
$AUPREC
 70
     0
  9
$MENU
  1
.
  9
$ELEVATION
 40
0.0
  9
$PELEVATION
 40
0.0
  9
$THICKNESS
 40
0.0
  9
$LIMCHECK
 70
     0
  9
$CHAMFERA
 40
0.0
  9
$CHAMFERB
 40
0.0
  9
$CHAMFERC
 40
0.0
  9
$CHAMFERD
 40
0.0
  9
$SKPOLY
 70
     0
  9
$TDCREATE
 40
2458561.550971632
  9
$TDUCREATE
 40
2458561.509304965
  9
$TDUPDATE
 40
2458561.550974514
  9
$TDUUPDATE
 40
2458561.509307847
  9
$TDINDWG
 40
0.0000000116
  9
$TDUSRTIMER
 40
0.0000000116
  9
$USRTIMER
 70
     1
  9
$ANGBASE
 50
0.0
  9
$ANGDIR
 70
     0
  9
$PDMODE
 70
     0
  9
$PDSIZE
 40
0.0
  9
$PLINEWID
 40
0.0
  9
$SPLFRAME
 70
     0
  9
$SPLINETYPE
 70
     6
  9
$SPLINESEGS
 70
     8
  9
$HANDSEED
  5
258
  9
$SURFTAB1
 70
     6
  9
$SURFTAB2
 70
     6
  9
$SURFTYPE
 70
     6
  9
$SURFU
 70
     6
  9
$SURFV
 70
     6
  9
$UCSBASE
  2

  9
$UCSNAME
  2

  9
$UCSORG
 10
0.0
 20
0.0
 30
0.0
  9
$UCSXDIR
 10
1.0
 20
0.0
 30
0.0
  9
$UCSYDIR
 10
0.0
 20
1.0
 30
0.0
  9
$UCSORTHOREF
  2

  9
$UCSORTHOVIEW
 70
     0
  9
$UCSORGTOP
 10
0.0
 20
0.0
 30
0.0
  9
$UCSORGBOTTOM
 10
0.0
 20
0.0
 30
0.0
  9
$UCSORGLEFT
 10
0.0
 20
0.0
 30
0.0
  9
$UCSORGRIGHT
 10
0.0
 20
0.0
 30
0.0
  9
$UCSORGFRONT
 10
0.0
 20
0.0
 30
0.0
  9
$UCSORGBACK
 10
0.0
 20
0.0
 30
0.0
  9
$PUCSBASE
  2

  9
$PUCSNAME
  2

  9
$PUCSORG
 10
0.0
 20
0.0
 30
0.0
  9
$PUCSXDIR
 10
1.0
 20
0.0
 30
0.0
  9
$PUCSYDIR
 10
0.0
 20
1.0
 30
0.0
  9
$PUCSORTHOREF
  2

  9
$PUCSORTHOVIEW
 70
     0
  9
$PUCSORGTOP
 10
0.0
 20
0.0
 30
0.0
  9
$PUCSORGBOTTOM
 10
0.0
 20
0.0
 30
0.0
  9
$PUCSORGLEFT
 10
0.0
 20
0.0
 30
0.0
  9
$PUCSORGRIGHT
 10
0.0
 20
0.0
 30
0.0
  9
$PUCSORGFRONT
 10
0.0
 20
0.0
 30
0.0
  9
$PUCSORGBACK
 10
0.0
 20
0.0
 30
0.0
  9
$USERI1
 70
     0
  9
$USERI2
 70
     0
  9
$USERI3
 70
     0
  9
$USERI4
 70
     0
  9
$USERI5
 70
     0
  9
$USERR1
 40
0.0
  9
$USERR2
 40
0.0
  9
$USERR3
 40
0.0
  9
$USERR4
 40
0.0
  9
$USERR5
 40
0.0
  9
$WORLDVIEW
 70
     1
  9
$SHADEDGE
 70
     3
  9
$SHADEDIF
 70
    70
  9
$TILEMODE
 70
     1
  9
$MAXACTVP
 70
    64
  9
$PINSBASE
 10
0.0
 20
0.0
 30
0.0
  9
$PLIMCHECK
 70
     0
  9
$PEXTMIN
 10
-0.5
 20
-0.5
 30
-0.5
  9
$PEXTMAX
 10
5.0
 20
5.0
 30
5.0
  9
$PLIMMIN
 10
-0.5
 20
-0.5
  9
$PLIMMAX
 10
5.0
 20
5.0
  9
$UNITMODE
 70
     0
  9
$VISRETAIN
 70
     1
  9
$PLINEGEN
 70
     0
  9
$PSLTSCALE
 70
     1
  9
$TREEDEPTH
 70
  3020
  9
$CMLSTYLE
  2
Standard
  9
$CMLJUST
 70
     0
  9
$CMLSCALE
 40
1.0
  9
$PROXYGRAPHICS
 70
     1
  9
$MEASUREMENT
 70
     1
  9
$CELWEIGHT
370
    18
  9
$ENDCAPS
280
     0
  9
$JOINSTYLE
280
     0
  9
$LWDISPLAY
290
     1
  9
$INSUNITS
 70
     4
  9
$HYPERLINKBASE
  1

  9
$STYLESHEET
  1

  9
$XEDIT
290
     1
  9
$CEPSNTYPE
380
     0
  9
$PSTYLEMODE
290
     1
  9
$FINGERPRINTGUID
  2
{878168CA-9DB4-4039-BC88-63FF6F677F62}
  9
$VERSIONGUID
  2
{FAEB1C32-E019-11D5-929B-00C0DF256EC4}
  9
$EXTNAMES
290
     1
  9
$PSVPSCALE
 40
0.0
  9
$OLESTARTUP
290
     0
  9
$SORTENTS
280
   127
  9
$INDEXCTL
280
     0
  9
$HIDETEXT
280
     1
  9
$XCLIPFRAME
290
     0
  9
$HALOGAP
280
     0
  9
$OBSCOLOR
 70
   257
  9
$OBSLTYPE
280
     0
  9
$INTERSECTIONDISPLAY
280
     0
  9
$INTERSECTIONCOLOR
 70
   257
  9
$DIMASSOC
280
     2
  9
$PROJECTNAME
  1

  0
ENDSEC
  0
SECTION
  2
CLASSES
  0
CLASS
  1
ACDBDICTIONARYWDFLT
  2
AcDbDictionaryWithDefault
  3
ObjectDBX Classes
 90
        0
 91
        4
280
     0
281
     0
  0
CLASS
  1
VISUALSTYLE
  2
AcDbVisualStyle
  3
ObjectDBX Classes
 90
     4095
 91
        4
280
     0
281
     0
  0
CLASS
  1
MATERIAL
  2
AcDbMaterial
  3
ObjectDBX Classes
 90
     1153
 91
        4
280
     0
281
     0
  0
CLASS
  1
SCALE
  2
AcDbScale
  3
ObjectDBX Classes
 90
     1153
 91
        4
280
     0
281
     0
  0
CLASS
  1
SUN
  2
AcDbSun
  3
SCENEOE
 90
     1153
 91
        4
280
     0
281
     0
  0
CLASS
  1
DIMASSOC
  2
AcDbDimAssoc
  3
"AcDbDimAssoc|Product Desc:     AcDim ARX App For Dimension|Company:          Autodesk, Inc.|WEB Address:      www.autodesk.com"
 90
        0
 91
        4
280
     0
281
     0
  0
CLASS
  1
DICTIONARYVAR
  2
AcDbDictionaryVar
  3
ObjectDBX Classes
 90
        0
 91
        4
280
     0
281
     0
  0
ENDSEC
  0
SECTION
  2
TABLES
  0
TABLE
  2
VPORT
  5
8
330
0
100
AcDbSymbolTable
 70
    17
  0
VPORT
  5
29
330
8
100
AcDbSymbolTableRecord
100
AcDbViewportTableRecord
  2
DUMMY
 70
     0
 10
0.0
 20
0.0
 11
1.0
 21
1.0
 12
10.429907
 22
4.5
 13
0.0
 23
0.0
 14
0.5
 24
0.5
 15
0.5
 25
0.5
 16
0.0
 26
0.0
 36
1.0
 17
0.0
 27
0.0
 37
0.0
 40
9.0
 41
1.972973
 42
50.0
 43
0.0
 44
0.0
 50
0.0
 51
0.0
 71
     0
 72
   100
 73
     1
 74
     3
 75
     0
 76
     0
 77
     0
 78
     0
281
     0
 65
     1
110
0.0
120
0.0
130
0.0
111
1.0
121
0.0
131
0.0
112
0.0
122
1.0
132
0.0
 79
     0
146
0.0
  0
VPORT
  5
207
330
8
100
AcDbSymbolTableRecord
100
AcDbViewportTableRecord
  2
*ACTIVE
 70
     0
 10
0.0
 20
0.0
 11
1.0
 21
1.0
 12
267.757405
 22
148.5
 13
0.0
 23
0.0
 14
0.5
 24
0.5
 15
0.5
 25
0.5
 16
0.0
 26
0.0
 36
1.0
 17
0.0
 27
0.0
 37
0.0
 40
254.0
 41
0.069908
 42
50.0
 43
964.613032
 44
-964.613032
 50
0.0
 51
0.0
 71
     0
 72
   100
 73
     1
 74
     3
 75
     0
 76
     0
 77
     0
 78
     0
281
     0
 65
     1
110
0.0
120
0.0
130
0.0
111
1.0
121
0.0
131
0.0
112
0.0
122
1.0
132
0.0
 79
     0
146
0.0
  0
VPORT
  5
209
330
8
100
AcDbSymbolTableRecord
100
AcDbViewportTableRecord
  2
L1
 70
     0
 10
0.0
 20
0.0
 11
1.0
 21
1.0
 12
267.757405
 22
148.5
 13
0.0
 23
0.0
 14
0.5
 24
0.5
 15
0.5
 25
0.5
 16
0.0
 26
0.0
 36
1.0
 17
0.0
 27
0.0
 37
0.0
 40
254.0
 41
0.069908
 42
50.0
 43
964.613032
 44
-964.613032
 50
0.0
 51
0.0
 71
     0
 72
   100
 73
     1
 74
     3
 75
     0
 76
     0
 77
     0
 78
     0
281
     0
 65
     1
110
0.0
120
0.0
130
0.0
111
1.0
121
0.0
131
0.0
112
0.0
122
1.0
132
0.0
 79
     0
146
0.0
  0
VPORT
  5
20A
330
8
100
AcDbSymbolTableRecord
100
AcDbViewportTableRecord
  2
L2
 70
     0
 10
0.0
 20
0.0
 11
0.5
 21
1.0
 12
0.0
 22
0.0
 13
0.0
 23
0.0
 14
0.5
 24
0.5
 15
0.5
 25
0.5
 16
0.0
 26
-1.0
 36
0.0
 17
0.0
 27
0.0
 37
0.0
 40
1319.822715
 41
0.013454
 42
50.0
 43
672.020833
 44
-672.020833
 50
0.0
 51
0.0
 71
     0
 72
   100
 73
     1
 74
     3
 75
     0
 76
     0
 77
     0
 78
     0
281
     0
 65
     1
110
0.0
120
0.0
130
0.0
111
1.0
121
0.0
131
0.0
112
0.0
122
1.0
132
0.0
 79
     0
146
0.0
  0
VPORT
  5
20B
330
8
100
AcDbSymbolTableRecord
100
AcDbViewportTableRecord
  2
L2
 70
     0
 10
0.5
 20
0.0
 11
1.0
 21
1.0
 12
0.0
 22
0.0
 13
0.0
 23
0.0
 14
0.5
 24
0.5
 15
0.5
 25
0.5
 16
1.0
 26
0.0
 36
0.0
 17
0.0
 27
0.0
 37
0.0
 40
1319.822715
 41
0.013454
 42
50.0
 43
672.020833
 44
-672.020833
 50
0.0
 51
0.0
 71
     0
 72
   100
 73
     1
 74
     3
 75
     0
 76
     0
 77
     0
 78
     0
281
     0
 65
     1
110
0.0
120
0.0
130
0.0
111
1.0
121
0.0
131
0.0
112
0.0
122
1.0
132
0.0
 79
     0
146
0.0
  0
VPORT
  5
20C
330
8
100
AcDbSymbolTableRecord
100
AcDbViewportTableRecord
  2
L3
 70
     0
 10
0.0
 20
0.5
 11
1.0
 21
1.0
 12
267.757405
 22
148.5
 13
0.0
 23
0.0
 14
0.5
 24
0.5
 15
0.5
 25
0.5
 16
0.0
 26
0.0
 36
1.0
 17
0.0
 27
0.0
 37
0.0
 40
254.0
 41
0.069908
 42
50.0
 43
964.613032
 44
-964.613032
 50
0.0
 51
0.0
 71
     0
 72
   100
 73
     1
 74
     3
 75
     0
 76
     0
 77
     0
 78
     0
281
     0
 65
     1
110
0.0
120
0.0
130
0.0
111
1.0
121
0.0
131
0.0
112
0.0
122
1.0
132
0.0
 79
     0
146
0.0
  0
VPORT
  5
20D
330
8
100
AcDbSymbolTableRecord
100
AcDbViewportTableRecord
  2
L3
 70
     0
 10
0.0
 20
0.0
 11
1.0
 21
0.5
 12
0.0
 22
0.0
 13
0.0
 23
0.0
 14
0.5
 24
0.5
 15
0.5
 25
0.5
 16
0.0
 26
-1.0
 36
0.0
 17
0.0
 27
0.0
 37
0.0
 40
1319.822715
 41
0.013454
 42
50.0
 43
672.020833
 44
-672.020833
 50
0.0
 51
0.0
 71
     0
 72
   100
 73
     1
 74
     3
 75
     0
 76
     0
 77
     0
 78
     0
281
     0
 65
     1
110
0.0
120
0.0
130
0.0
111
1.0
121
0.0
131
0.0
112
0.0
122
1.0
132
0.0
 79
     0
146
0.0
  0
VPORT
  5
20E
330
8
100
AcDbSymbolTableRecord
100
AcDbViewportTableRecord
  2
L4
 70
     0
 10
0.0
 20
0.5
 11
0.5
 21
1.0
 12
267.757405
 22
148.5
 13
0.0
 23
0.0
 14
0.5
 24
0.5
 15
0.5
 25
0.5
 16
0.0
 26
0.0
 36
1.0
 17
0.0
 27
0.0
 37
0.0
 40
254.0
 41
0.069908
 42
50.0
 43
964.613032
 44
-964.613032
 50
0.0
 51
0.0
 71
     0
 72
   100
 73
     1
 74
     3
 75
     0
 76
     0
 77
     0
 78
     0
281
     0
 65
     1
110
0.0
120
0.0
130
0.0
111
1.0
121
0.0
131
0.0
112
0.0
122
1.0
132
0.0
 79
     0
146
0.0
  0
VPORT
  5
20F
330
8
100
AcDbSymbolTableRecord
100
AcDbViewportTableRecord
  2
L4
 70
     0
 10
0.0
 20
0.0
 11
0.5
 21
0.5
 12
0.0
 22
0.0
 13
0.0
 23
0.0
 14
0.5
 24
0.5
 15
0.5
 25
0.5
 16
0.0
 26
-1.0
 36
0.0
 17
0.0
 27
0.0
 37
0.0
 40
1319.822715
 41
0.013454
 42
50.0
 43
672.020833
 44
-672.020833
 50
0.0
 51
0.0
 71
     0
 72
   100
 73
     1
 74
     3
 75
     0
 76
     0
 77
     0
 78
     0
281
     0
 65
     1
110
0.0
120
0.0
130
0.0
111
1.0
121
0.0
131
0.0
112
0.0
122
1.0
132
0.0
 79
     0
146
0.0
  0
VPORT
  5
210
330
8
100
AcDbSymbolTableRecord
100
AcDbViewportTableRecord
  2
L4
 70
     0
 10
0.5
 20
0.0
 11
1.0
 21
0.5
 12
0.0
 22
0.0
 13
0.0
 23
0.0
 14
0.5
 24
0.5
 15
0.5
 25
0.5
 16
1.0
 26
0.0
 36
0.0
 17
0.0
 27
0.0
 37
0.0
 40
1319.822715
 41
0.013454
 42
50.0
 43
672.020833
 44
-672.020833
 50
0.0
 51
0.0
 71
     0
 72
   100
 73
     1
 74
     3
 75
     0
 76
     0
 77
     0
 78
     0
281
     0
 65
     1
110
0.0
120
0.0
130
0.0
111
1.0
121
0.0
131
0.0
112
0.0
122
1.0
132
0.0
 79
     0
146
0.0
  0
VPORT
  5
211
330
8
100
AcDbSymbolTableRecord
100
AcDbViewportTableRecord
  2
L4
 70
     0
 10
0.5
 20
0.5
 11
1.0
 21
1.0
 12
0.0
 22
0.0
 13
0.0
 23
0.0
 14
0.5
 24
0.5
 15
0.5
 25
0.5
 16
0.5773502691896258
 26
-0.5773502691896258
 36
0.5773502691896258
 17
0.0
 27
0.0
 37
0.0
 40
1285.020866
 41
0.013818
 42
50.0
 43
667.141407
 44
-667.141407
 50
0.0
 51
0.0
 71
     0
 72
   100
 73
     1
 74
     3
 75
     0
 76
     0
 77
     0
 78
     0
281
     0
 65
     1
110
0.0
120
0.0
130
0.0
111
1.0
121
0.0
131
0.0
112
0.0
122
1.0
132
0.0
 79
     0
146
0.0
  0
VPORT
  5
212
330
8
100
AcDbSymbolTableRecord
100
AcDbViewportTableRecord
  2
L6
 70
     0
 10
0.0
 20
0.5
 11
0.333333
 21
1.0
 12
0.0
 22
0.0
 13
0.0
 23
0.0
 14
0.5
 24
0.5
 15
0.5
 25
0.5
 16
0.7188730927569433
 26
-0.5850486126764433
 36
0.3754192287502549
 17
0.0
 27
0.0
 37
0.0
 40
1357.434192
 41
0.013081
 42
50.0
 43
701.839477
 44
-701.839477
 50
0.0
 51
0.0
 71
     0
 72
   100
 73
     1
 74
     3
 75
     0
 76
     0
 77
     0
 78
     0
281
     0
 65
     1
110
0.0
120
0.0
130
0.0
111
1.0
121
0.0
131
0.0
112
0.0
122
1.0
132
0.0
 79
     0
146
0.0
  0
VPORT
  5
213
330
8
100
AcDbSymbolTableRecord
100
AcDbViewportTableRecord
  2
L6
 70
     0
 10
0.0
 20
0.0
 11
0.333333
 21
0.5
 12
0.0
 22
0.0
 13
0.0
 23
0.0
 14
0.5
 24
0.5
 15
0.5
 25
0.5
 16
-1.0
 26
0.0
 36
0.0
 17
0.0
 27
0.0
 37
0.0
 40
1319.822715
 41
0.013454
 42
50.0
 43
672.020833
 44
-672.020833
 50
0.0
 51
0.0
 71
     0
 72
   100
 73
     1
 74
     3
 75
     0
 76
     0
 77
     0
 78
     0
281
     0
 65
     1
110
0.0
120
0.0
130
0.0
111
1.0
121
0.0
131
0.0
112
0.0
122
1.0
132
0.0
 79
     0
146
0.0
  0
VPORT
  5
214
330
8
100
AcDbSymbolTableRecord
100
AcDbViewportTableRecord
  2
L6
 70
     0
 10
0.333333
 20
0.5
 11
0.666667
 21
1.0
 12
267.757405
 22
148.5
 13
0.0
 23
0.0
 14
0.5
 24
0.5
 15
0.5
 25
0.5
 16
0.0
 26
0.0
 36
1.0
 17
0.0
 27
0.0
 37
0.0
 40
254.0
 41
0.069908
 42
50.0
 43
964.613032
 44
-964.613032
 50
0.0
 51
0.0
 71
     0
 72
   100
 73
     1
 74
     3
 75
     0
 76
     0
 77
     0
 78
     0
281
     0
 65
     1
110
0.0
120
0.0
130
0.0
111
1.0
121
0.0
131
0.0
112
0.0
122
1.0
132
0.0
 79
     0
146
0.0
  0
VPORT
  5
215
330
8
100
AcDbSymbolTableRecord
100
AcDbViewportTableRecord
  2
L6
 70
     0
 10
0.333333
 20
0.0
 11
0.666667
 21
0.5
 12
0.0
 22
0.0
 13
0.0
 23
0.0
 14
0.5
 24
0.5
 15
0.5
 25
0.5
 16
0.0
 26
-1.0
 36
0.0
 17
0.0
 27
0.0
 37
0.0
 40
1319.822715
 41
0.013454
 42
50.0
 43
672.020833
 44
-672.020833
 50
0.0
 51
0.0
 71
     0
 72
   100
 73
     1
 74
     3
 75
     0
 76
     0
 77
     0
 78
     0
281
     0
 65
     1
110
0.0
120
0.0
130
0.0
111
1.0
121
0.0
131
0.0
112
0.0
122
1.0
132
0.0
 79
     0
146
0.0
  0
VPORT
  5
216
330
8
100
AcDbSymbolTableRecord
100
AcDbViewportTableRecord
  2
L6
 70
     0
 10
0.666667
 20
0.5
 11
1.0
 21
1.0
 12
0.0
 22
0.0
 13
0.0
 23
0.0
 14
0.5
 24
0.5
 15
0.5
 25
0.5
 16
0.5773502691896258
 26
-0.5773502691896258
 36
0.5773502691896258
 17
0.0
 27
0.0
 37
0.0
 40
1285.020866
 41
0.013818
 42
50.0
 43
667.141407
 44
-667.141407
 50
0.0
 51
0.0
 71
     0
 72
   100
 73
     1
 74
     3
 75
     0
 76
     0
 77
     0
 78
     0
281
     0
 65
     1
110
0.0
120
0.0
130
0.0
111
1.0
121
0.0
131
0.0
112
0.0
122
1.0
132
0.0
 79
     0
146
0.0
  0
VPORT
  5
217
330
8
100
AcDbSymbolTableRecord
100
AcDbViewportTableRecord
  2
L6
 70
     0
 10
0.666667
 20
0.0
 11
1.0
 21
0.5
 12
0.0
 22
0.0
 13
0.0
 23
0.0
 14
0.5
 24
0.5
 15
0.5
 25
0.5
 16
1.0
 26
0.0
 36
0.0
 17
0.0
 27
0.0
 37
0.0
 40
1319.822715
 41
0.013454
 42
50.0
 43
672.020833
 44
-672.020833
 50
0.0
 51
0.0
 71
     0
 72
   100
 73
     1
 74
     3
 75
     0
 76
     0
 77
     0
 78
     0
281
     0
 65
     1
110
0.0
120
0.0
130
0.0
111
1.0
121
0.0
131
0.0
112
0.0
122
1.0
132
0.0
 79
     0
146
0.0
  0
ENDTAB
  0
TABLE
  2
LTYPE
  5
5
330
0
100
AcDbSymbolTable
 70
     6
  0
LTYPE
  5
14
330
5
100
AcDbSymbolTableRecord
100
AcDbLinetypeTableRecord
  2
ByBlock
 70
     0
  3

 72
    65
 73
     0
 40
0.0
  0
LTYPE
  5
15
330
5
100
AcDbSymbolTableRecord
100
AcDbLinetypeTableRecord
  2
ByLayer
 70
     0
  3

 72
    65
 73
     0
 40
0.0
  0
LTYPE
  5
16
330
5
100
AcDbSymbolTableRecord
100
AcDbLinetypeTableRecord
  2
Continuous
 70
     0
  3
Solid line
 72
    65
 73
     0
 40
0.0
  0
LTYPE
  5
6A
330
5
100
AcDbSymbolTableRecord
100
AcDbLinetypeTableRecord
  2
CENTER
 70
     0
  3
____ _ ____ _ ____ _ ____
 72
    65
 73
     4
 40
47.4
 49
22.0
 74
     4
 75
     0
340
0
 46
0.0
 50
0.0
 44
0.0
 45
0.0
 49
-8.5
 74
     4
 75
     0
340
0
 46
0.0
 50
0.0
 44
0.0
 45
0.0
 49
8.5
 74
     4
 75
     0
340
0
 46
0.0
 50
0.0
 44
0.0
 45
0.0
 49
-8.5
 74
     4
 75
     0
340
0
 46
0.0
 50
0.0
 44
0.0
 45
0.0
  0
LTYPE
  5
6B
330
5
100
AcDbSymbolTableRecord
100
AcDbLinetypeTableRecord
  2
DASHDOT
 70
     0
  3
_._._._._._._._._._._._._._._._.
 72
    65
 73
     4
 40
70.0
 49
31.0
 74
     4
 75
     0
340
0
 46
0.0
 50
0.0
 44
0.0
 45
0.0
 49
-13.0
 74
     4
 75
     0
340
0
 46
0.0
 50
0.0
 44
0.0
 45
0.0
 49
13.0
 74
     4
 75
     0
340
0
 46
0.0
 50
0.0
 44
0.0
 45
0.0
 49
-13.0
 74
     4
 75
     0
340
0
 46
0.0
 50
0.0
 44
0.0
 45
0.0
  0
LTYPE
  5
6C
330
5
100
AcDbSymbolTableRecord
100
AcDbLinetypeTableRecord
  2
DASHED
 70
     0
  3
__ __ __ __ __ __ __ __ __
 72
    65
 73
     2
 40
25.72
 49
12.86
 74
     4
 75
     0
340
0
 46
0.0
 50
0.0
 44
0.0
 45
0.0
 49
-12.86
 74
     4
 75
     0
340
0
 46
0.0
 50
0.0
 44
0.0
 45
0.0
  0
LTYPE
  5
6D
330
5
100
AcDbSymbolTableRecord
100
AcDbLinetypeTableRecord
  2
DOT
 70
     0
  3
.........................
 72
    65
 73
     2
 40
10.0
 49
0.0
 74
     4
 75
     0
340
0
 46
0.0
 50
0.0
 44
0.0
 45
0.0
 49
-10.0
 74
     4
 75
     0
340
0
 46
0.0
 50
0.0
 44
0.0
 45
0.0
  0
LTYPE
  5
6E
330
5
100
AcDbSymbolTableRecord
100
AcDbLinetypeTableRecord
  2
PHANTOM
 70
     0
  3
____ _ _ ____ _ _ _____ _ _ ____
 72
    65
 73
     6
 40
50.5
 49
18.0
 74
     4
 75
     0
340
0
 46
0.0
 50
0.0
 44
0.0
 45
0.0
 49
-6.5
 74
     4
 75
     0
340
0
 46
0.0
 50
0.0
 44
0.0
 45
0.0
 49
6.5
 74
     4
 75
     0
340
0
 46
0.0
 50
0.0
 44
0.0
 45
0.0
 49
-6.5
 74
     4
 75
     0
340
0
 46
0.0
 50
0.0
 44
0.0
 45
0.0
 49
6.5
 74
     4
 75
     0
340
0
 46
0.0
 50
0.0
 44
0.0
 45
0.0
 49
-6.5
 74
     4
 75
     0
340
0
 46
0.0
 50
0.0
 44
0.0
 45
0.0
  0
ENDTAB
  0
TABLE
  2
LAYER
  5
2
330
0
100
AcDbSymbolTable
 70
     5
  0
LAYER
  5
10
330
2
100
AcDbSymbolTableRecord
100
AcDbLayerTableRecord
  2
0
 70
     0
 62
     7
  6
Continuous
370
    -3
390
F
  0
LAYER
  5
70
330
2
100
AcDbSymbolTableRecord
100
AcDbLayerTableRecord
  2
1
 70
     0
 62
     7
420
 16777215
  6
Continuous
370
    -3
390
F
  0
LAYER
  5
A9
330
2
100
AcDbSymbolTableRecord
100
AcDbLayerTableRecord
  2
256
 70
     0
 62
     7
420
 16777215
  6
Continuous
370
    -3
390
F
  0
LAYER
  5
BE
330
2
100
AcDbSymbolTableRecord
100
AcDbLayerTableRecord
  2
255
 70
     0
 62
     7
420
 16777215
  6
Continuous
370
    -3
390
F
  0
LAYER
  5
146
330
2
100
AcDbSymbolTableRecord
100
AcDbLayerTableRecord
  2
Defpoints
 70
     0
 62
     7
  6
Continuous
290
     0
370
    -3
390
F
  0
ENDTAB
  0
TABLE
  2
STYLE
  5
3
330
0
100
AcDbSymbolTable
 70
     4
  0
STYLE
  5
11
330
3
100
AcDbSymbolTableRecord
100
AcDbTextStyleTableRecord
  2
Standard
 70
     0
 40
0.0
 41
1.0
 50
0.0
 71
     0
 42
0.2
  3
txt
  4

  0
STYLE
  5
108
330
3
100
AcDbSymbolTableRecord
100
AcDbTextStyleTableRecord
  2
ISOCPEUR
 70
     0
 40
0.0
 41
1.0
 50
0.0
 71
     0
 42
0.2
  3
ISOCPEUR
  4

1001
ACAD
1000
ISOCPEUR
1071
        0
  0
STYLE
  5
11F
330
3
100
AcDbSymbolTableRecord
100
AcDbTextStyleTableRecord
  2
ideas_iso
 70
     0
 40
0.0
 41
1.0
 50
0.0
 71
     0
 42
0.2
  3
simplex.shx
  4

  0
STYLE
  5
120
330
3
100
AcDbSymbolTableRecord
100
AcDbTextStyleTableRecord
  2
DWGDirectTextStyle
 70
     0
 40
0.0
 41
1.0
 50
0.0
 71
     0
 42
0.2
  3
simplex
  4

  0
ENDTAB
  0
TABLE
  2
VIEW
  5
6
330
0
100
AcDbSymbolTable
 70
     8
  0
VIEW
  5
1FD
330
6
100
AcDbSymbolTableRecord
100
AcDbViewTableRecord
  2
Top
 70
     0
 40
254.0
 10
267.757405
 20
148.5
 41
254.0
 11
0.0
 21
0.0
 31
1.0
 12
0.0
 22
0.0
 32
0.0
 42
50.0
 43
964.613032
 44
-964.613032
 50
0.0
 71
     0
281
     0
 72
     0
  0
VIEW
  5
1FE
330
6
100
AcDbSymbolTableRecord
100
AcDbViewTableRecord
  2
Front
 70
     0
 40
1319.822715
 10
0.0
 20
0.0
 41
254.0
 11
0.0
 21
-1.0
 31
0.0
 12
0.0
 22
0.0
 32
0.0
 42
50.0
 43
672.020833
 44
-672.020833
 50
0.0
 71
     0
281
     0
 72
     0
  0
VIEW
  5
1FF
330
6
100
AcDbSymbolTableRecord
100
AcDbViewTableRecord
  2
Right
 70
     0
 40
1319.822715
 10
0.0
 20
0.0
 41
254.0
 11
1.0
 21
0.0
 31
0.0
 12
0.0
 22
0.0
 32
0.0
 42
50.0
 43
672.020833
 44
-672.020833
 50
0.0
 71
     0
281
     0
 72
     0
  0
VIEW
  5
200
330
6
100
AcDbSymbolTableRecord
100
AcDbViewTableRecord
  2
Back
 70
     0
 40
1319.822715
 10
0.0
 20
0.0
 41
254.0
 11
0.0
 21
1.0
 31
0.0
 12
0.0
 22
0.0
 32
0.0
 42
50.0
 43
672.020833
 44
-672.020833
 50
0.0
 71
     0
281
     0
 72
     0
  0
VIEW
  5
201
330
6
100
AcDbSymbolTableRecord
100
AcDbViewTableRecord
  2
Bottom
 70
     0
 40
254.0
 10
0.0
 20
0.0
 41
254.0
 11
0.0
 21
0.0
 31
-1.0
 12
0.0
 22
0.0
 32
0.0
 42
50.0
 43
659.911358
 44
-659.911358
 50
180.0
 71
     0
281
     0
 72
     0
  0
VIEW
  5
202
330
6
100
AcDbSymbolTableRecord
100
AcDbViewTableRecord
  2
Left
 70
     0
 40
1319.822715
 10
0.0
 20
0.0
 41
254.0
 11
-1.0
 21
0.0
 31
0.0
 12
0.0
 22
0.0
 32
0.0
 42
50.0
 43
672.020833
 44
-672.020833
 50
0.0
 71
     0
281
     0
 72
     0
  0
VIEW
  5
203
330
6
100
AcDbSymbolTableRecord
100
AcDbViewTableRecord
  2
Isometric
 70
     0
 40
1285.020866
 10
0.0
 20
0.0
 41
359.210245
 11
0.5773502691896258
 21
-0.5773502691896258
 31
0.5773502691896258
 12
0.0
 22
0.0
 32
0.0
 42
50.0
 43
667.141407
 44
-667.141407
 50
0.0
 71
     0
281
     0
 72
     0
  0
VIEW
  5
204
330
6
100
AcDbSymbolTableRecord
100
AcDbViewTableRecord
  2
Trimetric
 70
     0
 40
1357.434192
 10
0.0
 20
0.0
 41
357.33321
 11
0.7188730927569433
 21
-0.5850486126764433
 31
0.3754192287502549
 12
0.0
 22
0.0
 32
0.0
 42
50.0
 43
701.839477
 44
-701.839477
 50
0.0
 71
     0
281
     0
 72
     0
  0
ENDTAB
  0
TABLE
  2
UCS
  5
7
330
0
100
AcDbSymbolTable
 70
     0
  0
ENDTAB
  0
TABLE
  2
APPID
  5
9
330
0
100
AcDbSymbolTable
 70
     4
  0
APPID
  5
12
330
9
100
AcDbSymbolTableRecord
100
AcDbRegAppTableRecord
  2
ACAD
 70
     0
  0
APPID
  5
218
330
9
100
AcDbSymbolTableRecord
100
AcDbRegAppTableRecord
  2
ACAD_DSTYLE_DIM_LINETYPE
 70
     0
  0
APPID
  5
219
330
9
100
AcDbSymbolTableRecord
100
AcDbRegAppTableRecord
  2
ACAD_DSTYLE_DIM_EXT1_LINETYPE
 70
     0
  0
APPID
  5
21A
330
9
100
AcDbSymbolTableRecord
100
AcDbRegAppTableRecord
  2
ACAD_DSTYLE_DIM_EXT2_LINETYPE
 70
     0
  0
ENDTAB
  0
TABLE
  2
DIMSTYLE
  5
A
330
0
100
AcDbSymbolTable
 70
     1
100
AcDbDimStyleTable
  0
DIMSTYLE
105
27
102
{ACAD_REACTORS
330
143
330
15C
330
176
330
18E
330
1A8
330
1C2
330
1DB
102
}
330
A
100
AcDbSymbolTableRecord
100
AcDbDimStyleTableRecord
  2
Standard
 70
     0
178
     0
340
11
  0
ENDTAB
  0
TABLE
  2
BLOCK_RECORD
  5
1
330
0
100
AcDbSymbolTable
 70
    18
  0
BLOCK_RECORD
  5
1F
330
1
100
AcDbSymbolTableRecord
100
AcDbBlockTableRecord
  2
*Model_Space
340
22
  0
BLOCK_RECORD
  5
1B
330
1
100
AcDbSymbolTableRecord
100
AcDbBlockTableRecord
  2
*Paper_Space
340
1E
  0
BLOCK_RECORD
  5
23
330
1
100
AcDbSymbolTableRecord
100
AcDbBlockTableRecord
  2
*Paper_Space0
340
26
  0
BLOCK_RECORD
  5
102
330
1
100
AcDbSymbolTableRecord
100
AcDbBlockTableRecord
  2
LABLE3D_1
340
0
102
{BLKREFS
331
109
102
}
  0
BLOCK_RECORD
  5
103
330
1
100
AcDbSymbolTableRecord
100
AcDbBlockTableRecord
  2
_NONE
340
0
  0
BLOCK_RECORD
  5
147
330
1
100
AcDbSymbolTableRecord
100
AcDbBlockTableRecord
  2
*D3
340
0
  0
BLOCK_RECORD
  5
153
330
1
100
AcDbSymbolTableRecord
100
AcDbBlockTableRecord
  2
_U0
340
0
  0
BLOCK_RECORD
  5
15F
330
1
100
AcDbSymbolTableRecord
100
AcDbBlockTableRecord
  2
*D5
340
0
  0
BLOCK_RECORD
  5
16D
330
1
100
AcDbSymbolTableRecord
100
AcDbBlockTableRecord
  2
_U1
340
0
  0
BLOCK_RECORD
  5
179
330
1
100
AcDbSymbolTableRecord
100
AcDbBlockTableRecord
  2
*D7
340
0
  0
BLOCK_RECORD
  5
185
330
1
100
AcDbSymbolTableRecord
100
AcDbBlockTableRecord
  2
_U2
340
0
  0
BLOCK_RECORD
  5
191
330
1
100
AcDbSymbolTableRecord
100
AcDbBlockTableRecord
  2
*D9
340
0
  0
BLOCK_RECORD
  5
19F
330
1
100
AcDbSymbolTableRecord
100
AcDbBlockTableRecord
  2
_U3
340
0
  0
BLOCK_RECORD
  5
1AB
330
1
100
AcDbSymbolTableRecord
100
AcDbBlockTableRecord
  2
*D11
340
0
  0
BLOCK_RECORD
  5
1B9
330
1
100
AcDbSymbolTableRecord
100
AcDbBlockTableRecord
  2
_U4
340
0
  0
BLOCK_RECORD
  5
1C5
330
1
100
AcDbSymbolTableRecord
100
AcDbBlockTableRecord
  2
*D13
340
0
  0
BLOCK_RECORD
  5
1D2
330
1
100
AcDbSymbolTableRecord
100
AcDbBlockTableRecord
  2
_U5
340
0
  0
BLOCK_RECORD
  5
1DE
330
1
100
AcDbSymbolTableRecord
100
AcDbBlockTableRecord
  2
*D15
340
0
  0
BLOCK_RECORD
  5
1EC
330
1
100
AcDbSymbolTableRecord
100
AcDbBlockTableRecord
  2
_U6
340
0
  0
BLOCK_RECORD
  5
1F5
330
1
100
AcDbSymbolTableRecord
100
AcDbBlockTableRecord
  2
_U7
340
0
102
{BLKREFS
331
1FA
102
}
  0
ENDTAB
  0
ENDSEC
  0
SECTION
  2
BLOCKS
  0
BLOCK
  5
20
330
1F
100
AcDbEntity
  8
0
100
AcDbBlockBegin
  2
*Model_Space
 70
     0
 10
0.0
 20
0.0
 30
0.0
  3
*Model_Space
  1
*Model_Space
  0
ENDBLK
  5
21
330
1F
100
AcDbEntity
  8
0
100
AcDbBlockEnd
  0
BLOCK
  5
1C
330
1B
100
AcDbEntity
 67
     1
  8
0
100
AcDbBlockBegin
  2
*Paper_Space
 70
     0
 10
0.0
 20
0.0
 30
0.0
  3
*Paper_Space
  1
*Paper_Space
  0
ENDBLK
  5
1D
330
1B
100
AcDbEntity
 67
     1
  8
0
100
AcDbBlockEnd
  0
BLOCK
  5
24
330
23
100
AcDbEntity
  8
0
100
AcDbBlockBegin
  2
*Paper_Space0
 70
     0
 10
0.0
 20
0.0
 30
0.0
  3
*Paper_Space0
  1
*Paper_Space0
  0
ENDBLK
  5
25
330
23
100
AcDbEntity
  8
0
100
AcDbBlockEnd
  0
BLOCK
  5
10A
330
102
100
AcDbEntity
  8
0
100
AcDbBlockBegin
  2
LABLE3D_1
 70
     0
 10
0.0
 20
0.0
 30
0.0
  3
LABLE3D_1
  1
LABLE3D_1
  0
MTEXT
  5
107
330
102
100
AcDbEntity
  8
1
  6
Continuous
 62
    35
370
    18
100
AcDbMText
 10
81.710667
 20
248.801483
 30
0.0
 40
3.5
 41
0.0
 71
     7
 72
     5
  1
\W1.0000;fuer M5
  7
ISOCPEUR
 73
     2
 44
0.85889
  0
ENDBLK
  5
10B
330
102
100
AcDbEntity
  8
0
100
AcDbBlockEnd
  0
BLOCK
  5
104
330
103
100
AcDbEntity
  8
0
100
AcDbBlockBegin
  2
_NONE
 70
     0
 10
0.0
 20
0.0
 30
0.0
  3
_NONE
  1
_NONE
  0
ENDBLK
  5
105
330
103
100
AcDbEntity
  8
0
100
AcDbBlockEnd
  0
BLOCK
  5
148
330
147
100
AcDbEntity
  8
0
100
AcDbBlockBegin
  2
*D3
 70
     1
 10
0.0
 20
0.0
 30
0.0
  3
*D3
  1
*D3
  0
LINE
  5
14A
330
147
100
AcDbEntity
  8
0
 62
    35
370
    -2
100
AcDbLine
 10
74.559975
 20
229.601291
 30
0.0
 11
74.559975
 21
178.601291
 31
0.0
  0
LINE
  5
14B
330
147
100
AcDbEntity
  8
0
 62
    35
370
    -2
100
AcDbLine
 10
139.559975
 20
229.601291
 30
0.0
 11
139.559975
 21
178.601291
 31
0.0
  0
LINE
  5
14C
330
147
100
AcDbEntity
  8
0
 62
    35
370
    -2
100
AcDbLine
 10
82.559975
 20
179.601291
 30
0.0
 11
131.559975
 21
179.601291
 31
0.0
  0
SOLID
  5
14D
330
147
100
AcDbEntity
  8
0
 62
    35
100
AcDbTrace
 10
82.559975
 20
180.934624
 30
0.0
 11
82.559975
 21
178.267958
 31
0.0
 12
74.559975
 22
179.601291
 32
0.0
 13
74.559975
 23
179.601291
 33
0.0
  0
SOLID
  5
14E
330
147
100
AcDbEntity
  8
0
 62
    35
100
AcDbTrace
 10
131.559975
 20
178.267958
 30
0.0
 11
131.559975
 21
180.934624
 31
0.0
 12
139.559975
 22
179.601291
 32
0.0
 13
139.559975
 23
179.601291
 33
0.0
  0
MTEXT
  5
14F
330
147
100
AcDbEntity
  8
0
 62
    35
370
    18
100
AcDbMText
 10
107.059975
 20
186.601291
 30
0.0
 40
3.5
 41
0.0
 71
     5
 72
     1
  1
\A1;65
  7
ISOCPEUR
 73
     1
 44
1.0
  0
POINT
  5
150
330
147
100
AcDbEntity
  8
Defpoints
 62
     0
100
AcDbPoint
 10
74.559975
 20
229.601291
 30
0.0
  0
POINT
  5
151
330
147
100
AcDbEntity
  8
Defpoints
 62
     0
100
AcDbPoint
 10
139.559975
 20
229.601291
 30
0.0
  0
POINT
  5
152
330
147
100
AcDbEntity
  8
Defpoints
 62
     0
100
AcDbPoint
 10
139.559975
 20
179.601291
 30
0.0
  0
ENDBLK
  5
149
330
147
100
AcDbEntity
  8
0
100
AcDbBlockEnd
  0
BLOCK
  5
15A
330
153
100
AcDbEntity
  8
0
100
AcDbBlockBegin
  2
_U0
 70
     0
 10
0.0
 20
0.0
 30
0.0
  3
_U0
  1
_U0
  0
MTEXT
  5
154
330
153
100
AcDbEntity
  8
1
  6
Continuous
 62
    35
370
    13
100
AcDbMText
 10
105.659975
 20
180.301483
 30
0.0
 40
3.5
 41
0.0
 71
     7
 72
     5
  1
\W1.0000;65
  7
ISOCPEUR
 73
     2
 44
1.115371
  0
LINE
  5
155
330
153
100
AcDbEntity
  8
1
 62
    35
370
    13
100
AcDbLine
 10
74.559975
 20
205.601291
 30
0.0
 11
74.559975
 21
178.601291
 31
0.0
  0
LINE
  5
156
330
153
100
AcDbEntity
  8
1
 62
    35
370
    13
100
AcDbLine
 10
139.559975
 20
205.601291
 30
0.0
 11
139.559975
 21
178.601291
 31
0.0
  0
LINE
  5
157
330
153
100
AcDbEntity
  8
1
 62
    35
370
    13
100
AcDbLine
 10
74.559975
 20
179.601291
 30
0.0
 11
139.559975
 21
179.601291
 31
0.0
  0
SOLID
  5
158
330
153
100
AcDbEntity
  8
1
 62
    35
370
    18
100
AcDbTrace
 10
74.559975
 20
179.601291
 30
0.0
 11
82.559971
 21
180.654511
 31
0.0
 12
82.559979
 22
178.548071
 32
0.0
 13
74.559975
 23
179.601291
 33
0.0
  0
SOLID
  5
159
330
153
100
AcDbEntity
  8
1
 62
    35
370
    18
100
AcDbTrace
 10
139.559975
 20
179.601291
 30
0.0
 11
131.559979
 21
178.548071
 31
0.0
 12
131.559971
 22
180.654511
 32
0.0
 13
139.559975
 23
179.601291
 33
0.0
  0
ENDBLK
  5
15B
330
153
100
AcDbEntity
  8
0
100
AcDbBlockEnd
  0
BLOCK
  5
160
330
15F
100
AcDbEntity
  8
0
100
AcDbBlockBegin
  2
*D5
 70
     1
 10
0.0
 20
0.0
 30
0.0
  3
*D5
  1
*D5
  0
LINE
  5
162
330
15F
100
AcDbEntity
  8
0
 62
    35
370
    -2
100
AcDbLine
 10
77.059975
 20
131.933475
 30
0.0
 11
62.559975
 21
131.933475
 31
0.0
  0
LINE
  5
163
330
15F
100
AcDbEntity
  8
0
 62
    35
370
    -2
100
AcDbLine
 10
111.059975
 20
128.933475
 30
0.0
 11
62.559975
 21
128.933475
 31
0.0
  0
LINE
  5
164
330
15F
100
AcDbEntity
  8
0
 62
    35
370
    -2
100
AcDbLine
 10
63.559975
 20
128.933475
 30
0.0
 11
63.559975
 21
100.683475
 31
0.0
  0
LINE
  5
165
330
15F
100
AcDbEntity
  8
0
 62
    35
370
    -2
100
AcDbLine
 10
63.559975
 20
139.933475
 30
0.0
 11
63.559975
 21
147.933475
 31
0.0
  0
LINE
  5
166
330
15F
100
AcDbEntity
  8
0
 62
    35
370
    -2
100
AcDbLine
 10
63.559975
 20
120.933475
 30
0.0
 11
63.559975
 21
112.933475
 31
0.0
  0
SOLID
  5
167
330
15F
100
AcDbEntity
  8
0
 62
    35
100
AcDbTrace
 10
62.226641
 20
139.933475
 30
0.0
 11
64.893308
 21
139.933475
 31
0.0
 12
63.559975
 22
131.933475
 32
0.0
 13
63.559975
 23
131.933475
 33
0.0
  0
SOLID
  5
168
330
15F
100
AcDbEntity
  8
0
 62
    35
100
AcDbTrace
 10
64.893308
 20
120.933475
 30
0.0
 11
62.226641
 21
120.933475
 31
0.0
 12
63.559975
 22
128.933475
 32
0.0
 13
63.559975
 23
128.933475
 33
0.0
  0
MTEXT
  5
169
330
15F
100
AcDbEntity
  8
0
 62
    35
370
    18
100
AcDbMText
 10
56.559975
 20
106.808475
 30
0.0
 40
3.5
 41
0.0
 71
     5
 72
     1
  1
\A1;3
  7
ISOCPEUR
 11
0.0
 21
1.0
 31
0.0
 73
     1
 44
1.0
  0
POINT
  5
16A
330
15F
100
AcDbEntity
  8
Defpoints
 62
     0
100
AcDbPoint
 10
77.059975
 20
131.933475
 30
0.0
  0
POINT
  5
16B
330
15F
100
AcDbEntity
  8
Defpoints
 62
     0
100
AcDbPoint
 10
111.059975
 20
128.933475
 30
0.0
  0
POINT
  5
16C
330
15F
100
AcDbEntity
  8
Defpoints
 62
     0
100
AcDbPoint
 10
63.559975
 20
128.933475
 30
0.0
  0
ENDBLK
  5
161
330
15F
100
AcDbEntity
  8
0
100
AcDbBlockEnd
  0
BLOCK
  5
174
330
16D
100
AcDbEntity
  8
0
100
AcDbBlockBegin
  2
_U1
 70
     0
 10
0.0
 20
0.0
 30
0.0
  3
_U1
  1
_U1
  0
MTEXT
  5
16E
330
16D
100
AcDbEntity
  8
1
  6
Continuous
 62
    35
370
    13
100
AcDbMText
 10
62.859782
 20
116.774777
 30
0.0
 40
3.5
 41
0.0
 71
     7
 72
     5
  1
\W1.0000;3
  7
ISOCPEUR
 11
6.123233995736766E-17
 21
1.0
 31
0.0
 73
     2
 44
1.115371
  0
LINE
  5
16F
330
16D
100
AcDbEntity
  8
1
 62
    35
370
    13
100
AcDbLine
 10
77.059975
 20
131.933475
 30
0.0
 11
62.559975
 21
131.933475
 31
0.0
  0
LINE
  5
170
330
16D
100
AcDbEntity
  8
1
 62
    35
370
    13
100
AcDbLine
 10
111.059975
 20
128.933475
 30
0.0
 11
62.559975
 21
128.933475
 31
0.0
  0
LINE
  5
171
330
16D
100
AcDbEntity
  8
1
 62
    35
370
    13
100
AcDbLine
 10
63.559975
 20
115.899777
 30
0.0
 11
63.559975
 21
142.433475
 31
0.0
  0
SOLID
  5
172
330
16D
100
AcDbEntity
  8
1
 62
    35
370
    18
100
AcDbTrace
 10
63.559975
 20
131.933475
 30
0.0
 11
62.506755
 21
139.933471
 31
0.0
 12
64.613195
 22
139.933479
 32
0.0
 13
63.559975
 23
131.933475
 33
0.0
  0
SOLID
  5
173
330
16D
100
AcDbEntity
  8
1
 62
    35
370
    18
100
AcDbTrace
 10
63.559975
 20
128.933475
 30
0.0
 11
64.613195
 21
120.933479
 31
0.0
 12
62.506755
 22
120.933471
 32
0.0
 13
63.559975
 23
128.933475
 33
0.0
  0
ENDBLK
  5
175
330
16D
100
AcDbEntity
  8
0
100
AcDbBlockEnd
  0
BLOCK
  5
17A
330
179
100
AcDbEntity
  8
0
100
AcDbBlockBegin
  2
*D7
 70
     1
 10
0.0
 20
0.0
 30
0.0
  3
*D7
  1
*D7
  0
LINE
  5
17C
330
179
100
AcDbEntity
  8
0
 62
    35
370
    -2
100
AcDbLine
 10
90.059975
 20
217.601291
 30
0.0
 11
90.059975
 21
189.601291
 31
0.0
  0
LINE
  5
17D
330
179
100
AcDbEntity
  8
0
 62
    35
370
    -2
100
AcDbLine
 10
132.059975
 20
217.601291
 30
0.0
 11
132.059975
 21
189.601291
 31
0.0
  0
LINE
  5
17E
330
179
100
AcDbEntity
  8
0
 62
    35
370
    -2
100
AcDbLine
 10
98.059975
 20
190.601291
 30
0.0
 11
124.059975
 21
190.601291
 31
0.0
  0
SOLID
  5
17F
330
179
100
AcDbEntity
  8
0
 62
    35
100
AcDbTrace
 10
98.059975
 20
191.934624
 30
0.0
 11
98.059975
 21
189.267958
 31
0.0
 12
90.059975
 22
190.601291
 32
0.0
 13
90.059975
 23
190.601291
 33
0.0
  0
SOLID
  5
180
330
179
100
AcDbEntity
  8
0
 62
    35
100
AcDbTrace
 10
124.059975
 20
189.267958
 30
0.0
 11
124.059975
 21
191.934624
 31
0.0
 12
132.059975
 22
190.601291
 32
0.0
 13
132.059975
 23
190.601291
 33
0.0
  0
MTEXT
  5
181
330
179
100
AcDbEntity
  8
0
 62
    35
370
    18
100
AcDbMText
 10
111.059975
 20
197.601291
 30
0.0
 40
3.5
 41
0.0
 71
     5
 72
     1
  1
\A1;42
  7
ISOCPEUR
 73
     1
 44
1.0
  0
POINT
  5
182
330
179
100
AcDbEntity
  8
Defpoints
 62
     0
100
AcDbPoint
 10
90.059975
 20
217.601291
 30
0.0
  0
POINT
  5
183
330
179
100
AcDbEntity
  8
Defpoints
 62
     0
100
AcDbPoint
 10
132.059975
 20
217.601291
 30
0.0
  0
POINT
  5
184
330
179
100
AcDbEntity
  8
Defpoints
 62
     0
100
AcDbPoint
 10
132.059975
 20
190.601291
 30
0.0
  0
ENDBLK
  5
17B
330
179
100
AcDbEntity
  8
0
100
AcDbBlockEnd
  0
BLOCK
  5
18C
330
185
100
AcDbEntity
  8
0
100
AcDbBlockBegin
  2
_U2
 70
     0
 10
0.0
 20
0.0
 30
0.0
  3
_U2
  1
_U2
  0
MTEXT
  5
186
330
185
100
AcDbEntity
  8
1
  6
Continuous
 62
    35
370
    13
100
AcDbMText
 10
109.484975
 20
191.301483
 30
0.0
 40
3.5
 41
0.0
 71
     7
 72
     5
  1
\W1.0000;42
  7
ISOCPEUR
 73
     2
 44
1.115371
  0
LINE
  5
187
330
185
100
AcDbEntity
  8
1
 62
    35
370
    13
100
AcDbLine
 10
90.059975
 20
217.601291
 30
0.0
 11
90.059975
 21
189.601291
 31
0.0
  0
LINE
  5
188
330
185
100
AcDbEntity
  8
1
 62
    35
370
    13
100
AcDbLine
 10
132.059975
 20
217.601291
 30
0.0
 11
132.059975
 21
189.601291
 31
0.0
  0
LINE
  5
189
330
185
100
AcDbEntity
  8
1
 62
    35
370
    13
100
AcDbLine
 10
90.059975
 20
190.601291
 30
0.0
 11
132.059975
 21
190.601291
 31
0.0
  0
SOLID
  5
18A
330
185
100
AcDbEntity
  8
1
 62
    35
370
    18
100
AcDbTrace
 10
90.059975
 20
190.601291
 30
0.0
 11
98.059971
 21
191.654511
 31
0.0
 12
98.059979
 22
189.548071
 32
0.0
 13
90.059975
 23
190.601291
 33
0.0
  0
SOLID
  5
18B
330
185
100
AcDbEntity
  8
1
 62
    35
370
    18
100
AcDbTrace
 10
132.059975
 20
190.601291
 30
0.0
 11
124.059979
 21
189.548071
 31
0.0
 12
124.059971
 22
191.654511
 32
0.0
 13
132.059975
 23
190.601291
 33
0.0
  0
ENDBLK
  5
18D
330
185
100
AcDbEntity
  8
0
100
AcDbBlockEnd
  0
BLOCK
  5
192
330
191
100
AcDbEntity
  8
0
100
AcDbBlockBegin
  2
*D9
 70
     1
 10
0.0
 20
0.0
 30
0.0
  3
*D9
  1
*D9
  0
LINE
  5
194
330
191
100
AcDbEntity
  8
0
 62
    35
370
    -2
100
AcDbLine
 10
111.059975
 20
217.601291
 30
0.0
 11
111.059975
 21
239.601291
 31
0.0
  0
LINE
  5
195
330
191
100
AcDbEntity
  8
0
 62
    35
370
    -2
100
AcDbLine
 10
103.059975
 20
220.601291
 30
0.0
 11
103.059975
 21
239.601291
 31
0.0
  0
LINE
  5
196
330
191
100
AcDbEntity
  8
0
 62
    35
370
    -2
100
AcDbLine
 10
103.059975
 20
238.601291
 30
0.0
 11
74.809975
 21
238.601291
 31
0.0
  0
LINE
  5
197
330
191
100
AcDbEntity
  8
0
 62
    35
370
    -2
100
AcDbLine
 10
119.059975
 20
238.601291
 30
0.0
 11
127.059975
 21
238.601291
 31
0.0
  0
LINE
  5
198
330
191
100
AcDbEntity
  8
0
 62
    35
370
    -2
100
AcDbLine
 10
95.059975
 20
238.601291
 30
0.0
 11
87.059975
 21
238.601291
 31
0.0
  0
SOLID
  5
199
330
191
100
AcDbEntity
  8
0
 62
    35
100
AcDbTrace
 10
119.059975
 20
239.934624
 30
0.0
 11
119.059975
 21
237.267958
 31
0.0
 12
111.059975
 22
238.601291
 32
0.0
 13
111.059975
 23
238.601291
 33
0.0
  0
SOLID
  5
19A
330
191
100
AcDbEntity
  8
0
 62
    35
100
AcDbTrace
 10
95.059975
 20
237.267958
 30
0.0
 11
95.059975
 21
239.934624
 31
0.0
 12
103.059975
 22
238.601291
 32
0.0
 13
103.059975
 23
238.601291
 33
0.0
  0
MTEXT
  5
19B
330
191
100
AcDbEntity
  8
0
 62
    35
370
    18
100
AcDbMText
 10
80.934975
 20
245.601291
 30
0.0
 40
3.5
 41
0.0
 71
     5
 72
     1
  1
\A1;8
  7
ISOCPEUR
 73
     1
 44
1.0
  0
POINT
  5
19C
330
191
100
AcDbEntity
  8
Defpoints
 62
     0
100
AcDbPoint
 10
111.059975
 20
217.601291
 30
0.0
  0
POINT
  5
19D
330
191
100
AcDbEntity
  8
Defpoints
 62
     0
100
AcDbPoint
 10
103.059975
 20
220.601291
 30
0.0
  0
POINT
  5
19E
330
191
100
AcDbEntity
  8
Defpoints
 62
     0
100
AcDbPoint
 10
103.059975
 20
238.601291
 30
0.0
  0
ENDBLK
  5
193
330
191
100
AcDbEntity
  8
0
100
AcDbBlockEnd
  0
BLOCK
  5
1A6
330
19F
100
AcDbEntity
  8
0
100
AcDbBlockBegin
  2
_U3
 70
     0
 10
0.0
 20
0.0
 30
0.0
  3
_U3
  1
_U3
  0
MTEXT
  5
1A0
330
19F
100
AcDbEntity
  8
1
  6
Continuous
 62
    35
370
    13
100
AcDbMText
 10
90.818611
 20
239.301483
 30
0.0
 40
3.5
 41
0.0
 71
     7
 72
     5
  1
\W1.0000;8
  7
ISOCPEUR
 73
     2
 44
1.115371
  0
LINE
  5
1A1
330
19F
100
AcDbEntity
  8
1
 62
    35
370
    13
100
AcDbLine
 10
111.059975
 20
217.601291
 30
0.0
 11
111.059975
 21
239.601291
 31
0.0
  0
LINE
  5
1A2
330
19F
100
AcDbEntity
  8
1
 62
    35
370
    13
100
AcDbLine
 10
103.059975
 20
220.601291
 30
0.0
 11
103.059975
 21
239.601291
 31
0.0
  0
LINE
  5
1A3
330
19F
100
AcDbEntity
  8
1
 62
    35
370
    13
100
AcDbLine
 10
89.943611
 20
238.601291
 30
0.0
 11
121.559975
 21
238.601291
 31
0.0
  0
SOLID
  5
1A4
330
19F
100
AcDbEntity
  8
1
 62
    35
370
    18
100
AcDbTrace
 10
111.059975
 20
238.601291
 30
0.0
 11
119.059971
 21
239.654511
 31
0.0
 12
119.059979
 22
237.548071
 32
0.0
 13
111.059975
 23
238.601291
 33
0.0
  0
SOLID
  5
1A5
330
19F
100
AcDbEntity
  8
1
 62
    35
370
    18
100
AcDbTrace
 10
103.059975
 20
238.601291
 30
0.0
 11
95.059979
 21
237.548071
 31
0.0
 12
95.059971
 22
239.654511
 32
0.0
 13
103.059975
 23
238.601291
 33
0.0
  0
ENDBLK
  5
1A7
330
19F
100
AcDbEntity
  8
0
100
AcDbBlockEnd
  0
BLOCK
  5
1AC
330
1AB
100
AcDbEntity
  8
0
100
AcDbBlockBegin
  2
*D11
 70
     1
 10
0.0
 20
0.0
 30
0.0
  3
*D11
  1
*D11
  0
LINE
  5
1AE
330
1AB
100
AcDbEntity
  8
0
 62
    35
370
    -2
100
AcDbLine
 10
124.059975
 20
217.601291
 30
0.0
 11
124.059975
 21
251.601291
 31
0.0
  0
LINE
  5
1AF
330
1AB
100
AcDbEntity
  8
0
 62
    35
370
    -2
100
AcDbLine
 10
132.059975
 20
217.601291
 30
0.0
 11
132.059975
 21
251.601291
 31
0.0
  0
LINE
  5
1B0
330
1AB
100
AcDbEntity
  8
0
 62
    35
370
    -2
100
AcDbLine
 10
124.059975
 20
250.601291
 30
0.0
 11
95.809975
 21
250.601291
 31
0.0
  0
LINE
  5
1B1
330
1AB
100
AcDbEntity
  8
0
 62
    35
370
    -2
100
AcDbLine
 10
116.059975
 20
250.601291
 30
0.0
 11
108.059975
 21
250.601291
 31
0.0
  0
LINE
  5
1B2
330
1AB
100
AcDbEntity
  8
0
 62
    35
370
    -2
100
AcDbLine
 10
140.059975
 20
250.601291
 30
0.0
 11
148.059975
 21
250.601291
 31
0.0
  0
SOLID
  5
1B3
330
1AB
100
AcDbEntity
  8
0
 62
    35
100
AcDbTrace
 10
116.059975
 20
249.267958
 30
0.0
 11
116.059975
 21
251.934624
 31
0.0
 12
124.059975
 22
250.601291
 32
0.0
 13
124.059975
 23
250.601291
 33
0.0
  0
SOLID
  5
1B4
330
1AB
100
AcDbEntity
  8
0
 62
    35
100
AcDbTrace
 10
140.059975
 20
251.934624
 30
0.0
 11
140.059975
 21
249.267958
 31
0.0
 12
132.059975
 22
250.601291
 32
0.0
 13
132.059975
 23
250.601291
 33
0.0
  0
MTEXT
  5
1B5
330
1AB
100
AcDbEntity
  8
0
 62
    35
370
    18
100
AcDbMText
 10
101.934975
 20
257.601291
 30
0.0
 40
3.5
 41
0.0
 71
     5
 72
     1
  1
\A1;8
  7
ISOCPEUR
 73
     1
 44
1.0
  0
POINT
  5
1B6
330
1AB
100
AcDbEntity
  8
Defpoints
 62
     0
100
AcDbPoint
 10
124.059975
 20
217.601291
 30
0.0
  0
POINT
  5
1B7
330
1AB
100
AcDbEntity
  8
Defpoints
 62
     0
100
AcDbPoint
 10
132.059975
 20
217.601291
 30
0.0
  0
POINT
  5
1B8
330
1AB
100
AcDbEntity
  8
Defpoints
 62
     0
100
AcDbPoint
 10
132.059975
 20
250.601291
 30
0.0
  0
ENDBLK
  5
1AD
330
1AB
100
AcDbEntity
  8
0
100
AcDbBlockEnd
  0
BLOCK
  5
1C0
330
1B9
100
AcDbEntity
  8
0
100
AcDbBlockBegin
  2
_U4
 70
     0
 10
0.0
 20
0.0
 30
0.0
  3
_U4
  1
_U4
  0
MTEXT
  5
1BA
330
1B9
100
AcDbEntity
  8
1
  6
Continuous
 62
    35
370
    13
100
AcDbMText
 10
112.432443
 20
251.301483
 30
0.0
 40
3.5
 41
0.0
 71
     7
 72
     5
  1
\W1.0000;8
  7
ISOCPEUR
 73
     2
 44
1.115371
  0
LINE
  5
1BB
330
1B9
100
AcDbEntity
  8
1
 62
    35
370
    13
100
AcDbLine
 10
124.059975
 20
224.601291
 30
0.0
 11
124.059975
 21
251.601291
 31
0.0
  0
LINE
  5
1BC
330
1B9
100
AcDbEntity
  8
1
 62
    35
370
    13
100
AcDbLine
 10
132.059975
 20
224.601291
 30
0.0
 11
132.059975
 21
251.601291
 31
0.0
  0
LINE
  5
1BD
330
1B9
100
AcDbEntity
  8
1
 62
    35
370
    13
100
AcDbLine
 10
142.559975
 20
250.601291
 30
0.0
 11
111.557443
 21
250.601291
 31
0.0
  0
SOLID
  5
1BE
330
1B9
100
AcDbEntity
  8
1
 62
    35
370
    18
100
AcDbTrace
 10
124.059975
 20
250.601291
 30
0.0
 11
116.059979
 21
249.548071
 31
0.0
 12
116.059971
 22
251.654511
 32
0.0
 13
124.059975
 23
250.601291
 33
0.0
  0
SOLID
  5
1BF
330
1B9
100
AcDbEntity
  8
1
 62
    35
370
    18
100
AcDbTrace
 10
132.059975
 20
250.601291
 30
0.0
 11
140.059971
 21
251.654511
 31
0.0
 12
140.059979
 22
249.548071
 32
0.0
 13
132.059975
 23
250.601291
 33
0.0
  0
ENDBLK
  5
1C1
330
1B9
100
AcDbEntity
  8
0
100
AcDbBlockEnd
  0
BLOCK
  5
1C6
330
1C5
100
AcDbEntity
  8
0
100
AcDbBlockBegin
  2
*D13
 70
     1
 10
0.0
 20
0.0
 30
0.0
  3
*D13
  1
*D13
  0
LINE
  5
1C8
330
1C5
100
AcDbEntity
  8
0
 62
    35
370
    -2
100
AcDbLine
 10
74.559975
 20
229.601291
 30
0.0
 11
151.559975
 21
229.601291
 31
0.0
  0
LINE
  5
1C9
330
1C5
100
AcDbEntity
  8
0
 62
    35
370
    -2
100
AcDbLine
 10
74.559975
 20
205.601291
 30
0.0
 11
151.559975
 21
205.601291
 31
0.0
  0
LINE
  5
1CA
330
1C5
100
AcDbEntity
  8
0
 62
    35
370
    -2
100
AcDbLine
 10
150.559975
 20
237.601291
 30
0.0
 11
150.559975
 21
245.601291
 31
0.0
  0
LINE
  5
1CB
330
1C5
100
AcDbEntity
  8
0
 62
    35
370
    -2
100
AcDbLine
 10
150.559975
 20
197.601291
 30
0.0
 11
150.559975
 21
189.601291
 31
0.0
  0
SOLID
  5
1CC
330
1C5
100
AcDbEntity
  8
0
 62
    35
100
AcDbTrace
 10
149.226641
 20
237.601291
 30
0.0
 11
151.893308
 21
237.601291
 31
0.0
 12
150.559975
 22
229.601291
 32
0.0
 13
150.559975
 23
229.601291
 33
0.0
  0
SOLID
  5
1CD
330
1C5
100
AcDbEntity
  8
0
 62
    35
100
AcDbTrace
 10
151.893308
 20
197.601291
 30
0.0
 11
149.226641
 21
197.601291
 31
0.0
 12
150.559975
 22
205.601291
 32
0.0
 13
150.559975
 23
205.601291
 33
0.0
  0
MTEXT
  5
1CE
330
1C5
100
AcDbEntity
  8
0
 62
    35
370
    18
100
AcDbMText
 10
143.559975
 20
217.601291
 30
0.0
 40
3.5
 41
0.0
 71
     5
 72
     1
  1
\A1;24
  7
ISOCPEUR
 11
0.0
 21
1.0
 31
0.0
 73
     1
 44
1.0
  0
POINT
  5
1CF
330
1C5
100
AcDbEntity
  8
Defpoints
 62
     0
100
AcDbPoint
 10
74.559975
 20
229.601291
 30
0.0
  0
POINT
  5
1D0
330
1C5
100
AcDbEntity
  8
Defpoints
 62
     0
100
AcDbPoint
 10
74.559975
 20
205.601291
 30
0.0
  0
POINT
  5
1D1
330
1C5
100
AcDbEntity
  8
Defpoints
 62
     0
100
AcDbPoint
 10
150.559975
 20
205.601291
 30
0.0
  0
ENDBLK
  5
1C7
330
1C5
100
AcDbEntity
  8
0
100
AcDbBlockEnd
  0
BLOCK
  5
1D9
330
1D2
100
AcDbEntity
  8
0
100
AcDbBlockBegin
  2
_U5
 70
     0
 10
0.0
 20
0.0
 30
0.0
  3
_U5
  1
_U5
  0
MTEXT
  5
1D3
330
1D2
100
AcDbEntity
  8
1
  6
Continuous
 62
    35
370
    13
100
AcDbMText
 10
149.859782
 20
216.026291
 30
0.0
 40
3.5
 41
0.0
 71
     7
 72
     5
  1
\W1.0000;24
  7
ISOCPEUR
 11
6.123233995736766E-17
 21
1.0
 31
0.0
 73
     2
 44
1.115371
  0
LINE
  5
1D4
330
1D2
100
AcDbEntity
  8
1
 62
    35
370
    13
100
AcDbLine
 10
139.559975
 20
229.601291
 30
0.0
 11
151.559975
 21
229.601291
 31
0.0
  0
LINE
  5
1D5
330
1D2
100
AcDbEntity
  8
1
 62
    35
370
    13
100
AcDbLine
 10
139.559975
 20
205.601291
 30
0.0
 11
151.559975
 21
205.601291
 31
0.0
  0
LINE
  5
1D6
330
1D2
100
AcDbEntity
  8
1
 62
    35
370
    13
100
AcDbLine
 10
150.559975
 20
229.601291
 30
0.0
 11
150.559975
 21
205.601291
 31
0.0
  0
SOLID
  5
1D7
330
1D2
100
AcDbEntity
  8
1
 62
    35
370
    18
100
AcDbTrace
 10
150.559975
 20
229.601291
 30
0.0
 11
151.613195
 21
221.601295
 31
0.0
 12
149.506755
 22
221.601287
 32
0.0
 13
150.559975
 23
229.601291
 33
0.0
  0
SOLID
  5
1D8
330
1D2
100
AcDbEntity
  8
1
 62
    35
370
    18
100
AcDbTrace
 10
150.559975
 20
205.601291
 30
0.0
 11
149.506755
 21
213.601287
 31
0.0
 12
151.613195
 22
213.601295
 32
0.0
 13
150.559975
 23
205.601291
 33
0.0
  0
ENDBLK
  5
1DA
330
1D2
100
AcDbEntity
  8
0
100
AcDbBlockEnd
  0
BLOCK
  5
1DF
330
1DE
100
AcDbEntity
  8
0
100
AcDbBlockBegin
  2
*D15
 70
     1
 10
0.0
 20
0.0
 30
0.0
  3
*D15
  1
*D15
  0
LINE
  5
1E1
330
1DE
100
AcDbEntity
  8
0
 62
    35
370
    -2
100
AcDbLine
 10
103.059975
 20
220.601291
 30
0.0
 11
62.559975
 21
220.601291
 31
0.0
  0
LINE
  5
1E2
330
1DE
100
AcDbEntity
  8
0
 62
    35
370
    -2
100
AcDbLine
 10
137.059975
 20
217.601291
 30
0.0
 11
62.559975
 21
217.601291
 31
0.0
  0
LINE
  5
1E3
330
1DE
100
AcDbEntity
  8
0
 62
    35
370
    -2
100
AcDbLine
 10
63.559975
 20
220.601291
 30
0.0
 11
63.559975
 21
248.851291
 31
0.0
  0
LINE
  5
1E4
330
1DE
100
AcDbEntity
  8
0
 62
    35
370
    -2
100
AcDbLine
 10
63.559975
 20
228.601291
 30
0.0
 11
63.559975
 21
236.601291
 31
0.0
  0
LINE
  5
1E5
330
1DE
100
AcDbEntity
  8
0
 62
    35
370
    -2
100
AcDbLine
 10
63.559975
 20
209.601291
 30
0.0
 11
63.559975
 21
201.601291
 31
0.0
  0
SOLID
  5
1E6
330
1DE
100
AcDbEntity
  8
0
 62
    35
100
AcDbTrace
 10
62.226641
 20
228.601291
 30
0.0
 11
64.893308
 21
228.601291
 31
0.0
 12
63.559975
 22
220.601291
 32
0.0
 13
63.559975
 23
220.601291
 33
0.0
  0
SOLID
  5
1E7
330
1DE
100
AcDbEntity
  8
0
 62
    35
100
AcDbTrace
 10
64.893308
 20
209.601291
 30
0.0
 11
62.226641
 21
209.601291
 31
0.0
 12
63.559975
 22
217.601291
 32
0.0
 13
63.559975
 23
217.601291
 33
0.0
  0
MTEXT
  5
1E8
330
1DE
100
AcDbEntity
  8
0
 62
    35
370
    18
100
AcDbMText
 10
56.559975
 20
242.726291
 30
0.0
 40
3.5
 41
0.0
 71
     5
 72
     1
  1
\A1;3
  7
ISOCPEUR
 11
0.0
 21
1.0
 31
0.0
 73
     1
 44
1.0
  0
POINT
  5
1E9
330
1DE
100
AcDbEntity
  8
Defpoints
 62
     0
100
AcDbPoint
 10
103.059975
 20
220.601291
 30
0.0
  0
POINT
  5
1EA
330
1DE
100
AcDbEntity
  8
Defpoints
 62
     0
100
AcDbPoint
 10
137.059975
 20
217.601291
 30
0.0
  0
POINT
  5
1EB
330
1DE
100
AcDbEntity
  8
Defpoints
 62
     0
100
AcDbPoint
 10
63.559975
 20
217.601291
 30
0.0
  0
ENDBLK
  5
1E0
330
1DE
100
AcDbEntity
  8
0
100
AcDbBlockEnd
  0
BLOCK
  5
1F3
330
1EC
100
AcDbEntity
  8
0
100
AcDbBlockBegin
  2
_U6
 70
     0
 10
0.0
 20
0.0
 30
0.0
  3
_U6
  1
_U6
  0
MTEXT
  5
1ED
330
1EC
100
AcDbEntity
  8
1
  6
Continuous
 62
    35
370
    13
100
AcDbMText
 10
62.859782
 20
231.960137
 30
0.0
 40
3.5
 41
0.0
 71
     7
 72
     5
  1
\W1.0000;3
  7
ISOCPEUR
 11
6.123233995736766E-17
 21
1.0
 31
0.0
 73
     2
 44
1.115371
  0
LINE
  5
1EE
330
1EC
100
AcDbEntity
  8
1
 62
    35
370
    13
100
AcDbLine
 10
103.059975
 20
220.601291
 30
0.0
 11
62.559975
 21
220.601291
 31
0.0
  0
LINE
  5
1EF
330
1EC
100
AcDbEntity
  8
1
 62
    35
370
    13
100
AcDbLine
 10
137.059975
 20
217.601291
 30
0.0
 11
62.559975
 21
217.601291
 31
0.0
  0
LINE
  5
1F0
330
1EC
100
AcDbEntity
  8
1
 62
    35
370
    13
100
AcDbLine
 10
63.559975
 20
207.101291
 30
0.0
 11
63.559975
 21
233.185137
 31
0.0
  0
SOLID
  5
1F1
330
1EC
100
AcDbEntity
  8
1
 62
    35
370
    18
100
AcDbTrace
 10
63.559975
 20
220.601291
 30
0.0
 11
62.506755
 21
228.601287
 31
0.0
 12
64.613195
 22
228.601295
 32
0.0
 13
63.559975
 23
220.601291
 33
0.0
  0
SOLID
  5
1F2
330
1EC
100
AcDbEntity
  8
1
 62
    35
370
    18
100
AcDbTrace
 10
63.559975
 20
217.601291
 30
0.0
 11
64.613195
 21
209.601295
 31
0.0
 12
62.506755
 22
209.601287
 32
0.0
 13
63.559975
 23
217.601291
 33
0.0
  0
ENDBLK
  5
1F4
330
1EC
100
AcDbEntity
  8
0
100
AcDbBlockEnd
  0
BLOCK
  5
1FB
330
1F5
100
AcDbEntity
  8
0
100
AcDbBlockBegin
  2
_U7
 70
     0
 10
0.0
 20
0.0
 30
0.0
  3
_U7
  1
_U7
  0
MTEXT
  5
1F6
330
1F5
100
AcDbEntity
  8
1
  6
Continuous
 62
    35
370
    13
100
AcDbMText
 10
97.998032
 20
197.621147
 30
0.0
 40
3.5
 41
0.0
 71
     7
 72
     5
  1
\W1.0000;11
  7
ISOCPEUR
 11
0.3511234415883919
 21
0.9363291775690444
 31
0.0
 73
     2
 44
1.115371
  0
LINE
  5
1F7
330
1F5
100
AcDbEntity
  8
1
 62
    35
370
    13
100
AcDbLine
 10
98.346409
 20
196.556005
 30
0.0
 11
112.450809
 21
234.167736
 31
0.0
  0
SOLID
  5
1F8
330
1F5
100
AcDbEntity
  8
1
 62
    35
370
    18
100
AcDbTrace
 10
108.764012
 20
224.33628
 30
0.0
 11
110.586838
 21
232.19672
 31
0.0
 12
112.559162
 22
231.457106
 32
0.0
 13
108.764012
 23
224.33628
 33
0.0
  0
SOLID
  5
1F9
330
1F5
100
AcDbEntity
  8
1
 62
    35
370
    18
100
AcDbTrace
 10
104.901655
 20
214.036659
 30
0.0
 11
103.078829
 21
206.176219
 31
0.0
 12
101.106505
 22
206.915832
 32
0.0
 13
104.901655
 23
214.036659
 33
0.0
  0
ENDBLK
  5
1FC
330
1F5
100
AcDbEntity
  8
0
100
AcDbBlockEnd
  0
ENDSEC
  0
SECTION
  2
ENTITIES
  0
LINE
  5
6F
102
{ACAD_REACTORS
330
1C4
102
}
330
1F
100
AcDbEntity
  8
1
  6
Continuous
 62
   155
370
    25
100
AcDbLine
 10
139.559975
 20
229.601291
 30
0.0
 11
74.559975
 21
229.601291
 31
0.0
  0
LINE
  5
71
102
{ACAD_REACTORS
330
145
102
}
330
1F
100
AcDbEntity
  8
1
  6
Continuous
 62
   155
370
    25
100
AcDbLine
 10
74.559975
 20
229.601291
 30
0.0
 11
74.559975
 21
205.601291
 31
0.0
  0
LINE
  5
72
330
1F
100
AcDbEntity
  8
1
  6
Continuous
 62
   155
370
    25
100
AcDbLine
 10
101.128796
 20
215.451481
 30
0.0
 11
109.128796
 21
212.451481
 31
0.0
  0
LINE
  5
73
330
1F
100
AcDbEntity
  8
1
  6
Continuous
 62
   155
370
    25
100
AcDbLine
 10
112.991154
 20
222.751102
 30
0.0
 11
104.991154
 21
225.751102
 31
0.0
  0
LINE
  5
74
102
{ACAD_REACTORS
330
145
102
}
330
1F
100
AcDbEntity
  8
1
  6
Continuous
 62
   155
370
    25
100
AcDbLine
 10
139.559975
 20
205.601291
 30
0.0
 11
139.559975
 21
229.601291
 31
0.0
  0
LINE
  5
75
102
{ACAD_REACTORS
330
1C4
102
}
330
1F
100
AcDbEntity
  8
1
  6
Continuous
 62
   155
370
    25
100
AcDbLine
 10
74.559975
 20
205.601291
 30
0.0
 11
139.559975
 21
205.601291
 31
0.0
  0
LINE
  5
76
330
1F
100
AcDbEntity
  8
1
  6
Continuous
 62
   155
370
    25
100
AcDbLine
 10
90.059975
 20
212.601291
 30
0.0
 11
82.059975
 21
212.601291
 31
0.0
  0
LINE
  5
77
330
1F
100
AcDbEntity
  8
1
  6
Continuous
 62
   155
370
    25
100
AcDbLine
 10
82.059975
 20
222.601291
 30
0.0
 11
90.059975
 21
222.601291
 31
0.0
  0
LINE
  5
78
330
1F
100
AcDbEntity
  8
1
  6
Continuous
 62
   155
370
    25
100
AcDbLine
 10
132.059975
 20
212.601291
 30
0.0
 11
124.059975
 21
212.601291
 31
0.0
  0
LINE
  5
79
330
1F
100
AcDbEntity
  8
1
  6
Continuous
 62
   155
370
    25
100
AcDbLine
 10
124.059975
 20
222.601291
 30
0.0
 11
132.059975
 21
222.601291
 31
0.0
  0
LINE
  5
7A
330
1F
100
AcDbEntity
  8
1
  6
Continuous
 62
   155
370
    25
100
AcDbLine
 10
124.059975
 20
214.851291
 30
0.0
 11
132.059975
 21
214.851291
 31
0.0
  0
LINE
  5
7B
330
1F
100
AcDbEntity
  8
1
  6
Continuous
 62
   155
370
    25
100
AcDbLine
 10
82.059975
 20
214.851291
 30
0.0
 11
90.059975
 21
214.851291
 31
0.0
  0
LINE
  5
7C
330
1F
100
AcDbEntity
  8
1
  6
Continuous
 62
   155
370
    25
100
AcDbLine
 10
132.059975
 20
220.351291
 30
0.0
 11
124.059975
 21
220.351291
 31
0.0
  0
LINE
  5
7D
330
1F
100
AcDbEntity
  8
1
  6
Continuous
 62
   155
370
    25
100
AcDbLine
 10
90.059975
 20
220.351291
 30
0.0
 11
82.059975
 21
220.351291
 31
0.0
  0
LINE
  5
7E
330
1F
100
AcDbEntity
  8
1
  6
Continuous
 62
   155
370
    13
100
AcDbLine
 10
92.809975
 20
217.601291
 30
0.0
 11
95.059975
 21
217.601291
 31
0.0
  0
LINE
  5
7F
330
1F
100
AcDbEntity
  8
1
  6
Continuous
 62
   155
370
    13
100
AcDbLine
 10
137.059975
 20
217.601291
 30
0.0
 11
134.809975
 21
217.601291
 31
0.0
  0
LINE
  5
80
330
1F
100
AcDbEntity
  8
1
  6
Continuous
 62
   155
370
    13
100
AcDbLine
 10
121.309975
 20
217.601291
 30
0.0
 11
119.059975
 21
217.601291
 31
0.0
  0
LINE
  5
81
330
1F
100
AcDbEntity
  8
1
  6
Continuous
 62
   155
370
    13
100
AcDbLine
 10
79.309975
 20
217.601291
 30
0.0
 11
77.059975
 21
217.601291
 31
0.0
  0
LINE
  5
82
330
1F
100
AcDbEntity
  8
1
  6
Continuous
 62
   155
370
    25
100
AcDbLine
 10
101.345852
 20
72.248719
 30
0.0
 11
104.881386
 21
67.757987
 31
0.0
  0
LINE
  5
83
330
1F
100
AcDbEntity
  8
1
  6
Continuous
 62
   155
370
    25
100
AcDbLine
 10
114.895417
 20
70.385989
 30
0.0
 11
111.359884
 21
74.87672
 31
0.0
  0
LINE
  5
84
330
1F
100
AcDbEntity
  8
1
  6
Continuous
 62
   155
370
    25
100
AcDbLine
 10
92.564286
 20
88.87203
 30
0.0
 11
75.593723
 21
79.074071
 31
0.0
  0
LINE
  5
85
330
1F
100
AcDbEntity
  8
1
  6
Continuous
 62
   155
370
    25
100
AcDbLine
 10
138.526227
 20
62.335892
 30
0.0
 11
92.564286
 21
88.87203
 31
0.0
  0
LINE
  5
86
330
1F
100
AcDbEntity
  8
1
  6
Continuous
 62
   155
370
    25
100
AcDbLine
 10
121.555664
 20
52.537933
 30
0.0
 11
138.526227
 21
62.335892
 31
0.0
  0
LINE
  5
87
330
1F
100
AcDbEntity
  8
1
  6
Continuous
 62
   155
370
    25
100
AcDbLine
 10
75.593723
 20
79.074071
 30
0.0
 11
121.555664
 21
52.537933
 31
0.0
  0
LINE
  5
88
330
1F
100
AcDbEntity
  8
1
  6
Continuous
 62
   155
370
    25
100
AcDbLine
 10
91.503626
 20
75.603961
 30
0.0
 11
85.846771
 21
78.869947
 31
0.0
  0
LINE
  5
89
330
1F
100
AcDbEntity
  8
1
  6
Continuous
 62
   155
370
    25
100
AcDbLine
 10
92.917839
 20
82.95243
 30
0.0
 11
98.574693
 21
79.686444
 31
0.0
  0
LINE
  5
8A
330
1F
100
AcDbEntity
  8
1
  6
Continuous
 62
   155
370
    25
100
AcDbLine
 10
121.20211
 20
58.457533
 30
0.0
 11
115.545256
 21
61.723519
 31
0.0
  0
LINE
  5
8B
330
1F
100
AcDbEntity
  8
1
  6
Continuous
 62
   155
370
    25
100
AcDbLine
 10
122.616324
 20
65.806002
 30
0.0
 11
128.273178
 21
62.540016
 31
0.0
  0
LINE
  5
8C
330
1F
100
AcDbEntity
  8
1
  6
Continuous
 62
   155
370
    25
100
AcDbLine
 10
121.555664
 20
52.537933
 30
0.0
 11
121.555664
 21
50.088443
 31
0.0
  0
LINE
  5
8D
330
1F
100
AcDbEntity
  8
1
  6
Continuous
 62
   155
370
    25
100
AcDbLine
 10
138.526227
 20
62.335892
 30
0.0
 11
138.526227
 21
59.886402
 31
0.0
  0
LINE
  5
8E
330
1F
100
AcDbEntity
  8
1
  6
Continuous
 62
   155
370
    25
100
AcDbLine
 10
121.555664
 20
50.088443
 30
0.0
 11
138.526227
 21
59.886402
 31
0.0
  0
LINE
  5
8F
330
1F
100
AcDbEntity
  8
1
  6
Continuous
 62
   155
370
    25
100
AcDbLine
 10
75.593723
 20
79.074071
 30
0.0
 11
75.593723
 21
76.624582
 31
0.0
  0
LINE
  5
90
330
1F
100
AcDbEntity
  8
1
  6
Continuous
 62
   155
370
    25
100
AcDbLine
 10
75.593723
 20
76.624582
 30
0.0
 11
121.555664
 21
50.088443
 31
0.0
  0
LINE
  5
91
330
1F
100
AcDbEntity
  8
1
  6
Continuous
 62
   155
370
    25
100
AcDbLine
 10
126.682188
 20
59.78434
 30
0.0
 11
121.025334
 21
63.050326
 31
0.0
  0
LINE
  5
92
330
1F
100
AcDbEntity
  8
1
  6
Continuous
 62
   155
370
    25
100
AcDbLine
 10
126.682188
 20
59.171967
 30
0.0
 11
121.025334
 21
62.437954
 31
0.0
  0
LINE
  5
93
330
1F
100
AcDbEntity
  8
1
  6
Continuous
 62
   155
370
    25
100
AcDbLine
 10
114.895417
 20
67.936499
 30
0.0
 11
111.359884
 21
72.427231
 31
0.0
  0
LINE
  5
94
330
1F
100
AcDbEntity
  8
1
  6
Continuous
 62
   155
370
    25
100
AcDbLine
 10
96.983703
 20
76.930768
 30
0.0
 11
91.326849
 21
80.196754
 31
0.0
  0
LINE
  5
95
330
1F
100
AcDbEntity
  8
1
  6
Continuous
 62
   155
370
    25
100
AcDbLine
 10
96.983703
 20
76.318395
 30
0.0
 11
91.326849
 21
79.584382
 31
0.0
  0
LINE
  5
96
330
1F
100
AcDbEntity
  8
1
  6
Continuous
 62
   155
370
    25
100
AcDbLine
 10
101.128796
 20
126.783665
 30
0.0
 11
109.128796
 21
123.783665
 31
0.0
  0
LINE
  5
97
330
1F
100
AcDbEntity
  8
1
  6
Continuous
 62
   155
370
    25
100
AcDbLine
 10
74.559975
 20
119.933475
 30
0.0
 11
139.559975
 21
119.933475
 31
0.0
  0
LINE
  5
98
330
1F
100
AcDbEntity
  8
1
  6
Continuous
 62
   155
370
    25
100
AcDbLine
 10
74.559975
 20
143.933475
 30
0.0
 11
74.559975
 21
119.933475
 31
0.0
  0
LINE
  5
99
330
1F
100
AcDbEntity
  8
1
  6
Continuous
 62
   155
370
    25
100
AcDbLine
 10
139.559975
 20
143.933475
 30
0.0
 11
74.559975
 21
143.933475
 31
0.0
  0
LINE
  5
9A
330
1F
100
AcDbEntity
  8
1
  6
Continuous
 62
   155
370
    25
100
AcDbLine
 10
124.059975
 20
136.933475
 30
0.0
 11
132.059975
 21
136.933475
 31
0.0
  0
LINE
  5
9B
330
1F
100
AcDbEntity
  8
1
  6
Continuous
 62
   155
370
    25
100
AcDbLine
 10
132.059975
 20
126.933475
 30
0.0
 11
124.059975
 21
126.933475
 31
0.0
  0
LINE
  5
9C
330
1F
100
AcDbEntity
  8
1
  6
Continuous
 62
   155
370
    25
100
AcDbLine
 10
82.059975
 20
136.933475
 30
0.0
 11
90.059975
 21
136.933475
 31
0.0
  0
LINE
  5
9D
330
1F
100
AcDbEntity
  8
1
  6
Continuous
 62
   155
370
    25
100
AcDbLine
 10
90.059975
 20
126.933475
 30
0.0
 11
82.059975
 21
126.933475
 31
0.0
  0
LINE
  5
9E
330
1F
100
AcDbEntity
  8
1
  6
Continuous
 62
   155
370
    25
100
AcDbLine
 10
139.559975
 20
119.933475
 30
0.0
 11
139.559975
 21
143.933475
 31
0.0
  0
LINE
  5
9F
330
1F
100
AcDbEntity
  8
1
  6
Continuous
 62
   155
370
    25
100
AcDbLine
 10
112.991154
 20
134.083286
 30
0.0
 11
104.991154
 21
137.083286
 31
0.0
  0
LINE
  5
A0
330
1F
100
AcDbEntity
  8
1
  6
Continuous
 62
   155
370
    25
100
AcDbLine
 10
90.059975
 20
134.683475
 30
0.0
 11
82.059975
 21
134.683475
 31
0.0
  0
LINE
  5
A1
330
1F
100
AcDbEntity
  8
1
  6
Continuous
 62
   155
370
    25
100
AcDbLine
 10
132.059975
 20
134.683475
 30
0.0
 11
124.059975
 21
134.683475
 31
0.0
  0
LINE
  5
A2
330
1F
100
AcDbEntity
  8
1
  6
Continuous
 62
   155
370
    25
100
AcDbLine
 10
82.059975
 20
129.183475
 30
0.0
 11
90.059975
 21
129.183475
 31
0.0
  0
LINE
  5
A3
330
1F
100
AcDbEntity
  8
1
  6
Continuous
 62
   155
370
    25
100
AcDbLine
 10
124.059975
 20
129.183475
 30
0.0
 11
132.059975
 21
129.183475
 31
0.0
  0
LINE
  5
A4
330
1F
100
AcDbEntity
  8
1
  6
Continuous
 62
   155
370
    13
100
AcDbLine
 10
121.309975
 20
131.933475
 30
0.0
 11
119.059975
 21
131.933475
 31
0.0
  0
LINE
  5
A5
330
1F
100
AcDbEntity
  8
1
  6
Continuous
 62
   155
370
    13
100
AcDbLine
 10
77.059975
 20
131.933475
 30
0.0
 11
79.309975
 21
131.933475
 31
0.0
  0
LINE
  5
A6
330
1F
100
AcDbEntity
  8
1
  6
Continuous
 62
   155
370
    13
100
AcDbLine
 10
92.809975
 20
131.933475
 30
0.0
 11
95.059975
 21
131.933475
 31
0.0
  0
LINE
  5
A7
330
1F
100
AcDbEntity
  8
1
  6
Continuous
 62
   155
370
    13
100
AcDbLine
 10
134.809975
 20
131.933475
 30
0.0
 11
137.059975
 21
131.933475
 31
0.0
  0
LINE
  5
A8
102
{ACAD_REACTORS
330
206
102
}
330
1F
100
AcDbEntity
  8
256
  6
Continuous
 62
     2
370
    13
100
AcDbLine
 10
106.914809
 20
24.5
 30
0.0
 11
205.0
 21
24.5
 31
0.0
  0
LINE
  5
AA
102
{ACAD_REACTORS
330
206
102
}
330
1F
100
AcDbEntity
  8
256
  6
Continuous
 62
     2
370
    18
100
AcDbLine
 10
65.932916
 20
5.054708
 30
0.0
 11
65.932916
 21
30.530208
 31
0.0
  0
LINE
  5
AB
102
{ACAD_REACTORS
330
206
102
}
330
1F
100
AcDbEntity
  8
256
  6
Continuous
 62
     2
370
    13
100
AcDbLine
 10
20.0
 20
24.5
 30
0.0
 11
106.914809
 21
24.5
 31
0.0
  0
LINE
  5
AC
102
{ACAD_REACTORS
330
206
102
}
330
1F
100
AcDbEntity
  8
256
  6
Continuous
 62
     2
370
    18
100
AcDbLine
 10
138.3325
 20
18.5
 30
0.0
 11
138.3325
 21
30.4755
 31
0.0
  0
LINE
  5
AD
102
{ACAD_REACTORS
330
206
102
}
330
1F
100
AcDbEntity
  8
256
  6
Continuous
 62
     2
370
    18
100
AcDbLine
 10
138.3325
 20
5.0
 30
0.0
 11
138.3325
 21
18.5
 31
0.0
  0
LINE
  5
AE
102
{ACAD_REACTORS
330
206
102
}
330
1F
100
AcDbEntity
  8
256
  6
Continuous
 62
   140
370
    18
100
AcDbLine
 10
209.9
 20
296.9
 30
0.0
 11
0.1
 21
296.9
 31
0.0
  0
LINE
  5
AF
102
{ACAD_REACTORS
330
206
102
}
330
1F
100
AcDbEntity
  8
256
  6
Continuous
 62
   140
370
    18
100
AcDbLine
 10
0.1
 20
296.9
 30
0.0
 11
0.1
 21
0.1
 31
0.0
  0
LINE
  5
B0
102
{ACAD_REACTORS
330
206
102
}
330
1F
100
AcDbEntity
  8
256
  6
Continuous
 62
     2
370
    25
100
AcDbLine
 10
205.0
 20
148.5
 30
0.0
 11
209.9
 21
148.5
 31
0.0
  0
LINE
  5
B1
102
{ACAD_REACTORS
330
206
102
}
330
1F
100
AcDbEntity
  8
256
  6
Continuous
 62
     2
370
    25
100
AcDbLine
 10
205.0
 20
292.0
 30
0.0
 11
20.0
 21
292.0
 31
0.0
  0
LINE
  5
B2
102
{ACAD_REACTORS
330
206
102
}
330
1F
100
AcDbEntity
  8
256
  6
Continuous
 62
   140
370
    18
100
AcDbLine
 10
0.1
 20
0.1
 30
0.0
 11
209.9
 21
0.1
 31
0.0
  0
LINE
  5
B3
102
{ACAD_REACTORS
330
206
102
}
330
1F
100
AcDbEntity
  8
256
  6
Continuous
 62
     2
370
    25
100
AcDbLine
 10
105.0
 20
292.0
 30
0.0
 11
105.0
 21
296.9
 31
0.0
  0
LINE
  5
B4
102
{ACAD_REACTORS
330
206
102
}
330
1F
100
AcDbEntity
  8
256
  6
Continuous
 62
     2
370
    25
100
AcDbLine
 10
205.0
 20
5.0
 30
0.0
 11
205.0
 21
292.0
 31
0.0
  0
LINE
  5
B5
102
{ACAD_REACTORS
330
206
102
}
330
1F
100
AcDbEntity
  8
256
  6
Continuous
 62
     2
370
    25
100
AcDbLine
 10
105.0
 20
0.1
 30
0.0
 11
105.0
 21
5.0
 31
0.0
  0
LINE
  5
B6
102
{ACAD_REACTORS
330
206
102
}
330
1F
100
AcDbEntity
  8
256
  6
Continuous
 62
   140
370
    18
100
AcDbLine
 10
209.9
 20
0.1
 30
0.0
 11
209.9
 21
296.9
 31
0.0
  0
LINE
  5
B7
102
{ACAD_REACTORS
330
206
102
}
330
1F
100
AcDbEntity
  8
256
  6
Continuous
 62
     2
370
    25
100
AcDbLine
 10
20.0
 20
5.0
 30
0.0
 11
205.0
 21
5.0
 31
0.0
  0
LINE
  5
B8
102
{ACAD_REACTORS
330
206
102
}
330
1F
100
AcDbEntity
  8
256
  6
Continuous
 62
   140
370
    18
100
AcDbLine
 10
20.0
 20
292.0
 30
0.0
 11
20.0
 21
5.0
 31
0.0
  0
LINE
  5
B9
102
{ACAD_REACTORS
330
206
102
}
330
1F
100
AcDbEntity
  8
256
  6
Continuous
 62
     2
370
    25
100
AcDbLine
 10
20.0
 20
5.0
 30
0.0
 11
20.0
 21
30.4755
 31
0.0
  0
LINE
  5
BA
102
{ACAD_REACTORS
330
206
102
}
330
1F
100
AcDbEntity
  8
256
  6
Continuous
 62
     2
370
    25
100
AcDbLine
 10
20.0
 20
30.4755
 30
0.0
 11
205.0
 21
30.4755
 31
0.0
  0
LINE
  5
BB
102
{ACAD_REACTORS
330
206
102
}
330
1F
100
AcDbEntity
  8
256
  6
Continuous
 62
     2
370
    13
100
AcDbLine
 10
138.322529
 20
14.00233
 30
0.0
 11
205.0
 21
14.0
 31
0.0
  0
LINE
  5
BC
102
{ACAD_REACTORS
330
206
102
}
330
1F
100
AcDbEntity
  8
256
  6
Continuous
 62
     2
370
    13
100
AcDbLine
 10
173.356458
 20
18.5
 30
0.0
 11
173.356458
 21
14.0
 31
0.0
  0
LINE
  5
BD
102
{ACAD_REACTORS
330
206
102
}
330
1F
100
AcDbEntity
  8
255
  6
Continuous
 62
   163
370
    13
100
AcDbLine
 10
205.0
 20
130.4755
 30
0.0
 11
205.0
 21
120.4755
 31
0.0
  0
LINE
  5
BF
102
{ACAD_REACTORS
330
206
102
}
330
1F
100
AcDbEntity
  8
255
  6
Continuous
 62
   163
370
    13
100
AcDbLine
 10
205.0
 20
30.4755
 30
0.0
 11
205.0
 21
20.4755
 31
0.0
  0
LINE
  5
C0
102
{ACAD_REACTORS
330
206
102
}
330
1F
100
AcDbEntity
  8
255
  6
Continuous
 62
   163
370
    13
100
AcDbLine
 10
205.0
 20
45.4755
 30
0.0
 11
205.0
 21
35.4755
 31
0.0
  0
LINE
  5
C1
102
{ACAD_REACTORS
330
206
102
}
330
1F
100
AcDbEntity
  8
255
  6
Continuous
 62
   163
370
    13
100
AcDbLine
 10
205.0
 20
130.4755
 30
0.0
 11
205.0
 21
120.4755
 31
0.0
  0
LINE
  5
C2
102
{ACAD_REACTORS
330
206
102
}
330
1F
100
AcDbEntity
  8
256
  6
Continuous
 62
     2
370
    18
100
AcDbLine
 10
20.0
 20
18.5
 30
0.0
 11
65.932916
 21
18.5
 31
0.0
  0
LINE
  5
C3
102
{ACAD_REACTORS
330
206
102
}
330
1F
100
AcDbEntity
  8
256
  6
Continuous
 62
     2
370
    13
100
AcDbLine
 10
138.3325
 20
18.5
 30
0.0
 11
205.0
 21
18.5
 31
0.0
  0
LINE
  5
C4
102
{ACAD_REACTORS
330
206
102
}
330
1F
100
AcDbEntity
  8
256
  6
Continuous
 62
     2
370
    13
100
AcDbLine
 10
106.914809
 20
24.5
 30
0.0
 11
106.914809
 21
30.4755
 31
0.0
  0
ARC
  5
C5
102
{ACAD_REACTORS
330
178
102
}
330
1F
100
AcDbEntity
  8
1
  6
Continuous
 62
   155
370
    25
100
AcDbCircle
 10
132.059975
 20
217.601291
 30
0.0
 40
4.999999999999994
100
AcDbArc
 50
270.0
 51
90.0
  0
ARC
  5
C6
330
1F
100
AcDbEntity
  8
1
  6
Continuous
 62
   155
370
    25
100
AcDbCircle
 10
82.059975
 20
217.601291
 30
0.0
 40
4.999999999999999
100
AcDbArc
 50
90.0
 51
270.0
  0
ARC
  5
C7
330
1F
100
AcDbEntity
  8
1
  6
Continuous
 62
   155
370
    25
100
AcDbCircle
 10
111.059975
 20
217.601291
 30
0.0
 40
5.499999999999999
100
AcDbArc
 50
249.443955
 51
69.443955
  0
ARC
  5
C8
102
{ACAD_REACTORS
330
178
102
}
330
1F
100
AcDbEntity
  8
1
  6
Continuous
 62
   155
370
    25
100
AcDbCircle
 10
90.059975
 20
217.601291
 30
0.0
 40
5.0
100
AcDbArc
 50
270.0
 51
90.0
  0
ARC
  5
C9
330
1F
100
AcDbEntity
  8
1
  6
Continuous
 62
   155
370
    25
100
AcDbCircle
 10
124.059975
 20
217.601291
 30
0.0
 40
5.000000000000004
100
AcDbArc
 50
90.0
 51
270.0
  0
ARC
  5
CA
102
{ACAD_REACTORS
330
1DD
102
}
330
1F
100
AcDbEntity
  8
1
  6
Continuous
 62
   155
370
    25
100
AcDbCircle
 10
103.059975
 20
220.601291
 30
0.0
 40
5.500000000000002
100
AcDbArc
 50
69.443955
 51
249.443955
  0
ARC
  5
CB
330
1F
100
AcDbEntity
  8
1
  6
Continuous
 62
   155
370
    25
100
AcDbCircle
 10
132.059975
 20
217.601291
 30
0.0
 40
2.749999999999994
100
AcDbArc
 50
270.0
 51
90.0
  0
ARC
  5
CC
330
1F
100
AcDbEntity
  8
1
  6
Continuous
 62
   155
370
    25
100
AcDbCircle
 10
124.059975
 20
217.601291
 30
0.0
 40
2.750000000000003
100
AcDbArc
 50
90.0
 51
270.0
  0
ARC
  5
CD
330
1F
100
AcDbEntity
  8
1
  6
Continuous
 62
   155
370
    25
100
AcDbCircle
 10
82.059975
 20
217.601291
 30
0.0
 40
2.75
100
AcDbArc
 50
90.0
 51
270.0
  0
ARC
  5
CE
330
1F
100
AcDbEntity
  8
1
  6
Continuous
 62
   155
370
    25
100
AcDbCircle
 10
90.059975
 20
217.601291
 30
0.0
 40
2.75
100
AcDbArc
 50
270.0
 51
90.0
  0
ARC
  5
CF
330
1F
100
AcDbEntity
  8
1
  6
Continuous
 62
   155
370
    25
100
AcDbCircle
 10
103.059975
 20
131.933475
 30
0.0
 40
5.499999999999999
100
AcDbArc
 50
69.443955
 51
249.443955
  0
ARC
  5
D0
330
1F
100
AcDbEntity
  8
1
  6
Continuous
 62
   155
370
    25
100
AcDbCircle
 10
82.059975
 20
131.933475
 30
0.0
 40
4.999999999999994
100
AcDbArc
 50
90.0
 51
270.0
  0
ARC
  5
D1
330
1F
100
AcDbEntity
  8
1
  6
Continuous
 62
   155
370
    25
100
AcDbCircle
 10
132.059975
 20
131.933475
 30
0.0
 40
4.999999999999999
100
AcDbArc
 50
270.0
 51
90.0
  0
ARC
  5
D2
102
{ACAD_REACTORS
330
15E
102
}
330
1F
100
AcDbEntity
  8
1
  6
Continuous
 62
   155
370
    25
100
AcDbCircle
 10
111.059975
 20
128.933475
 30
0.0
 40
5.500000000000002
100
AcDbArc
 50
249.443955
 51
69.443955
  0
ARC
  5
D3
330
1F
100
AcDbEntity
  8
1
  6
Continuous
 62
   155
370
    25
100
AcDbCircle
 10
90.059975
 20
131.933475
 30
0.0
 40
5.000000000000004
100
AcDbArc
 50
270.0
 51
90.0
  0
ARC
  5
D4
330
1F
100
AcDbEntity
  8
1
  6
Continuous
 62
   155
370
    25
100
AcDbCircle
 10
124.059975
 20
131.933475
 30
0.0
 40
5.0
100
AcDbArc
 50
90.0
 51
270.0
  0
ARC
  5
D5
330
1F
100
AcDbEntity
  8
1
  6
Continuous
 62
   155
370
    25
100
AcDbCircle
 10
90.059975
 20
131.933475
 30
0.0
 40
2.750000000000003
100
AcDbArc
 50
270.0
 51
90.0
  0
ARC
  5
D6
330
1F
100
AcDbEntity
  8
1
  6
Continuous
 62
   155
370
    25
100
AcDbCircle
 10
132.059975
 20
131.933475
 30
0.0
 40
2.75
100
AcDbArc
 50
270.0
 51
90.0
  0
ARC
  5
D7
330
1F
100
AcDbEntity
  8
1
  6
Continuous
 62
   155
370
    25
100
AcDbCircle
 10
124.059975
 20
131.933475
 30
0.0
 40
2.75
100
AcDbArc
 50
90.0
 51
270.0
  0
ARC
  5
D8
330
1F
100
AcDbEntity
  8
1
  6
Continuous
 62
   155
370
    25
100
AcDbCircle
 10
82.059975
 20
131.933475
 30
0.0
 40
2.749999999999994
100
AcDbArc
 50
90.0
 51
270.0
  0
ELLIPSE
  5
D9
330
1F
100
AcDbEntity
  8
1
  6
Continuous
 62
   155
370
    25
100
AcDbEllipse
 10
106.352868
 20
71.11323
 30
0.0
 11
-5.500000000000002
 21
0.0
 31
0.0
210
0.0
220
0.0
230
1.0
 40
0.57735
 41
3.568220146716669
 42
5.887206404053266
  0
ELLIPSE
  5
DA
330
1F
100
AcDbEntity
  8
1
  6
Continuous
 62
   155
370
    25
100
AcDbEllipse
 10
109.888402
 20
69.071988
 30
0.0
 11
-5.499999999999999
 21
0.0
 31
0.0
210
0.0
220
0.0
230
1.0
 40
0.57735
 41
0.4266274931268759
 42
3.568220146716669
  0
ELLIPSE
  5
DB
330
1F
100
AcDbEntity
  8
1
  6
Continuous
 62
   155
370
    25
100
AcDbEllipse
 10
106.352868
 20
73.56272
 30
0.0
 11
-5.500000000000002
 21
0.0
 31
0.0
210
0.0
220
0.0
230
1.0
 40
0.57735
 41
3.568220146716669
 42
6.709812800306461
  0
ELLIPSE
  5
DC
330
1F
100
AcDbEntity
  8
1
  6
Continuous
 62
   155
370
    25
100
AcDbEllipse
 10
89.382305
 20
80.911189
 30
0.0
 11
4.999999999999999
 21
0.0
 31
0.0
210
0.0
220
0.0
230
1.0
 40
0.57735
 41
0.7853981633974493
 42
3.926990816987241
  0
ELLIPSE
  5
DD
330
1F
100
AcDbEntity
  8
1
  6
Continuous
 62
   155
370
    25
100
AcDbEllipse
 10
95.039159
 20
77.645202
 30
0.0
 11
5.0
 21
0.0
 31
0.0
210
0.0
220
0.0
230
1.0
 40
0.57735
 41
3.926990816987241
 42
7.068583470577035
  0
ELLIPSE
  5
DE
330
1F
100
AcDbEntity
  8
1
  6
Continuous
 62
   155
370
    25
100
AcDbEllipse
 10
124.737644
 20
60.498774
 30
0.0
 11
4.999999999999994
 21
0.0
 31
0.0
210
0.0
220
0.0
230
1.0
 40
0.57735
 41
3.926990816987237
 42
7.068583470577037
  0
ELLIPSE
  5
DF
330
1F
100
AcDbEntity
  8
1
  6
Continuous
 62
   155
370
    25
100
AcDbEllipse
 10
119.08079
 20
63.764761
 30
0.0
 11
5.000000000000004
 21
0.0
 31
0.0
210
0.0
220
0.0
230
1.0
 40
0.57735
 41
0.7853981633974488
 42
3.926990816987241
  0
ELLIPSE
  5
E0
330
1F
100
AcDbEntity
  8
1
  6
Continuous
 62
   155
370
    25
100
AcDbEllipse
 10
124.737644
 20
58.661657
 30
0.0
 11
-2.749999999999994
 21
0.0
 31
0.0
210
0.0
220
0.0
230
1.0
 40
0.57735
 41
2.710507023614725
 42
3.926990816987245
  0
ELLIPSE
  5
E1
330
1F
100
AcDbEntity
  8
1
  6
Continuous
 62
   155
370
    25
100
AcDbEllipse
 10
124.737644
 20
58.049284
 30
0.0
 11
-2.749999999999994
 21
0.0
 31
0.0
210
0.0
220
0.0
230
1.0
 40
0.57735
 41
3.335635145912469
 42
3.926990816987245
  0
ELLIPSE
  5
E2
330
1F
100
AcDbEntity
  8
1
  6
Continuous
 62
   155
370
    25
100
AcDbEllipse
 10
119.08079
 20
61.927643
 30
0.0
 11
-2.750000000000003
 21
0.0
 31
0.0
210
0.0
220
0.0
230
1.0
 40
0.57735
 41
3.926990816987241
 42
7.068583470577035
  0
ELLIPSE
  5
E3
330
1F
100
AcDbEntity
  8
1
  6
Continuous
 62
   155
370
    25
100
AcDbEllipse
 10
119.08079
 20
61.315271
 30
0.0
 11
-2.750000000000003
 21
0.0
 31
0.0
210
0.0
220
0.0
230
1.0
 40
0.57735
 41
3.926990816987241
 42
6.089094040867687
  0
ELLIPSE
  5
E4
330
1F
100
AcDbEntity
  8
1
  6
Continuous
 62
   155
370
    25
100
AcDbEllipse
 10
109.888402
 20
66.622499
 30
0.0
 11
-5.499999999999999
 21
0.0
 31
0.0
210
0.0
220
0.0
230
1.0
 40
0.57735
 41
3.537540524919487
 42
3.568220146716669
  0
ELLIPSE
  5
E5
330
1F
100
AcDbEntity
  8
1
  6
Continuous
 62
   155
370
    25
100
AcDbEllipse
 10
95.039159
 20
75.808085
 30
0.0
 11
-2.75
 21
0.0
 31
0.0
210
0.0
220
0.0
230
1.0
 40
0.57735
 41
2.710507023614725
 42
3.926990816987241
  0
ELLIPSE
  5
E6
330
1F
100
AcDbEntity
  8
1
  6
Continuous
 62
   155
370
    25
100
AcDbEllipse
 10
95.039159
 20
75.195713
 30
0.0
 11
-2.75
 21
0.0
 31
0.0
210
0.0
220
0.0
230
1.0
 40
0.57735
 41
3.335635145912467
 42
3.926990816987241
  0
ELLIPSE
  5
E7
330
1F
100
AcDbEntity
  8
1
  6
Continuous
 62
   155
370
    25
100
AcDbEllipse
 10
89.382305
 20
79.074071
 30
0.0
 11
-2.75
 21
0.0
 31
0.0
210
0.0
220
0.0
230
1.0
 40
0.57735
 41
3.926990816987243
 42
7.068583470577034
  0
ELLIPSE
  5
E8
330
1F
100
AcDbEntity
  8
1
  6
Continuous
 62
   155
370
    25
100
AcDbEllipse
 10
89.382305
 20
78.461699
 30
0.0
 11
-2.75
 21
0.0
 31
0.0
210
0.0
220
0.0
230
1.0
 40
0.57735
 41
3.926990816987241
 42
6.089094040867695
  0
SPLINE
  5
E9
102
{ACAD_REACTORS
330
205
102
}
330
1F
100
AcDbEntity
  8
256
  6
Continuous
 62
     7
370
    13
100
AcDbSpline
210
0.0
220
0.0
230
1.0
 70
    11
 71
     3
 72
    17
 73
    13
 74
     0
 42
0.000000001
 43
0.0000000001
 40
0.0
 40
0.0
 40
0.0
 40
0.0
 40
0.2500749063670416
 40
0.2500749063670416
 40
0.2500749063670416
 40
0.4999999999999989
 40
0.4999999999999989
 40
0.4999999999999989
 40
0.7500749063670404
 40
0.7500749063670404
 40
0.7500749063670404
 40
1.0
 40
1.0
 40
1.0
 40
1.0
 10
55.95917372413066
 20
11.85614106663957
 30
0.0
 10
54.42564587546997
 20
11.85614106663957
 30
0.0
 10
52.89211802680927
 20
11.85614106663957
 30
0.0
 10
51.35859017814857
 20
11.85614106663957
 30
0.0
 10
51.35859017814857
 20
13.3887502225648
 30
0.0
 10
51.35859017814857
 20
14.92135937849003
 30
0.0
 10
51.35859017814857
 20
16.45396853441526
 30
0.0
 10
52.89211802680927
 20
16.45396853441526
 30
0.0
 10
54.42564587546997
 20
16.45396853441526
 30
0.0
 10
55.95917372413066
 20
16.45396853441526
 30
0.0
 10
55.95917372413066
 20
14.92135937849003
 30
0.0
 10
55.95917372413066
 20
13.3887502225648
 30
0.0
 10
55.95917372413066
 20
11.85614106663957
 30
0.0
  0
SPLINE
  5
EA
102
{ACAD_REACTORS
330
205
102
}
330
1F
100
AcDbEntity
  8
256
  6
Continuous
 62
     7
370
    13
100
AcDbSpline
210
0.0
220
0.0
230
1.0
 70
    11
 71
     3
 72
    41
 73
    37
 74
     0
 42
0.000000001
 43
0.0000000001
 40
0.0
 40
0.0
 40
0.0
 40
0.0
 40
0.0833333333333333
 40
0.0833333333333333
 40
0.0833333333333333
 40
0.1666666666666667
 40
0.1666666666666667
 40
0.1666666666666667
 40
0.25
 40
0.25
 40
0.25
 40
0.3333333333333333
 40
0.3333333333333333
 40
0.3333333333333333
 40
0.4166666666666667
 40
0.4166666666666667
 40
0.4166666666666667
 40
0.5
 40
0.5
 40
0.5
 40
0.5833333333333334
 40
0.5833333333333334
 40
0.5833333333333334
 40
0.6666666666666666
 40
0.6666666666666666
 40
0.6666666666666666
 40
0.75
 40
0.75
 40
0.75
 40
0.8333333333333334
 40
0.8333333333333334
 40
0.8333333333333334
 40
0.9166666666666666
 40
0.9166666666666666
 40
0.9166666666666666
 40
1.0
 40
1.0
 40
1.0
 40
1.0
 10
44.39623471328623
 20
8.727305110428638
 30
0.0
 10
44.82961316214747
 20
8.429474581683005
 30
0.0
 10
45.53344663409908
 20
8.090993726963271
 30
0.0
 10
46.04814423913854
 20
8.090993726963271
 30
0.0
 10
47.00932651360984
 20
8.090993726963271
 30
0.0
 10
47.55106813604937
 20
8.700259265458792
 30
0.0
 10
47.55106813604937
 20
9.444917145842206
 30
0.0
 10
47.53745999990542
 20
11.31353816976063
 30
0.0
 10
43.70565001861249
 20
10.51461999968931
 30
0.0
 10
43.70565001861249
 20
13.71012042508668
 30
0.0
 10
43.70565001861249
 20
15.24026059428534
 30
0.0
 10
44.95139736789142
 20
16.43174765387639
 30
0.0
 10
46.83345427306585
 20
16.43174765387639
 30
0.0
 10
47.76776478502507
 20
16.43174765387639
 30
0.0
 10
48.67485902469639
 20
16.10670268041273
 30
0.0
 10
49.47361308602012
 20
15.64644135906617
 30
0.0
 10
49.47360162773157
 20
15.64643320030638
 30
0.0
 10
48.74255909224894
 20
14.40068274680042
 30
0.0
 10
48.74255055156664
 20
14.4006934180556
 30
0.0
 10
48.1739418106888
 20
14.71212710798984
 30
0.0
 10
47.64580832439333
 20
15.02356394530955
 30
0.0
 10
46.9688466149538
 20
15.02356394530955
 30
0.0
 10
46.18353658102649
 20
15.02356394530955
 30
0.0
 10
45.43887870064302
 20
14.60377878350193
 30
0.0
 10
45.43887870064302
 20
13.76438071477455
 30
0.0
 10
45.43887870064302
 20
11.92280370825615
 30
0.0
 10
49.36542887027986
 20
12.50502522935168
 30
0.0
 10
49.36542887027986
 20
9.512613316786153
 30
0.0
 10
49.36542887027986
 20
7.914949231531418
 30
0.0
 10
48.079029367457
 20
6.682810018396404
 30
0.0
 10
46.26466863322639
 20
6.682810018396404
 30
0.0
 10
45.3575743935551
 20
6.682810018396404
 30
0.0
 10
44.50456818868381
 20
6.940158820916148
 30
0.0
 10
43.71907888079861
 20
7.400592083519152
 30
0.0
 10
43.71908887943025
 20
7.400600963125905
 30
0.0
 10
44.3962244106452
 20
8.727312190709236
 30
0.0
 10
44.39623471328623
 20
8.727305110428638
 30
0.0
  0
SPLINE
  5
EB
102
{ACAD_REACTORS
330
205
102
}
330
1F
100
AcDbEntity
  8
256
  6
Continuous
 62
     7
370
    13
100
AcDbSpline
210
0.0
220
0.0
230
1.0
 70
    11
 71
     3
 72
    17
 73
    13
 74
     0
 42
0.000000001
 43
0.0000000001
 40
0.0
 40
0.0
 40
0.0
 40
0.0
 40
0.2499153546639537
 40
0.2499153546639537
 40
0.2499153546639537
 40
0.4999999999999934
 40
0.4999999999999934
 40
0.4999999999999934
 40
0.749915354663955
 40
0.749915354663955
 40
0.749915354663955
 40
1.0
 40
1.0
 40
1.0
 40
1.0
 10
55.69459021631917
 20
11.0089915279568
 30
0.0
 10
55.69459021631917
 20
9.652771377239228
 30
0.0
 10
55.69459021631917
 20
8.296551226521624
 30
0.0
 10
55.69459021631917
 20
6.940331075804048
 30
0.0
 10
54.3374513728661
 20
6.940331075804048
 30
0.0
 10
52.98031252941303
 20
6.940331075804048
 30
0.0
 10
51.62317368596007
 20
6.940331075804048
 30
0.0
 10
51.62317368596007
 20
8.296551226521652
 30
0.0
 10
51.62317368596007
 20
9.652771377239228
 30
0.0
 10
51.62317368596007
 20
11.0089915279568
 30
0.0
 10
52.98031252941303
 20
11.0089915279568
 30
0.0
 10
54.3374513728661
 20
11.0089915279568
 30
0.0
 10
55.69459021631917
 20
11.0089915279568
 30
0.0
  0
SPLINE
  5
EC
330
1F
100
AcDbEntity
  8
1
  6
Continuous
 62
   163
 60
     1
370
    18
100
AcDbSpline
210
0.0
220
0.0
230
1.0
 70
    11
 71
     3
 72
    53
 73
    49
 74
     0
 42
0.000000001
 43
0.0000000001
 40
0.0
 40
0.0
 40
0.0
 40
0.0
 40
0.024233419787787
 40
0.024233419787787
 40
0.024233419787787
 40
0.1280418012427934
 40
0.1280418012427934
 40
0.1280418012427934
 40
0.1284086704647148
 40
0.1284086704647148
 40
0.1284086704647148
 40
0.2309459700568215
 40
0.2309459700568215
 40
0.2309459700568215
 40
0.2557435253627113
 40
0.2557435253627113
 40
0.2557435253627113
 40
0.3573149299809463
 40
0.3573149299809463
 40
0.3573149299809463
 40
0.3576817992028669
 40
0.3576817992028669
 40
0.3576817992028669
 40
0.4624443157722517
 40
0.4624443157722517
 40
0.4624443157722517
 40
0.4860156317106226
 40
0.4860156317106226
 40
0.4860156317106226
 40
0.6156754647053586
 40
0.6156754647053586
 40
0.6156754647053586
 40
0.6406552862488913
 40
0.6406552862488913
 40
0.6406552862488913
 40
0.7430727925756138
 40
0.7430727925756138
 40
0.7430727925756138
 40
0.7434419985441709
 40
0.7434419985441709
 40
0.7434419985441709
 40
0.8467092888241766
 40
0.8467092888241766
 40
0.8467092888241766
 40
0.8713245778924228
 40
0.8713245778924228
 40
0.8713245778924228
 40
1.0
 40
1.0
 40
1.0
 40
1.0
 10
23.1392776780207
 20
15.99852661081272
 30
0.0
 10
23.71696315373489
 20
16.14293362516728
 30
0.0
 10
24.29464862944909
 20
16.28734063952184
 30
0.0
 10
24.87233410516333
 20
16.43174765387639
 30
0.0
 10
25.45909167164015
 20
13.94938246437707
 30
0.0
 10
26.04584923811703
 20
11.46701727487778
 30
0.0
 10
26.63260680459385
 20
8.984652085378494
 30
0.0
 10
26.64162147706051
 20
8.984652085378494
 30
0.0
 10
26.65063614952717
 20
8.984652085378494
 30
0.0
 10
26.65965082199384
 20
8.984652085378494
 30
0.0
 10
27.36377138542528
 20
11.40379973101924
 30
0.0
 10
28.06789194885667
 20
13.82294737665993
 30
0.0
 10
28.77201251228806
 20
16.24209502230062
 30
0.0
 10
29.38133546907952
 20
16.24209502230062
 30
0.0
 10
29.99065842587103
 20
16.24209502230062
 30
0.0
 10
30.59998138266255
 20
16.24209502230062
 30
0.0
 10
31.21378296653936
 20
13.82294737665993
 30
0.0
 10
31.82758455041622
 20
11.40379973101924
 30
0.0
 10
32.44138613429308
 20
8.984652085378494
 30
0.0
 10
32.45040080675975
 20
8.984652085378494
 30
0.0
 10
32.45941547922641
 20
8.984652085378494
 30
0.0
 10
32.46843015169307
 20
8.984652085378494
 30
0.0
 10
33.14992790651385
 20
11.46701727487778
 30
0.0
 10
33.83142566133463
 20
13.9493824643771
 30
0.0
 10
34.51292341615542
 20
16.43174765387639
 30
0.0
 10
35.07263696523225
 20
16.28280459414052
 30
0.0
 10
35.63235051430908
 20
16.13386153440465
 30
0.0
 10
36.19206406338597
 20
15.98491847466878
 30
0.0
 10
35.23070953402672
 20
12.94743319976991
 30
0.0
 10
34.26935500466752
 20
9.909947924871071
 30
0.0
 10
33.30800047530832
 20
6.872462649972229
 30
0.0
 10
32.69419889143145
 20
6.872462649972229
 30
0.0
 10
32.08039730755465
 20
6.872462649972229
 30
0.0
 10
31.46659572367778
 20
6.872462649972229
 30
0.0
 10
30.85727276688633
 20
9.31417568592756
 30
0.0
 10
30.24794981009481
 20
11.75588872188289
 30
0.0
 10
29.63862685330335
 20
14.19760175783825
 30
0.0
 10
29.62955476254072
 20
14.19760175783825
 30
0.0
 10
29.62048267177803
 20
14.19760175783825
 30
0.0
 10
29.61141058101541
 20
14.19760175783825
 30
0.0
 10
28.92089815372796
 20
11.75588872188289
 30
0.0
 10
28.23038572644052
 20
9.31417568592756
 30
0.0
 10
27.53987329915307
 20
6.872462649972229
 30
0.0
 10
26.9350289694469
 20
6.872462649972229
 30
0.0
 10
26.33018463974079
 20
6.872462649972229
 30
0.0
 10
25.72534031003462
 20
6.872462649972229
 30
0.0
 10
24.86331943269667
 20
9.914483970252357
 30
0.0
 10
24.00129855535866
 20
12.95650529053254
 30
0.0
 10
23.1392776780207
 20
15.99852661081272
 30
0.0
  0
SPLINE
  5
ED
330
1F
100
AcDbEntity
  8
1
  6
Continuous
 62
   163
 60
     1
370
    18
100
AcDbSpline
210
0.0
220
0.0
230
1.0
 70
    11
 71
     3
 72
    41
 73
    37
 74
     0
 42
0.000000001
 43
0.0000000001
 40
0.0
 40
0.0
 40
0.0
 40
0.0
 40
0.0833333333333333
 40
0.0833333333333333
 40
0.0833333333333333
 40
0.1666666666666667
 40
0.1666666666666667
 40
0.1666666666666667
 40
0.25
 40
0.25
 40
0.25
 40
0.3333333333333333
 40
0.3333333333333333
 40
0.3333333333333333
 40
0.4166666666666667
 40
0.4166666666666667
 40
0.4166666666666667
 40
0.5
 40
0.5
 40
0.5
 40
0.5833333333333334
 40
0.5833333333333334
 40
0.5833333333333334
 40
0.6666666666666666
 40
0.6666666666666666
 40
0.6666666666666666
 40
0.75
 40
0.75
 40
0.75
 40
0.8333333333333334
 40
0.8333333333333334
 40
0.8333333333333334
 40
0.9166666666666666
 40
0.9166666666666666
 40
0.9166666666666666
 40
1.0
 40
1.0
 40
1.0
 40
1.0
 10
37.62644536308606
 20
8.727305110896895
 30
0.0
 10
38.05982381286489
 20
8.429474581683005
 30
0.0
 10
38.76382953970435
 20
8.090993726963271
 30
0.0
 10
39.27835488985593
 20
8.090993726963271
 30
0.0
 10
40.23970941921513
 20
8.090993726963271
 30
0.0
 10
40.78127878676671
 20
8.700259265458792
 30
0.0
 10
40.78127878676671
 20
9.444917145842206
 30
0.0
 10
40.76767065062276
 20
11.31353816976063
 30
0.0
 10
36.93603292421776
 20
10.51461999968931
 30
0.0
 10
36.93603292421776
 20
13.71012042508668
 30
0.0
 10
36.93603292421776
 20
15.24026059428534
 30
0.0
 10
38.18160801860884
 20
16.43174765387639
 30
0.0
 10
40.06383717867121
 20
16.43174765387639
 30
0.0
 10
40.99814769063042
 20
16.43174765387639
 30
0.0
 10
41.90506967541384
 20
16.10670268041273
 30
0.0
 10
42.70399599466541
 20
15.64644135862842
 30
0.0
 10
42.70398453274984
 20
15.6464332013328
 30
0.0
 10
41.97276974205371
 20
14.4006827459659
 30
0.0
 10
41.97276120276902
 20
14.4006934186719
 30
0.0
 10
41.4043247162941
 20
14.71212710798984
 30
0.0
 10
40.87619122999857
 20
15.02356394530955
 30
0.0
 10
40.1992295205591
 20
15.02356394530955
 30
0.0
 10
39.41374723174383
 20
15.02356394530955
 30
0.0
 10
38.66908935136038
 20
14.60377878350193
 30
0.0
 10
38.66908935136038
 20
13.76438071477455
 30
0.0
 10
38.66908935136038
 20
11.92280370825615
 30
0.0
 10
42.59581177588515
 20
12.50502522935168
 30
0.0
 10
42.59581177588515
 20
9.512613316786153
 30
0.0
 10
42.59581177588515
 20
7.914949231531418
 30
0.0
 10
41.30924001817434
 20
6.682810018396404
 30
0.0
 10
39.49505153883169
 20
6.682810018396404
 30
0.0
 10
38.58778504427252
 20
6.682810018396404
 30
0.0
 10
37.73477883940117
 20
6.940158820916148
 30
0.0
 10
36.94946178950815
 20
7.400592083187442
 30
0.0
 10
36.94947178431599
 20
7.400600964059331
 30
0.0
 10
37.626435060445
 20
8.727312191177512
 30
0.0
 10
37.62644536308606
 20
8.727305110896895
 30
0.0
  0
SPLINE
  5
EE
330
1F
100
AcDbEntity
  8
1
  6
Continuous
 62
   163
 60
     1
370
    18
100
AcDbSpline
210
0.0
220
0.0
230
1.0
 70
    11
 71
     3
 72
    41
 73
    37
 74
     0
 42
0.000000001
 43
0.0000000001
 40
0.0
 40
0.0
 40
0.0
 40
0.0
 40
0.0833333333333333
 40
0.0833333333333333
 40
0.0833333333333333
 40
0.1666666666666667
 40
0.1666666666666667
 40
0.1666666666666667
 40
0.25
 40
0.25
 40
0.25
 40
0.3333333333333333
 40
0.3333333333333333
 40
0.3333333333333333
 40
0.4166666666666667
 40
0.4166666666666667
 40
0.4166666666666667
 40
0.5
 40
0.5
 40
0.5
 40
0.5833333333333334
 40
0.5833333333333334
 40
0.5833333333333334
 40
0.6666666666666666
 40
0.6666666666666666
 40
0.6666666666666666
 40
0.75
 40
0.75
 40
0.75
 40
0.8333333333333334
 40
0.8333333333333334
 40
0.8333333333333334
 40
0.9166666666666666
 40
0.9166666666666666
 40
0.9166666666666666
 40
1.0
 40
1.0
 40
1.0
 40
1.0
 10
44.39623471328623
 20
8.727305110428638
 30
0.0
 10
44.82961316214747
 20
8.429474581683005
 30
0.0
 10
45.53344663409908
 20
8.090993726963271
 30
0.0
 10
46.04814423913854
 20
8.090993726963271
 30
0.0
 10
47.00932651360984
 20
8.090993726963271
 30
0.0
 10
47.55106813604937
 20
8.700259265458792
 30
0.0
 10
47.55106813604937
 20
9.444917145842206
 30
0.0
 10
47.53745999990542
 20
11.31353816976063
 30
0.0
 10
43.70565001861249
 20
10.51461999968931
 30
0.0
 10
43.70565001861249
 20
13.71012042508668
 30
0.0
 10
43.70565001861249
 20
15.24026059428534
 30
0.0
 10
44.95139736789142
 20
16.43174765387639
 30
0.0
 10
46.83345427306585
 20
16.43174765387639
 30
0.0
 10
47.76776478502507
 20
16.43174765387639
 30
0.0
 10
48.67485902469639
 20
16.10670268041273
 30
0.0
 10
49.47361308602012
 20
15.64644135906617
 30
0.0
 10
49.47360162773157
 20
15.64643320030638
 30
0.0
 10
48.74255909224894
 20
14.40068274680042
 30
0.0
 10
48.74255055156664
 20
14.4006934180556
 30
0.0
 10
48.1739418106888
 20
14.71212710798984
 30
0.0
 10
47.64580832439333
 20
15.02356394530955
 30
0.0
 10
46.9688466149538
 20
15.02356394530955
 30
0.0
 10
46.18353658102649
 20
15.02356394530955
 30
0.0
 10
45.43887870064302
 20
14.60377878350193
 30
0.0
 10
45.43887870064302
 20
13.76438071477455
 30
0.0
 10
45.43887870064302
 20
11.92280370825615
 30
0.0
 10
49.36542887027986
 20
12.50502522935168
 30
0.0
 10
49.36542887027986
 20
9.512613316786153
 30
0.0
 10
49.36542887027986
 20
7.914949231531418
 30
0.0
 10
48.079029367457
 20
6.682810018396404
 30
0.0
 10
46.26466863322639
 20
6.682810018396404
 30
0.0
 10
45.3575743935551
 20
6.682810018396404
 30
0.0
 10
44.50456818868381
 20
6.940158820916148
 30
0.0
 10
43.71907888079861
 20
7.400592083519152
 30
0.0
 10
43.71908887943025
 20
7.400600963125905
 30
0.0
 10
44.3962244106452
 20
8.727312190709236
 30
0.0
 10
44.39623471328623
 20
8.727305110428638
 30
0.0
  0
SPLINE
  5
EF
330
1F
100
AcDbEntity
  8
1
  6
Continuous
 62
   163
 60
     1
370
    18
100
AcDbSpline
210
0.0
220
0.0
230
1.0
 70
    11
 71
     3
 72
    17
 73
    13
 74
     0
 42
0.000000001
 43
0.0000000001
 40
0.0
 40
0.0
 40
0.0
 40
0.0
 40
0.2500749063670416
 40
0.2500749063670416
 40
0.2500749063670416
 40
0.4999999999999989
 40
0.4999999999999989
 40
0.4999999999999989
 40
0.7500749063670404
 40
0.7500749063670404
 40
0.7500749063670404
 40
1.0
 40
1.0
 40
1.0
 40
1.0
 10
55.95917372413066
 20
11.85614106663957
 30
0.0
 10
54.42564587546997
 20
11.85614106663957
 30
0.0
 10
52.89211802680927
 20
11.85614106663957
 30
0.0
 10
51.35859017814857
 20
11.85614106663957
 30
0.0
 10
51.35859017814857
 20
13.3887502225648
 30
0.0
 10
51.35859017814857
 20
14.92135937849003
 30
0.0
 10
51.35859017814857
 20
16.45396853441526
 30
0.0
 10
52.89211802680927
 20
16.45396853441526
 30
0.0
 10
54.42564587546997
 20
16.45396853441526
 30
0.0
 10
55.95917372413066
 20
16.45396853441526
 30
0.0
 10
55.95917372413066
 20
14.92135937849003
 30
0.0
 10
55.95917372413066
 20
13.3887502225648
 30
0.0
 10
55.95917372413066
 20
11.85614106663957
 30
0.0
  0
SPLINE
  5
F0
330
1F
100
AcDbEntity
  8
1
  6
Continuous
 62
   163
 60
     1
370
    18
100
AcDbSpline
210
0.0
220
0.0
230
1.0
 70
    11
 71
     3
 72
    17
 73
    13
 74
     0
 42
0.000000001
 43
0.0000000001
 40
0.0
 40
0.0
 40
0.0
 40
0.0
 40
0.2500749063670398
 40
0.2500749063670398
 40
0.2500749063670398
 40
0.5000000000000023
 40
0.5000000000000023
 40
0.5000000000000023
 40
0.7500749063670421
 40
0.7500749063670421
 40
0.7500749063670421
 40
1.0
 40
1.0
 40
1.0
 40
1.0
 10
61.1392227130018
 20
6.675747567992611
 30
0.0
 10
59.6056948643411
 20
6.675747567992611
 30
0.0
 10
58.07216701568041
 20
6.675747567992611
 30
0.0
 10
56.53863916701982
 20
6.675747567992611
 30
0.0
 10
56.53863916701982
 20
8.20835672391784
 30
0.0
 10
56.53863916701982
 20
9.740965879843069
 30
0.0
 10
56.53863916701982
 20
11.2735750357683
 30
0.0
 10
58.07216701568041
 20
11.2735750357683
 30
0.0
 10
59.6056948643411
 20
11.2735750357683
 30
0.0
 10
61.1392227130018
 20
11.2735750357683
 30
0.0
 10
61.1392227130018
 20
9.740965879843069
 30
0.0
 10
61.1392227130018
 20
8.20835672391784
 30
0.0
 10
61.1392227130018
 20
6.675747567992611
 30
0.0
  0
SPLINE
  5
F1
330
1F
100
AcDbEntity
  8
1
  6
Continuous
 62
   163
 60
     1
370
    18
100
AcDbSpline
210
0.0
220
0.0
230
1.0
 70
    11
 71
     3
 72
    17
 73
    13
 74
     0
 42
0.000000001
 43
0.0000000001
 40
0.0
 40
0.0
 40
0.0
 40
0.0
 40
0.2500749063670398
 40
0.2500749063670398
 40
0.2500749063670398
 40
0.5000000000000023
 40
0.5000000000000023
 40
0.5000000000000023
 40
0.7500749063670421
 40
0.7500749063670421
 40
0.7500749063670421
 40
1.0
 40
1.0
 40
1.0
 40
1.0
 10
61.1392227130018
 20
16.45396853441526
 30
0.0
 10
59.6056948643411
 20
16.45396853441526
 30
0.0
 10
58.07216701568041
 20
16.45396853441526
 30
0.0
 10
56.53863916701982
 20
16.45396853441526
 30
0.0
 10
56.53863916701982
 20
14.92135937849003
 30
0.0
 10
56.53863916701982
 20
13.3887502225648
 30
0.0
 10
56.53863916701982
 20
11.85614106663957
 30
0.0
 10
58.07216701568041
 20
11.85614106663957
 30
0.0
 10
59.6056948643411
 20
11.85614106663957
 30
0.0
 10
61.1392227130018
 20
11.85614106663957
 30
0.0
 10
61.1392227130018
 20
13.3887502225648
 30
0.0
 10
61.1392227130018
 20
14.92135937849003
 30
0.0
 10
61.1392227130018
 20
16.45396853441526
 30
0.0
  0
SPLINE
  5
F2
330
1F
100
AcDbEntity
  8
1
  6
Continuous
 62
   163
 60
     1
370
    18
100
AcDbSpline
210
0.0
220
0.0
230
1.0
 70
    11
 71
     3
 72
    17
 73
    13
 74
     0
 42
0.000000001
 43
0.0000000001
 40
0.0
 40
0.0
 40
0.0
 40
0.0
 40
0.2499153546639589
 40
0.2499153546639589
 40
0.2499153546639589
 40
0.4999999999999987
 40
0.4999999999999987
 40
0.4999999999999987
 40
0.7499153546639602
 40
0.7499153546639602
 40
0.7499153546639602
 40
1.0
 40
1.0
 40
1.0
 40
1.0
 10
60.87463920519031
 20
16.18938502660379
 30
0.0
 10
60.87463920519031
 20
14.83316487588619
 30
0.0
 10
60.87463920519031
 20
13.47694472516864
 30
0.0
 10
60.87463920519031
 20
12.12072457445104
 30
0.0
 10
59.51750036173735
 20
12.12072457445104
 30
0.0
 10
58.16036151828428
 20
12.12072457445104
 30
0.0
 10
56.8032226748312
 20
12.12072457445104
 30
0.0
 10
56.8032226748312
 20
13.47694472516864
 30
0.0
 10
56.8032226748312
 20
14.83316487588619
 30
0.0
 10
56.8032226748312
 20
16.18938502660379
 30
0.0
 10
58.16036151828428
 20
16.18938502660379
 30
0.0
 10
59.51750036173735
 20
16.18938502660379
 30
0.0
 10
60.87463920519031
 20
16.18938502660379
 30
0.0
  0
SPLINE
  5
F3
330
1F
100
AcDbEntity
  8
1
  6
Continuous
 62
   163
 60
     1
370
    18
100
AcDbSpline
210
0.0
220
0.0
230
1.0
 70
    11
 71
     3
 72
    17
 73
    13
 74
     0
 42
0.000000001
 43
0.0000000001
 40
0.0
 40
0.0
 40
0.0
 40
0.0
 40
0.2500749063670416
 40
0.2500749063670416
 40
0.2500749063670416
 40
0.4999999999999989
 40
0.4999999999999989
 40
0.4999999999999989
 40
0.7500749063670404
 40
0.7500749063670404
 40
0.7500749063670404
 40
1.0
 40
1.0
 40
1.0
 40
1.0
 10
55.95917372413066
 20
11.2735750357683
 30
0.0
 10
54.42564587546997
 20
11.2735750357683
 30
0.0
 10
52.89211802680927
 20
11.2735750357683
 30
0.0
 10
51.35859017814857
 20
11.2735750357683
 30
0.0
 10
51.35859017814857
 20
9.740965879843069
 30
0.0
 10
51.35859017814857
 20
8.20835672391784
 30
0.0
 10
51.35859017814857
 20
6.675747567992611
 30
0.0
 10
52.89211802680927
 20
6.675747567992611
 30
0.0
 10
54.42564587546997
 20
6.675747567992611
 30
0.0
 10
55.95917372413066
 20
6.675747567992611
 30
0.0
 10
55.95917372413066
 20
8.20835672391784
 30
0.0
 10
55.95917372413066
 20
9.740965879843069
 30
0.0
 10
55.95917372413066
 20
11.2735750357683
 30
0.0
  0
SPLINE
  5
F4
330
1F
100
AcDbEntity
  8
1
  6
Continuous
 62
   163
 60
     1
370
    18
100
AcDbSpline
210
0.0
220
0.0
230
1.0
 70
    11
 71
     3
 72
    17
 73
    13
 74
     0
 42
0.000000001
 43
0.0000000001
 40
0.0
 40
0.0
 40
0.0
 40
0.0
 40
0.2499153546639537
 40
0.2499153546639537
 40
0.2499153546639537
 40
0.4999999999999934
 40
0.4999999999999934
 40
0.4999999999999934
 40
0.749915354663955
 40
0.749915354663955
 40
0.749915354663955
 40
1.0
 40
1.0
 40
1.0
 40
1.0
 10
55.69459021631917
 20
11.0089915279568
 30
0.0
 10
55.69459021631917
 20
9.652771377239228
 30
0.0
 10
55.69459021631917
 20
8.296551226521624
 30
0.0
 10
55.69459021631917
 20
6.940331075804048
 30
0.0
 10
54.3374513728661
 20
6.940331075804048
 30
0.0
 10
52.98031252941303
 20
6.940331075804048
 30
0.0
 10
51.62317368596007
 20
6.940331075804048
 30
0.0
 10
51.62317368596007
 20
8.296551226521652
 30
0.0
 10
51.62317368596007
 20
9.652771377239228
 30
0.0
 10
51.62317368596007
 20
11.0089915279568
 30
0.0
 10
52.98031252941303
 20
11.0089915279568
 30
0.0
 10
54.3374513728661
 20
11.0089915279568
 30
0.0
 10
55.69459021631917
 20
11.0089915279568
 30
0.0
  0
SPLINE
  5
F5
102
{ACAD_REACTORS
330
205
102
}
330
1F
100
AcDbEntity
  8
256
  6
Continuous
 62
     7
370
    13
100
AcDbSpline
210
0.0
220
0.0
230
1.0
 70
    11
 71
     3
 72
    17
 73
    13
 74
     0
 42
0.000000001
 43
0.0000000001
 40
0.0
 40
0.0
 40
0.0
 40
0.0
 40
0.2500749063670416
 40
0.2500749063670416
 40
0.2500749063670416
 40
0.4999999999999989
 40
0.4999999999999989
 40
0.4999999999999989
 40
0.7500749063670404
 40
0.7500749063670404
 40
0.7500749063670404
 40
1.0
 40
1.0
 40
1.0
 40
1.0
 10
55.95917372413066
 20
11.85614106663957
 30
0.0
 10
54.42564587546997
 20
11.85614106663957
 30
0.0
 10
52.89211802680927
 20
11.85614106663957
 30
0.0
 10
51.35859017814857
 20
11.85614106663957
 30
0.0
 10
51.35859017814857
 20
13.3887502225648
 30
0.0
 10
51.35859017814857
 20
14.92135937849003
 30
0.0
 10
51.35859017814857
 20
16.45396853441526
 30
0.0
 10
52.89211802680927
 20
16.45396853441526
 30
0.0
 10
54.42564587546997
 20
16.45396853441526
 30
0.0
 10
55.95917372413066
 20
16.45396853441526
 30
0.0
 10
55.95917372413066
 20
14.92135937849003
 30
0.0
 10
55.95917372413066
 20
13.3887502225648
 30
0.0
 10
55.95917372413066
 20
11.85614106663957
 30
0.0
  0
SPLINE
  5
F6
102
{ACAD_REACTORS
330
205
102
}
330
1F
100
AcDbEntity
  8
256
  6
Continuous
 62
     7
370
    13
100
AcDbSpline
210
0.0
220
0.0
230
1.0
 70
    11
 71
     3
 72
    17
 73
    13
 74
     0
 42
0.000000001
 43
0.0000000001
 40
0.0
 40
0.0
 40
0.0
 40
0.0
 40
0.2500749063670398
 40
0.2500749063670398
 40
0.2500749063670398
 40
0.5000000000000023
 40
0.5000000000000023
 40
0.5000000000000023
 40
0.7500749063670421
 40
0.7500749063670421
 40
0.7500749063670421
 40
1.0
 40
1.0
 40
1.0
 40
1.0
 10
61.1392227130018
 20
6.675747567992611
 30
0.0
 10
59.6056948643411
 20
6.675747567992611
 30
0.0
 10
58.07216701568041
 20
6.675747567992611
 30
0.0
 10
56.53863916701982
 20
6.675747567992611
 30
0.0
 10
56.53863916701982
 20
8.20835672391784
 30
0.0
 10
56.53863916701982
 20
9.740965879843069
 30
0.0
 10
56.53863916701982
 20
11.2735750357683
 30
0.0
 10
58.07216701568041
 20
11.2735750357683
 30
0.0
 10
59.6056948643411
 20
11.2735750357683
 30
0.0
 10
61.1392227130018
 20
11.2735750357683
 30
0.0
 10
61.1392227130018
 20
9.740965879843069
 30
0.0
 10
61.1392227130018
 20
8.20835672391784
 30
0.0
 10
61.1392227130018
 20
6.675747567992611
 30
0.0
  0
SPLINE
  5
F7
102
{ACAD_REACTORS
330
205
102
}
330
1F
100
AcDbEntity
  8
256
  6
Continuous
 62
     7
370
    13
100
AcDbSpline
210
0.0
220
0.0
230
1.0
 70
    11
 71
     3
 72
    17
 73
    13
 74
     0
 42
0.000000001
 43
0.0000000001
 40
0.0
 40
0.0
 40
0.0
 40
0.0
 40
0.2500749063670416
 40
0.2500749063670416
 40
0.2500749063670416
 40
0.4999999999999989
 40
0.4999999999999989
 40
0.4999999999999989
 40
0.7500749063670404
 40
0.7500749063670404
 40
0.7500749063670404
 40
1.0
 40
1.0
 40
1.0
 40
1.0
 10
55.95917372413066
 20
11.2735750357683
 30
0.0
 10
54.42564587546997
 20
11.2735750357683
 30
0.0
 10
52.89211802680927
 20
11.2735750357683
 30
0.0
 10
51.35859017814857
 20
11.2735750357683
 30
0.0
 10
51.35859017814857
 20
9.740965879843069
 30
0.0
 10
51.35859017814857
 20
8.20835672391784
 30
0.0
 10
51.35859017814857
 20
6.675747567992611
 30
0.0
 10
52.89211802680927
 20
6.675747567992611
 30
0.0
 10
54.42564587546997
 20
6.675747567992611
 30
0.0
 10
55.95917372413066
 20
6.675747567992611
 30
0.0
 10
55.95917372413066
 20
8.20835672391784
 30
0.0
 10
55.95917372413066
 20
9.740965879843069
 30
0.0
 10
55.95917372413066
 20
11.2735750357683
 30
0.0
  0
SPLINE
  5
F8
102
{ACAD_REACTORS
330
205
102
}
330
1F
100
AcDbEntity
  8
256
  6
Continuous
 62
     7
370
    13
100
AcDbSpline
210
0.0
220
0.0
230
1.0
 70
    11
 71
     3
 72
    53
 73
    49
 74
     0
 42
0.000000001
 43
0.0000000001
 40
0.0
 40
0.0
 40
0.0
 40
0.0
 40
0.024233419787787
 40
0.024233419787787
 40
0.024233419787787
 40
0.1280418012427934
 40
0.1280418012427934
 40
0.1280418012427934
 40
0.1284086704647148
 40
0.1284086704647148
 40
0.1284086704647148
 40
0.2309459700568215
 40
0.2309459700568215
 40
0.2309459700568215
 40
0.2557435253627113
 40
0.2557435253627113
 40
0.2557435253627113
 40
0.3573149299809463
 40
0.3573149299809463
 40
0.3573149299809463
 40
0.3576817992028669
 40
0.3576817992028669
 40
0.3576817992028669
 40
0.4624443157722517
 40
0.4624443157722517
 40
0.4624443157722517
 40
0.4860156317106226
 40
0.4860156317106226
 40
0.4860156317106226
 40
0.6156754647053586
 40
0.6156754647053586
 40
0.6156754647053586
 40
0.6406552862488913
 40
0.6406552862488913
 40
0.6406552862488913
 40
0.7430727925756138
 40
0.7430727925756138
 40
0.7430727925756138
 40
0.7434419985441709
 40
0.7434419985441709
 40
0.7434419985441709
 40
0.8467092888241766
 40
0.8467092888241766
 40
0.8467092888241766
 40
0.8713245778924228
 40
0.8713245778924228
 40
0.8713245778924228
 40
1.0
 40
1.0
 40
1.0
 40
1.0
 10
23.1392776780207
 20
15.99852661081272
 30
0.0
 10
23.71696315373489
 20
16.14293362516728
 30
0.0
 10
24.29464862944909
 20
16.28734063952184
 30
0.0
 10
24.87233410516333
 20
16.43174765387639
 30
0.0
 10
25.45909167164015
 20
13.94938246437707
 30
0.0
 10
26.04584923811703
 20
11.46701727487778
 30
0.0
 10
26.63260680459385
 20
8.984652085378494
 30
0.0
 10
26.64162147706051
 20
8.984652085378494
 30
0.0
 10
26.65063614952717
 20
8.984652085378494
 30
0.0
 10
26.65965082199384
 20
8.984652085378494
 30
0.0
 10
27.36377138542528
 20
11.40379973101924
 30
0.0
 10
28.06789194885667
 20
13.82294737665993
 30
0.0
 10
28.77201251228806
 20
16.24209502230062
 30
0.0
 10
29.38133546907952
 20
16.24209502230062
 30
0.0
 10
29.99065842587103
 20
16.24209502230062
 30
0.0
 10
30.59998138266255
 20
16.24209502230062
 30
0.0
 10
31.21378296653936
 20
13.82294737665993
 30
0.0
 10
31.82758455041622
 20
11.40379973101924
 30
0.0
 10
32.44138613429308
 20
8.984652085378494
 30
0.0
 10
32.45040080675975
 20
8.984652085378494
 30
0.0
 10
32.45941547922641
 20
8.984652085378494
 30
0.0
 10
32.46843015169307
 20
8.984652085378494
 30
0.0
 10
33.14992790651385
 20
11.46701727487778
 30
0.0
 10
33.83142566133463
 20
13.9493824643771
 30
0.0
 10
34.51292341615542
 20
16.43174765387639
 30
0.0
 10
35.07263696523225
 20
16.28280459414052
 30
0.0
 10
35.63235051430908
 20
16.13386153440465
 30
0.0
 10
36.19206406338597
 20
15.98491847466878
 30
0.0
 10
35.23070953402672
 20
12.94743319976991
 30
0.0
 10
34.26935500466752
 20
9.909947924871071
 30
0.0
 10
33.30800047530832
 20
6.872462649972229
 30
0.0
 10
32.69419889143145
 20
6.872462649972229
 30
0.0
 10
32.08039730755465
 20
6.872462649972229
 30
0.0
 10
31.46659572367778
 20
6.872462649972229
 30
0.0
 10
30.85727276688633
 20
9.31417568592756
 30
0.0
 10
30.24794981009481
 20
11.75588872188289
 30
0.0
 10
29.63862685330335
 20
14.19760175783825
 30
0.0
 10
29.62955476254072
 20
14.19760175783825
 30
0.0
 10
29.62048267177803
 20
14.19760175783825
 30
0.0
 10
29.61141058101541
 20
14.19760175783825
 30
0.0
 10
28.92089815372796
 20
11.75588872188289
 30
0.0
 10
28.23038572644052
 20
9.31417568592756
 30
0.0
 10
27.53987329915307
 20
6.872462649972229
 30
0.0
 10
26.9350289694469
 20
6.872462649972229
 30
0.0
 10
26.33018463974079
 20
6.872462649972229
 30
0.0
 10
25.72534031003462
 20
6.872462649972229
 30
0.0
 10
24.86331943269667
 20
9.914483970252357
 30
0.0
 10
24.00129855535866
 20
12.95650529053254
 30
0.0
 10
23.1392776780207
 20
15.99852661081272
 30
0.0
  0
SPLINE
  5
F9
102
{ACAD_REACTORS
330
205
102
}
330
1F
100
AcDbEntity
  8
256
  6
Continuous
 62
     7
370
    13
100
AcDbSpline
210
0.0
220
0.0
230
1.0
 70
    11
 71
     3
 72
    17
 73
    13
 74
     0
 42
0.000000001
 43
0.0000000001
 40
0.0
 40
0.0
 40
0.0
 40
0.0
 40
0.2500749063670398
 40
0.2500749063670398
 40
0.2500749063670398
 40
0.5000000000000023
 40
0.5000000000000023
 40
0.5000000000000023
 40
0.7500749063670421
 40
0.7500749063670421
 40
0.7500749063670421
 40
1.0
 40
1.0
 40
1.0
 40
1.0
 10
61.1392227130018
 20
16.45396853441526
 30
0.0
 10
59.6056948643411
 20
16.45396853441526
 30
0.0
 10
58.07216701568041
 20
16.45396853441526
 30
0.0
 10
56.53863916701982
 20
16.45396853441526
 30
0.0
 10
56.53863916701982
 20
14.92135937849003
 30
0.0
 10
56.53863916701982
 20
13.3887502225648
 30
0.0
 10
56.53863916701982
 20
11.85614106663957
 30
0.0
 10
58.07216701568041
 20
11.85614106663957
 30
0.0
 10
59.6056948643411
 20
11.85614106663957
 30
0.0
 10
61.1392227130018
 20
11.85614106663957
 30
0.0
 10
61.1392227130018
 20
13.3887502225648
 30
0.0
 10
61.1392227130018
 20
14.92135937849003
 30
0.0
 10
61.1392227130018
 20
16.45396853441526
 30
0.0
  0
SPLINE
  5
FA
102
{ACAD_REACTORS
330
205
102
}
330
1F
100
AcDbEntity
  8
256
  6
Continuous
 62
     7
370
    13
100
AcDbSpline
210
0.0
220
0.0
230
1.0
 70
    11
 71
     3
 72
    41
 73
    37
 74
     0
 42
0.000000001
 43
0.0000000001
 40
0.0
 40
0.0
 40
0.0
 40
0.0
 40
0.0833333333333333
 40
0.0833333333333333
 40
0.0833333333333333
 40
0.1666666666666667
 40
0.1666666666666667
 40
0.1666666666666667
 40
0.25
 40
0.25
 40
0.25
 40
0.3333333333333333
 40
0.3333333333333333
 40
0.3333333333333333
 40
0.4166666666666667
 40
0.4166666666666667
 40
0.4166666666666667
 40
0.5
 40
0.5
 40
0.5
 40
0.5833333333333334
 40
0.5833333333333334
 40
0.5833333333333334
 40
0.6666666666666666
 40
0.6666666666666666
 40
0.6666666666666666
 40
0.75
 40
0.75
 40
0.75
 40
0.8333333333333334
 40
0.8333333333333334
 40
0.8333333333333334
 40
0.9166666666666666
 40
0.9166666666666666
 40
0.9166666666666666
 40
1.0
 40
1.0
 40
1.0
 40
1.0
 10
37.62644536308606
 20
8.727305110896895
 30
0.0
 10
38.05982381286489
 20
8.429474581683005
 30
0.0
 10
38.76382953970435
 20
8.090993726963271
 30
0.0
 10
39.27835488985593
 20
8.090993726963271
 30
0.0
 10
40.23970941921513
 20
8.090993726963271
 30
0.0
 10
40.78127878676671
 20
8.700259265458792
 30
0.0
 10
40.78127878676671
 20
9.444917145842206
 30
0.0
 10
40.76767065062276
 20
11.31353816976063
 30
0.0
 10
36.93603292421776
 20
10.51461999968931
 30
0.0
 10
36.93603292421776
 20
13.71012042508668
 30
0.0
 10
36.93603292421776
 20
15.24026059428534
 30
0.0
 10
38.18160801860884
 20
16.43174765387639
 30
0.0
 10
40.06383717867121
 20
16.43174765387639
 30
0.0
 10
40.99814769063042
 20
16.43174765387639
 30
0.0
 10
41.90506967541384
 20
16.10670268041273
 30
0.0
 10
42.70399599466541
 20
15.64644135862842
 30
0.0
 10
42.70398453274984
 20
15.6464332013328
 30
0.0
 10
41.97276974205371
 20
14.4006827459659
 30
0.0
 10
41.97276120276902
 20
14.4006934186719
 30
0.0
 10
41.4043247162941
 20
14.71212710798984
 30
0.0
 10
40.87619122999857
 20
15.02356394530955
 30
0.0
 10
40.1992295205591
 20
15.02356394530955
 30
0.0
 10
39.41374723174383
 20
15.02356394530955
 30
0.0
 10
38.66908935136038
 20
14.60377878350193
 30
0.0
 10
38.66908935136038
 20
13.76438071477455
 30
0.0
 10
38.66908935136038
 20
11.92280370825615
 30
0.0
 10
42.59581177588515
 20
12.50502522935168
 30
0.0
 10
42.59581177588515
 20
9.512613316786153
 30
0.0
 10
42.59581177588515
 20
7.914949231531418
 30
0.0
 10
41.30924001817434
 20
6.682810018396404
 30
0.0
 10
39.49505153883169
 20
6.682810018396404
 30
0.0
 10
38.58778504427252
 20
6.682810018396404
 30
0.0
 10
37.73477883940117
 20
6.940158820916148
 30
0.0
 10
36.94946178950815
 20
7.400592083187442
 30
0.0
 10
36.94947178431599
 20
7.400600964059331
 30
0.0
 10
37.626435060445
 20
8.727312191177512
 30
0.0
 10
37.62644536308606
 20
8.727305110896895
 30
0.0
  0
SPLINE
  5
FB
102
{ACAD_REACTORS
330
205
102
}
330
1F
100
AcDbEntity
  8
256
  6
Continuous
 62
     7
370
    13
100
AcDbSpline
210
0.0
220
0.0
230
1.0
 70
    11
 71
     3
 72
    17
 73
    13
 74
     0
 42
0.000000001
 43
0.0000000001
 40
0.0
 40
0.0
 40
0.0
 40
0.0
 40
0.2499153546639589
 40
0.2499153546639589
 40
0.2499153546639589
 40
0.4999999999999987
 40
0.4999999999999987
 40
0.4999999999999987
 40
0.7499153546639602
 40
0.7499153546639602
 40
0.7499153546639602
 40
1.0
 40
1.0
 40
1.0
 40
1.0
 10
60.87463920519031
 20
16.18938502660379
 30
0.0
 10
60.87463920519031
 20
14.83316487588619
 30
0.0
 10
60.87463920519031
 20
13.47694472516864
 30
0.0
 10
60.87463920519031
 20
12.12072457445104
 30
0.0
 10
59.51750036173735
 20
12.12072457445104
 30
0.0
 10
58.16036151828428
 20
12.12072457445104
 30
0.0
 10
56.8032226748312
 20
12.12072457445104
 30
0.0
 10
56.8032226748312
 20
13.47694472516864
 30
0.0
 10
56.8032226748312
 20
14.83316487588619
 30
0.0
 10
56.8032226748312
 20
16.18938502660379
 30
0.0
 10
58.16036151828428
 20
16.18938502660379
 30
0.0
 10
59.51750036173735
 20
16.18938502660379
 30
0.0
 10
60.87463920519031
 20
16.18938502660379
 30
0.0
  0
LINE
  5
FC
330
1F
100
AcDbEntity
  8
1
  6
CENTER
 62
   203
370
    13
100
AcDbLine
 10
75.059975
 20
131.933475
 30
0.0
 11
105.059975
 21
131.933475
 31
0.0
  0
LINE
  5
FD
330
1F
100
AcDbEntity
  8
1
  6
CENTER
 62
   203
370
    13
100
AcDbLine
 10
90.059975
 20
124.933475
 30
0.0
 11
90.059975
 21
138.933475
 31
0.0
  0
LINE
  5
FE
102
{ACAD_REACTORS
330
15E
102
}
330
1F
100
AcDbEntity
  8
1
  6
CENTER
 62
   203
370
    13
100
AcDbLine
 10
82.059975
 20
124.933475
 30
0.0
 11
82.059975
 21
138.933475
 31
0.0
  0
LINE
  5
FF
330
1F
100
AcDbEntity
  8
1
  6
CENTER
 62
   203
370
    13
100
AcDbLine
 10
108.559975
 20
217.601291
 30
0.0
 11
139.059975
 21
217.601291
 31
0.0
  0
LINE
  5
100
330
1F
100
AcDbEntity
  8
1
  6
CENTER
 62
   203
370
    13
100
AcDbLine
 10
132.059975
 20
210.601291
 30
0.0
 11
132.059975
 21
224.601291
 31
0.0
  0
LINE
  5
101
102
{ACAD_REACTORS
330
1AA
330
1DD
102
}
330
1F
100
AcDbEntity
  8
1
  6
CENTER
 62
   203
370
    13
100
AcDbLine
 10
124.059975
 20
210.601291
 30
0.0
 11
124.059975
 21
224.601291
 31
0.0
  0
LEADER
  5
106
330
1F
100
AcDbEntity
  8
1
  6
Continuous
 62
    35
370
    13
100
AcDbLeader
  3
Standard
 73
     2
 76
     3
 10
82.059975
 20
217.601291
 30
0.0
 10
73.335667
 20
251.601291
 30
0.0
 10
79.335667
 20
251.601291
 30
0.0
340
109
212
79.33566662869686
222
251.6012911617255
232
0.0
1001
ACAD
1000
DSTYLE
1002
{
1070
   341
1005
103
1070
    41
1040
8.0
1002
}
  0
INSERT
  5
109
102
{ACAD_REACTORS
330
106
102
}
330
1F
100
AcDbEntity
  8
1
  6
Continuous
 62
    35
370
    13
100
AcDbBlockReference
  2
LABLE3D_1
 10
0.0
 20
0.0
 30
0.0
  0
MTEXT
  5
10C
102
{ACAD_REACTORS
330
206
102
}
330
1F
100
AcDbEntity
  8
256
  6
Continuous
 62
     1
370
    13
100
AcDbMText
 10
140.252831
 20
26.032512
 30
0.0
 40
1.8
 41
0.0
 71
     7
 72
     5
  1
\W1.0000;Kunde:
  7
ISOCPEUR
 73
     2
 44
0.60241
  0
MTEXT
  5
10D
102
{ACAD_REACTORS
330
206
102
}
330
1F
100
AcDbEntity
  8
256
  6
Continuous
 62
     1
370
    13
100
AcDbMText
 10
140.338651
 20
20.025128
 30
0.0
 40
1.8
 41
0.0
 71
     7
 72
     5
  1
\W1.0000;Obj.:
  7
ISOCPEUR
 73
     2
 44
0.60241
  0
MTEXT
  5
10E
102
{ACAD_REACTORS
330
206
102
}
330
1F
100
AcDbEntity
  8
256
  6
Continuous
 62
     1
370
    13
100
AcDbMText
 10
68.475407
 20
25.544246
 30
0.0
 40
1.8
 41
0.0
 71
     7
 72
     5
  1
\W1.0000;Ident- Nr.:
  7
ISOCPEUR
 73
     2
 44
0.60241
  0
MTEXT
  5
10F
102
{ACAD_REACTORS
330
206
102
}
330
1F
100
AcDbEntity
  8
256
  6
Continuous
 62
     1
370
    13
100
AcDbMText
 10
68.034306
 20
5.784298
 30
0.0
 40
1.8
 41
0.0
 71
     7
 72
     5
  1
\W1.0000;Serie 200
  7
ISOCPEUR
 73
     2
 44
0.60241
  0
MTEXT
  5
110
102
{ACAD_REACTORS
330
206
102
}
330
1F
100
AcDbEntity
  8
256
  6
Continuous
 62
     1
370
    13
100
AcDbMText
 10
140.338651
 20
14.532663
 30
0.0
 40
1.8
 41
0.0
 71
     7
 72
     5
  1
\W1.0000;Bestell- Nr.:
  7
ISOCPEUR
 73
     2
 44
0.60241
  0
MTEXT
  5
111
102
{ACAD_REACTORS
330
206
102
}
330
1F
100
AcDbEntity
  8
256
  6
Continuous
 62
     1
370
    13
100
AcDbMText
 10
22.312209
 20
20.102235
 30
0.0
 40
1.8
 41
0.0
 71
     7
 72
     5
  1
\W1.0000;Datum:
  7
ISOCPEUR
 73
     2
 44
0.60241
  0
MTEXT
  5
112
102
{ACAD_REACTORS
330
206
102
}
330
1F
100
AcDbEntity
  8
256
  6
Continuous
 62
     1
370
    13
100
AcDbMText
 10
22.203121
 20
25.836315
 30
0.0
 40
1.8
 41
0.0
 71
     7
 72
     5
  1
\W1.0000;Ersteller:
  7
ISOCPEUR
 73
     2
 44
0.60241
  0
MTEXT
  5
113
102
{ACAD_REACTORS
330
206
102
}
330
1F
100
AcDbEntity
  8
256
  6
Continuous
 62
     1
370
    13
100
AcDbMText
 10
175.595795
 20
14.566103
 30
0.0
 40
1.8
 41
0.0
 71
     7
 72
     5
  1
\W1.0000;Pos.:
  7
ISOCPEUR
 73
     2
 44
0.60241
  0
MTEXT
  5
114
102
{ACAD_REACTORS
330
206
102
}
330
1F
100
AcDbEntity
  8
256
  6
Continuous
 62
     1
370
    13
100
AcDbMText
 10
81.289248
 20
25.334284
 30
0.0
 40
2.5
 41
0.0
 71
     7
 72
     5
  1
\W1.0000;110959
  7
ISOCPEUR
 73
     2
 44
0.60241
  0
MTEXT
  5
115
102
{ACAD_REACTORS
330
206
102
}
330
1F
100
AcDbEntity
  8
256
  6
Continuous
 62
     1
370
    18
100
AcDbMText
 10
103.53529
 20
25.16909
 30
0.0
 40
2.5
 41
0.0
 71
     7
 72
     5
  1
\fISOCPEUR|b1|i0;\W1.0000;03
  7
ISOCPEUR
 73
     2
 44
0.60241
  0
MTEXT
  5
116
102
{ACAD_REACTORS
330
206
102
}
330
1F
100
AcDbEntity
  8
256
  6
Continuous
 62
     1
370
    13
100
AcDbMText
 10
140.167012
 20
10.241675
 30
0.0
 40
1.8
 41
0.0
 71
     7
 72
     5
  1
\W1.0000;Änderung:
  7
ISOCPEUR
 73
     2
 44
0.60241
  0
LINE
  5
117
330
1F
100
AcDbEntity
  8
1
  6
CENTER
 62
   203
370
    13
100
AcDbLine
 10
96.037506
 20
223.234717
 30
0.0
 11
118.082444
 21
214.967865
 31
0.0
  0
LINE
  5
118
330
1F
100
AcDbEntity
  8
1
  6
CENTER
 62
   203
370
    13
100
AcDbLine
 10
108.426549
 20
210.578822
 30
0.0
 11
113.693401
 21
224.62376
 31
0.0
  0
LINE
  5
119
102
{ACAD_REACTORS
330
190
102
}
330
1F
100
AcDbEntity
  8
1
  6
CENTER
 62
   203
370
    13
100
AcDbLine
 10
100.426549
 20
213.578822
 30
0.0
 11
105.693401
 21
227.62376
 31
0.0
  0
MTEXT
  5
11A
102
{ACAD_REACTORS
330
206
102
}
330
1F
100
AcDbEntity
  8
256
  6
Continuous
 62
    87
370
    13
100
AcDbMText
 10
17.685762
 20
5.805962
 30
0.0
 40
1.8
 41
0.0
 71
     7
 72
     5
  3
\W0.9000;Diese Zeichnung entspricht dem Entwicklungsstand des Zeichnungsdatums bzw. der letzten\PAenderungseintragung. Aus der Benutzung der Zeichnung koennen keine Ansprueche, gleich welcher Art,\Peinschliesslich Schadensersatzansprueche, abgeleite
  3
t und gegen WSS geltend gemacht werden. Die\PZeichnung bleibt unser Eigentum und ist Dritten nur fuer die Vertragsdauer zur Benutzung ueberlassen.\PSaemtliche sich aus der Zeichnung ergebenden Ansprueche stehen ausschliesslich WSS zu. Ohne vorherige
  1
\PZustimmung von WSS darf diese Zeichnung weder vervielfaeltigt noch Dritten zugaenglich gemacht werden. 
  7
ISOCPEUR
 11
8.276882722183526E-15
 21
1.0
 31
0.0
 73
     1
 44
0.961482
  0
MTEXT
  5
11B
102
{ACAD_REACTORS
330
206
102
}
330
1F
100
AcDbEntity
  8
256
  6
Continuous
 62
     1
370
    13
100
AcDbMText
 10
154.841428
 20
14.532663
 30
0.0
 40
1.8
 41
0.0
 71
     7
 72
     5
  1
\W1.0000;
  7
ISOCPEUR
 73
     2
 44
0.60241
  0
MTEXT
  5
11C
102
{ACAD_REACTORS
330
206
102
}
330
1F
100
AcDbEntity
  8
256
  6
Continuous
 62
     1
370
    13
100
AcDbMText
 10
145.807848
 20
20.025128
 30
0.0
 40
1.8
 41
0.0
 71
     7
 72
     5
  1
\W1.0000;
  7
ISOCPEUR
 73
     2
 44
0.60241
  0
MTEXT
  5
11D
102
{ACAD_REACTORS
330
206
102
}
330
1F
100
AcDbEntity
  8
256
  6
Continuous
 62
    87
370
    13
100
AcDbMText
 10
18.167109
 20
177.357362
 30
0.0
 40
1.8
 41
0.0
 71
     7
 72
     5
  3
\W0.9000;Zeichnung fuer Sonder- bzw. Objektkonstruktionen sind vom Anwender auf Richtigkeit sowie\PAus- und Durchfuehrbarkeit zu pruefen. Um eine einwandfreie Serienproduktion sicherzustellen ist die \PFertigung eines Musterelementes unbedingt erfor
  3
derlich. Die hierzu benoetigten Mustermengen sind\Prechtzeitig zu bestellen. Alle angegebenen Masse sind theoretisch ermittelt und vom Verarbeiter \Pverantwortlich zu ueberpruefen. Die Haftung WSS ist auf Vorsatz und grobe Fahrlaessigkeit beschraenk
  7
ISOCPEUR
 11
9.165061141883651E-15
 21
1.0
 31
0.0
 73
     1
 44
0.961482
  0
MTEXT
  5
11E
102
{ACAD_REACTORS
330
206
102
}
330
1F
100
AcDbEntity
  8
256
  6
Continuous
 62
    20
370
    13
100
AcDbMText
 10
535.689809
 20
15.244179
 30
0.0
 40
2.0
 41
0.0
 71
     7
 72
     5
  1
\W0.5852;\Q359.999790;\Q;
  7
ideas_iso
 73
     2
 44
0.60241
  0
MTEXT
  5
121
102
{ACAD_REACTORS
330
206
102
}
330
1F
100
AcDbEntity
  8
256
  6
Continuous
 62
    20
370
    13
100
AcDbMText
 10
535.452157
 20
10.519599
 30
0.0
 40
2.0
 41
0.0
 71
     7
 72
     5
  1
\W0.5852;\Q359.999790;\Q;
  7
ideas_iso
 73
     2
 44
0.60241
  0
MTEXT
  5
122
102
{ACAD_REACTORS
330
206
102
}
330
1F
100
AcDbEntity
  8
256
  6
Continuous
 62
     1
370
    13
100
AcDbMText
 10
181.91213
 20
14.566103
 30
0.0
 40
1.8
 41
0.0
 71
     7
 72
     5
  1
\W1.0000;
  7
ISOCPEUR
 73
     2
 44
0.60241
  0
MTEXT
  5
123
102
{ACAD_REACTORS
330
206
102
}
330
1F
100
AcDbEntity
  8
256
  6
Continuous
 62
     1
370
    13
100
AcDbMText
 10
148.436109
 20
26.032512
 30
0.0
 40
1.8
 41
0.0
 71
     7
 72
     5
  1
\W0.8000;
  7
ISOCPEUR
 73
     2
 44
0.60241
  0
MTEXT
  5
124
102
{ACAD_REACTORS
330
206
102
}
330
1F
100
AcDbEntity
  8
256
  6
Continuous
 62
     1
370
    13
100
AcDbMText
 10
109.542744
 20
24.922437
 30
0.0
 40
2.5
 41
0.0
 71
     7
 72
     5
  1
\W1.0000;Serienfreigabe
  7
ISOCPEUR
 73
     2
 44
0.60241
  0
MTEXT
  5
125
102
{ACAD_REACTORS
330
206
102
}
330
1F
100
AcDbEntity
  8
256
  6
Continuous
 62
     1
370
    13
100
AcDbMText
 10
21.388756
 20
0.704258
 30
0.0
 40
1.0
 41
0.0
 71
     7
 72
     5
  1
\W1.0000;18.03.2019
  7
ISOCPEUR
 73
     2
 44
0.60241
  0
MTEXT
  5
126
102
{ACAD_REACTORS
330
206
102
}
330
1F
100
AcDbEntity
  8
256
  6
Continuous
 62
     1
370
    13
100
AcDbMText
 10
27.712006
 20
0.722997
 30
0.0
 40
1.0
 41
0.0
 71
     7
 72
     5
  1
\W1.0000;/
  7
ISOCPEUR
 73
     2
 44
0.60241
  0
MTEXT
  5
127
102
{ACAD_REACTORS
330
206
102
}
330
1F
100
AcDbEntity
  8
256
  6
Continuous
 62
     1
370
    13
100
AcDbMText
 10
28.590482
 20
0.704258
 30
0.0
 40
1.0
 41
0.0
 71
     7
 72
     5
  1
\W1.0000;Jung, Thorsten
  7
ISOCPEUR
 73
     2
 44
0.60241
  0
MTEXT
  5
128
330
1F
100
AcDbEntity
  8
1
  6
Continuous
 62
    35
370
    13
100
AcDbMText
 10
146.567635
 20
192.614329
 30
0.0
 40
3.5
 41
0.0
 71
     7
 72
     5
  1
\W1.0000;t=3
  7
ISOCPEUR
 73
     2
 44
0.85889
  0
MTEXT
  5
129
330
1F
100
AcDbEntity
  8
1
  6
Continuous
 62
    35
370
    13
100
AcDbMText
 10
75.537334
 20
149.13234
 30
0.0
 40
3.5
 41
0.0
 71
     7
 72
     5
  1
\W1.0000;Schliessblech um 180° verbaut
  7
ISOCPEUR
 73
     2
 44
0.85889
  0
MTEXT
  5
12A
102
{ACAD_REACTORS
330
206
102
}
330
1F
100
AcDbEntity
  8
256
  6
Continuous
 62
     1
370
    13
100
AcDbMText
 10
68.600925
 20
14.67194
 30
0.0
 40
3.5
 41
0.0
 71
     7
 72
     5
  1
\W0.9000;SBH unten 14.300.2400.428
  7
ISOCPEUR
 73
     2
 44
0.60241
  0
MTEXT
  5
12B
102
{ACAD_REACTORS
330
206
102
}
330
1F
100
AcDbEntity
  8
256
  6
Continuous
 62
     1
370
    13
100
AcDbMText
 10
35.997708
 20
25.836315
 30
0.0
 40
1.8
 41
0.0
 71
     7
 72
     5
  1
\W1.0000;KNICKT
  7
ISOCPEUR
 73
     2
 44
0.60241
  0
MTEXT
  5
12C
102
{ACAD_REACTORS
330
206
102
}
330
1F
100
AcDbEntity
  8
256
  6
Continuous
 62
     1
370
    13
100
AcDbMText
 10
35.917402
 20
20.102235
 30
0.0
 40
1.8
 41
0.0
 71
     7
 72
     5
  1
\W1.0000;07.10.2013
  7
ISOCPEUR
 73
     2
 44
0.60241
  0
MTEXT
  5
12D
102
{ACAD_REACTORS
330
206
102
}
330
1F
100
AcDbEntity
  8
256
  6
Continuous
 62
     1
370
    13
100
AcDbMText
 10
68.314863
 20
10.031713
 30
0.0
 40
2.5
 41
0.0
 71
     7
 72
     5
  1
\W1.0000;65x24x3 - f. Standflg. unten
  7
ISOCPEUR
 73
     2
 44
0.60241
  0
MTEXT
  5
12E
102
{ACAD_REACTORS
330
206
102
}
330
1F
100
AcDbEntity
  8
256
  6
Continuous
 62
     1
370
    13
100
AcDbMText
 10
96.761446
 20
25.544246
 30
0.0
 40
1.8
 41
0.0
 71
     7
 72
     5
  1
\W1.0000;Index:
  7
ISOCPEUR
 73
     2
 44
0.60241
  0
MTEXT
  5
12F
102
{ACAD_REACTORS
330
206
102
}
330
1F
100
AcDbEntity
  8
256
  6
Continuous
 62
     1
370
    13
100
AcDbMText
 10
68.318349
 20
20.550442
 30
0.0
 40
1.8
 41
0.0
 71
     7
 72
     5
  1
\W1.0000;Bezeichnung:
  7
ISOCPEUR
 73
     2
 44
0.60241
  0
LINE
  5
130
330
1F
100
AcDbEntity
  8
1
  6
CENTER
 62
   203
370
    13
100
AcDbLine
 10
75.059975
 20
217.601291
 30
0.0
 11
97.059975
 21
217.601291
 31
0.0
  0
LINE
  5
131
330
1F
100
AcDbEntity
  8
1
  6
CENTER
 62
   203
370
    13
100
AcDbLine
 10
90.059975
 20
210.601291
 30
0.0
 11
90.059975
 21
224.601291
 31
0.0
  0
LINE
  5
132
330
1F
100
AcDbEntity
  8
1
  6
CENTER
 62
   203
370
    13
100
AcDbLine
 10
82.059975
 20
210.601291
 30
0.0
 11
82.059975
 21
224.601291
 31
0.0
  0
LINE
  5
133
330
1F
100
AcDbEntity
  8
1
  6
CENTER
 62
   203
370
    13
100
AcDbLine
 10
96.037506
 20
134.566901
 30
0.0
 11
118.082444
 21
126.300049
 31
0.0
  0
LINE
  5
134
330
1F
100
AcDbEntity
  8
1
  6
CENTER
 62
   203
370
    13
100
AcDbLine
 10
108.426549
 20
121.911006
 30
0.0
 11
113.693401
 21
135.955944
 31
0.0
  0
LINE
  5
135
330
1F
100
AcDbEntity
  8
1
  6
CENTER
 62
   203
370
    13
100
AcDbLine
 10
100.426549
 20
124.911006
 30
0.0
 11
105.693401
 21
138.955944
 31
0.0
  0
LINE
  5
136
330
1F
100
AcDbEntity
  8
1
  6
CENTER
 62
   203
370
    13
100
AcDbLine
 10
117.059975
 20
131.933475
 30
0.0
 11
139.059975
 21
131.933475
 31
0.0
  0
LINE
  5
137
330
1F
100
AcDbEntity
  8
1
  6
CENTER
 62
   203
370
    13
100
AcDbLine
 10
132.059975
 20
124.933475
 30
0.0
 11
132.059975
 21
138.933475
 31
0.0
  0
LINE
  5
138
330
1F
100
AcDbEntity
  8
1
  6
CENTER
 62
   203
370
    13
100
AcDbLine
 10
124.059975
 20
124.933475
 30
0.0
 11
124.059975
 21
138.933475
 31
0.0
  0
SPLINE
  5
139
102
{ACAD_REACTORS
330
142
102
}
330
1F
100
AcDbEntity
  8
1
  6
Continuous
 62
   163
 60
     1
370
    18
100
AcDbSpline
210
0.0
220
0.0
230
1.0
 70
    11
 71
     3
 72
    53
 73
    49
 74
     0
 42
0.000000001
 43
0.0000000001
 40
0.0
 40
0.0
 40
0.0
 40
0.0
 40
0.024233419787787
 40
0.024233419787787
 40
0.024233419787787
 40
0.1280418012427934
 40
0.1280418012427934
 40
0.1280418012427934
 40
0.1284086704647148
 40
0.1284086704647148
 40
0.1284086704647148
 40
0.2309459700568215
 40
0.2309459700568215
 40
0.2309459700568215
 40
0.2557435253627113
 40
0.2557435253627113
 40
0.2557435253627113
 40
0.3573149299809463
 40
0.3573149299809463
 40
0.3573149299809463
 40
0.3576817992028669
 40
0.3576817992028669
 40
0.3576817992028669
 40
0.4624443157722517
 40
0.4624443157722517
 40
0.4624443157722517
 40
0.4860156317106226
 40
0.4860156317106226
 40
0.4860156317106226
 40
0.6156754647053586
 40
0.6156754647053586
 40
0.6156754647053586
 40
0.6406552862488913
 40
0.6406552862488913
 40
0.6406552862488913
 40
0.7430727925756138
 40
0.7430727925756138
 40
0.7430727925756138
 40
0.7434419985441709
 40
0.7434419985441709
 40
0.7434419985441709
 40
0.8467092888241766
 40
0.8467092888241766
 40
0.8467092888241766
 40
0.8713245778924228
 40
0.8713245778924228
 40
0.8713245778924228
 40
1.0
 40
1.0
 40
1.0
 40
1.0
 10
23.1392776780207
 20
15.99852661081272
 30
0.0
 10
23.71696315373489
 20
16.14293362516728
 30
0.0
 10
24.29464862944909
 20
16.28734063952184
 30
0.0
 10
24.87233410516333
 20
16.43174765387639
 30
0.0
 10
25.45909167164015
 20
13.94938246437707
 30
0.0
 10
26.04584923811703
 20
11.46701727487778
 30
0.0
 10
26.63260680459385
 20
8.984652085378494
 30
0.0
 10
26.64162147706051
 20
8.984652085378494
 30
0.0
 10
26.65063614952717
 20
8.984652085378494
 30
0.0
 10
26.65965082199384
 20
8.984652085378494
 30
0.0
 10
27.36377138542528
 20
11.40379973101924
 30
0.0
 10
28.06789194885667
 20
13.82294737665993
 30
0.0
 10
28.77201251228806
 20
16.24209502230062
 30
0.0
 10
29.38133546907952
 20
16.24209502230062
 30
0.0
 10
29.99065842587103
 20
16.24209502230062
 30
0.0
 10
30.59998138266255
 20
16.24209502230062
 30
0.0
 10
31.21378296653936
 20
13.82294737665993
 30
0.0
 10
31.82758455041622
 20
11.40379973101924
 30
0.0
 10
32.44138613429308
 20
8.984652085378494
 30
0.0
 10
32.45040080675975
 20
8.984652085378494
 30
0.0
 10
32.45941547922641
 20
8.984652085378494
 30
0.0
 10
32.46843015169307
 20
8.984652085378494
 30
0.0
 10
33.14992790651385
 20
11.46701727487778
 30
0.0
 10
33.83142566133463
 20
13.9493824643771
 30
0.0
 10
34.51292341615542
 20
16.43174765387639
 30
0.0
 10
35.07263696523225
 20
16.28280459414052
 30
0.0
 10
35.63235051430908
 20
16.13386153440465
 30
0.0
 10
36.19206406338597
 20
15.98491847466878
 30
0.0
 10
35.23070953402672
 20
12.94743319976991
 30
0.0
 10
34.26935500466752
 20
9.909947924871071
 30
0.0
 10
33.30800047530832
 20
6.872462649972229
 30
0.0
 10
32.69419889143145
 20
6.872462649972229
 30
0.0
 10
32.08039730755465
 20
6.872462649972229
 30
0.0
 10
31.46659572367778
 20
6.872462649972229
 30
0.0
 10
30.85727276688633
 20
9.31417568592756
 30
0.0
 10
30.24794981009481
 20
11.75588872188289
 30
0.0
 10
29.63862685330335
 20
14.19760175783825
 30
0.0
 10
29.62955476254072
 20
14.19760175783825
 30
0.0
 10
29.62048267177803
 20
14.19760175783825
 30
0.0
 10
29.61141058101541
 20
14.19760175783825
 30
0.0
 10
28.92089815372796
 20
11.75588872188289
 30
0.0
 10
28.23038572644052
 20
9.31417568592756
 30
0.0
 10
27.53987329915307
 20
6.872462649972229
 30
0.0
 10
26.9350289694469
 20
6.872462649972229
 30
0.0
 10
26.33018463974079
 20
6.872462649972229
 30
0.0
 10
25.72534031003462
 20
6.872462649972229
 30
0.0
 10
24.86331943269667
 20
9.914483970252357
 30
0.0
 10
24.00129855535866
 20
12.95650529053254
 30
0.0
 10
23.1392776780207
 20
15.99852661081272
 30
0.0
  0
SPLINE
  5
13A
102
{ACAD_REACTORS
330
142
102
}
330
1F
100
AcDbEntity
  8
1
  6
Continuous
 62
   163
 60
     1
370
    18
100
AcDbSpline
210
0.0
220
0.0
230
1.0
 70
    11
 71
     3
 72
    41
 73
    37
 74
     0
 42
0.000000001
 43
0.0000000001
 40
0.0
 40
0.0
 40
0.0
 40
0.0
 40
0.0833333333333333
 40
0.0833333333333333
 40
0.0833333333333333
 40
0.1666666666666667
 40
0.1666666666666667
 40
0.1666666666666667
 40
0.25
 40
0.25
 40
0.25
 40
0.3333333333333333
 40
0.3333333333333333
 40
0.3333333333333333
 40
0.4166666666666667
 40
0.4166666666666667
 40
0.4166666666666667
 40
0.5
 40
0.5
 40
0.5
 40
0.5833333333333334
 40
0.5833333333333334
 40
0.5833333333333334
 40
0.6666666666666666
 40
0.6666666666666666
 40
0.6666666666666666
 40
0.75
 40
0.75
 40
0.75
 40
0.8333333333333334
 40
0.8333333333333334
 40
0.8333333333333334
 40
0.9166666666666666
 40
0.9166666666666666
 40
0.9166666666666666
 40
1.0
 40
1.0
 40
1.0
 40
1.0
 10
37.62644536308606
 20
8.727305110896895
 30
0.0
 10
38.05982381286489
 20
8.429474581683005
 30
0.0
 10
38.76382953970435
 20
8.090993726963271
 30
0.0
 10
39.27835488985593
 20
8.090993726963271
 30
0.0
 10
40.23970941921513
 20
8.090993726963271
 30
0.0
 10
40.78127878676671
 20
8.700259265458792
 30
0.0
 10
40.78127878676671
 20
9.444917145842206
 30
0.0
 10
40.76767065062276
 20
11.31353816976063
 30
0.0
 10
36.93603292421776
 20
10.51461999968931
 30
0.0
 10
36.93603292421776
 20
13.71012042508668
 30
0.0
 10
36.93603292421776
 20
15.24026059428534
 30
0.0
 10
38.18160801860884
 20
16.43174765387639
 30
0.0
 10
40.06383717867121
 20
16.43174765387639
 30
0.0
 10
40.99814769063042
 20
16.43174765387639
 30
0.0
 10
41.90506967541384
 20
16.10670268041273
 30
0.0
 10
42.70399599466541
 20
15.64644135862842
 30
0.0
 10
42.70398453274984
 20
15.6464332013328
 30
0.0
 10
41.97276974205371
 20
14.4006827459659
 30
0.0
 10
41.97276120276902
 20
14.4006934186719
 30
0.0
 10
41.4043247162941
 20
14.71212710798984
 30
0.0
 10
40.87619122999857
 20
15.02356394530955
 30
0.0
 10
40.1992295205591
 20
15.02356394530955
 30
0.0
 10
39.41374723174383
 20
15.02356394530955
 30
0.0
 10
38.66908935136038
 20
14.60377878350193
 30
0.0
 10
38.66908935136038
 20
13.76438071477455
 30
0.0
 10
38.66908935136038
 20
11.92280370825615
 30
0.0
 10
42.59581177588515
 20
12.50502522935168
 30
0.0
 10
42.59581177588515
 20
9.512613316786153
 30
0.0
 10
42.59581177588515
 20
7.914949231531418
 30
0.0
 10
41.30924001817434
 20
6.682810018396404
 30
0.0
 10
39.49505153883169
 20
6.682810018396404
 30
0.0
 10
38.58778504427252
 20
6.682810018396404
 30
0.0
 10
37.73477883940117
 20
6.940158820916148
 30
0.0
 10
36.94946178950815
 20
7.400592083187442
 30
0.0
 10
36.94947178431599
 20
7.400600964059331
 30
0.0
 10
37.626435060445
 20
8.727312191177512
 30
0.0
 10
37.62644536308606
 20
8.727305110896895
 30
0.0
  0
SPLINE
  5
13B
102
{ACAD_REACTORS
330
142
102
}
330
1F
100
AcDbEntity
  8
1
  6
Continuous
 62
   163
 60
     1
370
    18
100
AcDbSpline
210
0.0
220
0.0
230
1.0
 70
    11
 71
     3
 72
    41
 73
    37
 74
     0
 42
0.000000001
 43
0.0000000001
 40
0.0
 40
0.0
 40
0.0
 40
0.0
 40
0.0833333333333333
 40
0.0833333333333333
 40
0.0833333333333333
 40
0.1666666666666667
 40
0.1666666666666667
 40
0.1666666666666667
 40
0.25
 40
0.25
 40
0.25
 40
0.3333333333333333
 40
0.3333333333333333
 40
0.3333333333333333
 40
0.4166666666666667
 40
0.4166666666666667
 40
0.4166666666666667
 40
0.5
 40
0.5
 40
0.5
 40
0.5833333333333334
 40
0.5833333333333334
 40
0.5833333333333334
 40
0.6666666666666666
 40
0.6666666666666666
 40
0.6666666666666666
 40
0.75
 40
0.75
 40
0.75
 40
0.8333333333333334
 40
0.8333333333333334
 40
0.8333333333333334
 40
0.9166666666666666
 40
0.9166666666666666
 40
0.9166666666666666
 40
1.0
 40
1.0
 40
1.0
 40
1.0
 10
44.39623471328623
 20
8.727305110428638
 30
0.0
 10
44.82961316214747
 20
8.429474581683005
 30
0.0
 10
45.53344663409908
 20
8.090993726963271
 30
0.0
 10
46.04814423913854
 20
8.090993726963271
 30
0.0
 10
47.00932651360984
 20
8.090993726963271
 30
0.0
 10
47.55106813604937
 20
8.700259265458792
 30
0.0
 10
47.55106813604937
 20
9.444917145842206
 30
0.0
 10
47.53745999990542
 20
11.31353816976063
 30
0.0
 10
43.70565001861249
 20
10.51461999968931
 30
0.0
 10
43.70565001861249
 20
13.71012042508668
 30
0.0
 10
43.70565001861249
 20
15.24026059428534
 30
0.0
 10
44.95139736789142
 20
16.43174765387639
 30
0.0
 10
46.83345427306585
 20
16.43174765387639
 30
0.0
 10
47.76776478502507
 20
16.43174765387639
 30
0.0
 10
48.67485902469639
 20
16.10670268041273
 30
0.0
 10
49.47361308602012
 20
15.64644135906617
 30
0.0
 10
49.47360162773157
 20
15.64643320030638
 30
0.0
 10
48.74255909224894
 20
14.40068274680042
 30
0.0
 10
48.74255055156664
 20
14.4006934180556
 30
0.0
 10
48.1739418106888
 20
14.71212710798984
 30
0.0
 10
47.64580832439333
 20
15.02356394530955
 30
0.0
 10
46.9688466149538
 20
15.02356394530955
 30
0.0
 10
46.18353658102649
 20
15.02356394530955
 30
0.0
 10
45.43887870064302
 20
14.60377878350193
 30
0.0
 10
45.43887870064302
 20
13.76438071477455
 30
0.0
 10
45.43887870064302
 20
11.92280370825615
 30
0.0
 10
49.36542887027986
 20
12.50502522935168
 30
0.0
 10
49.36542887027986
 20
9.512613316786153
 30
0.0
 10
49.36542887027986
 20
7.914949231531418
 30
0.0
 10
48.079029367457
 20
6.682810018396404
 30
0.0
 10
46.26466863322639
 20
6.682810018396404
 30
0.0
 10
45.3575743935551
 20
6.682810018396404
 30
0.0
 10
44.50456818868381
 20
6.940158820916148
 30
0.0
 10
43.71907888079861
 20
7.400592083519152
 30
0.0
 10
43.71908887943025
 20
7.400600963125905
 30
0.0
 10
44.3962244106452
 20
8.727312190709236
 30
0.0
 10
44.39623471328623
 20
8.727305110428638
 30
0.0
  0
SPLINE
  5
13C
102
{ACAD_REACTORS
330
142
102
}
330
1F
100
AcDbEntity
  8
1
  6
Continuous
 62
   163
 60
     1
370
    18
100
AcDbSpline
210
0.0
220
0.0
230
1.0
 70
    11
 71
     3
 72
    17
 73
    13
 74
     0
 42
0.000000001
 43
0.0000000001
 40
0.0
 40
0.0
 40
0.0
 40
0.0
 40
0.2500749063670416
 40
0.2500749063670416
 40
0.2500749063670416
 40
0.4999999999999989
 40
0.4999999999999989
 40
0.4999999999999989
 40
0.7500749063670404
 40
0.7500749063670404
 40
0.7500749063670404
 40
1.0
 40
1.0
 40
1.0
 40
1.0
 10
55.95917372413066
 20
11.85614106663957
 30
0.0
 10
54.42564587546997
 20
11.85614106663957
 30
0.0
 10
52.89211802680927
 20
11.85614106663957
 30
0.0
 10
51.35859017814857
 20
11.85614106663957
 30
0.0
 10
51.35859017814857
 20
13.3887502225648
 30
0.0
 10
51.35859017814857
 20
14.92135937849003
 30
0.0
 10
51.35859017814857
 20
16.45396853441526
 30
0.0
 10
52.89211802680927
 20
16.45396853441526
 30
0.0
 10
54.42564587546997
 20
16.45396853441526
 30
0.0
 10
55.95917372413066
 20
16.45396853441526
 30
0.0
 10
55.95917372413066
 20
14.92135937849003
 30
0.0
 10
55.95917372413066
 20
13.3887502225648
 30
0.0
 10
55.95917372413066
 20
11.85614106663957
 30
0.0
  0
SPLINE
  5
13D
102
{ACAD_REACTORS
330
142
102
}
330
1F
100
AcDbEntity
  8
1
  6
Continuous
 62
   163
 60
     1
370
    18
100
AcDbSpline
210
0.0
220
0.0
230
1.0
 70
    11
 71
     3
 72
    17
 73
    13
 74
     0
 42
0.000000001
 43
0.0000000001
 40
0.0
 40
0.0
 40
0.0
 40
0.0
 40
0.2500749063670398
 40
0.2500749063670398
 40
0.2500749063670398
 40
0.5000000000000023
 40
0.5000000000000023
 40
0.5000000000000023
 40
0.7500749063670421
 40
0.7500749063670421
 40
0.7500749063670421
 40
1.0
 40
1.0
 40
1.0
 40
1.0
 10
61.1392227130018
 20
6.675747567992611
 30
0.0
 10
59.6056948643411
 20
6.675747567992611
 30
0.0
 10
58.07216701568041
 20
6.675747567992611
 30
0.0
 10
56.53863916701982
 20
6.675747567992611
 30
0.0
 10
56.53863916701982
 20
8.20835672391784
 30
0.0
 10
56.53863916701982
 20
9.740965879843069
 30
0.0
 10
56.53863916701982
 20
11.2735750357683
 30
0.0
 10
58.07216701568041
 20
11.2735750357683
 30
0.0
 10
59.6056948643411
 20
11.2735750357683
 30
0.0
 10
61.1392227130018
 20
11.2735750357683
 30
0.0
 10
61.1392227130018
 20
9.740965879843069
 30
0.0
 10
61.1392227130018
 20
8.20835672391784
 30
0.0
 10
61.1392227130018
 20
6.675747567992611
 30
0.0
  0
SPLINE
  5
13E
102
{ACAD_REACTORS
330
142
102
}
330
1F
100
AcDbEntity
  8
1
  6
Continuous
 62
   163
 60
     1
370
    18
100
AcDbSpline
210
0.0
220
0.0
230
1.0
 70
    11
 71
     3
 72
    17
 73
    13
 74
     0
 42
0.000000001
 43
0.0000000001
 40
0.0
 40
0.0
 40
0.0
 40
0.0
 40
0.2500749063670398
 40
0.2500749063670398
 40
0.2500749063670398
 40
0.5000000000000023
 40
0.5000000000000023
 40
0.5000000000000023
 40
0.7500749063670421
 40
0.7500749063670421
 40
0.7500749063670421
 40
1.0
 40
1.0
 40
1.0
 40
1.0
 10
61.1392227130018
 20
16.45396853441526
 30
0.0
 10
59.6056948643411
 20
16.45396853441526
 30
0.0
 10
58.07216701568041
 20
16.45396853441526
 30
0.0
 10
56.53863916701982
 20
16.45396853441526
 30
0.0
 10
56.53863916701982
 20
14.92135937849003
 30
0.0
 10
56.53863916701982
 20
13.3887502225648
 30
0.0
 10
56.53863916701982
 20
11.85614106663957
 30
0.0
 10
58.07216701568041
 20
11.85614106663957
 30
0.0
 10
59.6056948643411
 20
11.85614106663957
 30
0.0
 10
61.1392227130018
 20
11.85614106663957
 30
0.0
 10
61.1392227130018
 20
13.3887502225648
 30
0.0
 10
61.1392227130018
 20
14.92135937849003
 30
0.0
 10
61.1392227130018
 20
16.45396853441526
 30
0.0
  0
SPLINE
  5
13F
102
{ACAD_REACTORS
330
142
102
}
330
1F
100
AcDbEntity
  8
1
  6
Continuous
 62
   163
 60
     1
370
    18
100
AcDbSpline
210
0.0
220
0.0
230
1.0
 70
    11
 71
     3
 72
    17
 73
    13
 74
     0
 42
0.000000001
 43
0.0000000001
 40
0.0
 40
0.0
 40
0.0
 40
0.0
 40
0.2499153546639589
 40
0.2499153546639589
 40
0.2499153546639589
 40
0.4999999999999987
 40
0.4999999999999987
 40
0.4999999999999987
 40
0.7499153546639602
 40
0.7499153546639602
 40
0.7499153546639602
 40
1.0
 40
1.0
 40
1.0
 40
1.0
 10
60.87463920519031
 20
16.18938502660379
 30
0.0
 10
60.87463920519031
 20
14.83316487588619
 30
0.0
 10
60.87463920519031
 20
13.47694472516864
 30
0.0
 10
60.87463920519031
 20
12.12072457445104
 30
0.0
 10
59.51750036173735
 20
12.12072457445104
 30
0.0
 10
58.16036151828428
 20
12.12072457445104
 30
0.0
 10
56.8032226748312
 20
12.12072457445104
 30
0.0
 10
56.8032226748312
 20
13.47694472516864
 30
0.0
 10
56.8032226748312
 20
14.83316487588619
 30
0.0
 10
56.8032226748312
 20
16.18938502660379
 30
0.0
 10
58.16036151828428
 20
16.18938502660379
 30
0.0
 10
59.51750036173735
 20
16.18938502660379
 30
0.0
 10
60.87463920519031
 20
16.18938502660379
 30
0.0
  0
SPLINE
  5
140
102
{ACAD_REACTORS
330
142
102
}
330
1F
100
AcDbEntity
  8
1
  6
Continuous
 62
   163
 60
     1
370
    18
100
AcDbSpline
210
0.0
220
0.0
230
1.0
 70
    11
 71
     3
 72
    17
 73
    13
 74
     0
 42
0.000000001
 43
0.0000000001
 40
0.0
 40
0.0
 40
0.0
 40
0.0
 40
0.2500749063670416
 40
0.2500749063670416
 40
0.2500749063670416
 40
0.4999999999999989
 40
0.4999999999999989
 40
0.4999999999999989
 40
0.7500749063670404
 40
0.7500749063670404
 40
0.7500749063670404
 40
1.0
 40
1.0
 40
1.0
 40
1.0
 10
55.95917372413066
 20
11.2735750357683
 30
0.0
 10
54.42564587546997
 20
11.2735750357683
 30
0.0
 10
52.89211802680927
 20
11.2735750357683
 30
0.0
 10
51.35859017814857
 20
11.2735750357683
 30
0.0
 10
51.35859017814857
 20
9.740965879843069
 30
0.0
 10
51.35859017814857
 20
8.20835672391784
 30
0.0
 10
51.35859017814857
 20
6.675747567992611
 30
0.0
 10
52.89211802680927
 20
6.675747567992611
 30
0.0
 10
54.42564587546997
 20
6.675747567992611
 30
0.0
 10
55.95917372413066
 20
6.675747567992611
 30
0.0
 10
55.95917372413066
 20
8.20835672391784
 30
0.0
 10
55.95917372413066
 20
9.740965879843069
 30
0.0
 10
55.95917372413066
 20
11.2735750357683
 30
0.0
  0
SPLINE
  5
141
102
{ACAD_REACTORS
330
142
102
}
330
1F
100
AcDbEntity
  8
1
  6
Continuous
 62
   163
 60
     1
370
    18
100
AcDbSpline
210
0.0
220
0.0
230
1.0
 70
    11
 71
     3
 72
    17
 73
    13
 74
     0
 42
0.000000001
 43
0.0000000001
 40
0.0
 40
0.0
 40
0.0
 40
0.0
 40
0.2499153546639537
 40
0.2499153546639537
 40
0.2499153546639537
 40
0.4999999999999934
 40
0.4999999999999934
 40
0.4999999999999934
 40
0.749915354663955
 40
0.749915354663955
 40
0.749915354663955
 40
1.0
 40
1.0
 40
1.0
 40
1.0
 10
55.69459021631917
 20
11.0089915279568
 30
0.0
 10
55.69459021631917
 20
9.652771377239228
 30
0.0
 10
55.69459021631917
 20
8.296551226521624
 30
0.0
 10
55.69459021631917
 20
6.940331075804048
 30
0.0
 10
54.3374513728661
 20
6.940331075804048
 30
0.0
 10
52.98031252941303
 20
6.940331075804048
 30
0.0
 10
51.62317368596007
 20
6.940331075804048
 30
0.0
 10
51.62317368596007
 20
8.296551226521652
 30
0.0
 10
51.62317368596007
 20
9.652771377239228
 30
0.0
 10
51.62317368596007
 20
11.0089915279568
 30
0.0
 10
52.98031252941303
 20
11.0089915279568
 30
0.0
 10
54.3374513728661
 20
11.0089915279568
 30
0.0
 10
55.69459021631917
 20
11.0089915279568
 30
0.0
  0
HATCH
  5
142
102
{ACAD_REACTORS
330
205
102
}
330
1F
100
AcDbEntity
  8
256
  6
Continuous
 62
   155
370
    13
100
AcDbHatch
 10
0.0
 20
0.0
 30
0.0
210
0.0
220
0.0
230
1.0
  2
ANSI31
 70
     0
 71
     1
 91
        9
 92
        0
 93
        1
 72
     4
 94
        3
 73
     0
 74
     1
 95
       53
 96
       49
 40
0.0
 40
0.0
 40
0.0
 40
0.0
 40
0.024233419787787
 40
0.024233419787787
 40
0.024233419787787
 40
0.1280418012427934
 40
0.1280418012427934
 40
0.1280418012427934
 40
0.1284086704647148
 40
0.1284086704647148
 40
0.1284086704647148
 40
0.2309459700568215
 40
0.2309459700568215
 40
0.2309459700568215
 40
0.2557435253627113
 40
0.2557435253627113
 40
0.2557435253627113
 40
0.3573149299809463
 40
0.3573149299809463
 40
0.3573149299809463
 40
0.3576817992028669
 40
0.3576817992028669
 40
0.3576817992028669
 40
0.4624443157722517
 40
0.4624443157722517
 40
0.4624443157722517
 40
0.4860156317106226
 40
0.4860156317106226
 40
0.4860156317106226
 40
0.6156754647053586
 40
0.6156754647053586
 40
0.6156754647053586
 40
0.6406552862488913
 40
0.6406552862488913
 40
0.6406552862488913
 40
0.7430727925756138
 40
0.7430727925756138
 40
0.7430727925756138
 40
0.7434419985441709
 40
0.7434419985441709
 40
0.7434419985441709
 40
0.8467092888241766
 40
0.8467092888241766
 40
0.8467092888241766
 40
0.8713245778924228
 40
0.8713245778924228
 40
0.8713245778924228
 40
1.0
 40
1.0
 40
1.0
 40
1.0
 10
23.1392776780207
 20
15.99852661081272
 10
23.71696315373489
 20
16.14293362516728
 10
24.29464862944909
 20
16.28734063952184
 10
24.87233410516333
 20
16.43174765387639
 10
25.45909167164015
 20
13.94938246437707
 10
26.04584923811703
 20
11.46701727487778
 10
26.63260680459385
 20
8.984652085378494
 10
26.64162147706051
 20
8.984652085378494
 10
26.65063614952717
 20
8.984652085378494
 10
26.65965082199384
 20
8.984652085378494
 10
27.36377138542528
 20
11.40379973101924
 10
28.06789194885667
 20
13.82294737665993
 10
28.77201251228806
 20
16.24209502230062
 10
29.38133546907952
 20
16.24209502230062
 10
29.99065842587103
 20
16.24209502230062
 10
30.59998138266255
 20
16.24209502230062
 10
31.21378296653936
 20
13.82294737665993
 10
31.82758455041622
 20
11.40379973101924
 10
32.44138613429308
 20
8.984652085378494
 10
32.45040080675975
 20
8.984652085378494
 10
32.45941547922641
 20
8.984652085378494
 10
32.46843015169307
 20
8.984652085378494
 10
33.14992790651385
 20
11.46701727487778
 10
33.83142566133463
 20
13.9493824643771
 10
34.51292341615542
 20
16.43174765387639
 10
35.07263696523225
 20
16.28280459414052
 10
35.63235051430908
 20
16.13386153440465
 10
36.19206406338597
 20
15.98491847466878
 10
35.23070953402672
 20
12.94743319976991
 10
34.26935500466752
 20
9.909947924871071
 10
33.30800047530832
 20
6.872462649972229
 10
32.69419889143145
 20
6.872462649972229
 10
32.08039730755465
 20
6.872462649972229
 10
31.46659572367778
 20
6.872462649972229
 10
30.85727276688633
 20
9.31417568592756
 10
30.24794981009481
 20
11.75588872188289
 10
29.63862685330335
 20
14.19760175783825
 10
29.62955476254072
 20
14.19760175783825
 10
29.62048267177803
 20
14.19760175783825
 10
29.61141058101541
 20
14.19760175783825
 10
28.92089815372796
 20
11.75588872188289
 10
28.23038572644052
 20
9.31417568592756
 10
27.53987329915307
 20
6.872462649972229
 10
26.9350289694469
 20
6.872462649972229
 10
26.33018463974079
 20
6.872462649972229
 10
25.72534031003462
 20
6.872462649972229
 10
24.86331943269667
 20
9.914483970252357
 10
24.00129855535866
 20
12.95650529053254
 10
23.1392776780207
 20
15.99852661081272
 97
        1
330
139
 92
        0
 93
        1
 72
     4
 94
        3
 73
     0
 74
     1
 95
       41
 96
       37
 40
0.0
 40
0.0
 40
0.0
 40
0.0
 40
0.0833333333333333
 40
0.0833333333333333
 40
0.0833333333333333
 40
0.1666666666666667
 40
0.1666666666666667
 40
0.1666666666666667
 40
0.25
 40
0.25
 40
0.25
 40
0.3333333333333333
 40
0.3333333333333333
 40
0.3333333333333333
 40
0.4166666666666667
 40
0.4166666666666667
 40
0.4166666666666667
 40
0.5
 40
0.5
 40
0.5
 40
0.5833333333333334
 40
0.5833333333333334
 40
0.5833333333333334
 40
0.6666666666666666
 40
0.6666666666666666
 40
0.6666666666666666
 40
0.75
 40
0.75
 40
0.75
 40
0.8333333333333334
 40
0.8333333333333334
 40
0.8333333333333334
 40
0.9166666666666666
 40
0.9166666666666666
 40
0.9166666666666666
 40
1.0
 40
1.0
 40
1.0
 40
1.0
 10
37.62644536308606
 20
8.727305110896895
 10
38.05982381286489
 20
8.429474581683005
 10
38.76382953970435
 20
8.090993726963271
 10
39.27835488985593
 20
8.090993726963271
 10
40.23970941921513
 20
8.090993726963271
 10
40.78127878676671
 20
8.700259265458792
 10
40.78127878676671
 20
9.444917145842206
 10
40.76767065062276
 20
11.31353816976063
 10
36.93603292421776
 20
10.51461999968931
 10
36.93603292421776
 20
13.71012042508668
 10
36.93603292421776
 20
15.24026059428534
 10
38.18160801860884
 20
16.43174765387639
 10
40.06383717867121
 20
16.43174765387639
 10
40.99814769063042
 20
16.43174765387639
 10
41.90506967541384
 20
16.10670268041273
 10
42.70399599466541
 20
15.64644135862842
 10
42.70398453274984
 20
15.6464332013328
 10
41.97276974205371
 20
14.4006827459659
 10
41.97276120276902
 20
14.4006934186719
 10
41.4043247162941
 20
14.71212710798984
 10
40.87619122999857
 20
15.02356394530955
 10
40.1992295205591
 20
15.02356394530955
 10
39.41374723174383
 20
15.02356394530955
 10
38.66908935136038
 20
14.60377878350193
 10
38.66908935136038
 20
13.76438071477455
 10
38.66908935136038
 20
11.92280370825615
 10
42.59581177588515
 20
12.50502522935168
 10
42.59581177588515
 20
9.512613316786153
 10
42.59581177588515
 20
7.914949231531418
 10
41.30924001817434
 20
6.682810018396404
 10
39.49505153883169
 20
6.682810018396404
 10
38.58778504427252
 20
6.682810018396404
 10
37.73477883940117
 20
6.940158820916148
 10
36.94946178950815
 20
7.400592083187442
 10
36.94947178431599
 20
7.400600964059331
 10
37.626435060445
 20
8.727312191177512
 10
37.62644536308606
 20
8.727305110896895
 97
        1
330
13A
 92
        0
 93
        1
 72
     4
 94
        3
 73
     0
 74
     1
 95
       41
 96
       37
 40
0.0
 40
0.0
 40
0.0
 40
0.0
 40
0.0833333333333333
 40
0.0833333333333333
 40
0.0833333333333333
 40
0.1666666666666667
 40
0.1666666666666667
 40
0.1666666666666667
 40
0.25
 40
0.25
 40
0.25
 40
0.3333333333333333
 40
0.3333333333333333
 40
0.3333333333333333
 40
0.4166666666666667
 40
0.4166666666666667
 40
0.4166666666666667
 40
0.5
 40
0.5
 40
0.5
 40
0.5833333333333334
 40
0.5833333333333334
 40
0.5833333333333334
 40
0.6666666666666666
 40
0.6666666666666666
 40
0.6666666666666666
 40
0.75
 40
0.75
 40
0.75
 40
0.8333333333333334
 40
0.8333333333333334
 40
0.8333333333333334
 40
0.9166666666666666
 40
0.9166666666666666
 40
0.9166666666666666
 40
1.0
 40
1.0
 40
1.0
 40
1.0
 10
44.39623471328623
 20
8.727305110428638
 10
44.82961316214747
 20
8.429474581683005
 10
45.53344663409908
 20
8.090993726963271
 10
46.04814423913854
 20
8.090993726963271
 10
47.00932651360984
 20
8.090993726963271
 10
47.55106813604937
 20
8.700259265458792
 10
47.55106813604937
 20
9.444917145842206
 10
47.53745999990542
 20
11.31353816976063
 10
43.70565001861249
 20
10.51461999968931
 10
43.70565001861249
 20
13.71012042508668
 10
43.70565001861249
 20
15.24026059428534
 10
44.95139736789142
 20
16.43174765387639
 10
46.83345427306585
 20
16.43174765387639
 10
47.76776478502507
 20
16.43174765387639
 10
48.67485902469639
 20
16.10670268041273
 10
49.47361308602012
 20
15.64644135906617
 10
49.47360162773157
 20
15.64643320030638
 10
48.74255909224894
 20
14.40068274680042
 10
48.74255055156664
 20
14.4006934180556
 10
48.1739418106888
 20
14.71212710798984
 10
47.64580832439333
 20
15.02356394530955
 10
46.9688466149538
 20
15.02356394530955
 10
46.18353658102649
 20
15.02356394530955
 10
45.43887870064302
 20
14.60377878350193
 10
45.43887870064302
 20
13.76438071477455
 10
45.43887870064302
 20
11.92280370825615
 10
49.36542887027986
 20
12.50502522935168
 10
49.36542887027986
 20
9.512613316786153
 10
49.36542887027986
 20
7.914949231531418
 10
48.079029367457
 20
6.682810018396404
 10
46.26466863322639
 20
6.682810018396404
 10
45.3575743935551
 20
6.682810018396404
 10
44.50456818868381
 20
6.940158820916148
 10
43.71907888079861
 20
7.400592083519152
 10
43.71908887943025
 20
7.400600963125905
 10
44.3962244106452
 20
8.727312190709236
 10
44.39623471328623
 20
8.727305110428638
 97
        1
330
13B
 92
        0
 93
        1
 72
     4
 94
        3
 73
     0
 74
     1
 95
       17
 96
       13
 40
0.0
 40
0.0
 40
0.0
 40
0.0
 40
0.2500749063670416
 40
0.2500749063670416
 40
0.2500749063670416
 40
0.4999999999999989
 40
0.4999999999999989
 40
0.4999999999999989
 40
0.7500749063670404
 40
0.7500749063670404
 40
0.7500749063670404
 40
1.0
 40
1.0
 40
1.0
 40
1.0
 10
55.95917372413066
 20
11.85614106663957
 10
54.42564587546997
 20
11.85614106663957
 10
52.89211802680927
 20
11.85614106663957
 10
51.35859017814857
 20
11.85614106663957
 10
51.35859017814857
 20
13.3887502225648
 10
51.35859017814857
 20
14.92135937849003
 10
51.35859017814857
 20
16.45396853441526
 10
52.89211802680927
 20
16.45396853441526
 10
54.42564587546997
 20
16.45396853441526
 10
55.95917372413066
 20
16.45396853441526
 10
55.95917372413066
 20
14.92135937849003
 10
55.95917372413066
 20
13.3887502225648
 10
55.95917372413066
 20
11.85614106663957
 97
        1
330
13C
 92
        0
 93
        1
 72
     4
 94
        3
 73
     0
 74
     1
 95
       17
 96
       13
 40
0.0
 40
0.0
 40
0.0
 40
0.0
 40
0.2500749063670398
 40
0.2500749063670398
 40
0.2500749063670398
 40
0.5000000000000023
 40
0.5000000000000023
 40
0.5000000000000023
 40
0.7500749063670421
 40
0.7500749063670421
 40
0.7500749063670421
 40
1.0
 40
1.0
 40
1.0
 40
1.0
 10
61.1392227130018
 20
6.675747567992611
 10
59.6056948643411
 20
6.675747567992611
 10
58.07216701568041
 20
6.675747567992611
 10
56.53863916701982
 20
6.675747567992611
 10
56.53863916701982
 20
8.20835672391784
 10
56.53863916701982
 20
9.740965879843069
 10
56.53863916701982
 20
11.2735750357683
 10
58.07216701568041
 20
11.2735750357683
 10
59.6056948643411
 20
11.2735750357683
 10
61.1392227130018
 20
11.2735750357683
 10
61.1392227130018
 20
9.740965879843069
 10
61.1392227130018
 20
8.20835672391784
 10
61.1392227130018
 20
6.675747567992611
 97
        1
330
13D
 92
        0
 93
        1
 72
     4
 94
        3
 73
     0
 74
     1
 95
       17
 96
       13
 40
0.0
 40
0.0
 40
0.0
 40
0.0
 40
0.2500749063670398
 40
0.2500749063670398
 40
0.2500749063670398
 40
0.5000000000000023
 40
0.5000000000000023
 40
0.5000000000000023
 40
0.7500749063670421
 40
0.7500749063670421
 40
0.7500749063670421
 40
1.0
 40
1.0
 40
1.0
 40
1.0
 10
61.1392227130018
 20
16.45396853441526
 10
59.6056948643411
 20
16.45396853441526
 10
58.07216701568041
 20
16.45396853441526
 10
56.53863916701982
 20
16.45396853441526
 10
56.53863916701982
 20
14.92135937849003
 10
56.53863916701982
 20
13.3887502225648
 10
56.53863916701982
 20
11.85614106663957
 10
58.07216701568041
 20
11.85614106663957
 10
59.6056948643411
 20
11.85614106663957
 10
61.1392227130018
 20
11.85614106663957
 10
61.1392227130018
 20
13.3887502225648
 10
61.1392227130018
 20
14.92135937849003
 10
61.1392227130018
 20
16.45396853441526
 97
        1
330
13E
 92
        0
 93
        1
 72
     4
 94
        3
 73
     0
 74
     1
 95
       17
 96
       13
 40
0.0
 40
0.0
 40
0.0
 40
0.0
 40
0.2499153546639589
 40
0.2499153546639589
 40
0.2499153546639589
 40
0.4999999999999987
 40
0.4999999999999987
 40
0.4999999999999987
 40
0.7499153546639602
 40
0.7499153546639602
 40
0.7499153546639602
 40
1.0
 40
1.0
 40
1.0
 40
1.0
 10
60.87463920519031
 20
16.18938502660379
 10
60.87463920519031
 20
14.83316487588619
 10
60.87463920519031
 20
13.47694472516864
 10
60.87463920519031
 20
12.12072457445104
 10
59.51750036173735
 20
12.12072457445104
 10
58.16036151828428
 20
12.12072457445104
 10
56.8032226748312
 20
12.12072457445104
 10
56.8032226748312
 20
13.47694472516864
 10
56.8032226748312
 20
14.83316487588619
 10
56.8032226748312
 20
16.18938502660379
 10
58.16036151828428
 20
16.18938502660379
 10
59.51750036173735
 20
16.18938502660379
 10
60.87463920519031
 20
16.18938502660379
 97
        1
330
13F
 92
        0
 93
        1
 72
     4
 94
        3
 73
     0
 74
     1
 95
       17
 96
       13
 40
0.0
 40
0.0
 40
0.0
 40
0.0
 40
0.2500749063670416
 40
0.2500749063670416
 40
0.2500749063670416
 40
0.4999999999999989
 40
0.4999999999999989
 40
0.4999999999999989
 40
0.7500749063670404
 40
0.7500749063670404
 40
0.7500749063670404
 40
1.0
 40
1.0
 40
1.0
 40
1.0
 10
55.95917372413066
 20
11.2735750357683
 10
54.42564587546997
 20
11.2735750357683
 10
52.89211802680927
 20
11.2735750357683
 10
51.35859017814857
 20
11.2735750357683
 10
51.35859017814857
 20
9.740965879843069
 10
51.35859017814857
 20
8.20835672391784
 10
51.35859017814857
 20
6.675747567992611
 10
52.89211802680927
 20
6.675747567992611
 10
54.42564587546997
 20
6.675747567992611
 10
55.95917372413066
 20
6.675747567992611
 10
55.95917372413066
 20
8.20835672391784
 10
55.95917372413066
 20
9.740965879843069
 10
55.95917372413066
 20
11.2735750357683
 97
        1
330
140
 92
        0
 93
        1
 72
     4
 94
        3
 73
     0
 74
     1
 95
       17
 96
       13
 40
0.0
 40
0.0
 40
0.0
 40
0.0
 40
0.2499153546639537
 40
0.2499153546639537
 40
0.2499153546639537
 40
0.4999999999999934
 40
0.4999999999999934
 40
0.4999999999999934
 40
0.749915354663955
 40
0.749915354663955
 40
0.749915354663955
 40
1.0
 40
1.0
 40
1.0
 40
1.0
 10
55.69459021631917
 20
11.0089915279568
 10
55.69459021631917
 20
9.652771377239228
 10
55.69459021631917
 20
8.296551226521624
 10
55.69459021631917
 20
6.940331075804048
 10
54.3374513728661
 20
6.940331075804048
 10
52.98031252941303
 20
6.940331075804048
 10
51.62317368596007
 20
6.940331075804048
 10
51.62317368596007
 20
8.296551226521652
 10
51.62317368596007
 20
9.652771377239228
 10
51.62317368596007
 20
11.0089915279568
 10
52.98031252941303
 20
11.0089915279568
 10
54.3374513728661
 20
11.0089915279568
 10
55.69459021631917
 20
11.0089915279568
 97
        1
330
141
 75
     0
 76
     1
 52
0.0
 41
0.1
 77
     0
 78
     1
 53
44.99999999999989
 43
0.0
 44
0.0
 45
-0.2245064030267284
 46
0.2245064030267293
 79
     0
 98
        0
  0
DIMENSION
  5
143
102
{ACAD_REACTORS
330
145
102
}
102
{ACAD_XDICTIONARY
360
144
102
}
330
1F
100
AcDbEntity
  8
1
  6
Continuous
 62
    35
370
    13
100
AcDbDimension
  2
_U0
 10
139.559975
 20
179.601291
 30
0.0
 11
107.059975
 21
179.601291
 31
0.0
 70
   160
 71
     1
 42
65.0
 52
90.0
  3
Standard
100
AcDbAlignedDimension
 13
74.559975
 23
229.601291
 33
0.0
 14
139.559975
 24
229.601291
 34
0.0
100
AcDbRotatedDimension
1001
ACAD
1000
DSTYLE
1002
{
1070
   371
1070
    13
1070
   372
1070
    13
1070
   170
1070
     0
1070
   144
1040
1.0
1070
   277
1070
     2
1070
   284
1070
     8
1070
   278
1070
    46
1070
   146
1040
0.714286
1070
   345
1005
16
1070
   347
1005
16
1070
   346
1005
16
1070
   344
1005
0
1070
   343
1005
0
1070
   172
1070
     1
1070
    76
1070
     0
1070
    75
1070
     0
1070
   282
1070
     0
1070
   281
1070
     0
1070
    71
1070
     0
1070
   289
1070
     2
1070
    74
1070
     0
1070
   279
1070
     0
1070
   173
1070
     1
1070
   340
1005
108
1070
   271
1070
     3
1070
   272
1070
     1
1070
    77
1070
     1
1070
    73
1070
     1
1070
   171
1070
     3
1070
   274
1070
     4
1070
   177
1070
    35
1070
   176
1070
    35
1070
   178
1070
    35
1070
    78
1070
     8
1070
    48
1040
-0.1
1070
    41
1040
8.0
1070
   147
1040
1.75
1070
    42
1040
0.0
1070
    44
1040
1.0
1070
   140
1040
3.5
1002
}
1001
ACAD_DSTYLE_DIM_LINETYPE
1070
   380
1005
16
1001
ACAD_DSTYLE_DIM_EXT1_LINETYPE
1070
   381
1005
16
1001
ACAD_DSTYLE_DIM_EXT2_LINETYPE
1070
   382
1005
16
  0
DIMENSION
  5
15C
102
{ACAD_REACTORS
330
15E
102
}
102
{ACAD_XDICTIONARY
360
15D
102
}
330
1F
100
AcDbEntity
  8
1
  6
Continuous
 62
    35
370
    13
100
AcDbDimension
  2
_U1
 10
63.559975
 20
128.933475
 30
0.0
 11
63.559975
 21
106.808475
 31
0.0
 70
   160
 71
     1
 42
3.0
 52
90.0
  3
Standard
100
AcDbAlignedDimension
 13
77.059975
 23
131.933475
 33
0.0
 14
111.059975
 24
128.933475
 34
0.0
 50
90.0
100
AcDbRotatedDimension
1001
ACAD
1000
DSTYLE
1002
{
1070
   371
1070
    13
1070
   372
1070
    13
1070
   170
1070
     0
1070
   144
1040
1.0
1070
   277
1070
     2
1070
   284
1070
     8
1070
   278
1070
    46
1070
   146
1040
0.714286
1070
   345
1005
16
1070
   347
1005
16
1070
   346
1005
16
1070
   344
1005
0
1070
   343
1005
0
1070
   172
1070
     1
1070
    76
1070
     0
1070
    75
1070
     0
1070
   282
1070
     0
1070
   281
1070
     0
1070
    71
1070
     0
1070
   289
1070
     2
1070
    74
1070
     0
1070
   279
1070
     0
1070
   173
1070
     1
1070
   340
1005
108
1070
   271
1070
     3
1070
   272
1070
     1
1070
    77
1070
     1
1070
    73
1070
     0
1070
   171
1070
     3
1070
   274
1070
     4
1070
   177
1070
    35
1070
   176
1070
    35
1070
   178
1070
    35
1070
    78
1070
     8
1070
    48
1040
-0.1
1070
    41
1040
8.0
1070
   147
1040
1.75
1070
    42
1040
0.0
1070
    44
1040
1.0
1070
   140
1040
3.5
1002
}
1001
ACAD_DSTYLE_DIM_LINETYPE
1070
   380
1005
16
1001
ACAD_DSTYLE_DIM_EXT1_LINETYPE
1070
   381
1005
16
1001
ACAD_DSTYLE_DIM_EXT2_LINETYPE
1070
   382
1005
16
  0
DIMENSION
  5
176
102
{ACAD_REACTORS
330
178
102
}
102
{ACAD_XDICTIONARY
360
177
102
}
330
1F
100
AcDbEntity
  8
1
  6
Continuous
 62
    35
370
    13
100
AcDbDimension
  2
_U2
 10
132.059975
 20
190.601291
 30
0.0
 11
111.059975
 21
190.601291
 31
0.0
 70
   160
 71
     1
 42
42.0
 52
90.0
  3
Standard
100
AcDbAlignedDimension
 13
90.059975
 23
217.601291
 33
0.0
 14
132.059975
 24
217.601291
 34
0.0
100
AcDbRotatedDimension
1001
ACAD
1000
DSTYLE
1002
{
1070
   371
1070
    13
1070
   372
1070
    13
1070
   170
1070
     0
1070
   144
1040
1.0
1070
   277
1070
     2
1070
   284
1070
     8
1070
   278
1070
    46
1070
   146
1040
0.714286
1070
   345
1005
16
1070
   347
1005
16
1070
   346
1005
16
1070
   344
1005
0
1070
   343
1005
0
1070
   172
1070
     1
1070
    76
1070
     0
1070
    75
1070
     0
1070
   282
1070
     0
1070
   281
1070
     0
1070
    71
1070
     0
1070
   289
1070
     2
1070
    74
1070
     0
1070
   279
1070
     0
1070
   173
1070
     1
1070
   340
1005
108
1070
   271
1070
     3
1070
   272
1070
     1
1070
    77
1070
     1
1070
    73
1070
     1
1070
   171
1070
     3
1070
   274
1070
     4
1070
   177
1070
    35
1070
   176
1070
    35
1070
   178
1070
    35
1070
    78
1070
     8
1070
    48
1040
-0.1
1070
    41
1040
8.0
1070
   147
1040
1.75
1070
    42
1040
0.0
1070
    44
1040
1.0
1070
   140
1040
3.5
1002
}
1001
ACAD_DSTYLE_DIM_LINETYPE
1070
   380
1005
16
1001
ACAD_DSTYLE_DIM_EXT1_LINETYPE
1070
   381
1005
16
1001
ACAD_DSTYLE_DIM_EXT2_LINETYPE
1070
   382
1005
16
  0
DIMENSION
  5
18E
102
{ACAD_REACTORS
330
190
102
}
102
{ACAD_XDICTIONARY
360
18F
102
}
330
1F
100
AcDbEntity
  8
1
  6
Continuous
 62
    35
370
    13
100
AcDbDimension
  2
_U3
 10
103.059975
 20
238.601291
 30
0.0
 11
80.934975
 21
238.601291
 31
0.0
 70
   160
 71
     1
 42
8.0
 52
90.0
  3
Standard
100
AcDbAlignedDimension
 13
111.059975
 23
217.601291
 33
0.0
 14
103.059975
 24
220.601291
 34
0.0
100
AcDbRotatedDimension
1001
ACAD
1000
DSTYLE
1002
{
1070
   371
1070
    13
1070
   372
1070
    13
1070
   170
1070
     0
1070
   144
1040
1.0
1070
   277
1070
     2
1070
   284
1070
     8
1070
   278
1070
    46
1070
   146
1040
0.714286
1070
   345
1005
16
1070
   347
1005
16
1070
   346
1005
16
1070
   344
1005
0
1070
   343
1005
0
1070
   172
1070
     1
1070
    76
1070
     0
1070
    75
1070
     0
1070
   282
1070
     0
1070
   281
1070
     0
1070
    71
1070
     0
1070
   289
1070
     2
1070
    74
1070
     0
1070
   279
1070
     0
1070
   173
1070
     1
1070
   340
1005
108
1070
   271
1070
     3
1070
   272
1070
     1
1070
    77
1070
     1
1070
    73
1070
     1
1070
   171
1070
     3
1070
   274
1070
     4
1070
   177
1070
    35
1070
   176
1070
    35
1070
   178
1070
    35
1070
    78
1070
     8
1070
    48
1040
-0.1
1070
    41
1040
8.0
1070
   147
1040
1.75
1070
    42
1040
0.0
1070
    44
1040
1.0
1070
   140
1040
3.5
1002
}
1001
ACAD_DSTYLE_DIM_LINETYPE
1070
   380
1005
16
1001
ACAD_DSTYLE_DIM_EXT1_LINETYPE
1070
   381
1005
16
1001
ACAD_DSTYLE_DIM_EXT2_LINETYPE
1070
   382
1005
16
  0
DIMENSION
  5
1A8
102
{ACAD_REACTORS
330
1AA
102
}
102
{ACAD_XDICTIONARY
360
1A9
102
}
330
1F
100
AcDbEntity
  8
1
  6
Continuous
 62
    35
370
    13
100
AcDbDimension
  2
_U4
 10
132.059975
 20
250.601291
 30
0.0
 11
101.934975
 21
250.601291
 31
0.0
 70
   160
 71
     1
 42
8.0
 52
90.0
  3
Standard
100
AcDbAlignedDimension
 13
124.059975
 23
217.601291
 33
0.0
 14
132.059975
 24
217.601291
 34
0.0
100
AcDbRotatedDimension
1001
ACAD
1000
DSTYLE
1002
{
1070
   371
1070
    13
1070
   372
1070
    13
1070
   170
1070
     0
1070
   144
1040
1.0
1070
   277
1070
     2
1070
   284
1070
     8
1070
   278
1070
    46
1070
   146
1040
0.714286
1070
   345
1005
16
1070
   347
1005
16
1070
   346
1005
16
1070
   344
1005
0
1070
   343
1005
0
1070
   172
1070
     1
1070
    76
1070
     0
1070
    75
1070
     0
1070
   282
1070
     0
1070
   281
1070
     0
1070
    71
1070
     0
1070
   289
1070
     2
1070
    74
1070
     0
1070
   279
1070
     0
1070
   173
1070
     1
1070
   340
1005
108
1070
   271
1070
     3
1070
   272
1070
     1
1070
    77
1070
     1
1070
    73
1070
     1
1070
   171
1070
     3
1070
   274
1070
     4
1070
   177
1070
    35
1070
   176
1070
    35
1070
   178
1070
    35
1070
    78
1070
     8
1070
    48
1040
-0.1
1070
    41
1040
8.0
1070
   147
1040
1.75
1070
    42
1040
0.0
1070
    44
1040
1.0
1070
   140
1040
3.5
1002
}
1001
ACAD_DSTYLE_DIM_LINETYPE
1070
   380
1005
16
1001
ACAD_DSTYLE_DIM_EXT1_LINETYPE
1070
   381
1005
16
1001
ACAD_DSTYLE_DIM_EXT2_LINETYPE
1070
   382
1005
16
  0
DIMENSION
  5
1C2
102
{ACAD_REACTORS
330
1C4
102
}
102
{ACAD_XDICTIONARY
360
1C3
102
}
330
1F
100
AcDbEntity
  8
1
  6
Continuous
 62
    35
370
    13
100
AcDbDimension
  2
_U5
 10
150.559975
 20
205.601291
 30
0.0
 11
150.559975
 21
217.601291
 31
0.0
 70
   160
 71
     1
 42
24.0
 52
90.0
  3
Standard
100
AcDbAlignedDimension
 13
74.559975
 23
229.601291
 33
0.0
 14
74.559975
 24
205.601291
 34
0.0
 50
90.0
100
AcDbRotatedDimension
1001
ACAD
1000
DSTYLE
1002
{
1070
   371
1070
    13
1070
   372
1070
    13
1070
   170
1070
     0
1070
   144
1040
1.0
1070
   277
1070
     2
1070
   284
1070
     8
1070
   278
1070
    46
1070
   146
1040
0.714286
1070
   345
1005
16
1070
   347
1005
16
1070
   346
1005
16
1070
   344
1005
0
1070
   343
1005
0
1070
   172
1070
     1
1070
    76
1070
     0
1070
    75
1070
     0
1070
   282
1070
     0
1070
   281
1070
     0
1070
    71
1070
     0
1070
   289
1070
     2
1070
    74
1070
     0
1070
   279
1070
     0
1070
   173
1070
     1
1070
   340
1005
108
1070
   271
1070
     3
1070
   272
1070
     1
1070
    77
1070
     1
1070
    73
1070
     0
1070
   171
1070
     3
1070
   274
1070
     4
1070
   177
1070
    35
1070
   176
1070
    35
1070
   178
1070
    35
1070
    78
1070
     8
1070
    48
1040
-0.1
1070
    41
1040
8.0
1070
   147
1040
1.75
1070
    42
1040
0.0
1070
    44
1040
1.0
1070
   140
1040
3.5
1002
}
1001
ACAD_DSTYLE_DIM_LINETYPE
1070
   380
1005
16
1001
ACAD_DSTYLE_DIM_EXT1_LINETYPE
1070
   381
1005
16
1001
ACAD_DSTYLE_DIM_EXT2_LINETYPE
1070
   382
1005
16
  0
DIMENSION
  5
1DB
102
{ACAD_REACTORS
330
1DD
102
}
102
{ACAD_XDICTIONARY
360
1DC
102
}
330
1F
100
AcDbEntity
  8
1
  6
Continuous
 62
    35
370
    13
100
AcDbDimension
  2
_U6
 10
63.559975
 20
217.601291
 30
0.0
 11
63.559975
 21
242.726291
 31
0.0
 70
   160
 71
     1
 42
3.0
 52
90.0
  3
Standard
100
AcDbAlignedDimension
 13
103.059975
 23
220.601291
 33
0.0
 14
137.059975
 24
217.601291
 34
0.0
 50
90.0
100
AcDbRotatedDimension
1001
ACAD
1000
DSTYLE
1002
{
1070
   371
1070
    13
1070
   372
1070
    13
1070
   170
1070
     0
1070
   144
1040
1.0
1070
   277
1070
     2
1070
   284
1070
     8
1070
   278
1070
    46
1070
   146
1040
0.714286
1070
   345
1005
16
1070
   347
1005
16
1070
   346
1005
16
1070
   344
1005
0
1070
   343
1005
0
1070
   172
1070
     1
1070
    76
1070
     0
1070
    75
1070
     0
1070
   282
1070
     0
1070
   281
1070
     0
1070
    71
1070
     0
1070
   289
1070
     2
1070
    74
1070
     0
1070
   279
1070
     0
1070
   173
1070
     1
1070
   340
1005
108
1070
   271
1070
     3
1070
   272
1070
     1
1070
    77
1070
     1
1070
    73
1070
     0
1070
   171
1070
     3
1070
   274
1070
     4
1070
   177
1070
    35
1070
   176
1070
    35
1070
   178
1070
    35
1070
    78
1070
     8
1070
    48
1040
-0.1
1070
    41
1040
8.0
1070
   147
1040
1.75
1070
    42
1040
0.0
1070
    44
1040
1.0
1070
   140
1040
3.5
1002
}
1001
ACAD_DSTYLE_DIM_LINETYPE
1070
   380
1005
16
1001
ACAD_DSTYLE_DIM_EXT1_LINETYPE
1070
   381
1005
16
1001
ACAD_DSTYLE_DIM_EXT2_LINETYPE
1070
   382
1005
16
  0
INSERT
  5
1FA
330
1F
100
AcDbEntity
  8
1
  6
Continuous
 62
    35
370
    13
100
AcDbBlockReference
  2
_U7
 10
0.0
 20
0.0
 30
0.0
  0
ENDSEC
  0
SECTION
  2
OBJECTS
  0
DICTIONARY
  5
C
330
0
100
AcDbDictionary
281
     1
  3
ACAD_DETAILVIEWSTYLE
350
256
  3
ACAD_GROUP
350
D
  3
ACAD_LAYOUT
350
1A
  3
ACAD_MATERIAL
350
43
  3
ACAD_MLEADERSTYLE
350
255
  3
ACAD_MLINESTYLE
350
17
  3
ACAD_PLOTSETTINGS
350
19
  3
ACAD_PLOTSTYLENAME
350
E
  3
ACAD_SCALELIST
350
47
  3
ACAD_SECTIONVIEWSTYLE
350
257
  3
ACAD_TABLESTYLE
350
254
  3
ACAD_VISUALSTYLE
350
2A
  3
AcDbVariableDictionary
350
21B
  0
DICTIONARY
  5
144
330
143
100
AcDbDictionary
280
     1
281
     1
  3
ACAD_DIMASSOC
360
145
  0
DICTIONARY
  5
15D
330
15C
100
AcDbDictionary
280
     1
281
     1
  3
ACAD_DIMASSOC
360
15E
  0
DICTIONARY
  5
177
330
176
100
AcDbDictionary
280
     1
281
     1
  3
ACAD_DIMASSOC
360
178
  0
DICTIONARY
  5
18F
330
18E
100
AcDbDictionary
280
     1
281
     1
  3
ACAD_DIMASSOC
360
190
  0
DICTIONARY
  5
1A9
330
1A8
100
AcDbDictionary
280
     1
281
     1
  3
ACAD_DIMASSOC
360
1AA
  0
DICTIONARY
  5
1C3
330
1C2
100
AcDbDictionary
280
     1
281
     1
  3
ACAD_DIMASSOC
360
1C4
  0
DICTIONARY
  5
1DC
330
1DB
100
AcDbDictionary
280
     1
281
     1
  3
ACAD_DIMASSOC
360
1DD
  0
DICTIONARY
  5
256
102
{ACAD_REACTORS
330
C
102
}
330
C
100
AcDbDictionary
281
     1
  0
DICTIONARY
  5
D
102
{ACAD_REACTORS
330
C
102
}
330
C
100
AcDbDictionary
281
     1
  3
Group1
350
205
  3
NXE_RSD
350
206
  0
DICTIONARY
  5
1A
102
{ACAD_REACTORS
330
C
102
}
330
C
100
AcDbDictionary
281
     1
  3
Layout1
350
1E
  3
Layout2
350
26
  3
Model
350
22
  0
DICTIONARY
  5
43
102
{ACAD_REACTORS
330
C
102
}
330
C
100
AcDbDictionary
281
     1
  3
ByBlock
350
45
  3
ByLayer
350
44
  3
Global
350
46
  0
DICTIONARY
  5
255
102
{ACAD_REACTORS
330
C
102
}
330
C
100
AcDbDictionary
281
     1
  0
DICTIONARY
  5
17
102
{ACAD_REACTORS
330
C
102
}
330
C
100
AcDbDictionary
281
     1
  3
Standard
350
18
  0
DICTIONARY
  5
19
102
{ACAD_REACTORS
330
C
102
}
330
C
100
AcDbDictionary
281
     1
  0
ACDBDICTIONARYWDFLT
  5
E
102
{ACAD_REACTORS
330
C
102
}
330
C
100
AcDbDictionary
281
     1
  3
Normal
350
F
100
AcDbDictionaryWithDefault
340
F
  0
DICTIONARY
  5
47
102
{ACAD_REACTORS
330
C
102
}
330
C
100
AcDbDictionary
281
     1
  3
A0
350
48
  3
A1
350
49
  3
A2
350
4A
  3
A3
350
4B
  3
A4
350
4C
  3
A5
350
4D
  3
A6
350
4E
  3
A7
350
4F
  3
A8
350
50
  3
A9
350
51
  3
B0
350
52
  3
B1
350
53
  3
B2
350
54
  3
B3
350
55
  3
B4
350
56
  3
B5
350
57
  3
B6
350
58
  3
B7
350
59
  3
B8
350
5A
  3
B9
350
5B
  3
C0
350
5C
  3
C1
350
5D
  3
C2
350
5E
  3
C3
350
5F
  3
C4
350
60
  3
C5
350
61
  3
C6
350
62
  3
C7
350
63
  3
C8
350
64
  3
C9
350
65
  3
D0
350
66
  3
D1
350
67
  3
D2
350
68
  0
DICTIONARY
  5
257
102
{ACAD_REACTORS
330
C
102
}
330
C
100
AcDbDictionary
281
     1
  0
DICTIONARY
  5
254
102
{ACAD_REACTORS
330
C
102
}
330
C
100
AcDbDictionary
281
     1
  0
DICTIONARY
  5
2A
102
{ACAD_REACTORS
330
C
102
}
330
C
100
AcDbDictionary
281
     1
  3
2dWireframe
350
2F
  3
Basic
350
32
  3
Brighten
350
36
  3
ColorChange
350
3A
  3
Conceptual
350
34
  3
Dim
350
35
  3
EdgeColorOff
350
3D
  3
Facepattern
350
39
  3
Flat
350
2B
  3
FlatWithEdges
350
2C
  3
Gouraud
350
2D
  3
GouraudWithEdges
350
2E
  3
Hidden
350
31
  3
JitterOff
350
3B
  3
Linepattern
350
38
  3
OverhangOff
350
3C
  3
Realistic
350
33
  3
Shaded
350
42
  3
Shaded with edges
350
41
  3
Shades of Gray
350
3E
  3
Sketchy
350
3F
  3
Thicken
350
37
  3
Wireframe
350
30
  3
X-Ray
350
40
  0
DICTIONARY
  5
21B
102
{ACAD_REACTORS
330
C
102
}
330
C
100
AcDbDictionary
281
     1
  3
CANNOSCALE
350
21C
  3
MSLTSCALE
350
21D
  0
DIMASSOC
  5
145
102
{ACAD_REACTORS
330
144
102
}
330
144
100
AcDbDimAssoc
330
143
 90
        3
 70
     0
 71
     1
  1
AcDbOsnapPointRef
 72
    13
331
71
 73
     2
 91
        1
 40
0.0
 10
74.559975
 20
229.601291
 30
0.0
 75
     0
  1
AcDbOsnapPointRef
 72
     1
331
74
 73
     2
 91
        2
 40
1.0
 10
139.559975
 20
229.601291
 30
0.0
 75
     0
  0
DIMASSOC
  5
15E
102
{ACAD_REACTORS
330
15D
102
}
330
15D
100
AcDbDimAssoc
330
15C
 90
        3
 70
     0
 71
     1
  1
AcDbOsnapPointRef
 72
     2
331
FE
 73
     2
 91
        1
 40
7.0
 10
77.059975
 20
131.933475
 30
0.0
 75
     0
  1
AcDbOsnapPointRef
 72
     3
331
D2
 73
     2
 91
        2
 40
1.0
 10
111.059975
 20
128.933475
 30
0.0
 75
     0
  0
DIMASSOC
  5
178
102
{ACAD_REACTORS
330
177
102
}
330
177
100
AcDbDimAssoc
330
176
 90
        3
 70
     0
 71
     1
  1
AcDbOsnapPointRef
 72
     3
331
C8
 73
     2
 91
        1
 40
0.0
 10
90.059975
 20
217.601291
 30
0.0
 75
     0
  1
AcDbOsnapPointRef
 72
     3
331
C5
 73
     2
 91
        2
 40
1.0
 10
132.059975
 20
217.601291
 30
0.0
 75
     0
  0
DIMASSOC
  5
190
102
{ACAD_REACTORS
330
18F
102
}
330
18F
100
AcDbDimAssoc
330
18E
 90
        3
 70
     0
 71
     1
  1
AcDbOsnapPointRef
 72
     2
331
119
 73
     2
 91
        1
 40
7.5
 10
111.059975
 20
217.601291
 30
0.0
 75
     0
  1
AcDbOsnapPointRef
 72
     2
331
119
 73
     2
 91
        2
 40
7.5
 10
103.059975
 20
220.601291
 30
0.0
 75
     0
  0
DIMASSOC
  5
1AA
102
{ACAD_REACTORS
330
1A9
102
}
330
1A9
100
AcDbDimAssoc
330
1A8
 90
        3
 70
     0
 71
     1
  1
AcDbOsnapPointRef
 72
     2
331
101
 73
     2
 91
        1
 40
7.0
 10
124.059975
 20
217.601291
 30
0.0
 75
     0
  1
AcDbOsnapPointRef
 72
     2
331
101
 73
     2
 91
        2
 40
7.0
 10
132.059975
 20
217.601291
 30
0.0
 75
     0
  0
DIMASSOC
  5
1C4
102
{ACAD_REACTORS
330
1C3
102
}
330
1C3
100
AcDbDimAssoc
330
1C2
 90
        3
 70
     0
 71
     1
  1
AcDbOsnapPointRef
 72
     1
331
6F
 73
     2
 91
        1
 40
1.0
 10
74.559975
 20
229.601291
 30
0.0
 75
     0
  1
AcDbOsnapPointRef
 72
    13
331
75
 73
     2
 91
        2
 40
0.0
 10
74.559975
 20
205.601291
 30
0.0
 75
     0
  0
DIMASSOC
  5
1DD
102
{ACAD_REACTORS
330
1DC
102
}
330
1DC
100
AcDbDimAssoc
330
1DB
 90
        3
 70
     0
 71
     1
  1
AcDbOsnapPointRef
 72
     3
331
CA
 73
     2
 91
        1
 40
0.0
 10
103.059975
 20
220.601291
 30
0.0
 75
     0
  1
AcDbOsnapPointRef
 72
     2
331
101
 73
     2
 91
        2
 40
7.0
 10
137.059975
 20
217.601291
 30
0.0
 75
     0
  0
GROUP
  5
205
102
{ACAD_REACTORS
330
D
102
}
330
D
100
AcDbGroup
300

 70
     0
 71
     1
340
E9
340
EA
340
EB
340
142
340
F5
340
F6
340
F7
340
F8
340
F9
340
FA
340
FB
  0
GROUP
  5
206
102
{ACAD_REACTORS
330
D
102
}
330
D
100
AcDbGroup
300

 70
     0
 71
     1
340
B0
340
B1
340
B2
340
AF
340
B3
340
B4
340
AE
340
B5
340
B6
340
B7
340
B8
340
11A
340
11D
340
B9
340
AD
340
BA
340
BB
340
A8
340
BC
340
BD
340
BF
340
C0
340
C1
340
AB
340
AA
340
C2
340
AC
340
C3
340
C4
340
10C
340
10D
340
116
340
10E
340
110
340
112
340
111
340
113
340
12A
340
10F
340
123
340
11C
340
114
340
11E
340
121
340
122
340
12E
340
115
340
124
340
11B
340
12F
340
12D
340
12C
340
12B
340
125
340
126
340
127
  0
LAYOUT
  5
1E
102
{ACAD_REACTORS
330
1A
102
}
330
1A
100
AcDbPlotSettings
  1

  2
none_device
  4

  6

 40
0.0
 41
0.0
 42
0.0
 43
0.0
 44
0.0
 45
0.0
 46
0.0
 47
0.0
 48
0.0
 49
0.0
140
0.0
141
0.0
142
1.0
143
1.0
 70
   688
 72
     0
 73
     0
 74
     5
  7

 75
    16
 76
     0
 77
     2
 78
   300
147
1.0
148
0.0
149
0.0
100
AcDbLayout
  1
Layout1
 70
     1
 71
     1
 10
-0.5
 20
-0.5
 11
5.0
 21
5.0
 12
0.0
 22
0.0
 32
0.0
 14
-0.5
 24
-0.5
 34
-0.5
 15
5.0
 25
5.0
 35
5.0
146
0.0
 13
0.0
 23
0.0
 33
0.0
 16
1.0
 26
0.0
 36
0.0
 17
0.0
 27
1.0
 37
0.0
 76
     0
330
1B
  0
LAYOUT
  5
26
102
{ACAD_REACTORS
330
1A
102
}
330
1A
100
AcDbPlotSettings
  1

  2
none_device
  4

  6

 40
0.0
 41
0.0
 42
0.0
 43
0.0
 44
0.0
 45
0.0
 46
0.0
 47
0.0
 48
0.0
 49
0.0
140
0.0
141
0.0
142
1.0
143
1.0
 70
   688
 72
     0
 73
     0
 74
     5
  7

 75
    16
 76
     0
 77
     2
 78
   300
147
1.0
148
0.0
149
0.0
100
AcDbLayout
  1
Layout2
 70
     1
 71
     2
 10
0.0
 20
0.0
 11
0.0
 21
0.0
 12
0.0
 22
0.0
 32
0.0
 14
0.0
 24
0.0
 34
0.0
 15
0.0
 25
0.0
 35
0.0
146
0.0
 13
0.0
 23
0.0
 33
0.0
 16
1.0
 26
0.0
 36
0.0
 17
0.0
 27
1.0
 37
0.0
 76
     0
330
23
  0
LAYOUT
  5
22
102
{ACAD_REACTORS
330
1A
102
}
330
1A
100
AcDbPlotSettings
  1

  2
none_device
  4
Letter_(8.50_x_11.00_Inches)
  6

 40
6.35
 41
6.35
 42
6.350005
 43
6.350005
 44
215.9
 45
279.4
 46
0.0
 47
0.0
 48
0.0
 49
0.0
140
0.0
141
0.0
142
1.0
143
1.0
 70
  1712
 72
     0
 73
     0
 74
     0
  7

 75
     0
 76
     0
 77
     2
 78
   300
147
1.0
148
0.0
149
0.0
100
AcDbLayout
  1
Model
 70
     1
 71
     0
 10
-0.5
 20
-0.5
 11
5.0
 21
5.0
 12
0.0
 22
0.0
 32
0.0
 14
-0.5
 24
-0.5
 34
-0.5
 15
5.0
 25
5.0
 35
5.0
146
0.0
 13
0.0
 23
0.0
 33
0.0
 16
1.0
 26
0.0
 36
0.0
 17
0.0
 27
1.0
 37
0.0
 76
     0
330
1F
331
207
  0
MATERIAL
  5
45
102
{ACAD_REACTORS
330
43
102
}
102
{ACAD_XDICTIONARY
360
250
102
}
330
43
100
AcDbMaterial
  1
ByBlock
  0
MATERIAL
  5
44
102
{ACAD_REACTORS
330
43
102
}
102
{ACAD_XDICTIONARY
360
24E
102
}
330
43
100
AcDbMaterial
  1
ByLayer
  0
MATERIAL
  5
46
102
{ACAD_REACTORS
330
43
102
}
102
{ACAD_XDICTIONARY
360
252
102
}
330
43
100
AcDbMaterial
  1
Global
  0
MLINESTYLE
  5
18
102
{ACAD_REACTORS
330
17
102
}
330
17
100
AcDbMlineStyle
  2
Standard
 70
     0
  3

 62
   256
 51
90.0
 52
90.0
 71
     2
 49
0.5
 62
   256
  6
BYLAYER
 49
-0.5
 62
   256
  6
BYLAYER
  0
ACDBPLACEHOLDER
  5
F
102
{ACAD_REACTORS
330
E
102
}
330
E
  0
SCALE
  5
48
102
{ACAD_REACTORS
330
47
102
}
330
47
100
AcDbScale
 70
     0
300
1:1
140
1.0
141
1.0
290
     1
  0
SCALE
  5
49
102
{ACAD_REACTORS
330
47
102
}
330
47
100
AcDbScale
 70
     0
300
1:2
140
1.0
141
2.0
290
     0
  0
SCALE
  5
4A
102
{ACAD_REACTORS
330
47
102
}
330
47
100
AcDbScale
 70
     0
300
1:4
140
1.0
141
4.0
290
     0
  0
SCALE
  5
4B
102
{ACAD_REACTORS
330
47
102
}
330
47
100
AcDbScale
 70
     0
300
1:5
140
1.0
141
5.0
290
     0
  0
SCALE
  5
4C
102
{ACAD_REACTORS
330
47
102
}
330
47
100
AcDbScale
 70
     0
300
1:8
140
1.0
141
8.0
290
     0
  0
SCALE
  5
4D
102
{ACAD_REACTORS
330
47
102
}
330
47
100
AcDbScale
 70
     0
300
1:10
140
1.0
141
10.0
290
     0
  0
SCALE
  5
4E
102
{ACAD_REACTORS
330
47
102
}
330
47
100
AcDbScale
 70
     0
300
1:16
140
1.0
141
16.0
290
     0
  0
SCALE
  5
4F
102
{ACAD_REACTORS
330
47
102
}
330
47
100
AcDbScale
 70
     0
300
1:20
140
1.0
141
20.0
290
     0
  0
SCALE
  5
50
102
{ACAD_REACTORS
330
47
102
}
330
47
100
AcDbScale
 70
     0
300
1:30
140
1.0
141
30.0
290
     0
  0
SCALE
  5
51
102
{ACAD_REACTORS
330
47
102
}
330
47
100
AcDbScale
 70
     0
300
1:40
140
1.0
141
40.0
290
     0
  0
SCALE
  5
52
102
{ACAD_REACTORS
330
47
102
}
330
47
100
AcDbScale
 70
     0
300
1:50
140
1.0
141
50.0
290
     0
  0
SCALE
  5
53
102
{ACAD_REACTORS
330
47
102
}
330
47
100
AcDbScale
 70
     0
300
1:100
140
1.0
141
100.0
290
     0
  0
SCALE
  5
54
102
{ACAD_REACTORS
330
47
102
}
330
47
100
AcDbScale
 70
     0
300
2:1
140
2.0
141
1.0
290
     0
  0
SCALE
  5
55
102
{ACAD_REACTORS
330
47
102
}
330
47
100
AcDbScale
 70
     0
300
4:1
140
4.0
141
1.0
290
     0
  0
SCALE
  5
56
102
{ACAD_REACTORS
330
47
102
}
330
47
100
AcDbScale
 70
     0
300
8:1
140
8.0
141
1.0
290
     0
  0
SCALE
  5
57
102
{ACAD_REACTORS
330
47
102
}
330
47
100
AcDbScale
 70
     0
300
10:1
140
10.0
141
1.0
290
     0
  0
SCALE
  5
58
102
{ACAD_REACTORS
330
47
102
}
330
47
100
AcDbScale
 70
     0
300
100:1
140
100.0
141
1.0
290
     0
  0
SCALE
  5
59
102
{ACAD_REACTORS
330
47
102
}
330
47
100
AcDbScale
 70
     0
300
1/128" = 1'-0"
140
0.007812
141
12.0
290
     0
  0
SCALE
  5
5A
102
{ACAD_REACTORS
330
47
102
}
330
47
100
AcDbScale
 70
     0
300
1/64" = 1'-0"
140
0.015625
141
12.0
290
     0
  0
SCALE
  5
5B
102
{ACAD_REACTORS
330
47
102
}
330
47
100
AcDbScale
 70
     0
300
1/32" = 1'-0"
140
0.03125
141
12.0
290
     0
  0
SCALE
  5
5C
102
{ACAD_REACTORS
330
47
102
}
330
47
100
AcDbScale
 70
     0
300
1/16" = 1'-0"
140
0.0625
141
12.0
290
     0
  0
SCALE
  5
5D
102
{ACAD_REACTORS
330
47
102
}
330
47
100
AcDbScale
 70
     0
300
3/32" = 1'-0"
140
0.09375
141
12.0
290
     0
  0
SCALE
  5
5E
102
{ACAD_REACTORS
330
47
102
}
330
47
100
AcDbScale
 70
     0
300
1/8" = 1'-0"
140
0.125
141
12.0
290
     0
  0
SCALE
  5
5F
102
{ACAD_REACTORS
330
47
102
}
330
47
100
AcDbScale
 70
     0
300
3/16" = 1'-0"
140
0.1875
141
12.0
290
     0
  0
SCALE
  5
60
102
{ACAD_REACTORS
330
47
102
}
330
47
100
AcDbScale
 70
     0
300
1/4" = 1'-0"
140
0.25
141
12.0
290
     0
  0
SCALE
  5
61
102
{ACAD_REACTORS
330
47
102
}
330
47
100
AcDbScale
 70
     0
300
3/8" = 1'-0"
140
0.375
141
12.0
290
     0
  0
SCALE
  5
62
102
{ACAD_REACTORS
330
47
102
}
330
47
100
AcDbScale
 70
     0
300
1/2" = 1'-0"
140
0.5
141
12.0
290
     0
  0
SCALE
  5
63
102
{ACAD_REACTORS
330
47
102
}
330
47
100
AcDbScale
 70
     0
300
3/4" = 1'-0"
140
0.75
141
12.0
290
     0
  0
SCALE
  5
64
102
{ACAD_REACTORS
330
47
102
}
330
47
100
AcDbScale
 70
     0
300
1" = 1'-0"
140
1.0
141
12.0
290
     0
  0
SCALE
  5
65
102
{ACAD_REACTORS
330
47
102
}
330
47
100
AcDbScale
 70
     0
300
1-1/2" = 1'-0"
140
1.5
141
12.0
290
     0
  0
SCALE
  5
66
102
{ACAD_REACTORS
330
47
102
}
330
47
100
AcDbScale
 70
     0
300
3" = 1'-0"
140
3.0
141
12.0
290
     0
  0
SCALE
  5
67
102
{ACAD_REACTORS
330
47
102
}
330
47
100
AcDbScale
 70
     0
300
6" = 1'-0"
140
6.0
141
12.0
290
     0
  0
SCALE
  5
68
102
{ACAD_REACTORS
330
47
102
}
330
47
100
AcDbScale
 70
     0
300
1'-0" = 1'-0"
140
12.0
141
12.0
290
     0
  0
VISUALSTYLE
  5
2F
102
{ACAD_REACTORS
330
2A
102
}
102
{ACAD_XDICTIONARY
360
226
102
}
330
2A
100
AcDbVisualStyle
  2
2dWireframe
 70
     4
 71
     0
 72
     2
 73
     0
 90
        0
 40
0.6
 41
30.0
 62
     5
 63
     7
421
 16777215
 74
     1
 91
        4
 64
     7
 65
   257
 75
     1
175
     1
 42
1.0
 92
        0
 66
   257
 43
1.0
 76
     1
 77
     6
 78
     2
 67
     7
 79
     5
170
     0
171
     0
290
     0
174
     0
 93
        1
 44
0.0
173
     0
291
     0
 45
0.0
1001
ACAD
1000
AcDbSavedByObjectVersion
1070
     0
  0
VISUALSTYLE
  5
32
102
{ACAD_REACTORS
330
2A
102
}
102
{ACAD_XDICTIONARY
360
22C
102
}
330
2A
100
AcDbVisualStyle
  2
Basic
 70
     7
 71
     1
 72
     0
 73
     1
 90
        0
 40
0.6
 41
30.0
 62
     5
 63
     7
421
 16777215
 74
     0
 91
        4
 64
     7
 65
   257
 75
     1
175
     1
 42
1.0
 92
        8
 66
     7
 43
1.0
 76
     1
 77
     6
 78
     2
 67
     7
 79
     5
170
     0
171
     0
290
     0
174
     0
 93
        1
 44
0.0
173
     0
291
     1
 45
0.0
1001
ACAD
1000
AcDbSavedByObjectVersion
1070
     0
  0
VISUALSTYLE
  5
36
102
{ACAD_REACTORS
330
2A
102
}
102
{ACAD_XDICTIONARY
360
234
102
}
330
2A
100
AcDbVisualStyle
  2
Brighten
 70
    12
 71
     2
 72
     2
 73
     0
 90
        0
 40
0.6
 41
30.0
 62
     5
 63
     7
421
 16777215
 74
     1
 91
        4
 64
     7
 65
   257
 75
     1
175
     1
 42
1.0
 92
        8
 66
     7
 43
1.0
 76
     1
 77
     6
 78
     2
 67
     7
 79
     5
170
     0
171
     0
290
     0
174
     0
 93
        1
 44
50.0
173
     0
291
     1
 45
0.0
1001
ACAD
1000
AcDbSavedByObjectVersion
1070
     0
  0
VISUALSTYLE
  5
3A
102
{ACAD_REACTORS
330
2A
102
}
102
{ACAD_XDICTIONARY
360
23C
102
}
330
2A
100
AcDbVisualStyle
  2
ColorChange
 70
    16
 71
     2
 72
     2
 73
     3
 90
        0
 40
0.6
 41
30.0
 62
     5
 63
     8
421
  8421504
 74
     1
 91
        4
 64
     7
 65
   257
 75
     1
175
     1
 42
1.0
 92
        8
 66
     8
424
  8421504
 43
1.0
 76
     1
 77
     6
 78
     2
 67
     7
 79
     5
170
     0
171
     0
290
     0
174
     0
 93
        1
 44
0.0
173
     0
291
     1
 45
0.0
1001
ACAD
1000
AcDbSavedByObjectVersion
1070
     0
  0
VISUALSTYLE
  5
34
102
{ACAD_REACTORS
330
2A
102
}
102
{ACAD_XDICTIONARY
360
230
102
}
330
2A
100
AcDbVisualStyle
  2
Conceptual
 70
     9
 71
     3
 72
     2
 73
     0
 90
        0
 40
0.6
 41
30.0
 62
     5
 63
     7
421
 16777215
 74
     2
 91
        2
 64
     7
 65
   257
 75
     1
175
     1
 42
179.0
 92
        8
 66
     7
 43
1.0
 76
     1
 77
     6
 78
     2
 67
     7
 79
     3
170
     0
171
     0
290
     0
174
     0
 93
        1
 44
0.0
173
     0
291
     0
 45
0.0
1001
ACAD
1000
AcDbSavedByObjectVersion
1070
     0
  0
VISUALSTYLE
  5
35
102
{ACAD_REACTORS
330
2A
102
}
102
{ACAD_XDICTIONARY
360
232
102
}
330
2A
100
AcDbVisualStyle
  2
Dim
 70
    11
 71
     2
 72
     2
 73
     0
 90
        0
 40
0.6
 41
30.0
 62
     5
 63
     7
421
 16777215
 74
     1
 91
        4
 64
     7
 65
   257
 75
     1
175
     1
 42
1.0
 92
        8
 66
     7
 43
1.0
 76
     1
 77
     6
 78
     2
 67
     7
 79
     5
170
     0
171
     0
290
     0
174
     0
 93
        1
 44
-50.0
173
     0
291
     1
 45
0.0
1001
ACAD
1000
AcDbSavedByObjectVersion
1070
     0
  0
VISUALSTYLE
  5
3D
102
{ACAD_REACTORS
330
2A
102
}
102
{ACAD_XDICTIONARY
360
242
102
}
330
2A
100
AcDbVisualStyle
  2
EdgeColorOff
 70
    22
 71
     2
 72
     2
 73
     0
 90
        0
 40
0.6
 41
30.0
 62
     5
 63
     7
421
 16777215
 74
     1
 91
        4
 64
     7
 65
   257
 75
     1
175
     1
 42
1.0
 92
        8
 66
     7
 43
1.0
 76
     1
 77
     6
 78
     2
 67
     7
 79
     5
170
     0
171
     0
290
     0
174
     0
 93
        1
 44
0.0
173
     0
291
     1
 45
0.0
1001
ACAD
1000
AcDbSavedByObjectVersion
1070
     0
  0
VISUALSTYLE
  5
39
102
{ACAD_REACTORS
330
2A
102
}
102
{ACAD_XDICTIONARY
360
23A
102
}
330
2A
100
AcDbVisualStyle
  2
Facepattern
 70
    15
 71
     2
 72
     2
 73
     0
 90
        0
 40
0.6
 41
30.0
 62
     5
 63
     7
421
 16777215
 74
     1
 91
        4
 64
     7
 65
   257
 75
     1
175
     1
 42
1.0
 92
        8
 66
     7
 43
1.0
 76
     1
 77
     6
 78
     2
 67
     7
 79
     5
170
     0
171
     0
290
     0
174
     0
 93
        1
 44
0.0
173
     0
291
     1
 45
0.0
1001
ACAD
1000
AcDbSavedByObjectVersion
1070
     0
  0
VISUALSTYLE
  5
2B
102
{ACAD_REACTORS
330
2A
102
}
102
{ACAD_XDICTIONARY
360
21E
102
}
330
2A
100
AcDbVisualStyle
  2
Flat
 70
     0
 71
     2
 72
     1
 73
     1
 90
        2
 40
0.6
 41
30.0
 62
     5
 63
     7
421
 16777215
 74
     0
 91
        0
 64
     7
 65
   257
 75
     1
175
     1
 42
1.0
 92
        8
 66
     7
 43
1.0
 76
     1
 77
     6
 78
     2
 67
     7
 79
     5
170
     0
171
     0
290
     0
174
     0
 93
       13
 44
0.0
173
     0
291
     1
 45
0.0
1001
ACAD
1000
AcDbSavedByObjectVersion
1070
     0
  0
VISUALSTYLE
  5
2C
102
{ACAD_REACTORS
330
2A
102
}
102
{ACAD_XDICTIONARY
360
220
102
}
330
2A
100
AcDbVisualStyle
  2
FlatWithEdges
 70
     1
 71
     2
 72
     1
 73
     1
 90
        2
 40
0.6
 41
30.0
 62
     5
 63
     7
421
 16777215
 74
     1
 91
        0
 64
     7
 65
   257
 75
     1
175
     1
 42
1.0
 92
        0
 66
   257
 43
1.0
 76
     1
 77
     6
 78
     2
 67
     7
 79
     5
170
     0
171
     0
290
     0
174
     0
 93
       13
 44
0.0
173
     0
291
     1
 45
0.0
1001
ACAD
1000
AcDbSavedByObjectVersion
1070
     0
  0
VISUALSTYLE
  5
2D
102
{ACAD_REACTORS
330
2A
102
}
102
{ACAD_XDICTIONARY
360
222
102
}
330
2A
100
AcDbVisualStyle
  2
Gouraud
 70
     2
 71
     2
 72
     2
 73
     1
 90
        2
 40
0.6
 41
30.0
 62
     5
 63
     7
421
 16777215
 74
     0
 91
        0
 64
     7
 65
   257
 75
     1
175
     1
 42
1.0
 92
        0
 66
     7
 43
1.0
 76
     1
 77
     6
 78
     2
 67
     7
 79
     5
170
     0
171
     0
290
     0
174
     0
 93
       13
 44
0.0
173
     0
291
     1
 45
0.0
1001
ACAD
1000
AcDbSavedByObjectVersion
1070
     0
  0
VISUALSTYLE
  5
2E
102
{ACAD_REACTORS
330
2A
102
}
102
{ACAD_XDICTIONARY
360
224
102
}
330
2A
100
AcDbVisualStyle
  2
GouraudWithEdges
 70
     3
 71
     2
 72
     2
 73
     1
 90
        2
 40
0.6
 41
30.0
 62
     5
 63
     7
421
 16777215
 74
     1
 91
        0
 64
     7
 65
   257
 75
     1
175
     1
 42
1.0
 92
        0
 66
   257
 43
1.0
 76
     1
 77
     6
 78
     2
 67
     7
 79
     5
170
     0
171
     0
290
     0
174
     0
 93
       13
 44
0.0
173
     0
291
     1
 45
0.0
1001
ACAD
1000
AcDbSavedByObjectVersion
1070
     0
  0
VISUALSTYLE
  5
31
102
{ACAD_REACTORS
330
2A
102
}
102
{ACAD_XDICTIONARY
360
22A
102
}
330
2A
100
AcDbVisualStyle
  2
Hidden
 70
     6
 71
     1
 72
     2
 73
     2
 90
        0
 40
0.6
 41
30.0
 62
     5
 63
     7
421
 16777215
 74
     2
 91
        2
 64
     7
 65
   257
 75
     2
175
     1
 42
40.0
 92
        0
 66
   257
 43
1.0
 76
     1
 77
     6
 78
     2
 67
     7
 79
     3
170
     0
171
     0
290
     0
174
     0
 93
        1
 44
0.0
173
     0
291
     0
 45
0.0
1001
ACAD
1000
AcDbSavedByObjectVersion
1070
     0
  0
VISUALSTYLE
  5
3B
102
{ACAD_REACTORS
330
2A
102
}
102
{ACAD_XDICTIONARY
360
23E
102
}
330
2A
100
AcDbVisualStyle
  2
JitterOff
 70
    20
 71
     2
 72
     2
 73
     0
 90
        0
 40
0.6
 41
30.0
 62
     5
 63
     7
421
 16777215
 74
     1
 91
        4
 64
     7
 65
   257
 75
     1
175
     1
 42
1.0
 92
       10
 66
     7
 43
1.0
 76
     1
 77
     6
 78
     2
 67
     7
 79
     5
170
     0
171
     0
290
     0
174
     0
 93
        1
 44
0.0
173
     0
291
     1
 45
0.0
1001
ACAD
1000
AcDbSavedByObjectVersion
1070
     0
  0
VISUALSTYLE
  5
38
102
{ACAD_REACTORS
330
2A
102
}
102
{ACAD_XDICTIONARY
360
238
102
}
330
2A
100
AcDbVisualStyle
  2
Linepattern
 70
    14
 71
     2
 72
     2
 73
     0
 90
        0
 40
0.6
 41
30.0
 62
     5
 63
     7
421
 16777215
 74
     1
 91
        4
 64
     7
 65
   257
 75
     7
175
     7
 42
1.0
 92
        8
 66
     7
 43
1.0
 76
     1
 77
     6
 78
     2
 67
     7
 79
     5
170
     0
171
     0
290
     0
174
     0
 93
        1
 44
0.0
173
     0
291
     1
 45
0.0
1001
ACAD
1000
AcDbSavedByObjectVersion
1070
     0
  0
VISUALSTYLE
  5
3C
102
{ACAD_REACTORS
330
2A
102
}
102
{ACAD_XDICTIONARY
360
240
102
}
330
2A
100
AcDbVisualStyle
  2
OverhangOff
 70
    21
 71
     2
 72
     2
 73
     0
 90
        0
 40
0.6
 41
30.0
 62
     5
 63
     7
421
 16777215
 74
     1
 91
        4
 64
     7
 65
   257
 75
     1
175
     1
 42
1.0
 92
        9
 66
     7
 43
1.0
 76
     1
 77
     6
 78
     2
 67
     7
 79
     5
170
     0
171
     0
290
     0
174
     0
 93
        1
 44
0.0
173
     0
291
     1
 45
0.0
1001
ACAD
1000
AcDbSavedByObjectVersion
1070
     0
  0
VISUALSTYLE
  5
33
102
{ACAD_REACTORS
330
2A
102
}
102
{ACAD_XDICTIONARY
360
22E
102
}
330
2A
100
AcDbVisualStyle
  2
Realistic
 70
     8
 71
     2
 72
     3
 73
     0
 90
        2
 40
0.6
 41
30.0
 62
     5
 63
     7
421
 16777215
 74
     0
 91
        0
 64
     7
 65
   257
 75
     1
175
     1
 42
1.0
 92
        8
 66
   257
 43
1.0
 76
     1
 77
     6
 78
     2
 67
     7
 79
     3
170
     0
171
     0
290
     0
174
     0
 93
       13
 44
0.0
173
     0
291
     0
 45
0.0
1001
ACAD
1000
AcDbSavedByObjectVersion
1070
     0
  0
VISUALSTYLE
  5
42
102
{ACAD_REACTORS
330
2A
102
}
102
{ACAD_XDICTIONARY
360
24C
102
}
330
2A
100
AcDbVisualStyle
  2
Shaded
 70
    27
 71
     2
 72
     2
 73
     1
 90
        2
 40
0.6
 41
30.0
 62
     5
 63
     7
421
 16777215
 74
     0
 91
        4
 64
     7
 65
   257
 75
     1
175
     1
 42
1.0
 92
        8
 66
   257
 43
1.0
 76
     1
 77
     6
 78
     2
 67
     8
425
  7895160
 79
     3
170
     0
171
     0
290
     0
174
     0
 93
        5
 44
0.0
173
     0
291
     0
 45
0.0
1001
ACAD
1000
AcDbSavedByObjectVersion
1070
     0
  0
VISUALSTYLE
  5
41
102
{ACAD_REACTORS
330
2A
102
}
102
{ACAD_XDICTIONARY
360
24A
102
}
330
2A
100
AcDbVisualStyle
  2
Shaded with edges
 70
    26
 71
     2
 72
     2
 73
     1
 90
        2
 40
0.6
 41
30.0
 62
     5
 63
     7
421
 16777215
 74
     1
 91
       10
 64
     7
 65
   257
 75
     2
175
     1
 42
1.0
 92
        8
 66
   257
 43
1.0
 76
     1
 77
     6
 78
     2
 67
     7
 79
     3
170
     0
171
     0
290
     0
174
     0
 93
        5
 44
0.0
173
     0
291
     0
 45
0.0
1001
ACAD
1000
AcDbSavedByObjectVersion
1070
     0
  0
VISUALSTYLE
  5
3E
102
{ACAD_REACTORS
330
2A
102
}
102
{ACAD_XDICTIONARY
360
244
102
}
330
2A
100
AcDbVisualStyle
  2
Shades of Gray
 70
    23
 71
     2
 72
     2
 73
     3
 90
        0
 40
0.6
 41
30.0
 62
     5
 63
     7
421
 16777215
 74
     2
 91
        2
 64
     7
 65
     7
 75
     1
175
     1
 42
40.0
 92
        8
 66
     7
 43
1.0
 76
     1
 77
     6
 78
     2
 67
     7
 79
     3
170
     0
171
     0
290
     0
174
     0
 93
        1
 44
0.0
173
     0
291
     0
 45
0.0
1001
ACAD
1000
AcDbSavedByObjectVersion
1070
     0
  0
VISUALSTYLE
  5
3F
102
{ACAD_REACTORS
330
2A
102
}
102
{ACAD_XDICTIONARY
360
246
102
}
330
2A
100
AcDbVisualStyle
  2
Sketchy
 70
    24
 71
     1
 72
     2
 73
     2
 90
        0
 40
0.6
 41
30.0
 62
     5
 63
     7
421
 16777215
 74
     2
 91
        2
 64
     7
 65
     7
 75
     1
175
     1
 42
40.0
 92
       11
 66
     7
 43
1.0
 76
     1
 77
     6
 78
     2
 67
     7
 79
     6
170
     0
171
     0
290
     0
174
     0
 93
        1
 44
0.0
173
     0
291
     0
 45
0.0
1001
ACAD
1000
AcDbSavedByObjectVersion
1070
     0
  0
VISUALSTYLE
  5
37
102
{ACAD_REACTORS
330
2A
102
}
102
{ACAD_XDICTIONARY
360
236
102
}
330
2A
100
AcDbVisualStyle
  2
Thicken
 70
    13
 71
     2
 72
     2
 73
     0
 90
        0
 40
0.6
 41
30.0
 62
     5
 63
     7
421
 16777215
 74
     1
 91
        4
 64
     7
 65
   257
 75
     1
175
     1
 42
1.0
 92
       12
 66
     7
 43
1.0
 76
     1
 77
     6
 78
     2
 67
     7
 79
     5
170
     0
171
     0
290
     0
174
     0
 93
        1
 44
0.0
173
     0
291
     1
 45
0.0
1001
ACAD
1000
AcDbSavedByObjectVersion
1070
     0
  0
VISUALSTYLE
  5
30
102
{ACAD_REACTORS
330
2A
102
}
102
{ACAD_XDICTIONARY
360
228
102
}
330
2A
100
AcDbVisualStyle
  2
Wireframe
 70
     5
 71
     0
 72
     2
 73
     0
 90
        0
 40
0.6
 41
30.0
 62
     5
 63
     7
421
 16777215
 74
     1
 91
        4
 64
     7
 65
   257
 75
     1
175
     1
 42
1.0
 92
        0
 66
   257
 43
1.0
 76
     1
 77
     6
 78
     2
 67
     7
 79
     3
170
     0
171
     0
290
     0
174
     0
 93
        1
 44
0.0
173
     0
291
     0
 45
0.0
1001
ACAD
1000
AcDbSavedByObjectVersion
1070
     0
  0
VISUALSTYLE
  5
40
102
{ACAD_REACTORS
330
2A
102
}
102
{ACAD_XDICTIONARY
360
248
102
}
330
2A
100
AcDbVisualStyle
  2
X-Ray
 70
    25
 71
     2
 72
     2
 73
     1
 90
        1
 40
0.5
 41
30.0
 62
     5
 63
     7
421
 16777215
 74
     1
 91
        0
 64
     7
 65
   257
 75
     1
175
     1
 42
1.0
 92
        8
 66
     7
 43
1.0
 76
     1
 77
     6
 78
     2
 67
     7
 79
     3
170
     0
171
     0
290
     0
174
     0
 93
       13
 44
0.0
173
     0
291
     0
 45
0.0
1001
ACAD
1000
AcDbSavedByObjectVersion
1070
     0
  0
DICTIONARYVAR
  5
21C
102
{ACAD_REACTORS
330
21B
102
}
330
21B
100
DictionaryVariables
280
     0
  1
1:1
  0
DICTIONARYVAR
  5
21D
102
{ACAD_REACTORS
330
21B
102
}
330
21B
100
DictionaryVariables
280
     0
  1
1
  0
DICTIONARY
  5
250
330
45
100
AcDbDictionary
280
     1
281
     1
  3
ACAD_XREC_ROUNDTRIP
360
251
  0
DICTIONARY
  5
24E
330
44
100
AcDbDictionary
280
     1
281
     1
  3
ACAD_XREC_ROUNDTRIP
360
24F
  0
DICTIONARY
  5
252
330
46
100
AcDbDictionary
280
     1
281
     1
  3
ACAD_XREC_ROUNDTRIP
360
253
  0
DICTIONARY
  5
226
330
2F
100
AcDbDictionary
280
     1
281
     1
  3
ACAD_XREC_ROUNDTRIP
360
227
  0
DICTIONARY
  5
22C
330
32
100
AcDbDictionary
280
     1
281
     1
  3
ACAD_XREC_ROUNDTRIP
360
22D
  0
DICTIONARY
  5
234
330
36
100
AcDbDictionary
280
     1
281
     1
  3
ACAD_XREC_ROUNDTRIP
360
235
  0
DICTIONARY
  5
23C
330
3A
100
AcDbDictionary
280
     1
281
     1
  3
ACAD_XREC_ROUNDTRIP
360
23D
  0
DICTIONARY
  5
230
330
34
100
AcDbDictionary
280
     1
281
     1
  3
ACAD_XREC_ROUNDTRIP
360
231
  0
DICTIONARY
  5
232
330
35
100
AcDbDictionary
280
     1
281
     1
  3
ACAD_XREC_ROUNDTRIP
360
233
  0
DICTIONARY
  5
242
330
3D
100
AcDbDictionary
280
     1
281
     1
  3
ACAD_XREC_ROUNDTRIP
360
243
  0
DICTIONARY
  5
23A
330
39
100
AcDbDictionary
280
     1
281
     1
  3
ACAD_XREC_ROUNDTRIP
360
23B
  0
DICTIONARY
  5
21E
330
2B
100
AcDbDictionary
280
     1
281
     1
  3
ACAD_XREC_ROUNDTRIP
360
21F
  0
DICTIONARY
  5
220
330
2C
100
AcDbDictionary
280
     1
281
     1
  3
ACAD_XREC_ROUNDTRIP
360
221
  0
DICTIONARY
  5
222
330
2D
100
AcDbDictionary
280
     1
281
     1
  3
ACAD_XREC_ROUNDTRIP
360
223
  0
DICTIONARY
  5
224
330
2E
100
AcDbDictionary
280
     1
281
     1
  3
ACAD_XREC_ROUNDTRIP
360
225
  0
DICTIONARY
  5
22A
330
31
100
AcDbDictionary
280
     1
281
     1
  3
ACAD_XREC_ROUNDTRIP
360
22B
  0
DICTIONARY
  5
23E
330
3B
100
AcDbDictionary
280
     1
281
     1
  3
ACAD_XREC_ROUNDTRIP
360
23F
  0
DICTIONARY
  5
238
330
38
100
AcDbDictionary
280
     1
281
     1
  3
ACAD_XREC_ROUNDTRIP
360
239
  0
DICTIONARY
  5
240
330
3C
100
AcDbDictionary
280
     1
281
     1
  3
ACAD_XREC_ROUNDTRIP
360
241
  0
DICTIONARY
  5
22E
330
33
100
AcDbDictionary
280
     1
281
     1
  3
ACAD_XREC_ROUNDTRIP
360
22F
  0
DICTIONARY
  5
24C
330
42
100
AcDbDictionary
280
     1
281
     1
  3
ACAD_XREC_ROUNDTRIP
360
24D
  0
DICTIONARY
  5
24A
330
41
100
AcDbDictionary
280
     1
281
     1
  3
ACAD_XREC_ROUNDTRIP
360
24B
  0
DICTIONARY
  5
244
330
3E
100
AcDbDictionary
280
     1
281
     1
  3
ACAD_XREC_ROUNDTRIP
360
245
  0
DICTIONARY
  5
246
330
3F
100
AcDbDictionary
280
     1
281
     1
  3
ACAD_XREC_ROUNDTRIP
360
247
  0
DICTIONARY
  5
236
330
37
100
AcDbDictionary
280
     1
281
     1
  3
ACAD_XREC_ROUNDTRIP
360
237
  0
DICTIONARY
  5
228
330
30
100
AcDbDictionary
280
     1
281
     1
  3
ACAD_XREC_ROUNDTRIP
360
229
  0
DICTIONARY
  5
248
330
40
100
AcDbDictionary
280
     1
281
     1
  3
ACAD_XREC_ROUNDTRIP
360
249
  0
XRECORD
  5
251
102
{ACAD_REACTORS
330
250
102
}
330
250
100
AcDbXrecord
280
     1
102
MATERIAL
148
0.0
149
0.0
149
0.0
 93
        0
 94
      127
282
     0
 72
     1
 77
     1
171
     1
175
     1
179
     1
273
     0
  0
XRECORD
  5
24F
102
{ACAD_REACTORS
330
24E
102
}
330
24E
100
AcDbXrecord
280
     1
102
MATERIAL
148
0.0
149
0.0
149
0.0
 93
        0
 94
      127
282
     0
 72
     1
 77
     1
171
     1
175
     1
179
     1
273
     0
  0
XRECORD
  5
253
102
{ACAD_REACTORS
330
252
102
}
330
252
100
AcDbXrecord
280
     1
102
MATERIAL
148
0.0
149
0.0
149
0.0
 93
        0
 94
      127
282
     0
 72
     1
 77
     1
171
     1
175
     1
179
     1
273
     0
  0
XRECORD
  5
227
102
{ACAD_REACTORS
330
226
102
}
330
226
100
AcDbXrecord
280
     1
102
RTVSPropertyOp0
 70
     1
102
RTVSPropertyOp1
 70
     1
102
RTVSPropertyOp2
 70
     1
102
RTVSPropertyOp3
 70
     1
102
RTVSPropertyOp4
 70
     1
102
RTVSPropertyOp5
 70
     1
102
RTVSPropertyOp6
 70
     1
102
RTVSPropertyOp7
 70
     1
102
RTVSPropertyOp8
 70
     1
102
RTVSPropertyOp9
 70
     1
102
RTVSPropertyOp10
 70
     1
102
RTVSPropertyOp11
 70
     1
102
RTVSPropertyOp12
 70
     1
102
RTVSPropertyOp13
 70
     1
102
RTVSPropertyOp14
 70
     1
102
RTVSPropertyOp15
 70
     1
102
RTVSPropertyOp16
 70
     1
102
RTVSPropertyOp17
 70
     1
102
RTVSPropertyOp18
 70
     1
102
RTVSPropertyOp19
 70
     1
102
RTVSPropertyOp20
 70
     1
102
RTVSPropertyOp21
 70
     1
102
RTVSPropertyOp22
 70
     1
102
RTVSPropertyOp23
 70
     1
102
RTVSPropertyOp24
 70
     1
102
RTVSPropertyOp25
 70
     1
102
RTVSPropertyOp26
 70
     1
102
RTVSPropertyOp27
 70
     1
102
RTVSPropertyOp28
 70
     1
102
RTVSPropertyOp29
 70
     1
102
RTVSPropertyOp30
 70
     1
102
RTVSPropertyOp31
 70
     1
102
RTVSPropertyOp32
 70
     1
102
RTVSPropertyOp33
 70
     1
102
RTVSPropertyOp34
 70
     1
102
RTVSPropertyOp35
 70
     1
102
RTVSPropertyOp36
 70
     1
102
RTVSPropertyOp37
 70
     1
102
RTVSPropertyOp38
 70
     1
102
RTVSPropertyOp39
 70
     1
102
RTVSPropertyOp40
 70
     1
102
RTVSPropertyOp41
 70
     1
102
RTVSPropertyOp42
 70
     1
102
RTVSPropertyOp43
 70
     1
102
RTVSPropertyOp44
 70
     1
102
RTVSPropertyOp45
 70
     1
102
RTVSPropertyOp46
 70
     1
102
RTVSPropertyOp47
 70
     1
102
RTVSPropertyOp48
 70
     1
102
RTVSPropertyOp49
 70
     1
102
RTVSPropertyOp50
 70
     1
102
RTVSPropertyOp51
 70
     0
102
RTVSPropertyOp52
 70
     0
102
RTVSPropertyOp53
 70
     1
102
RTVSPropertyOp54
 70
     1
102
RTVSPropertyOp55
 70
     1
102
RTVSPropertyOp56
 70
     1
102
RTVSPropertyOp57
 70
     1
102
RTVSPost2010Prop28
280
     1
102
RTVSPost2010PropOp28
 70
     1
102
RTVSPost2010Prop29
280
     1
102
RTVSPost2010PropOp29
 70
     1
102
RTVSPost2010Prop30
280
     0
102
RTVSPost2010PropOp30
 70
     1
102
RTVSPost2010Prop31
280
     0
102
RTVSPost2010PropOp31
 70
     1
102
RTVSPost2010Prop32
280
     0
102
RTVSPost2010PropOp32
 70
     1
102
RTVSPost2010Prop33
280
     0
102
RTVSPost2010PropOp33
 70
     1
102
RTVSPost2010Prop34
280
     0
102
RTVSPost2010PropOp34
 70
     1
102
RTVSPost2010Prop35
280
     0
102
RTVSPost2010PropOp35
 70
     1
102
RTVSPost2010Prop36
280
     0
102
RTVSPost2010PropOp36
 70
     1
102
RTVSPost2010Prop37
 90
       50
102
RTVSPost2010PropOp37
 70
     1
102
RTVSPost2010Prop38
140
0.0
102
RTVSPost2010PropOp38
 70
     1
102
RTVSPost2010Prop39
140
1.0
102
RTVSPost2010PropOp39
 70
     1
102
RTVSPost2010Prop40
 90
        0
102
RTVSPost2010PropOp40
 70
     1
102
RTVSPost2010Prop41ColorIndex
 90
       18
102
RTVSPost2010Prop41ColorRGB
 90
        0
102
RTVSPost2010PropOp41
 70
     1
102
RTVSPost2010Prop42
 90
       50
102
RTVSPost2010PropOp42
 70
     1
102
RTVSPost2010Prop43
 90
        3
102
RTVSPost2010PropOp43
 70
     1
102
RTVSPost2010Prop44ColorIndex
 90
        5
102
RTVSPost2010Prop44ColorRGB
 90
      255
102
RTVSPost2010PropOp44
 70
     1
102
RTVSPost2010Prop45
280
     0
102
RTVSPost2010PropOp45
 70
     1
102
RTVSPost2010Prop46
 90
       50
102
RTVSPost2010PropOp46
 70
     1
102
RTVSPost2010Prop47
 90
       50
102
RTVSPost2010PropOp47
 70
     1
102
RTVSPost2010Prop48
 90
       50
102
RTVSPost2010PropOp48
 70
     1
102
RTVSPost2010Prop49
280
     0
102
RTVSPost2010PropOp49
 70
     1
102
RTVSPost2010Prop50
 90
       50
102
RTVSPost2010PropOp50
 70
     1
102
RTVSPost2010Prop51ColorIndex
 90
      256
102
RTVSPost2010Prop51ColorRGB
 90
-16777216
102
RTVSPost2010PropOp51
 70
     0
102
RTVSPost2010Prop52
140
1.0
102
RTVSPost2010PropOp52
 70
     0
102
RTVSPost2010Prop53
 90
        2
102
RTVSPost2010PropOp53
 70
     1
102
RTVSPost2010Prop54
  1
strokes_ogs.tif
102
RTVSPost2010PropOp54
 70
     1
102
RTVSPost2010Prop55
280
     0
102
RTVSPost2010PropOp55
 70
     1
102
RTVSPost2010Prop56
140
1.0
102
RTVSPost2010PropOp56
 70
     1
102
RTVSPost2010Prop57
140
1.0
102
RTVSPost2010PropOp57
 70
     1
  0
XRECORD
  5
22D
102
{ACAD_REACTORS
330
22C
102
}
330
22C
100
AcDbXrecord
280
     1
102
RTVSPropertyOp0
 70
     1
102
RTVSPropertyOp1
 70
     1
102
RTVSPropertyOp2
 70
     1
102
RTVSPropertyOp3
 70
     1
102
RTVSPropertyOp4
 70
     1
102
RTVSPropertyOp5
 70
     1
102
RTVSPropertyOp6
 70
     1
102
RTVSPropertyOp7
 70
     1
102
RTVSPropertyOp8
 70
     1
102
RTVSPropertyOp9
 70
     1
102
RTVSPropertyOp10
 70
     1
102
RTVSPropertyOp11
 70
     1
102
RTVSPropertyOp12
 70
     1
102
RTVSPropertyOp13
 70
     1
102
RTVSPropertyOp14
 70
     1
102
RTVSPropertyOp15
 70
     1
102
RTVSPropertyOp16
 70
     1
102
RTVSPropertyOp17
 70
     1
102
RTVSPropertyOp18
 70
     1
102
RTVSPropertyOp19
 70
     1
102
RTVSPropertyOp20
 70
     1
102
RTVSPropertyOp21
 70
     1
102
RTVSPropertyOp22
 70
     1
102
RTVSPropertyOp23
 70
     1
102
RTVSPropertyOp24
 70
     1
102
RTVSPropertyOp25
 70
     1
102
RTVSPropertyOp26
 70
     1
102
RTVSPropertyOp27
 70
     1
102
RTVSPropertyOp28
 70
     1
102
RTVSPropertyOp29
 70
     1
102
RTVSPropertyOp30
 70
     1
102
RTVSPropertyOp31
 70
     1
102
RTVSPropertyOp32
 70
     1
102
RTVSPropertyOp33
 70
     1
102
RTVSPropertyOp34
 70
     1
102
RTVSPropertyOp35
 70
     1
102
RTVSPropertyOp36
 70
     1
102
RTVSPropertyOp37
 70
     1
102
RTVSPropertyOp38
 70
     1
102
RTVSPropertyOp39
 70
     1
102
RTVSPropertyOp40
 70
     1
102
RTVSPropertyOp41
 70
     1
102
RTVSPropertyOp42
 70
     1
102
RTVSPropertyOp43
 70
     1
102
RTVSPropertyOp44
 70
     1
102
RTVSPropertyOp45
 70
     1
102
RTVSPropertyOp46
 70
     1
102
RTVSPropertyOp47
 70
     1
102
RTVSPropertyOp48
 70
     1
102
RTVSPropertyOp49
 70
     1
102
RTVSPropertyOp50
 70
     1
102
RTVSPropertyOp51
 70
     0
102
RTVSPropertyOp52
 70
     0
102
RTVSPropertyOp53
 70
     1
102
RTVSPropertyOp54
 70
     1
102
RTVSPropertyOp55
 70
     1
102
RTVSPropertyOp56
 70
     1
102
RTVSPropertyOp57
 70
     1
102
RTVSPost2010Prop28
280
     0
102
RTVSPost2010PropOp28
 70
     1
102
RTVSPost2010Prop29
280
     1
102
RTVSPost2010PropOp29
 70
     1
102
RTVSPost2010Prop30
280
     1
102
RTVSPost2010PropOp30
 70
     1
102
RTVSPost2010Prop31
280
     0
102
RTVSPost2010PropOp31
 70
     1
102
RTVSPost2010Prop32
280
     0
102
RTVSPost2010PropOp32
 70
     1
102
RTVSPost2010Prop33
280
     0
102
RTVSPost2010PropOp33
 70
     1
102
RTVSPost2010Prop34
280
     0
102
RTVSPost2010PropOp34
 70
     1
102
RTVSPost2010Prop35
280
     0
102
RTVSPost2010PropOp35
 70
     1
102
RTVSPost2010Prop36
280
     0
102
RTVSPost2010PropOp36
 70
     1
102
RTVSPost2010Prop37
 90
       50
102
RTVSPost2010PropOp37
 70
     1
102
RTVSPost2010Prop38
140
0.0
102
RTVSPost2010PropOp38
 70
     1
102
RTVSPost2010Prop39
140
1.0
102
RTVSPost2010PropOp39
 70
     1
102
RTVSPost2010Prop40
 90
        0
102
RTVSPost2010PropOp40
 70
     1
102
RTVSPost2010Prop41ColorIndex
 90
       18
102
RTVSPost2010Prop41ColorRGB
 90
        0
102
RTVSPost2010PropOp41
 70
     1
102
RTVSPost2010Prop42
 90
       50
102
RTVSPost2010PropOp42
 70
     1
102
RTVSPost2010Prop43
 90
        3
102
RTVSPost2010PropOp43
 70
     1
102
RTVSPost2010Prop44ColorIndex
 90
        5
102
RTVSPost2010Prop44ColorRGB
 90
      255
102
RTVSPost2010PropOp44
 70
     1
102
RTVSPost2010Prop45
280
     0
102
RTVSPost2010PropOp45
 70
     1
102
RTVSPost2010Prop46
 90
       50
102
RTVSPost2010PropOp46
 70
     1
102
RTVSPost2010Prop47
 90
       50
102
RTVSPost2010PropOp47
 70
     1
102
RTVSPost2010Prop48
 90
       50
102
RTVSPost2010PropOp48
 70
     1
102
RTVSPost2010Prop49
280
     0
102
RTVSPost2010PropOp49
 70
     1
102
RTVSPost2010Prop50
 90
       50
102
RTVSPost2010PropOp50
 70
     1
102
RTVSPost2010Prop51ColorIndex
 90
      256
102
RTVSPost2010Prop51ColorRGB
 90
-16777216
102
RTVSPost2010PropOp51
 70
     0
102
RTVSPost2010Prop52
140
1.0
102
RTVSPost2010PropOp52
 70
     0
102
RTVSPost2010Prop53
 90
        2
102
RTVSPost2010PropOp53
 70
     1
102
RTVSPost2010Prop54
  1
strokes_ogs.tif
102
RTVSPost2010PropOp54
 70
     1
102
RTVSPost2010Prop55
280
     0
102
RTVSPost2010PropOp55
 70
     1
102
RTVSPost2010Prop56
140
1.0
102
RTVSPost2010PropOp56
 70
     1
102
RTVSPost2010Prop57
140
1.0
102
RTVSPost2010PropOp57
 70
     1
  0
XRECORD
  5
235
102
{ACAD_REACTORS
330
234
102
}
330
234
100
AcDbXrecord
280
     1
102
RTVSPropertyOp0
 70
     1
102
RTVSPropertyOp1
 70
     1
102
RTVSPropertyOp2
 70
     1
102
RTVSPropertyOp3
 70
     1
102
RTVSPropertyOp4
 70
     1
102
RTVSPropertyOp5
 70
     1
102
RTVSPropertyOp6
 70
     1
102
RTVSPropertyOp7
 70
     1
102
RTVSPropertyOp8
 70
     1
102
RTVSPropertyOp9
 70
     1
102
RTVSPropertyOp10
 70
     1
102
RTVSPropertyOp11
 70
     1
102
RTVSPropertyOp12
 70
     1
102
RTVSPropertyOp13
 70
     1
102
RTVSPropertyOp14
 70
     1
102
RTVSPropertyOp15
 70
     1
102
RTVSPropertyOp16
 70
     1
102
RTVSPropertyOp17
 70
     1
102
RTVSPropertyOp18
 70
     1
102
RTVSPropertyOp19
 70
     1
102
RTVSPropertyOp20
 70
     1
102
RTVSPropertyOp21
 70
     1
102
RTVSPropertyOp22
 70
     1
102
RTVSPropertyOp23
 70
     1
102
RTVSPropertyOp24
 70
     1
102
RTVSPropertyOp25
 70
     1
102
RTVSPropertyOp26
 70
     1
102
RTVSPropertyOp27
 70
     1
102
RTVSPropertyOp28
 70
     1
102
RTVSPropertyOp29
 70
     1
102
RTVSPropertyOp30
 70
     1
102
RTVSPropertyOp31
 70
     1
102
RTVSPropertyOp32
 70
     1
102
RTVSPropertyOp33
 70
     1
102
RTVSPropertyOp34
 70
     1
102
RTVSPropertyOp35
 70
     1
102
RTVSPropertyOp36
 70
     1
102
RTVSPropertyOp37
 70
     1
102
RTVSPropertyOp38
 70
     1
102
RTVSPropertyOp39
 70
     1
102
RTVSPropertyOp40
 70
     1
102
RTVSPropertyOp41
 70
     1
102
RTVSPropertyOp42
 70
     1
102
RTVSPropertyOp43
 70
     1
102
RTVSPropertyOp44
 70
     1
102
RTVSPropertyOp45
 70
     1
102
RTVSPropertyOp46
 70
     1
102
RTVSPropertyOp47
 70
     1
102
RTVSPropertyOp48
 70
     1
102
RTVSPropertyOp49
 70
     1
102
RTVSPropertyOp50
 70
     1
102
RTVSPropertyOp51
 70
     0
102
RTVSPropertyOp52
 70
     0
102
RTVSPropertyOp53
 70
     1
102
RTVSPropertyOp54
 70
     1
102
RTVSPropertyOp55
 70
     1
102
RTVSPropertyOp56
 70
     1
102
RTVSPropertyOp57
 70
     1
102
RTVSPost2010Prop28
280
     0
102
RTVSPost2010PropOp28
 70
     1
102
RTVSPost2010Prop29
280
     1
102
RTVSPost2010PropOp29
 70
     1
102
RTVSPost2010Prop30
280
     1
102
RTVSPost2010PropOp30
 70
     1
102
RTVSPost2010Prop31
280
     0
102
RTVSPost2010PropOp31
 70
     1
102
RTVSPost2010Prop32
280
     0
102
RTVSPost2010PropOp32
 70
     1
102
RTVSPost2010Prop33
280
     0
102
RTVSPost2010PropOp33
 70
     1
102
RTVSPost2010Prop34
280
     0
102
RTVSPost2010PropOp34
 70
     1
102
RTVSPost2010Prop35
280
     0
102
RTVSPost2010PropOp35
 70
     1
102
RTVSPost2010Prop36
280
     0
102
RTVSPost2010PropOp36
 70
     1
102
RTVSPost2010Prop37
 90
       50
102
RTVSPost2010PropOp37
 70
     1
102
RTVSPost2010Prop38
140
0.0
102
RTVSPost2010PropOp38
 70
     1
102
RTVSPost2010Prop39
140
1.0
102
RTVSPost2010PropOp39
 70
     1
102
RTVSPost2010Prop40
 90
        0
102
RTVSPost2010PropOp40
 70
     1
102
RTVSPost2010Prop41ColorIndex
 90
       18
102
RTVSPost2010Prop41ColorRGB
 90
        0
102
RTVSPost2010PropOp41
 70
     1
102
RTVSPost2010Prop42
 90
       50
102
RTVSPost2010PropOp42
 70
     1
102
RTVSPost2010Prop43
 90
        3
102
RTVSPost2010PropOp43
 70
     1
102
RTVSPost2010Prop44ColorIndex
 90
        5
102
RTVSPost2010Prop44ColorRGB
 90
      255
102
RTVSPost2010PropOp44
 70
     1
102
RTVSPost2010Prop45
280
     0
102
RTVSPost2010PropOp45
 70
     1
102
RTVSPost2010Prop46
 90
       50
102
RTVSPost2010PropOp46
 70
     1
102
RTVSPost2010Prop47
 90
       50
102
RTVSPost2010PropOp47
 70
     1
102
RTVSPost2010Prop48
 90
       50
102
RTVSPost2010PropOp48
 70
     1
102
RTVSPost2010Prop49
280
     0
102
RTVSPost2010PropOp49
 70
     1
102
RTVSPost2010Prop50
 90
       50
102
RTVSPost2010PropOp50
 70
     1
102
RTVSPost2010Prop51ColorIndex
 90
      256
102
RTVSPost2010Prop51ColorRGB
 90
-16777216
102
RTVSPost2010PropOp51
 70
     0
102
RTVSPost2010Prop52
140
1.0
102
RTVSPost2010PropOp52
 70
     0
102
RTVSPost2010Prop53
 90
        2
102
RTVSPost2010PropOp53
 70
     1
102
RTVSPost2010Prop54
  1
strokes_ogs.tif
102
RTVSPost2010PropOp54
 70
     1
102
RTVSPost2010Prop55
280
     0
102
RTVSPost2010PropOp55
 70
     1
102
RTVSPost2010Prop56
140
1.0
102
RTVSPost2010PropOp56
 70
     1
102
RTVSPost2010Prop57
140
1.0
102
RTVSPost2010PropOp57
 70
     1
  0
XRECORD
  5
23D
102
{ACAD_REACTORS
330
23C
102
}
330
23C
100
AcDbXrecord
280
     1
102
RTVSPropertyOp0
 70
     1
102
RTVSPropertyOp1
 70
     1
102
RTVSPropertyOp2
 70
     1
102
RTVSPropertyOp3
 70
     1
102
RTVSPropertyOp4
 70
     1
102
RTVSPropertyOp5
 70
     1
102
RTVSPropertyOp6
 70
     1
102
RTVSPropertyOp7
 70
     1
102
RTVSPropertyOp8
 70
     1
102
RTVSPropertyOp9
 70
     1
102
RTVSPropertyOp10
 70
     1
102
RTVSPropertyOp11
 70
     1
102
RTVSPropertyOp12
 70
     1
102
RTVSPropertyOp13
 70
     1
102
RTVSPropertyOp14
 70
     1
102
RTVSPropertyOp15
 70
     1
102
RTVSPropertyOp16
 70
     1
102
RTVSPropertyOp17
 70
     1
102
RTVSPropertyOp18
 70
     1
102
RTVSPropertyOp19
 70
     1
102
RTVSPropertyOp20
 70
     1
102
RTVSPropertyOp21
 70
     1
102
RTVSPropertyOp22
 70
     1
102
RTVSPropertyOp23
 70
     1
102
RTVSPropertyOp24
 70
     1
102
RTVSPropertyOp25
 70
     1
102
RTVSPropertyOp26
 70
     1
102
RTVSPropertyOp27
 70
     1
102
RTVSPropertyOp28
 70
     1
102
RTVSPropertyOp29
 70
     1
102
RTVSPropertyOp30
 70
     1
102
RTVSPropertyOp31
 70
     1
102
RTVSPropertyOp32
 70
     1
102
RTVSPropertyOp33
 70
     1
102
RTVSPropertyOp34
 70
     1
102
RTVSPropertyOp35
 70
     1
102
RTVSPropertyOp36
 70
     1
102
RTVSPropertyOp37
 70
     1
102
RTVSPropertyOp38
 70
     1
102
RTVSPropertyOp39
 70
     1
102
RTVSPropertyOp40
 70
     1
102
RTVSPropertyOp41
 70
     1
102
RTVSPropertyOp42
 70
     1
102
RTVSPropertyOp43
 70
     1
102
RTVSPropertyOp44
 70
     1
102
RTVSPropertyOp45
 70
     1
102
RTVSPropertyOp46
 70
     1
102
RTVSPropertyOp47
 70
     1
102
RTVSPropertyOp48
 70
     1
102
RTVSPropertyOp49
 70
     1
102
RTVSPropertyOp50
 70
     1
102
RTVSPropertyOp51
 70
     0
102
RTVSPropertyOp52
 70
     0
102
RTVSPropertyOp53
 70
     1
102
RTVSPropertyOp54
 70
     1
102
RTVSPropertyOp55
 70
     1
102
RTVSPropertyOp56
 70
     1
102
RTVSPropertyOp57
 70
     1
102
RTVSPost2010Prop28
280
     0
102
RTVSPost2010PropOp28
 70
     1
102
RTVSPost2010Prop29
280
     1
102
RTVSPost2010PropOp29
 70
     1
102
RTVSPost2010Prop30
280
     1
102
RTVSPost2010PropOp30
 70
     1
102
RTVSPost2010Prop31
280
     0
102
RTVSPost2010PropOp31
 70
     1
102
RTVSPost2010Prop32
280
     0
102
RTVSPost2010PropOp32
 70
     1
102
RTVSPost2010Prop33
280
     0
102
RTVSPost2010PropOp33
 70
     1
102
RTVSPost2010Prop34
280
     0
102
RTVSPost2010PropOp34
 70
     1
102
RTVSPost2010Prop35
280
     0
102
RTVSPost2010PropOp35
 70
     1
102
RTVSPost2010Prop36
280
     0
102
RTVSPost2010PropOp36
 70
     1
102
RTVSPost2010Prop37
 90
       50
102
RTVSPost2010PropOp37
 70
     1
102
RTVSPost2010Prop38
140
0.0
102
RTVSPost2010PropOp38
 70
     1
102
RTVSPost2010Prop39
140
1.0
102
RTVSPost2010PropOp39
 70
     1
102
RTVSPost2010Prop40
 90
        0
102
RTVSPost2010PropOp40
 70
     1
102
RTVSPost2010Prop41ColorIndex
 90
       18
102
RTVSPost2010Prop41ColorRGB
 90
        0
102
RTVSPost2010PropOp41
 70
     1
102
RTVSPost2010Prop42
 90
       50
102
RTVSPost2010PropOp42
 70
     1
102
RTVSPost2010Prop43
 90
        3
102
RTVSPost2010PropOp43
 70
     1
102
RTVSPost2010Prop44ColorIndex
 90
        5
102
RTVSPost2010Prop44ColorRGB
 90
      255
102
RTVSPost2010PropOp44
 70
     1
102
RTVSPost2010Prop45
280
     0
102
RTVSPost2010PropOp45
 70
     1
102
RTVSPost2010Prop46
 90
       50
102
RTVSPost2010PropOp46
 70
     1
102
RTVSPost2010Prop47
 90
       50
102
RTVSPost2010PropOp47
 70
     1
102
RTVSPost2010Prop48
 90
       50
102
RTVSPost2010PropOp48
 70
     1
102
RTVSPost2010Prop49
280
     0
102
RTVSPost2010PropOp49
 70
     1
102
RTVSPost2010Prop50
 90
       50
102
RTVSPost2010PropOp50
 70
     1
102
RTVSPost2010Prop51ColorIndex
 90
      256
102
RTVSPost2010Prop51ColorRGB
 90
-16777216
102
RTVSPost2010PropOp51
 70
     0
102
RTVSPost2010Prop52
140
1.0
102
RTVSPost2010PropOp52
 70
     0
102
RTVSPost2010Prop53
 90
        2
102
RTVSPost2010PropOp53
 70
     1
102
RTVSPost2010Prop54
  1
strokes_ogs.tif
102
RTVSPost2010PropOp54
 70
     1
102
RTVSPost2010Prop55
280
     0
102
RTVSPost2010PropOp55
 70
     1
102
RTVSPost2010Prop56
140
1.0
102
RTVSPost2010PropOp56
 70
     1
102
RTVSPost2010Prop57
140
1.0
102
RTVSPost2010PropOp57
 70
     1
  0
XRECORD
  5
231
102
{ACAD_REACTORS
330
230
102
}
330
230
100
AcDbXrecord
280
     1
102
RTVSPropertyOp0
 70
     1
102
RTVSPropertyOp1
 70
     1
102
RTVSPropertyOp2
 70
     1
102
RTVSPropertyOp3
 70
     1
102
RTVSPropertyOp4
 70
     1
102
RTVSPropertyOp5
 70
     1
102
RTVSPropertyOp6
 70
     1
102
RTVSPropertyOp7
 70
     1
102
RTVSPropertyOp8
 70
     1
102
RTVSPropertyOp9
 70
     1
102
RTVSPropertyOp10
 70
     1
102
RTVSPropertyOp11
 70
     1
102
RTVSPropertyOp12
 70
     1
102
RTVSPropertyOp13
 70
     1
102
RTVSPropertyOp14
 70
     1
102
RTVSPropertyOp15
 70
     1
102
RTVSPropertyOp16
 70
     1
102
RTVSPropertyOp17
 70
     1
102
RTVSPropertyOp18
 70
     1
102
RTVSPropertyOp19
 70
     1
102
RTVSPropertyOp20
 70
     1
102
RTVSPropertyOp21
 70
     1
102
RTVSPropertyOp22
 70
     1
102
RTVSPropertyOp23
 70
     1
102
RTVSPropertyOp24
 70
     1
102
RTVSPropertyOp25
 70
     1
102
RTVSPropertyOp26
 70
     1
102
RTVSPropertyOp27
 70
     1
102
RTVSPropertyOp28
 70
     1
102
RTVSPropertyOp29
 70
     1
102
RTVSPropertyOp30
 70
     1
102
RTVSPropertyOp31
 70
     1
102
RTVSPropertyOp32
 70
     1
102
RTVSPropertyOp33
 70
     1
102
RTVSPropertyOp34
 70
     1
102
RTVSPropertyOp35
 70
     1
102
RTVSPropertyOp36
 70
     1
102
RTVSPropertyOp37
 70
     1
102
RTVSPropertyOp38
 70
     1
102
RTVSPropertyOp39
 70
     1
102
RTVSPropertyOp40
 70
     1
102
RTVSPropertyOp41
 70
     1
102
RTVSPropertyOp42
 70
     1
102
RTVSPropertyOp43
 70
     1
102
RTVSPropertyOp44
 70
     1
102
RTVSPropertyOp45
 70
     1
102
RTVSPropertyOp46
 70
     1
102
RTVSPropertyOp47
 70
     1
102
RTVSPropertyOp48
 70
     1
102
RTVSPropertyOp49
 70
     1
102
RTVSPropertyOp50
 70
     1
102
RTVSPropertyOp51
 70
     0
102
RTVSPropertyOp52
 70
     0
102
RTVSPropertyOp53
 70
     1
102
RTVSPropertyOp54
 70
     1
102
RTVSPropertyOp55
 70
     1
102
RTVSPropertyOp56
 70
     1
102
RTVSPropertyOp57
 70
     1
102
RTVSPost2010Prop28
280
     0
102
RTVSPost2010PropOp28
 70
     1
102
RTVSPost2010Prop29
280
     1
102
RTVSPost2010PropOp29
 70
     1
102
RTVSPost2010Prop30
280
     1
102
RTVSPost2010PropOp30
 70
     1
102
RTVSPost2010Prop31
280
     0
102
RTVSPost2010PropOp31
 70
     1
102
RTVSPost2010Prop32
280
     0
102
RTVSPost2010PropOp32
 70
     1
102
RTVSPost2010Prop33
280
     0
102
RTVSPost2010PropOp33
 70
     1
102
RTVSPost2010Prop34
280
     0
102
RTVSPost2010PropOp34
 70
     1
102
RTVSPost2010Prop35
280
     0
102
RTVSPost2010PropOp35
 70
     1
102
RTVSPost2010Prop36
280
     0
102
RTVSPost2010PropOp36
 70
     1
102
RTVSPost2010Prop37
 90
       50
102
RTVSPost2010PropOp37
 70
     1
102
RTVSPost2010Prop38
140
0.0
102
RTVSPost2010PropOp38
 70
     1
102
RTVSPost2010Prop39
140
1.0
102
RTVSPost2010PropOp39
 70
     1
102
RTVSPost2010Prop40
 90
        0
102
RTVSPost2010PropOp40
 70
     1
102
RTVSPost2010Prop41ColorIndex
 90
       18
102
RTVSPost2010Prop41ColorRGB
 90
        0
102
RTVSPost2010PropOp41
 70
     1
102
RTVSPost2010Prop42
 90
       50
102
RTVSPost2010PropOp42
 70
     1
102
RTVSPost2010Prop43
 90
        3
102
RTVSPost2010PropOp43
 70
     1
102
RTVSPost2010Prop44ColorIndex
 90
        5
102
RTVSPost2010Prop44ColorRGB
 90
      255
102
RTVSPost2010PropOp44
 70
     1
102
RTVSPost2010Prop45
280
     0
102
RTVSPost2010PropOp45
 70
     1
102
RTVSPost2010Prop46
 90
       50
102
RTVSPost2010PropOp46
 70
     1
102
RTVSPost2010Prop47
 90
       50
102
RTVSPost2010PropOp47
 70
     1
102
RTVSPost2010Prop48
 90
       50
102
RTVSPost2010PropOp48
 70
     1
102
RTVSPost2010Prop49
280
     0
102
RTVSPost2010PropOp49
 70
     1
102
RTVSPost2010Prop50
 90
       50
102
RTVSPost2010PropOp50
 70
     1
102
RTVSPost2010Prop51ColorIndex
 90
      256
102
RTVSPost2010Prop51ColorRGB
 90
-16777216
102
RTVSPost2010PropOp51
 70
     0
102
RTVSPost2010Prop52
140
1.0
102
RTVSPost2010PropOp52
 70
     0
102
RTVSPost2010Prop53
 90
        2
102
RTVSPost2010PropOp53
 70
     1
102
RTVSPost2010Prop54
  1
strokes_ogs.tif
102
RTVSPost2010PropOp54
 70
     1
102
RTVSPost2010Prop55
280
     0
102
RTVSPost2010PropOp55
 70
     1
102
RTVSPost2010Prop56
140
1.0
102
RTVSPost2010PropOp56
 70
     1
102
RTVSPost2010Prop57
140
1.0
102
RTVSPost2010PropOp57
 70
     1
  0
XRECORD
  5
233
102
{ACAD_REACTORS
330
232
102
}
330
232
100
AcDbXrecord
280
     1
102
RTVSPropertyOp0
 70
     1
102
RTVSPropertyOp1
 70
     1
102
RTVSPropertyOp2
 70
     1
102
RTVSPropertyOp3
 70
     1
102
RTVSPropertyOp4
 70
     1
102
RTVSPropertyOp5
 70
     1
102
RTVSPropertyOp6
 70
     1
102
RTVSPropertyOp7
 70
     1
102
RTVSPropertyOp8
 70
     1
102
RTVSPropertyOp9
 70
     1
102
RTVSPropertyOp10
 70
     1
102
RTVSPropertyOp11
 70
     1
102
RTVSPropertyOp12
 70
     1
102
RTVSPropertyOp13
 70
     1
102
RTVSPropertyOp14
 70
     1
102
RTVSPropertyOp15
 70
     1
102
RTVSPropertyOp16
 70
     1
102
RTVSPropertyOp17
 70
     1
102
RTVSPropertyOp18
 70
     1
102
RTVSPropertyOp19
 70
     1
102
RTVSPropertyOp20
 70
     1
102
RTVSPropertyOp21
 70
     1
102
RTVSPropertyOp22
 70
     1
102
RTVSPropertyOp23
 70
     1
102
RTVSPropertyOp24
 70
     1
102
RTVSPropertyOp25
 70
     1
102
RTVSPropertyOp26
 70
     1
102
RTVSPropertyOp27
 70
     1
102
RTVSPropertyOp28
 70
     1
102
RTVSPropertyOp29
 70
     1
102
RTVSPropertyOp30
 70
     1
102
RTVSPropertyOp31
 70
     1
102
RTVSPropertyOp32
 70
     1
102
RTVSPropertyOp33
 70
     1
102
RTVSPropertyOp34
 70
     1
102
RTVSPropertyOp35
 70
     1
102
RTVSPropertyOp36
 70
     1
102
RTVSPropertyOp37
 70
     1
102
RTVSPropertyOp38
 70
     1
102
RTVSPropertyOp39
 70
     1
102
RTVSPropertyOp40
 70
     1
102
RTVSPropertyOp41
 70
     1
102
RTVSPropertyOp42
 70
     1
102
RTVSPropertyOp43
 70
     1
102
RTVSPropertyOp44
 70
     1
102
RTVSPropertyOp45
 70
     1
102
RTVSPropertyOp46
 70
     1
102
RTVSPropertyOp47
 70
     1
102
RTVSPropertyOp48
 70
     1
102
RTVSPropertyOp49
 70
     1
102
RTVSPropertyOp50
 70
     1
102
RTVSPropertyOp51
 70
     0
102
RTVSPropertyOp52
 70
     0
102
RTVSPropertyOp53
 70
     1
102
RTVSPropertyOp54
 70
     1
102
RTVSPropertyOp55
 70
     1
102
RTVSPropertyOp56
 70
     1
102
RTVSPropertyOp57
 70
     1
102
RTVSPost2010Prop28
280
     0
102
RTVSPost2010PropOp28
 70
     1
102
RTVSPost2010Prop29
280
     1
102
RTVSPost2010PropOp29
 70
     1
102
RTVSPost2010Prop30
280
     1
102
RTVSPost2010PropOp30
 70
     1
102
RTVSPost2010Prop31
280
     0
102
RTVSPost2010PropOp31
 70
     1
102
RTVSPost2010Prop32
280
     0
102
RTVSPost2010PropOp32
 70
     1
102
RTVSPost2010Prop33
280
     0
102
RTVSPost2010PropOp33
 70
     1
102
RTVSPost2010Prop34
280
     0
102
RTVSPost2010PropOp34
 70
     1
102
RTVSPost2010Prop35
280
     0
102
RTVSPost2010PropOp35
 70
     1
102
RTVSPost2010Prop36
280
     0
102
RTVSPost2010PropOp36
 70
     1
102
RTVSPost2010Prop37
 90
       50
102
RTVSPost2010PropOp37
 70
     1
102
RTVSPost2010Prop38
140
0.0
102
RTVSPost2010PropOp38
 70
     1
102
RTVSPost2010Prop39
140
1.0
102
RTVSPost2010PropOp39
 70
     1
102
RTVSPost2010Prop40
 90
        0
102
RTVSPost2010PropOp40
 70
     1
102
RTVSPost2010Prop41ColorIndex
 90
       18
102
RTVSPost2010Prop41ColorRGB
 90
        0
102
RTVSPost2010PropOp41
 70
     1
102
RTVSPost2010Prop42
 90
       50
102
RTVSPost2010PropOp42
 70
     1
102
RTVSPost2010Prop43
 90
        3
102
RTVSPost2010PropOp43
 70
     1
102
RTVSPost2010Prop44ColorIndex
 90
        5
102
RTVSPost2010Prop44ColorRGB
 90
      255
102
RTVSPost2010PropOp44
 70
     1
102
RTVSPost2010Prop45
280
     0
102
RTVSPost2010PropOp45
 70
     1
102
RTVSPost2010Prop46
 90
       50
102
RTVSPost2010PropOp46
 70
     1
102
RTVSPost2010Prop47
 90
       50
102
RTVSPost2010PropOp47
 70
     1
102
RTVSPost2010Prop48
 90
       50
102
RTVSPost2010PropOp48
 70
     1
102
RTVSPost2010Prop49
280
     0
102
RTVSPost2010PropOp49
 70
     1
102
RTVSPost2010Prop50
 90
       50
102
RTVSPost2010PropOp50
 70
     1
102
RTVSPost2010Prop51ColorIndex
 90
      256
102
RTVSPost2010Prop51ColorRGB
 90
-16777216
102
RTVSPost2010PropOp51
 70
     0
102
RTVSPost2010Prop52
140
1.0
102
RTVSPost2010PropOp52
 70
     0
102
RTVSPost2010Prop53
 90
        2
102
RTVSPost2010PropOp53
 70
     1
102
RTVSPost2010Prop54
  1
strokes_ogs.tif
102
RTVSPost2010PropOp54
 70
     1
102
RTVSPost2010Prop55
280
     0
102
RTVSPost2010PropOp55
 70
     1
102
RTVSPost2010Prop56
140
1.0
102
RTVSPost2010PropOp56
 70
     1
102
RTVSPost2010Prop57
140
1.0
102
RTVSPost2010PropOp57
 70
     1
  0
XRECORD
  5
243
102
{ACAD_REACTORS
330
242
102
}
330
242
100
AcDbXrecord
280
     1
102
RTVSPropertyOp0
 70
     0
102
RTVSPropertyOp1
 70
     0
102
RTVSPropertyOp2
 70
     0
102
RTVSPropertyOp3
 70
     0
102
RTVSPropertyOp4
 70
     0
102
RTVSPropertyOp5
 70
     0
102
RTVSPropertyOp6
 70
     0
102
RTVSPropertyOp7
 70
     0
102
RTVSPropertyOp8
 70
     0
102
RTVSPropertyOp9
 70
     0
102
RTVSPropertyOp10
 70
     0
102
RTVSPropertyOp11
 70
     0
102
RTVSPropertyOp12
 70
     0
102
RTVSPropertyOp13
 70
     0
102
RTVSPropertyOp14
 70
     2
102
RTVSPropertyOp15
 70
     0
102
RTVSPropertyOp16
 70
     0
102
RTVSPropertyOp17
 70
     0
102
RTVSPropertyOp18
 70
     0
102
RTVSPropertyOp19
 70
     0
102
RTVSPropertyOp20
 70
     0
102
RTVSPropertyOp21
 70
     0
102
RTVSPropertyOp22
 70
     0
102
RTVSPropertyOp23
 70
     0
102
RTVSPropertyOp24
 70
     0
102
RTVSPropertyOp25
 70
     0
102
RTVSPropertyOp26
 70
     0
102
RTVSPropertyOp27
 70
     0
102
RTVSPropertyOp28
 70
     0
102
RTVSPropertyOp29
 70
     0
102
RTVSPropertyOp30
 70
     0
102
RTVSPropertyOp31
 70
     0
102
RTVSPropertyOp32
 70
     0
102
RTVSPropertyOp33
 70
     0
102
RTVSPropertyOp34
 70
     0
102
RTVSPropertyOp35
 70
     0
102
RTVSPropertyOp36
 70
     0
102
RTVSPropertyOp37
 70
     0
102
RTVSPropertyOp38
 70
     0
102
RTVSPropertyOp39
 70
     0
102
RTVSPropertyOp40
 70
     0
102
RTVSPropertyOp41
 70
     0
102
RTVSPropertyOp42
 70
     0
102
RTVSPropertyOp43
 70
     0
102
RTVSPropertyOp44
 70
     0
102
RTVSPropertyOp45
 70
     0
102
RTVSPropertyOp46
 70
     0
102
RTVSPropertyOp47
 70
     0
102
RTVSPropertyOp48
 70
     0
102
RTVSPropertyOp49
 70
     0
102
RTVSPropertyOp50
 70
     0
102
RTVSPropertyOp51
 70
     0
102
RTVSPropertyOp52
 70
     0
102
RTVSPropertyOp53
 70
     0
102
RTVSPropertyOp54
 70
     0
102
RTVSPropertyOp55
 70
     0
102
RTVSPropertyOp56
 70
     0
102
RTVSPropertyOp57
 70
     0
102
RTVSPost2010Prop28
280
     0
102
RTVSPost2010PropOp28
 70
     0
102
RTVSPost2010Prop29
280
     1
102
RTVSPost2010PropOp29
 70
     0
102
RTVSPost2010Prop30
280
     1
102
RTVSPost2010PropOp30
 70
     0
102
RTVSPost2010Prop31
280
     0
102
RTVSPost2010PropOp31
 70
     0
102
RTVSPost2010Prop32
280
     0
102
RTVSPost2010PropOp32
 70
     0
102
RTVSPost2010Prop33
280
     0
102
RTVSPost2010PropOp33
 70
     0
102
RTVSPost2010Prop34
280
     0
102
RTVSPost2010PropOp34
 70
     0
102
RTVSPost2010Prop35
280
     0
102
RTVSPost2010PropOp35
 70
     0
102
RTVSPost2010Prop36
280
     0
102
RTVSPost2010PropOp36
 70
     0
102
RTVSPost2010Prop37
 90
       50
102
RTVSPost2010PropOp37
 70
     0
102
RTVSPost2010Prop38
140
0.0
102
RTVSPost2010PropOp38
 70
     0
102
RTVSPost2010Prop39
140
1.0
102
RTVSPost2010PropOp39
 70
     0
102
RTVSPost2010Prop40
 90
        0
102
RTVSPost2010PropOp40
 70
     0
102
RTVSPost2010Prop41ColorIndex
 90
       18
102
RTVSPost2010Prop41ColorRGB
 90
        0
102
RTVSPost2010PropOp41
 70
     0
102
RTVSPost2010Prop42
 90
       50
102
RTVSPost2010PropOp42
 70
     0
102
RTVSPost2010Prop43
 90
        3
102
RTVSPost2010PropOp43
 70
     0
102
RTVSPost2010Prop44ColorIndex
 90
        5
102
RTVSPost2010Prop44ColorRGB
 90
      255
102
RTVSPost2010PropOp44
 70
     0
102
RTVSPost2010Prop45
280
     0
102
RTVSPost2010PropOp45
 70
     0
102
RTVSPost2010Prop46
 90
       50
102
RTVSPost2010PropOp46
 70
     0
102
RTVSPost2010Prop47
 90
       50
102
RTVSPost2010PropOp47
 70
     0
102
RTVSPost2010Prop48
 90
       50
102
RTVSPost2010PropOp48
 70
     0
102
RTVSPost2010Prop49
280
     0
102
RTVSPost2010PropOp49
 70
     0
102
RTVSPost2010Prop50
 90
       50
102
RTVSPost2010PropOp50
 70
     0
102
RTVSPost2010Prop51ColorIndex
 90
      256
102
RTVSPost2010Prop51ColorRGB
 90
-16777216
102
RTVSPost2010PropOp51
 70
     0
102
RTVSPost2010Prop52
140
1.0
102
RTVSPost2010PropOp52
 70
     0
102
RTVSPost2010Prop53
 90
        2
102
RTVSPost2010PropOp53
 70
     0
102
RTVSPost2010Prop54
  1
strokes_ogs.tif
102
RTVSPost2010PropOp54
 70
     0
102
RTVSPost2010Prop55
280
     0
102
RTVSPost2010PropOp55
 70
     0
102
RTVSPost2010Prop56
140
1.0
102
RTVSPost2010PropOp56
 70
     0
102
RTVSPost2010Prop57
140
1.0
102
RTVSPost2010PropOp57
 70
     0
  0
XRECORD
  5
23B
102
{ACAD_REACTORS
330
23A
102
}
330
23A
100
AcDbXrecord
280
     1
102
RTVSPropertyOp0
 70
     1
102
RTVSPropertyOp1
 70
     1
102
RTVSPropertyOp2
 70
     1
102
RTVSPropertyOp3
 70
     1
102
RTVSPropertyOp4
 70
     1
102
RTVSPropertyOp5
 70
     1
102
RTVSPropertyOp6
 70
     1
102
RTVSPropertyOp7
 70
     1
102
RTVSPropertyOp8
 70
     1
102
RTVSPropertyOp9
 70
     1
102
RTVSPropertyOp10
 70
     1
102
RTVSPropertyOp11
 70
     1
102
RTVSPropertyOp12
 70
     1
102
RTVSPropertyOp13
 70
     1
102
RTVSPropertyOp14
 70
     1
102
RTVSPropertyOp15
 70
     1
102
RTVSPropertyOp16
 70
     1
102
RTVSPropertyOp17
 70
     1
102
RTVSPropertyOp18
 70
     1
102
RTVSPropertyOp19
 70
     1
102
RTVSPropertyOp20
 70
     1
102
RTVSPropertyOp21
 70
     1
102
RTVSPropertyOp22
 70
     1
102
RTVSPropertyOp23
 70
     1
102
RTVSPropertyOp24
 70
     1
102
RTVSPropertyOp25
 70
     1
102
RTVSPropertyOp26
 70
     1
102
RTVSPropertyOp27
 70
     1
102
RTVSPropertyOp28
 70
     1
102
RTVSPropertyOp29
 70
     1
102
RTVSPropertyOp30
 70
     1
102
RTVSPropertyOp31
 70
     1
102
RTVSPropertyOp32
 70
     1
102
RTVSPropertyOp33
 70
     1
102
RTVSPropertyOp34
 70
     1
102
RTVSPropertyOp35
 70
     1
102
RTVSPropertyOp36
 70
     1
102
RTVSPropertyOp37
 70
     1
102
RTVSPropertyOp38
 70
     1
102
RTVSPropertyOp39
 70
     1
102
RTVSPropertyOp40
 70
     1
102
RTVSPropertyOp41
 70
     1
102
RTVSPropertyOp42
 70
     1
102
RTVSPropertyOp43
 70
     1
102
RTVSPropertyOp44
 70
     1
102
RTVSPropertyOp45
 70
     1
102
RTVSPropertyOp46
 70
     1
102
RTVSPropertyOp47
 70
     1
102
RTVSPropertyOp48
 70
     1
102
RTVSPropertyOp49
 70
     1
102
RTVSPropertyOp50
 70
     1
102
RTVSPropertyOp51
 70
     0
102
RTVSPropertyOp52
 70
     0
102
RTVSPropertyOp53
 70
     1
102
RTVSPropertyOp54
 70
     1
102
RTVSPropertyOp55
 70
     1
102
RTVSPropertyOp56
 70
     1
102
RTVSPropertyOp57
 70
     1
102
RTVSPost2010Prop28
280
     0
102
RTVSPost2010PropOp28
 70
     1
102
RTVSPost2010Prop29
280
     1
102
RTVSPost2010PropOp29
 70
     1
102
RTVSPost2010Prop30
280
     1
102
RTVSPost2010PropOp30
 70
     1
102
RTVSPost2010Prop31
280
     0
102
RTVSPost2010PropOp31
 70
     1
102
RTVSPost2010Prop32
280
     0
102
RTVSPost2010PropOp32
 70
     1
102
RTVSPost2010Prop33
280
     0
102
RTVSPost2010PropOp33
 70
     1
102
RTVSPost2010Prop34
280
     0
102
RTVSPost2010PropOp34
 70
     1
102
RTVSPost2010Prop35
280
     0
102
RTVSPost2010PropOp35
 70
     1
102
RTVSPost2010Prop36
280
     0
102
RTVSPost2010PropOp36
 70
     1
102
RTVSPost2010Prop37
 90
       50
102
RTVSPost2010PropOp37
 70
     1
102
RTVSPost2010Prop38
140
0.0
102
RTVSPost2010PropOp38
 70
     1
102
RTVSPost2010Prop39
140
1.0
102
RTVSPost2010PropOp39
 70
     1
102
RTVSPost2010Prop40
 90
        0
102
RTVSPost2010PropOp40
 70
     1
102
RTVSPost2010Prop41ColorIndex
 90
       18
102
RTVSPost2010Prop41ColorRGB
 90
        0
102
RTVSPost2010PropOp41
 70
     1
102
RTVSPost2010Prop42
 90
       50
102
RTVSPost2010PropOp42
 70
     1
102
RTVSPost2010Prop43
 90
        3
102
RTVSPost2010PropOp43
 70
     1
102
RTVSPost2010Prop44ColorIndex
 90
        5
102
RTVSPost2010Prop44ColorRGB
 90
      255
102
RTVSPost2010PropOp44
 70
     1
102
RTVSPost2010Prop45
280
     0
102
RTVSPost2010PropOp45
 70
     1
102
RTVSPost2010Prop46
 90
       50
102
RTVSPost2010PropOp46
 70
     1
102
RTVSPost2010Prop47
 90
       50
102
RTVSPost2010PropOp47
 70
     1
102
RTVSPost2010Prop48
 90
       50
102
RTVSPost2010PropOp48
 70
     1
102
RTVSPost2010Prop49
280
     0
102
RTVSPost2010PropOp49
 70
     1
102
RTVSPost2010Prop50
 90
       50
102
RTVSPost2010PropOp50
 70
     1
102
RTVSPost2010Prop51ColorIndex
 90
      256
102
RTVSPost2010Prop51ColorRGB
 90
-16777216
102
RTVSPost2010PropOp51
 70
     0
102
RTVSPost2010Prop52
140
1.0
102
RTVSPost2010PropOp52
 70
     0
102
RTVSPost2010Prop53
 90
        2
102
RTVSPost2010PropOp53
 70
     1
102
RTVSPost2010Prop54
  1
strokes_ogs.tif
102
RTVSPost2010PropOp54
 70
     1
102
RTVSPost2010Prop55
280
     0
102
RTVSPost2010PropOp55
 70
     1
102
RTVSPost2010Prop56
140
1.0
102
RTVSPost2010PropOp56
 70
     1
102
RTVSPost2010Prop57
140
1.0
102
RTVSPost2010PropOp57
 70
     1
  0
XRECORD
  5
21F
102
{ACAD_REACTORS
330
21E
102
}
330
21E
100
AcDbXrecord
280
     1
102
RTVSPropertyOp0
 70
     1
102
RTVSPropertyOp1
 70
     1
102
RTVSPropertyOp2
 70
     1
102
RTVSPropertyOp3
 70
     1
102
RTVSPropertyOp4
 70
     1
102
RTVSPropertyOp5
 70
     1
102
RTVSPropertyOp6
 70
     1
102
RTVSPropertyOp7
 70
     1
102
RTVSPropertyOp8
 70
     1
102
RTVSPropertyOp9
 70
     1
102
RTVSPropertyOp10
 70
     1
102
RTVSPropertyOp11
 70
     1
102
RTVSPropertyOp12
 70
     1
102
RTVSPropertyOp13
 70
     1
102
RTVSPropertyOp14
 70
     1
102
RTVSPropertyOp15
 70
     1
102
RTVSPropertyOp16
 70
     1
102
RTVSPropertyOp17
 70
     1
102
RTVSPropertyOp18
 70
     1
102
RTVSPropertyOp19
 70
     1
102
RTVSPropertyOp20
 70
     1
102
RTVSPropertyOp21
 70
     1
102
RTVSPropertyOp22
 70
     1
102
RTVSPropertyOp23
 70
     1
102
RTVSPropertyOp24
 70
     1
102
RTVSPropertyOp25
 70
     1
102
RTVSPropertyOp26
 70
     1
102
RTVSPropertyOp27
 70
     1
102
RTVSPropertyOp28
 70
     1
102
RTVSPropertyOp29
 70
     1
102
RTVSPropertyOp30
 70
     1
102
RTVSPropertyOp31
 70
     1
102
RTVSPropertyOp32
 70
     1
102
RTVSPropertyOp33
 70
     1
102
RTVSPropertyOp34
 70
     1
102
RTVSPropertyOp35
 70
     1
102
RTVSPropertyOp36
 70
     1
102
RTVSPropertyOp37
 70
     1
102
RTVSPropertyOp38
 70
     1
102
RTVSPropertyOp39
 70
     1
102
RTVSPropertyOp40
 70
     1
102
RTVSPropertyOp41
 70
     1
102
RTVSPropertyOp42
 70
     1
102
RTVSPropertyOp43
 70
     1
102
RTVSPropertyOp44
 70
     1
102
RTVSPropertyOp45
 70
     1
102
RTVSPropertyOp46
 70
     1
102
RTVSPropertyOp47
 70
     1
102
RTVSPropertyOp48
 70
     1
102
RTVSPropertyOp49
 70
     1
102
RTVSPropertyOp50
 70
     1
102
RTVSPropertyOp51
 70
     0
102
RTVSPropertyOp52
 70
     0
102
RTVSPropertyOp53
 70
     1
102
RTVSPropertyOp54
 70
     1
102
RTVSPropertyOp55
 70
     1
102
RTVSPropertyOp56
 70
     1
102
RTVSPropertyOp57
 70
     1
102
RTVSPost2010Prop28
280
     0
102
RTVSPost2010PropOp28
 70
     1
102
RTVSPost2010Prop29
280
     1
102
RTVSPost2010PropOp29
 70
     1
102
RTVSPost2010Prop30
280
     1
102
RTVSPost2010PropOp30
 70
     1
102
RTVSPost2010Prop31
280
     0
102
RTVSPost2010PropOp31
 70
     1
102
RTVSPost2010Prop32
280
     0
102
RTVSPost2010PropOp32
 70
     1
102
RTVSPost2010Prop33
280
     0
102
RTVSPost2010PropOp33
 70
     1
102
RTVSPost2010Prop34
280
     0
102
RTVSPost2010PropOp34
 70
     1
102
RTVSPost2010Prop35
280
     0
102
RTVSPost2010PropOp35
 70
     1
102
RTVSPost2010Prop36
280
     0
102
RTVSPost2010PropOp36
 70
     1
102
RTVSPost2010Prop37
 90
       50
102
RTVSPost2010PropOp37
 70
     1
102
RTVSPost2010Prop38
140
0.0
102
RTVSPost2010PropOp38
 70
     1
102
RTVSPost2010Prop39
140
1.0
102
RTVSPost2010PropOp39
 70
     1
102
RTVSPost2010Prop40
 90
        0
102
RTVSPost2010PropOp40
 70
     1
102
RTVSPost2010Prop41ColorIndex
 90
       18
102
RTVSPost2010Prop41ColorRGB
 90
        0
102
RTVSPost2010PropOp41
 70
     1
102
RTVSPost2010Prop42
 90
       50
102
RTVSPost2010PropOp42
 70
     1
102
RTVSPost2010Prop43
 90
        3
102
RTVSPost2010PropOp43
 70
     1
102
RTVSPost2010Prop44ColorIndex
 90
        5
102
RTVSPost2010Prop44ColorRGB
 90
      255
102
RTVSPost2010PropOp44
 70
     1
102
RTVSPost2010Prop45
280
     0
102
RTVSPost2010PropOp45
 70
     1
102
RTVSPost2010Prop46
 90
       50
102
RTVSPost2010PropOp46
 70
     1
102
RTVSPost2010Prop47
 90
       50
102
RTVSPost2010PropOp47
 70
     1
102
RTVSPost2010Prop48
 90
       50
102
RTVSPost2010PropOp48
 70
     1
102
RTVSPost2010Prop49
280
     0
102
RTVSPost2010PropOp49
 70
     1
102
RTVSPost2010Prop50
 90
       50
102
RTVSPost2010PropOp50
 70
     1
102
RTVSPost2010Prop51ColorIndex
 90
      256
102
RTVSPost2010Prop51ColorRGB
 90
-16777216
102
RTVSPost2010PropOp51
 70
     0
102
RTVSPost2010Prop52
140
1.0
102
RTVSPost2010PropOp52
 70
     0
102
RTVSPost2010Prop53
 90
        2
102
RTVSPost2010PropOp53
 70
     1
102
RTVSPost2010Prop54
  1
strokes_ogs.tif
102
RTVSPost2010PropOp54
 70
     1
102
RTVSPost2010Prop55
280
     0
102
RTVSPost2010PropOp55
 70
     1
102
RTVSPost2010Prop56
140
1.0
102
RTVSPost2010PropOp56
 70
     1
102
RTVSPost2010Prop57
140
1.0
102
RTVSPost2010PropOp57
 70
     1
  0
XRECORD
  5
221
102
{ACAD_REACTORS
330
220
102
}
330
220
100
AcDbXrecord
280
     1
102
RTVSPropertyOp0
 70
     1
102
RTVSPropertyOp1
 70
     1
102
RTVSPropertyOp2
 70
     1
102
RTVSPropertyOp3
 70
     1
102
RTVSPropertyOp4
 70
     1
102
RTVSPropertyOp5
 70
     1
102
RTVSPropertyOp6
 70
     1
102
RTVSPropertyOp7
 70
     1
102
RTVSPropertyOp8
 70
     1
102
RTVSPropertyOp9
 70
     1
102
RTVSPropertyOp10
 70
     1
102
RTVSPropertyOp11
 70
     1
102
RTVSPropertyOp12
 70
     1
102
RTVSPropertyOp13
 70
     1
102
RTVSPropertyOp14
 70
     1
102
RTVSPropertyOp15
 70
     1
102
RTVSPropertyOp16
 70
     1
102
RTVSPropertyOp17
 70
     1
102
RTVSPropertyOp18
 70
     1
102
RTVSPropertyOp19
 70
     1
102
RTVSPropertyOp20
 70
     1
102
RTVSPropertyOp21
 70
     1
102
RTVSPropertyOp22
 70
     1
102
RTVSPropertyOp23
 70
     1
102
RTVSPropertyOp24
 70
     1
102
RTVSPropertyOp25
 70
     1
102
RTVSPropertyOp26
 70
     1
102
RTVSPropertyOp27
 70
     1
102
RTVSPropertyOp28
 70
     1
102
RTVSPropertyOp29
 70
     1
102
RTVSPropertyOp30
 70
     1
102
RTVSPropertyOp31
 70
     1
102
RTVSPropertyOp32
 70
     1
102
RTVSPropertyOp33
 70
     1
102
RTVSPropertyOp34
 70
     1
102
RTVSPropertyOp35
 70
     1
102
RTVSPropertyOp36
 70
     1
102
RTVSPropertyOp37
 70
     1
102
RTVSPropertyOp38
 70
     1
102
RTVSPropertyOp39
 70
     1
102
RTVSPropertyOp40
 70
     1
102
RTVSPropertyOp41
 70
     1
102
RTVSPropertyOp42
 70
     1
102
RTVSPropertyOp43
 70
     1
102
RTVSPropertyOp44
 70
     1
102
RTVSPropertyOp45
 70
     1
102
RTVSPropertyOp46
 70
     1
102
RTVSPropertyOp47
 70
     1
102
RTVSPropertyOp48
 70
     1
102
RTVSPropertyOp49
 70
     1
102
RTVSPropertyOp50
 70
     1
102
RTVSPropertyOp51
 70
     0
102
RTVSPropertyOp52
 70
     0
102
RTVSPropertyOp53
 70
     1
102
RTVSPropertyOp54
 70
     1
102
RTVSPropertyOp55
 70
     1
102
RTVSPropertyOp56
 70
     1
102
RTVSPropertyOp57
 70
     1
102
RTVSPost2010Prop28
280
     0
102
RTVSPost2010PropOp28
 70
     1
102
RTVSPost2010Prop29
280
     1
102
RTVSPost2010PropOp29
 70
     1
102
RTVSPost2010Prop30
280
     1
102
RTVSPost2010PropOp30
 70
     1
102
RTVSPost2010Prop31
280
     0
102
RTVSPost2010PropOp31
 70
     1
102
RTVSPost2010Prop32
280
     0
102
RTVSPost2010PropOp32
 70
     1
102
RTVSPost2010Prop33
280
     0
102
RTVSPost2010PropOp33
 70
     1
102
RTVSPost2010Prop34
280
     0
102
RTVSPost2010PropOp34
 70
     1
102
RTVSPost2010Prop35
280
     0
102
RTVSPost2010PropOp35
 70
     1
102
RTVSPost2010Prop36
280
     0
102
RTVSPost2010PropOp36
 70
     1
102
RTVSPost2010Prop37
 90
       50
102
RTVSPost2010PropOp37
 70
     1
102
RTVSPost2010Prop38
140
0.0
102
RTVSPost2010PropOp38
 70
     1
102
RTVSPost2010Prop39
140
1.0
102
RTVSPost2010PropOp39
 70
     1
102
RTVSPost2010Prop40
 90
        0
102
RTVSPost2010PropOp40
 70
     1
102
RTVSPost2010Prop41ColorIndex
 90
       18
102
RTVSPost2010Prop41ColorRGB
 90
        0
102
RTVSPost2010PropOp41
 70
     1
102
RTVSPost2010Prop42
 90
       50
102
RTVSPost2010PropOp42
 70
     1
102
RTVSPost2010Prop43
 90
        3
102
RTVSPost2010PropOp43
 70
     1
102
RTVSPost2010Prop44ColorIndex
 90
        5
102
RTVSPost2010Prop44ColorRGB
 90
      255
102
RTVSPost2010PropOp44
 70
     1
102
RTVSPost2010Prop45
280
     0
102
RTVSPost2010PropOp45
 70
     1
102
RTVSPost2010Prop46
 90
       50
102
RTVSPost2010PropOp46
 70
     1
102
RTVSPost2010Prop47
 90
       50
102
RTVSPost2010PropOp47
 70
     1
102
RTVSPost2010Prop48
 90
       50
102
RTVSPost2010PropOp48
 70
     1
102
RTVSPost2010Prop49
280
     0
102
RTVSPost2010PropOp49
 70
     1
102
RTVSPost2010Prop50
 90
       50
102
RTVSPost2010PropOp50
 70
     1
102
RTVSPost2010Prop51ColorIndex
 90
      256
102
RTVSPost2010Prop51ColorRGB
 90
-16777216
102
RTVSPost2010PropOp51
 70
     0
102
RTVSPost2010Prop52
140
1.0
102
RTVSPost2010PropOp52
 70
     0
102
RTVSPost2010Prop53
 90
        2
102
RTVSPost2010PropOp53
 70
     1
102
RTVSPost2010Prop54
  1
strokes_ogs.tif
102
RTVSPost2010PropOp54
 70
     1
102
RTVSPost2010Prop55
280
     0
102
RTVSPost2010PropOp55
 70
     1
102
RTVSPost2010Prop56
140
1.0
102
RTVSPost2010PropOp56
 70
     1
102
RTVSPost2010Prop57
140
1.0
102
RTVSPost2010PropOp57
 70
     1
  0
XRECORD
  5
223
102
{ACAD_REACTORS
330
222
102
}
330
222
100
AcDbXrecord
280
     1
102
RTVSPropertyOp0
 70
     1
102
RTVSPropertyOp1
 70
     1
102
RTVSPropertyOp2
 70
     1
102
RTVSPropertyOp3
 70
     1
102
RTVSPropertyOp4
 70
     1
102
RTVSPropertyOp5
 70
     1
102
RTVSPropertyOp6
 70
     1
102
RTVSPropertyOp7
 70
     1
102
RTVSPropertyOp8
 70
     1
102
RTVSPropertyOp9
 70
     1
102
RTVSPropertyOp10
 70
     1
102
RTVSPropertyOp11
 70
     1
102
RTVSPropertyOp12
 70
     1
102
RTVSPropertyOp13
 70
     1
102
RTVSPropertyOp14
 70
     1
102
RTVSPropertyOp15
 70
     1
102
RTVSPropertyOp16
 70
     1
102
RTVSPropertyOp17
 70
     1
102
RTVSPropertyOp18
 70
     1
102
RTVSPropertyOp19
 70
     1
102
RTVSPropertyOp20
 70
     1
102
RTVSPropertyOp21
 70
     1
102
RTVSPropertyOp22
 70
     1
102
RTVSPropertyOp23
 70
     1
102
RTVSPropertyOp24
 70
     1
102
RTVSPropertyOp25
 70
     1
102
RTVSPropertyOp26
 70
     1
102
RTVSPropertyOp27
 70
     1
102
RTVSPropertyOp28
 70
     1
102
RTVSPropertyOp29
 70
     1
102
RTVSPropertyOp30
 70
     1
102
RTVSPropertyOp31
 70
     1
102
RTVSPropertyOp32
 70
     1
102
RTVSPropertyOp33
 70
     1
102
RTVSPropertyOp34
 70
     1
102
RTVSPropertyOp35
 70
     1
102
RTVSPropertyOp36
 70
     1
102
RTVSPropertyOp37
 70
     1
102
RTVSPropertyOp38
 70
     1
102
RTVSPropertyOp39
 70
     1
102
RTVSPropertyOp40
 70
     1
102
RTVSPropertyOp41
 70
     1
102
RTVSPropertyOp42
 70
     1
102
RTVSPropertyOp43
 70
     1
102
RTVSPropertyOp44
 70
     1
102
RTVSPropertyOp45
 70
     1
102
RTVSPropertyOp46
 70
     1
102
RTVSPropertyOp47
 70
     1
102
RTVSPropertyOp48
 70
     1
102
RTVSPropertyOp49
 70
     1
102
RTVSPropertyOp50
 70
     1
102
RTVSPropertyOp51
 70
     0
102
RTVSPropertyOp52
 70
     0
102
RTVSPropertyOp53
 70
     1
102
RTVSPropertyOp54
 70
     1
102
RTVSPropertyOp55
 70
     1
102
RTVSPropertyOp56
 70
     1
102
RTVSPropertyOp57
 70
     1
102
RTVSPost2010Prop28
280
     0
102
RTVSPost2010PropOp28
 70
     1
102
RTVSPost2010Prop29
280
     1
102
RTVSPost2010PropOp29
 70
     1
102
RTVSPost2010Prop30
280
     1
102
RTVSPost2010PropOp30
 70
     1
102
RTVSPost2010Prop31
280
     0
102
RTVSPost2010PropOp31
 70
     1
102
RTVSPost2010Prop32
280
     0
102
RTVSPost2010PropOp32
 70
     1
102
RTVSPost2010Prop33
280
     0
102
RTVSPost2010PropOp33
 70
     1
102
RTVSPost2010Prop34
280
     0
102
RTVSPost2010PropOp34
 70
     1
102
RTVSPost2010Prop35
280
     0
102
RTVSPost2010PropOp35
 70
     1
102
RTVSPost2010Prop36
280
     0
102
RTVSPost2010PropOp36
 70
     1
102
RTVSPost2010Prop37
 90
       50
102
RTVSPost2010PropOp37
 70
     1
102
RTVSPost2010Prop38
140
0.0
102
RTVSPost2010PropOp38
 70
     1
102
RTVSPost2010Prop39
140
1.0
102
RTVSPost2010PropOp39
 70
     1
102
RTVSPost2010Prop40
 90
        0
102
RTVSPost2010PropOp40
 70
     1
102
RTVSPost2010Prop41ColorIndex
 90
       18
102
RTVSPost2010Prop41ColorRGB
 90
        0
102
RTVSPost2010PropOp41
 70
     1
102
RTVSPost2010Prop42
 90
       50
102
RTVSPost2010PropOp42
 70
     1
102
RTVSPost2010Prop43
 90
        3
102
RTVSPost2010PropOp43
 70
     1
102
RTVSPost2010Prop44ColorIndex
 90
        5
102
RTVSPost2010Prop44ColorRGB
 90
      255
102
RTVSPost2010PropOp44
 70
     1
102
RTVSPost2010Prop45
280
     0
102
RTVSPost2010PropOp45
 70
     1
102
RTVSPost2010Prop46
 90
       50
102
RTVSPost2010PropOp46
 70
     1
102
RTVSPost2010Prop47
 90
       50
102
RTVSPost2010PropOp47
 70
     1
102
RTVSPost2010Prop48
 90
       50
102
RTVSPost2010PropOp48
 70
     1
102
RTVSPost2010Prop49
280
     0
102
RTVSPost2010PropOp49
 70
     1
102
RTVSPost2010Prop50
 90
       50
102
RTVSPost2010PropOp50
 70
     1
102
RTVSPost2010Prop51ColorIndex
 90
      256
102
RTVSPost2010Prop51ColorRGB
 90
-16777216
102
RTVSPost2010PropOp51
 70
     0
102
RTVSPost2010Prop52
140
1.0
102
RTVSPost2010PropOp52
 70
     0
102
RTVSPost2010Prop53
 90
        2
102
RTVSPost2010PropOp53
 70
     1
102
RTVSPost2010Prop54
  1
strokes_ogs.tif
102
RTVSPost2010PropOp54
 70
     1
102
RTVSPost2010Prop55
280
     0
102
RTVSPost2010PropOp55
 70
     1
102
RTVSPost2010Prop56
140
1.0
102
RTVSPost2010PropOp56
 70
     1
102
RTVSPost2010Prop57
140
1.0
102
RTVSPost2010PropOp57
 70
     1
  0
XRECORD
  5
225
102
{ACAD_REACTORS
330
224
102
}
330
224
100
AcDbXrecord
280
     1
102
RTVSPropertyOp0
 70
     1
102
RTVSPropertyOp1
 70
     1
102
RTVSPropertyOp2
 70
     1
102
RTVSPropertyOp3
 70
     1
102
RTVSPropertyOp4
 70
     1
102
RTVSPropertyOp5
 70
     1
102
RTVSPropertyOp6
 70
     1
102
RTVSPropertyOp7
 70
     1
102
RTVSPropertyOp8
 70
     1
102
RTVSPropertyOp9
 70
     1
102
RTVSPropertyOp10
 70
     1
102
RTVSPropertyOp11
 70
     1
102
RTVSPropertyOp12
 70
     1
102
RTVSPropertyOp13
 70
     1
102
RTVSPropertyOp14
 70
     1
102
RTVSPropertyOp15
 70
     1
102
RTVSPropertyOp16
 70
     1
102
RTVSPropertyOp17
 70
     1
102
RTVSPropertyOp18
 70
     1
102
RTVSPropertyOp19
 70
     1
102
RTVSPropertyOp20
 70
     1
102
RTVSPropertyOp21
 70
     1
102
RTVSPropertyOp22
 70
     1
102
RTVSPropertyOp23
 70
     1
102
RTVSPropertyOp24
 70
     1
102
RTVSPropertyOp25
 70
     1
102
RTVSPropertyOp26
 70
     1
102
RTVSPropertyOp27
 70
     1
102
RTVSPropertyOp28
 70
     1
102
RTVSPropertyOp29
 70
     1
102
RTVSPropertyOp30
 70
     1
102
RTVSPropertyOp31
 70
     1
102
RTVSPropertyOp32
 70
     1
102
RTVSPropertyOp33
 70
     1
102
RTVSPropertyOp34
 70
     1
102
RTVSPropertyOp35
 70
     1
102
RTVSPropertyOp36
 70
     1
102
RTVSPropertyOp37
 70
     1
102
RTVSPropertyOp38
 70
     1
102
RTVSPropertyOp39
 70
     1
102
RTVSPropertyOp40
 70
     1
102
RTVSPropertyOp41
 70
     1
102
RTVSPropertyOp42
 70
     1
102
RTVSPropertyOp43
 70
     1
102
RTVSPropertyOp44
 70
     1
102
RTVSPropertyOp45
 70
     1
102
RTVSPropertyOp46
 70
     1
102
RTVSPropertyOp47
 70
     1
102
RTVSPropertyOp48
 70
     1
102
RTVSPropertyOp49
 70
     1
102
RTVSPropertyOp50
 70
     1
102
RTVSPropertyOp51
 70
     0
102
RTVSPropertyOp52
 70
     0
102
RTVSPropertyOp53
 70
     1
102
RTVSPropertyOp54
 70
     1
102
RTVSPropertyOp55
 70
     1
102
RTVSPropertyOp56
 70
     1
102
RTVSPropertyOp57
 70
     1
102
RTVSPost2010Prop28
280
     0
102
RTVSPost2010PropOp28
 70
     1
102
RTVSPost2010Prop29
280
     1
102
RTVSPost2010PropOp29
 70
     1
102
RTVSPost2010Prop30
280
     1
102
RTVSPost2010PropOp30
 70
     1
102
RTVSPost2010Prop31
280
     0
102
RTVSPost2010PropOp31
 70
     1
102
RTVSPost2010Prop32
280
     0
102
RTVSPost2010PropOp32
 70
     1
102
RTVSPost2010Prop33
280
     0
102
RTVSPost2010PropOp33
 70
     1
102
RTVSPost2010Prop34
280
     0
102
RTVSPost2010PropOp34
 70
     1
102
RTVSPost2010Prop35
280
     0
102
RTVSPost2010PropOp35
 70
     1
102
RTVSPost2010Prop36
280
     0
102
RTVSPost2010PropOp36
 70
     1
102
RTVSPost2010Prop37
 90
       50
102
RTVSPost2010PropOp37
 70
     1
102
RTVSPost2010Prop38
140
0.0
102
RTVSPost2010PropOp38
 70
     1
102
RTVSPost2010Prop39
140
1.0
102
RTVSPost2010PropOp39
 70
     1
102
RTVSPost2010Prop40
 90
        0
102
RTVSPost2010PropOp40
 70
     1
102
RTVSPost2010Prop41ColorIndex
 90
       18
102
RTVSPost2010Prop41ColorRGB
 90
        0
102
RTVSPost2010PropOp41
 70
     1
102
RTVSPost2010Prop42
 90
       50
102
RTVSPost2010PropOp42
 70
     1
102
RTVSPost2010Prop43
 90
        3
102
RTVSPost2010PropOp43
 70
     1
102
RTVSPost2010Prop44ColorIndex
 90
        5
102
RTVSPost2010Prop44ColorRGB
 90
      255
102
RTVSPost2010PropOp44
 70
     1
102
RTVSPost2010Prop45
280
     0
102
RTVSPost2010PropOp45
 70
     1
102
RTVSPost2010Prop46
 90
       50
102
RTVSPost2010PropOp46
 70
     1
102
RTVSPost2010Prop47
 90
       50
102
RTVSPost2010PropOp47
 70
     1
102
RTVSPost2010Prop48
 90
       50
102
RTVSPost2010PropOp48
 70
     1
102
RTVSPost2010Prop49
280
     0
102
RTVSPost2010PropOp49
 70
     1
102
RTVSPost2010Prop50
 90
       50
102
RTVSPost2010PropOp50
 70
     1
102
RTVSPost2010Prop51ColorIndex
 90
      256
102
RTVSPost2010Prop51ColorRGB
 90
-16777216
102
RTVSPost2010PropOp51
 70
     0
102
RTVSPost2010Prop52
140
1.0
102
RTVSPost2010PropOp52
 70
     0
102
RTVSPost2010Prop53
 90
        2
102
RTVSPost2010PropOp53
 70
     1
102
RTVSPost2010Prop54
  1
strokes_ogs.tif
102
RTVSPost2010PropOp54
 70
     1
102
RTVSPost2010Prop55
280
     0
102
RTVSPost2010PropOp55
 70
     1
102
RTVSPost2010Prop56
140
1.0
102
RTVSPost2010PropOp56
 70
     1
102
RTVSPost2010Prop57
140
1.0
102
RTVSPost2010PropOp57
 70
     1
  0
XRECORD
  5
22B
102
{ACAD_REACTORS
330
22A
102
}
330
22A
100
AcDbXrecord
280
     1
102
RTVSPropertyOp0
 70
     1
102
RTVSPropertyOp1
 70
     1
102
RTVSPropertyOp2
 70
     1
102
RTVSPropertyOp3
 70
     1
102
RTVSPropertyOp4
 70
     1
102
RTVSPropertyOp5
 70
     1
102
RTVSPropertyOp6
 70
     1
102
RTVSPropertyOp7
 70
     1
102
RTVSPropertyOp8
 70
     1
102
RTVSPropertyOp9
 70
     1
102
RTVSPropertyOp10
 70
     1
102
RTVSPropertyOp11
 70
     1
102
RTVSPropertyOp12
 70
     1
102
RTVSPropertyOp13
 70
     1
102
RTVSPropertyOp14
 70
     1
102
RTVSPropertyOp15
 70
     1
102
RTVSPropertyOp16
 70
     1
102
RTVSPropertyOp17
 70
     1
102
RTVSPropertyOp18
 70
     1
102
RTVSPropertyOp19
 70
     1
102
RTVSPropertyOp20
 70
     1
102
RTVSPropertyOp21
 70
     1
102
RTVSPropertyOp22
 70
     1
102
RTVSPropertyOp23
 70
     1
102
RTVSPropertyOp24
 70
     1
102
RTVSPropertyOp25
 70
     1
102
RTVSPropertyOp26
 70
     1
102
RTVSPropertyOp27
 70
     1
102
RTVSPropertyOp28
 70
     1
102
RTVSPropertyOp29
 70
     1
102
RTVSPropertyOp30
 70
     1
102
RTVSPropertyOp31
 70
     1
102
RTVSPropertyOp32
 70
     1
102
RTVSPropertyOp33
 70
     1
102
RTVSPropertyOp34
 70
     1
102
RTVSPropertyOp35
 70
     1
102
RTVSPropertyOp36
 70
     1
102
RTVSPropertyOp37
 70
     1
102
RTVSPropertyOp38
 70
     1
102
RTVSPropertyOp39
 70
     1
102
RTVSPropertyOp40
 70
     1
102
RTVSPropertyOp41
 70
     1
102
RTVSPropertyOp42
 70
     1
102
RTVSPropertyOp43
 70
     1
102
RTVSPropertyOp44
 70
     1
102
RTVSPropertyOp45
 70
     1
102
RTVSPropertyOp46
 70
     1
102
RTVSPropertyOp47
 70
     1
102
RTVSPropertyOp48
 70
     1
102
RTVSPropertyOp49
 70
     1
102
RTVSPropertyOp50
 70
     1
102
RTVSPropertyOp51
 70
     0
102
RTVSPropertyOp52
 70
     0
102
RTVSPropertyOp53
 70
     1
102
RTVSPropertyOp54
 70
     1
102
RTVSPropertyOp55
 70
     1
102
RTVSPropertyOp56
 70
     1
102
RTVSPropertyOp57
 70
     1
102
RTVSPost2010Prop28
280
     0
102
RTVSPost2010PropOp28
 70
     1
102
RTVSPost2010Prop29
280
     1
102
RTVSPost2010PropOp29
 70
     1
102
RTVSPost2010Prop30
280
     1
102
RTVSPost2010PropOp30
 70
     1
102
RTVSPost2010Prop31
280
     0
102
RTVSPost2010PropOp31
 70
     1
102
RTVSPost2010Prop32
280
     0
102
RTVSPost2010PropOp32
 70
     1
102
RTVSPost2010Prop33
280
     0
102
RTVSPost2010PropOp33
 70
     1
102
RTVSPost2010Prop34
280
     0
102
RTVSPost2010PropOp34
 70
     1
102
RTVSPost2010Prop35
280
     0
102
RTVSPost2010PropOp35
 70
     1
102
RTVSPost2010Prop36
280
     0
102
RTVSPost2010PropOp36
 70
     1
102
RTVSPost2010Prop37
 90
       50
102
RTVSPost2010PropOp37
 70
     1
102
RTVSPost2010Prop38
140
0.0
102
RTVSPost2010PropOp38
 70
     1
102
RTVSPost2010Prop39
140
1.0
102
RTVSPost2010PropOp39
 70
     1
102
RTVSPost2010Prop40
 90
        0
102
RTVSPost2010PropOp40
 70
     1
102
RTVSPost2010Prop41ColorIndex
 90
       18
102
RTVSPost2010Prop41ColorRGB
 90
        0
102
RTVSPost2010PropOp41
 70
     1
102
RTVSPost2010Prop42
 90
       50
102
RTVSPost2010PropOp42
 70
     1
102
RTVSPost2010Prop43
 90
        3
102
RTVSPost2010PropOp43
 70
     1
102
RTVSPost2010Prop44ColorIndex
 90
        5
102
RTVSPost2010Prop44ColorRGB
 90
      255
102
RTVSPost2010PropOp44
 70
     1
102
RTVSPost2010Prop45
280
     0
102
RTVSPost2010PropOp45
 70
     1
102
RTVSPost2010Prop46
 90
       50
102
RTVSPost2010PropOp46
 70
     1
102
RTVSPost2010Prop47
 90
       50
102
RTVSPost2010PropOp47
 70
     1
102
RTVSPost2010Prop48
 90
       50
102
RTVSPost2010PropOp48
 70
     1
102
RTVSPost2010Prop49
280
     0
102
RTVSPost2010PropOp49
 70
     1
102
RTVSPost2010Prop50
 90
       50
102
RTVSPost2010PropOp50
 70
     1
102
RTVSPost2010Prop51ColorIndex
 90
      256
102
RTVSPost2010Prop51ColorRGB
 90
-16777216
102
RTVSPost2010PropOp51
 70
     0
102
RTVSPost2010Prop52
140
1.0
102
RTVSPost2010PropOp52
 70
     0
102
RTVSPost2010Prop53
 90
        2
102
RTVSPost2010PropOp53
 70
     1
102
RTVSPost2010Prop54
  1
strokes_ogs.tif
102
RTVSPost2010PropOp54
 70
     1
102
RTVSPost2010Prop55
280
     0
102
RTVSPost2010PropOp55
 70
     1
102
RTVSPost2010Prop56
140
1.0
102
RTVSPost2010PropOp56
 70
     1
102
RTVSPost2010Prop57
140
1.0
102
RTVSPost2010PropOp57
 70
     1
  0
XRECORD
  5
23F
102
{ACAD_REACTORS
330
23E
102
}
330
23E
100
AcDbXrecord
280
     1
102
RTVSPropertyOp0
 70
     0
102
RTVSPropertyOp1
 70
     0
102
RTVSPropertyOp2
 70
     0
102
RTVSPropertyOp3
 70
     0
102
RTVSPropertyOp4
 70
     0
102
RTVSPropertyOp5
 70
     0
102
RTVSPropertyOp6
 70
     0
102
RTVSPropertyOp7
 70
     0
102
RTVSPropertyOp8
 70
     0
102
RTVSPropertyOp9
 70
     0
102
RTVSPropertyOp10
 70
     0
102
RTVSPropertyOp11
 70
     0
102
RTVSPropertyOp12
 70
     0
102
RTVSPropertyOp13
 70
     0
102
RTVSPropertyOp14
 70
     2
102
RTVSPropertyOp15
 70
     0
102
RTVSPropertyOp16
 70
     0
102
RTVSPropertyOp17
 70
     0
102
RTVSPropertyOp18
 70
     0
102
RTVSPropertyOp19
 70
     0
102
RTVSPropertyOp20
 70
     0
102
RTVSPropertyOp21
 70
     0
102
RTVSPropertyOp22
 70
     0
102
RTVSPropertyOp23
 70
     0
102
RTVSPropertyOp24
 70
     0
102
RTVSPropertyOp25
 70
     0
102
RTVSPropertyOp26
 70
     0
102
RTVSPropertyOp27
 70
     0
102
RTVSPropertyOp28
 70
     0
102
RTVSPropertyOp29
 70
     0
102
RTVSPropertyOp30
 70
     0
102
RTVSPropertyOp31
 70
     0
102
RTVSPropertyOp32
 70
     0
102
RTVSPropertyOp33
 70
     0
102
RTVSPropertyOp34
 70
     0
102
RTVSPropertyOp35
 70
     0
102
RTVSPropertyOp36
 70
     0
102
RTVSPropertyOp37
 70
     0
102
RTVSPropertyOp38
 70
     0
102
RTVSPropertyOp39
 70
     0
102
RTVSPropertyOp40
 70
     0
102
RTVSPropertyOp41
 70
     0
102
RTVSPropertyOp42
 70
     0
102
RTVSPropertyOp43
 70
     0
102
RTVSPropertyOp44
 70
     0
102
RTVSPropertyOp45
 70
     0
102
RTVSPropertyOp46
 70
     0
102
RTVSPropertyOp47
 70
     0
102
RTVSPropertyOp48
 70
     0
102
RTVSPropertyOp49
 70
     0
102
RTVSPropertyOp50
 70
     0
102
RTVSPropertyOp51
 70
     0
102
RTVSPropertyOp52
 70
     0
102
RTVSPropertyOp53
 70
     0
102
RTVSPropertyOp54
 70
     0
102
RTVSPropertyOp55
 70
     0
102
RTVSPropertyOp56
 70
     0
102
RTVSPropertyOp57
 70
     0
102
RTVSPost2010Prop28
280
     0
102
RTVSPost2010PropOp28
 70
     0
102
RTVSPost2010Prop29
280
     1
102
RTVSPost2010PropOp29
 70
     0
102
RTVSPost2010Prop30
280
     1
102
RTVSPost2010PropOp30
 70
     0
102
RTVSPost2010Prop31
280
     0
102
RTVSPost2010PropOp31
 70
     0
102
RTVSPost2010Prop32
280
     0
102
RTVSPost2010PropOp32
 70
     0
102
RTVSPost2010Prop33
280
     0
102
RTVSPost2010PropOp33
 70
     0
102
RTVSPost2010Prop34
280
     0
102
RTVSPost2010PropOp34
 70
     0
102
RTVSPost2010Prop35
280
     0
102
RTVSPost2010PropOp35
 70
     0
102
RTVSPost2010Prop36
280
     0
102
RTVSPost2010PropOp36
 70
     0
102
RTVSPost2010Prop37
 90
       50
102
RTVSPost2010PropOp37
 70
     0
102
RTVSPost2010Prop38
140
0.0
102
RTVSPost2010PropOp38
 70
     0
102
RTVSPost2010Prop39
140
1.0
102
RTVSPost2010PropOp39
 70
     0
102
RTVSPost2010Prop40
 90
        0
102
RTVSPost2010PropOp40
 70
     0
102
RTVSPost2010Prop41ColorIndex
 90
       18
102
RTVSPost2010Prop41ColorRGB
 90
        0
102
RTVSPost2010PropOp41
 70
     0
102
RTVSPost2010Prop42
 90
       50
102
RTVSPost2010PropOp42
 70
     0
102
RTVSPost2010Prop43
 90
        3
102
RTVSPost2010PropOp43
 70
     0
102
RTVSPost2010Prop44ColorIndex
 90
        5
102
RTVSPost2010Prop44ColorRGB
 90
      255
102
RTVSPost2010PropOp44
 70
     0
102
RTVSPost2010Prop45
280
     0
102
RTVSPost2010PropOp45
 70
     0
102
RTVSPost2010Prop46
 90
       50
102
RTVSPost2010PropOp46
 70
     0
102
RTVSPost2010Prop47
 90
       50
102
RTVSPost2010PropOp47
 70
     0
102
RTVSPost2010Prop48
 90
       50
102
RTVSPost2010PropOp48
 70
     0
102
RTVSPost2010Prop49
280
     0
102
RTVSPost2010PropOp49
 70
     0
102
RTVSPost2010Prop50
 90
       50
102
RTVSPost2010PropOp50
 70
     0
102
RTVSPost2010Prop51ColorIndex
 90
      256
102
RTVSPost2010Prop51ColorRGB
 90
-16777216
102
RTVSPost2010PropOp51
 70
     0
102
RTVSPost2010Prop52
140
1.0
102
RTVSPost2010PropOp52
 70
     0
102
RTVSPost2010Prop53
 90
        2
102
RTVSPost2010PropOp53
 70
     0
102
RTVSPost2010Prop54
  1
strokes_ogs.tif
102
RTVSPost2010PropOp54
 70
     0
102
RTVSPost2010Prop55
280
     0
102
RTVSPost2010PropOp55
 70
     0
102
RTVSPost2010Prop56
140
1.0
102
RTVSPost2010PropOp56
 70
     0
102
RTVSPost2010Prop57
140
1.0
102
RTVSPost2010PropOp57
 70
     0
  0
XRECORD
  5
239
102
{ACAD_REACTORS
330
238
102
}
330
238
100
AcDbXrecord
280
     1
102
RTVSPropertyOp0
 70
     1
102
RTVSPropertyOp1
 70
     1
102
RTVSPropertyOp2
 70
     1
102
RTVSPropertyOp3
 70
     1
102
RTVSPropertyOp4
 70
     1
102
RTVSPropertyOp5
 70
     1
102
RTVSPropertyOp6
 70
     1
102
RTVSPropertyOp7
 70
     1
102
RTVSPropertyOp8
 70
     1
102
RTVSPropertyOp9
 70
     1
102
RTVSPropertyOp10
 70
     1
102
RTVSPropertyOp11
 70
     1
102
RTVSPropertyOp12
 70
     1
102
RTVSPropertyOp13
 70
     1
102
RTVSPropertyOp14
 70
     1
102
RTVSPropertyOp15
 70
     1
102
RTVSPropertyOp16
 70
     1
102
RTVSPropertyOp17
 70
     1
102
RTVSPropertyOp18
 70
     1
102
RTVSPropertyOp19
 70
     1
102
RTVSPropertyOp20
 70
     1
102
RTVSPropertyOp21
 70
     1
102
RTVSPropertyOp22
 70
     1
102
RTVSPropertyOp23
 70
     1
102
RTVSPropertyOp24
 70
     1
102
RTVSPropertyOp25
 70
     1
102
RTVSPropertyOp26
 70
     1
102
RTVSPropertyOp27
 70
     1
102
RTVSPropertyOp28
 70
     1
102
RTVSPropertyOp29
 70
     1
102
RTVSPropertyOp30
 70
     1
102
RTVSPropertyOp31
 70
     1
102
RTVSPropertyOp32
 70
     1
102
RTVSPropertyOp33
 70
     1
102
RTVSPropertyOp34
 70
     1
102
RTVSPropertyOp35
 70
     1
102
RTVSPropertyOp36
 70
     1
102
RTVSPropertyOp37
 70
     1
102
RTVSPropertyOp38
 70
     1
102
RTVSPropertyOp39
 70
     1
102
RTVSPropertyOp40
 70
     1
102
RTVSPropertyOp41
 70
     1
102
RTVSPropertyOp42
 70
     1
102
RTVSPropertyOp43
 70
     1
102
RTVSPropertyOp44
 70
     1
102
RTVSPropertyOp45
 70
     1
102
RTVSPropertyOp46
 70
     1
102
RTVSPropertyOp47
 70
     1
102
RTVSPropertyOp48
 70
     1
102
RTVSPropertyOp49
 70
     1
102
RTVSPropertyOp50
 70
     1
102
RTVSPropertyOp51
 70
     0
102
RTVSPropertyOp52
 70
     0
102
RTVSPropertyOp53
 70
     1
102
RTVSPropertyOp54
 70
     1
102
RTVSPropertyOp55
 70
     1
102
RTVSPropertyOp56
 70
     1
102
RTVSPropertyOp57
 70
     1
102
RTVSPost2010Prop28
280
     0
102
RTVSPost2010PropOp28
 70
     1
102
RTVSPost2010Prop29
280
     1
102
RTVSPost2010PropOp29
 70
     1
102
RTVSPost2010Prop30
280
     1
102
RTVSPost2010PropOp30
 70
     1
102
RTVSPost2010Prop31
280
     0
102
RTVSPost2010PropOp31
 70
     1
102
RTVSPost2010Prop32
280
     0
102
RTVSPost2010PropOp32
 70
     1
102
RTVSPost2010Prop33
280
     0
102
RTVSPost2010PropOp33
 70
     1
102
RTVSPost2010Prop34
280
     0
102
RTVSPost2010PropOp34
 70
     1
102
RTVSPost2010Prop35
280
     0
102
RTVSPost2010PropOp35
 70
     1
102
RTVSPost2010Prop36
280
     0
102
RTVSPost2010PropOp36
 70
     1
102
RTVSPost2010Prop37
 90
       50
102
RTVSPost2010PropOp37
 70
     1
102
RTVSPost2010Prop38
140
0.0
102
RTVSPost2010PropOp38
 70
     1
102
RTVSPost2010Prop39
140
1.0
102
RTVSPost2010PropOp39
 70
     1
102
RTVSPost2010Prop40
 90
        0
102
RTVSPost2010PropOp40
 70
     1
102
RTVSPost2010Prop41ColorIndex
 90
       18
102
RTVSPost2010Prop41ColorRGB
 90
        0
102
RTVSPost2010PropOp41
 70
     1
102
RTVSPost2010Prop42
 90
       50
102
RTVSPost2010PropOp42
 70
     1
102
RTVSPost2010Prop43
 90
        3
102
RTVSPost2010PropOp43
 70
     1
102
RTVSPost2010Prop44ColorIndex
 90
        5
102
RTVSPost2010Prop44ColorRGB
 90
      255
102
RTVSPost2010PropOp44
 70
     1
102
RTVSPost2010Prop45
280
     0
102
RTVSPost2010PropOp45
 70
     1
102
RTVSPost2010Prop46
 90
       50
102
RTVSPost2010PropOp46
 70
     1
102
RTVSPost2010Prop47
 90
       50
102
RTVSPost2010PropOp47
 70
     1
102
RTVSPost2010Prop48
 90
       50
102
RTVSPost2010PropOp48
 70
     1
102
RTVSPost2010Prop49
280
     0
102
RTVSPost2010PropOp49
 70
     1
102
RTVSPost2010Prop50
 90
       50
102
RTVSPost2010PropOp50
 70
     1
102
RTVSPost2010Prop51ColorIndex
 90
      256
102
RTVSPost2010Prop51ColorRGB
 90
-16777216
102
RTVSPost2010PropOp51
 70
     0
102
RTVSPost2010Prop52
140
1.0
102
RTVSPost2010PropOp52
 70
     0
102
RTVSPost2010Prop53
 90
        2
102
RTVSPost2010PropOp53
 70
     1
102
RTVSPost2010Prop54
  1
strokes_ogs.tif
102
RTVSPost2010PropOp54
 70
     1
102
RTVSPost2010Prop55
280
     0
102
RTVSPost2010PropOp55
 70
     1
102
RTVSPost2010Prop56
140
1.0
102
RTVSPost2010PropOp56
 70
     1
102
RTVSPost2010Prop57
140
1.0
102
RTVSPost2010PropOp57
 70
     1
  0
XRECORD
  5
241
102
{ACAD_REACTORS
330
240
102
}
330
240
100
AcDbXrecord
280
     1
102
RTVSPropertyOp0
 70
     0
102
RTVSPropertyOp1
 70
     0
102
RTVSPropertyOp2
 70
     0
102
RTVSPropertyOp3
 70
     0
102
RTVSPropertyOp4
 70
     0
102
RTVSPropertyOp5
 70
     0
102
RTVSPropertyOp6
 70
     0
102
RTVSPropertyOp7
 70
     0
102
RTVSPropertyOp8
 70
     0
102
RTVSPropertyOp9
 70
     0
102
RTVSPropertyOp10
 70
     0
102
RTVSPropertyOp11
 70
     0
102
RTVSPropertyOp12
 70
     0
102
RTVSPropertyOp13
 70
     0
102
RTVSPropertyOp14
 70
     2
102
RTVSPropertyOp15
 70
     0
102
RTVSPropertyOp16
 70
     0
102
RTVSPropertyOp17
 70
     0
102
RTVSPropertyOp18
 70
     0
102
RTVSPropertyOp19
 70
     0
102
RTVSPropertyOp20
 70
     0
102
RTVSPropertyOp21
 70
     0
102
RTVSPropertyOp22
 70
     0
102
RTVSPropertyOp23
 70
     0
102
RTVSPropertyOp24
 70
     0
102
RTVSPropertyOp25
 70
     0
102
RTVSPropertyOp26
 70
     0
102
RTVSPropertyOp27
 70
     0
102
RTVSPropertyOp28
 70
     0
102
RTVSPropertyOp29
 70
     0
102
RTVSPropertyOp30
 70
     0
102
RTVSPropertyOp31
 70
     0
102
RTVSPropertyOp32
 70
     0
102
RTVSPropertyOp33
 70
     0
102
RTVSPropertyOp34
 70
     0
102
RTVSPropertyOp35
 70
     0
102
RTVSPropertyOp36
 70
     0
102
RTVSPropertyOp37
 70
     0
102
RTVSPropertyOp38
 70
     0
102
RTVSPropertyOp39
 70
     0
102
RTVSPropertyOp40
 70
     0
102
RTVSPropertyOp41
 70
     0
102
RTVSPropertyOp42
 70
     0
102
RTVSPropertyOp43
 70
     0
102
RTVSPropertyOp44
 70
     0
102
RTVSPropertyOp45
 70
     0
102
RTVSPropertyOp46
 70
     0
102
RTVSPropertyOp47
 70
     0
102
RTVSPropertyOp48
 70
     0
102
RTVSPropertyOp49
 70
     0
102
RTVSPropertyOp50
 70
     0
102
RTVSPropertyOp51
 70
     0
102
RTVSPropertyOp52
 70
     0
102
RTVSPropertyOp53
 70
     0
102
RTVSPropertyOp54
 70
     0
102
RTVSPropertyOp55
 70
     0
102
RTVSPropertyOp56
 70
     0
102
RTVSPropertyOp57
 70
     0
102
RTVSPost2010Prop28
280
     0
102
RTVSPost2010PropOp28
 70
     0
102
RTVSPost2010Prop29
280
     1
102
RTVSPost2010PropOp29
 70
     0
102
RTVSPost2010Prop30
280
     1
102
RTVSPost2010PropOp30
 70
     0
102
RTVSPost2010Prop31
280
     0
102
RTVSPost2010PropOp31
 70
     0
102
RTVSPost2010Prop32
280
     0
102
RTVSPost2010PropOp32
 70
     0
102
RTVSPost2010Prop33
280
     0
102
RTVSPost2010PropOp33
 70
     0
102
RTVSPost2010Prop34
280
     0
102
RTVSPost2010PropOp34
 70
     0
102
RTVSPost2010Prop35
280
     0
102
RTVSPost2010PropOp35
 70
     0
102
RTVSPost2010Prop36
280
     0
102
RTVSPost2010PropOp36
 70
     0
102
RTVSPost2010Prop37
 90
       50
102
RTVSPost2010PropOp37
 70
     0
102
RTVSPost2010Prop38
140
0.0
102
RTVSPost2010PropOp38
 70
     0
102
RTVSPost2010Prop39
140
1.0
102
RTVSPost2010PropOp39
 70
     0
102
RTVSPost2010Prop40
 90
        0
102
RTVSPost2010PropOp40
 70
     0
102
RTVSPost2010Prop41ColorIndex
 90
       18
102
RTVSPost2010Prop41ColorRGB
 90
        0
102
RTVSPost2010PropOp41
 70
     0
102
RTVSPost2010Prop42
 90
       50
102
RTVSPost2010PropOp42
 70
     0
102
RTVSPost2010Prop43
 90
        3
102
RTVSPost2010PropOp43
 70
     0
102
RTVSPost2010Prop44ColorIndex
 90
        5
102
RTVSPost2010Prop44ColorRGB
 90
      255
102
RTVSPost2010PropOp44
 70
     0
102
RTVSPost2010Prop45
280
     0
102
RTVSPost2010PropOp45
 70
     0
102
RTVSPost2010Prop46
 90
       50
102
RTVSPost2010PropOp46
 70
     0
102
RTVSPost2010Prop47
 90
       50
102
RTVSPost2010PropOp47
 70
     0
102
RTVSPost2010Prop48
 90
       50
102
RTVSPost2010PropOp48
 70
     0
102
RTVSPost2010Prop49
280
     0
102
RTVSPost2010PropOp49
 70
     0
102
RTVSPost2010Prop50
 90
       50
102
RTVSPost2010PropOp50
 70
     0
102
RTVSPost2010Prop51ColorIndex
 90
      256
102
RTVSPost2010Prop51ColorRGB
 90
-16777216
102
RTVSPost2010PropOp51
 70
     0
102
RTVSPost2010Prop52
140
1.0
102
RTVSPost2010PropOp52
 70
     0
102
RTVSPost2010Prop53
 90
        2
102
RTVSPost2010PropOp53
 70
     0
102
RTVSPost2010Prop54
  1
strokes_ogs.tif
102
RTVSPost2010PropOp54
 70
     0
102
RTVSPost2010Prop55
280
     0
102
RTVSPost2010PropOp55
 70
     0
102
RTVSPost2010Prop56
140
1.0
102
RTVSPost2010PropOp56
 70
     0
102
RTVSPost2010Prop57
140
1.0
102
RTVSPost2010PropOp57
 70
     0
  0
XRECORD
  5
22F
102
{ACAD_REACTORS
330
22E
102
}
330
22E
100
AcDbXrecord
280
     1
102
RTVSPropertyOp0
 70
     1
102
RTVSPropertyOp1
 70
     1
102
RTVSPropertyOp2
 70
     1
102
RTVSPropertyOp3
 70
     1
102
RTVSPropertyOp4
 70
     1
102
RTVSPropertyOp5
 70
     1
102
RTVSPropertyOp6
 70
     1
102
RTVSPropertyOp7
 70
     1
102
RTVSPropertyOp8
 70
     1
102
RTVSPropertyOp9
 70
     1
102
RTVSPropertyOp10
 70
     1
102
RTVSPropertyOp11
 70
     1
102
RTVSPropertyOp12
 70
     1
102
RTVSPropertyOp13
 70
     1
102
RTVSPropertyOp14
 70
     1
102
RTVSPropertyOp15
 70
     1
102
RTVSPropertyOp16
 70
     1
102
RTVSPropertyOp17
 70
     1
102
RTVSPropertyOp18
 70
     1
102
RTVSPropertyOp19
 70
     1
102
RTVSPropertyOp20
 70
     1
102
RTVSPropertyOp21
 70
     1
102
RTVSPropertyOp22
 70
     1
102
RTVSPropertyOp23
 70
     1
102
RTVSPropertyOp24
 70
     1
102
RTVSPropertyOp25
 70
     1
102
RTVSPropertyOp26
 70
     1
102
RTVSPropertyOp27
 70
     1
102
RTVSPropertyOp28
 70
     1
102
RTVSPropertyOp29
 70
     1
102
RTVSPropertyOp30
 70
     1
102
RTVSPropertyOp31
 70
     1
102
RTVSPropertyOp32
 70
     1
102
RTVSPropertyOp33
 70
     1
102
RTVSPropertyOp34
 70
     1
102
RTVSPropertyOp35
 70
     1
102
RTVSPropertyOp36
 70
     1
102
RTVSPropertyOp37
 70
     1
102
RTVSPropertyOp38
 70
     1
102
RTVSPropertyOp39
 70
     1
102
RTVSPropertyOp40
 70
     1
102
RTVSPropertyOp41
 70
     1
102
RTVSPropertyOp42
 70
     1
102
RTVSPropertyOp43
 70
     1
102
RTVSPropertyOp44
 70
     1
102
RTVSPropertyOp45
 70
     1
102
RTVSPropertyOp46
 70
     1
102
RTVSPropertyOp47
 70
     1
102
RTVSPropertyOp48
 70
     1
102
RTVSPropertyOp49
 70
     1
102
RTVSPropertyOp50
 70
     1
102
RTVSPropertyOp51
 70
     0
102
RTVSPropertyOp52
 70
     0
102
RTVSPropertyOp53
 70
     1
102
RTVSPropertyOp54
 70
     1
102
RTVSPropertyOp55
 70
     1
102
RTVSPropertyOp56
 70
     1
102
RTVSPropertyOp57
 70
     1
102
RTVSPost2010Prop28
280
     0
102
RTVSPost2010PropOp28
 70
     1
102
RTVSPost2010Prop29
280
     1
102
RTVSPost2010PropOp29
 70
     1
102
RTVSPost2010Prop30
280
     1
102
RTVSPost2010PropOp30
 70
     1
102
RTVSPost2010Prop31
280
     0
102
RTVSPost2010PropOp31
 70
     1
102
RTVSPost2010Prop32
280
     0
102
RTVSPost2010PropOp32
 70
     1
102
RTVSPost2010Prop33
280
     0
102
RTVSPost2010PropOp33
 70
     1
102
RTVSPost2010Prop34
280
     0
102
RTVSPost2010PropOp34
 70
     1
102
RTVSPost2010Prop35
280
     0
102
RTVSPost2010PropOp35
 70
     1
102
RTVSPost2010Prop36
280
     0
102
RTVSPost2010PropOp36
 70
     1
102
RTVSPost2010Prop37
 90
       50
102
RTVSPost2010PropOp37
 70
     1
102
RTVSPost2010Prop38
140
0.0
102
RTVSPost2010PropOp38
 70
     1
102
RTVSPost2010Prop39
140
1.0
102
RTVSPost2010PropOp39
 70
     1
102
RTVSPost2010Prop40
 90
        0
102
RTVSPost2010PropOp40
 70
     1
102
RTVSPost2010Prop41ColorIndex
 90
       18
102
RTVSPost2010Prop41ColorRGB
 90
        0
102
RTVSPost2010PropOp41
 70
     1
102
RTVSPost2010Prop42
 90
       50
102
RTVSPost2010PropOp42
 70
     1
102
RTVSPost2010Prop43
 90
        3
102
RTVSPost2010PropOp43
 70
     1
102
RTVSPost2010Prop44ColorIndex
 90
        5
102
RTVSPost2010Prop44ColorRGB
 90
      255
102
RTVSPost2010PropOp44
 70
     1
102
RTVSPost2010Prop45
280
     0
102
RTVSPost2010PropOp45
 70
     1
102
RTVSPost2010Prop46
 90
       50
102
RTVSPost2010PropOp46
 70
     1
102
RTVSPost2010Prop47
 90
       50
102
RTVSPost2010PropOp47
 70
     1
102
RTVSPost2010Prop48
 90
       50
102
RTVSPost2010PropOp48
 70
     1
102
RTVSPost2010Prop49
280
     0
102
RTVSPost2010PropOp49
 70
     1
102
RTVSPost2010Prop50
 90
       50
102
RTVSPost2010PropOp50
 70
     1
102
RTVSPost2010Prop51ColorIndex
 90
      256
102
RTVSPost2010Prop51ColorRGB
 90
-16777216
102
RTVSPost2010PropOp51
 70
     0
102
RTVSPost2010Prop52
140
1.0
102
RTVSPost2010PropOp52
 70
     0
102
RTVSPost2010Prop53
 90
        2
102
RTVSPost2010PropOp53
 70
     1
102
RTVSPost2010Prop54
  1
strokes_ogs.tif
102
RTVSPost2010PropOp54
 70
     1
102
RTVSPost2010Prop55
280
     0
102
RTVSPost2010PropOp55
 70
     1
102
RTVSPost2010Prop56
140
1.0
102
RTVSPost2010PropOp56
 70
     1
102
RTVSPost2010Prop57
140
1.0
102
RTVSPost2010PropOp57
 70
     1
  0
XRECORD
  5
24D
102
{ACAD_REACTORS
330
24C
102
}
330
24C
100
AcDbXrecord
280
     1
102
RTVSPropertyOp0
 70
     1
102
RTVSPropertyOp1
 70
     1
102
RTVSPropertyOp2
 70
     1
102
RTVSPropertyOp3
 70
     1
102
RTVSPropertyOp4
 70
     1
102
RTVSPropertyOp5
 70
     1
102
RTVSPropertyOp6
 70
     1
102
RTVSPropertyOp7
 70
     1
102
RTVSPropertyOp8
 70
     1
102
RTVSPropertyOp9
 70
     1
102
RTVSPropertyOp10
 70
     1
102
RTVSPropertyOp11
 70
     1
102
RTVSPropertyOp12
 70
     1
102
RTVSPropertyOp13
 70
     1
102
RTVSPropertyOp14
 70
     1
102
RTVSPropertyOp15
 70
     1
102
RTVSPropertyOp16
 70
     1
102
RTVSPropertyOp17
 70
     1
102
RTVSPropertyOp18
 70
     1
102
RTVSPropertyOp19
 70
     1
102
RTVSPropertyOp20
 70
     1
102
RTVSPropertyOp21
 70
     1
102
RTVSPropertyOp22
 70
     1
102
RTVSPropertyOp23
 70
     1
102
RTVSPropertyOp24
 70
     1
102
RTVSPropertyOp25
 70
     1
102
RTVSPropertyOp26
 70
     1
102
RTVSPropertyOp27
 70
     1
102
RTVSPropertyOp28
 70
     1
102
RTVSPropertyOp29
 70
     1
102
RTVSPropertyOp30
 70
     1
102
RTVSPropertyOp31
 70
     1
102
RTVSPropertyOp32
 70
     1
102
RTVSPropertyOp33
 70
     1
102
RTVSPropertyOp34
 70
     1
102
RTVSPropertyOp35
 70
     1
102
RTVSPropertyOp36
 70
     1
102
RTVSPropertyOp37
 70
     1
102
RTVSPropertyOp38
 70
     1
102
RTVSPropertyOp39
 70
     1
102
RTVSPropertyOp40
 70
     1
102
RTVSPropertyOp41
 70
     1
102
RTVSPropertyOp42
 70
     1
102
RTVSPropertyOp43
 70
     1
102
RTVSPropertyOp44
 70
     1
102
RTVSPropertyOp45
 70
     1
102
RTVSPropertyOp46
 70
     1
102
RTVSPropertyOp47
 70
     1
102
RTVSPropertyOp48
 70
     1
102
RTVSPropertyOp49
 70
     1
102
RTVSPropertyOp50
 70
     1
102
RTVSPropertyOp51
 70
     0
102
RTVSPropertyOp52
 70
     0
102
RTVSPropertyOp53
 70
     1
102
RTVSPropertyOp54
 70
     1
102
RTVSPropertyOp55
 70
     1
102
RTVSPropertyOp56
 70
     1
102
RTVSPropertyOp57
 70
     1
102
RTVSPost2010Prop28
280
     0
102
RTVSPost2010PropOp28
 70
     1
102
RTVSPost2010Prop29
280
     1
102
RTVSPost2010PropOp29
 70
     1
102
RTVSPost2010Prop30
280
     1
102
RTVSPost2010PropOp30
 70
     1
102
RTVSPost2010Prop31
280
     0
102
RTVSPost2010PropOp31
 70
     1
102
RTVSPost2010Prop32
280
     0
102
RTVSPost2010PropOp32
 70
     1
102
RTVSPost2010Prop33
280
     0
102
RTVSPost2010PropOp33
 70
     1
102
RTVSPost2010Prop34
280
     0
102
RTVSPost2010PropOp34
 70
     1
102
RTVSPost2010Prop35
280
     0
102
RTVSPost2010PropOp35
 70
     1
102
RTVSPost2010Prop36
280
     0
102
RTVSPost2010PropOp36
 70
     1
102
RTVSPost2010Prop37
 90
       50
102
RTVSPost2010PropOp37
 70
     1
102
RTVSPost2010Prop38
140
0.0
102
RTVSPost2010PropOp38
 70
     1
102
RTVSPost2010Prop39
140
1.0
102
RTVSPost2010PropOp39
 70
     1
102
RTVSPost2010Prop40
 90
        0
102
RTVSPost2010PropOp40
 70
     1
102
RTVSPost2010Prop41ColorIndex
 90
       18
102
RTVSPost2010Prop41ColorRGB
 90
        0
102
RTVSPost2010PropOp41
 70
     1
102
RTVSPost2010Prop42
 90
       50
102
RTVSPost2010PropOp42
 70
     1
102
RTVSPost2010Prop43
 90
        3
102
RTVSPost2010PropOp43
 70
     1
102
RTVSPost2010Prop44ColorIndex
 90
        5
102
RTVSPost2010Prop44ColorRGB
 90
      255
102
RTVSPost2010PropOp44
 70
     1
102
RTVSPost2010Prop45
280
     0
102
RTVSPost2010PropOp45
 70
     1
102
RTVSPost2010Prop46
 90
       50
102
RTVSPost2010PropOp46
 70
     1
102
RTVSPost2010Prop47
 90
       50
102
RTVSPost2010PropOp47
 70
     1
102
RTVSPost2010Prop48
 90
       50
102
RTVSPost2010PropOp48
 70
     1
102
RTVSPost2010Prop49
280
     0
102
RTVSPost2010PropOp49
 70
     1
102
RTVSPost2010Prop50
 90
       50
102
RTVSPost2010PropOp50
 70
     1
102
RTVSPost2010Prop51ColorIndex
 90
      256
102
RTVSPost2010Prop51ColorRGB
 90
-16777216
102
RTVSPost2010PropOp51
 70
     0
102
RTVSPost2010Prop52
140
1.0
102
RTVSPost2010PropOp52
 70
     0
102
RTVSPost2010Prop53
 90
        2
102
RTVSPost2010PropOp53
 70
     1
102
RTVSPost2010Prop54
  1
strokes_ogs.tif
102
RTVSPost2010PropOp54
 70
     1
102
RTVSPost2010Prop55
280
     0
102
RTVSPost2010PropOp55
 70
     1
102
RTVSPost2010Prop56
140
1.0
102
RTVSPost2010PropOp56
 70
     1
102
RTVSPost2010Prop57
140
1.0
102
RTVSPost2010PropOp57
 70
     1
  0
XRECORD
  5
24B
102
{ACAD_REACTORS
330
24A
102
}
330
24A
100
AcDbXrecord
280
     1
102
RTVSPropertyOp0
 70
     1
102
RTVSPropertyOp1
 70
     1
102
RTVSPropertyOp2
 70
     1
102
RTVSPropertyOp3
 70
     1
102
RTVSPropertyOp4
 70
     1
102
RTVSPropertyOp5
 70
     1
102
RTVSPropertyOp6
 70
     1
102
RTVSPropertyOp7
 70
     1
102
RTVSPropertyOp8
 70
     1
102
RTVSPropertyOp9
 70
     1
102
RTVSPropertyOp10
 70
     1
102
RTVSPropertyOp11
 70
     1
102
RTVSPropertyOp12
 70
     1
102
RTVSPropertyOp13
 70
     1
102
RTVSPropertyOp14
 70
     1
102
RTVSPropertyOp15
 70
     1
102
RTVSPropertyOp16
 70
     1
102
RTVSPropertyOp17
 70
     1
102
RTVSPropertyOp18
 70
     1
102
RTVSPropertyOp19
 70
     1
102
RTVSPropertyOp20
 70
     1
102
RTVSPropertyOp21
 70
     1
102
RTVSPropertyOp22
 70
     1
102
RTVSPropertyOp23
 70
     1
102
RTVSPropertyOp24
 70
     1
102
RTVSPropertyOp25
 70
     1
102
RTVSPropertyOp26
 70
     1
102
RTVSPropertyOp27
 70
     1
102
RTVSPropertyOp28
 70
     1
102
RTVSPropertyOp29
 70
     1
102
RTVSPropertyOp30
 70
     1
102
RTVSPropertyOp31
 70
     1
102
RTVSPropertyOp32
 70
     1
102
RTVSPropertyOp33
 70
     1
102
RTVSPropertyOp34
 70
     1
102
RTVSPropertyOp35
 70
     1
102
RTVSPropertyOp36
 70
     1
102
RTVSPropertyOp37
 70
     1
102
RTVSPropertyOp38
 70
     1
102
RTVSPropertyOp39
 70
     1
102
RTVSPropertyOp40
 70
     1
102
RTVSPropertyOp41
 70
     1
102
RTVSPropertyOp42
 70
     1
102
RTVSPropertyOp43
 70
     1
102
RTVSPropertyOp44
 70
     1
102
RTVSPropertyOp45
 70
     1
102
RTVSPropertyOp46
 70
     1
102
RTVSPropertyOp47
 70
     1
102
RTVSPropertyOp48
 70
     1
102
RTVSPropertyOp49
 70
     1
102
RTVSPropertyOp50
 70
     1
102
RTVSPropertyOp51
 70
     0
102
RTVSPropertyOp52
 70
     0
102
RTVSPropertyOp53
 70
     1
102
RTVSPropertyOp54
 70
     1
102
RTVSPropertyOp55
 70
     1
102
RTVSPropertyOp56
 70
     1
102
RTVSPropertyOp57
 70
     1
102
RTVSPost2010Prop28
280
     0
102
RTVSPost2010PropOp28
 70
     1
102
RTVSPost2010Prop29
280
     1
102
RTVSPost2010PropOp29
 70
     1
102
RTVSPost2010Prop30
280
     1
102
RTVSPost2010PropOp30
 70
     1
102
RTVSPost2010Prop31
280
     0
102
RTVSPost2010PropOp31
 70
     1
102
RTVSPost2010Prop32
280
     0
102
RTVSPost2010PropOp32
 70
     1
102
RTVSPost2010Prop33
280
     0
102
RTVSPost2010PropOp33
 70
     1
102
RTVSPost2010Prop34
280
     0
102
RTVSPost2010PropOp34
 70
     1
102
RTVSPost2010Prop35
280
     0
102
RTVSPost2010PropOp35
 70
     1
102
RTVSPost2010Prop36
280
     0
102
RTVSPost2010PropOp36
 70
     1
102
RTVSPost2010Prop37
 90
       50
102
RTVSPost2010PropOp37
 70
     1
102
RTVSPost2010Prop38
140
0.0
102
RTVSPost2010PropOp38
 70
     1
102
RTVSPost2010Prop39
140
1.0
102
RTVSPost2010PropOp39
 70
     1
102
RTVSPost2010Prop40
 90
        0
102
RTVSPost2010PropOp40
 70
     1
102
RTVSPost2010Prop41ColorIndex
 90
       18
102
RTVSPost2010Prop41ColorRGB
 90
        0
102
RTVSPost2010PropOp41
 70
     1
102
RTVSPost2010Prop42
 90
       50
102
RTVSPost2010PropOp42
 70
     1
102
RTVSPost2010Prop43
 90
        3
102
RTVSPost2010PropOp43
 70
     1
102
RTVSPost2010Prop44ColorIndex
 90
        5
102
RTVSPost2010Prop44ColorRGB
 90
      255
102
RTVSPost2010PropOp44
 70
     1
102
RTVSPost2010Prop45
280
     0
102
RTVSPost2010PropOp45
 70
     1
102
RTVSPost2010Prop46
 90
       50
102
RTVSPost2010PropOp46
 70
     1
102
RTVSPost2010Prop47
 90
       50
102
RTVSPost2010PropOp47
 70
     1
102
RTVSPost2010Prop48
 90
       50
102
RTVSPost2010PropOp48
 70
     1
102
RTVSPost2010Prop49
280
     0
102
RTVSPost2010PropOp49
 70
     1
102
RTVSPost2010Prop50
 90
       50
102
RTVSPost2010PropOp50
 70
     1
102
RTVSPost2010Prop51ColorIndex
 90
      256
102
RTVSPost2010Prop51ColorRGB
 90
-16777216
102
RTVSPost2010PropOp51
 70
     0
102
RTVSPost2010Prop52
140
1.0
102
RTVSPost2010PropOp52
 70
     0
102
RTVSPost2010Prop53
 90
        2
102
RTVSPost2010PropOp53
 70
     1
102
RTVSPost2010Prop54
  1
strokes_ogs.tif
102
RTVSPost2010PropOp54
 70
     1
102
RTVSPost2010Prop55
280
     0
102
RTVSPost2010PropOp55
 70
     1
102
RTVSPost2010Prop56
140
1.0
102
RTVSPost2010PropOp56
 70
     1
102
RTVSPost2010Prop57
140
1.0
102
RTVSPost2010PropOp57
 70
     1
  0
XRECORD
  5
245
102
{ACAD_REACTORS
330
244
102
}
330
244
100
AcDbXrecord
280
     1
102
RTVSPropertyOp0
 70
     1
102
RTVSPropertyOp1
 70
     1
102
RTVSPropertyOp2
 70
     1
102
RTVSPropertyOp3
 70
     1
102
RTVSPropertyOp4
 70
     1
102
RTVSPropertyOp5
 70
     1
102
RTVSPropertyOp6
 70
     1
102
RTVSPropertyOp7
 70
     1
102
RTVSPropertyOp8
 70
     1
102
RTVSPropertyOp9
 70
     1
102
RTVSPropertyOp10
 70
     1
102
RTVSPropertyOp11
 70
     1
102
RTVSPropertyOp12
 70
     1
102
RTVSPropertyOp13
 70
     1
102
RTVSPropertyOp14
 70
     1
102
RTVSPropertyOp15
 70
     1
102
RTVSPropertyOp16
 70
     1
102
RTVSPropertyOp17
 70
     1
102
RTVSPropertyOp18
 70
     1
102
RTVSPropertyOp19
 70
     1
102
RTVSPropertyOp20
 70
     1
102
RTVSPropertyOp21
 70
     1
102
RTVSPropertyOp22
 70
     1
102
RTVSPropertyOp23
 70
     1
102
RTVSPropertyOp24
 70
     1
102
RTVSPropertyOp25
 70
     1
102
RTVSPropertyOp26
 70
     1
102
RTVSPropertyOp27
 70
     1
102
RTVSPropertyOp28
 70
     1
102
RTVSPropertyOp29
 70
     1
102
RTVSPropertyOp30
 70
     1
102
RTVSPropertyOp31
 70
     1
102
RTVSPropertyOp32
 70
     1
102
RTVSPropertyOp33
 70
     1
102
RTVSPropertyOp34
 70
     1
102
RTVSPropertyOp35
 70
     1
102
RTVSPropertyOp36
 70
     1
102
RTVSPropertyOp37
 70
     1
102
RTVSPropertyOp38
 70
     1
102
RTVSPropertyOp39
 70
     1
102
RTVSPropertyOp40
 70
     1
102
RTVSPropertyOp41
 70
     1
102
RTVSPropertyOp42
 70
     1
102
RTVSPropertyOp43
 70
     1
102
RTVSPropertyOp44
 70
     1
102
RTVSPropertyOp45
 70
     1
102
RTVSPropertyOp46
 70
     1
102
RTVSPropertyOp47
 70
     1
102
RTVSPropertyOp48
 70
     1
102
RTVSPropertyOp49
 70
     1
102
RTVSPropertyOp50
 70
     1
102
RTVSPropertyOp51
 70
     0
102
RTVSPropertyOp52
 70
     0
102
RTVSPropertyOp53
 70
     1
102
RTVSPropertyOp54
 70
     1
102
RTVSPropertyOp55
 70
     1
102
RTVSPropertyOp56
 70
     1
102
RTVSPropertyOp57
 70
     1
102
RTVSPost2010Prop28
280
     0
102
RTVSPost2010PropOp28
 70
     1
102
RTVSPost2010Prop29
280
     1
102
RTVSPost2010PropOp29
 70
     1
102
RTVSPost2010Prop30
280
     1
102
RTVSPost2010PropOp30
 70
     1
102
RTVSPost2010Prop31
280
     0
102
RTVSPost2010PropOp31
 70
     1
102
RTVSPost2010Prop32
280
     0
102
RTVSPost2010PropOp32
 70
     1
102
RTVSPost2010Prop33
280
     0
102
RTVSPost2010PropOp33
 70
     1
102
RTVSPost2010Prop34
280
     0
102
RTVSPost2010PropOp34
 70
     1
102
RTVSPost2010Prop35
280
     0
102
RTVSPost2010PropOp35
 70
     1
102
RTVSPost2010Prop36
280
     0
102
RTVSPost2010PropOp36
 70
     1
102
RTVSPost2010Prop37
 90
       50
102
RTVSPost2010PropOp37
 70
     1
102
RTVSPost2010Prop38
140
0.0
102
RTVSPost2010PropOp38
 70
     1
102
RTVSPost2010Prop39
140
1.0
102
RTVSPost2010PropOp39
 70
     1
102
RTVSPost2010Prop40
 90
        0
102
RTVSPost2010PropOp40
 70
     1
102
RTVSPost2010Prop41ColorIndex
 90
       18
102
RTVSPost2010Prop41ColorRGB
 90
        0
102
RTVSPost2010PropOp41
 70
     1
102
RTVSPost2010Prop42
 90
       50
102
RTVSPost2010PropOp42
 70
     1
102
RTVSPost2010Prop43
 90
        3
102
RTVSPost2010PropOp43
 70
     1
102
RTVSPost2010Prop44ColorIndex
 90
        5
102
RTVSPost2010Prop44ColorRGB
 90
      255
102
RTVSPost2010PropOp44
 70
     1
102
RTVSPost2010Prop45
280
     0
102
RTVSPost2010PropOp45
 70
     1
102
RTVSPost2010Prop46
 90
       50
102
RTVSPost2010PropOp46
 70
     1
102
RTVSPost2010Prop47
 90
       50
102
RTVSPost2010PropOp47
 70
     1
102
RTVSPost2010Prop48
 90
       50
102
RTVSPost2010PropOp48
 70
     1
102
RTVSPost2010Prop49
280
     0
102
RTVSPost2010PropOp49
 70
     1
102
RTVSPost2010Prop50
 90
       50
102
RTVSPost2010PropOp50
 70
     1
102
RTVSPost2010Prop51ColorIndex
 90
      256
102
RTVSPost2010Prop51ColorRGB
 90
-16777216
102
RTVSPost2010PropOp51
 70
     0
102
RTVSPost2010Prop52
140
1.0
102
RTVSPost2010PropOp52
 70
     0
102
RTVSPost2010Prop53
 90
        2
102
RTVSPost2010PropOp53
 70
     1
102
RTVSPost2010Prop54
  1
strokes_ogs.tif
102
RTVSPost2010PropOp54
 70
     1
102
RTVSPost2010Prop55
280
     0
102
RTVSPost2010PropOp55
 70
     1
102
RTVSPost2010Prop56
140
1.0
102
RTVSPost2010PropOp56
 70
     1
102
RTVSPost2010Prop57
140
1.0
102
RTVSPost2010PropOp57
 70
     1
  0
XRECORD
  5
247
102
{ACAD_REACTORS
330
246
102
}
330
246
100
AcDbXrecord
280
     1
102
RTVSPropertyOp0
 70
     1
102
RTVSPropertyOp1
 70
     1
102
RTVSPropertyOp2
 70
     1
102
RTVSPropertyOp3
 70
     1
102
RTVSPropertyOp4
 70
     1
102
RTVSPropertyOp5
 70
     1
102
RTVSPropertyOp6
 70
     1
102
RTVSPropertyOp7
 70
     1
102
RTVSPropertyOp8
 70
     1
102
RTVSPropertyOp9
 70
     1
102
RTVSPropertyOp10
 70
     1
102
RTVSPropertyOp11
 70
     1
102
RTVSPropertyOp12
 70
     1
102
RTVSPropertyOp13
 70
     1
102
RTVSPropertyOp14
 70
     1
102
RTVSPropertyOp15
 70
     1
102
RTVSPropertyOp16
 70
     1
102
RTVSPropertyOp17
 70
     1
102
RTVSPropertyOp18
 70
     1
102
RTVSPropertyOp19
 70
     1
102
RTVSPropertyOp20
 70
     1
102
RTVSPropertyOp21
 70
     1
102
RTVSPropertyOp22
 70
     1
102
RTVSPropertyOp23
 70
     1
102
RTVSPropertyOp24
 70
     1
102
RTVSPropertyOp25
 70
     1
102
RTVSPropertyOp26
 70
     1
102
RTVSPropertyOp27
 70
     1
102
RTVSPropertyOp28
 70
     1
102
RTVSPropertyOp29
 70
     1
102
RTVSPropertyOp30
 70
     1
102
RTVSPropertyOp31
 70
     1
102
RTVSPropertyOp32
 70
     1
102
RTVSPropertyOp33
 70
     1
102
RTVSPropertyOp34
 70
     1
102
RTVSPropertyOp35
 70
     1
102
RTVSPropertyOp36
 70
     1
102
RTVSPropertyOp37
 70
     1
102
RTVSPropertyOp38
 70
     1
102
RTVSPropertyOp39
 70
     1
102
RTVSPropertyOp40
 70
     1
102
RTVSPropertyOp41
 70
     1
102
RTVSPropertyOp42
 70
     1
102
RTVSPropertyOp43
 70
     1
102
RTVSPropertyOp44
 70
     1
102
RTVSPropertyOp45
 70
     1
102
RTVSPropertyOp46
 70
     1
102
RTVSPropertyOp47
 70
     1
102
RTVSPropertyOp48
 70
     1
102
RTVSPropertyOp49
 70
     1
102
RTVSPropertyOp50
 70
     1
102
RTVSPropertyOp51
 70
     0
102
RTVSPropertyOp52
 70
     0
102
RTVSPropertyOp53
 70
     1
102
RTVSPropertyOp54
 70
     1
102
RTVSPropertyOp55
 70
     1
102
RTVSPropertyOp56
 70
     1
102
RTVSPropertyOp57
 70
     1
102
RTVSPost2010Prop28
280
     0
102
RTVSPost2010PropOp28
 70
     1
102
RTVSPost2010Prop29
280
     1
102
RTVSPost2010PropOp29
 70
     1
102
RTVSPost2010Prop30
280
     1
102
RTVSPost2010PropOp30
 70
     1
102
RTVSPost2010Prop31
280
     0
102
RTVSPost2010PropOp31
 70
     1
102
RTVSPost2010Prop32
280
     0
102
RTVSPost2010PropOp32
 70
     1
102
RTVSPost2010Prop33
280
     0
102
RTVSPost2010PropOp33
 70
     1
102
RTVSPost2010Prop34
280
     0
102
RTVSPost2010PropOp34
 70
     1
102
RTVSPost2010Prop35
280
     0
102
RTVSPost2010PropOp35
 70
     1
102
RTVSPost2010Prop36
280
     0
102
RTVSPost2010PropOp36
 70
     1
102
RTVSPost2010Prop37
 90
       50
102
RTVSPost2010PropOp37
 70
     1
102
RTVSPost2010Prop38
140
0.0
102
RTVSPost2010PropOp38
 70
     1
102
RTVSPost2010Prop39
140
1.0
102
RTVSPost2010PropOp39
 70
     1
102
RTVSPost2010Prop40
 90
        0
102
RTVSPost2010PropOp40
 70
     1
102
RTVSPost2010Prop41ColorIndex
 90
       18
102
RTVSPost2010Prop41ColorRGB
 90
        0
102
RTVSPost2010PropOp41
 70
     1
102
RTVSPost2010Prop42
 90
       50
102
RTVSPost2010PropOp42
 70
     1
102
RTVSPost2010Prop43
 90
        3
102
RTVSPost2010PropOp43
 70
     1
102
RTVSPost2010Prop44ColorIndex
 90
        5
102
RTVSPost2010Prop44ColorRGB
 90
      255
102
RTVSPost2010PropOp44
 70
     1
102
RTVSPost2010Prop45
280
     0
102
RTVSPost2010PropOp45
 70
     1
102
RTVSPost2010Prop46
 90
       50
102
RTVSPost2010PropOp46
 70
     1
102
RTVSPost2010Prop47
 90
       50
102
RTVSPost2010PropOp47
 70
     1
102
RTVSPost2010Prop48
 90
       50
102
RTVSPost2010PropOp48
 70
     1
102
RTVSPost2010Prop49
280
     0
102
RTVSPost2010PropOp49
 70
     1
102
RTVSPost2010Prop50
 90
       50
102
RTVSPost2010PropOp50
 70
     1
102
RTVSPost2010Prop51ColorIndex
 90
      256
102
RTVSPost2010Prop51ColorRGB
 90
-16777216
102
RTVSPost2010PropOp51
 70
     0
102
RTVSPost2010Prop52
140
1.0
102
RTVSPost2010PropOp52
 70
     0
102
RTVSPost2010Prop53
 90
        2
102
RTVSPost2010PropOp53
 70
     1
102
RTVSPost2010Prop54
  1
strokes_ogs.tif
102
RTVSPost2010PropOp54
 70
     1
102
RTVSPost2010Prop55
280
     0
102
RTVSPost2010PropOp55
 70
     1
102
RTVSPost2010Prop56
140
1.0
102
RTVSPost2010PropOp56
 70
     1
102
RTVSPost2010Prop57
140
1.0
102
RTVSPost2010PropOp57
 70
     1
  0
XRECORD
  5
237
102
{ACAD_REACTORS
330
236
102
}
330
236
100
AcDbXrecord
280
     1
102
RTVSPropertyOp0
 70
     1
102
RTVSPropertyOp1
 70
     1
102
RTVSPropertyOp2
 70
     1
102
RTVSPropertyOp3
 70
     1
102
RTVSPropertyOp4
 70
     1
102
RTVSPropertyOp5
 70
     1
102
RTVSPropertyOp6
 70
     1
102
RTVSPropertyOp7
 70
     1
102
RTVSPropertyOp8
 70
     1
102
RTVSPropertyOp9
 70
     1
102
RTVSPropertyOp10
 70
     1
102
RTVSPropertyOp11
 70
     1
102
RTVSPropertyOp12
 70
     1
102
RTVSPropertyOp13
 70
     1
102
RTVSPropertyOp14
 70
     1
102
RTVSPropertyOp15
 70
     1
102
RTVSPropertyOp16
 70
     1
102
RTVSPropertyOp17
 70
     1
102
RTVSPropertyOp18
 70
     1
102
RTVSPropertyOp19
 70
     1
102
RTVSPropertyOp20
 70
     1
102
RTVSPropertyOp21
 70
     1
102
RTVSPropertyOp22
 70
     1
102
RTVSPropertyOp23
 70
     1
102
RTVSPropertyOp24
 70
     1
102
RTVSPropertyOp25
 70
     1
102
RTVSPropertyOp26
 70
     1
102
RTVSPropertyOp27
 70
     1
102
RTVSPropertyOp28
 70
     1
102
RTVSPropertyOp29
 70
     1
102
RTVSPropertyOp30
 70
     1
102
RTVSPropertyOp31
 70
     1
102
RTVSPropertyOp32
 70
     1
102
RTVSPropertyOp33
 70
     1
102
RTVSPropertyOp34
 70
     1
102
RTVSPropertyOp35
 70
     1
102
RTVSPropertyOp36
 70
     1
102
RTVSPropertyOp37
 70
     1
102
RTVSPropertyOp38
 70
     1
102
RTVSPropertyOp39
 70
     1
102
RTVSPropertyOp40
 70
     1
102
RTVSPropertyOp41
 70
     1
102
RTVSPropertyOp42
 70
     1
102
RTVSPropertyOp43
 70
     1
102
RTVSPropertyOp44
 70
     1
102
RTVSPropertyOp45
 70
     1
102
RTVSPropertyOp46
 70
     1
102
RTVSPropertyOp47
 70
     1
102
RTVSPropertyOp48
 70
     1
102
RTVSPropertyOp49
 70
     1
102
RTVSPropertyOp50
 70
     1
102
RTVSPropertyOp51
 70
     0
102
RTVSPropertyOp52
 70
     0
102
RTVSPropertyOp53
 70
     1
102
RTVSPropertyOp54
 70
     1
102
RTVSPropertyOp55
 70
     1
102
RTVSPropertyOp56
 70
     1
102
RTVSPropertyOp57
 70
     1
102
RTVSPost2010Prop28
280
     0
102
RTVSPost2010PropOp28
 70
     1
102
RTVSPost2010Prop29
280
     1
102
RTVSPost2010PropOp29
 70
     1
102
RTVSPost2010Prop30
280
     1
102
RTVSPost2010PropOp30
 70
     1
102
RTVSPost2010Prop31
280
     0
102
RTVSPost2010PropOp31
 70
     1
102
RTVSPost2010Prop32
280
     0
102
RTVSPost2010PropOp32
 70
     1
102
RTVSPost2010Prop33
280
     0
102
RTVSPost2010PropOp33
 70
     1
102
RTVSPost2010Prop34
280
     0
102
RTVSPost2010PropOp34
 70
     1
102
RTVSPost2010Prop35
280
     0
102
RTVSPost2010PropOp35
 70
     1
102
RTVSPost2010Prop36
280
     0
102
RTVSPost2010PropOp36
 70
     1
102
RTVSPost2010Prop37
 90
       50
102
RTVSPost2010PropOp37
 70
     1
102
RTVSPost2010Prop38
140
0.0
102
RTVSPost2010PropOp38
 70
     1
102
RTVSPost2010Prop39
140
1.0
102
RTVSPost2010PropOp39
 70
     1
102
RTVSPost2010Prop40
 90
        0
102
RTVSPost2010PropOp40
 70
     1
102
RTVSPost2010Prop41ColorIndex
 90
       18
102
RTVSPost2010Prop41ColorRGB
 90
        0
102
RTVSPost2010PropOp41
 70
     1
102
RTVSPost2010Prop42
 90
       50
102
RTVSPost2010PropOp42
 70
     1
102
RTVSPost2010Prop43
 90
        3
102
RTVSPost2010PropOp43
 70
     1
102
RTVSPost2010Prop44ColorIndex
 90
        5
102
RTVSPost2010Prop44ColorRGB
 90
      255
102
RTVSPost2010PropOp44
 70
     1
102
RTVSPost2010Prop45
280
     0
102
RTVSPost2010PropOp45
 70
     1
102
RTVSPost2010Prop46
 90
       50
102
RTVSPost2010PropOp46
 70
     1
102
RTVSPost2010Prop47
 90
       50
102
RTVSPost2010PropOp47
 70
     1
102
RTVSPost2010Prop48
 90
       50
102
RTVSPost2010PropOp48
 70
     1
102
RTVSPost2010Prop49
280
     0
102
RTVSPost2010PropOp49
 70
     1
102
RTVSPost2010Prop50
 90
       50
102
RTVSPost2010PropOp50
 70
     1
102
RTVSPost2010Prop51ColorIndex
 90
      256
102
RTVSPost2010Prop51ColorRGB
 90
-16777216
102
RTVSPost2010PropOp51
 70
     0
102
RTVSPost2010Prop52
140
1.0
102
RTVSPost2010PropOp52
 70
     0
102
RTVSPost2010Prop53
 90
        2
102
RTVSPost2010PropOp53
 70
     1
102
RTVSPost2010Prop54
  1
strokes_ogs.tif
102
RTVSPost2010PropOp54
 70
     1
102
RTVSPost2010Prop55
280
     0
102
RTVSPost2010PropOp55
 70
     1
102
RTVSPost2010Prop56
140
1.0
102
RTVSPost2010PropOp56
 70
     1
102
RTVSPost2010Prop57
140
1.0
102
RTVSPost2010PropOp57
 70
     1
  0
XRECORD
  5
229
102
{ACAD_REACTORS
330
228
102
}
330
228
100
AcDbXrecord
280
     1
102
RTVSPropertyOp0
 70
     1
102
RTVSPropertyOp1
 70
     1
102
RTVSPropertyOp2
 70
     1
102
RTVSPropertyOp3
 70
     1
102
RTVSPropertyOp4
 70
     1
102
RTVSPropertyOp5
 70
     1
102
RTVSPropertyOp6
 70
     1
102
RTVSPropertyOp7
 70
     1
102
RTVSPropertyOp8
 70
     1
102
RTVSPropertyOp9
 70
     1
102
RTVSPropertyOp10
 70
     1
102
RTVSPropertyOp11
 70
     1
102
RTVSPropertyOp12
 70
     1
102
RTVSPropertyOp13
 70
     1
102
RTVSPropertyOp14
 70
     1
102
RTVSPropertyOp15
 70
     1
102
RTVSPropertyOp16
 70
     1
102
RTVSPropertyOp17
 70
     1
102
RTVSPropertyOp18
 70
     1
102
RTVSPropertyOp19
 70
     1
102
RTVSPropertyOp20
 70
     1
102
RTVSPropertyOp21
 70
     1
102
RTVSPropertyOp22
 70
     1
102
RTVSPropertyOp23
 70
     1
102
RTVSPropertyOp24
 70
     1
102
RTVSPropertyOp25
 70
     1
102
RTVSPropertyOp26
 70
     1
102
RTVSPropertyOp27
 70
     1
102
RTVSPropertyOp28
 70
     1
102
RTVSPropertyOp29
 70
     1
102
RTVSPropertyOp30
 70
     1
102
RTVSPropertyOp31
 70
     1
102
RTVSPropertyOp32
 70
     1
102
RTVSPropertyOp33
 70
     1
102
RTVSPropertyOp34
 70
     1
102
RTVSPropertyOp35
 70
     1
102
RTVSPropertyOp36
 70
     1
102
RTVSPropertyOp37
 70
     1
102
RTVSPropertyOp38
 70
     1
102
RTVSPropertyOp39
 70
     1
102
RTVSPropertyOp40
 70
     1
102
RTVSPropertyOp41
 70
     1
102
RTVSPropertyOp42
 70
     1
102
RTVSPropertyOp43
 70
     1
102
RTVSPropertyOp44
 70
     1
102
RTVSPropertyOp45
 70
     1
102
RTVSPropertyOp46
 70
     1
102
RTVSPropertyOp47
 70
     1
102
RTVSPropertyOp48
 70
     1
102
RTVSPropertyOp49
 70
     1
102
RTVSPropertyOp50
 70
     1
102
RTVSPropertyOp51
 70
     0
102
RTVSPropertyOp52
 70
     0
102
RTVSPropertyOp53
 70
     1
102
RTVSPropertyOp54
 70
     1
102
RTVSPropertyOp55
 70
     1
102
RTVSPropertyOp56
 70
     1
102
RTVSPropertyOp57
 70
     1
102
RTVSPost2010Prop28
280
     0
102
RTVSPost2010PropOp28
 70
     1
102
RTVSPost2010Prop29
280
     1
102
RTVSPost2010PropOp29
 70
     1
102
RTVSPost2010Prop30
280
     1
102
RTVSPost2010PropOp30
 70
     1
102
RTVSPost2010Prop31
280
     0
102
RTVSPost2010PropOp31
 70
     1
102
RTVSPost2010Prop32
280
     0
102
RTVSPost2010PropOp32
 70
     1
102
RTVSPost2010Prop33
280
     0
102
RTVSPost2010PropOp33
 70
     1
102
RTVSPost2010Prop34
280
     0
102
RTVSPost2010PropOp34
 70
     1
102
RTVSPost2010Prop35
280
     0
102
RTVSPost2010PropOp35
 70
     1
102
RTVSPost2010Prop36
280
     0
102
RTVSPost2010PropOp36
 70
     1
102
RTVSPost2010Prop37
 90
       50
102
RTVSPost2010PropOp37
 70
     1
102
RTVSPost2010Prop38
140
0.0
102
RTVSPost2010PropOp38
 70
     1
102
RTVSPost2010Prop39
140
1.0
102
RTVSPost2010PropOp39
 70
     1
102
RTVSPost2010Prop40
 90
        0
102
RTVSPost2010PropOp40
 70
     1
102
RTVSPost2010Prop41ColorIndex
 90
       18
102
RTVSPost2010Prop41ColorRGB
 90
        0
102
RTVSPost2010PropOp41
 70
     1
102
RTVSPost2010Prop42
 90
       50
102
RTVSPost2010PropOp42
 70
     1
102
RTVSPost2010Prop43
 90
        3
102
RTVSPost2010PropOp43
 70
     1
102
RTVSPost2010Prop44ColorIndex
 90
        5
102
RTVSPost2010Prop44ColorRGB
 90
      255
102
RTVSPost2010PropOp44
 70
     1
102
RTVSPost2010Prop45
280
     0
102
RTVSPost2010PropOp45
 70
     1
102
RTVSPost2010Prop46
 90
       50
102
RTVSPost2010PropOp46
 70
     1
102
RTVSPost2010Prop47
 90
       50
102
RTVSPost2010PropOp47
 70
     1
102
RTVSPost2010Prop48
 90
       50
102
RTVSPost2010PropOp48
 70
     1
102
RTVSPost2010Prop49
280
     0
102
RTVSPost2010PropOp49
 70
     1
102
RTVSPost2010Prop50
 90
       50
102
RTVSPost2010PropOp50
 70
     1
102
RTVSPost2010Prop51ColorIndex
 90
      256
102
RTVSPost2010Prop51ColorRGB
 90
-16777216
102
RTVSPost2010PropOp51
 70
     0
102
RTVSPost2010Prop52
140
1.0
102
RTVSPost2010PropOp52
 70
     0
102
RTVSPost2010Prop53
 90
        2
102
RTVSPost2010PropOp53
 70
     1
102
RTVSPost2010Prop54
  1
strokes_ogs.tif
102
RTVSPost2010PropOp54
 70
     1
102
RTVSPost2010Prop55
280
     0
102
RTVSPost2010PropOp55
 70
     1
102
RTVSPost2010Prop56
140
1.0
102
RTVSPost2010PropOp56
 70
     1
102
RTVSPost2010Prop57
140
1.0
102
RTVSPost2010PropOp57
 70
     1
  0
XRECORD
  5
249
102
{ACAD_REACTORS
330
248
102
}
330
248
100
AcDbXrecord
280
     1
102
RTVSPropertyOp0
 70
     1
102
RTVSPropertyOp1
 70
     1
102
RTVSPropertyOp2
 70
     1
102
RTVSPropertyOp3
 70
     1
102
RTVSPropertyOp4
 70
     1
102
RTVSPropertyOp5
 70
     1
102
RTVSPropertyOp6
 70
     1
102
RTVSPropertyOp7
 70
     1
102
RTVSPropertyOp8
 70
     1
102
RTVSPropertyOp9
 70
     1
102
RTVSPropertyOp10
 70
     1
102
RTVSPropertyOp11
 70
     1
102
RTVSPropertyOp12
 70
     1
102
RTVSPropertyOp13
 70
     1
102
RTVSPropertyOp14
 70
     1
102
RTVSPropertyOp15
 70
     1
102
RTVSPropertyOp16
 70
     1
102
RTVSPropertyOp17
 70
     1
102
RTVSPropertyOp18
 70
     1
102
RTVSPropertyOp19
 70
     1
102
RTVSPropertyOp20
 70
     1
102
RTVSPropertyOp21
 70
     1
102
RTVSPropertyOp22
 70
     1
102
RTVSPropertyOp23
 70
     1
102
RTVSPropertyOp24
 70
     1
102
RTVSPropertyOp25
 70
     1
102
RTVSPropertyOp26
 70
     1
102
RTVSPropertyOp27
 70
     1
102
RTVSPropertyOp28
 70
     1
102
RTVSPropertyOp29
 70
     1
102
RTVSPropertyOp30
 70
     1
102
RTVSPropertyOp31
 70
     1
102
RTVSPropertyOp32
 70
     1
102
RTVSPropertyOp33
 70
     1
102
RTVSPropertyOp34
 70
     1
102
RTVSPropertyOp35
 70
     1
102
RTVSPropertyOp36
 70
     1
102
RTVSPropertyOp37
 70
     1
102
RTVSPropertyOp38
 70
     1
102
RTVSPropertyOp39
 70
     1
102
RTVSPropertyOp40
 70
     1
102
RTVSPropertyOp41
 70
     1
102
RTVSPropertyOp42
 70
     1
102
RTVSPropertyOp43
 70
     1
102
RTVSPropertyOp44
 70
     1
102
RTVSPropertyOp45
 70
     1
102
RTVSPropertyOp46
 70
     1
102
RTVSPropertyOp47
 70
     1
102
RTVSPropertyOp48
 70
     1
102
RTVSPropertyOp49
 70
     1
102
RTVSPropertyOp50
 70
     1
102
RTVSPropertyOp51
 70
     0
102
RTVSPropertyOp52
 70
     0
102
RTVSPropertyOp53
 70
     1
102
RTVSPropertyOp54
 70
     1
102
RTVSPropertyOp55
 70
     1
102
RTVSPropertyOp56
 70
     1
102
RTVSPropertyOp57
 70
     1
102
RTVSPost2010Prop28
280
     0
102
RTVSPost2010PropOp28
 70
     1
102
RTVSPost2010Prop29
280
     1
102
RTVSPost2010PropOp29
 70
     1
102
RTVSPost2010Prop30
280
     1
102
RTVSPost2010PropOp30
 70
     1
102
RTVSPost2010Prop31
280
     0
102
RTVSPost2010PropOp31
 70
     1
102
RTVSPost2010Prop32
280
     0
102
RTVSPost2010PropOp32
 70
     1
102
RTVSPost2010Prop33
280
     0
102
RTVSPost2010PropOp33
 70
     1
102
RTVSPost2010Prop34
280
     0
102
RTVSPost2010PropOp34
 70
     1
102
RTVSPost2010Prop35
280
     0
102
RTVSPost2010PropOp35
 70
     1
102
RTVSPost2010Prop36
280
     0
102
RTVSPost2010PropOp36
 70
     1
102
RTVSPost2010Prop37
 90
       50
102
RTVSPost2010PropOp37
 70
     1
102
RTVSPost2010Prop38
140
0.0
102
RTVSPost2010PropOp38
 70
     1
102
RTVSPost2010Prop39
140
1.0
102
RTVSPost2010PropOp39
 70
     1
102
RTVSPost2010Prop40
 90
        0
102
RTVSPost2010PropOp40
 70
     1
102
RTVSPost2010Prop41ColorIndex
 90
       18
102
RTVSPost2010Prop41ColorRGB
 90
        0
102
RTVSPost2010PropOp41
 70
     1
102
RTVSPost2010Prop42
 90
       50
102
RTVSPost2010PropOp42
 70
     1
102
RTVSPost2010Prop43
 90
        3
102
RTVSPost2010PropOp43
 70
     1
102
RTVSPost2010Prop44ColorIndex
 90
        5
102
RTVSPost2010Prop44ColorRGB
 90
      255
102
RTVSPost2010PropOp44
 70
     1
102
RTVSPost2010Prop45
280
     0
102
RTVSPost2010PropOp45
 70
     1
102
RTVSPost2010Prop46
 90
       50
102
RTVSPost2010PropOp46
 70
     1
102
RTVSPost2010Prop47
 90
       50
102
RTVSPost2010PropOp47
 70
     1
102
RTVSPost2010Prop48
 90
       50
102
RTVSPost2010PropOp48
 70
     1
102
RTVSPost2010Prop49
280
     0
102
RTVSPost2010PropOp49
 70
     1
102
RTVSPost2010Prop50
 90
       50
102
RTVSPost2010PropOp50
 70
     1
102
RTVSPost2010Prop51ColorIndex
 90
      256
102
RTVSPost2010Prop51ColorRGB
 90
-16777216
102
RTVSPost2010PropOp51
 70
     0
102
RTVSPost2010Prop52
140
1.0
102
RTVSPost2010PropOp52
 70
     0
102
RTVSPost2010Prop53
 90
        2
102
RTVSPost2010PropOp53
 70
     1
102
RTVSPost2010Prop54
  1
strokes_ogs.tif
102
RTVSPost2010PropOp54
 70
     1
102
RTVSPost2010Prop55
280
     0
102
RTVSPost2010PropOp55
 70
     1
102
RTVSPost2010Prop56
140
1.0
102
RTVSPost2010PropOp56
 70
     1
102
RTVSPost2010Prop57
140
1.0
102
RTVSPost2010PropOp57
 70
     1
  0
ENDSEC
  0
EOF
