  0
SECTION
  2
HEADER
  9
$ACADVER
  1
AC1015
  9
$ACADMAINTVER
 70
     6
  9
$DWGCODEPAGE
  3
ANSI_1252
  9
$INSBASE
 10
0.0
 20
0.0
 30
0.0
  9
$EXTMIN
 10
0.0
 20
0.0
 30
0.0
  9
$EXTMAX
 10
594.0
 20
420.0
 30
0.0
  9
$LIMMIN
 10
0.0
 20
0.0
  9
$LIMMAX
 10
594.0
 20
420.0
  9
$ORTHOMODE
 70
     0
  9
$REGENMODE
 70
     1
  9
$FILLMODE
 70
     1
  9
$QTEXTMODE
 70
     0
  9
$MIRRTEXT
 70
     1
  9
$LTSCALE
 40
1.0
  9
$ATTMODE
 70
     1
  9
$TEXTSIZE
 40
3.5
  9
$TRACEWID
 40
1.0
  9
$TEXTSTYLE
  7
Standard
  9
$CLAYER
  8
0
  9
$CELTYPE
  6
ByLayer
  9
$CECOLOR
 62
   256
  9
$CELTSCALE
 40
1.0
  9
$DISPSILH
 70
     0
  9
$DIMSCALE
 40
1.0
  9
$DIMASZ
 40
3.556
  9
$DIMEXO
 40
1.0
  9
$DIMDLI
 40
3.75
  9
$DIMRND
 40
0.0
  9
$DIMDLE
 40
0.0
  9
$DIMEXE
 40
1.0
  9
$DIMTP
 40
0.0
  9
$DIMTM
 40
0.0
  9
$DIMTXT
 40
3.5
  9
$DIMCEN
 40
2.5
  9
$DIMTSZ
 40
0.0
  9
$DIMTOL
 70
     0
  9
$DIMLIM
 70
     0
  9
$DIMTIH
 70
     1
  9
$DIMTOH
 70
     1
  9
$DIMSE1
 70
     0
  9
$DIMSE2
 70
     0
  9
$DIMTAD
 70
     1
  9
$DIMZIN
 70
     1
  9
$DIMBLK
  1

  9
$DIMASO
 70
     1
  9
$DIMSHO
 70
     1
  9
$DIMPOST
  1

  9
$DIMAPOST
  1

  9
$DIMALT
 70
     0
  9
$DIMALTD
 70
     3
  9
$DIMALTF
 40
0.0393700787
  9
$DIMLFAC
 40
1.0
  9
$DIMTOFL
 70
     1
  9
$DIMTVP
 40
0.0
  9
$DIMTIX
 70
     0
  9
$DIMSOXD
 70
     0
  9
$DIMSAH
 70
     0
  9
$DIMBLK1
  1

  9
$DIMBLK2
  1

  9
$DIMSTYLE
  2
ISO-25
  9
$DIMCLRD
 70
     0
  9
$DIMCLRE
 70
     0
  9
$DIMCLRT
 70
     0
  9
$DIMTFAC
 40
1.0
  9
$DIMGAP
 40
1.524
  9
$DIMJUST
 70
     0
  9
$DIMSD1
 70
     0
  9
$DIMSD2
 70
     0
  9
$DIMTOLJ
 70
     0
  9
$DIMTZIN
 70
     1
  9
$DIMALTZ
 70
     0
  9
$DIMALTTZ
 70
     0
  9
$DIMUPT
 70
     0
  9
$DIMDEC
 70
     2
  9
$DIMTDEC
 70
     2
  9
$DIMALTU
 70
     2
  9
$DIMALTTD
 70
     3
  9
$DIMTXSTY
  7
Standard
  9
$DIMAUNIT
 70
     0
  9
$DIMADEC
 70
     2
  9
$DIMALTRND
 40
0.0
  9
$DIMAZIN
 70
     0
  9
$DIMDSEP
 70
    44
  9
$DIMATFIT
 70
     3
  9
$DIMFRAC
 70
     0
  9
$DIMLDRBLK
  1

  9
$DIMLUNIT
 70
     2
  9
$DIMLWD
 70
    -2
  9
$DIMLWE
 70
    -2
  9
$DIMTMOVE
 70
     0
  9
$LUNITS
 70
     2
  9
$LUPREC
 70
     2
  9
$SKETCHINC
 40
1.0
  9
$FILLETRAD
 40
10.0
  9
$AUNITS
 70
     0
  9
$AUPREC
 70
     2
  9
$MENU
  1
.
  9
$ELEVATION
 40
0.0
  9
$PELEVATION
 40
0.0
  9
$THICKNESS
 40
0.0
  9
$LIMCHECK
 70
     0
  9
$CHAMFERA
 40
10.0
  9
$CHAMFERB
 40
10.0
  9
$CHAMFERC
 40
20.0
  9
$CHAMFERD
 40
0.0
  9
$SKPOLY
 70
     0
  9
$TDCREATE
 40
2455595.620049549
  9
$TDUCREATE
 40
2455595.578382882
  9
$TDUPDATE
 40
2455595.62004956
  9
$TDUUPDATE
 40
2455595.578382893
  9
$TDINDWG
 40
0.0000000116
  9
$TDUSRTIMER
 40
0.0000000116
  9
$USRTIMER
 70
     1
  9
$ANGBASE
 50
0.0
  9
$ANGDIR
 70
     0
  9
$PDMODE
 70
     0
  9
$PDSIZE
 40
-1.0
  9
$PLINEWID
 40
0.0
  9
$SPLFRAME
 70
     0
  9
$SPLINETYPE
 70
     6
  9
$SPLINESEGS
 70
     8
  9
$HANDSEED
  5
58E
  9
$SURFTAB1
 70
     6
  9
$SURFTAB2
 70
     6
  9
$SURFTYPE
 70
     6
  9
$SURFU
 70
     6
  9
$SURFV
 70
     6
  9
$UCSBASE
  2

  9
$UCSNAME
  2

  9
$UCSORG
 10
0.0
 20
0.0
 30
0.0
  9
$UCSXDIR
 10
1.0
 20
0.0
 30
0.0
  9
$UCSYDIR
 10
0.0
 20
1.0
 30
0.0
  9
$UCSORTHOREF
  2

  9
$UCSORTHOVIEW
 70
     0
  9
$UCSORGTOP
 10
0.0
 20
0.0
 30
0.0
  9
$UCSORGBOTTOM
 10
0.0
 20
0.0
 30
0.0
  9
$UCSORGLEFT
 10
0.0
 20
0.0
 30
0.0
  9
$UCSORGRIGHT
 10
0.0
 20
0.0
 30
0.0
  9
$UCSORGFRONT
 10
0.0
 20
0.0
 30
0.0
  9
$UCSORGBACK
 10
0.0
 20
0.0
 30
0.0
  9
$PUCSBASE
  2

  9
$PUCSNAME
  2

  9
$PUCSORG
 10
0.0
 20
0.0
 30
0.0
  9
$PUCSXDIR
 10
1.0
 20
0.0
 30
0.0
  9
$PUCSYDIR
 10
0.0
 20
1.0
 30
0.0
  9
$PUCSORTHOREF
  2

  9
$PUCSORTHOVIEW
 70
     0
  9
$PUCSORGTOP
 10
0.0
 20
0.0
 30
0.0
  9
$PUCSORGBOTTOM
 10
0.0
 20
0.0
 30
0.0
  9
$PUCSORGLEFT
 10
0.0
 20
0.0
 30
0.0
  9
$PUCSORGRIGHT
 10
0.0
 20
0.0
 30
0.0
  9
$PUCSORGFRONT
 10
0.0
 20
0.0
 30
0.0
  9
$PUCSORGBACK
 10
0.0
 20
0.0
 30
0.0
  9
$USERI1
 70
     0
  9
$USERI2
 70
     0
  9
$USERI3
 70
     0
  9
$USERI4
 70
     0
  9
$USERI5
 70
     0
  9
$USERR1
 40
0.0
  9
$USERR2
 40
0.0
  9
$USERR3
 40
0.0
  9
$USERR4
 40
0.0
  9
$USERR5
 40
0.0
  9
$WORLDVIEW
 70
     1
  9
$SHADEDGE
 70
     3
  9
$SHADEDIF
 70
    70
  9
$TILEMODE
 70
     1
  9
$MAXACTVP
 70
    64
  9
$PINSBASE
 10
0.0
 20
0.0
 30
0.0
  9
$PLIMCHECK
 70
     0
  9
$PEXTMIN
 10
1.0000000000E+20
 20
1.0000000000E+20
 30
1.0000000000E+20
  9
$PEXTMAX
 10
-1.0000000000E+20
 20
-1.0000000000E+20
 30
-1.0000000000E+20
  9
$PLIMMIN
 10
0.0
 20
0.0
  9
$PLIMMAX
 10
420.0
 20
297.0
  9
$UNITMODE
 70
     0
  9
$VISRETAIN
 70
     1
  9
$PLINEGEN
 70
     0
  9
$PSLTSCALE
 70
     1
  9
$TREEDEPTH
 70
  3020
  9
$CMLSTYLE
  2
Standard
  9
$CMLJUST
 70
     0
  9
$CMLSCALE
 40
20.0
  9
$PROXYGRAPHICS
 70
     1
  9
$MEASUREMENT
 70
     1
  9
$CELWEIGHT
370
    -1
  9
$ENDCAPS
280
     0
  9
$JOINSTYLE
280
     0
  9
$LWDISPLAY
290
     1
  9
$INSUNITS
 70
     4
  9
$HYPERLINKBASE
  1

  9
$STYLESHEET
  1

  9
$XEDIT
290
     1
  9
$CEPSNTYPE
380
     0
  9
$PSTYLEMODE
290
     1
  9
$FINGERPRINTGUID
  2
{4C5FDABC-3A73-4B63-A85B-693BF949A792}
  9
$VERSIONGUID
  2
{FAEB1C32-E019-11D5-929B-00C0DF256EC4}
  9
$EXTNAMES
290
     1
  9
$PSVPSCALE
 40
0.0
  9
$OLESTARTUP
290
     0
  0
ENDSEC
  0
SECTION
  2
CLASSES
  0
CLASS
  1
ACDBDICTIONARYWDFLT
  2
AcDbDictionaryWithDefault
  3
ObjectDBX Classes
 90
        0
280
     0
281
     0
  0
CLASS
  1
VISUALSTYLE
  2
AcDbVisualStyle
  3
ObjectDBX Classes
 90
     4095
280
     0
281
     0
  0
CLASS
  1
MATERIAL
  2
AcDbMaterial
  3
ObjectDBX Classes
 90
     1153
280
     0
281
     0
  0
CLASS
  1
SCALE
  2
AcDbScale
  3
ObjectDBX Classes
 90
     1153
280
     0
281
     0
  0
CLASS
  1
DICTIONARYVAR
  2
AcDbDictionaryVar
  3
ObjectDBX Classes
 90
        0
280
     0
281
     0
  0
CLASS
  1
ACDBPLACEHOLDER
  2
AcDbPlaceHolder
  3
ObjectDBX Classes
 90
        0
280
     0
281
     0
  0
CLASS
  1
LAYOUT
  2
AcDbLayout
  3
ObjectDBX Classes
 90
        0
280
     0
281
     0
  0
ENDSEC
  0
SECTION
  2
TABLES
  0
TABLE
  2
VPORT
  5
8
330
0
100
AcDbSymbolTable
 70
     1
  0
VPORT
  5
29
330
8
100
AcDbSymbolTableRecord
100
AcDbViewportTableRecord
  2
*Active
 70
     0
 10
0.0
 20
0.0
 11
1.0
 21
1.0
 12
297.0
 22
210.0
 13
0.0
 23
0.0
 14
10.0
 24
10.0
 15
10.0
 25
10.0
 16
0.0
 26
0.0
 36
1.0
 17
0.0
 27
0.0
 37
0.0
 40
420.0
 41
1.4142857143
 42
50.0
 43
0.0
 44
0.0
 50
0.0
 51
0.0
 71
     0
 72
  2000
 73
     1
 74
     3
 75
     0
 76
     0
 77
     0
 78
     0
281
     0
 65
     1
110
0.0
120
0.0
130
0.0
111
1.0
121
0.0
131
0.0
112
0.0
122
1.0
132
0.0
 79
     0
146
0.0
  0
ENDTAB
  0
TABLE
  2
LTYPE
  5
5
330
0
100
AcDbSymbolTable
 70
     6
  0
LTYPE
  5
14
330
5
100
AcDbSymbolTableRecord
100
AcDbLinetypeTableRecord
  2
ByBlock
 70
     0
  3

 72
    65
 73
     0
 40
0.0
  0
LTYPE
  5
15
330
5
100
AcDbSymbolTableRecord
100
AcDbLinetypeTableRecord
  2
ByLayer
 70
     0
  3

 72
    65
 73
     0
 40
0.0
  0
LTYPE
  5
16
330
5
100
AcDbSymbolTableRecord
100
AcDbLinetypeTableRecord
  2
Continuous
 70
     0
  3
Solid line
 72
    65
 73
     0
 40
0.0
  0
LTYPE
  5
3F
330
5
100
AcDbSymbolTableRecord
100
AcDbLinetypeTableRecord
  2
HIDDEN
 70
     0
  3
Hidden __ __ __ __ __ __ __ __ __ __ __ __ __ __
 72
    65
 73
     2
 40
1.905
 49
1.27
 74
     0
 49
-0.635
 74
     0
  0
LTYPE
  5
40
330
5
100
AcDbSymbolTableRecord
100
AcDbLinetypeTableRecord
  2
PHANTOM
 70
     0
  3
Phantom ______  __  __  ______  __  __  ______
 72
    65
 73
     6
 40
12.7
 49
6.35
 74
     0
 49
-1.27
 74
     0
 49
1.27
 74
     0
 49
-1.27
 74
     0
 49
1.27
 74
     0
 49
-1.27
 74
     0
  0
LTYPE
  5
41
330
5
100
AcDbSymbolTableRecord
100
AcDbLinetypeTableRecord
  2
CENTER
 70
     0
  3
Center ____ _ ____ _ ____ _ ____ _ ____ _ ____
 72
    65
 73
     4
 40
10.16
 49
6.35
 74
     0
 49
-1.27
 74
     0
 49
1.27
 74
     0
 49
-1.27
 74
     0
  0
LTYPE
  5
42
330
5
100
AcDbSymbolTableRecord
100
AcDbLinetypeTableRecord
  2
CENTERX2
 70
     0
  3
Center (2x) ________  __  ________  __  _____
 72
    65
 73
     4
 40
20.32
 49
12.7
 74
     0
 49
-2.54
 74
     0
 49
2.54
 74
     0
 49
-2.54
 74
     0
  0
LTYPE
  5
43
330
5
100
AcDbSymbolTableRecord
100
AcDbLinetypeTableRecord
  2
DOT2
 70
     0
  3
Dot (.5x) ........................................
 72
    65
 73
     2
 40
0.635
 49
0.0
 74
     0
 49
-0.635
 74
     0
  0
ENDTAB
  0
TABLE
  2
LAYER
  5
2
330
0
100
AcDbSymbolTable
 70
     3
  0
LAYER
  5
10
330
2
100
AcDbSymbolTableRecord
100
AcDbLayerTableRecord
  2
0
 70
     0
 62
     7
  6
Continuous
370
    -3
390
F
  0
LAYER
  5
44
330
2
100
AcDbSymbolTableRecord
100
AcDbLayerTableRecord
  2
SLD-0
 70
     0
 62
   179
  6
Continuous
370
    -3
390
F
  0
LAYER
  5
45
330
2
100
AcDbSymbolTableRecord
100
AcDbLayerTableRecord
  2
FORMAT
 70
     0
 62
   179
  6
Continuous
370
    -3
390
F
  0
ENDTAB
  0
TABLE
  2
STYLE
  5
3
330
0
100
AcDbSymbolTable
 70
     4
  0
STYLE
  5
11
330
3
100
AcDbSymbolTableRecord
100
AcDbTextStyleTableRecord
  2
Standard
 70
     0
 40
0.0
 41
1.0
 50
0.0
 71
     0
 42
2.5
  3
txt
  4

  0
STYLE
  5
186
330
3
100
AcDbSymbolTableRecord
100
AcDbTextStyleTableRecord
  2
SLDTEXTSTYLE0
 70
     0
 40
0.0
 41
0.75
 50
0.0
 71
     0
 42
0.2
  3
TXT
  4

  0
STYLE
  5
45E
330
3
100
AcDbSymbolTableRecord
100
AcDbTextStyleTableRecord
  2
SLDTEXTSTYLE1
 70
     0
 40
0.0
 41
0.96
 50
0.0
 71
     0
 42
0.2
  3
TXT
  4

  0
STYLE
  5
54C
330
3
100
AcDbSymbolTableRecord
100
AcDbTextStyleTableRecord
  2
SLDTEXTSTYLE2
 70
     0
 40
0.0
 41
0.6923076923
 50
0.0
 71
     0
 42
0.2
  3
TXT
  4

  0
ENDTAB
  0
TABLE
  2
VIEW
  5
6
330
0
100
AcDbSymbolTable
 70
     0
  0
ENDTAB
  0
TABLE
  2
UCS
  5
7
330
0
100
AcDbSymbolTable
 70
     0
  0
ENDTAB
  0
TABLE
  2
APPID
  5
9
330
0
100
AcDbSymbolTable
 70
     1
  0
APPID
  5
12
330
9
100
AcDbSymbolTableRecord
100
AcDbRegAppTableRecord
  2
ACAD
 70
     0
  0
ENDTAB
  0
TABLE
  2
DIMSTYLE
  5
A
330
0
100
AcDbSymbolTable
 70
     4
100
AcDbDimStyleTable
  0
DIMSTYLE
105
27
330
A
100
AcDbSymbolTableRecord
100
AcDbDimStyleTableRecord
  2
ISO-25
 70
     0
 41
2.5
 42
0.625
 43
3.75
 44
1.25
 73
     0
 74
     0
 77
     1
 78
     8
140
2.5
141
2.5
143
0.0393700787
147
0.625
171
     3
172
     1
271
     2
272
     2
274
     3
278
    44
283
     0
284
     8
340
11
  0
DIMSTYLE
105
44C
102
{ACAD_REACTORS
330
44B
330
460
330
470
330
480
330
490
330
4B5
330
4D5
330
4E5
330
4F5
102
}
330
A
100
AcDbSymbolTableRecord
100
AcDbDimStyleTableRecord
  2
SLDDIMSTYLE0
 70
     0
 41
3.556
 44
0.0
 45
0.000000001
 73
     0
 77
     1
 78
    12
140
3.5
147
0.875
173
     1
271
     0
272
     2
284
    12
340
186
341
44D
343
44D
344
44D
  0
DIMSTYLE
105
4A3
102
{ACAD_REACTORS
330
4A2
330
4C5
330
505
102
}
330
A
100
AcDbSymbolTableRecord
100
AcDbDimStyleTableRecord
  2
SLDDIMSTYLE1
 70
     0
 41
3.556
 44
0.0
 45
0.000000001
 73
     0
 77
     1
 78
    12
140
3.5
147
0.875
173
     1
271
     2
272
     2
284
    12
340
186
341
44D
343
44D
344
44D
  0
DIMSTYLE
105
517
102
{ACAD_REACTORS
330
516
102
}
330
A
100
AcDbSymbolTableRecord
100
AcDbDimStyleTableRecord
  2
SLDDIMSTYLE2
 70
     0
 41
3.556
 44
0.0
 45
0.000000001
 73
     0
 77
     1
 78
    12
140
3.5
147
0.875
173
     1
271
     0
272
     2
284
    12
340
186
341
44D
343
44D
344
44D
  0
ENDTAB
  0
TABLE
  2
BLOCK_RECORD
  5
1
330
0
100
AcDbSymbolTable
 70
    26
  0
BLOCK_RECORD
  5
1F
330
1
100
AcDbSymbolTableRecord
100
AcDbBlockTableRecord
  2
*Model_Space
340
22
  0
BLOCK_RECORD
  5
1B
330
1
100
AcDbSymbolTableRecord
100
AcDbBlockTableRecord
  2
*Paper_Space
340
1E
  0
BLOCK_RECORD
  5
23
330
1
100
AcDbSymbolTableRecord
100
AcDbBlockTableRecord
  2
*Paper_Space0
340
26
  0
BLOCK_RECORD
  5
46
330
1
100
AcDbSymbolTableRecord
100
AcDbBlockTableRecord
  2
BLOCK1
340
0
102
{BLKREFS
331
437
102
}
  0
BLOCK_RECORD
  5
183
330
1
100
AcDbSymbolTableRecord
100
AcDbBlockTableRecord
  2
SW_NOTE_0
340
0
102
{BLKREFS
331
438
102
}
  0
BLOCK_RECORD
  5
1AD
330
1
100
AcDbSymbolTableRecord
100
AcDbBlockTableRecord
  2
SW_NOTE_1
340
0
102
{BLKREFS
331
439
102
}
  0
BLOCK_RECORD
  5
1B6
330
1
100
AcDbSymbolTableRecord
100
AcDbBlockTableRecord
  2
SW_CENTERMARKSYMBOL_0
340
0
102
{BLKREFS
331
43A
102
}
  0
BLOCK_RECORD
  5
1C1
330
1
100
AcDbSymbolTableRecord
100
AcDbBlockTableRecord
  2
SW_CENTERMARKSYMBOL_1
340
0
102
{BLKREFS
331
43B
102
}
  0
BLOCK_RECORD
  5
1CC
330
1
100
AcDbSymbolTableRecord
100
AcDbBlockTableRecord
  2
SW_CENTERMARKSYMBOL_2
340
0
102
{BLKREFS
331
43C
102
}
  0
BLOCK_RECORD
  5
1D7
330
1
100
AcDbSymbolTableRecord
100
AcDbBlockTableRecord
  2
SW_CENTERMARKSYMBOL_3
340
0
102
{BLKREFS
331
43D
102
}
  0
BLOCK_RECORD
  5
1E2
330
1
100
AcDbSymbolTableRecord
100
AcDbBlockTableRecord
  2
SW_CENTERMARKSYMBOL_4
340
0
102
{BLKREFS
331
43E
102
}
  0
BLOCK_RECORD
  5
1ED
330
1
100
AcDbSymbolTableRecord
100
AcDbBlockTableRecord
  2
_CLOSED
340
0
102
{BLKREFS
331
43F
331
440
102
}
  0
BLOCK_RECORD
  5
1F4
330
1
100
AcDbSymbolTableRecord
100
AcDbBlockTableRecord
  2
SW_CENTERMARKSYMBOL_5
340
0
102
{BLKREFS
331
442
102
}
  0
BLOCK_RECORD
  5
1FF
330
1
100
AcDbSymbolTableRecord
100
AcDbBlockTableRecord
  2
SW_CENTERMARKSYMBOL_6
340
0
102
{BLKREFS
331
441
102
}
  0
BLOCK_RECORD
  5
44D
330
1
100
AcDbSymbolTableRecord
100
AcDbBlockTableRecord
  2
_NONE
340
0
  0
BLOCK_RECORD
  5
450
330
1
100
AcDbSymbolTableRecord
100
AcDbBlockTableRecord
  2
*D13
340
0
  0
BLOCK_RECORD
  5
461
330
1
100
AcDbSymbolTableRecord
100
AcDbBlockTableRecord
  2
*D14
340
0
  0
BLOCK_RECORD
  5
471
330
1
100
AcDbSymbolTableRecord
100
AcDbBlockTableRecord
  2
*D15
340
0
  0
BLOCK_RECORD
  5
481
330
1
100
AcDbSymbolTableRecord
100
AcDbBlockTableRecord
  2
*D16
340
0
  0
BLOCK_RECORD
  5
491
330
1
100
AcDbSymbolTableRecord
100
AcDbBlockTableRecord
  2
*D17
340
0
  0
BLOCK_RECORD
  5
4A4
330
1
100
AcDbSymbolTableRecord
100
AcDbBlockTableRecord
  2
*D18
340
0
  0
BLOCK_RECORD
  5
4B6
330
1
100
AcDbSymbolTableRecord
100
AcDbBlockTableRecord
  2
*D19
340
0
  0
BLOCK_RECORD
  5
4C6
330
1
100
AcDbSymbolTableRecord
100
AcDbBlockTableRecord
  2
*D20
340
0
  0
BLOCK_RECORD
  5
4D6
330
1
100
AcDbSymbolTableRecord
100
AcDbBlockTableRecord
  2
*D21
340
0
  0
BLOCK_RECORD
  5
4E6
330
1
100
AcDbSymbolTableRecord
100
AcDbBlockTableRecord
  2
*D22
340
0
  0
BLOCK_RECORD
  5
4F6
330
1
100
AcDbSymbolTableRecord
100
AcDbBlockTableRecord
  2
*D23
340
0
  0
BLOCK_RECORD
  5
506
330
1
100
AcDbSymbolTableRecord
100
AcDbBlockTableRecord
  2
*D24
340
0
  0
BLOCK_RECORD
  5
518
330
1
100
AcDbSymbolTableRecord
100
AcDbBlockTableRecord
  2
*D25
340
0
  0
ENDTAB
  0
ENDSEC
  0
SECTION
  2
BLOCKS
  0
BLOCK
  5
20
330
1F
100
AcDbEntity
  8
0
100
AcDbBlockBegin
  2
*Model_Space
 70
     0
 10
0.0
 20
0.0
 30
0.0
  3
*Model_Space
  1

  0
ENDBLK
  5
21
330
1F
100
AcDbEntity
  8
0
100
AcDbBlockEnd
  0
BLOCK
  5
1C
330
1B
100
AcDbEntity
 67
     1
  8
0
100
AcDbBlockBegin
  2
*Paper_Space
 70
     0
 10
0.0
 20
0.0
 30
0.0
  3
*Paper_Space
  1

  0
ENDBLK
  5
1D
330
1B
100
AcDbEntity
 67
     1
  8
0
100
AcDbBlockEnd
  0
BLOCK
  5
24
330
23
100
AcDbEntity
  8
0
100
AcDbBlockBegin
  2
*Paper_Space0
 70
     0
 10
0.0
 20
0.0
 30
0.0
  3
*Paper_Space0
  1

  0
ENDBLK
  5
25
330
23
100
AcDbEntity
  8
0
100
AcDbBlockEnd
  0
BLOCK
  5
47
330
46
100
AcDbEntity
  8
0
100
AcDbBlockBegin
  2
BLOCK1
 70
     0
 10
0.0
 20
0.0
 30
0.0
  3
BLOCK1
  1

  0
ARC
  5
49
330
46
100
AcDbEntity
  8
SLD-0
  6
Continuous
 62
   179
370
     0
100
AcDbCircle
 10
2.8772899216
 20
2.2658654055
 30
0.0
 40
1.27
100
AcDbArc
 50
223.3453612425
 51
253.5291048591
  0
ARC
  5
4A
330
46
100
AcDbEntity
  8
SLD-0
  6
Continuous
 62
   179
370
     0
100
AcDbCircle
 10
4.5220369097
 20
7.0769618815
 30
0.0
 40
6.350000000000007
100
AcDbArc
 50
253.5291048591
 51
259.9272212373
  0
ARC
  5
4B
330
46
100
AcDbEntity
  8
SLD-0
  6
Continuous
 62
   179
370
     0
100
AcDbCircle
 10
4.9618846181
 20
3.9837333763
 30
0.0
 40
3.809999999999995
100
AcDbArc
 50
264.082759651
 51
269.9999999998
  0
ARC
  5
4C
330
46
100
AcDbEntity
  8
SLD-0
  6
Continuous
 62
   179
370
     0
100
AcDbCircle
 10
5.9069663927
 20
2.286
 30
0.0
 40
2.286000000000009
100
AcDbArc
 50
263.3510943424
 51
284.4705284303
  0
ARC
  5
4D
330
46
100
AcDbEntity
  8
SLD-0
  6
Continuous
 62
   179
370
     0
100
AcDbCircle
 10
5.9648018961
 20
0.0803737054
 30
0.0
 40
1.420788765196039
100
AcDbArc
 50
58.1594341943
 51
89.8201708395
  0
ARC
  5
4E
330
46
100
AcDbEntity
  8
SLD-0
  6
Continuous
 62
   179
370
     0
100
AcDbCircle
 10
7.8560447432
 20
0.0803737054
 30
0.0
 40
1.420788765196039
100
AcDbArc
 50
90.1798291605
 51
121.8405658057
  0
ARC
  5
4F
330
46
100
AcDbEntity
  8
SLD-0
  6
Continuous
 62
   179
370
     0
100
AcDbCircle
 10
7.9138802466
 20
2.286
 30
0.0
 40
2.285999999999997
100
AcDbArc
 50
255.5294715697
 51
276.6489056576
  0
ARC
  5
50
330
46
100
AcDbEntity
  8
SLD-0
  6
Continuous
 62
   179
370
     0
100
AcDbCircle
 10
8.8589620212
 20
3.9837333763
 30
0.0
 40
3.809999999999994
100
AcDbArc
 50
270.0000000002
 51
275.917240349
  0
ARC
  5
51
330
46
100
AcDbEntity
  8
SLD-0
  6
Continuous
 62
   179
370
     0
100
AcDbCircle
 10
9.2988097296
 20
7.0769618815
 30
0.0
 40
6.350000000000017
100
AcDbArc
 50
280.0727787627
 51
286.4708951409
  0
ARC
  5
52
330
46
100
AcDbEntity
  8
SLD-0
  6
Continuous
 62
   179
370
     0
100
AcDbCircle
 10
10.9435567177
 20
2.2658654055
 30
0.0
 40
1.27
100
AcDbArc
 50
286.4708951409
 51
316.6546387575
  0
ARC
  5
53
330
46
100
AcDbEntity
  8
SLD-0
  6
Continuous
 62
   179
370
     0
100
AcDbCircle
 10
3.0303964455
 20
2.3274382704
 30
0.0
 40
0.7620000000000088
100
AcDbArc
 50
7.6962496528
 51
44.9708355566
  0
ARC
  5
54
330
46
100
AcDbEntity
  8
SLD-0
  6
Continuous
 62
   179
370
     0
100
AcDbCircle
 10
3.4043787386
 20
2.84745485
 30
0.0
 40
0.1270000000000163
100
AcDbArc
 50
48.1781607389
 51
90.0
  0
ARC
  5
55
330
46
100
AcDbEntity
  8
SLD-0
  6
Continuous
 62
   179
370
     0
100
AcDbCircle
 10
3.0303964455
 20
2.3274382704
 30
0.0
 40
1.016000000000052
100
AcDbArc
 50
7.6962496527
 51
44.9708355566
  0
ARC
  5
56
330
46
100
AcDbEntity
  8
SLD-0
  6
Continuous
 62
   179
370
     0
100
AcDbCircle
 10
3.5783334736
 20
4.0598250948
 30
0.0
 40
0.5080000000000195
100
AcDbArc
 50
13.3578969612
 51
90.0
  0
ARC
  5
57
330
46
100
AcDbEntity
  8
SLD-0
  6
Continuous
 62
   179
370
     0
100
AcDbCircle
 10
3.5846702017
 20
3.5967127861
 30
0.0
 40
0.5079999999999877
100
AcDbArc
 50
313.8899270442
 51
348.2099521973
  0
ARC
  5
58
330
46
100
AcDbEntity
  8
SLD-0
  6
Continuous
 62
   179
370
     0
100
AcDbCircle
 10
3.5783334736
 20
4.0598250948
 30
0.0
 40
0.2540000000000354
100
AcDbArc
 50
13.3578969612
 51
90.0
  0
ARC
  5
59
330
46
100
AcDbEntity
  8
SLD-0
  6
Continuous
 62
   179
370
     0
100
AcDbCircle
 10
3.581780054
 20
3.583299513
 30
0.0
 40
0.25400000000001
100
AcDbArc
 50
304.7178471323
 51
347.4708983016
  0
ARC
  5
5A
330
46
100
AcDbEntity
  8
SLD-0
  6
Continuous
 62
   179
370
     0
100
AcDbCircle
 10
3.4426485145
 20
3.35545485
 30
0.0
 40
0.1269999999999882
100
AcDbArc
 50
270.0
 51
295.8361523049
  0
ARC
  5
5B
330
46
100
AcDbEntity
  8
SLD-0
  6
Continuous
 62
   179
370
     0
100
AcDbCircle
 10
6.9996376167
 20
3.7929267716
 30
0.0
 40
0.7619999999999999
100
AcDbArc
 50
3.9451179595
 51
90.0
  0
ARC
  5
5C
330
46
100
AcDbEntity
  8
SLD-0
  6
Continuous
 62
   179
370
     0
100
AcDbCircle
 10
6.981014767
 20
2.6808473086
 30
0.0
 40
0.7619999937822941
100
AcDbArc
 50
270.0
 51
354.1361139079
  0
ARC
  5
5D
330
46
100
AcDbEntity
  8
SLD-0
  6
Continuous
 62
   179
370
     0
100
AcDbCircle
 10
6.9987352135
 20
3.8058250625
 30
0.0
 40
0.508000000000037
100
AcDbArc
 50
4.0590091818
 51
90.0
  0
ARC
  5
5E
330
46
100
AcDbEntity
  8
SLD-0
  6
Continuous
 62
   179
370
     0
100
AcDbCircle
 10
6.981014767
 20
2.6808473086
 30
0.0
 40
0.5079999937822878
100
AcDbArc
 50
270.000000144
 51
354.136115428
  0
ARC
  5
5F
330
46
100
AcDbEntity
  8
SLD-0
  6
Continuous
 62
   179
370
     0
100
AcDbCircle
 10
13.0023787775
 20
4.0349258561
 30
0.0
 40
0.50800000000001
100
AcDbArc
 50
99.8748225803
 51
180.0
  0
ARC
  5
60
330
46
100
AcDbEntity
  8
SLD-0
  6
Continuous
 62
   179
370
     0
100
AcDbCircle
 10
13.2852285584
 20
4.0340371015
 30
0.0
 40
0.508000000000008
100
AcDbArc
 50
0.0
 51
79.7651154933
  0
ARC
  5
61
330
46
100
AcDbEntity
  8
SLD-0
  6
Continuous
 62
   179
370
     0
100
AcDbCircle
 10
13.0023787775
 20
2.4388482247
 30
0.0
 40
0.5080000000000082
100
AcDbArc
 50
180.0
 51
260.1251774197
  0
ARC
  5
62
330
46
100
AcDbEntity
  8
SLD-0
  6
Continuous
 62
   179
370
     0
100
AcDbCircle
 10
13.2852285584
 20
2.4397369792
 30
0.0
 40
0.508000000000008
100
AcDbArc
 50
280.2348845067
 51
0.0
  0
ARC
  5
63
330
46
100
AcDbEntity
  8
SLD-0
  6
Continuous
 62
   179
370
     0
100
AcDbCircle
 10
13.0023787775
 20
4.0349258561
 30
0.0
 40
0.2540000000000311
100
AcDbArc
 50
99.8748225803
 51
180.0
  0
ARC
  5
64
330
46
100
AcDbEntity
  8
SLD-0
  6
Continuous
 62
   179
370
     0
100
AcDbCircle
 10
13.2852285584
 20
4.0340371015
 30
0.0
 40
0.2540000000000315
100
AcDbArc
 50
0.0
 51
79.7651154933
  0
ARC
  5
65
330
46
100
AcDbEntity
  8
SLD-0
  6
Continuous
 62
   179
370
     0
100
AcDbCircle
 10
13.2852285584
 20
2.4397369792
 30
0.0
 40
0.2540000000000315
100
AcDbArc
 50
280.2348845067
 51
0.0
  0
ARC
  5
66
330
46
100
AcDbEntity
  8
SLD-0
  6
Continuous
 62
   179
370
     0
100
AcDbCircle
 10
13.0023787775
 20
2.4388482247
 30
0.0
 40
0.254000000000032
100
AcDbArc
 50
180.0
 51
260.1251774197
  0
ARC
  5
67
330
46
100
AcDbEntity
  8
SLD-0
  6
Continuous
 62
   179
370
     0
100
AcDbCircle
 10
6.2769587928
 20
6.0996978551
 30
0.0
 40
1.65100000000001
100
AcDbArc
 50
97.0332919119
 51
138.5476241018
  0
ARC
  5
68
330
46
100
AcDbEntity
  8
SLD-0
  6
Continuous
 62
   179
370
     0
100
AcDbCircle
 10
6.6756417453
 20
2.8682098064
 30
0.0
 40
4.906988806108693
100
AcDbArc
 50
90.0
 51
97.0332919119
  0
ARC
  5
69
330
46
100
AcDbEntity
  8
SLD-0
  6
Continuous
 62
   179
370
     0
100
AcDbCircle
 10
10.2597071591
 20
2.5819570852
 30
0.0
 40
6.964829567627052
100
AcDbArc
 50
138.5476241013
 51
143.9216254357
  0
ARC
  5
6A
330
46
100
AcDbEntity
  8
SLD-0
  6
Continuous
 62
   179
370
     0
100
AcDbCircle
 10
5.9921214148
 20
5.7315677612
 30
0.0
 40
1.661252344018844
100
AcDbArc
 50
145.0394829844
 51
145.8753211021
  0
ARC
  5
6B
330
46
100
AcDbEntity
  8
SLD-0
  6
Continuous
 62
   179
370
     0
100
AcDbCircle
 10
5.9921214148
 20
5.7315677612
 30
0.0
 40
1.661252343990083
100
AcDbArc
 50
145.8753211021
 51
164.8013735325
  0
ARC
  5
6C
330
46
100
AcDbEntity
  8
SLD-0
  6
Continuous
 62
   179
370
     0
100
AcDbCircle
 10
5.9921214148
 20
5.7315677612
 30
0.0
 40
1.407252343990069
100
AcDbArc
 50
145.8753211021
 51
172.5886661456
  0
ARC
  5
6D
330
46
100
AcDbEntity
  8
SLD-0
  6
Continuous
 62
   179
370
     0
100
AcDbCircle
 10
5.9921214148
 20
5.7315677612
 30
0.0
 40
1.407252343990069
100
AcDbArc
 50
145.137122788
 51
145.8753211021
  0
ARC
  5
6E
330
46
100
AcDbEntity
  8
SLD-0
  6
Continuous
 62
   179
370
     0
100
AcDbCircle
 10
10.2597071591
 20
2.5819570852
 30
0.0
 40
6.710829567627036
100
AcDbArc
 50
138.5476241018
 51
143.8997887216
  0
ARC
  5
6F
330
46
100
AcDbEntity
  8
SLD-0
  6
Continuous
 62
   179
370
     0
100
AcDbCircle
 10
6.2769587928
 20
6.0996978551
 30
0.0
 40
1.397000000028734
100
AcDbArc
 50
97.0332919119
 51
138.5476241045
  0
ARC
  5
70
330
46
100
AcDbEntity
  8
SLD-0
  6
Continuous
 62
   179
370
     0
100
AcDbCircle
 10
6.6756417453
 20
2.8682098064
 30
0.0
 40
4.652988806108687
100
AcDbArc
 50
90.0
 51
97.0332919119
  0
ARC
  5
71
330
46
100
AcDbEntity
  8
SLD-0
  6
Continuous
 62
   179
370
     0
100
AcDbCircle
 10
7.145204894
 20
2.8682098064
 30
0.0
 40
4.652988806075421
100
AcDbArc
 50
82.9667080881
 51
90.0
  0
ARC
  5
72
330
46
100
AcDbEntity
  8
SLD-0
  6
Continuous
 62
   179
370
     0
100
AcDbCircle
 10
7.5438878465
 20
6.0996978551
 30
0.0
 40
1.397000000000009
100
AcDbArc
 50
41.4523758982
 51
82.9667080882
  0
ARC
  5
73
330
46
100
AcDbEntity
  8
SLD-0
  6
Continuous
 62
   179
370
     0
100
AcDbCircle
 10
3.5611394802
 20
2.5819570852
 30
0.0
 40
6.710829567627035
100
AcDbArc
 50
36.1002112784
 51
41.4523758988
  0
ARC
  5
74
330
46
100
AcDbEntity
  8
SLD-0
  6
Continuous
 62
   179
370
     0
100
AcDbCircle
 10
7.8287252245
 20
5.7315677612
 30
0.0
 40
1.407252344018902
100
AcDbArc
 50
34.1246788979
 51
34.8628772121
  0
ARC
  5
75
330
46
100
AcDbEntity
  8
SLD-0
  6
Continuous
 62
   179
370
     0
100
AcDbCircle
 10
7.8287252245
 20
5.7315677612
 30
0.0
 40
1.40725234399007
100
AcDbArc
 50
7.4113338544
 51
34.1246788979
  0
ARC
  5
76
330
46
100
AcDbEntity
  8
SLD-0
  6
Continuous
 62
   179
370
     0
100
AcDbCircle
 10
7.8287252245
 20
5.7315677612
 30
0.0
 40
1.661252343990084
100
AcDbArc
 50
15.1986264675
 51
34.1246788979
  0
ARC
  5
77
330
46
100
AcDbEntity
  8
SLD-0
  6
Continuous
 62
   179
370
     0
100
AcDbCircle
 10
7.8287252245
 20
5.7315677612
 30
0.0
 40
1.661252343990083
100
AcDbArc
 50
34.1246788979
 51
34.9605170154
  0
ARC
  5
78
330
46
100
AcDbEntity
  8
SLD-0
  6
Continuous
 62
   179
370
     0
100
AcDbCircle
 10
3.5611394802
 20
2.5819570852
 30
0.0
 40
6.964829567627036
100
AcDbArc
 50
36.0783745643
 51
41.4523758982
  0
ARC
  5
79
330
46
100
AcDbEntity
  8
SLD-0
  6
Continuous
 62
   179
370
     0
100
AcDbCircle
 10
7.145204894
 20
2.8682098064
 30
0.0
 40
4.906988806075428
100
AcDbArc
 50
82.9667080881
 51
90.0
  0
ARC
  5
7A
330
46
100
AcDbEntity
  8
SLD-0
  6
Continuous
 62
   179
370
     0
100
AcDbCircle
 10
7.5438878465
 20
6.0996978551
 30
0.0
 40
1.651000000028734
100
AcDbArc
 50
41.452375896
 51
82.9667080882
  0
ARC
  5
7B
330
46
100
AcDbEntity
  8
SLD-0
  6
Continuous
 62
   179
370
     0
100
AcDbCircle
 10
7.7155718749
 20
6.4142415497
 30
0.0
 40
0.7979617175744761
100
AcDbArc
 50
268.7628998055
 51
275.8885090322
  0
ARC
  5
7C
330
46
100
AcDbEntity
  8
SLD-0
  6
Continuous
 62
   179
370
     0
100
AcDbCircle
 10
7.7461377018
 20
6.0308903468
 30
0.0
 40
0.4135937596258576
100
AcDbArc
 50
277.1249466567
 51
292.4574092695
  0
ARC
  5
7D
330
46
100
AcDbEntity
  8
SLD-0
  6
Continuous
 62
   179
370
     0
100
AcDbCircle
 10
7.6635918462
 20
6.2402074905
 30
0.0
 40
0.6385798687406318
100
AcDbArc
 50
292.1278931896
 51
300.6710618157
  0
ARC
  5
7E
330
46
100
AcDbEntity
  8
SLD-0
  6
Continuous
 62
   179
370
     0
100
AcDbCircle
 10
7.6940915751
 20
6.1949145446
 30
0.0
 40
0.5840731593841079
100
AcDbArc
 50
300.3641344446
 51
310.5222631139
  0
ARC
  5
7F
330
46
100
AcDbEntity
  8
SLD-0
  6
Continuous
 62
   179
370
     0
100
AcDbCircle
 10
7.8438693694
 20
6.0237074
 30
0.0
 40
0.3566218722840423
100
AcDbArc
 50
310.1023839541
 51
326.0962957965
  0
ARC
  5
80
330
46
100
AcDbEntity
  8
SLD-0
  6
Continuous
 62
   179
370
     0
100
AcDbCircle
 10
7.9076303577
 20
5.9736223774
 30
0.0
 40
0.2758297472401461
100
AcDbArc
 50
327.3434665801
 51
346.5438473261
  0
ARC
  5
81
330
46
100
AcDbEntity
  8
SLD-0
  6
Continuous
 62
   179
370
     0
100
AcDbCircle
 10
7.6981867074
 20
6.0213619645
 30
0.0
 40
0.4906382997672888
100
AcDbArc
 50
346.8134569093
 51
358.0436068991
  0
ARC
  5
82
330
46
100
AcDbEntity
  8
SLD-0
  6
Continuous
 62
   179
370
     0
100
AcDbCircle
 10
6.3210436481
 20
6.073595092
 30
0.0
 40
1.868769003742995
100
AcDbArc
 50
357.8845267781
 51
1.1389311956
  0
ARC
  5
83
330
46
100
AcDbEntity
  8
SLD-0
  6
Continuous
 62
   179
370
     0
100
AcDbCircle
 10
7.2492252617
 20
6.1790118545
 30
0.0
 40
0.9383894943852213
100
AcDbArc
 50
6.9033014634
 51
10.622081339
  0
ARC
  5
84
330
46
100
AcDbEntity
  8
SLD-0
  6
Continuous
 62
   179
370
     0
100
AcDbCircle
 10
7.527521585
 20
6.2301218839
 30
0.0
 40
0.6554416947492705
100
AcDbArc
 50
10.7151069001
 51
22.4368952672
  0
ARC
  5
85
330
46
100
AcDbEntity
  8
SLD-0
  6
Continuous
 62
   179
370
     0
100
AcDbCircle
 10
7.614209948
 20
6.2652891102
 30
0.0
 40
0.5618937793409253
100
AcDbArc
 50
22.4961278233
 51
33.5747261558
  0
ARC
  5
86
330
46
100
AcDbEntity
  8
SLD-0
  6
Continuous
 62
   179
370
     0
100
AcDbCircle
 10
7.6503444528
 20
6.2884628769
 30
0.0
 40
0.5189725537843405
100
AcDbArc
 50
33.6493221496
 51
46.6375666875
  0
ARC
  5
87
330
46
100
AcDbEntity
  8
SLD-0
  6
Continuous
 62
   179
370
     0
100
AcDbCircle
 10
7.6304122757
 20
6.2654848122
 30
0.0
 40
0.5493653378488971
100
AcDbArc
 50
46.7716686817
 51
60.458302509
  0
ARC
  5
88
330
46
100
AcDbEntity
  8
SLD-0
  6
Continuous
 62
   179
370
     0
100
AcDbCircle
 10
7.5664225053
 20
6.1497770875
 30
0.0
 40
0.6815827128493077
100
AcDbArc
 50
60.5742731824
 51
73.3987595846
  0
ARC
  5
89
330
46
100
AcDbEntity
  8
SLD-0
  6
Continuous
 62
   179
370
     0
100
AcDbCircle
 10
7.4346690516
 20
5.6866400159
 30
0.0
 40
1.163073514120405
100
AcDbArc
 50
73.6973397092
 51
82.6957776749
  0
ARC
  5
8A
330
46
100
AcDbEntity
  8
SLD-0
  6
Continuous
 62
   179
370
     0
100
AcDbCircle
 10
7.247545954
 20
4.2926020455
 30
0.0
 40
2.569603004859081
100
AcDbArc
 50
82.5091510885
 51
87.3431197874
  0
ARC
  5
8B
330
46
100
AcDbEntity
  8
SLD-0
  6
Continuous
 62
   179
370
     0
100
AcDbCircle
 10
7.0648172627
 20
0.5975636199
 30
0.0
 40
6.269149850985261
100
AcDbArc
 50
87.2403032474
 51
89.5322626253
  0
ARC
  5
8C
330
46
100
AcDbEntity
  8
SLD-0
  6
Continuous
 62
   179
370
     0
100
AcDbCircle
 10
6.8000239409
 20
-3.8573732868
 30
0.0
 40
10.72493745949965
100
AcDbArc
 50
89.8236839706
 51
90.913941147
  0
ARC
  5
8D
330
46
100
AcDbEntity
  8
SLD-0
  6
Continuous
 62
   179
370
     0
100
AcDbCircle
 10
6.6875528417
 20
3.159569025
 30
0.0
 40
3.707093892176954
100
AcDbArc
 50
90.9057139102
 51
94.1368744164
  0
ARC
  5
8E
330
46
100
AcDbEntity
  8
SLD-0
  6
Continuous
 62
   179
370
     0
100
AcDbCircle
 10
6.5686390556
 20
4.7816101993
 30
0.0
 40
2.080701089046758
100
AcDbArc
 50
94.0930648624
 51
99.7844943246
  0
ARC
  5
8F
330
46
100
AcDbEntity
  8
SLD-0
  6
Continuous
 62
   179
370
     0
100
AcDbCircle
 10
6.4321460783
 20
5.5637698705
 30
0.0
 40
1.286723746118495
100
AcDbArc
 50
99.7139113001
 51
108.5783794681
  0
ARC
  5
90
330
46
100
AcDbEntity
  8
SLD-0
  6
Continuous
 62
   179
370
     0
100
AcDbCircle
 10
6.2912309352
 20
5.9807235655
 30
0.0
 40
0.8466025673793557
100
AcDbArc
 50
108.5289927468
 51
121.404261139
  0
ARC
  5
91
330
46
100
AcDbEntity
  8
SLD-0
  6
Continuous
 62
   179
370
     0
100
AcDbCircle
 10
6.183277234
 20
6.1599688068
 30
0.0
 40
0.6373640694044304
100
AcDbArc
 50
121.51753695
 51
138.323405437
  0
ARC
  5
92
330
46
100
AcDbEntity
  8
SLD-0
  6
Continuous
 62
   179
370
     0
100
AcDbCircle
 10
7.7155718749
 20
6.4142415497
 30
0.0
 40
0.5947617175744647
100
AcDbArc
 50
268.567062388
 51
275.6571662509
  0
ARC
  5
93
330
46
100
AcDbEntity
  8
SLD-0
  6
Continuous
 62
   179
370
     0
100
AcDbCircle
 10
7.7461377018
 20
6.0308903468
 30
0.0
 40
0.2103937596258779
100
AcDbArc
 50
277.6652235399
 51
292.6049047059
  0
ARC
  5
94
330
46
100
AcDbEntity
  8
SLD-0
  6
Continuous
 62
   179
370
     0
100
AcDbCircle
 10
7.6635918462
 20
6.2402074905
 30
0.0
 40
0.4353798687406404
100
AcDbArc
 50
292.0453768146
 51
300.7434838979
  0
ARC
  5
95
330
46
100
AcDbEntity
  8
SLD-0
  6
Continuous
 62
   179
370
     0
100
AcDbCircle
 10
7.6940915751
 20
6.1949145446
 30
0.0
 40
0.38087315938418
100
AcDbArc
 50
300.2831709954
 51
310.6458742673
  0
ARC
  5
96
330
46
100
AcDbEntity
  8
SLD-0
  6
Continuous
 62
   179
370
     0
100
AcDbCircle
 10
7.8438693694
 20
6.0237074
 30
0.0
 40
0.153421872284029
100
AcDbArc
 50
309.853134587
 51
325.1693224971
  0
ARC
  5
97
330
46
100
AcDbEntity
  8
SLD-0
  6
Continuous
 62
   179
370
     0
100
AcDbCircle
 10
7.9076303577
 20
5.9736223774
 30
0.0
 40
0.0726297472401295
100
AcDbArc
 50
328.8754187945
 51
346.2411083057
  0
ARC
  5
98
330
46
100
AcDbEntity
  8
SLD-0
  6
Continuous
 62
   179
370
     0
100
AcDbCircle
 10
7.6981867074
 20
6.0213619645
 30
0.0
 40
0.2874382997673735
100
AcDbArc
 50
346.9275587787
 51
358.0939598039
  0
ARC
  5
99
330
46
100
AcDbEntity
  8
SLD-0
  6
Continuous
 62
   179
370
     0
100
AcDbCircle
 10
6.3210436481
 20
6.073595092
 30
0.0
 40
1.665569003742986
100
AcDbArc
 50
357.8738086625
 51
1.2005785617
  0
ARC
  5
9A
330
46
100
AcDbEntity
  8
SLD-0
  6
Continuous
 62
   179
370
     0
100
AcDbCircle
 10
7.527521585
 20
6.2301218839
 30
0.0
 40
0.4522416947492404
100
AcDbArc
 50
10.7353422857
 51
22.4233295304
  0
ARC
  5
9B
330
46
100
AcDbEntity
  8
SLD-0
  6
Continuous
 62
   179
370
     0
100
AcDbCircle
 10
7.614209948
 20
6.2652891102
 30
0.0
 40
0.3586937793409163
100
AcDbArc
 50
22.5125793648
 51
33.5533433785
  0
ARC
  5
9C
330
46
100
AcDbEntity
  8
SLD-0
  6
Continuous
 62
   179
370
     0
100
AcDbCircle
 10
7.6503444528
 20
6.2884628769
 30
0.0
 40
0.31577255378432
100
AcDbArc
 50
33.6730355507
 51
46.5947965835
  0
ARC
  5
9D
330
46
100
AcDbEntity
  8
SLD-0
  6
Continuous
 62
   179
370
     0
100
AcDbCircle
 10
7.6304122757
 20
6.2654848122
 30
0.0
 40
0.3461653378488792
100
AcDbArc
 50
46.8113720403
 51
60.4251823718
  0
ARC
  5
9E
330
46
100
AcDbEntity
  8
SLD-0
  6
Continuous
 62
   179
370
     0
100
AcDbCircle
 10
7.5664225053
 20
6.1497770875
 30
0.0
 40
0.4783827128492901
100
AcDbArc
 50
60.5995671828
 51
73.337912872
  0
ARC
  5
9F
330
46
100
AcDbEntity
  8
SLD-0
  6
Continuous
 62
   179
370
     0
100
AcDbCircle
 10
7.4346690516
 20
5.6866400159
 30
0.0
 40
0.9598735141204386
100
AcDbArc
 50
73.7302228691
 51
82.7149902955
  0
ARC
  5
A0
330
46
100
AcDbEntity
  8
SLD-0
  6
Continuous
 62
   179
370
     0
100
AcDbCircle
 10
7.247545954
 20
4.2926020455
 30
0.0
 40
2.366403004859067
100
AcDbArc
 50
82.5009188145
 51
87.3474796026
  0
ARC
  5
A1
330
46
100
AcDbEntity
  8
SLD-0
  6
Continuous
 62
   179
370
     0
100
AcDbCircle
 10
7.0648172627
 20
0.5975636199
 30
0.0
 40
6.065949850985255
100
AcDbArc
 50
87.2385598688
 51
89.5331677172
  0
ARC
  5
A2
330
46
100
AcDbEntity
  8
SLD-0
  6
Continuous
 62
   179
370
     0
100
AcDbCircle
 10
6.8000239409
 20
-3.8573732868
 30
0.0
 40
10.52173745949962
100
AcDbArc
 50
89.8208924481
 51
90.9140213305
  0
ARC
  5
A3
330
46
100
AcDbEntity
  8
SLD-0
  6
Continuous
 62
   179
370
     0
100
AcDbCircle
 10
6.5686390556
 20
4.7816101993
 30
0.0
 40
1.877501089039675
100
AcDbArc
 50
95.2961266388
 51
99.7883798822
  0
ARC
  5
A4
330
46
100
AcDbEntity
  8
SLD-0
  6
Continuous
 62
   179
370
     0
100
AcDbCircle
 10
6.4321460783
 20
5.5637698705
 30
0.0
 40
1.083523746118519
100
AcDbArc
 50
99.7074072118
 51
108.5831291028
  0
ARC
  5
A5
330
46
100
AcDbEntity
  8
SLD-0
  6
Continuous
 62
   179
370
     0
100
AcDbCircle
 10
6.2912309352
 20
5.9807235655
 30
0.0
 40
0.6434025673793621
100
AcDbArc
 50
108.5213940195
 51
121.3858843358
  0
ARC
  5
A6
330
46
100
AcDbEntity
  8
SLD-0
  6
Continuous
 62
   179
370
     0
100
AcDbCircle
 10
6.183277234
 20
6.1599688068
 30
0.0
 40
0.4341640694044333
100
AcDbArc
 50
121.5433197719
 51
138.323405437
  0
ARC
  5
A7
330
46
100
AcDbEntity
  8
SLD-0
  6
Continuous
 62
   179
370
     0
100
AcDbCircle
 10
6.6875528417
 20
3.159569025
 30
0.0
 40
3.503893892176968
100
AcDbArc
 50
90.9054775718
 51
91.4534801029
  0
ARC
  5
A8
330
46
100
AcDbEntity
  8
SLD-0
  6
Continuous
 62
   179
370
     0
100
AcDbCircle
 10
6.883586679
 20
-18.6368390777
 30
0.0
 40
25.50440258242794
100
AcDbArc
 50
89.9103300685
 51
90.113581124
  0
ARC
  5
A9
330
46
100
AcDbEntity
  8
SLD-0
  6
Continuous
 62
   179
370
     0
100
AcDbCircle
 10
6.883586679
 20
-18.6368390777
 30
0.0
 40
25.30120258242793
100
AcDbArc
 50
89.9096099073
 51
90.114748482
  0
ARC
  5
AA
330
46
100
AcDbEntity
  8
SLD-0
  6
Continuous
 62
   179
370
     0
100
AcDbCircle
 10
6.883586679
 20
-18.6368390777
 30
0.0
 40
25.5044025824296
100
AcDbArc
 50
89.4778856341
 51
89.6820835197
  0
ARC
  5
AB
330
46
100
AcDbEntity
  8
SLD-0
  6
Continuous
 62
   179
370
     0
100
AcDbCircle
 10
6.883586679
 20
-18.6368390777
 30
0.0
 40
25.3012025824296
100
AcDbArc
 50
89.4776659147
 51
89.67953023
  0
ARC
  5
AC
330
46
100
AcDbEntity
  8
SLD-0
  6
Continuous
 62
   179
370
     0
100
AcDbCircle
 10
3.7284490572
 20
1.5648330123
 30
0.0
 40
1.065422073533135
100
AcDbArc
 50
252.6716693791
 51
263.586935517
  0
ARC
  5
AD
330
46
100
AcDbEntity
  8
SLD-0
  6
Continuous
 62
   179
370
     0
100
AcDbCircle
 10
4.6331835726
 20
6.6918096146
 30
0.0
 40
6.261371296656414
100
AcDbArc
 50
263.586935517
 51
268.8500558822
  0
ARC
  5
AE
330
46
100
AcDbEntity
  8
SLD-0
  6
Continuous
 62
   179
370
     0
100
AcDbCircle
 10
5.5669193494
 20
-0.5733373008
 30
0.0
 40
2.186045587895392
100
AcDbArc
 50
52.0784560019
 51
58.3392633547
  0
ARC
  5
AF
330
46
100
AcDbEntity
  8
SLD-0
  6
Continuous
 62
   179
370
     0
100
AcDbCircle
 10
8.2539272899
 20
-0.5733373008
 30
0.0
 40
2.186045587936938
100
AcDbArc
 50
121.6607366453
 51
127.9215439996
  0
ARC
  5
B0
330
46
100
AcDbEntity
  8
SLD-0
  6
Continuous
 62
   179
370
     0
100
AcDbCircle
 10
9.1876630667
 20
6.6918096146
 30
0.0
 40
6.261371296656414
100
AcDbArc
 50
271.1499441178
 51
276.413064483
  0
ARC
  5
B1
330
46
100
AcDbEntity
  8
SLD-0
  6
Continuous
 62
   179
370
     0
100
AcDbCircle
 10
10.092397582
 20
1.5648330123
 30
0.0
 40
1.065422073533135
100
AcDbArc
 50
276.413064483
 51
287.3283306209
  0
ARC
  5
B2
330
46
100
AcDbEntity
  8
SLD-0
  6
Continuous
 62
   179
370
     0
100
AcDbCircle
 10
5.7831263311
 20
6.1056368819
 30
0.0
 40
2.406322532898004
100
AcDbArc
 50
0.1215132367
 51
2.0139223164
  0
ARC
  5
B3
330
46
100
AcDbEntity
  8
SLD-0
  6
Continuous
 62
   179
370
     0
100
AcDbCircle
 10
5.7831263311
 20
6.1056368819
 30
0.0
 40
2.203122532898006
100
AcDbArc
 50
0.0742767707
 51
2.1997593231
  0
ARC
  5
B4
330
46
100
AcDbEntity
  8
SLD-0
  6
Continuous
 62
   179
370
     0
100
AcDbCircle
 10
-0.1351789835
 20
1.8996466717
 30
0.0
 40
3.956350238875958
100
AcDbArc
 50
4.1991563965
 51
7.6962496527
  0
ARC
  5
B5
330
46
100
AcDbEntity
  8
SLD-0
  6
Continuous
 62
   179
370
     0
100
AcDbCircle
 10
2.1698424835
 20
1.4677599335
 30
0.0
 40
1.978388081352026
100
AcDbArc
 50
44.9708355563
 51
48.1781607394
  0
ARC
  5
B6
330
46
100
AcDbEntity
  8
SLD-0
  6
Continuous
 62
   179
370
     0
100
AcDbCircle
 10
-0.1351789835
 20
1.8996466717
 30
0.0
 40
3.956350238850888
100
AcDbArc
 50
3.9596369136
 51
4.1991563965
  0
ARC
  5
B7
330
46
100
AcDbEntity
  8
SLD-0
  6
Continuous
 62
   179
370
     0
100
AcDbCircle
 10
-0.1351789835
 20
1.8996466717
 30
0.0
 40
4.210350238876002
100
AcDbArc
 50
4.1991563965
 51
7.6962496527
  0
ARC
  5
B8
330
46
100
AcDbEntity
  8
SLD-0
  6
Continuous
 62
   179
370
     0
100
AcDbCircle
 10
-4.3302654211
 20
1.6092563293
 30
0.0
 40
8.415456938302793
100
AcDbArc
 50
3.840025798
 51
4.079545281
  0
ARC
  5
B9
330
46
100
AcDbEntity
  8
SLD-0
  6
Continuous
 62
   179
370
     0
100
AcDbCircle
 10
3.2572579159
 20
3.9370642313
 30
0.0
 40
0.9802688970477845
100
AcDbArc
 50
298.2245876061
 51
304.2787486114
  0
ARC
  5
BA
330
46
100
AcDbEntity
  8
SLD-0
  6
Continuous
 62
   179
370
     0
100
AcDbCircle
 10
3.2572579159
 20
3.9370642313
 30
0.0
 40
0.9802688970729467
100
AcDbArc
 50
304.2787486114
 51
313.8899270427
  0
ARC
  5
BB
330
46
100
AcDbEntity
  8
SLD-0
  6
Continuous
 62
   179
370
     0
100
AcDbCircle
 10
2.5433641812
 20
3.8140641872
 30
0.0
 40
1.571748024635238
100
AcDbArc
 50
348.2099521958
 51
13.3578969609
  0
ARC
  5
BC
330
46
100
AcDbEntity
  8
SLD-0
  6
Continuous
 62
   179
370
     0
100
AcDbCircle
 10
2.1698424835
 20
1.4677599335
 30
0.0
 40
2.232388081369796
100
AcDbArc
 50
44.9708355563
 51
45.9905129314
  0
ARC
  5
BD
330
46
100
AcDbEntity
  8
SLD-0
  6
Continuous
 62
   179
370
     0
100
AcDbCircle
 10
2.5433641812
 20
3.8140641872
 30
0.0
 40
1.317748024635255
100
AcDbArc
 50
347.4708983002
 51
13.3578969609
  0
ARC
  5
BE
330
46
100
AcDbEntity
  8
SLD-0
  6
Continuous
 62
   179
370
     0
100
AcDbCircle
 10
2.7535681523
 20
4.7785937136
 30
0.0
 40
1.708188151567784
100
AcDbArc
 50
295.8361523059
 51
304.7178471317
  0
ARC
  5
BF
330
46
100
AcDbEntity
  8
SLD-0
  6
Continuous
 62
   179
370
     0
100
AcDbCircle
 10
0.5103861858
 20
3.3453999591
 30
0.0
 40
7.266664816986661
100
AcDbArc
 50
359.5957950548
 51
3.9451179592
  0
ARC
  5
C0
330
46
100
AcDbEntity
  8
SLD-0
  6
Continuous
 62
   179
370
     0
100
AcDbCircle
 10
0.5103861858
 20
3.3453999591
 30
0.0
 40
7.01266481696766
100
AcDbArc
 50
359.5811544217
 51
4.0590091813
  0
ARC
  5
C1
330
46
100
AcDbEntity
  8
SLD-0
  6
Continuous
 62
   179
370
     0
100
AcDbCircle
 10
0.5103861858
 20
3.3453999591
 30
0.0
 40
7.266664816902613
100
AcDbArc
 50
354.136113908
 51
358.794619676
  0
ARC
  5
C2
330
46
100
AcDbEntity
  8
SLD-0
  6
Continuous
 62
   179
370
     0
100
AcDbCircle
 10
0.5103861858
 20
3.3453999591
 30
0.0
 40
7.012664816902586
100
AcDbArc
 50
354.1361140181
 51
358.7509537841
  0
ARC
  5
C3
330
46
100
AcDbEntity
  8
SLD-0
  6
Continuous
 62
   179
370
     0
100
AcDbCircle
 10
13.1412975118
 20
3.2368870404
 30
0.0
 40
1.318039731188161
100
AcDbArc
 50
79.7651154892
 51
99.8748225802
  0
ARC
  5
C4
330
46
100
AcDbEntity
  8
SLD-0
  6
Continuous
 62
   179
370
     0
100
AcDbCircle
 10
13.1412975118
 20
3.2368870404
 30
0.0
 40
1.318039731276527
100
AcDbArc
 50
260.1251774198
 51
280.23488451
  0
ARC
  5
C5
330
46
100
AcDbEntity
  8
SLD-0
  6
Continuous
 62
   179
370
     0
100
AcDbCircle
 10
13.1412975118
 20
3.2368870404
 30
0.0
 40
1.064039731188182
100
AcDbArc
 50
79.7651154882
 51
99.8748225802
  0
ARC
  5
C6
330
46
100
AcDbEntity
  8
SLD-0
  6
Continuous
 62
   179
370
     0
100
AcDbCircle
 10
13.1412975118
 20
3.2368870404
 30
0.0
 40
1.06403973127655
100
AcDbArc
 50
260.1251774198
 51
280.2348845108
  0
LINE
  5
C7
330
46
100
AcDbEntity
  8
SLD-0
  6
Continuous
 62
   179
370
     0
100
AcDbLine
 10
2.1529108072
 20
5.074772214
 30
0.0
 11
1.9989378642
 21
5.328772214
 31
0.0
  0
LINE
  5
C8
330
46
100
AcDbEntity
  8
SLD-0
  6
Continuous
 62
   179
370
     0
100
AcDbLine
 10
1.9989378642
 20
5.328772214
 30
0.0
 11
3.250273364
 21
5.328772214
 31
0.0
  0
LINE
  5
C9
330
46
100
AcDbEntity
  8
SLD-0
  6
Continuous
 62
   179
370
     0
100
AcDbLine
 10
3.250273364
 20
5.328772214
 30
0.0
 11
2.7420902102
 21
6.1670917172
 31
0.0
  0
LINE
  5
CA
330
46
100
AcDbEntity
  8
SLD-0
  6
Continuous
 62
   179
370
     0
100
AcDbLine
 10
2.7420902102
 20
6.1670917172
 30
0.0
 11
4.3889750602
 21
6.1670917172
 31
0.0
  0
LINE
  5
CB
330
46
100
AcDbEntity
  8
SLD-0
  6
Continuous
 62
   179
370
     0
100
AcDbLine
 10
6.9104233196
 20
7.7751986125
 30
0.0
 11
6.6756417453
 21
7.7751986125
 31
0.0
  0
LINE
  5
CC
330
46
100
AcDbEntity
  8
SLD-0
  6
Continuous
 62
   179
370
     0
100
AcDbLine
 10
3.7012709982
 20
5.074772214
 30
0.0
 11
3.1930878444
 21
5.9130917172
 31
0.0
  0
LINE
  5
CD
330
46
100
AcDbEntity
  8
SLD-0
  6
Continuous
 62
   179
370
     0
100
AcDbLine
 10
3.1930878444
 20
5.9130917172
 30
0.0
 11
4.5966257276
 21
5.9130917172
 31
0.0
  0
LINE
  5
CE
330
46
100
AcDbEntity
  8
SLD-0
  6
Continuous
 62
   179
370
     0
100
AcDbLine
 10
6.9104233196
 20
7.5211986125
 30
0.0
 11
6.6756417453
 21
7.5211986125
 31
0.0
  0
LINE
  5
CF
330
46
100
AcDbEntity
  8
SLD-0
  6
Continuous
 62
   179
370
     0
100
AcDbLine
 10
2.1529108072
 20
5.074772214
 30
0.0
 11
3.7012709982
 21
5.074772214
 31
0.0
  0
LINE
  5
D0
330
46
100
AcDbEntity
  8
SLD-0
  6
Continuous
 62
   179
370
     0
100
AcDbLine
 10
10.1195756411
 20
5.074772214
 30
0.0
 11
11.6679358321
 21
5.074772214
 31
0.0
  0
LINE
  5
D1
330
46
100
AcDbEntity
  8
SLD-0
  6
Continuous
 62
   179
370
     0
100
AcDbLine
 10
7.145204894
 20
7.5211986125
 30
0.0
 11
6.9104233196
 21
7.5211986125
 31
0.0
  0
LINE
  5
D2
330
46
100
AcDbEntity
  8
SLD-0
  6
Continuous
 62
   179
370
     0
100
AcDbLine
 10
9.2242209117
 20
5.9130917172
 30
0.0
 11
10.6277587949
 21
5.9130917172
 31
0.0
  0
LINE
  5
D3
330
46
100
AcDbEntity
  8
SLD-0
  6
Continuous
 62
   179
370
     0
100
AcDbLine
 10
10.6277587949
 20
5.9130917172
 30
0.0
 11
10.1195756411
 21
5.074772214
 31
0.0
  0
LINE
  5
D4
330
46
100
AcDbEntity
  8
SLD-0
  6
Continuous
 62
   179
370
     0
100
AcDbLine
 10
7.145204894
 20
7.7751986125
 30
0.0
 11
6.9104233196
 21
7.7751986125
 31
0.0
  0
LINE
  5
D5
330
46
100
AcDbEntity
  8
SLD-0
  6
Continuous
 62
   179
370
     0
100
AcDbLine
 10
9.4318715791
 20
6.1670917172
 30
0.0
 11
11.078756429
 21
6.1670917172
 31
0.0
  0
LINE
  5
D6
330
46
100
AcDbEntity
  8
SLD-0
  6
Continuous
 62
   179
370
     0
100
AcDbLine
 10
11.078756429
 20
6.1670917172
 30
0.0
 11
10.5705732753
 21
5.328772214
 31
0.0
  0
LINE
  5
D7
330
46
100
AcDbEntity
  8
SLD-0
  6
Continuous
 62
   179
370
     0
100
AcDbLine
 10
10.5705732753
 20
5.328772214
 30
0.0
 11
11.8219087751
 21
5.328772214
 31
0.0
  0
LINE
  5
D8
330
46
100
AcDbEntity
  8
SLD-0
  6
Continuous
 62
   179
370
     0
100
AcDbLine
 10
11.8219087751
 20
5.328772214
 30
0.0
 11
11.6679358321
 21
5.074772214
 31
0.0
  0
LINE
  5
D9
330
46
100
AcDbEntity
  8
SLD-0
  6
Continuous
 62
   179
370
     0
100
AcDbLine
 10
5.8233259195
 20
5.8196658264
 30
0.0
 11
6.3861900209
 21
5.8196658264
 31
0.0
  0
LINE
  5
DA
330
46
100
AcDbEntity
  8
SLD-0
  6
Continuous
 62
   179
370
     0
100
AcDbLine
 10
6.5894023244
 20
5.8196658264
 30
0.0
 11
6.5986755478
 21
6.6623355365
 31
0.0
  0
LINE
  5
DB
330
46
100
AcDbEntity
  8
SLD-0
  6
Continuous
 62
   179
370
     0
100
AcDbLine
 10
5.8589958063
 20
6.4486554792
 30
0.0
 11
5.7072237211
 21
6.5837682993
 31
0.0
  0
LINE
  5
DC
330
46
100
AcDbEntity
  8
SLD-0
  6
Continuous
 62
   179
370
     0
100
AcDbLine
 10
5.8233259195
 20
5.8196658264
 30
0.0
 11
5.8233259195
 21
5.6164658264
 31
0.0
  0
LINE
  5
DD
330
46
100
AcDbEntity
  8
SLD-0
  6
Continuous
 62
   179
370
     0
100
AcDbLine
 10
6.3861900209
 20
5.8196658264
 30
0.0
 11
6.3953395594
 21
6.6510961243
 31
0.0
  0
LINE
  5
DE
330
46
100
AcDbEntity
  8
SLD-0
  6
Continuous
 62
   179
370
     0
100
AcDbLine
 10
5.8233259195
 20
5.6164658264
 30
0.0
 11
6.9235019593
 21
5.6164658264
 31
0.0
  0
LINE
  5
DF
330
46
100
AcDbEntity
  8
SLD-0
  6
Continuous
 62
   179
370
     0
100
AcDbLine
 10
6.5894023244
 20
5.8196658264
 30
0.0
 11
6.9235019593
 21
5.8196658264
 31
0.0
  0
LINE
  5
E0
330
46
100
AcDbEntity
  8
SLD-0
  6
Continuous
 62
   179
370
     0
100
AcDbLine
 10
6.9235019593
 20
6.8675322703
 30
0.0
 11
6.9235019593
 21
6.6643320195
 31
0.0
  0
LINE
  5
E1
330
46
100
AcDbEntity
  8
SLD-0
  6
Continuous
 62
   179
370
     0
100
AcDbLine
 10
6.9235019593
 20
5.8196658264
 30
0.0
 11
6.9235019593
 21
5.6164658264
 31
0.0
  0
LINE
  5
E2
330
46
100
AcDbEntity
  8
SLD-0
  6
Continuous
 62
   179
370
     0
100
AcDbLine
 10
7.0251019593
 20
5.6164658264
 30
0.0
 11
7.0251019593
 21
5.8196658264
 31
0.0
  0
LINE
  5
E3
330
46
100
AcDbEntity
  8
SLD-0
  6
Continuous
 62
   179
370
     0
100
AcDbLine
 10
7.0251019593
 20
5.6164658264
 30
0.0
 11
7.6983440458
 21
5.6164658264
 31
0.0
  0
LINE
  5
E4
330
46
100
AcDbEntity
  8
SLD-0
  6
Continuous
 62
   179
370
     0
100
AcDbLine
 10
7.0251019593
 20
5.8196658264
 30
0.0
 11
7.7006987446
 21
5.8196658264
 31
0.0
  0
LINE
  5
E5
330
46
100
AcDbEntity
  8
SLD-0
  6
Continuous
 62
   179
370
     0
100
AcDbLine
 10
7.0251019593
 20
6.8671708916
 30
0.0
 11
7.0251019593
 21
6.6639677383
 31
0.0
  0
LINE
  5
E6
330
46
100
AcDbEntity
  8
SLD-0
  6
Continuous
 62
   179
370
     0
100
AcDbLine
 10
3.5916925579
 20
0.7928167596
 30
0.0
 11
3.4114284588
 21
0.8248383328
 31
0.0
  0
LINE
  5
E7
330
46
100
AcDbEntity
  8
SLD-0
  6
Continuous
 62
   179
370
     0
100
AcDbLine
 10
2.7216325156
 20
0.9875412179
 30
0.0
 11
2.5172090428
 21
1.0479812728
 31
0.0
  0
LINE
  5
E8
330
46
100
AcDbEntity
  8
SLD-0
  6
Continuous
 62
   179
370
     0
100
AcDbLine
 10
1.9537083738
 20
1.3941446219
 30
0.0
 11
1.8760961907
 21
1.4763741402
 31
0.0
  0
LINE
  5
E9
330
46
100
AcDbEntity
  8
SLD-0
  6
Continuous
 62
   179
370
     0
100
AcDbLine
 10
3.5916925579
 20
0.7928167596
 30
0.0
 11
3.4111163621
 21
0.5477665664
 31
0.0
  0
LINE
  5
EA
330
46
100
AcDbEntity
  8
SLD-0
  6
Continuous
 62
   179
370
     0
100
AcDbLine
 10
4.5075243396
 20
0.4316993702
 30
0.0
 11
4.3914571434
 21
0.2124457765
 31
0.0
  0
LINE
  5
EB
330
46
100
AcDbEntity
  8
SLD-0
  6
Continuous
 62
   179
370
     0
100
AcDbLine
 10
5.5781707198
 20
0.1737333763
 30
0.0
 11
5.5007809216
 21
0.0318695807
 31
0.0
  0
LINE
  5
EC
330
46
100
AcDbEntity
  8
SLD-0
  6
Continuous
 62
   179
370
     0
100
AcDbLine
 10
3.6094461777
 20
0.5060778426
 30
0.0
 11
3.9338164089
 21
0.4696189967
 31
0.0
  0
LINE
  5
ED
330
46
100
AcDbEntity
  8
SLD-0
  6
Continuous
 62
   179
370
     0
100
AcDbLine
 10
4.3914571434
 20
0.2124457765
 30
0.0
 11
4.5691047113
 21
0.1940336593
 31
0.0
  0
LINE
  5
EE
330
46
100
AcDbEntity
  8
SLD-0
  6
Continuous
 62
   179
370
     0
100
AcDbLine
 10
4.9618846181
 20
0.1737333763
 30
0.0
 11
5.5781707198
 21
0.1737333763
 31
0.0
  0
LINE
  5
EF
330
46
100
AcDbEntity
  8
SLD-0
  6
Continuous
 62
   179
370
     0
100
AcDbLine
 10
5.5007809216
 20
0.0318695807
 30
0.0
 11
5.642281845
 21
0.0153749561
 31
0.0
  0
LINE
  5
F0
330
46
100
AcDbEntity
  8
SLD-0
  6
Continuous
 62
   179
370
     0
100
AcDbLine
 10
6.478196597
 20
0.0725203742
 30
0.0
 11
6.9104233196
 21
0.1840646397
 31
0.0
  0
LINE
  5
F1
330
46
100
AcDbEntity
  8
SLD-0
  6
Continuous
 62
   179
370
     0
100
AcDbLine
 10
5.9692611919
 20
1.5011554726
 30
0.0
 11
1.8760961907
 21
1.4763741402
 31
0.0
  0
LINE
  5
F2
330
46
100
AcDbEntity
  8
SLD-0
  6
Continuous
 62
   179
370
     0
100
AcDbLine
 10
11.9447504485
 20
1.4763741402
 30
0.0
 11
7.8515854474
 21
1.5011554726
 31
0.0
  0
LINE
  5
F3
330
46
100
AcDbEntity
  8
SLD-0
  6
Continuous
 62
   179
370
     0
100
AcDbLine
 10
6.9104233196
 20
0.1840646397
 30
0.0
 11
7.3426500423
 21
0.0725203742
 31
0.0
  0
LINE
  5
F4
330
46
100
AcDbEntity
  8
SLD-0
  6
Continuous
 62
   179
370
     0
100
AcDbLine
 10
8.1785647943
 20
0.0153749561
 30
0.0
 11
8.3200657177
 21
0.0318695807
 31
0.0
  0
LINE
  5
F5
330
46
100
AcDbEntity
  8
SLD-0
  6
Continuous
 62
   179
370
     0
100
AcDbLine
 10
8.2426759195
 20
0.1737333763
 30
0.0
 11
8.8589620212
 21
0.1737333763
 31
0.0
  0
LINE
  5
F6
330
46
100
AcDbEntity
  8
SLD-0
  6
Continuous
 62
   179
370
     0
100
AcDbLine
 10
9.251741928
 20
0.1940336593
 30
0.0
 11
9.4293894959
 21
0.2124457765
 31
0.0
  0
LINE
  5
F7
330
46
100
AcDbEntity
  8
SLD-0
  6
Continuous
 62
   179
370
     0
100
AcDbLine
 10
9.8870302304
 20
0.4696189967
 30
0.0
 11
10.2114004615
 21
0.5060778426
 31
0.0
  0
LINE
  5
F8
330
46
100
AcDbEntity
  8
SLD-0
  6
Continuous
 62
   179
370
     0
100
AcDbLine
 10
8.3200657177
 20
0.0318695807
 30
0.0
 11
8.2426759195
 21
0.1737333763
 31
0.0
  0
LINE
  5
F9
330
46
100
AcDbEntity
  8
SLD-0
  6
Continuous
 62
   179
370
     0
100
AcDbLine
 10
9.4293894959
 20
0.2124457765
 30
0.0
 11
9.3133222997
 21
0.4316993702
 31
0.0
  0
LINE
  5
FA
330
46
100
AcDbEntity
  8
SLD-0
  6
Continuous
 62
   179
370
     0
100
AcDbLine
 10
10.4097302771
 20
0.5477665664
 30
0.0
 11
10.2291540814
 21
0.7928167596
 31
0.0
  0
LINE
  5
FB
330
46
100
AcDbEntity
  8
SLD-0
  6
Continuous
 62
   179
370
     0
100
AcDbLine
 10
11.9447504485
 20
1.4763741402
 30
0.0
 11
11.8671382655
 21
1.3941446219
 31
0.0
  0
LINE
  5
FC
330
46
100
AcDbEntity
  8
SLD-0
  6
Continuous
 62
   179
370
     0
100
AcDbLine
 10
11.3036375965
 20
1.0479812728
 30
0.0
 11
11.0992141237
 21
0.9875412179
 31
0.0
  0
LINE
  5
FD
330
46
100
AcDbEntity
  8
SLD-0
  6
Continuous
 62
   179
370
     0
100
AcDbLine
 10
10.4094181805
 20
0.8248383328
 30
0.0
 11
10.2291540814
 21
0.7928167596
 31
0.0
  0
LINE
  5
FE
330
46
100
AcDbEntity
  8
SLD-0
  6
Continuous
 62
   179
370
     0
100
AcDbLine
 10
0.0
 20
4.5678250948
 30
0.0
 11
0.0
 21
4.3138250948
 31
0.0
  0
LINE
  5
FF
330
46
100
AcDbEntity
  8
SLD-0
  6
Continuous
 62
   179
370
     0
100
AcDbLine
 10
0.0
 20
4.3138250948
 30
0.0
 11
0.254
 21
4.3138250948
 31
0.0
  0
LINE
  5
100
330
46
100
AcDbEntity
  8
SLD-0
  6
Continuous
 62
   179
370
     0
100
AcDbLine
 10
0.254
 20
4.3138250948
 30
0.0
 11
0.254
 21
2.1728473092
 31
0.0
  0
LINE
  5
101
330
46
100
AcDbEntity
  8
SLD-0
  6
Continuous
 62
   179
370
     0
100
AcDbLine
 10
0.254
 20
2.1728473092
 30
0.0
 11
0.0
 21
2.1728473092
 31
0.0
  0
LINE
  5
102
330
46
100
AcDbEntity
  8
SLD-0
  6
Continuous
 62
   179
370
     0
100
AcDbLine
 10
0.0
 20
2.1728473092
 30
0.0
 11
0.0
 21
1.9188473092
 31
0.0
  0
LINE
  5
103
330
46
100
AcDbEntity
  8
SLD-0
  6
Continuous
 62
   179
370
     0
100
AcDbLine
 10
0.0
 20
1.9188473092
 30
0.0
 11
1.0755601552
 21
1.9188473092
 31
0.0
  0
LINE
  5
104
330
46
100
AcDbEntity
  8
SLD-0
  6
Continuous
 62
   179
370
     0
100
AcDbLine
 10
1.0755601552
 20
1.9188473092
 30
0.0
 11
1.0755601552
 21
2.1728473092
 31
0.0
  0
LINE
  5
105
330
46
100
AcDbEntity
  8
SLD-0
  6
Continuous
 62
   179
370
     0
100
AcDbLine
 10
1.0755601552
 20
2.1728473092
 30
0.0
 11
0.508
 21
2.1728473092
 31
0.0
  0
LINE
  5
106
330
46
100
AcDbEntity
  8
SLD-0
  6
Continuous
 62
   179
370
     0
100
AcDbLine
 10
0.508
 20
2.1728473092
 30
0.0
 11
0.508
 21
3.0260481428
 31
0.0
  0
LINE
  5
107
330
46
100
AcDbEntity
  8
SLD-0
  6
Continuous
 62
   179
370
     0
100
AcDbLine
 10
0.508
 20
3.0260481428
 30
0.0
 11
1.0775781344
 21
3.0260481428
 31
0.0
  0
LINE
  5
108
330
46
100
AcDbEntity
  8
SLD-0
  6
Continuous
 62
   179
370
     0
100
AcDbLine
 10
1.0775781344
 20
3.0260481428
 30
0.0
 11
1.0775781344
 21
2.7919307548
 31
0.0
  0
LINE
  5
109
330
46
100
AcDbEntity
  8
SLD-0
  6
Continuous
 62
   179
370
     0
100
AcDbLine
 10
1.0775781344
 20
2.7919307548
 30
0.0
 11
1.3315781344
 21
2.7919307548
 31
0.0
  0
LINE
  5
10A
330
46
100
AcDbEntity
  8
SLD-0
  6
Continuous
 62
   179
370
     0
100
AcDbLine
 10
1.3315781344
 20
2.7919307548
 30
0.0
 11
1.3315781344
 21
3.5270813292
 31
0.0
  0
LINE
  5
10B
330
46
100
AcDbEntity
  8
SLD-0
  6
Continuous
 62
   179
370
     0
100
AcDbLine
 10
1.3315781344
 20
3.5270813292
 30
0.0
 11
1.0775781344
 21
3.5270813292
 31
0.0
  0
LINE
  5
10C
330
46
100
AcDbEntity
  8
SLD-0
  6
Continuous
 62
   179
370
     0
100
AcDbLine
 10
1.0775781344
 20
3.5270813292
 30
0.0
 11
1.0775781344
 21
3.2800481428
 31
0.0
  0
LINE
  5
10D
330
46
100
AcDbEntity
  8
SLD-0
  6
Continuous
 62
   179
370
     0
100
AcDbLine
 10
1.0775781344
 20
3.2800481428
 30
0.0
 11
0.508
 21
3.2800481428
 31
0.0
  0
LINE
  5
10E
330
46
100
AcDbEntity
  8
SLD-0
  6
Continuous
 62
   179
370
     0
100
AcDbLine
 10
0.508
 20
3.2800481428
 30
0.0
 11
0.508
 21
4.3138250948
 31
0.0
  0
LINE
  5
10F
330
46
100
AcDbEntity
  8
SLD-0
  6
Continuous
 62
   179
370
     0
100
AcDbLine
 10
0.0
 20
4.5678250948
 30
0.0
 11
1.6798497264
 21
4.5678250948
 31
0.0
  0
LINE
  5
110
330
46
100
AcDbEntity
  8
SLD-0
  6
Continuous
 62
   179
370
     0
100
AcDbLine
 10
1.6798497264
 20
4.5678250948
 30
0.0
 11
1.6798497264
 21
4.0390122332
 31
0.0
  0
LINE
  5
111
330
46
100
AcDbEntity
  8
SLD-0
  6
Continuous
 62
   179
370
     0
100
AcDbLine
 10
1.6798497264
 20
4.0390122332
 30
0.0
 11
1.4258497264
 21
4.0390122332
 31
0.0
  0
LINE
  5
112
330
46
100
AcDbEntity
  8
SLD-0
  6
Continuous
 62
   179
370
     0
100
AcDbLine
 10
1.4258497264
 20
4.0390122332
 30
0.0
 11
1.4258497264
 21
4.3138250948
 31
0.0
  0
LINE
  5
113
330
46
100
AcDbEntity
  8
SLD-0
  6
Continuous
 62
   179
370
     0
100
AcDbLine
 10
1.4258497264
 20
4.3138250948
 30
0.0
 11
0.508
 21
4.3138250948
 31
0.0
  0
LINE
  5
114
330
46
100
AcDbEntity
  8
SLD-0
  6
Continuous
 62
   179
370
     0
100
AcDbLine
 10
2.1571393992
 20
2.1728473092
 30
0.0
 11
2.1571393992
 21
1.9188473092
 31
0.0
  0
LINE
  5
115
330
46
100
AcDbEntity
  8
SLD-0
  6
Continuous
 62
   179
370
     0
100
AcDbLine
 10
2.1571393992
 20
1.9188473092
 30
0.0
 11
3.1116485392
 21
1.9188473092
 31
0.0
  0
LINE
  5
116
330
46
100
AcDbEntity
  8
SLD-0
  6
Continuous
 62
   179
370
     0
100
AcDbLine
 10
3.1116485392
 20
1.9188473092
 30
0.0
 11
3.1116485392
 21
2.1728473223
 31
0.0
  0
LINE
  5
117
330
46
100
AcDbEntity
  8
SLD-0
  6
Continuous
 62
   179
370
     0
100
AcDbLine
 10
3.1116485392
 20
2.1728473223
 30
0.0
 11
2.6420943856
 21
2.1728473223
 31
0.0
  0
LINE
  5
118
330
46
100
AcDbEntity
  8
SLD-0
  6
Continuous
 62
   179
370
     0
100
AcDbLine
 10
2.6420943856
 20
2.1728473223
 30
0.0
 11
2.6420943856
 21
2.9744548631
 31
0.0
  0
LINE
  5
119
330
46
100
AcDbEntity
  8
SLD-0
  6
Continuous
 62
   179
370
     0
100
AcDbLine
 10
2.6420943856
 20
2.9744548631
 30
0.0
 11
3.0230943856
 21
2.9744548631
 31
0.0
  0
LINE
  5
11A
330
46
100
AcDbEntity
  8
SLD-0
  6
Continuous
 62
   179
370
     0
100
AcDbLine
 10
3.8117272257
 20
2.1728473092
 30
0.0
 11
3.4212777904
 21
2.1728473092
 31
0.0
  0
LINE
  5
11B
330
46
100
AcDbEntity
  8
SLD-0
  6
Continuous
 62
   179
370
     0
100
AcDbLine
 10
3.4212777904
 20
2.1728473092
 30
0.0
 11
3.4212777904
 21
1.9188473092
 31
0.0
  0
LINE
  5
11C
330
46
100
AcDbEntity
  8
SLD-0
  6
Continuous
 62
   179
370
     0
100
AcDbLine
 10
3.4212777904
 20
1.9188473092
 30
0.0
 11
4.3757869304
 21
1.9188473092
 31
0.0
  0
LINE
  5
11D
330
46
100
AcDbEntity
  8
SLD-0
  6
Continuous
 62
   179
370
     0
100
AcDbLine
 10
4.3757869304
 20
1.9188473092
 30
0.0
 11
4.3757869304
 21
2.1728473092
 31
0.0
  0
LINE
  5
11E
330
46
100
AcDbEntity
  8
SLD-0
  6
Continuous
 62
   179
370
     0
100
AcDbLine
 10
2.1571393992
 20
2.1728473092
 30
0.0
 11
2.3880943856
 21
2.1728473092
 31
0.0
  0
LINE
  5
11F
330
46
100
AcDbEntity
  8
SLD-0
  6
Continuous
 62
   179
370
     0
100
AcDbLine
 10
2.3880943856
 20
2.1728473092
 30
0.0
 11
2.3880943856
 21
4.3138250625
 31
0.0
  0
LINE
  5
120
330
46
100
AcDbEntity
  8
SLD-0
  6
Continuous
 62
   179
370
     0
100
AcDbLine
 10
2.3880943856
 20
4.3138250625
 30
0.0
 11
2.2474449624
 21
4.3138250625
 31
0.0
  0
LINE
  5
121
330
46
100
AcDbEntity
  8
SLD-0
  6
Continuous
 62
   179
370
     0
100
AcDbLine
 10
2.2474449624
 20
4.3138250625
 30
0.0
 11
2.2474449624
 21
4.5678250948
 31
0.0
  0
LINE
  5
122
330
46
100
AcDbEntity
  8
SLD-0
  6
Continuous
 62
   179
370
     0
100
AcDbLine
 10
2.2474449624
 20
4.5678250948
 30
0.0
 11
3.0230943856
 21
4.5678250948
 31
0.0
  0
LINE
  5
123
330
46
100
AcDbEntity
  8
SLD-0
  6
Continuous
 62
   179
370
     0
100
AcDbLine
 10
2.6420943856
 20
4.3138250756
 30
0.0
 11
2.6420943856
 21
3.2284548631
 31
0.0
  0
LINE
  5
124
330
46
100
AcDbEntity
  8
SLD-0
  6
Continuous
 62
   179
370
     0
100
AcDbLine
 10
3.4426485145
 20
3.22845485
 30
0.0
 11
3.1246943856
 21
3.22845485
 31
0.0
  0
LINE
  5
125
330
46
100
AcDbEntity
  8
SLD-0
  6
Continuous
 62
   179
370
     0
100
AcDbLine
 10
3.0230943856
 20
4.3138250756
 30
0.0
 11
3.0230943856
 21
4.5678250948
 31
0.0
  0
LINE
  5
126
330
46
100
AcDbEntity
  8
SLD-0
  6
Continuous
 62
   179
370
     0
100
AcDbLine
 10
3.0230943856
 20
4.3138250756
 30
0.0
 11
2.6420943856
 21
4.3138250756
 31
0.0
  0
LINE
  5
127
330
46
100
AcDbEntity
  8
SLD-0
  6
Continuous
 62
   179
370
     0
100
AcDbLine
 10
3.1246943856
 20
4.5678250948
 30
0.0
 11
3.1246943856
 21
4.3138250948
 31
0.0
  0
LINE
  5
128
330
46
100
AcDbEntity
  8
SLD-0
  6
Continuous
 62
   179
370
     0
100
AcDbLine
 10
3.1246943856
 20
4.5678250948
 30
0.0
 11
3.5783334736
 21
4.5678250948
 31
0.0
  0
LINE
  5
129
330
46
100
AcDbEntity
  8
SLD-0
  6
Continuous
 62
   179
370
     0
100
AcDbLine
 10
3.0230943856
 20
3.2284548631
 30
0.0
 11
3.0230943856
 21
2.9744548631
 31
0.0
  0
LINE
  5
12A
330
46
100
AcDbEntity
  8
SLD-0
  6
Continuous
 62
   179
370
     0
100
AcDbLine
 10
3.0230943856
 20
3.2284548631
 30
0.0
 11
2.6420943856
 21
3.2284548631
 31
0.0
  0
LINE
  5
12B
330
46
100
AcDbEntity
  8
SLD-0
  6
Continuous
 62
   179
370
     0
100
AcDbLine
 10
3.1246943856
 20
2.97445485
 30
0.0
 11
3.1246943856
 21
3.22845485
 31
0.0
  0
LINE
  5
12C
330
46
100
AcDbEntity
  8
SLD-0
  6
Continuous
 62
   179
370
     0
100
AcDbLine
 10
3.1246943856
 20
2.97445485
 30
0.0
 11
3.4043787386
 21
2.97445485
 31
0.0
  0
LINE
  5
12D
330
46
100
AcDbEntity
  8
SLD-0
  6
Continuous
 62
   179
370
     0
100
AcDbLine
 10
3.5783334736
 20
4.3138250948
 30
0.0
 11
3.1246943856
 21
4.3138250948
 31
0.0
  0
LINE
  5
12E
330
46
100
AcDbEntity
  8
SLD-0
  6
Continuous
 62
   179
370
     0
100
AcDbLine
 10
4.0662982027
 20
2.1728473092
 30
0.0
 11
4.3757869304
 21
2.1728473092
 31
0.0
  0
LINE
  5
12F
330
46
100
AcDbEntity
  8
SLD-0
  6
Continuous
 62
   179
370
     0
100
AcDbLine
 10
4.734991292
 20
4.5549267716
 30
0.0
 11
4.734991292
 21
4.3009267716
 31
0.0
  0
LINE
  5
130
330
46
100
AcDbEntity
  8
SLD-0
  6
Continuous
 62
   179
370
     0
100
AcDbLine
 10
4.734991292
 20
4.3009267716
 30
0.0
 11
5.0435233648
 21
4.3009267716
 31
0.0
  0
LINE
  5
131
330
46
100
AcDbEntity
  8
SLD-0
  6
Continuous
 62
   179
370
     0
100
AcDbLine
 10
5.0435233648
 20
4.3009267716
 30
0.0
 11
5.0435233648
 21
2.1728473092
 31
0.0
  0
LINE
  5
132
330
46
100
AcDbEntity
  8
SLD-0
  6
Continuous
 62
   179
370
     0
100
AcDbLine
 10
5.0435233648
 20
2.1728473092
 30
0.0
 11
4.734991292
 21
2.1728473092
 31
0.0
  0
LINE
  5
133
330
46
100
AcDbEntity
  8
SLD-0
  6
Continuous
 62
   179
370
     0
100
AcDbLine
 10
4.734991292
 20
2.1728473092
 30
0.0
 11
4.734991292
 21
1.9188473092
 31
0.0
  0
LINE
  5
134
330
46
100
AcDbEntity
  8
SLD-0
  6
Continuous
 62
   179
370
     0
100
AcDbLine
 10
4.734991292
 20
1.9188473092
 30
0.0
 11
5.5992649
 21
1.9188473092
 31
0.0
  0
LINE
  5
135
330
46
100
AcDbEntity
  8
SLD-0
  6
Continuous
 62
   179
370
     0
100
AcDbLine
 10
5.5992649
 20
1.9188473092
 30
0.0
 11
5.5992649
 21
2.1728473092
 31
0.0
  0
LINE
  5
136
330
46
100
AcDbEntity
  8
SLD-0
  6
Continuous
 62
   179
370
     0
100
AcDbLine
 10
5.5992649
 20
2.1728473092
 30
0.0
 11
5.2975233648
 21
2.1728473092
 31
0.0
  0
LINE
  5
137
330
46
100
AcDbEntity
  8
SLD-0
  6
Continuous
 62
   179
370
     0
100
AcDbLine
 10
5.2975233648
 20
2.1728473092
 30
0.0
 11
5.2975233648
 21
4.3009267716
 31
0.0
  0
LINE
  5
138
330
46
100
AcDbEntity
  8
SLD-0
  6
Continuous
 62
   179
370
     0
100
AcDbLine
 10
5.2975233648
 20
4.3009267716
 30
0.0
 11
5.5992649
 21
4.3009267716
 31
0.0
  0
LINE
  5
139
330
46
100
AcDbEntity
  8
SLD-0
  6
Continuous
 62
   179
370
     0
100
AcDbLine
 10
5.5992649
 20
4.3009267716
 30
0.0
 11
5.5992649
 21
4.5549267716
 31
0.0
  0
LINE
  5
13A
330
46
100
AcDbEntity
  8
SLD-0
  6
Continuous
 62
   179
370
     0
100
AcDbLine
 10
5.5992649
 20
4.5549267716
 30
0.0
 11
4.734991292
 21
4.5549267716
 31
0.0
  0
LINE
  5
13B
330
46
100
AcDbEntity
  8
SLD-0
  6
Continuous
 62
   179
370
     0
100
AcDbLine
 10
6.0616206938
 20
4.5549267716
 30
0.0
 11
6.0616206938
 21
4.3138250625
 31
0.0
  0
LINE
  5
13C
330
46
100
AcDbEntity
  8
SLD-0
  6
Continuous
 62
   179
370
     0
100
AcDbLine
 10
6.0616206938
 20
4.3138250625
 30
0.0
 11
6.2263166304
 21
4.3138250625
 31
0.0
  0
LINE
  5
13D
330
46
100
AcDbEntity
  8
SLD-0
  6
Continuous
 62
   179
370
     0
100
AcDbLine
 10
6.2263166304
 20
4.3138250625
 30
0.0
 11
6.2263166304
 21
3.2941361921
 31
0.0
  0
LINE
  5
13E
330
46
100
AcDbEntity
  8
SLD-0
  6
Continuous
 62
   179
370
     0
100
AcDbLine
 10
6.2263166366
 20
2.1728473272
 30
0.0
 11
6.0616207
 21
2.1728473272
 31
0.0
  0
LINE
  5
13F
330
46
100
AcDbEntity
  8
SLD-0
  6
Continuous
 62
   179
370
     0
100
AcDbLine
 10
6.0616207
 20
2.1728473272
 30
0.0
 11
6.0616207
 21
1.9188473148
 31
0.0
  0
LINE
  5
140
330
46
100
AcDbEntity
  8
SLD-0
  6
Continuous
 62
   179
370
     0
100
AcDbLine
 10
6.0616207
 20
1.9188473148
 30
0.0
 11
6.981014767
 21
1.9188473148
 31
0.0
  0
LINE
  5
141
330
46
100
AcDbEntity
  8
SLD-0
  6
Continuous
 62
   179
370
     0
100
AcDbLine
 10
6.0616206938
 20
4.5549267716
 30
0.0
 11
6.9996376167
 21
4.5549267716
 31
0.0
  0
LINE
  5
142
330
46
100
AcDbEntity
  8
SLD-0
  6
Continuous
 62
   179
370
     0
100
AcDbLine
 10
6.4803166366
 20
2.1728473148
 30
0.0
 11
6.9810147683
 21
2.1728473148
 31
0.0
  0
LINE
  5
143
330
46
100
AcDbEntity
  8
SLD-0
  6
Continuous
 62
   179
370
     0
100
AcDbLine
 10
6.4803166304
 20
4.3138250625
 30
0.0
 11
6.4803166304
 21
3.2941361921
 31
0.0
  0
LINE
  5
144
330
46
100
AcDbEntity
  8
SLD-0
  6
Continuous
 62
   179
370
     0
100
AcDbLine
 10
6.4803166304
 20
4.3138250625
 30
0.0
 11
6.9987352135
 21
4.3138250625
 31
0.0
  0
LINE
  5
145
330
46
100
AcDbEntity
  8
SLD-0
  6
Continuous
 62
   179
370
     0
100
AcDbLine
 10
6.2263166304
 20
3.2941361921
 30
0.0
 11
6.4803166304
 21
3.2941361921
 31
0.0
  0
LINE
  5
146
330
46
100
AcDbEntity
  8
SLD-0
  6
Continuous
 62
   179
370
     0
100
AcDbLine
 10
6.4803166366
 20
3.1925361976
 30
0.0
 11
6.2263166366
 21
3.1925361976
 31
0.0
  0
LINE
  5
147
330
46
100
AcDbEntity
  8
SLD-0
  6
Continuous
 62
   179
370
     0
100
AcDbLine
 10
6.2263166366
 20
3.1925361976
 30
0.0
 11
6.2263166366
 21
2.1728473272
 31
0.0
  0
LINE
  5
148
330
46
100
AcDbEntity
  8
SLD-0
  6
Continuous
 62
   179
370
     0
100
AcDbLine
 10
6.4803166366
 20
3.1925361976
 30
0.0
 11
6.4803166366
 21
2.1728473148
 31
0.0
  0
LINE
  5
149
330
46
100
AcDbEntity
  8
SLD-0
  6
Continuous
 62
   179
370
     0
100
AcDbLine
 10
7.5228636268
 20
3.2941361921
 30
0.0
 11
7.7768701765
 21
3.2941361921
 31
0.0
  0
LINE
  5
14A
330
46
100
AcDbEntity
  8
SLD-0
  6
Continuous
 62
   179
370
     0
100
AcDbLine
 10
7.521384724
 20
3.1925361921
 30
0.0
 11
7.7754429805
 21
3.1925361921
 31
0.0
  0
LINE
  5
14B
330
46
100
AcDbEntity
  8
SLD-0
  6
Continuous
 62
   179
370
     0
100
AcDbLine
 10
7.690151502
 20
1.9188473092
 30
0.0
 11
8.5285935132
 21
1.9188473092
 31
0.0
  0
LINE
  5
14C
330
46
100
AcDbEntity
  8
SLD-0
  6
Continuous
 62
   179
370
     0
100
AcDbLine
 10
8.5285935132
 20
1.9188473092
 30
0.0
 11
8.62659184
 21
2.1728473092
 31
0.0
  0
LINE
  5
14D
330
46
100
AcDbEntity
  8
SLD-0
  6
Continuous
 62
   179
370
     0
100
AcDbLine
 10
8.62659184
 20
2.1728473092
 30
0.0
 11
8.2643574381
 21
2.1728473092
 31
0.0
  0
LINE
  5
14E
330
46
100
AcDbEntity
  8
SLD-0
  6
Continuous
 62
   179
370
     0
100
AcDbLine
 10
8.2643574381
 20
2.1728473092
 30
0.0
 11
8.5089470716
 21
2.80679453
 31
0.0
  0
LINE
  5
14F
330
46
100
AcDbEntity
  8
SLD-0
  6
Continuous
 62
   179
370
     0
100
AcDbLine
 10
8.5089470716
 20
2.80679453
 30
0.0
 11
9.5137128021
 21
2.80679453
 31
0.0
  0
LINE
  5
150
330
46
100
AcDbEntity
  8
SLD-0
  6
Continuous
 62
   179
370
     0
100
AcDbLine
 10
9.5137128021
 20
2.80679453
 30
0.0
 11
9.7668598942
 21
2.1728473092
 31
0.0
  0
LINE
  5
151
330
46
100
AcDbEntity
  8
SLD-0
  6
Continuous
 62
   179
370
     0
100
AcDbLine
 10
9.7668598942
 20
2.1728473092
 30
0.0
 11
9.3360508224
 21
2.1728473092
 31
0.0
  0
LINE
  5
152
330
46
100
AcDbEntity
  8
SLD-0
  6
Continuous
 62
   179
370
     0
100
AcDbLine
 10
9.3360508224
 20
2.1728473092
 30
0.0
 11
9.4374778171
 21
1.9188473092
 31
0.0
  0
LINE
  5
153
330
46
100
AcDbEntity
  8
SLD-0
  6
Continuous
 62
   179
370
     0
100
AcDbLine
 10
9.4374778171
 20
1.9188473092
 30
0.0
 11
10.3791412627
 21
1.9188473092
 31
0.0
  0
LINE
  5
154
330
46
100
AcDbEntity
  8
SLD-0
  6
Continuous
 62
   179
370
     0
100
AcDbLine
 10
10.3791412627
 20
1.9188473092
 30
0.0
 11
10.277714268
 21
2.1728473092
 31
0.0
  0
LINE
  5
155
330
46
100
AcDbEntity
  8
SLD-0
  6
Continuous
 62
   179
370
     0
100
AcDbLine
 10
10.277714268
 20
2.1728473092
 30
0.0
 11
10.040362061
 21
2.1728473092
 31
0.0
  0
LINE
  5
156
330
46
100
AcDbEntity
  8
SLD-0
  6
Continuous
 62
   179
370
     0
100
AcDbLine
 10
7.9921081552
 20
2.1728473092
 30
0.0
 11
7.7881498288
 21
2.1728473092
 31
0.0
  0
LINE
  5
157
330
46
100
AcDbEntity
  8
SLD-0
  6
Continuous
 62
   179
370
     0
100
AcDbLine
 10
7.7881498288
 20
2.1728473092
 30
0.0
 11
7.690151502
 21
1.9188473092
 31
0.0
  0
LINE
  5
158
330
46
100
AcDbEntity
  8
SLD-0
  6
Continuous
 62
   179
370
     0
100
AcDbLine
 10
10.040362061
 20
2.1728473092
 30
0.0
 11
9.4622165863
 21
3.620676371
 31
0.0
  0
LINE
  5
159
330
46
100
AcDbEntity
  8
SLD-0
  6
Continuous
 62
   179
370
     0
100
AcDbLine
 10
8.6069453983
 20
3.06079453
 30
0.0
 11
8.7865331283
 21
3.5262645529
 31
0.0
  0
LINE
  5
15A
330
46
100
AcDbEntity
  8
SLD-0
  6
Continuous
 62
   179
370
     0
100
AcDbLine
 10
9.0026925983
 20
4.0865241734
 30
0.0
 11
9.1886502613
 21
3.6208370401
 31
0.0
  0
LINE
  5
15B
330
46
100
AcDbEntity
  8
SLD-0
  6
Continuous
 62
   179
370
     0
100
AcDbLine
 10
9.4122858074
 20
3.06079453
 30
0.0
 11
8.6069453983
 21
3.06079453
 31
0.0
  0
LINE
  5
15C
330
46
100
AcDbEntity
  8
SLD-0
  6
Continuous
 62
   179
370
     0
100
AcDbLine
 10
8.911162492
 20
4.5549267716
 30
0.0
 11
9.0891527657
 21
4.5549267716
 31
0.0
  0
LINE
  5
15D
330
46
100
AcDbEntity
  8
SLD-0
  6
Continuous
 62
   179
370
     0
100
AcDbLine
 10
8.911162492
 20
4.5549267716
 30
0.0
 11
8.5861308741
 21
3.7124835007
 31
0.0
  0
LINE
  5
15E
330
46
100
AcDbEntity
  8
SLD-0
  6
Continuous
 62
   179
370
     0
100
AcDbLine
 10
9.1886502613
 20
3.6208370401
 30
0.0
 11
9.4245387032
 21
3.7150317478
 31
0.0
  0
LINE
  5
15F
330
46
100
AcDbEntity
  8
SLD-0
  6
Continuous
 62
   179
370
     0
100
AcDbLine
 10
9.4245387032
 20
3.7150317478
 30
0.0
 11
9.0891527657
 21
4.5549267716
 31
0.0
  0
LINE
  5
160
330
46
100
AcDbEntity
  8
SLD-0
  6
Continuous
 62
   179
370
     0
100
AcDbLine
 10
9.4622165863
 20
3.620676371
 30
0.0
 11
9.2263281443
 21
3.5264816633
 31
0.0
  0
LINE
  5
161
330
46
100
AcDbEntity
  8
SLD-0
  6
Continuous
 62
   179
370
     0
100
AcDbLine
 10
9.2263281443
 20
3.5264816633
 30
0.0
 11
9.4122858074
 21
3.06079453
 31
0.0
  0
LINE
  5
162
330
46
100
AcDbEntity
  8
SLD-0
  6
Continuous
 62
   179
370
     0
100
AcDbLine
 10
8.5861308741
 20
3.7124835007
 30
0.0
 11
8.8231048683
 21
3.6210541506
 31
0.0
  0
LINE
  5
163
330
46
100
AcDbEntity
  8
SLD-0
  6
Continuous
 62
   179
370
     0
100
AcDbLine
 10
8.8231048683
 20
3.6210541506
 30
0.0
 11
9.0026925983
 21
4.0865241734
 31
0.0
  0
LINE
  5
164
330
46
100
AcDbEntity
  8
SLD-0
  6
Continuous
 62
   179
370
     0
100
AcDbLine
 10
8.7865331283
 20
3.5262645529
 30
0.0
 11
8.5495591341
 21
3.617693903
 31
0.0
  0
LINE
  5
165
330
46
100
AcDbEntity
  8
SLD-0
  6
Continuous
 62
   179
370
     0
100
AcDbLine
 10
8.5495591341
 20
3.617693903
 30
0.0
 11
7.9921081552
 21
2.1728473092
 31
0.0
  0
LINE
  5
166
330
46
100
AcDbEntity
  8
SLD-0
  6
Continuous
 62
   179
370
     0
100
AcDbLine
 10
12.1990955306
 20
4.5549267716
 30
0.0
 11
12.1203106336
 21
4.3138250948
 31
0.0
  0
LINE
  5
167
330
46
100
AcDbEntity
  8
SLD-0
  6
Continuous
 62
   179
370
     0
100
AcDbLine
 10
12.1203106336
 20
4.3138250948
 30
0.0
 11
11.9098623537
 21
4.3138250948
 31
0.0
  0
LINE
  5
168
330
46
100
AcDbEntity
  8
SLD-0
  6
Continuous
 62
   179
370
     0
100
AcDbLine
 10
11.9098623537
 20
4.3138250948
 30
0.0
 11
11.1272544487
 21
1.9188473092
 31
0.0
  0
LINE
  5
169
330
46
100
AcDbEntity
  8
SLD-0
  6
Continuous
 62
   179
370
     0
100
AcDbLine
 10
11.1272544487
 20
1.9188473092
 30
0.0
 11
10.9567074561
 21
1.9188473092
 31
0.0
  0
LINE
  5
16A
330
46
100
AcDbEntity
  8
SLD-0
  6
Continuous
 62
   179
370
     0
100
AcDbLine
 10
10.9567074561
 20
1.9188473092
 30
0.0
 11
9.9741195287
 21
4.3009267716
 31
0.0
  0
LINE
  5
16B
330
46
100
AcDbEntity
  8
SLD-0
  6
Continuous
 62
   179
370
     0
100
AcDbLine
 10
9.9741195287
 20
4.3009267716
 30
0.0
 11
9.798441668
 21
4.3009267716
 31
0.0
  0
LINE
  5
16C
330
46
100
AcDbEntity
  8
SLD-0
  6
Continuous
 62
   179
370
     0
100
AcDbLine
 10
9.798441668
 20
4.3009267716
 30
0.0
 11
9.6936687847
 21
4.5549267716
 31
0.0
  0
LINE
  5
16D
330
46
100
AcDbEntity
  8
SLD-0
  6
Continuous
 62
   179
370
     0
100
AcDbLine
 10
9.6936687847
 20
4.5549267716
 30
0.0
 11
10.6352970767
 21
4.5549267716
 31
0.0
  0
LINE
  5
16E
330
46
100
AcDbEntity
  8
SLD-0
  6
Continuous
 62
   179
370
     0
100
AcDbLine
 10
10.6352970767
 20
4.5549267716
 30
0.0
 11
10.74006996
 21
4.3009267716
 31
0.0
  0
LINE
  5
16F
330
46
100
AcDbEntity
  8
SLD-0
  6
Continuous
 62
   179
370
     0
100
AcDbLine
 10
10.74006996
 20
4.3009267716
 30
0.0
 11
10.2488800737
 21
4.3009267716
 31
0.0
  0
LINE
  5
170
330
46
100
AcDbEntity
  8
SLD-0
  6
Continuous
 62
   179
370
     0
100
AcDbLine
 10
10.2488800737
 20
4.3009267716
 30
0.0
 11
11.0242180589
 21
2.4212815615
 31
0.0
  0
LINE
  5
171
330
46
100
AcDbEntity
  8
SLD-0
  6
Continuous
 62
   179
370
     0
100
AcDbLine
 10
11.0242180589
 20
2.4212815615
 30
0.0
 11
11.6426453106
 21
4.3138250948
 31
0.0
  0
LINE
  5
172
330
46
100
AcDbEntity
  8
SLD-0
  6
Continuous
 62
   179
370
     0
100
AcDbLine
 10
11.6426453106
 20
4.3138250948
 30
0.0
 11
11.2302754312
 21
4.3138250948
 31
0.0
  0
LINE
  5
173
330
46
100
AcDbEntity
  8
SLD-0
  6
Continuous
 62
   179
370
     0
100
AcDbLine
 10
11.2302754312
 20
4.3138250948
 30
0.0
 11
11.3090603282
 21
4.5549267716
 31
0.0
  0
LINE
  5
174
330
46
100
AcDbEntity
  8
SLD-0
  6
Continuous
 62
   179
370
     0
100
AcDbLine
 10
11.3090603282
 20
4.5549267716
 30
0.0
 11
12.1990955306
 21
4.5549267716
 31
0.0
  0
LINE
  5
175
330
46
100
AcDbEntity
  8
SLD-0
  6
Continuous
 62
   179
370
     0
100
AcDbLine
 10
12.4943787775
 20
4.0349258561
 30
0.0
 11
12.4943787775
 21
3.2876870404
 31
0.0
  0
LINE
  5
176
330
46
100
AcDbEntity
  8
SLD-0
  6
Continuous
 62
   179
370
     0
100
AcDbLine
 10
13.7932285584
 20
2.4397369792
 30
0.0
 11
13.7932285584
 21
3.1860870404
 31
0.0
  0
LINE
  5
177
330
46
100
AcDbEntity
  8
SLD-0
  6
Continuous
 62
   179
370
     0
100
AcDbLine
 10
13.5392285584
 20
2.4397369792
 30
0.0
 11
13.5392285584
 21
3.1860870404
 31
0.0
  0
LINE
  5
178
330
46
100
AcDbEntity
  8
SLD-0
  6
Continuous
 62
   179
370
     0
100
AcDbLine
 10
12.7483787775
 20
4.0349258561
 30
0.0
 11
12.7483787775
 21
3.2876870404
 31
0.0
  0
LINE
  5
179
330
46
100
AcDbEntity
  8
SLD-0
  6
Continuous
 62
   179
370
     0
100
AcDbLine
 10
12.4943787775
 20
3.2876870404
 30
0.0
 11
12.7483787775
 21
3.2876870404
 31
0.0
  0
LINE
  5
17A
330
46
100
AcDbEntity
  8
SLD-0
  6
Continuous
 62
   179
370
     0
100
AcDbLine
 10
12.4943787775
 20
3.1860870404
 30
0.0
 11
12.7483787775
 21
3.1860870404
 31
0.0
  0
LINE
  5
17B
330
46
100
AcDbEntity
  8
SLD-0
  6
Continuous
 62
   179
370
     0
100
AcDbLine
 10
12.4943787775
 20
3.1860870404
 30
0.0
 11
12.4943787775
 21
2.4388482247
 31
0.0
  0
LINE
  5
17C
330
46
100
AcDbEntity
  8
SLD-0
  6
Continuous
 62
   179
370
     0
100
AcDbLine
 10
12.7483787775
 20
3.1860870404
 30
0.0
 11
12.7483787775
 21
2.4388482247
 31
0.0
  0
LINE
  5
17D
330
46
100
AcDbEntity
  8
SLD-0
  6
Continuous
 62
   179
370
     0
100
AcDbLine
 10
13.5392285584
 20
3.1860870404
 30
0.0
 11
13.7932285584
 21
3.1860870404
 31
0.0
  0
LINE
  5
17E
330
46
100
AcDbEntity
  8
SLD-0
  6
Continuous
 62
   179
370
     0
100
AcDbLine
 10
13.7932285584
 20
3.2876870404
 30
0.0
 11
13.5392285584
 21
3.2876870404
 31
0.0
  0
LINE
  5
17F
330
46
100
AcDbEntity
  8
SLD-0
  6
Continuous
 62
   179
370
     0
100
AcDbLine
 10
13.7932285584
 20
3.2876870404
 30
0.0
 11
13.7932285584
 21
4.0340371015
 31
0.0
  0
LINE
  5
180
330
46
100
AcDbEntity
  8
SLD-0
  6
Continuous
 62
   179
370
     0
100
AcDbLine
 10
13.5392285584
 20
3.2876870404
 30
0.0
 11
13.5392285584
 21
4.0340371015
 31
0.0
  0
LINE
  5
181
330
46
100
AcDbEntity
  8
SLD-0
  6
Continuous
 62
   179
370
     0
100
AcDbLine
 10
8.1808118243
 20
6.2918006815
 30
0.0
 11
8.1879625201
 21
6.1902006815
 31
0.0
  0
LINE
  5
182
330
46
100
AcDbEntity
  8
SLD-0
  6
Continuous
 62
   179
370
     0
100
AcDbLine
 10
7.9846253337
 20
6.1902006815
 30
0.0
 11
7.9718481832
 21
6.3143621628
 31
0.0
  0
ENDBLK
  5
48
330
46
100
AcDbEntity
  8
0
100
AcDbBlockEnd
  0
BLOCK
  5
184
330
183
100
AcDbEntity
  8
0
100
AcDbBlockBegin
  2
SW_NOTE_0
 70
     0
 10
0.0
 20
0.0
 30
0.0
  3
SW_NOTE_0
  1

  0
MTEXT
  5
1A9
330
183
100
AcDbEntity
  8
SLD-0
100
AcDbMText
 10
0.0
 20
1.8213698883
 30
0.0
 40
1.5
 41
0.0
 71
     1
 72
     1
  1
ENTGRATEN
  7
SLDTEXTSTYLE0
 73
     1
 44
1.0
  0
MTEXT
  5
1AA
330
183
100
AcDbEntity
  8
SLD-0
100
AcDbMText
 10
0.0
 20
-0.6786300559
 30
0.0
 40
1.5
 41
0.0
 71
     1
 72
     1
  1
UND SCHARFE
  7
SLDTEXTSTYLE0
 73
     1
 44
1.0
  0
MTEXT
  5
1AB
330
183
100
AcDbEntity
  8
SLD-0
100
AcDbMText
 10
0.0
 20
-3.17863
 30
0.0
 40
1.5
 41
0.0
 71
     1
 72
     1
  1
KANTEN
  7
SLDTEXTSTYLE0
 73
     1
 44
1.0
  0
MTEXT
  5
1AC
330
183
100
AcDbEntity
  8
SLD-0
100
AcDbMText
 10
0.0
 20
-5.6786299441
 30
0.0
 40
1.5
 41
0.0
 71
     1
 72
     1
  1
BRECHEN
  7
SLDTEXTSTYLE0
 73
     1
 44
1.0
  0
ENDBLK
  5
185
330
183
100
AcDbEntity
  8
0
100
AcDbBlockEnd
  0
BLOCK
  5
1AE
330
1AD
100
AcDbEntity
  8
0
100
AcDbBlockBegin
  2
SW_NOTE_1
 70
     0
 10
0.0
 20
0.0
 30
0.0
  3
SW_NOTE_1
  1

  0
MTEXT
  5
1B0
330
1AD
100
AcDbEntity
  8
SLD-0
100
AcDbMText
 10
0.0
 20
1.8213698883
 30
0.0
 40
1.5
 41
0.0
 71
     1
 72
     1
  1
WENN NICHT ANDERS DEFINIERT:
  7
SLDTEXTSTYLE0
 73
     1
 44
1.0
  0
MTEXT
  5
1B1
330
1AD
100
AcDbEntity
  8
SLD-0
100
AcDbMText
 10
0.0
 20
-0.6786300559
 30
0.0
 40
1.5
 41
0.0
 71
     1
 72
     1
  1
BESMASSUNGEN SIND IN MILLIMETER
  7
SLDTEXTSTYLE0
 73
     1
 44
1.0
  0
MTEXT
  5
1B2
330
1AD
100
AcDbEntity
  8
SLD-0
100
AcDbMText
 10
0.0
 20
-3.17863
 30
0.0
 40
1.5
 41
0.0
 71
     1
 72
     1
  1
OBERFLÄCHENBESCHAFFENHEIT:
  7
SLDTEXTSTYLE0
 73
     1
 44
1.0
  0
MTEXT
  5
1B3
330
1AD
100
AcDbEntity
  8
SLD-0
100
AcDbMText
 10
0.0
 20
-5.6786299441
 30
0.0
 40
1.5
 41
0.0
 71
     1
 72
     1
  1
TOLERANZEN:
  7
SLDTEXTSTYLE0
 73
     1
 44
1.0
  0
MTEXT
  5
1B4
330
1AD
100
AcDbEntity
  8
SLD-0
100
AcDbMText
 10
0.0
 20
-8.1786298882
 30
0.0
 40
1.5
 41
0.0
 71
     1
 72
     1
  1
   LINEAR:
  7
SLDTEXTSTYLE0
 73
     1
 44
1.0
  0
MTEXT
  5
1B5
330
1AD
100
AcDbEntity
  8
SLD-0
100
AcDbMText
 10
0.0
 20
-10.6786298323
 30
0.0
 40
1.5
 41
0.0
 71
     1
 72
     1
  1
   WINKEL:
  7
SLDTEXTSTYLE0
 73
     1
 44
1.0
  0
ENDBLK
  5
1AF
330
1AD
100
AcDbEntity
  8
0
100
AcDbBlockEnd
  0
BLOCK
  5
1B7
330
1B6
100
AcDbEntity
  8
0
100
AcDbBlockBegin
  2
SW_CENTERMARKSYMBOL_0
 70
     0
 10
0.0
 20
0.0
 30
0.0
  3
SW_CENTERMARKSYMBOL_0
  1

  0
LINE
  5
1B9
330
1B6
100
AcDbEntity
  8
SLD-0
  6
Continuous
 62
   179
370
     0
100
AcDbLine
 10
0.0
 20
0.0
 30
0.0
 11
0.0
 21
2.5
 31
0.0
  0
LINE
  5
1BA
330
1B6
100
AcDbEntity
  8
SLD-0
  6
Continuous
 62
   179
370
     0
100
AcDbLine
 10
0.0
 20
0.0
 30
0.0
 11
-2.5
 21
0.0
 31
0.0
  0
LINE
  5
1BB
330
1B6
100
AcDbEntity
  8
SLD-0
  6
Continuous
 62
   179
370
     0
100
AcDbLine
 10
0.0
 20
0.0
 30
0.0
 11
0.0
 21
-2.5
 31
0.0
  0
LINE
  5
1BC
330
1B6
100
AcDbEntity
  8
SLD-0
  6
Continuous
 62
   179
370
     0
100
AcDbLine
 10
0.0
 20
0.0
 30
0.0
 11
2.5
 21
0.0
 31
0.0
  0
LINE
  5
1BD
330
1B6
100
AcDbEntity
  8
SLD-0
  6
Continuous
 62
   179
370
     0
100
AcDbLine
 10
0.0
 20
5.0
 30
0.0
 11
0.0
 21
6.5
 31
0.0
  0
LINE
  5
1BE
330
1B6
100
AcDbEntity
  8
SLD-0
  6
Continuous
 62
   179
370
     0
100
AcDbLine
 10
-5.0
 20
0.0
 30
0.0
 11
-6.5
 21
0.0
 31
0.0
  0
LINE
  5
1BF
330
1B6
100
AcDbEntity
  8
SLD-0
  6
Continuous
 62
   179
370
     0
100
AcDbLine
 10
0.0
 20
-5.0
 30
0.0
 11
0.0
 21
-6.5
 31
0.0
  0
LINE
  5
1C0
330
1B6
100
AcDbEntity
  8
SLD-0
  6
Continuous
 62
   179
370
     0
100
AcDbLine
 10
5.0
 20
0.0
 30
0.0
 11
6.5
 21
0.0
 31
0.0
  0
ENDBLK
  5
1B8
330
1B6
100
AcDbEntity
  8
0
100
AcDbBlockEnd
  0
BLOCK
  5
1C2
330
1C1
100
AcDbEntity
  8
0
100
AcDbBlockBegin
  2
SW_CENTERMARKSYMBOL_1
 70
     0
 10
0.0
 20
0.0
 30
0.0
  3
SW_CENTERMARKSYMBOL_1
  1

  0
LINE
  5
1C4
330
1C1
100
AcDbEntity
  8
SLD-0
  6
Continuous
 62
   179
370
     0
100
AcDbLine
 10
0.0
 20
0.0
 30
0.0
 11
0.0
 21
2.5
 31
0.0
  0
LINE
  5
1C5
330
1C1
100
AcDbEntity
  8
SLD-0
  6
Continuous
 62
   179
370
     0
100
AcDbLine
 10
0.0
 20
0.0
 30
0.0
 11
-2.5
 21
0.0
 31
0.0
  0
LINE
  5
1C6
330
1C1
100
AcDbEntity
  8
SLD-0
  6
Continuous
 62
   179
370
     0
100
AcDbLine
 10
0.0
 20
0.0
 30
0.0
 11
0.0
 21
-2.5
 31
0.0
  0
LINE
  5
1C7
330
1C1
100
AcDbEntity
  8
SLD-0
  6
Continuous
 62
   179
370
     0
100
AcDbLine
 10
0.0
 20
0.0
 30
0.0
 11
2.5
 21
0.0
 31
0.0
  0
LINE
  5
1C8
330
1C1
100
AcDbEntity
  8
SLD-0
  6
Continuous
 62
   179
370
     0
100
AcDbLine
 10
0.0
 20
5.0
 30
0.0
 11
0.0
 21
6.5
 31
0.0
  0
LINE
  5
1C9
330
1C1
100
AcDbEntity
  8
SLD-0
  6
Continuous
 62
   179
370
     0
100
AcDbLine
 10
-5.0
 20
0.0
 30
0.0
 11
-6.5
 21
0.0
 31
0.0
  0
LINE
  5
1CA
330
1C1
100
AcDbEntity
  8
SLD-0
  6
Continuous
 62
   179
370
     0
100
AcDbLine
 10
0.0
 20
-5.0
 30
0.0
 11
0.0
 21
-6.5
 31
0.0
  0
LINE
  5
1CB
330
1C1
100
AcDbEntity
  8
SLD-0
  6
Continuous
 62
   179
370
     0
100
AcDbLine
 10
5.0
 20
0.0
 30
0.0
 11
6.5
 21
0.0
 31
0.0
  0
ENDBLK
  5
1C3
330
1C1
100
AcDbEntity
  8
0
100
AcDbBlockEnd
  0
BLOCK
  5
1CD
330
1CC
100
AcDbEntity
  8
0
100
AcDbBlockBegin
  2
SW_CENTERMARKSYMBOL_2
 70
     0
 10
0.0
 20
0.0
 30
0.0
  3
SW_CENTERMARKSYMBOL_2
  1

  0
LINE
  5
1CF
330
1CC
100
AcDbEntity
  8
SLD-0
  6
Continuous
 62
   179
370
     0
100
AcDbLine
 10
0.0
 20
0.0
 30
0.0
 11
0.0
 21
2.5
 31
0.0
  0
LINE
  5
1D0
330
1CC
100
AcDbEntity
  8
SLD-0
  6
Continuous
 62
   179
370
     0
100
AcDbLine
 10
0.0
 20
0.0
 30
0.0
 11
-2.5
 21
0.0
 31
0.0
  0
LINE
  5
1D1
330
1CC
100
AcDbEntity
  8
SLD-0
  6
Continuous
 62
   179
370
     0
100
AcDbLine
 10
0.0
 20
0.0
 30
0.0
 11
0.0
 21
-2.5
 31
0.0
  0
LINE
  5
1D2
330
1CC
100
AcDbEntity
  8
SLD-0
  6
Continuous
 62
   179
370
     0
100
AcDbLine
 10
0.0
 20
0.0
 30
0.0
 11
2.5
 21
0.0
 31
0.0
  0
LINE
  5
1D3
330
1CC
100
AcDbEntity
  8
SLD-0
  6
Continuous
 62
   179
370
     0
100
AcDbLine
 10
0.0
 20
5.0
 30
0.0
 11
0.0
 21
6.5
 31
0.0
  0
LINE
  5
1D4
330
1CC
100
AcDbEntity
  8
SLD-0
  6
Continuous
 62
   179
370
     0
100
AcDbLine
 10
-5.0
 20
0.0
 30
0.0
 11
-6.5
 21
0.0
 31
0.0
  0
LINE
  5
1D5
330
1CC
100
AcDbEntity
  8
SLD-0
  6
Continuous
 62
   179
370
     0
100
AcDbLine
 10
0.0
 20
-5.0
 30
0.0
 11
0.0
 21
-6.5
 31
0.0
  0
LINE
  5
1D6
330
1CC
100
AcDbEntity
  8
SLD-0
  6
Continuous
 62
   179
370
     0
100
AcDbLine
 10
5.0
 20
0.0
 30
0.0
 11
6.5
 21
0.0
 31
0.0
  0
ENDBLK
  5
1CE
330
1CC
100
AcDbEntity
  8
0
100
AcDbBlockEnd
  0
BLOCK
  5
1D8
330
1D7
100
AcDbEntity
  8
0
100
AcDbBlockBegin
  2
SW_CENTERMARKSYMBOL_3
 70
     0
 10
0.0
 20
0.0
 30
0.0
  3
SW_CENTERMARKSYMBOL_3
  1

  0
LINE
  5
1DA
330
1D7
100
AcDbEntity
  8
SLD-0
  6
Continuous
 62
   179
370
     0
100
AcDbLine
 10
0.0
 20
0.0
 30
0.0
 11
0.0
 21
2.5
 31
0.0
  0
LINE
  5
1DB
330
1D7
100
AcDbEntity
  8
SLD-0
  6
Continuous
 62
   179
370
     0
100
AcDbLine
 10
0.0
 20
0.0
 30
0.0
 11
-2.5
 21
0.0
 31
0.0
  0
LINE
  5
1DC
330
1D7
100
AcDbEntity
  8
SLD-0
  6
Continuous
 62
   179
370
     0
100
AcDbLine
 10
0.0
 20
0.0
 30
0.0
 11
0.0
 21
-2.5
 31
0.0
  0
LINE
  5
1DD
330
1D7
100
AcDbEntity
  8
SLD-0
  6
Continuous
 62
   179
370
     0
100
AcDbLine
 10
0.0
 20
0.0
 30
0.0
 11
2.5
 21
0.0
 31
0.0
  0
LINE
  5
1DE
330
1D7
100
AcDbEntity
  8
SLD-0
  6
Continuous
 62
   179
370
     0
100
AcDbLine
 10
0.0
 20
5.0
 30
0.0
 11
0.0
 21
6.5
 31
0.0
  0
LINE
  5
1DF
330
1D7
100
AcDbEntity
  8
SLD-0
  6
Continuous
 62
   179
370
     0
100
AcDbLine
 10
-5.0
 20
0.0
 30
0.0
 11
-6.5
 21
0.0
 31
0.0
  0
LINE
  5
1E0
330
1D7
100
AcDbEntity
  8
SLD-0
  6
Continuous
 62
   179
370
     0
100
AcDbLine
 10
0.0
 20
-5.0
 30
0.0
 11
0.0
 21
-6.5
 31
0.0
  0
LINE
  5
1E1
330
1D7
100
AcDbEntity
  8
SLD-0
  6
Continuous
 62
   179
370
     0
100
AcDbLine
 10
5.0
 20
0.0
 30
0.0
 11
6.5
 21
0.0
 31
0.0
  0
ENDBLK
  5
1D9
330
1D7
100
AcDbEntity
  8
0
100
AcDbBlockEnd
  0
BLOCK
  5
1E3
330
1E2
100
AcDbEntity
  8
0
100
AcDbBlockBegin
  2
SW_CENTERMARKSYMBOL_4
 70
     0
 10
0.0
 20
0.0
 30
0.0
  3
SW_CENTERMARKSYMBOL_4
  1

  0
LINE
  5
1E5
330
1E2
100
AcDbEntity
  8
SLD-0
  6
Continuous
 62
   179
370
     0
100
AcDbLine
 10
0.0
 20
0.0
 30
0.0
 11
0.0
 21
2.5
 31
0.0
  0
LINE
  5
1E6
330
1E2
100
AcDbEntity
  8
SLD-0
  6
Continuous
 62
   179
370
     0
100
AcDbLine
 10
0.0
 20
0.0
 30
0.0
 11
-2.5
 21
0.0
 31
0.0
  0
LINE
  5
1E7
330
1E2
100
AcDbEntity
  8
SLD-0
  6
Continuous
 62
   179
370
     0
100
AcDbLine
 10
0.0
 20
0.0
 30
0.0
 11
0.0
 21
-2.5
 31
0.0
  0
LINE
  5
1E8
330
1E2
100
AcDbEntity
  8
SLD-0
  6
Continuous
 62
   179
370
     0
100
AcDbLine
 10
0.0
 20
0.0
 30
0.0
 11
2.5
 21
0.0
 31
0.0
  0
LINE
  5
1E9
330
1E2
100
AcDbEntity
  8
SLD-0
  6
Continuous
 62
   179
370
     0
100
AcDbLine
 10
0.0
 20
5.0
 30
0.0
 11
0.0
 21
6.5
 31
0.0
  0
LINE
  5
1EA
330
1E2
100
AcDbEntity
  8
SLD-0
  6
Continuous
 62
   179
370
     0
100
AcDbLine
 10
-5.0
 20
0.0
 30
0.0
 11
-6.5
 21
0.0
 31
0.0
  0
LINE
  5
1EB
330
1E2
100
AcDbEntity
  8
SLD-0
  6
Continuous
 62
   179
370
     0
100
AcDbLine
 10
0.0
 20
-5.0
 30
0.0
 11
0.0
 21
-6.5
 31
0.0
  0
LINE
  5
1EC
330
1E2
100
AcDbEntity
  8
SLD-0
  6
Continuous
 62
   179
370
     0
100
AcDbLine
 10
5.0
 20
0.0
 30
0.0
 11
6.5
 21
0.0
 31
0.0
  0
ENDBLK
  5
1E4
330
1E2
100
AcDbEntity
  8
0
100
AcDbBlockEnd
  0
BLOCK
  5
1EE
330
1ED
100
AcDbEntity
  8
0
100
AcDbBlockBegin
  2
_CLOSED
 70
     0
 10
0.0
 20
0.0
 30
0.0
  3
_CLOSED
  1

  0
LINE
  5
1F0
330
1ED
100
AcDbEntity
  8
SLD-0
  6
Continuous
 62
   179
370
     0
100
AcDbLine
 10
-1.0
 20
0.166667
 30
0.0
 11
0.0
 21
0.0
 31
0.0
  0
LINE
  5
1F1
330
1ED
100
AcDbEntity
  8
SLD-0
  6
Continuous
 62
   179
370
     0
100
AcDbLine
 10
0.0
 20
0.0
 30
0.0
 11
-1.0
 21
-0.166667
 31
0.0
  0
LINE
  5
1F2
330
1ED
100
AcDbEntity
  8
SLD-0
  6
Continuous
 62
   179
370
     0
100
AcDbLine
 10
-1.0
 20
0.166667
 30
0.0
 11
-1.0
 21
-0.166667
 31
0.0
  0
LINE
  5
1F3
330
1ED
100
AcDbEntity
  8
SLD-0
  6
Continuous
 62
   179
370
     0
100
AcDbLine
 10
0.0
 20
0.0
 30
0.0
 11
-1.0
 21
0.0
 31
0.0
  0
ENDBLK
  5
1EF
330
1ED
100
AcDbEntity
  8
0
100
AcDbBlockEnd
  0
BLOCK
  5
1F5
330
1F4
100
AcDbEntity
  8
0
100
AcDbBlockBegin
  2
SW_CENTERMARKSYMBOL_5
 70
     0
 10
0.0
 20
0.0
 30
0.0
  3
SW_CENTERMARKSYMBOL_5
  1

  0
LINE
  5
1F7
330
1F4
100
AcDbEntity
  8
SLD-0
  6
Continuous
 62
   179
370
     0
100
AcDbLine
 10
0.0
 20
0.0
 30
0.0
 11
0.0
 21
2.5
 31
0.0
  0
LINE
  5
1F8
330
1F4
100
AcDbEntity
  8
SLD-0
  6
Continuous
 62
   179
370
     0
100
AcDbLine
 10
0.0
 20
0.0
 30
0.0
 11
-2.5
 21
0.0
 31
0.0
  0
LINE
  5
1F9
330
1F4
100
AcDbEntity
  8
SLD-0
  6
Continuous
 62
   179
370
     0
100
AcDbLine
 10
0.0
 20
0.0
 30
0.0
 11
0.0
 21
-2.5
 31
0.0
  0
LINE
  5
1FA
330
1F4
100
AcDbEntity
  8
SLD-0
  6
Continuous
 62
   179
370
     0
100
AcDbLine
 10
0.0
 20
0.0
 30
0.0
 11
2.5
 21
0.0
 31
0.0
  0
LINE
  5
1FB
330
1F4
100
AcDbEntity
  8
SLD-0
  6
Continuous
 62
   179
370
     0
100
AcDbLine
 10
0.0
 20
5.0
 30
0.0
 11
0.0
 21
19.5
 31
0.0
  0
LINE
  5
1FC
330
1F4
100
AcDbEntity
  8
SLD-0
  6
Continuous
 62
   179
370
     0
100
AcDbLine
 10
-5.0
 20
0.0
 30
0.0
 11
-19.5
 21
0.0
 31
0.0
  0
LINE
  5
1FD
330
1F4
100
AcDbEntity
  8
SLD-0
  6
Continuous
 62
   179
370
     0
100
AcDbLine
 10
0.0
 20
-5.0
 30
0.0
 11
0.0
 21
-19.5
 31
0.0
  0
LINE
  5
1FE
330
1F4
100
AcDbEntity
  8
SLD-0
  6
Continuous
 62
   179
370
     0
100
AcDbLine
 10
5.0
 20
0.0
 30
0.0
 11
19.5
 21
0.0
 31
0.0
  0
ENDBLK
  5
1F6
330
1F4
100
AcDbEntity
  8
0
100
AcDbBlockEnd
  0
BLOCK
  5
200
330
1FF
100
AcDbEntity
  8
0
100
AcDbBlockBegin
  2
SW_CENTERMARKSYMBOL_6
 70
     0
 10
0.0
 20
0.0
 30
0.0
  3
SW_CENTERMARKSYMBOL_6
  1

  0
LINE
  5
202
330
1FF
100
AcDbEntity
  8
SLD-0
  6
Continuous
 62
   179
370
     0
100
AcDbLine
 10
0.0
 20
0.0
 30
0.0
 11
0.0
 21
2.5
 31
0.0
  0
LINE
  5
203
330
1FF
100
AcDbEntity
  8
SLD-0
  6
Continuous
 62
   179
370
     0
100
AcDbLine
 10
0.0
 20
0.0
 30
0.0
 11
-2.5
 21
0.0
 31
0.0
  0
LINE
  5
204
330
1FF
100
AcDbEntity
  8
SLD-0
  6
Continuous
 62
   179
370
     0
100
AcDbLine
 10
0.0
 20
0.0
 30
0.0
 11
0.0
 21
-2.5
 31
0.0
  0
LINE
  5
205
330
1FF
100
AcDbEntity
  8
SLD-0
  6
Continuous
 62
   179
370
     0
100
AcDbLine
 10
0.0
 20
0.0
 30
0.0
 11
2.5
 21
0.0
 31
0.0
  0
LINE
  5
206
330
1FF
100
AcDbEntity
  8
SLD-0
  6
Continuous
 62
   179
370
     0
100
AcDbLine
 10
0.0
 20
5.0
 30
0.0
 11
0.0
 21
19.5
 31
0.0
  0
LINE
  5
207
330
1FF
100
AcDbEntity
  8
SLD-0
  6
Continuous
 62
   179
370
     0
100
AcDbLine
 10
-5.0
 20
0.0
 30
0.0
 11
-19.5
 21
0.0
 31
0.0
  0
LINE
  5
208
330
1FF
100
AcDbEntity
  8
SLD-0
  6
Continuous
 62
   179
370
     0
100
AcDbLine
 10
0.0
 20
-5.0
 30
0.0
 11
0.0
 21
-19.5
 31
0.0
  0
LINE
  5
209
330
1FF
100
AcDbEntity
  8
SLD-0
  6
Continuous
 62
   179
370
     0
100
AcDbLine
 10
5.0
 20
0.0
 30
0.0
 11
19.5
 21
0.0
 31
0.0
  0
ENDBLK
  5
201
330
1FF
100
AcDbEntity
  8
0
100
AcDbBlockEnd
  0
BLOCK
  5
44E
330
44D
100
AcDbEntity
  8
0
100
AcDbBlockBegin
  2
_NONE
 70
     0
 10
0.0
 20
0.0
 30
0.0
  3
_NONE
  1

  0
ENDBLK
  5
44F
330
44D
100
AcDbEntity
  8
0
100
AcDbBlockEnd
  0
BLOCK
  5
451
330
450
100
AcDbEntity
  8
0
100
AcDbBlockBegin
  2
*D13
 70
     1
 10
0.0
 20
0.0
 30
0.0
  3
*D13
  1

  0
LINE
  5
453
330
450
100
AcDbEntity
  8
SLD-0
 62
   179
100
AcDbLine
 10
32.9093450262
 20
383.1072195122
 30
0.0
 11
33.5020128782
 21
386.6632195122
 31
0.0
  0
LINE
  5
454
330
450
100
AcDbEntity
  8
SLD-0
 62
   179
100
AcDbLine
 10
33.5020128782
 20
386.6632195122
 30
0.0
 11
34.0946807302
 21
383.1072195122
 31
0.0
  0
LINE
  5
455
330
450
100
AcDbEntity
  8
SLD-0
 62
   179
100
AcDbLine
 10
32.9093450262
 20
383.1072195122
 30
0.0
 11
34.0946807302
 21
383.1072195122
 31
0.0
  0
LINE
  5
456
330
450
100
AcDbEntity
  8
SLD-0
 62
   179
100
AcDbLine
 10
33.5020128782
 20
386.6632195122
 30
0.0
 11
33.5020128782
 21
383.1072195122
 31
0.0
  0
LINE
  5
457
330
450
100
AcDbEntity
  8
SLD-0
 62
   179
100
AcDbLine
 10
34.0946807302
 20
170.2192195122
 30
0.0
 11
33.5020128782
 21
166.6632195122
 31
0.0
  0
LINE
  5
458
330
450
100
AcDbEntity
  8
SLD-0
 62
   179
100
AcDbLine
 10
33.5020128782
 20
166.6632195122
 30
0.0
 11
32.9093450262
 21
170.2192195122
 31
0.0
  0
LINE
  5
459
330
450
100
AcDbEntity
  8
SLD-0
 62
   179
100
AcDbLine
 10
34.0946807302
 20
170.2192195122
 30
0.0
 11
32.9093450262
 21
170.2192195122
 31
0.0
  0
LINE
  5
45A
330
450
100
AcDbEntity
  8
SLD-0
 62
   179
100
AcDbLine
 10
33.5020128782
 20
166.6632195122
 30
0.0
 11
33.5020128782
 21
170.2192195122
 31
0.0
  0
LINE
  5
45B
330
450
100
AcDbEntity
  8
SLD-0
 62
   179
100
AcDbLine
 10
97.4502798047
 20
386.6632195122
 30
0.0
 11
32.5020128782
 21
386.6632195122
 31
0.0
  0
LINE
  5
45C
330
450
100
AcDbEntity
  8
SLD-0
 62
   179
100
AcDbLine
 10
97.4502798047
 20
166.6632195122
 30
0.0
 11
32.5020128782
 21
166.6632195122
 31
0.0
  0
LINE
  5
45D
330
450
100
AcDbEntity
  8
SLD-0
 62
   179
100
AcDbLine
 10
33.5020128782
 20
386.6632195122
 30
0.0
 11
33.5020128782
 21
166.6632195122
 31
0.0
  0
MTEXT
  5
45F
330
450
100
AcDbEntity
  8
SLD-0
 62
   179
100
AcDbMText
 10
29.2526395939
 20
272.4972688042
 30
0.1
 40
3.5
 41
0.0
 71
     1
 72
     1
  1
220
  7
SLDTEXTSTYLE1
 11
-7.044195017643634E-15
 21
1.0
 31
0.0
 73
     1
 44
1.0
  0
ENDBLK
  5
452
330
450
100
AcDbEntity
  8
0
100
AcDbBlockEnd
  0
BLOCK
  5
462
330
461
100
AcDbEntity
  8
0
100
AcDbBlockBegin
  2
*D14
 70
     1
 10
0.0
 20
0.0
 30
0.0
  3
*D14
  1

  0
LINE
  5
464
330
461
100
AcDbEntity
  8
SLD-0
 62
   179
100
AcDbLine
 10
279.5986396438
 20
318.6072195122
 30
0.0
 11
280.1913074958
 21
322.1632195122
 31
0.0
  0
LINE
  5
465
330
461
100
AcDbEntity
  8
SLD-0
 62
   179
100
AcDbLine
 10
280.1913074958
 20
322.1632195122
 30
0.0
 11
280.7839753478
 21
318.6072195122
 31
0.0
  0
LINE
  5
466
330
461
100
AcDbEntity
  8
SLD-0
 62
   179
100
AcDbLine
 10
279.5986396438
 20
318.6072195122
 30
0.0
 11
280.7839753478
 21
318.6072195122
 31
0.0
  0
LINE
  5
467
330
461
100
AcDbEntity
  8
SLD-0
 62
   179
100
AcDbLine
 10
280.1913074958
 20
322.1632195122
 30
0.0
 11
280.1913074958
 21
318.6072195122
 31
0.0
  0
LINE
  5
468
330
461
100
AcDbEntity
  8
SLD-0
 62
   179
100
AcDbLine
 10
280.7839753478
 20
234.7192195122
 30
0.0
 11
280.1913074958
 21
231.1632195122
 31
0.0
  0
LINE
  5
469
330
461
100
AcDbEntity
  8
SLD-0
 62
   179
100
AcDbLine
 10
280.1913074958
 20
231.1632195122
 30
0.0
 11
279.5986396438
 21
234.7192195122
 31
0.0
  0
LINE
  5
46A
330
461
100
AcDbEntity
  8
SLD-0
 62
   179
100
AcDbLine
 10
280.7839753478
 20
234.7192195122
 30
0.0
 11
279.5986396438
 21
234.7192195122
 31
0.0
  0
LINE
  5
46B
330
461
100
AcDbEntity
  8
SLD-0
 62
   179
100
AcDbLine
 10
280.1913074958
 20
231.1632195122
 30
0.0
 11
280.1913074958
 21
234.7192195122
 31
0.0
  0
LINE
  5
46C
330
461
100
AcDbEntity
  8
SLD-0
 62
   179
100
AcDbLine
 10
231.4502798047
 20
322.1632195122
 30
0.0
 11
281.1913074958
 21
322.1632195122
 31
0.0
  0
LINE
  5
46D
330
461
100
AcDbEntity
  8
SLD-0
 62
   179
100
AcDbLine
 10
231.4502798047
 20
231.1632195122
 30
0.0
 11
281.1913074958
 21
231.1632195122
 31
0.0
  0
LINE
  5
46E
330
461
100
AcDbEntity
  8
SLD-0
 62
   179
100
AcDbLine
 10
280.1913074958
 20
322.1632195122
 30
0.0
 11
280.1913074958
 21
231.1632195122
 31
0.0
  0
MTEXT
  5
46F
330
461
100
AcDbEntity
  8
SLD-0
 62
   179
100
AcDbMText
 10
275.9419342115
 20
273.7908278286
 30
0.1
 40
3.5
 41
0.0
 71
     1
 72
     1
  1
91
  7
SLDTEXTSTYLE1
 11
-7.044195017643634E-15
 21
1.0
 31
0.0
 73
     1
 44
1.0
  0
ENDBLK
  5
463
330
461
100
AcDbEntity
  8
0
100
AcDbBlockEnd
  0
BLOCK
  5
472
330
471
100
AcDbEntity
  8
0
100
AcDbBlockBegin
  2
*D15
 70
     1
 10
0.0
 20
0.0
 30
0.0
  3
*D15
  1

  0
LINE
  5
474
330
471
100
AcDbEntity
  8
SLD-0
 62
   179
100
AcDbLine
 10
288.3576119527
 20
353.6072195122
 30
0.0
 11
288.9502798047
 21
357.1632195122
 31
0.0
  0
LINE
  5
475
330
471
100
AcDbEntity
  8
SLD-0
 62
   179
100
AcDbLine
 10
288.9502798047
 20
357.1632195122
 30
0.0
 11
289.5429476567
 21
353.6072195122
 31
0.0
  0
LINE
  5
476
330
471
100
AcDbEntity
  8
SLD-0
 62
   179
100
AcDbLine
 10
288.3576119527
 20
353.6072195122
 30
0.0
 11
289.5429476567
 21
353.6072195122
 31
0.0
  0
LINE
  5
477
330
471
100
AcDbEntity
  8
SLD-0
 62
   179
100
AcDbLine
 10
288.9502798047
 20
357.1632195122
 30
0.0
 11
288.9502798047
 21
353.6072195122
 31
0.0
  0
LINE
  5
478
330
471
100
AcDbEntity
  8
SLD-0
 62
   179
100
AcDbLine
 10
289.5429476567
 20
199.7192195122
 30
0.0
 11
288.9502798047
 21
196.1632195122
 31
0.0
  0
LINE
  5
479
330
471
100
AcDbEntity
  8
SLD-0
 62
   179
100
AcDbLine
 10
288.9502798047
 20
196.1632195122
 30
0.0
 11
288.3576119527
 21
199.7192195122
 31
0.0
  0
LINE
  5
47A
330
471
100
AcDbEntity
  8
SLD-0
 62
   179
100
AcDbLine
 10
289.5429476567
 20
199.7192195122
 30
0.0
 11
288.3576119527
 21
199.7192195122
 31
0.0
  0
LINE
  5
47B
330
471
100
AcDbEntity
  8
SLD-0
 62
   179
100
AcDbLine
 10
288.9502798047
 20
196.1632195122
 30
0.0
 11
288.9502798047
 21
199.7192195122
 31
0.0
  0
LINE
  5
47C
330
471
100
AcDbEntity
  8
SLD-0
 62
   179
100
AcDbLine
 10
246.4502798047
 20
357.1632195122
 30
0.0
 11
289.9502798047
 21
357.1632195122
 31
0.0
  0
LINE
  5
47D
330
471
100
AcDbEntity
  8
SLD-0
 62
   179
100
AcDbLine
 10
246.4502798047
 20
196.1632195122
 30
0.0
 11
289.9502798047
 21
196.1632195122
 31
0.0
  0
LINE
  5
47E
330
471
100
AcDbEntity
  8
SLD-0
 62
   179
100
AcDbLine
 10
288.9502798047
 20
357.1632195122
 30
0.0
 11
288.9502798047
 21
196.1632195122
 31
0.0
  0
MTEXT
  5
47F
330
471
100
AcDbEntity
  8
SLD-0
 62
   179
100
AcDbMText
 10
284.7009065203
 20
272.7846321951
 30
0.1
 40
3.5
 41
0.0
 71
     1
 72
     1
  1
161
  7
SLDTEXTSTYLE1
 11
-7.044195017643634E-15
 21
1.0
 31
0.0
 73
     1
 44
1.0
  0
ENDBLK
  5
473
330
471
100
AcDbEntity
  8
0
100
AcDbBlockEnd
  0
BLOCK
  5
482
330
481
100
AcDbEntity
  8
0
100
AcDbBlockBegin
  2
*D16
 70
     1
 10
0.0
 20
0.0
 30
0.0
  3
*D16
  1

  0
LINE
  5
484
330
481
100
AcDbEntity
  8
SLD-0
 62
   179
100
AcDbLine
 10
294.3576119527
 20
373.1072195122
 30
0.0
 11
294.9502798047
 21
376.6632195122
 31
0.0
  0
LINE
  5
485
330
481
100
AcDbEntity
  8
SLD-0
 62
   179
100
AcDbLine
 10
294.9502798047
 20
376.6632195122
 30
0.0
 11
295.5429476567
 21
373.1072195122
 31
0.0
  0
LINE
  5
486
330
481
100
AcDbEntity
  8
SLD-0
 62
   179
100
AcDbLine
 10
294.3576119527
 20
373.1072195122
 30
0.0
 11
295.5429476567
 21
373.1072195122
 31
0.0
  0
LINE
  5
487
330
481
100
AcDbEntity
  8
SLD-0
 62
   179
100
AcDbLine
 10
294.9502798047
 20
376.6632195122
 30
0.0
 11
294.9502798047
 21
373.1072195122
 31
0.0
  0
LINE
  5
488
330
481
100
AcDbEntity
  8
SLD-0
 62
   179
100
AcDbLine
 10
295.5429476567
 20
180.2192195122
 30
0.0
 11
294.9502798047
 21
176.6632195122
 31
0.0
  0
LINE
  5
489
330
481
100
AcDbEntity
  8
SLD-0
 62
   179
100
AcDbLine
 10
294.9502798047
 20
176.6632195122
 30
0.0
 11
294.3576119527
 21
180.2192195122
 31
0.0
  0
LINE
  5
48A
330
481
100
AcDbEntity
  8
SLD-0
 62
   179
100
AcDbLine
 10
295.5429476567
 20
180.2192195122
 30
0.0
 11
294.3576119527
 21
180.2192195122
 31
0.0
  0
LINE
  5
48B
330
481
100
AcDbEntity
  8
SLD-0
 62
   179
100
AcDbLine
 10
294.9502798047
 20
176.6632195122
 30
0.0
 11
294.9502798047
 21
180.2192195122
 31
0.0
  0
LINE
  5
48C
330
481
100
AcDbEntity
  8
SLD-0
 62
   179
100
AcDbLine
 10
253.4502798047
 20
376.6632195122
 30
0.0
 11
295.9502798047
 21
376.6632195122
 31
0.0
  0
LINE
  5
48D
330
481
100
AcDbEntity
  8
SLD-0
 62
   179
100
AcDbLine
 10
253.4502798047
 20
176.6632195122
 30
0.0
 11
295.9502798047
 21
176.6632195122
 31
0.0
  0
LINE
  5
48E
330
481
100
AcDbEntity
  8
SLD-0
 62
   179
100
AcDbLine
 10
294.9502798047
 20
376.6632195122
 30
0.0
 11
294.9502798047
 21
176.6632195122
 31
0.0
  0
MTEXT
  5
48F
330
481
100
AcDbEntity
  8
SLD-0
 62
   179
100
AcDbMText
 10
290.7009065203
 20
272.7846321951
 30
0.1
 40
3.5
 41
0.0
 71
     1
 72
     1
  1
200
  7
SLDTEXTSTYLE1
 11
-7.044195017643634E-15
 21
1.0
 31
0.0
 73
     1
 44
1.0
  0
ENDBLK
  5
483
330
481
100
AcDbEntity
  8
0
100
AcDbBlockEnd
  0
BLOCK
  5
492
330
491
100
AcDbEntity
  8
0
100
AcDbBlockBegin
  2
*D17
 70
     1
 10
0.0
 20
0.0
 30
0.0
  3
*D17
  1

  0
LINE
  5
494
330
491
100
AcDbEntity
  8
SLD-0
 62
   179
100
AcDbLine
 10
258.5062798047
 20
156.0705516602
 30
0.0
 11
254.9502798047
 21
156.6632195122
 31
0.0
  0
LINE
  5
495
330
491
100
AcDbEntity
  8
SLD-0
 62
   179
100
AcDbLine
 10
254.9502798047
 20
156.6632195122
 30
0.0
 11
258.5062798047
 21
157.2558873642
 31
0.0
  0
LINE
  5
496
330
491
100
AcDbEntity
  8
SLD-0
 62
   179
100
AcDbLine
 10
258.5062798047
 20
156.0705516602
 30
0.0
 11
258.5062798047
 21
157.2558873642
 31
0.0
  0
LINE
  5
497
330
491
100
AcDbEntity
  8
SLD-0
 62
   179
100
AcDbLine
 10
254.9502798047
 20
156.6632195122
 30
0.0
 11
258.5062798047
 21
156.6632195122
 31
0.0
  0
LINE
  5
498
330
491
100
AcDbEntity
  8
SLD-0
 62
   179
100
AcDbLine
 10
235.3942798047
 20
157.2558873642
 30
0.0
 11
238.9502798047
 21
156.6632195122
 31
0.0
  0
LINE
  5
499
330
491
100
AcDbEntity
  8
SLD-0
 62
   179
100
AcDbLine
 10
238.9502798047
 20
156.6632195122
 30
0.0
 11
235.3942798047
 21
156.0705516602
 31
0.0
  0
LINE
  5
49A
330
491
100
AcDbEntity
  8
SLD-0
 62
   179
100
AcDbLine
 10
235.3942798047
 20
157.2558873642
 30
0.0
 11
235.3942798047
 21
156.0705516602
 31
0.0
  0
LINE
  5
49B
330
491
100
AcDbEntity
  8
SLD-0
 62
   179
100
AcDbLine
 10
238.9502798047
 20
156.6632195122
 30
0.0
 11
235.3942798047
 21
156.6632195122
 31
0.0
  0
LINE
  5
49C
330
491
100
AcDbEntity
  8
SLD-0
 62
   179
100
AcDbLine
 10
254.9502798047
 20
178.1632195122
 30
0.0
 11
254.9502798047
 21
155.6632195122
 31
0.0
  0
LINE
  5
49D
330
491
100
AcDbEntity
  8
SLD-0
 62
   179
100
AcDbLine
 10
238.9502798047
 20
349.6632195122
 30
0.0
 11
238.9502798047
 21
155.6632195122
 31
0.0
  0
LINE
  5
49E
330
491
100
AcDbEntity
  8
SLD-0
 62
   179
100
AcDbLine
 10
254.9502798047
 20
156.6632195122
 30
0.0
 11
261.3002798047
 21
156.6632195122
 31
0.0
  0
LINE
  5
49F
330
491
100
AcDbEntity
  8
SLD-0
 62
   179
100
AcDbLine
 10
254.9502798047
 20
156.6632195122
 30
0.0
 11
238.9502798047
 21
156.6632195122
 31
0.0
  0
LINE
  5
4A0
330
491
100
AcDbEntity
  8
SLD-0
 62
   179
100
AcDbLine
 10
238.9502798047
 20
156.6632195122
 30
0.0
 11
232.6002798047
 21
156.6632195122
 31
0.0
  0
MTEXT
  5
4A1
330
491
100
AcDbEntity
  8
SLD-0
 62
   179
100
AcDbMText
 10
244.365251512
 20
160.9125927966
 30
0.1
 40
3.5
 41
0.0
 71
     1
 72
     1
  1
16
  7
SLDTEXTSTYLE1
 73
     1
 44
1.0
  0
ENDBLK
  5
493
330
491
100
AcDbEntity
  8
0
100
AcDbBlockEnd
  0
BLOCK
  5
4A5
330
4A4
100
AcDbEntity
  8
0
100
AcDbBlockBegin
  2
*D18
 70
     1
 10
0.0
 20
0.0
 30
0.0
  3
*D18
  1

  0
LINE
  5
4A7
330
4A4
100
AcDbEntity
  8
SLD-0
 62
   179
100
AcDbLine
 10
258.5062798047
 20
144.0705516602
 30
0.0
 11
254.9502798047
 21
144.6632195122
 31
0.0
  0
LINE
  5
4A8
330
4A4
100
AcDbEntity
  8
SLD-0
 62
   179
100
AcDbLine
 10
254.9502798047
 20
144.6632195122
 30
0.0
 11
258.5062798047
 21
145.2558873642
 31
0.0
  0
LINE
  5
4A9
330
4A4
100
AcDbEntity
  8
SLD-0
 62
   179
100
AcDbLine
 10
258.5062798047
 20
144.0705516602
 30
0.0
 11
258.5062798047
 21
145.2558873642
 31
0.0
  0
LINE
  5
4AA
330
4A4
100
AcDbEntity
  8
SLD-0
 62
   179
100
AcDbLine
 10
254.9502798047
 20
144.6632195122
 30
0.0
 11
258.5062798047
 21
144.6632195122
 31
0.0
  0
LINE
  5
4AB
330
4A4
100
AcDbEntity
  8
SLD-0
 62
   179
100
AcDbLine
 10
230.8942798047
 20
145.2558873642
 30
0.0
 11
234.4502798047
 21
144.6632195122
 31
0.0
  0
LINE
  5
4AC
330
4A4
100
AcDbEntity
  8
SLD-0
 62
   179
100
AcDbLine
 10
234.4502798047
 20
144.6632195122
 30
0.0
 11
230.8942798047
 21
144.0705516602
 31
0.0
  0
LINE
  5
4AD
330
4A4
100
AcDbEntity
  8
SLD-0
 62
   179
100
AcDbLine
 10
230.8942798047
 20
145.2558873642
 30
0.0
 11
230.8942798047
 21
144.0705516602
 31
0.0
  0
LINE
  5
4AE
330
4A4
100
AcDbEntity
  8
SLD-0
 62
   179
100
AcDbLine
 10
234.4502798047
 20
144.6632195122
 30
0.0
 11
230.8942798047
 21
144.6632195122
 31
0.0
  0
LINE
  5
4AF
330
4A4
100
AcDbEntity
  8
SLD-0
 62
   179
100
AcDbLine
 10
254.9502798047
 20
178.1632195122
 30
0.0
 11
254.9502798047
 21
143.6632195122
 31
0.0
  0
LINE
  5
4B0
330
4A4
100
AcDbEntity
  8
SLD-0
 62
   179
100
AcDbLine
 10
234.4502798047
 20
269.1632195122
 30
0.0
 11
234.4502798047
 21
143.6632195122
 31
0.0
  0
LINE
  5
4B1
330
4A4
100
AcDbEntity
  8
SLD-0
 62
   179
100
AcDbLine
 10
254.9502798047
 20
144.6632195122
 30
0.0
 11
261.3002798047
 21
144.6632195122
 31
0.0
  0
LINE
  5
4B2
330
4A4
100
AcDbEntity
  8
SLD-0
 62
   179
100
AcDbLine
 10
254.9502798047
 20
144.6632195122
 30
0.0
 11
234.4502798047
 21
144.6632195122
 31
0.0
  0
LINE
  5
4B3
330
4A4
100
AcDbEntity
  8
SLD-0
 62
   179
100
AcDbLine
 10
234.4502798047
 20
144.6632195122
 30
0.0
 11
228.1002798047
 21
144.6632195122
 31
0.0
  0
MTEXT
  5
4B4
330
4A4
100
AcDbEntity
  8
SLD-0
 62
   179
100
AcDbMText
 10
238.8823988291
 20
148.9125927966
 30
0.1
 40
3.5
 41
0.0
 71
     1
 72
     1
  1
20,50
  7
SLDTEXTSTYLE1
 73
     1
 44
1.0
  0
ENDBLK
  5
4A6
330
4A4
100
AcDbEntity
  8
0
100
AcDbBlockEnd
  0
BLOCK
  5
4B7
330
4B6
100
AcDbEntity
  8
0
100
AcDbBlockBegin
  2
*D19
 70
     1
 10
0.0
 20
0.0
 30
0.0
  3
*D19
  1

  0
LINE
  5
4B9
330
4B6
100
AcDbEntity
  8
SLD-0
 62
   179
100
AcDbLine
 10
251.3942798047
 20
139.2558873642
 30
0.0
 11
254.9502798047
 21
138.6632195122
 31
0.0
  0
LINE
  5
4BA
330
4B6
100
AcDbEntity
  8
SLD-0
 62
   179
100
AcDbLine
 10
254.9502798047
 20
138.6632195122
 30
0.0
 11
251.3942798047
 21
138.0705516602
 31
0.0
  0
LINE
  5
4BB
330
4B6
100
AcDbEntity
  8
SLD-0
 62
   179
100
AcDbLine
 10
251.3942798047
 20
139.2558873642
 30
0.0
 11
251.3942798047
 21
138.0705516602
 31
0.0
  0
LINE
  5
4BC
330
4B6
100
AcDbEntity
  8
SLD-0
 62
   179
100
AcDbLine
 10
254.9502798047
 20
138.6632195122
 30
0.0
 11
251.3942798047
 21
138.6632195122
 31
0.0
  0
LINE
  5
4BD
330
4B6
100
AcDbEntity
  8
SLD-0
 62
   179
100
AcDbLine
 10
227.5062798047
 20
138.0705516602
 30
0.0
 11
223.9502798047
 21
138.6632195122
 31
0.0
  0
LINE
  5
4BE
330
4B6
100
AcDbEntity
  8
SLD-0
 62
   179
100
AcDbLine
 10
223.9502798047
 20
138.6632195122
 30
0.0
 11
227.5062798047
 21
139.2558873642
 31
0.0
  0
LINE
  5
4BF
330
4B6
100
AcDbEntity
  8
SLD-0
 62
   179
100
AcDbLine
 10
227.5062798047
 20
138.0705516602
 30
0.0
 11
227.5062798047
 21
139.2558873642
 31
0.0
  0
LINE
  5
4C0
330
4B6
100
AcDbEntity
  8
SLD-0
 62
   179
100
AcDbLine
 10
223.9502798047
 20
138.6632195122
 30
0.0
 11
227.5062798047
 21
138.6632195122
 31
0.0
  0
LINE
  5
4C1
330
4B6
100
AcDbEntity
  8
SLD-0
 62
   179
100
AcDbLine
 10
254.9502798047
 20
178.1632195122
 30
0.0
 11
254.9502798047
 21
137.6632195122
 31
0.0
  0
LINE
  5
4C2
330
4B6
100
AcDbEntity
  8
SLD-0
 62
   179
100
AcDbLine
 10
223.9502798047
 20
314.6632195122
 30
0.0
 11
223.9502798047
 21
137.6632195122
 31
0.0
  0
LINE
  5
4C3
330
4B6
100
AcDbEntity
  8
SLD-0
 62
   179
100
AcDbLine
 10
254.9502798047
 20
138.6632195122
 30
0.0
 11
223.9502798047
 21
138.6632195122
 31
0.0
  0
MTEXT
  5
4C4
330
4B6
100
AcDbEntity
  8
SLD-0
 62
   179
100
AcDbMText
 10
236.865251512
 20
142.9125927966
 30
0.1
 40
3.5
 41
0.0
 71
     1
 72
     1
  1
31
  7
SLDTEXTSTYLE1
 73
     1
 44
1.0
  0
ENDBLK
  5
4B8
330
4B6
100
AcDbEntity
  8
0
100
AcDbBlockEnd
  0
BLOCK
  5
4C7
330
4C6
100
AcDbEntity
  8
0
100
AcDbBlockBegin
  2
*D20
 70
     1
 10
0.0
 20
0.0
 30
0.0
  3
*D20
  1

  0
LINE
  5
4C9
330
4C6
100
AcDbEntity
  8
SLD-0
 62
   179
100
AcDbLine
 10
251.3942798047
 20
127.2558873642
 30
0.0
 11
254.9502798047
 21
126.6632195122
 31
0.0
  0
LINE
  5
4CA
330
4C6
100
AcDbEntity
  8
SLD-0
 62
   179
100
AcDbLine
 10
254.9502798047
 20
126.6632195122
 30
0.0
 11
251.3942798047
 21
126.0705516602
 31
0.0
  0
LINE
  5
4CB
330
4C6
100
AcDbEntity
  8
SLD-0
 62
   179
100
AcDbLine
 10
251.3942798047
 20
127.2558873642
 30
0.0
 11
251.3942798047
 21
126.0705516602
 31
0.0
  0
LINE
  5
4CC
330
4C6
100
AcDbEntity
  8
SLD-0
 62
   179
100
AcDbLine
 10
254.9502798047
 20
126.6632195122
 30
0.0
 11
251.3942798047
 21
126.6632195122
 31
0.0
  0
LINE
  5
4CD
330
4C6
100
AcDbEntity
  8
SLD-0
 62
   179
100
AcDbLine
 10
193.0062798047
 20
126.0705516602
 30
0.0
 11
189.4502798047
 21
126.6632195122
 31
0.0
  0
LINE
  5
4CE
330
4C6
100
AcDbEntity
  8
SLD-0
 62
   179
100
AcDbLine
 10
189.4502798047
 20
126.6632195122
 30
0.0
 11
193.0062798047
 21
127.2558873642
 31
0.0
  0
LINE
  5
4CF
330
4C6
100
AcDbEntity
  8
SLD-0
 62
   179
100
AcDbLine
 10
193.0062798047
 20
126.0705516602
 30
0.0
 11
193.0062798047
 21
127.2558873642
 31
0.0
  0
LINE
  5
4D0
330
4C6
100
AcDbEntity
  8
SLD-0
 62
   179
100
AcDbLine
 10
189.4502798047
 20
126.6632195122
 30
0.0
 11
193.0062798047
 21
126.6632195122
 31
0.0
  0
LINE
  5
4D1
330
4C6
100
AcDbEntity
  8
SLD-0
 62
   179
100
AcDbLine
 10
254.9502798047
 20
178.1632195122
 30
0.0
 11
254.9502798047
 21
125.6632195122
 31
0.0
  0
LINE
  5
4D2
330
4C6
100
AcDbEntity
  8
SLD-0
 62
   179
100
AcDbLine
 10
189.4502798047
 20
161.895106503
 30
0.0
 11
189.4502798047
 21
125.6632195122
 31
0.0
  0
LINE
  5
4D3
330
4C6
100
AcDbEntity
  8
SLD-0
 62
   179
100
AcDbLine
 10
254.9502798047
 20
126.6632195122
 30
0.0
 11
189.4502798047
 21
126.6632195122
 31
0.0
  0
MTEXT
  5
4D4
330
4C6
100
AcDbEntity
  8
SLD-0
 62
   179
100
AcDbMText
 10
216.3823988291
 20
130.9125927966
 30
0.1
 40
3.5
 41
0.0
 71
     1
 72
     1
  1
65,50
  7
SLDTEXTSTYLE1
 73
     1
 44
1.0
  0
ENDBLK
  5
4C8
330
4C6
100
AcDbEntity
  8
0
100
AcDbBlockEnd
  0
BLOCK
  5
4D7
330
4D6
100
AcDbEntity
  8
0
100
AcDbBlockBegin
  2
*D21
 70
     1
 10
0.0
 20
0.0
 30
0.0
  3
*D21
  1

  0
LINE
  5
4D9
330
4D6
100
AcDbEntity
  8
SLD-0
 62
   179
100
AcDbLine
 10
185.8942798047
 20
127.2558873642
 30
0.0
 11
189.4502798047
 21
126.6632195122
 31
0.0
  0
LINE
  5
4DA
330
4D6
100
AcDbEntity
  8
SLD-0
 62
   179
100
AcDbLine
 10
189.4502798047
 20
126.6632195122
 30
0.0
 11
185.8942798047
 21
126.0705516602
 31
0.0
  0
LINE
  5
4DB
330
4D6
100
AcDbEntity
  8
SLD-0
 62
   179
100
AcDbLine
 10
185.8942798047
 20
127.2558873642
 30
0.0
 11
185.8942798047
 21
126.0705516602
 31
0.0
  0
LINE
  5
4DC
330
4D6
100
AcDbEntity
  8
SLD-0
 62
   179
100
AcDbLine
 10
189.4502798047
 20
126.6632195122
 30
0.0
 11
185.8942798047
 21
126.6632195122
 31
0.0
  0
LINE
  5
4DD
330
4D6
100
AcDbEntity
  8
SLD-0
 62
   179
100
AcDbLine
 10
102.0062798047
 20
126.0705516602
 30
0.0
 11
98.4502798047
 21
126.6632195122
 31
0.0
  0
LINE
  5
4DE
330
4D6
100
AcDbEntity
  8
SLD-0
 62
   179
100
AcDbLine
 10
98.4502798047
 20
126.6632195122
 30
0.0
 11
102.0062798047
 21
127.2558873642
 31
0.0
  0
LINE
  5
4DF
330
4D6
100
AcDbEntity
  8
SLD-0
 62
   179
100
AcDbLine
 10
102.0062798047
 20
126.0705516602
 30
0.0
 11
102.0062798047
 21
127.2558873642
 31
0.0
  0
LINE
  5
4E0
330
4D6
100
AcDbEntity
  8
SLD-0
 62
   179
100
AcDbLine
 10
98.4502798047
 20
126.6632195122
 30
0.0
 11
102.0062798047
 21
126.6632195122
 31
0.0
  0
LINE
  5
4E1
330
4D6
100
AcDbEntity
  8
SLD-0
 62
   179
100
AcDbLine
 10
189.4502798047
 20
161.895106503
 30
0.0
 11
189.4502798047
 21
125.6632195122
 31
0.0
  0
LINE
  5
4E2
330
4D6
100
AcDbEntity
  8
SLD-0
 62
   179
100
AcDbLine
 10
98.4502798047
 20
163.5558003999
 30
0.0
 11
98.4502798047
 21
125.6632195122
 31
0.0
  0
LINE
  5
4E3
330
4D6
100
AcDbEntity
  8
SLD-0
 62
   179
100
AcDbLine
 10
189.4502798047
 20
126.6632195122
 30
0.0
 11
98.4502798047
 21
126.6632195122
 31
0.0
  0
MTEXT
  5
4E4
330
4D6
100
AcDbEntity
  8
SLD-0
 62
   179
100
AcDbMText
 10
150.5661325934
 20
130.9125927966
 30
0.1
 40
3.5
 41
0.0
 71
     1
 72
     1
  1
91
  7
SLDTEXTSTYLE1
 73
     1
 44
1.0
  0
ENDBLK
  5
4D8
330
4D6
100
AcDbEntity
  8
0
100
AcDbBlockEnd
  0
BLOCK
  5
4E7
330
4E6
100
AcDbEntity
  8
0
100
AcDbBlockBegin
  2
*D22
 70
     1
 10
0.0
 20
0.0
 30
0.0
  3
*D22
  1

  0
LINE
  5
4E9
330
4E6
100
AcDbEntity
  8
SLD-0
 62
   179
100
AcDbLine
 10
44.9093450262
 20
363.6072195122
 30
0.0
 11
45.5020128782
 21
367.1632195122
 31
0.0
  0
LINE
  5
4EA
330
4E6
100
AcDbEntity
  8
SLD-0
 62
   179
100
AcDbLine
 10
45.5020128782
 20
367.1632195122
 30
0.0
 11
46.0946807302
 21
363.6072195122
 31
0.0
  0
LINE
  5
4EB
330
4E6
100
AcDbEntity
  8
SLD-0
 62
   179
100
AcDbLine
 10
44.9093450262
 20
363.6072195122
 30
0.0
 11
46.0946807302
 21
363.6072195122
 31
0.0
  0
LINE
  5
4EC
330
4E6
100
AcDbEntity
  8
SLD-0
 62
   179
100
AcDbLine
 10
45.5020128782
 20
367.1632195122
 30
0.0
 11
45.5020128782
 21
363.6072195122
 31
0.0
  0
LINE
  5
4ED
330
4E6
100
AcDbEntity
  8
SLD-0
 62
   179
100
AcDbLine
 10
46.0946807302
 20
195.7192195122
 30
0.0
 11
45.5020128782
 21
192.1632195122
 31
0.0
  0
LINE
  5
4EE
330
4E6
100
AcDbEntity
  8
SLD-0
 62
   179
100
AcDbLine
 10
45.5020128782
 20
192.1632195122
 30
0.0
 11
44.9093450262
 21
195.7192195122
 31
0.0
  0
LINE
  5
4EF
330
4E6
100
AcDbEntity
  8
SLD-0
 62
   179
100
AcDbLine
 10
46.0946807302
 20
195.7192195122
 30
0.0
 11
44.9093450262
 21
195.7192195122
 31
0.0
  0
LINE
  5
4F0
330
4E6
100
AcDbEntity
  8
SLD-0
 62
   179
100
AcDbLine
 10
45.5020128782
 20
192.1632195122
 30
0.0
 11
45.5020128782
 21
195.7192195122
 31
0.0
  0
LINE
  5
4F1
330
4E6
100
AcDbEntity
  8
SLD-0
 62
   179
100
AcDbLine
 10
80.4502798047
 20
367.1632195122
 30
0.0
 11
44.5020128782
 21
367.1632195122
 31
0.0
  0
LINE
  5
4F2
330
4E6
100
AcDbEntity
  8
SLD-0
 62
   179
100
AcDbLine
 10
80.4502798047
 20
192.1632195122
 30
0.0
 11
44.5020128782
 21
192.1632195122
 31
0.0
  0
LINE
  5
4F3
330
4E6
100
AcDbEntity
  8
SLD-0
 62
   179
100
AcDbLine
 10
45.5020128782
 20
367.1632195122
 30
0.0
 11
45.5020128782
 21
192.1632195122
 31
0.0
  0
MTEXT
  5
4F4
330
4E6
100
AcDbEntity
  8
SLD-0
 62
   179
100
AcDbMText
 10
41.2526395939
 20
272.4972688042
 30
0.1
 40
3.5
 41
0.0
 71
     1
 72
     1
  1
175
  7
SLDTEXTSTYLE1
 11
-7.044195017643634E-15
 21
1.0
 31
0.0
 73
     1
 44
1.0
  0
ENDBLK
  5
4E8
330
4E6
100
AcDbEntity
  8
0
100
AcDbBlockEnd
  0
BLOCK
  5
4F7
330
4F6
100
AcDbEntity
  8
0
100
AcDbBlockBegin
  2
*D23
 70
     1
 10
0.0
 20
0.0
 30
0.0
  3
*D23
  1

  0
LINE
  5
4F9
330
4F6
100
AcDbEntity
  8
SLD-0
 62
   179
100
AcDbLine
 10
213.4305300969
 20
79.5002979985
 30
0.0
 11
209.8745300969
 21
80.0929658505
 31
0.0
  0
LINE
  5
4FA
330
4F6
100
AcDbEntity
  8
SLD-0
 62
   179
100
AcDbLine
 10
209.8745300969
 20
80.0929658505
 30
0.0
 11
213.4305300969
 21
80.6856337025
 31
0.0
  0
LINE
  5
4FB
330
4F6
100
AcDbEntity
  8
SLD-0
 62
   179
100
AcDbLine
 10
213.4305300969
 20
79.5002979985
 30
0.0
 11
213.4305300969
 21
80.6856337025
 31
0.0
  0
LINE
  5
4FC
330
4F6
100
AcDbEntity
  8
SLD-0
 62
   179
100
AcDbLine
 10
209.8745300969
 20
80.0929658505
 30
0.0
 11
213.4305300969
 21
80.0929658505
 31
0.0
  0
LINE
  5
4FD
330
4F6
100
AcDbEntity
  8
SLD-0
 62
   179
100
AcDbLine
 10
251.3942798047
 20
80.6856337025
 30
0.0
 11
254.9502798047
 21
80.0929658505
 31
0.0
  0
LINE
  5
4FE
330
4F6
100
AcDbEntity
  8
SLD-0
 62
   179
100
AcDbLine
 10
254.9502798047
 20
80.0929658505
 30
0.0
 11
251.3942798047
 21
79.5002979985
 31
0.0
  0
LINE
  5
4FF
330
4F6
100
AcDbEntity
  8
SLD-0
 62
   179
100
AcDbLine
 10
251.3942798047
 20
80.6856337025
 30
0.0
 11
251.3942798047
 21
79.5002979985
 31
0.0
  0
LINE
  5
500
330
4F6
100
AcDbEntity
  8
SLD-0
 62
   179
100
AcDbLine
 10
254.9502798047
 20
80.0929658505
 30
0.0
 11
251.3942798047
 21
80.0929658505
 31
0.0
  0
LINE
  5
501
330
4F6
100
AcDbEntity
  8
SLD-0
 62
   179
100
AcDbLine
 10
209.8745300969
 20
60.4307477403
 30
0.0
 11
209.8745300969
 21
81.0929658505
 31
0.0
  0
LINE
  5
502
330
4F6
100
AcDbEntity
  8
SLD-0
 62
   179
100
AcDbLine
 10
254.9502798047
 20
60.4307477403
 30
0.0
 11
254.9502798047
 21
81.0929658505
 31
0.0
  0
LINE
  5
503
330
4F6
100
AcDbEntity
  8
SLD-0
 62
   179
100
AcDbLine
 10
209.8745300969
 20
80.0929658505
 30
0.0
 11
254.9502798047
 21
80.0929658505
 31
0.0
  0
MTEXT
  5
504
330
4F6
100
AcDbEntity
  8
SLD-0
 62
   179
100
AcDbMText
 10
228.8643118698
 20
84.3423391349
 30
0.1
 40
3.5
 41
0.0
 71
     1
 72
     1
  1
44
  7
SLDTEXTSTYLE1
 73
     1
 44
1.0
  0
ENDBLK
  5
4F8
330
4F6
100
AcDbEntity
  8
0
100
AcDbBlockEnd
  0
BLOCK
  5
507
330
506
100
AcDbEntity
  8
0
100
AcDbBlockBegin
  2
*D24
 70
     1
 10
0.0
 20
0.0
 30
0.0
  3
*D24
  1

  0
LINE
  5
509
330
506
100
AcDbEntity
  8
SLD-0
 62
   179
100
AcDbLine
 10
64.0946807302
 20
54.4867477403
 30
0.0
 11
63.5020128782
 21
50.9307477403
 31
0.0
  0
LINE
  5
50A
330
506
100
AcDbEntity
  8
SLD-0
 62
   179
100
AcDbLine
 10
63.5020128782
 20
50.9307477403
 30
0.0
 11
62.9093450262
 21
54.4867477403
 31
0.0
  0
LINE
  5
50B
330
506
100
AcDbEntity
  8
SLD-0
 62
   179
100
AcDbLine
 10
64.0946807302
 20
54.4867477403
 30
0.0
 11
62.9093450262
 21
54.4867477403
 31
0.0
  0
LINE
  5
50C
330
506
100
AcDbEntity
  8
SLD-0
 62
   179
100
AcDbLine
 10
63.5020128782
 20
50.9307477403
 30
0.0
 11
63.5020128782
 21
54.4867477403
 31
0.0
  0
LINE
  5
50D
330
506
100
AcDbEntity
  8
SLD-0
 62
   179
100
AcDbLine
 10
62.9093450262
 20
55.8747477403
 30
0.0
 11
63.5020128782
 21
59.4307477403
 31
0.0
  0
LINE
  5
50E
330
506
100
AcDbEntity
  8
SLD-0
 62
   179
100
AcDbLine
 10
63.5020128782
 20
59.4307477403
 30
0.0
 11
64.0946807302
 21
55.8747477403
 31
0.0
  0
LINE
  5
50F
330
506
100
AcDbEntity
  8
SLD-0
 62
   179
100
AcDbLine
 10
62.9093450262
 20
55.8747477403
 30
0.0
 11
64.0946807302
 21
55.8747477403
 31
0.0
  0
LINE
  5
510
330
506
100
AcDbEntity
  8
SLD-0
 62
   179
100
AcDbLine
 10
63.5020128782
 20
59.4307477403
 30
0.0
 11
63.5020128782
 21
55.8747477403
 31
0.0
  0
LINE
  5
511
330
506
100
AcDbEntity
  8
SLD-0
 62
   179
100
AcDbLine
 10
77.9502798047
 20
50.9307477403
 30
0.0
 11
62.5020128782
 21
50.9307477403
 31
0.0
  0
LINE
  5
512
330
506
100
AcDbEntity
  8
SLD-0
 62
   179
100
AcDbLine
 10
117.8745300969
 20
59.4307477403
 30
0.0
 11
62.5020128782
 21
59.4307477403
 31
0.0
  0
LINE
  5
513
330
506
100
AcDbEntity
  8
SLD-0
 62
   179
100
AcDbLine
 10
63.5020128782
 20
50.9307477403
 30
0.0
 11
63.5020128782
 21
59.4307477403
 31
0.0
  0
LINE
  5
514
330
506
100
AcDbEntity
  8
SLD-0
 62
   179
100
AcDbLine
 10
63.5020128782
 20
59.4307477403
 30
0.0
 11
63.5020128782
 21
78.4357696326
 31
0.0
  0
MTEXT
  5
515
330
506
100
AcDbEntity
  8
SLD-0
 62
   179
100
AcDbMText
 10
59.2526395939
 20
67.7996257302
 30
0.1
 40
3.5
 41
0.0
 71
     1
 72
     1
  1
8,50
  7
SLDTEXTSTYLE1
 11
6.123233995736766E-17
 21
1.0
 31
0.0
 73
     1
 44
1.0
  0
ENDBLK
  5
508
330
506
100
AcDbEntity
  8
0
100
AcDbBlockEnd
  0
BLOCK
  5
519
330
518
100
AcDbEntity
  8
0
100
AcDbBlockBegin
  2
*D25
 70
     1
 10
0.0
 20
0.0
 30
0.0
  3
*D25
  1

  0
LINE
  5
51B
330
518
100
AcDbEntity
  8
SLD-0
 62
   179
100
AcDbLine
 10
83.4959133535
 20
36.8145402034
 30
0.0
 11
86.4294645245
 21
38.9099324602
 31
0.0
  0
LINE
  5
51C
330
518
100
AcDbEntity
  8
SLD-0
 62
   179
100
AcDbLine
 10
86.4294645245
 20
38.9099324602
 30
0.0
 11
84.3340722677
 21
35.9763812892
 31
0.0
  0
LINE
  5
51D
330
518
100
AcDbEntity
  8
SLD-0
 62
   179
100
AcDbLine
 10
83.4959133535
 20
36.8145402034
 30
0.0
 11
84.3340722677
 21
35.9763812892
 31
0.0
  0
LINE
  5
51E
330
518
100
AcDbEntity
  8
SLD-0
 62
   179
100
AcDbLine
 10
86.4294645245
 20
38.9099324602
 30
0.0
 11
83.9149928106
 21
36.3954607463
 31
0.0
  0
LINE
  5
51F
330
518
100
AcDbEntity
  8
SLD-0
 62
   179
100
AcDbLine
 10
86.4294645245
 20
38.9099324602
 30
0.0
 11
73.3575178413
 21
25.8379857769
 31
0.0
  0
LINE
  5
520
330
518
100
AcDbEntity
  8
SLD-0
 62
   179
100
AcDbLine
 10
86.4294645245
 20
38.9099324602
 30
0.0
 11
98.4502798047
 21
50.9307477403
 31
0.0
  0
MTEXT
  5
521
330
518
100
AcDbEntity
  8
SLD-0
 62
   179
100
AcDbMText
 10
70.2471811927
 20
28.7185127217
 30
0.1
 40
3.5
 41
0.0
 71
     1
 72
     1
  1
%%c
  7
SLDTEXTSTYLE1
 11
0.7071067811865466
 21
0.7071067811865485
 31
0.0
 73
     1
 44
1.0
  0
MTEXT
  5
522
330
518
100
AcDbEntity
  8
SLD-0
 62
   179
100
AcDbMText
 10
75.1792263995
 20
33.7261790058
 30
0.1
 40
3.5
 41
0.0
 71
     1
 72
     1
  1
34
  7
SLDTEXTSTYLE1
 11
0.7071067811865466
 21
0.7071067811865485
 31
0.0
 73
     1
 44
1.0
  0
ENDBLK
  5
51A
330
518
100
AcDbEntity
  8
0
100
AcDbBlockEnd
  0
ENDSEC
  0
SECTION
  2
ENTITIES
  0
LINE
  5
20A
330
1F
100
AcDbEntity
  8
SLD-0
100
AcDbLine
 10
115.3147127628
 20
50.9317477403
 30
0.0
 11
171.9502798047
 21
50.9317477403
 31
0.0
  0
LINE
  5
20B
330
1F
100
AcDbEntity
  8
SLD-0
100
AcDbLine
 10
171.9502798047
 20
50.9317477403
 30
0.0
 11
171.9502798047
 21
52.6817477403
 31
0.0
  0
LINE
  5
20C
330
1F
100
AcDbEntity
  8
SLD-0
100
AcDbLine
 10
171.9502798047
 20
52.6817477403
 30
0.0
 11
115.5392703834
 21
52.6817477403
 31
0.0
  0
LINE
  5
20D
330
1F
100
AcDbEntity
  8
SLD-0
100
AcDbLine
 10
115.2471603484
 20
47.4287477403
 30
0.0
 11
171.9502798047
 21
47.4287477403
 31
0.0
  0
LINE
  5
20E
330
1F
100
AcDbEntity
  8
SLD-0
100
AcDbLine
 10
171.9502798047
 20
47.4287477403
 30
0.0
 11
171.9502798047
 21
49.1787477403
 31
0.0
  0
LINE
  5
20F
330
1F
100
AcDbEntity
  8
SLD-0
100
AcDbLine
 10
171.9502798047
 20
49.1787477403
 30
0.0
 11
115.0450439187
 21
49.1787477403
 31
0.0
  0
LINE
  5
210
330
1F
100
AcDbEntity
  8
SLD-0
100
AcDbLine
 10
115.9502798047
 20
50.9297477403
 30
0.0
 11
115.9502798047
 21
49.1797477403
 31
0.0
  0
LINE
  5
211
330
1F
100
AcDbEntity
  8
SLD-0
100
AcDbLine
 10
115.9502798047
 20
49.1797477403
 30
0.0
 11
172.361289226
 21
49.1797477403
 31
0.0
  0
LINE
  5
212
330
1F
100
AcDbEntity
  8
SLD-0
100
AcDbLine
 10
172.653399261
 20
54.4327477403
 30
0.0
 11
115.9502798047
 21
54.4327477403
 31
0.0
  0
LINE
  5
213
330
1F
100
AcDbEntity
  8
SLD-0
100
AcDbLine
 10
115.9502798047
 20
54.4327477403
 30
0.0
 11
115.9502798047
 21
52.6827477403
 31
0.0
  0
LINE
  5
214
330
1F
100
AcDbEntity
  8
SLD-0
100
AcDbLine
 10
115.9502798047
 20
52.6827477403
 30
0.0
 11
172.653399261
 21
52.6827477403
 31
0.0
  0
LINE
  5
215
330
1F
100
AcDbEntity
  8
SLD-0
100
AcDbLine
 10
172.361289226
 20
50.9297477403
 30
0.0
 11
115.9502798047
 21
50.9297477403
 31
0.0
  0
LINE
  5
216
330
1F
100
AcDbEntity
  8
SLD-0
100
AcDbLine
 10
140.3502798047
 20
59.4307477403
 30
0.0
 11
118.8745300969
 21
59.4307477403
 31
0.0
  0
LINE
  5
217
330
1F
100
AcDbEntity
  8
SLD-0
100
AcDbLine
 10
102.4502798047
 20
72.5640553931
 30
0.0
 11
101.9957343501
 21
70.105724978
 31
0.0
  0
LINE
  5
218
330
1F
100
AcDbEntity
  8
SLD-0
100
AcDbLine
 10
118.8745300969
 20
56.9307477403
 30
0.0
 11
139.4502798047
 21
56.9307477403
 31
0.0
  0
LINE
  5
219
330
1F
100
AcDbEntity
  8
SLD-0
100
AcDbLine
 10
139.4502798047
 20
56.9307477403
 30
0.0
 11
140.3502798047
 21
58.1036505759
 31
0.0
  0
LINE
  5
21A
330
1F
100
AcDbEntity
  8
SLD-0
100
AcDbLine
 10
140.3502798047
 20
58.1036505759
 30
0.0
 11
140.3502798047
 21
59.4307477403
 31
0.0
  0
LINE
  5
21B
330
1F
100
AcDbEntity
  8
SLD-0
100
AcDbLine
 10
146.5502798047
 20
58.1036505759
 30
0.0
 11
147.4502798047
 21
56.9307477403
 31
0.0
  0
LINE
  5
21C
330
1F
100
AcDbEntity
  8
SLD-0
100
AcDbLine
 10
147.4502798047
 20
56.9307477403
 30
0.0
 11
163.9502798047
 21
56.9307477403
 31
0.0
  0
LINE
  5
21D
330
1F
100
AcDbEntity
  8
SLD-0
100
AcDbLine
 10
163.9502798047
 20
56.9307477403
 30
0.0
 11
163.9502798047
 21
59.4307477403
 31
0.0
  0
LINE
  5
21E
330
1F
100
AcDbEntity
  8
SLD-0
100
AcDbLine
 10
163.9502798047
 20
59.4307477403
 30
0.0
 11
146.5502798047
 21
59.4307477403
 31
0.0
  0
LINE
  5
21F
330
1F
100
AcDbEntity
  8
SLD-0
100
AcDbLine
 10
146.5502798047
 20
59.4307477403
 30
0.0
 11
146.5502798047
 21
58.1036505759
 31
0.0
  0
LINE
  5
220
330
1F
100
AcDbEntity
  8
SLD-0
100
AcDbLine
 10
231.3502798047
 20
59.4307477403
 30
0.0
 11
209.8745300969
 21
59.4307477403
 31
0.0
  0
LINE
  5
221
330
1F
100
AcDbEntity
  8
SLD-0
100
AcDbLine
 10
193.4502798047
 20
72.5640553931
 30
0.0
 11
192.9957343501
 21
70.105724978
 31
0.0
  0
LINE
  5
222
330
1F
100
AcDbEntity
  8
SLD-0
100
AcDbLine
 10
209.8745300969
 20
56.9307477403
 30
0.0
 11
230.4502798047
 21
56.9307477403
 31
0.0
  0
LINE
  5
223
330
1F
100
AcDbEntity
  8
SLD-0
100
AcDbLine
 10
230.4502798047
 20
56.9307477403
 30
0.0
 11
231.3502798047
 21
58.1036505759
 31
0.0
  0
LINE
  5
224
330
1F
100
AcDbEntity
  8
SLD-0
100
AcDbLine
 10
231.3502798047
 20
58.1036505759
 30
0.0
 11
231.3502798047
 21
59.4307477403
 31
0.0
  0
LINE
  5
225
330
1F
100
AcDbEntity
  8
SLD-0
100
AcDbLine
 10
237.5502798047
 20
58.1036505759
 30
0.0
 11
238.4502798047
 21
56.9307477403
 31
0.0
  0
LINE
  5
226
330
1F
100
AcDbEntity
  8
SLD-0
100
AcDbLine
 10
238.4502798047
 20
56.9307477403
 30
0.0
 11
254.9502798047
 21
56.9307477403
 31
0.0
  0
LINE
  5
227
330
1F
100
AcDbEntity
  8
SLD-0
100
AcDbLine
 10
254.9502798047
 20
56.9307477403
 30
0.0
 11
254.9502798047
 21
59.4307477403
 31
0.0
  0
LINE
  5
228
330
1F
100
AcDbEntity
  8
SLD-0
100
AcDbLine
 10
254.9502798047
 20
59.4307477403
 30
0.0
 11
237.5502798047
 21
59.4307477403
 31
0.0
  0
LINE
  5
229
330
1F
100
AcDbEntity
  8
SLD-0
100
AcDbLine
 10
237.5502798047
 20
59.4307477403
 30
0.0
 11
237.5502798047
 21
58.1036505759
 31
0.0
  0
LINE
  5
22A
330
1F
100
AcDbEntity
  8
SLD-0
  6
Continuous
 62
   179
370
     0
100
AcDbLine
 10
589.0
 20
415.0
 30
0.0
 11
5.0
 21
415.0
 31
0.0
  0
LINE
  5
22B
330
1F
100
AcDbEntity
  8
SLD-0
  6
Continuous
 62
   179
370
     0
100
AcDbLine
 10
5.0
 20
5.0
 30
0.0
 11
589.0
 21
5.0
 31
0.0
  0
LINE
  5
22C
330
1F
100
AcDbEntity
  8
SLD-0
  6
Continuous
 62
   179
370
     0
100
AcDbLine
 10
584.0
 20
410.0
 30
0.0
 11
10.0
 21
410.0
 31
0.0
  0
LINE
  5
22D
330
1F
100
AcDbEntity
  8
SLD-0
  6
Continuous
 62
   179
370
     0
100
AcDbLine
 10
10.0
 20
10.0
 30
0.0
 11
399.0548690414
 21
10.0
 31
0.0
  0
LINE
  5
22E
330
1F
100
AcDbEntity
  8
SLD-0
  6
Continuous
 62
   179
370
     0
100
AcDbLine
 10
589.0
 20
5.0
 30
0.0
 11
589.0
 21
415.0
 31
0.0
  0
LINE
  5
22F
330
1F
100
AcDbEntity
  8
SLD-0
  6
Continuous
 62
   179
370
     0
100
AcDbLine
 10
584.0
 20
60.25
 30
0.0
 11
584.0
 21
410.0
 31
0.0
  0
LINE
  5
230
330
1F
100
AcDbEntity
  8
SLD-0
  6
Continuous
 62
   179
370
     0
100
AcDbLine
 10
584.0
 20
160.0
 30
0.0
 11
589.0
 21
160.0
 31
0.0
  0
LINE
  5
231
330
1F
100
AcDbEntity
  8
SLD-0
  6
Continuous
 62
   179
370
     0
100
AcDbLine
 10
589.0
 20
110.0
 30
0.0
 11
584.0
 21
110.0
 31
0.0
  0
LINE
  5
232
330
1F
100
AcDbEntity
  8
SLD-0
  6
Continuous
 62
   179
370
     0
100
AcDbLine
 10
197.0
 20
415.0
 30
0.0
 11
197.0
 21
410.0
 31
0.0
  0
LINE
  5
233
330
1F
100
AcDbEntity
  8
SLD-0
  6
Continuous
 62
   179
370
     0
100
AcDbLine
 10
247.0
 20
410.0
 30
0.0
 11
247.0
 21
415.0
 31
0.0
  0
LINE
  5
234
330
1F
100
AcDbEntity
  8
SLD-0
  6
Continuous
 62
   179
370
     0
100
AcDbLine
 10
347.0
 20
410.0
 30
0.0
 11
347.0
 21
415.0
 31
0.0
  0
LINE
  5
235
330
1F
100
AcDbEntity
  8
SLD-0
  6
Continuous
 62
   179
370
     0
100
AcDbLine
 10
397.0
 20
415.0
 30
0.0
 11
397.0
 21
410.0
 31
0.0
  0
LINE
  5
236
330
1F
100
AcDbEntity
  8
SLD-0
  6
Continuous
 62
   179
370
     0
100
AcDbLine
 10
447.0
 20
410.0
 30
0.0
 11
447.0
 21
415.0
 31
0.0
  0
LINE
  5
237
330
1F
100
AcDbEntity
  8
SLD-0
  6
Continuous
 62
   179
370
     0
100
AcDbLine
 10
497.0
 20
415.0
 30
0.0
 11
497.0
 21
410.0
 31
0.0
  0
LINE
  5
238
330
1F
100
AcDbEntity
  8
SLD-0
  6
Continuous
 62
   179
370
     0
100
AcDbLine
 10
547.0
 20
410.0
 30
0.0
 11
547.0
 21
415.0
 31
0.0
  0
LINE
  5
239
330
1F
100
AcDbEntity
  8
SLD-0
  6
Continuous
 62
   179
370
     0
100
AcDbLine
 10
584.0
 20
360.0
 30
0.0
 11
589.0
 21
360.0
 31
0.0
  0
LINE
  5
23A
330
1F
100
AcDbEntity
  8
SLD-0
  6
Continuous
 62
   179
370
     0
100
AcDbLine
 10
589.0
 20
310.0
 30
0.0
 11
584.0
 21
310.0
 31
0.0
  0
LINE
  5
23B
330
1F
100
AcDbEntity
  8
SLD-0
  6
Continuous
 62
   179
370
     0
100
AcDbLine
 10
584.0
 20
260.0
 30
0.0
 11
589.0
 21
260.0
 31
0.0
  0
LINE
  5
23C
330
1F
100
AcDbEntity
  8
SLD-0
  6
Continuous
 62
   179
370
     0
100
AcDbLine
 10
10.0
 20
60.0
 30
0.0
 11
5.0
 21
60.0
 31
0.0
  0
LINE
  5
23D
330
1F
100
AcDbEntity
  8
SLD-0
  6
Continuous
 62
   179
370
     0
100
AcDbLine
 10
5.0
 20
110.0
 30
0.0
 11
10.0
 21
110.0
 31
0.0
  0
LINE
  5
23E
330
1F
100
AcDbEntity
  8
SLD-0
  6
Continuous
 62
   179
370
     0
100
AcDbLine
 10
10.0
 20
160.0
 30
0.0
 11
5.0
 21
160.0
 31
0.0
  0
LINE
  5
23F
330
1F
100
AcDbEntity
  8
SLD-0
  6
Continuous
 62
   179
370
     0
100
AcDbLine
 10
5.0
 20
415.0
 30
0.0
 11
5.0
 21
5.0
 31
0.0
  0
LINE
  5
240
330
1F
100
AcDbEntity
  8
SLD-0
  6
Continuous
 62
   179
370
     0
100
AcDbLine
 10
10.0
 20
410.0
 30
0.0
 11
10.0
 21
10.0
 31
0.0
  0
LINE
  5
241
330
1F
100
AcDbEntity
  8
SLD-0
  6
Continuous
 62
   179
370
     0
100
AcDbLine
 10
10.0
 20
260.0
 30
0.0
 11
5.0
 21
260.0
 31
0.0
  0
LINE
  5
242
330
1F
100
AcDbEntity
  8
SLD-0
  6
Continuous
 62
   179
370
     0
100
AcDbLine
 10
5.0
 20
310.0
 30
0.0
 11
10.0
 21
310.0
 31
0.0
  0
LINE
  5
243
330
1F
100
AcDbEntity
  8
SLD-0
  6
Continuous
 62
   179
370
     0
100
AcDbLine
 10
10.0
 20
360.0
 30
0.0
 11
5.0
 21
360.0
 31
0.0
  0
LINE
  5
244
330
1F
100
AcDbEntity
  8
SLD-0
  6
Continuous
 62
   179
370
     0
100
AcDbLine
 10
47.0
 20
410.0
 30
0.0
 11
47.0
 21
415.0
 31
0.0
  0
LINE
  5
245
330
1F
100
AcDbEntity
  8
SLD-0
  6
Continuous
 62
   179
370
     0
100
AcDbLine
 10
97.0
 20
415.0
 30
0.0
 11
97.0
 21
410.0
 31
0.0
  0
LINE
  5
246
330
1F
100
AcDbEntity
  8
SLD-0
  6
Continuous
 62
   179
370
     0
100
AcDbLine
 10
147.0
 20
410.0
 30
0.0
 11
147.0
 21
415.0
 31
0.0
  0
LINE
  5
247
330
1F
100
AcDbEntity
  8
SLD-0
  6
Continuous
 62
   179
370
     0
100
AcDbLine
 10
297.0
 20
415.0
 30
0.0
 11
297.0
 21
405.0
 31
0.0
  0
LINE
  5
248
330
1F
100
AcDbEntity
  8
SLD-0
  6
Continuous
 62
   179
370
     0
100
AcDbLine
 10
297.0
 20
5.0
 30
0.0
 11
297.0
 21
15.0
 31
0.0
  0
LINE
  5
249
330
1F
100
AcDbEntity
  8
SLD-0
  6
Continuous
 62
   179
370
     0
100
AcDbLine
 10
5.0
 20
210.0
 30
0.0
 11
15.0
 21
210.0
 31
0.0
  0
LINE
  5
24A
330
1F
100
AcDbEntity
  8
SLD-0
  6
Continuous
 62
   179
370
     0
100
AcDbLine
 10
589.0
 20
210.0
 30
0.0
 11
579.0
 21
210.0
 31
0.0
  0
LINE
  5
24B
330
1F
100
AcDbEntity
  8
SLD-0
  6
Continuous
 62
   179
370
     0
100
AcDbLine
 10
47.0
 20
5.0
 30
0.0
 11
47.0
 21
10.0
 31
0.0
  0
LINE
  5
24C
330
1F
100
AcDbEntity
  8
SLD-0
  6
Continuous
 62
   179
370
     0
100
AcDbLine
 10
97.0
 20
10.0
 30
0.0
 11
97.0
 21
5.0
 31
0.0
  0
LINE
  5
24D
330
1F
100
AcDbEntity
  8
SLD-0
  6
Continuous
 62
   179
370
     0
100
AcDbLine
 10
147.0
 20
5.0
 30
0.0
 11
147.0
 21
10.0
 31
0.0
  0
LINE
  5
24E
330
1F
100
AcDbEntity
  8
SLD-0
  6
Continuous
 62
   179
370
     0
100
AcDbLine
 10
197.0
 20
10.0
 30
0.0
 11
197.0
 21
5.0
 31
0.0
  0
LINE
  5
24F
330
1F
100
AcDbEntity
  8
SLD-0
  6
Continuous
 62
   179
370
     0
100
AcDbLine
 10
247.0
 20
5.0
 30
0.0
 11
247.0
 21
10.0
 31
0.0
  0
LINE
  5
250
330
1F
100
AcDbEntity
  8
SLD-0
  6
Continuous
 62
   179
370
     0
100
AcDbLine
 10
347.0
 20
5.0
 30
0.0
 11
347.0
 21
10.0
 31
0.0
  0
LINE
  5
251
330
1F
100
AcDbEntity
  8
SLD-0
  6
Continuous
 62
   179
370
     0
100
AcDbLine
 10
401.8
 20
9.25
 30
0.0
 11
589.0
 21
9.25
 31
0.0
  0
LINE
  5
252
330
1F
100
AcDbEntity
  8
SLD-0
  6
Continuous
 62
   179
370
     0
100
AcDbLine
 10
589.0
 20
43.25
 30
0.0
 11
401.8
 21
43.25
 31
0.0
  0
LINE
  5
253
330
1F
100
AcDbEntity
  8
SLD-0
  6
Continuous
 62
   179
370
     0
100
AcDbLine
 10
401.8
 20
60.25
 30
0.0
 11
589.0
 21
60.25
 31
0.0
  0
LINE
  5
254
330
1F
100
AcDbEntity
  8
SLD-0
  6
Continuous
 62
   179
370
     0
100
AcDbLine
 10
428.7909524338
 20
43.25
 30
0.0
 11
428.7909524338
 21
5.0
 31
0.0
  0
LINE
  5
255
330
1F
100
AcDbEntity
  8
SLD-0
  6
Continuous
 62
   179
370
     0
100
AcDbLine
 10
500.6
 20
26.25
 30
0.0
 11
401.8
 21
26.25
 31
0.0
  0
LINE
  5
256
330
1F
100
AcDbEntity
  8
SLD-0
  6
Continuous
 62
   179
370
     0
100
AcDbLine
 10
500.6
 20
30.5
 30
0.0
 11
401.8
 21
30.5
 31
0.0
  0
LINE
  5
257
330
1F
100
AcDbEntity
  8
SLD-0
  6
Continuous
 62
   179
370
     0
100
AcDbLine
 10
500.6
 20
34.75
 30
0.0
 11
401.8
 21
34.75
 31
0.0
  0
LINE
  5
258
330
1F
100
AcDbEntity
  8
SLD-0
  6
Continuous
 62
   179
370
     0
100
AcDbLine
 10
500.6
 20
39.0
 30
0.0
 11
401.8
 21
39.0
 31
0.0
  0
LINE
  5
259
330
1F
100
AcDbEntity
  8
SLD-0
  6
Continuous
 62
   179
370
     0
100
AcDbLine
 10
456.4
 20
5.0
 30
0.0
 11
456.4
 21
43.25
 31
0.0
  0
LINE
  5
25A
330
1F
100
AcDbEntity
  8
SLD-0
  6
Continuous
 62
   179
370
     0
100
AcDbLine
 10
401.8
 20
60.25
 30
0.0
 11
401.8
 21
5.0
 31
0.0
  0
LINE
  5
25B
330
1F
100
AcDbEntity
  8
SLD-0
  6
Continuous
 62
   179
370
     0
100
AcDbLine
 10
415.0060523295
 20
43.25
 30
0.0
 11
415.0060523295
 21
5.0
 31
0.0
  0
LINE
  5
25C
330
1F
100
AcDbEntity
  8
SLD-0
  6
Continuous
 62
   179
370
     0
100
AcDbLine
 10
435.6
 20
43.25
 30
0.0
 11
435.6
 21
60.25
 31
0.0
  0
LINE
  5
25D
330
1F
100
AcDbEntity
  8
SLD-0
  6
Continuous
 62
   179
370
     0
100
AcDbLine
 10
446.1989261635
 20
43.25
 30
0.0
 11
446.1989261635
 21
5.0
 31
0.0
  0
LINE
  5
25E
330
1F
100
AcDbEntity
  8
SLD-0
  6
Continuous
 62
   179
370
     0
100
AcDbLine
 10
466.8
 20
26.25
 30
0.0
 11
466.8
 21
43.25
 31
0.0
  0
LINE
  5
25F
330
1F
100
AcDbEntity
  8
SLD-0
  6
Continuous
 62
   179
370
     0
100
AcDbLine
 10
456.4
 20
13.5
 30
0.0
 11
401.8
 21
13.5
 31
0.0
  0
LINE
  5
260
330
1F
100
AcDbEntity
  8
SLD-0
  6
Continuous
 62
   179
370
     0
100
AcDbLine
 10
482.4
 20
60.25
 30
0.0
 11
482.4
 21
22.0
 31
0.0
  0
LINE
  5
261
330
1F
100
AcDbEntity
  8
SLD-0
  6
Continuous
 62
   179
370
     0
100
AcDbLine
 10
456.4
 20
17.749928
 30
0.0
 11
401.8
 21
17.749928
 31
0.0
  0
LINE
  5
262
330
1F
100
AcDbEntity
  8
SLD-0
  6
Continuous
 62
   179
370
     0
100
AcDbLine
 10
456.4
 20
22.0
 30
0.0
 11
401.8
 21
22.0
 31
0.0
  0
LINE
  5
263
330
1F
100
AcDbEntity
  8
SLD-0
  6
Continuous
 62
   179
370
     0
100
AcDbLine
 10
456.4
 20
22.0
 30
0.0
 11
589.0
 21
22.0
 31
0.0
  0
LINE
  5
264
330
1F
100
AcDbEntity
  8
SLD-0
  6
Continuous
 62
   179
370
     0
100
AcDbLine
 10
500.6
 20
60.25
 30
0.0
 11
500.6
 21
5.0
 31
0.0
  0
LINE
  5
265
330
1F
100
AcDbEntity
  8
SLD-0
  6
Continuous
 62
   179
370
     0
100
AcDbLine
 10
544.8
 20
5.0
 30
0.0
 11
544.8
 21
9.25
 31
0.0
  0
LINE
  5
266
330
1F
100
AcDbEntity
  8
SLD-0
  6
Continuous
 62
   179
370
     0
100
AcDbLine
 10
552.6
 20
53.875
 30
0.0
 11
552.6
 21
60.25
 31
0.0
  0
LINE
  5
267
330
1F
100
AcDbEntity
  8
SLD-0
  6
Continuous
 62
   179
370
     0
100
AcDbLine
 10
576.0
 20
9.25
 30
0.0
 11
576.0
 21
22.0
 31
0.0
  0
LINE
  5
268
330
1F
100
AcDbEntity
  8
SLD-0
  6
Continuous
 62
   179
370
     0
100
AcDbLine
 10
589.0
 20
53.875
 30
0.0
 11
500.6
 21
53.875
 31
0.0
  0
LINE
  5
269
330
1F
100
AcDbEntity
  8
SLD-0
  6
Continuous
 62
   179
370
     0
100
AcDbLine
 10
589.0
 20
13.5
 30
0.0
 11
576.0
 21
13.5
 31
0.0
  0
LINE
  5
26A
330
1F
100
AcDbEntity
  8
SLD-0
  6
Continuous
 62
   179
370
    15
100
AcDbLine
 10
83.9502798047
 20
384.6632195122
 30
0.0
 11
83.9502798047
 21
376.6632195122
 31
0.0
  0
LINE
  5
26B
330
1F
100
AcDbEntity
  8
SLD-0
  6
Continuous
 62
   179
370
    15
100
AcDbLine
 10
112.9502798047
 20
376.6632195122
 30
0.0
 11
112.9502798047
 21
384.6632195122
 31
0.0
  0
LINE
  5
26C
330
1F
100
AcDbEntity
  8
SLD-0
  6
Continuous
 62
   179
370
    15
100
AcDbLine
 10
174.9502798047
 20
384.6632195122
 30
0.0
 11
174.9502798047
 21
376.6632195122
 31
0.0
  0
LINE
  5
26D
330
1F
100
AcDbEntity
  8
SLD-0
  6
Continuous
 62
   179
370
    15
100
AcDbLine
 10
203.9502798047
 20
376.6632195122
 30
0.0
 11
203.9502798047
 21
384.6632195122
 31
0.0
  0
LINE
  5
26E
330
1F
100
AcDbEntity
  8
SLD-0
  6
Continuous
 62
   179
370
    15
100
AcDbLine
 10
203.9502798047
 20
168.6632195122
 30
0.0
 11
203.9502798047
 21
176.6632195122
 31
0.0
  0
LINE
  5
26F
330
1F
100
AcDbEntity
  8
SLD-0
  6
Continuous
 62
   179
370
    15
100
AcDbLine
 10
174.9502798047
 20
176.6632195122
 30
0.0
 11
174.9502798047
 21
168.6632195122
 31
0.0
  0
LINE
  5
270
330
1F
100
AcDbEntity
  8
SLD-0
  6
Continuous
 62
   179
370
    15
100
AcDbLine
 10
112.9502798047
 20
168.6632195122
 30
0.0
 11
112.9502798047
 21
176.6632195122
 31
0.0
  0
LINE
  5
271
330
1F
100
AcDbEntity
  8
SLD-0
  6
Continuous
 62
   179
370
    15
100
AcDbLine
 10
83.9502798047
 20
176.6632195122
 30
0.0
 11
83.9502798047
 21
168.6632195122
 31
0.0
  0
LINE
  5
272
330
1F
100
AcDbEntity
  8
SLD-0
  6
Continuous
 62
   179
370
    15
100
AcDbLine
 10
115.4502798047
 20
186.1632195122
 30
0.0
 11
115.4502798047
 21
189.4132195122
 31
0.0
  0
LINE
  5
273
330
1F
100
AcDbEntity
  8
SLD-0
  6
Continuous
 62
   179
370
    15
100
AcDbLine
 10
115.4502798047
 20
179.4132195122
 30
0.0
 11
115.4502798047
 21
182.6850332097
 31
0.0
  0
LINE
  5
274
330
1F
100
AcDbEntity
  8
SLD-0
  6
Continuous
 62
   179
370
    15
100
AcDbLine
 10
81.4502798047
 20
182.6850332097
 30
0.0
 11
81.4502798047
 21
179.4132195122
 31
0.0
  0
LINE
  5
275
330
1F
100
AcDbEntity
  8
SLD-0
  6
Continuous
 62
   179
370
    15
100
AcDbLine
 10
81.4502798047
 20
189.4132195122
 30
0.0
 11
81.4502798047
 21
186.1632195122
 31
0.0
  0
LINE
  5
276
330
1F
100
AcDbEntity
  8
SLD-0
  6
Continuous
 62
   179
370
    15
100
AcDbLine
 10
206.4502798047
 20
186.1632195122
 30
0.0
 11
206.4502798047
 21
189.4132195122
 31
0.0
  0
LINE
  5
277
330
1F
100
AcDbEntity
  8
SLD-0
  6
Continuous
 62
   179
370
    15
100
AcDbLine
 10
206.4502798047
 20
179.4132195122
 30
0.0
 11
206.4502798047
 21
182.6850332097
 31
0.0
  0
LINE
  5
278
330
1F
100
AcDbEntity
  8
SLD-0
  6
Continuous
 62
   179
370
    15
100
AcDbLine
 10
172.4502798047
 20
182.6850332097
 30
0.0
 11
172.4502798047
 21
179.4132195122
 31
0.0
  0
LINE
  5
279
330
1F
100
AcDbEntity
  8
SLD-0
  6
Continuous
 62
   179
370
    15
100
AcDbLine
 10
172.4502798047
 20
189.4132195122
 30
0.0
 11
172.4502798047
 21
186.1632195122
 31
0.0
  0
LINE
  5
27A
330
1F
100
AcDbEntity
  8
SLD-0
  6
Continuous
 62
   179
370
    15
100
AcDbLine
 10
81.4502798047
 20
191.9132195122
 30
0.0
 11
81.4502798047
 21
189.9132195122
 31
0.0
  0
LINE
  5
27B
330
1F
100
AcDbEntity
  8
SLD-0
  6
Continuous
 62
   179
370
    15
100
AcDbLine
 10
115.4502798047
 20
189.9132195122
 30
0.0
 11
115.4502798047
 21
191.9132195122
 31
0.0
  0
LINE
  5
27C
330
1F
100
AcDbEntity
  8
SLD-0
  6
Continuous
 62
   179
370
    15
100
AcDbLine
 10
172.4502798047
 20
191.9132195122
 30
0.0
 11
172.4502798047
 21
189.9132195122
 31
0.0
  0
LINE
  5
27D
330
1F
100
AcDbEntity
  8
SLD-0
  6
Continuous
 62
   179
370
    15
100
AcDbLine
 10
206.4502798047
 20
189.9132195122
 30
0.0
 11
206.4502798047
 21
191.9132195122
 31
0.0
  0
LINE
  5
27E
330
1F
100
AcDbEntity
  8
SLD-0
  6
Continuous
 62
   179
370
    15
100
AcDbLine
 10
172.4502798047
 20
373.6632195122
 30
0.0
 11
172.4502798047
 21
367.6632195122
 31
0.0
  0
LINE
  5
27F
330
1F
100
AcDbEntity
  8
SLD-0
  6
Continuous
 62
   179
370
    15
100
AcDbLine
 10
206.4502798047
 20
367.6632195122
 30
0.0
 11
206.4502798047
 21
373.6632195122
 31
0.0
  0
LINE
  5
280
330
1F
100
AcDbEntity
  8
SLD-0
  6
Continuous
 62
   179
370
    15
100
AcDbLine
 10
81.4502798047
 20
373.6632195122
 30
0.0
 11
81.4502798047
 21
367.6632195122
 31
0.0
  0
LINE
  5
281
330
1F
100
AcDbEntity
  8
SLD-0
  6
Continuous
 62
   179
370
    15
100
AcDbLine
 10
115.4502798047
 20
367.6632195122
 30
0.0
 11
115.4502798047
 21
373.6632195122
 31
0.0
  0
LINE
  5
282
330
1F
100
AcDbEntity
  8
SLD-0
  6
Continuous
 62
   179
370
    15
100
AcDbLine
 10
172.4502798047
 20
376.6632195122
 30
0.0
 11
172.4502798047
 21
374.1632195122
 31
0.0
  0
LINE
  5
283
330
1F
100
AcDbEntity
  8
SLD-0
  6
Continuous
 62
   179
370
    15
100
AcDbLine
 10
172.4502798047
 20
179.1632195122
 30
0.0
 11
172.4502798047
 21
176.6632195122
 31
0.0
  0
LINE
  5
284
330
1F
100
AcDbEntity
  8
SLD-0
  6
Continuous
 62
   179
370
    15
100
AcDbLine
 10
81.4502798047
 20
376.6632195122
 30
0.0
 11
81.4502798047
 21
374.1632195122
 31
0.0
  0
LINE
  5
285
330
1F
100
AcDbEntity
  8
SLD-0
  6
Continuous
 62
   179
370
    15
100
AcDbLine
 10
81.4502798047
 20
179.1632195122
 30
0.0
 11
81.4502798047
 21
176.6632195122
 31
0.0
  0
LINE
  5
286
330
1F
100
AcDbEntity
  8
SLD-0
  6
Continuous
 62
   179
370
    15
100
AcDbLine
 10
206.4502798047
 20
192.1632195122
 30
0.0
 11
206.4502798047
 21
367.1632195122
 31
0.0
  0
LINE
  5
287
330
1F
100
AcDbEntity
  8
SLD-0
  6
Continuous
 62
   179
370
    15
100
AcDbLine
 10
81.4502798047
 20
367.1632195122
 30
0.0
 11
81.4502798047
 21
192.1632195122
 31
0.0
  0
LINE
  5
288
330
1F
100
AcDbEntity
  8
SLD-0
  6
Continuous
 62
   179
370
    15
100
AcDbLine
 10
112.9502798047
 20
384.6632195122
 30
0.0
 11
83.9502798047
 21
384.6632195122
 31
0.0
  0
LINE
  5
289
330
1F
100
AcDbEntity
  8
SLD-0
  6
Continuous
 62
   179
370
    15
100
AcDbLine
 10
203.9502798047
 20
384.6632195122
 30
0.0
 11
174.9502798047
 21
384.6632195122
 31
0.0
  0
LINE
  5
28A
330
1F
100
AcDbEntity
  8
SLD-0
  6
Continuous
 62
   179
370
    15
100
AcDbLine
 10
174.9502798047
 20
168.6632195122
 30
0.0
 11
203.9502798047
 21
168.6632195122
 31
0.0
  0
LINE
  5
28B
330
1F
100
AcDbEntity
  8
SLD-0
  6
Continuous
 62
   179
370
    15
100
AcDbLine
 10
83.9502798047
 20
168.6632195122
 30
0.0
 11
112.9502798047
 21
168.6632195122
 31
0.0
  0
LINE
  5
28C
330
1F
100
AcDbEntity
  8
SLD-0
  6
Continuous
 62
   179
370
    15
100
AcDbLine
 10
115.4502798047
 20
189.4132195122
 30
0.0
 11
81.4502798047
 21
189.4132195122
 31
0.0
  0
LINE
  5
28D
330
1F
100
AcDbEntity
  8
SLD-0
  6
Continuous
 62
   179
370
    15
100
AcDbLine
 10
115.4502798047
 20
179.4132195122
 30
0.0
 11
81.4502798047
 21
179.4132195122
 31
0.0
  0
LINE
  5
28E
330
1F
100
AcDbEntity
  8
SLD-0
  6
Continuous
 62
   179
370
    15
100
AcDbLine
 10
206.4502798047
 20
189.4132195122
 30
0.0
 11
172.4502798047
 21
189.4132195122
 31
0.0
  0
LINE
  5
28F
330
1F
100
AcDbEntity
  8
SLD-0
  6
Continuous
 62
   179
370
    15
100
AcDbLine
 10
206.4502798047
 20
179.4132195122
 30
0.0
 11
172.4502798047
 21
179.4132195122
 31
0.0
  0
LINE
  5
290
330
1F
100
AcDbEntity
  8
SLD-0
  6
Continuous
 62
   179
370
    15
100
AcDbLine
 10
115.4502798047
 20
191.9132195122
 30
0.0
 11
81.4502798047
 21
191.9132195122
 31
0.0
  0
LINE
  5
291
330
1F
100
AcDbEntity
  8
SLD-0
  6
Continuous
 62
   179
370
    15
100
AcDbLine
 10
115.4502798047
 20
189.9132195122
 30
0.0
 11
81.4502798047
 21
189.9132195122
 31
0.0
  0
LINE
  5
292
330
1F
100
AcDbEntity
  8
SLD-0
  6
Continuous
 62
   179
370
    15
100
AcDbLine
 10
206.4502798047
 20
189.9132195122
 30
0.0
 11
172.4502798047
 21
189.9132195122
 31
0.0
  0
LINE
  5
293
330
1F
100
AcDbEntity
  8
SLD-0
  6
Continuous
 62
   179
370
    15
100
AcDbLine
 10
206.4502798047
 20
191.9132195122
 30
0.0
 11
172.4502798047
 21
191.9132195122
 31
0.0
  0
LINE
  5
294
330
1F
100
AcDbEntity
  8
SLD-0
  6
Continuous
 62
   179
370
    15
100
AcDbLine
 10
206.4502798047
 20
373.6632195122
 30
0.0
 11
172.4502798047
 21
373.6632195122
 31
0.0
  0
LINE
  5
295
330
1F
100
AcDbEntity
  8
SLD-0
  6
Continuous
 62
   179
370
    15
100
AcDbLine
 10
206.4502798047
 20
367.6632195122
 30
0.0
 11
172.4502798047
 21
367.6632195122
 31
0.0
  0
LINE
  5
296
330
1F
100
AcDbEntity
  8
SLD-0
  6
Continuous
 62
   179
370
    15
100
AcDbLine
 10
115.4502798047
 20
367.6632195122
 30
0.0
 11
81.4502798047
 21
367.6632195122
 31
0.0
  0
LINE
  5
297
330
1F
100
AcDbEntity
  8
SLD-0
  6
Continuous
 62
   179
370
    15
100
AcDbLine
 10
115.4502798047
 20
373.6632195122
 30
0.0
 11
81.4502798047
 21
373.6632195122
 31
0.0
  0
LINE
  5
298
330
1F
100
AcDbEntity
  8
SLD-0
  6
Continuous
 62
   179
370
    15
100
AcDbLine
 10
201.4710950849
 20
374.1632195122
 30
0.0
 11
201.4710950849
 21
376.6632195122
 31
0.0
  0
LINE
  5
299
330
1F
100
AcDbEntity
  8
SLD-0
  6
Continuous
 62
   179
370
    15
100
AcDbLine
 10
172.4502798047
 20
374.1632195122
 30
0.0
 11
201.4710950849
 21
374.1632195122
 31
0.0
  0
LINE
  5
29A
330
1F
100
AcDbEntity
  8
SLD-0
  6
Continuous
 62
   179
370
    15
100
AcDbLine
 10
172.4502798047
 20
376.6632195122
 30
0.0
 11
201.4710950849
 21
376.6632195122
 31
0.0
  0
LINE
  5
29B
330
1F
100
AcDbEntity
  8
SLD-0
  6
Continuous
 62
   179
370
    15
100
AcDbLine
 10
201.4710950849
 20
179.1632195122
 30
0.0
 11
201.4710950849
 21
176.6632195122
 31
0.0
  0
LINE
  5
29C
330
1F
100
AcDbEntity
  8
SLD-0
  6
Continuous
 62
   179
370
    15
100
AcDbLine
 10
201.4710950849
 20
176.6632195122
 30
0.0
 11
172.4502798047
 21
176.6632195122
 31
0.0
  0
LINE
  5
29D
330
1F
100
AcDbEntity
  8
SLD-0
  6
Continuous
 62
   179
370
    15
100
AcDbLine
 10
201.4710950849
 20
179.1632195122
 30
0.0
 11
172.4502798047
 21
179.1632195122
 31
0.0
  0
LINE
  5
29E
330
1F
100
AcDbEntity
  8
SLD-0
  6
Continuous
 62
   179
370
    15
100
AcDbLine
 10
213.027444271
 20
179.1632195122
 30
0.0
 11
213.027444271
 21
176.6632195122
 31
0.0
  0
LINE
  5
29F
330
1F
100
AcDbEntity
  8
SLD-0
  6
Continuous
 62
   179
370
    15
100
AcDbLine
 10
213.027444271
 20
176.6632195122
 30
0.0
 11
201.4710950849
 21
176.6632195122
 31
0.0
  0
LINE
  5
2A0
330
1F
100
AcDbEntity
  8
SLD-0
  6
Continuous
 62
   179
370
    15
100
AcDbLine
 10
213.027444271
 20
179.1632195122
 30
0.0
 11
201.4710950849
 21
179.1632195122
 31
0.0
  0
LINE
  5
2A1
330
1F
100
AcDbEntity
  8
SLD-0
  6
Continuous
 62
   179
370
    15
100
AcDbLine
 10
213.027444271
 20
374.1632195122
 30
0.0
 11
213.027444271
 21
376.6632195122
 31
0.0
  0
LINE
  5
2A2
330
1F
100
AcDbEntity
  8
SLD-0
  6
Continuous
 62
   179
370
    15
100
AcDbLine
 10
201.4710950849
 20
374.1632195122
 30
0.0
 11
213.027444271
 21
374.1632195122
 31
0.0
  0
LINE
  5
2A3
330
1F
100
AcDbEntity
  8
SLD-0
  6
Continuous
 62
   179
370
    15
100
AcDbLine
 10
201.4710950849
 20
376.6632195122
 30
0.0
 11
213.027444271
 21
376.6632195122
 31
0.0
  0
LINE
  5
2A4
330
1F
100
AcDbEntity
  8
SLD-0
  6
Continuous
 62
   179
370
    15
100
AcDbLine
 10
216.5629781769
 20
179.1632195122
 30
0.0
 11
216.5629781769
 21
176.6632195122
 31
0.0
  0
LINE
  5
2A5
330
1F
100
AcDbEntity
  8
SLD-0
  6
Continuous
 62
   179
370
    15
100
AcDbLine
 10
216.5629781769
 20
176.6632195122
 30
0.0
 11
213.027444271
 21
176.6632195122
 31
0.0
  0
LINE
  5
2A6
330
1F
100
AcDbEntity
  8
SLD-0
  6
Continuous
 62
   179
370
    15
100
AcDbLine
 10
216.5629781769
 20
179.1632195122
 30
0.0
 11
213.027444271
 21
179.1632195122
 31
0.0
  0
LINE
  5
2A7
330
1F
100
AcDbEntity
  8
SLD-0
  6
Continuous
 62
   179
370
    15
100
AcDbLine
 10
216.5629781769
 20
374.1632195122
 30
0.0
 11
216.5629781769
 21
376.6632195122
 31
0.0
  0
LINE
  5
2A8
330
1F
100
AcDbEntity
  8
SLD-0
  6
Continuous
 62
   179
370
    15
100
AcDbLine
 10
213.027444271
 20
374.1632195122
 30
0.0
 11
216.5629781769
 21
374.1632195122
 31
0.0
  0
LINE
  5
2A9
330
1F
100
AcDbEntity
  8
SLD-0
  6
Continuous
 62
   179
370
    15
100
AcDbLine
 10
213.027444271
 20
376.6632195122
 30
0.0
 11
216.5629781769
 21
376.6632195122
 31
0.0
  0
LINE
  5
2AA
330
1F
100
AcDbEntity
  8
SLD-0
  6
Continuous
 62
   179
370
    15
100
AcDbLine
 10
252.4502798047
 20
374.1632195122
 30
0.0
 11
252.4502798047
 21
376.6632195122
 31
0.0
  0
LINE
  5
2AB
330
1F
100
AcDbEntity
  8
SLD-0
  6
Continuous
 62
   179
370
    15
100
AcDbLine
 10
216.5629781769
 20
374.1632195122
 30
0.0
 11
252.4502798047
 21
374.1632195122
 31
0.0
  0
LINE
  5
2AC
330
1F
100
AcDbEntity
  8
SLD-0
  6
Continuous
 62
   179
370
    15
100
AcDbLine
 10
216.5629781769
 20
376.6632195122
 30
0.0
 11
252.4502798047
 21
376.6632195122
 31
0.0
  0
LINE
  5
2AD
330
1F
100
AcDbEntity
  8
SLD-0
  6
Continuous
 62
   179
370
    15
100
AcDbLine
 10
252.4502798047
 20
176.6632195122
 30
0.0
 11
252.4502798047
 21
179.1632195122
 31
0.0
  0
LINE
  5
2AE
330
1F
100
AcDbEntity
  8
SLD-0
  6
Continuous
 62
   179
370
    15
100
AcDbLine
 10
252.4502798047
 20
176.6632195122
 30
0.0
 11
216.5629781769
 21
176.6632195122
 31
0.0
  0
LINE
  5
2AF
330
1F
100
AcDbEntity
  8
SLD-0
  6
Continuous
 62
   179
370
    15
100
AcDbLine
 10
252.4502798047
 20
179.1632195122
 30
0.0
 11
216.5629781769
 21
179.1632195122
 31
0.0
  0
LINE
  5
2B0
330
1F
100
AcDbEntity
  8
SLD-0
  6
Continuous
 62
   179
370
    15
100
AcDbLine
 10
254.9502798047
 20
179.1632195122
 30
0.0
 11
254.9502798047
 21
176.6632195122
 31
0.0
  0
LINE
  5
2B1
330
1F
100
AcDbEntity
  8
SLD-0
  6
Continuous
 62
   179
370
    15
100
AcDbLine
 10
254.9502798047
 20
176.6632195122
 30
0.0
 11
252.4502798047
 21
176.6632195122
 31
0.0
  0
LINE
  5
2B2
330
1F
100
AcDbEntity
  8
SLD-0
  6
Continuous
 62
   179
370
    15
100
AcDbLine
 10
252.4502798047
 20
179.1632195122
 30
0.0
 11
254.9502798047
 21
179.1632195122
 31
0.0
  0
LINE
  5
2B3
330
1F
100
AcDbEntity
  8
SLD-0
  6
Continuous
 62
   179
370
    15
100
AcDbLine
 10
254.9502798047
 20
376.6632195122
 30
0.0
 11
254.9502798047
 21
374.1632195122
 31
0.0
  0
LINE
  5
2B4
330
1F
100
AcDbEntity
  8
SLD-0
  6
Continuous
 62
   179
370
    15
100
AcDbLine
 10
254.9502798047
 20
374.1632195122
 30
0.0
 11
252.4502798047
 21
374.1632195122
 31
0.0
  0
LINE
  5
2B5
330
1F
100
AcDbEntity
  8
SLD-0
  6
Continuous
 62
   179
370
    15
100
AcDbLine
 10
252.4502798047
 20
376.6632195122
 30
0.0
 11
254.9502798047
 21
376.6632195122
 31
0.0
  0
LINE
  5
2B6
330
1F
100
AcDbEntity
  8
SLD-0
  6
Continuous
 62
   179
370
    15
100
AcDbLine
 10
209.8745300969
 20
373.6632195122
 30
0.0
 11
207.390499656
 21
373.6632195122
 31
0.0
  0
LINE
  5
2B7
330
1F
100
AcDbEntity
  8
SLD-0
  6
Continuous
 62
   179
370
    15
100
AcDbLine
 10
209.8745300969
 20
373.6632195122
 30
0.0
 11
209.8745300969
 21
374.1632195122
 31
0.0
  0
LINE
  5
2B8
330
1F
100
AcDbEntity
  8
SLD-0
  6
Continuous
 62
   179
370
    15
100
AcDbLine
 10
207.390499656
 20
179.6632195122
 30
0.0
 11
209.8745300969
 21
179.6632195122
 31
0.0
  0
LINE
  5
2B9
330
1F
100
AcDbEntity
  8
SLD-0
  6
Continuous
 62
   179
370
    15
100
AcDbLine
 10
209.8745300969
 20
179.1632195122
 30
0.0
 11
209.8745300969
 21
179.6632195122
 31
0.0
  0
LINE
  5
2BA
330
1F
100
AcDbEntity
  8
SLD-0
  6
Continuous
 62
   179
370
    15
100
AcDbLine
 10
209.8745300969
 20
179.6632195122
 30
0.0
 11
254.9502798047
 21
179.6632195122
 31
0.0
  0
LINE
  5
2BB
330
1F
100
AcDbEntity
  8
SLD-0
  6
Continuous
 62
   179
370
    15
100
AcDbLine
 10
254.9502798047
 20
179.6632195122
 30
0.0
 11
254.9502798047
 21
179.1632195122
 31
0.0
  0
LINE
  5
2BC
330
1F
100
AcDbEntity
  8
SLD-0
  6
Continuous
 62
   179
370
    15
100
AcDbLine
 10
254.9502798047
 20
373.6632195122
 30
0.0
 11
209.8745300969
 21
373.6632195122
 31
0.0
  0
LINE
  5
2BD
330
1F
100
AcDbEntity
  8
SLD-0
  6
Continuous
 62
   179
370
    15
100
AcDbLine
 10
254.9502798047
 20
374.1632195122
 30
0.0
 11
254.9502798047
 21
373.6632195122
 31
0.0
  0
LINE
  5
2BE
330
1F
100
AcDbEntity
  8
SLD-0
  6
Continuous
 62
   179
370
    15
100
AcDbLine
 10
209.8745300969
 20
373.6632195122
 30
0.0
 11
209.8745300969
 21
179.6632195122
 31
0.0
  0
LINE
  5
2BF
330
1F
100
AcDbEntity
  8
SLD-0
  6
Continuous
 62
   179
370
    15
100
AcDbLine
 10
207.390499656
 20
373.6632195122
 30
0.0
 11
207.390499656
 21
179.6632195122
 31
0.0
  0
LINE
  5
2C0
330
1F
100
AcDbEntity
  8
SLD-0
  6
Continuous
 62
   179
370
    15
100
AcDbLine
 10
254.9502798047
 20
373.6632195122
 30
0.0
 11
254.9502798047
 21
179.6632195122
 31
0.0
  0
LINE
  5
2C1
330
1F
100
AcDbEntity
  8
SLD-0
  6
Continuous
 62
   179
370
    15
100
AcDbLine
 10
192.9957343501
 20
367.6632195121
 30
0.0
 11
192.9957343501
 21
367.1632195121
 31
0.0
  0
LINE
  5
2C2
330
1F
100
AcDbEntity
  8
SLD-0
  6
Continuous
 62
   179
370
    15
100
AcDbLine
 10
192.9957343501
 20
192.1632195121
 30
0.0
 11
192.9957343501
 21
191.9132195121
 31
0.0
  0
LINE
  5
2C3
330
1F
100
AcDbEntity
  8
SLD-0
  6
Continuous
 62
   179
370
    15
100
AcDbLine
 10
192.9957343501
 20
189.9132195121
 30
0.0
 11
192.9957343501
 21
189.4132195121
 31
0.0
  0
LINE
  5
2C4
330
1F
100
AcDbEntity
  8
SLD-0
  6
Continuous
 62
   179
370
    15
100
AcDbLine
 10
110.4710950849
 20
374.1632195122
 30
0.0
 11
110.4710950849
 21
376.6632195122
 31
0.0
  0
LINE
  5
2C5
330
1F
100
AcDbEntity
  8
SLD-0
  6
Continuous
 62
   179
370
    15
100
AcDbLine
 10
81.4502798047
 20
374.1632195122
 30
0.0
 11
110.4710950849
 21
374.1632195122
 31
0.0
  0
LINE
  5
2C6
330
1F
100
AcDbEntity
  8
SLD-0
  6
Continuous
 62
   179
370
    15
100
AcDbLine
 10
81.4502798047
 20
376.6632195122
 30
0.0
 11
110.4710950849
 21
376.6632195122
 31
0.0
  0
LINE
  5
2C7
330
1F
100
AcDbEntity
  8
SLD-0
  6
Continuous
 62
   179
370
    15
100
AcDbLine
 10
110.4710950849
 20
179.1632195122
 30
0.0
 11
110.4710950849
 21
176.6632195122
 31
0.0
  0
LINE
  5
2C8
330
1F
100
AcDbEntity
  8
SLD-0
  6
Continuous
 62
   179
370
    15
100
AcDbLine
 10
110.4710950849
 20
179.1632195122
 30
0.0
 11
81.4502798047
 21
179.1632195122
 31
0.0
  0
LINE
  5
2C9
330
1F
100
AcDbEntity
  8
SLD-0
  6
Continuous
 62
   179
370
    15
100
AcDbLine
 10
110.4710950849
 20
176.6632195122
 30
0.0
 11
81.4502798047
 21
176.6632195122
 31
0.0
  0
LINE
  5
2CA
330
1F
100
AcDbEntity
  8
SLD-0
  6
Continuous
 62
   179
370
    15
100
AcDbLine
 10
122.027444271
 20
179.1632195122
 30
0.0
 11
122.027444271
 21
176.6632195122
 31
0.0
  0
LINE
  5
2CB
330
1F
100
AcDbEntity
  8
SLD-0
  6
Continuous
 62
   179
370
    15
100
AcDbLine
 10
122.027444271
 20
179.1632195122
 30
0.0
 11
110.4710950849
 21
179.1632195122
 31
0.0
  0
LINE
  5
2CC
330
1F
100
AcDbEntity
  8
SLD-0
  6
Continuous
 62
   179
370
    15
100
AcDbLine
 10
122.027444271
 20
176.6632195122
 30
0.0
 11
110.4710950849
 21
176.6632195122
 31
0.0
  0
LINE
  5
2CD
330
1F
100
AcDbEntity
  8
SLD-0
  6
Continuous
 62
   179
370
    15
100
AcDbLine
 10
122.027444271
 20
374.1632195122
 30
0.0
 11
122.027444271
 21
376.6632195122
 31
0.0
  0
LINE
  5
2CE
330
1F
100
AcDbEntity
  8
SLD-0
  6
Continuous
 62
   179
370
    15
100
AcDbLine
 10
110.4710950849
 20
374.1632195122
 30
0.0
 11
122.027444271
 21
374.1632195122
 31
0.0
  0
LINE
  5
2CF
330
1F
100
AcDbEntity
  8
SLD-0
  6
Continuous
 62
   179
370
    15
100
AcDbLine
 10
110.4710950849
 20
376.6632195122
 30
0.0
 11
122.027444271
 21
376.6632195122
 31
0.0
  0
LINE
  5
2D0
330
1F
100
AcDbEntity
  8
SLD-0
  6
Continuous
 62
   179
370
    15
100
AcDbLine
 10
125.5629781769
 20
179.1632195122
 30
0.0
 11
125.5629781769
 21
176.6632195122
 31
0.0
  0
LINE
  5
2D1
330
1F
100
AcDbEntity
  8
SLD-0
  6
Continuous
 62
   179
370
    15
100
AcDbLine
 10
125.5629781769
 20
179.1632195122
 30
0.0
 11
122.027444271
 21
179.1632195122
 31
0.0
  0
LINE
  5
2D2
330
1F
100
AcDbEntity
  8
SLD-0
  6
Continuous
 62
   179
370
    15
100
AcDbLine
 10
125.5629781769
 20
176.6632195122
 30
0.0
 11
122.027444271
 21
176.6632195122
 31
0.0
  0
LINE
  5
2D3
330
1F
100
AcDbEntity
  8
SLD-0
  6
Continuous
 62
   179
370
    15
100
AcDbLine
 10
125.5629781769
 20
374.1632195122
 30
0.0
 11
125.5629781769
 21
376.6632195122
 31
0.0
  0
LINE
  5
2D4
330
1F
100
AcDbEntity
  8
SLD-0
  6
Continuous
 62
   179
370
    15
100
AcDbLine
 10
122.027444271
 20
374.1632195122
 30
0.0
 11
125.5629781769
 21
374.1632195122
 31
0.0
  0
LINE
  5
2D5
330
1F
100
AcDbEntity
  8
SLD-0
  6
Continuous
 62
   179
370
    15
100
AcDbLine
 10
122.027444271
 20
376.6632195122
 30
0.0
 11
125.5629781769
 21
376.6632195122
 31
0.0
  0
LINE
  5
2D6
330
1F
100
AcDbEntity
  8
SLD-0
  6
Continuous
 62
   179
370
    15
100
AcDbLine
 10
161.4502798047
 20
374.1632195122
 30
0.0
 11
161.4502798047
 21
376.6632195122
 31
0.0
  0
LINE
  5
2D7
330
1F
100
AcDbEntity
  8
SLD-0
  6
Continuous
 62
   179
370
    15
100
AcDbLine
 10
163.9502798047
 20
376.6632195122
 30
0.0
 11
163.9502798047
 21
374.1632195122
 31
0.0
  0
LINE
  5
2D8
330
1F
100
AcDbEntity
  8
SLD-0
  6
Continuous
 62
   179
370
    15
100
AcDbLine
 10
163.9502798047
 20
374.1632195122
 30
0.0
 11
161.4502798047
 21
374.1632195122
 31
0.0
  0
LINE
  5
2D9
330
1F
100
AcDbEntity
  8
SLD-0
  6
Continuous
 62
   179
370
    15
100
AcDbLine
 10
161.4502798047
 20
376.6632195122
 30
0.0
 11
163.9502798047
 21
376.6632195122
 31
0.0
  0
LINE
  5
2DA
330
1F
100
AcDbEntity
  8
SLD-0
  6
Continuous
 62
   179
370
    15
100
AcDbLine
 10
125.5629781769
 20
374.1632195122
 30
0.0
 11
161.4502798047
 21
374.1632195122
 31
0.0
  0
LINE
  5
2DB
330
1F
100
AcDbEntity
  8
SLD-0
  6
Continuous
 62
   179
370
    15
100
AcDbLine
 10
125.5629781769
 20
376.6632195122
 30
0.0
 11
161.4502798047
 21
376.6632195122
 31
0.0
  0
LINE
  5
2DC
330
1F
100
AcDbEntity
  8
SLD-0
  6
Continuous
 62
   179
370
    15
100
AcDbLine
 10
163.9502798047
 20
179.1632195122
 30
0.0
 11
163.9502798047
 21
176.6632195122
 31
0.0
  0
LINE
  5
2DD
330
1F
100
AcDbEntity
  8
SLD-0
  6
Continuous
 62
   179
370
    15
100
AcDbLine
 10
161.4502798047
 20
176.6632195122
 30
0.0
 11
161.4502798047
 21
179.1632195122
 31
0.0
  0
LINE
  5
2DE
330
1F
100
AcDbEntity
  8
SLD-0
  6
Continuous
 62
   179
370
    15
100
AcDbLine
 10
161.4502798047
 20
179.1632195122
 30
0.0
 11
163.9502798047
 21
179.1632195122
 31
0.0
  0
LINE
  5
2DF
330
1F
100
AcDbEntity
  8
SLD-0
  6
Continuous
 62
   179
370
    15
100
AcDbLine
 10
163.9502798047
 20
176.6632195122
 30
0.0
 11
161.4502798047
 21
176.6632195122
 31
0.0
  0
LINE
  5
2E0
330
1F
100
AcDbEntity
  8
SLD-0
  6
Continuous
 62
   179
370
    15
100
AcDbLine
 10
161.4502798047
 20
179.1632195122
 30
0.0
 11
125.5629781769
 21
179.1632195122
 31
0.0
  0
LINE
  5
2E1
330
1F
100
AcDbEntity
  8
SLD-0
  6
Continuous
 62
   179
370
    15
100
AcDbLine
 10
161.4502798047
 20
176.6632195122
 30
0.0
 11
125.5629781769
 21
176.6632195122
 31
0.0
  0
LINE
  5
2E2
330
1F
100
AcDbEntity
  8
SLD-0
  6
Continuous
 62
   179
370
    15
100
AcDbLine
 10
118.8745300969
 20
373.6632195122
 30
0.0
 11
116.390499656
 21
373.6632195122
 31
0.0
  0
LINE
  5
2E3
330
1F
100
AcDbEntity
  8
SLD-0
  6
Continuous
 62
   179
370
    15
100
AcDbLine
 10
118.8745300969
 20
373.6632195122
 30
0.0
 11
118.8745300969
 21
374.1632195122
 31
0.0
  0
LINE
  5
2E4
330
1F
100
AcDbEntity
  8
SLD-0
  6
Continuous
 62
   179
370
    15
100
AcDbLine
 10
118.8745300969
 20
179.1632195122
 30
0.0
 11
118.8745300969
 21
179.6632195122
 31
0.0
  0
LINE
  5
2E5
330
1F
100
AcDbEntity
  8
SLD-0
  6
Continuous
 62
   179
370
    15
100
AcDbLine
 10
118.8745300969
 20
179.6632195122
 30
0.0
 11
163.9502798047
 21
179.6632195122
 31
0.0
  0
LINE
  5
2E6
330
1F
100
AcDbEntity
  8
SLD-0
  6
Continuous
 62
   179
370
    15
100
AcDbLine
 10
163.9502798047
 20
179.6632195122
 30
0.0
 11
163.9502798047
 21
179.1632195122
 31
0.0
  0
LINE
  5
2E7
330
1F
100
AcDbEntity
  8
SLD-0
  6
Continuous
 62
   179
370
    15
100
AcDbLine
 10
163.9502798047
 20
373.6632195122
 30
0.0
 11
118.8745300969
 21
373.6632195122
 31
0.0
  0
LINE
  5
2E8
330
1F
100
AcDbEntity
  8
SLD-0
  6
Continuous
 62
   179
370
    15
100
AcDbLine
 10
163.9502798047
 20
374.1632195122
 30
0.0
 11
163.9502798047
 21
373.6632195122
 31
0.0
  0
LINE
  5
2E9
330
1F
100
AcDbEntity
  8
SLD-0
  6
Continuous
 62
   179
370
    15
100
AcDbLine
 10
116.390499656
 20
179.6632195122
 30
0.0
 11
118.8745300969
 21
179.6632195122
 31
0.0
  0
LINE
  5
2EA
330
1F
100
AcDbEntity
  8
SLD-0
  6
Continuous
 62
   179
370
    15
100
AcDbLine
 10
163.9502798047
 20
373.6632195122
 30
0.0
 11
163.9502798047
 21
367.1632195122
 31
0.0
  0
LINE
  5
2EB
330
1F
100
AcDbEntity
  8
SLD-0
  6
Continuous
 62
   179
370
    15
100
AcDbLine
 10
163.9502798047
 20
192.1632195122
 30
0.0
 11
163.9502798047
 21
179.6632195122
 31
0.0
  0
LINE
  5
2EC
330
1F
100
AcDbEntity
  8
SLD-0
  6
Continuous
 62
   179
370
    15
100
AcDbLine
 10
101.9957343501
 20
367.6632195121
 30
0.0
 11
101.9957343501
 21
367.1632195121
 31
0.0
  0
LINE
  5
2ED
330
1F
100
AcDbEntity
  8
SLD-0
  6
Continuous
 62
   179
370
    15
100
AcDbLine
 10
101.9957343501
 20
192.1632195121
 30
0.0
 11
101.9957343501
 21
191.9132195121
 31
0.0
  0
LINE
  5
2EE
330
1F
100
AcDbEntity
  8
SLD-0
  6
Continuous
 62
   179
370
    15
100
AcDbLine
 10
101.9957343501
 20
189.9132195121
 30
0.0
 11
101.9957343501
 21
189.4132195121
 31
0.0
  0
LINE
  5
2EF
330
1F
100
AcDbEntity
  8
SLD-0
  6
Continuous
 62
   179
370
    15
100
AcDbLine
 10
172.5599984187
 20
367.1632195122
 30
0.0
 11
172.5599984187
 21
192.1632195122
 31
0.0
  0
LINE
  5
2F0
330
1F
100
AcDbEntity
  8
SLD-0
  6
Continuous
 62
   179
370
    15
100
AcDbLine
 10
206.4502798047
 20
367.1632195122
 30
0.0
 11
172.5599984187
 21
367.1632195122
 31
0.0
  0
LINE
  5
2F1
330
1F
100
AcDbEntity
  8
SLD-0
  6
Continuous
 62
   179
370
    15
100
AcDbLine
 10
206.4502798047
 20
192.1632195122
 30
0.0
 11
172.5599984187
 21
192.1632195122
 31
0.0
  0
LINE
  5
2F2
330
1F
100
AcDbEntity
  8
SLD-0
  6
Continuous
 62
   179
370
    15
100
AcDbLine
 10
172.361289226
 20
367.1632195122
 30
0.0
 11
172.361289226
 21
192.1632195122
 31
0.0
  0
LINE
  5
2F3
330
1F
100
AcDbEntity
  8
SLD-0
  6
Continuous
 62
   179
370
    15
100
AcDbLine
 10
172.5599984187
 20
192.1632195122
 30
0.0
 11
172.361289226
 21
192.1632195122
 31
0.0
  0
LINE
  5
2F4
330
1F
100
AcDbEntity
  8
SLD-0
  6
Continuous
 62
   179
370
    15
100
AcDbLine
 10
172.5599984187
 20
367.1632195122
 30
0.0
 11
172.361289226
 21
367.1632195122
 31
0.0
  0
LINE
  5
2F5
330
1F
100
AcDbEntity
  8
SLD-0
  6
Continuous
 62
   179
370
    15
100
AcDbLine
 10
172.361289226
 20
192.1632195122
 30
0.0
 11
171.9502798047
 21
192.1632195122
 31
0.0
  0
LINE
  5
2F6
330
1F
100
AcDbEntity
  8
SLD-0
  6
Continuous
 62
   179
370
    15
100
AcDbLine
 10
172.361289226
 20
367.1632195122
 30
0.0
 11
171.9502798047
 21
367.1632195122
 31
0.0
  0
LINE
  5
2F7
330
1F
100
AcDbEntity
  8
SLD-0
  6
Continuous
 62
   179
370
    15
100
AcDbLine
 10
115.0518477839
 20
367.1632195122
 30
0.0
 11
81.4502798047
 21
367.1632195122
 31
0.0
  0
LINE
  5
2F8
330
1F
100
AcDbEntity
  8
SLD-0
  6
Continuous
 62
   179
370
    15
100
AcDbLine
 10
115.0518477839
 20
367.1632195122
 30
0.0
 11
115.0518477839
 21
192.1632195122
 31
0.0
  0
LINE
  5
2F9
330
1F
100
AcDbEntity
  8
SLD-0
  6
Continuous
 62
   179
370
    15
100
AcDbLine
 10
115.0518477839
 20
192.1632195122
 30
0.0
 11
81.4502798047
 21
192.1632195122
 31
0.0
  0
LINE
  5
2FA
330
1F
100
AcDbEntity
  8
SLD-0
  6
Continuous
 62
   179
370
    15
100
AcDbLine
 10
115.2471603484
 20
367.1632195122
 30
0.0
 11
115.2471603484
 21
192.1632195122
 31
0.0
  0
LINE
  5
2FB
330
1F
100
AcDbEntity
  8
SLD-0
  6
Continuous
 62
   179
370
    15
100
AcDbLine
 10
115.2471603484
 20
367.1632195122
 30
0.0
 11
115.0518477839
 21
367.1632195122
 31
0.0
  0
LINE
  5
2FC
330
1F
100
AcDbEntity
  8
SLD-0
  6
Continuous
 62
   179
370
    15
100
AcDbLine
 10
115.2471603484
 20
192.1632195122
 30
0.0
 11
115.0518477839
 21
192.1632195122
 31
0.0
  0
LINE
  5
2FD
330
1F
100
AcDbEntity
  8
SLD-0
  6
Continuous
 62
   179
370
    15
100
AcDbLine
 10
171.9502798047
 20
367.1632195122
 30
0.0
 11
171.9502798047
 21
192.1632195122
 31
0.0
  0
LINE
  5
2FE
330
1F
100
AcDbEntity
  8
SLD-0
  6
Continuous
 62
   179
370
    15
100
AcDbLine
 10
171.9502798047
 20
367.1632195122
 30
0.0
 11
115.2471603484
 21
367.1632195122
 31
0.0
  0
LINE
  5
2FF
330
1F
100
AcDbEntity
  8
SLD-0
  6
Continuous
 62
   179
370
    15
100
AcDbLine
 10
171.9502798047
 20
192.1632195122
 30
0.0
 11
115.2471603484
 21
192.1632195122
 31
0.0
  0
LINE
  5
300
330
1F
100
AcDbEntity
  8
SLD-0
  6
Continuous
 62
     9
370
    15
100
AcDbLine
 10
207.390499656
 20
373.6632195122
 30
0.0
 11
206.4502798047
 21
373.6632195122
 31
0.0
  0
LINE
  5
301
330
1F
100
AcDbEntity
  8
SLD-0
  6
Continuous
 62
     9
370
    15
100
AcDbLine
 10
206.4502798047
 20
179.6632195122
 30
0.0
 11
207.390499656
 21
179.6632195122
 31
0.0
  0
LINE
  5
302
330
1F
100
AcDbEntity
  8
SLD-0
  6
Continuous
 62
     9
370
    15
100
AcDbLine
 10
118.8745300969
 20
373.6632195122
 30
0.0
 11
118.8745300969
 21
367.1632195122
 31
0.0
  0
LINE
  5
303
330
1F
100
AcDbEntity
  8
SLD-0
  6
Continuous
 62
     9
370
    15
100
AcDbLine
 10
118.8745300969
 20
192.1632195122
 30
0.0
 11
118.8745300969
 21
179.6632195122
 31
0.0
  0
LINE
  5
304
330
1F
100
AcDbEntity
  8
SLD-0
  6
Continuous
 62
     9
370
    15
100
AcDbLine
 10
116.390499656
 20
373.6632195122
 30
0.0
 11
116.390499656
 21
367.1632195122
 31
0.0
  0
LINE
  5
305
330
1F
100
AcDbEntity
  8
SLD-0
  6
Continuous
 62
     9
370
    15
100
AcDbLine
 10
116.390499656
 20
192.1632195122
 30
0.0
 11
116.390499656
 21
179.6632195122
 31
0.0
  0
LINE
  5
306
330
1F
100
AcDbEntity
  8
SLD-0
  6
Continuous
 62
     9
370
    15
100
AcDbLine
 10
116.390499656
 20
373.6632195122
 30
0.0
 11
115.4502798047
 21
373.6632195122
 31
0.0
  0
LINE
  5
307
330
1F
100
AcDbEntity
  8
SLD-0
  6
Continuous
 62
     9
370
    15
100
AcDbLine
 10
115.4502798047
 20
179.6632195122
 30
0.0
 11
116.390499656
 21
179.6632195122
 31
0.0
  0
LINE
  5
308
330
1F
100
AcDbEntity
  8
SLD-0
  6
HIDDEN
 62
   179
370
     0
100
AcDbLine
 10
105.3895786346
 20
184.4132195122
 30
0.0
 11
105.4044996377
 21
184.5091419545
 31
0.0
  0
LINE
  5
309
330
1F
100
AcDbEntity
  8
SLD-0
  6
HIDDEN
 62
   179
370
     0
100
AcDbLine
 10
108.4074087674
 20
184.5089637783
 30
0.0
 11
108.3845815905
 21
184.024781736
 31
0.0
  0
LINE
  5
30A
330
1F
100
AcDbEntity
  8
SLD-0
  6
HIDDEN
 62
   179
370
     0
100
AcDbLine
 10
107.2460977027
 20
182.7218447254
 30
0.0
 11
106.9501433785
 21
182.6639175673
 31
0.0
  0
LINE
  5
30B
330
1F
100
AcDbEntity
  8
SLD-0
  6
HIDDEN
 62
   179
370
     0
100
AcDbLine
 10
91.5109809748
 20
184.4132195122
 30
0.0
 11
91.4960599717
 21
184.3172970699
 31
0.0
  0
LINE
  5
30C
330
1F
100
AcDbEntity
  8
SLD-0
  6
HIDDEN
 62
   179
370
     0
100
AcDbLine
 10
88.493150842
 20
184.317475246
 30
0.0
 11
88.5159780189
 21
184.8016572884
 31
0.0
  0
LINE
  5
30D
330
1F
100
AcDbEntity
  8
SLD-0
  6
HIDDEN
 62
   179
370
     0
100
AcDbLine
 10
89.6544619066
 20
186.104594299
 30
0.0
 11
89.9504162309
 21
186.1625214571
 31
0.0
  0
LINE
  5
30E
330
1F
100
AcDbEntity
  8
SLD-0
  6
HIDDEN
 62
   179
370
     0
100
AcDbLine
 10
102.2916695524
 20
184.5560019114
 30
0.0
 11
102.2914449612
 21
184.2759621209
 31
0.0
  0
LINE
  5
30F
330
1F
100
AcDbEntity
  8
SLD-0
  6
HIDDEN
 62
   179
370
     0
100
AcDbLine
 10
94.608890057
 20
184.270437113
 30
0.0
 11
94.6091146482
 21
184.5504769035
 31
0.0
  0
LINE
  5
310
330
1F
100
AcDbEntity
  8
SLD-0
  6
HIDDEN
 62
   179
370
     0
100
AcDbLine
 10
196.3895786346
 20
184.4132195122
 30
0.0
 11
196.4044996377
 21
184.5091419545
 31
0.0
  0
LINE
  5
311
330
1F
100
AcDbEntity
  8
SLD-0
  6
HIDDEN
 62
   179
370
     0
100
AcDbLine
 10
199.4074087674
 20
184.5089637783
 30
0.0
 11
199.3845815905
 21
184.024781736
 31
0.0
  0
LINE
  5
312
330
1F
100
AcDbEntity
  8
SLD-0
  6
HIDDEN
 62
   179
370
     0
100
AcDbLine
 10
198.2460977027
 20
182.7218447254
 30
0.0
 11
197.9501433785
 21
182.6639175673
 31
0.0
  0
LINE
  5
313
330
1F
100
AcDbEntity
  8
SLD-0
  6
HIDDEN
 62
   179
370
     0
100
AcDbLine
 10
182.5109809748
 20
184.4132195122
 30
0.0
 11
182.4960599717
 21
184.3172970699
 31
0.0
  0
LINE
  5
314
330
1F
100
AcDbEntity
  8
SLD-0
  6
HIDDEN
 62
   179
370
     0
100
AcDbLine
 10
179.493150842
 20
184.317475246
 30
0.0
 11
179.5159780189
 21
184.8016572884
 31
0.0
  0
LINE
  5
315
330
1F
100
AcDbEntity
  8
SLD-0
  6
HIDDEN
 62
   179
370
     0
100
AcDbLine
 10
180.6544619066
 20
186.104594299
 30
0.0
 11
180.9504162309
 21
186.1625214571
 31
0.0
  0
LINE
  5
316
330
1F
100
AcDbEntity
  8
SLD-0
  6
HIDDEN
 62
   179
370
     0
100
AcDbLine
 10
193.2916695524
 20
184.5560019114
 30
0.0
 11
193.2914449612
 21
184.2759621209
 31
0.0
  0
LINE
  5
317
330
1F
100
AcDbEntity
  8
SLD-0
  6
HIDDEN
 62
   179
370
     0
100
AcDbLine
 10
185.608890057
 20
184.270437113
 30
0.0
 11
185.6091146482
 21
184.5504769035
 31
0.0
  0
LINE
  5
318
330
1F
100
AcDbEntity
  8
SLD-0
  6
HIDDEN
 62
   179
370
     0
100
AcDbLine
 10
191.6077126867
 20
374.1632195122
 30
0.0
 11
191.6077126867
 21
376.6632195122
 31
0.0
  0
LINE
  5
319
330
1F
100
AcDbEntity
  8
SLD-0
  6
HIDDEN
 62
   179
370
     0
100
AcDbLine
 10
191.6077126867
 20
179.1632195122
 30
0.0
 11
191.6077126867
 21
176.6632195122
 31
0.0
  0
LINE
  5
31A
330
1F
100
AcDbEntity
  8
SLD-0
  6
HIDDEN
 62
   179
370
     0
100
AcDbLine
 10
209.8745300969
 20
376.6632195122
 30
0.0
 11
209.8745300969
 21
373.4632195122
 31
0.0
  0
LINE
  5
31B
330
1F
100
AcDbEntity
  8
SLD-0
  6
HIDDEN
 62
   179
370
     0
100
AcDbLine
 10
209.8745300969
 20
373.4632195122
 30
0.0
 11
254.9502798047
 21
373.4632195122
 31
0.0
  0
LINE
  5
31C
330
1F
100
AcDbEntity
  8
SLD-0
  6
HIDDEN
 62
   179
370
     0
100
AcDbLine
 10
254.9502798047
 20
179.8632195122
 30
0.0
 11
209.8745300969
 21
179.8632195122
 31
0.0
  0
LINE
  5
31D
330
1F
100
AcDbEntity
  8
SLD-0
  6
HIDDEN
 62
   179
370
     0
100
AcDbLine
 10
209.8745300969
 20
179.8632195122
 30
0.0
 11
209.8745300969
 21
176.6632195122
 31
0.0
  0
LINE
  5
31E
330
1F
100
AcDbEntity
  8
SLD-0
  6
HIDDEN
 62
   179
370
     0
100
AcDbLine
 10
209.690527842
 20
373.4632195122
 30
0.0
 11
209.8745300969
 21
373.4632195122
 31
0.0
  0
LINE
  5
31F
330
1F
100
AcDbEntity
  8
SLD-0
  6
HIDDEN
 62
   179
370
     0
100
AcDbLine
 10
209.8745300969
 20
179.8632195122
 30
0.0
 11
209.690527842
 21
179.8632195122
 31
0.0
  0
LINE
  5
320
330
1F
100
AcDbEntity
  8
SLD-0
  6
HIDDEN
 62
   179
370
     0
100
AcDbLine
 10
193.4502798047
 20
373.4632195122
 30
0.0
 11
209.690527842
 21
373.4632195122
 31
0.0
  0
LINE
  5
321
330
1F
100
AcDbEntity
  8
SLD-0
  6
HIDDEN
 62
   179
370
     0
100
AcDbLine
 10
209.690527842
 20
179.8632195122
 30
0.0
 11
193.4502798047
 21
179.8632195122
 31
0.0
  0
LINE
  5
322
330
1F
100
AcDbEntity
  8
SLD-0
  6
HIDDEN
 62
   179
370
     0
100
AcDbLine
 10
192.9957343501
 20
373.6632195121
 30
0.0
 11
192.9957343501
 21
367.6632195121
 31
0.0
  0
LINE
  5
323
330
1F
100
AcDbEntity
  8
SLD-0
  6
HIDDEN
 62
   179
370
     0
100
AcDbLine
 10
192.9957343501
 20
367.1632195121
 30
0.0
 11
192.9957343501
 21
192.1632195121
 31
0.0
  0
LINE
  5
324
330
1F
100
AcDbEntity
  8
SLD-0
  6
HIDDEN
 62
   179
370
     0
100
AcDbLine
 10
192.9957343501
 20
191.9132195121
 30
0.0
 11
192.9957343501
 21
189.9132195121
 31
0.0
  0
LINE
  5
325
330
1F
100
AcDbEntity
  8
SLD-0
  6
HIDDEN
 62
   179
370
     0
100
AcDbLine
 10
192.9957343501
 20
189.4132195121
 30
0.0
 11
192.9957343501
 21
179.6632195122
 31
0.0
  0
LINE
  5
326
330
1F
100
AcDbEntity
  8
SLD-0
  6
HIDDEN
 62
   179
370
     0
100
AcDbLine
 10
209.8745300969
 20
373.4632195122
 30
0.0
 11
209.8745300969
 21
179.8632195122
 31
0.0
  0
LINE
  5
327
330
1F
100
AcDbEntity
  8
SLD-0
  6
HIDDEN
 62
   179
370
     0
100
AcDbLine
 10
209.690527842
 20
373.4632195122
 30
0.0
 11
209.690527842
 21
179.8632195122
 31
0.0
  0
LINE
  5
328
330
1F
100
AcDbEntity
  8
SLD-0
  6
HIDDEN
 62
   179
370
     0
100
AcDbLine
 10
192.7179526693
 20
374.1632195122
 30
0.0
 11
192.7179526693
 21
376.6632195122
 31
0.0
  0
LINE
  5
329
330
1F
100
AcDbEntity
  8
SLD-0
  6
HIDDEN
 62
   179
370
     0
100
AcDbLine
 10
192.7179526693
 20
179.1632195122
 30
0.0
 11
192.7179526693
 21
176.6632195122
 31
0.0
  0
LINE
  5
32A
330
1F
100
AcDbEntity
  8
SLD-0
  6
HIDDEN
 62
   179
370
     0
100
AcDbLine
 10
193.4502798047
 20
373.4632195122
 30
0.0
 11
193.4502798047
 21
179.8632195122
 31
0.0
  0
LINE
  5
32B
330
1F
100
AcDbEntity
  8
SLD-0
  6
HIDDEN
 62
   179
370
     0
100
AcDbLine
 10
100.6077126867
 20
374.1632195122
 30
0.0
 11
100.6077126867
 21
376.6632195122
 31
0.0
  0
LINE
  5
32C
330
1F
100
AcDbEntity
  8
SLD-0
  6
HIDDEN
 62
   179
370
     0
100
AcDbLine
 10
100.6077126867
 20
179.1632195122
 30
0.0
 11
100.6077126867
 21
176.6632195122
 31
0.0
  0
LINE
  5
32D
330
1F
100
AcDbEntity
  8
SLD-0
  6
HIDDEN
 62
   179
370
     0
100
AcDbLine
 10
163.9502798047
 20
179.8632195122
 30
0.0
 11
118.8745300969
 21
179.8632195122
 31
0.0
  0
LINE
  5
32E
330
1F
100
AcDbEntity
  8
SLD-0
  6
HIDDEN
 62
   179
370
     0
100
AcDbLine
 10
118.8745300969
 20
179.8632195122
 30
0.0
 11
118.8745300969
 21
176.6632195122
 31
0.0
  0
LINE
  5
32F
330
1F
100
AcDbEntity
  8
SLD-0
  6
HIDDEN
 62
   179
370
     0
100
AcDbLine
 10
118.8745300969
 20
376.6632195122
 30
0.0
 11
118.8745300969
 21
373.4632195122
 31
0.0
  0
LINE
  5
330
330
1F
100
AcDbEntity
  8
SLD-0
  6
HIDDEN
 62
   179
370
     0
100
AcDbLine
 10
118.8745300969
 20
373.4632195122
 30
0.0
 11
163.9502798047
 21
373.4632195122
 31
0.0
  0
LINE
  5
331
330
1F
100
AcDbEntity
  8
SLD-0
  6
HIDDEN
 62
   179
370
     0
100
AcDbLine
 10
118.690527842
 20
373.4632195122
 30
0.0
 11
118.8745300969
 21
373.4632195122
 31
0.0
  0
LINE
  5
332
330
1F
100
AcDbEntity
  8
SLD-0
  6
HIDDEN
 62
   179
370
     0
100
AcDbLine
 10
118.8745300969
 20
179.8632195122
 30
0.0
 11
118.690527842
 21
179.8632195122
 31
0.0
  0
LINE
  5
333
330
1F
100
AcDbEntity
  8
SLD-0
  6
HIDDEN
 62
   179
370
     0
100
AcDbLine
 10
163.9502798047
 20
367.1632195122
 30
0.0
 11
163.9502798047
 21
192.1632195122
 31
0.0
  0
LINE
  5
334
330
1F
100
AcDbEntity
  8
SLD-0
  6
HIDDEN
 62
   179
370
     0
100
AcDbLine
 10
118.690527842
 20
179.8632195122
 30
0.0
 11
102.4502798047
 21
179.8632195122
 31
0.0
  0
LINE
  5
335
330
1F
100
AcDbEntity
  8
SLD-0
  6
HIDDEN
 62
   179
370
     0
100
AcDbLine
 10
102.4502798047
 20
373.4632195122
 30
0.0
 11
118.690527842
 21
373.4632195122
 31
0.0
  0
LINE
  5
336
330
1F
100
AcDbEntity
  8
SLD-0
  6
HIDDEN
 62
   179
370
     0
100
AcDbLine
 10
101.9957343501
 20
373.6632195121
 30
0.0
 11
101.9957343501
 21
367.6632195121
 31
0.0
  0
LINE
  5
337
330
1F
100
AcDbEntity
  8
SLD-0
  6
HIDDEN
 62
   179
370
     0
100
AcDbLine
 10
101.9957343501
 20
367.1632195121
 30
0.0
 11
101.9957343501
 21
192.1632195121
 31
0.0
  0
LINE
  5
338
330
1F
100
AcDbEntity
  8
SLD-0
  6
HIDDEN
 62
   179
370
     0
100
AcDbLine
 10
101.9957343501
 20
191.9132195121
 30
0.0
 11
101.9957343501
 21
189.9132195121
 31
0.0
  0
LINE
  5
339
330
1F
100
AcDbEntity
  8
SLD-0
  6
HIDDEN
 62
   179
370
     0
100
AcDbLine
 10
101.9957343501
 20
189.4132195121
 30
0.0
 11
101.9957343501
 21
179.6632195122
 31
0.0
  0
LINE
  5
33A
330
1F
100
AcDbEntity
  8
SLD-0
  6
HIDDEN
 62
   179
370
     0
100
AcDbLine
 10
118.8745300969
 20
373.4632195122
 30
0.0
 11
118.8745300969
 21
179.8632195122
 31
0.0
  0
LINE
  5
33B
330
1F
100
AcDbEntity
  8
SLD-0
  6
HIDDEN
 62
   179
370
     0
100
AcDbLine
 10
118.690527842
 20
373.4632195122
 30
0.0
 11
118.690527842
 21
179.8632195122
 31
0.0
  0
LINE
  5
33C
330
1F
100
AcDbEntity
  8
SLD-0
  6
HIDDEN
 62
   179
370
     0
100
AcDbLine
 10
101.7179526693
 20
179.1632195122
 30
0.0
 11
101.7179526693
 21
176.6632195122
 31
0.0
  0
LINE
  5
33D
330
1F
100
AcDbEntity
  8
SLD-0
  6
HIDDEN
 62
   179
370
     0
100
AcDbLine
 10
101.7179526693
 20
374.1632195122
 30
0.0
 11
101.7179526693
 21
376.6632195122
 31
0.0
  0
LINE
  5
33E
330
1F
100
AcDbEntity
  8
SLD-0
  6
HIDDEN
 62
   179
370
     0
100
AcDbLine
 10
102.4502798047
 20
373.4632195122
 30
0.0
 11
102.4502798047
 21
179.8632195122
 31
0.0
  0
LINE
  5
33F
330
1F
100
AcDbEntity
  8
SLD-0
  6
HIDDEN
 62
   179
370
     0
100
AcDbLine
 10
172.8487118254
 20
367.1632195122
 30
0.0
 11
172.8487118254
 21
192.1632195122
 31
0.0
  0
LINE
  5
340
330
1F
100
AcDbEntity
  8
SLD-0
  6
HIDDEN
 62
   179
370
     0
100
AcDbLine
 10
174.5576967645
 20
367.1632195122
 30
0.0
 11
174.5576967645
 21
192.1632195122
 31
0.0
  0
LINE
  5
341
330
1F
100
AcDbEntity
  8
SLD-0
  6
HIDDEN
 62
   179
370
     0
100
AcDbLine
 10
174.2987038555
 20
367.1632195122
 30
0.0
 11
174.2987038555
 21
192.1632195122
 31
0.0
  0
LINE
  5
342
330
1F
100
AcDbEntity
  8
SLD-0
  6
HIDDEN
 62
   179
370
     0
100
AcDbLine
 10
115.9502798047
 20
367.1632195122
 30
0.0
 11
115.9502798047
 21
192.1632195122
 31
0.0
  0
LINE
  5
343
330
1F
100
AcDbEntity
  8
SLD-0
  6
HIDDEN
 62
   179
370
     0
100
AcDbLine
 10
172.361289226
 20
367.1632195122
 30
0.0
 11
172.361289226
 21
192.1632195122
 31
0.0
  0
LINE
  5
344
330
1F
100
AcDbEntity
  8
SLD-0
  6
HIDDEN
 62
   179
370
     0
100
AcDbLine
 10
172.653399261
 20
367.1632195122
 30
0.0
 11
172.653399261
 21
192.1632195122
 31
0.0
  0
LINE
  5
345
330
1F
100
AcDbEntity
  8
SLD-0
  6
HIDDEN
 62
   179
370
     0
100
AcDbLine
 10
115.3405611906
 20
367.1632195122
 30
0.0
 11
115.3405611906
 21
192.1632195122
 31
0.0
  0
LINE
  5
346
330
1F
100
AcDbEntity
  8
SLD-0
  6
HIDDEN
 62
   179
370
     0
100
AcDbLine
 10
113.3806722967
 20
367.1632195122
 30
0.0
 11
113.3806722967
 21
192.1632195122
 31
0.0
  0
LINE
  5
347
330
1F
100
AcDbEntity
  8
SLD-0
  6
HIDDEN
 62
   179
370
     0
100
AcDbLine
 10
113.623294708
 20
367.1632195122
 30
0.0
 11
113.623294708
 21
192.1632195122
 31
0.0
  0
LINE
  5
348
330
1F
100
AcDbEntity
  8
SLD-0
  6
HIDDEN
 62
   179
370
     0
100
AcDbLine
 10
115.0450439187
 20
367.1632195122
 30
0.0
 11
115.0450439187
 21
192.1632195122
 31
0.0
  0
LINE
  5
349
330
1F
100
AcDbEntity
  8
SLD-0
  6
HIDDEN
 62
   179
370
     0
100
AcDbLine
 10
115.3147127628
 20
367.1632195122
 30
0.0
 11
115.3147127628
 21
192.1632195122
 31
0.0
  0
LINE
  5
34A
330
1F
100
AcDbEntity
  8
SLD-0
  6
HIDDEN
 62
   179
370
     0
100
AcDbLine
 10
115.5392703834
 20
367.1632195122
 30
0.0
 11
115.5392703834
 21
192.1632195122
 31
0.0
  0
LINE
  5
34B
330
1F
100
AcDbEntity
  8
SLD-0
  6
HIDDEN
 62
   179
370
     0
100
AcDbLine
 10
100.947227782
 20
182.6632195122
 30
0.0
 11
106.9502448571
 21
182.6632195122
 31
0.0
  0
LINE
  5
34C
330
1F
100
AcDbEntity
  8
SLD-0
  6
HIDDEN
 62
   179
370
     0
100
AcDbLine
 10
106.9491527719
 20
186.1632195122
 30
0.0
 11
100.9470338844
 21
186.1632195122
 31
0.0
  0
LINE
  5
34D
330
1F
100
AcDbEntity
  8
SLD-0
  6
HIDDEN
 62
   179
370
     0
100
AcDbLine
 10
89.9514068375
 20
182.6632195122
 30
0.0
 11
95.953525725
 21
182.6632195122
 31
0.0
  0
LINE
  5
34E
330
1F
100
AcDbEntity
  8
SLD-0
  6
HIDDEN
 62
   179
370
     0
100
AcDbLine
 10
95.9533318274
 20
186.1632195122
 30
0.0
 11
89.9503147523
 21
186.1632195122
 31
0.0
  0
LINE
  5
34F
330
1F
100
AcDbEntity
  8
SLD-0
  6
HIDDEN
 62
   179
370
     0
100
AcDbLine
 10
103.4502798047
 20
186.1632195122
 30
0.0
 11
103.4502798047
 21
189.4132195122
 31
0.0
  0
LINE
  5
350
330
1F
100
AcDbEntity
  8
SLD-0
  6
HIDDEN
 62
   179
370
     0
100
AcDbLine
 10
103.4502798047
 20
179.4132195122
 30
0.0
 11
103.4502798047
 21
182.6869434223
 31
0.0
  0
LINE
  5
351
330
1F
100
AcDbEntity
  8
SLD-0
  6
HIDDEN
 62
   179
370
     0
100
AcDbLine
 10
93.4502798047
 20
182.6869434223
 30
0.0
 11
93.4502798047
 21
179.4132195122
 31
0.0
  0
LINE
  5
352
330
1F
100
AcDbEntity
  8
SLD-0
  6
HIDDEN
 62
   179
370
     0
100
AcDbLine
 10
93.4502798047
 20
189.4132195122
 30
0.0
 11
93.4502798047
 21
186.1632195122
 31
0.0
  0
LINE
  5
353
330
1F
100
AcDbEntity
  8
SLD-0
  6
HIDDEN
 62
   179
370
     0
100
AcDbLine
 10
89.9503147523
 20
186.1632195122
 30
0.0
 11
81.4502798047
 21
186.1632195122
 31
0.0
  0
LINE
  5
354
330
1F
100
AcDbEntity
  8
SLD-0
  6
HIDDEN
 62
   179
370
     0
100
AcDbLine
 10
81.4502798047
 20
182.6632195122
 30
0.0
 11
89.9514068375
 21
182.6632195122
 31
0.0
  0
LINE
  5
355
330
1F
100
AcDbEntity
  8
SLD-0
  6
HIDDEN
 62
   179
370
     0
100
AcDbLine
 10
115.4502798047
 20
186.1632195122
 30
0.0
 11
106.9491527719
 21
186.1632195122
 31
0.0
  0
LINE
  5
356
330
1F
100
AcDbEntity
  8
SLD-0
  6
HIDDEN
 62
   179
370
     0
100
AcDbLine
 10
106.9502448571
 20
182.6632195122
 30
0.0
 11
115.4502798047
 21
182.6632195122
 31
0.0
  0
LINE
  5
357
330
1F
100
AcDbEntity
  8
SLD-0
  6
HIDDEN
 62
   179
370
     0
100
AcDbLine
 10
191.947227782
 20
182.6632195122
 30
0.0
 11
197.9502448571
 21
182.6632195122
 31
0.0
  0
LINE
  5
358
330
1F
100
AcDbEntity
  8
SLD-0
  6
HIDDEN
 62
   179
370
     0
100
AcDbLine
 10
197.9491527719
 20
186.1632195122
 30
0.0
 11
191.9470338844
 21
186.1632195122
 31
0.0
  0
LINE
  5
359
330
1F
100
AcDbEntity
  8
SLD-0
  6
HIDDEN
 62
   179
370
     0
100
AcDbLine
 10
180.9514068375
 20
182.6632195122
 30
0.0
 11
186.953525725
 21
182.6632195122
 31
0.0
  0
LINE
  5
35A
330
1F
100
AcDbEntity
  8
SLD-0
  6
HIDDEN
 62
   179
370
     0
100
AcDbLine
 10
186.9533318274
 20
186.1632195122
 30
0.0
 11
180.9503147523
 21
186.1632195122
 31
0.0
  0
LINE
  5
35B
330
1F
100
AcDbEntity
  8
SLD-0
  6
HIDDEN
 62
   179
370
     0
100
AcDbLine
 10
194.4502798047
 20
186.1632195122
 30
0.0
 11
194.4502798047
 21
189.4132195122
 31
0.0
  0
LINE
  5
35C
330
1F
100
AcDbEntity
  8
SLD-0
  6
HIDDEN
 62
   179
370
     0
100
AcDbLine
 10
194.4502798047
 20
179.4132195122
 30
0.0
 11
194.4502798047
 21
182.6869434223
 31
0.0
  0
LINE
  5
35D
330
1F
100
AcDbEntity
  8
SLD-0
  6
HIDDEN
 62
   179
370
     0
100
AcDbLine
 10
184.4502798047
 20
182.6869434223
 30
0.0
 11
184.4502798047
 21
179.4132195122
 31
0.0
  0
LINE
  5
35E
330
1F
100
AcDbEntity
  8
SLD-0
  6
HIDDEN
 62
   179
370
     0
100
AcDbLine
 10
184.4502798047
 20
189.4132195122
 30
0.0
 11
184.4502798047
 21
186.1632195122
 31
0.0
  0
LINE
  5
35F
330
1F
100
AcDbEntity
  8
SLD-0
  6
HIDDEN
 62
   179
370
     0
100
AcDbLine
 10
206.4502798047
 20
186.1632195122
 30
0.0
 11
197.9491527719
 21
186.1632195122
 31
0.0
  0
LINE
  5
360
330
1F
100
AcDbEntity
  8
SLD-0
  6
HIDDEN
 62
   179
370
     0
100
AcDbLine
 10
197.9502448571
 20
182.6632195122
 30
0.0
 11
206.4502798047
 21
182.6632195122
 31
0.0
  0
LINE
  5
361
330
1F
100
AcDbEntity
  8
SLD-0
  6
HIDDEN
 62
   179
370
     0
100
AcDbLine
 10
180.9503147523
 20
186.1632195122
 30
0.0
 11
172.4502798047
 21
186.1632195122
 31
0.0
  0
LINE
  5
362
330
1F
100
AcDbEntity
  8
SLD-0
  6
HIDDEN
 62
   179
370
     0
100
AcDbLine
 10
172.4502798047
 20
182.6632195122
 30
0.0
 11
180.9514068375
 21
182.6632195122
 31
0.0
  0
LINE
  5
363
330
1F
100
AcDbEntity
  8
SLD-0
  6
HIDDEN
 62
   179
370
     0
100
AcDbLine
 10
95.9502798047
 20
191.9132195122
 30
0.0
 11
95.9502798047
 21
189.9132195122
 31
0.0
  0
LINE
  5
364
330
1F
100
AcDbEntity
  8
SLD-0
  6
HIDDEN
 62
   179
370
     0
100
AcDbLine
 10
100.9502798047
 20
189.9132195122
 30
0.0
 11
100.9502798047
 21
191.9132195122
 31
0.0
  0
LINE
  5
365
330
1F
100
AcDbEntity
  8
SLD-0
  6
HIDDEN
 62
   179
370
     0
100
AcDbLine
 10
186.9502798047
 20
191.9132195122
 30
0.0
 11
186.9502798047
 21
189.9132195122
 31
0.0
  0
LINE
  5
366
330
1F
100
AcDbEntity
  8
SLD-0
  6
HIDDEN
 62
   179
370
     0
100
AcDbLine
 10
191.9502798047
 20
189.9132195122
 30
0.0
 11
191.9502798047
 21
191.9132195122
 31
0.0
  0
LINE
  5
367
330
1F
100
AcDbEntity
  8
SLD-0
  6
HIDDEN
 62
   179
370
     0
100
AcDbLine
 10
186.9502798047
 20
373.6632195122
 30
0.0
 11
186.9502798047
 21
367.6632195122
 31
0.0
  0
LINE
  5
368
330
1F
100
AcDbEntity
  8
SLD-0
  6
HIDDEN
 62
   179
370
     0
100
AcDbLine
 10
191.9502798047
 20
367.6632195122
 30
0.0
 11
191.9502798047
 21
373.6632195122
 31
0.0
  0
LINE
  5
369
330
1F
100
AcDbEntity
  8
SLD-0
  6
HIDDEN
 62
   179
370
     0
100
AcDbLine
 10
95.9502798047
 20
373.6632195122
 30
0.0
 11
95.9502798047
 21
367.6632195122
 31
0.0
  0
LINE
  5
36A
330
1F
100
AcDbEntity
  8
SLD-0
  6
HIDDEN
 62
   179
370
     0
100
AcDbLine
 10
100.9502798047
 20
367.6632195122
 30
0.0
 11
100.9502798047
 21
373.6632195122
 31
0.0
  0
LINE
  5
36B
330
1F
100
AcDbEntity
  8
SLD-0
  6
HIDDEN
 62
   179
370
     0
100
AcDbLine
 10
184.4502798047
 20
376.6632195122
 30
0.0
 11
184.4502798047
 21
374.1632195122
 31
0.0
  0
LINE
  5
36C
330
1F
100
AcDbEntity
  8
SLD-0
  6
HIDDEN
 62
   179
370
     0
100
AcDbLine
 10
194.4502798047
 20
374.1632195122
 30
0.0
 11
194.4502798047
 21
376.6632195122
 31
0.0
  0
LINE
  5
36D
330
1F
100
AcDbEntity
  8
SLD-0
  6
HIDDEN
 62
   179
370
     0
100
AcDbLine
 10
184.4502798047
 20
179.1632195122
 30
0.0
 11
184.4502798047
 21
176.6632195122
 31
0.0
  0
LINE
  5
36E
330
1F
100
AcDbEntity
  8
SLD-0
  6
HIDDEN
 62
   179
370
     0
100
AcDbLine
 10
194.4502798047
 20
176.6632195122
 30
0.0
 11
194.4502798047
 21
179.1632195122
 31
0.0
  0
LINE
  5
36F
330
1F
100
AcDbEntity
  8
SLD-0
  6
HIDDEN
 62
   179
370
     0
100
AcDbLine
 10
93.4502798047
 20
376.6632195122
 30
0.0
 11
93.4502798047
 21
374.1632195122
 31
0.0
  0
LINE
  5
370
330
1F
100
AcDbEntity
  8
SLD-0
  6
HIDDEN
 62
   179
370
     0
100
AcDbLine
 10
103.4502798047
 20
374.1632195122
 30
0.0
 11
103.4502798047
 21
376.6632195122
 31
0.0
  0
LINE
  5
371
330
1F
100
AcDbEntity
  8
SLD-0
  6
HIDDEN
 62
   179
370
     0
100
AcDbLine
 10
93.4502798047
 20
179.1632195122
 30
0.0
 11
93.4502798047
 21
176.6632195122
 31
0.0
  0
LINE
  5
372
330
1F
100
AcDbEntity
  8
SLD-0
  6
HIDDEN
 62
   179
370
     0
100
AcDbLine
 10
103.4502798047
 20
176.6632195122
 30
0.0
 11
103.4502798047
 21
179.1632195122
 31
0.0
  0
LINE
  5
373
330
1F
100
AcDbEntity
  8
SLD-0
  6
HIDDEN
 62
   179
370
     0
100
AcDbLine
 10
204.7002798047
 20
192.1632195122
 30
0.0
 11
204.7002798047
 21
367.1632195122
 31
0.0
  0
LINE
  5
374
330
1F
100
AcDbEntity
  8
SLD-0
  6
HIDDEN
 62
   179
370
     0
100
AcDbLine
 10
83.2002798047
 20
367.1632195122
 30
0.0
 11
83.2002798047
 21
192.1632195122
 31
0.0
  0
LINE
  5
375
330
1F
100
AcDbEntity
  8
SLD-0
  6
HIDDEN
 62
   179
370
     0
100
AcDbLine
 10
192.9957343501
 20
179.6632195122
 30
0.0
 11
206.4502798047
 21
179.6632195122
 31
0.0
  0
LINE
  5
376
330
1F
100
AcDbEntity
  8
SLD-0
  6
HIDDEN
 62
   179
370
     0
100
AcDbLine
 10
118.8745300969
 20
367.1632195122
 30
0.0
 11
118.8745300969
 21
192.1632195122
 31
0.0
  0
LINE
  5
377
330
1F
100
AcDbEntity
  8
SLD-0
  6
HIDDEN
 62
   179
370
     0
100
AcDbLine
 10
116.390499656
 20
367.1632195122
 30
0.0
 11
116.390499656
 21
192.1632195122
 31
0.0
  0
LINE
  5
378
330
1F
100
AcDbEntity
  8
SLD-0
  6
HIDDEN
 62
   179
370
     0
100
AcDbLine
 10
101.9957343501
 20
179.6632195122
 30
0.0
 11
115.4502798047
 21
179.6632195122
 31
0.0
  0
LINE
  5
379
330
1F
100
AcDbEntity
  8
SLD-0
  6
PHANTOM
 62
   179
370
    30
100
AcDbLine
 10
265.0541559329
 20
276.6632195122
 30
0.0
 11
53.0449601666
 21
276.6632195122
 31
0.0
  0
LINE
  5
37A
330
1F
100
AcDbEntity
  8
SLD-0
  6
Continuous
 62
   179
370
    30
100
AcDbLine
 10
263.0541559329
 20
288.6632195122
 30
0.0
 11
263.0541559329
 21
276.6632195122
 31
0.0
  0
LINE
  5
37B
330
1F
100
AcDbEntity
  8
SLD-0
  6
Continuous
 62
   179
370
    30
100
AcDbLine
 10
55.0449601666
 20
288.6632195122
 30
0.0
 11
55.0449601666
 21
276.6632195122
 31
0.0
  0
LINE
  5
37C
330
1F
100
AcDbEntity
  8
SLD-0
  6
CENTERX2
 62
   179
370
     0
100
AcDbLine
 10
98.4502798047
 20
164.5558003999
 30
0.0
 11
98.4502798047
 21
386.6632195122
 31
0.0
  0
LINE
  5
37D
330
1F
100
AcDbEntity
  8
SLD-0
  6
CENTERX2
 62
   179
370
     0
100
AcDbLine
 10
189.4502798047
 20
162.895106503
 30
0.0
 11
189.4502798047
 21
386.6632195122
 31
0.0
  0
LINE
  5
37E
330
1F
100
AcDbEntity
  8
SLD-0
  6
Continuous
 62
   179
370
    15
100
AcDbLine
 10
88.4787779312
 20
64.701895613
 30
0.0
 11
88.4798920615
 21
64.6999658827
 31
0.0
  0
LINE
  5
37F
330
1F
100
AcDbEntity
  8
SLD-0
  6
Continuous
 62
   179
370
    15
100
AcDbLine
 10
108.4206675479
 20
64.6999658827
 30
0.0
 11
108.4217816782
 21
64.701895613
 31
0.0
  0
LINE
  5
380
330
1F
100
AcDbEntity
  8
SLD-0
  6
Continuous
 62
   179
370
    15
100
AcDbLine
 10
179.4787779312
 20
64.701895613
 30
0.0
 11
179.4798920615
 21
64.6999658827
 31
0.0
  0
LINE
  5
381
330
1F
100
AcDbEntity
  8
SLD-0
  6
Continuous
 62
   179
370
    15
100
AcDbLine
 10
199.4206675479
 20
64.6999658827
 30
0.0
 11
199.4217816782
 21
64.701895613
 31
0.0
  0
LINE
  5
382
330
1F
100
AcDbEntity
  8
SLD-0
  6
Continuous
 62
   179
370
    15
100
AcDbLine
 10
231.3502798047
 20
59.4307477403
 30
0.0
 11
231.3502798047
 21
58.1036505759
 31
0.0
  0
LINE
  5
383
330
1F
100
AcDbEntity
  8
SLD-0
  6
Continuous
 62
   179
370
    15
100
AcDbLine
 10
231.3502798047
 20
58.1036505759
 30
0.0
 11
230.4502798047
 21
56.9307477403
 31
0.0
  0
LINE
  5
384
330
1F
100
AcDbEntity
  8
SLD-0
  6
Continuous
 62
   179
370
    15
100
AcDbLine
 10
209.8745300969
 20
56.9307477403
 30
0.0
 11
230.4502798047
 21
56.9307477403
 31
0.0
  0
LINE
  5
385
330
1F
100
AcDbEntity
  8
SLD-0
  6
Continuous
 62
   179
370
    15
100
AcDbLine
 10
231.3502798047
 20
59.4307477403
 30
0.0
 11
209.8745300969
 21
59.4307477403
 31
0.0
  0
LINE
  5
386
330
1F
100
AcDbEntity
  8
SLD-0
  6
Continuous
 62
   179
370
    15
100
AcDbLine
 10
193.4502798047
 20
72.5640553931
 30
0.0
 11
192.9957343501
 21
70.105724978
 31
0.0
  0
LINE
  5
387
330
1F
100
AcDbEntity
  8
SLD-0
  6
Continuous
 62
   179
370
    15
100
AcDbLine
 10
231.3502798047
 20
58.1036505759
 30
0.0
 11
237.5502798047
 21
58.1036505759
 31
0.0
  0
LINE
  5
388
330
1F
100
AcDbEntity
  8
SLD-0
  6
Continuous
 62
   179
370
    15
100
AcDbLine
 10
238.4502798047
 20
56.9307477403
 30
0.0
 11
237.5502798047
 21
58.1036505759
 31
0.0
  0
LINE
  5
389
330
1F
100
AcDbEntity
  8
SLD-0
  6
Continuous
 62
   179
370
    15
100
AcDbLine
 10
230.4502798047
 20
56.9307477403
 30
0.0
 11
238.4502798047
 21
56.9307477403
 31
0.0
  0
LINE
  5
38A
330
1F
100
AcDbEntity
  8
SLD-0
  6
Continuous
 62
   179
370
    15
100
AcDbLine
 10
237.5502798047
 20
58.1036505759
 30
0.0
 11
237.5502798047
 21
59.4307477403
 31
0.0
  0
LINE
  5
38B
330
1F
100
AcDbEntity
  8
SLD-0
  6
Continuous
 62
   179
370
    15
100
AcDbLine
 10
238.4502798047
 20
56.9307477403
 30
0.0
 11
254.9502798047
 21
56.9307477403
 31
0.0
  0
LINE
  5
38C
330
1F
100
AcDbEntity
  8
SLD-0
  6
Continuous
 62
   179
370
    15
100
AcDbLine
 10
254.9502798047
 20
56.9307477403
 30
0.0
 11
254.9502798047
 21
59.4307477403
 31
0.0
  0
LINE
  5
38D
330
1F
100
AcDbEntity
  8
SLD-0
  6
Continuous
 62
   179
370
    15
100
AcDbLine
 10
254.9502798047
 20
59.4307477403
 30
0.0
 11
237.5502798047
 21
59.4307477403
 31
0.0
  0
LINE
  5
38E
330
1F
100
AcDbEntity
  8
SLD-0
  6
Continuous
 62
   179
370
    15
100
AcDbLine
 10
237.5502798047
 20
59.4307477403
 30
0.0
 11
231.3502798047
 21
59.4307477403
 31
0.0
  0
LINE
  5
38F
330
1F
100
AcDbEntity
  8
SLD-0
  6
Continuous
 62
   179
370
    15
100
AcDbLine
 10
206.9304940188
 20
58.3766936863
 30
0.0
 11
207.390499656
 21
58.5726396322
 31
0.0
  0
LINE
  5
390
330
1F
100
AcDbEntity
  8
SLD-0
  6
Continuous
 62
   179
370
    15
100
AcDbLine
 10
192.9048252593
 20
69.614058895
 30
0.0
 11
192.9957343501
 21
70.105724978
 31
0.0
  0
LINE
  5
391
330
1F
100
AcDbEntity
  8
SLD-0
  6
Continuous
 62
   179
370
    15
100
AcDbLine
 10
209.8745300969
 20
56.4307477403
 30
0.0
 11
209.8745300969
 21
56.9307477403
 31
0.0
  0
LINE
  5
392
330
1F
100
AcDbEntity
  8
SLD-0
  6
Continuous
 62
   179
370
    15
100
AcDbLine
 10
254.9502798047
 20
56.4307477403
 30
0.0
 11
209.8745300969
 21
56.4307477403
 31
0.0
  0
LINE
  5
393
330
1F
100
AcDbEntity
  8
SLD-0
  6
Continuous
 62
   179
370
    15
100
AcDbLine
 10
254.9502798047
 20
56.9307477403
 30
0.0
 11
254.9502798047
 21
56.4307477403
 31
0.0
  0
LINE
  5
394
330
1F
100
AcDbEntity
  8
SLD-0
  6
Continuous
 62
   179
370
    15
100
AcDbLine
 10
213.027444271
 20
50.4662816463
 30
0.0
 11
201.4710950849
 21
38.9099324602
 31
0.0
  0
LINE
  5
395
330
1F
100
AcDbEntity
  8
SLD-0
  6
Continuous
 62
   179
370
    15
100
AcDbLine
 10
252.4502798047
 20
51.9307477403
 30
0.0
 11
216.5629781769
 21
51.9307477403
 31
0.0
  0
LINE
  5
396
330
1F
100
AcDbEntity
  8
SLD-0
  6
Continuous
 62
   179
370
    15
100
AcDbLine
 10
254.9502798047
 20
56.4307477403
 30
0.0
 11
254.9502798047
 21
54.4307477403
 31
0.0
  0
LINE
  5
397
330
1F
100
AcDbEntity
  8
SLD-0
  6
Continuous
 62
   179
370
    15
100
AcDbLine
 10
192.7179526693
 20
68.6033908378
 30
0.0
 11
192.9048252593
 21
69.614058895
 31
0.0
  0
LINE
  5
398
330
1F
100
AcDbEntity
  8
SLD-0
  6
Continuous
 62
   179
370
    15
100
AcDbLine
 10
140.3502798047
 20
59.4307477403
 30
0.0
 11
140.3502798047
 21
58.1036505759
 31
0.0
  0
LINE
  5
399
330
1F
100
AcDbEntity
  8
SLD-0
  6
Continuous
 62
   179
370
    15
100
AcDbLine
 10
140.3502798047
 20
58.1036505759
 30
0.0
 11
139.4502798047
 21
56.9307477403
 31
0.0
  0
LINE
  5
39A
330
1F
100
AcDbEntity
  8
SLD-0
  6
Continuous
 62
   179
370
    15
100
AcDbLine
 10
118.8745300969
 20
56.9307477403
 30
0.0
 11
139.4502798047
 21
56.9307477403
 31
0.0
  0
LINE
  5
39B
330
1F
100
AcDbEntity
  8
SLD-0
  6
Continuous
 62
   179
370
    15
100
AcDbLine
 10
140.3502798047
 20
59.4307477403
 30
0.0
 11
118.8745300969
 21
59.4307477403
 31
0.0
  0
LINE
  5
39C
330
1F
100
AcDbEntity
  8
SLD-0
  6
Continuous
 62
   179
370
    15
100
AcDbLine
 10
102.4502798047
 20
72.5640553931
 30
0.0
 11
101.9957343501
 21
70.105724978
 31
0.0
  0
LINE
  5
39D
330
1F
100
AcDbEntity
  8
SLD-0
  6
Continuous
 62
   179
370
    15
100
AcDbLine
 10
140.3502798047
 20
58.1036505759
 30
0.0
 11
146.5502798047
 21
58.1036505759
 31
0.0
  0
LINE
  5
39E
330
1F
100
AcDbEntity
  8
SLD-0
  6
Continuous
 62
   179
370
    15
100
AcDbLine
 10
147.4502798047
 20
56.9307477403
 30
0.0
 11
146.5502798047
 21
58.1036505759
 31
0.0
  0
LINE
  5
39F
330
1F
100
AcDbEntity
  8
SLD-0
  6
Continuous
 62
   179
370
    15
100
AcDbLine
 10
139.4502798047
 20
56.9307477403
 30
0.0
 11
147.4502798047
 21
56.9307477403
 31
0.0
  0
LINE
  5
3A0
330
1F
100
AcDbEntity
  8
SLD-0
  6
Continuous
 62
   179
370
    15
100
AcDbLine
 10
146.5502798047
 20
58.1036505759
 30
0.0
 11
146.5502798047
 21
59.4307477403
 31
0.0
  0
LINE
  5
3A1
330
1F
100
AcDbEntity
  8
SLD-0
  6
Continuous
 62
   179
370
    15
100
AcDbLine
 10
146.5502798047
 20
59.4307477403
 30
0.0
 11
140.3502798047
 21
59.4307477403
 31
0.0
  0
LINE
  5
3A2
330
1F
100
AcDbEntity
  8
SLD-0
  6
Continuous
 62
   179
370
    15
100
AcDbLine
 10
163.9502798047
 20
56.9307477403
 30
0.0
 11
163.9502798047
 21
59.4307477403
 31
0.0
  0
LINE
  5
3A3
330
1F
100
AcDbEntity
  8
SLD-0
  6
Continuous
 62
   179
370
    15
100
AcDbLine
 10
163.9502798047
 20
59.4307477403
 30
0.0
 11
146.5502798047
 21
59.4307477403
 31
0.0
  0
LINE
  5
3A4
330
1F
100
AcDbEntity
  8
SLD-0
  6
Continuous
 62
   179
370
    15
100
AcDbLine
 10
147.4502798047
 20
56.9307477403
 30
0.0
 11
163.9502798047
 21
56.9307477403
 31
0.0
  0
LINE
  5
3A5
330
1F
100
AcDbEntity
  8
SLD-0
  6
Continuous
 62
   179
370
    15
100
AcDbLine
 10
115.9304940188
 20
58.3766936863
 30
0.0
 11
116.390499656
 21
58.5726396322
 31
0.0
  0
LINE
  5
3A6
330
1F
100
AcDbEntity
  8
SLD-0
  6
Continuous
 62
   179
370
    15
100
AcDbLine
 10
101.9048252593
 20
69.614058895
 30
0.0
 11
101.9957343501
 21
70.105724978
 31
0.0
  0
LINE
  5
3A7
330
1F
100
AcDbEntity
  8
SLD-0
  6
Continuous
 62
   179
370
    15
100
AcDbLine
 10
118.8745300969
 20
56.4307477403
 30
0.0
 11
118.8745300969
 21
56.9307477403
 31
0.0
  0
LINE
  5
3A8
330
1F
100
AcDbEntity
  8
SLD-0
  6
Continuous
 62
   179
370
    15
100
AcDbLine
 10
163.9502798047
 20
56.4307477403
 30
0.0
 11
118.8745300969
 21
56.4307477403
 31
0.0
  0
LINE
  5
3A9
330
1F
100
AcDbEntity
  8
SLD-0
  6
Continuous
 62
   179
370
    15
100
AcDbLine
 10
163.9502798047
 20
56.9307477403
 30
0.0
 11
163.9502798047
 21
56.4307477403
 31
0.0
  0
LINE
  5
3AA
330
1F
100
AcDbEntity
  8
SLD-0
  6
Continuous
 62
   179
370
    15
100
AcDbLine
 10
120.740910365
 20
49.1797477403
 30
0.0
 11
120.739910365
 21
49.1787477403
 31
0.0
  0
LINE
  5
3AB
330
1F
100
AcDbEntity
  8
SLD-0
  6
Continuous
 62
   179
370
    15
100
AcDbLine
 10
118.989910365
 20
47.4287477403
 30
0.0
 11
110.4710950849
 21
38.9099324602
 31
0.0
  0
LINE
  5
3AC
330
1F
100
AcDbEntity
  8
SLD-0
  6
Continuous
 62
   179
370
    15
100
AcDbLine
 10
163.9502798047
 20
56.4307477403
 30
0.0
 11
163.9502798047
 21
54.4327477403
 31
0.0
  0
LINE
  5
3AD
330
1F
100
AcDbEntity
  8
SLD-0
  6
Continuous
 62
   179
370
    15
100
AcDbLine
 10
101.7179526693
 20
68.6033908378
 30
0.0
 11
101.9048252593
 21
69.614058895
 31
0.0
  0
LINE
  5
3AE
330
1F
100
AcDbEntity
  8
SLD-0
  6
Continuous
 62
   179
370
    15
100
AcDbLine
 10
172.361289226
 20
50.9297477403
 30
0.0
 11
115.9502798047
 21
50.9297477403
 31
0.0
  0
LINE
  5
3AF
330
1F
100
AcDbEntity
  8
SLD-0
  6
Continuous
 62
   179
370
    15
100
AcDbLine
 10
115.9502798047
 20
52.6827477403
 30
0.0
 11
172.653399261
 21
52.6827477403
 31
0.0
  0
LINE
  5
3B0
330
1F
100
AcDbEntity
  8
SLD-0
  6
Continuous
 62
   179
370
    15
100
AcDbLine
 10
115.9502798047
 20
54.4327477403
 30
0.0
 11
115.9502798047
 21
52.6827477403
 31
0.0
  0
LINE
  5
3B1
330
1F
100
AcDbEntity
  8
SLD-0
  6
Continuous
 62
   179
370
    15
100
AcDbLine
 10
172.653399261
 20
54.4327477403
 30
0.0
 11
115.9502798047
 21
54.4327477403
 31
0.0
  0
LINE
  5
3B2
330
1F
100
AcDbEntity
  8
SLD-0
  6
Continuous
 62
   179
370
    15
100
AcDbLine
 10
115.9502798047
 20
49.1797477403
 30
0.0
 11
172.361289226
 21
49.1797477403
 31
0.0
  0
LINE
  5
3B3
330
1F
100
AcDbEntity
  8
SLD-0
  6
Continuous
 62
   179
370
    15
100
AcDbLine
 10
115.9502798047
 20
50.9297477403
 30
0.0
 11
115.9502798047
 21
49.1797477403
 31
0.0
  0
LINE
  5
3B4
330
1F
100
AcDbEntity
  8
SLD-0
  6
Continuous
 62
   179
370
    15
100
AcDbLine
 10
171.9502798047
 20
49.1787477403
 30
0.0
 11
115.0450439187
 21
49.1787477403
 31
0.0
  0
LINE
  5
3B5
330
1F
100
AcDbEntity
  8
SLD-0
  6
Continuous
 62
   179
370
    15
100
AcDbLine
 10
171.9502798047
 20
47.4287477403
 30
0.0
 11
171.9502798047
 21
49.1787477403
 31
0.0
  0
LINE
  5
3B6
330
1F
100
AcDbEntity
  8
SLD-0
  6
Continuous
 62
   179
370
    15
100
AcDbLine
 10
115.2471603484
 20
47.4287477403
 30
0.0
 11
171.9502798047
 21
47.4287477403
 31
0.0
  0
LINE
  5
3B7
330
1F
100
AcDbEntity
  8
SLD-0
  6
Continuous
 62
   179
370
    15
100
AcDbLine
 10
171.9502798047
 20
52.6817477403
 30
0.0
 11
115.5392703834
 21
52.6817477403
 31
0.0
  0
LINE
  5
3B8
330
1F
100
AcDbEntity
  8
SLD-0
  6
Continuous
 62
   179
370
    15
100
AcDbLine
 10
171.9502798047
 20
50.9317477403
 30
0.0
 11
171.9502798047
 21
52.6817477403
 31
0.0
  0
LINE
  5
3B9
330
1F
100
AcDbEntity
  8
SLD-0
  6
Continuous
 62
   179
370
    15
100
AcDbLine
 10
115.3147127628
 20
50.9317477403
 30
0.0
 11
171.9502798047
 21
50.9317477403
 31
0.0
  0
LINE
  5
3BA
330
1F
100
AcDbEntity
  8
SLD-0
  6
Continuous
 62
   179
370
    15
100
AcDbLine
 10
115.4502798047
 20
50.9307477403
 30
0.0
 11
115.3777608017
 21
49.3621856295
 31
0.0
  0
LINE
  5
3BB
330
1F
100
AcDbEntity
  8
SLD-0
  6
Continuous
 62
   179
370
    15
100
AcDbLine
 10
115.3777608017
 20
49.3621856295
 30
0.0
 11
115.3597592763
 21
49.1787477403
 31
0.0
  0
ARC
  5
3BC
330
1F
100
AcDbEntity
  8
SLD-0
100
AcDbCircle
 10
115.5392703834
 20
52.8817477403
 30
0.0
 40
0.2000000000000099
100
AcDbArc
 50
186.5130915423
 51
270.0
  0
ARC
  5
3BD
330
1F
100
AcDbEntity
  8
SLD-0
100
AcDbCircle
 10
98.4502798047
 20
50.9307477403
 30
0.0
 40
17.00000000000003
100
AcDbArc
 50
6.5130915423
 51
347.5708286672
  0
ARC
  5
3BE
330
1F
100
AcDbEntity
  8
SLD-0
100
AcDbCircle
 10
115.2471603484
 20
47.2287477403
 30
0.0
 40
0.2000000000000371
100
AcDbArc
 50
90.0
 51
167.5708286672
  0
ARC
  5
3BF
330
1F
100
AcDbEntity
  8
SLD-0
100
AcDbCircle
 10
115.0450439187
 20
47.4787477403
 30
0.0
 40
1.700000000000008
100
AcDbArc
 50
90.0
 51
168.2490597844
  0
ARC
  5
3C0
330
1F
100
AcDbEntity
  8
SLD-0
100
AcDbCircle
 10
98.4502798047
 20
50.9307477403
 30
0.0
 40
15.25000000000003
100
AcDbArc
 50
5.7595547094
 51
348.2490597844
  0
ARC
  5
3C1
330
1F
100
AcDbEntity
  8
SLD-0
100
AcDbCircle
 10
115.3147127628
 20
52.6317477403
 30
0.0
 40
1.700000000000053
100
AcDbArc
 50
185.7595547094
 51
270.0
  0
ARC
  5
3C2
330
1F
100
AcDbEntity
  8
SLD-0
100
AcDbCircle
 10
172.361289226
 20
48.9797477403
 30
0.0
 40
0.2000000000000079
100
AcDbArc
 50
6.5130915423
 51
90.0
  0
ARC
  5
3C3
330
1F
100
AcDbEntity
  8
SLD-0
100
AcDbCircle
 10
189.4502798047
 20
50.9307477403
 30
0.0
 40
17.00000000000004
100
AcDbArc
 50
186.5130915423
 51
167.5708286672
  0
ARC
  5
3C4
330
1F
100
AcDbEntity
  8
SLD-0
100
AcDbCircle
 10
172.653399261
 20
54.6327477403
 30
0.0
 40
0.2000000000001034
100
AcDbArc
 50
270.0
 51
347.5708286672
  0
ARC
  5
3C5
330
1F
100
AcDbEntity
  8
SLD-0
100
AcDbCircle
 10
172.653399261
 20
54.6327477403
 30
0.0
 40
1.950000000000014
100
AcDbArc
 50
270.0
 51
347.5708286672
  0
ARC
  5
3C6
330
1F
100
AcDbEntity
  8
SLD-0
100
AcDbCircle
 10
189.4502798047
 20
50.9307477403
 30
0.0
 40
15.25000000000008
100
AcDbArc
 50
186.5130915423
 51
167.5708286672
  0
ARC
  5
3C7
330
1F
100
AcDbEntity
  8
SLD-0
100
AcDbCircle
 10
172.361289226
 20
48.9797477403
 30
0.0
 40
1.950000000000056
100
AcDbArc
 50
6.5130915423
 51
90.0
  0
ARC
  5
3C8
330
1F
100
AcDbEntity
  8
SLD-0
100
AcDbCircle
 10
118.8745300969
 20
59.6307477403
 30
0.0
 40
0.2000000000000111
100
AcDbArc
 50
203.0722697662
 51
270.0
  0
ARC
  5
3C9
330
1F
100
AcDbEntity
  8
SLD-0
100
AcDbCircle
 10
98.4502798047
 20
50.9307477403
 30
0.0
 40
22.00000000000008
100
AcDbArc
 50
23.0722697662
 51
79.5243183036
  0
ARC
  5
3CA
330
1F
100
AcDbEntity
  8
SLD-0
100
AcDbCircle
 10
98.4502798047
 20
50.9307477403
 30
0.0
 40
19.50000000000002
100
AcDbArc
 50
23.0722697662
 51
79.5243183036
  0
ARC
  5
3CB
330
1F
100
AcDbEntity
  8
SLD-0
100
AcDbCircle
 10
118.8745300969
 20
59.6307477403
 30
0.0
 40
2.700000000000062
100
AcDbArc
 50
203.0722697663
 51
270.0
  0
ARC
  5
3CC
330
1F
100
AcDbEntity
  8
SLD-0
100
AcDbCircle
 10
209.8745300969
 20
59.6307477403
 30
0.0
 40
0.2000000000000008
100
AcDbArc
 50
203.0722697662
 51
270.0
  0
ARC
  5
3CD
330
1F
100
AcDbEntity
  8
SLD-0
100
AcDbCircle
 10
189.4502798047
 20
50.9307477403
 30
0.0
 40
22.00000000000002
100
AcDbArc
 50
23.0722697662
 51
79.5243183036
  0
ARC
  5
3CE
330
1F
100
AcDbEntity
  8
SLD-0
100
AcDbCircle
 10
189.4502798047
 20
50.9307477403
 30
0.0
 40
19.49999999999999
100
AcDbArc
 50
23.0722697662
 51
79.5243183036
  0
ARC
  5
3CF
330
1F
100
AcDbEntity
  8
SLD-0
100
AcDbCircle
 10
209.8745300969
 20
59.6307477403
 30
0.0
 40
2.700000000000003
100
AcDbArc
 50
203.0722697663
 51
270.0
  0
ARC
  5
3D0
330
1F
100
AcDbEntity
  8
SLD-0
  6
Continuous
 62
   179
370
    15
100
AcDbCircle
 10
98.4502798047
 20
333.1007195122
 30
0.0
 40
53.56249999999999
100
AcDbArc
 50
74.293373396
 51
105.706626604
  0
ARC
  5
3D1
330
1F
100
AcDbEntity
  8
SLD-0
  6
Continuous
 62
   179
370
    15
100
AcDbCircle
 10
189.4502798047
 20
333.1007195122
 30
0.0
 40
53.56249999999999
100
AcDbArc
 50
74.293373396
 51
105.706626604
  0
ARC
  5
3D2
330
1F
100
AcDbEntity
  8
SLD-0
  6
Continuous
 62
   179
370
    15
100
AcDbCircle
 10
189.4502798047
 20
220.2257195122
 30
0.0
 40
53.5625
100
AcDbArc
 50
254.293373396
 51
285.706626604
  0
ARC
  5
3D3
330
1F
100
AcDbEntity
  8
SLD-0
  6
Continuous
 62
   179
370
    15
100
AcDbCircle
 10
98.4502798047
 20
220.2257195122
 30
0.0
 40
53.56249999999999
100
AcDbArc
 50
254.293373396
 51
285.706626604
  0
ARC
  5
3D4
330
1F
100
AcDbEntity
  8
SLD-0
  6
Continuous
 62
   179
370
    15
100
AcDbCircle
 10
64.4986887066
 20
184.41328503
 30
0.0
 40
17.04167572304276
100
AcDbArc
 50
354.1794421599
 51
5.893839654
  0
ARC
  5
3D5
330
1F
100
AcDbEntity
  8
SLD-0
  6
Continuous
 62
   179
370
    15
100
AcDbCircle
 10
155.4986887066
 20
184.41328503
 30
0.0
 40
17.04167572304277
100
AcDbArc
 50
354.1794421599
 51
5.893839654
  0
ARC
  5
3D6
330
1F
100
AcDbEntity
  8
SLD-0
  6
Continuous
 62
   179
370
    15
100
AcDbCircle
 10
206.9096275279
 20
373.6824169191
 30
0.0
 40
0.4812551755674118
100
AcDbArc
 50
357.7138483577
 51
87.5149632887
  0
ARC
  5
3D7
330
1F
100
AcDbEntity
  8
SLD-0
  6
Continuous
 62
   179
370
    15
100
AcDbCircle
 10
206.9096275279
 20
179.6440221053
 30
0.0
 40
0.4812551755624718
100
AcDbArc
 50
272.4850367113
 51
2.2861516383
  0
CIRCLE
  5
3D8
330
1F
100
AcDbEntity
  8
SLD-0
  6
Continuous
 62
   179
370
    15
100
AcDbCircle
 10
234.4502798047
 20
276.6632195122
 30
0.0
 40
4.0
  0
CIRCLE
  5
3D9
330
1F
100
AcDbEntity
  8
SLD-0
  6
Continuous
 62
   179
370
    15
100
AcDbCircle
 10
223.9502798047
 20
231.1632195122
 30
0.0
 40
4.0
  0
CIRCLE
  5
3DA
330
1F
100
AcDbEntity
  8
SLD-0
  6
Continuous
 62
   179
370
    15
100
AcDbCircle
 10
238.9502798047
 20
357.1632195122
 30
0.0
 40
4.0
  0
CIRCLE
  5
3DB
330
1F
100
AcDbEntity
  8
SLD-0
  6
Continuous
 62
   179
370
    15
100
AcDbCircle
 10
223.9502798047
 20
322.1632195122
 30
0.0
 40
4.000000000000057
  0
CIRCLE
  5
3DC
330
1F
100
AcDbEntity
  8
SLD-0
  6
Continuous
 62
   179
370
    15
100
AcDbCircle
 10
238.9502798047
 20
196.1632195122
 30
0.0
 40
4.0
  0
CIRCLE
  5
3DD
330
1F
100
AcDbEntity
  8
SLD-0
  6
Continuous
 62
   179
370
    15
100
AcDbCircle
 10
234.4502798047
 20
276.6632195122
 30
0.0
 40
3.099999999999966
  0
CIRCLE
  5
3DE
330
1F
100
AcDbEntity
  8
SLD-0
  6
Continuous
 62
   179
370
    15
100
AcDbCircle
 10
223.9502798047
 20
231.1632195122
 30
0.0
 40
3.099999999999966
  0
CIRCLE
  5
3DF
330
1F
100
AcDbEntity
  8
SLD-0
  6
Continuous
 62
   179
370
    15
100
AcDbCircle
 10
238.9502798047
 20
196.1632195122
 30
0.0
 40
3.100000000000023
  0
CIRCLE
  5
3E0
330
1F
100
AcDbEntity
  8
SLD-0
  6
Continuous
 62
   179
370
    15
100
AcDbCircle
 10
223.9502798047
 20
322.1632195122
 30
0.0
 40
3.099999999999994
  0
CIRCLE
  5
3E1
330
1F
100
AcDbEntity
  8
SLD-0
  6
Continuous
 62
   179
370
    15
100
AcDbCircle
 10
238.9502798047
 20
357.1632195122
 30
0.0
 40
3.099999999999966
  0
ARC
  5
3E2
330
1F
100
AcDbEntity
  8
SLD-0
  6
Continuous
 62
   179
370
    15
100
AcDbCircle
 10
192.2400525319
 20
373.7840872807
 30
0.0
 40
0.7652868924889332
100
AcDbArc
 50
350.912777958
 51
29.6969149796
  0
ARC
  5
3E3
330
1F
100
AcDbEntity
  8
SLD-0
  6
Continuous
 62
   179
370
    15
100
AcDbCircle
 10
192.6082159479
 20
179.3940239149
 30
0.0
 40
0.3758294239593855
100
AcDbArc
 50
322.1119871436
 51
2.9276724509
  0
ARC
  5
3E4
330
1F
100
AcDbEntity
  8
SLD-0
  6
Continuous
 62
   179
370
    15
100
AcDbCircle
 10
115.9096275279
 20
373.6824169191
 30
0.0
 40
0.4812551755674124
100
AcDbArc
 50
357.7138483577
 51
87.5149632887
  0
ARC
  5
3E5
330
1F
100
AcDbEntity
  8
SLD-0
  6
Continuous
 62
   179
370
    15
100
AcDbCircle
 10
115.9096275279
 20
179.6440221053
 30
0.0
 40
0.4812551755625428
100
AcDbArc
 50
272.4850367113
 51
2.2861516383
  0
ARC
  5
3E6
330
1F
100
AcDbEntity
  8
SLD-0
  6
Continuous
 62
   179
370
    15
100
AcDbCircle
 10
101.2400525319
 20
373.7840872807
 30
0.0
 40
0.7652868924889502
100
AcDbArc
 50
350.912777958
 51
29.6969149796
  0
ARC
  5
3E7
330
1F
100
AcDbEntity
  8
SLD-0
  6
Continuous
 62
   179
370
    15
100
AcDbCircle
 10
101.6082159479
 20
179.3940239149
 30
0.0
 40
0.3758294239588681
100
AcDbArc
 50
322.1119871436
 51
2.9276724509
  0
ARC
  5
3E8
330
1F
100
AcDbEntity
  8
SLD-0
  6
HIDDEN
 62
   179
370
     0
100
AcDbCircle
 10
206.6129462222
 20
373.5860829161
 30
0.0
 40
3.080033123599816
100
AcDbArc
 50
357.7138483617
 51
87.5149632887
  0
ARC
  5
3E9
330
1F
100
AcDbEntity
  8
SLD-0
  6
HIDDEN
 62
   179
370
     0
100
AcDbCircle
 10
206.6129462223
 20
179.7403561083
 30
0.0
 40
3.080033123556085
100
AcDbArc
 50
272.4850367113
 51
2.2861516376
  0
ARC
  5
3EA
330
1F
100
AcDbEntity
  8
SLD-0
  6
HIDDEN
 62
   179
370
     0
100
AcDbCircle
 10
188.6139161683
 20
374.2367732312
 30
0.0
 40
4.897836111947848
100
AcDbArc
 50
350.9127779581
 51
29.6969149795
  0
ARC
  5
3EB
330
1F
100
AcDbEntity
  8
SLD-0
  6
HIDDEN
 62
   179
370
     0
100
AcDbCircle
 10
188.6139161683
 20
179.0896657932
 30
0.0
 40
4.897836111948068
100
AcDbArc
 50
330.3030850205
 51
9.0872220419
  0
ARC
  5
3EC
330
1F
100
AcDbEntity
  8
SLD-0
  6
HIDDEN
 62
   179
370
     0
100
AcDbCircle
 10
190.5790125539
 20
179.6556607683
 30
0.0
 40
2.416733616876685
100
AcDbArc
 50
354.2425323162
 51
0.17920255
  0
ARC
  5
3ED
330
1F
100
AcDbEntity
  8
SLD-0
  6
HIDDEN
 62
   179
370
     0
100
AcDbCircle
 10
115.6129462222
 20
373.5860829161
 30
0.0
 40
3.080033123599816
100
AcDbArc
 50
357.7138483617
 51
87.5149632887
  0
ARC
  5
3EE
330
1F
100
AcDbEntity
  8
SLD-0
  6
HIDDEN
 62
   179
370
     0
100
AcDbCircle
 10
115.6129462223
 20
179.7403561083
 30
0.0
 40
3.080033123556119
100
AcDbArc
 50
272.4850367113
 51
2.2861516376
  0
CIRCLE
  5
3EF
330
1F
100
AcDbEntity
  8
SLD-0
  6
HIDDEN
 62
   179
370
     0
100
AcDbCircle
 10
143.4502798047
 20
276.6632195122
 30
0.0
 40
4.0
  0
CIRCLE
  5
3F0
330
1F
100
AcDbEntity
  8
SLD-0
  6
HIDDEN
 62
   179
370
     0
100
AcDbCircle
 10
132.9502798047
 20
231.1632195122
 30
0.0
 40
4.0
  0
CIRCLE
  5
3F1
330
1F
100
AcDbEntity
  8
SLD-0
  6
HIDDEN
 62
   179
370
     0
100
AcDbCircle
 10
147.9502798047
 20
357.1632195122
 30
0.0
 40
4.0
  0
CIRCLE
  5
3F2
330
1F
100
AcDbEntity
  8
SLD-0
  6
HIDDEN
 62
   179
370
     0
100
AcDbCircle
 10
132.9502798047
 20
322.1632195122
 30
0.0
 40
4.000000000000057
  0
CIRCLE
  5
3F3
330
1F
100
AcDbEntity
  8
SLD-0
  6
HIDDEN
 62
   179
370
     0
100
AcDbCircle
 10
147.9502798047
 20
196.1632195122
 30
0.0
 40
4.0
  0
CIRCLE
  5
3F4
330
1F
100
AcDbEntity
  8
SLD-0
  6
HIDDEN
 62
   179
370
     0
100
AcDbCircle
 10
147.9502798047
 20
196.1632195122
 30
0.0
 40
3.099999999999994
  0
CIRCLE
  5
3F5
330
1F
100
AcDbEntity
  8
SLD-0
  6
HIDDEN
 62
   179
370
     0
100
AcDbCircle
 10
147.9502798047
 20
357.1632195122
 30
0.0
 40
3.099999999999966
  0
CIRCLE
  5
3F6
330
1F
100
AcDbEntity
  8
SLD-0
  6
HIDDEN
 62
   179
370
     0
100
AcDbCircle
 10
143.4502798047
 20
276.6632195122
 30
0.0
 40
3.099999999999966
  0
CIRCLE
  5
3F7
330
1F
100
AcDbEntity
  8
SLD-0
  6
HIDDEN
 62
   179
370
     0
100
AcDbCircle
 10
132.9502798047
 20
322.1632195122
 30
0.0
 40
3.100000000000023
  0
CIRCLE
  5
3F8
330
1F
100
AcDbEntity
  8
SLD-0
  6
HIDDEN
 62
   179
370
     0
100
AcDbCircle
 10
132.9502798047
 20
231.1632195122
 30
0.0
 40
3.099999999999994
  0
ARC
  5
3F9
330
1F
100
AcDbEntity
  8
SLD-0
  6
HIDDEN
 62
   179
370
     0
100
AcDbCircle
 10
97.6139161683
 20
179.0896657932
 30
0.0
 40
4.897836111948127
100
AcDbArc
 50
330.3030850205
 51
9.0872220419
  0
ARC
  5
3FA
330
1F
100
AcDbEntity
  8
SLD-0
  6
HIDDEN
 62
   179
370
     0
100
AcDbCircle
 10
97.6139161683
 20
374.2367732312
 30
0.0
 40
4.897836111947832
100
AcDbArc
 50
350.9127779581
 51
29.6969149795
  0
ARC
  5
3FB
330
1F
100
AcDbEntity
  8
SLD-0
  6
HIDDEN
 62
   179
370
     0
100
AcDbCircle
 10
99.5790125539
 20
179.6556607683
 30
0.0
 40
2.416733616870272
100
AcDbArc
 50
354.2425323162
 51
0.17920255
  0
ARC
  5
3FC
330
1F
100
AcDbEntity
  8
SLD-0
  6
Continuous
 62
   179
370
    15
100
AcDbCircle
 10
209.8745300969
 20
59.6307477403
 30
0.0
 40
2.700000000000003
100
AcDbArc
 50
203.0722697663
 51
270.0
  0
ARC
  5
3FD
330
1F
100
AcDbEntity
  8
SLD-0
  6
Continuous
 62
   179
370
    15
100
AcDbCircle
 10
209.8745300969
 20
59.6307477403
 30
0.0
 40
0.2000000000000008
100
AcDbArc
 50
203.0722697662
 51
270.0
  0
ARC
  5
3FE
330
1F
100
AcDbEntity
  8
SLD-0
  6
Continuous
 62
   179
370
    15
100
AcDbCircle
 10
189.4502798047
 20
50.9307477403
 30
0.0
 40
22.00000000000002
100
AcDbArc
 50
23.0722697662
 51
79.5243183036
  0
ARC
  5
3FF
330
1F
100
AcDbEntity
  8
SLD-0
  6
Continuous
 62
   179
370
    15
100
AcDbCircle
 10
189.4502798047
 20
50.9307477403
 30
0.0
 40
19.49999999999999
100
AcDbArc
 50
23.0722697662
 51
79.5243183036
  0
ARC
  5
400
330
1F
100
AcDbEntity
  8
SLD-0
  6
Continuous
 62
   179
370
    15
100
AcDbCircle
 10
189.4502798047
 20
50.9307477403
 30
0.0
 40
18.99999999999521
100
AcDbArc
 50
23.0722697662
 51
79.5243183035
  0
ARC
  5
401
330
1F
100
AcDbEntity
  8
SLD-0
  6
Continuous
 62
   179
370
    15
100
AcDbCircle
 10
209.8745300969
 20
59.6307477403
 30
0.0
 40
3.200000000004771
100
AcDbArc
 50
203.0722697664
 51
270.0
  0
ARC
  5
402
330
1F
100
AcDbEntity
  8
SLD-0
  6
Continuous
 62
   179
370
    15
100
AcDbCircle
 10
216.5629781769
 20
46.9307477403
 30
0.0
 40
5.000000000000015
100
AcDbArc
 50
90.0
 51
135.0
  0
ARC
  5
403
330
1F
100
AcDbEntity
  8
SLD-0
  6
Continuous
 62
   179
370
    15
100
AcDbCircle
 10
191.7346205033
 20
68.7852090196
 30
0.0
 40
0.9999999999999897
100
AcDbArc
 50
262.7090568403
 51
349.5243183036
  0
ARC
  5
404
330
1F
100
AcDbEntity
  8
SLD-0
  6
Continuous
 62
   179
370
    15
100
AcDbCircle
 10
252.4502798047
 20
54.4307477403
 30
0.0
 40
2.500000000000043
100
AcDbArc
 50
270.0
 51
0.0
  0
ARC
  5
405
330
1F
100
AcDbEntity
  8
SLD-0
  6
Continuous
 62
   179
370
    15
100
AcDbCircle
 10
118.8745300969
 20
59.6307477403
 30
0.0
 40
2.700000000000062
100
AcDbArc
 50
203.0722697663
 51
270.0
  0
ARC
  5
406
330
1F
100
AcDbEntity
  8
SLD-0
  6
Continuous
 62
   179
370
    15
100
AcDbCircle
 10
98.4502798047
 20
50.9307477403
 30
0.0
 40
22.00000000000008
100
AcDbArc
 50
23.0722697662
 51
79.5243183036
  0
ARC
  5
407
330
1F
100
AcDbEntity
  8
SLD-0
  6
Continuous
 62
   179
370
    15
100
AcDbCircle
 10
118.8745300969
 20
59.6307477403
 30
0.0
 40
0.2000000000000111
100
AcDbArc
 50
203.0722697662
 51
270.0
  0
ARC
  5
408
330
1F
100
AcDbEntity
  8
SLD-0
  6
Continuous
 62
   179
370
    15
100
AcDbCircle
 10
98.4502798047
 20
50.9307477403
 30
0.0
 40
19.50000000000002
100
AcDbArc
 50
23.0722697662
 51
79.5243183036
  0
ARC
  5
409
330
1F
100
AcDbEntity
  8
SLD-0
  6
Continuous
 62
   179
370
    15
100
AcDbCircle
 10
98.4502798047
 20
50.9307477403
 30
0.0
 40
18.99999999999532
100
AcDbArc
 50
23.0722697662
 51
79.5243183035
  0
ARC
  5
40A
330
1F
100
AcDbEntity
  8
SLD-0
  6
Continuous
 62
   179
370
    15
100
AcDbCircle
 10
118.8745300969
 20
59.6307477403
 30
0.0
 40
3.200000000004765
100
AcDbArc
 50
203.0722697664
 51
270.0
  0
ARC
  5
40B
330
1F
100
AcDbEntity
  8
SLD-0
  6
Continuous
 62
   179
370
    15
100
AcDbCircle
 10
100.7346205033
 20
68.7852090196
 30
0.0
 40
1.000000000000019
100
AcDbArc
 50
262.7090568403
 51
349.5243183036
  0
ARC
  5
40C
330
1F
100
AcDbEntity
  8
SLD-0
  6
Continuous
 62
   179
370
    15
100
AcDbCircle
 10
172.361289226
 20
48.9797477403
 30
0.0
 40
1.950000000000056
100
AcDbArc
 50
6.5130915423
 51
90.0
  0
ARC
  5
40D
330
1F
100
AcDbEntity
  8
SLD-0
  6
Continuous
 62
   179
370
    15
100
AcDbCircle
 10
172.653399261
 20
54.6327477403
 30
0.0
 40
1.950000000000014
100
AcDbArc
 50
270.0
 51
347.5708286672
  0
ARC
  5
40E
330
1F
100
AcDbEntity
  8
SLD-0
  6
Continuous
 62
   179
370
    15
100
AcDbCircle
 10
172.653399261
 20
54.6327477403
 30
0.0
 40
0.2000000000001034
100
AcDbArc
 50
270.0
 51
347.5708286672
  0
ARC
  5
40F
330
1F
100
AcDbEntity
  8
SLD-0
  6
Continuous
 62
   179
370
    15
100
AcDbCircle
 10
172.361289226
 20
48.9797477403
 30
0.0
 40
0.2000000000000079
100
AcDbArc
 50
6.5130915423
 51
90.0
  0
ARC
  5
410
330
1F
100
AcDbEntity
  8
SLD-0
  6
Continuous
 62
   179
370
    15
100
AcDbCircle
 10
189.4502798047
 20
50.9307477403
 30
0.0
 40
15.25000000000008
100
AcDbArc
 50
186.5130915423
 51
167.5708286672
  0
ARC
  5
411
330
1F
100
AcDbEntity
  8
SLD-0
  6
Continuous
 62
   179
370
    15
100
AcDbCircle
 10
189.4502798047
 20
50.9307477403
 30
0.0
 40
17.00000000000004
100
AcDbArc
 50
186.5130915423
 51
167.5708286672
  0
ARC
  5
412
330
1F
100
AcDbEntity
  8
SLD-0
  6
Continuous
 62
   179
370
    15
100
AcDbCircle
 10
115.3147127628
 20
52.6317477403
 30
0.0
 40
1.700000000000053
100
AcDbArc
 50
185.7595547094
 51
270.0
  0
ARC
  5
413
330
1F
100
AcDbEntity
  8
SLD-0
  6
Continuous
 62
   179
370
    15
100
AcDbCircle
 10
115.0450439187
 20
47.4787477403
 30
0.0
 40
1.700000000000008
100
AcDbArc
 50
90.0
 51
168.2490597844
  0
ARC
  5
414
330
1F
100
AcDbEntity
  8
SLD-0
  6
Continuous
 62
   179
370
    15
100
AcDbCircle
 10
115.2471603484
 20
47.2287477403
 30
0.0
 40
0.2000000000000371
100
AcDbArc
 50
90.0
 51
167.5708286672
  0
ARC
  5
415
330
1F
100
AcDbEntity
  8
SLD-0
  6
Continuous
 62
   179
370
    15
100
AcDbCircle
 10
115.5392703834
 20
52.8817477403
 30
0.0
 40
0.2000000000000099
100
AcDbArc
 50
186.5130915423
 51
270.0
  0
ARC
  5
416
330
1F
100
AcDbEntity
  8
SLD-0
  6
Continuous
 62
   179
370
    15
100
AcDbCircle
 10
98.4502798047
 20
50.9307477403
 30
0.0
 40
15.25000000000003
100
AcDbArc
 50
5.7595547094
 51
348.2490597844
  0
ARC
  5
417
330
1F
100
AcDbEntity
  8
SLD-0
  6
Continuous
 62
   179
370
    15
100
AcDbCircle
 10
98.4502798047
 20
50.9307477403
 30
0.0
 40
17.00000000000003
100
AcDbArc
 50
6.5130915423
 51
347.5708286672
  0
CIRCLE
  5
418
330
1F
100
AcDbEntity
  8
SLD-0
  6
Continuous
 62
   179
370
    15
100
AcDbCircle
 10
189.4502798047
 20
50.9307477403
 30
0.0
 40
2.50000000001188
  0
ARC
  5
419
330
1F
100
AcDbEntity
  8
SLD-0
  6
Continuous
 62
   179
370
    15
100
AcDbCircle
 10
189.4502798047
 20
50.9307477403
 30
0.0
 40
16.99999999998815
100
AcDbArc
 50
174.0846614313
 51
180.0102177466
  0
CIRCLE
  5
41A
330
1F
100
AcDbEntity
  8
SLD-0
  6
Continuous
 62
   179
370
    15
100
AcDbCircle
 10
98.4502798047
 20
50.9307477403
 30
0.0
 40
2.500000000011966
  0
SPLINE
  5
41B
330
1F
100
AcDbEntity
  8
SLD-0
  6
Continuous
 62
   179
370
    15
100
AcDbSpline
210
0.0
220
0.0
230
1.0
 70
     8
 71
     3
 72
    17
 73
    13
 74
     0
 42
0.00000001
 43
0.00000001
 40
0.4823904627986027
 40
0.4823904627986027
 40
0.4823904627986027
 40
0.4823904627986027
 40
0.5358919096097451
 40
0.5892763800091065
 40
0.6428547906089751
 40
0.6966360611285932
 40
0.7503133928212224
 40
0.8037436449605121
 40
0.8571673693389761
 40
0.910833919110431
 40
0.9646179786129203
 40
1.0
 40
1.0
 40
1.0
 40
1.0
 10
91.50120065208395
 20
184.2203698526951
 30
0.0
 10
91.52103645468846
 20
184.4153938124236
 30
0.0
 10
91.49988950552698
 20
184.8124393964126
 30
0.0
 10
91.2902447643456
 20
185.3632501916495
 30
0.0
 10
90.92955459899501
 20
185.8083161559532
 30
0.0
 10
90.46206940333329
 20
186.0974634206259
 30
0.0
 10
89.94551433756838
 20
186.1966178559502
 30
0.0
 10
89.4413426176665
 20
186.0953052797545
 30
0.0
 10
89.00264425363704
 20
185.8060067081853
 30
0.0
 10
88.67608493208454
 20
185.3602304770729
 30
0.0
 10
88.50433206334624
 20
184.8686021470988
 30
0.0
 10
88.4868350550439
 20
184.542586060805
 30
0.0
 10
88.47989206152229
 20
184.4132195121949
 30
0.0
  0
SPLINE
  5
41C
330
1F
100
AcDbEntity
  8
SLD-0
  6
Continuous
 62
   179
370
    15
100
AcDbSpline
210
0.0
220
0.0
230
1.0
 70
     8
 71
     3
 72
    16
 73
    12
 74
     0
 42
0.00000001
 43
0.00000001
 40
0.0
 40
0.0
 40
0.0
 40
0.0
 40
0.053494692160938
 40
0.1069825010610617
 40
0.1606487818226371
 40
0.2144326928860448
 40
0.2680234296378751
 40
0.3214131238110428
 40
0.3749042520592095
 40
0.4286425397474094
 40
0.4823904627986027
 40
0.4823904627986027
 40
0.4823904627986027
 40
0.4823904627986027
 10
88.47989206152229
 20
184.4132195121949
 30
0.0
 10
88.49553295986833
 20
184.21701711134
 30
0.0
 10
88.52681274401714
 20
183.8246375553555
 30
0.0
 10
88.77229113185835
 20
183.3020208147478
 30
0.0
 10
89.13963123984601
 20
182.9033243614065
 30
0.0
 10
89.60804804650724
 20
182.6741953388529
 30
0.0
 10
90.12340396068393
 20
182.6412975586046
 30
0.0
 10
90.62846857980043
 20
182.807036723659
 30
0.0
 10
91.06503098602
 20
183.1523419532427
 30
0.0
 10
91.38002460218752
 20
183.6401378813403
 30
0.0
 10
91.48127346776297
 20
184.0244474355383
 30
0.0
 10
91.50120065208395
 20
184.2203698526951
 30
0.0
  0
SPLINE
  5
41D
330
1F
100
AcDbEntity
  8
SLD-0
  6
Continuous
 62
   179
370
    15
100
AcDbSpline
210
0.0
220
0.0
230
1.0
 70
     8
 71
     3
 72
    17
 73
    13
 74
     0
 42
0.00000001
 43
0.00000001
 40
0.4823904627986028
 40
0.4823904627986028
 40
0.4823904627986028
 40
0.4823904627986028
 40
0.535891909609745
 40
0.5892763800091068
 40
0.6428547906089752
 40
0.6966360611285931
 40
0.750313392821222
 40
0.8037436449605126
 40
0.8571673693389762
 40
0.9108339191104314
 40
0.9646179786129203
 40
1.0
 40
1.0
 40
1.0
 40
1.0
 10
105.3993589572919
 20
184.6060691716947
 30
0.0
 10
105.3795231546874
 20
184.4110452119662
 30
0.0
 10
105.4006701038489
 20
184.0139996279771
 30
0.0
 10
105.6103148450303
 20
183.4631888327403
 30
0.0
 10
105.9710050103809
 20
183.0181228684366
 30
0.0
 10
106.4384902060426
 20
182.7289756037638
 30
0.0
 10
106.9550452718076
 20
182.6298211684397
 30
0.0
 10
107.4592169917094
 20
182.7311337446352
 30
0.0
 10
107.8979153557388
 20
183.0204323162044
 30
0.0
 10
108.2244746772914
 20
183.4662085473168
 30
0.0
 10
108.3962275460297
 20
183.957836877291
 30
0.0
 10
108.413724554332
 20
184.2838529635847
 30
0.0
 10
108.4206675478536
 20
184.4132195121949
 30
0.0
  0
SPLINE
  5
41E
330
1F
100
AcDbEntity
  8
SLD-0
  6
Continuous
 62
   179
370
    15
100
AcDbSpline
210
0.0
220
0.0
230
1.0
 70
     8
 71
     3
 72
    16
 73
    12
 74
     0
 42
0.00000001
 43
0.00000001
 40
0.0
 40
0.0
 40
0.0
 40
0.0
 40
0.0534946921609382
 40
0.1069825010610623
 40
0.1606487818226368
 40
0.2144326928860443
 40
0.2680234296378753
 40
0.321413123811044
 40
0.3749042520592095
 40
0.4286425397474093
 40
0.4823904627986028
 40
0.4823904627986028
 40
0.4823904627986028
 40
0.4823904627986028
 10
108.4206675478536
 20
184.4132195121949
 30
0.0
 10
108.4050266495076
 20
184.6094219130498
 30
0.0
 10
108.3737468653588
 20
185.0018014690343
 30
0.0
 10
108.1282684775176
 20
185.5244182096419
 30
0.0
 10
107.7609283695299
 20
185.9231146629833
 30
0.0
 10
107.2925115628687
 20
186.1522436855368
 30
0.0
 10
106.777155648692
 20
186.1851414657852
 30
0.0
 10
106.2720910295755
 20
186.0194023007308
 30
0.0
 10
105.8355286233558
 20
185.6740970711471
 30
0.0
 10
105.5205350071884
 20
185.1863011430495
 30
0.0
 10
105.4192861416129
 20
184.8019915888515
 30
0.0
 10
105.3993589572919
 20
184.6060691716947
 30
0.0
  0
SPLINE
  5
41F
330
1F
100
AcDbEntity
  8
SLD-0
  6
Continuous
 62
   179
370
    15
100
AcDbSpline
210
0.0
220
0.0
230
1.0
 70
     8
 71
     3
 72
    17
 73
    13
 74
     0
 42
0.00000001
 43
0.00000001
 40
0.4823904627986027
 40
0.4823904627986027
 40
0.4823904627986027
 40
0.4823904627986027
 40
0.535891909609745
 40
0.5892763800091069
 40
0.6428547906089755
 40
0.6966360611285929
 40
0.7503133928212219
 40
0.8037436449605119
 40
0.8571673693389759
 40
0.9108339191104308
 40
0.9646179786129203
 40
1.0
 40
1.0
 40
1.0
 40
1.0
 10
182.501200652084
 20
184.2203698526951
 30
0.0
 10
182.5210364546884
 20
184.4153938124236
 30
0.0
 10
182.499889505527
 20
184.8124393964126
 30
0.0
 10
182.2902447643456
 20
185.3632501916495
 30
0.0
 10
181.929554598995
 20
185.8083161559532
 30
0.0
 10
181.4620694033333
 20
186.0974634206259
 30
0.0
 10
180.9455143375683
 20
186.1966178559502
 30
0.0
 10
180.4413426176665
 20
186.0953052797545
 30
0.0
 10
180.002644253637
 20
185.8060067081853
 30
0.0
 10
179.6760849320846
 20
185.3602304770729
 30
0.0
 10
179.5043320633462
 20
184.8686021470988
 30
0.0
 10
179.4868350550439
 20
184.542586060805
 30
0.0
 10
179.4798920615223
 20
184.4132195121949
 30
0.0
  0
SPLINE
  5
420
330
1F
100
AcDbEntity
  8
SLD-0
  6
Continuous
 62
   179
370
    15
100
AcDbSpline
210
0.0
220
0.0
230
1.0
 70
     8
 71
     3
 72
    16
 73
    12
 74
     0
 42
0.00000001
 43
0.00000001
 40
0.0
 40
0.0
 40
0.0
 40
0.0
 40
0.0534946921609382
 40
0.1069825010610618
 40
0.1606487818226368
 40
0.2144326928860444
 40
0.2680234296378748
 40
0.3214131238110433
 40
0.3749042520592091
 40
0.4286425397474093
 40
0.4823904627986027
 40
0.4823904627986027
 40
0.4823904627986027
 40
0.4823904627986027
 10
179.4798920615223
 20
184.4132195121949
 30
0.0
 10
179.4955329598683
 20
184.21701711134
 30
0.0
 10
179.5268127440171
 20
183.8246375553555
 30
0.0
 10
179.7722911318583
 20
183.3020208147478
 30
0.0
 10
180.139631239846
 20
182.9033243614065
 30
0.0
 10
180.6080480465072
 20
182.6741953388529
 30
0.0
 10
181.1234039606839
 20
182.6412975586046
 30
0.0
 10
181.6284685798004
 20
182.807036723659
 30
0.0
 10
182.06503098602
 20
183.1523419532427
 30
0.0
 10
182.3800246021875
 20
183.6401378813403
 30
0.0
 10
182.4812734677629
 20
184.0244474355383
 30
0.0
 10
182.501200652084
 20
184.2203698526951
 30
0.0
  0
SPLINE
  5
421
330
1F
100
AcDbEntity
  8
SLD-0
  6
Continuous
 62
   179
370
    15
100
AcDbSpline
210
0.0
220
0.0
230
1.0
 70
     8
 71
     3
 72
    17
 73
    13
 74
     0
 42
0.00000001
 43
0.00000001
 40
0.482390462798603
 40
0.482390462798603
 40
0.482390462798603
 40
0.482390462798603
 40
0.5358919096097452
 40
0.5892763800091072
 40
0.6428547906089758
 40
0.6966360611285933
 40
0.7503133928212222
 40
0.8037436449605124
 40
0.857167369338976
 40
0.9108339191104314
 40
0.9646179786129204
 40
1.0
 40
1.0
 40
1.0
 40
1.0
 10
196.399358957292
 20
184.6060691716947
 30
0.0
 10
196.3795231546875
 20
184.4110452119662
 30
0.0
 10
196.4006701038489
 20
184.0139996279771
 30
0.0
 10
196.6103148450303
 20
183.4631888327403
 30
0.0
 10
196.9710050103809
 20
183.0181228684366
 30
0.0
 10
197.4384902060426
 20
182.7289756037638
 30
0.0
 10
197.9550452718075
 20
182.6298211684397
 30
0.0
 10
198.4592169917094
 20
182.7311337446352
 30
0.0
 10
198.8979153557389
 20
183.0204323162044
 30
0.0
 10
199.2244746772914
 20
183.4662085473168
 30
0.0
 10
199.3962275460297
 20
183.957836877291
 30
0.0
 10
199.413724554332
 20
184.2838529635847
 30
0.0
 10
199.4206675478536
 20
184.4132195121949
 30
0.0
  0
SPLINE
  5
422
330
1F
100
AcDbEntity
  8
SLD-0
  6
Continuous
 62
   179
370
    15
100
AcDbSpline
210
0.0
220
0.0
230
1.0
 70
     8
 71
     3
 72
    16
 73
    12
 74
     0
 42
0.00000001
 43
0.00000001
 40
0.0
 40
0.0
 40
0.0
 40
0.0
 40
0.0534946921609382
 40
0.106982501061062
 40
0.1606487818226367
 40
0.2144326928860447
 40
0.268023429637875
 40
0.3214131238110436
 40
0.3749042520592094
 40
0.4286425397474095
 40
0.482390462798603
 40
0.482390462798603
 40
0.482390462798603
 40
0.482390462798603
 10
199.4206675478536
 20
184.4132195121949
 30
0.0
 10
199.4050266495076
 20
184.6094219130498
 30
0.0
 10
199.3737468653588
 20
185.0018014690343
 30
0.0
 10
199.1282684775176
 20
185.5244182096419
 30
0.0
 10
198.7609283695299
 20
185.9231146629833
 30
0.0
 10
198.2925115628686
 20
186.1522436855368
 30
0.0
 10
197.777155648692
 20
186.1851414657852
 30
0.0
 10
197.2720910295755
 20
186.0194023007308
 30
0.0
 10
196.8355286233559
 20
185.6740970711471
 30
0.0
 10
196.5205350071884
 20
185.1863011430495
 30
0.0
 10
196.419286141613
 20
184.8019915888515
 30
0.0
 10
196.399358957292
 20
184.6060691716947
 30
0.0
  0
SPLINE
  5
423
330
1F
100
AcDbEntity
  8
SLD-0
  6
HIDDEN
 62
   179
370
     0
100
AcDbSpline
210
0.0
220
0.0
230
1.0
 70
     8
 71
     3
 72
     9
 73
     5
 74
     0
 42
0.00000001
 43
0.00000001
 40
0.0
 40
0.0
 40
0.0
 40
0.0
 40
0.5598122832018148
 40
1.0
 40
1.0
 40
1.0
 40
1.0
 10
106.6959774786151
 20
186.1250101045167
 30
0.0
 10
106.8400182013541
 20
186.1492029320567
 30
0.0
 10
107.0973200274505
 20
186.1924188961683
 30
0.0
 10
107.3330161157434
 20
186.0900446909487
 30
0.0
 10
107.4367666387073
 20
186.0449808232941
 30
0.0
  0
SPLINE
  5
424
330
1F
100
AcDbEntity
  8
SLD-0
  6
HIDDEN
 62
   179
370
     0
100
AcDbSpline
210
0.0
220
0.0
230
1.0
 70
     8
 71
     3
 72
     9
 73
     5
 74
     0
 42
0.00000001
 43
0.00000001
 40
0.0
 40
0.0
 40
0.0
 40
0.0
 40
0.5598122832005112
 40
1.0
 40
1.0
 40
1.0
 40
1.0
 10
90.20458213076073
 20
182.7014289198731
 30
0.0
 10
90.06054140802192
 20
182.6772360923331
 30
0.0
 10
89.80323958192527
 20
182.6340201282215
 30
0.0
 10
89.56754349363207
 20
182.7363943334413
 30
0.0
 10
89.46379297066774
 20
182.7814582010961
 30
0.0
  0
SPLINE
  5
425
330
1F
100
AcDbEntity
  8
SLD-0
  6
HIDDEN
 62
   179
370
     0
100
AcDbSpline
210
0.0
220
0.0
230
1.0
 70
     8
 71
     3
 72
    17
 73
    13
 74
     0
 42
0.00000001
 43
0.00000001
 40
0.474156326702543
 40
0.474156326702543
 40
0.474156326702543
 40
0.474156326702543
 40
0.5262143344454127
 40
0.5762576400712487
 40
0.6280266344894809
 40
0.6825718003457991
 40
0.7367767180995288
 40
0.7881945974290387
 40
0.8386590117990805
 40
0.8911150938541702
 40
0.9458791948276318
 40
0.9999999999999999
 40
0.9999999999999999
 40
0.9999999999999999
 40
0.9999999999999999
 10
99.30119447213454
 20
184.6983370558627
 30
0.0
 10
99.26839017723846
 20
184.5088593318504
 30
0.0
 10
99.26894443713057
 20
184.125419979134
 30
0.0
 10
99.46078323139619
 20
183.5834394440065
 30
0.0
 10
99.81190031238692
 20
183.1231871273357
 30
0.0
 10
100.2875005048872
 20
182.7893731175118
 30
0.0
 10
100.8165130437832
 20
182.6372926209761
 30
0.0
 10
101.3132527045092
 20
182.6838631983918
 30
0.0
 10
101.7324434125969
 20
182.9078799941852
 30
0.0
 10
102.0532647455984
 20
183.2914116262195
 30
0.0
 10
102.2668808224998
 20
183.8108014743298
 30
0.0
 10
102.2941463097882
 20
184.2132059728166
 30
0.0
 10
102.3076985107102
 20
184.4132195121949
 30
0.0
  0
SPLINE
  5
426
330
1F
100
AcDbEntity
  8
SLD-0
  6
HIDDEN
 62
   179
370
     0
100
AcDbSpline
210
0.0
220
0.0
230
1.0
 70
     8
 71
     3
 72
    16
 73
    12
 74
     0
 42
0.00000001
 43
0.00000001
 40
0.0
 40
0.0
 40
0.0
 40
0.0
 40
0.0514174478988955
 40
0.1027557328667236
 40
0.156115804438987
 40
0.2109977448677172
 40
0.2637740111831937
 40
0.3142881705689291
 40
0.3655204996617475
 40
0.4193949643496296
 40
0.474156326702543
 40
0.474156326702543
 40
0.474156326702543
 40
0.474156326702543
 10
102.3076985107102
 20
184.4132195121949
 30
0.0
 10
102.2954878998175
 20
184.6031703120316
 30
0.0
 10
102.2710854776379
 20
184.9827794611327
 30
0.0
 10
102.0756454576232
 20
185.4924225556128
 30
0.0
 10
101.7637255028571
 20
185.8961659906667
 30
0.0
 10
101.3310047754928
 20
186.1411251630421
 30
0.0
 10
100.8271243530232
 20
186.1887143493021
 30
0.0
 10
100.3180100680446
 20
186.0470239681252
 30
0.0
 10
99.85082355003756
 20
185.738441545092
 30
0.0
 10
99.47679106348673
 20
185.2798345828919
 30
0.0
 10
99.33570228289072
 20
184.8976542935429
 30
0.0
 10
99.30119447213454
 20
184.6983370558627
 30
0.0
  0
SPLINE
  5
427
330
1F
100
AcDbEntity
  8
SLD-0
  6
HIDDEN
 62
   179
370
     0
100
AcDbSpline
210
0.0
220
0.0
230
1.0
 70
     8
 71
     3
 72
    17
 73
    13
 74
     0
 42
0.00000001
 43
0.00000001
 40
0.4741563267025437
 40
0.4741563267025437
 40
0.4741563267025437
 40
0.4741563267025437
 40
0.5262143344454131
 40
0.5762576400712491
 40
0.6280266344894815
 40
0.6825718003457998
 40
0.7367767180995286
 40
0.788194597429039
 40
0.8386590117990811
 40
0.8911150938541702
 40
0.9458791948276319
 40
0.9999999999999999
 40
0.9999999999999999
 40
0.9999999999999999
 40
0.9999999999999999
 10
97.59936513724152
 20
184.1281019685271
 30
0.0
 10
97.6321694321376
 20
184.3175796925394
 30
0.0
 10
97.63161517224547
 20
184.7010190452558
 30
0.0
 10
97.43977637797984
 20
185.2429995803832
 30
0.0
 10
97.08865929698914
 20
185.7032518970541
 30
0.0
 10
96.61305910448891
 20
186.037065906878
 30
0.0
 10
96.08404656559283
 20
186.1891464034137
 30
0.0
 10
95.58730690486685
 20
186.142575825998
 30
0.0
 10
95.16811619677915
 20
185.9185590302046
 30
0.0
 10
94.84729486377769
 20
185.5350273981703
 30
0.0
 10
94.63367878687623
 20
185.01563755006
 30
0.0
 10
94.60641329958787
 20
184.6132330515731
 30
0.0
 10
94.59286109866586
 20
184.4132195121949
 30
0.0
  0
SPLINE
  5
428
330
1F
100
AcDbEntity
  8
SLD-0
  6
HIDDEN
 62
   179
370
     0
100
AcDbSpline
210
0.0
220
0.0
230
1.0
 70
     8
 71
     3
 72
    16
 73
    12
 74
     0
 42
0.00000001
 43
0.00000001
 40
0.0
 40
0.0
 40
0.0
 40
0.0
 40
0.0514174478988956
 40
0.1027557328667233
 40
0.1561158044389868
 40
0.2109977448677174
 40
0.2637740111831942
 40
0.3142881705689299
 40
0.3655204996617475
 40
0.4193949643496304
 40
0.4741563267025437
 40
0.4741563267025437
 40
0.4741563267025437
 40
0.4741563267025437
 10
94.59286109866586
 20
184.4132195121949
 30
0.0
 10
94.60507170955852
 20
184.2232687123582
 30
0.0
 10
94.62947413173809
 20
183.8436595632571
 30
0.0
 10
94.82491415175284
 20
183.334016468777
 30
0.0
 10
95.13683410651896
 20
182.9302730337231
 30
0.0
 10
95.5695548338832
 20
182.6853138613477
 30
0.0
 10
96.07343525635284
 20
182.6377246750877
 30
0.0
 10
96.58254954133142
 20
182.7794150562646
 30
0.0
 10
97.04973605933844
 20
183.0879974792978
 30
0.0
 10
97.42376854588933
 20
183.5466044414978
 30
0.0
 10
97.56485732648531
 20
183.9287847308469
 30
0.0
 10
97.59936513724152
 20
184.1281019685271
 30
0.0
  0
SPLINE
  5
429
330
1F
100
AcDbEntity
  8
SLD-0
  6
HIDDEN
 62
   179
370
     0
100
AcDbSpline
210
0.0
220
0.0
230
1.0
 70
     8
 71
     3
 72
     9
 73
     5
 74
     0
 42
0.00000001
 43
0.00000001
 40
0.0
 40
0.0
 40
0.0
 40
0.0
 40
0.5078461709589172
 40
1.0
 40
1.0
 40
1.0
 40
1.0
 10
100.9483311520984
 20
186.1444788227338
 30
0.0
 10
100.9936743730847
 20
186.1526493053664
 30
0.0
 10
101.0829597188828
 20
186.1687378044037
 30
0.0
 10
101.160203344584
 20
186.136610537733
 30
0.0
 10
101.1982190907418
 20
186.1207989804243
 30
0.0
  0
SPLINE
  5
42A
330
1F
100
AcDbEntity
  8
SLD-0
  6
HIDDEN
 62
   179
370
     0
100
AcDbSpline
210
0.0
220
0.0
230
1.0
 70
     8
 71
     3
 72
     9
 73
     5
 74
     0
 42
0.00000001
 43
0.00000001
 40
0.0
 40
0.0
 40
0.0
 40
0.0
 40
0.4765285676054583
 40
1.0
 40
1.0
 40
1.0
 40
1.0
 10
101.1811220043144
 20
182.7026503325657
 30
0.0
 10
101.146977316824
 20
182.688079584836
 30
0.0
 10
101.075324346128
 20
182.6575027239295
 30
0.0
 10
100.9920343224965
 20
182.6728170339273
 30
0.0
 10
100.9484343745219
 20
182.6808336377179
 30
0.0
  0
SPLINE
  5
42B
330
1F
100
AcDbEntity
  8
SLD-0
  6
HIDDEN
 62
   179
370
     0
100
AcDbSpline
210
0.0
220
0.0
230
1.0
 70
     8
 71
     3
 72
     9
 73
     5
 74
     0
 42
0.00000001
 43
0.00000001
 40
0.0
 40
0.0
 40
0.0
 40
0.0
 40
0.507846170959034
 40
1.0
 40
1.0
 40
1.0
 40
1.0
 10
95.95222845727777
 20
182.681960201656
 30
0.0
 10
95.90688523629147
 20
182.6737897190234
 30
0.0
 10
95.8175998904934
 20
182.657701219986
 30
0.0
 10
95.7403562647922
 20
182.6898284866569
 30
0.0
 10
95.70234051863437
 20
182.7056400439655
 30
0.0
  0
SPLINE
  5
42C
330
1F
100
AcDbEntity
  8
SLD-0
  6
HIDDEN
 62
   179
370
     0
100
AcDbSpline
210
0.0
220
0.0
230
1.0
 70
     8
 71
     3
 72
     9
 73
     5
 74
     0
 42
0.00000001
 43
0.00000001
 40
0.0
 40
0.0
 40
0.0
 40
0.0
 40
0.4765285676053367
 40
1.0
 40
1.0
 40
1.0
 40
1.0
 10
95.71943760506178
 20
186.1237886918241
 30
0.0
 10
95.7535822925522
 20
186.1383594395538
 30
0.0
 10
95.82523526324819
 20
186.1689363004603
 30
0.0
 10
95.90852528687971
 20
186.1536219904625
 30
0.0
 10
95.95212523485431
 20
186.1456053866719
 30
0.0
  0
SPLINE
  5
42D
330
1F
100
AcDbEntity
  8
SLD-0
  6
HIDDEN
 62
   179
370
     0
100
AcDbSpline
210
0.0
220
0.0
230
1.0
 70
     8
 71
     3
 72
     9
 73
     5
 74
     0
 42
0.00000001
 43
0.00000001
 40
0.0
 40
0.0
 40
0.0
 40
0.0
 40
0.8346156153076368
 40
1.0
 40
1.0
 40
1.0
 40
1.0
 10
197.695977478615
 20
186.1250101045167
 30
0.0
 10
197.8411261312069
 20
186.1566687125061
 30
0.0
 10
198.0150369111273
 20
186.1946006747277
 30
0.0
 10
198.1744558013824
 20
186.1348791020643
 30
0.0
 10
198.2008211964555
 20
186.1250020865165
 30
0.0
  0
SPLINE
  5
42E
330
1F
100
AcDbEntity
  8
SLD-0
  6
HIDDEN
 62
   179
370
     0
100
AcDbSpline
210
0.0
220
0.0
230
1.0
 70
     8
 71
     3
 72
     9
 73
     5
 74
     0
 42
0.00000001
 43
0.00000001
 40
0.0
 40
0.0
 40
0.0
 40
0.0
 40
0.5598122832005065
 40
1.0
 40
1.0
 40
1.0
 40
1.0
 10
181.2045821307607
 20
182.7014289198731
 30
0.0
 10
181.0605414080219
 20
182.6772360923331
 30
0.0
 10
180.8032395819252
 20
182.6340201282215
 30
0.0
 10
180.5675434936321
 20
182.7363943334413
 30
0.0
 10
180.4637929706677
 20
182.7814582010961
 30
0.0
  0
SPLINE
  5
42F
330
1F
100
AcDbEntity
  8
SLD-0
  6
HIDDEN
 62
   179
370
     0
100
AcDbSpline
210
0.0
220
0.0
230
1.0
 70
     8
 71
     3
 72
    17
 73
    13
 74
     0
 42
0.00000001
 43
0.00000001
 40
0.4741563267025432
 40
0.4741563267025432
 40
0.4741563267025432
 40
0.4741563267025432
 40
0.5262143344454128
 40
0.5762576400712487
 40
0.6280266344894809
 40
0.6825718003457997
 40
0.7367767180995285
 40
0.7881945974290386
 40
0.8386590117990811
 40
0.8911150938541702
 40
0.9458791948276318
 40
0.9999999999999999
 40
0.9999999999999999
 40
0.9999999999999999
 40
0.9999999999999999
 10
190.3011944721345
 20
184.6983370558627
 30
0.0
 10
190.2683901772384
 20
184.5088593318504
 30
0.0
 10
190.2689444371306
 20
184.125419979134
 30
0.0
 10
190.4607832313962
 20
183.5834394440066
 30
0.0
 10
190.8119003123869
 20
183.1231871273357
 30
0.0
 10
191.2875005048872
 20
182.7893731175118
 30
0.0
 10
191.8165130437832
 20
182.6372926209761
 30
0.0
 10
192.3132527045092
 20
182.6838631983918
 30
0.0
 10
192.7324434125969
 20
182.9078799941852
 30
0.0
 10
193.0532647455984
 20
183.2914116262195
 30
0.0
 10
193.2668808224998
 20
183.8108014743298
 30
0.0
 10
193.2941463097882
 20
184.2132059728166
 30
0.0
 10
193.3076985107102
 20
184.4132195121949
 30
0.0
  0
SPLINE
  5
430
330
1F
100
AcDbEntity
  8
SLD-0
  6
HIDDEN
 62
   179
370
     0
100
AcDbSpline
210
0.0
220
0.0
230
1.0
 70
     8
 71
     3
 72
    16
 73
    12
 74
     0
 42
0.00000001
 43
0.00000001
 40
0.0
 40
0.0
 40
0.0
 40
0.0
 40
0.0514174478988955
 40
0.1027557328667235
 40
0.1561158044389867
 40
0.2109977448677173
 40
0.2637740111831939
 40
0.3142881705689294
 40
0.3655204996617475
 40
0.4193949643496299
 40
0.4741563267025432
 40
0.4741563267025432
 40
0.4741563267025432
 40
0.4741563267025432
 10
193.3076985107102
 20
184.4132195121949
 30
0.0
 10
193.2954878998175
 20
184.6031703120316
 30
0.0
 10
193.271085477638
 20
184.9827794611327
 30
0.0
 10
193.0756454576232
 20
185.4924225556128
 30
0.0
 10
192.7637255028571
 20
185.8961659906667
 30
0.0
 10
192.3310047754928
 20
186.1411251630421
 30
0.0
 10
191.8271243530232
 20
186.1887143493021
 30
0.0
 10
191.3180100680446
 20
186.0470239681252
 30
0.0
 10
190.8508235500376
 20
185.738441545092
 30
0.0
 10
190.4767910634867
 20
185.2798345828919
 30
0.0
 10
190.3357022828907
 20
184.8976542935429
 30
0.0
 10
190.3011944721345
 20
184.6983370558627
 30
0.0
  0
SPLINE
  5
431
330
1F
100
AcDbEntity
  8
SLD-0
  6
HIDDEN
 62
   179
370
     0
100
AcDbSpline
210
0.0
220
0.0
230
1.0
 70
     8
 71
     3
 72
    17
 73
    13
 74
     0
 42
0.00000001
 43
0.00000001
 40
0.4741563267025434
 40
0.4741563267025434
 40
0.4741563267025434
 40
0.4741563267025434
 40
0.5262143344454129
 40
0.5762576400712487
 40
0.6280266344894809
 40
0.6825718003457997
 40
0.7367767180995285
 40
0.7881945974290386
 40
0.8386590117990811
 40
0.8911150938541702
 40
0.9458791948276319
 40
0.9999999999999999
 40
0.9999999999999999
 40
0.9999999999999999
 40
0.9999999999999999
 10
188.5993651372415
 20
184.1281019685271
 30
0.0
 10
188.6321694321376
 20
184.3175796925394
 30
0.0
 10
188.6316151722455
 20
184.7010190452558
 30
0.0
 10
188.4397763779799
 20
185.2429995803832
 30
0.0
 10
188.0886592969891
 20
185.7032518970541
 30
0.0
 10
187.6130591044889
 20
186.037065906878
 30
0.0
 10
187.0840465655928
 20
186.1891464034137
 30
0.0
 10
186.5873069048668
 20
186.142575825998
 30
0.0
 10
186.1681161967792
 20
185.9185590302046
 30
0.0
 10
185.8472948637777
 20
185.5350273981703
 30
0.0
 10
185.6336787868762
 20
185.01563755006
 30
0.0
 10
185.6064132995879
 20
184.6132330515731
 30
0.0
 10
185.5928610986658
 20
184.4132195121949
 30
0.0
  0
SPLINE
  5
432
330
1F
100
AcDbEntity
  8
SLD-0
  6
HIDDEN
 62
   179
370
     0
100
AcDbSpline
210
0.0
220
0.0
230
1.0
 70
     8
 71
     3
 72
    16
 73
    12
 74
     0
 42
0.00000001
 43
0.00000001
 40
0.0
 40
0.0
 40
0.0
 40
0.0
 40
0.0514174478988956
 40
0.1027557328667233
 40
0.1561158044389867
 40
0.2109977448677172
 40
0.2637740111831939
 40
0.3142881705689295
 40
0.3655204996617475
 40
0.41939496434963
 40
0.4741563267025434
 40
0.4741563267025434
 40
0.4741563267025434
 40
0.4741563267025434
 10
185.5928610986658
 20
184.4132195121949
 30
0.0
 10
185.6050717095585
 20
184.2232687123581
 30
0.0
 10
185.6294741317381
 20
183.8436595632571
 30
0.0
 10
185.8249141517528
 20
183.334016468777
 30
0.0
 10
186.136834106519
 20
182.9302730337231
 30
0.0
 10
186.5695548338832
 20
182.6853138613477
 30
0.0
 10
187.0734352563528
 20
182.6377246750877
 30
0.0
 10
187.5825495413314
 20
182.7794150562646
 30
0.0
 10
188.0497360593384
 20
183.0879974792978
 30
0.0
 10
188.4237685458893
 20
183.5466044414978
 30
0.0
 10
188.5648573264853
 20
183.9287847308469
 30
0.0
 10
188.5993651372415
 20
184.1281019685271
 30
0.0
  0
SPLINE
  5
433
330
1F
100
AcDbEntity
  8
SLD-0
  6
HIDDEN
 62
   179
370
     0
100
AcDbSpline
210
0.0
220
0.0
230
1.0
 70
     8
 71
     3
 72
     9
 73
     5
 74
     0
 42
0.00000001
 43
0.00000001
 40
0.0
 40
0.0
 40
0.0
 40
0.0
 40
0.5078461709589168
 40
1.0
 40
1.0
 40
1.0
 40
1.0
 10
191.9483311520984
 20
186.1444788227338
 30
0.0
 10
191.9936743730847
 20
186.1526493053664
 30
0.0
 10
192.0829597188828
 20
186.1687378044037
 30
0.0
 10
192.160203344584
 20
186.136610537733
 30
0.0
 10
192.1982190907419
 20
186.1207989804243
 30
0.0
  0
SPLINE
  5
434
330
1F
100
AcDbEntity
  8
SLD-0
  6
HIDDEN
 62
   179
370
     0
100
AcDbSpline
210
0.0
220
0.0
230
1.0
 70
     8
 71
     3
 72
     9
 73
     5
 74
     0
 42
0.00000001
 43
0.00000001
 40
0.0
 40
0.0
 40
0.0
 40
0.0
 40
0.4765285676054461
 40
1.0
 40
1.0
 40
1.0
 40
1.0
 10
192.1811220043144
 20
182.7026503325657
 30
0.0
 10
192.146977316824
 20
182.688079584836
 30
0.0
 10
192.075324346128
 20
182.6575027239295
 30
0.0
 10
191.9920343224965
 20
182.6728170339273
 30
0.0
 10
191.9484343745219
 20
182.6808336377179
 30
0.0
  0
SPLINE
  5
435
330
1F
100
AcDbEntity
  8
SLD-0
  6
HIDDEN
 62
   179
370
     0
100
AcDbSpline
210
0.0
220
0.0
230
1.0
 70
     8
 71
     3
 72
     9
 73
     5
 74
     0
 42
0.00000001
 43
0.00000001
 40
0.0
 40
0.0
 40
0.0
 40
0.0
 40
0.5078461709590353
 40
1.0
 40
1.0
 40
1.0
 40
1.0
 10
186.9522284572778
 20
182.681960201656
 30
0.0
 10
186.9068852362915
 20
182.6737897190234
 30
0.0
 10
186.8175998904934
 20
182.657701219986
 30
0.0
 10
186.7403562647922
 20
182.6898284866569
 30
0.0
 10
186.7023405186344
 20
182.7056400439655
 30
0.0
  0
SPLINE
  5
436
330
1F
100
AcDbEntity
  8
SLD-0
  6
HIDDEN
 62
   179
370
     0
100
AcDbSpline
210
0.0
220
0.0
230
1.0
 70
     8
 71
     3
 72
     9
 73
     5
 74
     0
 42
0.00000001
 43
0.00000001
 40
0.0
 40
0.0
 40
0.0
 40
0.0
 40
0.4765285676053367
 40
1.0
 40
1.0
 40
1.0
 40
1.0
 10
186.7194376050618
 20
186.1237886918241
 30
0.0
 10
186.7535822925522
 20
186.1383594395538
 30
0.0
 10
186.8252352632482
 20
186.1689363004603
 30
0.0
 10
186.9085252868797
 20
186.1536219904625
 30
0.0
 10
186.9521252348543
 20
186.1456053866719
 30
0.0
  0
INSERT
  5
437
330
1F
100
AcDbEntity
  8
0
  6
Continuous
 62
     7
100
AcDbBlockReference
  2
BLOCK1
 10
541.4182313337
 20
44.6220558263
 30
0.0
  0
INSERT
  5
438
330
1F
100
AcDbEntity
  8
0
  6
Continuous
 62
     7
100
AcDbBlockReference
  2
SW_NOTE_0
 10
483.1092156863
 20
57.069489643
 30
0.0
  0
INSERT
  5
439
330
1F
100
AcDbEntity
  8
0
  6
Continuous
 62
     7
100
AcDbBlockReference
  2
SW_NOTE_1
 10
402.3936687456
 20
56.9873698743
 30
0.0
  0
INSERT
  5
43A
330
1F
100
AcDbEntity
  8
0
  6
Continuous
 62
     7
100
AcDbBlockReference
  2
SW_CENTERMARKSYMBOL_0
 10
238.9502798047
 20
357.1632195122
 30
0.0
  0
INSERT
  5
43B
330
1F
100
AcDbEntity
  8
0
  6
Continuous
 62
     7
100
AcDbBlockReference
  2
SW_CENTERMARKSYMBOL_1
 10
223.9502798047
 20
322.1632195122
 30
0.0
  0
INSERT
  5
43C
330
1F
100
AcDbEntity
  8
0
  6
Continuous
 62
     7
100
AcDbBlockReference
  2
SW_CENTERMARKSYMBOL_2
 10
234.4502798047
 20
276.6632195122
 30
0.0
  0
INSERT
  5
43D
330
1F
100
AcDbEntity
  8
0
  6
Continuous
 62
     7
100
AcDbBlockReference
  2
SW_CENTERMARKSYMBOL_3
 10
223.9502798047
 20
231.1632195122
 30
0.0
  0
INSERT
  5
43E
330
1F
100
AcDbEntity
  8
0
  6
Continuous
 62
     7
100
AcDbBlockReference
  2
SW_CENTERMARKSYMBOL_4
 10
238.9502798047
 20
196.1632195122
 30
0.0
  0
INSERT
  5
43F
330
1F
100
AcDbEntity
  8
0
  6
Continuous
 62
     7
100
AcDbBlockReference
  2
_CLOSED
 10
263.0541559329
 20
276.6632195122
 30
0.0
 41
6.0
 42
6.0
 43
6.0
 50
-90.0
  0
INSERT
  5
440
330
1F
100
AcDbEntity
  8
0
  6
Continuous
 62
     7
100
AcDbBlockReference
  2
_CLOSED
 10
55.0449601666
 20
276.6632195122
 30
0.0
 41
6.0
 42
6.0
 43
6.0
 50
-90.0
  0
INSERT
  5
441
330
1F
100
AcDbEntity
  8
0
  6
Continuous
 62
     7
100
AcDbBlockReference
  2
SW_CENTERMARKSYMBOL_6
 10
189.4502798047
 20
50.9307477403
 30
0.0
  0
INSERT
  5
442
330
1F
100
AcDbEntity
  8
0
  6
Continuous
 62
     7
100
AcDbBlockReference
  2
SW_CENTERMARKSYMBOL_5
 10
98.4502798047
 20
50.9307477403
 30
0.0
  0
HATCH
  5
443
330
1F
100
AcDbEntity
  8
0
  6
Continuous
 62
   179
100
AcDbHatch
 10
0.0
 20
0.0
 30
0.0
210
0.0
220
0.0
230
1.0
  2
ANSI31
 70
     0
 71
     0
 91
        1
 92
        0
 93
       12
 72
     2
 10
115.31471276284
 20
52.63174774034667
 40
1.700000000000024
 50
185.7595547094184
 51
270.0000000000008
 73
     1
 72
     1
 10
115.31471276284
 20
50.93174774034666
 11
171.9502798046881
 21
50.93174774034666
 72
     1
 10
171.9502798046881
 20
50.93174774034666
 11
171.9502798046881
 21
52.68174774034666
 72
     1
 10
171.9502798046881
 20
52.68174774034666
 11
115.5392703834203
 21
52.68174774034666
 72
     2
 10
115.5392703834203
 20
52.88174774034667
 40
0.2000000000000009
 50
90.0
 51
173.4869084577022
 73
     0
 72
     2
 10
98.45027980468804
 20
50.93074774034667
 40
17.00000000000001
 50
6.513091542299021
 51
347.5708286672307
 73
     1
 72
     2
 10
115.2471603484081
 20
47.22874774034666
 40
0.2000000000000167
 50
192.4291713328394
 51
270.0000000000008
 73
     0
 72
     1
 10
115.2471603484081
 20
47.42874774034668
 11
171.9502798046881
 21
47.42874774034666
 72
     1
 10
171.9502798046881
 20
47.42874774034666
 11
171.9502798046881
 21
49.17874774034666
 72
     1
 10
171.9502798046881
 20
49.17874774034666
 11
115.0450439187091
 21
49.17874774034666
 72
     2
 10
115.0450439187091
 20
47.47874774034666
 40
1.700000000000003
 50
90.0
 51
168.2490597844406
 73
     1
 72
     2
 10
98.45027980468804
 20
50.93074774034667
 40
15.25000000000002
 50
11.75094021555941
 51
354.2404452905914
 73
     0
 97
        0
 75
     0
 76
     1
 52
0.0
 41
1.0
 77
     0
 78
     1
 53
45.0
 43
0.0
 44
0.0
 45
-2.245064030267288
 46
2.245064030267288
 79
     0
 98
        1
 10
0.0
 20
0.0
  0
HATCH
  5
444
330
1F
100
AcDbEntity
  8
0
  6
Continuous
 62
   179
100
AcDbHatch
 10
0.0
 20
0.0
 30
0.0
210
0.0
220
0.0
230
1.0
  2
ANSI31
 70
     0
 71
     0
 91
        1
 92
        0
 93
       12
 72
     1
 10
172.3612892259558
 20
50.92974774034668
 11
115.9502798046881
 21
50.92974774034666
 72
     1
 10
115.9502798046881
 20
50.92974774034666
 11
115.9502798046881
 21
49.17974774034666
 72
     1
 10
115.9502798046881
 20
49.17974774034666
 11
172.3612892259558
 21
49.17974774034666
 72
     2
 10
172.3612892259558
 20
48.97974774034666
 40
0.1999999999999974
 50
270.0000000000008
 51
353.4869084577034
 73
     0
 72
     2
 10
189.4502798046881
 20
50.93074774034667
 40
17.00000000000003
 50
186.5130915422998
 51
527.5708286672307
 73
     1
 72
     2
 10
172.653399260968
 20
54.63274774034667
 40
0.2000000000000457
 50
12.42917133283288
 51
90.0
 73
     0
 72
     1
 10
172.653399260968
 20
54.43274774034663
 11
115.9502798046881
 21
54.43274774034667
 72
     1
 10
115.9502798046881
 20
54.43274774034667
 11
115.9502798046881
 21
52.68274774034667
 72
     1
 10
115.9502798046881
 20
52.68274774034667
 11
172.653399260968
 21
52.68274774034666
 72
     2
 10
172.653399260968
 20
54.63274774034667
 40
1.950000000000012
 50
270.0000000000008
 51
347.5708286672304
 73
     1
 72
     2
 10
189.4502798046881
 20
50.93074774034667
 40
15.25000000000005
 50
192.4291713327718
 51
533.4869084577025
 73
     0
 72
     2
 10
172.3612892259558
 20
48.97974774034666
 40
1.95000000000002
 50
6.513091542304602
 51
90.0
 73
     1
 97
        0
 75
     0
 76
     1
 52
0.0
 41
1.0
 77
     0
 78
     1
 53
45.0
 43
0.0
 44
0.0
 45
-2.245064030267288
 46
2.245064030267288
 79
     0
 98
        1
 10
0.0
 20
0.0
  0
HATCH
  5
445
330
1F
100
AcDbEntity
  8
0
  6
Continuous
 62
   179
100
AcDbHatch
 10
0.0
 20
0.0
 30
0.0
210
0.0
220
0.0
230
1.0
  2
ANSI31
 70
     0
 71
     0
 91
        1
 92
        0
 93
        9
 72
     1
 10
140.3502798046881
 20
58.10365057590376
 11
140.3502798046881
 21
59.43074774034667
 72
     1
 10
140.3502798046881
 20
59.43074774034667
 11
118.8745300969265
 21
59.43074774034669
 72
     2
 10
118.8745300969265
 20
59.63074774034668
 40
0.1999999999999959
 50
90.0
 51
156.9277302337579
 73
     0
 72
     2
 10
98.45027980468804
 20
50.93074774034667
 40
22.00000000000005
 50
23.0722697662446
 51
79.52431830360997
 73
     1
 72
     1
 10
102.4502798046881
 20
72.56405539313064
 11
101.9957343501426
 21
70.10572497804152
 72
     2
 10
98.45027980468804
 20
50.93074774034667
 40
19.50000000000001
 50
280.4756816963907
 51
336.9277302337571
 73
     0
 72
     2
 10
118.8745300969265
 20
59.63074774034668
 40
2.700000000000034
 50
203.0722697662513
 51
270.0000000000008
 73
     1
 72
     1
 10
118.8745300969265
 20
56.93074774034664
 11
139.4502798046881
 21
56.93074774034667
 72
     1
 10
139.4502798046881
 20
56.93074774034667
 11
140.3502798046881
 21
58.10365057590376
 97
        0
 75
     0
 76
     1
 52
0.0
 41
1.0
 77
     0
 78
     1
 53
45.0
 43
0.0
 44
0.0
 45
-2.245064030267288
 46
2.245064030267288
 79
     0
 98
        1
 10
0.0
 20
0.0
  0
HATCH
  5
446
330
1F
100
AcDbEntity
  8
0
  6
Continuous
 62
   179
100
AcDbHatch
 10
0.0
 20
0.0
 30
0.0
210
0.0
220
0.0
230
1.0
  2
ANSI31
 70
     0
 71
     0
 91
        1
 92
        0
 93
        5
 72
     1
 10
146.5502798046881
 20
59.43074774034667
 11
146.5502798046881
 21
58.10365057590376
 72
     1
 10
146.5502798046881
 20
58.10365057590376
 11
147.4502798046881
 21
56.93074774034667
 72
     1
 10
147.4502798046881
 20
56.93074774034667
 11
163.9502798046881
 21
56.93074774034667
 72
     1
 10
163.9502798046881
 20
56.93074774034667
 11
163.9502798046881
 21
59.43074774034667
 72
     1
 10
163.9502798046881
 20
59.43074774034667
 11
146.5502798046881
 21
59.43074774034667
 97
        0
 75
     0
 76
     1
 52
0.0
 41
1.0
 77
     0
 78
     1
 53
45.0
 43
0.0
 44
0.0
 45
-2.245064030267288
 46
2.245064030267288
 79
     0
 98
        1
 10
0.0
 20
0.0
  0
HATCH
  5
447
330
1F
100
AcDbEntity
  8
0
  6
Continuous
 62
   179
100
AcDbHatch
 10
0.0
 20
0.0
 30
0.0
210
0.0
220
0.0
230
1.0
  2
ANSI31
 70
     0
 71
     0
 91
        1
 92
        0
 93
        9
 72
     1
 10
231.3502798046881
 20
58.10365057590375
 11
231.3502798046881
 21
59.43074774034667
 72
     1
 10
231.3502798046881
 20
59.43074774034667
 11
209.8745300969264
 21
59.43074774034667
 72
     2
 10
209.8745300969264
 20
59.63074774034666
 40
0.2000000000000037
 50
90.0
 51
156.9277302337582
 73
     0
 72
     2
 10
189.4502798046881
 20
50.93074774034667
 40
21.99999999999995
 50
23.07226976624476
 51
79.52431830361
 73
     1
 72
     1
 10
193.4502798046881
 20
72.56405539313054
 11
192.9957343501426
 21
70.10572497804152
 72
     2
 10
189.4502798046881
 20
50.93074774034667
 40
19.49999999999999
 50
280.4756816963906
 51
336.927730233757
 73
     0
 72
     2
 10
209.8745300969264
 20
59.63074774034666
 40
2.699999999999963
 50
203.0722697662519
 51
270.0000000000008
 73
     1
 72
     1
 10
209.8745300969264
 20
56.9307477403467
 11
230.4502798046881
 21
56.93074774034666
 72
     1
 10
230.4502798046881
 20
56.93074774034666
 11
231.3502798046881
 21
58.10365057590375
 97
        0
 75
     0
 76
     1
 52
0.0
 41
1.0
 77
     0
 78
     1
 53
45.0
 43
0.0
 44
0.0
 45
-2.245064030267288
 46
2.245064030267288
 79
     0
 98
        1
 10
0.0
 20
0.0
  0
HATCH
  5
448
330
1F
100
AcDbEntity
  8
0
  6
Continuous
 62
   179
100
AcDbHatch
 10
0.0
 20
0.0
 30
0.0
210
0.0
220
0.0
230
1.0
  2
ANSI31
 70
     0
 71
     0
 91
        1
 92
        0
 93
        5
 72
     1
 10
237.5502798046881
 20
59.43074774034667
 11
237.5502798046881
 21
58.10365057590375
 72
     1
 10
237.5502798046881
 20
58.10365057590375
 11
238.4502798046881
 21
56.93074774034667
 72
     1
 10
238.4502798046881
 20
56.93074774034667
 11
254.9502798046882
 21
56.93074774034666
 72
     1
 10
254.9502798046882
 20
56.93074774034666
 11
254.9502798046882
 21
59.43074774034667
 72
     1
 10
254.9502798046882
 20
59.43074774034667
 11
237.5502798046881
 21
59.43074774034667
 97
        0
 75
     0
 76
     1
 52
0.0
 41
1.0
 77
     0
 78
     1
 53
45.0
 43
0.0
 44
0.0
 45
-2.245064030267288
 46
2.245064030267288
 79
     0
 98
        1
 10
0.0
 20
0.0
  0
POINT
  5
449
330
1F
100
AcDbEntity
  8
SLD-0
100
AcDbPoint
 10
98.4502798047
 20
166.6632195122
 30
0.0
  0
POINT
  5
44A
330
1F
100
AcDbEntity
  8
SLD-0
100
AcDbPoint
 10
98.4502798047
 20
386.6632195122
 30
0.0
  0
DIMENSION
  5
44B
330
1F
100
AcDbEntity
  8
SLD-0
 62
   179
100
AcDbDimension
  2
*D13
 10
33.5020128782
 20
386.6632195122
 30
0.0
 11
33.5020128782
 21
276.3758561213
 31
0.0
 70
   160
 71
     2
 42
-1.0
  3
SLDDIMSTYLE0
100
AcDbAlignedDimension
 13
98.4502798047
 23
166.6632195122
 33
0.0
 14
98.4502798047
 24
386.6632195122
 34
0.0
 50
90.0
100
AcDbRotatedDimension
  0
DIMENSION
  5
460
330
1F
100
AcDbEntity
  8
SLD-0
 62
   179
100
AcDbDimension
  2
*D14
 10
280.1913074958
 20
322.1632195122
 30
0.0
 11
280.1913074958
 21
276.3758561213
 31
0.0
 70
   160
 71
     2
 42
-1.0
  3
SLDDIMSTYLE0
100
AcDbAlignedDimension
 13
230.4502798047
 23
231.1632195122
 33
0.0
 14
230.4502798047
 24
322.1632195122
 34
0.0
 50
90.0
100
AcDbRotatedDimension
  0
DIMENSION
  5
470
330
1F
100
AcDbEntity
  8
SLD-0
 62
   179
100
AcDbDimension
  2
*D15
 10
288.9502798047
 20
357.1632195122
 30
0.0
 11
288.9502798047
 21
276.6632195122
 31
0.0
 70
   160
 71
     2
 42
-1.0
  3
SLDDIMSTYLE0
100
AcDbAlignedDimension
 13
245.4502798047
 23
196.1632195122
 33
0.0
 14
245.4502798047
 24
357.1632195122
 34
0.0
 50
90.0
100
AcDbRotatedDimension
  0
DIMENSION
  5
480
330
1F
100
AcDbEntity
  8
SLD-0
 62
   179
100
AcDbDimension
  2
*D16
 10
294.9502798047
 20
376.6632195122
 30
0.0
 11
294.9502798047
 21
276.6632195122
 31
0.0
 70
   160
 71
     2
 42
-1.0
  3
SLDDIMSTYLE0
100
AcDbAlignedDimension
 13
252.4502798047
 23
176.6632195122
 33
0.0
 14
252.4502798047
 24
376.6632195122
 34
0.0
 50
90.0
100
AcDbRotatedDimension
  0
DIMENSION
  5
490
330
1F
100
AcDbEntity
  8
SLD-0
 62
   179
100
AcDbDimension
  2
*D17
 10
254.9502798047
 20
156.6632195122
 30
0.0
 11
246.9502798047
 21
156.6632195122
 31
0.0
 70
   160
 71
     2
 42
-1.0
  3
SLDDIMSTYLE0
100
AcDbAlignedDimension
 13
238.9502798047
 23
350.6632195122
 33
0.0
 14
254.9502798047
 24
179.1632195122
 34
0.0
100
AcDbRotatedDimension
  0
DIMENSION
  5
4A2
330
1F
100
AcDbEntity
  8
SLD-0
 62
   179
100
AcDbDimension
  2
*D18
 10
254.9502798047
 20
144.6632195122
 30
0.0
 11
244.7002798047
 21
144.6632195122
 31
0.0
 70
   160
 71
     2
 42
-1.0
  3
SLDDIMSTYLE1
100
AcDbAlignedDimension
 13
234.4502798047
 23
270.1632195122
 33
0.0
 14
254.9502798047
 24
179.1632195122
 34
0.0
100
AcDbRotatedDimension
  0
DIMENSION
  5
4B5
330
1F
100
AcDbEntity
  8
SLD-0
 62
   179
100
AcDbDimension
  2
*D19
 10
254.9502798047
 20
138.6632195122
 30
0.0
 11
239.4502798047
 21
138.6632195122
 31
0.0
 70
   160
 71
     2
 42
-1.0
  3
SLDDIMSTYLE0
100
AcDbAlignedDimension
 13
223.9502798047
 23
315.6632195122
 33
0.0
 14
254.9502798047
 24
179.1632195122
 34
0.0
100
AcDbRotatedDimension
  0
DIMENSION
  5
4C5
330
1F
100
AcDbEntity
  8
SLD-0
 62
   179
100
AcDbDimension
  2
*D20
 10
254.9502798047
 20
126.6632195122
 30
0.0
 11
222.2002798047
 21
126.6632195122
 31
0.0
 70
   160
 71
     2
 42
-1.0
  3
SLDDIMSTYLE1
100
AcDbAlignedDimension
 13
189.4502798047
 23
162.895106503
 33
0.0
 14
254.9502798047
 24
179.1632195122
 34
0.0
100
AcDbRotatedDimension
  0
DIMENSION
  5
4D5
330
1F
100
AcDbEntity
  8
SLD-0
 62
   179
100
AcDbDimension
  2
*D21
 10
189.4502798047
 20
126.6632195122
 30
0.0
 11
153.1511608861
 21
126.6632195122
 31
0.0
 70
   160
 71
     2
 42
-1.0
  3
SLDDIMSTYLE0
100
AcDbAlignedDimension
 13
98.4502798047
 23
164.5558003999
 33
0.0
 14
189.4502798047
 24
162.895106503
 34
0.0
100
AcDbRotatedDimension
  0
DIMENSION
  5
4E5
330
1F
100
AcDbEntity
  8
SLD-0
 62
   179
100
AcDbDimension
  2
*D22
 10
45.5020128782
 20
367.1632195122
 30
0.0
 11
45.5020128782
 21
276.3758561213
 31
0.0
 70
   160
 71
     2
 42
-1.0
  3
SLDDIMSTYLE0
100
AcDbAlignedDimension
 13
81.4502798047
 23
192.1632195122
 33
0.0
 14
81.4502798047
 24
367.1632195122
 34
0.0
 50
90.0
100
AcDbRotatedDimension
  0
DIMENSION
  5
4F5
330
1F
100
AcDbEntity
  8
SLD-0
 62
   179
100
AcDbDimension
  2
*D23
 10
209.8745300969
 20
80.0929658505
 30
0.0
 11
231.4493401625
 21
80.0929658505
 31
0.0
 70
   160
 71
     2
 42
-1.0
  3
SLDDIMSTYLE0
100
AcDbAlignedDimension
 13
254.9502798047
 23
59.4307477403
 33
0.0
 14
209.8745300969
 24
59.4307477403
 34
0.0
100
AcDbRotatedDimension
  0
DIMENSION
  5
505
330
1F
100
AcDbEntity
  8
SLD-0
 62
   179
100
AcDbDimension
  2
*D24
 10
63.5020128782
 20
50.9307477403
 30
0.0
 11
63.5020128782
 21
72.3239476814
 31
0.0
 70
   160
 71
     2
 42
-1.0
  3
SLDDIMSTYLE1
100
AcDbAlignedDimension
 13
118.8745300969
 23
59.4307477403
 33
0.0
 14
78.9502798047
 24
50.9307477403
 34
0.0
 50
90.0
100
AcDbRotatedDimension
  0
DIMENSION
  5
516
330
1F
100
AcDbEntity
  8
SLD-0
 62
   179
100
AcDbDimension
  2
*D25
 10
98.4502798047
 20
50.9307477403
 30
0.0
 11
78.0784248063
 21
30.5588927419
 31
0.0
 70
   164
  1
%%c<><>
 71
     1
 42
-1.0
  3
SLDDIMSTYLE2
100
AcDbRadialDimension
 15
0.0
 25
0.0
 35
0.0
 40
0.0
  0
MTEXT
  5
523
330
1F
100
AcDbEntity
  8
SLD-0
 62
   179
100
AcDbMText
 10
271.1666746667
 20
413.5294413401
 30
0.0
 40
1.8520833333
 41
0.0
 71
     1
 72
     1
  1
6
  7
SLDTEXTSTYLE0
 73
     1
 44
1.0
  0
MTEXT
  5
524
330
1F
100
AcDbEntity
  8
SLD-0
 62
   179
100
AcDbMText
 10
6.6666666667
 20
236.0294413401
 30
0.0
 40
1.8520833333
 41
0.0
 71
     1
 72
     1
  1
D
  7
SLDTEXTSTYLE0
 73
     1
 44
1.0
  0
MTEXT
  5
525
330
1F
100
AcDbEntity
  8
SLD-0
 62
   179
100
AcDbMText
 10
6.6666666667
 20
286.0294413401
 30
0.0
 40
1.8520833333
 41
0.0
 71
     1
 72
     1
  1
C
  7
SLDTEXTSTYLE0
 73
     1
 44
1.0
  0
MTEXT
  5
526
330
1F
100
AcDbEntity
  8
SLD-0
 62
   179
100
AcDbMText
 10
6.6666666667
 20
336.0294413401
 30
0.0
 40
1.8520833333
 41
0.0
 71
     1
 72
     1
  1
B
  7
SLDTEXTSTYLE0
 73
     1
 44
1.0
  0
MTEXT
  5
527
330
1F
100
AcDbEntity
  8
SLD-0
 62
   179
100
AcDbMText
 10
6.6666666667
 20
386.0294413401
 30
0.0
 40
1.8520833333
 41
0.0
 71
     1
 72
     1
  1
A
  7
SLDTEXTSTYLE0
 73
     1
 44
1.0
  0
MTEXT
  5
528
330
1F
100
AcDbEntity
  8
SLD-0
 62
   179
100
AcDbMText
 10
6.6666666667
 20
186.0294413401
 30
0.0
 40
1.8520833333
 41
0.0
 71
     1
 72
     1
  1
E
  7
SLDTEXTSTYLE0
 73
     1
 44
1.0
  0
MTEXT
  5
529
330
1F
100
AcDbEntity
  8
SLD-0
 62
   179
100
AcDbMText
 10
6.6666666667
 20
136.0294413401
 30
0.0
 40
1.8520833333
 41
0.0
 71
     1
 72
     1
  1
F
  7
SLDTEXTSTYLE0
 73
     1
 44
1.0
  0
MTEXT
  5
52A
330
1F
100
AcDbEntity
  8
SLD-0
 62
   179
100
AcDbMText
 10
6.6666666667
 20
86.0294413401
 30
0.0
 40
1.8520833333
 41
0.0
 71
     1
 72
     1
  1
G
  7
SLDTEXTSTYLE0
 73
     1
 44
1.0
  0
MTEXT
  5
52B
330
1F
100
AcDbEntity
  8
SLD-0
 62
   179
100
AcDbMText
 10
6.6666666667
 20
36.0294413401
 30
0.0
 40
1.8520833333
 41
0.0
 71
     1
 72
     1
  1
H
  7
SLDTEXTSTYLE0
 73
     1
 44
1.0
  0
MTEXT
  5
52C
330
1F
100
AcDbEntity
  8
SLD-0
 62
   179
100
AcDbMText
 10
585.6666816667
 20
186.0294413401
 30
0.0
 40
1.8520833333
 41
0.0
 71
     1
 72
     1
  1
E
  7
SLDTEXTSTYLE0
 73
     1
 44
1.0
  0
MTEXT
  5
52D
330
1F
100
AcDbEntity
  8
SLD-0
 62
   179
100
AcDbMText
 10
585.6666816667
 20
386.0294413401
 30
0.0
 40
1.8520833333
 41
0.0
 71
     1
 72
     1
  1
A
  7
SLDTEXTSTYLE0
 73
     1
 44
1.0
  0
MTEXT
  5
52E
330
1F
100
AcDbEntity
  8
SLD-0
 62
   179
100
AcDbMText
 10
585.6666816667
 20
336.0294413401
 30
0.0
 40
1.8520833333
 41
0.0
 71
     1
 72
     1
  1
B
  7
SLDTEXTSTYLE0
 73
     1
 44
1.0
  0
MTEXT
  5
52F
330
1F
100
AcDbEntity
  8
SLD-0
 62
   179
100
AcDbMText
 10
585.6666816667
 20
286.0294413401
 30
0.0
 40
1.8520833333
 41
0.0
 71
     1
 72
     1
  1
C
  7
SLDTEXTSTYLE0
 73
     1
 44
1.0
  0
MTEXT
  5
530
330
1F
100
AcDbEntity
  8
SLD-0
 62
   179
100
AcDbMText
 10
585.6666816667
 20
236.0294413401
 30
0.0
 40
1.8520833333
 41
0.0
 71
     1
 72
     1
  1
D
  7
SLDTEXTSTYLE0
 73
     1
 44
1.0
  0
MTEXT
  5
531
330
1F
100
AcDbEntity
  8
SLD-0
 62
   179
100
AcDbMText
 10
585.6666816667
 20
136.0294413401
 30
0.0
 40
1.8520833333
 41
0.0
 71
     1
 72
     1
  1
F
  7
SLDTEXTSTYLE0
 73
     1
 44
1.0
  0
MTEXT
  5
532
330
1F
100
AcDbEntity
  8
SLD-0
 62
   179
100
AcDbMText
 10
221.1666746667
 20
413.5294413401
 30
0.0
 40
1.8520833333
 41
0.0
 71
     1
 72
     1
  1
5
  7
SLDTEXTSTYLE0
 73
     1
 44
1.0
  0
MTEXT
  5
533
330
1F
100
AcDbEntity
  8
SLD-0
 62
   179
100
AcDbMText
 10
171.1666746667
 20
413.5294413401
 30
0.0
 40
1.8520833333
 41
0.0
 71
     1
 72
     1
  1
4
  7
SLDTEXTSTYLE0
 73
     1
 44
1.0
  0
MTEXT
  5
534
330
1F
100
AcDbEntity
  8
SLD-0
 62
   179
100
AcDbMText
 10
121.1666746667
 20
413.5294413401
 30
0.0
 40
1.8520833333
 41
0.0
 71
     1
 72
     1
  1
3
  7
SLDTEXTSTYLE0
 73
     1
 44
1.0
  0
MTEXT
  5
535
330
1F
100
AcDbEntity
  8
SLD-0
 62
   179
100
AcDbMText
 10
71.1666746667
 20
413.5294413401
 30
0.0
 40
1.8520833333
 41
0.0
 71
     1
 72
     1
  1
2
  7
SLDTEXTSTYLE0
 73
     1
 44
1.0
  0
MTEXT
  5
536
330
1F
100
AcDbEntity
  8
SLD-0
 62
   179
100
AcDbMText
 10
21.5833413333
 20
413.5294413401
 30
0.0
 40
1.8520833333
 41
0.0
 71
     1
 72
     1
  1
1
  7
SLDTEXTSTYLE0
 73
     1
 44
1.0
  0
MTEXT
  5
537
330
1F
100
AcDbEntity
  8
SLD-0
 62
   179
100
AcDbMText
 10
321.1666746667
 20
413.5294413401
 30
0.0
 40
1.8520833333
 41
0.0
 71
     1
 72
     1
  1
7
  7
SLDTEXTSTYLE0
 73
     1
 44
1.0
  0
MTEXT
  5
538
330
1F
100
AcDbEntity
  8
SLD-0
 62
   179
100
AcDbMText
 10
371.1666746667
 20
413.5294413401
 30
0.0
 40
1.8520833333
 41
0.0
 71
     1
 72
     1
  1
8
  7
SLDTEXTSTYLE0
 73
     1
 44
1.0
  0
MTEXT
  5
539
330
1F
100
AcDbEntity
  8
SLD-0
 62
   179
100
AcDbMText
 10
421.1666746667
 20
413.5294413401
 30
0.0
 40
1.8520833333
 41
0.0
 71
     1
 72
     1
  1
9
  7
SLDTEXTSTYLE0
 73
     1
 44
1.0
  0
MTEXT
  5
53A
330
1F
100
AcDbEntity
  8
SLD-0
 62
   179
100
AcDbMText
 10
470.5416746667
 20
413.5294413401
 30
0.0
 40
1.8520833333
 41
0.0
 71
     1
 72
     1
  1
10
  7
SLDTEXTSTYLE0
 73
     1
 44
1.0
  0
MTEXT
  5
53B
330
1F
100
AcDbEntity
  8
SLD-0
 62
   179
100
AcDbMText
 10
520.750008
 20
413.5294413401
 30
0.0
 40
1.8520833333
 41
0.0
 71
     1
 72
     1
  1
11
  7
SLDTEXTSTYLE0
 73
     1
 44
1.0
  0
MTEXT
  5
53C
330
1F
100
AcDbEntity
  8
SLD-0
 62
   179
100
AcDbMText
 10
570.3333413333
 20
413.5294413401
 30
0.0
 40
1.8520833333
 41
0.0
 71
     1
 72
     1
  1
12
  7
SLDTEXTSTYLE0
 73
     1
 44
1.0
  0
MTEXT
  5
53D
330
1F
100
AcDbEntity
  8
SLD-0
 62
   179
100
AcDbMText
 10
21.5833413333
 20
8.5294413401
 30
0.0
 40
1.8520833333
 41
0.0
 71
     1
 72
     1
  1
1
  7
SLDTEXTSTYLE0
 73
     1
 44
1.0
  0
MTEXT
  5
53E
330
1F
100
AcDbEntity
  8
SLD-0
 62
   179
100
AcDbMText
 10
71.1666746667
 20
8.5294413401
 30
0.0
 40
1.8520833333
 41
0.0
 71
     1
 72
     1
  1
2
  7
SLDTEXTSTYLE0
 73
     1
 44
1.0
  0
MTEXT
  5
53F
330
1F
100
AcDbEntity
  8
SLD-0
 62
   179
100
AcDbMText
 10
121.1666746667
 20
8.5294413401
 30
0.0
 40
1.8520833333
 41
0.0
 71
     1
 72
     1
  1
3
  7
SLDTEXTSTYLE0
 73
     1
 44
1.0
  0
MTEXT
  5
540
330
1F
100
AcDbEntity
  8
SLD-0
 62
   179
100
AcDbMText
 10
171.1666746667
 20
8.5294413401
 30
0.0
 40
1.8520833333
 41
0.0
 71
     1
 72
     1
  1
4
  7
SLDTEXTSTYLE0
 73
     1
 44
1.0
  0
MTEXT
  5
541
330
1F
100
AcDbEntity
  8
SLD-0
 62
   179
100
AcDbMText
 10
221.1666746667
 20
8.5294413401
 30
0.0
 40
1.8520833333
 41
0.0
 71
     1
 72
     1
  1
5
  7
SLDTEXTSTYLE0
 73
     1
 44
1.0
  0
MTEXT
  5
542
330
1F
100
AcDbEntity
  8
SLD-0
 62
   179
100
AcDbMText
 10
271.1666746667
 20
8.5294413401
 30
0.0
 40
1.8520833333
 41
0.0
 71
     1
 72
     1
  1
6
  7
SLDTEXTSTYLE0
 73
     1
 44
1.0
  0
MTEXT
  5
543
330
1F
100
AcDbEntity
  8
SLD-0
 62
   179
100
AcDbMText
 10
321.1666746667
 20
8.5294413401
 30
0.0
 40
1.8520833333
 41
0.0
 71
     1
 72
     1
  1
7
  7
SLDTEXTSTYLE0
 73
     1
 44
1.0
  0
MTEXT
  5
544
330
1F
100
AcDbEntity
  8
SLD-0
 62
   179
100
AcDbMText
 10
371.1666746667
 20
8.5294413401
 30
0.0
 40
1.8520833333
 41
0.0
 71
     1
 72
     1
  1
8
  7
SLDTEXTSTYLE0
 73
     1
 44
1.0
  0
MTEXT
  5
545
330
1F
100
AcDbEntity
  8
SLD-0
 62
   179
100
AcDbMText
 10
585.2515577191
 20
85.6847542747
 30
0.0
 40
1.8520833333
 41
0.0
 71
     1
 72
     1
  1
G
  7
SLDTEXTSTYLE0
 73
     1
 44
1.0
  0
MTEXT
  5
546
330
1F
100
AcDbEntity
  8
SLD-0
 62
   179
100
AcDbMText
 10
502.3184166392
 20
33.6005199128
 30
0.0
 40
5.2916666667
 41
0.0
 71
     1
 72
     1
  1
Pendeltürband Nr. 42
  7
SLDTEXTSTYLE0
 73
     1
 44
1.0
  0
MTEXT
  5
547
330
1F
100
AcDbEntity
  8
SLD-0
 62
   179
100
AcDbMText
 10
521.4783577483
 20
18.2099395192
 30
0.0
 40
6.35
 41
0.0
 71
     1
 72
     1
  1
Ka-S 009-4
  7
SLDTEXTSTYLE0
 73
     1
 44
1.0
  0
MTEXT
  5
548
330
1F
100
AcDbEntity
  8
SLD-0
 62
   179
100
AcDbMText
 10
446.6389464519
 20
37.4469732247
 30
0.0
 40
1.4986
 41
0.0
 71
     1
 72
     1
  1
02.02.2011
  7
SLDTEXTSTYLE0
 73
     1
 44
1.0
  0
MTEXT
  5
549
330
1F
100
AcDbEntity
  8
SLD-0
 62
   179
100
AcDbMText
 10
417.1600021516
 20
37.2712385358
 30
0.0
 40
1.4986
 41
0.0
 71
     1
 72
     1
  1
Wks
  7
SLDTEXTSTYLE0
 73
     1
 44
1.0
  0
MTEXT
  5
54A
330
1F
100
AcDbEntity
  8
SLD-0
 62
   179
100
AcDbMText
 10
457.4178111281
 20
7.8371849315
 30
0.0
 40
1.4986
 41
0.0
 71
     1
 72
     1
  1
GEWICHT: 
  7
SLDTEXTSTYLE0
 73
     1
 44
1.0
  0
MTEXT
  5
54B
330
1F
100
AcDbEntity
  8
SLD-0
 62
   179
100
AcDbMText
 10
579.9209848464
 20
19.0826839217
 30
0.0
 40
2.9104166667
 41
0.0
 71
     1
 72
     1
  1
A2
  7
SLDTEXTSTYLE0
 73
     1
 44
1.0
  0
MTEXT
  5
54D
330
1F
100
AcDbEntity
  8
SLD-0
 62
   179
100
AcDbMText
 10
546.2782944278
 20
7.7878555531
 30
0.0
 40
1.5
 41
0.0
 71
     1
 72
     1
  1
BLATT 1 VON 1
  7
SLDTEXTSTYLE2
 73
     1
 44
1.0
  0
MTEXT
  5
54E
330
1F
100
AcDbEntity
  8
SLD-0
 62
   179
100
AcDbMText
 10
501.8739661175
 20
7.7878555531
 30
0.0
 40
1.5
 41
0.0
 71
     1
 72
     1
  1
MASSSTAB:1:1
  7
SLDTEXTSTYLE0
 73
     1
 44
1.0
  0
MTEXT
  5
54F
330
1F
100
AcDbEntity
  8
SLD-0
 62
   179
100
AcDbMText
 10
501.8739661175
 20
19.7564061056
 30
0.0
 40
1.5
 41
0.0
 71
     1
 72
     1
  1
ZEICHNUNGSNR.
  7
SLDTEXTSTYLE0
 73
     1
 44
1.0
  0
MTEXT
  5
550
330
1F
100
AcDbEntity
  8
SLD-0
 62
   179
100
AcDbMText
 10
501.7561869366
 20
41.1661025646
 30
0.0
 40
1.5
 41
0.0
 71
     1
 72
     1
  1
BENENNUNG:
  7
SLDTEXTSTYLE0
 73
     1
 44
1.0
  0
MTEXT
  5
551
330
1F
100
AcDbEntity
  8
SLD-0
 62
   179
100
AcDbMText
 10
555.1275816993
 20
57.2226769591
 30
0.0
 40
1.5
 41
0.0
 71
     1
 72
     1
  1
ÄNDERUNG
  7
SLDTEXTSTYLE0
 73
     1
 44
1.0
  0
MTEXT
  5
552
330
1F
100
AcDbEntity
  8
SLD-0
 62
   179
100
AcDbMText
 10
514.4146405229
 20
57.4207618537
 30
0.0
 40
1.5
 41
0.0
 71
     1
 72
     1
  1
ZEICHNUNG NICHT SKALIEREN
  7
SLDTEXTSTYLE0
 73
     1
 44
1.0
  0
MTEXT
  5
553
330
1F
100
AcDbEntity
  8
SLD-0
 62
   179
100
AcDbMText
 10
457.4458623088
 20
20.8738245678
 30
0.0
 40
1.5
 41
0.0
 71
     1
 72
     1
  1
WERKSTOFF:
  7
SLDTEXTSTYLE0
 73
     1
 44
1.0
  0
MTEXT
  5
554
330
1F
100
AcDbEntity
  8
SLD-0
 62
   179
100
AcDbMText
 10
449.0147019657
 20
41.4639474998
 30
0.0
 40
1.5
 41
0.0
 71
     1
 72
     1
  1
DATUM
  7
SLDTEXTSTYLE0
 73
     1
 44
1.0
  0
MTEXT
  5
555
330
1F
100
AcDbEntity
  8
SLD-0
 62
   179
100
AcDbMText
 10
431.8335875632
 20
41.4495246581
 30
0.0
 40
1.5
 41
0.0
 71
     1
 72
     1
  1
SIGNATUR
  7
SLDTEXTSTYLE0
 73
     1
 44
1.0
  0
MTEXT
  5
556
330
1F
100
AcDbEntity
  8
SLD-0
 62
   179
100
AcDbMText
 10
416.1222392177
 20
41.3892509121
 30
0.0
 40
1.5
 41
0.0
 71
     1
 72
     1
  1
NAME
  7
SLDTEXTSTYLE0
 73
     1
 44
1.0
  0
MTEXT
  5
557
330
1F
100
AcDbEntity
  8
SLD-0
 62
   179
100
AcDbMText
 10
436.1712921668
 20
58.8070402737
 30
0.0
 40
1.5
 41
0.0
 71
     1
 72
     1
  1
OBERFLÄCHENGÜTE:
  7
SLDTEXTSTYLE0
 73
     1
 44
1.0
  0
MTEXT
  5
558
330
1F
100
AcDbEntity
  8
SLD-0
 62
   179
100
AcDbMText
 10
402.4690428622
 20
20.2374174859
 30
0.0
 40
1.5
 41
0.0
 71
     1
 72
     1
  1
QUALITÄT
  7
SLDTEXTSTYLE0
 73
     1
 44
1.0
  0
MTEXT
  5
559
330
1F
100
AcDbEntity
  8
SLD-0
 62
   179
100
AcDbMText
 10
402.2551864991
 20
24.6214729292
 30
0.0
 40
1.5
 41
0.0
 71
     1
 72
     1
  1
PRODUKTION
  7
SLDTEXTSTYLE0
 73
     1
 44
1.0
  0
MTEXT
  5
55A
330
1F
100
AcDbEntity
  8
SLD-0
 62
   179
100
AcDbMText
 10
402.2017224083
 20
28.9520642817
 30
0.0
 40
1.5
 41
0.0
 71
     1
 72
     1
  1
GENEHMIGT
  7
SLDTEXTSTYLE0
 73
     1
 44
1.0
  0
MTEXT
  5
55B
330
1F
100
AcDbEntity
  8
SLD-0
 62
   179
100
AcDbMText
 10
402.2104688676
 20
33.0421754386
 30
0.0
 40
1.5
 41
0.0
 71
     1
 72
     1
  1
GEPRÜFT
  7
SLDTEXTSTYLE0
 73
     1
 44
1.0
  0
MTEXT
  5
55C
330
1F
100
AcDbEntity
  8
SLD-0
 62
   179
100
AcDbMText
 10
402.0121492441
 20
37.3174831645
 30
0.0
 40
1.5
 41
0.0
 71
     1
 72
     1
  1
GEZEICHNET
  7
SLDTEXTSTYLE0
 73
     1
 44
1.0
  0
MTEXT
  5
55D
330
1F
100
AcDbEntity
  8
SLD-0
 62
   179
100
AcDbMText
 10
265.5585196402
 20
288.1881053083
 30
0.0
 40
6.35
 41
0.0
 71
     1
 72
     1
  1
A
  7
SLDTEXTSTYLE0
 73
     1
 44
1.0
  0
MTEXT
  5
55E
330
1F
100
AcDbEntity
  8
SLD-0
 62
   179
100
AcDbMText
 10
57.549323874
 20
288.1881053083
 30
0.0
 40
6.35
 41
0.0
 71
     1
 72
     1
  1
A
  7
SLDTEXTSTYLE0
 73
     1
 44
1.0
  0
MTEXT
  5
55F
330
1F
100
AcDbEntity
  8
SLD-0
 62
   179
100
AcDbMText
 10
142.2494793247
 20
24.2488866153
 30
0.0
 40
6.35
 41
0.0
 71
     1
 72
     1
  1
SCHNITT A-A
  7
SLDTEXTSTYLE0
 73
     1
 44
1.0
  0
ENDSEC
  0
SECTION
  2
OBJECTS
  0
DICTIONARY
  5
C
330
0
100
AcDbDictionary
281
     1
  3
ACAD_GROUP
350
D
  3
ACAD_LAYOUT
350
1A
  3
ACAD_MATERIAL
350
3B
  3
ACAD_MLEADERSTYLE
350
562
  3
ACAD_MLINESTYLE
350
17
  3
ACAD_PLOTSETTINGS
350
19
  3
ACAD_PLOTSTYLENAME
350
E
  3
ACAD_SCALELIST
350
187
  3
ACAD_VISUALSTYLE
350
2A
  3
AcDbVariableDictionary
350
560
  0
DICTIONARY
  5
D
102
{ACAD_REACTORS
330
C
102
}
330
C
100
AcDbDictionary
281
     1
  0
DICTIONARY
  5
1A
102
{ACAD_REACTORS
330
C
102
}
330
C
100
AcDbDictionary
281
     1
  3
Layout1
350
1E
  3
Layout2
350
26
  3
Model
350
22
  0
DICTIONARY
  5
3B
102
{ACAD_REACTORS
330
C
102
}
330
C
100
AcDbDictionary
281
     1
  3
ByBlock
350
3D
  3
ByLayer
350
3C
  3
Global
350
3E
  0
DICTIONARY
  5
562
102
{ACAD_REACTORS
330
C
102
}
330
C
100
AcDbDictionary
281
     1
  0
DICTIONARY
  5
17
102
{ACAD_REACTORS
330
C
102
}
330
C
100
AcDbDictionary
281
     1
  3
Standard
350
18
  0
DICTIONARY
  5
19
102
{ACAD_REACTORS
330
C
102
}
330
C
100
AcDbDictionary
281
     1
  0
ACDBDICTIONARYWDFLT
  5
E
102
{ACAD_REACTORS
330
C
102
}
330
C
100
AcDbDictionary
281
     1
  3
Normal
350
F
100
AcDbDictionaryWithDefault
340
F
  0
DICTIONARY
  5
187
102
{ACAD_REACTORS
330
C
102
}
330
C
100
AcDbDictionary
281
     1
  3
A0
350
188
  3
A1
350
189
  3
A2
350
18A
  3
A3
350
18B
  3
A4
350
18C
  3
A5
350
18D
  3
A6
350
18E
  3
A7
350
18F
  3
A8
350
190
  3
A9
350
191
  3
B0
350
192
  3
B1
350
193
  3
B2
350
194
  3
B3
350
195
  3
B4
350
196
  3
B5
350
197
  3
B6
350
198
  3
B7
350
199
  3
B8
350
19A
  3
B9
350
19B
  3
C0
350
19C
  3
C1
350
19D
  3
C2
350
19E
  3
C3
350
19F
  3
C4
350
1A0
  3
C5
350
1A1
  3
C6
350
1A2
  3
C7
350
1A3
  3
C8
350
1A4
  3
C9
350
1A5
  3
D0
350
1A6
  3
D1
350
1A7
  3
D2
350
1A8
  0
DICTIONARY
  5
2A
102
{ACAD_REACTORS
330
C
102
}
330
C
100
AcDbDictionary
281
     1
  3
2dWireframe
350
2F
  3
3D Hidden
350
31
  3
3dWireframe
350
30
  3
Basic
350
32
  3
Brighten
350
36
  3
ColorChange
350
3A
  3
Conceptual
350
34
  3
Dim
350
35
  3
Facepattern
350
39
  3
Flat
350
2B
  3
FlatWithEdges
350
2C
  3
Gouraud
350
2D
  3
GouraudWithEdges
350
2E
  3
Linepattern
350
38
  3
Realistic
350
33
  3
Thicken
350
37
  0
DICTIONARY
  5
560
102
{ACAD_REACTORS
330
C
102
}
330
C
100
AcDbDictionary
281
     1
  3
CANNOSCALE
350
565
  3
DIMASSOC
350
566
  3
HIDETEXT
350
567
  3
PSOLHEIGHT
350
564
  3
PSOLWIDTH
350
563
  0
LAYOUT
  5
1E
102
{ACAD_REACTORS
330
1A
102
}
330
1A
100
AcDbPlotSettings
  1

  2
none_device
  4

  6

 40
0.0
 41
0.0
 42
0.0
 43
0.0
 44
0.0
 45
0.0
 46
0.0
 47
0.0
 48
0.0
 49
0.0
140
0.0
141
0.0
142
1.0
143
1.0
 70
   688
 72
     0
 73
     0
 74
     5
  7

 75
    16
147
1.0
148
0.0
149
0.0
100
AcDbLayout
  1
Layout1
 70
     1
 71
     1
 10
0.0
 20
0.0
 11
420.0
 21
297.0
 12
0.0
 22
0.0
 32
0.0
 14
1.0000000000E+20
 24
1.0000000000E+20
 34
1.0000000000E+20
 15
-1.0000000000E+20
 25
-1.0000000000E+20
 35
-1.0000000000E+20
146
0.0
 13
0.0
 23
0.0
 33
0.0
 16
1.0
 26
0.0
 36
0.0
 17
0.0
 27
1.0
 37
0.0
 76
     0
330
1B
  0
LAYOUT
  5
26
102
{ACAD_REACTORS
330
1A
102
}
330
1A
100
AcDbPlotSettings
  1

  2
none_device
  4

  6

 40
0.0
 41
0.0
 42
0.0
 43
0.0
 44
0.0
 45
0.0
 46
0.0
 47
0.0
 48
0.0
 49
0.0
140
0.0
141
0.0
142
1.0
143
1.0
 70
   688
 72
     0
 73
     0
 74
     5
  7

 75
    16
147
1.0
148
0.0
149
0.0
100
AcDbLayout
  1
Layout2
 70
     1
 71
     2
 10
0.0
 20
0.0
 11
0.0
 21
0.0
 12
0.0
 22
0.0
 32
0.0
 14
0.0
 24
0.0
 34
0.0
 15
0.0
 25
0.0
 35
0.0
146
0.0
 13
0.0
 23
0.0
 33
0.0
 16
1.0
 26
0.0
 36
0.0
 17
0.0
 27
1.0
 37
0.0
 76
     0
330
23
  0
LAYOUT
  5
22
102
{ACAD_REACTORS
330
1A
102
}
330
1A
100
AcDbPlotSettings
  1

  2
none_device
  4

  6

 40
0.0
 41
0.0
 42
0.0
 43
0.0
 44
0.0
 45
0.0
 46
0.0
 47
0.0
 48
0.0
 49
0.0
140
0.0
141
0.0
142
1.0
143
1.0
 70
  1712
 72
     0
 73
     0
 74
     0
  7

 75
     0
147
1.0
148
0.0
149
0.0
100
AcDbLayout
  1
Model
 70
     1
 71
     0
 10
0.0
 20
0.0
 11
594.0
 21
420.0
 12
0.0
 22
0.0
 32
0.0
 14
0.0
 24
0.0
 34
0.0
 15
594.0
 25
420.0
 35
0.0
146
0.0
 13
0.0
 23
0.0
 33
0.0
 16
1.0
 26
0.0
 36
0.0
 17
0.0
 27
1.0
 37
0.0
 76
     0
330
1F
331
29
  0
MATERIAL
  5
3D
102
{ACAD_REACTORS
330
3B
102
}
102
{ACAD_XDICTIONARY
360
58A
102
}
330
3B
100
AcDbMaterial
  1
ByBlock
  0
MATERIAL
  5
3C
102
{ACAD_REACTORS
330
3B
102
}
102
{ACAD_XDICTIONARY
360
588
102
}
330
3B
100
AcDbMaterial
  1
ByLayer
  0
MATERIAL
  5
3E
102
{ACAD_REACTORS
330
3B
102
}
102
{ACAD_XDICTIONARY
360
58C
102
}
330
3B
100
AcDbMaterial
  1
Global
  0
MLINESTYLE
  5
18
102
{ACAD_REACTORS
330
17
102
}
330
17
100
AcDbMlineStyle
  2
Standard
 70
     0
  3

 62
   256
 51
90.0
 52
90.0
 71
     2
 49
0.5
 62
   256
  6
BYLAYER
 49
-0.5
 62
   256
  6
BYLAYER
  0
ACDBPLACEHOLDER
  5
F
102
{ACAD_REACTORS
330
E
102
}
330
E
  0
SCALE
  5
188
102
{ACAD_REACTORS
330
187
102
}
330
187
100
AcDbScale
 70
     0
300
1:1
140
1.0
141
1.0
290
     1
  0
SCALE
  5
189
102
{ACAD_REACTORS
330
187
102
}
330
187
100
AcDbScale
 70
     0
300
1:2
140
1.0
141
2.0
290
     0
  0
SCALE
  5
18A
102
{ACAD_REACTORS
330
187
102
}
330
187
100
AcDbScale
 70
     0
300
1:4
140
1.0
141
4.0
290
     0
  0
SCALE
  5
18B
102
{ACAD_REACTORS
330
187
102
}
330
187
100
AcDbScale
 70
     0
300
1:5
140
1.0
141
5.0
290
     0
  0
SCALE
  5
18C
102
{ACAD_REACTORS
330
187
102
}
330
187
100
AcDbScale
 70
     0
300
1:8
140
1.0
141
8.0
290
     0
  0
SCALE
  5
18D
102
{ACAD_REACTORS
330
187
102
}
330
187
100
AcDbScale
 70
     0
300
1:10
140
1.0
141
10.0
290
     0
  0
SCALE
  5
18E
102
{ACAD_REACTORS
330
187
102
}
330
187
100
AcDbScale
 70
     0
300
1:16
140
1.0
141
16.0
290
     0
  0
SCALE
  5
18F
102
{ACAD_REACTORS
330
187
102
}
330
187
100
AcDbScale
 70
     0
300
1:20
140
1.0
141
20.0
290
     0
  0
SCALE
  5
190
102
{ACAD_REACTORS
330
187
102
}
330
187
100
AcDbScale
 70
     0
300
1:30
140
1.0
141
30.0
290
     0
  0
SCALE
  5
191
102
{ACAD_REACTORS
330
187
102
}
330
187
100
AcDbScale
 70
     0
300
1:40
140
1.0
141
40.0
290
     0
  0
SCALE
  5
192
102
{ACAD_REACTORS
330
187
102
}
330
187
100
AcDbScale
 70
     0
300
1:50
140
1.0
141
50.0
290
     0
  0
SCALE
  5
193
102
{ACAD_REACTORS
330
187
102
}
330
187
100
AcDbScale
 70
     0
300
1:100
140
1.0
141
100.0
290
     0
  0
SCALE
  5
194
102
{ACAD_REACTORS
330
187
102
}
330
187
100
AcDbScale
 70
     0
300
2:1
140
2.0
141
1.0
290
     0
  0
SCALE
  5
195
102
{ACAD_REACTORS
330
187
102
}
330
187
100
AcDbScale
 70
     0
300
4:1
140
4.0
141
1.0
290
     0
  0
SCALE
  5
196
102
{ACAD_REACTORS
330
187
102
}
330
187
100
AcDbScale
 70
     0
300
8:1
140
8.0
141
1.0
290
     0
  0
SCALE
  5
197
102
{ACAD_REACTORS
330
187
102
}
330
187
100
AcDbScale
 70
     0
300
10:1
140
10.0
141
1.0
290
     0
  0
SCALE
  5
198
102
{ACAD_REACTORS
330
187
102
}
330
187
100
AcDbScale
 70
     0
300
100:1
140
100.0
141
1.0
290
     0
  0
SCALE
  5
199
102
{ACAD_REACTORS
330
187
102
}
330
187
100
AcDbScale
 70
     0
300
1/128" = 1'-0"
140
0.0078125
141
12.0
290
     0
  0
SCALE
  5
19A
102
{ACAD_REACTORS
330
187
102
}
330
187
100
AcDbScale
 70
     0
300
1/64" = 1'-0"
140
0.015625
141
12.0
290
     0
  0
SCALE
  5
19B
102
{ACAD_REACTORS
330
187
102
}
330
187
100
AcDbScale
 70
     0
300
1/32" = 1'-0"
140
0.03125
141
12.0
290
     0
  0
SCALE
  5
19C
102
{ACAD_REACTORS
330
187
102
}
330
187
100
AcDbScale
 70
     0
300
1/16" = 1'-0"
140
0.0625
141
12.0
290
     0
  0
SCALE
  5
19D
102
{ACAD_REACTORS
330
187
102
}
330
187
100
AcDbScale
 70
     0
300
3/32" = 1'-0"
140
0.09375
141
12.0
290
     0
  0
SCALE
  5
19E
102
{ACAD_REACTORS
330
187
102
}
330
187
100
AcDbScale
 70
     0
300
1/8" = 1'-0"
140
0.125
141
12.0
290
     0
  0
SCALE
  5
19F
102
{ACAD_REACTORS
330
187
102
}
330
187
100
AcDbScale
 70
     0
300
3/16" = 1'-0"
140
0.1875
141
12.0
290
     0
  0
SCALE
  5
1A0
102
{ACAD_REACTORS
330
187
102
}
330
187
100
AcDbScale
 70
     0
300
1/4" = 1'-0"
140
0.25
141
12.0
290
     0
  0
SCALE
  5
1A1
102
{ACAD_REACTORS
330
187
102
}
330
187
100
AcDbScale
 70
     0
300
3/8" = 1'-0"
140
0.375
141
12.0
290
     0
  0
SCALE
  5
1A2
102
{ACAD_REACTORS
330
187
102
}
330
187
100
AcDbScale
 70
     0
300
1/2" = 1'-0"
140
0.5
141
12.0
290
     0
  0
SCALE
  5
1A3
102
{ACAD_REACTORS
330
187
102
}
330
187
100
AcDbScale
 70
     0
300
3/4" = 1'-0"
140
0.75
141
12.0
290
     0
  0
SCALE
  5
1A4
102
{ACAD_REACTORS
330
187
102
}
330
187
100
AcDbScale
 70
     0
300
1" = 1'-0"
140
1.0
141
12.0
290
     0
  0
SCALE
  5
1A5
102
{ACAD_REACTORS
330
187
102
}
330
187
100
AcDbScale
 70
     0
300
1-1/2" = 1'-0"
140
1.5
141
12.0
290
     0
  0
SCALE
  5
1A6
102
{ACAD_REACTORS
330
187
102
}
330
187
100
AcDbScale
 70
     0
300
3" = 1'-0"
140
3.0
141
12.0
290
     0
  0
SCALE
  5
1A7
102
{ACAD_REACTORS
330
187
102
}
330
187
100
AcDbScale
 70
     0
300
6" = 1'-0"
140
6.0
141
12.0
290
     0
  0
SCALE
  5
1A8
102
{ACAD_REACTORS
330
187
102
}
330
187
100
AcDbScale
 70
     0
300
1'-0" = 1'-0"
140
12.0
141
12.0
290
     0
  0
VISUALSTYLE
  5
2F
102
{ACAD_REACTORS
330
2A
102
}
102
{ACAD_XDICTIONARY
360
570
102
}
330
2A
100
AcDbVisualStyle
  2
2dWireframe
 70
     4
 71
     0
 72
     2
 73
     0
 90
        0
 40
-0.6
 41
-30.0
 62
     5
 63
     7
 74
     1
 91
        4
 64
     7
 65
   257
 75
     1
175
     1
 42
1.0
 92
        0
 66
   257
 43
1.0
 76
     1
 77
     6
 78
     2
 67
     7
 79
     5
170
     0
171
     0
290
     0
174
     0
 93
        1
 44
0.0
173
     0
291
     0
 45
0.0
1001
ACAD
1000
AcDbSavedByObjectVersion
1070
     0
  0
VISUALSTYLE
  5
31
102
{ACAD_REACTORS
330
2A
102
}
102
{ACAD_XDICTIONARY
360
574
102
}
330
2A
100
AcDbVisualStyle
  2
3D Hidden
 70
     6
 71
     1
 72
     2
 73
     2
 90
        0
 40
-0.6
 41
-30.0
 62
     5
 63
     7
 74
     2
 91
        2
 64
     7
 65
   257
 75
     2
175
     1
 42
40.0
 92
        0
 66
   257
 43
1.0
 76
     1
 77
     6
 78
     2
 67
     7
 79
     3
170
     0
171
     0
290
     0
174
     0
 93
        1
 44
0.0
173
     0
291
     0
 45
0.0
1001
ACAD
1000
AcDbSavedByObjectVersion
1070
     0
  0
VISUALSTYLE
  5
30
102
{ACAD_REACTORS
330
2A
102
}
102
{ACAD_XDICTIONARY
360
572
102
}
330
2A
100
AcDbVisualStyle
  2
3dWireframe
 70
     5
 71
     0
 72
     2
 73
     0
 90
        0
 40
-0.6
 41
-30.0
 62
     5
 63
     7
 74
     1
 91
        4
 64
     7
 65
   257
 75
     1
175
     1
 42
1.0
 92
        0
 66
   257
 43
1.0
 76
     1
 77
     6
 78
     2
 67
     7
 79
     5
170
     0
171
     0
290
     0
174
     0
 93
        1
 44
0.0
173
     0
291
     0
 45
0.0
1001
ACAD
1000
AcDbSavedByObjectVersion
1070
     0
  0
VISUALSTYLE
  5
32
102
{ACAD_REACTORS
330
2A
102
}
102
{ACAD_XDICTIONARY
360
576
102
}
330
2A
100
AcDbVisualStyle
  2
Basic
 70
     7
 71
     1
 72
     0
 73
     1
 90
        0
 40
-0.6
 41
-30.0
 62
     5
 63
     7
 74
     0
 91
        4
 64
     7
 65
   257
 75
     1
175
     1
 42
1.0
 92
        8
 66
     7
 43
1.0
 76
     1
 77
     6
 78
     2
 67
     7
 79
     5
170
     0
171
     0
290
     0
174
     0
 93
        1
 44
0.0
173
     0
291
     1
 45
0.0
1001
ACAD
1000
AcDbSavedByObjectVersion
1070
     0
  0
VISUALSTYLE
  5
36
102
{ACAD_REACTORS
330
2A
102
}
102
{ACAD_XDICTIONARY
360
57E
102
}
330
2A
100
AcDbVisualStyle
  2
Brighten
 70
    12
 71
     2
 72
     2
 73
     0
 90
        0
 40
-0.6
 41
-30.0
 62
     5
 63
     7
 74
     1
 91
        4
 64
     7
 65
   257
 75
     1
175
     1
 42
1.0
 92
        8
 66
     7
 43
1.0
 76
     1
 77
     6
 78
     2
 67
     7
 79
     5
170
     0
171
     0
290
     0
174
     0
 93
        1
 44
50.0
173
     0
291
     1
 45
0.0
1001
ACAD
1000
AcDbSavedByObjectVersion
1070
     0
  0
VISUALSTYLE
  5
3A
102
{ACAD_REACTORS
330
2A
102
}
102
{ACAD_XDICTIONARY
360
586
102
}
330
2A
100
AcDbVisualStyle
  2
ColorChange
 70
    16
 71
     2
 72
     2
 73
     3
 90
        0
 40
-0.6
 41
-30.0
 62
     5
 63
     8
 74
     1
 91
        4
 64
     7
 65
   257
 75
     1
175
     1
 42
1.0
 92
        8
 66
     8
 43
1.0
 76
     1
 77
     6
 78
     2
 67
     7
 79
     5
170
     0
171
     0
290
     0
174
     0
 93
        1
 44
0.0
173
     0
291
     1
 45
0.0
1001
ACAD
1000
AcDbSavedByObjectVersion
1070
     0
  0
VISUALSTYLE
  5
34
102
{ACAD_REACTORS
330
2A
102
}
102
{ACAD_XDICTIONARY
360
57A
102
}
330
2A
100
AcDbVisualStyle
  2
Conceptual
 70
     9
 71
     3
 72
     2
 73
     0
 90
        0
 40
-0.6
 41
-30.0
 62
     5
 63
     7
 74
     2
 91
        2
 64
     7
 65
   257
 75
     1
175
     1
 42
40.0
 92
        8
 66
     7
 43
1.0
 76
     1
 77
     6
 78
     2
 67
     7
 79
     3
170
     0
171
     0
290
     0
174
     0
 93
        1
 44
0.0
173
     0
291
     0
 45
0.0
1001
ACAD
1000
AcDbSavedByObjectVersion
1070
     0
  0
VISUALSTYLE
  5
35
102
{ACAD_REACTORS
330
2A
102
}
102
{ACAD_XDICTIONARY
360
57C
102
}
330
2A
100
AcDbVisualStyle
  2
Dim
 70
    11
 71
     2
 72
     2
 73
     0
 90
        0
 40
-0.6
 41
-30.0
 62
     5
 63
     7
 74
     1
 91
        4
 64
     7
 65
   257
 75
     1
175
     1
 42
1.0
 92
        8
 66
     7
 43
1.0
 76
     1
 77
     6
 78
     2
 67
     7
 79
     5
170
     0
171
     0
290
     0
174
     0
 93
        1
 44
-50.0
173
     0
291
     1
 45
0.0
1001
ACAD
1000
AcDbSavedByObjectVersion
1070
     0
  0
VISUALSTYLE
  5
39
102
{ACAD_REACTORS
330
2A
102
}
102
{ACAD_XDICTIONARY
360
584
102
}
330
2A
100
AcDbVisualStyle
  2
Facepattern
 70
    15
 71
     2
 72
     2
 73
     0
 90
        0
 40
-0.6
 41
-30.0
 62
     5
 63
     7
 74
     1
 91
        4
 64
     7
 65
   257
 75
     1
175
     1
 42
1.0
 92
        8
 66
     7
 43
1.0
 76
     1
 77
     6
 78
     2
 67
     7
 79
     5
170
     0
171
     0
290
     0
174
     0
 93
        1
 44
0.0
173
     0
291
     1
 45
0.0
1001
ACAD
1000
AcDbSavedByObjectVersion
1070
     0
  0
VISUALSTYLE
  5
2B
102
{ACAD_REACTORS
330
2A
102
}
102
{ACAD_XDICTIONARY
360
568
102
}
330
2A
100
AcDbVisualStyle
  2
Flat
 70
     0
 71
     2
 72
     1
 73
     1
 90
        2
 40
-0.6
 41
30.0
 62
     5
 63
     7
 74
     0
 91
        4
 64
     7
 65
   257
 75
     1
175
     1
 42
1.0
 92
        8
 66
     7
 43
1.0
 76
     1
 77
     6
 78
     2
 67
     7
 79
     5
170
     0
171
     0
290
     0
174
     0
 93
       13
 44
0.0
173
     0
291
     1
 45
0.0
1001
ACAD
1000
AcDbSavedByObjectVersion
1070
     0
  0
VISUALSTYLE
  5
2C
102
{ACAD_REACTORS
330
2A
102
}
102
{ACAD_XDICTIONARY
360
56A
102
}
330
2A
100
AcDbVisualStyle
  2
FlatWithEdges
 70
     1
 71
     2
 72
     1
 73
     1
 90
        2
 40
-0.6
 41
30.0
 62
     5
 63
     7
 74
     1
 91
        4
 64
     7
 65
   257
 75
     1
175
     1
 42
1.0
 92
        0
 66
   257
 43
1.0
 76
     1
 77
     6
 78
     2
 67
     7
 79
     5
170
     0
171
     0
290
     0
174
     0
 93
       13
 44
0.0
173
     0
291
     1
 45
0.0
1001
ACAD
1000
AcDbSavedByObjectVersion
1070
     0
  0
VISUALSTYLE
  5
2D
102
{ACAD_REACTORS
330
2A
102
}
102
{ACAD_XDICTIONARY
360
56C
102
}
330
2A
100
AcDbVisualStyle
  2
Gouraud
 70
     2
 71
     2
 72
     2
 73
     1
 90
        2
 40
-0.6
 41
30.0
 62
     5
 63
     7
 74
     0
 91
        4
 64
     7
 65
   257
 75
     1
175
     1
 42
1.0
 92
        0
 66
     7
 43
1.0
 76
     1
 77
     6
 78
     2
 67
     7
 79
     5
170
     0
171
     0
290
     0
174
     0
 93
       13
 44
0.0
173
     0
291
     1
 45
0.0
1001
ACAD
1000
AcDbSavedByObjectVersion
1070
     0
  0
VISUALSTYLE
  5
2E
102
{ACAD_REACTORS
330
2A
102
}
102
{ACAD_XDICTIONARY
360
56E
102
}
330
2A
100
AcDbVisualStyle
  2
GouraudWithEdges
 70
     3
 71
     2
 72
     2
 73
     1
 90
        2
 40
-0.6
 41
30.0
 62
     5
 63
     7
 74
     1
 91
        4
 64
     7
 65
   257
 75
     1
175
     1
 42
1.0
 92
        0
 66
   257
 43
1.0
 76
     1
 77
     6
 78
     2
 67
     7
 79
     5
170
     0
171
     0
290
     0
174
     0
 93
       13
 44
0.0
173
     0
291
     1
 45
0.0
1001
ACAD
1000
AcDbSavedByObjectVersion
1070
     0
  0
VISUALSTYLE
  5
38
102
{ACAD_REACTORS
330
2A
102
}
102
{ACAD_XDICTIONARY
360
582
102
}
330
2A
100
AcDbVisualStyle
  2
Linepattern
 70
    14
 71
     2
 72
     2
 73
     0
 90
        0
 40
-0.6
 41
-30.0
 62
     5
 63
     7
 74
     1
 91
        4
 64
     7
 65
   257
 75
     7
175
     7
 42
1.0
 92
        8
 66
     7
 43
1.0
 76
     1
 77
     6
 78
     2
 67
     7
 79
     5
170
     0
171
     0
290
     0
174
     0
 93
        1
 44
0.0
173
     0
291
     1
 45
0.0
1001
ACAD
1000
AcDbSavedByObjectVersion
1070
     0
  0
VISUALSTYLE
  5
33
102
{ACAD_REACTORS
330
2A
102
}
102
{ACAD_XDICTIONARY
360
578
102
}
330
2A
100
AcDbVisualStyle
  2
Realistic
 70
     8
 71
     2
 72
     2
 73
     0
 90
        0
 40
-0.6
 41
-30.0
 62
     5
 63
     7
 74
     1
 91
        0
 64
     7
 65
   257
 75
     1
175
     1
 42
1.0
 92
        8
 66
     8
 43
1.0
 76
     1
 77
     6
 78
     2
 67
     7
 79
     5
170
     0
171
     0
290
     0
174
     0
 93
       13
 44
0.0
173
     0
291
     0
 45
0.0
1001
ACAD
1000
AcDbSavedByObjectVersion
1070
     0
  0
VISUALSTYLE
  5
37
102
{ACAD_REACTORS
330
2A
102
}
102
{ACAD_XDICTIONARY
360
580
102
}
330
2A
100
AcDbVisualStyle
  2
Thicken
 70
    13
 71
     2
 72
     2
 73
     0
 90
        0
 40
-0.6
 41
-30.0
 62
     5
 63
     7
 74
     1
 91
        4
 64
     7
 65
   257
 75
     1
175
     1
 42
1.0
 92
       12
 66
     7
 43
1.0
 76
     1
 77
     6
 78
     2
 67
     7
 79
     5
170
     0
171
     0
290
     0
174
     0
 93
        1
 44
0.0
173
     0
291
     1
 45
0.0
1001
ACAD
1000
AcDbSavedByObjectVersion
1070
     0
  0
DICTIONARYVAR
  5
565
102
{ACAD_REACTORS
330
560
102
}
330
560
100
DictionaryVariables
280
     0
  1
1:1
  0
DICTIONARYVAR
  5
566
102
{ACAD_REACTORS
330
560
102
}
330
560
100
DictionaryVariables
280
     0
  1
2
  0
DICTIONARYVAR
  5
567
102
{ACAD_REACTORS
330
560
102
}
330
560
100
DictionaryVariables
280
     0
  1
1
  0
DICTIONARYVAR
  5
564
102
{ACAD_REACTORS
330
560
102
}
330
560
100
DictionaryVariables
280
     0
  1
80.000000
  0
DICTIONARYVAR
  5
563
102
{ACAD_REACTORS
330
560
102
}
330
560
100
DictionaryVariables
280
     0
  1
5.000000
  0
DICTIONARY
  5
58A
330
3D
100
AcDbDictionary
280
     1
281
     1
  3
ACAD_XREC_ROUNDTRIP
360
58B
  0
DICTIONARY
  5
588
330
3C
100
AcDbDictionary
280
     1
281
     1
  3
ACAD_XREC_ROUNDTRIP
360
589
  0
DICTIONARY
  5
58C
330
3E
100
AcDbDictionary
280
     1
281
     1
  3
ACAD_XREC_ROUNDTRIP
360
58D
  0
DICTIONARY
  5
570
330
2F
100
AcDbDictionary
280
     1
281
     1
  3
ACAD_XREC_ROUNDTRIP
360
571
  0
DICTIONARY
  5
574
330
31
100
AcDbDictionary
280
     1
281
     1
  3
ACAD_XREC_ROUNDTRIP
360
575
  0
DICTIONARY
  5
572
330
30
100
AcDbDictionary
280
     1
281
     1
  3
ACAD_XREC_ROUNDTRIP
360
573
  0
DICTIONARY
  5
576
330
32
100
AcDbDictionary
280
     1
281
     1
  3
ACAD_XREC_ROUNDTRIP
360
577
  0
DICTIONARY
  5
57E
330
36
100
AcDbDictionary
280
     1
281
     1
  3
ACAD_XREC_ROUNDTRIP
360
57F
  0
DICTIONARY
  5
586
330
3A
100
AcDbDictionary
280
     1
281
     1
  3
ACAD_XREC_ROUNDTRIP
360
587
  0
DICTIONARY
  5
57A
330
34
100
AcDbDictionary
280
     1
281
     1
  3
ACAD_XREC_ROUNDTRIP
360
57B
  0
DICTIONARY
  5
57C
330
35
100
AcDbDictionary
280
     1
281
     1
  3
ACAD_XREC_ROUNDTRIP
360
57D
  0
DICTIONARY
  5
584
330
39
100
AcDbDictionary
280
     1
281
     1
  3
ACAD_XREC_ROUNDTRIP
360
585
  0
DICTIONARY
  5
568
330
2B
100
AcDbDictionary
280
     1
281
     1
  3
ACAD_XREC_ROUNDTRIP
360
569
  0
DICTIONARY
  5
56A
330
2C
100
AcDbDictionary
280
     1
281
     1
  3
ACAD_XREC_ROUNDTRIP
360
56B
  0
DICTIONARY
  5
56C
330
2D
100
AcDbDictionary
280
     1
281
     1
  3
ACAD_XREC_ROUNDTRIP
360
56D
  0
DICTIONARY
  5
56E
330
2E
100
AcDbDictionary
280
     1
281
     1
  3
ACAD_XREC_ROUNDTRIP
360
56F
  0
DICTIONARY
  5
582
330
38
100
AcDbDictionary
280
     1
281
     1
  3
ACAD_XREC_ROUNDTRIP
360
583
  0
DICTIONARY
  5
578
330
33
100
AcDbDictionary
280
     1
281
     1
  3
ACAD_XREC_ROUNDTRIP
360
579
  0
DICTIONARY
  5
580
330
37
100
AcDbDictionary
280
     1
281
     1
  3
ACAD_XREC_ROUNDTRIP
360
581
  0
XRECORD
  5
58B
102
{ACAD_REACTORS
330
58A
102
}
330
58A
100
AcDbXrecord
280
     1
102
MATERIAL
148
0.0
149
0.0
149
0.0
 93
        0
 94
      127
282
     0
 72
     1
 77
     1
171
     1
175
     1
179
     1
273
     0
  0
XRECORD
  5
589
102
{ACAD_REACTORS
330
588
102
}
330
588
100
AcDbXrecord
280
     1
102
MATERIAL
148
0.0
149
0.0
149
0.0
 93
        0
 94
      127
282
     0
 72
     1
 77
     1
171
     1
175
     1
179
     1
273
     0
  0
XRECORD
  5
58D
102
{ACAD_REACTORS
330
58C
102
}
330
58C
100
AcDbXrecord
280
     1
102
MATERIAL
148
0.0
149
0.0
149
0.0
 93
        0
 94
      127
282
     0
 72
     1
 77
     1
171
     1
175
     1
179
     1
273
     0
  0
XRECORD
  5
571
102
{ACAD_REACTORS
330
570
102
}
330
570
100
AcDbXrecord
280
     1
102
RTVSPropertyOp0
 70
     1
102
RTVSPropertyOp1
 70
     1
102
RTVSPropertyOp2
 70
     1
102
RTVSPropertyOp3
 70
     1
102
RTVSPropertyOp4
 70
     1
102
RTVSPropertyOp5
 70
     1
102
RTVSPropertyOp6
 70
     1
102
RTVSPropertyOp7
 70
     1
102
RTVSPropertyOp8
 70
     1
102
RTVSPropertyOp9
 70
     1
102
RTVSPropertyOp10
 70
     1
102
RTVSPropertyOp11
 70
     1
102
RTVSPropertyOp12
 70
     1
102
RTVSPropertyOp13
 70
     1
102
RTVSPropertyOp14
 70
     1
102
RTVSPropertyOp15
 70
     1
102
RTVSPropertyOp16
 70
     1
102
RTVSPropertyOp17
 70
     1
102
RTVSPropertyOp18
 70
     1
102
RTVSPropertyOp19
 70
     1
102
RTVSPropertyOp20
 70
     1
102
RTVSPropertyOp21
 70
     1
102
RTVSPropertyOp22
 70
     1
102
RTVSPropertyOp23
 70
     1
102
RTVSPropertyOp24
 70
     1
102
RTVSPropertyOp25
 70
     1
102
RTVSPropertyOp26
 70
     1
102
RTVSPropertyOp27
 70
     1
  0
XRECORD
  5
575
102
{ACAD_REACTORS
330
574
102
}
330
574
100
AcDbXrecord
280
     1
102
RTVSPropertyOp0
 70
     1
102
RTVSPropertyOp1
 70
     1
102
RTVSPropertyOp2
 70
     1
102
RTVSPropertyOp3
 70
     1
102
RTVSPropertyOp4
 70
     1
102
RTVSPropertyOp5
 70
     1
102
RTVSPropertyOp6
 70
     1
102
RTVSPropertyOp7
 70
     1
102
RTVSPropertyOp8
 70
     1
102
RTVSPropertyOp9
 70
     1
102
RTVSPropertyOp10
 70
     1
102
RTVSPropertyOp11
 70
     1
102
RTVSPropertyOp12
 70
     1
102
RTVSPropertyOp13
 70
     1
102
RTVSPropertyOp14
 70
     1
102
RTVSPropertyOp15
 70
     1
102
RTVSPropertyOp16
 70
     1
102
RTVSPropertyOp17
 70
     1
102
RTVSPropertyOp18
 70
     1
102
RTVSPropertyOp19
 70
     1
102
RTVSPropertyOp20
 70
     1
102
RTVSPropertyOp21
 70
     1
102
RTVSPropertyOp22
 70
     1
102
RTVSPropertyOp23
 70
     1
102
RTVSPropertyOp24
 70
     1
102
RTVSPropertyOp25
 70
     1
102
RTVSPropertyOp26
 70
     1
102
RTVSPropertyOp27
 70
     1
  0
XRECORD
  5
573
102
{ACAD_REACTORS
330
572
102
}
330
572
100
AcDbXrecord
280
     1
102
RTVSPropertyOp0
 70
     1
102
RTVSPropertyOp1
 70
     1
102
RTVSPropertyOp2
 70
     1
102
RTVSPropertyOp3
 70
     1
102
RTVSPropertyOp4
 70
     1
102
RTVSPropertyOp5
 70
     1
102
RTVSPropertyOp6
 70
     1
102
RTVSPropertyOp7
 70
     1
102
RTVSPropertyOp8
 70
     1
102
RTVSPropertyOp9
 70
     1
102
RTVSPropertyOp10
 70
     1
102
RTVSPropertyOp11
 70
     1
102
RTVSPropertyOp12
 70
     1
102
RTVSPropertyOp13
 70
     1
102
RTVSPropertyOp14
 70
     1
102
RTVSPropertyOp15
 70
     1
102
RTVSPropertyOp16
 70
     1
102
RTVSPropertyOp17
 70
     1
102
RTVSPropertyOp18
 70
     1
102
RTVSPropertyOp19
 70
     1
102
RTVSPropertyOp20
 70
     1
102
RTVSPropertyOp21
 70
     1
102
RTVSPropertyOp22
 70
     1
102
RTVSPropertyOp23
 70
     1
102
RTVSPropertyOp24
 70
     1
102
RTVSPropertyOp25
 70
     1
102
RTVSPropertyOp26
 70
     1
102
RTVSPropertyOp27
 70
     1
  0
XRECORD
  5
577
102
{ACAD_REACTORS
330
576
102
}
330
576
100
AcDbXrecord
280
     1
102
RTVSPropertyOp0
 70
     1
102
RTVSPropertyOp1
 70
     1
102
RTVSPropertyOp2
 70
     1
102
RTVSPropertyOp3
 70
     1
102
RTVSPropertyOp4
 70
     1
102
RTVSPropertyOp5
 70
     1
102
RTVSPropertyOp6
 70
     1
102
RTVSPropertyOp7
 70
     1
102
RTVSPropertyOp8
 70
     1
102
RTVSPropertyOp9
 70
     1
102
RTVSPropertyOp10
 70
     1
102
RTVSPropertyOp11
 70
     1
102
RTVSPropertyOp12
 70
     1
102
RTVSPropertyOp13
 70
     1
102
RTVSPropertyOp14
 70
     1
102
RTVSPropertyOp15
 70
     1
102
RTVSPropertyOp16
 70
     1
102
RTVSPropertyOp17
 70
     1
102
RTVSPropertyOp18
 70
     1
102
RTVSPropertyOp19
 70
     1
102
RTVSPropertyOp20
 70
     1
102
RTVSPropertyOp21
 70
     1
102
RTVSPropertyOp22
 70
     1
102
RTVSPropertyOp23
 70
     1
102
RTVSPropertyOp24
 70
     1
102
RTVSPropertyOp25
 70
     1
102
RTVSPropertyOp26
 70
     1
102
RTVSPropertyOp27
 70
     1
  0
XRECORD
  5
57F
102
{ACAD_REACTORS
330
57E
102
}
330
57E
100
AcDbXrecord
280
     1
102
RTVSPropertyOp0
 70
     1
102
RTVSPropertyOp1
 70
     1
102
RTVSPropertyOp2
 70
     1
102
RTVSPropertyOp3
 70
     1
102
RTVSPropertyOp4
 70
     1
102
RTVSPropertyOp5
 70
     1
102
RTVSPropertyOp6
 70
     1
102
RTVSPropertyOp7
 70
     1
102
RTVSPropertyOp8
 70
     1
102
RTVSPropertyOp9
 70
     1
102
RTVSPropertyOp10
 70
     1
102
RTVSPropertyOp11
 70
     1
102
RTVSPropertyOp12
 70
     1
102
RTVSPropertyOp13
 70
     1
102
RTVSPropertyOp14
 70
     1
102
RTVSPropertyOp15
 70
     1
102
RTVSPropertyOp16
 70
     1
102
RTVSPropertyOp17
 70
     1
102
RTVSPropertyOp18
 70
     1
102
RTVSPropertyOp19
 70
     1
102
RTVSPropertyOp20
 70
     1
102
RTVSPropertyOp21
 70
     1
102
RTVSPropertyOp22
 70
     1
102
RTVSPropertyOp23
 70
     1
102
RTVSPropertyOp24
 70
     1
102
RTVSPropertyOp25
 70
     1
102
RTVSPropertyOp26
 70
     1
102
RTVSPropertyOp27
 70
     1
  0
XRECORD
  5
587
102
{ACAD_REACTORS
330
586
102
}
330
586
100
AcDbXrecord
280
     1
102
RTVSPropertyOp0
 70
     1
102
RTVSPropertyOp1
 70
     1
102
RTVSPropertyOp2
 70
     1
102
RTVSPropertyOp3
 70
     1
102
RTVSPropertyOp4
 70
     1
102
RTVSPropertyOp5
 70
     1
102
RTVSPropertyOp6
 70
     1
102
RTVSPropertyOp7
 70
     1
102
RTVSPropertyOp8
 70
     1
102
RTVSPropertyOp9
 70
     1
102
RTVSPropertyOp10
 70
     1
102
RTVSPropertyOp11
 70
     1
102
RTVSPropertyOp12
 70
     1
102
RTVSPropertyOp13
 70
     1
102
RTVSPropertyOp14
 70
     1
102
RTVSPropertyOp15
 70
     1
102
RTVSPropertyOp16
 70
     1
102
RTVSPropertyOp17
 70
     1
102
RTVSPropertyOp18
 70
     1
102
RTVSPropertyOp19
 70
     1
102
RTVSPropertyOp20
 70
     1
102
RTVSPropertyOp21
 70
     1
102
RTVSPropertyOp22
 70
     1
102
RTVSPropertyOp23
 70
     1
102
RTVSPropertyOp24
 70
     1
102
RTVSPropertyOp25
 70
     1
102
RTVSPropertyOp26
 70
     1
102
RTVSPropertyOp27
 70
     1
  0
XRECORD
  5
57B
102
{ACAD_REACTORS
330
57A
102
}
330
57A
100
AcDbXrecord
280
     1
102
RTVSPropertyOp0
 70
     1
102
RTVSPropertyOp1
 70
     1
102
RTVSPropertyOp2
 70
     1
102
RTVSPropertyOp3
 70
     1
102
RTVSPropertyOp4
 70
     1
102
RTVSPropertyOp5
 70
     1
102
RTVSPropertyOp6
 70
     1
102
RTVSPropertyOp7
 70
     1
102
RTVSPropertyOp8
 70
     1
102
RTVSPropertyOp9
 70
     1
102
RTVSPropertyOp10
 70
     1
102
RTVSPropertyOp11
 70
     1
102
RTVSPropertyOp12
 70
     1
102
RTVSPropertyOp13
 70
     1
102
RTVSPropertyOp14
 70
     1
102
RTVSPropertyOp15
 70
     1
102
RTVSPropertyOp16
 70
     1
102
RTVSPropertyOp17
 70
     1
102
RTVSPropertyOp18
 70
     1
102
RTVSPropertyOp19
 70
     1
102
RTVSPropertyOp20
 70
     1
102
RTVSPropertyOp21
 70
     1
102
RTVSPropertyOp22
 70
     1
102
RTVSPropertyOp23
 70
     1
102
RTVSPropertyOp24
 70
     1
102
RTVSPropertyOp25
 70
     1
102
RTVSPropertyOp26
 70
     1
102
RTVSPropertyOp27
 70
     1
  0
XRECORD
  5
57D
102
{ACAD_REACTORS
330
57C
102
}
330
57C
100
AcDbXrecord
280
     1
102
RTVSPropertyOp0
 70
     1
102
RTVSPropertyOp1
 70
     1
102
RTVSPropertyOp2
 70
     1
102
RTVSPropertyOp3
 70
     1
102
RTVSPropertyOp4
 70
     1
102
RTVSPropertyOp5
 70
     1
102
RTVSPropertyOp6
 70
     1
102
RTVSPropertyOp7
 70
     1
102
RTVSPropertyOp8
 70
     1
102
RTVSPropertyOp9
 70
     1
102
RTVSPropertyOp10
 70
     1
102
RTVSPropertyOp11
 70
     1
102
RTVSPropertyOp12
 70
     1
102
RTVSPropertyOp13
 70
     1
102
RTVSPropertyOp14
 70
     1
102
RTVSPropertyOp15
 70
     1
102
RTVSPropertyOp16
 70
     1
102
RTVSPropertyOp17
 70
     1
102
RTVSPropertyOp18
 70
     1
102
RTVSPropertyOp19
 70
     1
102
RTVSPropertyOp20
 70
     1
102
RTVSPropertyOp21
 70
     1
102
RTVSPropertyOp22
 70
     1
102
RTVSPropertyOp23
 70
     1
102
RTVSPropertyOp24
 70
     1
102
RTVSPropertyOp25
 70
     1
102
RTVSPropertyOp26
 70
     1
102
RTVSPropertyOp27
 70
     1
  0
XRECORD
  5
585
102
{ACAD_REACTORS
330
584
102
}
330
584
100
AcDbXrecord
280
     1
102
RTVSPropertyOp0
 70
     1
102
RTVSPropertyOp1
 70
     1
102
RTVSPropertyOp2
 70
     1
102
RTVSPropertyOp3
 70
     1
102
RTVSPropertyOp4
 70
     1
102
RTVSPropertyOp5
 70
     1
102
RTVSPropertyOp6
 70
     1
102
RTVSPropertyOp7
 70
     1
102
RTVSPropertyOp8
 70
     1
102
RTVSPropertyOp9
 70
     1
102
RTVSPropertyOp10
 70
     1
102
RTVSPropertyOp11
 70
     1
102
RTVSPropertyOp12
 70
     1
102
RTVSPropertyOp13
 70
     1
102
RTVSPropertyOp14
 70
     1
102
RTVSPropertyOp15
 70
     1
102
RTVSPropertyOp16
 70
     1
102
RTVSPropertyOp17
 70
     1
102
RTVSPropertyOp18
 70
     1
102
RTVSPropertyOp19
 70
     1
102
RTVSPropertyOp20
 70
     1
102
RTVSPropertyOp21
 70
     1
102
RTVSPropertyOp22
 70
     1
102
RTVSPropertyOp23
 70
     1
102
RTVSPropertyOp24
 70
     1
102
RTVSPropertyOp25
 70
     1
102
RTVSPropertyOp26
 70
     1
102
RTVSPropertyOp27
 70
     1
  0
XRECORD
  5
569
102
{ACAD_REACTORS
330
568
102
}
330
568
100
AcDbXrecord
280
     1
102
RTVSPropertyOp0
 70
     1
102
RTVSPropertyOp1
 70
     1
102
RTVSPropertyOp2
 70
     1
102
RTVSPropertyOp3
 70
     1
102
RTVSPropertyOp4
 70
     1
102
RTVSPropertyOp5
 70
     1
102
RTVSPropertyOp6
 70
     1
102
RTVSPropertyOp7
 70
     1
102
RTVSPropertyOp8
 70
     1
102
RTVSPropertyOp9
 70
     1
102
RTVSPropertyOp10
 70
     1
102
RTVSPropertyOp11
 70
     1
102
RTVSPropertyOp12
 70
     1
102
RTVSPropertyOp13
 70
     1
102
RTVSPropertyOp14
 70
     1
102
RTVSPropertyOp15
 70
     1
102
RTVSPropertyOp16
 70
     1
102
RTVSPropertyOp17
 70
     1
102
RTVSPropertyOp18
 70
     1
102
RTVSPropertyOp19
 70
     1
102
RTVSPropertyOp20
 70
     1
102
RTVSPropertyOp21
 70
     1
102
RTVSPropertyOp22
 70
     1
102
RTVSPropertyOp23
 70
     1
102
RTVSPropertyOp24
 70
     1
102
RTVSPropertyOp25
 70
     1
102
RTVSPropertyOp26
 70
     1
102
RTVSPropertyOp27
 70
     1
  0
XRECORD
  5
56B
102
{ACAD_REACTORS
330
56A
102
}
330
56A
100
AcDbXrecord
280
     1
102
RTVSPropertyOp0
 70
     1
102
RTVSPropertyOp1
 70
     1
102
RTVSPropertyOp2
 70
     1
102
RTVSPropertyOp3
 70
     1
102
RTVSPropertyOp4
 70
     1
102
RTVSPropertyOp5
 70
     1
102
RTVSPropertyOp6
 70
     1
102
RTVSPropertyOp7
 70
     1
102
RTVSPropertyOp8
 70
     1
102
RTVSPropertyOp9
 70
     1
102
RTVSPropertyOp10
 70
     1
102
RTVSPropertyOp11
 70
     1
102
RTVSPropertyOp12
 70
     1
102
RTVSPropertyOp13
 70
     1
102
RTVSPropertyOp14
 70
     1
102
RTVSPropertyOp15
 70
     1
102
RTVSPropertyOp16
 70
     1
102
RTVSPropertyOp17
 70
     1
102
RTVSPropertyOp18
 70
     1
102
RTVSPropertyOp19
 70
     1
102
RTVSPropertyOp20
 70
     1
102
RTVSPropertyOp21
 70
     1
102
RTVSPropertyOp22
 70
     1
102
RTVSPropertyOp23
 70
     1
102
RTVSPropertyOp24
 70
     1
102
RTVSPropertyOp25
 70
     1
102
RTVSPropertyOp26
 70
     1
102
RTVSPropertyOp27
 70
     1
  0
XRECORD
  5
56D
102
{ACAD_REACTORS
330
56C
102
}
330
56C
100
AcDbXrecord
280
     1
102
RTVSPropertyOp0
 70
     1
102
RTVSPropertyOp1
 70
     1
102
RTVSPropertyOp2
 70
     1
102
RTVSPropertyOp3
 70
     1
102
RTVSPropertyOp4
 70
     1
102
RTVSPropertyOp5
 70
     1
102
RTVSPropertyOp6
 70
     1
102
RTVSPropertyOp7
 70
     1
102
RTVSPropertyOp8
 70
     1
102
RTVSPropertyOp9
 70
     1
102
RTVSPropertyOp10
 70
     1
102
RTVSPropertyOp11
 70
     1
102
RTVSPropertyOp12
 70
     1
102
RTVSPropertyOp13
 70
     1
102
RTVSPropertyOp14
 70
     1
102
RTVSPropertyOp15
 70
     1
102
RTVSPropertyOp16
 70
     1
102
RTVSPropertyOp17
 70
     1
102
RTVSPropertyOp18
 70
     1
102
RTVSPropertyOp19
 70
     1
102
RTVSPropertyOp20
 70
     1
102
RTVSPropertyOp21
 70
     1
102
RTVSPropertyOp22
 70
     1
102
RTVSPropertyOp23
 70
     1
102
RTVSPropertyOp24
 70
     1
102
RTVSPropertyOp25
 70
     1
102
RTVSPropertyOp26
 70
     1
102
RTVSPropertyOp27
 70
     1
  0
XRECORD
  5
56F
102
{ACAD_REACTORS
330
56E
102
}
330
56E
100
AcDbXrecord
280
     1
102
RTVSPropertyOp0
 70
     1
102
RTVSPropertyOp1
 70
     1
102
RTVSPropertyOp2
 70
     1
102
RTVSPropertyOp3
 70
     1
102
RTVSPropertyOp4
 70
     1
102
RTVSPropertyOp5
 70
     1
102
RTVSPropertyOp6
 70
     1
102
RTVSPropertyOp7
 70
     1
102
RTVSPropertyOp8
 70
     1
102
RTVSPropertyOp9
 70
     1
102
RTVSPropertyOp10
 70
     1
102
RTVSPropertyOp11
 70
     1
102
RTVSPropertyOp12
 70
     1
102
RTVSPropertyOp13
 70
     1
102
RTVSPropertyOp14
 70
     1
102
RTVSPropertyOp15
 70
     1
102
RTVSPropertyOp16
 70
     1
102
RTVSPropertyOp17
 70
     1
102
RTVSPropertyOp18
 70
     1
102
RTVSPropertyOp19
 70
     1
102
RTVSPropertyOp20
 70
     1
102
RTVSPropertyOp21
 70
     1
102
RTVSPropertyOp22
 70
     1
102
RTVSPropertyOp23
 70
     1
102
RTVSPropertyOp24
 70
     1
102
RTVSPropertyOp25
 70
     1
102
RTVSPropertyOp26
 70
     1
102
RTVSPropertyOp27
 70
     1
  0
XRECORD
  5
583
102
{ACAD_REACTORS
330
582
102
}
330
582
100
AcDbXrecord
280
     1
102
RTVSPropertyOp0
 70
     1
102
RTVSPropertyOp1
 70
     1
102
RTVSPropertyOp2
 70
     1
102
RTVSPropertyOp3
 70
     1
102
RTVSPropertyOp4
 70
     1
102
RTVSPropertyOp5
 70
     1
102
RTVSPropertyOp6
 70
     1
102
RTVSPropertyOp7
 70
     1
102
RTVSPropertyOp8
 70
     1
102
RTVSPropertyOp9
 70
     1
102
RTVSPropertyOp10
 70
     1
102
RTVSPropertyOp11
 70
     1
102
RTVSPropertyOp12
 70
     1
102
RTVSPropertyOp13
 70
     1
102
RTVSPropertyOp14
 70
     1
102
RTVSPropertyOp15
 70
     1
102
RTVSPropertyOp16
 70
     1
102
RTVSPropertyOp17
 70
     1
102
RTVSPropertyOp18
 70
     1
102
RTVSPropertyOp19
 70
     1
102
RTVSPropertyOp20
 70
     1
102
RTVSPropertyOp21
 70
     1
102
RTVSPropertyOp22
 70
     1
102
RTVSPropertyOp23
 70
     1
102
RTVSPropertyOp24
 70
     1
102
RTVSPropertyOp25
 70
     1
102
RTVSPropertyOp26
 70
     1
102
RTVSPropertyOp27
 70
     1
  0
XRECORD
  5
579
102
{ACAD_REACTORS
330
578
102
}
330
578
100
AcDbXrecord
280
     1
102
RTVSPropertyOp0
 70
     1
102
RTVSPropertyOp1
 70
     1
102
RTVSPropertyOp2
 70
     1
102
RTVSPropertyOp3
 70
     1
102
RTVSPropertyOp4
 70
     1
102
RTVSPropertyOp5
 70
     1
102
RTVSPropertyOp6
 70
     1
102
RTVSPropertyOp7
 70
     1
102
RTVSPropertyOp8
 70
     1
102
RTVSPropertyOp9
 70
     1
102
RTVSPropertyOp10
 70
     1
102
RTVSPropertyOp11
 70
     1
102
RTVSPropertyOp12
 70
     1
102
RTVSPropertyOp13
 70
     1
102
RTVSPropertyOp14
 70
     1
102
RTVSPropertyOp15
 70
     1
102
RTVSPropertyOp16
 70
     1
102
RTVSPropertyOp17
 70
     1
102
RTVSPropertyOp18
 70
     1
102
RTVSPropertyOp19
 70
     1
102
RTVSPropertyOp20
 70
     1
102
RTVSPropertyOp21
 70
     1
102
RTVSPropertyOp22
 70
     1
102
RTVSPropertyOp23
 70
     1
102
RTVSPropertyOp24
 70
     1
102
RTVSPropertyOp25
 70
     1
102
RTVSPropertyOp26
 70
     1
102
RTVSPropertyOp27
 70
     1
  0
XRECORD
  5
581
102
{ACAD_REACTORS
330
580
102
}
330
580
100
AcDbXrecord
280
     1
102
RTVSPropertyOp0
 70
     1
102
RTVSPropertyOp1
 70
     1
102
RTVSPropertyOp2
 70
     1
102
RTVSPropertyOp3
 70
     1
102
RTVSPropertyOp4
 70
     1
102
RTVSPropertyOp5
 70
     1
102
RTVSPropertyOp6
 70
     1
102
RTVSPropertyOp7
 70
     1
102
RTVSPropertyOp8
 70
     1
102
RTVSPropertyOp9
 70
     1
102
RTVSPropertyOp10
 70
     1
102
RTVSPropertyOp11
 70
     1
102
RTVSPropertyOp12
 70
     1
102
RTVSPropertyOp13
 70
     1
102
RTVSPropertyOp14
 70
     1
102
RTVSPropertyOp15
 70
     1
102
RTVSPropertyOp16
 70
     1
102
RTVSPropertyOp17
 70
     1
102
RTVSPropertyOp18
 70
     1
102
RTVSPropertyOp19
 70
     1
102
RTVSPropertyOp20
 70
     1
102
RTVSPropertyOp21
 70
     1
102
RTVSPropertyOp22
 70
     1
102
RTVSPropertyOp23
 70
     1
102
RTVSPropertyOp24
 70
     1
102
RTVSPropertyOp25
 70
     1
102
RTVSPropertyOp26
 70
     1
102
RTVSPropertyOp27
 70
     1
  0
ENDSEC
  0
EOF
