  0
SECTION
  2
HEADER
  9
$ACADVER
  1
AC1014
  9
$ACADMAINTVER
 70
           0
  9
$DWGCODEPAGE
  3
ANSI_1252
  9
$INSBASE
 10
0.0
 20
0.0
 30
0.0
  9
$EXTMIN
 10
1.000000000000E+20
 20
1.000000000000E+20
 30
1.000000000000E+20
  9
$EXTMAX
 10
-1.000000000000E+20
 20
-1.000000000000E+20
 30
-1.000000000000E+20
  9
$LIMMIN
 10
0.0
 20
0.0
  9
$LIMMAX
 10
0.0
 20
0.0
  9
$ORTHOMODE
 70
           0
  9
$REGENMODE
 70
           1
  9
$FILLMODE
 70
           1
  9
$QTEXTMODE
 70
           0
  9
$MIRRTEXT
 70
           1
  9
$DRAGMODE
 70
           2
  9
$LTSCALE
 40
1.0
  9
$OSMODE
 70
           0
  9
$ATTMODE
 70
           1
  9
$TEXTSIZE
 40
0.2
  9
$TRACEWID
 40
0.05
  9
$TEXTSTYLE
  7
STANDARD
  9
$CLAYER
  8
0
  9
$CELTYPE
  6
CONTINUOUS
  9
$CECOLOR
 62
         256
  9
$CELTSCALE
 40
1.0
  9
$DELOBJ
 70
           1
  9
$DISPSILH
 70
           0
  9
$DIMSCALE
 40
1.0
  9
$DIMASZ
 40
0.18
  9
$DIMEXO
 40
0.0625
  9
$DIMDLI
 40
0.38
  9
$DIMRND
 40
0.0
  9
$DIMDLE
 40
0.0
  9
$DIMEXE
 40
0.18
  9
$DIMTP
 40
0.0
  9
$DIMTM
 40
0.0
  9
$DIMTXT
 40
0.18
  9
$DIMCEN
 40
0.09
  9
$DIMTSZ
 40
0.0
  9
$DIMTOL
 70
           0
  9
$DIMLIM
 70
           0
  9
$DIMTIH
 70
           1
  9
$DIMTOH
 70
           1
  9
$DIMSE1
 70
           0
  9
$DIMSE2
 70
           0
  9
$DIMTAD
 70
           0
  9
$DIMZIN
 70
           0
  9
$DIMBLK
  1

  9
$DIMASO
 70
           1
  9
$DIMSHO
 70
           1
  9
$DIMPOST
  1

  9
$DIMAPOST
  1

  9
$DIMALT
 70
           0
  9
$DIMALTD
 70
           2
  9
$DIMALTF
 40
25.4
  9
$DIMLFAC
 40
1.0
  9
$DIMTOFL
 70
           0
  9
$DIMTVP
 40
0.0
  9
$DIMTIX
 70
           0
  9
$DIMSOXD
 70
           0
  9
$DIMSAH
 70
           0
  9
$DIMBLK1
  1

  9
$DIMBLK2
  1

  9
$DIMSTYLE
  2
STANDARD
  9
$DIMCLRD
 70
           0
  9
$DIMCLRE
 70
           0
  9
$DIMCLRT
 70
           0
  9
$DIMTFAC
 40
1.0
  9
$DIMGAP
 40
0.09
  9
$DIMJUST
 70
           0
  9
$DIMSD1
 70
           0
  9
$DIMSD2
 70
           0
  9
$DIMTOLJ
 70
           1
  9
$DIMTZIN
 70
           0
  9
$DIMALTZ
 70
           0
  9
$DIMALTTZ
 70
           0
  9
$DIMFIT
 70
           3
  9
$DIMUPT
 70
           0
  9
$DIMUNIT
 70
           2
  9
$DIMDEC
 70
           4
  9
$DIMTDEC
 70
           4
  9
$DIMALTU
 70
           2
  9
$DIMALTTD
 70
           2
  9
$DIMTXSTY
  7
STANDARD
  9
$DIMAUNIT
 70
           0
  9
$LUNITS
 70
           2
  9
$LUPREC
 70
           4
  9
$SKETCHINC
 40
0.1
  9
$FILLETRAD
 40
0.0
  9
$AUNITS
 70
           0
  9
$AUPREC
 70
           0
  9
$MENU
  1
acad
  9
$ELEVATION
 40
0.0
  9
$PELEVATION
 40
0.0
  9
$THICKNESS
 40
0.0
  9
$LIMCHECK
 70
           0
  9
$BLIPMODE
 70
           1
  9
$CHAMFERA
 40
0.0
  9
$CHAMFERB
 40
0.0
  9
$CHAMFERC
 40
0.0
  9
$CHAMFERD
 40
0.0
  9
$SKPOLY
 70
           0
  9
$TDCREATE
 40
0.000000000
  9
$TDUPDATE
 40
0.000000000
  9
$TDINDWG
 40
0.0000000000
  9
$TDUSRTIMER
 40
0.0000000000
  9
$USRTIMER
 70
           1
  9
$ANGBASE
 50
0.0
  9
$ANGDIR
 70
           0
  9
$PDMODE
 70
           0
  9
$PDSIZE
 40
0.0
  9
$PLINEWID
 40
0.0
  9
$COORDS
 70
           0
  9
$SPLFRAME
 70
           0
  9
$SPLINETYPE
 70
           6
  9
$SPLINESEGS
 70
           8
  9
$ATTDIA
 70
           0
  9
$ATTREQ
 70
           1
  9
$HANDLING
 70
           1
  9
$HANDSEED
  5
61B
  9
$SURFTAB1
 70
           6
  9
$SURFTAB2
 70
           6
  9
$SURFTYPE
 70
           6
  9
$SURFU
 70
           6
  9
$SURFV
 70
           6
  9
$UCSNAME
  2

  9
$UCSORG
 10
0.0
 20
0.0
 30
0.0
  9
$UCSXDIR
 10
1.0
 20
0.0
 30
0.0
  9
$UCSYDIR
 10
0.0
 20
1.0
 30
0.0
  9
$PUCSNAME
  2

  9
$PUCSORG
 10
0.0
 20
0.0
 30
0.0
  9
$PUCSXDIR
 10
1.0
 20
0.0
 30
0.0
  9
$PUCSYDIR
 10
0.0
 20
1.0
 30
0.0
  9
$USERI1
 70
           0
  9
$USERI2
 70
           0
  9
$USERI3
 70
           0
  9
$USERI4
 70
           0
  9
$USERI5
 70
           0
  9
$USERR1
 40
0.0
  9
$USERR2
 40
0.0
  9
$USERR3
 40
0.0
  9
$USERR4
 40
0.0
  9
$USERR5
 40
0.0
  9
$WORLDVIEW
 70
           1
  9
$SHADEDGE
 70
           3
  9
$SHADEDIF
 70
          70
  9
$TILEMODE
 70
           1
  9
$MAXACTVP
 70
          16
  9
$PINSBASE
 10
0.0
 20
0.0
 30
0.0
  9
$PLIMCHECK
 70
           0
  9
$PEXTMIN
 10
1.000000000000E+20
 20
1.000000000000E+20
 30
1.000000000000E+20
  9
$PEXTMAX
 10
-1.000000000000E+20
 20
-1.000000000000E+20
 30
-1.000000000000E+20
  9
$PLIMMIN
 10
0.0
 20
0.0
  9
$PLIMMAX
 10
12.0
 20
9.0
  9
$UNITMODE
 70
           0
  9
$VISRETAIN
 70
           0
  9
$PLINEGEN
 70
           1
  9
$PSLTSCALE
 70
           0
  9
$TREEDEPTH
 70
        3020
  9
$PICKSTYLE
 70
           1
  9
$CMLSTYLE
  2
STANDARD
  9
$CMLJUST
 70
           0
  9
$CMLSCALE
 40
1.0
  9
$PROXYGRAPHICS
 70
           0
  9
$MEASUREMENT
 70
           0
  0
ENDSEC
  0
SECTION
  2
CLASSES
  0
CLASS
  1
LWPOLYLINE
  2
AcDbPolyline
  3
"AutoCAD"
 90
        0
280
           0
281
           1
  0
CLASS
  1
IMAGE
  2
AcDbRasterImage
  3
ISM
 90
      127
280
           0
281
           1
  0
CLASS
  1
OLE2FRAME
  2
AcDbOle2Frame
  3
""
 90
        0
280
           0
281
           1
  0
CLASS
  1
HATCH
  2
AcDbHatch
  3
"ACAD_SEDONA"
 90
        0
280
           0
281
           1
  0
CLASS
  1
DICTIONARYVAR
  2
AcDbDictionaryVar
  3
"AutoCAD"
 90
        0
280
           0
281
           0
  0
CLASS
  1
RASTERVARIABLES
  2
AcDbRasterVariables
  3
ISM
 90
        0
280
           0
281
           0
  0
CLASS
  1
IMAGEDEF
  2
AcDbRasterImageDef
  3
ISM
 90
        0
280
           0
281
           0
  0
CLASS
  1
IMAGEDEF_REACTOR
  2
AcDbRasterImageDefReactor
  3
ISM
 90
        1
280
           0
281
           0
  0
CLASS
  1
IDBUFFER
  2
AcDbIdBuffer
  3
"Acad"
 90
        0
280
           0
281
           0
  0
CLASS
  1
SPATIAL_FILTER
  2
AcDbSpatialFilter
  3
"Acad"
 90
        0
280
           0
281
           0
  0
CLASS
  1
XRECORD
  2
AcDbXrecord
  3
"<Built In>"
 90
        0
280
           0
281
           0
  0
CLASS
  1
SORTENTSTABLE
  2
AcDbSortentsTable
  3
"AutoCAD"
 90
        0
280
           0
281
           0
  0
CLASS
  1
LAYER_INDEX
  2
AcDbLayerIndex
  3
"Acad"
 90
        0
280
           0
281
           0
  0
CLASS
  1
SPATIAL_INDEX
  2
AcDbSpatialIndex
  3
"Acad"
 90
        0
280
           0
281
           0
  0
CLASS
  1
OBJECT_PTR
  2
CAseDLPNTableRecord
  3
"ASE-LPNTableRecord"
 90
        1
280
           0
281
           0
  0
CLASS
  1
LAYOUT
  2
AcDbLayout
  3
"AutoCAD 2000"
 90
        1
280
           0
281
           0
  0
CLASS
  1
PLOTSETTINGS
  2
AcDbPlotSettings
  3
"AutoCAD 2000"
 90
        1
280
           0
281
           0
  0
CLASS
  1
ACDBDICTIONARYWDFLT
  2
AcDbDictionaryWithDefault
  3
"AutoCAD 2000"
 90
        1
280
           0
281
           0
  0
CLASS
  1
ACDBPLACEHOLDER
  2
AcDbPlaceHolder
  3
"AutoCAD 2000"
 90
        1
280
           0
281
           0
  0
CLASS
  1
VBA_PROJECT
  2
AcDbVbaProject
  3
"acadvba"
 90
        1
280
           0
281
           0
  0
CLASS
  1
WIPEOUT
  2
AcDbWipeout
  3
WipeOut|AutoCAD Express Tool|expresstools@autodesk.com
 90
      127
280
           0
281
           1
  0
CLASS
  1
WIPEOUTVARIABLES
  2
AcDbWipeoutVariables
  3
WipeOut|AutoCAD Express Tool|expresstools@autodesk.com
 90
        0
280
           0
281
           0
  0
CLASS
  1
RTEXT
  2
RText
  3
RText|AutoCAD Express Tool|expresstools@autodesk.com
 90
        0
280
           0
281
           1
  0
CLASS
  1
ARCALIGNEDTEXT
  2
AcDbArcAlignedText
  3
ATEXT|AutoCAD Express Tool|expresstools@autodesk.com
 90
        0
280
           0
281
           1
  0
ENDSEC
  0
SECTION
  2
TABLES
  0
TABLE
  2
VPORT
  5
7
100
AcDbSymbolTable
 70
           1
  0
VPORT
  5
15
100
AcDbSymbolTableRecord
100
AcDbViewportTableRecord
  2
*ACTIVE
 70
           0
 10
0.0
 20
0.0
 11
1.0
 21
1.0
 12
6.591288
 22
4.579184
 13
0.0
 23
0.0
 14
1.0
 24
1.0
 15
0.0
 25
0.0
 16
0.0
 26
0.0
 36
1.0
 17
0.0
 27
0.0
 37
0.0
 40
9.158369
 41
0.688564
 42
50.0
 43
0.0
 44
0.0
 50
0.0
 51
0.0
 71
           0
 72
         100
 73
           1
 74
           1
 75
           0
 76
           0
 77
           0
 78
           0
  0
ENDTAB
  0
TABLE
  2
LTYPE
  5
4
100
AcDbSymbolTable
 70
          10
  0
LTYPE
  5
11
100
AcDbSymbolTableRecord
100
AcDbLinetypeTableRecord
  2
BYBLOCK
 70
          64
  3

 72
          65
 73
           0
 40
0.0
  0
LTYPE
  5
12
100
AcDbSymbolTableRecord
100
AcDbLinetypeTableRecord
  2
BYLAYER
 70
          64
  3

 72
          65
 73
           0
 40
0.0
  0
LTYPE
  5
13
100
AcDbSymbolTableRecord
100
AcDbLinetypeTableRecord
  2
CONTINUOUS
 70
          64
  3
Solid line
 72
          65
 73
           0
 40
0.0
  0
LTYPE
  5
1D
100
AcDbSymbolTableRecord
100
AcDbLinetypeTableRecord
  2
DASHED
 70
          64
  3
Dashed
 72
          65
 73
           2
 40
15.0
 49
12.0
 74
           0
 49
-3.0
 74
           0
  0
LTYPE
  5
1E
100
AcDbSymbolTableRecord
100
AcDbLinetypeTableRecord
  2
DOTTED
 70
          64
  3
Dotted
 72
          65
 73
           2
 40
3.5
 49
0.5
 74
           0
 49
-3.0
 74
           0
  0
LTYPE
  5
1F
100
AcDbSymbolTableRecord
100
AcDbLinetypeTableRecord
  2
DOT_CENTER
 70
          64
  3
Dot_Center
 72
          65
 73
           4
 40
2.0
 49
1.25
 74
           0
 49
-0.25
 74
           0
 49
0.25
 74
           0
 49
-0.25
 74
           0
  0
LTYPE
  5
20
100
AcDbSymbolTableRecord
100
AcDbLinetypeTableRecord
  2
LONG_DASHED
 70
          64
  3
Long_Dashed
 72
          65
 73
           2
 40
2.0
 49
1.5
 74
           0
 49
-0.5
 74
           0
  0
LTYPE
  5
21
100
AcDbSymbolTableRecord
100
AcDbLinetypeTableRecord
  2
DASH_CENTER
 70
          64
  3
Dash_Center
 72
          65
 73
           4
 40
36.0
 49
24.0
 74
           0
 49
-3.0
 74
           0
 49
6.0
 74
           0
 49
-3.0
 74
           0
  0
LTYPE
  5
22
100
AcDbSymbolTableRecord
100
AcDbLinetypeTableRecord
  2
PHANTOM
 70
          64
  3
Phantom
 72
          65
 73
           6
 40
2.5
 49
1.25
 74
           0
 49
-0.25
 74
           0
 49
0.25
 74
           0
 49
-0.25
 74
           0
 49
0.25
 74
           0
 49
-0.25
 74
           0
  0
LTYPE
  5
23
100
AcDbSymbolTableRecord
100
AcDbLinetypeTableRecord
  2
CENTER_DASH_DASH
 70
          64
  3
Center_Dash_Dash
 72
          65
 73
           6
 40
22.0
 49
12.0
 74
           0
 49
-3.0
 74
           0
 49
0.5
 74
           0
 49
-3.0
 74
           0
 49
0.5
 74
           0
 49
-3.0
 74
           0
  0
ENDTAB
  0
TABLE
  2
LAYER
  5
2
100
AcDbSymbolTable
 70
           2
  0
LAYER
  5
14
100
AcDbSymbolTableRecord
100
AcDbLayerTableRecord
  2
0
 70
           0
 62
           7
  6
CONTINUOUS
  0
LAYER
  5
24
100
AcDbSymbolTableRecord
100
AcDbLayerTableRecord
  2
1
 70
           0
 62
           7
  6
CONTINUOUS
  0
ENDTAB
  0
TABLE
  2
STYLE
  5
3
100
AcDbSymbolTable
 70
          15
  0
STYLE
  5
17
100
AcDbSymbolTableRecord
100
AcDbTextStyleTableRecord
  2
STANDARD
 70
           0
 40
0.0
 41
1.0
 50
0.0
 71
           0
 42
0.0
  3
txt
  4

  0
STYLE
  5
471
100
AcDbSymbolTableRecord
100
AcDbTextStyleTableRecord
  2
CONVERTER_1
 70
           0
 40
0.0
 41
1.0
 50
0.0
 71
           0
 42
0.0
  3
txt.shx
  4

1001
ACAD
1000

1071
  4232347
  0
STYLE
  5
473
100
AcDbSymbolTableRecord
100
AcDbTextStyleTableRecord
  2
CONVERTER_2
 70
           0
 40
0.0
 41
1.0
 50
0.0
 71
           0
 42
0.0
  3
txt.shx
  4

  0
STYLE
  5
475
100
AcDbSymbolTableRecord
100
AcDbTextStyleTableRecord
  2
CONVERTER_3
 70
           0
 40
0.0
 41
0.7
 50
0.0
 71
           0
 42
0.0
  3
txt.shx
  4

  0
STYLE
  5
49F
100
AcDbSymbolTableRecord
100
AcDbTextStyleTableRecord
  2
CONVERTER_4
 70
           0
 40
0.0
 41
1.1
 50
0.0
 71
           0
 42
0.0
  3
txt.shx
  4

  0
STYLE
  5
531
100
AcDbSymbolTableRecord
100
AcDbTextStyleTableRecord
  2
CONVERTER_5
 70
           0
 40
0.0
 41
1.0
 50
0.0
 71
           0
 42
0.0
  3
txt.shx
  4

1001
ACAD
1000

1071
       12
  0
STYLE
  5
53D
100
AcDbSymbolTableRecord
100
AcDbTextStyleTableRecord
  2
CONVERTER_6
 70
           0
 40
0.0
 41
1.0
 50
0.0
 71
           0
 42
0.0
  3
txt.shx
  4

1001
ACAD
1000

1071
       13
  0
STYLE
  5
549
100
AcDbSymbolTableRecord
100
AcDbTextStyleTableRecord
  2
CONVERTER_7
 70
           0
 40
0.0
 41
1.0
 50
0.0
 71
           0
 42
0.0
  3
txt.shx
  4

1001
ACAD
1000

1071
       14
  0
STYLE
  5
557
100
AcDbSymbolTableRecord
100
AcDbTextStyleTableRecord
  2
CONVERTER_8
 70
           0
 40
0.0
 41
1.0
 50
0.0
 71
           0
 42
0.0
  3
txt.shx
  4

1001
ACAD
1000

1071
301989888
  0
STYLE
  5
588
100
AcDbSymbolTableRecord
100
AcDbTextStyleTableRecord
  2
CONVERTER_9
 70
           0
 40
0.0
 41
1.0
 50
0.0
 71
           0
 42
0.0
  3
txt.shx
  4

1001
ACAD
1000

1071
       19
  0
STYLE
  5
598
100
AcDbSymbolTableRecord
100
AcDbTextStyleTableRecord
  2
CONVERTER_10
 70
           0
 40
0.0
 41
1.0
 50
0.0
 71
           0
 42
0.0
  3
txt.shx
  4

1001
ACAD
1000

1071
2114256896
  0
STYLE
  5
5B3
100
AcDbSymbolTableRecord
100
AcDbTextStyleTableRecord
  2
CONVERTER_11
 70
           0
 40
0.0
 41
1.0
 50
0.0
 71
           0
 42
0.0
  3
txt.shx
  4

1001
ACAD
1000

1071
  1472500
  0
STYLE
  5
5EB
100
AcDbSymbolTableRecord
100
AcDbTextStyleTableRecord
  2
CONVERTER_12
 70
           0
 40
0.0
 41
1.0
 50
0.0
 71
           0
 42
0.0
  3
txt.shx
  4

1001
ACAD
1000

1071
       15
  0
STYLE
  5
5F7
100
AcDbSymbolTableRecord
100
AcDbTextStyleTableRecord
  2
CONVERTER_13
 70
           0
 40
0.0
 41
1.0
 50
0.0
 71
           0
 42
0.0
  3
txt.shx
  4

1001
ACAD
1000

1071
       16
  0
STYLE
  5
603
100
AcDbSymbolTableRecord
100
AcDbTextStyleTableRecord
  2
CONVERTER_14
 70
           0
 40
0.0
 41
1.0
 50
0.0
 71
           0
 42
0.0
  3
txt.shx
  4

1001
ACAD
1000

1071
       17
  0
ENDTAB
  0
TABLE
  2
VIEW
  5
5
100
AcDbSymbolTable
 70
           0
  0
ENDTAB
  0
TABLE
  2
UCS
  5
6
100
AcDbSymbolTable
 70
           0
  0
ENDTAB
  0
TABLE
  2
APPID
  5
8
100
AcDbSymbolTable
 70
           1
  0
APPID
  5
16
100
AcDbSymbolTableRecord
100
AcDbRegAppTableRecord
  2
ACAD
 70
           0
  0
ENDTAB
  0
TABLE
  2
DIMSTYLE
  5
9
100
AcDbSymbolTable
 70
          20
  0
DIMSTYLE
105
18
100
AcDbSymbolTableRecord
100
AcDbDimStyleTableRecord
  2
STANDARD
 70
           0
  3

  4

  5

  6

  7

 40
1.0
 41
0.18
 42
0.0625
 43
0.38
 44
0.18
 45
0.0
 46
0.0
 47
0.0
 48
0.0
 71
           0
 72
           0
 73
           1
 74
           1
 75
           0
 76
           0
 77
           0
 78
           0
140
0.18
141
0.09
142
0.0
143
25.4
144
1.0
145
0.0
146
1.0
147
0.09
170
           0
171
           2
172
           0
173
           0
174
           0
175
           0
176
           0
177
           0
178
           0
270
           2
271
           4
272
           4
273
           2
274
           2
275
           0
280
           0
281
           0
282
           0
283
           1
284
           0
285
           0
286
           0
287
           0
288
           0
340
17
  0
DIMSTYLE
105
534
100
AcDbSymbolTableRecord
100
AcDbDimStyleTableRecord
  2
ME10_DIM_0
 70
           0
  3

  4

  5

  6

  7

 40
1.0
 41
3.5
 42
0.0
 43
0.38
 44
2.0
 45
0.0
 46
0.0
 47
0.0
 48
0.0
 71
           0
 72
           0
 73
           0
 74
           0
 75
           0
 76
           0
 77
           1
 78
           8
140
3.5
141
0.09
142
0.0
143
25.4
144
1.0
145
0.0
146
1.0
147
0.09
170
           0
171
           2
172
           0
173
           1
174
           0
175
           0
176
           1
177
           1
178
           2
270
           2
271
           2
272
           4
273
           2
274
           2
275
           0
280
           0
281
           0
282
           0
283
           1
284
           0
285
           0
286
           0
287
           3
288
           0
340
17
  0
DIMSTYLE
105
540
100
AcDbSymbolTableRecord
100
AcDbDimStyleTableRecord
  2
ME10_DIM_1
 70
           0
  3

  4

  5

  6

  7

 40
1.0
 41
3.5
 42
0.0
 43
0.38
 44
2.0
 45
0.0
 46
0.0
 47
0.0
 48
0.0
 71
           0
 72
           0
 73
           0
 74
           0
 75
           0
 76
           0
 77
           1
 78
           8
140
3.5
141
0.09
142
0.0
143
25.4
144
1.0
145
0.0
146
1.0
147
0.09
170
           0
171
           2
172
           0
173
           1
174
           0
175
           0
176
           1
177
           1
178
           2
270
           2
271
           2
272
           4
273
           2
274
           2
275
           0
280
           0
281
           0
282
           0
283
           1
284
           0
285
           0
286
           0
287
           3
288
           0
340
17
  0
DIMSTYLE
105
54C
100
AcDbSymbolTableRecord
100
AcDbDimStyleTableRecord
  2
ME10_DIM_2
 70
           0
  3

  4

  5

  6

  7

 40
1.0
 41
3.5
 42
0.0
 43
0.38
 44
2.0
 45
0.0
 46
0.0
 47
0.0
 48
0.0
 71
           0
 72
           0
 73
           0
 74
           0
 75
           0
 76
           0
 77
           1
 78
           8
140
3.5
141
0.09
142
0.0
143
25.4
144
1.0
145
0.0
146
1.0
147
0.09
170
           0
171
           2
172
           0
173
           1
174
           0
175
           0
176
           1
177
           1
178
           2
270
           2
271
           2
272
           4
273
           2
274
           2
275
           0
280
           0
281
           0
282
           0
283
           1
284
           0
285
           0
286
           0
287
           3
288
           0
340
17
  0
DIMSTYLE
105
55A
100
AcDbSymbolTableRecord
100
AcDbDimStyleTableRecord
  2
ME10_DIM_3
 70
           0
  3

  4

  5

  6

  7

 40
1.0
 41
3.5
 42
0.0
 43
0.38
 44
2.0
 45
0.0
 46
0.0
 47
0.0
 48
0.0
 71
           0
 72
           0
 73
           0
 74
           0
 75
           0
 76
           0
 77
           1
 78
           8
140
3.5
141
0.09
142
0.0
143
25.4
144
1.0
145
0.0
146
1.0
147
0.09
170
           0
171
           2
172
           0
173
           1
174
           0
175
           0
176
           1
177
           1
178
           2
270
           2
271
           2
272
           4
273
           2
274
           2
275
           0
280
           0
281
           0
282
           0
283
           1
284
           0
285
           0
286
           0
287
           3
288
           0
340
17
  0
DIMSTYLE
105
567
100
AcDbSymbolTableRecord
100
AcDbDimStyleTableRecord
  2
ME10_DIM_4
 70
           0
  3

  4

  5

  6

  7

 40
1.0
 41
3.5
 42
0.0
 43
0.38
 44
2.0
 45
0.0
 46
0.0
 47
0.0
 48
0.0
 71
           0
 72
           0
 73
           0
 74
           0
 75
           0
 76
           0
 77
           1
 78
           8
140
3.5
141
0.09
142
0.0
143
25.4
144
1.0
145
0.0
146
1.0
147
0.09
170
           0
171
           2
172
           0
173
           1
174
           0
175
           0
176
           1
177
           1
178
           2
270
           2
271
           2
272
           4
273
           2
274
           2
275
           0
280
           0
281
           0
282
           0
283
           1
284
           0
285
           0
286
           0
287
           3
288
           0
340
17
  0
DIMSTYLE
105
572
100
AcDbSymbolTableRecord
100
AcDbDimStyleTableRecord
  2
ME10_DIM_5
 70
           0
  3

  4

  5

  6

  7

 40
1.0
 41
3.5
 42
0.0
 43
0.38
 44
2.0
 45
0.0
 46
0.0
 47
0.0
 48
0.0
 71
           0
 72
           0
 73
           0
 74
           0
 75
           0
 76
           0
 77
           1
 78
           8
140
3.5
141
0.09
142
0.0
143
25.4
144
1.0
145
0.0
146
1.0
147
0.09
170
           0
171
           2
172
           0
173
           1
174
           0
175
           0
176
           1
177
           1
178
           2
270
           2
271
           2
272
           4
273
           2
274
           2
275
           0
280
           0
281
           0
282
           0
283
           1
284
           0
285
           0
286
           0
287
           3
288
           0
340
17
  0
DIMSTYLE
105
57D
100
AcDbSymbolTableRecord
100
AcDbDimStyleTableRecord
  2
ME10_DIM_6
 70
           0
  3

  4

  5

  6

  7

 40
1.0
 41
3.5
 42
0.0
 43
0.38
 44
2.0
 45
0.0
 46
0.0
 47
0.0
 48
0.0
 71
           0
 72
           0
 73
           0
 74
           0
 75
           0
 76
           0
 77
           1
 78
           8
140
3.5
141
0.09
142
0.0
143
25.4
144
1.0
145
0.0
146
1.0
147
0.09
170
           0
171
           2
172
           0
173
           1
174
           0
175
           0
176
           1
177
           1
178
           2
270
           2
271
           2
272
           4
273
           2
274
           2
275
           0
280
           0
281
           0
282
           0
283
           1
284
           0
285
           0
286
           0
287
           3
288
           0
340
17
  0
DIMSTYLE
105
58B
100
AcDbSymbolTableRecord
100
AcDbDimStyleTableRecord
  2
ME10_DIM_7
 70
           0
  3

  4

  5

  6

  7

 40
1.0
 41
3.5
 42
0.0
 43
0.38
 44
2.0
 45
0.0
 46
0.0
 47
0.0
 48
0.0
 71
           0
 72
           0
 73
           0
 74
           0
 75
           0
 76
           0
 77
           1
 78
           8
140
3.5
141
0.09
142
0.0
143
25.4
144
1.0
145
0.0
146
1.0
147
0.09
170
           0
171
           2
172
           0
173
           1
174
           0
175
           0
176
           1
177
           1
178
           2
270
           2
271
           2
272
           4
273
           2
274
           2
275
           0
280
           0
281
           0
282
           0
283
           1
284
           0
285
           0
286
           0
287
           3
288
           0
340
17
  0
DIMSTYLE
105
59B
100
AcDbSymbolTableRecord
100
AcDbDimStyleTableRecord
  2
ME10_DIM_8
 70
           0
  3
ø<>
  4

  5

  6

  7

 40
1.0
 41
3.5
 42
0.0
 43
0.38
 44
2.0
 45
0.0
 46
0.0
 47
0.0
 48
0.0
 71
           0
 72
           0
 73
           0
 74
           0
 75
           0
 76
           0
 77
           1
 78
           8
140
3.5
141
0.09
142
0.0
143
25.4
144
1.0
145
0.0
146
1.0
147
0.09
170
           0
171
           2
172
           0
173
           1
174
           0
175
           0
176
           1
177
           1
178
           2
270
           2
271
           2
272
           4
273
           2
274
           2
275
           0
280
           0
281
           0
282
           0
283
           1
284
           0
285
           0
286
           0
287
           3
288
           0
340
17
  0
DIMSTYLE
105
5A8
100
AcDbSymbolTableRecord
100
AcDbDimStyleTableRecord
  2
ME10_DIM_9
 70
           0
  3
ø<>
  4

  5

  6

  7

 40
1.0
 41
3.5
 42
0.0
 43
0.38
 44
2.0
 45
0.0
 46
0.0
 47
0.0
 48
0.0
 71
           0
 72
           0
 73
           0
 74
           0
 75
           0
 76
           0
 77
           1
 78
           8
140
3.5
141
0.09
142
0.0
143
25.4
144
1.0
145
0.0
146
1.0
147
0.09
170
           0
171
           2
172
           0
173
           1
174
           0
175
           0
176
           1
177
           1
178
           2
270
           2
271
           2
272
           4
273
           2
274
           2
275
           0
280
           0
281
           0
282
           0
283
           1
284
           0
285
           0
286
           0
287
           3
288
           0
340
17
  0
DIMSTYLE
105
5B6
100
AcDbSymbolTableRecord
100
AcDbDimStyleTableRecord
  2
ME10_DIM_10
 70
           0
  3

  4

  5

  6

  7

 40
1.0
 41
3.5
 42
0.0
 43
0.38
 44
2.0
 45
0.0
 46
0.0
 47
0.0
 48
0.0
 71
           0
 72
           0
 73
           0
 74
           0
 75
           0
 76
           0
 77
           1
 78
           8
140
3.5
141
0.09
142
0.0
143
25.4
144
1.0
145
0.0
146
1.0
147
0.09
170
           0
171
           2
172
           0
173
           1
174
           0
175
           0
176
           1
177
           1
178
           2
270
           2
271
           2
272
           4
273
           2
274
           2
275
           0
280
           0
281
           0
282
           0
283
           1
284
           0
285
           0
286
           0
287
           3
288
           0
340
17
  0
DIMSTYLE
105
5C1
100
AcDbSymbolTableRecord
100
AcDbDimStyleTableRecord
  2
ME10_DIM_11
 70
           0
  3

  4

  5

  6

  7

 40
1.0
 41
3.5
 42
0.0
 43
0.38
 44
2.0
 45
0.0
 46
0.0
 47
0.0
 48
0.0
 71
           0
 72
           0
 73
           0
 74
           0
 75
           0
 76
           0
 77
           1
 78
           8
140
3.5
141
0.09
142
0.0
143
25.4
144
1.0
145
0.0
146
1.0
147
0.09
170
           0
171
           2
172
           0
173
           1
174
           0
175
           0
176
           1
177
           1
178
           2
270
           2
271
           2
272
           4
273
           2
274
           2
275
           0
280
           0
281
           0
282
           0
283
           1
284
           0
285
           0
286
           0
287
           3
288
           0
340
17
  0
DIMSTYLE
105
5CC
100
AcDbSymbolTableRecord
100
AcDbDimStyleTableRecord
  2
ME10_DIM_12
 70
           0
  3

  4

  5

  6

  7

 40
1.0
 41
3.5
 42
0.0
 43
0.38
 44
2.0
 45
0.0
 46
0.0
 47
0.0
 48
0.0
 71
           0
 72
           0
 73
           0
 74
           0
 75
           0
 76
           0
 77
           1
 78
           8
140
3.5
141
0.09
142
0.0
143
25.4
144
1.0
145
0.0
146
1.0
147
0.09
170
           0
171
           2
172
           0
173
           1
174
           0
175
           0
176
           1
177
           1
178
           2
270
           2
271
           2
272
           4
273
           2
274
           2
275
           0
280
           0
281
           0
282
           0
283
           1
284
           0
285
           0
286
           0
287
           3
288
           0
340
17
  0
DIMSTYLE
105
5D7
100
AcDbSymbolTableRecord
100
AcDbDimStyleTableRecord
  2
ME10_DIM_13
 70
           0
  3

  4

  5

  6

  7

 40
1.0
 41
3.5
 42
0.0
 43
0.38
 44
2.0
 45
0.0
 46
0.0
 47
0.0
 48
0.0
 71
           0
 72
           0
 73
           0
 74
           0
 75
           0
 76
           0
 77
           1
 78
           8
140
3.5
141
0.09
142
0.0
143
25.4
144
1.0
145
0.0
146
1.0
147
0.09
170
           0
171
           2
172
           0
173
           1
174
           0
175
           0
176
           1
177
           1
178
           2
270
           2
271
           2
272
           4
273
           2
274
           2
275
           0
280
           0
281
           0
282
           0
283
           1
284
           0
285
           0
286
           0
287
           3
288
           0
340
17
  0
DIMSTYLE
105
5E2
100
AcDbSymbolTableRecord
100
AcDbDimStyleTableRecord
  2
ME10_DIM_14
 70
           0
  3

  4

  5

  6

  7

 40
1.0
 41
3.5
 42
0.0
 43
0.38
 44
2.0
 45
0.0
 46
0.0
 47
0.0
 48
0.0
 71
           0
 72
           0
 73
           0
 74
           0
 75
           0
 76
           0
 77
           1
 78
           8
140
3.5
141
0.09
142
0.0
143
25.4
144
1.0
145
0.0
146
1.0
147
0.09
170
           0
171
           2
172
           0
173
           1
174
           0
175
           0
176
           1
177
           1
178
           2
270
           2
271
           2
272
           4
273
           2
274
           2
275
           0
280
           0
281
           0
282
           0
283
           1
284
           0
285
           0
286
           0
287
           3
288
           0
340
17
  0
DIMSTYLE
105
5EE
100
AcDbSymbolTableRecord
100
AcDbDimStyleTableRecord
  2
ME10_DIM_15
 70
           0
  3

  4

  5

  6

  7

 40
1.0
 41
3.5
 42
0.0
 43
0.38
 44
2.0
 45
0.0
 46
0.0
 47
0.0
 48
0.0
 71
           0
 72
           0
 73
           0
 74
           0
 75
           0
 76
           0
 77
           1
 78
           8
140
3.5
141
0.09
142
0.0
143
25.4
144
1.0
145
0.0
146
1.0
147
0.09
170
           0
171
           2
172
           0
173
           1
174
           0
175
           0
176
           1
177
           1
178
           2
270
           2
271
           2
272
           4
273
           2
274
           2
275
           0
280
           0
281
           0
282
           0
283
           1
284
           0
285
           0
286
           0
287
           3
288
           0
340
17
  0
DIMSTYLE
105
5FA
100
AcDbSymbolTableRecord
100
AcDbDimStyleTableRecord
  2
ME10_DIM_16
 70
           0
  3

  4

  5

  6

  7

 40
1.0
 41
3.5
 42
0.0
 43
0.38
 44
2.0
 45
0.0
 46
0.0
 47
0.0
 48
0.0
 71
           0
 72
           0
 73
           0
 74
           0
 75
           0
 76
           0
 77
           1
 78
           8
140
3.5
141
0.09
142
0.0
143
25.4
144
1.0
145
0.0
146
1.0
147
0.09
170
           0
171
           2
172
           0
173
           1
174
           0
175
           0
176
           1
177
           1
178
           2
270
           2
271
           2
272
           4
273
           2
274
           2
275
           0
280
           0
281
           0
282
           0
283
           1
284
           0
285
           0
286
           0
287
           3
288
           0
340
17
  0
DIMSTYLE
105
606
100
AcDbSymbolTableRecord
100
AcDbDimStyleTableRecord
  2
ME10_DIM_17
 70
           0
  3

  4

  5

  6

  7

 40
1.0
 41
3.5
 42
0.0
 43
0.38
 44
2.0
 45
0.0
 46
0.0
 47
0.0
 48
0.0
 71
           0
 72
           0
 73
           0
 74
           0
 75
           0
 76
           0
 77
           1
 78
           8
140
3.5
141
0.09
142
0.0
143
25.4
144
1.0
145
0.0
146
1.0
147
0.09
170
           0
171
           2
172
           0
173
           1
174
           0
175
           0
176
           1
177
           1
178
           2
270
           2
271
           2
272
           4
273
           2
274
           2
275
           0
280
           0
281
           0
282
           0
283
           1
284
           0
285
           0
286
           0
287
           3
288
           0
340
17
  0
DIMSTYLE
105
614
100
AcDbSymbolTableRecord
100
AcDbDimStyleTableRecord
  2
ME10_DIM_18
 70
           0
  3

  4

  5

  6

  7

 40
1.0
 41
3.5
 42
0.0
 43
0.38
 44
2.0
 45
0.0
 46
0.0
 47
0.0
 48
0.0
 71
           0
 72
           0
 73
           0
 74
           0
 75
           0
 76
           0
 77
           1
 78
           8
140
3.5
141
0.09
142
0.0
143
25.4
144
1.0
145
0.0
146
1.0
147
0.09
170
           0
171
           2
172
           0
173
           1
174
           0
175
           0
176
           1
177
           1
178
           2
270
           2
271
           2
272
           4
273
           2
274
           2
275
           0
280
           0
281
           0
282
           0
283
           1
284
           0
285
           0
286
           0
287
           3
288
           0
340
17
  0
ENDTAB
  0
TABLE
  2
BLOCK_RECORD
  5
1
100
AcDbSymbolTable
 70
          20
  0
BLOCK_RECORD
  5
A
100
AcDbSymbolTableRecord
100
AcDbBlockTableRecord
  2
*MODEL_SPACE
  0
BLOCK_RECORD
  5
B
100
AcDbSymbolTableRecord
100
AcDbBlockTableRecord
  2
*PAPER_SPACE
  0
BLOCK_RECORD
  5
25
100
AcDbSymbolTableRecord
100
AcDbBlockTableRecord
  2
_TB_A3_Q
  0
BLOCK_RECORD
  5
528
100
AcDbSymbolTableRecord
100
AcDbBlockTableRecord
  2
*D1
  0
BLOCK_RECORD
  5
536
100
AcDbSymbolTableRecord
100
AcDbBlockTableRecord
  2
*D2
  0
BLOCK_RECORD
  5
542
100
AcDbSymbolTableRecord
100
AcDbBlockTableRecord
  2
*D3
  0
BLOCK_RECORD
  5
54E
100
AcDbSymbolTableRecord
100
AcDbBlockTableRecord
  2
*D4
  0
BLOCK_RECORD
  5
55C
100
AcDbSymbolTableRecord
100
AcDbBlockTableRecord
  2
*D5
  0
BLOCK_RECORD
  5
569
100
AcDbSymbolTableRecord
100
AcDbBlockTableRecord
  2
*D6
  0
BLOCK_RECORD
  5
574
100
AcDbSymbolTableRecord
100
AcDbBlockTableRecord
  2
*D7
  0
BLOCK_RECORD
  5
57F
100
AcDbSymbolTableRecord
100
AcDbBlockTableRecord
  2
*D8
  0
BLOCK_RECORD
  5
58D
100
AcDbSymbolTableRecord
100
AcDbBlockTableRecord
  2
*D9
  0
BLOCK_RECORD
  5
59D
100
AcDbSymbolTableRecord
100
AcDbBlockTableRecord
  2
*D10
  0
BLOCK_RECORD
  5
5AA
100
AcDbSymbolTableRecord
100
AcDbBlockTableRecord
  2
*D11
  0
BLOCK_RECORD
  5
5B8
100
AcDbSymbolTableRecord
100
AcDbBlockTableRecord
  2
*D12
  0
BLOCK_RECORD
  5
5C3
100
AcDbSymbolTableRecord
100
AcDbBlockTableRecord
  2
*D13
  0
BLOCK_RECORD
  5
5CE
100
AcDbSymbolTableRecord
100
AcDbBlockTableRecord
  2
*D14
  0
BLOCK_RECORD
  5
5D9
100
AcDbSymbolTableRecord
100
AcDbBlockTableRecord
  2
*D15
  0
BLOCK_RECORD
  5
5E4
100
AcDbSymbolTableRecord
100
AcDbBlockTableRecord
  2
*D16
  0
BLOCK_RECORD
  5
5F0
100
AcDbSymbolTableRecord
100
AcDbBlockTableRecord
  2
*D17
  0
BLOCK_RECORD
  5
5FC
100
AcDbSymbolTableRecord
100
AcDbBlockTableRecord
  2
*D18
  0
BLOCK_RECORD
  5
608
100
AcDbSymbolTableRecord
100
AcDbBlockTableRecord
  2
*D19
  0
ENDTAB
  0
ENDSEC
  0
SECTION
  2
BLOCKS
  0
BLOCK
  5
D
100
AcDbEntity
  8
0
100
AcDbBlockBegin
  2
*MODEL_SPACE
 70
           0
 10
0.0
 20
0.0
 30
0.0
  3
*MODEL_SPACE
  1

  0
ENDBLK
  5
E
100
AcDbEntity
  8
0
100
AcDbBlockEnd
  0
BLOCK
  5
F
100
AcDbEntity
 67
           1
  8
0
100
AcDbBlockBegin
  2
*PAPER_SPACE
 70
           0
 10
0.0
 20
0.0
 30
0.0
  3
*PAPER_SPACE
  1

  0
ENDBLK
  5
10
100
AcDbEntity
 67
           1
  8
0
100
AcDbBlockEnd
  0
BLOCK
  5
26
100
AcDbEntity
  8
0
100
AcDbBlockBegin
  2
_TB_A3_Q
 70
           0
 10
0.0
 20
0.0
 30
0.0
  3
_TB_A3_Q
  1

  0
HATCH
  5
4C2
100
AcDbEntity
  8
0
  6
CONTINUOUS
 62
           2
100
AcDbHatch
 10
0.0
 20
0.0
 30
0.0
210
0.0
220
0.0
230
1.0
  2
USER
 70
           0
 71
           1
 91
        1
 92
        1
 93
       57
 72
           1
 10
191.64065200033559
 20
-128.2072405903387
 11
192.216956090585
 21
-128.18772971753111
 72
           1
 10
192.216956090585
 20
-128.18772971753111
 11
192.23076891612709
 21
-127.9985298153547
 72
           1
 10
192.23076891612709
 20
-127.9985298153547
 11
192.2242185668174
 21
-127.6018395261577
 72
           1
 10
192.2242185668174
 20
-127.6018395261577
 11
192.2301498953247
 21
-126.6482388684913
 72
           1
 10
192.2301498953247
 20
-126.6482388684913
 11
192.2170491967054
 21
-126.0548582900943
 72
           1
 10
192.2170491967054
 20
-126.0548582900943
 11
192.2262966272728
 21
-125.6588742469617
 72
           1
 10
192.2262966272728
 20
-125.6588742469617
 11
192.22700875419559
 21
-124.87629376639011
 72
           1
 10
192.22700875419559
 20
-124.87629376639011
 11
192.25338511236711
 21
-124.8487264356159
 72
           1
 10
192.25338511236711
 20
-124.8487264356159
 11
192.41470842856961
 21
-124.8699419125137
 72
           1
 10
192.41470842856961
 20
-124.8699419125137
 11
192.7037975709799
 21
-124.9265243624064
 72
           1
 10
192.7037975709799
 20
-124.9265243624064
 11
192.9753024746087
 21
-125.0014850328148
 72
           1
 10
192.9753024746087
 20
-125.0014850328148
 11
193.34729210477141
 21
-125.1461871720481
 72
           1
 10
193.34729210477141
 20
-125.1461871720481
 11
193.68391476194029
 21
-125.318655137487
 72
           1
 10
193.68391476194029
 20
-125.318655137487
 11
193.94861250051409
 21
-125.4927110663953
 72
           1
 10
193.94861250051409
 20
-125.4927110663953
 11
194.12261010911149
 21
-125.6327894903439
 72
           1
 10
194.12261010911149
 20
-125.6327894903439
 11
194.19572600030821
 21
-125.6851452158194
 72
           1
 10
194.19572600030821
 20
-125.6851452158194
 11
194.52653396958971
 21
-126.0016615138798
 72
           1
 10
194.52653396958971
 20
-126.0016615138798
 11
194.79500312140311
 21
-126.3465391244477
 72
           1
 10
194.79500312140311
 20
-126.3465391244477
 11
194.935221720475
 21
-126.58630829319689
 72
           1
 10
194.935221720475
 20
-126.58630829319689
 11
195.11398321947939
 21
-126.9421614729259
 72
           1
 10
195.11398321947939
 20
-126.9421614729259
 11
195.25777473635659
 21
-127.3437617085097
 72
           1
 10
195.25777473635659
 20
-127.3437617085097
 11
195.31727629744361
 21
-127.5943079509866
 72
           1
 10
195.31727629744361
 20
-127.5943079509866
 11
195.34742406885471
 21
-127.7375623018729
 72
           1
 10
195.34742406885471
 20
-127.7375623018729
 11
195.36838273000731
 21
-127.8720245333684
 72
           1
 10
195.36838273000731
 20
-127.8720245333684
 11
195.39609023590401
 21
-128.2121676688862
 72
           1
 10
195.39609023590401
 20
-128.2121676688862
 11
195.37929997885749
 21
-128.26650834869861
 72
           1
 10
195.37929997885749
 20
-128.26650834869861
 11
195.02866600071229
 21
-128.274249670611
 72
           1
 10
195.02866600071229
 20
-128.274249670611
 11
194.05767959969941
 21
-128.29568717744269
 72
           1
 10
194.05767959969941
 20
-128.29568717744269
 11
193.03235251887321
 21
-128.3003344272297
 72
           1
 10
193.03235251887321
 20
-128.3003344272297
 11
191.52173628055701
 21
-128.3019745644211
 72
           1
 10
191.52173628055701
 20
-128.3019745644211
 11
191.5214214777761
 21
-128.3584700547822
 72
           1
 10
191.5214214777761
 20
-128.3584700547822
 11
191.52011386455251
 21
-129.2140786908827
 72
           1
 10
191.52011386455251
 20
-129.2140786908827
 11
191.5260687275613
 21
-129.48379713560871
 72
           1
 10
191.5260687275613
 20
-129.48379713560871
 11
191.5188881061413
 21
-130.78823026685271
 72
           1
 10
191.5188881061413
 20
-130.78823026685271
 11
191.52742340978779
 21
-131.17482670429271
 72
           1
 10
191.52742340978779
 20
-131.17482670429271
 11
191.5223443833265
 21
-131.75961365873221
 72
           1
 10
191.5223443833265
 20
-131.75961365873221
 11
191.4414288499074
 21
-131.76140011763579
 72
           1
 10
191.4414288499074
 20
-131.76140011763579
 11
191.30687888274491
 21
-131.73059853961379
 72
           1
 10
191.30687888274491
 20
-131.73059853961379
 11
191.00860063007619
 21
-131.66522397032941
 72
           1
 10
191.00860063007619
 20
-131.66522397032941
 11
190.7097268911084
 21
-131.57287755657271
 72
           1
 10
190.7097268911084
 20
-131.57287755657271
 11
190.42823889548799
 21
-131.4531623074777
 72
           1
 10
190.42823889548799
 20
-131.4531623074777
 11
190.07323801780419
 21
-131.26311010325529
 72
           1
 10
190.07323801780419
 20
-131.26311010325529
 11
189.79915267353769
 21
-131.0712714401339
 72
           1
 10
189.79915267353769
 20
-131.0712714401339
 11
189.57901101821611
 21
-130.8782418044089
 72
           1
 10
189.57901101821611
 20
-130.8782418044089
 11
189.33969716064621
 21
-130.6316654706057
 72
           1
 10
189.33969716064621
 20
-130.6316654706057
 11
189.14553487262941
 21
-130.39308727445911
 72
           1
 10
189.14553487262941
 20
-130.39308727445911
 11
188.99692114503429
 21
-130.18048844561471
 72
           1
 10
188.99692114503429
 20
-130.18048844561471
 11
188.8379273345808
 21
-129.90515380843729
 72
           1
 10
188.8379273345808
 20
-129.90515380843729
 11
188.70530988229891
 21
-129.60225184048571
 72
           1
 10
188.70530988229891
 20
-129.60225184048571
 11
188.65737937667379
 21
-129.4683850952911
 72
           1
 10
188.65737937667379
 20
-129.4683850952911
 11
188.5800950813709
 21
-129.22722645850681
 72
           1
 10
188.5800950813709
 20
-129.22722645850681
 11
188.49963485913119
 21
-128.84221798453521
 72
           1
 10
188.49963485913119
 20
-128.84221798453521
 11
188.4653186836139
 21
-128.51016072234009
 72
           1
 10
188.4653186836139
 20
-128.51016072234009
 11
188.46736195826179
 21
-128.29529070805941
 72
           1
 10
188.46736195826179
 20
-128.29529070805941
 11
188.4845492061749
 21
-128.25893125789531
 72
           1
 10
188.4845492061749
 20
-128.25893125789531
 11
190.2916627858385
 21
-128.2190336757354
 72
           1
 10
190.2916627858385
 20
-128.2190336757354
 11
191.64065200033559
 21
-128.2072405903387
 97
       57
330
335
330
334
330
333
330
332
330
331
330
330
330
32F
330
32E
330
32D
330
32C
330
32B
330
32A
330
329
330
328
330
327
330
326
330
325
330
324
330
323
330
322
330
321
330
320
330
31F
330
357
330
356
330
355
330
354
330
353
330
352
330
351
330
350
330
34F
330
34E
330
34D
330
34C
330
34B
330
34A
330
349
330
348
330
347
330
346
330
345
330
344
330
343
330
342
330
341
330
340
330
33F
330
33E
330
33D
330
33C
330
33B
330
33A
330
339
330
338
330
337
330
336
 75
           1
 76
           0
 52
0.0
 41
0.1
 77
           0
 78
           1
 53
0.0
 43
0.0
 44
0.0
 45
0.0
 46
0.1
 79
           0
 98
        1
 10
0.0
 20
0.0
  0
HATCH
  5
4C1
100
AcDbEntity
  8
0
  6
CONTINUOUS
 62
           2
100
AcDbHatch
 10
0.0
 20
0.0
 30
0.0
210
0.0
220
0.0
230
1.0
  2
USER
 70
           0
 71
           1
 91
        1
 92
        1
 93
       21
 72
           1
 10
193.9349285987891
 20
-129.04709211322509
 11
195.32926787827361
 21
-129.05228778030741
 72
           1
 10
195.28848320825909
 20
-129.14208316878421
 11
195.32926787827361
 21
-129.05228778030741
 72
           1
 10
195.2131255469821
 20
-129.39560684276469
 11
195.28848320825909
 21
-129.14208316878421
 72
           1
 10
195.13677540853951
 20
-129.6041774426235
 11
195.2131255469821
 21
-129.39560684276469
 72
           1
 10
195.0514346552709
 20
-129.81294653791571
 11
195.13677540853951
 21
-129.6041774426235
 72
           1
 10
194.86997607500689
 20
-130.1497676905179
 11
195.0514346552709
 21
-129.81294653791571
 72
           1
 10
194.6519595491454
 20
-130.46041098038179
 11
194.86997607500689
 21
-130.1497676905179
 72
           1
 10
194.37960234347241
 20
-130.75426401319919
 11
194.6519595491454
 21
-130.46041098038179
 72
           1
 10
194.13262901880171
 20
-130.97559664112171
 11
194.37960234347241
 21
-130.75426401319919
 72
           1
 10
193.9204271808257
 20
-131.14219159836421
 11
194.13262901880171
 21
-130.97559664112171
 72
           1
 10
193.61871618547499
 20
-131.32875273959189
 11
193.9204271808257
 21
-131.14219159836421
 72
           1
 10
193.2360896567088
 20
-131.5171003397223
 11
193.61871618547499
 21
-131.32875273959189
 72
           1
 10
192.95057343210371
 20
-131.62234895666509
 11
193.2360896567088
 21
-131.5171003397223
 72
           1
 10
192.7449802637484
 20
-131.6808580405837
 11
192.95057343210371
 21
-131.62234895666509
 72
           1
 10
192.46876390916711
 20
-131.75212915256591
 11
192.7449802637484
 21
-131.6808580405837
 72
           1
 10
192.23520641917179
 20
-131.76628064866381
 11
192.46876390916711
 21
-131.75212915256591
 72
           1
 10
192.23520641917179
 20
-131.76628064866381
 11
192.22601730891529
 21
-131.7574885292739
 72
           1
 10
192.22601730891529
 20
-131.7574885292739
 11
192.23016217852
 21
-130.7229723381902
 72
           1
 10
192.23016217852
 20
-130.7229723381902
 11
192.21499467075131
 21
-129.2211426716818
 72
           1
 10
192.21499467075131
 20
-129.2211426716818
 11
192.22781501912411
 21
-129.086989695385
 72
           1
 10
192.22781501912411
 20
-129.086989695385
 11
193.9349285987891
 21
-129.04709211322509
 97
       21
330
358
330
35E
330
35F
330
360
330
361
330
362
330
363
330
364
330
365
330
366
330
367
330
368
330
369
330
36A
330
36B
330
36C
330
35D
330
35C
330
35B
330
35A
330
359
 75
           1
 76
           0
 52
0.0
 41
0.1
 77
           0
 78
           1
 53
0.0
 43
0.0
 44
0.0
 45
0.0
 46
0.1
 79
           0
 98
        1
 10
0.0
 20
0.0
  0
HATCH
  5
4C0
100
AcDbEntity
  8
0
  6
CONTINUOUS
 62
           2
100
AcDbHatch
 10
0.0
 20
0.0
 30
0.0
210
0.0
220
0.0
230
1.0
  2
USER
 70
           0
 71
           1
 91
        1
 92
        1
 93
       23
 72
           1
 10
190.94203405630381
 20
-124.98341069704711
 11
191.26410822650629
 21
-124.90433994284329
 72
           1
 10
191.26410822650629
 20
-124.90433994284329
 11
191.35231565151199
 21
-124.8731996942638
 72
           1
 10
191.35231565151199
 20
-124.8731996942638
 11
191.51394822291419
 21
-124.8606361616344
 72
           1
 10
191.51394822291419
 20
-124.8606361616344
 11
191.54111856282091
 21
-124.86903129015781
 72
           1
 10
191.54111856282091
 20
-124.86903129015781
 11
191.54409599432529
 21
-125.0038905125207
 72
           1
 10
191.54409599432529
 20
-125.0038905125207
 11
191.55370562995171
 21
-126.2539829639514
 72
           1
 10
191.55370562995171
 20
-126.2539829639514
 11
191.56283641989921
 21
-126.6675512458647
 72
           1
 10
191.56283641989921
 20
-126.6675512458647
 11
191.55551562335771
 21
-127.4582175997616
 72
           1
 10
191.55551562335771
 20
-127.4582175997616
 11
191.52933776061849
 21
-127.4947755453591
 72
           1
 10
191.52933776061849
 20
-127.4947755453591
 11
191.493375301322
 21
-127.49556952709329
 72
           1
 10
191.493375301322
 20
-127.49556952709329
 11
190.3614625749733
 21
-127.51377278667729
 72
           1
 10
190.3614625749733
 20
-127.51377278667729
 11
188.53597077479299
 21
-127.5360861300574
 72
           1
 10
188.53597077479299
 20
-127.5360861300574
 11
188.58495207789841
 21
-127.3101297868502
 72
           1
 10
188.58495207789841
 20
-127.3101297868502
 11
188.6944857395674
 21
-127.0748965977178
 72
           1
 10
188.6944857395674
 20
-127.0748965977178
 11
188.8487739799248
 21
-126.72968031659229
 72
           1
 10
188.8487739799248
 20
-126.72968031659229
 11
189.00465018375229
 21
-126.4563889540609
 72
           1
 10
189.00465018375229
 20
-126.4563889540609
 11
189.19668734230891
 21
-126.1912942246195
 72
           1
 10
189.19668734230891
 20
-126.1912942246195
 11
189.40690422594801
 21
-125.9347931191346
 72
           1
 10
189.40690422594801
 20
-125.9347931191346
 11
189.65328206431781
 21
-125.6864886467397
 72
           1
 10
189.65328206431781
 20
-125.6864886467397
 11
189.95400058249919
 21
-125.4549744313904
 72
           1
 10
189.95400058249919
 20
-125.4549744313904
 11
190.32684251470801
 21
-125.23086286739679
 72
           1
 10
190.32684251470801
 20
-125.23086286739679
 11
190.59398051879629
 21
-125.1080300116751
 72
           1
 10
190.59398051879629
 20
-125.1080300116751
 11
190.94203405630381
 21
-124.98341069704711
 97
       23
330
370
330
36F
330
36E
330
384
330
383
330
382
330
381
330
380
330
37F
330
37E
330
37D
330
37C
330
37B
330
37A
330
379
330
378
330
377
330
376
330
375
330
374
330
373
330
372
330
371
 75
           1
 76
           0
 52
0.0
 41
0.1
 77
           0
 78
           1
 53
0.0
 43
0.0
 44
0.0
 45
0.0
 46
0.1
 79
           0
 98
        1
 10
0.0
 20
0.0
  0
HATCH
  5
4BF
100
AcDbEntity
  8
0
  6
CONTINUOUS
 62
           2
100
AcDbHatch
 10
0.0
 20
0.0
 30
0.0
210
0.0
220
0.0
230
1.0
  2
USER
 70
           0
 71
           1
 91
        1
 92
        1
 93
       67
 72
           1
 10
182.40327359820819
 20
-125.6846448994134
 11
182.78127641169061
 21
-125.69428932084941
 72
           1
 10
182.78127641169061
 20
-125.69428932084941
 11
182.88936228501461
 21
-125.7008979904699
 72
           1
 10
182.88936228501461
 20
-125.7008979904699
 11
182.89174423021811
 21
-125.80878536835969
 72
           1
 10
182.89174423021811
 20
-125.80878536835969
 11
182.899882542998
 21
-126.17740057615219
 72
           1
 10
182.899882542998
 20
-126.17740057615219
 11
182.88587122202171
 21
-126.3576098635026
 72
           1
 10
182.88587122202171
 20
-126.3576098635026
 11
182.80495568860439
 21
-126.35939632240709
 72
           1
 10
182.80495568860439
 20
-126.35939632240709
 11
182.51685902336339
 21
-126.34776694663429
 72
           1
 10
182.51685902336339
 20
-126.34776694663429
 11
182.1032907414492
 21
-126.3568977365817
 72
           1
 10
182.1032907414492
 20
-126.3568977365817
 11
182.09529260379441
 21
-126.4020493061367
 72
           1
 10
182.09529260379441
 20
-126.4020493061367
 11
182.23848863436891
 21
-126.7766776972482
 72
           1
 10
182.23848863436891
 20
-126.7766776972482
 11
182.5636220908882
 21
-127.6510091052765
 72
           1
 10
182.5636220908882
 20
-127.6510091052765
 11
182.75455013165541
 21
-128.15051362675831
 72
           1
 10
182.75455013165541
 20
-128.15051362675831
 11
182.83084194978889
 21
-128.346719189422
 72
           1
 10
182.83084194978889
 20
-128.346719189422
 11
182.9358920712975
 21
-128.62324479920201
 72
           1
 10
182.9358920712975
 20
-128.62324479920201
 11
183.17475061769159
 21
-129.2566160658794
 72
           1
 10
183.17475061769159
 20
-129.2566160658794
 11
183.2792052528994
 21
-129.50616983118701
 72
           1
 10
183.2792052528994
 20
-129.50616983118701
 11
183.30597860193751
 21
-129.49658373006201
 72
           1
 10
183.30597860193751
 20
-129.49658373006201
 11
183.40910208942199
 21
-129.27842702907719
 72
           1
 10
183.40910208942199
 20
-129.27842702907719
 11
183.91156050790681
 21
-127.9990391082806
 72
           1
 10
183.91156050790681
 20
-127.9990391082806
 11
184.2435359152887
 21
-127.1461799928943
 72
           1
 10
184.2435359152887
 20
-127.1461799928943
 11
184.33747029251481
 21
-126.9192311725197
 72
           1
 10
184.33747029251481
 20
-126.9192311725197
 11
184.43960130282991
 21
-126.65612139741511
 72
           1
 10
184.43960130282991
 20
-126.65612139741511
 11
184.56731468958151
 21
-126.3294818322379
 72
           1
 10
184.56731468958151
 20
-126.3294818322379
 11
184.5219646245923
 21
-126.3124930797581
 72
           1
 10
184.5219646245923
 20
-126.3124930797581
 11
183.80192145692209
 21
-126.29241025515201
 72
           1
 10
183.80192145692209
 20
-126.29241025515201
 11
183.78354323640721
 21
-126.27482601637119
 72
           1
 10
183.78354323640721
 20
-126.27482601637119
 11
183.78921774916941
 21
-125.7170109064032
 72
           1
 10
183.78921774916941
 20
-125.7170109064032
 11
183.81559410734101
 21
-125.68944357562999
 72
           1
 10
183.81559410734101
 20
-125.68944357562999
 11
184.22017177443101
 21
-125.68051128111669
 72
           1
 10
184.22017177443101
 20
-125.68051128111669
 11
185.1108381283274
 21
-125.6878320776583
 72
           1
 10
185.1108381283274
 20
-125.6878320776583
 11
185.42590663804091
 21
-125.6988659671311
 72
           1
 10
185.42590663804091
 20
-125.6988659671311
 11
185.74057815688769
 21
-125.6919186269529
 72
           1
 10
185.74057815688769
 20
-125.6919186269529
 11
185.80371095609101
 21
-125.699519773742
 72
           1
 10
185.80371095609101
 20
-125.699519773742
 11
185.83967341538749
 21
-125.6987257920069
 72
           1
 10
185.83967341538749
 20
-125.6987257920069
 11
185.876231360985
 21
-125.72490365474521
 72
           1
 10
185.876231360985
 20
-125.72490365474521
 11
185.8719463162588
 21
-126.3456530684812
 72
           1
 10
185.8719463162588
 20
-126.3456530684812
 11
185.82699324213621
 21
-126.34664554564959
 72
           1
 10
185.82699324213621
 20
-126.34664554564959
 11
185.3141312062898
 21
-126.339978555719
 72
           1
 10
185.3141312062898
 20
-126.339978555719
 11
185.2785657378617
 21
-126.3587537671024
 72
           1
 10
185.2785657378617
 20
-126.3587537671024
 11
185.09089547884369
 21
-126.8216420226759
 72
           1
 10
185.09089547884369
 20
-126.8216420226759
 11
184.93720272478731
 21
-127.1938301482738
 72
           1
 10
184.93720272478731
 20
-127.1938301482738
 11
184.4681263249613
 21
-128.35554609462139
 72
           1
 10
184.4681263249613
 20
-128.35554609462139
 11
184.1099730548421
 21
-129.2449631556043
 72
           1
 10
184.1099730548421
 20
-129.2449631556043
 11
183.9478851722624
 21
-129.64432162110961
 72
           1
 10
183.9478851722624
 20
-129.64432162110961
 11
183.7602149132444
 21
-130.10720987668219
 72
           1
 10
183.7602149132444
 20
-130.10720987668219
 11
183.52997352531111
 21
-130.6789779873157
 72
           1
 10
183.52997352531111
 20
-130.6789779873157
 11
182.58595896876881
 21
-130.69982000784739
 72
           1
 10
182.58595896876881
 20
-130.69982000784739
 11
182.4809088472602
 21
-130.42329439806741
 72
           1
 10
182.4809088472602
 20
-130.42329439806741
 11
182.33751432125149
 21
-130.03967539213201
 72
           1
 10
182.33751432125149
 20
-130.03967539213201
 11
182.23246419974291
 21
-129.76314978235101
 72
           1
 10
182.23246419974291
 20
-129.76314978235101
 11
182.14658628048431
 21
-129.54017087064921
 72
           1
 10
182.14658628048431
 20
-129.54017087064921
 11
181.96524434084219
 21
-129.0674396982055
 72
           1
 10
181.96524434084219
 20
-129.0674396982055
 11
181.850806613641
 21
-128.77313135421051
 72
           1
 10
181.850806613641
 20
-128.77313135421051
 11
181.66946467399879
 21
-128.30040018176771
 72
           1
 10
181.66946467399879
 20
-128.30040018176771
 11
181.56441455249021
 21
-128.02387457198679
 72
           1
 10
181.56441455249021
 20
-128.02387457198679
 11
181.48812273435669
 21
-127.8276690093241
 72
           1
 10
181.48812273435669
 20
-127.8276690093241
 11
181.32595299696459
 21
-127.4084845349586
 72
           1
 10
181.32595299696459
 20
-127.4084845349586
 11
181.09727603799641
 21
-126.82885846179281
 72
           1
 10
181.09727603799641
 20
-126.82885846179281
 11
181.04934553237121
 21
-126.6949917165981
 72
           1
 10
181.04934553237121
 20
-126.6949917165981
 11
180.9161325937884
 21
-126.3651179041714
 72
           1
 10
180.9161325937884
 20
-126.3651179041714
 11
180.8346215740703
 21
-126.3399325186034
 72
           1
 10
180.8346215740703
 20
-126.3399325186034
 11
180.52854367917911
 21
-126.32870013369821
 72
           1
 10
180.52854367917911
 20
-126.32870013369821
 11
180.3127689233979
 21
-126.33346402410599
 72
           1
 10
180.3127689233979
 20
-126.33346402410599
 11
180.29439070288299
 21
-126.3158797853245
 72
           1
 10
180.29439070288299
 20
-126.3158797853245
 11
180.2988742430434
 21
-125.7041209864116
 72
           1
 10
180.2988742430434
 20
-125.7041209864116
 11
180.91922666591469
 21
-125.6904248014912
 72
           1
 10
180.91922666591469
 20
-125.6904248014912
 11
182.40327359820819
 21
-125.6846448994134
 97
       67
330
3A5
330
3A4
330
3A3
330
3A2
330
3A1
330
3A0
330
39F
330
39E
330
39D
330
39C
330
39B
330
39A
330
399
330
398
330
397
330
396
330
395
330
394
330
393
330
392
330
391
330
390
330
38F
330
38E
330
38D
330
38C
330
38B
330
38A
330
389
330
388
330
387
330
386
330
385
330
3C7
330
3C6
330
3C5
330
3C4
330
3C3
330
3C2
330
3C1
330
3C0
330
3BF
330
3BE
330
3BD
330
3BC
330
3BB
330
3BA
330
3B9
330
3B8
330
3B7
330
3B6
330
3B5
330
3B4
330
3B3
330
3B2
330
3B1
330
3B0
330
3AF
330
3AE
330
3AD
330
3AC
330
3AB
330
3AA
330
3A9
330
3A8
330
3A7
330
3A6
 75
           1
 76
           0
 52
0.0
 41
0.1
 77
           0
 78
           1
 53
0.0
 43
0.0
 44
0.0
 45
0.0
 46
0.1
 79
           0
 98
        1
 10
0.0
 20
0.0
  0
HATCH
  5
4BE
100
AcDbEntity
  8
0
  6
CONTINUOUS
 62
           2
100
AcDbHatch
 10
0.0
 20
0.0
 30
0.0
210
0.0
220
0.0
230
1.0
  2
USER
 70
           0
 71
           1
 91
        1
 92
        1
 93
       68
 72
           1
 10
177.5373660239793
 20
-125.7021247807684
 11
176.86287141673071
 21
-125.7080213234663
 72
           1
 10
178.53591975576731
 20
-125.70706363210731
 11
177.5373660239793
 21
-125.7021247807684
 72
           1
 10
179.01281933231709
 20
-125.7145246037731
 11
178.53591975576731
 21
-125.70706363210731
 72
           1
 10
179.19263162879989
 20
-125.7105546951002
 11
179.01281933231709
 21
-125.7145246037731
 72
           1
 10
179.2291895743974
 20
-125.73673255783849
 11
179.19263162879989
 21
-125.7105546951002
 72
           1
 10
179.69777587723641
 20
-126.58990680928009
 11
179.2291895743974
 21
-125.73673255783849
 72
           1
 10
179.7818673375923
 20
-126.7319701875646
 11
179.69777587723641
 21
-126.58990680928009
 72
           1
 10
179.99758377306259
 20
-127.13198245968
 11
179.7818673375923
 21
-126.7319701875646
 72
           1
 10
179.98039652514939
 20
-127.1683419098442
 11
179.99758377306259
 21
-127.13198245968
 72
           1
 10
179.50026270135001
 20
-127.4218072635127
 11
179.98039652514939
 21
-127.1683419098442
 72
           1
 10
179.40757761703841
 20
-127.29792361030979
 11
179.50026270135001
 21
-127.4218072635127
 72
           1
 10
179.2136138244559
 20
-127.06833602898919
 11
179.40757761703841
 21
-127.29792361030979
 72
           1
 10
178.9383375075877
 20
-126.82255367692009
 11
179.2136138244559
 21
-127.06833602898919
 72
           1
 10
178.65526154849701
 20
-126.63091350923121
 11
178.9383375075877
 21
-126.82255367692009
 72
           1
 10
178.39155628709071
 20
-126.5018106544417
 11
178.65526154849701
 21
-126.63091350923121
 72
           1
 10
178.05652159339201
 20
-126.40126760759679
 11
178.39155628709071
 21
-126.5018106544417
 72
           1
 10
177.78581067149841
 20
-126.362269396485
 11
178.05652159339201
 21
-126.40126760759679
 72
           1
 10
176.9766553373201
 20
-126.3801339855124
 11
177.78581067149841
 21
-126.362269396485
 72
           1
 10
176.9712376403013
 20
-126.5421635477812
 11
176.9766553373201
 21
-126.3801339855124
 72
           1
 10
176.96127808281111
 20
-127.72072807148621
 11
176.9712376403013
 21
-126.5421635477812
 72
           1
 10
176.97965630332601
 20
-127.73831231026681
 11
176.96127808281111
 21
-127.72072807148621
 72
           1
 10
177.99559577846139
 20
-127.7158823262658
 11
176.97965630332601
 21
-127.73831231026681
 72
           1
 10
178.00787896084421
 20
-127.0499813429747
 11
177.99559577846139
 21
-127.7158823262658
 72
           1
 10
178.06142565892239
 20
-127.0308091407237
 11
178.00787896084421
 21
-127.0499813429747
 72
           1
 10
178.49317366591731
 20
-127.03027197473379
 11
178.06142565892239
 21
-127.0308091407237
 72
           1
 10
178.52933462064809
 20
-127.0384686078238
 11
178.49317366591731
 21
-127.03027197473379
 72
           1
 10
178.52439576930831
 20
-128.0370223396109
 11
178.52933462064809
 21
-127.0384686078238
 72
           1
 10
178.5171332930758
 20
-128.5229125309848
 11
178.52439576930831
 21
-128.0370223396109
 72
           1
 10
178.52632240333421
 20
-128.53170465037471
 11
178.5171332930758
 21
-128.5229125309848
 72
           1
 10
178.5195152382812
 20
-128.63079990887451
 11
178.52632240333421
 21
-128.53170465037471
 72
           1
 10
178.515825679854
 20
-129.2785211670849
 11
178.5195152382812
 21
-128.63079990887451
 72
           1
 10
178.00316213944001
 20
-129.2808447919775
 11
178.515825679854
 21
-129.2785211670849
 72
           1
 10
177.98359294632331
 20
-129.20931686425101
 11
178.00316213944001
 21
-129.2808447919775
 72
           1
 10
177.99587612870619
 20
-128.54341588095991
 11
177.98359294632331
 21
-129.20931686425101
 72
           1
 10
177.97670392645611
 20
-128.48986918288171
 11
177.99587612870619
 21
-128.54341588095991
 72
           1
 10
177.62567295744611
 20
-128.47962927514499
 11
177.97670392645611
 21
-128.48986918288171
 72
           1
 10
176.96036746045411
 20
-128.49431793723261
 11
177.62567295744611
 21
-128.47962927514499
 72
           1
 10
176.94286507648661
 20
-129.33123909761949
 11
176.96036746045411
 21
-128.49431793723261
 72
           1
 10
176.94981241666301
 20
-129.64591061646721
 11
176.94286507648661
 21
-129.33123909761949
 72
           1
 10
176.94076348152791
 20
-130.05088527442209
 11
176.94981241666301
 21
-129.64591061646721
 72
           1
 10
176.96033267464639
 20
-130.12241320214861
 11
176.94076348152791
 21
-130.05088527442209
 72
           1
 10
177.6981585765306
 20
-130.1331084210629
 11
176.96033267464639
 21
-130.12241320214861
 72
           1
 10
177.7167352924798
 20
-130.15968327466871
 11
177.6981585765306
 21
-130.1331084210629
 72
           1
 10
177.71066378885101
 20
-130.69951715498749
 11
177.7167352924798
 21
-130.15968327466871
 72
           1
 10
177.5306529969321
 20
-130.6944964488371
 11
177.71066378885101
 21
-130.69951715498749
 72
           1
 10
176.36147607891959
 20
-130.70231962555999
 11
177.5306529969321
 21
-130.6944964488371
 72
           1
 10
175.7137548207092
 20
-130.69863006713379
 11
176.36147607891959
 21
-130.70231962555999
 72
           1
 10
175.12037424231221
 20
-130.71173076575411
 11
175.7137548207092
 21
-130.69863006713379
 72
           1
 10
175.06603356250071
 20
-130.69494050870671
 11
175.12037424231221
 21
-130.71173076575411
 72
           1
 10
175.07250205699799
 20
-130.1730878580361
 11
175.06603356250071
 21
-130.69494050870671
 72
           1
 10
175.10806752542791
 20
-130.1543126466527
 11
175.07250205699799
 21
-130.1730878580361
 72
           1
 10
175.77317452698389
 20
-130.13063336973991
 11
175.10806752542791
 21
-130.1543126466527
 72
           1
 10
175.7877813342611
 20
-129.97739592686099
 11
175.77317452698389
 21
-130.13063336973991
 72
           1
 10
175.78142948038561
 20
-129.6896962524857
 11
175.7877813342611
 21
-129.97739592686099
 72
           1
 10
175.78934576322811
 20
-128.82600174306171
 11
175.78142948038561
 21
-129.6896962524857
 72
           1
 10
175.8013721298675
 20
-128.55588630746979
 11
175.78934576322811
 21
-128.82600174306171
 72
           1
 10
175.79343231252179
 20
-128.19626171450139
 11
175.8013721298675
 21
-128.55588630746979
 72
           1
 10
175.80730345837489
 20
-127.60228564980351
 11
175.79343231252179
 21
-128.19626171450139
 72
           1
 10
175.8011500999319
 20
-127.3235765902532
 11
175.80730345837489
 21
-127.60228564980351
 72
           1
 10
175.81527806153011
 20
-126.333814977857
 11
175.8011500999319
 21
-127.3235765902532
 72
           1
 10
175.7609373817167
 20
-126.31702472081049
 11
175.81527806153011
 21
-126.333814977857
 72
           1
 10
175.6710312334753
 20
-126.3190096751473
 11
175.7609373817167
 21
-126.31702472081049
 72
           1
 10
175.33798149411169
 20
-126.3083727765429
 11
175.6710312334753
 21
-126.3190096751473
 72
           1
 10
175.1038285178156
 20
-126.2955524281693
 11
175.33798149411169
 21
-126.3083727765429
 72
           1
 10
175.10890754427871
 20
-125.7107654737289
 11
175.1038285178156
 21
-126.2955524281693
 72
           1
 10
175.78320365609301
 20
-125.69587831620591
 11
175.10890754427871
 21
-125.7107654737289
 72
           1
 10
176.44890614395169
 20
-125.6991708837655
 11
175.78320365609301
 21
-125.69587831620591
 72
           1
 10
176.86287141673071
 20
-125.7080213234663
 11
176.44890614395169
 21
-125.6991708837655
 97
       68
330
3E3
330
3E4
330
3E5
330
3E6
330
3E7
330
3E8
330
3E9
330
3EA
330
3EB
330
3EC
330
3ED
330
3EE
330
3EF
330
3F0
330
3F1
330
3F2
330
3F3
330
3F4
330
3F5
330
3F6
330
3F7
330
3F8
330
3F9
330
3FA
330
3FB
330
3FC
330
3FD
330
3FE
330
3FF
330
400
330
401
330
403
330
404
330
405
330
406
330
407
330
408
330
409
330
40A
330
40B
330
40C
330
3C8
330
3C9
330
3CA
330
3CB
330
3CC
330
3CD
330
3CE
330
3CF
330
3D0
330
3D1
330
3D2
330
3D3
330
3D4
330
3D5
330
3D6
330
3D7
330
3D8
330
3D9
330
3DA
330
3DB
330
3DC
330
3DD
330
3DE
330
3DF
330
3E0
330
3E1
330
3E2
 75
           1
 76
           0
 52
0.0
 41
0.1
 77
           0
 78
           1
 53
0.0
 43
0.0
 44
0.0
 45
0.0
 46
0.1
 79
           0
 98
        1
 10
0.0
 20
0.0
  0
HATCH
  5
4BD
100
AcDbEntity
  8
0
  6
CONTINUOUS
 62
           2
100
AcDbHatch
 10
0.0
 20
0.0
 30
0.0
210
0.0
220
0.0
230
1.0
  2
USER
 70
           0
 71
           1
 91
        1
 92
        1
 93
       90
 72
           1
 10
170.2148371529756
 20
-125.674897152439
 11
170.862558411186
 21
-125.6785867108661
 72
           1
 10
170.862558411186
 20
-125.6785867108661
 11
171.07833316696539
 21
-125.67382282045899
 72
           1
 10
171.07833316696539
 20
-125.67382282045899
 11
171.32147675808571
 21
-125.68644467339951
 72
           1
 10
171.32147675808571
 20
-125.68644467339951
 11
171.33985497860249
 21
-125.7040289121792
 72
           1
 10
171.33985497860249
 20
-125.7040289121792
 11
171.33900267655639
 21
-126.072842615406
 72
           1
 10
171.33900267655639
 20
-126.072842615406
 11
171.32578533731521
 21
-126.2890143620539
 72
           1
 10
171.32578533731521
 20
-126.2890143620539
 11
171.09183085645321
 21
-126.2851846285044
 72
           1
 10
171.09183085645321
 20
-126.2851846285044
 11
170.74119687830989
 21
-126.29292595041581
 72
           1
 10
170.74119687830989
 20
-126.29292595041581
 11
170.7248854669424
 21
-127.1837907997465
 72
           1
 10
170.7248854669424
 20
-127.1837907997465
 11
170.72179139481611
 21
-127.8584839024284
 72
           1
 10
170.72179139481611
 20
-127.8584839024284
 11
170.7403681107653
 21
-127.88505875603509
 72
           1
 10
170.7403681107653
 20
-127.88505875603509
 11
170.81149904762509
 21
-127.84750833326829
 72
           1
 10
170.81149904762509
 20
-127.84750833326829
 11
171.2540824486577
 21
-127.52291204273889
 72
           1
 10
171.2540824486577
 20
-127.52291204273889
 11
172.2986983723558
 21
-126.76225916598609
 72
           1
 10
172.2986983723558
 20
-126.76225916598609
 11
172.90092939045371
 21
-126.3351931945859
 72
           1
 10
172.90092939045371
 20
-126.3351931945859
 11
172.91831513380109
 21
-126.3078243592459
 72
           1
 10
172.88195568363611
 20
-126.2906371113318
 11
172.91831513380109
 21
-126.3078243592459
 72
           1
 10
172.18908285587261
 20
-126.278949415249
 11
172.88195568363611
 21
-126.2906371113318
 72
           1
 10
171.88340195184989
 20
-126.2856982599929
 11
172.18908285587261
 21
-126.278949415249
 72
           1
 10
171.8470425016867
 20
-126.2685110120788
 11
171.88340195184989
 21
-126.2856982599929
 72
           1
 10
171.8529155098831
 20
-125.71968651693579
 11
171.8470425016867
 21
-126.2685110120788
 72
           1
 10
171.87929186805471
 20
-125.6921191861607
 11
171.8529155098831
 21
-125.71968651693579
 72
           1
 10
172.28386953514291
 20
-125.6831868916484
 11
171.87929186805471
 21
-125.6921191861607
 72
           1
 10
173.57051993217189
 20
-125.6997551187592
 11
172.28386953514291
 21
-125.6831868916484
 72
           1
 10
174.1463162717873
 20
-125.7050326406557
 11
173.57051993217189
 21
-125.6997551187592
 72
           1
 10
174.2905630998421
 20
-125.71983794336531
 11
174.1463162717873
 21
-125.7050326406557
 72
           1
 10
174.3003476964013
 20
-125.7556019072277
 11
174.2905630998421
 21
-125.71983794336531
 72
           1
 10
174.30392061420659
 20
-125.917432974064
 11
174.3003476964013
 21
-125.7556019072277
 72
           1
 10
174.29507017450581
 20
-126.331398246845
 11
174.30392061420659
 21
-125.917432974064
 72
           1
 10
173.74684116566181
 20
-126.35249708312089
 11
174.29507017450581
 21
-126.331398246845
 72
           1
 10
173.53404384138679
 20
-126.492120195891
 11
173.74684116566181
 21
-126.35249708312089
 72
           1
 10
172.6396879290632
 20
-127.132520657558
 11
173.53404384138679
 21
-126.492120195891
 72
           1
 10
172.25025423524039
 20
-127.41996351618729
 11
172.6396879290632
 21
-127.132520657558
 72
           1
 10
172.2422560975856
 20
-127.46511508574319
 11
172.25025423524039
 21
-127.41996351618729
 72
           1
 10
172.85667719194771
 20
-128.40501955848751
 11
172.2422560975856
 21
-127.46511508574319
 72
           1
 10
173.3408627792314
 20
-129.14990944117071
 11
172.85667719194771
 21
-128.40501955848751
 72
           1
 10
173.54560364554069
 20
-129.46021406047799
 11
173.3408627792314
 21
-129.14990944117071
 72
           1
 10
173.89935523031181
 20
-130.00109873827719
 11
173.54560364554069
 21
-129.46021406047799
 72
           1
 10
174.00142792031599
 20
-130.14276512569421
 11
173.89935523031181
 21
-130.00109873827719
 72
           1
 10
174.34346827450369
 20
-130.15320352886329
 11
174.00142792031599
 21
-130.14276512569421
 72
           1
 10
174.56863063597569
 20
-130.1662223726712
 11
174.34346827450369
 21
-130.15320352886329
 72
           1
 10
174.57756293048891
 20
-130.5708000397604
 11
174.56863063597569
 21
-130.1662223726712
 72
           1
 10
174.56275762777929
 20
-130.71504686781421
 11
174.57756293048891
 21
-130.5708000397604
 72
           1
 10
174.49982332401029
 20
-130.7164363358502
 11
174.56275762777929
 21
-130.71504686781421
 72
           1
 10
173.94200821404141
 20
-130.71076182308721
 11
174.49982332401029
 21
-130.7164363358502
 72
           1
 10
173.20418231215709
 20
-130.70006660417269
 11
173.94200821404141
 21
-130.71076182308721
 72
           1
 10
172.05258963292451
 20
-130.68951156038071
 11
173.20418231215709
 21
-130.70006660417269
 72
           1
 10
171.80045542698011
 20
-130.67708820287379
 11
172.05258963292451
 21
-130.68951156038071
 72
           1
 10
171.80045542698011
 20
-130.67708820287379
 11
171.7975363157866
 21
-130.13745281798921
 72
           1
 10
171.7975363157866
 20
-130.13745281798921
 11
171.88704547316141
 21
-130.117486634004
 72
           1
 10
171.88704547316141
 20
-130.117486634004
 11
172.3010107459404
 21
-130.12633707370571
 72
           1
 10
172.3010107459404
 20
-130.12633707370571
 11
172.66942745829959
 21
-130.10920814610259
 72
           1
 10
172.66942745829959
 20
-130.10920814610259
 11
172.65964286174039
 21
-130.07344418223931
 72
           1
 10
172.65964286174039
 20
-130.07344418223931
 11
172.5106321432786
 21
-129.8428641237474
 72
           1
 10
172.5106321432786
 20
-129.8428641237474
 11
172.38958574645861
 21
-129.65664165307729
 72
           1
 10
172.38958574645861
 20
-129.65664165307729
 11
172.12911473229991
 21
-129.2666124729526
 72
           1
 10
172.12911473229991
 20
-129.2666124729526
 11
171.43159465475131
 21
-128.2295976960454
 72
           1
 10
171.43159465475131
 20
-128.2295976960454
 11
171.3958306908871
 21
-128.23938229260381
 72
           1
 10
171.3958306908871
 20
-128.23938229260381
 11
170.8645321142148
 21
-128.61990722641499
 72
           1
 10
170.8645321142148
 20
-128.61990722641499
 11
170.71427210284031
 21
-128.7401596415007
 72
           1
 10
170.71427210284031
 20
-128.7401596415007
 11
170.70746493778549
 21
-128.8392549000005
 72
           1
 10
170.70746493778549
 20
-128.8392549000005
 11
170.70298139762511
 21
-129.45101369891341
 72
           1
 10
170.70298139762511
 20
-129.45101369891341
 11
170.698696352897
 21
-130.07176311265039
 72
           1
 10
170.698696352897
 20
-130.07176311265039
 11
170.7350558030621
 21
-130.0889503605645
 72
           1
 10
170.7350558030621
 20
-130.0889503605645
 11
171.22074749900179
 21
-130.0872222219719
 72
           1
 10
171.22074749900179
 20
-130.0872222219719
 11
171.26589906855679
 21
-130.09522035962851
 72
           1
 10
171.26589906855679
 20
-130.09522035962851
 11
171.27800729000859
 21
-130.64364786390391
 72
           1
 10
171.27800729000859
 20
-130.64364786390391
 11
171.25182942726951
 21
-130.6802058095023
 72
           1
 10
171.25182942726951
 20
-130.6802058095023
 11
170.7028064366923
 21
-130.66534218648081
 72
           1
 10
170.7028064366923
 20
-130.66534218648081
 11
170.1903413917143
 21
-130.6766564261986
 72
           1
 10
170.1903413917143
 20
-130.6766564261986
 11
168.87711614107951
 21
-130.6786649150369
 72
           1
 10
168.87711614107951
 20
-130.6786649150369
 11
168.85873792056461
 21
-130.6610806762543
 72
           1
 10
168.85873792056461
 20
-130.6610806762543
 11
168.85700978197289
 21
-130.17538898031549
 72
           1
 10
168.85700978197289
 20
-130.17538898031549
 11
168.873403048151
 21
-130.1030670708538
 72
           1
 10
168.873403048151
 20
-130.1030670708538
 11
169.51173670066871
 21
-130.088973895066
 72
           1
 10
169.51173670066871
 20
-130.088973895066
 11
169.5476991599671
 21
-130.0881799133318
 72
           1
 10
169.5476991599671
 20
-130.0881799133318
 11
169.54736048940961
 21
-129.66542252116011
 72
           1
 10
169.54736048940961
 20
-129.66542252116011
 11
169.55779889258059
 21
-129.32338216697329
 72
           1
 10
169.55779889258059
 20
-129.32338216697329
 11
169.56770012975991
 21
-128.54959380579081
 72
           1
 10
169.56770012975991
 20
-128.54959380579081
 11
169.55936332154761
 21
-128.17198798317489
 72
           1
 10
169.55936332154761
 20
-128.17198798317489
 11
169.56662579778001
 21
-127.6860977918009
 72
           1
 10
169.56662579778001
 20
-127.6860977918009
 11
169.57196163998651
 21
-126.705525289663
 72
           1
 10
169.57196163998651
 20
-126.705525289663
 11
169.57182146486321
 21
-126.2917585123155
 72
           1
 10
169.57182146486321
 20
-126.2917585123155
 11
169.40979190259259
 21
-126.2863408152967
 72
           1
 10
169.40979190259259
 20
-126.2863408152967
 11
169.29291390987871
 21
-126.2889212559344
 72
           1
 10
169.29291390987871
 20
-126.2889212559344
 11
168.88793925192201
 21
-126.2798723207993
 72
           1
 10
168.88793925192201
 20
-126.2798723207993
 11
168.88422615899341
 21
-125.7042744766173
 72
           1
 10
168.88422615899341
 20
-125.7042744766173
 11
168.91959313199089
 21
-125.6765086504097
 72
           1
 10
168.91959313199089
 20
-125.6765086504097
 11
169.8102594858874
 21
-125.6838294469531
 72
           1
 10
169.8102594858874
 20
-125.6838294469531
 11
170.2148371529756
 21
-125.674897152439
 97
       90
330
440
330
43F
330
43E
330
43D
330
43C
330
43B
330
43A
330
439
330
438
330
437
330
436
330
435
330
434
330
433
330
432
330
431
330
40F
330
410
330
411
330
412
330
413
330
414
330
415
330
416
330
417
330
418
330
419
330
41A
330
41B
330
41C
330
41D
330
41E
330
41F
330
420
330
421
330
422
330
423
330
424
330
425
330
426
330
427
330
428
330
429
330
42A
330
42B
330
42C
330
42D
330
42E
330
46A
330
469
330
468
330
467
330
466
330
465
330
464
330
463
330
462
330
461
330
460
330
45F
330
45E
330
45D
330
45C
330
45B
330
45A
330
459
330
458
330
457
330
456
330
455
330
454
330
453
330
452
330
451
330
450
330
44F
330
44E
330
44D
330
44C
330
44B
330
44A
330
449
330
448
330
447
330
446
330
445
330
444
330
443
330
442
330
441
 75
           1
 76
           0
 52
0.0
 41
0.1
 77
           0
 78
           1
 53
0.0
 43
0.0
 44
0.0
 45
0.0
 46
0.1
 79
           0
 98
        1
 10
0.0
 20
0.0
  0
MTEXT
  5
4BC
100
AcDbEntity
  8
1
 62
           2
100
AcDbMText
 10
292.110322448191
 20
-143.059925672985
 30
0.0
 40
2.0
 41
0.0
 71
           4
 72
           1
  1
 
  7
CONVERTER_1
  0
MTEXT
  5
4BB
100
AcDbEntity
  8
1
 62
           2
100
AcDbMText
 10
216.110322448191
 20
-143.059925672985
 30
0.0
 40
2.0
 41
0.0
 71
           4
 72
           1
  1
8050-03-24
  7
CONVERTER_1
  0
MTEXT
  5
4BA
100
AcDbEntity
  8
1
 62
           2
100
AcDbMText
 10
204.110322448191
 20
-143.059925672985
 30
0.0
 40
2.0
 41
0.0
 71
           4
 72
           1
  1
Art.-Nr.
  7
CONVERTER_1
  0
TEXT
  5
4B9
100
AcDbEntity
  8
1
 62
           3
100
AcDbText
 10
165.433994143678
 20
-139.293394067199
 40
1.8
  1
Karl Fliether GmbH & Co
  7
CONVERTER_2
100
AcDbText
  0
TEXT
  5
4B8
100
AcDbEntity
  8
1
 62
           3
100
AcDbText
 10
175.945137120639
 20
-143.108342043396
 40
1.8
  1
Velbert 1
  7
CONVERTER_2
100
AcDbText
  0
MTEXT
  5
4B7
100
AcDbEntity
  8
1
 62
           2
100
AcDbMText
 10
277.110322448191
 20
-143.059925672985
 30
0.0
 40
2.0
 41
0.0
 71
           4
 72
           1
  1
EMPB-Nr.
  7
CONVERTER_1
  0
TEXT
  5
4B6
100
AcDbEntity
  8
1
 62
           2
100
AcDbText
 10
163.138644985917
 20
-121.939165195411
 40
2.0
  1
Ind.
  7
CONVERTER_2
100
AcDbText
  0
TEXT
  5
4B5
100
AcDbEntity
  8
1
 62
           2
100
AcDbText
 10
175.77526135089
 20
-122.06811026036
 40
2.0
  1
Änderung
  7
CONVERTER_2
100
AcDbText
  0
TEXT
  5
4B4
100
AcDbEntity
  8
1
 62
           2
100
AcDbText
 10
219.232613684492
 20
-122.031289280702
 40
2.0
  1
Name
  7
CONVERTER_2
100
AcDbText
  0
TEXT
  5
4B3
100
AcDbEntity
  8
1
 62
           2
100
AcDbText
 10
204.532876280339
 20
-121.982290156022
 40
2.0
  1
Datum
  7
CONVERTER_2
100
AcDbText
  0
TEXT
  5
4B2
100
AcDbEntity
  8
1
 62
           2
100
AcDbText
 10
204.287880656936
 20
-127.022190060939
 40
2.0
  1
Benennung
  7
CONVERTER_2
100
AcDbText
  0
TEXT
  5
4B1
100
AcDbEntity
  8
1
 62
           2
100
AcDbText
 10
232.303601230701
 20
-122.011804248666
 40
2.0
  1
Ges.
  7
CONVERTER_2
100
AcDbText
  0
TEXT
  5
4B0
100
AcDbEntity
  8
1
 62
           2
100
AcDbText
 10
232.303601230701
 20
-116.684367254162
 40
2.0
  1
Gepr.
  7
CONVERTER_2
100
AcDbText
  0
TEXT
  5
4AF
100
AcDbEntity
  8
1
 62
           2
100
AcDbText
 10
232.303601230701
 20
-112.089911317745
 40
2.0
  1
Bearb.
  7
CONVERTER_2
100
AcDbText
  0
TEXT
  5
4AE
100
AcDbEntity
  8
1
 62
           2
100
AcDbText
 10
262.697129632813
 20
-107.069650122409
 40
2.0
  1
Name
  7
CONVERTER_2
100
AcDbText
  0
TEXT
  5
4AD
100
AcDbEntity
  8
1
 62
           2
100
AcDbText
 10
246.192161319378
 20
-107.000879421103
 40
2.0
  1
Datum
  7
CONVERTER_2
100
AcDbText
  0
TEXT
  5
4AC
100
AcDbEntity
  8
1
 62
           2
100
AcDbText
 10
232.303601230701
 20
-102.59955453752
 40
2.0
  1
den besonders geprüft
  7
CONVERTER_2
100
AcDbText
  0
TEXT
  5
4AB
100
AcDbEntity
  8
1
 62
           2
100
AcDbText
 10
232.303601230701
 20
-99.71118508267
 40
2.0
  1
Eingerahmte Maße wer-
  7
CONVERTER_2
100
AcDbText
  0
TEXT
  5
4AA
100
AcDbEntity
  8
1
 62
           2
100
AcDbText
 10
232.303601230701
 20
-95.928796510841
 40
2.0
  1
toleranz:
  7
CONVERTER_2
100
AcDbText
  0
TEXT
  5
4A9
100
AcDbEntity
  8
1
 62
           2
100
AcDbText
 10
232.303601230701
 20
-93.246739159908
 40
2.0
  1
Freimaß-
  7
CONVERTER_2
100
AcDbText
  0
TEXT
  5
4A8
100
AcDbEntity
  8
1
 62
           2
100
AcDbText
 10
232.301912378515
 20
-86.611082845353
 40
2.0
  1
Maßstab:
  7
CONVERTER_2
100
AcDbText
  0
TEXT
  5
4A7
100
AcDbEntity
  8
1
 62
           2
100
AcDbText
 10
277.110322448191
 20
-127.022190060939
 40
2.0
  1
Zeichnungs-Nr.
  7
CONVERTER_2
100
AcDbText
  0
TEXT
  5
4A6
100
AcDbEntity
  8
1
 62
           2
100
AcDbText
 10
277.110322448191
 20
-122.235384666077
 40
2.0
  1
Ersetzt durch:
  7
CONVERTER_2
100
AcDbText
  0
TEXT
  5
4A5
100
AcDbEntity
  8
1
 62
           2
100
AcDbText
 10
277.110322448191
 20
-117.095190953472
 40
2.0
  1
Ersatz für:
  7
CONVERTER_2
100
AcDbText
  0
TEXT
  5
4A4
100
AcDbEntity
  8
1
 62
           2
100
AcDbText
 10
277.110322448191
 20
-111.505230291014
 40
2.0
  1
Ursprung:
  7
CONVERTER_2
100
AcDbText
  0
TEXT
  5
4A3
100
AcDbEntity
  8
1
 62
           2
100
AcDbText
 10
277.253594742578
 20
-99.95188253724
 40
2.0
  1
Oberfläche
  7
CONVERTER_2
100
AcDbText
  0
TEXT
  5
4A2
100
AcDbEntity
  8
1
 62
           2
100
AcDbText
 10
277.181958595384
 20
-86.520104938417
 40
2.0
  1
Werkstoff
  7
CONVERTER_2
100
AcDbText
  0
TEXT
  5
4A1
100
AcDbEntity
  8
1
 62
           7
100
AcDbText
 10
342.370948459086
 20
-139.594625352335
 40
5.0
  1
3
  7
CONVERTER_2
100
AcDbText
  0
TEXT
  5
4A0
100
AcDbEntity
  8
1
 62
           7
100
AcDbText
 10
275.189593131991
 20
-140.059925672985
 40
5.0
  1
98400004720
 41
1.1
  7
CONVERTER_4
100
AcDbText
  0
TEXT
  5
49E
100
AcDbEntity
  8
1
 62
           7
100
AcDbText
 10
211.919593131991
 20
-133.059925672985
 40
5.0
  1
Flach-
  7
CONVERTER_2
100
AcDbText
  0
TEXT
  5
49D
100
AcDbEntity
  8
1
 62
           7
100
AcDbText
 10
211.919593131991
 20
-138.809925672985
 40
5.0
  1
Schliessblech
  7
CONVERTER_2
100
AcDbText
  0
TEXT
  5
49C
100
AcDbEntity
  8
1
 62
           3
100
AcDbText
 10
258.919593131991
 20
-112.559925672985
 40
3.0
  1
Buerger
 41
0.7
  7
CONVERTER_3
100
AcDbText
  0
TEXT
  5
49B
100
AcDbEntity
  8
1
 62
           3
100
AcDbText
 10
243.919593131991
 20
-112.559925672985
 40
3.0
  1
06.08.92
 41
0.7
  7
CONVERTER_3
100
AcDbText
  0
TEXT
  5
49A
100
AcDbEntity
  8
1
 62
           3
100
AcDbText
 10
258.919593131991
 20
-117.559925672985
 40
3.0
  1
Symne
 41
0.7
  7
CONVERTER_3
100
AcDbText
  0
TEXT
  5
499
100
AcDbEntity
  8
1
 62
           3
100
AcDbText
 10
243.919593131991
 20
-117.559925672985
 40
3.0
  1
20.08.96
 41
0.7
  7
CONVERTER_3
100
AcDbText
  0
TEXT
  5
498
100
AcDbEntity
  8
1
 62
           3
100
AcDbText
 10
258.919593131991
 20
-122.559925672985
 40
3.0
  1
El Hatri
 41
0.7
  7
CONVERTER_3
100
AcDbText
  0
TEXT
  5
497
100
AcDbEntity
  8
1
 62
           3
100
AcDbText
 10
243.919593131991
 20
-122.559925672985
 40
3.0
  1
21.08.96
 41
0.7
  7
CONVERTER_3
100
AcDbText
  0
TEXT
  5
496
100
AcDbEntity
  8
1
 62
           3
100
AcDbText
 10
277.919593131991
 20
-94.559925672985
 40
3.5
  1
Niro
  7
CONVERTER_2
100
AcDbText
  0
TEXT
  5
495
100
AcDbEntity
  8
1
 62
           3
100
AcDbText
 10
277.919593131991
 20
-106.559925672985
 40
3.5
  1
 
  7
CONVERTER_2
100
AcDbText
  0
TEXT
  5
494
100
AcDbEntity
  8
1
 62
           3
100
AcDbText
 10
246.919593131991
 20
-95.559925672985
 40
3.5
  1
ISO2768m
  7
CONVERTER_2
100
AcDbText
  0
TEXT
  5
493
100
AcDbEntity
  8
1
 62
           3
100
AcDbText
 10
246.919593131991
 20
-88.559925672985
 40
3.5
  1
1:1
  7
CONVERTER_2
100
AcDbText
  0
TEXT
  5
492
100
AcDbEntity
  8
1
 62
           3
100
AcDbText
 10
163.119593131992
 20
-117.559925672985
 40
3.0
  1
a
  7
CONVERTER_2
100
AcDbText
  0
TEXT
  5
491
100
AcDbEntity
  8
1
 62
           3
100
AcDbText
 10
169.419593131991
 20
-117.559925672985
 40
3.0
  1
Text hinzu
  7
CONVERTER_2
100
AcDbText
  0
TEXT
  5
490
100
AcDbEntity
  8
1
 62
           3
100
AcDbText
 10
216.919593131991
 20
-117.559925672985
 40
3.0
  1
Buerger
 41
0.7
  7
CONVERTER_3
100
AcDbText
  0
TEXT
  5
48F
100
AcDbEntity
  8
1
 62
           3
100
AcDbText
 10
202.919593131991
 20
-117.559925672985
 40
3.0
  1
12.10.92
 41
0.7
  7
CONVERTER_3
100
AcDbText
  0
TEXT
  5
48E
100
AcDbEntity
  8
1
 62
           3
100
AcDbText
 10
163.119593131992
 20
-112.559925672985
 40
3.0
  1
b
  7
CONVERTER_2
100
AcDbText
  0
TEXT
  5
48D
100
AcDbEntity
  8
1
 62
           3
100
AcDbText
 10
169.419593131991
 20
-112.559925672985
 40
3.0
  1
1282
  7
CONVERTER_2
100
AcDbText
  0
TEXT
  5
48C
100
AcDbEntity
  8
1
 62
           3
100
AcDbText
 10
216.919593131991
 20
-112.559925672985
 40
3.0
  1
Symne
 41
0.7
  7
CONVERTER_3
100
AcDbText
  0
TEXT
  5
48B
100
AcDbEntity
  8
1
 62
           3
100
AcDbText
 10
202.919593131991
 20
-112.559925672985
 40
3.0
  1
20.08.96
 41
0.7
  7
CONVERTER_3
100
AcDbText
  0
TEXT
  5
48A
100
AcDbEntity
  8
1
 62
           3
100
AcDbText
 10
163.119593131992
 20
-107.559925672985
 40
3.0
  1
 
  7
CONVERTER_2
100
AcDbText
  0
TEXT
  5
489
100
AcDbEntity
  8
1
 62
           3
100
AcDbText
 10
169.419593131991
 20
-107.559925672985
 40
3.0
  1
 
  7
CONVERTER_2
100
AcDbText
  0
TEXT
  5
488
100
AcDbEntity
  8
1
 62
           3
100
AcDbText
 10
216.919593131991
 20
-107.559925672985
 40
3.0
  1
 
 41
0.7
  7
CONVERTER_3
100
AcDbText
  0
TEXT
  5
487
100
AcDbEntity
  8
1
 62
           3
100
AcDbText
 10
202.919593131991
 20
-107.559925672985
 40
3.0
  1
 
 41
0.7
  7
CONVERTER_3
100
AcDbText
  0
TEXT
  5
486
100
AcDbEntity
  8
1
 62
           3
100
AcDbText
 10
163.119593131992
 20
-102.559925672985
 40
3.0
  1
 
  7
CONVERTER_2
100
AcDbText
  0
TEXT
  5
485
100
AcDbEntity
  8
1
 62
           3
100
AcDbText
 10
169.419593131991
 20
-102.559925672985
 40
3.0
  1
 
  7
CONVERTER_2
100
AcDbText
  0
TEXT
  5
484
100
AcDbEntity
  8
1
 62
           3
100
AcDbText
 10
216.919593131991
 20
-102.559925672985
 40
3.0
  1
 
 41
0.7
  7
CONVERTER_3
100
AcDbText
  0
TEXT
  5
483
100
AcDbEntity
  8
1
 62
           3
100
AcDbText
 10
202.919593131991
 20
-102.559925672985
 40
3.0
  1
 
 41
0.7
  7
CONVERTER_3
100
AcDbText
  0
TEXT
  5
482
100
AcDbEntity
  8
1
 62
           3
100
AcDbText
 10
163.119593131992
 20
-97.559925672985
 40
3.0
  1
 
  7
CONVERTER_2
100
AcDbText
  0
TEXT
  5
481
100
AcDbEntity
  8
1
 62
           3
100
AcDbText
 10
169.419593131991
 20
-97.559925672985
 40
3.0
  1
 
  7
CONVERTER_2
100
AcDbText
  0
TEXT
  5
480
100
AcDbEntity
  8
1
 62
           3
100
AcDbText
 10
216.919593131991
 20
-97.559925672985
 40
3.0
  1
 
 41
0.7
  7
CONVERTER_3
100
AcDbText
  0
TEXT
  5
47F
100
AcDbEntity
  8
1
 62
           3
100
AcDbText
 10
202.919593131991
 20
-97.559925672985
 40
3.0
  1
 
 41
0.7
  7
CONVERTER_3
100
AcDbText
  0
TEXT
  5
47E
100
AcDbEntity
  8
1
 62
           3
100
AcDbText
 10
163.119593131992
 20
-92.559925672985
 40
3.0
  1
 
  7
CONVERTER_2
100
AcDbText
  0
TEXT
  5
47D
100
AcDbEntity
  8
1
 62
           3
100
AcDbText
 10
169.419593131991
 20
-92.559925672985
 40
3.0
  1
 
  7
CONVERTER_2
100
AcDbText
  0
TEXT
  5
47C
100
AcDbEntity
  8
1
 62
           3
100
AcDbText
 10
216.919593131991
 20
-92.559925672985
 40
3.0
  1
 
 41
0.7
  7
CONVERTER_3
100
AcDbText
  0
TEXT
  5
47B
100
AcDbEntity
  8
1
 62
           3
100
AcDbText
 10
202.919593131991
 20
-92.559925672985
 40
3.0
  1
 
 41
0.7
  7
CONVERTER_3
100
AcDbText
  0
TEXT
  5
47A
100
AcDbEntity
  8
1
 62
           3
100
AcDbText
 10
169.419593131991
 20
-87.559925672985
 40
3.0
  1
 
  7
CONVERTER_2
100
AcDbText
  0
TEXT
  5
479
100
AcDbEntity
  8
1
 62
           3
100
AcDbText
 10
202.919593131991
 20
-87.559925672985
 40
3.0
  1
 
 41
0.7
  7
CONVERTER_3
100
AcDbText
  0
TEXT
  5
478
100
AcDbEntity
  8
1
 62
           2
100
AcDbText
 10
298.110322448191
 20
-122.235384666077
 40
2.0
  1
 
  7
CONVERTER_2
100
AcDbText
  0
TEXT
  5
477
100
AcDbEntity
  8
1
 62
           2
100
AcDbText
 10
298.110322448191
 20
-117.095190953472
 40
2.0
  1
 
  7
CONVERTER_2
100
AcDbText
  0
TEXT
  5
476
100
AcDbEntity
  8
1
 62
           3
100
AcDbText
 10
216.919593131991
 20
-87.559925672985
 40
3.0
  1
 
 41
0.7
  7
CONVERTER_3
100
AcDbText
  0
TEXT
  5
474
100
AcDbEntity
  8
1
 62
           3
100
AcDbText
 10
163.119593131992
 20
-87.559925672985
 40
3.0
  1
 
  7
CONVERTER_2
100
AcDbText
  0
MTEXT
  5
472
100
AcDbEntity
  8
1
 62
           7
100
AcDbMText
 10
-51.827823069127
 20
-59.551825114326
 30
0.0
 40
2.5
 41
0.0
 71
           7
 72
           1
  1
Für diese Unterlage behalten wir uns alle Rechte nach DIN 34 vor
  7
CONVERTER_1
 11
0.0
 21
1.0
 31
0.0
  0
ARC
  5
470
100
AcDbEntity
  8
1
  6
CONTINUOUS
 62
           2
100
AcDbCircle
 10
268.223040490276
 20
-100.059925672985
 40
2.5
100
AcDbArc
 50
90.0
 51
-90.0
  0
ARC
  5
46F
100
AcDbEntity
  8
1
  6
CONTINUOUS
 62
           2
100
AcDbCircle
 10
271.544295348299
 20
-100.059925672985
 40
2.5
100
AcDbArc
 50
-90.0
 51
90.0
  0
LINE
  5
46E
100
AcDbEntity
  8
1
  6
CONTINUOUS
 62
           2
100
AcDbLine
 10
201.919593131991
 20
-140.559925672985
 11
274.919593131991
 21
-140.559925672985
  0
LINE
  5
46D
100
AcDbEntity
  8
1
  6
CONTINUOUS
 62
           2
100
AcDbLine
 10
340.919593131991
 20
-132.559925672985
 11
346.919593131991
 21
-132.559925672985
  0
LINE
  5
46C
100
AcDbEntity
  8
1
  6
CONTINUOUS
 62
           2
100
AcDbLine
 10
298.919593131991
 20
-139.059925672985
 11
298.919593131991
 21
-132.559925672985
  0
LINE
  5
46B
100
AcDbEntity
  8
0
  6
CONTINUOUS
 62
           2
100
AcDbLine
 10
171.755700848292
 20
-130.687071294866
 11
171.80045542698
 21
-130.677088202874
  0
LINE
  5
46A
100
AcDbEntity
  8
0
  6
CONTINUOUS
 62
           2
100
AcDbLine
 10
171.80045542698
 20
-130.677088202874
 11
171.797536315787
 21
-130.137452817989
  0
LINE
  5
469
100
AcDbEntity
  8
0
  6
CONTINUOUS
 62
           2
100
AcDbLine
 10
171.797536315787
 20
-130.137452817989
 11
171.887045473161
 21
-130.117486634004
  0
LINE
  5
468
100
AcDbEntity
  8
0
  6
CONTINUOUS
 62
           2
100
AcDbLine
 10
171.887045473161
 20
-130.117486634004
 11
172.30101074594
 21
-130.126337073706
  0
LINE
  5
467
100
AcDbEntity
  8
0
  6
CONTINUOUS
 62
           2
100
AcDbLine
 10
172.30101074594
 20
-130.126337073706
 11
172.6694274583
 21
-130.109208146103
  0
LINE
  5
466
100
AcDbEntity
  8
0
  6
CONTINUOUS
 62
           2
100
AcDbLine
 10
172.6694274583
 20
-130.109208146103
 11
172.65964286174
 21
-130.073444182239
  0
LINE
  5
465
100
AcDbEntity
  8
0
  6
CONTINUOUS
 62
           2
100
AcDbLine
 10
172.65964286174
 20
-130.073444182239
 11
172.510632143279
 21
-129.842864123747
  0
LINE
  5
464
100
AcDbEntity
  8
0
  6
CONTINUOUS
 62
           2
100
AcDbLine
 10
172.510632143279
 20
-129.842864123747
 11
172.389585746459
 21
-129.656641653077
  0
LINE
  5
463
100
AcDbEntity
  8
0
  6
CONTINUOUS
 62
           2
100
AcDbLine
 10
172.389585746459
 20
-129.656641653077
 11
172.1291147323
 21
-129.266612472953
  0
LINE
  5
462
100
AcDbEntity
  8
0
  6
CONTINUOUS
 62
           2
100
AcDbLine
 10
172.1291147323
 20
-129.266612472953
 11
171.431594654751
 21
-128.229597696045
  0
LINE
  5
461
100
AcDbEntity
  8
0
  6
CONTINUOUS
 62
           2
100
AcDbLine
 10
171.431594654751
 20
-128.229597696045
 11
171.395830690887
 21
-128.239382292604
  0
LINE
  5
460
100
AcDbEntity
  8
0
  6
CONTINUOUS
 62
           2
100
AcDbLine
 10
171.395830690887
 20
-128.239382292604
 11
170.864532114215
 21
-128.619907226415
  0
LINE
  5
45F
100
AcDbEntity
  8
0
  6
CONTINUOUS
 62
           2
100
AcDbLine
 10
170.864532114215
 20
-128.619907226415
 11
170.71427210284
 21
-128.740159641501
  0
LINE
  5
45E
100
AcDbEntity
  8
0
  6
CONTINUOUS
 62
           2
100
AcDbLine
 10
170.71427210284
 20
-128.740159641501
 11
170.707464937785
 21
-128.839254900001
  0
LINE
  5
45D
100
AcDbEntity
  8
0
  6
CONTINUOUS
 62
           2
100
AcDbLine
 10
170.707464937785
 20
-128.839254900001
 11
170.702981397625
 21
-129.451013698913
  0
LINE
  5
45C
100
AcDbEntity
  8
0
  6
CONTINUOUS
 62
           2
100
AcDbLine
 10
170.702981397625
 20
-129.451013698913
 11
170.698696352897
 21
-130.07176311265
  0
LINE
  5
45B
100
AcDbEntity
  8
0
  6
CONTINUOUS
 62
           2
100
AcDbLine
 10
170.698696352897
 20
-130.07176311265
 11
170.735055803062
 21
-130.088950360565
  0
LINE
  5
45A
100
AcDbEntity
  8
0
  6
CONTINUOUS
 62
           2
100
AcDbLine
 10
170.735055803062
 20
-130.088950360565
 11
171.220747499002
 21
-130.087222221972
  0
LINE
  5
459
100
AcDbEntity
  8
0
  6
CONTINUOUS
 62
           2
100
AcDbLine
 10
171.220747499002
 20
-130.087222221972
 11
171.265899068557
 21
-130.095220359629
  0
LINE
  5
458
100
AcDbEntity
  8
0
  6
CONTINUOUS
 62
           2
100
AcDbLine
 10
171.265899068557
 20
-130.095220359629
 11
171.278007290009
 21
-130.643647863904
  0
LINE
  5
457
100
AcDbEntity
  8
0
  6
CONTINUOUS
 62
           2
100
AcDbLine
 10
171.278007290009
 20
-130.643647863904
 11
171.25182942727
 21
-130.680205809502
  0
LINE
  5
456
100
AcDbEntity
  8
0
  6
CONTINUOUS
 62
           2
100
AcDbLine
 10
171.25182942727
 20
-130.680205809502
 11
170.702806436692
 21
-130.665342186481
  0
LINE
  5
455
100
AcDbEntity
  8
0
  6
CONTINUOUS
 62
           2
100
AcDbLine
 10
170.702806436692
 20
-130.665342186481
 11
170.190341391714
 21
-130.676656426199
  0
LINE
  5
454
100
AcDbEntity
  8
0
  6
CONTINUOUS
 62
           2
100
AcDbLine
 10
170.190341391714
 20
-130.676656426199
 11
168.87711614108
 21
-130.678664915037
  0
LINE
  5
453
100
AcDbEntity
  8
0
  6
CONTINUOUS
 62
           2
100
AcDbLine
 10
168.87711614108
 20
-130.678664915037
 11
168.858737920565
 21
-130.661080676254
  0
LINE
  5
452
100
AcDbEntity
  8
0
  6
CONTINUOUS
 62
           2
100
AcDbLine
 10
168.858737920565
 20
-130.661080676254
 11
168.857009781973
 21
-130.175388980315
  0
LINE
  5
451
100
AcDbEntity
  8
0
  6
CONTINUOUS
 62
           2
100
AcDbLine
 10
168.857009781973
 20
-130.175388980315
 11
168.873403048151
 21
-130.103067070854
  0
LINE
  5
450
100
AcDbEntity
  8
0
  6
CONTINUOUS
 62
           2
100
AcDbLine
 10
168.873403048151
 20
-130.103067070854
 11
169.511736700669
 21
-130.088973895066
  0
LINE
  5
44F
100
AcDbEntity
  8
0
  6
CONTINUOUS
 62
           2
100
AcDbLine
 10
169.511736700669
 20
-130.088973895066
 11
169.547699159967
 21
-130.088179913332
  0
LINE
  5
44E
100
AcDbEntity
  8
0
  6
CONTINUOUS
 62
           2
100
AcDbLine
 10
169.547699159967
 20
-130.088179913332
 11
169.54736048941
 21
-129.66542252116
  0
LINE
  5
44D
100
AcDbEntity
  8
0
  6
CONTINUOUS
 62
           2
100
AcDbLine
 10
169.54736048941
 20
-129.66542252116
 11
169.557798892581
 21
-129.323382166973
  0
LINE
  5
44C
100
AcDbEntity
  8
0
  6
CONTINUOUS
 62
           2
100
AcDbLine
 10
169.557798892581
 20
-129.323382166973
 11
169.56770012976
 21
-128.549593805791
  0
LINE
  5
44B
100
AcDbEntity
  8
0
  6
CONTINUOUS
 62
           2
100
AcDbLine
 10
169.56770012976
 20
-128.549593805791
 11
169.559363321548
 21
-128.171987983175
  0
LINE
  5
44A
100
AcDbEntity
  8
0
  6
CONTINUOUS
 62
           2
100
AcDbLine
 10
169.559363321548
 20
-128.171987983175
 11
169.56662579778
 21
-127.686097791801
  0
LINE
  5
449
100
AcDbEntity
  8
0
  6
CONTINUOUS
 62
           2
100
AcDbLine
 10
169.56662579778
 20
-127.686097791801
 11
169.571961639987
 21
-126.705525289663
  0
LINE
  5
448
100
AcDbEntity
  8
0
  6
CONTINUOUS
 62
           2
100
AcDbLine
 10
169.571961639987
 20
-126.705525289663
 11
169.571821464863
 21
-126.291758512316
  0
LINE
  5
447
100
AcDbEntity
  8
0
  6
CONTINUOUS
 62
           2
100
AcDbLine
 10
169.571821464863
 20
-126.291758512316
 11
169.409791902593
 21
-126.286340815297
  0
LINE
  5
446
100
AcDbEntity
  8
0
  6
CONTINUOUS
 62
           2
100
AcDbLine
 10
169.409791902593
 20
-126.286340815297
 11
169.292913909879
 21
-126.288921255934
  0
LINE
  5
445
100
AcDbEntity
  8
0
  6
CONTINUOUS
 62
           2
100
AcDbLine
 10
169.292913909879
 20
-126.288921255934
 11
168.887939251922
 21
-126.279872320799
  0
LINE
  5
444
100
AcDbEntity
  8
0
  6
CONTINUOUS
 62
           2
100
AcDbLine
 10
168.887939251922
 20
-126.279872320799
 11
168.884226158993
 21
-125.704274476617
  0
LINE
  5
443
100
AcDbEntity
  8
0
  6
CONTINUOUS
 62
           2
100
AcDbLine
 10
168.884226158993
 20
-125.704274476617
 11
168.919593131991
 21
-125.67650865041
  0
LINE
  5
442
100
AcDbEntity
  8
0
  6
CONTINUOUS
 62
           2
100
AcDbLine
 10
168.919593131991
 20
-125.67650865041
 11
169.810259485887
 21
-125.683829446953
  0
LINE
  5
441
100
AcDbEntity
  8
0
  6
CONTINUOUS
 62
           2
100
AcDbLine
 10
169.810259485887
 20
-125.683829446953
 11
170.214837152976
 21
-125.674897152439
  0
LINE
  5
440
100
AcDbEntity
  8
0
  6
CONTINUOUS
 62
           2
100
AcDbLine
 10
170.214837152976
 20
-125.674897152439
 11
170.862558411186
 21
-125.678586710866
  0
LINE
  5
43F
100
AcDbEntity
  8
0
  6
CONTINUOUS
 62
           2
100
AcDbLine
 10
170.862558411186
 20
-125.678586710866
 11
171.078333166965
 21
-125.673822820459
  0
LINE
  5
43E
100
AcDbEntity
  8
0
  6
CONTINUOUS
 62
           2
100
AcDbLine
 10
171.078333166965
 20
-125.673822820459
 11
171.321476758086
 21
-125.6864446734
  0
LINE
  5
43D
100
AcDbEntity
  8
0
  6
CONTINUOUS
 62
           2
100
AcDbLine
 10
171.321476758086
 20
-125.6864446734
 11
171.339854978602
 21
-125.704028912179
  0
LINE
  5
43C
100
AcDbEntity
  8
0
  6
CONTINUOUS
 62
           2
100
AcDbLine
 10
171.339854978602
 20
-125.704028912179
 11
171.339002676556
 21
-126.072842615406
  0
LINE
  5
43B
100
AcDbEntity
  8
0
  6
CONTINUOUS
 62
           2
100
AcDbLine
 10
171.339002676556
 20
-126.072842615406
 11
171.325785337315
 21
-126.289014362054
  0
LINE
  5
43A
100
AcDbEntity
  8
0
  6
CONTINUOUS
 62
           2
100
AcDbLine
 10
171.325785337315
 20
-126.289014362054
 11
171.091830856453
 21
-126.285184628504
  0
LINE
  5
439
100
AcDbEntity
  8
0
  6
CONTINUOUS
 62
           2
100
AcDbLine
 10
171.091830856453
 20
-126.285184628504
 11
170.74119687831
 21
-126.292925950416
  0
LINE
  5
438
100
AcDbEntity
  8
0
  6
CONTINUOUS
 62
           2
100
AcDbLine
 10
170.74119687831
 20
-126.292925950416
 11
170.724885466942
 21
-127.183790799747
  0
LINE
  5
437
100
AcDbEntity
  8
0
  6
CONTINUOUS
 62
           2
100
AcDbLine
 10
170.724885466942
 20
-127.183790799747
 11
170.721791394816
 21
-127.858483902428
  0
LINE
  5
436
100
AcDbEntity
  8
0
  6
CONTINUOUS
 62
           2
100
AcDbLine
 10
170.721791394816
 20
-127.858483902428
 11
170.740368110765
 21
-127.885058756035
  0
LINE
  5
435
100
AcDbEntity
  8
0
  6
CONTINUOUS
 62
           2
100
AcDbLine
 10
170.740368110765
 20
-127.885058756035
 11
170.811499047625
 21
-127.847508333268
  0
LINE
  5
434
100
AcDbEntity
  8
0
  6
CONTINUOUS
 62
           2
100
AcDbLine
 10
170.811499047625
 20
-127.847508333268
 11
171.254082448658
 21
-127.522912042739
  0
LINE
  5
433
100
AcDbEntity
  8
0
  6
CONTINUOUS
 62
           2
100
AcDbLine
 10
171.254082448658
 20
-127.522912042739
 11
172.298698372356
 21
-126.762259165986
  0
LINE
  5
432
100
AcDbEntity
  8
0
  6
CONTINUOUS
 62
           2
100
AcDbLine
 10
172.298698372356
 20
-126.762259165986
 11
172.900929390454
 21
-126.335193194586
  0
LINE
  5
431
100
AcDbEntity
  8
0
  6
CONTINUOUS
 62
           2
100
AcDbLine
 10
172.900929390454
 20
-126.335193194586
 11
172.918315133801
 21
-126.307824359246
  0
LINE
  5
430
100
AcDbEntity
  8
0
  6
CONTINUOUS
 62
           2
100
AcDbLine
 10
172.918315133801
 20
-126.307824359246
 11
172.972060327312
 21
-126.29764277182
  0
LINE
  5
42F
100
AcDbEntity
  8
0
  6
CONTINUOUS
 62
           2
100
AcDbLine
 10
172.972060327312
 20
-126.29764277182
 11
172.972258822746
 21
-126.306633386643
  0
LINE
  5
42E
100
AcDbEntity
  8
0
  6
CONTINUOUS
 62
           2
100
AcDbLine
 10
171.80045542698
 20
-130.677088202874
 11
172.052589632925
 21
-130.689511560381
  0
LINE
  5
42D
100
AcDbEntity
  8
0
  6
CONTINUOUS
 62
           2
100
AcDbLine
 10
172.052589632925
 20
-130.689511560381
 11
173.204182312157
 21
-130.700066604173
  0
LINE
  5
42C
100
AcDbEntity
  8
0
  6
CONTINUOUS
 62
           2
100
AcDbLine
 10
173.204182312157
 20
-130.700066604173
 11
173.942008214041
 21
-130.710761823087
  0
LINE
  5
42B
100
AcDbEntity
  8
0
  6
CONTINUOUS
 62
           2
100
AcDbLine
 10
173.942008214041
 20
-130.710761823087
 11
174.49982332401
 21
-130.71643633585
  0
LINE
  5
42A
100
AcDbEntity
  8
0
  6
CONTINUOUS
 62
           2
100
AcDbLine
 10
174.49982332401
 20
-130.71643633585
 11
174.562757627779
 21
-130.715046867814
  0
LINE
  5
429
100
AcDbEntity
  8
0
  6
CONTINUOUS
 62
           2
100
AcDbLine
 10
174.562757627779
 20
-130.715046867814
 11
174.577562930489
 21
-130.57080003976
  0
LINE
  5
428
100
AcDbEntity
  8
0
  6
CONTINUOUS
 62
           2
100
AcDbLine
 10
174.577562930489
 20
-130.57080003976
 11
174.568630635976
 21
-130.166222372671
  0
LINE
  5
427
100
AcDbEntity
  8
0
  6
CONTINUOUS
 62
           2
100
AcDbLine
 10
174.568630635976
 20
-130.166222372671
 11
174.343468274504
 21
-130.153203528863
  0
LINE
  5
426
100
AcDbEntity
  8
0
  6
CONTINUOUS
 62
           2
100
AcDbLine
 10
174.343468274504
 20
-130.153203528863
 11
174.001427920316
 21
-130.142765125694
  0
LINE
  5
425
100
AcDbEntity
  8
0
  6
CONTINUOUS
 62
           2
100
AcDbLine
 10
174.001427920316
 20
-130.142765125694
 11
173.899355230312
 21
-130.001098738277
  0
LINE
  5
424
100
AcDbEntity
  8
0
  6
CONTINUOUS
 62
           2
100
AcDbLine
 10
173.899355230312
 20
-130.001098738277
 11
173.545603645541
 21
-129.460214060478
  0
LINE
  5
423
100
AcDbEntity
  8
0
  6
CONTINUOUS
 62
           2
100
AcDbLine
 10
173.545603645541
 20
-129.460214060478
 11
173.340862779231
 21
-129.149909441171
  0
LINE
  5
422
100
AcDbEntity
  8
0
  6
CONTINUOUS
 62
           2
100
AcDbLine
 10
173.340862779231
 20
-129.149909441171
 11
172.856677191948
 21
-128.405019558488
  0
LINE
  5
421
100
AcDbEntity
  8
0
  6
CONTINUOUS
 62
           2
100
AcDbLine
 10
172.856677191948
 20
-128.405019558488
 11
172.242256097586
 21
-127.465115085743
  0
LINE
  5
420
100
AcDbEntity
  8
0
  6
CONTINUOUS
 62
           2
100
AcDbLine
 10
172.242256097586
 20
-127.465115085743
 11
172.25025423524
 21
-127.419963516187
  0
LINE
  5
41F
100
AcDbEntity
  8
0
  6
CONTINUOUS
 62
           2
100
AcDbLine
 10
172.25025423524
 20
-127.419963516187
 11
172.639687929063
 21
-127.132520657558
  0
LINE
  5
41E
100
AcDbEntity
  8
0
  6
CONTINUOUS
 62
           2
100
AcDbLine
 10
172.639687929063
 20
-127.132520657558
 11
173.534043841387
 21
-126.492120195891
  0
LINE
  5
41D
100
AcDbEntity
  8
0
  6
CONTINUOUS
 62
           2
100
AcDbLine
 10
173.534043841387
 20
-126.492120195891
 11
173.746841165662
 21
-126.352497083121
  0
LINE
  5
41C
100
AcDbEntity
  8
0
  6
CONTINUOUS
 62
           2
100
AcDbLine
 10
173.746841165662
 20
-126.352497083121
 11
174.295070174506
 21
-126.331398246845
  0
LINE
  5
41B
100
AcDbEntity
  8
0
  6
CONTINUOUS
 62
           2
100
AcDbLine
 10
174.295070174506
 20
-126.331398246845
 11
174.303920614207
 21
-125.917432974064
  0
LINE
  5
41A
100
AcDbEntity
  8
0
  6
CONTINUOUS
 62
           2
100
AcDbLine
 10
174.303920614207
 20
-125.917432974064
 11
174.300347696401
 21
-125.755601907228
  0
LINE
  5
419
100
AcDbEntity
  8
0
  6
CONTINUOUS
 62
           2
100
AcDbLine
 10
174.300347696401
 20
-125.755601907228
 11
174.290563099842
 21
-125.719837943365
  0
LINE
  5
418
100
AcDbEntity
  8
0
  6
CONTINUOUS
 62
           2
100
AcDbLine
 10
174.290563099842
 20
-125.719837943365
 11
174.146316271787
 21
-125.705032640656
  0
LINE
  5
417
100
AcDbEntity
  8
0
  6
CONTINUOUS
 62
           2
100
AcDbLine
 10
174.146316271787
 20
-125.705032640656
 11
173.570519932172
 21
-125.699755118759
  0
LINE
  5
416
100
AcDbEntity
  8
0
  6
CONTINUOUS
 62
           2
100
AcDbLine
 10
173.570519932172
 20
-125.699755118759
 11
172.283869535143
 21
-125.683186891648
  0
LINE
  5
415
100
AcDbEntity
  8
0
  6
CONTINUOUS
 62
           2
100
AcDbLine
 10
172.283869535143
 20
-125.683186891648
 11
171.879291868055
 21
-125.692119186161
  0
LINE
  5
414
100
AcDbEntity
  8
0
  6
CONTINUOUS
 62
           2
100
AcDbLine
 10
171.879291868055
 20
-125.692119186161
 11
171.852915509883
 21
-125.719686516936
  0
LINE
  5
413
100
AcDbEntity
  8
0
  6
CONTINUOUS
 62
           2
100
AcDbLine
 10
171.852915509883
 20
-125.719686516936
 11
171.847042501687
 21
-126.268511012079
  0
LINE
  5
412
100
AcDbEntity
  8
0
  6
CONTINUOUS
 62
           2
100
AcDbLine
 10
171.847042501687
 20
-126.268511012079
 11
171.88340195185
 21
-126.285698259993
  0
LINE
  5
411
100
AcDbEntity
  8
0
  6
CONTINUOUS
 62
           2
100
AcDbLine
 10
171.88340195185
 20
-126.285698259993
 11
172.189082855873
 21
-126.278949415249
  0
LINE
  5
410
100
AcDbEntity
  8
0
  6
CONTINUOUS
 62
           2
100
AcDbLine
 10
172.189082855873
 20
-126.278949415249
 11
172.881955683636
 21
-126.290637111332
  0
LINE
  5
40F
100
AcDbEntity
  8
0
  6
CONTINUOUS
 62
           2
100
AcDbLine
 10
172.881955683636
 20
-126.290637111332
 11
172.918315133801
 21
-126.307824359246
  0
LINE
  5
40E
100
AcDbEntity
  8
0
  6
CONTINUOUS
 62
           2
100
AcDbLine
 10
174.562757627779
 20
-130.715046867814
 11
174.57214523347
 21
-130.73282960203
  0
LINE
  5
40D
100
AcDbEntity
  8
0
  6
CONTINUOUS
 62
           2
100
AcDbLine
 10
176.960531170079
 20
-130.131403816972
 11
176.960332674646
 21
-130.122413202149
  0
LINE
  5
40C
100
AcDbEntity
  8
0
  6
CONTINUOUS
 62
           2
100
AcDbLine
 10
176.960332674646
 20
-130.122413202149
 11
176.940763481528
 21
-130.050885274422
  0
LINE
  5
40B
100
AcDbEntity
  8
0
  6
CONTINUOUS
 62
           2
100
AcDbLine
 10
176.940763481528
 20
-130.050885274422
 11
176.949812416663
 21
-129.645910616467
  0
LINE
  5
40A
100
AcDbEntity
  8
0
  6
CONTINUOUS
 62
           2
100
AcDbLine
 10
176.949812416663
 20
-129.645910616467
 11
176.942865076487
 21
-129.331239097619
  0
LINE
  5
409
100
AcDbEntity
  8
0
  6
CONTINUOUS
 62
           2
100
AcDbLine
 10
176.942865076487
 20
-129.331239097619
 11
176.960367460454
 21
-128.494317937233
  0
LINE
  5
408
100
AcDbEntity
  8
0
  6
CONTINUOUS
 62
           2
100
AcDbLine
 10
176.960367460454
 20
-128.494317937233
 11
177.625672957446
 21
-128.479629275145
  0
LINE
  5
407
100
AcDbEntity
  8
0
  6
CONTINUOUS
 62
           2
100
AcDbLine
 10
177.625672957446
 20
-128.479629275145
 11
177.976703926456
 21
-128.489869182882
  0
LINE
  5
406
100
AcDbEntity
  8
0
  6
CONTINUOUS
 62
           2
100
AcDbLine
 10
177.976703926456
 20
-128.489869182882
 11
177.995876128706
 21
-128.54341588096
  0
LINE
  5
405
100
AcDbEntity
  8
0
  6
CONTINUOUS
 62
           2
100
AcDbLine
 10
177.995876128706
 20
-128.54341588096
 11
177.983592946323
 21
-129.209316864251
  0
LINE
  5
404
100
AcDbEntity
  8
0
  6
CONTINUOUS
 62
           2
100
AcDbLine
 10
177.983592946323
 20
-129.209316864251
 11
178.00316213944
 21
-129.280844791978
  0
LINE
  5
403
100
AcDbEntity
  8
0
  6
CONTINUOUS
 62
           2
100
AcDbLine
 10
178.00316213944
 20
-129.280844791978
 11
178.515825679854
 21
-129.278521167085
  0
LINE
  5
402
100
AcDbEntity
  8
0
  6
CONTINUOUS
 62
           2
100
AcDbLine
 10
178.516024175287
 20
-129.287511781909
 11
178.515825679854
 21
-129.278521167085
  0
LINE
  5
401
100
AcDbEntity
  8
0
  6
CONTINUOUS
 62
           2
100
AcDbLine
 10
178.515825679854
 20
-129.278521167085
 11
178.519515238281
 21
-128.630799908875
  0
LINE
  5
400
100
AcDbEntity
  8
0
  6
CONTINUOUS
 62
           2
100
AcDbLine
 10
178.519515238281
 20
-128.630799908875
 11
178.526322403334
 21
-128.531704650375
  0
LINE
  5
3FF
100
AcDbEntity
  8
0
  6
CONTINUOUS
 62
           2
100
AcDbLine
 10
178.526322403334
 20
-128.531704650375
 11
178.517133293076
 21
-128.522912530985
  0
LINE
  5
3FE
100
AcDbEntity
  8
0
  6
CONTINUOUS
 62
           2
100
AcDbLine
 10
178.517133293076
 20
-128.522912530985
 11
178.524395769308
 21
-128.037022339611
  0
LINE
  5
3FD
100
AcDbEntity
  8
0
  6
CONTINUOUS
 62
           2
100
AcDbLine
 10
178.524395769308
 20
-128.037022339611
 11
178.529334620648
 21
-127.038468607824
  0
LINE
  5
3FC
100
AcDbEntity
  8
0
  6
CONTINUOUS
 62
           2
100
AcDbLine
 10
178.529334620648
 20
-127.038468607824
 11
178.493173665917
 21
-127.030271974734
  0
LINE
  5
3FB
100
AcDbEntity
  8
0
  6
CONTINUOUS
 62
           2
100
AcDbLine
 10
178.493173665917
 20
-127.030271974734
 11
178.061425658922
 21
-127.030809140724
  0
LINE
  5
3FA
100
AcDbEntity
  8
0
  6
CONTINUOUS
 62
           2
100
AcDbLine
 10
178.061425658922
 20
-127.030809140724
 11
178.007878960844
 21
-127.049981342975
  0
LINE
  5
3F9
100
AcDbEntity
  8
0
  6
CONTINUOUS
 62
           2
100
AcDbLine
 10
178.007878960844
 20
-127.049981342975
 11
177.995595778461
 21
-127.715882326266
  0
LINE
  5
3F8
100
AcDbEntity
  8
0
  6
CONTINUOUS
 62
           2
100
AcDbLine
 10
177.995595778461
 20
-127.715882326266
 11
176.979656303326
 21
-127.738312310267
  0
LINE
  5
3F7
100
AcDbEntity
  8
0
  6
CONTINUOUS
 62
           2
100
AcDbLine
 10
176.979656303326
 20
-127.738312310267
 11
176.961278082811
 21
-127.720728071486
  0
LINE
  5
3F6
100
AcDbEntity
  8
0
  6
CONTINUOUS
 62
           2
100
AcDbLine
 10
176.961278082811
 20
-127.720728071486
 11
176.971237640301
 21
-126.542163547781
  0
LINE
  5
3F5
100
AcDbEntity
  8
0
  6
CONTINUOUS
 62
           2
100
AcDbLine
 10
176.971237640301
 20
-126.542163547781
 11
176.97665533732
 21
-126.380133985512
  0
LINE
  5
3F4
100
AcDbEntity
  8
0
  6
CONTINUOUS
 62
           2
100
AcDbLine
 10
176.97665533732
 20
-126.380133985512
 11
177.785810671498
 21
-126.362269396485
  0
LINE
  5
3F3
100
AcDbEntity
  8
0
  6
CONTINUOUS
 62
           2
100
AcDbLine
 10
177.785810671498
 20
-126.362269396485
 11
178.056521593392
 21
-126.401267607597
  0
LINE
  5
3F2
100
AcDbEntity
  8
0
  6
CONTINUOUS
 62
           2
100
AcDbLine
 10
178.056521593392
 20
-126.401267607597
 11
178.391556287091
 21
-126.501810654442
  0
LINE
  5
3F1
100
AcDbEntity
  8
0
  6
CONTINUOUS
 62
           2
100
AcDbLine
 10
178.391556287091
 20
-126.501810654442
 11
178.655261548497
 21
-126.630913509231
  0
LINE
  5
3F0
100
AcDbEntity
  8
0
  6
CONTINUOUS
 62
           2
100
AcDbLine
 10
178.655261548497
 20
-126.630913509231
 11
178.938337507588
 21
-126.82255367692
  0
LINE
  5
3EF
100
AcDbEntity
  8
0
  6
CONTINUOUS
 62
           2
100
AcDbLine
 10
178.938337507588
 20
-126.82255367692
 11
179.213613824456
 21
-127.068336028989
  0
LINE
  5
3EE
100
AcDbEntity
  8
0
  6
CONTINUOUS
 62
           2
100
AcDbLine
 10
179.213613824456
 20
-127.068336028989
 11
179.407577617038
 21
-127.29792361031
  0
LINE
  5
3ED
100
AcDbEntity
  8
0
  6
CONTINUOUS
 62
           2
100
AcDbLine
 10
179.407577617038
 20
-127.29792361031
 11
179.50026270135
 21
-127.421807263513
  0
LINE
  5
3EC
100
AcDbEntity
  8
0
  6
CONTINUOUS
 62
           2
100
AcDbLine
 10
179.50026270135
 20
-127.421807263513
 11
179.980396525149
 21
-127.168341909844
  0
LINE
  5
3EB
100
AcDbEntity
  8
0
  6
CONTINUOUS
 62
           2
100
AcDbLine
 10
179.980396525149
 20
-127.168341909844
 11
179.997583773063
 21
-127.13198245968
  0
LINE
  5
3EA
100
AcDbEntity
  8
0
  6
CONTINUOUS
 62
           2
100
AcDbLine
 10
179.997583773063
 20
-127.13198245968
 11
179.781867337592
 21
-126.731970187565
  0
LINE
  5
3E9
100
AcDbEntity
  8
0
  6
CONTINUOUS
 62
           2
100
AcDbLine
 10
179.781867337592
 20
-126.731970187565
 11
179.697775877236
 21
-126.58990680928
  0
LINE
  5
3E8
100
AcDbEntity
  8
0
  6
CONTINUOUS
 62
           2
100
AcDbLine
 10
179.697775877236
 20
-126.58990680928
 11
179.229189574397
 21
-125.736732557838
  0
LINE
  5
3E7
100
AcDbEntity
  8
0
  6
CONTINUOUS
 62
           2
100
AcDbLine
 10
179.229189574397
 20
-125.736732557838
 11
179.1926316288
 21
-125.7105546951
  0
LINE
  5
3E6
100
AcDbEntity
  8
0
  6
CONTINUOUS
 62
           2
100
AcDbLine
 10
179.1926316288
 20
-125.7105546951
 11
179.012819332317
 21
-125.714524603773
  0
LINE
  5
3E5
100
AcDbEntity
  8
0
  6
CONTINUOUS
 62
           2
100
AcDbLine
 10
179.012819332317
 20
-125.714524603773
 11
178.535919755767
 21
-125.707063632107
  0
LINE
  5
3E4
100
AcDbEntity
  8
0
  6
CONTINUOUS
 62
           2
100
AcDbLine
 10
178.535919755767
 20
-125.707063632107
 11
177.537366023979
 21
-125.702124780768
  0
LINE
  5
3E3
100
AcDbEntity
  8
0
  6
CONTINUOUS
 62
           2
100
AcDbLine
 10
177.537366023979
 20
-125.702124780768
 11
176.862871416731
 21
-125.708021323466
  0
LINE
  5
3E2
100
AcDbEntity
  8
0
  6
CONTINUOUS
 62
           2
100
AcDbLine
 10
176.862871416731
 20
-125.708021323466
 11
176.448906143952
 21
-125.699170883766
  0
LINE
  5
3E1
100
AcDbEntity
  8
0
  6
CONTINUOUS
 62
           2
100
AcDbLine
 10
176.448906143952
 20
-125.699170883766
 11
175.783203656093
 21
-125.695878316206
  0
LINE
  5
3E0
100
AcDbEntity
  8
0
  6
CONTINUOUS
 62
           2
100
AcDbLine
 10
175.783203656093
 20
-125.695878316206
 11
175.108907544279
 21
-125.710765473729
  0
LINE
  5
3DF
100
AcDbEntity
  8
0
  6
CONTINUOUS
 62
           2
100
AcDbLine
 10
175.108907544279
 20
-125.710765473729
 11
175.103828517816
 21
-126.295552428169
  0
LINE
  5
3DE
100
AcDbEntity
  8
0
  6
CONTINUOUS
 62
           2
100
AcDbLine
 10
175.103828517816
 20
-126.295552428169
 11
175.337981494112
 21
-126.308372776543
  0
LINE
  5
3DD
100
AcDbEntity
  8
0
  6
CONTINUOUS
 62
           2
100
AcDbLine
 10
175.337981494112
 20
-126.308372776543
 11
175.671031233475
 21
-126.319009675147
  0
LINE
  5
3DC
100
AcDbEntity
  8
0
  6
CONTINUOUS
 62
           2
100
AcDbLine
 10
175.671031233475
 20
-126.319009675147
 11
175.760937381717
 21
-126.31702472081
  0
LINE
  5
3DB
100
AcDbEntity
  8
0
  6
CONTINUOUS
 62
           2
100
AcDbLine
 10
175.760937381717
 20
-126.31702472081
 11
175.81527806153
 21
-126.333814977857
  0
LINE
  5
3DA
100
AcDbEntity
  8
0
  6
CONTINUOUS
 62
           2
100
AcDbLine
 10
175.81527806153
 20
-126.333814977857
 11
175.801150099932
 21
-127.323576590253
  0
LINE
  5
3D9
100
AcDbEntity
  8
0
  6
CONTINUOUS
 62
           2
100
AcDbLine
 10
175.801150099932
 20
-127.323576590253
 11
175.807303458375
 21
-127.602285649804
  0
LINE
  5
3D8
100
AcDbEntity
  8
0
  6
CONTINUOUS
 62
           2
100
AcDbLine
 10
175.807303458375
 20
-127.602285649804
 11
175.793432312522
 21
-128.196261714501
  0
LINE
  5
3D7
100
AcDbEntity
  8
0
  6
CONTINUOUS
 62
           2
100
AcDbLine
 10
175.793432312522
 20
-128.196261714501
 11
175.801372129868
 21
-128.55588630747
  0
LINE
  5
3D6
100
AcDbEntity
  8
0
  6
CONTINUOUS
 62
           2
100
AcDbLine
 10
175.801372129868
 20
-128.55588630747
 11
175.789345763228
 21
-128.826001743062
  0
LINE
  5
3D5
100
AcDbEntity
  8
0
  6
CONTINUOUS
 62
           2
100
AcDbLine
 10
175.789345763228
 20
-128.826001743062
 11
175.781429480386
 21
-129.689696252486
  0
LINE
  5
3D4
100
AcDbEntity
  8
0
  6
CONTINUOUS
 62
           2
100
AcDbLine
 10
175.781429480386
 20
-129.689696252486
 11
175.787781334261
 21
-129.977395926861
  0
LINE
  5
3D3
100
AcDbEntity
  8
0
  6
CONTINUOUS
 62
           2
100
AcDbLine
 10
175.787781334261
 20
-129.977395926861
 11
175.773174526984
 21
-130.13063336974
  0
LINE
  5
3D2
100
AcDbEntity
  8
0
  6
CONTINUOUS
 62
           2
100
AcDbLine
 10
175.773174526984
 20
-130.13063336974
 11
175.108067525428
 21
-130.154312646653
  0
LINE
  5
3D1
100
AcDbEntity
  8
0
  6
CONTINUOUS
 62
           2
100
AcDbLine
 10
175.108067525428
 20
-130.154312646653
 11
175.072502056998
 21
-130.173087858036
  0
LINE
  5
3D0
100
AcDbEntity
  8
0
  6
CONTINUOUS
 62
           2
100
AcDbLine
 10
175.072502056998
 20
-130.173087858036
 11
175.066033562501
 21
-130.694940508707
  0
LINE
  5
3CF
100
AcDbEntity
  8
0
  6
CONTINUOUS
 62
           2
100
AcDbLine
 10
175.066033562501
 20
-130.694940508707
 11
175.120374242312
 21
-130.711730765754
  0
LINE
  5
3CE
100
AcDbEntity
  8
0
  6
CONTINUOUS
 62
           2
100
AcDbLine
 10
175.120374242312
 20
-130.711730765754
 11
175.713754820709
 21
-130.698630067134
  0
LINE
  5
3CD
100
AcDbEntity
  8
0
  6
CONTINUOUS
 62
           2
100
AcDbLine
 10
175.713754820709
 20
-130.698630067134
 11
176.36147607892
 21
-130.70231962556
  0
LINE
  5
3CC
100
AcDbEntity
  8
0
  6
CONTINUOUS
 62
           2
100
AcDbLine
 10
176.36147607892
 20
-130.70231962556
 11
177.530652996932
 21
-130.694496448837
  0
LINE
  5
3CB
100
AcDbEntity
  8
0
  6
CONTINUOUS
 62
           2
100
AcDbLine
 10
177.530652996932
 20
-130.694496448837
 11
177.710663788851
 21
-130.699517154987
  0
LINE
  5
3CA
100
AcDbEntity
  8
0
  6
CONTINUOUS
 62
           2
100
AcDbLine
 10
177.710663788851
 20
-130.699517154987
 11
177.71673529248
 21
-130.159683274669
  0
LINE
  5
3C9
100
AcDbEntity
  8
0
  6
CONTINUOUS
 62
           2
100
AcDbLine
 10
177.71673529248
 20
-130.159683274669
 11
177.698158576531
 21
-130.133108421063
  0
LINE
  5
3C8
100
AcDbEntity
  8
0
  6
CONTINUOUS
 62
           2
100
AcDbLine
 10
177.698158576531
 20
-130.133108421063
 11
176.960332674646
 21
-130.122413202149
  0
LINE
  5
3C7
100
AcDbEntity
  8
0
  6
CONTINUOUS
 62
           2
100
AcDbLine
 10
185.803710956091
 20
-125.699519773742
 11
185.839673415387
 21
-125.698725792007
  0
LINE
  5
3C6
100
AcDbEntity
  8
0
  6
CONTINUOUS
 62
           2
100
AcDbLine
 10
185.839673415387
 20
-125.698725792007
 11
185.876231360985
 21
-125.724903654745
  0
LINE
  5
3C5
100
AcDbEntity
  8
0
  6
CONTINUOUS
 62
           2
100
AcDbLine
 10
185.876231360985
 20
-125.724903654745
 11
185.871946316259
 21
-126.345653068481
  0
LINE
  5
3C4
100
AcDbEntity
  8
0
  6
CONTINUOUS
 62
           2
100
AcDbLine
 10
185.871946316259
 20
-126.345653068481
 11
185.826993242136
 21
-126.34664554565
  0
LINE
  5
3C3
100
AcDbEntity
  8
0
  6
CONTINUOUS
 62
           2
100
AcDbLine
 10
185.826993242136
 20
-126.34664554565
 11
185.31413120629
 21
-126.339978555719
  0
LINE
  5
3C2
100
AcDbEntity
  8
0
  6
CONTINUOUS
 62
           2
100
AcDbLine
 10
185.31413120629
 20
-126.339978555719
 11
185.278565737862
 21
-126.358753767102
  0
LINE
  5
3C1
100
AcDbEntity
  8
0
  6
CONTINUOUS
 62
           2
100
AcDbLine
 10
185.278565737862
 20
-126.358753767102
 11
185.090895478844
 21
-126.821642022676
  0
LINE
  5
3C0
100
AcDbEntity
  8
0
  6
CONTINUOUS
 62
           2
100
AcDbLine
 10
185.090895478844
 20
-126.821642022676
 11
184.937202724787
 21
-127.193830148274
  0
LINE
  5
3BF
100
AcDbEntity
  8
0
  6
CONTINUOUS
 62
           2
100
AcDbLine
 10
184.937202724787
 20
-127.193830148274
 11
184.468126324961
 21
-128.355546094621
  0
LINE
  5
3BE
100
AcDbEntity
  8
0
  6
CONTINUOUS
 62
           2
100
AcDbLine
 10
184.468126324961
 20
-128.355546094621
 11
184.109973054842
 21
-129.244963155604
  0
LINE
  5
3BD
100
AcDbEntity
  8
0
  6
CONTINUOUS
 62
           2
100
AcDbLine
 10
184.109973054842
 20
-129.244963155604
 11
183.947885172262
 21
-129.64432162111
  0
LINE
  5
3BC
100
AcDbEntity
  8
0
  6
CONTINUOUS
 62
           2
100
AcDbLine
 10
183.947885172262
 20
-129.64432162111
 11
183.760214913244
 21
-130.107209876682
  0
LINE
  5
3BB
100
AcDbEntity
  8
0
  6
CONTINUOUS
 62
           2
100
AcDbLine
 10
183.760214913244
 20
-130.107209876682
 11
183.529973525311
 21
-130.678977987316
  0
LINE
  5
3BA
100
AcDbEntity
  8
0
  6
CONTINUOUS
 62
           2
100
AcDbLine
 10
183.529973525311
 20
-130.678977987316
 11
182.585958968769
 21
-130.699820007847
  0
LINE
  5
3B9
100
AcDbEntity
  8
0
  6
CONTINUOUS
 62
           2
100
AcDbLine
 10
182.585958968769
 20
-130.699820007847
 11
182.48090884726
 21
-130.423294398067
  0
LINE
  5
3B8
100
AcDbEntity
  8
0
  6
CONTINUOUS
 62
           2
100
AcDbLine
 10
182.48090884726
 20
-130.423294398067
 11
182.337514321251
 21
-130.039675392132
  0
LINE
  5
3B7
100
AcDbEntity
  8
0
  6
CONTINUOUS
 62
           2
100
AcDbLine
 10
182.337514321251
 20
-130.039675392132
 11
182.232464199743
 21
-129.763149782351
  0
LINE
  5
3B6
100
AcDbEntity
  8
0
  6
CONTINUOUS
 62
           2
100
AcDbLine
 10
182.232464199743
 20
-129.763149782351
 11
182.146586280484
 21
-129.540170870649
  0
LINE
  5
3B5
100
AcDbEntity
  8
0
  6
CONTINUOUS
 62
           2
100
AcDbLine
 10
182.146586280484
 20
-129.540170870649
 11
181.965244340842
 21
-129.067439698206
  0
LINE
  5
3B4
100
AcDbEntity
  8
0
  6
CONTINUOUS
 62
           2
100
AcDbLine
 10
181.965244340842
 20
-129.067439698206
 11
181.850806613641
 21
-128.773131354211
  0
LINE
  5
3B3
100
AcDbEntity
  8
0
  6
CONTINUOUS
 62
           2
100
AcDbLine
 10
181.850806613641
 20
-128.773131354211
 11
181.669464673999
 21
-128.300400181768
  0
LINE
  5
3B2
100
AcDbEntity
  8
0
  6
CONTINUOUS
 62
           2
100
AcDbLine
 10
181.669464673999
 20
-128.300400181768
 11
181.56441455249
 21
-128.023874571987
  0
LINE
  5
3B1
100
AcDbEntity
  8
0
  6
CONTINUOUS
 62
           2
100
AcDbLine
 10
181.56441455249
 20
-128.023874571987
 11
181.488122734357
 21
-127.827669009324
  0
LINE
  5
3B0
100
AcDbEntity
  8
0
  6
CONTINUOUS
 62
           2
100
AcDbLine
 10
181.488122734357
 20
-127.827669009324
 11
181.325952996965
 21
-127.408484534959
  0
LINE
  5
3AF
100
AcDbEntity
  8
0
  6
CONTINUOUS
 62
           2
100
AcDbLine
 10
181.325952996965
 20
-127.408484534959
 11
181.097276037996
 21
-126.828858461793
  0
LINE
  5
3AE
100
AcDbEntity
  8
0
  6
CONTINUOUS
 62
           2
100
AcDbLine
 10
181.097276037996
 20
-126.828858461793
 11
181.049345532371
 21
-126.694991716598
  0
LINE
  5
3AD
100
AcDbEntity
  8
0
  6
CONTINUOUS
 62
           2
100
AcDbLine
 10
181.049345532371
 20
-126.694991716598
 11
180.916132593788
 21
-126.365117904171
  0
LINE
  5
3AC
100
AcDbEntity
  8
0
  6
CONTINUOUS
 62
           2
100
AcDbLine
 10
180.916132593788
 20
-126.365117904171
 11
180.83462157407
 21
-126.339932518603
  0
LINE
  5
3AB
100
AcDbEntity
  8
0
  6
CONTINUOUS
 62
           2
100
AcDbLine
 10
180.83462157407
 20
-126.339932518603
 11
180.528543679179
 21
-126.328700133698
  0
LINE
  5
3AA
100
AcDbEntity
  8
0
  6
CONTINUOUS
 62
           2
100
AcDbLine
 10
180.528543679179
 20
-126.328700133698
 11
180.312768923398
 21
-126.333464024106
  0
LINE
  5
3A9
100
AcDbEntity
  8
0
  6
CONTINUOUS
 62
           2
100
AcDbLine
 10
180.312768923398
 20
-126.333464024106
 11
180.294390702883
 21
-126.315879785325
  0
LINE
  5
3A8
100
AcDbEntity
  8
0
  6
CONTINUOUS
 62
           2
100
AcDbLine
 10
180.294390702883
 20
-126.315879785325
 11
180.298874243043
 21
-125.704120986412
  0
LINE
  5
3A7
100
AcDbEntity
  8
0
  6
CONTINUOUS
 62
           2
100
AcDbLine
 10
180.298874243043
 20
-125.704120986412
 11
180.919226665915
 21
-125.690424801491
  0
LINE
  5
3A6
100
AcDbEntity
  8
0
  6
CONTINUOUS
 62
           2
100
AcDbLine
 10
180.919226665915
 20
-125.690424801491
 11
182.403273598208
 21
-125.684644899413
  0
LINE
  5
3A5
100
AcDbEntity
  8
0
  6
CONTINUOUS
 62
           2
100
AcDbLine
 10
182.403273598208
 20
-125.684644899413
 11
182.781276411691
 21
-125.694289320849
  0
LINE
  5
3A4
100
AcDbEntity
  8
0
  6
CONTINUOUS
 62
           2
100
AcDbLine
 10
182.781276411691
 20
-125.694289320849
 11
182.889362285015
 21
-125.70089799047
  0
LINE
  5
3A3
100
AcDbEntity
  8
0
  6
CONTINUOUS
 62
           2
100
AcDbLine
 10
182.889362285015
 20
-125.70089799047
 11
182.891744230218
 21
-125.80878536836
  0
LINE
  5
3A2
100
AcDbEntity
  8
0
  6
CONTINUOUS
 62
           2
100
AcDbLine
 10
182.891744230218
 20
-125.80878536836
 11
182.899882542998
 21
-126.177400576152
  0
LINE
  5
3A1
100
AcDbEntity
  8
0
  6
CONTINUOUS
 62
           2
100
AcDbLine
 10
182.899882542998
 20
-126.177400576152
 11
182.885871222022
 21
-126.357609863503
  0
LINE
  5
3A0
100
AcDbEntity
  8
0
  6
CONTINUOUS
 62
           2
100
AcDbLine
 10
182.885871222022
 20
-126.357609863503
 11
182.804955688604
 21
-126.359396322407
  0
LINE
  5
39F
100
AcDbEntity
  8
0
  6
CONTINUOUS
 62
           2
100
AcDbLine
 10
182.804955688604
 20
-126.359396322407
 11
182.516859023363
 21
-126.347766946634
  0
LINE
  5
39E
100
AcDbEntity
  8
0
  6
CONTINUOUS
 62
           2
100
AcDbLine
 10
182.516859023363
 20
-126.347766946634
 11
182.103290741449
 21
-126.356897736582
  0
LINE
  5
39D
100
AcDbEntity
  8
0
  6
CONTINUOUS
 62
           2
100
AcDbLine
 10
182.103290741449
 20
-126.356897736582
 11
182.095292603794
 21
-126.402049306137
  0
LINE
  5
39C
100
AcDbEntity
  8
0
  6
CONTINUOUS
 62
           2
100
AcDbLine
 10
182.095292603794
 20
-126.402049306137
 11
182.238488634369
 21
-126.776677697248
  0
LINE
  5
39B
100
AcDbEntity
  8
0
  6
CONTINUOUS
 62
           2
100
AcDbLine
 10
182.238488634369
 20
-126.776677697248
 11
182.563622090888
 21
-127.651009105277
  0
LINE
  5
39A
100
AcDbEntity
  8
0
  6
CONTINUOUS
 62
           2
100
AcDbLine
 10
182.563622090888
 20
-127.651009105277
 11
182.754550131655
 21
-128.150513626758
  0
LINE
  5
399
100
AcDbEntity
  8
0
  6
CONTINUOUS
 62
           2
100
AcDbLine
 10
182.754550131655
 20
-128.150513626758
 11
182.830841949789
 21
-128.346719189422
  0
LINE
  5
398
100
AcDbEntity
  8
0
  6
CONTINUOUS
 62
           2
100
AcDbLine
 10
182.830841949789
 20
-128.346719189422
 11
182.935892071298
 21
-128.623244799202
  0
LINE
  5
397
100
AcDbEntity
  8
0
  6
CONTINUOUS
 62
           2
100
AcDbLine
 10
182.935892071298
 20
-128.623244799202
 11
183.174750617692
 21
-129.256616065879
  0
LINE
  5
396
100
AcDbEntity
  8
0
  6
CONTINUOUS
 62
           2
100
AcDbLine
 10
183.174750617692
 20
-129.256616065879
 11
183.279205252899
 21
-129.506169831187
  0
LINE
  5
395
100
AcDbEntity
  8
0
  6
CONTINUOUS
 62
           2
100
AcDbLine
 10
183.279205252899
 20
-129.506169831187
 11
183.305978601938
 21
-129.496583730062
  0
LINE
  5
394
100
AcDbEntity
  8
0
  6
CONTINUOUS
 62
           2
100
AcDbLine
 10
183.305978601938
 20
-129.496583730062
 11
183.409102089422
 21
-129.278427029077
  0
LINE
  5
393
100
AcDbEntity
  8
0
  6
CONTINUOUS
 62
           2
100
AcDbLine
 10
183.409102089422
 20
-129.278427029077
 11
183.911560507907
 21
-127.999039108281
  0
LINE
  5
392
100
AcDbEntity
  8
0
  6
CONTINUOUS
 62
           2
100
AcDbLine
 10
183.911560507907
 20
-127.999039108281
 11
184.243535915289
 21
-127.146179992894
  0
LINE
  5
391
100
AcDbEntity
  8
0
  6
CONTINUOUS
 62
           2
100
AcDbLine
 10
184.243535915289
 20
-127.146179992894
 11
184.337470292515
 21
-126.91923117252
  0
LINE
  5
390
100
AcDbEntity
  8
0
  6
CONTINUOUS
 62
           2
100
AcDbLine
 10
184.337470292515
 20
-126.91923117252
 11
184.43960130283
 21
-126.656121397415
  0
LINE
  5
38F
100
AcDbEntity
  8
0
  6
CONTINUOUS
 62
           2
100
AcDbLine
 10
184.43960130283
 20
-126.656121397415
 11
184.567314689582
 21
-126.329481832238
  0
LINE
  5
38E
100
AcDbEntity
  8
0
  6
CONTINUOUS
 62
           2
100
AcDbLine
 10
184.567314689582
 20
-126.329481832238
 11
184.521964624592
 21
-126.312493079758
  0
LINE
  5
38D
100
AcDbEntity
  8
0
  6
CONTINUOUS
 62
           2
100
AcDbLine
 10
184.521964624592
 20
-126.312493079758
 11
183.801921456922
 21
-126.292410255152
  0
LINE
  5
38C
100
AcDbEntity
  8
0
  6
CONTINUOUS
 62
           2
100
AcDbLine
 10
183.801921456922
 20
-126.292410255152
 11
183.783543236407
 21
-126.274826016371
  0
LINE
  5
38B
100
AcDbEntity
  8
0
  6
CONTINUOUS
 62
           2
100
AcDbLine
 10
183.783543236407
 20
-126.274826016371
 11
183.789217749169
 21
-125.717010906403
  0
LINE
  5
38A
100
AcDbEntity
  8
0
  6
CONTINUOUS
 62
           2
100
AcDbLine
 10
183.789217749169
 20
-125.717010906403
 11
183.815594107341
 21
-125.68944357563
  0
LINE
  5
389
100
AcDbEntity
  8
0
  6
CONTINUOUS
 62
           2
100
AcDbLine
 10
183.815594107341
 20
-125.68944357563
 11
184.220171774431
 21
-125.680511281117
  0
LINE
  5
388
100
AcDbEntity
  8
0
  6
CONTINUOUS
 62
           2
100
AcDbLine
 10
184.220171774431
 20
-125.680511281117
 11
185.110838128327
 21
-125.687832077658
  0
LINE
  5
387
100
AcDbEntity
  8
0
  6
CONTINUOUS
 62
           2
100
AcDbLine
 10
185.110838128327
 20
-125.687832077658
 11
185.425906638041
 21
-125.698865967131
  0
LINE
  5
386
100
AcDbEntity
  8
0
  6
CONTINUOUS
 62
           2
100
AcDbLine
 10
185.425906638041
 20
-125.698865967131
 11
185.740578156888
 21
-125.691918626953
  0
LINE
  5
385
100
AcDbEntity
  8
0
  6
CONTINUOUS
 62
           2
100
AcDbLine
 10
185.740578156888
 20
-125.691918626953
 11
185.803710956091
 21
-125.699519773742
  0
LINE
  5
384
100
AcDbEntity
  8
0
  6
CONTINUOUS
 62
           2
100
AcDbLine
 10
191.513948222914
 20
-124.860636161634
 11
191.541118562821
 21
-124.869031290158
  0
LINE
  5
383
100
AcDbEntity
  8
0
  6
CONTINUOUS
 62
           2
100
AcDbLine
 10
191.541118562821
 20
-124.869031290158
 11
191.544095994325
 21
-125.003890512521
  0
LINE
  5
382
100
AcDbEntity
  8
0
  6
CONTINUOUS
 62
           2
100
AcDbLine
 10
191.544095994325
 20
-125.003890512521
 11
191.553705629952
 21
-126.253982963951
  0
LINE
  5
381
100
AcDbEntity
  8
0
  6
CONTINUOUS
 62
           2
100
AcDbLine
 10
191.553705629952
 20
-126.253982963951
 11
191.562836419899
 21
-126.667551245865
  0
LINE
  5
380
100
AcDbEntity
  8
0
  6
CONTINUOUS
 62
           2
100
AcDbLine
 10
191.562836419899
 20
-126.667551245865
 11
191.555515623358
 21
-127.458217599762
  0
LINE
  5
37F
100
AcDbEntity
  8
0
  6
CONTINUOUS
 62
           2
100
AcDbLine
 10
191.555515623358
 20
-127.458217599762
 11
191.529337760618
 21
-127.494775545359
  0
LINE
  5
37E
100
AcDbEntity
  8
0
  6
CONTINUOUS
 62
           2
100
AcDbLine
 10
191.529337760618
 20
-127.494775545359
 11
191.493375301322
 21
-127.495569527093
  0
LINE
  5
37D
100
AcDbEntity
  8
0
  6
CONTINUOUS
 62
           2
100
AcDbLine
 10
191.493375301322
 20
-127.495569527093
 11
190.361462574973
 21
-127.513772786677
  0
LINE
  5
37C
100
AcDbEntity
  8
0
  6
CONTINUOUS
 62
           2
100
AcDbLine
 10
190.361462574973
 20
-127.513772786677
 11
188.535970774793
 21
-127.536086130057
  0
LINE
  5
37B
100
AcDbEntity
  8
0
  6
CONTINUOUS
 62
           2
100
AcDbLine
 10
188.535970774793
 20
-127.536086130057
 11
188.584952077898
 21
-127.31012978685
  0
LINE
  5
37A
100
AcDbEntity
  8
0
  6
CONTINUOUS
 62
           2
100
AcDbLine
 10
188.584952077898
 20
-127.31012978685
 11
188.694485739567
 21
-127.074896597718
  0
LINE
  5
379
100
AcDbEntity
  8
0
  6
CONTINUOUS
 62
           2
100
AcDbLine
 10
188.694485739567
 20
-127.074896597718
 11
188.848773979925
 21
-126.729680316592
  0
LINE
  5
378
100
AcDbEntity
  8
0
  6
CONTINUOUS
 62
           2
100
AcDbLine
 10
188.848773979925
 20
-126.729680316592
 11
189.004650183752
 21
-126.456388954061
  0
LINE
  5
377
100
AcDbEntity
  8
0
  6
CONTINUOUS
 62
           2
100
AcDbLine
 10
189.004650183752
 20
-126.456388954061
 11
189.196687342309
 21
-126.19129422462
  0
LINE
  5
376
100
AcDbEntity
  8
0
  6
CONTINUOUS
 62
           2
100
AcDbLine
 10
189.196687342309
 20
-126.19129422462
 11
189.406904225948
 21
-125.934793119135
  0
LINE
  5
375
100
AcDbEntity
  8
0
  6
CONTINUOUS
 62
           2
100
AcDbLine
 10
189.406904225948
 20
-125.934793119135
 11
189.653282064318
 21
-125.68648864674
  0
LINE
  5
374
100
AcDbEntity
  8
0
  6
CONTINUOUS
 62
           2
100
AcDbLine
 10
189.653282064318
 20
-125.68648864674
 11
189.954000582499
 21
-125.45497443139
  0
LINE
  5
373
100
AcDbEntity
  8
0
  6
CONTINUOUS
 62
           2
100
AcDbLine
 10
189.954000582499
 20
-125.45497443139
 11
190.326842514708
 21
-125.230862867397
  0
LINE
  5
372
100
AcDbEntity
  8
0
  6
CONTINUOUS
 62
           2
100
AcDbLine
 10
190.326842514708
 20
-125.230862867397
 11
190.593980518796
 21
-125.108030011675
  0
LINE
  5
371
100
AcDbEntity
  8
0
  6
CONTINUOUS
 62
           2
100
AcDbLine
 10
190.593980518796
 20
-125.108030011675
 11
190.942034056304
 21
-124.983410697047
  0
LINE
  5
370
100
AcDbEntity
  8
0
  6
CONTINUOUS
 62
           2
100
AcDbLine
 10
190.942034056304
 20
-124.983410697047
 11
191.264108226506
 21
-124.904339942843
  0
LINE
  5
36F
100
AcDbEntity
  8
0
  6
CONTINUOUS
 62
           2
100
AcDbLine
 10
191.264108226506
 20
-124.904339942843
 11
191.352315651512
 21
-124.873199694264
  0
LINE
  5
36E
100
AcDbEntity
  8
0
  6
CONTINUOUS
 62
           2
100
AcDbLine
 10
191.352315651512
 20
-124.873199694264
 11
191.513948222914
 21
-124.860636161634
  0
LINE
  5
36D
100
AcDbEntity
  8
0
  6
CONTINUOUS
 62
           3
100
AcDbLine
 10
192.235404914606
 20
-131.775271263489
 11
192.235206419172
 21
-131.766280648664
  0
LINE
  5
36C
100
AcDbEntity
  8
0
  6
CONTINUOUS
 62
           2
100
AcDbLine
 10
192.235206419172
 20
-131.766280648664
 11
192.468763909167
 21
-131.752129152566
  0
LINE
  5
36B
100
AcDbEntity
  8
0
  6
CONTINUOUS
 62
           2
100
AcDbLine
 10
192.468763909167
 20
-131.752129152566
 11
192.744980263748
 21
-131.680858040584
  0
LINE
  5
36A
100
AcDbEntity
  8
0
  6
CONTINUOUS
 62
           2
100
AcDbLine
 10
192.744980263748
 20
-131.680858040584
 11
192.950573432104
 21
-131.622348956665
  0
LINE
  5
369
100
AcDbEntity
  8
0
  6
CONTINUOUS
 62
           2
100
AcDbLine
 10
192.950573432104
 20
-131.622348956665
 11
193.236089656709
 21
-131.517100339722
  0
LINE
  5
368
100
AcDbEntity
  8
0
  6
CONTINUOUS
 62
           2
100
AcDbLine
 10
193.236089656709
 20
-131.517100339722
 11
193.618716185475
 21
-131.328752739592
  0
LINE
  5
367
100
AcDbEntity
  8
0
  6
CONTINUOUS
 62
           2
100
AcDbLine
 10
193.618716185475
 20
-131.328752739592
 11
193.920427180826
 21
-131.142191598364
  0
LINE
  5
366
100
AcDbEntity
  8
0
  6
CONTINUOUS
 62
           2
100
AcDbLine
 10
193.920427180826
 20
-131.142191598364
 11
194.132629018802
 21
-130.975596641122
  0
LINE
  5
365
100
AcDbEntity
  8
0
  6
CONTINUOUS
 62
           2
100
AcDbLine
 10
194.132629018802
 20
-130.975596641122
 11
194.379602343472
 21
-130.754264013199
  0
LINE
  5
364
100
AcDbEntity
  8
0
  6
CONTINUOUS
 62
           2
100
AcDbLine
 10
194.379602343472
 20
-130.754264013199
 11
194.651959549145
 21
-130.460410980382
  0
LINE
  5
363
100
AcDbEntity
  8
0
  6
CONTINUOUS
 62
           2
100
AcDbLine
 10
194.651959549145
 20
-130.460410980382
 11
194.869976075007
 21
-130.149767690518
  0
LINE
  5
362
100
AcDbEntity
  8
0
  6
CONTINUOUS
 62
           2
100
AcDbLine
 10
194.869976075007
 20
-130.149767690518
 11
195.051434655271
 21
-129.812946537916
  0
LINE
  5
361
100
AcDbEntity
  8
0
  6
CONTINUOUS
 62
           2
100
AcDbLine
 10
195.051434655271
 20
-129.812946537916
 11
195.13677540854
 21
-129.604177442624
  0
LINE
  5
360
100
AcDbEntity
  8
0
  6
CONTINUOUS
 62
           2
100
AcDbLine
 10
195.13677540854
 20
-129.604177442624
 11
195.213125546982
 21
-129.395606842765
  0
LINE
  5
35F
100
AcDbEntity
  8
0
  6
CONTINUOUS
 62
           2
100
AcDbLine
 10
195.213125546982
 20
-129.395606842765
 11
195.288483208259
 21
-129.142083168784
  0
LINE
  5
35E
100
AcDbEntity
  8
0
  6
CONTINUOUS
 62
           2
100
AcDbLine
 10
195.288483208259
 20
-129.142083168784
 11
195.329267878274
 21
-129.052287780307
  0
LINE
  5
35D
100
AcDbEntity
  8
0
  6
CONTINUOUS
 62
           2
100
AcDbLine
 10
192.235206419172
 20
-131.766280648664
 11
192.226017308915
 21
-131.757488529274
  0
LINE
  5
35C
100
AcDbEntity
  8
0
  6
CONTINUOUS
 62
           2
100
AcDbLine
 10
192.226017308915
 20
-131.757488529274
 11
192.23016217852
 21
-130.72297233819
  0
LINE
  5
35B
100
AcDbEntity
  8
0
  6
CONTINUOUS
 62
           2
100
AcDbLine
 10
192.23016217852
 20
-130.72297233819
 11
192.214994670751
 21
-129.221142671682
  0
LINE
  5
35A
100
AcDbEntity
  8
0
  6
CONTINUOUS
 62
           2
100
AcDbLine
 10
192.214994670751
 20
-129.221142671682
 11
192.227815019124
 21
-129.086989695385
  0
LINE
  5
359
100
AcDbEntity
  8
0
  6
CONTINUOUS
 62
           2
100
AcDbLine
 10
192.227815019124
 20
-129.086989695385
 11
193.934928598789
 21
-129.047092113225
  0
LINE
  5
358
100
AcDbEntity
  8
0
  6
CONTINUOUS
 62
           2
100
AcDbLine
 10
193.934928598789
 20
-129.047092113225
 11
195.329267878274
 21
-129.052287780307
  0
LINE
  5
357
100
AcDbEntity
  8
0
  6
CONTINUOUS
 62
           2
100
AcDbLine
 10
195.347424068855
 20
-127.737562301873
 11
195.368382730007
 21
-127.872024533368
  0
LINE
  5
356
100
AcDbEntity
  8
0
  6
CONTINUOUS
 62
           2
100
AcDbLine
 10
195.368382730007
 20
-127.872024533368
 11
195.396090235904
 21
-128.212167668886
  0
LINE
  5
355
100
AcDbEntity
  8
0
  6
CONTINUOUS
 62
           2
100
AcDbLine
 10
195.396090235904
 20
-128.212167668886
 11
195.379299978857
 21
-128.266508348699
  0
LINE
  5
354
100
AcDbEntity
  8
0
  6
CONTINUOUS
 62
           2
100
AcDbLine
 10
195.379299978857
 20
-128.266508348699
 11
195.028666000712
 21
-128.274249670611
  0
LINE
  5
353
100
AcDbEntity
  8
0
  6
CONTINUOUS
 62
           2
100
AcDbLine
 10
195.028666000712
 20
-128.274249670611
 11
194.057679599699
 21
-128.295687177443
  0
LINE
  5
352
100
AcDbEntity
  8
0
  6
CONTINUOUS
 62
           2
100
AcDbLine
 10
194.057679599699
 20
-128.295687177443
 11
193.032352518873
 21
-128.30033442723
  0
LINE
  5
351
100
AcDbEntity
  8
0
  6
CONTINUOUS
 62
           2
100
AcDbLine
 10
193.032352518873
 20
-128.30033442723
 11
191.521736280557
 21
-128.301974564421
  0
LINE
  5
350
100
AcDbEntity
  8
0
  6
CONTINUOUS
 62
           2
100
AcDbLine
 10
191.521736280557
 20
-128.301974564421
 11
191.521421477776
 21
-128.358470054782
  0
LINE
  5
34F
100
AcDbEntity
  8
0
  6
CONTINUOUS
 62
           2
100
AcDbLine
 10
191.521421477776
 20
-128.358470054782
 11
191.520113864553
 21
-129.214078690883
  0
LINE
  5
34E
100
AcDbEntity
  8
0
  6
CONTINUOUS
 62
           2
100
AcDbLine
 10
191.520113864553
 20
-129.214078690883
 11
191.526068727561
 21
-129.483797135609
  0
LINE
  5
34D
100
AcDbEntity
  8
0
  6
CONTINUOUS
 62
           2
100
AcDbLine
 10
191.526068727561
 20
-129.483797135609
 11
191.518888106141
 21
-130.788230266853
  0
LINE
  5
34C
100
AcDbEntity
  8
0
  6
CONTINUOUS
 62
           2
100
AcDbLine
 10
191.518888106141
 20
-130.788230266853
 11
191.527423409788
 21
-131.174826704293
  0
LINE
  5
34B
100
AcDbEntity
  8
0
  6
CONTINUOUS
 62
           2
100
AcDbLine
 10
191.527423409788
 20
-131.174826704293
 11
191.522344383327
 21
-131.759613658732
  0
LINE
  5
34A
100
AcDbEntity
  8
0
  6
CONTINUOUS
 62
           2
100
AcDbLine
 10
191.522344383327
 20
-131.759613658732
 11
191.441428849907
 21
-131.761400117636
  0
LINE
  5
349
100
AcDbEntity
  8
0
  6
CONTINUOUS
 62
           2
100
AcDbLine
 10
191.441428849907
 20
-131.761400117636
 11
191.306878882745
 21
-131.730598539614
  0
LINE
  5
348
100
AcDbEntity
  8
0
  6
CONTINUOUS
 62
           2
100
AcDbLine
 10
191.306878882745
 20
-131.730598539614
 11
191.008600630076
 21
-131.665223970329
  0
LINE
  5
347
100
AcDbEntity
  8
0
  6
CONTINUOUS
 62
           2
100
AcDbLine
 10
191.008600630076
 20
-131.665223970329
 11
190.709726891108
 21
-131.572877556573
  0
LINE
  5
346
100
AcDbEntity
  8
0
  6
CONTINUOUS
 62
           2
100
AcDbLine
 10
190.709726891108
 20
-131.572877556573
 11
190.428238895488
 21
-131.453162307478
  0
LINE
  5
345
100
AcDbEntity
  8
0
  6
CONTINUOUS
 62
           2
100
AcDbLine
 10
190.428238895488
 20
-131.453162307478
 11
190.073238017804
 21
-131.263110103255
  0
LINE
  5
344
100
AcDbEntity
  8
0
  6
CONTINUOUS
 62
           2
100
AcDbLine
 10
190.073238017804
 20
-131.263110103255
 11
189.799152673538
 21
-131.071271440134
  0
LINE
  5
343
100
AcDbEntity
  8
0
  6
CONTINUOUS
 62
           2
100
AcDbLine
 10
189.799152673538
 20
-131.071271440134
 11
189.579011018216
 21
-130.878241804409
  0
LINE
  5
342
100
AcDbEntity
  8
0
  6
CONTINUOUS
 62
           2
100
AcDbLine
 10
189.579011018216
 20
-130.878241804409
 11
189.339697160646
 21
-130.631665470606
  0
LINE
  5
341
100
AcDbEntity
  8
0
  6
CONTINUOUS
 62
           2
100
AcDbLine
 10
189.339697160646
 20
-130.631665470606
 11
189.145534872629
 21
-130.393087274459
  0
LINE
  5
340
100
AcDbEntity
  8
0
  6
CONTINUOUS
 62
           2
100
AcDbLine
 10
189.145534872629
 20
-130.393087274459
 11
188.996921145034
 21
-130.180488445615
  0
LINE
  5
33F
100
AcDbEntity
  8
0
  6
CONTINUOUS
 62
           2
100
AcDbLine
 10
188.996921145034
 20
-130.180488445615
 11
188.837927334581
 21
-129.905153808437
  0
LINE
  5
33E
100
AcDbEntity
  8
0
  6
CONTINUOUS
 62
           2
100
AcDbLine
 10
188.837927334581
 20
-129.905153808437
 11
188.705309882299
 21
-129.602251840486
  0
LINE
  5
33D
100
AcDbEntity
  8
0
  6
CONTINUOUS
 62
           2
100
AcDbLine
 10
188.705309882299
 20
-129.602251840486
 11
188.657379376674
 21
-129.468385095291
  0
LINE
  5
33C
100
AcDbEntity
  8
0
  6
CONTINUOUS
 62
           2
100
AcDbLine
 10
188.657379376674
 20
-129.468385095291
 11
188.580095081371
 21
-129.227226458507
  0
LINE
  5
33B
100
AcDbEntity
  8
0
  6
CONTINUOUS
 62
           2
100
AcDbLine
 10
188.580095081371
 20
-129.227226458507
 11
188.499634859131
 21
-128.842217984535
  0
LINE
  5
33A
100
AcDbEntity
  8
0
  6
CONTINUOUS
 62
           2
100
AcDbLine
 10
188.499634859131
 20
-128.842217984535
 11
188.465318683614
 21
-128.51016072234
  0
LINE
  5
339
100
AcDbEntity
  8
0
  6
CONTINUOUS
 62
           2
100
AcDbLine
 10
188.465318683614
 20
-128.51016072234
 11
188.467361958262
 21
-128.295290708059
  0
LINE
  5
338
100
AcDbEntity
  8
0
  6
CONTINUOUS
 62
           2
100
AcDbLine
 10
188.467361958262
 20
-128.295290708059
 11
188.484549206175
 21
-128.258931257895
  0
LINE
  5
337
100
AcDbEntity
  8
0
  6
CONTINUOUS
 62
           2
100
AcDbLine
 10
188.484549206175
 20
-128.258931257895
 11
190.291662785839
 21
-128.219033675735
  0
LINE
  5
336
100
AcDbEntity
  8
0
  6
CONTINUOUS
 62
           2
100
AcDbLine
 10
190.291662785839
 20
-128.219033675735
 11
191.640652000336
 21
-128.207240590339
  0
LINE
  5
335
100
AcDbEntity
  8
0
  6
CONTINUOUS
 62
           2
100
AcDbLine
 10
191.640652000336
 20
-128.207240590339
 11
192.216956090585
 21
-128.187729717531
  0
LINE
  5
334
100
AcDbEntity
  8
0
  6
CONTINUOUS
 62
           2
100
AcDbLine
 10
192.216956090585
 20
-128.187729717531
 11
192.230768916127
 21
-127.998529815355
  0
LINE
  5
333
100
AcDbEntity
  8
0
  6
CONTINUOUS
 62
           2
100
AcDbLine
 10
192.230768916127
 20
-127.998529815355
 11
192.224218566817
 21
-127.601839526158
  0
LINE
  5
332
100
AcDbEntity
  8
0
  6
CONTINUOUS
 62
           2
100
AcDbLine
 10
192.224218566817
 20
-127.601839526158
 11
192.230149895325
 21
-126.648238868491
  0
LINE
  5
331
100
AcDbEntity
  8
0
  6
CONTINUOUS
 62
           2
100
AcDbLine
 10
192.230149895325
 20
-126.648238868491
 11
192.217049196705
 21
-126.054858290094
  0
LINE
  5
330
100
AcDbEntity
  8
0
  6
CONTINUOUS
 62
           2
100
AcDbLine
 10
192.217049196705
 20
-126.054858290094
 11
192.226296627273
 21
-125.658874246962
  0
LINE
  5
32F
100
AcDbEntity
  8
0
  6
CONTINUOUS
 62
           2
100
AcDbLine
 10
192.226296627273
 20
-125.658874246962
 11
192.227008754196
 21
-124.87629376639
  0
LINE
  5
32E
100
AcDbEntity
  8
0
  6
CONTINUOUS
 62
           2
100
AcDbLine
 10
192.227008754196
 20
-124.87629376639
 11
192.253385112367
 21
-124.848726435616
  0
LINE
  5
32D
100
AcDbEntity
  8
0
  6
CONTINUOUS
 62
           2
100
AcDbLine
 10
192.253385112367
 20
-124.848726435616
 11
192.41470842857
 21
-124.869941912514
  0
LINE
  5
32C
100
AcDbEntity
  8
0
  6
CONTINUOUS
 62
           2
100
AcDbLine
 10
192.41470842857
 20
-124.869941912514
 11
192.70379757098
 21
-124.926524362406
  0
LINE
  5
32B
100
AcDbEntity
  8
0
  6
CONTINUOUS
 62
           2
100
AcDbLine
 10
192.70379757098
 20
-124.926524362406
 11
192.975302474609
 21
-125.001485032815
  0
LINE
  5
32A
100
AcDbEntity
  8
0
  6
CONTINUOUS
 62
           2
100
AcDbLine
 10
192.975302474609
 20
-125.001485032815
 11
193.347292104771
 21
-125.146187172048
  0
LINE
  5
329
100
AcDbEntity
  8
0
  6
CONTINUOUS
 62
           2
100
AcDbLine
 10
193.347292104771
 20
-125.146187172048
 11
193.68391476194
 21
-125.318655137487
  0
LINE
  5
328
100
AcDbEntity
  8
0
  6
CONTINUOUS
 62
           2
100
AcDbLine
 10
193.68391476194
 20
-125.318655137487
 11
193.948612500514
 21
-125.492711066395
  0
LINE
  5
327
100
AcDbEntity
  8
0
  6
CONTINUOUS
 62
           2
100
AcDbLine
 10
193.948612500514
 20
-125.492711066395
 11
194.122610109111
 21
-125.632789490344
  0
LINE
  5
326
100
AcDbEntity
  8
0
  6
CONTINUOUS
 62
           2
100
AcDbLine
 10
194.122610109111
 20
-125.632789490344
 11
194.195726000308
 21
-125.685145215819
  0
LINE
  5
325
100
AcDbEntity
  8
0
  6
CONTINUOUS
 62
           2
100
AcDbLine
 10
194.195726000308
 20
-125.685145215819
 11
194.52653396959
 21
-126.00166151388
  0
LINE
  5
324
100
AcDbEntity
  8
0
  6
CONTINUOUS
 62
           2
100
AcDbLine
 10
194.52653396959
 20
-126.00166151388
 11
194.795003121403
 21
-126.346539124448
  0
LINE
  5
323
100
AcDbEntity
  8
0
  6
CONTINUOUS
 62
           2
100
AcDbLine
 10
194.795003121403
 20
-126.346539124448
 11
194.935221720475
 21
-126.586308293197
  0
LINE
  5
322
100
AcDbEntity
  8
0
  6
CONTINUOUS
 62
           2
100
AcDbLine
 10
194.935221720475
 20
-126.586308293197
 11
195.113983219479
 21
-126.942161472926
  0
LINE
  5
321
100
AcDbEntity
  8
0
  6
CONTINUOUS
 62
           2
100
AcDbLine
 10
195.113983219479
 20
-126.942161472926
 11
195.257774736357
 21
-127.34376170851
  0
LINE
  5
320
100
AcDbEntity
  8
0
  6
CONTINUOUS
 62
           2
100
AcDbLine
 10
195.257774736357
 20
-127.34376170851
 11
195.317276297444
 21
-127.594307950987
  0
LINE
  5
31F
100
AcDbEntity
  8
0
  6
CONTINUOUS
 62
           2
100
AcDbLine
 10
195.317276297444
 20
-127.594307950987
 11
195.347424068855
 21
-127.737562301873
  0
LINE
  5
31E
100
AcDbEntity
  8
0
  6
CONTINUOUS
 62
           2
100
AcDbLine
 10
194.056432714621
 20
-133.660830557942
 11
194.094017672022
 21
-133.681343474834
  0
LINE
  5
31D
100
AcDbEntity
  8
0
  6
CONTINUOUS
 62
           2
100
AcDbLine
 10
194.094017672022
 20
-133.681343474834
 11
194.282630634304
 21
-133.764771492953
  0
LINE
  5
31C
100
AcDbEntity
  8
0
  6
CONTINUOUS
 62
           2
100
AcDbLine
 10
194.282630634304
 20
-133.764771492953
 11
194.316086540047
 21
-133.900103807877
  0
LINE
  5
31B
100
AcDbEntity
  8
0
  6
CONTINUOUS
 62
           2
100
AcDbLine
 10
194.316086540047
 20
-133.900103807877
 11
194.313333838943
 21
-133.976650073232
  0
LINE
  5
31A
100
AcDbEntity
  8
0
  6
CONTINUOUS
 62
           2
100
AcDbLine
 10
194.313333838943
 20
-133.976650073232
 11
194.290068220945
 21
-134.090781295989
  0
LINE
  5
319
100
AcDbEntity
  8
0
  6
CONTINUOUS
 62
           2
100
AcDbLine
 10
194.290068220945
 20
-134.090781295989
 11
194.316642373925
 21
-134.417479274302
  0
LINE
  5
318
100
AcDbEntity
  8
0
  6
CONTINUOUS
 62
           2
100
AcDbLine
 10
194.316642373925
 20
-134.417479274302
 11
194.313201497543
 21
-134.513162105996
  0
LINE
  5
317
100
AcDbEntity
  8
0
  6
CONTINUOUS
 62
           2
100
AcDbLine
 10
194.313201497543
 20
-134.513162105996
 11
194.303567043674
 21
-134.78107403474
  0
LINE
  5
316
100
AcDbEntity
  8
0
  6
CONTINUOUS
 62
           2
100
AcDbLine
 10
194.303567043674
 20
-134.78107403474
 11
194.300126167292
 21
-134.876756866434
  0
LINE
  5
315
100
AcDbEntity
  8
0
  6
CONTINUOUS
 62
           2
100
AcDbLine
 10
194.300126167292
 20
-134.876756866434
 11
194.312380980867
 21
-135.068810705099
  0
LINE
  5
314
100
AcDbEntity
  8
0
  6
CONTINUOUS
 62
           2
100
AcDbLine
 10
194.312380980867
 20
-135.068810705099
 11
194.311004630315
 21
-135.107083837776
  0
LINE
  5
313
100
AcDbEntity
  8
0
  6
CONTINUOUS
 62
           2
100
AcDbLine
 10
194.311004630315
 20
-135.107083837776
 11
194.267226095427
 21
-135.258800017934
  0
LINE
  5
312
100
AcDbEntity
  8
0
  6
CONTINUOUS
 62
           2
100
AcDbLine
 10
194.267226095427
 20
-135.258800017934
 11
194.150342171563
 21
-135.312080665292
  0
LINE
  5
311
100
AcDbEntity
  8
0
  6
CONTINUOUS
 62
           2
100
AcDbLine
 10
194.150342171563
 20
-135.312080665292
 11
194.051906638765
 21
-135.385186054265
  0
LINE
  5
310
100
AcDbEntity
  8
0
  6
CONTINUOUS
 62
           2
100
AcDbLine
 10
194.051906638765
 20
-135.385186054265
 11
195.047008088383
 21
-135.420971168636
  0
LINE
  5
30F
100
AcDbEntity
  8
0
  6
CONTINUOUS
 62
           2
100
AcDbLine
 10
195.047008088383
 20
-135.420971168636
 11
195.314920017126
 21
-135.430605622506
  0
LINE
  5
30E
100
AcDbEntity
  8
0
  6
CONTINUOUS
 62
           2
100
AcDbLine
 10
195.314920017126
 20
-135.430605622506
 11
195.584208296422
 21
-135.401966943697
  0
LINE
  5
30D
100
AcDbEntity
  8
0
  6
CONTINUOUS
 62
           2
100
AcDbLine
 10
195.584208296422
 20
-135.401966943697
 11
195.775018125933
 21
-134.891473230036
  0
LINE
  5
30C
100
AcDbEntity
  8
0
  6
CONTINUOUS
 62
           2
100
AcDbLine
 10
195.775018125933
 20
-134.891473230036
 11
195.67933529424
 21
-134.888032353654
  0
LINE
  5
30B
100
AcDbEntity
  8
0
  6
CONTINUOUS
 62
           2
100
AcDbLine
 10
195.67933529424
 20
-134.888032353654
 11
195.479023352259
 21
-135.129925963295
  0
LINE
  5
30A
100
AcDbEntity
  8
0
  6
CONTINUOUS
 62
           2
100
AcDbLine
 10
195.479023352259
 20
-135.129925963295
 11
195.245255504536
 21
-135.236487258011
  0
LINE
  5
309
100
AcDbEntity
  8
0
  6
CONTINUOUS
 62
           2
100
AcDbLine
 10
195.245255504536
 20
-135.236487258011
 11
195.014240357917
 21
-135.266502287373
  0
LINE
  5
308
100
AcDbEntity
  8
0
  6
CONTINUOUS
 62
           2
100
AcDbLine
 10
195.014240357917
 20
-135.266502287373
 11
194.593235898462
 21
-135.251362431293
  0
LINE
  5
307
100
AcDbEntity
  8
0
  6
CONTINUOUS
 62
           2
100
AcDbLine
 10
194.593235898462
 20
-135.251362431293
 11
194.537890725275
 21
-135.191888206448
  0
LINE
  5
306
100
AcDbEntity
  8
0
  6
CONTINUOUS
 62
           2
100
AcDbLine
 10
194.537890725275
 20
-135.191888206448
 11
194.522195035318
 21
-135.095517199477
  0
LINE
  5
305
100
AcDbEntity
  8
0
  6
CONTINUOUS
 62
           2
100
AcDbLine
 10
194.522195035318
 20
-135.095517199477
 11
194.529764963359
 21
-134.885014969749
  0
LINE
  5
304
100
AcDbEntity
  8
0
  6
CONTINUOUS
 62
           2
100
AcDbLine
 10
194.529764963359
 20
-134.885014969749
 11
194.52370372727
 21
-134.520732034037
  0
LINE
  5
303
100
AcDbEntity
  8
0
  6
CONTINUOUS
 62
           2
100
AcDbLine
 10
194.52370372727
 20
-134.520732034037
 11
194.830576963967
 21
-134.512606272119
  0
LINE
  5
302
100
AcDbEntity
  8
0
  6
CONTINUOUS
 62
           2
100
AcDbLine
 10
194.830576963967
 20
-134.512606272119
 11
195.000053359911
 21
-134.595346114961
  0
LINE
  5
301
100
AcDbEntity
  8
0
  6
CONTINUOUS
 62
           2
100
AcDbLine
 10
195.000053359911
 20
-134.595346114961
 11
195.069029697227
 21
-134.808601045795
  0
LINE
  5
300
100
AcDbEntity
  8
0
  6
CONTINUOUS
 62
           2
100
AcDbLine
 10
195.069029697227
 20
-134.808601045795
 11
195.106614654628
 21
-134.829113962686
  0
LINE
  5
2FF
100
AcDbEntity
  8
0
  6
CONTINUOUS
 62
           2
100
AcDbLine
 10
195.106614654628
 20
-134.829113962686
 11
195.145020128705
 21
-134.293978280475
  0
LINE
  5
2FE
100
AcDbEntity
  8
0
  6
CONTINUOUS
 62
           2
100
AcDbLine
 10
195.145020128705
 20
-134.293978280475
 11
195.095180357729
 21
-134.081411524917
  0
LINE
  5
2FD
100
AcDbEntity
  8
0
  6
CONTINUOUS
 62
           2
100
AcDbLine
 10
195.095180357729
 20
-134.081411524917
 11
195.054154523946
 21
-134.156581439721
  0
LINE
  5
2FC
100
AcDbEntity
  8
0
  6
CONTINUOUS
 62
           2
100
AcDbLine
 10
195.054154523946
 20
-134.156581439721
 11
195.05140182284
 21
-134.233127705077
  0
LINE
  5
2FB
100
AcDbEntity
  8
0
  6
CONTINUOUS
 62
           2
100
AcDbLine
 10
195.05140182284
 20
-134.233127705077
 11
194.971414681103
 21
-134.326057835665
  0
LINE
  5
2FA
100
AcDbEntity
  8
0
  6
CONTINUOUS
 62
           2
100
AcDbLine
 10
194.971414681103
 20
-134.326057835665
 11
194.854530757241
 21
-134.379338483024
  0
LINE
  5
2F9
100
AcDbEntity
  8
0
  6
CONTINUOUS
 62
           2
100
AcDbLine
 10
194.854530757241
 20
-134.379338483024
 11
194.529209129481
 21
-134.367639503326
  0
LINE
  5
2F8
100
AcDbEntity
  8
0
  6
CONTINUOUS
 62
           2
100
AcDbLine
 10
194.529209129481
 20
-134.367639503326
 11
194.523147893394
 21
-134.003356567612
  0
LINE
  5
2F7
100
AcDbEntity
  8
0
  6
CONTINUOUS
 62
           2
100
AcDbLine
 10
194.523147893394
 20
-134.003356567612
 11
194.508828553989
 21
-133.868712427964
  0
LINE
  5
2F6
100
AcDbEntity
  8
0
  6
CONTINUOUS
 62
           2
100
AcDbLine
 10
194.508828553989
 20
-133.868712427964
 11
194.608640437341
 21
-133.757333906312
  0
LINE
  5
2F5
100
AcDbEntity
  8
0
  6
CONTINUOUS
 62
           2
100
AcDbLine
 10
194.608640437341
 20
-133.757333906312
 11
195.259283692861
 21
-133.780731865709
  0
LINE
  5
2F4
100
AcDbEntity
  8
0
  6
CONTINUOUS
 62
           2
100
AcDbLine
 10
195.259283692861
 20
-133.780731865709
 11
195.428760088805
 21
-133.863471708551
  0
LINE
  5
2F3
100
AcDbEntity
  8
0
  6
CONTINUOUS
 62
           2
100
AcDbLine
 10
195.428760088805
 20
-133.863471708551
 11
195.650828956831
 21
-134.082232041595
  0
LINE
  5
2F2
100
AcDbEntity
  8
0
  6
CONTINUOUS
 62
           2
100
AcDbLine
 10
195.650828956831
 20
-134.082232041595
 11
195.69047844006
 21
-134.04533525947
  0
LINE
  5
2F1
100
AcDbEntity
  8
0
  6
CONTINUOUS
 62
           2
100
AcDbLine
 10
195.69047844006
 20
-134.04533525947
 11
195.551837590153
 21
-133.637961964144
  0
LINE
  5
2F0
100
AcDbEntity
  8
0
  6
CONTINUOUS
 62
           2
100
AcDbLine
 10
195.551837590153
 20
-133.637961964144
 11
195.438394542673
 21
-133.595559779808
  0
LINE
  5
2EF
100
AcDbEntity
  8
0
  6
CONTINUOUS
 62
           2
100
AcDbLine
 10
195.438394542673
 20
-133.595559779808
 11
194.709828671245
 21
-133.607682251984
  0
LINE
  5
2EE
100
AcDbEntity
  8
0
  6
CONTINUOUS
 62
           2
100
AcDbLine
 10
194.709828671245
 20
-133.607682251984
 11
194.076945631513
 21
-133.623245600541
  0
LINE
  5
2ED
100
AcDbEntity
  8
0
  6
CONTINUOUS
 62
           2
100
AcDbLine
 10
194.076945631513
 20
-133.623245600541
 11
194.056432714621
 21
-133.660830557942
  0
LINE
  5
2EC
100
AcDbEntity
  8
0
  6
CONTINUOUS
 62
           2
100
AcDbLine
 10
192.134941469901
 20
-134.875539325559
 11
192.205982333045
 21
-135.031384557376
  0
LINE
  5
2EB
100
AcDbEntity
  8
0
  6
CONTINUOUS
 62
           2
100
AcDbLine
 10
192.205982333045
 20
-135.031384557376
 11
192.291342535594
 21
-135.32187392884
  0
LINE
  5
2EA
100
AcDbEntity
  8
0
  6
CONTINUOUS
 62
           2
100
AcDbLine
 10
192.291342535594
 20
-135.32187392884
 11
192.34668770878
 21
-135.381348153686
  0
LINE
  5
2E9
100
AcDbEntity
  8
0
  6
CONTINUOUS
 62
           2
100
AcDbLine
 10
192.34668770878
 20
-135.381348153686
 11
192.386337192012
 21
-135.344451371561
  0
LINE
  5
2E8
100
AcDbEntity
  8
0
  6
CONTINUOUS
 62
           2
100
AcDbLine
 10
192.386337192012
 20
-135.344451371561
 11
192.46425980792
 21
-135.308930939989
  0
LINE
  5
2E7
100
AcDbEntity
  8
0
  6
CONTINUOUS
 62
           2
100
AcDbLine
 10
192.46425980792
 20
-135.308930939989
 11
192.652872770202
 21
-135.392358958108
  0
LINE
  5
2E6
100
AcDbEntity
  8
0
  6
CONTINUOUS
 62
           2
100
AcDbLine
 10
192.652872770202
 20
-135.392358958108
 11
192.900271782054
 21
-135.439578369378
  0
LINE
  5
2E5
100
AcDbEntity
  8
0
  6
CONTINUOUS
 62
           2
100
AcDbLine
 10
192.900271782054
 20
-135.439578369378
 11
193.284379459384
 21
-135.415068742226
  0
LINE
  5
2E4
100
AcDbEntity
  8
0
  6
CONTINUOUS
 62
           2
100
AcDbLine
 10
193.284379459384
 20
-135.415068742226
 11
193.420399949583
 21
-135.362476270145
  0
LINE
  5
2E3
100
AcDbEntity
  8
0
  6
CONTINUOUS
 62
           2
100
AcDbLine
 10
193.420399949583
 20
-135.362476270145
 11
193.539348399275
 21
-135.251785923771
  0
LINE
  5
2E2
100
AcDbEntity
  8
0
  6
CONTINUOUS
 62
           2
100
AcDbLine
 10
193.539348399275
 20
-135.251785923771
 11
193.68018611641
 21
-135.065237487317
  0
LINE
  5
2E1
100
AcDbEntity
  8
0
  6
CONTINUOUS
 62
           2
100
AcDbLine
 10
193.68018611641
 20
-135.065237487317
 11
193.710333487171
 21
-134.759740601172
  0
LINE
  5
2E0
100
AcDbEntity
  8
0
  6
CONTINUOUS
 62
           2
100
AcDbLine
 10
193.710333487171
 20
-134.759740601172
 11
193.659117365641
 21
-134.585446978294
  0
LINE
  5
2DF
100
AcDbEntity
  8
0
  6
CONTINUOUS
 62
           2
100
AcDbLine
 10
193.659117365641
 20
-134.585446978294
 11
193.454120538126
 21
-134.424784519544
  0
LINE
  5
2DE
100
AcDbEntity
  8
0
  6
CONTINUOUS
 62
           2
100
AcDbLine
 10
193.454120538126
 20
-134.424784519544
 11
193.207409701549
 21
-134.358428541934
  0
LINE
  5
2DD
100
AcDbEntity
  8
0
  6
CONTINUOUS
 62
           2
100
AcDbLine
 10
193.207409701549
 20
-134.358428541934
 11
193.09396665407
 21
-134.316026357599
  0
LINE
  5
2DC
100
AcDbEntity
  8
0
  6
CONTINUOUS
 62
           2
100
AcDbLine
 10
193.09396665407
 20
-134.316026357599
 11
192.960698864975
 21
-134.292072564325
  0
LINE
  5
2DB
100
AcDbEntity
  8
0
  6
CONTINUOUS
 62
           2
100
AcDbLine
 10
192.960698864975
 20
-134.292072564325
 11
192.732436419462
 21
-134.245541328331
  0
LINE
  5
2DA
100
AcDbEntity
  8
0
  6
CONTINUOUS
 62
           2
100
AcDbLine
 10
192.732436419462
 20
-134.245541328331
 11
192.524686890839
 21
-134.161425134936
  0
LINE
  5
2D9
100
AcDbEntity
  8
0
  6
CONTINUOUS
 62
           2
100
AcDbLine
 10
192.524686890839
 20
-134.161425134936
 11
192.470029892928
 21
-134.082814343751
  0
LINE
  5
2D8
100
AcDbEntity
  8
0
  6
CONTINUOUS
 62
           2
100
AcDbLine
 10
192.470029892928
 20
-134.082814343751
 11
192.454334202971
 21
-133.986443336781
  0
LINE
  5
2D7
100
AcDbEntity
  8
0
  6
CONTINUOUS
 62
           2
100
AcDbLine
 10
192.454334202971
 20
-133.986443336781
 11
192.435885811909
 21
-133.966618595166
  0
LINE
  5
2D6
100
AcDbEntity
  8
0
  6
CONTINUOUS
 62
           2
100
AcDbLine
 10
192.435885811909
 20
-133.966618595166
 11
192.498800913137
 21
-133.815590590285
  0
LINE
  5
2D5
100
AcDbEntity
  8
0
  6
CONTINUOUS
 62
           2
100
AcDbLine
 10
192.498800913137
 20
-133.815590590285
 11
192.694295628183
 21
-133.707652945015
  0
LINE
  5
2D4
100
AcDbEntity
  8
0
  6
CONTINUOUS
 62
           2
100
AcDbLine
 10
192.694295628183
 20
-133.707652945015
 11
193.019617255944
 21
-133.719351924713
  0
LINE
  5
2D3
100
AcDbEntity
  8
0
  6
CONTINUOUS
 62
           2
100
AcDbLine
 10
193.019617255944
 20
-133.719351924713
 11
193.303224874643
 21
-133.825357385554
  0
LINE
  5
2D2
100
AcDbEntity
  8
0
  6
CONTINUOUS
 62
           2
100
AcDbLine
 10
193.303224874643
 20
-133.825357385554
 11
193.524605567393
 21
-134.063254284935
  0
LINE
  5
2D1
100
AcDbEntity
  8
0
  6
CONTINUOUS
 62
           2
100
AcDbLine
 10
193.524605567393
 20
-134.063254284935
 11
193.564255050623
 21
-134.02635750281
  0
LINE
  5
2D0
100
AcDbEntity
  8
0
  6
CONTINUOUS
 62
           2
100
AcDbLine
 10
193.564255050623
 20
-134.02635750281
 11
193.463199158118
 21
-133.639497124376
  0
LINE
  5
2CF
100
AcDbEntity
  8
0
  6
CONTINUOUS
 62
           2
100
AcDbLine
 10
193.463199158118
 20
-133.639497124376
 11
193.368892676976
 21
-133.597783115316
  0
LINE
  5
2CE
100
AcDbEntity
  8
0
  6
CONTINUOUS
 62
           2
100
AcDbLine
 10
193.368892676976
 20
-133.597783115316
 11
193.252696928391
 21
-133.631927196335
  0
LINE
  5
2CD
100
AcDbEntity
  8
0
  6
CONTINUOUS
 62
           2
100
AcDbLine
 10
193.252696928391
 20
-133.631927196335
 11
192.910303260121
 21
-133.562130342344
  0
LINE
  5
2CC
100
AcDbEntity
  8
0
  6
CONTINUOUS
 62
           2
100
AcDbLine
 10
192.910303260121
 20
-133.562130342344
 11
192.563780540194
 21
-133.607152886386
  0
LINE
  5
2CB
100
AcDbEntity
  8
0
  6
CONTINUOUS
 62
           2
100
AcDbLine
 10
192.563780540194
 20
-133.607152886386
 11
192.387422391485
 21
-133.715778706932
  0
LINE
  5
2CA
100
AcDbEntity
  8
0
  6
CONTINUOUS
 62
           2
100
AcDbLine
 10
192.387422391485
 20
-133.715778706932
 11
192.244520148522
 21
-133.959736842402
  0
LINE
  5
2C9
100
AcDbEntity
  8
0
  6
CONTINUOUS
 62
           2
100
AcDbLine
 10
192.244520148522
 20
-133.959736842402
 11
192.236950220481
 21
-134.17023907213
  0
LINE
  5
2C8
100
AcDbEntity
  8
0
  6
CONTINUOUS
 62
           2
100
AcDbLine
 10
192.236950220481
 20
-134.17023907213
 11
192.272470652054
 21
-134.248161688037
  0
LINE
  5
2C7
100
AcDbEntity
  8
0
  6
CONTINUOUS
 62
           2
100
AcDbLine
 10
192.272470652054
 20
-134.248161688037
 11
192.459019088507
 21
-134.388999405173
  0
LINE
  5
2C6
100
AcDbEntity
  8
0
  6
CONTINUOUS
 62
           2
100
AcDbLine
 10
192.459019088507
 20
-134.388999405173
 11
192.70435357453
 21
-134.49362851546
  0
LINE
  5
2C5
100
AcDbEntity
  8
0
  6
CONTINUOUS
 62
           2
100
AcDbLine
 10
192.70435357453
 20
-134.49362851546
 11
192.894342887365
 21
-134.538783400902
  0
LINE
  5
2C4
100
AcDbEntity
  8
0
  6
CONTINUOUS
 62
           2
100
AcDbLine
 10
192.894342887365
 20
-134.538783400902
 11
193.21691181402
 21
-134.627028645954
  0
LINE
  5
2C3
100
AcDbEntity
  8
0
  6
CONTINUOUS
 62
           2
100
AcDbLine
 10
193.21691181402
 20
-134.627028645954
 11
193.406212951578
 21
-134.691320097735
  0
LINE
  5
2C2
100
AcDbEntity
  8
0
  6
CONTINUOUS
 62
           2
100
AcDbLine
 10
193.406212951578
 20
-134.691320097735
 11
193.495702205785
 21
-134.866990071165
  0
LINE
  5
2C1
100
AcDbEntity
  8
0
  6
CONTINUOUS
 62
           2
100
AcDbLine
 10
193.495702205785
 20
-134.866990071165
 11
193.492949504681
 21
-134.94353633652
  0
LINE
  5
2C0
100
AcDbEntity
  8
0
  6
CONTINUOUS
 62
           2
100
AcDbLine
 10
193.492949504681
 20
-134.94353633652
 11
193.407456960732
 21
-135.18955899782
  0
LINE
  5
2BF
100
AcDbEntity
  8
0
  6
CONTINUOUS
 62
           2
100
AcDbLine
 10
193.407456960732
 20
-135.18955899782
 11
193.251611728917
 21
-135.260599860964
  0
LINE
  5
2BE
100
AcDbEntity
  8
0
  6
CONTINUOUS
 62
           2
100
AcDbLine
 10
193.251611728917
 20
-135.260599860964
 11
193.020596582298
 21
-135.290614890325
  0
LINE
  5
2BD
100
AcDbEntity
  8
0
  6
CONTINUOUS
 62
           2
100
AcDbLine
 10
193.020596582298
 20
-135.290614890325
 11
192.715099696153
 21
-135.260467519565
  0
LINE
  5
2BC
100
AcDbEntity
  8
0
  6
CONTINUOUS
 62
           2
100
AcDbLine
 10
192.715099696153
 20
-135.260467519565
 11
192.470453385407
 21
-135.13670184294
  0
LINE
  5
2BB
100
AcDbEntity
  8
0
  6
CONTINUOUS
 62
           2
100
AcDbLine
 10
192.470453385407
 20
-135.13670184294
 11
192.195792045298
 21
-134.781921019695
  0
LINE
  5
2BA
100
AcDbEntity
  8
0
  6
CONTINUOUS
 62
           2
100
AcDbLine
 10
192.195792045298
 20
-134.781921019695
 11
192.138382346283
 21
-134.779856493866
  0
LINE
  5
2B9
100
AcDbEntity
  8
0
  6
CONTINUOUS
 62
           2
100
AcDbLine
 10
192.138382346283
 20
-134.779856493866
 11
192.134941469901
 21
-134.875539325559
  0
LINE
  5
2B8
100
AcDbEntity
  8
0
  6
CONTINUOUS
 62
           2
100
AcDbLine
 10
190.238356876528
 20
-134.864819672216
 11
190.344229995969
 21
-135.117724086279
  0
LINE
  5
2B7
100
AcDbEntity
  8
0
  6
CONTINUOUS
 62
           2
100
AcDbLine
 10
190.344229995969
 20
-135.117724086279
 11
190.342853645417
 21
-135.155997218957
  0
LINE
  5
2B6
100
AcDbEntity
  8
0
  6
CONTINUOUS
 62
           2
100
AcDbLine
 10
190.342853645417
 20
-135.155997218957
 11
190.392693416393
 21
-135.368563974512
  0
LINE
  5
2B5
100
AcDbEntity
  8
0
  6
CONTINUOUS
 62
           2
100
AcDbLine
 10
190.392693416393
 20
-135.368563974512
 11
190.43096654907
 21
-135.369940325066
  0
LINE
  5
2B4
100
AcDbEntity
  8
0
  6
CONTINUOUS
 62
           2
100
AcDbLine
 10
190.43096654907
 20
-135.369940325066
 11
190.547850472932
 21
-135.316659677708
  0
LINE
  5
2B3
100
AcDbEntity
  8
0
  6
CONTINUOUS
 62
           2
100
AcDbLine
 10
190.547850472932
 20
-135.316659677708
 11
190.86973122431
 21
-135.4240414891
  0
LINE
  5
2B2
100
AcDbEntity
  8
0
  6
CONTINUOUS
 62
           2
100
AcDbLine
 10
190.86973122431
 20
-135.4240414891
 11
191.118506586715
 21
-135.432987767692
  0
LINE
  5
2B1
100
AcDbEntity
  8
0
  6
CONTINUOUS
 62
           2
100
AcDbLine
 10
191.118506586715
 20
-135.432987767692
 11
191.387794866011
 21
-135.404349088884
  0
LINE
  5
2B0
100
AcDbEntity
  8
0
  6
CONTINUOUS
 62
           2
100
AcDbLine
 10
191.387794866011
 20
-135.404349088884
 11
191.543640097828
 21
-135.33330822574
  0
LINE
  5
2AF
100
AcDbEntity
  8
0
  6
CONTINUOUS
 62
           2
100
AcDbLine
 10
191.543640097828
 20
-135.33330822574
 11
191.743263864532
 21
-135.110551182437
  0
LINE
  5
2AE
100
AcDbEntity
  8
0
  6
CONTINUOUS
 62
           2
100
AcDbLine
 10
191.743263864532
 20
-135.110551182437
 11
191.80961984214
 21
-134.863840345862
  0
LINE
  5
2AD
100
AcDbEntity
  8
0
  6
CONTINUOUS
 62
           2
100
AcDbLine
 10
191.80961984214
 20
-134.863840345862
 11
191.74339620593
 21
-134.574039149674
  0
LINE
  5
2AC
100
AcDbEntity
  8
0
  6
CONTINUOUS
 62
           2
100
AcDbLine
 10
191.74339620593
 20
-134.574039149674
 11
191.651154250619
 21
-134.474915441597
  0
LINE
  5
2AB
100
AcDbEntity
  8
0
  6
CONTINUOUS
 62
           2
100
AcDbLine
 10
191.651154250619
 20
-134.474915441597
 11
191.215830451761
 21
-134.325131445871
  0
LINE
  5
2AA
100
AcDbEntity
  8
0
  6
CONTINUOUS
 62
           2
100
AcDbLine
 10
191.215830451761
 20
-134.325131445871
 11
191.101699229003
 21
-134.301865827874
  0
LINE
  5
2A9
100
AcDbEntity
  8
0
  6
CONTINUOUS
 62
           2
100
AcDbLine
 10
191.101699229003
 20
-134.301865827874
 11
190.969119615184
 21
-134.258775468261
  0
LINE
  5
2A8
100
AcDbEntity
  8
0
  6
CONTINUOUS
 62
           2
100
AcDbLine
 10
190.969119615184
 20
-134.258775468261
 11
190.81671525975
 21
-134.234133499711
  0
LINE
  5
2A7
100
AcDbEntity
  8
0
  6
CONTINUOUS
 62
           2
100
AcDbLine
 10
190.81671525975
 20
-134.234133499711
 11
190.628102297468
 21
-134.150705481593
  0
LINE
  5
2A6
100
AcDbEntity
  8
0
  6
CONTINUOUS
 62
           2
100
AcDbLine
 10
190.628102297468
 20
-134.150705481593
 11
190.572068949003
 21
-134.110367823085
  0
LINE
  5
2A5
100
AcDbEntity
  8
0
  6
CONTINUOUS
 62
           2
100
AcDbLine
 10
190.572068949003
 20
-134.110367823085
 11
190.537236692709
 21
-134.013308640838
  0
LINE
  5
2A4
100
AcDbEntity
  8
0
  6
CONTINUOUS
 62
           2
100
AcDbLine
 10
190.537236692709
 20
-134.013308640838
 11
190.522917353303
 21
-133.878664501191
  0
LINE
  5
2A3
100
AcDbEntity
  8
0
  6
CONTINUOUS
 62
           2
100
AcDbLine
 10
190.522917353303
 20
-133.878664501191
 11
190.622729236656
 21
-133.76728597954
  0
LINE
  5
2A2
100
AcDbEntity
  8
0
  6
CONTINUOUS
 62
           2
100
AcDbLine
 10
190.622729236656
 20
-133.76728597954
 11
190.777886293196
 21
-133.715381682734
  0
LINE
  5
2A1
100
AcDbEntity
  8
0
  6
CONTINUOUS
 62
           2
100
AcDbLine
 10
190.777886293196
 20
-133.715381682734
 11
190.96994013186
 21
-133.703126869159
  0
LINE
  5
2A0
100
AcDbEntity
  8
0
  6
CONTINUOUS
 62
           2
100
AcDbLine
 10
190.96994013186
 20
-133.703126869159
 11
191.23647571005
 21
-133.751034455706
  0
LINE
  5
29F
100
AcDbEntity
  8
0
  6
CONTINUOUS
 62
           2
100
AcDbLine
 10
191.23647571005
 20
-133.751034455706
 11
191.424400497058
 21
-133.853599040164
  0
LINE
  5
29E
100
AcDbEntity
  8
0
  6
CONTINUOUS
 62
           2
100
AcDbLine
 10
191.424400497058
 20
-133.853599040164
 11
191.627332798745
 21
-134.071671197931
  0
LINE
  5
29D
100
AcDbEntity
  8
0
  6
CONTINUOUS
 62
           2
100
AcDbLine
 10
191.627332798745
 20
-134.071671197931
 11
191.649910241465
 21
-133.976676541513
  0
LINE
  5
29C
100
AcDbEntity
  8
0
  6
CONTINUOUS
 62
           2
100
AcDbLine
 10
191.649910241465
 20
-133.976676541513
 11
191.528341432068
 21
-133.62740112048
  0
LINE
  5
29B
100
AcDbEntity
  8
0
  6
CONTINUOUS
 62
           2
100
AcDbLine
 10
191.528341432068
 20
-133.62740112048
 11
191.394385467695
 21
-133.622583893545
  0
LINE
  5
29A
100
AcDbEntity
  8
0
  6
CONTINUOUS
 62
           2
100
AcDbLine
 10
191.394385467695
 20
-133.622583893545
 11
191.241292936987
 21
-133.617078491334
  0
LINE
  5
299
100
AcDbEntity
  8
0
  6
CONTINUOUS
 62
           2
100
AcDbLine
 10
191.241292936987
 20
-133.617078491334
 11
191.127849889505
 21
-133.574676306999
  0
LINE
  5
298
100
AcDbEntity
  8
0
  6
CONTINUOUS
 62
           2
100
AcDbLine
 10
191.127849889505
 20
-133.574676306999
 11
190.802528261746
 21
-133.562977327301
  0
LINE
  5
297
100
AcDbEntity
  8
0
  6
CONTINUOUS
 62
           2
100
AcDbLine
 10
190.802528261746
 20
-133.562977327301
 11
190.569448589297
 21
-133.650402055677
  0
LINE
  5
296
100
AcDbEntity
  8
0
  6
CONTINUOUS
 62
           2
100
AcDbLine
 10
190.569448589297
 20
-133.650402055677
 11
190.410850656376
 21
-133.797989184177
  0
LINE
  5
295
100
AcDbEntity
  8
0
  6
CONTINUOUS
 62
           2
100
AcDbLine
 10
190.410850656376
 20
-133.797989184177
 11
190.326734462981
 21
-134.0057387128
  0
LINE
  5
294
100
AcDbEntity
  8
0
  6
CONTINUOUS
 62
           2
100
AcDbLine
 10
190.326734462981
 20
-134.0057387128
 11
190.324669937153
 21
-134.063148411815
  0
LINE
  5
293
100
AcDbEntity
  8
0
  6
CONTINUOUS
 62
           2
100
AcDbLine
 10
190.324669937153
 20
-134.063148411815
 11
190.321229060771
 21
-134.158831243511
  0
LINE
  5
292
100
AcDbEntity
  8
0
  6
CONTINUOUS
 62
           2
100
AcDbLine
 10
190.321229060771
 20
-134.158831243511
 11
190.375886058681
 21
-134.237442034694
  0
LINE
  5
291
100
AcDbEntity
  8
0
  6
CONTINUOUS
 62
           2
100
AcDbLine
 10
190.375886058681
 20
-134.237442034694
 11
190.580194710922
 21
-134.417241059783
  0
LINE
  5
290
100
AcDbEntity
  8
0
  6
CONTINUOUS
 62
           2
100
AcDbLine
 10
190.580194710922
 20
-134.417241059783
 11
191.30119065431
 21
-134.615620817335
  0
LINE
  5
28F
100
AcDbEntity
  8
0
  6
CONTINUOUS
 62
           2
100
AcDbLine
 10
191.30119065431
 20
-134.615620817335
 11
191.545836965056
 21
-134.73938649396
  0
LINE
  5
28E
100
AcDbEntity
  8
0
  6
CONTINUOUS
 62
           2
100
AcDbLine
 10
191.545836965056
 20
-134.73938649396
 11
191.599117612414
 21
-134.856270417822
  0
LINE
  5
28D
100
AcDbEntity
  8
0
  6
CONTINUOUS
 62
           2
100
AcDbLine
 10
191.599117612414
 20
-134.856270417822
 11
191.59774126186
 21
-134.8945435505
  0
LINE
  5
28C
100
AcDbEntity
  8
0
  6
CONTINUOUS
 62
           2
100
AcDbLine
 10
191.59774126186
 20
-134.8945435505
 11
191.595676736032
 21
-134.951953249516
  0
LINE
  5
28B
100
AcDbEntity
  8
0
  6
CONTINUOUS
 62
           2
100
AcDbLine
 10
191.595676736032
 20
-134.951953249516
 11
191.531385284251
 21
-135.141254387076
  0
LINE
  5
28A
100
AcDbEntity
  8
0
  6
CONTINUOUS
 62
           2
100
AcDbLine
 10
191.531385284251
 20
-135.141254387076
 11
191.316065827591
 21
-135.267640423407
  0
LINE
  5
289
100
AcDbEntity
  8
0
  6
CONTINUOUS
 62
           2
100
AcDbLine
 10
191.316065827591
 20
-135.267640423407
 11
191.085050680972
 21
-135.297655452769
  0
LINE
  5
288
100
AcDbEntity
  8
0
  6
CONTINUOUS
 62
           2
100
AcDbLine
 10
191.085050680972
 20
-135.297655452769
 11
190.856100060183
 21
-135.270260783113
  0
LINE
  5
287
100
AcDbEntity
  8
0
  6
CONTINUOUS
 62
           2
100
AcDbLine
 10
190.856100060183
 20
-135.270260783113
 11
190.610765574159
 21
-135.165631672826
  0
LINE
  5
286
100
AcDbEntity
  8
0
  6
CONTINUOUS
 62
           2
100
AcDbLine
 10
190.610765574159
 20
-135.165631672826
 11
190.426281663535
 21
-134.967384256675
  0
LINE
  5
285
100
AcDbEntity
  8
0
  6
CONTINUOUS
 62
           2
100
AcDbLine
 10
190.426281663535
 20
-134.967384256675
 11
190.278694535035
 21
-134.808786323753
  0
LINE
  5
284
100
AcDbEntity
  8
0
  6
CONTINUOUS
 62
           2
100
AcDbLine
 10
190.278694535035
 20
-134.808786323753
 11
190.238356876528
 21
-134.864819672216
  0
LINE
  5
283
100
AcDbEntity
  8
0
  6
CONTINUOUS
 62
           2
100
AcDbLine
 10
189.029709345
 20
-133.307611363211
 11
189.033838396658
 21
-133.192791965177
  0
LINE
  5
282
100
AcDbEntity
  8
0
  6
CONTINUOUS
 62
           2
100
AcDbLine
 10
189.033838396658
 20
-133.192791965177
 11
189.093312621503
 21
-133.13744679199
  0
LINE
  5
281
100
AcDbEntity
  8
0
  6
CONTINUOUS
 62
           2
100
AcDbLine
 10
189.093312621503
 20
-133.13744679199
 11
189.266918069105
 21
-133.1053672368
  0
LINE
  5
280
100
AcDbEntity
  8
0
  6
CONTINUOUS
 62
           2
100
AcDbLine
 10
189.266918069105
 20
-133.1053672368
 11
189.359160024417
 21
-133.204490944875
  0
LINE
  5
27F
100
AcDbEntity
  8
0
  6
CONTINUOUS
 62
           2
100
AcDbLine
 10
189.359160024417
 20
-133.204490944875
 11
189.31538148953
 21
-133.356207125034
  0
LINE
  5
27E
100
AcDbEntity
  8
0
  6
CONTINUOUS
 62
           2
100
AcDbLine
 10
189.31538148953
 20
-133.356207125034
 11
189.237458873621
 21
-133.391727556606
  0
LINE
  5
27D
100
AcDbEntity
  8
0
  6
CONTINUOUS
 62
           2
100
AcDbLine
 10
189.237458873621
 20
-133.391727556606
 11
189.104191084526
 21
-133.367773763332
  0
LINE
  5
27C
100
AcDbEntity
  8
0
  6
CONTINUOUS
 62
           2
100
AcDbLine
 10
189.104191084526
 20
-133.367773763332
 11
189.029709345
 21
-133.307611363211
  0
LINE
  5
27B
100
AcDbEntity
  8
0
  6
CONTINUOUS
 62
           2
100
AcDbLine
 10
188.646289842946
 20
-133.312984424022
 11
188.651107069881
 21
-133.179028459651
  0
LINE
  5
27A
100
AcDbEntity
  8
0
  6
CONTINUOUS
 62
           2
100
AcDbLine
 10
188.651107069881
 20
-133.179028459651
 11
188.690756553112
 21
-133.142131677525
  0
LINE
  5
279
100
AcDbEntity
  8
0
  6
CONTINUOUS
 62
           2
100
AcDbLine
 10
188.690756553112
 20
-133.142131677525
 11
188.826088868035
 21
-133.108675771783
  0
LINE
  5
278
100
AcDbEntity
  8
0
  6
CONTINUOUS
 62
           2
100
AcDbLine
 10
188.826088868035
 20
-133.108675771783
 11
188.918330823349
 21
-133.207799479859
  0
LINE
  5
277
100
AcDbEntity
  8
0
  6
CONTINUOUS
 62
           2
100
AcDbLine
 10
188.918330823349
 20
-133.207799479859
 11
188.894377030075
 21
-133.341067268954
  0
LINE
  5
276
100
AcDbEntity
  8
0
  6
CONTINUOUS
 62
           2
100
AcDbLine
 10
188.894377030075
 20
-133.341067268954
 11
188.777493106213
 21
-133.394347916312
  0
LINE
  5
275
100
AcDbEntity
  8
0
  6
CONTINUOUS
 62
           2
100
AcDbLine
 10
188.777493106213
 20
-133.394347916312
 11
188.646289842946
 21
-133.312984424022
  0
LINE
  5
274
100
AcDbEntity
  8
0
  6
CONTINUOUS
 62
           2
100
AcDbLine
 10
188.039980956192
 20
-133.655245750893
 11
188.153424003674
 21
-133.697647935228
  0
LINE
  5
273
100
AcDbEntity
  8
0
  6
CONTINUOUS
 62
           2
100
AcDbLine
 10
188.153424003674
 20
-133.697647935228
 11
188.265490700601
 21
-133.778323252242
  0
LINE
  5
272
100
AcDbEntity
  8
0
  6
CONTINUOUS
 62
           2
100
AcDbLine
 10
188.265490700601
 20
-133.778323252242
 11
188.289867986351
 21
-134.698942962334
  0
LINE
  5
271
100
AcDbEntity
  8
0
  6
CONTINUOUS
 62
           2
100
AcDbLine
 10
188.289867986351
 20
-134.698942962334
 11
188.264537842525
 21
-134.870483884107
  0
LINE
  5
270
100
AcDbEntity
  8
0
  6
CONTINUOUS
 62
           2
100
AcDbLine
 10
188.264537842525
 20
-134.870483884107
 11
188.332137829289
 21
-135.122011947617
  0
LINE
  5
26F
100
AcDbEntity
  8
0
  6
CONTINUOUS
 62
           2
100
AcDbLine
 10
188.332137829289
 20
-135.122011947617
 11
188.535758306251
 21
-135.320947539045
  0
LINE
  5
26E
100
AcDbEntity
  8
0
  6
CONTINUOUS
 62
           2
100
AcDbLine
 10
188.535758306251
 20
-135.320947539045
 11
188.761956225934
 21
-135.424888474055
  0
LINE
  5
26D
100
AcDbEntity
  8
0
  6
CONTINUOUS
 62
           2
100
AcDbLine
 10
188.761956225934
 20
-135.424888474055
 11
189.087277853695
 21
-135.436587453754
  0
LINE
  5
26C
100
AcDbEntity
  8
0
  6
CONTINUOUS
 62
           2
100
AcDbLine
 10
189.087277853695
 20
-135.436587453754
 11
189.394839265669
 21
-135.409325125498
  0
LINE
  5
26B
100
AcDbEntity
  8
0
  6
CONTINUOUS
 62
           2
100
AcDbLine
 10
189.394839265669
 20
-135.409325125498
 11
189.571885589653
 21
-135.281562738613
  0
LINE
  5
26A
100
AcDbEntity
  8
0
  6
CONTINUOUS
 62
           2
100
AcDbLine
 10
189.571885589653
 20
-135.281562738613
 11
189.67445017411
 21
-135.093637951606
  0
LINE
  5
269
100
AcDbEntity
  8
0
  6
CONTINUOUS
 62
           2
100
AcDbLine
 10
189.67445017411
 20
-135.093637951606
 11
189.707350245976
 21
-134.711594800107
  0
LINE
  5
268
100
AcDbEntity
  8
0
  6
CONTINUOUS
 62
           2
100
AcDbLine
 10
189.707350245976
 20
-134.711594800107
 11
189.713543823465
 21
-134.539365703058
  0
LINE
  5
267
100
AcDbEntity
  8
0
  6
CONTINUOUS
 62
           2
100
AcDbLine
 10
189.713543823465
 20
-134.539365703058
 11
189.719049225675
 21
-134.386273172347
  0
LINE
  5
266
100
AcDbEntity
  8
0
  6
CONTINUOUS
 62
           2
100
AcDbLine
 10
189.719049225675
 20
-134.386273172347
 11
189.721113751503
 21
-134.32886347333
  0
LINE
  5
265
100
AcDbEntity
  8
0
  6
CONTINUOUS
 62
           2
100
AcDbLine
 10
189.721113751503
 20
-134.32886347333
 11
189.7067944121
 21
-134.194219333682
  0
LINE
  5
264
100
AcDbEntity
  8
0
  6
CONTINUOUS
 62
           2
100
AcDbLine
 10
189.7067944121
 20
-134.194219333682
 11
189.710923463758
 21
-134.07939993565
  0
LINE
  5
263
100
AcDbEntity
  8
0
  6
CONTINUOUS
 62
           2
100
AcDbLine
 10
189.710923463758
 20
-134.07939993565
 11
189.700733176011
 21
-133.829936397969
  0
LINE
  5
262
100
AcDbEntity
  8
0
  6
CONTINUOUS
 62
           2
100
AcDbLine
 10
189.700733176011
 20
-133.829936397969
 11
189.76158375141
 21
-133.736318092103
  0
LINE
  5
261
100
AcDbEntity
  8
0
  6
CONTINUOUS
 62
           2
100
AcDbLine
 10
189.76158375141
 20
-133.736318092103
 11
189.935877374289
 21
-133.685101970575
  0
LINE
  5
260
100
AcDbEntity
  8
0
  6
CONTINUOUS
 62
           2
100
AcDbLine
 10
189.935877374289
 20
-133.685101970575
 11
189.957766641733
 21
-133.609243880496
  0
LINE
  5
25F
100
AcDbEntity
  8
0
  6
CONTINUOUS
 62
           2
100
AcDbLine
 10
189.957766641733
 20
-133.609243880496
 11
189.441079350584
 21
-133.590663148034
  0
LINE
  5
25E
100
AcDbEntity
  8
0
  6
CONTINUOUS
 62
           2
100
AcDbLine
 10
189.441079350584
 20
-133.590663148034
 11
189.344708343614
 21
-133.606358837991
  0
LINE
  5
25D
100
AcDbEntity
  8
0
  6
CONTINUOUS
 62
           2
100
AcDbLine
 10
189.344708343614
 20
-133.606358837991
 11
189.324195426722
 21
-133.643943795392
  0
LINE
  5
25C
100
AcDbEntity
  8
0
  6
CONTINUOUS
 62
           2
100
AcDbLine
 10
189.324195426722
 20
-133.643943795392
 11
189.494359997942
 21
-133.707547071896
  0
LINE
  5
25B
100
AcDbEntity
  8
0
  6
CONTINUOUS
 62
           2
100
AcDbLine
 10
189.494359997942
 20
-133.707547071896
 11
189.568841737469
 21
-133.767709472018
  0
LINE
  5
25A
100
AcDbEntity
  8
0
  6
CONTINUOUS
 62
           2
100
AcDbLine
 10
189.568841737469
 20
-133.767709472018
 11
189.602985818487
 21
-133.883905220603
  0
LINE
  5
259
100
AcDbEntity
  8
0
  6
CONTINUOUS
 62
           2
100
AcDbLine
 10
189.602985818487
 20
-133.883905220603
 11
189.592663189343
 21
-134.170953715685
  0
LINE
  5
258
100
AcDbEntity
  8
0
  6
CONTINUOUS
 62
           2
100
AcDbLine
 10
189.592663189343
 20
-134.170953715685
 11
189.585093261302
 21
-134.381455945413
  0
LINE
  5
257
100
AcDbEntity
  8
0
  6
CONTINUOUS
 62
           2
100
AcDbLine
 10
189.585093261302
 20
-134.381455945413
 11
189.580964209645
 21
-134.496275343445
  0
LINE
  5
256
100
AcDbEntity
  8
0
  6
CONTINUOUS
 62
           2
100
AcDbLine
 10
189.580964209645
 20
-134.496275343445
 11
189.595283549049
 21
-134.630919483093
  0
LINE
  5
255
100
AcDbEntity
  8
0
  6
CONTINUOUS
 62
           2
100
AcDbLine
 10
189.595283549049
 20
-134.630919483093
 11
189.582896394074
 21
-134.975377677193
  0
LINE
  5
254
100
AcDbEntity
  8
0
  6
CONTINUOUS
 62
           2
100
AcDbLine
 10
189.582896394074
 20
-134.975377677193
 11
189.519293117571
 21
-135.145542248413
  0
LINE
  5
253
100
AcDbEntity
  8
0
  6
CONTINUOUS
 62
           2
100
AcDbLine
 10
189.519293117571
 20
-135.145542248413
 11
189.420169409494
 21
-135.237784203724
  0
LINE
  5
252
100
AcDbEntity
  8
0
  6
CONTINUOUS
 62
           2
100
AcDbLine
 10
189.420169409494
 20
-135.237784203724
 11
189.034685381613
 21
-135.300566963553
  0
LINE
  5
251
100
AcDbEntity
  8
0
  6
CONTINUOUS
 62
           2
100
AcDbLine
 10
189.034685381613
 20
-135.300566963553
 11
188.882281026178
 21
-135.275924995003
  0
LINE
  5
250
100
AcDbEntity
  8
0
  6
CONTINUOUS
 62
           2
100
AcDbLine
 10
188.882281026178
 20
-135.275924995003
 11
188.692291713344
 21
-135.230770109562
  0
LINE
  5
24F
100
AcDbEntity
  8
0
  6
CONTINUOUS
 62
           2
100
AcDbLine
 10
188.692291713344
 20
-135.230770109562
 11
188.56246480063
 21
-135.111133484595
  0
LINE
  5
24E
100
AcDbEntity
  8
0
  6
CONTINUOUS
 62
           2
100
AcDbLine
 10
188.56246480063
 20
-135.111133484595
 11
188.528320719611
 21
-134.994937736008
  0
LINE
  5
24D
100
AcDbEntity
  8
0
  6
CONTINUOUS
 62
           2
100
AcDbLine
 10
188.528320719611
 20
-134.994937736008
 11
188.52445635075
 21
-134.036733068515
  0
LINE
  5
24C
100
AcDbEntity
  8
0
  6
CONTINUOUS
 62
           2
100
AcDbLine
 10
188.52445635075
 20
-134.036733068515
 11
188.511513361899
 21
-133.86381579619
  0
LINE
  5
24B
100
AcDbEntity
  8
0
  6
CONTINUOUS
 62
           2
100
AcDbLine
 10
188.511513361899
 20
-133.86381579619
 11
188.593565029466
 21
-133.713475966585
  0
LINE
  5
24A
100
AcDbEntity
  8
0
  6
CONTINUOUS
 62
           2
100
AcDbLine
 10
188.593565029466
 20
-133.713475966585
 11
188.786307043406
 21
-133.682084586671
  0
LINE
  5
249
100
AcDbEntity
  8
0
  6
CONTINUOUS
 62
           2
100
AcDbLine
 10
188.786307043406
 20
-133.682084586671
 11
188.807508135574
 21
-133.62536306293
  0
LINE
  5
248
100
AcDbEntity
  8
0
  6
CONTINUOUS
 62
           2
100
AcDbLine
 10
188.807508135574
 20
-133.62536306293
 11
188.732338220771
 21
-133.584337229147
  0
LINE
  5
247
100
AcDbEntity
  8
0
  6
CONTINUOUS
 62
           2
100
AcDbLine
 10
188.732338220771
 20
-133.584337229147
 11
188.424776808798
 21
-133.611599557403
  0
LINE
  5
246
100
AcDbEntity
  8
0
  6
CONTINUOUS
 62
           2
100
AcDbLine
 10
188.424776808798
 20
-133.611599557403
 11
188.06118204836
 21
-133.598524227152
  0
LINE
  5
245
100
AcDbEntity
  8
0
  6
CONTINUOUS
 62
           2
100
AcDbLine
 10
188.06118204836
 20
-133.598524227152
 11
188.039980956192
 21
-133.655245750893
  0
LINE
  5
244
100
AcDbEntity
  8
0
  6
CONTINUOUS
 62
           2
100
AcDbLine
 10
186.27597597664
 20
-133.687616457162
 11
186.447516898413
 21
-133.712946600987
  0
LINE
  5
243
100
AcDbEntity
  8
0
  6
CONTINUOUS
 62
           2
100
AcDbLine
 10
186.447516898413
 20
-133.712946600987
 11
186.558207244788
 21
-133.831895050679
  0
LINE
  5
242
100
AcDbEntity
  8
0
  6
CONTINUOUS
 62
           2
100
AcDbLine
 10
186.558207244788
 20
-133.831895050679
 11
186.545820089813
 21
-134.176353244778
  0
LINE
  5
241
100
AcDbEntity
  8
0
  6
CONTINUOUS
 62
           2
100
AcDbLine
 10
186.545820089813
 20
-134.176353244778
 11
186.55394585173
 21
-134.483226481475
  0
LINE
  5
240
100
AcDbEntity
  8
0
  6
CONTINUOUS
 62
           2
100
AcDbLine
 10
186.55394585173
 20
-134.483226481475
 11
186.547752274243
 21
-134.655455578524
  0
LINE
  5
23F
100
AcDbEntity
  8
0
  6
CONTINUOUS
 62
           2
100
AcDbLine
 10
186.547752274243
 20
-134.655455578524
 11
186.550372633949
 21
-135.115421345932
  0
LINE
  5
23E
100
AcDbEntity
  8
0
  6
CONTINUOUS
 62
           2
100
AcDbLine
 10
186.550372633949
 20
-135.115421345932
 11
186.547619932843
 21
-135.191967611287
  0
LINE
  5
23D
100
AcDbEntity
  8
0
  6
CONTINUOUS
 62
           2
100
AcDbLine
 10
186.547619932843
 20
-135.191967611287
 11
186.486769357444
 21
-135.285585917152
  0
LINE
  5
23C
100
AcDbEntity
  8
0
  6
CONTINUOUS
 62
           2
100
AcDbLine
 10
186.486769357444
 20
-135.285585917152
 11
186.274202601889
 21
-135.335425688128
  0
LINE
  5
23B
100
AcDbEntity
  8
0
  6
CONTINUOUS
 62
           2
100
AcDbLine
 10
186.274202601889
 20
-135.335425688128
 11
186.272826251337
 21
-135.373698820805
  0
LINE
  5
23A
100
AcDbEntity
  8
0
  6
CONTINUOUS
 62
           2
100
AcDbLine
 10
186.272826251337
 20
-135.373698820805
 11
186.462815564172
 21
-135.418853706248
  0
LINE
  5
239
100
AcDbEntity
  8
0
  6
CONTINUOUS
 62
           2
100
AcDbLine
 10
186.462815564172
 20
-135.418853706248
 11
187.1913814356
 21
-135.406731234072
  0
LINE
  5
238
100
AcDbEntity
  8
0
  6
CONTINUOUS
 62
           2
100
AcDbLine
 10
187.1913814356
 20
-135.406731234072
 11
187.613074070329
 21
-135.402734523812
  0
LINE
  5
237
100
AcDbEntity
  8
0
  6
CONTINUOUS
 62
           2
100
AcDbLine
 10
187.613074070329
 20
-135.402734523812
 11
187.712197778405
 21
-135.310492568501
  0
LINE
  5
236
100
AcDbEntity
  8
0
  6
CONTINUOUS
 62
           2
100
AcDbLine
 10
187.712197778405
 20
-135.310492568501
 11
187.844221558348
 21
-134.836207461689
  0
LINE
  5
235
100
AcDbEntity
  8
0
  6
CONTINUOUS
 62
           2
100
AcDbLine
 10
187.844221558348
 20
-134.836207461689
 11
187.805948425669
 21
-134.834831111135
  0
LINE
  5
234
100
AcDbEntity
  8
0
  6
CONTINUOUS
 62
           2
100
AcDbLine
 10
187.805948425669
 20
-134.834831111135
 11
187.624084874752
 21
-135.096549462392
  0
LINE
  5
233
100
AcDbEntity
  8
0
  6
CONTINUOUS
 62
           2
100
AcDbLine
 10
187.624084874752
 20
-135.096549462392
 11
187.389628851751
 21
-135.222247323447
  0
LINE
  5
232
100
AcDbEntity
  8
0
  6
CONTINUOUS
 62
           2
100
AcDbLine
 10
187.389628851751
 20
-135.222247323447
 11
187.157925529856
 21
-135.271398919146
  0
LINE
  5
231
100
AcDbEntity
  8
0
  6
CONTINUOUS
 62
           2
100
AcDbLine
 10
187.157925529856
 20
-135.271398919146
 11
186.832603902097
 21
-135.259699939449
  0
LINE
  5
230
100
AcDbEntity
  8
0
  6
CONTINUOUS
 62
           2
100
AcDbLine
 10
186.832603902097
 20
-135.259699939449
 11
186.779323254738
 21
-135.142816015587
  0
LINE
  5
22F
100
AcDbEntity
  8
0
  6
CONTINUOUS
 62
           2
100
AcDbLine
 10
186.779323254738
 20
-135.142816015587
 11
186.771197492822
 21
-134.83594277889
  0
LINE
  5
22E
100
AcDbEntity
  8
0
  6
CONTINUOUS
 62
           2
100
AcDbLine
 10
186.771197492822
 20
-134.83594277889
 11
186.77326201865
 21
-134.778533079873
  0
LINE
  5
22D
100
AcDbEntity
  8
0
  6
CONTINUOUS
 62
           2
100
AcDbLine
 10
186.77326201865
 20
-134.778533079873
 11
186.782896472519
 21
-134.51062115113
  0
LINE
  5
22C
100
AcDbEntity
  8
0
  6
CONTINUOUS
 62
           2
100
AcDbLine
 10
186.782896472519
 20
-134.51062115113
 11
186.775458885878
 21
-134.184611348094
  0
LINE
  5
22B
100
AcDbEntity
  8
0
  6
CONTINUOUS
 62
           2
100
AcDbLine
 10
186.775458885878
 20
-134.184611348094
 11
186.769397649791
 21
-133.82032841238
  0
LINE
  5
22A
100
AcDbEntity
  8
0
  6
CONTINUOUS
 62
           2
100
AcDbLine
 10
186.769397649791
 20
-133.82032841238
 11
186.849384791528
 21
-133.727398281791
  0
LINE
  5
229
100
AcDbEntity
  8
0
  6
CONTINUOUS
 62
           2
100
AcDbLine
 10
186.849384791528
 20
-133.727398281791
 11
187.02299023913
 21
-133.6953187266
  0
LINE
  5
228
100
AcDbEntity
  8
0
  6
CONTINUOUS
 62
           2
100
AcDbLine
 10
187.02299023913
 20
-133.6953187266
 11
187.044879506574
 21
-133.619460636522
  0
LINE
  5
227
100
AcDbEntity
  8
0
  6
CONTINUOUS
 62
           2
100
AcDbLine
 10
187.044879506574
 20
-133.619460636522
 11
186.931436459095
 21
-133.577058452186
  0
LINE
  5
226
100
AcDbEntity
  8
0
  6
CONTINUOUS
 62
           2
100
AcDbLine
 10
186.931436459095
 20
-133.577058452186
 11
186.738694445153
 21
-133.6084498321
  0
LINE
  5
225
100
AcDbEntity
  8
0
  6
CONTINUOUS
 62
           2
100
AcDbLine
 10
186.738694445153
 20
-133.6084498321
 11
186.297865244084
 21
-133.611758367082
  0
LINE
  5
224
100
AcDbEntity
  8
0
  6
CONTINUOUS
 62
           2
100
AcDbLine
 10
186.297865244084
 20
-133.611758367082
 11
186.27597597664
 21
-133.687616457162
  0
LINE
  5
223
100
AcDbEntity
  8
0
  6
CONTINUOUS
 62
           2
100
AcDbLine
 10
184.034933189169
 20
-133.664509648843
 11
184.224234326729
 21
-133.728801100623
  0
LINE
  5
222
100
AcDbEntity
  8
0
  6
CONTINUOUS
 62
           2
100
AcDbLine
 10
184.224234326729
 20
-133.728801100623
 11
184.314411756211
 21
-133.885334507716
  0
LINE
  5
221
100
AcDbEntity
  8
0
  6
CONTINUOUS
 62
           2
100
AcDbLine
 10
184.314411756211
 20
-133.885334507716
 11
184.291146138214
 21
-133.999465730472
  0
LINE
  5
220
100
AcDbEntity
  8
0
  6
CONTINUOUS
 62
           2
100
AcDbLine
 10
184.291146138214
 20
-133.999465730472
 11
184.288393437108
 21
-134.076011995827
  0
LINE
  5
21F
100
AcDbEntity
  8
0
  6
CONTINUOUS
 62
           2
100
AcDbLine
 10
184.288393437108
 20
-134.076011995827
 11
184.287017086556
 21
-134.114285128505
  0
LINE
  5
21E
100
AcDbEntity
  8
0
  6
CONTINUOUS
 62
           2
100
AcDbLine
 10
184.287017086556
 20
-134.114285128505
 11
184.302024601237
 21
-134.229792701815
  0
LINE
  5
21D
100
AcDbEntity
  8
0
  6
CONTINUOUS
 62
           2
100
AcDbLine
 10
184.302024601237
 20
-134.229792701815
 11
184.298583724855
 21
-134.325475533509
  0
LINE
  5
21C
100
AcDbEntity
  8
0
  6
CONTINUOUS
 62
           2
100
AcDbLine
 10
184.298583724855
 20
-134.325475533509
 11
184.295010507075
 21
-134.957670397966
  0
LINE
  5
21B
100
AcDbEntity
  8
0
  6
CONTINUOUS
 62
           2
100
AcDbLine
 10
184.295010507075
 20
-134.957670397966
 11
184.288816929587
 21
-135.129899495015
  0
LINE
  5
21A
100
AcDbEntity
  8
0
  6
CONTINUOUS
 62
           2
100
AcDbLine
 10
184.288816929587
 20
-135.129899495015
 11
184.286064228482
 21
-135.20644576037
  0
LINE
  5
219
100
AcDbEntity
  8
0
  6
CONTINUOUS
 62
           2
100
AcDbLine
 10
184.286064228482
 20
-135.20644576037
 11
184.167115778791
 21
-135.317136106745
  0
LINE
  5
218
100
AcDbEntity
  8
0
  6
CONTINUOUS
 62
           2
100
AcDbLine
 10
184.167115778791
 20
-135.317136106745
 11
184.050231854929
 21
-135.370416754103
  0
LINE
  5
217
100
AcDbEntity
  8
0
  6
CONTINUOUS
 62
           2
100
AcDbLine
 10
184.050231854929
 20
-135.370416754103
 11
184.221084601425
 21
-135.414883464269
  0
LINE
  5
216
100
AcDbEntity
  8
0
  6
CONTINUOUS
 62
           2
100
AcDbLine
 10
184.221084601425
 20
-135.414883464269
 11
184.777421375803
 21
-135.396567414605
  0
LINE
  5
215
100
AcDbEntity
  8
0
  6
CONTINUOUS
 62
           2
100
AcDbLine
 10
184.777421375803
 20
-135.396567414605
 11
184.799310643247
 21
-135.320709324526
  0
LINE
  5
214
100
AcDbEntity
  8
0
  6
CONTINUOUS
 62
           2
100
AcDbLine
 10
184.799310643247
 20
-135.320709324526
 11
184.590184764073
 21
-135.274866263808
  0
LINE
  5
213
100
AcDbEntity
  8
0
  6
CONTINUOUS
 62
           2
100
AcDbLine
 10
184.590184764073
 20
-135.274866263808
 11
184.516391199823
 21
-135.195567297348
  0
LINE
  5
212
100
AcDbEntity
  8
0
  6
CONTINUOUS
 62
           2
100
AcDbLine
 10
184.516391199823
 20
-135.195567297348
 11
184.512394489565
 21
-134.773874662618
  0
LINE
  5
211
100
AcDbEntity
  8
0
  6
CONTINUOUS
 62
           2
100
AcDbLine
 10
184.512394489565
 20
-134.773874662618
 11
184.516523541223
 21
-134.659055264585
  0
LINE
  5
210
100
AcDbEntity
  8
0
  6
CONTINUOUS
 62
           2
100
AcDbLine
 10
184.516523541223
 20
-134.659055264585
 11
184.502204201818
 21
-134.524411124938
  0
LINE
  5
20F
100
AcDbEntity
  8
0
  6
CONTINUOUS
 62
           2
100
AcDbLine
 10
184.502204201818
 20
-134.524411124938
 11
184.541853685049
 21
-134.487514342813
  0
LINE
  5
20E
100
AcDbEntity
  8
0
  6
CONTINUOUS
 62
           2
100
AcDbLine
 10
184.541853685049
 20
-134.487514342813
 11
184.636848341467
 21
-134.510091785532
  0
LINE
  5
20D
100
AcDbEntity
  8
0
  6
CONTINUOUS
 62
           2
100
AcDbLine
 10
184.636848341467
 20
-134.510091785532
 11
185.461097044589
 21
-134.501410189738
  0
LINE
  5
20C
100
AcDbEntity
  8
0
  6
CONTINUOUS
 62
           2
100
AcDbLine
 10
185.461097044589
 20
-134.501410189738
 11
185.534890608837
 21
-134.580709156199
  0
LINE
  5
20B
100
AcDbEntity
  8
0
  6
CONTINUOUS
 62
           2
100
AcDbLine
 10
185.534890608837
 20
-134.580709156199
 11
185.528697031351
 21
-134.752938253248
  0
LINE
  5
20A
100
AcDbEntity
  8
0
  6
CONTINUOUS
 62
           2
100
AcDbLine
 10
185.528697031351
 20
-134.752938253248
 11
185.523879804417
 21
-134.88689421762
  0
LINE
  5
209
100
AcDbEntity
  8
0
  6
CONTINUOUS
 62
           2
100
AcDbLine
 10
185.523879804417
 20
-134.88689421762
 11
185.541640020202
 21
-134.925855525574
  0
LINE
  5
208
100
AcDbEntity
  8
0
  6
CONTINUOUS
 62
           2
100
AcDbLine
 10
185.541640020202
 20
-134.925855525574
 11
185.538199143822
 21
-135.021538357269
  0
LINE
  5
207
100
AcDbEntity
  8
0
  6
CONTINUOUS
 62
           2
100
AcDbLine
 10
185.538199143822
 20
-135.021538357269
 11
185.531317391057
 21
-135.212904020656
  0
LINE
  5
206
100
AcDbEntity
  8
0
  6
CONTINUOUS
 62
           2
100
AcDbLine
 10
185.531317391057
 20
-135.212904020656
 11
185.452018424597
 21
-135.286697584906
  0
LINE
  5
205
100
AcDbEntity
  8
0
  6
CONTINUOUS
 62
           2
100
AcDbLine
 10
185.452018424597
 20
-135.286697584906
 11
185.277724801718
 21
-135.337913706435
  0
LINE
  5
204
100
AcDbEntity
  8
0
  6
CONTINUOUS
 62
           2
100
AcDbLine
 10
185.277724801718
 20
-135.337913706435
 11
185.257211884827
 21
-135.375498663837
  0
LINE
  5
203
100
AcDbEntity
  8
0
  6
CONTINUOUS
 62
           2
100
AcDbLine
 10
185.257211884827
 20
-135.375498663837
 11
185.983713230425
 21
-135.420785890677
  0
LINE
  5
202
100
AcDbEntity
  8
0
  6
CONTINUOUS
 62
           2
100
AcDbLine
 10
185.983713230425
 20
-135.420785890677
 11
186.024739064208
 21
-135.345615975875
  0
LINE
  5
201
100
AcDbEntity
  8
0
  6
CONTINUOUS
 62
           2
100
AcDbLine
 10
186.024739064208
 20
-135.345615975875
 11
185.911984192005
 21
-135.2840772252
  0
LINE
  5
200
100
AcDbEntity
  8
0
  6
CONTINUOUS
 62
           2
100
AcDbLine
 10
185.911984192005
 20
-135.2840772252
 11
185.798541144523
 21
-135.241675040864
  0
LINE
  5
1FF
100
AcDbEntity
  8
0
  6
CONTINUOUS
 62
           2
100
AcDbLine
 10
185.798541144523
 20
-135.241675040864
 11
185.7616443624
 21
-135.202025557634
  0
LINE
  5
1FE
100
AcDbEntity
  8
0
  6
CONTINUOUS
 62
           2
100
AcDbLine
 10
185.7616443624
 20
-135.202025557634
 11
185.735758384696
 21
-134.856191012982
  0
LINE
  5
1FD
100
AcDbEntity
  8
0
  6
CONTINUOUS
 62
           2
100
AcDbLine
 10
185.735758384696
 20
-134.856191012982
 11
185.74057561163
 21
-134.72223504861
  0
LINE
  5
1FC
100
AcDbEntity
  8
0
  6
CONTINUOUS
 62
           2
100
AcDbLine
 10
185.74057561163
 20
-134.72223504861
 11
185.744704663289
 21
-134.607415650578
  0
LINE
  5
1FB
100
AcDbEntity
  8
0
  6
CONTINUOUS
 62
           2
100
AcDbLine
 10
185.744704663289
 20
-134.607415650578
 11
185.751586416053
 21
-134.41604998719
  0
LINE
  5
1FA
100
AcDbEntity
  8
0
  6
CONTINUOUS
 62
           2
100
AcDbLine
 10
185.751586416053
 20
-134.41604998719
 11
185.739331602478
 21
-134.223996148525
  0
LINE
  5
1F9
100
AcDbEntity
  8
0
  6
CONTINUOUS
 62
           2
100
AcDbLine
 10
185.739331602478
 20
-134.223996148525
 11
185.73327036639
 21
-133.859713212812
  0
LINE
  5
1F8
100
AcDbEntity
  8
0
  6
CONTINUOUS
 62
           2
100
AcDbLine
 10
185.73327036639
 20
-133.859713212812
 11
185.794120941787
 21
-133.766094906946
  0
LINE
  5
1F7
100
AcDbEntity
  8
0
  6
CONTINUOUS
 62
           2
100
AcDbLine
 10
185.794120941787
 20
-133.766094906946
 11
185.949966173604
 21
-133.695054043801
  0
LINE
  5
1F6
100
AcDbEntity
  8
0
  6
CONTINUOUS
 62
           2
100
AcDbLine
 10
185.949966173604
 20
-133.695054043801
 11
186.028576964788
 21
-133.640397045891
  0
LINE
  5
1F5
100
AcDbEntity
  8
0
  6
CONTINUOUS
 62
           2
100
AcDbLine
 10
186.028576964788
 20
-133.640397045891
 11
185.915822092585
 21
-133.578858295216
  0
LINE
  5
1F4
100
AcDbEntity
  8
0
  6
CONTINUOUS
 62
           2
100
AcDbLine
 10
185.915822092585
 20
-133.578858295216
 11
185.282250877574
 21
-133.613558210113
  0
LINE
  5
1F3
100
AcDbEntity
  8
0
  6
CONTINUOUS
 62
           2
100
AcDbLine
 10
185.282250877574
 20
-133.613558210113
 11
185.281562702298
 21
-133.632694776452
  0
LINE
  5
1F2
100
AcDbEntity
  8
0
  6
CONTINUOUS
 62
           2
100
AcDbLine
 10
185.281562702298
 20
-133.632694776452
 11
185.431902531903
 21
-133.714746444019
  0
LINE
  5
1F1
100
AcDbEntity
  8
0
  6
CONTINUOUS
 62
           2
100
AcDbLine
 10
185.431902531903
 20
-133.714746444019
 11
185.524144487214
 21
-133.813870152093
  0
LINE
  5
1F0
100
AcDbEntity
  8
0
  6
CONTINUOUS
 62
           2
100
AcDbLine
 10
185.524144487214
 20
-133.813870152093
 11
185.517950909728
 21
-133.986099249143
  0
LINE
  5
1EF
100
AcDbEntity
  8
0
  6
CONTINUOUS
 62
           2
100
AcDbLine
 10
185.517950909728
 20
-133.986099249143
 11
185.531582073855
 21
-134.13987995513
  0
LINE
  5
1EE
100
AcDbEntity
  8
0
  6
CONTINUOUS
 62
           2
100
AcDbLine
 10
185.531582073855
 20
-134.13987995513
 11
185.525388496369
 21
-134.312109052179
  0
LINE
  5
1ED
100
AcDbEntity
  8
0
  6
CONTINUOUS
 62
           2
100
AcDbLine
 10
185.525388496369
 20
-134.312109052179
 11
185.446089529908
 21
-134.385902616429
  0
LINE
  5
1EC
100
AcDbEntity
  8
0
  6
CONTINUOUS
 62
           2
100
AcDbLine
 10
185.446089529908
 20
-134.385902616429
 11
184.527534345644
 21
-134.352870203164
  0
LINE
  5
1EB
100
AcDbEntity
  8
0
  6
CONTINUOUS
 62
           2
100
AcDbLine
 10
184.527534345644
 20
-134.352870203164
 11
184.511150480411
 21
-134.275635762533
  0
LINE
  5
1EA
100
AcDbEntity
  8
0
  6
CONTINUOUS
 62
           2
100
AcDbLine
 10
184.511150480411
 20
-134.275635762533
 11
184.507153770152
 21
-133.853943127802
  0
LINE
  5
1E9
100
AcDbEntity
  8
0
  6
CONTINUOUS
 62
           2
100
AcDbLine
 10
184.507153770152
 20
-133.853943127802
 11
184.588517262443
 21
-133.722739864536
  0
LINE
  5
1E8
100
AcDbEntity
  8
0
  6
CONTINUOUS
 62
           2
100
AcDbLine
 10
184.588517262443
 20
-133.722739864536
 11
184.72316140209
 21
-133.708420525132
  0
LINE
  5
1E7
100
AcDbEntity
  8
0
  6
CONTINUOUS
 62
           2
100
AcDbLine
 10
184.72316140209
 20
-133.708420525132
 11
184.802460368551
 21
-133.634626960882
  0
LINE
  5
1E6
100
AcDbEntity
  8
0
  6
CONTINUOUS
 62
           2
100
AcDbLine
 10
184.802460368551
 20
-133.634626960882
 11
184.727290453749
 21
-133.593601127098
  0
LINE
  5
1E5
100
AcDbEntity
  8
0
  6
CONTINUOUS
 62
           2
100
AcDbLine
 10
184.727290453749
 20
-133.593601127098
 11
184.094407414014
 21
-133.609164475656
  0
LINE
  5
1E4
100
AcDbEntity
  8
0
  6
CONTINUOUS
 62
           2
100
AcDbLine
 10
184.094407414014
 20
-133.609164475656
 11
184.034933189169
 21
-133.664509648843
  0
LINE
  5
1E3
100
AcDbEntity
  8
0
  6
CONTINUOUS
 62
           2
100
AcDbLine
 10
181.928958033825
 20
-134.680971000308
 11
182.051215018498
 21
-135.011109855004
  0
LINE
  5
1E2
100
AcDbEntity
  8
0
  6
CONTINUOUS
 62
           2
100
AcDbLine
 10
182.051215018498
 20
-135.011109855004
 11
182.29104410231
 21
-135.268831496001
  0
LINE
  5
1E1
100
AcDbEntity
  8
0
  6
CONTINUOUS
 62
           2
100
AcDbLine
 10
182.29104410231
 20
-135.268831496001
 11
182.478968889317
 21
-135.371396080459
  0
LINE
  5
1E0
100
AcDbEntity
  8
0
  6
CONTINUOUS
 62
           2
100
AcDbLine
 10
182.478968889317
 20
-135.371396080459
 11
182.668270026875
 21
-135.435687532239
  0
LINE
  5
1DF
100
AcDbEntity
  8
0
  6
CONTINUOUS
 62
           2
100
AcDbLine
 10
182.668270026875
 20
-135.435687532239
 11
182.97376691302
 21
-135.465834902999
  0
LINE
  5
1DE
100
AcDbEntity
  8
0
  6
CONTINUOUS
 62
           2
100
AcDbLine
 10
182.97376691302
 20
-135.465834902999
 11
183.342178900392
 21
-135.344954268879
  0
LINE
  5
1DD
100
AcDbEntity
  8
0
  6
CONTINUOUS
 62
           2
100
AcDbLine
 10
183.342178900392
 20
-135.344954268879
 11
183.59990054139
 21
-135.105125185066
  0
LINE
  5
1DC
100
AcDbEntity
  8
0
  6
CONTINUOUS
 62
           2
100
AcDbLine
 10
183.59990054139
 20
-135.105125185066
 11
183.642302725725
 21
-134.991682137586
  0
LINE
  5
1DB
100
AcDbEntity
  8
0
  6
CONTINUOUS
 62
           2
100
AcDbLine
 10
183.642302725725
 20
-134.991682137586
 11
183.527483327692
 21
-134.987553085928
  0
LINE
  5
1DA
100
AcDbEntity
  8
0
  6
CONTINUOUS
 62
           2
100
AcDbLine
 10
183.527483327692
 20
-134.987553085928
 11
183.406470352172
 21
-135.15565313132
  0
LINE
  5
1D9
100
AcDbEntity
  8
0
  6
CONTINUOUS
 62
           2
100
AcDbLine
 10
183.406470352172
 20
-135.15565313132
 11
183.172702504448
 21
-135.262214426035
  0
LINE
  5
1D8
100
AcDbEntity
  8
0
  6
CONTINUOUS
 62
           2
100
AcDbLine
 10
183.172702504448
 20
-135.262214426035
 11
183.018233623185
 21
-135.294982156501
  0
LINE
  5
1D7
100
AcDbEntity
  8
0
  6
CONTINUOUS
 62
           2
100
AcDbLine
 10
183.018233623185
 20
-135.294982156501
 11
182.654638862748
 21
-135.28190682625
  0
LINE
  5
1D6
100
AcDbEntity
  8
0
  6
CONTINUOUS
 62
           2
100
AcDbLine
 10
182.654638862748
 20
-135.28190682625
 11
182.392232336216
 21
-135.119179841672
  0
LINE
  5
1D5
100
AcDbEntity
  8
0
  6
CONTINUOUS
 62
           2
100
AcDbLine
 10
182.392232336216
 20
-135.119179841672
 11
182.248774259374
 21
-134.845762510718
  0
LINE
  5
1D4
100
AcDbEntity
  8
0
  6
CONTINUOUS
 62
           2
100
AcDbLine
 10
182.248774259374
 20
-134.845762510718
 11
182.216006528907
 21
-134.691293629454
  0
LINE
  5
1D3
100
AcDbEntity
  8
0
  6
CONTINUOUS
 62
           2
100
AcDbLine
 10
182.216006528907
 20
-134.691293629454
 11
182.218759230012
 21
-134.614747364099
  0
LINE
  5
1D2
100
AcDbEntity
  8
0
  6
CONTINUOUS
 62
           2
100
AcDbLine
 10
182.218759230012
 20
-134.614747364099
 11
182.211321643371
 21
-134.288737561063
  0
LINE
  5
1D1
100
AcDbEntity
  8
0
  6
CONTINUOUS
 62
           2
100
AcDbLine
 10
182.211321643371
 20
-134.288737561063
 11
182.296126012044
 21
-134.061851466102
  0
LINE
  5
1D0
100
AcDbEntity
  8
0
  6
CONTINUOUS
 62
           2
100
AcDbLine
 10
182.296126012044
 20
-134.061851466102
 11
182.437651904455
 21
-133.85616646331
  0
LINE
  5
1CF
100
AcDbEntity
  8
0
  6
CONTINUOUS
 62
           2
100
AcDbLine
 10
182.437651904455
 20
-133.85616646331
 11
182.672107927455
 21
-133.730468602255
  0
LINE
  5
1CE
100
AcDbEntity
  8
0
  6
CONTINUOUS
 62
           2
100
AcDbLine
 10
182.672107927455
 20
-133.730468602255
 11
182.922259640413
 21
-133.70114174817
  0
LINE
  5
1CD
100
AcDbEntity
  8
0
  6
CONTINUOUS
 62
           2
100
AcDbLine
 10
182.922259640413
 20
-133.70114174817
 11
183.07397582057
 21
-133.744920283058
  0
LINE
  5
1CC
100
AcDbEntity
  8
0
  6
CONTINUOUS
 62
           2
100
AcDbLine
 10
183.07397582057
 20
-133.744920283058
 11
183.319310306592
 21
-133.849549393345
  0
LINE
  5
1CB
100
AcDbEntity
  8
0
  6
CONTINUOUS
 62
           2
100
AcDbLine
 10
183.319310306592
 20
-133.849549393345
 11
183.499665165559
 21
-134.16261620753
  0
LINE
  5
1CA
100
AcDbEntity
  8
0
  6
CONTINUOUS
 62
           2
100
AcDbLine
 10
183.499665165559
 20
-134.16261620753
 11
183.55432216347
 21
-134.241226998714
  0
LINE
  5
1C9
100
AcDbEntity
  8
0
  6
CONTINUOUS
 62
           2
100
AcDbLine
 10
183.55432216347
 20
-134.241226998714
 11
183.593971646701
 21
-134.204330216589
  0
LINE
  5
1C8
100
AcDbEntity
  8
0
  6
CONTINUOUS
 62
           2
100
AcDbLine
 10
183.593971646701
 20
-134.204330216589
 11
183.497732981129
 21
-133.683513873783
  0
LINE
  5
1C7
100
AcDbEntity
  8
0
  6
CONTINUOUS
 62
           2
100
AcDbLine
 10
183.497732981129
 20
-133.683513873783
 11
183.422563066327
 21
-133.642488039999
  0
LINE
  5
1C6
100
AcDbEntity
  8
0
  6
CONTINUOUS
 62
           2
100
AcDbLine
 10
183.422563066327
 20
-133.642488039999
 11
183.343952275142
 21
-133.697145037911
  0
LINE
  5
1C5
100
AcDbEntity
  8
0
  6
CONTINUOUS
 62
           2
100
AcDbLine
 10
183.343952275142
 20
-133.697145037911
 11
183.248957618724
 21
-133.67456759519
  0
LINE
  5
1C4
100
AcDbEntity
  8
0
  6
CONTINUOUS
 62
           2
100
AcDbLine
 10
183.248957618724
 20
-133.67456759519
 11
183.09861778912
 21
-133.592515927624
  0
LINE
  5
1C3
100
AcDbEntity
  8
0
  6
CONTINUOUS
 62
           2
100
AcDbLine
 10
183.09861778912
 20
-133.592515927624
 11
182.696749896005
 21
-133.57806424682
  0
LINE
  5
1C2
100
AcDbEntity
  8
0
  6
CONTINUOUS
 62
           2
100
AcDbLine
 10
182.696749896005
 20
-133.57806424682
 11
182.385747607649
 21
-133.701009406771
  0
LINE
  5
1C1
100
AcDbEntity
  8
0
  6
CONTINUOUS
 62
           2
100
AcDbLine
 10
182.385747607649
 20
-133.701009406771
 11
182.208701283665
 21
-133.828771793655
  0
LINE
  5
1C0
100
AcDbEntity
  8
0
  6
CONTINUOUS
 62
           2
100
AcDbLine
 10
182.208701283665
 20
-133.828771793655
 11
182.026837732748
 21
-134.090490144911
  0
LINE
  5
1BF
100
AcDbEntity
  8
0
  6
CONTINUOUS
 62
           2
100
AcDbLine
 10
182.026837732748
 20
-134.090490144911
 11
181.959793579862
 21
-134.356337547826
  0
LINE
  5
1BE
100
AcDbEntity
  8
0
  6
CONTINUOUS
 62
           2
100
AcDbLine
 10
181.959793579862
 20
-134.356337547826
 11
181.957729054032
 21
-134.413747246842
  0
LINE
  5
1BD
100
AcDbEntity
  8
0
  6
CONTINUOUS
 62
           2
100
AcDbLine
 10
181.957729054032
 20
-134.413747246842
 11
181.936527961864
 21
-134.470468770581
  0
LINE
  5
1BC
100
AcDbEntity
  8
0
  6
CONTINUOUS
 62
           2
100
AcDbLine
 10
181.936527961864
 20
-134.470468770581
 11
181.928958033825
 21
-134.680971000308
  0
LINE
  5
1BB
100
AcDbEntity
  8
0
  6
CONTINUOUS
 62
           2
100
AcDbLine
 10
179.947569071782
 20
-134.897137441926
 11
179.983089503353
 21
-134.975060057834
  0
LINE
  5
1BA
100
AcDbEntity
  8
0
  6
CONTINUOUS
 62
           2
100
AcDbLine
 10
179.983089503353
 20
-134.975060057834
 11
180.06500882952
 21
-135.361232260992
  0
LINE
  5
1B9
100
AcDbEntity
  8
0
  6
CONTINUOUS
 62
           2
100
AcDbLine
 10
180.06500882952
 20
-135.361232260992
 11
180.139490569046
 21
-135.421394661114
  0
LINE
  5
1B8
100
AcDbEntity
  8
0
  6
CONTINUOUS
 62
           2
100
AcDbLine
 10
180.139490569046
 20
-135.421394661114
 11
180.257750843462
 21
-135.329840881078
  0
LINE
  5
1B7
100
AcDbEntity
  8
0
  6
CONTINUOUS
 62
           2
100
AcDbLine
 10
180.257750843462
 20
-135.329840881078
 11
180.541358462161
 21
-135.435846341916
  0
LINE
  5
1B6
100
AcDbEntity
  8
0
  6
CONTINUOUS
 62
           2
100
AcDbLine
 10
180.541358462161
 20
-135.435846341916
 11
180.981499487953
 21
-135.451674373274
  0
LINE
  5
1B5
100
AcDbEntity
  8
0
  6
CONTINUOUS
 62
           2
100
AcDbLine
 10
180.981499487953
 20
-135.451674373274
 11
181.213890985126
 21
-135.383386211235
  0
LINE
  5
1B4
100
AcDbEntity
  8
0
  6
CONTINUOUS
 62
           2
100
AcDbLine
 10
181.213890985126
 20
-135.383386211235
 11
181.312326517925
 21
-135.310280822261
  0
LINE
  5
1B3
100
AcDbEntity
  8
0
  6
CONTINUOUS
 62
           2
100
AcDbLine
 10
181.312326517925
 20
-135.310280822261
 11
181.492813718291
 21
-135.086835603682
  0
LINE
  5
1B2
100
AcDbEntity
  8
0
  6
CONTINUOUS
 62
           2
100
AcDbLine
 10
181.492813718291
 20
-135.086835603682
 11
181.524337439604
 21
-134.743065584861
  0
LINE
  5
1B1
100
AcDbEntity
  8
0
  6
CONTINUOUS
 62
           2
100
AcDbLine
 10
181.524337439604
 20
-134.743065584861
 11
181.435536360673
 21
-134.548259045091
  0
LINE
  5
1B0
100
AcDbEntity
  8
0
  6
CONTINUOUS
 62
           2
100
AcDbLine
 10
181.435536360673
 20
-134.548259045091
 11
181.134856701464
 21
-134.384155709959
  0
LINE
  5
1AF
100
AcDbEntity
  8
0
  6
CONTINUOUS
 62
           2
100
AcDbLine
 10
181.134856701464
 20
-134.384155709959
 11
181.020725478707
 21
-134.360890091961
  0
LINE
  5
1AE
100
AcDbEntity
  8
0
  6
CONTINUOUS
 62
           2
100
AcDbLine
 10
181.020725478707
 20
-134.360890091961
 11
180.564200587681
 21
-134.267827619973
  0
LINE
  5
1AD
100
AcDbEntity
  8
0
  6
CONTINUOUS
 62
           2
100
AcDbLine
 10
180.564200587681
 20
-134.267827619973
 11
180.374899450121
 21
-134.203536168193
  0
LINE
  5
1AC
100
AcDbEntity
  8
0
  6
CONTINUOUS
 62
           2
100
AcDbLine
 10
180.374899450121
 20
-134.203536168193
 11
180.262832753194
 21
-134.12286085118
  0
LINE
  5
1AB
100
AcDbEntity
  8
0
  6
CONTINUOUS
 62
           2
100
AcDbLine
 10
180.262832753194
 20
-134.12286085118
 11
180.245760712684
 21
-134.064762976887
  0
LINE
  5
1AA
100
AcDbEntity
  8
0
  6
CONTINUOUS
 62
           2
100
AcDbLine
 10
180.245760712684
 20
-134.064762976887
 11
180.232129548557
 21
-133.910982270901
  0
LINE
  5
1A9
100
AcDbEntity
  8
0
  6
CONTINUOUS
 62
           2
100
AcDbLine
 10
180.232129548557
 20
-133.910982270901
 11
180.292291948678
 21
-133.836500531374
  0
LINE
  5
1A8
100
AcDbEntity
  8
0
  6
CONTINUOUS
 62
           2
100
AcDbLine
 10
180.292291948678
 20
-133.836500531374
 11
180.468650097387
 21
-133.727874710828
  0
LINE
  5
1A7
100
AcDbEntity
  8
0
  6
CONTINUOUS
 62
           2
100
AcDbLine
 10
180.468650097387
 20
-133.727874710828
 11
180.851381424162
 21
-133.741638216356
  0
LINE
  5
1A6
100
AcDbEntity
  8
0
  6
CONTINUOUS
 62
           2
100
AcDbLine
 10
180.851381424162
 20
-133.741638216356
 11
181.097404085461
 21
-133.827130760304
  0
LINE
  5
1A5
100
AcDbEntity
  8
0
  6
CONTINUOUS
 62
           2
100
AcDbLine
 10
181.097404085461
 20
-133.827130760304
 11
181.300336387148
 21
-134.045202918069
  0
LINE
  5
1A4
100
AcDbEntity
  8
0
  6
CONTINUOUS
 62
           2
100
AcDbLine
 10
181.300336387148
 20
-134.045202918069
 11
181.375506301952
 21
-134.086228751854
  0
LINE
  5
1A3
100
AcDbEntity
  8
0
  6
CONTINUOUS
 62
           2
100
AcDbLine
 10
181.375506301952
 20
-134.086228751854
 11
181.397395569396
 21
-134.010370661776
  0
LINE
  5
1A2
100
AcDbEntity
  8
0
  6
CONTINUOUS
 62
           2
100
AcDbLine
 10
181.397395569396
 20
-134.010370661776
 11
181.275826759997
 21
-133.661095240741
  0
LINE
  5
1A1
100
AcDbEntity
  8
0
  6
CONTINUOUS
 62
           2
100
AcDbLine
 10
181.275826759997
 20
-133.661095240741
 11
181.200656845195
 21
-133.620069406958
  0
LINE
  5
1A0
100
AcDbEntity
  8
0
  6
CONTINUOUS
 62
           2
100
AcDbLine
 10
181.200656845195
 20
-133.620069406958
 11
181.083772921333
 21
-133.673350054317
  0
LINE
  5
19F
100
AcDbEntity
  8
0
  6
CONTINUOUS
 62
           2
100
AcDbLine
 10
181.083772921333
 20
-133.673350054317
 11
180.837750260035
 21
-133.587857510368
  0
LINE
  5
19E
100
AcDbEntity
  8
0
  6
CONTINUOUS
 62
           2
100
AcDbLine
 10
180.837750260035
 20
-133.587857510368
 11
180.550701764952
 21
-133.577534881223
  0
LINE
  5
19D
100
AcDbEntity
  8
0
  6
CONTINUOUS
 62
           2
100
AcDbLine
 10
180.550701764952
 20
-133.577534881223
 11
180.260212393488
 21
-133.662895083772
  0
LINE
  5
19C
100
AcDbEntity
  8
0
  6
CONTINUOUS
 62
           2
100
AcDbLine
 10
180.260212393488
 20
-133.662895083772
 11
180.10092628529
 21
-133.829618778611
  0
LINE
  5
19B
100
AcDbEntity
  8
0
  6
CONTINUOUS
 62
           2
100
AcDbLine
 10
180.10092628529
 20
-133.829618778611
 11
180.038699359339
 21
-133.961510217153
  0
LINE
  5
19A
100
AcDbEntity
  8
0
  6
CONTINUOUS
 62
           2
100
AcDbLine
 10
180.038699359339
 20
-133.961510217153
 11
180.030441256023
 21
-134.191149013219
  0
LINE
  5
199
100
AcDbEntity
  8
0
  6
CONTINUOUS
 62
           2
100
AcDbLine
 10
180.030441256023
 20
-134.191149013219
 11
180.215613341924
 21
-134.370259863032
  0
LINE
  5
198
100
AcDbEntity
  8
0
  6
CONTINUOUS
 62
           2
100
AcDbLine
 10
180.215613341924
 20
-134.370259863032
 11
180.384401562592
 21
-134.472136272214
  0
LINE
  5
197
100
AcDbEntity
  8
0
  6
CONTINUOUS
 62
           2
100
AcDbLine
 10
180.384401562592
 20
-134.472136272214
 11
180.821101712002
 21
-134.583647135264
  0
LINE
  5
196
100
AcDbEntity
  8
0
  6
CONTINUOUS
 62
           2
100
AcDbLine
 10
180.821101712002
 20
-134.583647135264
 11
181.218840553459
 21
-134.7129182141
  0
LINE
  5
195
100
AcDbEntity
  8
0
  6
CONTINUOUS
 62
           2
100
AcDbLine
 10
181.218840553459
 20
-134.7129182141
 11
181.329530899834
 21
-134.831866663791
  0
LINE
  5
194
100
AcDbEntity
  8
0
  6
CONTINUOUS
 62
           2
100
AcDbLine
 10
181.329530899834
 20
-134.831866663791
 11
181.326778198728
 21
-134.908412929146
  0
LINE
  5
193
100
AcDbEntity
  8
0
  6
CONTINUOUS
 62
           2
100
AcDbLine
 10
181.326778198728
 20
-134.908412929146
 11
181.280935138012
 21
-135.117538808321
  0
LINE
  5
192
100
AcDbEntity
  8
0
  6
CONTINUOUS
 62
           2
100
AcDbLine
 10
181.280935138012
 20
-135.117538808321
 11
181.103200638751
 21
-135.264437761544
  0
LINE
  5
191
100
AcDbEntity
  8
0
  6
CONTINUOUS
 62
           2
100
AcDbLine
 10
181.103200638751
 20
-135.264437761544
 11
180.871497316856
 21
-135.313589357244
  0
LINE
  5
190
100
AcDbEntity
  8
0
  6
CONTINUOUS
 62
           2
100
AcDbLine
 10
180.871497316856
 20
-135.313589357244
 11
180.603585388112
 21
-135.303954903376
  0
LINE
  5
18F
100
AcDbEntity
  8
0
  6
CONTINUOUS
 62
           2
100
AcDbLine
 10
180.603585388112
 20
-135.303954903376
 11
180.35825090209
 21
-135.199325793088
  0
LINE
  5
18E
100
AcDbEntity
  8
0
  6
CONTINUOUS
 62
           2
100
AcDbLine
 10
180.35825090209
 20
-135.199325793088
 11
180.153942249851
 21
-135.019526767999
  0
LINE
  5
18D
100
AcDbEntity
  8
0
  6
CONTINUOUS
 62
           2
100
AcDbLine
 10
180.153942249851
 20
-135.019526767999
 11
179.969458339226
 21
-134.821279351847
  0
LINE
  5
18C
100
AcDbEntity
  8
0
  6
CONTINUOUS
 62
           2
100
AcDbLine
 10
179.969458339226
 20
-134.821279351847
 11
179.947569071782
 21
-134.897137441926
  0
LINE
  5
18B
100
AcDbEntity
  8
0
  6
CONTINUOUS
 62
           2
100
AcDbLine
 10
178.304709409148
 20
-134.22489607004
 11
178.335412613785
 21
-134.43677465032
  0
LINE
  5
18A
100
AcDbEntity
  8
0
  6
CONTINUOUS
 62
           2
100
AcDbLine
 10
178.335412613785
 20
-134.43677465032
 11
178.90950960395
 21
-134.45741990861
  0
LINE
  5
189
100
AcDbEntity
  8
0
  6
CONTINUOUS
 62
           2
100
AcDbLine
 10
178.90950960395
 20
-134.45741990861
 11
179.063978485213
 21
-134.424652178144
  0
LINE
  5
188
100
AcDbEntity
  8
0
  6
CONTINUOUS
 62
           2
100
AcDbLine
 10
179.063978485213
 20
-134.424652178144
 11
179.240336633921
 21
-134.316026357599
  0
LINE
  5
187
100
AcDbEntity
  8
0
  6
CONTINUOUS
 62
           2
100
AcDbLine
 10
179.240336633921
 20
-134.316026357599
 11
179.284115168809
 21
-134.16431017744
  0
LINE
  5
186
100
AcDbEntity
  8
0
  6
CONTINUOUS
 62
           2
100
AcDbLine
 10
179.284115168809
 20
-134.16431017744
 11
179.288244220467
 21
-134.049490779408
  0
LINE
  5
185
100
AcDbEntity
  8
0
  6
CONTINUOUS
 62
           2
100
AcDbLine
 10
179.288244220467
 20
-134.049490779408
 11
179.218579707876
 21
-133.855372414915
  0
LINE
  5
184
100
AcDbEntity
  8
0
  6
CONTINUOUS
 62
           2
100
AcDbLine
 10
179.218579707876
 20
-133.855372414915
 11
179.068239878271
 21
-133.773320747348
  0
LINE
  5
183
100
AcDbEntity
  8
0
  6
CONTINUOUS
 62
           2
100
AcDbLine
 10
179.068239878271
 20
-133.773320747348
 11
178.398460056412
 21
-133.749234612674
  0
LINE
  5
182
100
AcDbEntity
  8
0
  6
CONTINUOUS
 62
           2
100
AcDbLine
 10
178.398460056412
 20
-133.749234612674
 11
178.300024523612
 21
-133.822340001648
  0
LINE
  5
181
100
AcDbEntity
  8
0
  6
CONTINUOUS
 62
           2
100
AcDbLine
 10
178.300024523612
 20
-133.822340001648
 11
178.308838460806
 21
-134.110076672008
  0
LINE
  5
180
100
AcDbEntity
  8
0
  6
CONTINUOUS
 62
           2
100
AcDbLine
 10
178.308838460806
 20
-134.110076672008
 11
178.306773934976
 21
-134.167486371024
  0
LINE
  5
17F
100
AcDbEntity
  8
0
  6
CONTINUOUS
 62
           2
100
AcDbLine
 10
178.306773934976
 20
-134.167486371024
 11
178.304709409148
 21
-134.22489607004
  0
LINE
  5
17E
100
AcDbEntity
  8
0
  6
CONTINUOUS
 62
           2
100
AcDbLine
 10
177.826427592076
 20
-133.671179655368
 11
177.864012549478
 21
-133.691692572259
  0
LINE
  5
17D
100
AcDbEntity
  8
0
  6
CONTINUOUS
 62
           2
100
AcDbLine
 10
177.864012549478
 20
-133.691692572259
 11
178.052625511761
 21
-133.775120590378
  0
LINE
  5
17C
100
AcDbEntity
  8
0
  6
CONTINUOUS
 62
           2
100
AcDbLine
 10
178.052625511761
 20
-133.775120590378
 11
178.102465282737
 21
-133.987687345935
  0
LINE
  5
17B
100
AcDbEntity
  8
0
  6
CONTINUOUS
 62
           2
100
AcDbLine
 10
178.102465282737
 20
-133.987687345935
 11
178.096271705251
 21
-134.159916442984
  0
LINE
  5
17A
100
AcDbEntity
  8
0
  6
CONTINUOUS
 62
           2
100
AcDbLine
 10
178.096271705251
 20
-134.159916442984
 11
178.11127921993
 21
-134.275424016293
  0
LINE
  5
179
100
AcDbEntity
  8
0
  6
CONTINUOUS
 62
           2
100
AcDbLine
 10
178.11127921993
 20
-134.275424016293
 11
178.08113184917
 21
-134.580920902438
  0
LINE
  5
178
100
AcDbEntity
  8
0
  6
CONTINUOUS
 62
           2
100
AcDbLine
 10
178.08113184917
 20
-134.580920902438
 11
178.098892064955
 21
-134.619882210392
  0
LINE
  5
177
100
AcDbEntity
  8
0
  6
CONTINUOUS
 62
           2
100
AcDbLine
 10
178.098892064955
 20
-134.619882210392
 11
178.092698487469
 21
-134.792111307441
  0
LINE
  5
176
100
AcDbEntity
  8
0
  6
CONTINUOUS
 62
           2
100
AcDbLine
 10
178.092698487469
 20
-134.792111307441
 11
178.089945786363
 21
-134.868657572796
  0
LINE
  5
175
100
AcDbEntity
  8
0
  6
CONTINUOUS
 62
           2
100
AcDbLine
 10
178.089945786363
 20
-134.868657572796
 11
178.102888775215
 21
-135.041574845122
  0
LINE
  5
174
100
AcDbEntity
  8
0
  6
CONTINUOUS
 62
           2
100
AcDbLine
 10
178.102888775215
 20
-135.041574845122
 11
178.096007022451
 21
-135.232940508511
  0
LINE
  5
173
100
AcDbEntity
  8
0
  6
CONTINUOUS
 62
           2
100
AcDbLine
 10
178.096007022451
 20
-135.232940508511
 11
178.01670805599
 21
-135.30673407276
  0
LINE
  5
172
100
AcDbEntity
  8
0
  6
CONTINUOUS
 62
           2
100
AcDbLine
 10
178.01670805599
 20
-135.30673407276
 11
177.822589691496
 21
-135.376398585351
  0
LINE
  5
171
100
AcDbEntity
  8
0
  6
CONTINUOUS
 62
           2
100
AcDbLine
 10
177.822589691496
 20
-135.376398585351
 11
177.802764949883
 21
-135.394846976413
  0
LINE
  5
170
100
AcDbEntity
  8
0
  6
CONTINUOUS
 62
           2
100
AcDbLine
 10
177.802764949883
 20
-135.394846976413
 11
178.606500736111
 21
-135.423750338021
  0
LINE
  5
16F
100
AcDbEntity
  8
0
  6
CONTINUOUS
 62
           2
100
AcDbLine
 10
178.606500736111
 20
-135.423750338021
 11
178.646150219342
 21
-135.386853555896
  0
LINE
  5
16E
100
AcDbEntity
  8
0
  6
CONTINUOUS
 62
           2
100
AcDbLine
 10
178.646150219342
 20
-135.386853555896
 11
178.533395347139
 21
-135.325314805222
  0
LINE
  5
16D
100
AcDbEntity
  8
0
  6
CONTINUOUS
 62
           2
100
AcDbLine
 10
178.533395347139
 20
-135.325314805222
 11
178.419264124382
 21
-135.302049187225
  0
LINE
  5
16C
100
AcDbEntity
  8
0
  6
CONTINUOUS
 62
           2
100
AcDbLine
 10
178.419264124382
 20
-135.302049187225
 11
178.326333993794
 21
-135.222062045488
  0
LINE
  5
16B
100
AcDbEntity
  8
0
  6
CONTINUOUS
 62
           2
100
AcDbLine
 10
178.326333993794
 20
-135.222062045488
 11
178.305265243024
 21
-134.742271536465
  0
LINE
  5
16A
100
AcDbEntity
  8
0
  6
CONTINUOUS
 62
           2
100
AcDbLine
 10
178.305265243024
 20
-134.742271536465
 11
178.286816851963
 21
-134.72244679485
  0
LINE
  5
169
100
AcDbEntity
  8
0
  6
CONTINUOUS
 62
           2
100
AcDbLine
 10
178.286816851963
 20
-134.72244679485
 11
178.349043777914
 21
-134.590555356306
  0
LINE
  5
168
100
AcDbEntity
  8
0
  6
CONTINUOUS
 62
           2
100
AcDbLine
 10
178.349043777914
 20
-134.590555356306
 11
178.675053580949
 21
-134.583117769666
  0
LINE
  5
167
100
AcDbEntity
  8
0
  6
CONTINUOUS
 62
           2
100
AcDbLine
 10
178.675053580949
 20
-134.583117769666
 11
178.806945019492
 21
-134.645344695617
  0
LINE
  5
166
100
AcDbEntity
  8
0
  6
CONTINUOUS
 62
           2
100
AcDbLine
 10
178.806945019492
 20
-134.645344695617
 11
178.916259015315
 21
-134.802566277986
  0
LINE
  5
165
100
AcDbEntity
  8
0
  6
CONTINUOUS
 62
           2
100
AcDbLine
 10
178.916259015315
 20
-134.802566277986
 11
178.972980539055
 21
-134.823767370154
  0
LINE
  5
164
100
AcDbEntity
  8
0
  6
CONTINUOUS
 62
           2
100
AcDbLine
 10
178.972980539055
 20
-134.823767370154
 11
179.189544004869
 21
-135.195620233908
  0
LINE
  5
163
100
AcDbEntity
  8
0
  6
CONTINUOUS
 62
           2
100
AcDbLine
 10
179.189544004869
 20
-135.195620233908
 11
179.354891349155
 21
-135.393179474783
  0
LINE
  5
162
100
AcDbEntity
  8
0
  6
CONTINUOUS
 62
           2
100
AcDbLine
 10
179.354891349155
 20
-135.393179474783
 11
179.775207633332
 21
-135.427455897201
  0
LINE
  5
161
100
AcDbEntity
  8
0
  6
CONTINUOUS
 62
           2
100
AcDbLine
 10
179.775207633332
 20
-135.427455897201
 11
179.797096900777
 21
-135.351597807123
  0
LINE
  5
160
100
AcDbEntity
  8
0
  6
CONTINUOUS
 62
           2
100
AcDbLine
 10
179.797096900777
 20
-135.351597807123
 11
179.741751727589
 21
-135.292123582277
  0
LINE
  5
15F
100
AcDbEntity
  8
0
  6
CONTINUOUS
 62
           2
100
AcDbLine
 10
179.741751727589
 20
-135.292123582277
 11
179.626932329557
 21
-135.287994530619
  0
LINE
  5
15E
100
AcDbEntity
  8
0
  6
CONTINUOUS
 62
           2
100
AcDbLine
 10
179.626932329557
 20
-135.287994530619
 11
179.422623677316
 21
-135.108195505531
  0
LINE
  5
15D
100
AcDbEntity
  8
0
  6
CONTINUOUS
 62
           2
100
AcDbLine
 10
179.422623677316
 20
-135.108195505531
 11
179.277789249923
 21
-134.873051307253
  0
LINE
  5
15C
100
AcDbEntity
  8
0
  6
CONTINUOUS
 62
           2
100
AcDbLine
 10
179.277789249923
 20
-134.873051307253
 11
179.094681689851
 21
-134.636530758424
  0
LINE
  5
15B
100
AcDbEntity
  8
0
  6
CONTINUOUS
 62
           2
100
AcDbLine
 10
179.094681689851
 20
-134.636530758424
 11
179.078297824618
 21
-134.559296317792
  0
LINE
  5
15A
100
AcDbEntity
  8
0
  6
CONTINUOUS
 62
           2
100
AcDbLine
 10
179.078297824618
 20
-134.559296317792
 11
179.311377497065
 21
-134.471871589415
  0
LINE
  5
159
100
AcDbEntity
  8
0
  6
CONTINUOUS
 62
           2
100
AcDbLine
 10
179.311377497065
 20
-134.471871589415
 11
179.450150688371
 21
-134.342732851978
  0
LINE
  5
158
100
AcDbEntity
  8
0
  6
CONTINUOUS
 62
           2
100
AcDbLine
 10
179.450150688371
 20
-134.342732851978
 11
179.534955057044
 21
-134.115846757018
  0
LINE
  5
157
100
AcDbEntity
  8
0
  6
CONTINUOUS
 62
           2
100
AcDbLine
 10
179.534955057044
 20
-134.115846757018
 11
179.485803461343
 21
-133.884143435122
  0
LINE
  5
156
100
AcDbEntity
  8
0
  6
CONTINUOUS
 62
           2
100
AcDbLine
 10
179.485803461343
 20
-133.884143435122
 11
179.376489465521
 21
-133.726921852752
  0
LINE
  5
155
100
AcDbEntity
  8
0
  6
CONTINUOUS
 62
           2
100
AcDbLine
 10
179.376489465521
 20
-133.726921852752
 11
179.14960337056
 21
-133.642117484082
  0
LINE
  5
154
100
AcDbEntity
  8
0
  6
CONTINUOUS
 62
           2
100
AcDbLine
 10
179.14960337056
 20
-133.642117484082
 11
178.365004150669
 21
-133.613902297751
  0
LINE
  5
153
100
AcDbEntity
  8
0
  6
CONTINUOUS
 62
           2
100
AcDbLine
 10
178.365004150669
 20
-133.613902297751
 11
177.827803942629
 21
-133.63290652269
  0
LINE
  5
152
100
AcDbEntity
  8
0
  6
CONTINUOUS
 62
           2
100
AcDbLine
 10
177.827803942629
 20
-133.63290652269
 11
177.826427592076
 21
-133.671179655368
  0
LINE
  5
151
100
AcDbEntity
  8
0
  6
CONTINUOUS
 62
           2
100
AcDbLine
 10
175.679003110471
 20
-133.708923422449
 11
175.888817164922
 21
-133.735629916827
  0
LINE
  5
150
100
AcDbEntity
  8
0
  6
CONTINUOUS
 62
           2
100
AcDbLine
 10
175.888817164922
 20
-133.735629916827
 11
175.962610729172
 21
-133.814928883288
  0
LINE
  5
14F
100
AcDbEntity
  8
0
  6
CONTINUOUS
 62
           2
100
AcDbLine
 10
175.962610729172
 20
-133.814928883288
 11
175.960546203342
 21
-133.872338582304
  0
LINE
  5
14E
100
AcDbEntity
  8
0
  6
CONTINUOUS
 62
           2
100
AcDbLine
 10
175.960546203342
 20
-133.872338582304
 11
175.952976275302
 21
-134.082840812032
  0
LINE
  5
14D
100
AcDbEntity
  8
0
  6
CONTINUOUS
 62
           2
100
AcDbLine
 10
175.952976275302
 20
-134.082840812032
 11
175.950223574198
 21
-134.159387077387
  0
LINE
  5
14C
100
AcDbEntity
  8
0
  6
CONTINUOUS
 62
           2
100
AcDbLine
 10
175.950223574198
 20
-134.159387077387
 11
175.966607439431
 21
-134.236621518019
  0
LINE
  5
14B
100
AcDbEntity
  8
0
  6
CONTINUOUS
 62
           2
100
AcDbLine
 10
175.966607439431
 20
-134.236621518019
 11
175.961790212496
 21
-134.37057748239
  0
LINE
  5
14A
100
AcDbEntity
  8
0
  6
CONTINUOUS
 62
           2
100
AcDbLine
 10
175.961790212496
 20
-134.37057748239
 11
175.950779408074
 21
-134.676762543811
  0
LINE
  5
149
100
AcDbEntity
  8
0
  6
CONTINUOUS
 62
           2
100
AcDbLine
 10
175.950779408074
 20
-134.676762543811
 11
175.967163273307
 21
-134.753996984442
  0
LINE
  5
148
100
AcDbEntity
  8
0
  6
CONTINUOUS
 62
           2
100
AcDbLine
 10
175.967163273307
 20
-134.753996984442
 11
175.956152468886
 21
-135.060182045864
  0
LINE
  5
147
100
AcDbEntity
  8
0
  6
CONTINUOUS
 62
           2
100
AcDbLine
 10
175.956152468886
 20
-135.060182045864
 11
175.952711592504
 21
-135.155864877558
  0
LINE
  5
146
100
AcDbEntity
  8
0
  6
CONTINUOUS
 62
           2
100
AcDbLine
 10
175.952711592504
 20
-135.155864877558
 11
175.889796491277
 21
-135.306892882438
  0
LINE
  5
145
100
AcDbEntity
  8
0
  6
CONTINUOUS
 62
           2
100
AcDbLine
 10
175.889796491277
 20
-135.306892882438
 11
175.716191043674
 21
-135.33897243763
  0
LINE
  5
144
100
AcDbEntity
  8
0
  6
CONTINUOUS
 62
           2
100
AcDbLine
 10
175.716191043674
 20
-135.33897243763
 11
175.714126517846
 21
-135.396382136647
  0
LINE
  5
143
100
AcDbEntity
  8
0
  6
CONTINUOUS
 62
           2
100
AcDbLine
 10
175.714126517846
 20
-135.396382136647
 11
176.402354730767
 21
-135.440293012934
  0
LINE
  5
142
100
AcDbEntity
  8
0
  6
CONTINUOUS
 62
           2
100
AcDbLine
 10
176.402354730767
 20
-135.440293012934
 11
177.20746686755
 21
-135.430923241863
  0
LINE
  5
141
100
AcDbEntity
  8
0
  6
CONTINUOUS
 62
           2
100
AcDbLine
 10
177.20746686755
 20
-135.430923241863
 11
177.325038966687
 21
-135.358506028166
  0
LINE
  5
140
100
AcDbEntity
  8
0
  6
CONTINUOUS
 62
           2
100
AcDbLine
 10
177.325038966687
 20
-135.358506028166
 11
177.495335879307
 21
-134.885597271907
  0
LINE
  5
13F
100
AcDbEntity
  8
0
  6
CONTINUOUS
 62
           2
100
AcDbLine
 10
177.495335879307
 20
-134.885597271907
 11
177.438614355567
 21
-134.864396179739
  0
LINE
  5
13E
100
AcDbEntity
  8
0
  6
CONTINUOUS
 62
           2
100
AcDbLine
 10
177.438614355567
 20
-134.864396179739
 11
177.258127155202
 21
-135.087841398318
  0
LINE
  5
13D
100
AcDbEntity
  8
0
  6
CONTINUOUS
 62
           2
100
AcDbLine
 10
177.258127155202
 20
-135.087841398318
 11
176.984021648971
 21
-135.250436041498
  0
LINE
  5
13C
100
AcDbEntity
  8
0
  6
CONTINUOUS
 62
           2
100
AcDbLine
 10
176.984021648971
 20
-135.250436041498
 11
176.753006502352
 21
-135.280451070859
  0
LINE
  5
13B
100
AcDbEntity
  8
0
  6
CONTINUOUS
 62
           2
100
AcDbLine
 10
176.753006502352
 20
-135.280451070859
 11
176.29372891022
 21
-135.263934864227
  0
LINE
  5
13A
100
AcDbEntity
  8
0
  6
CONTINUOUS
 62
           2
100
AcDbLine
 10
176.29372891022
 20
-135.263934864227
 11
176.219935345972
 21
-135.184635897766
  0
LINE
  5
139
100
AcDbEntity
  8
0
  6
CONTINUOUS
 62
           2
100
AcDbLine
 10
176.219935345972
 20
-135.184635897766
 11
176.19198484244
 21
-134.89621105213
  0
LINE
  5
138
100
AcDbEntity
  8
0
  6
CONTINUOUS
 62
           2
100
AcDbLine
 10
176.19198484244
 20
-134.89621105213
 11
176.196802069374
 21
-134.762255087759
  0
LINE
  5
137
100
AcDbEntity
  8
0
  6
CONTINUOUS
 62
           2
100
AcDbLine
 10
176.196802069374
 20
-134.762255087759
 11
176.185923606351
 21
-134.531928116417
  0
LINE
  5
136
100
AcDbEntity
  8
0
  6
CONTINUOUS
 62
           2
100
AcDbLine
 10
176.185923606351
 20
-134.531928116417
 11
176.224884914304
 21
-134.51416790063
  0
LINE
  5
135
100
AcDbEntity
  8
0
  6
CONTINUOUS
 62
           2
100
AcDbLine
 10
176.224884914304
 20
-134.51416790063
 11
176.492796843048
 21
-134.5238023545
  0
LINE
  5
134
100
AcDbEntity
  8
0
  6
CONTINUOUS
 62
           2
100
AcDbLine
 10
176.492796843048
 20
-134.5238023545
 11
176.68140980533
 21
-134.60723037262
  0
LINE
  5
133
100
AcDbEntity
  8
0
  6
CONTINUOUS
 62
           2
100
AcDbLine
 10
176.68140980533
 20
-134.60723037262
 11
176.754515194304
 21
-134.705665905418
  0
LINE
  5
132
100
AcDbEntity
  8
0
  6
CONTINUOUS
 62
           2
100
AcDbLine
 10
176.754515194304
 20
-134.705665905418
 11
176.753138843752
 21
-134.743939038097
  0
LINE
  5
131
100
AcDbEntity
  8
0
  6
CONTINUOUS
 62
           2
100
AcDbLine
 10
176.753138843752
 20
-134.743939038097
 11
176.808484016939
 21
-134.803413262941
  0
LINE
  5
130
100
AcDbEntity
  8
0
  6
CONTINUOUS
 62
           2
100
AcDbLine
 10
176.808484016939
 20
-134.803413262941
 11
176.82899693383
 21
-134.76582830554
  0
LINE
  5
12F
100
AcDbEntity
  8
0
  6
CONTINUOUS
 62
           2
100
AcDbLine
 10
176.82899693383
 20
-134.76582830554
 11
176.830373284384
 21
-134.727555172863
  0
LINE
  5
12E
100
AcDbEntity
  8
0
  6
CONTINUOUS
 62
           2
100
AcDbLine
 10
176.830373284384
 20
-134.727555172863
 11
176.831749634936
 21
-134.689282040185
  0
LINE
  5
12D
100
AcDbEntity
  8
0
  6
CONTINUOUS
 62
           2
100
AcDbLine
 10
176.831749634936
 20
-134.689282040185
 11
176.84620131574
 21
-134.28741414707
  0
LINE
  5
12C
100
AcDbEntity
  8
0
  6
CONTINUOUS
 62
           2
100
AcDbLine
 10
176.84620131574
 20
-134.28741414707
 11
176.795673369487
 21
-134.093983957853
  0
LINE
  5
12B
100
AcDbEntity
  8
0
  6
CONTINUOUS
 62
           2
100
AcDbLine
 10
176.795673369487
 20
-134.093983957853
 11
176.756023886256
 21
-134.130880739978
  0
LINE
  5
12A
100
AcDbEntity
  8
0
  6
CONTINUOUS
 62
           2
100
AcDbLine
 10
176.756023886256
 20
-134.130880739978
 11
176.753271185152
 21
-134.207427005332
  0
LINE
  5
129
100
AcDbEntity
  8
0
  6
CONTINUOUS
 62
           2
100
AcDbLine
 10
176.753271185152
 20
-134.207427005332
 11
176.691732434477
 21
-134.320181877537
  0
LINE
  5
128
100
AcDbEntity
  8
0
  6
CONTINUOUS
 62
           2
100
AcDbLine
 10
176.691732434477
 20
-134.320181877537
 11
176.517438811598
 21
-134.371397999066
  0
LINE
  5
127
100
AcDbEntity
  8
0
  6
CONTINUOUS
 62
           2
100
AcDbLine
 10
176.517438811598
 20
-134.371397999066
 11
176.229013965963
 21
-134.399348502598
  0
LINE
  5
126
100
AcDbEntity
  8
0
  6
CONTINUOUS
 62
           2
100
AcDbLine
 10
176.229013965963
 20
-134.399348502598
 11
176.174356968052
 21
-134.320737711413
  0
LINE
  5
125
100
AcDbEntity
  8
0
  6
CONTINUOUS
 62
           2
100
AcDbLine
 10
176.174356968052
 20
-134.320737711413
 11
176.17642149388
 21
-134.263328012397
  0
LINE
  5
124
100
AcDbEntity
  8
0
  6
CONTINUOUS
 62
           2
100
AcDbLine
 10
176.17642149388
 20
-134.263328012397
 11
176.172424783622
 21
-133.841635377667
  0
LINE
  5
123
100
AcDbEntity
  8
0
  6
CONTINUOUS
 62
           2
100
AcDbLine
 10
176.172424783622
 20
-133.841635377667
 11
176.212074266853
 21
-133.804738595542
  0
LINE
  5
122
100
AcDbEntity
  8
0
  6
CONTINUOUS
 62
           2
100
AcDbLine
 10
176.212074266853
 20
-133.804738595542
 11
176.289996882761
 21
-133.76921816397
  0
LINE
  5
121
100
AcDbEntity
  8
0
  6
CONTINUOUS
 62
           2
100
AcDbLine
 10
176.289996882761
 20
-133.76921816397
 11
176.521700204655
 21
-133.72006656827
  0
LINE
  5
120
100
AcDbEntity
  8
0
  6
CONTINUOUS
 62
           2
100
AcDbLine
 10
176.521700204655
 20
-133.72006656827
 11
176.826508915524
 21
-133.769350505369
  0
LINE
  5
11F
100
AcDbEntity
  8
0
  6
CONTINUOUS
 62
           2
100
AcDbLine
 10
176.826508915524
 20
-133.769350505369
 11
177.054771361037
 21
-133.815881741363
  0
LINE
  5
11E
100
AcDbEntity
  8
0
  6
CONTINUOUS
 62
           2
100
AcDbLine
 10
177.054771361037
 20
-133.815881741363
 11
177.24131979749
 21
-133.956719458498
  0
LINE
  5
11D
100
AcDbEntity
  8
0
  6
CONTINUOUS
 62
           2
100
AcDbLine
 10
177.24131979749
 20
-133.956719458498
 11
177.295976795401
 21
-134.035330249683
  0
LINE
  5
11C
100
AcDbEntity
  8
0
  6
CONTINUOUS
 62
           2
100
AcDbLine
 10
177.295976795401
 20
-134.035330249683
 11
177.389595101266
 21
-134.096180825081
  0
LINE
  5
11B
100
AcDbEntity
  8
0
  6
CONTINUOUS
 62
           2
100
AcDbLine
 10
177.389595101266
 20
-134.096180825081
 11
177.41148436871
 21
-134.020322735002
  0
LINE
  5
11A
100
AcDbEntity
  8
0
  6
CONTINUOUS
 62
           2
100
AcDbLine
 10
177.41148436871
 20
-134.020322735002
 11
177.233882210849
 21
-133.630709655462
  0
LINE
  5
119
100
AcDbEntity
  8
0
  6
CONTINUOUS
 62
           2
100
AcDbLine
 10
177.233882210849
 20
-133.630709655462
 11
176.429458249343
 21
-133.620942860194
  0
LINE
  5
118
100
AcDbEntity
  8
0
  6
CONTINUOUS
 62
           2
100
AcDbLine
 10
176.429458249343
 20
-133.620942860194
 11
175.701580553191
 21
-133.613928766031
  0
LINE
  5
117
100
AcDbEntity
  8
0
  6
CONTINUOUS
 62
           2
100
AcDbLine
 10
175.701580553191
 20
-133.613928766031
 11
175.679003110471
 21
-133.708923422449
  0
LINE
  5
116
100
AcDbEntity
  8
0
  6
CONTINUOUS
 62
           2
100
AcDbLine
 10
173.515882938908
 20
-133.650296182558
 11
173.5363958558
 21
-133.612711225158
  0
LINE
  5
115
100
AcDbEntity
  8
0
  6
CONTINUOUS
 62
           2
100
AcDbLine
 10
173.5363958558
 20
-133.612711225158
 11
174.207552028211
 21
-133.598524227152
  0
LINE
  5
114
100
AcDbEntity
  8
0
  6
CONTINUOUS
 62
           2
100
AcDbLine
 10
174.207552028211
 20
-133.598524227152
 11
174.282721943014
 21
-133.639550060935
  0
LINE
  5
113
100
AcDbEntity
  8
0
  6
CONTINUOUS
 62
           2
100
AcDbLine
 10
174.282721943014
 20
-133.639550060935
 11
174.165149843876
 21
-133.711967274632
  0
LINE
  5
112
100
AcDbEntity
  8
0
  6
CONTINUOUS
 62
           2
100
AcDbLine
 10
174.165149843876
 20
-133.711967274632
 11
174.04895409529
 21
-133.746111355652
  0
LINE
  5
111
100
AcDbEntity
  8
0
  6
CONTINUOUS
 62
           2
100
AcDbLine
 10
174.04895409529
 20
-133.746111355652
 11
174.062585259418
 21
-133.899892061638
  0
LINE
  5
110
100
AcDbEntity
  8
0
  6
CONTINUOUS
 62
           2
100
AcDbLine
 10
174.062585259418
 20
-133.899892061638
 11
174.150009987795
 21
-134.132971734086
  0
LINE
  5
10F
100
AcDbEntity
  8
0
  6
CONTINUOUS
 62
           2
100
AcDbLine
 10
174.150009987795
 20
-134.132971734086
 11
174.518845467645
 21
-135.065978599153
  0
LINE
  5
10E
100
AcDbEntity
  8
0
  6
CONTINUOUS
 62
           2
100
AcDbLine
 10
174.518845467645
 20
-135.065978599153
 11
174.557806775599
 21
-135.048218383367
  0
LINE
  5
10D
100
AcDbEntity
  8
0
  6
CONTINUOUS
 62
           2
100
AcDbLine
 10
174.557806775599
 20
-135.048218383367
 11
174.599520784658
 21
-134.953911902225
  0
LINE
  5
10C
100
AcDbEntity
  8
0
  6
CONTINUOUS
 62
           2
100
AcDbLine
 10
174.599520784658
 20
-134.953911902225
 11
174.805338128851
 21
-134.558925761874
  0
LINE
  5
10B
100
AcDbEntity
  8
0
  6
CONTINUOUS
 62
           2
100
AcDbLine
 10
174.805338128851
 20
-134.558925761874
 11
175.05906305959
 21
-133.897404043332
  0
LINE
  5
10A
100
AcDbEntity
  8
0
  6
CONTINUOUS
 62
           2
100
AcDbLine
 10
175.05906305959
 20
-133.897404043332
 11
175.063192111248
 21
-133.782584645299
  0
LINE
  5
109
100
AcDbEntity
  8
0
  6
CONTINUOUS
 62
           2
100
AcDbLine
 10
175.063192111248
 20
-133.782584645299
 11
174.931988847981
 21
-133.701221153009
  0
LINE
  5
108
100
AcDbEntity
  8
0
  6
CONTINUOUS
 62
           2
100
AcDbLine
 10
174.931988847981
 20
-133.701221153009
 11
174.837682366839
 21
-133.659507143951
  0
LINE
  5
107
100
AcDbEntity
  8
0
  6
CONTINUOUS
 62
           2
100
AcDbLine
 10
174.837682366839
 20
-133.659507143951
 11
174.839058717392
 21
-133.621234011272
  0
LINE
  5
106
100
AcDbEntity
  8
0
  6
CONTINUOUS
 62
           2
100
AcDbLine
 10
174.839058717392
 20
-133.621234011272
 11
175.184893262044
 21
-133.595348033569
  0
LINE
  5
105
100
AcDbEntity
  8
0
  6
CONTINUOUS
 62
           2
100
AcDbLine
 10
175.184893262044
 20
-133.595348033569
 11
175.471941757126
 21
-133.605670662715
  0
LINE
  5
104
100
AcDbEntity
  8
0
  6
CONTINUOUS
 62
           2
100
AcDbLine
 10
175.471941757126
 20
-133.605670662715
 11
175.545735321376
 21
-133.684969629176
  0
LINE
  5
103
100
AcDbEntity
  8
0
  6
CONTINUOUS
 62
           2
100
AcDbLine
 10
175.545735321376
 20
-133.684969629176
 11
175.506085838145
 21
-133.7218664113
  0
LINE
  5
102
100
AcDbEntity
  8
0
  6
CONTINUOUS
 62
           2
100
AcDbLine
 10
175.506085838145
 20
-133.7218664113
 11
175.294207257865
 21
-133.752569615938
  0
LINE
  5
101
100
AcDbEntity
  8
0
  6
CONTINUOUS
 62
           2
100
AcDbLine
 10
175.294207257865
 20
-133.752569615938
 11
175.132168448562
 21
-133.995839576132
  0
LINE
  5
100
100
AcDbEntity
  8
0
  6
CONTINUOUS
 62
           2
100
AcDbLine
 10
175.132168448562
 20
-133.995839576132
 11
174.667808946698
 21
-135.186303399397
  0
LINE
  5
FF
100
AcDbEntity
  8
0
  6
CONTINUOUS
 62
           2
100
AcDbLine
 10
174.667808946698
 20
-135.186303399397
 11
174.564556186963
 21
-135.393364752742
  0
LINE
  5
FE
100
AcDbEntity
  8
0
  6
CONTINUOUS
 62
           2
100
AcDbLine
 10
174.564556186963
 20
-135.393364752742
 11
174.412151831529
 21
-135.368722784193
  0
LINE
  5
FD
100
AcDbEntity
  8
0
  6
CONTINUOUS
 62
           2
100
AcDbLine
 10
174.412151831529
 20
-135.368722784193
 11
174.182645376863
 21
-134.823952648113
  0
LINE
  5
FC
100
AcDbEntity
  8
0
  6
CONTINUOUS
 62
           2
100
AcDbLine
 10
174.182645376863
 20
-134.823952648113
 11
173.919683016454
 21
-134.143850197109
  0
LINE
  5
FB
100
AcDbEntity
  8
0
  6
CONTINUOUS
 62
           2
100
AcDbLine
 10
173.919683016454
 20
-134.143850197109
 11
173.741392683317
 21
-133.773373683908
  0
LINE
  5
FA
100
AcDbEntity
  8
0
  6
CONTINUOUS
 62
           2
100
AcDbLine
 10
173.741392683317
 20
-133.773373683908
 11
173.591052853711
 21
-133.691322016342
  0
LINE
  5
F9
100
AcDbEntity
  8
0
  6
CONTINUOUS
 62
           2
100
AcDbLine
 10
173.591052853711
 20
-133.691322016342
 11
173.515882938908
 21
-133.650296182558
  0
LINE
  5
F8
100
AcDbEntity
  8
0
  6
CONTINUOUS
 62
           2
100
AcDbLine
 10
172.053113452444
 20
-134.364145690384
 11
172.070185492953
 21
-134.422243564676
  0
LINE
  5
F7
100
AcDbEntity
  8
0
  6
CONTINUOUS
 62
           2
100
AcDbLine
 10
172.070185492953
 20
-134.422243564676
 11
172.547911476147
 21
-134.458584512924
  0
LINE
  5
F6
100
AcDbEntity
  8
0
  6
CONTINUOUS
 62
           2
100
AcDbLine
 10
172.547911476147
 20
-134.458584512924
 11
172.778926622766
 21
-134.428569483564
  0
LINE
  5
F5
100
AcDbEntity
  8
0
  6
CONTINUOUS
 62
           2
100
AcDbLine
 10
172.778926622766
 20
-134.428569483564
 11
172.975109513088
 21
-134.301495271956
  0
LINE
  5
F4
100
AcDbEntity
  8
0
  6
CONTINUOUS
 62
           2
100
AcDbLine
 10
172.975109513088
 20
-134.301495271956
 11
173.040777315421
 21
-134.073921001719
  0
LINE
  5
F3
100
AcDbEntity
  8
0
  6
CONTINUOUS
 62
           2
100
AcDbLine
 10
173.040777315421
 20
-134.073921001719
 11
173.023017099634
 21
-134.034959693765
  0
LINE
  5
F2
100
AcDbEntity
  8
0
  6
CONTINUOUS
 62
           2
100
AcDbLine
 10
173.023017099634
 20
-134.034959693765
 11
173.026457976016
 21
-133.93927686207
  0
LINE
  5
F1
100
AcDbEntity
  8
0
  6
CONTINUOUS
 62
           2
100
AcDbLine
 10
173.026457976016
 20
-133.93927686207
 11
172.878870847518
 21
-133.78067892915
  0
LINE
  5
F0
100
AcDbEntity
  8
0
  6
CONTINUOUS
 62
           2
100
AcDbLine
 10
172.878870847518
 20
-133.78067892915
 11
172.689569709958
 21
-133.71638747737
  0
LINE
  5
EF
100
AcDbEntity
  8
0
  6
CONTINUOUS
 62
           2
100
AcDbLine
 10
172.689569709958
 20
-133.71638747737
 11
172.345111515859
 21
-133.704000322394
  0
LINE
  5
EE
100
AcDbEntity
  8
0
  6
CONTINUOUS
 62
           2
100
AcDbLine
 10
172.345111515859
 20
-133.704000322394
 11
172.112720018688
 21
-133.772288484434
  0
LINE
  5
ED
100
AcDbEntity
  8
0
  6
CONTINUOUS
 62
           2
100
AcDbLine
 10
172.112720018688
 20
-133.772288484434
 11
172.052557618565
 21
-133.84677022396
  0
LINE
  5
EC
100
AcDbEntity
  8
0
  6
CONTINUOUS
 62
           2
100
AcDbLine
 10
172.052557618565
 20
-133.84677022396
 11
172.062059731036
 21
-134.115370327979
  0
LINE
  5
EB
100
AcDbEntity
  8
0
  6
CONTINUOUS
 62
           2
100
AcDbLine
 10
172.062059731036
 20
-134.115370327979
 11
172.055866153548
 21
-134.287599425029
  0
LINE
  5
EA
100
AcDbEntity
  8
0
  6
CONTINUOUS
 62
           2
100
AcDbLine
 10
172.055866153548
 20
-134.287599425029
 11
172.053113452444
 21
-134.364145690384
  0
LINE
  5
E9
100
AcDbEntity
  8
0
  6
CONTINUOUS
 62
           2
100
AcDbLine
 10
171.560512295967
 20
-133.675785136064
 11
171.788774741482
 21
-133.722316372058
  0
LINE
  5
E8
100
AcDbEntity
  8
0
  6
CONTINUOUS
 62
           2
100
AcDbLine
 10
171.788774741482
 20
-133.722316372058
 11
171.857062903519
 21
-133.954707869229
  0
LINE
  5
E7
100
AcDbEntity
  8
0
  6
CONTINUOUS
 62
           2
100
AcDbLine
 10
171.857062903519
 20
-133.954707869229
 11
171.850869326033
 21
-134.126936966278
  0
LINE
  5
E6
100
AcDbEntity
  8
0
  6
CONTINUOUS
 62
           2
100
AcDbLine
 10
171.850869326033
 20
-134.126936966278
 11
171.848116624927
 21
-134.203483231633
  0
LINE
  5
E5
100
AcDbEntity
  8
0
  6
CONTINUOUS
 62
           2
100
AcDbLine
 10
171.848116624927
 20
-134.203483231633
 11
171.843987573268
 21
-134.318302629667
  0
LINE
  5
E4
100
AcDbEntity
  8
0
  6
CONTINUOUS
 62
           2
100
AcDbLine
 10
171.843987573268
 20
-134.318302629667
 11
171.833664944124
 21
-134.605351124749
  0
LINE
  5
E3
100
AcDbEntity
  8
0
  6
CONTINUOUS
 62
           2
100
AcDbLine
 10
171.833664944124
 20
-134.605351124749
 11
171.862303622932
 21
-134.874639404045
  0
LINE
  5
E2
100
AcDbEntity
  8
0
  6
CONTINUOUS
 62
           2
100
AcDbLine
 10
171.862303622932
 20
-134.874639404045
 11
171.85886274655
 21
-134.970322235739
  0
LINE
  5
E1
100
AcDbEntity
  8
0
  6
CONTINUOUS
 62
           2
100
AcDbLine
 10
171.85886274655
 20
-134.970322235739
 11
171.849916467957
 21
-135.219097598143
  0
LINE
  5
E0
100
AcDbEntity
  8
0
  6
CONTINUOUS
 62
           2
100
AcDbLine
 10
171.849916467957
 20
-135.219097598143
 11
171.693383060866
 21
-135.309275027627
  0
LINE
  5
DF
100
AcDbEntity
  8
0
  6
CONTINUOUS
 62
           2
100
AcDbLine
 10
171.693383060866
 20
-135.309275027627
 11
171.57718731228
 21
-135.343419108647
  0
LINE
  5
DE
100
AcDbEntity
  8
0
  6
CONTINUOUS
 62
           2
100
AcDbLine
 10
171.57718731228
 20
-135.343419108647
 11
171.575810961726
 21
-135.381692241324
  0
LINE
  5
DD
100
AcDbEntity
  8
0
  6
CONTINUOUS
 62
           2
100
AcDbLine
 10
171.575810961726
 20
-135.381692241324
 11
172.34127361528
 21
-135.409219252377
  0
LINE
  5
DC
100
AcDbEntity
  8
0
  6
CONTINUOUS
 62
           2
100
AcDbLine
 10
172.34127361528
 20
-135.409219252377
 11
172.363851057999
 21
-135.31422459596
  0
LINE
  5
DB
100
AcDbEntity
  8
0
  6
CONTINUOUS
 62
           2
100
AcDbLine
 10
172.363851057999
 20
-135.31422459596
 11
172.135588612486
 21
-135.267693359967
  0
LINE
  5
DA
100
AcDbEntity
  8
0
  6
CONTINUOUS
 62
           2
100
AcDbLine
 10
172.135588612486
 20
-135.267693359967
 11
172.06317139879
 21
-135.150121260829
  0
LINE
  5
D9
100
AcDbEntity
  8
0
  6
CONTINUOUS
 62
           2
100
AcDbLine
 10
172.06317139879
 20
-135.150121260829
 11
172.05366928632
 21
-134.881521156807
  0
LINE
  5
D8
100
AcDbEntity
  8
0
  6
CONTINUOUS
 62
           2
100
AcDbLine
 10
172.05366928632
 20
-134.881521156807
 11
172.060551039084
 21
-134.690155493421
  0
LINE
  5
D7
100
AcDbEntity
  8
0
  6
CONTINUOUS
 62
           2
100
AcDbLine
 10
172.060551039084
 20
-134.690155493421
 11
172.044167173851
 21
-134.612921052788
  0
LINE
  5
D6
100
AcDbEntity
  8
0
  6
CONTINUOUS
 62
           2
100
AcDbLine
 10
172.044167173851
 20
-134.612921052788
 11
172.08381665708
 21
-134.576024270664
  0
LINE
  5
D5
100
AcDbEntity
  8
0
  6
CONTINUOUS
 62
           2
100
AcDbLine
 10
172.08381665708
 20
-134.576024270664
 11
172.485684550195
 21
-134.590475951467
  0
LINE
  5
D4
100
AcDbEntity
  8
0
  6
CONTINUOUS
 62
           2
100
AcDbLine
 10
172.485684550195
 20
-134.590475951467
 11
172.689993202436
 21
-134.770274976557
  0
LINE
  5
D3
100
AcDbEntity
  8
0
  6
CONTINUOUS
 62
           2
100
AcDbLine
 10
172.689993202436
 20
-134.770274976557
 11
172.798619022981
 21
-134.946633125264
  0
LINE
  5
D2
100
AcDbEntity
  8
0
  6
CONTINUOUS
 62
           2
100
AcDbLine
 10
172.798619022981
 20
-134.946633125264
 11
172.872412587231
 21
-135.025932091725
  0
LINE
  5
D1
100
AcDbEntity
  8
0
  6
CONTINUOUS
 62
           2
100
AcDbLine
 10
172.872412587231
 20
-135.025932091725
 11
173.034319055135
 21
-135.319174164294
  0
LINE
  5
D0
100
AcDbEntity
  8
0
  6
CONTINUOUS
 62
           2
100
AcDbLine
 10
173.034319055135
 20
-135.319174164294
 11
173.089664228321
 21
-135.37864838914
  0
LINE
  5
CF
100
AcDbEntity
  8
0
  6
CONTINUOUS
 62
           2
100
AcDbLine
 10
173.089664228321
 20
-135.37864838914
 11
173.491532121437
 21
-135.393100069943
  0
LINE
  5
CE
100
AcDbEntity
  8
0
  6
CONTINUOUS
 62
           2
100
AcDbLine
 10
173.491532121437
 20
-135.393100069943
 11
173.513421388882
 21
-135.317241979864
  0
LINE
  5
CD
100
AcDbEntity
  8
0
  6
CONTINUOUS
 62
           2
100
AcDbLine
 10
173.513421388882
 20
-135.317241979864
 11
173.286535293922
 21
-135.232437611193
  0
LINE
  5
CC
100
AcDbEntity
  8
0
  6
CONTINUOUS
 62
           2
100
AcDbLine
 10
173.286535293922
 20
-135.232437611193
 11
172.884111566928
 21
-134.700610463965
  0
LINE
  5
CB
100
AcDbEntity
  8
0
  6
CONTINUOUS
 62
           2
100
AcDbLine
 10
172.884111566928
 20
-134.700610463965
 11
172.829454569018
 21
-134.621999672781
  0
LINE
  5
CA
100
AcDbEntity
  8
0
  6
CONTINUOUS
 62
           2
100
AcDbLine
 10
172.829454569018
 20
-134.621999672781
 11
172.813070703784
 21
-134.544765232149
  0
LINE
  5
C9
100
AcDbEntity
  8
0
  6
CONTINUOUS
 62
           2
100
AcDbLine
 10
172.813070703784
 20
-134.544765232149
 11
172.949091193986
 21
-134.492172760067
  0
LINE
  5
C8
100
AcDbEntity
  8
0
  6
CONTINUOUS
 62
           2
100
AcDbLine
 10
172.949091193986
 20
-134.492172760067
 11
173.165098825923
 21
-134.346650157396
  0
LINE
  5
C7
100
AcDbEntity
  8
0
  6
CONTINUOUS
 62
           2
100
AcDbLine
 10
173.165098825923
 20
-134.346650157396
 11
173.249903194595
 21
-134.119764062436
  0
LINE
  5
C6
100
AcDbEntity
  8
0
  6
CONTINUOUS
 62
           2
100
AcDbLine
 10
173.249903194595
 20
-134.119764062436
 11
173.255408596807
 21
-133.966671531726
  0
LINE
  5
C5
100
AcDbEntity
  8
0
  6
CONTINUOUS
 62
           2
100
AcDbLine
 10
173.255408596807
 20
-133.966671531726
 11
173.148159126812
 21
-133.752040250341
  0
LINE
  5
C4
100
AcDbEntity
  8
0
  6
CONTINUOUS
 62
           2
100
AcDbLine
 10
173.148159126812
 20
-133.752040250341
 11
172.979370906146
 21
-133.65016384116
  0
LINE
  5
C3
100
AcDbEntity
  8
0
  6
CONTINUOUS
 62
           2
100
AcDbLine
 10
172.979370906146
 20
-133.65016384116
 11
172.712835327954
 21
-133.602256254613
  0
LINE
  5
C2
100
AcDbEntity
  8
0
  6
CONTINUOUS
 62
           2
100
AcDbLine
 10
172.712835327954
 20
-133.602256254613
 11
172.061503897158
 21
-133.597994861555
  0
LINE
  5
C1
100
AcDbEntity
  8
0
  6
CONTINUOUS
 62
           2
100
AcDbLine
 10
172.061503897158
 20
-133.597994861555
 11
171.67739621983
 21
-133.622504488705
  0
LINE
  5
C0
100
AcDbEntity
  8
0
  6
CONTINUOUS
 62
           2
100
AcDbLine
 10
171.67739621983
 20
-133.622504488705
 11
171.561888646521
 21
-133.637512003386
  0
LINE
  5
BF
100
AcDbEntity
  8
0
  6
CONTINUOUS
 62
           2
100
AcDbLine
 10
171.561888646521
 20
-133.637512003386
 11
171.560512295967
 21
-133.675785136064
  0
LINE
  5
BE
100
AcDbEntity
  8
0
  6
CONTINUOUS
 62
           2
100
AcDbLine
 10
170.30988607258
 20
-133.285907373725
 11
170.353664607469
 21
-133.134191193567
  0
LINE
  5
BD
100
AcDbEntity
  8
0
  6
CONTINUOUS
 62
           2
100
AcDbLine
 10
170.353664607469
 20
-133.134191193567
 11
170.48968509767
 21
-133.081598721486
  0
LINE
  5
BC
100
AcDbEntity
  8
0
  6
CONTINUOUS
 62
           2
100
AcDbLine
 10
170.48968509767
 20
-133.081598721486
 11
170.60312814515
 21
-133.12400090582
  0
LINE
  5
BB
100
AcDbEntity
  8
0
  6
CONTINUOUS
 62
           2
100
AcDbLine
 10
170.60312814515
 20
-133.12400090582
 11
170.656408792508
 21
-133.240884829683
  0
LINE
  5
BA
100
AcDbEntity
  8
0
  6
CONTINUOUS
 62
           2
100
AcDbLine
 10
170.656408792508
 20
-133.240884829683
 11
170.574357124941
 21
-133.391224659288
  0
LINE
  5
B9
100
AcDbEntity
  8
0
  6
CONTINUOUS
 62
           2
100
AcDbLine
 10
170.574357124941
 20
-133.391224659288
 11
170.364543070492
 21
-133.36451816491
  0
LINE
  5
B8
100
AcDbEntity
  8
0
  6
CONTINUOUS
 62
           2
100
AcDbLine
 10
170.364543070492
 20
-133.36451816491
 11
170.30988607258
 21
-133.285907373725
  0
LINE
  5
B7
100
AcDbEntity
  8
0
  6
CONTINUOUS
 62
           2
100
AcDbLine
 10
169.908706354742
 20
-133.252319126583
 11
169.990758022307
 21
-133.101979296978
  0
LINE
  5
B6
100
AcDbEntity
  8
0
  6
CONTINUOUS
 62
           2
100
AcDbLine
 10
169.990758022307
 20
-133.101979296978
 11
170.12471398668
 21
-133.106796523912
  0
LINE
  5
B5
100
AcDbEntity
  8
0
  6
CONTINUOUS
 62
           2
100
AcDbLine
 10
170.12471398668
 20
-133.106796523912
 11
170.197131200376
 21
-133.224368623051
  0
LINE
  5
B4
100
AcDbEntity
  8
0
  6
CONTINUOUS
 62
           2
100
AcDbLine
 10
170.197131200376
 20
-133.224368623051
 11
170.17386558238
 21
-133.338499845807
  0
LINE
  5
B3
100
AcDbEntity
  8
0
  6
CONTINUOUS
 62
           2
100
AcDbLine
 10
170.17386558238
 20
-133.338499845807
 11
170.037845092179
 21
-133.391092317889
  0
LINE
  5
B2
100
AcDbEntity
  8
0
  6
CONTINUOUS
 62
           2
100
AcDbLine
 10
170.037845092179
 20
-133.391092317889
 11
169.944226786313
 21
-133.330241742491
  0
LINE
  5
B1
100
AcDbEntity
  8
0
  6
CONTINUOUS
 62
           2
100
AcDbLine
 10
169.944226786313
 20
-133.330241742491
 11
169.908706354742
 21
-133.252319126583
  0
LINE
  5
B0
100
AcDbEntity
  8
0
  6
CONTINUOUS
 62
           2
100
AcDbLine
 10
169.300332942158
 20
-133.651990152469
 11
169.340670600665
 21
-133.595956804006
  0
LINE
  5
AF
100
AcDbEntity
  8
0
  6
CONTINUOUS
 62
           2
100
AcDbLine
 10
169.340670600665
 20
-133.595956804006
 11
169.512899697714
 21
-133.602150381493
  0
LINE
  5
AE
100
AcDbEntity
  8
0
  6
CONTINUOUS
 62
           2
100
AcDbLine
 10
169.512899697714
 20
-133.602150381493
 11
169.974241815676
 21
-133.56125688911
  0
LINE
  5
AD
100
AcDbEntity
  8
0
  6
CONTINUOUS
 62
           2
100
AcDbLine
 10
169.974241815676
 20
-133.56125688911
 11
170.068548296816
 21
-133.60297089817
  0
LINE
  5
AC
100
AcDbEntity
  8
0
  6
CONTINUOUS
 62
           2
100
AcDbLine
 10
170.068548296816
 20
-133.60297089817
 11
170.007697721419
 21
-133.696589204034
  0
LINE
  5
AB
100
AcDbEntity
  8
0
  6
CONTINUOUS
 62
           2
100
AcDbLine
 10
170.007697721419
 20
-133.696589204034
 11
169.892190148109
 21
-133.711596718714
  0
LINE
  5
AA
100
AcDbEntity
  8
0
  6
CONTINUOUS
 62
           2
100
AcDbLine
 10
169.892190148109
 20
-133.711596718714
 11
169.83340409854
 21
-133.747805325564
  0
LINE
  5
A9
100
AcDbEntity
  8
0
  6
CONTINUOUS
 62
           2
100
AcDbLine
 10
169.83340409854
 20
-133.747805325564
 11
169.788249213098
 21
-133.937794638399
  0
LINE
  5
A8
100
AcDbEntity
  8
0
  6
CONTINUOUS
 62
           2
100
AcDbLine
 10
169.788249213098
 20
-133.937794638399
 11
169.806697604162
 21
-133.957619380013
  0
LINE
  5
A7
100
AcDbEntity
  8
0
  6
CONTINUOUS
 62
           2
100
AcDbLine
 10
169.806697604162
 20
-133.957619380013
 11
169.815511541355
 21
-134.245356050372
  0
LINE
  5
A6
100
AcDbEntity
  8
0
  6
CONTINUOUS
 62
           2
100
AcDbLine
 10
169.815511541355
 20
-134.245356050372
 11
169.810006139144
 21
-134.398448581083
  0
LINE
  5
A5
100
AcDbEntity
  8
0
  6
CONTINUOUS
 62
           2
100
AcDbLine
 10
169.810006139144
 20
-134.398448581083
 11
169.814691024679
 21
-134.801004649474
  0
LINE
  5
A4
100
AcDbEntity
  8
0
  6
CONTINUOUS
 62
           2
100
AcDbLine
 10
169.814691024679
 20
-134.801004649474
 11
169.811938323573
 21
-134.87755091483
  0
LINE
  5
A3
100
AcDbEntity
  8
0
  6
CONTINUOUS
 62
           2
100
AcDbLine
 10
169.811938323573
 20
-134.87755091483
 11
169.826257662978
 21
-135.012195054478
  0
LINE
  5
A2
100
AcDbEntity
  8
0
  6
CONTINUOUS
 62
           2
100
AcDbLine
 10
169.826257662978
 20
-135.012195054478
 11
169.897298526122
 21
-135.168040286293
  0
LINE
  5
A1
100
AcDbEntity
  8
0
  6
CONTINUOUS
 62
           2
100
AcDbLine
 10
169.897298526122
 20
-135.168040286293
 11
170.085223313129
 21
-135.270604870751
  0
LINE
  5
A0
100
AcDbEntity
  8
0
  6
CONTINUOUS
 62
           2
100
AcDbLine
 10
170.085223313129
 20
-135.270604870751
 11
170.582774037938
 21
-135.288497427936
  0
LINE
  5
9F
100
AcDbEntity
  8
0
  6
CONTINUOUS
 62
           2
100
AcDbLine
 10
170.582774037938
 20
-135.288497427936
 11
170.817230060938
 21
-135.162799566881
  0
LINE
  5
9E
100
AcDbEntity
  8
0
  6
CONTINUOUS
 62
           2
100
AcDbLine
 10
170.817230060938
 20
-135.162799566881
 11
170.902034429609
 21
-134.935913471922
  0
LINE
  5
9D
100
AcDbEntity
  8
0
  6
CONTINUOUS
 62
           2
100
AcDbLine
 10
170.902034429609
 20
-134.935913471922
 11
170.905475305991
 21
-134.840230640227
  0
LINE
  5
9C
100
AcDbEntity
  8
0
  6
CONTINUOUS
 62
           2
100
AcDbLine
 10
170.905475305991
 20
-134.840230640227
 11
170.896661368798
 21
-134.552493969868
  0
LINE
  5
9B
100
AcDbEntity
  8
0
  6
CONTINUOUS
 62
           2
100
AcDbLine
 10
170.896661368798
 20
-134.552493969868
 11
170.899414069902
 21
-134.475947704514
  0
LINE
  5
9A
100
AcDbEntity
  8
0
  6
CONTINUOUS
 62
           2
100
AcDbLine
 10
170.899414069902
 20
-134.475947704514
 11
170.867466856112
 21
-133.765830224147
  0
LINE
  5
99
100
AcDbEntity
  8
0
  6
CONTINUOUS
 62
           2
100
AcDbLine
 10
170.867466856112
 20
-133.765830224147
 11
170.774536725524
 21
-133.685843082411
  0
LINE
  5
98
100
AcDbEntity
  8
0
  6
CONTINUOUS
 62
           2
100
AcDbLine
 10
170.774536725524
 20
-133.685843082411
 11
170.641957111705
 21
-133.642752722798
  0
LINE
  5
97
100
AcDbEntity
  8
0
  6
CONTINUOUS
 62
           2
100
AcDbLine
 10
170.641957111705
 20
-133.642752722798
 11
170.623508720641
 21
-133.622927981184
  0
LINE
  5
96
100
AcDbEntity
  8
0
  6
CONTINUOUS
 62
           2
100
AcDbLine
 10
170.623508720641
 20
-133.622927981184
 11
170.643333462257
 21
-133.604479590121
  0
LINE
  5
95
100
AcDbEntity
  8
0
  6
CONTINUOUS
 62
           2
100
AcDbLine
 10
170.643333462257
 20
-133.604479590121
 11
171.274840151437
 21
-133.627189374241
  0
LINE
  5
94
100
AcDbEntity
  8
0
  6
CONTINUOUS
 62
           2
100
AcDbLine
 10
171.274840151437
 20
-133.627189374241
 11
171.252950883993
 21
-133.703047464319
  0
LINE
  5
93
100
AcDbEntity
  8
0
  6
CONTINUOUS
 62
           2
100
AcDbLine
 10
171.252950883993
 20
-133.703047464319
 11
171.099170178007
 21
-133.716678628448
  0
LINE
  5
92
100
AcDbEntity
  8
0
  6
CONTINUOUS
 62
           2
100
AcDbLine
 10
171.099170178007
 20
-133.716678628448
 11
171.01918303627
 21
-133.809608759035
  0
LINE
  5
91
100
AcDbEntity
  8
0
  6
CONTINUOUS
 62
           2
100
AcDbLine
 10
171.01918303627
 20
-133.809608759035
 11
171.037631427332
 21
-133.829433500652
  0
LINE
  5
90
100
AcDbEntity
  8
0
  6
CONTINUOUS
 62
           2
100
AcDbLine
 10
171.037631427332
 20
-133.829433500652
 11
170.997981944102
 21
-133.866330282777
  0
LINE
  5
8F
100
AcDbEntity
  8
0
  6
CONTINUOUS
 62
           2
100
AcDbLine
 10
170.997981944102
 20
-133.866330282777
 11
171.01161310823
 21
-134.020110988763
  0
LINE
  5
8E
100
AcDbEntity
  8
0
  6
CONTINUOUS
 62
           2
100
AcDbLine
 10
171.01161310823
 20
-134.020110988763
 11
171.033370034275
 21
-134.480764931447
  0
LINE
  5
8D
100
AcDbEntity
  8
0
  6
CONTINUOUS
 62
           2
100
AcDbLine
 10
171.033370034275
 20
-134.480764931447
 11
171.028552807341
 21
-134.614720895819
  0
LINE
  5
8C
100
AcDbEntity
  8
0
  6
CONTINUOUS
 62
           2
100
AcDbLine
 10
171.028552807341
 20
-134.614720895819
 11
170.992211859092
 21
-135.092446879012
  0
LINE
  5
8B
100
AcDbEntity
  8
0
  6
CONTINUOUS
 62
           2
100
AcDbLine
 10
170.992211859092
 20
-135.092446879012
 11
170.949809674757
 21
-135.205889926494
  0
LINE
  5
8A
100
AcDbEntity
  8
0
  6
CONTINUOUS
 62
           2
100
AcDbLine
 10
170.949809674757
 20
-135.205889926494
 11
170.77138700022
 21
-135.371925446055
  0
LINE
  5
89
100
AcDbEntity
  8
0
  6
CONTINUOUS
 62
           2
100
AcDbLine
 10
170.77138700022
 20
-135.371925446055
 11
170.539683678325
 21
-135.421077041755
  0
LINE
  5
88
100
AcDbEntity
  8
0
  6
CONTINUOUS
 62
           2
100
AcDbLine
 10
170.539683678325
 20
-135.421077041755
 11
170.366766406
 21
-135.434020030607
  0
LINE
  5
87
100
AcDbEntity
  8
0
  6
CONTINUOUS
 62
           2
100
AcDbLine
 10
170.366766406
 20
-135.434020030607
 11
170.156264176273
 21
-135.426450102567
  0
LINE
  5
86
100
AcDbEntity
  8
0
  6
CONTINUOUS
 62
           2
100
AcDbLine
 10
170.156264176273
 20
-135.426450102567
 11
169.909553339697
 21
-135.360094124958
  0
LINE
  5
85
100
AcDbEntity
  8
0
  6
CONTINUOUS
 62
           2
100
AcDbLine
 10
169.909553339697
 20
-135.360094124958
 11
169.759213510092
 21
-135.278042457392
  0
LINE
  5
84
100
AcDbEntity
  8
0
  6
CONTINUOUS
 62
           2
100
AcDbLine
 10
169.759213510092
 20
-135.278042457392
 11
169.630762947931
 21
-135.120132699746
  0
LINE
  5
83
100
AcDbEntity
  8
0
  6
CONTINUOUS
 62
           2
100
AcDbLine
 10
169.630762947931
 20
-135.120132699746
 11
169.578858651125
 21
-134.964975643208
  0
LINE
  5
82
100
AcDbEntity
  8
0
  6
CONTINUOUS
 62
           2
100
AcDbLine
 10
169.578858651125
 20
-134.964975643208
 11
169.54566742818
 21
-133.756619262757
  0
LINE
  5
81
100
AcDbEntity
  8
0
  6
CONTINUOUS
 62
           2
100
AcDbLine
 10
169.54566742818
 20
-133.756619262757
 11
169.395327598576
 21
-133.67456759519
  0
LINE
  5
80
100
AcDbEntity
  8
0
  6
CONTINUOUS
 62
           2
100
AcDbLine
 10
169.395327598576
 20
-133.67456759519
 11
169.300332942158
 21
-133.651990152469
  0
LINE
  5
7F
100
AcDbEntity
  8
0
  6
CONTINUOUS
 62
           2
100
AcDbLine
 10
167.351023535305
 20
-134.041762041689
 11
167.388608492706
 21
-134.062274958581
  0
LINE
  5
7E
100
AcDbEntity
  8
0
  6
CONTINUOUS
 62
           2
100
AcDbLine
 10
167.388608492706
 20
-134.062274958581
 11
167.509621468226
 21
-133.894174913189
  0
LINE
  5
7D
100
AcDbEntity
  8
0
  6
CONTINUOUS
 62
           2
100
AcDbLine
 10
167.509621468226
 20
-133.894174913189
 11
167.764590408119
 21
-133.730892094731
  0
LINE
  5
7C
100
AcDbEntity
  8
0
  6
CONTINUOUS
 62
           2
100
AcDbLine
 10
167.764590408119
 20
-133.730892094731
 11
168.07077546954
 21
-133.741902899154
  0
LINE
  5
7B
100
AcDbEntity
  8
0
  6
CONTINUOUS
 62
           2
100
AcDbLine
 10
168.07077546954
 20
-133.741902899154
 11
168.123367941621
 21
-133.877923389356
  0
LINE
  5
7A
100
AcDbEntity
  8
0
  6
CONTINUOUS
 62
           2
100
AcDbLine
 10
168.123367941621
 20
-133.877923389356
 11
168.11992706524
 21
-133.973606221049
  0
LINE
  5
79
100
AcDbEntity
  8
0
  6
CONTINUOUS
 62
           2
100
AcDbLine
 10
168.11992706524
 20
-133.973606221049
 11
168.123235600223
 21
-134.414435422118
  0
LINE
  5
78
100
AcDbEntity
  8
0
  6
CONTINUOUS
 62
           2
100
AcDbLine
 10
168.123235600223
 20
-134.414435422118
 11
168.117730198011
 21
-134.567527952828
  0
LINE
  5
77
100
AcDbEntity
  8
0
  6
CONTINUOUS
 62
           2
100
AcDbLine
 10
168.117730198011
 20
-134.567527952828
 11
168.127920485757
 21
-134.81699149051
  0
LINE
  5
76
100
AcDbEntity
  8
0
  6
CONTINUOUS
 62
           2
100
AcDbLine
 10
168.127920485757
 20
-134.81699149051
 11
168.119662382441
 21
-135.046630286576
  0
LINE
  5
75
100
AcDbEntity
  8
0
  6
CONTINUOUS
 62
           2
100
AcDbLine
 10
168.119662382441
 20
-135.046630286576
 11
168.113468804954
 21
-135.218859383625
  0
LINE
  5
74
100
AcDbEntity
  8
0
  6
CONTINUOUS
 62
           2
100
AcDbLine
 10
168.113468804954
 20
-135.218859383625
 11
167.956247222585
 21
-135.328173379447
  0
LINE
  5
73
100
AcDbEntity
  8
0
  6
CONTINUOUS
 62
           2
100
AcDbLine
 10
167.956247222585
 20
-135.328173379447
 11
167.859876215615
 21
-135.343869069404
  0
LINE
  5
72
100
AcDbEntity
  8
0
  6
CONTINUOUS
 62
           2
100
AcDbLine
 10
167.859876215615
 20
-135.343869069404
 11
167.840051474
 21
-135.362317460467
  0
LINE
  5
71
100
AcDbEntity
  8
0
  6
CONTINUOUS
 62
           2
100
AcDbLine
 10
167.840051474
 20
-135.362317460467
 11
167.876948256125
 21
-135.401966943697
  0
LINE
  5
70
100
AcDbEntity
  8
0
  6
CONTINUOUS
 62
           2
100
AcDbLine
 10
167.876948256125
 20
-135.401966943697
 11
168.64378726023
 21
-135.391220822074
  0
LINE
  5
6F
100
AcDbEntity
  8
0
  6
CONTINUOUS
 62
           2
100
AcDbLine
 10
168.64378726023
 20
-135.391220822074
 11
168.665676527674
 21
-135.315362731995
  0
LINE
  5
6E
100
AcDbEntity
  8
0
  6
CONTINUOUS
 62
           2
100
AcDbLine
 10
168.665676527674
 20
-135.315362731995
 11
168.609643179211
 21
-135.275025073487
  0
LINE
  5
6D
100
AcDbEntity
  8
0
  6
CONTINUOUS
 62
           2
100
AcDbLine
 10
168.609643179211
 20
-135.275025073487
 11
168.418277515822
 21
-135.268143320724
  0
LINE
  5
6C
100
AcDbEntity
  8
0
  6
CONTINUOUS
 62
           2
100
AcDbLine
 10
168.418277515822
 20
-135.268143320724
 11
168.365685043741
 21
-135.132122830524
  0
LINE
  5
6B
100
AcDbEntity
  8
0
  6
CONTINUOUS
 62
           2
100
AcDbLine
 10
168.365685043741
 20
-135.132122830524
 11
168.355494755994
 21
-134.882659292841
  0
LINE
  5
6A
100
AcDbEntity
  8
0
  6
CONTINUOUS
 62
           2
100
AcDbLine
 10
168.355494755994
 20
-134.882659292841
 11
168.358935632376
 21
-134.786976461148
  0
LINE
  5
69
100
AcDbEntity
  8
0
  6
CONTINUOUS
 62
           2
100
AcDbLine
 10
168.358935632376
 20
-134.786976461148
 11
168.365129209863
 21
-134.614747364099
  0
LINE
  5
68
100
AcDbEntity
  8
0
  6
CONTINUOUS
 62
           2
100
AcDbLine
 10
168.365129209863
 20
-134.614747364099
 11
168.348189510753
 21
-134.020137457043
  0
LINE
  5
67
100
AcDbEntity
  8
0
  6
CONTINUOUS
 62
           2
100
AcDbLine
 10
168.348189510753
 20
-134.020137457043
 11
168.337999223007
 21
-133.770673919362
  0
LINE
  5
66
100
AcDbEntity
  8
0
  6
CONTINUOUS
 62
           2
100
AcDbLine
 10
168.337999223007
 20
-133.770673919362
 11
168.377648706238
 21
-133.733777137237
  0
LINE
  5
65
100
AcDbEntity
  8
0
  6
CONTINUOUS
 62
           2
100
AcDbLine
 10
168.377648706238
 20
-133.733777137237
 11
168.64556063498
 21
-133.743411591106
  0
LINE
  5
64
100
AcDbEntity
  8
0
  6
CONTINUOUS
 62
           2
100
AcDbLine
 10
168.64556063498
 20
-133.743411591106
 11
168.835549947816
 21
-133.788566476548
  0
LINE
  5
63
100
AcDbEntity
  8
0
  6
CONTINUOUS
 62
           2
100
AcDbLine
 10
168.835549947816
 20
-133.788566476548
 11
169.020033858441
 21
-133.986813892699
  0
LINE
  5
62
100
AcDbEntity
  8
0
  6
CONTINUOUS
 62
           2
100
AcDbLine
 10
169.020033858441
 20
-133.986813892699
 11
169.095203773243
 21
-134.027839726482
  0
LINE
  5
61
100
AcDbEntity
  8
0
  6
CONTINUOUS
 62
           2
100
AcDbLine
 10
169.095203773243
 20
-134.027839726482
 11
169.116404865411
 21
-133.971118202743
  0
LINE
  5
60
100
AcDbEntity
  8
0
  6
CONTINUOUS
 62
           2
100
AcDbLine
 10
169.116404865411
 20
-133.971118202743
 11
169.013284447076
 21
-133.641667523324
  0
LINE
  5
5F
100
AcDbEntity
  8
0
  6
CONTINUOUS
 62
           2
100
AcDbLine
 10
169.013284447076
 20
-133.641667523324
 11
168.93880270755
 21
-133.581505123202
  0
LINE
  5
5E
100
AcDbEntity
  8
0
  6
CONTINUOUS
 62
           2
100
AcDbLine
 10
168.93880270755
 20
-133.581505123202
 11
168.592968162898
 21
-133.607391100906
  0
LINE
  5
5D
100
AcDbEntity
  8
0
  6
CONTINUOUS
 62
           2
100
AcDbLine
 10
168.592968162898
 20
-133.607391100906
 11
167.92318834104
 21
-133.583304966233
  0
LINE
  5
5C
100
AcDbEntity
  8
0
  6
CONTINUOUS
 62
           2
100
AcDbLine
 10
167.92318834104
 20
-133.583304966233
 11
167.480982789418
 21
-133.624886633893
  0
LINE
  5
5B
100
AcDbEntity
  8
0
  6
CONTINUOUS
 62
           2
100
AcDbLine
 10
167.480982789418
 20
-133.624886633893
 11
167.354464411687
 21
-133.946079209995
  0
LINE
  5
5A
100
AcDbEntity
  8
0
  6
CONTINUOUS
 62
           2
100
AcDbLine
 10
167.354464411687
 20
-133.946079209995
 11
167.351023535305
 21
-134.041762041689
  0
LINE
  5
59
100
AcDbEntity
  8
1
  6
CONTINUOUS
 62
           7
100
AcDbLine
 10
161.919593131991
 20
-83.559925672985
 11
161.919593131991
 21
-145.559925672985
  0
LINE
  5
58
100
AcDbEntity
  8
1
  6
CONTINUOUS
 62
           2
100
AcDbLine
 10
268.223040490276
 20
-97.559925672985
 11
271.544295348299
 21
-97.559925672985
  0
LINE
  5
57
100
AcDbEntity
  8
1
  6
CONTINUOUS
 62
           2
100
AcDbLine
 10
271.544295348299
 20
-102.559925672985
 11
268.223040490276
 21
-102.559925672985
  0
LINE
  5
56
100
AcDbEntity
  8
1
  6
CONTINUOUS
 62
           3
100
AcDbLine
 10
346.919593131991
 20
-123.559925672985
 11
161.919593131991
 21
-123.559925672985
  0
LINE
  5
55
100
AcDbEntity
  8
1
  6
CONTINUOUS
 62
           2
100
AcDbLine
 10
257.419593131991
 20
-123.559925672985
 11
257.419593131991
 21
-103.559925672985
  0
LINE
  5
54
100
AcDbEntity
  8
1
  6
CONTINUOUS
 62
           2
100
AcDbLine
 10
242.919593131991
 20
-123.559925672985
 11
242.919593131991
 21
-103.559925672985
  0
LINE
  5
53
100
AcDbEntity
  8
1
  6
CONTINUOUS
 62
           2
100
AcDbLine
 10
346.919593131991
 20
-140.559925672985
 11
274.919593131991
 21
-140.559925672985
  0
LINE
  5
52
100
AcDbEntity
  8
1
  6
CONTINUOUS
 62
           2
100
AcDbLine
 10
340.919593131991
 20
-140.559925672985
 11
340.919593131991
 21
-132.559925672985
  0
LINE
  5
51
100
AcDbEntity
  8
1
  6
CONTINUOUS
 62
           2
100
AcDbLine
 10
334.919593131991
 20
-140.559925672985
 11
334.919593131991
 21
-139.059925672985
  0
LINE
  5
50
100
AcDbEntity
  8
1
  6
CONTINUOUS
 62
           2
100
AcDbLine
 10
328.919593131991
 20
-140.559925672985
 11
328.919593131991
 21
-132.559925672985
  0
LINE
  5
4F
100
AcDbEntity
  8
1
  6
CONTINUOUS
 62
           2
100
AcDbLine
 10
322.919593131991
 20
-140.559925672985
 11
322.919593131991
 21
-139.059925672985
  0
LINE
  5
4E
100
AcDbEntity
  8
1
  6
CONTINUOUS
 62
           2
100
AcDbLine
 10
316.919593131991
 20
-140.559925672985
 11
316.919593131991
 21
-139.059925672985
  0
LINE
  5
4D
100
AcDbEntity
  8
1
  6
CONTINUOUS
 62
           2
100
AcDbLine
 10
310.919593131991
 20
-140.559925672985
 11
310.919593131991
 21
-139.059925672985
  0
LINE
  5
4C
100
AcDbEntity
  8
1
  6
CONTINUOUS
 62
           2
100
AcDbLine
 10
304.919593131991
 20
-140.559925672985
 11
304.919593131991
 21
-139.059925672985
  0
LINE
  5
4B
100
AcDbEntity
  8
1
  6
CONTINUOUS
 62
           2
100
AcDbLine
 10
298.919593131991
 20
-140.559925672985
 11
298.919593131991
 21
-139.059925672985
  0
LINE
  5
4A
100
AcDbEntity
  8
1
  6
CONTINUOUS
 62
           2
100
AcDbLine
 10
292.919593131991
 20
-140.559925672985
 11
292.919593131991
 21
-139.059925672985
  0
LINE
  5
49
100
AcDbEntity
  8
1
  6
CONTINUOUS
 62
           2
100
AcDbLine
 10
286.919593131991
 20
-140.559925672985
 11
286.919593131991
 21
-139.059925672985
  0
LINE
  5
48
100
AcDbEntity
  8
1
  6
CONTINUOUS
 62
           2
100
AcDbLine
 10
280.919593131991
 20
-132.559925672985
 11
280.919593131991
 21
-140.559925672985
  0
LINE
  5
47
100
AcDbEntity
  8
1
  6
CONTINUOUS
 62
           2
100
AcDbLine
 10
274.919593131991
 20
-90.059925672985
 11
229.919593131991
 21
-90.059925672985
  0
LINE
  5
46
100
AcDbEntity
  8
1
  6
CONTINUOUS
 62
           2
100
AcDbLine
 10
229.919593131991
 20
-96.559925672985
 11
346.919593131991
 21
-96.559925672985
  0
LINE
  5
45
100
AcDbEntity
  8
1
  6
CONTINUOUS
 62
           3
100
AcDbLine
 10
274.919593131991
 20
-83.559925672985
 11
274.919593131991
 21
-145.559925672985
  0
LINE
  5
44
100
AcDbEntity
  8
1
  6
CONTINUOUS
 62
           3
100
AcDbLine
 10
274.919593131991
 20
-108.559925672985
 11
346.919593131991
 21
-108.559925672985
  0
LINE
  5
43
100
AcDbEntity
  8
1
  6
CONTINUOUS
 62
           3
100
AcDbLine
 10
229.919593131991
 20
-103.559925672985
 11
274.919593131991
 21
-103.559925672985
  0
LINE
  5
42
100
AcDbEntity
  8
1
  6
CONTINUOUS
 62
           3
100
AcDbLine
 10
201.919593131991
 20
-145.559925672985
 11
201.919593131991
 21
-123.559925672985
  0
LINE
  5
41
100
AcDbEntity
  8
1
  6
CONTINUOUS
 62
           7
100
AcDbLine
 10
346.919593131991
 20
-83.559925672985
 11
161.919593131991
 21
-83.559925672985
  0
LINE
  5
40
100
AcDbEntity
  8
1
  6
CONTINUOUS
 62
           3
100
AcDbLine
 10
229.919593131991
 20
-123.559925672985
 11
229.919593131991
 21
-83.559925672985
  0
LINE
  5
3F
100
AcDbEntity
  8
1
  6
CONTINUOUS
 62
           2
100
AcDbLine
 10
215.919593131991
 20
-123.559925672985
 11
215.919593131991
 21
-83.559925672985
  0
LINE
  5
3E
100
AcDbEntity
  8
1
  6
CONTINUOUS
 62
           2
100
AcDbLine
 10
201.919593131991
 20
-123.559925672985
 11
201.919593131991
 21
-83.559925672985
  0
LINE
  5
3D
100
AcDbEntity
  8
1
  6
CONTINUOUS
 62
           2
100
AcDbLine
 10
167.919593131991
 20
-123.559925672985
 11
167.919593131991
 21
-83.559925672985
  0
LINE
  5
3C
100
AcDbEntity
  8
1
  6
CONTINUOUS
 62
           2
100
AcDbLine
 10
161.919593131991
 20
-118.559925672985
 11
346.919593131991
 21
-118.559925672985
  0
LINE
  5
3B
100
AcDbEntity
  8
1
  6
CONTINUOUS
 62
           2
100
AcDbLine
 10
161.919593131991
 20
-113.559925672985
 11
346.919593131991
 21
-113.559925672985
  0
LINE
  5
3A
100
AcDbEntity
  8
1
  6
CONTINUOUS
 62
           2
100
AcDbLine
 10
161.919593131991
 20
-108.559925672985
 11
274.919593131991
 21
-108.559925672985
  0
LINE
  5
39
100
AcDbEntity
  8
1
  6
CONTINUOUS
 62
           2
100
AcDbLine
 10
161.919593131991
 20
-103.559925672985
 11
229.919593131991
 21
-103.559925672985
  0
LINE
  5
38
100
AcDbEntity
  8
1
  6
CONTINUOUS
 62
           2
100
AcDbLine
 10
161.919593131991
 20
-98.559925672985
 11
229.919593131991
 21
-98.559925672985
  0
LINE
  5
37
100
AcDbEntity
  8
1
  6
CONTINUOUS
 62
           2
100
AcDbLine
 10
161.919593131991
 20
-93.559925672985
 11
229.919593131991
 21
-93.559925672985
  0
LINE
  5
36
100
AcDbEntity
  8
1
  6
CONTINUOUS
 62
           2
100
AcDbLine
 10
161.919593131991
 20
-88.559925672985
 11
229.919593131991
 21
-88.559925672985
  0
LINE
  5
35
100
AcDbEntity
  8
1
  6
CONTINUOUS
 62
           7
100
AcDbLine
 10
346.919593131991
 20
131.440074327015
 11
346.919593131991
 21
-145.559925672985
  0
LINE
  5
34
100
AcDbEntity
  8
1
  6
CONTINUOUS
 62
           7
100
AcDbLine
 10
-48.080406868009
 20
131.440074327015
 11
346.919593131991
 21
131.440074327015
  0
LINE
  5
33
100
AcDbEntity
  8
1
  6
CONTINUOUS
 62
           2
100
AcDbLine
 10
350.919593131991
 20
135.440074327015
 11
350.919593131991
 21
-149.559925672985
  0
LINE
  5
32
100
AcDbEntity
  8
1
  6
CONTINUOUS
 62
           2
100
AcDbLine
 10
350.919593131991
 20
-149.559925672985
 11
-57.080406868009
 21
-149.559925672985
  0
LINE
  5
31
100
AcDbEntity
  8
1
  6
CONTINUOUS
 62
           2
100
AcDbLine
 10
-57.080406868009
 20
-149.559925672985
 11
-57.080406868009
 21
135.440074327015
  0
LINE
  5
30
100
AcDbEntity
  8
1
  6
CONTINUOUS
 62
           2
100
AcDbLine
 10
-57.080406868009
 20
-2.059925672985
 11
-54.565532566333
 21
-2.059925672985
  0
LINE
  5
2F
100
AcDbEntity
  8
1
  6
CONTINUOUS
 62
           7
100
AcDbLine
 10
-48.080406868009
 20
-145.559925672985
 11
-48.080406868009
 21
131.440074327015
  0
LINE
  5
2E
100
AcDbEntity
  8
1
  6
CONTINUOUS
 62
           7
100
AcDbLine
 10
-48.080406868009
 20
-145.559925672985
 11
346.919593131991
 21
-145.559925672985
  0
LINE
  5
2D
100
AcDbEntity
  8
1
  6
CONTINUOUS
 62
           7
100
AcDbLine
 10
161.919593131991
 20
131.440074327015
 11
161.919593131991
 21
135.440074327015
  0
LINE
  5
2C
100
AcDbEntity
  8
1
  6
CONTINUOUS
 62
           2
100
AcDbLine
 10
350.919593131991
 20
135.440074327015
 11
-57.080406868009
 21
135.440074327015
  0
LINE
  5
2B
100
AcDbEntity
  8
1
  6
CONTINUOUS
 62
           2
100
AcDbLine
 10
161.919593131991
 20
-145.559925672985
 11
161.919593131991
 21
-149.559925672985
  0
LINE
  5
2A
100
AcDbEntity
  8
1
  6
CONTINUOUS
 62
           7
100
AcDbLine
 10
161.919593131991
 20
-145.559925672985
 11
346.919593131991
 21
-145.559925672985
  0
ENDBLK
  5
4C3
100
AcDbEntity
  8
0
100
AcDbBlockEnd
  0
BLOCK
  5
529
100
AcDbEntity
  8
0
100
AcDbBlockBegin
  2
*D1
 70
           1
 10
0.0
 20
0.0
 30
0.0
  3
*D1
  1

  0
LINE
  5
52A
100
AcDbEntity
  8
0
  6
CONTINUOUS
 62
           1
100
AcDbLine
 10
218.625
 20
33.886942910978
 11
225.625
 21
33.886942910978
  0
LINE
  5
52B
100
AcDbEntity
  8
0
  6
CONTINUOUS
 62
           1
100
AcDbLine
 10
211.625
 20
33.886942910978
 11
204.625
 21
33.886942910978
  0
LINE
  5
52C
100
AcDbEntity
  8
0
  6
CONTINUOUS
 62
           1
100
AcDbLine
 10
211.625
 20
33.886942910978
 11
218.625
 21
33.886942910978
  0
LINE
  5
52D
100
AcDbEntity
  8
0
  6
CONTINUOUS
 62
           1
100
AcDbLine
 10
218.625
 20
19.0
 11
218.625
 21
35.886942910978
  0
LINE
  5
52E
100
AcDbEntity
  8
0
  6
CONTINUOUS
 62
           1
100
AcDbLine
 10
211.625
 20
19.0
 11
211.625
 21
35.886942910978
  0
SOLID
  5
52F
100
AcDbEntity
  8
0
 62
           1
100
AcDbTrace
 10
208.125
 20
33.426159169422
 11
208.125
 21
34.347726652534
 12
211.625
 22
33.886942910978
 13
211.625
 23
33.886942910978
  0
SOLID
  5
530
100
AcDbEntity
  8
0
 62
           1
100
AcDbTrace
 10
222.125
 20
34.347726652534
 11
222.125
 21
33.426159169422
 12
218.625
 22
33.886942910978
 13
218.625
 23
33.886942910978
  0
TEXT
  5
532
100
AcDbEntity
  8
0
 62
           2
100
AcDbText
 10
213.941578839371
 20
35.386942910978
 40
3.5
  1
7
  7
CONVERTER_5
100
AcDbText
  0
ENDBLK
  5
533
100
AcDbEntity
  8
0
100
AcDbBlockEnd
  0
BLOCK
  5
537
100
AcDbEntity
  8
0
100
AcDbBlockBegin
  2
*D2
 70
           1
 10
0.0
 20
0.0
 30
0.0
  3
*D2
  1

  0
LINE
  5
538
100
AcDbEntity
  8
0
  6
CONTINUOUS
 62
           1
100
AcDbLine
 10
140.0
 20
34.388873710961
 11
195.0
 21
34.388873710961
  0
LINE
  5
539
100
AcDbEntity
  8
0
  6
CONTINUOUS
 62
           1
100
AcDbLine
 10
195.0
 20
16.0
 11
195.0
 21
36.388873710961
  0
LINE
  5
53A
100
AcDbEntity
  8
0
  6
CONTINUOUS
 62
           1
100
AcDbLine
 10
140.0
 20
8.0
 11
140.0
 21
36.388873710961
  0
SOLID
  5
53B
100
AcDbEntity
  8
0
 62
           1
100
AcDbTrace
 10
143.5
 20
34.849657452517
 11
143.5
 21
33.928089969405
 12
140.0
 22
34.388873710961
 13
140.0
 23
34.388873710961
  0
SOLID
  5
53C
100
AcDbEntity
  8
0
 62
           1
100
AcDbTrace
 10
191.5
 20
33.928089969405
 11
191.5
 21
34.849657452517
 12
195.0
 22
34.388873710961
 13
195.0
 23
34.388873710961
  0
TEXT
  5
53E
100
AcDbEntity
  8
0
 62
           2
100
AcDbText
 10
162.824386566402
 20
35.888873710961
 40
3.5
  1
55
  7
CONVERTER_6
100
AcDbText
  0
ENDBLK
  5
53F
100
AcDbEntity
  8
0
100
AcDbBlockEnd
  0
BLOCK
  5
543
100
AcDbEntity
  8
0
100
AcDbBlockBegin
  2
*D3
 70
           1
 10
0.0
 20
0.0
 30
0.0
  3
*D3
  1

  0
LINE
  5
544
100
AcDbEntity
  8
0
  6
CONTINUOUS
 62
           1
100
AcDbLine
 10
50.0
 20
33.992674026139
 11
105.0
 21
33.992674026139
  0
LINE
  5
545
100
AcDbEntity
  8
0
  6
CONTINUOUS
 62
           1
100
AcDbLine
 10
105.0
 20
14.0
 11
105.0
 21
35.992674026139
  0
LINE
  5
546
100
AcDbEntity
  8
0
  6
CONTINUOUS
 62
           1
100
AcDbLine
 10
50.0
 20
14.0
 11
50.0
 21
35.992674026139
  0
SOLID
  5
547
100
AcDbEntity
  8
0
 62
           1
100
AcDbTrace
 10
53.5
 20
34.453457767695
 11
53.5
 21
33.531890284583
 12
50.0
 22
33.992674026139
 13
50.0
 23
33.992674026139
  0
SOLID
  5
548
100
AcDbEntity
  8
0
 62
           1
100
AcDbTrace
 10
101.5
 20
33.531890284583
 11
101.5
 21
34.453457767695
 12
105.0
 22
33.992674026139
 13
105.0
 23
33.992674026139
  0
TEXT
  5
54A
100
AcDbEntity
  8
0
 62
           2
100
AcDbText
 10
72.88705811178
 20
35.492674026139
 40
3.5
  1
55
  7
CONVERTER_7
100
AcDbText
  0
ENDBLK
  5
54B
100
AcDbEntity
  8
0
100
AcDbBlockEnd
  0
BLOCK
  5
54F
100
AcDbEntity
  8
0
100
AcDbBlockBegin
  2
*D4
 70
           1
 10
0.0
 20
0.0
 30
0.0
  3
*D4
  1

  0
LINE
  5
550
100
AcDbEntity
  8
0
  6
CONTINUOUS
 62
           1
100
AcDbLine
 10
32.010495302769
 20
16.0
 11
32.010495302769
 21
23.0
  0
LINE
  5
551
100
AcDbEntity
  8
0
  6
CONTINUOUS
 62
           1
100
AcDbLine
 10
32.010495302769
 20
8.0
 11
32.010495302769
 21
1.0
  0
LINE
  5
552
100
AcDbEntity
  8
0
  6
CONTINUOUS
 62
           1
100
AcDbLine
 10
32.010495302769
 20
8.0
 11
32.010495302769
 21
16.0
  0
LINE
  5
553
100
AcDbEntity
  8
0
  6
CONTINUOUS
 62
           1
100
AcDbLine
 10
52.0
 20
16.0
 11
30.010495302769
 21
16.0
  0
LINE
  5
554
100
AcDbEntity
  8
0
  6
CONTINUOUS
 62
           1
100
AcDbLine
 10
52.0
 20
8.0
 11
30.010495302769
 21
8.0
  0
SOLID
  5
555
100
AcDbEntity
  8
0
 62
           1
100
AcDbTrace
 10
31.549711561214
 20
19.5
 11
32.471279044325
 21
19.5
 12
32.010495302769
 22
16.0
 13
32.010495302769
 23
16.0
  0
SOLID
  5
556
100
AcDbEntity
  8
0
 62
           1
100
AcDbTrace
 10
32.471279044325
 20
4.5
 11
31.549711561214
 21
4.5
 12
32.010495302769
 22
8.0
 13
32.010495302769
 23
8.0
  0
MTEXT
  5
558
100
AcDbEntity
  8
0
 62
           2
100
AcDbMText
 10
30.510495302769
 20
10.439694512701
 30
0.0
 40
3.5
 41
0.0
 71
           7
 72
           1
  1
8
  7
CONVERTER_8
 11
0.0
 21
1.0
 31
0.0
  0
ENDBLK
  5
559
100
AcDbEntity
  8
0
100
AcDbBlockEnd
  0
BLOCK
  5
55D
100
AcDbEntity
  8
0
100
AcDbBlockBegin
  2
*D5
 70
           1
 10
0.0
 20
0.0
 30
0.0
  3
*D5
  1

  0
LINE
  5
55E
100
AcDbEntity
  8
0
  6
CONTINUOUS
 62
           1
100
AcDbLine
 10
41.5192877385
 20
0.0
 11
41.5192877385
 21
-13.332286576626
  0
LINE
  5
55F
100
AcDbEntity
  8
0
  6
CONTINUOUS
 62
           1
100
AcDbLine
 10
41.5192877385
 20
0.0
 11
41.5192877385
 21
8.0
  0
LINE
  5
560
100
AcDbEntity
  8
0
  6
CONTINUOUS
 62
           1
100
AcDbLine
 10
41.5192877385
 20
15.0
 11
41.5192877385
 21
8.0
  0
LINE
  5
561
100
AcDbEntity
  8
0
  6
CONTINUOUS
 62
           1
100
AcDbLine
 10
52.0
 20
8.0
 11
39.5192877385
 21
8.0
  0
LINE
  5
562
100
AcDbEntity
  8
0
  6
CONTINUOUS
 62
           1
100
AcDbLine
 10
50.155278283164
 20
0.0
 11
39.5192877385
 21
0.0
  0
SOLID
  5
563
100
AcDbEntity
  8
0
 62
           1
100
AcDbTrace
 10
41.980071480056
 20
-3.5
 11
41.058503996945
 21
-3.5
 12
41.5192877385
 22
0.0
 13
41.5192877385
 23
0.0
  0
SOLID
  5
564
100
AcDbEntity
  8
0
 62
           1
100
AcDbTrace
 10
41.058503996945
 20
11.5
 11
41.980071480056
 21
11.5
 12
41.5192877385
 22
8.0
 13
41.5192877385
 23
8.0
  0
MTEXT
  5
565
100
AcDbEntity
  8
0
 62
           2
100
AcDbMText
 10
40.0192877385
 20
-13.332286576626
 30
0.0
 40
3.5
 41
0.0
 71
           7
 72
           1
  1
8
  7
CONVERTER_8
 11
0.0
 21
1.0
 31
0.0
  0
ENDBLK
  5
566
100
AcDbEntity
  8
0
100
AcDbBlockEnd
  0
BLOCK
  5
56A
100
AcDbEntity
  8
0
100
AcDbBlockBegin
  2
*D6
 70
           1
 10
0.0
 20
0.0
 30
0.0
  3
*D6
  1

  0
LINE
  5
56B
100
AcDbEntity
  8
0
  6
CONTINUOUS
 62
           1
100
AcDbLine
 10
264.84800799431
 20
0.0
 11
264.84800799431
 21
24.0
  0
LINE
  5
56C
100
AcDbEntity
  8
0
  6
CONTINUOUS
 62
           1
100
AcDbLine
 10
245.0
 20
24.0
 11
266.84800799431
 21
24.0
  0
LINE
  5
56D
100
AcDbEntity
  8
0
  6
CONTINUOUS
 62
           1
100
AcDbLine
 10
245.0
 20
0.0
 11
266.84800799431
 21
0.0
  0
SOLID
  5
56E
100
AcDbEntity
  8
0
 62
           1
100
AcDbTrace
 10
264.387224252754
 20
3.5
 11
265.308791735866
 21
3.5
 12
264.84800799431
 22
0.0
 13
264.84800799431
 23
0.0
  0
SOLID
  5
56F
100
AcDbEntity
  8
0
 62
           1
100
AcDbTrace
 10
265.308791735866
 20
20.5
 11
264.387224252754
 21
20.5
 12
264.84800799431
 22
24.0
 13
264.84800799431
 23
24.0
  0
MTEXT
  5
570
100
AcDbEntity
  8
0
 62
           2
100
AcDbMText
 10
263.34800799431
 20
10.113414483681
 30
0.0
 40
3.5
 41
0.0
 71
           7
 72
           1
  1
24
  7
CONVERTER_8
 11
0.0
 21
1.0
 31
0.0
  0
ENDBLK
  5
571
100
AcDbEntity
  8
0
100
AcDbBlockEnd
  0
BLOCK
  5
575
100
AcDbEntity
  8
0
100
AcDbBlockBegin
  2
*D7
 70
           1
 10
0.0
 20
0.0
 30
0.0
  3
*D7
  1

  0
LINE
  5
576
100
AcDbEntity
  8
0
  6
CONTINUOUS
 62
           1
100
AcDbLine
 10
255.232843793984
 20
0.0
 11
255.232843793984
 21
12.0
  0
LINE
  5
577
100
AcDbEntity
  8
0
  6
CONTINUOUS
 62
           1
100
AcDbLine
 10
238.7
 20
12.0
 11
257.232843793984
 21
12.0
  0
LINE
  5
578
100
AcDbEntity
  8
0
  6
CONTINUOUS
 62
           1
100
AcDbLine
 10
245.0
 20
0.0
 11
257.232843793984
 21
0.0
  0
SOLID
  5
579
100
AcDbEntity
  8
0
 62
           1
100
AcDbTrace
 10
254.772060052428
 20
3.5
 11
255.69362753554
 21
3.5
 12
255.232843793984
 22
0.0
 13
255.232843793984
 23
0.0
  0
SOLID
  5
57A
100
AcDbEntity
  8
0
 62
           1
100
AcDbTrace
 10
255.69362753554
 20
8.5
 11
254.772060052428
 21
8.5
 12
255.232843793984
 22
12.0
 13
255.232843793984
 23
12.0
  0
MTEXT
  5
57B
100
AcDbEntity
  8
0
 62
           2
100
AcDbMText
 10
253.732843793984
 20
4.398786651555
 30
0.0
 40
3.5
 41
0.0
 71
           7
 72
           1
  1
12
  7
CONVERTER_8
 11
0.0
 21
1.0
 31
0.0
  0
ENDBLK
  5
57C
100
AcDbEntity
  8
0
100
AcDbBlockEnd
  0
BLOCK
  5
580
100
AcDbEntity
  8
0
100
AcDbBlockBegin
  2
*D8
 70
           1
 10
0.0
 20
0.0
 30
0.0
  3
*D8
  1

  0
LINE
  5
581
100
AcDbEntity
  8
0
  6
CONTINUOUS
 62
           1
100
AcDbLine
 10
278.0
 20
37.311017276114
 11
286.481340533416
 21
37.311017276114
  0
LINE
  5
582
100
AcDbEntity
  8
0
  6
CONTINUOUS
 62
           1
100
AcDbLine
 10
275.0
 20
37.311017276114
 11
278.0
 21
37.311017276114
  0
LINE
  5
583
100
AcDbEntity
  8
0
  6
CONTINUOUS
 62
           1
100
AcDbLine
 10
268.0
 20
37.311017276114
 11
275.0
 21
37.311017276114
  0
LINE
  5
584
100
AcDbEntity
  8
0
  6
CONTINUOUS
 62
           1
100
AcDbLine
 10
278.0
 20
24.0
 11
278.0
 21
39.311017276114
  0
LINE
  5
585
100
AcDbEntity
  8
0
  6
CONTINUOUS
 62
           1
100
AcDbLine
 10
275.0
 20
24.0
 11
275.0
 21
39.311017276114
  0
SOLID
  5
586
100
AcDbEntity
  8
0
 62
           1
100
AcDbTrace
 10
271.5
 20
36.850233534558
 11
271.5
 21
37.77180101767
 12
275.0
 22
37.311017276114
 13
275.0
 23
37.311017276114
  0
SOLID
  5
587
100
AcDbEntity
  8
0
 62
           1
100
AcDbTrace
 10
281.5
 20
37.77180101767
 11
281.5
 21
36.850233534558
 12
278.0
 22
37.311017276114
 13
278.0
 23
37.311017276114
  0
TEXT
  5
589
100
AcDbEntity
  8
0
 62
           2
100
AcDbText
 10
284.381340533416
 20
38.811017276114
 40
3.5
  1
3
  7
CONVERTER_9
100
AcDbText
  0
ENDBLK
  5
58A
100
AcDbEntity
  8
0
100
AcDbBlockEnd
  0
BLOCK
  5
58E
100
AcDbEntity
  8
0
100
AcDbBlockBegin
  2
*D9
 70
           1
 10
0.0
 20
0.0
 30
0.0
  3
*D9
  1

  0
LINE
  5
58F
100
AcDbEntity
  8
0
  6
CONTINUOUS
 62
           1
100
AcDbLine
 10
294.102656518706
 20
7.25
 11
294.102656518706
 21
-8.307838567917
  0
LINE
  5
590
100
AcDbEntity
  8
0
  6
CONTINUOUS
 62
           1
100
AcDbLine
 10
294.102656518706
 20
7.25
 11
294.102656518706
 21
16.75
  0
LINE
  5
591
100
AcDbEntity
  8
0
  6
CONTINUOUS
 62
           1
100
AcDbLine
 10
294.102656518706
 20
23.75
 11
294.102656518706
 21
16.75
  0
LINE
  5
592
100
AcDbEntity
  8
0
  6
CONTINUOUS
 62
           1
100
AcDbLine
 10
278.0
 20
16.75
 11
282.669538050344
 21
16.75
  0
LINE
  5
593
100
AcDbEntity
  8
0
  6
CONTINUOUS
 62
           1
100
AcDbLine
 10
287.579409131361
 20
16.75
 11
296.102656518706
 21
16.75
  0
LINE
  5
594
100
AcDbEntity
  8
0
  6
CONTINUOUS
 62
           1
100
AcDbLine
 10
278.0
 20
7.25
 11
282.567249069489
 21
7.25
  0
LINE
  5
595
100
AcDbEntity
  8
0
  6
CONTINUOUS
 62
           1
100
AcDbLine
 10
286.658808303671
 20
7.25
 11
296.102656518706
 21
7.25
  0
SOLID
  5
596
100
AcDbEntity
  8
0
 62
           1
100
AcDbTrace
 10
294.563440260262
 20
3.75
 11
293.64187277715
 21
3.75
 12
294.102656518706
 22
7.25
 13
294.102656518706
 23
7.25
  0
SOLID
  5
597
100
AcDbEntity
  8
0
 62
           1
100
AcDbTrace
 10
293.64187277715
 20
20.25
 11
294.563440260262
 21
20.25
 12
294.102656518706
 22
16.75
 13
294.102656518706
 23
16.75
  0
MTEXT
  5
599
100
AcDbEntity
  8
0
 62
           2
100
AcDbMText
 10
292.602656518706
 20
-6.977838567917
 30
0.0
 40
3.5
 41
0.0
 71
           7
 72
           1
  1
\C2;ø\C2;9.5
  7
CONVERTER_10
 11
0.0
 21
1.0
 31
0.0
  0
ENDBLK
  5
59A
100
AcDbEntity
  8
0
100
AcDbBlockEnd
  0
BLOCK
  5
59E
100
AcDbEntity
  8
0
100
AcDbBlockBegin
  2
*D10
 70
           1
 10
0.0
 20
0.0
 30
0.0
  3
*D10
  1

  0
LINE
  5
59F
100
AcDbEntity
  8
0
  6
CONTINUOUS
 62
           1
100
AcDbLine
 10
285.61267110778
 20
9.0
 11
285.61267110778
 21
-2.993130161426
  0
LINE
  5
5A0
100
AcDbEntity
  8
0
  6
CONTINUOUS
 62
           1
100
AcDbLine
 10
285.61267110778
 20
9.0
 11
285.61267110778
 21
15.0
  0
LINE
  5
5A1
100
AcDbEntity
  8
0
  6
CONTINUOUS
 62
           1
100
AcDbLine
 10
285.61267110778
 20
22.0
 11
285.61267110778
 21
15.0
  0
LINE
  5
5A2
100
AcDbEntity
  8
0
  6
CONTINUOUS
 62
           1
100
AcDbLine
 10
276.25
 20
15.0
 11
287.61267110778
 21
15.0
  0
LINE
  5
5A3
100
AcDbEntity
  8
0
  6
CONTINUOUS
 62
           1
100
AcDbLine
 10
276.25
 20
9.0
 11
287.61267110778
 21
9.0
  0
SOLID
  5
5A4
100
AcDbEntity
  8
0
 62
           1
100
AcDbTrace
 10
286.073454849336
 20
5.5
 11
285.151887366224
 21
5.5
 12
285.61267110778
 22
9.0
 13
285.61267110778
 23
9.0
  0
SOLID
  5
5A5
100
AcDbEntity
  8
0
 62
           1
100
AcDbTrace
 10
285.151887366224
 20
18.5
 11
286.073454849336
 21
18.5
 12
285.61267110778
 22
15.0
 13
285.61267110778
 23
15.0
  0
MTEXT
  5
5A6
100
AcDbEntity
  8
0
 62
           2
100
AcDbMText
 10
284.11267110778
 20
-1.663130161426
 30
0.0
 40
3.5
 41
0.0
 71
           7
 72
           1
  1
\C2;ø\C2;6
  7
CONVERTER_10
 11
0.0
 21
1.0
 31
0.0
  0
ENDBLK
  5
5A7
100
AcDbEntity
  8
0
100
AcDbBlockEnd
  0
BLOCK
  5
5AB
100
AcDbEntity
  8
0
100
AcDbBlockBegin
  2
*D11
 70
           1
 10
0.0
 20
0.0
 30
0.0
  3
*D11
  1

  0
LINE
  5
5AC
100
AcDbEntity
  8
0
  6
CONTINUOUS
 62
           1
100
AcDbLine
 10
204.753557885215
 20
0.0
 11
204.753557885215
 21
-11.747487837338
  0
LINE
  5
5AD
100
AcDbEntity
  8
0
  6
CONTINUOUS
 62
           1
100
AcDbLine
 10
204.753557885215
 20
0.0
 11
204.753557885215
 21
6.0
  0
LINE
  5
5AE
100
AcDbEntity
  8
0
  6
CONTINUOUS
 62
           1
100
AcDbLine
 10
204.753557885215
 20
13.0
 11
204.753557885215
 21
6.0
  0
LINE
  5
5AF
100
AcDbEntity
  8
0
  6
CONTINUOUS
 62
           1
100
AcDbLine
 10
193.0
 20
6.0
 11
206.753557885215
 21
6.0
  0
LINE
  5
5B0
100
AcDbEntity
  8
0
  6
CONTINUOUS
 62
           1
100
AcDbLine
 10
190.013767025373
 20
0.0
 11
206.753557885215
 21
0.0
  0
SOLID
  5
5B1
100
AcDbEntity
  8
0
 62
           1
100
AcDbTrace
 10
205.214341626771
 20
-3.5
 11
204.292774143659
 21
-3.5
 12
204.753557885215
 22
0.0
 13
204.753557885215
 23
0.0
  0
SOLID
  5
5B2
100
AcDbEntity
  8
0
 62
           1
100
AcDbTrace
 10
204.292774143659
 20
9.5
 11
205.214341626771
 21
9.5
 12
204.753557885215
 22
6.0
 13
204.753557885215
 23
6.0
  0
MTEXT
  5
5B4
100
AcDbEntity
  8
0
 62
           2
100
AcDbMText
 10
203.253557885215
 20
-11.747487837338
 30
0.0
 40
3.5
 41
0.0
 71
           7
 72
           1
  1
6
  7
CONVERTER_11
 11
0.0
 21
1.0
 31
0.0
  0
ENDBLK
  5
5B5
100
AcDbEntity
  8
0
100
AcDbBlockEnd
  0
BLOCK
  5
5B9
100
AcDbEntity
  8
0
100
AcDbBlockBegin
  2
*D12
 70
           1
 10
0.0
 20
0.0
 30
0.0
  3
*D12
  1

  0
LINE
  5
5BA
100
AcDbEntity
  8
0
  6
CONTINUOUS
 62
           1
100
AcDbLine
 10
204.753557885215
 20
6.0
 11
204.753557885215
 21
18.0
  0
LINE
  5
5BB
100
AcDbEntity
  8
0
  6
CONTINUOUS
 62
           1
100
AcDbLine
 10
193.0
 20
18.0
 11
206.753557885215
 21
18.0
  0
LINE
  5
5BC
100
AcDbEntity
  8
0
  6
CONTINUOUS
 62
           1
100
AcDbLine
 10
193.0
 20
6.0
 11
206.753557885215
 21
6.0
  0
SOLID
  5
5BD
100
AcDbEntity
  8
0
 62
           1
100
AcDbTrace
 10
204.292774143659
 20
9.5
 11
205.214341626771
 21
9.5
 12
204.753557885215
 22
6.0
 13
204.753557885215
 23
6.0
  0
SOLID
  5
5BE
100
AcDbEntity
  8
0
 62
           1
100
AcDbTrace
 10
205.214341626771
 20
14.5
 11
204.292774143659
 21
14.5
 12
204.753557885215
 22
18.0
 13
204.753557885215
 23
18.0
  0
MTEXT
  5
5BF
100
AcDbEntity
  8
0
 62
           2
100
AcDbMText
 10
203.253557885215
 20
9.9
 30
0.0
 40
3.5
 41
0.0
 71
           7
 72
           1
  1
12
  7
CONVERTER_11
 11
0.0
 21
1.0
 31
0.0
  0
ENDBLK
  5
5C0
100
AcDbEntity
  8
0
100
AcDbBlockEnd
  0
BLOCK
  5
5C4
100
AcDbEntity
  8
0
100
AcDbBlockBegin
  2
*D13
 70
           1
 10
0.0
 20
0.0
 30
0.0
  3
*D13
  1

  0
LINE
  5
5C5
100
AcDbEntity
  8
0
  6
CONTINUOUS
 62
           1
100
AcDbLine
 10
0.0
 20
33.992674026139
 11
12.0
 21
33.992674026139
  0
LINE
  5
5C6
100
AcDbEntity
  8
0
  6
CONTINUOUS
 62
           1
100
AcDbLine
 10
12.0
 20
17.7
 11
12.0
 21
35.992674026139
  0
LINE
  5
5C7
100
AcDbEntity
  8
0
  6
CONTINUOUS
 62
           1
100
AcDbLine
 10
0.0
 20
24.0
 11
0.0
 21
35.992674026139
  0
SOLID
  5
5C8
100
AcDbEntity
  8
0
 62
           1
100
AcDbTrace
 10
3.5
 20
34.453457767695
 11
3.5
 21
33.531890284583
 12
0.0
 22
33.992674026139
 13
0.0
 23
33.992674026139
  0
SOLID
  5
5C9
100
AcDbEntity
  8
0
 62
           1
100
AcDbTrace
 10
8.5
 20
33.531890284583
 11
8.5
 21
34.453457767695
 12
12.0
 22
33.992674026139
 13
12.0
 23
33.992674026139
  0
TEXT
  5
5CA
100
AcDbEntity
  8
0
 62
           2
100
AcDbText
 10
2.888514213442
 20
35.492674026139
 40
3.5
  1
12
  7
CONVERTER_6
100
AcDbText
  0
ENDBLK
  5
5CB
100
AcDbEntity
  8
0
100
AcDbBlockEnd
  0
BLOCK
  5
5CF
100
AcDbEntity
  8
0
100
AcDbBlockBegin
  2
*D14
 70
           1
 10
0.0
 20
0.0
 30
0.0
  3
*D14
  1

  0
LINE
  5
5D0
100
AcDbEntity
  8
0
  6
CONTINUOUS
 62
           1
100
AcDbLine
 10
0.0
 20
73.992674026139
 11
245.0
 21
73.992674026139
  0
LINE
  5
5D1
100
AcDbEntity
  8
0
  6
CONTINUOUS
 62
           1
100
AcDbLine
 10
245.0
 20
24.0
 11
245.0
 21
75.992674026139
  0
LINE
  5
5D2
100
AcDbEntity
  8
0
  6
CONTINUOUS
 62
           1
100
AcDbLine
 10
0.0
 20
24.0
 11
0.0
 21
75.992674026139
  0
SOLID
  5
5D3
100
AcDbEntity
  8
0
 62
           1
100
AcDbTrace
 10
3.5
 20
74.453457767695
 11
3.5
 21
73.531890284583
 12
0.0
 22
73.992674026139
 13
0.0
 23
73.992674026139
  0
SOLID
  5
5D4
100
AcDbEntity
  8
0
 62
           1
100
AcDbTrace
 10
241.5
 20
73.531890284583
 11
241.5
 21
74.453457767695
 12
245.0
 22
73.992674026139
 13
245.0
 23
73.992674026139
  0
TEXT
  5
5D5
100
AcDbEntity
  8
0
 62
           2
100
AcDbText
 10
118.3
 20
75.492674026139
 40
3.5
  1
245
  7
CONVERTER_7
100
AcDbText
  0
ENDBLK
  5
5D6
100
AcDbEntity
  8
0
100
AcDbBlockEnd
  0
BLOCK
  5
5DA
100
AcDbEntity
  8
0
100
AcDbBlockBegin
  2
*D15
 70
           1
 10
0.0
 20
0.0
 30
0.0
  3
*D15
  1

  0
LINE
  5
5DB
100
AcDbEntity
  8
0
  6
CONTINUOUS
 62
           1
100
AcDbLine
 10
0.0
 20
65.992674026139
 11
233.0
 21
65.992674026139
  0
LINE
  5
5DC
100
AcDbEntity
  8
0
  6
CONTINUOUS
 62
           1
100
AcDbLine
 10
233.0
 20
17.7
 11
233.0
 21
67.992674026139
  0
LINE
  5
5DD
100
AcDbEntity
  8
0
  6
CONTINUOUS
 62
           1
100
AcDbLine
 10
0.0
 20
24.0
 11
0.0
 21
67.992674026139
  0
SOLID
  5
5DE
100
AcDbEntity
  8
0
 62
           1
100
AcDbTrace
 10
3.5
 20
66.453457767695
 11
3.5
 21
65.531890284583
 12
0.0
 22
65.992674026139
 13
0.0
 23
65.992674026139
  0
SOLID
  5
5DF
100
AcDbEntity
  8
0
 62
           1
100
AcDbTrace
 10
229.5
 20
65.531890284583
 11
229.5
 21
66.453457767695
 12
233.0
 22
65.992674026139
 13
233.0
 23
65.992674026139
  0
TEXT
  5
5E0
100
AcDbEntity
  8
0
 62
           2
100
AcDbText
 10
112.3
 20
67.492674026139
 40
3.5
  1
233
  7
CONVERTER_7
100
AcDbText
  0
ENDBLK
  5
5E1
100
AcDbEntity
  8
0
100
AcDbBlockEnd
  0
BLOCK
  5
5E5
100
AcDbEntity
  8
0
100
AcDbBlockBegin
  2
*D16
 70
           1
 10
0.0
 20
0.0
 30
0.0
  3
*D16
  1

  0
LINE
  5
5E6
100
AcDbEntity
  8
0
  6
CONTINUOUS
 62
           1
100
AcDbLine
 10
0.0
 20
57.992674026139
 11
195.0
 21
57.992674026139
  0
LINE
  5
5E7
100
AcDbEntity
  8
0
  6
CONTINUOUS
 62
           1
100
AcDbLine
 10
195.0
 20
16.0
 11
195.0
 21
59.992674026139
  0
LINE
  5
5E8
100
AcDbEntity
  8
0
  6
CONTINUOUS
 62
           1
100
AcDbLine
 10
0.0
 20
24.0
 11
0.0
 21
59.992674026139
  0
SOLID
  5
5E9
100
AcDbEntity
  8
0
 62
           1
100
AcDbTrace
 10
3.5
 20
58.453457767695
 11
3.5
 21
57.531890284583
 12
0.0
 22
57.992674026139
 13
0.0
 23
57.992674026139
  0
SOLID
  5
5EA
100
AcDbEntity
  8
0
 62
           1
100
AcDbTrace
 10
191.5
 20
57.531890284583
 11
191.5
 21
58.453457767695
 12
195.0
 22
57.992674026139
 13
195.0
 23
57.992674026139
  0
TEXT
  5
5EC
100
AcDbEntity
  8
0
 62
           2
100
AcDbText
 10
93.825
 20
59.492674026139
 40
3.5
  1
195
  7
CONVERTER_12
100
AcDbText
  0
ENDBLK
  5
5ED
100
AcDbEntity
  8
0
100
AcDbBlockEnd
  0
BLOCK
  5
5F1
100
AcDbEntity
  8
0
100
AcDbBlockBegin
  2
*D17
 70
           1
 10
0.0
 20
0.0
 30
0.0
  3
*D17
  1

  0
LINE
  5
5F2
100
AcDbEntity
  8
0
  6
CONTINUOUS
 62
           1
100
AcDbLine
 10
0.0
 20
49.992674026139
 11
122.5
 21
49.992674026139
  0
LINE
  5
5F3
100
AcDbEntity
  8
0
  6
CONTINUOUS
 62
           1
100
AcDbLine
 10
122.5
 20
17.7
 11
122.5
 21
51.992674026139
  0
LINE
  5
5F4
100
AcDbEntity
  8
0
  6
CONTINUOUS
 62
           1
100
AcDbLine
 10
0.0
 20
24.0
 11
0.0
 21
51.992674026139
  0
SOLID
  5
5F5
100
AcDbEntity
  8
0
 62
           1
100
AcDbTrace
 10
3.5
 20
50.453457767695
 11
3.5
 21
49.531890284583
 12
0.0
 22
49.992674026139
 13
0.0
 23
49.992674026139
  0
SOLID
  5
5F6
100
AcDbEntity
  8
0
 62
           1
100
AcDbTrace
 10
119.0
 20
49.531890284583
 11
119.0
 21
50.453457767695
 12
122.5
 22
49.992674026139
 13
122.5
 23
49.992674026139
  0
TEXT
  5
5F8
100
AcDbEntity
  8
0
 62
           2
100
AcDbText
 10
55.43125
 20
51.492674026139
 40
3.5
  1
122.5
  7
CONVERTER_13
100
AcDbText
  0
ENDBLK
  5
5F9
100
AcDbEntity
  8
0
100
AcDbBlockEnd
  0
BLOCK
  5
5FD
100
AcDbEntity
  8
0
100
AcDbBlockBegin
  2
*D18
 70
           1
 10
0.0
 20
0.0
 30
0.0
  3
*D18
  1

  0
LINE
  5
5FE
100
AcDbEntity
  8
0
  6
CONTINUOUS
 62
           1
100
AcDbLine
 10
0.0
 20
41.992674026139
 11
105.0
 21
41.992674026139
  0
LINE
  5
5FF
100
AcDbEntity
  8
0
  6
CONTINUOUS
 62
           1
100
AcDbLine
 10
105.0
 20
14.0
 11
105.0
 21
43.992674026139
  0
LINE
  5
600
100
AcDbEntity
  8
0
  6
CONTINUOUS
 62
           1
100
AcDbLine
 10
0.0
 20
24.0
 11
0.0
 21
43.992674026139
  0
SOLID
  5
601
100
AcDbEntity
  8
0
 62
           1
100
AcDbTrace
 10
3.5
 20
42.453457767695
 11
3.5
 21
41.531890284583
 12
0.0
 22
41.992674026139
 13
0.0
 23
41.992674026139
  0
SOLID
  5
602
100
AcDbEntity
  8
0
 62
           1
100
AcDbTrace
 10
101.5
 20
41.531890284583
 11
101.5
 21
42.453457767695
 12
105.0
 22
41.992674026139
 13
105.0
 23
41.992674026139
  0
TEXT
  5
604
100
AcDbEntity
  8
0
 62
           2
100
AcDbText
 10
48.825
 20
43.492674026139
 40
3.5
  1
105
  7
CONVERTER_14
100
AcDbText
  0
ENDBLK
  5
605
100
AcDbEntity
  8
0
100
AcDbBlockEnd
  0
BLOCK
  5
609
100
AcDbEntity
  8
0
100
AcDbBlockBegin
  2
*D19
 70
           1
 10
0.0
 20
0.0
 30
0.0
  3
*D19
  1

  0
LINE
  5
60A
100
AcDbEntity
  8
0
  6
CONTINUOUS
 62
           1
100
AcDbLine
 10
278.0
 20
16.75
 11
295.243420991897
 21
33.993420991897
  0
LINE
  5
60B
100
AcDbEntity
  8
0
  6
CONTINUOUS
 62
           1
100
AcDbLine
 10
278.0
 20
7.25
 11
280.04549732384
 21
5.20450267616
  0
LINE
  5
60C
100
AcDbEntity
  8
0
  6
CONTINUOUS
 62
           1
100
AcDbLine
 10
294.26366566262
 20
-9.01366566262
 11
295.243420991897
 21
-9.993420991897
  0
LINE
  5
60D
100
AcDbEntity
  8
0
  6
CONTINUOUS
 62
           1
100
AcDbLine
 10
295.243420991897
 20
33.993420991897
 11
296.65763455427
 21
35.40763455427
  0
LINE
  5
60E
100
AcDbEntity
  8
0
  6
CONTINUOUS
 62
           1
100
AcDbLine
 10
295.243420991897
 20
-9.993420991897
 11
296.65763455427
 21
-11.40763455427
  0
ARC
  5
60F
100
AcDbEntity
  8
0
  6
CONTINUOUS
 62
           1
100
AcDbCircle
 10
273.25
 20
12.0
 40
31.103394249721
100
AcDbArc
 50
-45.0
 51
45.0
  0
SOLID
  5
610
100
AcDbEntity
  8
0
 62
           1
100
AcDbTrace
 10
297.231575594141
 20
-7.076305475833
 11
297.918835921181
 21
-7.690276052331
 12
295.243420991897
 22
-9.993420991897
 13
295.243420991897
 23
-9.993420991897
  0
SOLID
  5
611
100
AcDbEntity
  8
0
 62
           1
100
AcDbTrace
 10
297.918835921181
 20
31.690276052331
 11
297.231575594141
 21
31.076305475833
 12
295.243420991897
 22
33.993420991897
 13
295.243420991897
 23
33.993420991897
  0
MTEXT
  5
612
100
AcDbEntity
  8
0
 62
           2
100
AcDbMText
 10
302.677751087347
 20
6.980944606247
 30
0.0
 40
3.5
 41
0.0
 71
           7
 72
           1
  1
90{\Fgdt;~}
  7
CONVERTER_2
 11
0.0
 21
1.0
 31
0.0
  0
ENDBLK
  5
613
100
AcDbEntity
  8
0
100
AcDbBlockEnd
  0
ENDSEC
  0
SECTION
  2
ENTITIES
  0
HATCH
  5
619
100
AcDbEntity
  8
0
  6
CONTINUOUS
 62
           2
100
AcDbHatch
 10
0.0
 20
0.0
 30
0.0
210
0.0
220
0.0
230
1.0
  2
USER
 70
           0
 71
           1
 91
        1
 92
        1
 93
        5
 72
           1
 10
278.0
 20
16.75
 11
278.0
 21
24.0
 72
           1
 10
278.0
 20
16.75
 11
276.25
 21
15.0
 72
           1
 10
276.25
 20
15.0
 11
275.0
 21
15.0
 72
           1
 10
275.0
 20
24.0
 11
275.0
 21
15.0
 72
           1
 10
278.0
 20
24.0
 11
275.0
 21
24.0
 97
        5
330
4EB
330
4EC
330
4EA
330
4ED
330
4EE
 75
           1
 76
           0
 52
45.0
 41
2.0
 77
           0
 78
           1
 53
45.0
 43
0.0
 44
0.0
 45
-1.4142135623730949
 46
1.4142135623730951
 79
           0
 98
        1
 10
0.0
 20
0.0
  0
HATCH
  5
618
100
AcDbEntity
  8
0
  6
CONTINUOUS
 62
           2
100
AcDbHatch
 10
0.0
 20
0.0
 30
0.0
210
0.0
220
0.0
230
1.0
  2
USER
 70
           0
 71
           1
 91
        1
 92
        1
 93
        5
 72
           1
 10
278.0
 20
0.0
 11
278.0
 21
7.25
 72
           1
 10
275.0
 20
0.0
 11
278.0
 21
0.0
 72
           1
 10
275.0
 20
9.0
 11
275.0
 21
0.0
 72
           1
 10
276.25
 20
9.0
 11
275.0
 21
9.0
 72
           1
 10
278.0
 20
7.25
 11
276.25
 21
9.0
 97
        5
330
4EF
330
4F0
330
4E5
330
4E6
330
4E8
 75
           1
 76
           0
 52
45.0
 41
2.0
 77
           0
 78
           1
 53
45.0
 43
0.0
 44
0.0
 45
-1.4142135623730949
 46
1.4142135623730951
 79
           0
 98
        1
 10
0.0
 20
0.0
  0
HATCH
  5
617
100
AcDbEntity
  8
0
  6
CONTINUOUS
 62
           2
100
AcDbHatch
 10
0.0
 20
0.0
 30
0.0
210
0.0
220
0.0
230
1.0
  2
USER
 70
           0
 71
           1
 91
        1
 92
        1
 93
        4
 72
           1
 10
233.0
 20
95.680138177250299
 11
225.5
 21
94.180138177250299
 72
           1
 10
225.5
 20
94.180138177250299
 11
225.5
 21
95.230138177250296
 72
           1
 10
225.5
 20
95.230138177250296
 11
225.5
 21
95.680138177250299
 72
           1
 10
233.0
 20
95.680138177250299
 11
225.5
 21
95.680138177250299
 97
        4
330
4DE
330
4DC
330
4D7
330
4DA
 75
           1
 76
           0
 52
0.0
 41
0.1
 77
           0
 78
           1
 53
0.0
 43
0.0
 44
0.0
 45
0.0
 46
0.1
 79
           0
 98
        1
 10
0.0
 20
0.0
  0
HATCH
  5
616
100
AcDbEntity
  8
0
  6
CONTINUOUS
 62
           2
100
AcDbHatch
 10
0.0
 20
0.0
 30
0.0
210
0.0
220
0.0
230
1.0
  2
USER
 70
           0
 71
           1
 91
        1
 92
        1
 93
        4
 72
           1
 10
233.0
 20
-28.431104426299999
 11
225.5
 21
-29.931104426299999
 72
           1
 10
225.5
 20
-29.931104426299999
 11
225.5
 21
-28.881104426299999
 72
           1
 10
225.5
 20
-28.881104426299999
 11
225.5
 21
-28.431104426299999
 72
           1
 10
233.0
 20
-28.431104426299999
 11
225.5
 21
-28.431104426299999
 97
        4
330
4D3
330
4D1
330
4CC
330
4CF
 75
           1
 76
           0
 52
0.0
 41
0.1
 77
           0
 78
           1
 53
0.0
 43
0.0
 44
0.0
 45
0.0
 46
0.1
 79
           0
 98
        1
 10
0.0
 20
0.0
  0
DIMENSION
  5
615
100
AcDbEntity
  8
0
100
AcDbDimension
  2
*D19
 10
276.25
 20
15.0
 11
301.08155460416
 21
10.8972128283
 31
0.0
 70
           2
  1
<>
  3
ME10_DIM_18
100
AcDb2LineAngularDimension
 13
278.0
 23
7.25
 14
276.25
 24
9.0
 15
278.0
 25
16.75
 16
301.08155460416
 26
10.8972128283
  0
DIMENSION
  5
607
100
AcDbEntity
  8
0
100
AcDbDimension
  2
*D18
 10
0.0
 20
41.992674026139
 11
52.5
 21
45.242674026139
 31
0.0
  1
<>
  3
ME10_DIM_17
100
AcDbAlignedDimension
 13
105.0
 23
14.0
 14
0.0
 24
24.0
100
AcDbRotatedDimension
  0
DIMENSION
  5
5FB
100
AcDbEntity
  8
0
100
AcDbDimension
  2
*D17
 10
0.0
 20
49.992674026139
 11
61.25
 21
53.242674026139
 31
0.0
  1
<>
  3
ME10_DIM_16
100
AcDbAlignedDimension
 13
122.5
 23
17.7
 14
0.0
 24
24.0
100
AcDbRotatedDimension
  0
DIMENSION
  5
5EF
100
AcDbEntity
  8
0
100
AcDbDimension
  2
*D16
 10
0.0
 20
57.992674026139
 11
97.5
 21
61.242674026139
 31
0.0
  1
<>
  3
ME10_DIM_15
100
AcDbAlignedDimension
 13
195.0
 23
16.0
 14
0.0
 24
24.0
100
AcDbRotatedDimension
  0
DIMENSION
  5
5E3
100
AcDbEntity
  8
0
100
AcDbDimension
  2
*D15
 10
0.0
 20
65.992674026139
 11
116.5
 21
69.242674026139
 31
0.0
  1
<>
  3
ME10_DIM_14
100
AcDbAlignedDimension
 13
233.0
 23
17.7
 14
0.0
 24
24.0
100
AcDbRotatedDimension
  0
DIMENSION
  5
5D8
100
AcDbEntity
  8
0
100
AcDbDimension
  2
*D14
 10
0.0
 20
73.992674026139
 11
122.5
 21
77.242674026139
 31
0.0
  1
<>
  3
ME10_DIM_13
100
AcDbAlignedDimension
 13
245.0
 23
24.0
 14
0.0
 24
24.0
100
AcDbRotatedDimension
  0
DIMENSION
  5
5CD
100
AcDbEntity
  8
0
100
AcDbDimension
  2
*D13
 10
0.0
 20
33.992674026139
 11
4.988514213442
 21
37.242674026139
 31
0.0
  1
<>
  3
ME10_DIM_12
100
AcDbAlignedDimension
 13
12.0
 23
17.7
 14
0.0
 24
24.0
100
AcDbRotatedDimension
  0
DIMENSION
  5
5C2
100
AcDbEntity
  8
0
100
AcDbDimension
  2
*D12
 10
204.753557885215
 20
6.0
 11
201.503557885215
 21
12.0
 31
0.0
  1
<>
  3
ME10_DIM_11
100
AcDbAlignedDimension
 13
193.0
 23
18.0
 14
193.0
 24
6.0
100
AcDbRotatedDimension
  0
DIMENSION
  5
5B7
100
AcDbEntity
  8
0
100
AcDbDimension
  2
*D11
 10
204.753557885215
 20
0.0
 11
201.503557885215
 21
-10.697487837338
 31
0.0
  1
<>
  3
ME10_DIM_10
100
AcDbAlignedDimension
 13
193.0
 23
6.0
 14
190.013767025373
 24
0.0
100
AcDbRotatedDimension
  0
DIMENSION
  5
5A9
100
AcDbEntity
  8
0
100
AcDbDimension
  2
*D10
 10
285.61267110778
 20
9.0
 11
282.36267110778
 21
0.156869838574
 31
0.0
 53
90.0
  1
<>
  3
ME10_DIM_9
100
AcDbAlignedDimension
 13
276.25
 23
15.0
 14
276.25
 24
9.0
 50
90.0
100
AcDbRotatedDimension
  0
DIMENSION
  5
59C
100
AcDbEntity
  8
0
100
AcDbDimension
  2
*D9
 10
294.102656518706
 20
7.25
 11
290.852656518706
 21
-3.014088567917
 31
0.0
 53
90.0
  1
<>
  3
ME10_DIM_8
100
AcDbAlignedDimension
 13
278.0
 23
16.75
 14
278.0
 24
7.25
 50
90.0
100
AcDbRotatedDimension
  0
DIMENSION
  5
58C
100
AcDbEntity
  8
0
100
AcDbDimension
  2
*D8
 10
275.0
 20
37.311017276114
 11
285.431340533416
 21
40.561017276114
 31
0.0
  1
<>
  3
ME10_DIM_7
100
AcDbAlignedDimension
 13
278.0
 23
24.0
 14
275.0
 24
24.0
100
AcDbRotatedDimension
  0
DIMENSION
  5
57E
100
AcDbEntity
  8
0
100
AcDbDimension
  2
*D7
 10
255.232843793984
 20
0.0
 11
251.982843793984
 21
6.498786651555
 31
0.0
 53
90.0
  1
<>
  3
ME10_DIM_6
100
AcDbAlignedDimension
 13
238.7
 23
12.0
 14
245.0
 24
0.0
 50
90.0
100
AcDbRotatedDimension
  0
DIMENSION
  5
573
100
AcDbEntity
  8
0
100
AcDbDimension
  2
*D6
 10
264.84800799431
 20
0.0
 11
261.59800799431
 21
12.738414483681
 31
0.0
 53
90.0
  1
<>
  3
ME10_DIM_5
100
AcDbAlignedDimension
 13
245.0
 23
24.0
 14
245.0
 24
0.0
 50
90.0
100
AcDbRotatedDimension
  0
DIMENSION
  5
568
100
AcDbEntity
  8
0
100
AcDbDimension
  2
*D5
 10
41.5192877385
 20
0.0
 11
38.2692877385
 21
-12.282286576626
 31
0.0
 53
90.0
  1
<>
  3
ME10_DIM_4
100
AcDbAlignedDimension
 13
52.0
 23
8.0
 14
50.155278283164
 24
0.0
 50
90.0
100
AcDbRotatedDimension
  0
DIMENSION
  5
55B
100
AcDbEntity
  8
0
100
AcDbDimension
  2
*D4
 10
32.010495302769
 20
16.0
 11
28.760495302769
 21
11.489694512701
 31
0.0
 53
90.0
  1
<>
  3
ME10_DIM_3
100
AcDbAlignedDimension
 13
52.0
 23
8.0
 14
52.0
 24
16.0
 50
90.0
100
AcDbRotatedDimension
  0
DIMENSION
  5
54D
100
AcDbEntity
  8
0
100
AcDbDimension
  2
*D3
 10
50.0
 20
33.992674026139
 11
75.51205811178
 21
37.242674026139
 31
0.0
  1
<>
  3
ME10_DIM_2
100
AcDbAlignedDimension
 13
105.0
 23
14.0
 14
50.0
 24
14.0
100
AcDbRotatedDimension
  0
DIMENSION
  5
541
100
AcDbEntity
  8
0
100
AcDbDimension
  2
*D2
 10
140.0
 20
34.388873710961
 11
165.449386566402
 21
37.638873710961
 31
0.0
  1
<>
  3
ME10_DIM_1
100
AcDbAlignedDimension
 13
195.0
 23
16.0
 14
140.0
 24
8.0
100
AcDbRotatedDimension
  0
DIMENSION
  5
535
100
AcDbEntity
  8
0
100
AcDbDimension
  2
*D1
 10
211.625
 20
33.886942910978
 11
214.991578839371
 21
37.136942910978
 31
0.0
  1
<>
  3
ME10_DIM_0
100
AcDbAlignedDimension
 13
218.625
 23
19.0
 14
211.625
 24
19.0
100
AcDbRotatedDimension
  0
TEXT
  5
527
100
AcDbEntity
  8
1
 62
           2
100
AcDbText
 10
302.468609632739
 20
-25.743175432217
 40
3.5
  1
a
  7
CONVERTER_2
100
AcDbText
  0
TEXT
  5
526
100
AcDbEntity
  8
1
 62
           2
100
AcDbText
 10
260.382895010007
 20
-27.447652548601
 40
3.5
  1
Schüco-Krone
  7
CONVERTER_2
100
AcDbText
  0
TEXT
  5
525
100
AcDbEntity
  8
1
 62
           7
100
AcDbText
 10
263.148975289076
 20
-72.464832236951
 40
5.0
  1
Schüco Nr.209475.01
  7
CONVERTER_2
100
AcDbText
  0
MTEXT
  5
524
100
AcDbEntity
  8
1
 62
           2
100
AcDbMText
 10
86.550158721028
 20
-62.076666556477
 30
0.0
 40
3.5
 41
0.0
 71
           7
 72
           1
  1
Senkungen von der Schnittseite\PSchließbleche stark trovalisieren\Pschleifen und bürsten
  7
CONVERTER_2
  0
TEXT
  5
523
100
AcDbEntity
  8
1
 62
           2
100
AcDbText
 10
302.930935343468
 20
-113.559925672985
 40
3.5
  1
b
  7
CONVERTER_2
100
AcDbText
  0
TEXT
  5
522
100
AcDbEntity
  8
1
 62
           2
100
AcDbText
 10
270.99070834542
 20
-90.059925672985
 40
3.5
  1
b
  7
CONVERTER_2
100
AcDbText
  0
LEADER
  5
521
100
AcDbEntity
  8
1
  6
CONTINUOUS
 62
           2
100
AcDbLeader
  3
Standard
 71
           0
 73
           3
 74
           0
 75
           0
 40
0.0
 76
           3
 10
218.625
 20
9.650710397587
 30
0.0
 10
254.215760257797
 20
-28.293438407625
 30
0.0
 10
298.354160613752
 20
-28.320555206158
 30
0.0
 77
           2
  0
ARC
  5
515
100
AcDbEntity
  8
1
  6
CONTINUOUS
 62
           7
100
AcDbCircle
 10
52.0
 20
14.0
 40
2.0
100
AcDbArc
 50
90.0
 51
180.0
  0
ARC
  5
514
100
AcDbEntity
  8
1
  6
CONTINUOUS
 62
           7
100
AcDbCircle
 10
52.0
 20
10.0
 40
2.0
100
AcDbArc
 50
180.0
 51
-90.0
  0
ARC
  5
513
100
AcDbEntity
  8
1
  6
CONTINUOUS
 62
           7
100
AcDbCircle
 10
103.0
 20
14.0
 40
2.0
100
AcDbArc
 50
0.0
 51
90.0
  0
ARC
  5
512
100
AcDbEntity
  8
1
  6
CONTINUOUS
 62
           7
100
AcDbCircle
 10
103.0
 20
10.0
 40
2.0
100
AcDbArc
 50
-90.0
 51
0.0
  0
ARC
  5
511
100
AcDbEntity
  8
1
  6
CONTINUOUS
 62
           7
100
AcDbCircle
 10
142.0
 20
16.0
 40
2.0
100
AcDbArc
 50
90.0
 51
180.0
  0
ARC
  5
510
100
AcDbEntity
  8
1
  6
CONTINUOUS
 62
           7
100
AcDbCircle
 10
142.0
 20
8.0
 40
2.0
100
AcDbArc
 50
180.0
 51
-90.0
  0
ARC
  5
50F
100
AcDbEntity
  8
1
  6
CONTINUOUS
 62
           7
100
AcDbCircle
 10
193.0
 20
16.0
 40
2.0
100
AcDbArc
 50
0.0
 51
90.0
  0
ARC
  5
50E
100
AcDbEntity
  8
1
  6
CONTINUOUS
 62
           7
100
AcDbCircle
 10
193.0
 20
8.0
 40
2.0
100
AcDbArc
 50
-90.0
 51
0.0
  0
CIRCLE
  5
50D
100
AcDbEntity
  8
1
  6
CONTINUOUS
 62
           7
100
AcDbCircle
 10
233.0
 20
12.0
 40
4.75
  0
CIRCLE
  5
50C
100
AcDbEntity
  8
1
  6
CONTINUOUS
 62
           7
100
AcDbCircle
 10
122.5
 20
12.0
 40
4.75
  0
CIRCLE
  5
50B
100
AcDbEntity
  8
1
  6
CONTINUOUS
 62
           7
100
AcDbCircle
 10
12.0
 20
12.0
 40
4.75
  0
CIRCLE
  5
50A
100
AcDbEntity
  8
1
  6
CONTINUOUS
 62
           7
100
AcDbCircle
 10
233.0
 20
12.0
 40
3.0
  0
CIRCLE
  5
509
100
AcDbEntity
  8
1
  6
CONTINUOUS
 62
           7
100
AcDbCircle
 10
122.5
 20
12.0
 40
3.0
  0
CIRCLE
  5
508
100
AcDbEntity
  8
1
  6
CONTINUOUS
 62
           7
100
AcDbCircle
 10
12.0
 20
12.0
 40
3.0
  0
CIRCLE
  5
507
100
AcDbEntity
  8
1
  6
CONTINUOUS
 62
           2
100
AcDbCircle
 10
303.862616675593
 20
-112.211443032862
 40
2.728182033742
  0
CIRCLE
  5
506
100
AcDbEntity
  8
1
  6
CONTINUOUS
 62
           2
100
AcDbCircle
 10
271.989465598459
 20
-88.589379082168
 40
2.399170783282
  0
LINE
  5
505
100
AcDbEntity
  8
1
  6
CONTINUOUS
 62
           7
100
AcDbLine
 10
0.0
 20
0.0
 11
50.155278283164
 21
0.0
  0
LINE
  5
504
100
AcDbEntity
  8
1
  6
CONTINUOUS
 62
           7
100
AcDbLine
 10
245.0
 20
0.0
 11
245.0
 21
24.0
  0
LINE
  5
503
100
AcDbEntity
  8
1
  6
CONTINUOUS
 62
           7
100
AcDbLine
 10
245.0
 20
24.0
 11
0.0
 21
24.0
  0
LINE
  5
502
100
AcDbEntity
  8
1
  6
CONTINUOUS
 62
           7
100
AcDbLine
 10
0.0
 20
24.0
 11
0.0
 21
0.0
  0
LINE
  5
501
100
AcDbEntity
  8
1
  6
CONTINUOUS
 62
           7
100
AcDbLine
 10
52.0
 20
8.0
 11
103.0
 21
8.0
  0
LINE
  5
500
100
AcDbEntity
  8
1
  6
CONTINUOUS
 62
           7
100
AcDbLine
 10
105.0
 20
10.0
 11
105.0
 21
14.0
  0
LINE
  5
4FF
100
AcDbEntity
  8
1
  6
CONTINUOUS
 62
           7
100
AcDbLine
 10
103.0
 20
16.0
 11
52.0
 21
16.0
  0
LINE
  5
4FE
100
AcDbEntity
  8
1
  6
CONTINUOUS
 62
           7
100
AcDbLine
 10
50.0
 20
14.0
 11
50.0
 21
10.0
  0
LINE
  5
4FD
100
AcDbEntity
  8
1
  6
CONTINUOUS
 62
           7
100
AcDbLine
 10
142.0
 20
6.0
 11
193.0
 21
6.0
  0
LINE
  5
4FC
100
AcDbEntity
  8
1
  6
CONTINUOUS
 62
           7
100
AcDbLine
 10
195.0
 20
8.0
 11
195.0
 21
16.0
  0
LINE
  5
4FB
100
AcDbEntity
  8
1
  6
CONTINUOUS
 62
           7
100
AcDbLine
 10
193.0
 20
18.0
 11
142.0
 21
18.0
  0
LINE
  5
4FA
100
AcDbEntity
  8
1
  6
CONTINUOUS
 62
           7
100
AcDbLine
 10
140.0
 20
16.0
 11
140.0
 21
8.0
  0
LINE
  5
4F9
100
AcDbEntity
  8
1
  6
DOT_CENTER
 62
           2
100
AcDbLine
 10
238.7
 20
12.0
 11
236.0
 21
12.0
  0
LINE
  5
4F8
100
AcDbEntity
  8
1
  6
DOT_CENTER
 62
           2
100
AcDbLine
 10
233.0
 20
17.7
 11
233.0
 21
6.3
  0
LINE
  5
4F7
100
AcDbEntity
  8
1
  6
DOT_CENTER
 62
           2
100
AcDbLine
 10
128.2
 20
12.0
 11
125.5
 21
12.0
  0
LINE
  5
4F6
100
AcDbEntity
  8
1
  6
DOT_CENTER
 62
           2
100
AcDbLine
 10
122.5
 20
17.7
 11
122.5
 21
6.3
  0
LINE
  5
4F5
100
AcDbEntity
  8
1
  6
DOT_CENTER
 62
           2
100
AcDbLine
 10
17.7
 20
12.0
 11
15.0
 21
12.0
  0
LINE
  5
4F4
100
AcDbEntity
  8
1
  6
DOT_CENTER
 62
           2
100
AcDbLine
 10
12.0
 20
17.7
 11
12.0
 21
6.3
  0
LINE
  5
4F3
100
AcDbEntity
  8
1
  6
DOT_CENTER
 62
           2
100
AcDbLine
 10
236.0
 20
12.0
 11
227.3
 21
12.0
  0
LINE
  5
4F2
100
AcDbEntity
  8
1
  6
DOT_CENTER
 62
           2
100
AcDbLine
 10
125.5
 20
12.0
 11
116.8
 21
12.0
  0
LINE
  5
4F1
100
AcDbEntity
  8
1
  6
DOT_CENTER
 62
           2
100
AcDbLine
 10
15.0
 20
12.0
 11
6.3
 21
12.0
  0
LINE
  5
4F0
100
AcDbEntity
  8
1
  6
CONTINUOUS
 62
           7
100
AcDbLine
 10
275.0
 20
0.0
 11
278.0
 21
0.0
  0
LINE
  5
4EF
100
AcDbEntity
  8
1
  6
CONTINUOUS
 62
           7
100
AcDbLine
 10
278.0
 20
0.0
 11
278.0
 21
7.25
  0
LINE
  5
4EE
100
AcDbEntity
  8
1
  6
CONTINUOUS
 62
           7
100
AcDbLine
 10
278.0
 20
24.0
 11
275.0
 21
24.0
  0
LINE
  5
4ED
100
AcDbEntity
  8
1
  6
CONTINUOUS
 62
           7
100
AcDbLine
 10
275.0
 20
24.0
 11
275.0
 21
15.0
  0
LINE
  5
4EC
100
AcDbEntity
  8
1
  6
CONTINUOUS
 62
           7
100
AcDbLine
 10
278.0
 20
16.75
 11
276.25
 21
15.0
  0
LINE
  5
4EB
100
AcDbEntity
  8
1
  6
CONTINUOUS
 62
           7
100
AcDbLine
 10
278.0
 20
16.75
 11
278.0
 21
24.0
  0
LINE
  5
4EA
100
AcDbEntity
  8
1
  6
CONTINUOUS
 62
           7
100
AcDbLine
 10
276.25
 20
15.0
 11
275.0
 21
15.0
  0
LINE
  5
4E9
100
AcDbEntity
  8
1
  6
CONTINUOUS
 62
           7
100
AcDbLine
 10
275.0
 20
15.0
 11
275.0
 21
9.0
  0
LINE
  5
4E8
100
AcDbEntity
  8
1
  6
CONTINUOUS
 62
           7
100
AcDbLine
 10
278.0
 20
7.25
 11
276.25
 21
9.0
  0
LINE
  5
4E7
100
AcDbEntity
  8
1
  6
CONTINUOUS
 62
           7
100
AcDbLine
 10
278.0
 20
7.25
 11
278.0
 21
16.75
  0
LINE
  5
4E6
100
AcDbEntity
  8
1
  6
CONTINUOUS
 62
           7
100
AcDbLine
 10
276.25
 20
9.0
 11
275.0
 21
9.0
  0
LINE
  5
4E5
100
AcDbEntity
  8
1
  6
CONTINUOUS
 62
           7
100
AcDbLine
 10
275.0
 20
9.0
 11
275.0
 21
0.0
  0
LINE
  5
4E4
100
AcDbEntity
  8
1
  6
CONTINUOUS
 62
           7
100
AcDbLine
 10
276.25
 20
9.0
 11
276.25
 21
15.0
  0
LINE
  5
4E3
100
AcDbEntity
  8
1
  6
DOT_CENTER
 62
           2
100
AcDbLine
 10
273.25
 20
12.0
 11
279.90447397833
 21
12.0
  0
LINE
  5
4E2
100
AcDbEntity
  8
1
  6
CONTINUOUS
 62
           7
100
AcDbLine
 10
50.155278283164
 20
0.0
 11
190.013767025373
 21
0.0
  0
LINE
  5
4E1
100
AcDbEntity
  8
1
  6
CONTINUOUS
 62
           7
100
AcDbLine
 10
190.013767025373
 20
0.0
 11
245.0
 21
0.0
  0
LINE
  5
4E0
100
AcDbEntity
  8
1
  6
DOT_CENTER
 62
           7
100
AcDbLine
 10
233.0
 20
83.651735810386
 11
233.0
 21
95.68013817725
  0
LINE
  5
4DF
100
AcDbEntity
  8
1
  6
DOT_CENTER
 62
           7
100
AcDbLine
 10
233.0
 20
-14.762465373046
 11
233.0
 21
-28.4311044263
  0
LINE
  5
4DE
100
AcDbEntity
  8
1
  6
CONTINUOUS
 62
           7
100
AcDbLine
 10
233.0
 20
95.68013817725
 11
225.5
 21
94.18013817725
  0
LINE
  5
4DD
100
AcDbEntity
  8
1
  6
DOT_CENTER
 62
           7
100
AcDbLine
 10
233.0
 20
95.68013817725
 11
233.0
 21
102.241084922812
  0
LINE
  5
4DC
100
AcDbEntity
  8
1
  6
CONTINUOUS
 62
           7
100
AcDbLine
 10
225.5
 20
94.18013817725
 11
225.5
 21
95.23013817725
  0
LINE
  5
4DB
100
AcDbEntity
  8
1
  6
CONTINUOUS
 62
           7
100
AcDbLine
 10
225.5
 20
97.18013817725
 11
233.0
 21
95.68013817725
  0
LINE
  5
4DA
100
AcDbEntity
  8
1
  6
CONTINUOUS
 62
           7
100
AcDbLine
 10
233.0
 20
95.68013817725
 11
225.5
 21
95.68013817725
  0
LINE
  5
4D9
100
AcDbEntity
  8
1
  6
CONTINUOUS
 62
           7
100
AcDbLine
 10
225.5
 20
95.68013817725
 11
225.5
 21
96.13013817725
  0
LINE
  5
4D8
100
AcDbEntity
  8
1
  6
CONTINUOUS
 62
           7
100
AcDbLine
 10
225.5
 20
95.23013817725
 11
218.0
 21
95.23013817725
  0
LINE
  5
4D7
100
AcDbEntity
  8
1
  6
CONTINUOUS
 62
           7
100
AcDbLine
 10
225.5
 20
95.23013817725
 11
225.5
 21
95.68013817725
  0
LINE
  5
4D6
100
AcDbEntity
  8
1
  6
CONTINUOUS
 62
           7
100
AcDbLine
 10
218.0
 20
95.23013817725
 11
218.0
 21
96.13013817725
  0
LINE
  5
4D5
100
AcDbEntity
  8
1
  6
CONTINUOUS
 62
           7
100
AcDbLine
 10
218.0
 20
96.13013817725
 11
225.5
 21
96.13013817725
  0
LINE
  5
4D4
100
AcDbEntity
  8
1
  6
CONTINUOUS
 62
           7
100
AcDbLine
 10
225.5
 20
96.13013817725
 11
225.5
 21
97.18013817725
  0
LINE
  5
4D3
100
AcDbEntity
  8
1
  6
CONTINUOUS
 62
           7
100
AcDbLine
 10
233.0
 20
-28.4311044263
 11
225.5
 21
-29.9311044263
  0
LINE
  5
4D2
100
AcDbEntity
  8
1
  6
DOT_CENTER
 62
           7
100
AcDbLine
 10
233.0
 20
-28.4311044263
 11
233.0
 21
-39.912761231034
  0
LINE
  5
4D1
100
AcDbEntity
  8
1
  6
CONTINUOUS
 62
           7
100
AcDbLine
 10
225.5
 20
-29.9311044263
 11
225.5
 21
-28.8811044263
  0
LINE
  5
4D0
100
AcDbEntity
  8
1
  6
CONTINUOUS
 62
           7
100
AcDbLine
 10
225.5
 20
-26.9311044263
 11
233.0
 21
-28.4311044263
  0
LINE
  5
4CF
100
AcDbEntity
  8
1
  6
CONTINUOUS
 62
           7
100
AcDbLine
 10
233.0
 20
-28.4311044263
 11
225.5
 21
-28.4311044263
  0
LINE
  5
4CE
100
AcDbEntity
  8
1
  6
CONTINUOUS
 62
           7
100
AcDbLine
 10
225.5
 20
-28.4311044263
 11
225.5
 21
-27.9811044263
  0
LINE
  5
4CD
100
AcDbEntity
  8
1
  6
CONTINUOUS
 62
           7
100
AcDbLine
 10
225.5
 20
-28.8811044263
 11
218.0
 21
-28.8811044263
  0
LINE
  5
4CC
100
AcDbEntity
  8
1
  6
CONTINUOUS
 62
           7
100
AcDbLine
 10
225.5
 20
-28.8811044263
 11
225.5
 21
-28.4311044263
  0
LINE
  5
4CB
100
AcDbEntity
  8
1
  6
CONTINUOUS
 62
           7
100
AcDbLine
 10
218.0
 20
-28.8811044263
 11
218.0
 21
-27.9811044263
  0
LINE
  5
4CA
100
AcDbEntity
  8
1
  6
CONTINUOUS
 62
           7
100
AcDbLine
 10
218.0
 20
-27.9811044263
 11
225.5
 21
-27.9811044263
  0
LINE
  5
4C9
100
AcDbEntity
  8
1
  6
CONTINUOUS
 62
           7
100
AcDbLine
 10
225.5
 20
-27.9811044263
 11
225.5
 21
-26.9311044263
  0
LINE
  5
4C8
100
AcDbEntity
  8
1
  6
DOT_CENTER
 62
           2
100
AcDbLine
 10
211.625
 20
5.0
 11
218.625
 21
5.0
  0
LINE
  5
4C7
100
AcDbEntity
  8
1
  6
DOT_CENTER
 62
           2
100
AcDbLine
 10
218.625
 20
5.0
 11
218.625
 21
19.0
  0
LINE
  5
4C6
100
AcDbEntity
  8
1
  6
DOT_CENTER
 62
           2
100
AcDbLine
 10
218.625
 20
19.0
 11
211.625
 21
19.0
  0
LINE
  5
4C5
100
AcDbEntity
  8
1
  6
DOT_CENTER
 62
           2
100
AcDbLine
 10
211.625
 20
19.0
 11
211.625
 21
5.0
  0
INSERT
  5
29
100
AcDbEntity
  8
0
100
AcDbBlockReference
  2
_TB_A3_Q
 10
0.0
 20
0.0
  0
POLYLINE
  5
516
100
AcDbEntity
  8
0
 62
           2
100
AcDb2dPolyline
 66
           1
 10
0.0
 20
0.0
 30
0.0
 70
           1
  0
VERTEX
  5
517
100
AcDbEntity
  8
0
100
AcDbVertex
100
AcDb2dVertex
 10
303.606109632739
 20
-27.493175432217
  0
VERTEX
  5
518
100
AcDbEntity
  8
0
100
AcDbVertex
100
AcDb2dVertex
 10
303.606109632739
 20
-27.493175432217
 42
0.414213562373
  0
VERTEX
  5
519
100
AcDbEntity
  8
0
100
AcDbVertex
100
AcDb2dVertex
 10
306.581109632739
 20
-24.518175432217
  0
VERTEX
  5
51A
100
AcDbEntity
  8
0
100
AcDbVertex
100
AcDb2dVertex
 10
306.581109632739
 20
-24.518175432217
 42
0.414213562373
  0
VERTEX
  5
51B
100
AcDbEntity
  8
0
100
AcDbVertex
100
AcDb2dVertex
 10
303.606109632739
 20
-21.543175432217
  0
VERTEX
  5
51C
100
AcDbEntity
  8
0
100
AcDbVertex
100
AcDb2dVertex
 10
303.606109632739
 20
-21.543175432217
 42
0.414213562373
  0
VERTEX
  5
51D
100
AcDbEntity
  8
0
100
AcDbVertex
100
AcDb2dVertex
 10
300.631109632739
 20
-24.518175432217
  0
VERTEX
  5
51E
100
AcDbEntity
  8
0
100
AcDbVertex
100
AcDb2dVertex
 10
300.631109632739
 20
-24.518175432217
 42
0.414213562373
  0
SEQEND
  5
51F
100
AcDbEntity
  8
0
  0
SOLID
  5
520
100
AcDbEntity
  8
0
 62
           2
100
AcDbTrace
 10
220.965447003273
 20
7.732821129157
 11
220.389311936455
 21
7.192419362747
 12
218.625
 22
9.650710397587
 13
218.625
 23
9.650710397587
  0
ENDSEC
  0
SECTION
  2
OBJECTS
  0
DICTIONARY
  5
19
100
AcDbDictionary
  3
ACAD_GROUP
350
1A
  3
ACAD_MLINESTYLE
350
1B
  0
DICTIONARY
  5
1A
102
{ACAD_REACTORS
330
19
102
}
100
AcDbDictionary
  0
DICTIONARY
  5
1B
102
{ACAD_REACTORS
330
19
102
}
100
AcDbDictionary
  3
STANDARD
350
1C
  0
MLINESTYLE
  5
1C
102
{ACAD_REACTORS
330
1B
102
}
100
AcDbMlineStyle
  2
STANDARD
 70
           0
  3

 62
           0
 51
90.0
 52
90.0
 71
           2
 49
0.5
 62
         256
  6
BYLAYER
 49
-0.5
 62
         256
  6
BYLAYER
  0
ENDSEC
  0
EOF
