  0
SECTION
  2
HEADER
  9
$ACADVER
  1
AC1009
  9
$INSBASE
 10
0
 20
0
  9
$EXTMIN
 10
20.49928078290388
 20
34.79253217550639
  9
$EXTMAX
 10
336.48820768665
 20
211.470009913558
  9
$LIMMIN
 10
20.49928078290388
 20
34.79253217550639
  9
$LIMMAX
 10
336.48820768665
 20
211.470009913558
  9
$VIEWCTR
 10
10
 20
10
  9
$VIEWSIZE
 40
10
  9
$SNAPMODE
 70
0
  9
$SNAPUNIT
 10
1
 20
1
  9
$SNAPBASE
 10
0
 20
0
  9
$SNAPANG
 50
0
  9
$SNAPSTYLE
 70
0
  9
$SNAPISOPAIR
 70
0
  9
$GRIDMODE
 70
0
  9
$GRIDUNIT
 10
0
 20
0
  9
$ORTHOMODE
 70
0
  9
$REGENMODE
 70
1
  9
$FILLMODE
 70
1
  9
$QTEXTMODE
 70
0
  9
$DRAGMODE
 70
2
  9
$LTSCALE
 40
1
  9
$OSMODE
 70
0
  9
$ATTMODE
 70
1
  9
$TEXTSIZE
 40
3.5
  9
$TRACEWID
 40
0.5
  9
$TEXTSTYLE
  7
STANDARD
  9
$CLAYER
  8
0
  9
$CELTYPE
  6
BYLAYER
  9
$CECOLOR
 62
256
  9
$DIMSCALE
 40
1
  9
$DIMASZ
 40
0.18
  9
$DIMEXO
 40
0.0625
  9
$DIMDLI
 40
0.38
  9
$DIMRND
 40
0
  9
$DIMDLE
 40
0
  9
$DIMEXE
 40
0.18
  9
$DIMTP
 40
0
  9
$DIMTM
 40
0
  9
$DIMTXT
 40
0.18
  9
$DIMCEN
 40
0.09
  9
$DIMTSZ
 40
0
  9
$DIMTOL
 70
0
  9
$DIMLIM
 70
0
  9
$DIMTIH
 70
1
  9
$DIMTOH
 70
1
  9
$DIMSE1
 70
0
  9
$DIMSE2
 70
0
  9
$DIMTAD
 70
0
  9
$DIMZIN
 70
0
  9
$DIMBLK
  1

  9
$DIMASO
 70
1
  9
$DIMSHO
 70
1
  9
$DIMPOST
  1

  9
$DIMAPOST
  1

  9
$DIMALT
 70
0
  9
$DIMALTD
 70
2
  9
$DIMALTF
 40
25.4
  9
$DIMLFAC
 40
1
  9
$DIMTOFL
 70
0
  9
$DIMTVP
 40
0
  9
$DIMTIX
 70
0
  9
$DIMSOXD
 70
0
  9
$DIMSAH
 70
0
  9
$DIMBLK1
  1

  9
$DIMBLK2
  1

  9
$DIMSTYLE
  2
*UNNAMED
  9
$DIMCLRD
 70
0
  9
$DIMCLRE
 70
0
  9
$DIMCLRT
 70
0
  9
$DIMTFAC
 40
1
  9
$DIMGAP
 40
0.09
  9
$LUNITS
 70
2
  9
$LUPREC
 70
4
  9
$AXISMODE
 70
0
  9
$AXISUNIT
 10
0
 20
0
  9
$SKETCHINC
 40
0.1
  9
$FILLETRAD
 40
2
  9
$AUNITS
 70
0
  9
$AUPREC
 70
0
  9
$MENU
  1
ACAD
  9
$ELEVATION
 40
0
  9
$THICKNESS
 40
0
  9
$VIEWDIR
 10
0
 20
0
 30
1
  9
$LIMCHECK
 70
0
  9
$BLIPMODE
 70
1
  9
$CHAMFERA
 40
0
  9
$CHAMFERB
 40
0
  9
$FASTZOOM
 70
1
  9
$SKPOLY
 70
0
  9
$ANGBASE
 50
0
  9
$ANGDIR
 70
0
  9
$PDMODE
 70
0
  9
$PDSIZE
 40
0
  9
$PLINEWID
 40
0
  9
$COORDS
 70
2
  0
ENDSEC
  0
SECTION
  2
TABLES
  0
TABLE
  2
DIMSTYLE
 70
1
  0
DIMSTYLE
  2
DMST_1
 70
0
  3

  4

  5

  6

  7

 40
1
 41
5
 42
0
 43
7
 44
2
 45
0
 46
0
 47
0
 48
0
140
5
141
0
142
0
143
25.4
144
1
145
0
146
1
147
0.09
 71
0
 72
0
 73
0
 74
0
 75
0
 76
0
 77
1
 78
9
170
0
171
2
172
0
173
0
174
0
175
0
176
1
177
1
178
3
  0
ENDTAB
  0
TABLE
  2
LTYPE
 70
9
  0
LTYPE
  2
CONTINUOUS
 70
64
  3
Solid line
 72
65
 73
0
 40
0
  0
LTYPE
  2
BORDER
 70
64
  3
__ __ . __ __ .
 72
65
 73
6
 40
14.55212163372515
 49
4.157749038207186
 49
-2.078874519103593
 49
4.157749038207186
 49
-2.078874519103593
 49
0
 49
-2.078874519103593
  0
LTYPE
  2
CENTER
 70
64
  3
____ _ ____ _
 72
65
 73
4
 40
16.63099615282874
 49
10.39437259551796
 49
-2.078874519103593
 49
2.078874519103593
 49
-2.078874519103593
  0
LTYPE
  2
DASHDOT
 70
64
  3
__ . __ . __ .
 72
65
 73
4
 40
8.315498076414372
 49
4.157749038207186
 49
-2.078874519103593
 49
0
 49
-2.078874519103593
  0
LTYPE
  2
DASHED
 70
64
  3
__ __ __ __ __
 72
65
 73
2
 40
6.236623557310779
 49
4.157749038207186
 49
-2.078874519103593
  0
LTYPE
  2
DIVIDE
 70
64
  3
__ . . __ . . 
 72
65
 73
6
 40
10.39437259551796
 49
4.157749038207186
 49
-2.078874519103593
 49
0
 49
-2.078874519103593
 49
0
 49
-2.078874519103593
  0
LTYPE
  2
DOT
 70
64
  3
..............
 72
65
 73
4
 40
4.157749038207186
 49
0
 49
-2.078874519103593
 49
0
 49
-2.078874519103593
  0
LTYPE
  2
HIDDEN
 70
64
  3
_ _ _ _ _ _ _
 72
65
 73
2
 40
3.118311778655389
 49
2.078874519103593
 49
-1.039437259551796
  0
LTYPE
  2
PHANTOM
 70
64
  3
_____ _ _ _____ _ _ 
 72
65
 73
6
 40
20.78874519103593
 49
10.39437259551796
 49
-2.078874519103593
 49
2.078874519103593
 49
-2.078874519103593
 49
2.078874519103593
 49
-2.078874519103593
  0
ENDTAB
  0
TABLE
  2
LAYER
 70
3
  0
LAYER
  2
1
 70
0
 62
7
  6
CONTINUOUS
  0
LAYER
  2
0
 70
0
 62
7
  6
CONTINUOUS
  0
ENDTAB
  0
TABLE
  2
STYLE
 70
4
  0
STYLE
  2
STANDARD
 70
0
 40
0
 41
1
 50
0
 71
0
 42
3.5
  3
txt
  4

  0
STYLE
  2
SIMPLEX
 70
0
 40
0
 41
1
 50
0
 71
0
 42
3.5
  3
simplex
  4

  0
STYLE
  2
COMPLEX
 70
0
 40
0
 41
1
 50
0
 71
0
 42
3.5
  3
complex
  4

  0
STYLE
  2
ITALIC
 70
0
 40
0
 41
1
 50
0
 71
0
 42
3.5
  3
italic
  4

  0
ENDTAB
  0
TABLE
  2
VIEW
 70
0
  0
ENDTAB
  0
ENDSEC
  0
SECTION
  2
BLOCKS
  0
BLOCK
  8
1
  2
*D0
 70
1
 10
0
 20
0
 30
0
  0
LINE
  8
1
 62
1
 10
201.1700183683654
 20
90.20568495827931
 30
0
 11
225.6700183683654
 21
90.20568495827931
 31
0
  0
LINE
  8
1
 62
1
 10
225.6700183683654
 20
142.8195480168133
 30
0
 11
225.6700183683654
 21
88.20568495827931
 31
0
  0
LINE
  8
1
 62
1
 10
201.1700183683654
 20
125.3195480168134
 30
0
 11
201.1700183683654
 21
88.20568495827931
 31
0
  0
SOLID
  8
1
 62
1
 10
201.1700183683654
 20
90.20568495827931
 30
0
 11
206.1700183683654
 21
90.85568495827931
 31
0
 12
206.1700183683654
 22
89.5556849582793
 32
0
 13
206.1700183683654
 23
89.5556849582793
 33
0
  0
SOLID
  8
1
 62
1
 10
225.6700183683654
 20
90.20568495827931
 30
0
 11
220.6700183683654
 21
89.5556849582793
 31
0
 12
220.6700183683654
 22
90.85568495827931
 32
0
 13
220.6700183683654
 23
90.85568495827931
 33
0
  0
TEXT
  8
1
 62
3
 10
206.5450183683654
 20
92.70568495827931
 30
0
 40
5
  1
24,5
 41
0.9
  0
ENDBLK
  8
0
  0
BLOCK
  8
1
  2
*D1
 70
1
 10
0
 20
0
 30
0
  0
LINE
  8
1
 62
1
 10
214.1700183683654
 20
105.439820344719
 30
0
 11
224.1700183683654
 21
105.439820344719
 31
0
  0
LINE
  8
1
 62
1
 10
201.1700183683654
 20
105.439820344719
 30
0
 11
191.1700183683654
 21
105.439820344719
 31
0
  0
LINE
  8
1
 62
1
 10
201.1700183683654
 20
105.439820344719
 30
0
 11
214.1700183683654
 21
105.439820344719
 31
0
  0
LINE
  8
1
 62
1
 10
214.1700183683654
 20
142.8195480168133
 30
0
 11
214.1700183683654
 21
103.439820344719
 31
0
  0
LINE
  8
1
 62
1
 10
201.1700183683654
 20
125.3195480168134
 30
0
 11
201.1700183683654
 21
103.439820344719
 31
0
  0
SOLID
  8
1
 62
1
 10
201.1700183683654
 20
105.439820344719
 30
0
 11
196.1700183683654
 21
104.789820344719
 31
0
 12
196.1700183683654
 22
106.089820344719
 32
0
 13
196.1700183683654
 23
106.089820344719
 33
0
  0
SOLID
  8
1
 62
1
 10
214.1700183683654
 20
105.439820344719
 30
0
 11
219.1700183683654
 21
106.089820344719
 31
0
 12
219.1700183683654
 22
104.789820344719
 32
0
 13
219.1700183683654
 23
104.789820344719
 33
0
  0
TEXT
  8
1
 62
3
 10
201.5450183683654
 20
107.939820344719
 30
0
 40
5
  1
13,5
 41
0.9
  0
ENDBLK
  8
0
  0
BLOCK
  8
1
  2
*D2
 70
1
 10
0
 20
0
 30
0
  0
LINE
  8
1
 62
1
 10
267.280624483286
 20
34.79253217550639
 30
0
 11
267.280624483286
 21
67.29253217550638
 31
0
  0
LINE
  8
1
 62
1
 10
285.0325235207499
 20
67.29253217550638
 30
0
 11
265.280624483286
 21
67.29253217550638
 31
0
  0
LINE
  8
1
 62
1
 10
285.0325235207499
 20
34.79253217550639
 30
0
 11
265.280624483286
 21
34.79253217550639
 31
0
  0
SOLID
  8
1
 62
1
 10
267.280624483286
 20
34.79253217550639
 30
0
 11
266.630624483286
 21
39.79253217550639
 31
0
 12
267.930624483286
 22
39.79253217550639
 32
0
 13
267.930624483286
 23
39.79253217550639
 33
0
  0
SOLID
  8
1
 62
1
 10
267.280624483286
 20
67.29253217550638
 30
0
 11
267.930624483286
 21
62.29253217550638
 31
0
 12
266.630624483286
 22
62.29253217550638
 32
0
 13
266.630624483286
 23
62.29253217550638
 33
0
  0
TEXT
  8
1
 62
3
 10
265.280624483286
 20
47.29253217550639
 30
0
 40
5
  1
32
 50
90
 41
0.9
  0
ENDBLK
  8
0
  0
BLOCK
  8
1
  2
*D3
 70
1
 10
0
 20
0
 30
0
  0
LINE
  8
1
 62
1
 10
285.0325235207499
 20
105.363033516902
 30
0
 11
275.0325235207499
 21
105.363033516902
 31
0
  0
LINE
  8
1
 62
1
 10
285.0325235207499
 20
105.363033516902
 30
0
 11
287.0325235207499
 21
105.363033516902
 31
0
  0
LINE
  8
1
 62
1
 10
287.0325235207499
 20
125.3195480168134
 30
0
 11
287.0325235207499
 21
103.363033516902
 31
0
  0
LINE
  8
1
 62
1
 10
285.0325235207499
 20
125.3195480168134
 30
0
 11
285.0325235207499
 21
103.363033516902
 31
0
  0
LINE
  8
1
 62
1
 10
288.8002904737163
 20
107.1308004698684
 30
0
 11
285.2647565677835
 21
103.5952665639356
 31
0
  0
SOLID
  8
1
 62
1
 10
285.0325235207499
 20
105.363033516902
 30
0
 11
280.0325235207499
 21
104.713033516902
 31
0
 12
280.0325235207499
 22
106.013033516902
 32
0
 13
280.0325235207499
 23
106.013033516902
 33
0
  0
TEXT
  8
1
 62
3
 10
277.078345875778
 20
107.363033516902
 30
0
 40
5
  1
2
 41
0.9
  0
ENDBLK
  8
0
  0
BLOCK
  8
1
  2
*D4
 70
1
 10
0
 20
0
 30
0
  0
LINE
  8
1
 62
1
 10
289.0325235207499
 20
105.363033516902
 30
0
 11
299.0325235207499
 21
105.363033516902
 31
0
  0
LINE
  8
1
 62
1
 10
287.0325235207499
 20
105.363033516902
 30
0
 11
289.0325235207499
 21
105.363033516902
 31
0
  0
LINE
  8
1
 62
1
 10
289.0325235207499
 20
125.3195480168134
 30
0
 11
289.0325235207499
 21
103.363033516902
 31
0
  0
LINE
  8
1
 62
1
 10
287.0325235207499
 20
125.3195480168134
 30
0
 11
287.0325235207499
 21
103.363033516902
 31
0
  0
LINE
  8
1
 62
1
 10
285.2647565677835
 20
103.5952665639356
 30
0
 11
288.8002904737163
 21
107.1308004698684
 31
0
  0
SOLID
  8
1
 62
1
 10
289.0325235207499
 20
105.363033516902
 30
0
 11
294.0325235207499
 21
106.013033516902
 31
0
 12
294.0325235207499
 22
104.713033516902
 32
0
 13
294.0325235207499
 23
104.713033516902
 33
0
  0
TEXT
  8
1
 62
3
 10
293.400336731134
 20
107.363033516902
 30
0
 40
5
  1
2
 41
0.9
  0
ENDBLK
  8
0
  0
BLOCK
  8
1
  2
*D5
 70
1
 10
0
 20
0
 30
0
  0
LINE
  8
1
 62
1
 10
26.80751321598096
 20
90.2196100384368
 30
0
 11
50.80751321598096
 21
90.2196100384368
 31
0
  0
LINE
  8
1
 62
1
 10
50.80751321598096
 20
130.379624778123
 30
0
 11
50.80751321598096
 21
88.2196100384368
 31
0
  0
LINE
  8
1
 62
1
 10
26.80751321598096
 20
141.3195480168133
 30
0
 11
26.80751321598096
 21
88.2196100384368
 31
0
  0
SOLID
  8
1
 62
1
 10
50.80751321598096
 20
90.2196100384368
 30
0
 11
45.80751321598096
 21
89.56961003843679
 31
0
 12
45.80751321598096
 22
90.8696100384368
 32
0
 13
45.80751321598096
 23
90.8696100384368
 33
0
  0
SOLID
  8
1
 62
1
 10
26.80751321598096
 20
90.2196100384368
 30
0
 11
31.80751321598096
 21
90.8696100384368
 31
0
 12
31.80751321598096
 22
89.56961003843679
 32
0
 13
31.80751321598096
 23
89.56961003843679
 33
0
  0
TEXT
  8
1
 62
3
 10
35.05751321598096
 20
92.2196100384368
 30
0
 40
5
  1
24
 41
0.9
  0
ENDBLK
  8
0
  0
BLOCK
  8
1
  2
*D6
 70
1
 10
0
 20
0
 30
0
  0
LINE
  8
1
 62
1
 10
50.80751321598096
 20
90.323155773606
 30
0
 11
77.30751321598092
 21
90.323155773606
 31
0
  0
LINE
  8
1
 62
1
 10
77.30751321598092
 20
125.3195480168134
 30
0
 11
77.30751321598092
 21
88.323155773606
 31
0
  0
LINE
  8
1
 62
1
 10
50.80751321598096
 20
130.379624778123
 30
0
 11
50.80751321598096
 21
88.323155773606
 31
0
  0
SOLID
  8
1
 62
1
 10
77.30751321598092
 20
90.323155773606
 30
0
 11
72.30751321598092
 21
89.673155773606
 31
0
 12
72.30751321598092
 22
90.97315577360601
 32
0
 13
72.30751321598092
 23
90.97315577360601
 33
0
  0
SOLID
  8
1
 62
1
 10
50.80751321598096
 20
90.323155773606
 30
0
 11
55.80751321598096
 21
90.97315577360601
 31
0
 12
55.80751321598096
 22
89.673155773606
 32
0
 13
55.80751321598096
 23
89.673155773606
 33
0
  0
TEXT
  8
1
 62
3
 10
60.30751321598095
 20
92.323155773606
 30
0
 40
5
  1
26
 41
0.9
  0
ENDBLK
  8
0
  0
BLOCK
  8
1
  2
*D7
 70
1
 10
0
 20
0
 30
0
  0
LINE
  8
1
 62
1
 10
56.80751321598092
 20
105.245303783127
 30
0
 11
71.80751321598092
 21
105.245303783127
 31
0
  0
LINE
  8
1
 62
1
 10
71.80751321598092
 20
142.8195480168133
 30
0
 11
71.80751321598092
 21
103.245303783127
 31
0
  0
LINE
  8
1
 62
1
 10
56.80751321598092
 20
142.8195480168133
 30
0
 11
56.80751321598092
 21
103.245303783127
 31
0
  0
SOLID
  8
1
 62
1
 10
56.80751321598092
 20
105.245303783127
 30
0
 11
61.80751321598092
 21
105.895303783127
 31
0
 12
61.80751321598092
 22
104.595303783127
 32
0
 13
61.80751321598092
 23
104.595303783127
 33
0
  0
SOLID
  8
1
 62
1
 10
71.80751321598092
 20
105.245303783127
 30
0
 11
66.80751321598092
 21
104.595303783127
 31
0
 12
66.80751321598092
 22
105.895303783127
 32
0
 13
66.80751321598092
 23
105.895303783127
 33
0
  0
TEXT
  8
1
 62
3
 10
61.30751321598092
 20
107.245303783127
 30
0
 40
5
  1
15
 41
0.9
  0
ENDBLK
  8
0
  0
BLOCK
  8
1
  2
*D8
 70
1
 10
0
 20
0
 30
0
  0
LINE
  8
1
 62
1
 10
77.30751321598092
 20
105.245303783127
 30
0
 11
89.0671484726851
 21
105.245303783127
 31
0
  0
LINE
  8
1
 62
1
 10
71.80751321598092
 20
105.245303783127
 30
0
 11
77.30751321598092
 21
105.245303783127
 31
0
  0
LINE
  8
1
 62
1
 10
61.80751321598092
 20
105.245303783127
 30
0
 11
71.80751321598092
 21
105.245303783127
 31
0
  0
LINE
  8
1
 62
1
 10
77.30751321598092
 20
125.3195480168134
 30
0
 11
77.30751321598092
 21
103.245303783127
 31
0
  0
LINE
  8
1
 62
1
 10
71.80751321598092
 20
142.8195480168133
 30
0
 11
71.80751321598092
 21
103.245303783127
 31
0
  0
SOLID
  8
1
 62
1
 10
71.80751321598092
 20
105.245303783127
 30
0
 11
66.80751321598092
 21
104.595303783127
 31
0
 12
66.80751321598092
 22
105.895303783127
 32
0
 13
66.80751321598092
 23
105.895303783127
 33
0
  0
SOLID
  8
1
 62
1
 10
77.30751321598092
 20
105.245303783127
 30
0
 11
82.30751321598092
 21
105.895303783127
 31
0
 12
82.30751321598092
 22
104.595303783127
 32
0
 13
82.30751321598092
 23
104.595303783127
 33
0
  0
TEXT
  8
1
 62
3
 10
79.8171484726851
 20
107.745303783127
 30
0
 40
5
  1
5,5
 41
0.9
  0
ENDBLK
  8
0
  0
BLOCK
  8
1
  2
*D9
 70
1
 10
0
 20
0
 30
0
  0
LINE
  8
1
 62
1
 10
92.4611912009583
 20
125.3195480168134
 30
0
 11
92.4611912009583
 21
185.3195480168134
 31
0
  0
LINE
  8
1
 62
1
 10
106.6700183683654
 20
185.3195480168134
 30
0
 11
90.4611912009583
 21
185.3195480168134
 31
0
  0
LINE
  8
1
 62
1
 10
106.6700183683654
 20
125.3195480168134
 30
0
 11
90.4611912009583
 21
125.3195480168134
 31
0
  0
SOLID
  8
1
 62
1
 10
92.4611912009583
 20
125.3195480168134
 30
0
 11
91.81119120095829
 21
130.3195480168134
 31
0
 12
93.11119120095829
 22
130.3195480168134
 32
0
 13
93.11119120095829
 23
130.3195480168134
 33
0
  0
SOLID
  8
1
 62
1
 10
92.4611912009583
 20
185.3195480168134
 30
0
 11
93.1111912009583
 21
180.3195480168134
 31
0
 12
91.81119120095829
 22
180.3195480168134
 32
0
 13
91.81119120095829
 23
180.3195480168134
 33
0
  0
TEXT
  8
1
 62
3
 10
90.4611912009583
 20
151.5695480168134
 30
0
 40
5
  1
60
 50
90
 41
0.9
  0
ENDBLK
  8
0
  0
BLOCK
  8
1
  2
*D10
 70
1
 10
0
 20
0
 30
0
  0
LINE
  8
1
 62
1
 10
242.055410774892
 20
142.8195480168133
 30
0
 11
242.055410774892
 21
167.8195480168133
 31
0
  0
LINE
  8
1
 62
1
 10
225.6700183683654
 20
167.8195480168133
 30
0
 11
244.055410774892
 21
167.8195480168133
 31
0
  0
LINE
  8
1
 62
1
 10
225.6700183683654
 20
142.8195480168133
 30
0
 11
244.055410774892
 21
142.8195480168133
 31
0
  0
SOLID
  8
1
 62
1
 10
242.055410774892
 20
142.8195480168133
 30
0
 11
241.405410774892
 21
147.8195480168133
 31
0
 12
242.705410774892
 22
147.8195480168133
 32
0
 13
242.705410774892
 23
147.8195480168133
 33
0
  0
SOLID
  8
1
 62
1
 10
242.055410774892
 20
167.8195480168133
 30
0
 11
242.705410774892
 21
162.8195480168133
 31
0
 12
241.405410774892
 22
162.8195480168133
 32
0
 13
241.405410774892
 23
162.8195480168133
 33
0
  0
TEXT
  8
1
 62
3
 10
240.055410774892
 20
151.5695480168133
 30
0
 40
5
  1
25
 50
90
 41
0.9
  0
ENDBLK
  8
0
  0
BLOCK
  8
1
  2
*D11
 70
1
 10
0
 20
0
 30
0
  0
LINE
  8
1
 62
1
 10
104.6700183683654
 20
90.22569002955809
 30
0
 11
201.1700183683654
 21
90.22569002955809
 31
0
  0
LINE
  8
1
 62
1
 10
201.1700183683654
 20
125.3195480168134
 30
0
 11
201.1700183683654
 21
88.22569002955809
 31
0
  0
LINE
  8
1
 62
1
 10
104.6700183683654
 20
127.3195480168134
 30
0
 11
104.6700183683654
 21
88.22569002955809
 31
0
  0
SOLID
  8
1
 62
1
 10
104.6700183683654
 20
90.22569002955809
 30
0
 11
109.6700183683654
 21
90.8756900295581
 31
0
 12
109.6700183683654
 22
89.57569002955809
 32
0
 13
109.6700183683654
 23
89.57569002955809
 33
0
  0
SOLID
  8
1
 62
1
 10
201.1700183683654
 20
90.22569002955809
 30
0
 11
196.1700183683654
 21
89.57569002955809
 31
0
 12
196.1700183683654
 22
90.8756900295581
 32
0
 13
196.1700183683654
 23
90.8756900295581
 33
0
  0
TEXT
  8
1
 62
3
 10
146.0450183683654
 20
92.72569002955809
 30
0
 40
5
  1
96,5
 41
0.9
  0
ENDBLK
  8
0
  0
BLOCK
  8
1
  2
*D12
 70
1
 10
0
 20
0
 30
0
  0
LINE
  8
1
 62
1
 10
141.1700183683654
 20
105.459896264509
 30
0
 11
201.1700183683654
 21
105.459896264509
 31
0
  0
LINE
  8
1
 62
1
 10
201.1700183683654
 20
125.3195480168134
 30
0
 11
201.1700183683654
 21
103.459896264509
 31
0
  0
LINE
  8
1
 62
1
 10
141.1700183683654
 20
139.3695480168134
 30
0
 11
141.1700183683654
 21
103.459896264509
 31
0
  0
SOLID
  8
1
 62
1
 10
141.1700183683654
 20
105.459896264509
 30
0
 11
146.1700183683654
 21
106.109896264509
 31
0
 12
146.1700183683654
 22
104.809896264509
 32
0
 13
146.1700183683654
 23
104.809896264509
 33
0
  0
SOLID
  8
1
 62
1
 10
201.1700183683654
 20
105.459896264509
 30
0
 11
196.1700183683654
 21
104.809896264509
 31
0
 12
196.1700183683654
 22
106.109896264509
 32
0
 13
196.1700183683654
 23
106.109896264509
 33
0
  0
TEXT
  8
1
 62
3
 10
167.4200183683654
 20
107.459896264509
 30
0
 40
5
  1
60
 41
0.9
  0
ENDBLK
  8
0
  0
BLOCK
  8
1
  2
*D13
 70
1
 10
0
 20
0
 30
0
  0
LINE
  8
1
 62
1
 10
104.6700183683654
 20
105.379492944547
 30
0
 11
141.1700183683654
 21
105.379492944547
 31
0
  0
LINE
  8
1
 62
1
 10
141.1700183683654
 20
139.3695480168134
 30
0
 11
141.1700183683654
 21
103.379492944547
 31
0
  0
LINE
  8
1
 62
1
 10
104.6700183683654
 20
127.3195480168134
 30
0
 11
104.6700183683654
 21
103.379492944547
 31
0
  0
SOLID
  8
1
 62
1
 10
104.6700183683654
 20
105.379492944547
 30
0
 11
109.6700183683654
 21
106.029492944547
 31
0
 12
109.6700183683654
 22
104.729492944547
 32
0
 13
109.6700183683654
 23
104.729492944547
 33
0
  0
SOLID
  8
1
 62
1
 10
141.1700183683654
 20
105.379492944547
 30
0
 11
136.1700183683654
 21
104.729492944547
 31
0
 12
136.1700183683654
 22
106.029492944547
 32
0
 13
136.1700183683654
 23
106.029492944547
 33
0
  0
TEXT
  8
1
 62
3
 10
116.0450183683654
 20
107.879492944547
 30
0
 40
5
  1
36,5
 41
0.9
  0
ENDBLK
  8
0
  0
BLOCK
  8
1
  2
*D14
 70
1
 10
0
 20
0
 30
0
  0
LINE
  8
1
 62
1
 10
289.0325235207499
 20
90.16874913342021
 30
0
 11
304.0325235207499
 21
90.16874913342021
 31
0
  0
LINE
  8
1
 62
1
 10
289.0325235207499
 20
125.3195480168134
 30
0
 11
289.0325235207499
 21
88.16874913342021
 31
0
  0
LINE
  8
1
 62
1
 10
304.0325235207499
 20
125.3195480168134
 30
0
 11
304.0325235207499
 21
88.16874913342021
 31
0
  0
SOLID
  8
1
 62
1
 10
289.0325235207499
 20
90.16874913342021
 30
0
 11
294.0325235207499
 21
90.81874913342021
 31
0
 12
294.0325235207499
 22
89.5187491334202
 32
0
 13
294.0325235207499
 23
89.5187491334202
 33
0
  0
SOLID
  8
1
 62
1
 10
304.0325235207499
 20
90.16874913342021
 30
0
 11
299.0325235207499
 21
89.5187491334202
 31
0
 12
299.0325235207499
 22
90.81874913342021
 32
0
 13
299.0325235207499
 23
90.81874913342021
 33
0
  0
TEXT
  8
1
 62
3
 10
293.5325235207499
 20
92.16874913342021
 30
0
 40
5
  1
15
 41
0.9
  0
ENDBLK
  8
0
  0
BLOCK
  8
1
  2
*D15
 70
1
 10
0
 20
0
 30
0
  0
LINE
  8
1
 62
1
 10
304.0325235207499
 20
90.26398194630021
 30
0
 11
330.8325235207499
 21
90.26398194630021
 31
0
  0
LINE
  8
1
 62
1
 10
304.0325235207499
 20
125.3195480168134
 30
0
 11
304.0325235207499
 21
88.26398194630021
 31
0
  0
LINE
  8
1
 62
1
 10
330.8325235207499
 20
130.379624778123
 30
0
 11
330.8325235207499
 21
88.26398194630021
 31
0
  0
SOLID
  8
1
 62
1
 10
304.0325235207499
 20
90.26398194630021
 30
0
 11
309.0325235207499
 21
90.91398194630021
 31
0
 12
309.0325235207499
 22
89.6139819463002
 32
0
 13
309.0325235207499
 23
89.6139819463002
 33
0
  0
SOLID
  8
1
 62
1
 10
330.8325235207499
 20
90.26398194630021
 30
0
 11
325.8325235207499
 21
89.6139819463002
 31
0
 12
325.8325235207499
 22
90.91398194630021
 32
0
 13
325.8325235207499
 23
90.91398194630021
 33
0
  0
TEXT
  8
1
 62
3
 10
313.6825235207499
 20
92.26398194630021
 30
0
 40
5
  1
26
 41
0.9
  0
ENDBLK
  8
0
  0
ENDSEC
  0
SECTION
  2
ENTITIES
  0
LINE
  8
1
 62
7
 10
325.73252352075
 20
141.9547975518874
 30
0
 11
325.73252352075
 21
168.9547975518874
 31
0
  0
LINE
  8
1
 62
7
 10
309.8325235207499
 20
169.4547975518874
 30
0
 11
325.23252352075
 21
169.4547975518874
 31
0
  0
LINE
  8
1
 62
7
 10
309.8325235207499
 20
141.4547975518874
 30
0
 11
325.23252352075
 21
141.4547975518874
 31
0
  0
LINE
  8
1
 62
7
 10
309.3325235207499
 20
168.9547975518874
 30
0
 11
309.3325235207499
 21
141.9547975518874
 31
0
  0
LINE
  8
1
 62
7
 10
318.1325235207499
 20
174.8195480168134
 30
0
 11
317.5325235207499
 21
174.8195480168134
 31
0
  0
LINE
  8
1
 62
7
 10
319.5325235207499
 20
176.8195480168134
 30
0
 11
319.5325235207499
 21
176.2195480168134
 31
0
  0
LINE
  8
1
 62
7
 10
319.5325235207499
 20
176.2195480168134
 30
0
 11
318.1325235207499
 21
176.2195480168134
 31
0
  0
LINE
  8
1
 62
7
 10
318.1325235207499
 20
176.2195480168134
 30
0
 11
318.1325235207499
 21
174.8195480168134
 31
0
  0
LINE
  8
1
 62
7
 10
317.5325235207499
 20
178.8195480168134
 30
0
 11
318.1325235207499
 21
178.8195480168134
 31
0
  0
LINE
  8
1
 62
7
 10
319.5325235207499
 20
177.4195480168134
 30
0
 11
319.5325235207499
 21
176.8195480168134
 31
0
  0
LINE
  8
1
 62
7
 10
318.1325235207499
 20
178.8195480168134
 30
0
 11
318.1325235207499
 21
177.4195480168134
 31
0
  0
LINE
  8
1
 62
7
 10
318.1325235207499
 20
177.4195480168134
 30
0
 11
319.5325235207499
 21
177.4195480168134
 31
0
  0
LINE
  8
1
 62
7
 10
317.5325235207499
 20
174.8195480168134
 30
0
 11
316.9325235207499
 21
174.8195480168134
 31
0
  0
LINE
  8
1
 62
7
 10
315.5325235207499
 20
176.2195480168134
 30
0
 11
315.5325235207499
 21
176.8195480168134
 31
0
  0
LINE
  8
1
 62
7
 10
316.9325235207499
 20
176.2195480168134
 30
0
 11
315.5325235207499
 21
176.2195480168134
 31
0
  0
LINE
  8
1
 62
7
 10
316.9325235207499
 20
174.8195480168134
 30
0
 11
316.9325235207499
 21
176.2195480168134
 31
0
  0
LINE
  8
1
 62
7
 10
316.9325235207499
 20
178.8195480168134
 30
0
 11
317.5325235207499
 21
178.8195480168134
 31
0
  0
LINE
  8
1
 62
7
 10
315.5325235207499
 20
176.8195480168134
 30
0
 11
315.5325235207499
 21
177.4195480168134
 31
0
  0
LINE
  8
1
 62
7
 10
316.9325235207499
 20
177.4195480168134
 30
0
 11
316.9325235207499
 21
178.8195480168134
 31
0
  0
LINE
  8
1
 62
7
 10
315.5325235207499
 20
177.4195480168134
 30
0
 11
316.9325235207499
 21
177.4195480168134
 31
0
  0
LINE
  8
1
 62
7
 10
212.1700183683654
 20
142.8195480168133
 30
0
 11
214.1700183683654
 21
142.8195480168133
 31
0
  0
LINE
  8
1
 62
7
 10
212.1700183683654
 20
167.8195480168133
 30
0
 11
214.1700183683654
 21
167.8195480168133
 31
0
  0
LINE
  8
1
 62
2
  6
PHANTOM
 10
214.1700183683654
 20
142.8195480168133
 30
0
 11
214.1700183683654
 21
167.8195480168133
 31
0
  0
LINE
  8
1
 62
7
 10
289.0325235207499
 20
34.79253217550639
 30
0
 11
289.0325235207499
 21
67.29253217550638
 31
0
  0
LINE
  8
1
 62
7
 10
287.0325235207499
 20
34.79253217550639
 30
0
 11
287.0325235207499
 21
67.29253217550638
 31
0
  0
LINE
  8
1
 62
7
 10
285.0325235207499
 20
34.79253217550639
 30
0
 11
285.0325235207499
 21
67.29253217550638
 31
0
  0
LINE
  8
1
 62
7
 10
304.0325235207499
 20
34.79253217550639
 30
0
 11
285.0325235207499
 21
34.79253217550639
 31
0
  0
LINE
  8
1
 62
7
 10
304.0325235207499
 20
67.29253217550638
 30
0
 11
285.0325235207499
 21
67.29253217550638
 31
0
  0
LINE
  8
1
 62
7
 10
330.8325235207499
 20
34.79253217550639
 30
0
 11
304.0325235207499
 21
34.79253217550639
 31
0
  0
LINE
  8
1
 62
7
 10
304.0325235207499
 20
34.79253217550639
 30
0
 11
304.0325235207499
 21
67.29253217550638
 31
0
  0
LINE
  8
1
 62
7
 10
304.0325235207499
 20
67.29253217550638
 30
0
 11
329.0762622075603
 21
64.21754771747932
 31
0
  0
LINE
  8
1
 62
7
 10
330.8325235207499
 20
62.23245541419682
 30
0
 11
330.8325235207499
 21
34.79253217550639
 31
0
  0
LINE
  8
1
 62
2
  6
DIVIDE
 10
158.783553609611
 20
155.3195480168133
 30
0
 11
228.551550208917
 21
155.3195480168133
 31
0
  0
LINE
  8
1
 62
7
 10
223.6700183683654
 20
142.8195480168133
 30
0
 11
225.6700183683654
 21
142.8195480168133
 31
0
  0
LINE
  8
1
 62
7
 10
223.6700183683654
 20
167.8195480168133
 30
0
 11
225.6700183683654
 21
167.8195480168133
 31
0
  0
LINE
  8
1
 62
7
 10
225.6700183683654
 20
142.8195480168133
 30
0
 11
225.6700183683654
 21
167.8195480168133
 31
0
  0
LINE
  8
1
 62
7
 10
201.1700183683654
 20
142.8195480168133
 30
0
 11
225.6700183683654
 21
142.8195480168133
 31
0
  0
LINE
  8
1
 62
7
 10
201.1700183683654
 20
167.8195480168133
 30
0
 11
225.6700183683654
 21
167.8195480168133
 31
0
  0
LINE
  8
1
 62
7
 10
56.80751321598092
 20
142.8195480168133
 30
0
 11
56.80751321598092
 21
167.8195480168133
 31
0
  0
LINE
  8
1
 62
7
 10
71.80751321598092
 20
142.8195480168133
 30
0
 11
71.80751321598092
 21
167.8195480168133
 31
0
  0
LINE
  8
1
 62
7
 10
56.80751321598092
 20
142.8195480168133
 30
0
 11
71.80751321598092
 21
142.8195480168133
 31
0
  0
LINE
  8
1
 62
7
 10
56.80751321598092
 20
167.8195480168133
 30
0
 11
71.80751321598092
 21
167.8195480168133
 31
0
  0
LINE
  8
1
 62
7
 10
25.80751321598096
 20
148.7695480168133
 30
0
 11
26.80751321598096
 21
147.9695480168133
 31
0
  0
LINE
  8
1
 62
7
 10
25.80751321598096
 20
161.7695480168133
 30
0
 11
25.80751321598096
 21
148.7695480168133
 31
0
  0
LINE
  8
1
 62
7
 10
26.80751321598096
 20
162.5695480168133
 30
0
 11
25.80751321598096
 21
161.7695480168133
 31
0
  0
LINE
  8
1
 62
2
  6
PHANTOM
 10
20.49928078290388
 20
155.3195480168133
 30
0
 11
56.54546617908159
 21
155.3195480168133
 31
0
  0
LINE
  8
1
 62
7
 10
26.80751321598096
 20
169.3195480168133
 30
0
 11
26.80751321598096
 21
141.3195480168133
 31
0
  0
LINE
  8
1
 62
7
 10
50.80751321598096
 20
169.3195480168133
 30
0
 11
26.80751321598096
 21
169.3195480168133
 31
0
  0
LINE
  8
1
 62
7
 10
50.80751321598096
 20
141.3195480168133
 30
0
 11
50.80751321598096
 21
169.3195480168133
 31
0
  0
LINE
  8
1
 62
7
 10
26.80751321598096
 20
141.3195480168133
 30
0
 11
50.80751321598096
 21
141.3195480168133
 31
0
  0
LINE
  8
1
 62
2
  6
DIVIDE
 10
125.2200183683654
 20
155.3195480168134
 30
0
 11
157.1200183683653
 21
155.3195480168133
 31
0
  0
LINE
  8
1
 62
2
  6
DIVIDE
 10
141.1700183683654
 20
171.2695480168134
 30
0
 11
141.1700183683654
 21
139.3695480168134
 31
0
  0
LINE
  8
1
 62
2
  6
DASHDOT
 10
146.3700183683653
 20
163.166318650685
 30
0
 11
146.3700183683653
 21
147.262688996722
 31
0
  0
LINE
  8
1
 62
3
 10
153.5507216765379
 20
156.3195480168133
 30
0
 11
144.3700183683654
 21
156.3195480168133
 31
0
  0
LINE
  8
1
 62
3
 10
144.3700183683654
 20
156.3195480168133
 30
0
 11
144.3700183683654
 21
154.3195480168133
 31
0
  0
LINE
  8
1
 62
3
 10
144.3700183683654
 20
154.3195480168133
 30
0
 11
153.5507216765379
 21
154.3195480168133
 31
0
  0
LINE
  8
1
 62
7
 10
70.30751321598092
 20
174.8195480168134
 30
0
 11
69.7075132159809
 21
174.8195480168134
 31
0
  0
LINE
  8
1
 62
7
 10
68.30751321598092
 20
176.2195480168134
 30
0
 11
68.30751321598092
 21
176.8195480168134
 31
0
  0
LINE
  8
1
 62
7
 10
69.7075132159809
 20
176.2195480168134
 30
0
 11
68.30751321598092
 21
176.2195480168134
 31
0
  0
LINE
  8
1
 62
7
 10
69.7075132159809
 20
174.8195480168134
 30
0
 11
69.7075132159809
 21
176.2195480168134
 31
0
  0
LINE
  8
1
 62
7
 10
69.7075132159809
 20
178.8195480168134
 30
0
 11
70.30751321598092
 21
178.8195480168134
 31
0
  0
LINE
  8
1
 62
7
 10
68.30751321598092
 20
176.8195480168134
 30
0
 11
68.30751321598092
 21
177.4195480168134
 31
0
  0
LINE
  8
1
 62
7
 10
69.7075132159809
 20
177.4195480168134
 30
0
 11
69.7075132159809
 21
178.8195480168134
 31
0
  0
LINE
  8
1
 62
7
 10
68.30751321598092
 20
177.4195480168134
 30
0
 11
69.7075132159809
 21
177.4195480168134
 31
0
  0
LINE
  8
1
 62
7
 10
70.90751321598094
 20
174.8195480168134
 30
0
 11
70.30751321598092
 21
174.8195480168134
 31
0
  0
LINE
  8
1
 62
7
 10
72.30751321598092
 20
176.8195480168134
 30
0
 11
72.30751321598092
 21
176.2195480168134
 31
0
  0
LINE
  8
1
 62
7
 10
72.30751321598092
 20
176.2195480168134
 30
0
 11
70.90751321598094
 21
176.2195480168134
 31
0
  0
LINE
  8
1
 62
7
 10
70.90751321598094
 20
176.2195480168134
 30
0
 11
70.90751321598094
 21
174.8195480168134
 31
0
  0
LINE
  8
1
 62
7
 10
70.30751321598092
 20
178.8195480168134
 30
0
 11
70.90751321598094
 21
178.8195480168134
 31
0
  0
LINE
  8
1
 62
7
 10
72.30751321598092
 20
177.4195480168134
 30
0
 11
72.30751321598092
 21
176.8195480168134
 31
0
  0
LINE
  8
1
 62
7
 10
70.90751321598094
 20
178.8195480168134
 30
0
 11
70.90751321598094
 21
177.4195480168134
 31
0
  0
LINE
  8
1
 62
7
 10
70.90751321598094
 20
177.4195480168134
 30
0
 11
72.30751321598092
 21
177.4195480168134
 31
0
  0
LINE
  8
1
 62
7
 10
70.30751321598092
 20
131.8195480168134
 30
0
 11
69.7075132159809
 21
131.8195480168134
 31
0
  0
LINE
  8
1
 62
7
 10
68.30751321598092
 20
133.2195480168134
 30
0
 11
68.30751321598092
 21
133.8195480168134
 31
0
  0
LINE
  8
1
 62
7
 10
69.7075132159809
 20
133.2195480168134
 30
0
 11
68.30751321598092
 21
133.2195480168134
 31
0
  0
LINE
  8
1
 62
7
 10
69.7075132159809
 20
131.8195480168134
 30
0
 11
69.7075132159809
 21
133.2195480168134
 31
0
  0
LINE
  8
1
 62
7
 10
69.7075132159809
 20
135.8195480168134
 30
0
 11
70.30751321598092
 21
135.8195480168134
 31
0
  0
LINE
  8
1
 62
7
 10
68.30751321598092
 20
133.8195480168134
 30
0
 11
68.30751321598092
 21
134.4195480168134
 31
0
  0
LINE
  8
1
 62
7
 10
69.7075132159809
 20
134.4195480168134
 30
0
 11
69.7075132159809
 21
135.8195480168134
 31
0
  0
LINE
  8
1
 62
7
 10
68.30751321598092
 20
134.4195480168134
 30
0
 11
69.7075132159809
 21
134.4195480168134
 31
0
  0
LINE
  8
1
 62
7
 10
70.90751321598094
 20
131.8195480168134
 30
0
 11
70.30751321598092
 21
131.8195480168134
 31
0
  0
LINE
  8
1
 62
7
 10
72.30751321598092
 20
133.8195480168134
 30
0
 11
72.30751321598092
 21
133.2195480168134
 31
0
  0
LINE
  8
1
 62
7
 10
72.30751321598092
 20
133.2195480168134
 30
0
 11
70.90751321598094
 21
133.2195480168134
 31
0
  0
LINE
  8
1
 62
7
 10
70.90751321598094
 20
133.2195480168134
 30
0
 11
70.90751321598094
 21
131.8195480168134
 31
0
  0
LINE
  8
1
 62
7
 10
70.30751321598092
 20
135.8195480168134
 30
0
 11
70.90751321598094
 21
135.8195480168134
 31
0
  0
LINE
  8
1
 62
7
 10
72.30751321598092
 20
134.4195480168134
 30
0
 11
72.30751321598092
 21
133.8195480168134
 31
0
  0
LINE
  8
1
 62
7
 10
70.90751321598094
 20
135.8195480168134
 30
0
 11
70.90751321598094
 21
134.4195480168134
 31
0
  0
LINE
  8
1
 62
7
 10
70.90751321598094
 20
134.4195480168134
 30
0
 11
72.30751321598092
 21
134.4195480168134
 31
0
  0
LINE
  8
1
 62
7
 10
50.80751321598096
 20
130.379624778123
 30
0
 11
50.80751321598096
 21
180.2594712555037
 31
0
  0
LINE
  8
1
 62
7
 10
52.56377452917067
 20
128.3945324748404
 30
0
 11
77.30751321598092
 21
125.3195480168134
 31
0
  0
LINE
  8
1
 62
7
 10
77.30751321598092
 20
125.3195480168134
 30
0
 11
77.30751321598092
 21
185.3195480168134
 31
0
  0
LINE
  8
1
 62
7
 10
52.56377452917063
 20
182.2445635587862
 30
0
 11
77.30751321598092
 21
185.3195480168134
 31
0
  0
LINE
  8
1
 62
2
 10
108.1700183683654
 20
182.8195480168134
 30
0
 11
201.1700183683654
 21
182.8195480168134
 31
0
  0
LINE
  8
1
 62
2
 10
108.1700183683654
 20
127.8195480168134
 30
0
 11
201.1700183683654
 21
127.8195480168134
 31
0
  0
LINE
  8
1
 62
2
 10
107.1700183683654
 20
181.8195480168134
 30
0
 11
107.1700183683654
 21
128.8195480168134
 31
0
  0
LINE
  8
1
 62
7
 10
104.6700183683654
 20
183.3195480168134
 30
0
 11
104.6700183683654
 21
127.3195480168134
 31
0
  0
LINE
  8
1
 62
7
 10
201.1700183683654
 20
185.3195480168134
 30
0
 11
201.1700183683654
 21
125.3195480168134
 31
0
  0
LINE
  8
1
 62
7
 10
106.6700183683654
 20
125.3195480168134
 30
0
 11
201.1700183683654
 21
125.3195480168134
 31
0
  0
LINE
  8
1
 62
7
 10
106.6700183683654
 20
185.3195480168134
 30
0
 11
201.1700183683654
 21
185.3195480168134
 31
0
  0
LINE
  8
1
 62
7
 10
318.1325235207499
 20
131.8195480168134
 30
0
 11
317.5325235207499
 21
131.8195480168134
 31
0
  0
LINE
  8
1
 62
7
 10
319.5325235207499
 20
133.8195480168134
 30
0
 11
319.5325235207499
 21
133.2195480168134
 31
0
  0
LINE
  8
1
 62
7
 10
319.5325235207499
 20
133.2195480168134
 30
0
 11
318.1325235207499
 21
133.2195480168134
 31
0
  0
LINE
  8
1
 62
7
 10
318.1325235207499
 20
133.2195480168134
 30
0
 11
318.1325235207499
 21
131.8195480168134
 31
0
  0
LINE
  8
1
 62
7
 10
317.5325235207499
 20
135.8195480168134
 30
0
 11
318.1325235207499
 21
135.8195480168134
 31
0
  0
LINE
  8
1
 62
7
 10
319.5325235207499
 20
134.4195480168134
 30
0
 11
319.5325235207499
 21
133.8195480168134
 31
0
  0
LINE
  8
1
 62
7
 10
318.1325235207499
 20
135.8195480168134
 30
0
 11
318.1325235207499
 21
134.4195480168134
 31
0
  0
LINE
  8
1
 62
7
 10
318.1325235207499
 20
134.4195480168134
 30
0
 11
319.5325235207499
 21
134.4195480168134
 31
0
  0
LINE
  8
1
 62
7
 10
317.5325235207499
 20
131.8195480168134
 30
0
 11
316.9325235207499
 21
131.8195480168134
 31
0
  0
LINE
  8
1
 62
7
 10
315.5325235207499
 20
133.2195480168134
 30
0
 11
315.5325235207499
 21
133.8195480168134
 31
0
  0
LINE
  8
1
 62
7
 10
316.9325235207499
 20
133.2195480168134
 30
0
 11
315.5325235207499
 21
133.2195480168134
 31
0
  0
LINE
  8
1
 62
7
 10
316.9325235207499
 20
131.8195480168134
 30
0
 11
316.9325235207499
 21
133.2195480168134
 31
0
  0
LINE
  8
1
 62
7
 10
316.9325235207499
 20
135.8195480168134
 30
0
 11
317.5325235207499
 21
135.8195480168134
 31
0
  0
LINE
  8
1
 62
7
 10
315.5325235207499
 20
133.8195480168134
 30
0
 11
315.5325235207499
 21
134.4195480168134
 31
0
  0
LINE
  8
1
 62
7
 10
316.9325235207499
 20
134.4195480168134
 30
0
 11
316.9325235207499
 21
135.8195480168134
 31
0
  0
LINE
  8
1
 62
7
 10
315.5325235207499
 20
134.4195480168134
 30
0
 11
316.9325235207499
 21
134.4195480168134
 31
0
  0
LINE
  8
1
 62
7
 10
304.0325235207499
 20
185.3195480168134
 30
0
 11
329.0762622075602
 21
182.2445635587862
 31
0
  0
LINE
  8
1
 62
7
 10
330.8325235207499
 20
180.2594712555037
 30
0
 11
330.8325235207499
 21
130.379624778123
 31
0
  0
LINE
  8
1
 62
7
 10
304.0325235207499
 20
185.3195480168134
 30
0
 11
304.0325235207499
 21
125.3195480168134
 31
0
  0
LINE
  8
1
 62
7
 10
304.0325235207499
 20
125.3195480168134
 30
0
 11
329.0762622075601
 21
128.3945324748404
 31
0
  0
LINE
  8
1
 62
7
 10
304.0325235207499
 20
125.3195480168134
 30
0
 11
285.0325235207499
 21
125.3195480168134
 31
0
  0
LINE
  8
1
 62
7
 10
289.0325235207499
 20
185.3195480168134
 30
0
 11
289.0325235207499
 21
125.3195480168134
 31
0
  0
LINE
  8
1
 62
7
 10
287.0325235207499
 20
185.3195480168134
 30
0
 11
287.0325235207499
 21
125.3195480168134
 31
0
  0
LINE
  8
1
 62
7
 10
285.0325235207499
 20
185.3195480168134
 30
0
 11
285.0325235207499
 21
125.3195480168134
 31
0
  0
LINE
  8
1
 62
7
 10
304.0325235207499
 20
185.3195480168134
 30
0
 11
285.0325235207499
 21
185.3195480168134
 31
0
  0
ARC
  8
1
 62
7
 10
141.1700183683654
 20
155.3195480168134
 30
0
 40
14.49999999999999
 50
180
 51
0
  0
ARC
  8
1
 62
7
 10
141.1700183683654
 20
155.3195480168134
 30
0
 40
14.5
 50
0
 51
90
  0
ARC
  8
1
 62
7
 10
141.1700183683654
 20
155.3195480168134
 30
0
 40
14.5
 50
90
 51
180
  0
ARC
  8
1
 62
3
 10
146.3700183683653
 20
155.3195480168133
 30
0
 40
6.5
 50
270
 51
351.150116901571
  0
ARC
  8
1
 62
3
 10
146.3700183683653
 20
155.3195480168133
 30
0
 40
6.500000000000044
 50
8.849883098428975
 51
270
  0
ARC
  8
1
 62
3
 10
148.3700183683653
 20
155.3195480168133
 30
0
 40
2.999999999999914
 50
199.4712206344913
 51
340.5287793655095
  0
ARC
  8
1
 62
3
 10
148.3700183683653
 20
155.3195480168133
 30
0
 40
3.000000000000021
 50
19.47122063449055
 51
160.5287793655087
  0
CIRCLE
  8
1
 62
7
 10
317.5325235207499
 20
176.8195480168134
 30
0
 40
3.75
  0
CIRCLE
  8
1
 62
3
 10
146.3700183683653
 20
155.3195480168133
 30
0
 40
7.25
  0
CIRCLE
  8
1
 62
7
 10
70.30751321598092
 20
176.8195480168134
 30
0
 40
3.75
  0
CIRCLE
  8
1
 62
7
 10
70.30751321598092
 20
133.8195480168134
 30
0
 40
3.75
  0
CIRCLE
  8
1
 62
7
 10
317.5325235207499
 20
133.8195480168134
 30
0
 40
3.75
  0
ARC
  8
1
 62
7
 10
325.23252352075
 20
141.9547975518874
 30
0
 40
0.5
 50
270
 51
0
  0
ARC
  8
1
 62
7
 10
325.23252352075
 20
168.9547975518874
 30
0
 40
0.5
 50
0
 51
90
  0
ARC
  8
1
 62
7
 10
309.8325235207499
 20
168.9547975518874
 30
0
 40
0.5
 50
90
 51
180
  0
ARC
  8
1
 62
7
 10
309.8325235207499
 20
141.9547975518874
 30
0
 40
0.5
 50
180
 51
270
  0
ARC
  8
1
 62
7
 10
328.8325235207499
 20
62.23245541419682
 30
0
 40
2
 50
0
 51
82.99999999999521
  0
ARC
  8
1
 62
7
 10
52.80751321598096
 20
130.379624778123
 30
0
 40
2
 50
180
 51
263.0000000000001
  0
ARC
  8
1
 62
7
 10
52.80751321598096
 20
180.2594712555037
 30
0
 40
1.999999999999861
 50
97.00000000000155
 51
180
  0
ARC
  8
1
 62
2
 10
108.1700183683654
 20
128.8195480168134
 30
0
 40
1
 50
180
 51
270
  0
ARC
  8
1
 62
2
 10
108.1700183683654
 20
181.8195480168134
 30
0
 40
1
 50
90
 51
180
  0
ARC
  8
1
 62
7
 10
106.6700183683654
 20
183.3195480168134
 30
0
 40
2
 50
90
 51
180
  0
ARC
  8
1
 62
7
 10
106.6700183683654
 20
127.3195480168134
 30
0
 40
2
 50
180
 51
270
  0
ARC
  8
1
 62
7
 10
328.8325235207499
 20
180.2594712555037
 30
0
 40
2
 50
0
 51
82.99999999999845
  0
ARC
  8
1
 62
7
 10
328.8325235207499
 20
130.379624778123
 30
0
 40
1.99999999999996
 50
276.999999999998
 51
0
  0
TEXT
  8
1
 62
3
 10
121.48820768665
 20
206.470009913558
 30
0
 40
5
  1
Zusatzschloss
 41
0.9
  0
TEXT
  8
1
 62
3
 10
281.48820768665
 20
206.470009913558
 30
0
 40
5
  1
Schliesskasten
 41
0.9
  0
TEXT
  8
1
 62
7
 10
147.411577734997
 20
50.4753916916361
 30
0
 40
7
  1
6056
 41
0.9
  0
TEXT
  8
1
 62
3
 10
134.3489842511995
 20
159.4996788248692
 30
0
 40
3
  1
I
 50
58
 41
0.9
  0
TEXT
  8
1
 62
3
 10
133.0056334870038
 20
156.3797398198223
 30
0
 40
3.000000000000001
  1
T
 50
68
 41
0.9
 72
1
 11
133.5113523881153
 21
157.6314380234875
 31
0
  0
TEXT
  8
1
 62
3
 10
133.2687735839908
 20
154.0664195886809
 30
0
 40
3
  1
N
 50
90.99999999999999
 41
0.9
  0
TEXT
  8
1
 62
3
 10
134.460653824802
 20
150.9624357366931
 30
0
 40
3
  1
Ø
 50
113
 41
0.9
  0
TEXT
  8
1
 62
3
 10
134.00565070036
 20
160.2561380143562
 30
0
 40
3.000000000000001
  1
S
 50
28
 41
0.9
 72
2
 11
136.3896092010791
 21
161.5237112338781
 31
0
  0
TEXT
  8
1
 62
3
 10
136.3554981831489
 20
148.930463936435
 30
0
 40
3.000000000000001
  1
S
 50
143
 41
0.9
  0
DIMENSION
  8
1
  6
CONTINUOUS
 62
1
  2
*D0
  3
DMST_1
 10
225.6700183683654
 20
90.20568495827931
 30
0
 11
213.4200183683654
 21
94.95568495827931
 31
0
 12
0
 22
0
 32
0
 70
0
 13
201.1700183683654
 23
125.3195480168134
 33
0
 14
225.6700183683654
 24
142.8195480168133
 34
0
 53
0
  0
DIMENSION
  8
1
  6
CONTINUOUS
 62
1
  2
*D1
  3
DMST_1
 10
214.1700183683654
 20
105.439820344719
 30
0
 11
207.6700183683654
 21
110.189820344719
 31
0
 12
0
 22
0
 32
0
 70
0
  1
13,5
 13
201.1700183683654
 23
125.3195480168134
 33
0
 14
214.1700183683654
 24
142.8195480168133
 34
0
 53
0
  0
DIMENSION
  8
1
  6
CONTINUOUS
 62
1
  2
*D2
  3
DMST_1
 10
267.280624483286
 20
67.29253217550638
 30
0
 11
262.780624483286
 21
51.04253217550639
 31
0
 12
0
 22
0
 32
0
 70
0
  1
32
 13
285.0325235207499
 23
34.79253217550639
 33
0
 14
285.0325235207499
 24
67.29253217550638
 34
0
 50
90
 53
0
  0
DIMENSION
  8
1
  6
CONTINUOUS
 62
1
  2
*D5
  3
DMST_1
 10
50.80751321598096
 20
90.2196100384368
 30
0
 11
38.80751321598096
 21
94.7196100384368
 31
0
 12
0
 22
0
 32
0
 70
0
 13
26.80751321598096
 23
141.3195480168133
 33
0
 14
50.80751321598096
 24
130.379624778123
 34
0
 53
0
  0
DIMENSION
  8
1
  6
CONTINUOUS
 62
1
  2
*D6
  3
DMST_1
 10
77.30751321598092
 20
90.323155773606
 30
0
 11
64.05751321598095
 21
94.823155773606
 31
0
 12
0
 22
0
 32
0
 70
0
  1
26
 13
50.80751321598096
 23
130.379624778123
 33
0
 14
77.30751321598092
 24
125.3195480168134
 34
0
 53
0
  0
DIMENSION
  8
1
  6
CONTINUOUS
 62
1
  2
*D7
  3
DMST_1
 10
71.80751321598092
 20
105.245303783127
 30
0
 11
64.30751321598092
 21
109.745303783127
 31
0
 12
0
 22
0
 32
0
 70
0
 13
56.80751321598092
 23
142.8195480168133
 33
0
 14
71.80751321598092
 24
142.8195480168133
 34
0
 53
0
  0
DIMENSION
  8
1
  6
CONTINUOUS
 62
1
  2
*D8
  3
DMST_1
 10
77.30751321598092
 20
105.245303783127
 30
0
 11
84.4421484726851
 21
109.995303783127
 31
0
 12
0
 22
0
 32
0
 70
0
 13
71.80751321598092
 23
142.8195480168133
 33
0
 14
77.30751321598092
 24
125.3195480168134
 34
0
 53
0
  0
DIMENSION
  8
1
  6
CONTINUOUS
 62
1
  2
*D9
  3
DMST_1
 10
92.4611912009583
 20
125.3195480168134
 30
0
 11
87.9611912009583
 21
155.3195480168134
 31
0
 12
0
 22
0
 32
0
 70
0
 13
106.6700183683654
 23
185.3195480168134
 33
0
 14
106.6700183683654
 24
125.3195480168134
 34
0
 50
90
 53
0
  0
DIMENSION
  8
1
  6
CONTINUOUS
 62
1
  2
*D10
  3
DMST_1
 10
242.055410774892
 20
167.8195480168133
 30
0
 11
237.555410774892
 21
155.3195480168133
 31
0
 12
0
 22
0
 32
0
 70
0
 13
225.6700183683654
 23
142.8195480168133
 33
0
 14
225.6700183683654
 24
167.8195480168133
 34
0
 50
90
 53
0
  0
DIMENSION
  8
1
  6
CONTINUOUS
 62
1
  2
*D11
  3
DMST_1
 10
201.1700183683654
 20
90.22569002955809
 30
0
 11
152.9200183683654
 21
94.97569002955809
 31
0
 12
0
 22
0
 32
0
 70
0
 13
104.6700183683654
 23
127.3195480168134
 33
0
 14
201.1700183683654
 24
125.3195480168134
 34
0
 53
0
  0
DIMENSION
  8
1
  6
CONTINUOUS
 62
1
  2
*D12
  3
DMST_1
 10
201.1700183683654
 20
105.459896264509
 30
0
 11
171.1700183683654
 21
109.959896264509
 31
0
 12
0
 22
0
 32
0
 70
0
 13
141.1700183683654
 23
139.3695480168134
 33
0
 14
201.1700183683654
 24
125.3195480168134
 34
0
 53
0
  0
DIMENSION
  8
1
  6
CONTINUOUS
 62
1
  2
*D13
  3
DMST_1
 10
141.1700183683654
 20
105.379492944547
 30
0
 11
122.9200183683654
 21
110.129492944547
 31
0
 12
0
 22
0
 32
0
 70
0
 13
104.6700183683654
 23
127.3195480168134
 33
0
 14
141.1700183683654
 24
139.3695480168134
 34
0
 53
0
  0
DIMENSION
  8
1
  6
CONTINUOUS
 62
1
  2
*D14
  3
DMST_1
 10
289.0325235207499
 20
90.16874913342021
 30
0
 11
296.5325235207499
 21
94.66874913342021
 31
0
 12
0
 22
0
 32
0
 70
0
 13
304.0325235207499
 23
125.3195480168134
 33
0
 14
289.0325235207499
 24
125.3195480168134
 34
0
 53
0
  0
DIMENSION
  8
1
  6
CONTINUOUS
 62
1
  2
*D15
  3
DMST_1
 10
304.0325235207499
 20
90.26398194630021
 30
0
 11
317.4325235207499
 21
94.76398194630021
 31
0
 12
0
 22
0
 32
0
 70
0
  1
26
 13
330.8325235207499
 23
130.379624778123
 33
0
 14
304.0325235207499
 24
125.3195480168134
 34
0
 53
0
  0
INSERT
  8
1
  2
*D3
 10
0
 20
0
 30
0
  0
INSERT
  8
1
  2
*D4
 10
0
 20
0
 30
0
  0
ENDSEC
  0
EOF
