  0
SECTION
  2
HEADER
  9
$ACADVER
  1
AC1015
  9
$ACADMAINTVER
 70
    20
  9
$DWGCODEPAGE
  3
ANSI_1252
  9
$INSBASE
 10
0.0
 20
0.0
 30
0.0
  9
$EXTMIN
 10
42.84760114464161
 20
42.20948333399042
 30
0.0
  9
$EXTMAX
 10
349.2505917323854
 20
268.7702661724737
 30
0.0
  9
$LIMMIN
 10
-63.0
 20
-44.55
  9
$LIMMAX
 10
483.0
 20
341.55
  9
$ORTHOMODE
 70
     1
  9
$REGENMODE
 70
     1
  9
$FILLMODE
 70
     1
  9
$QTEXTMODE
 70
     0
  9
$MIRRTEXT
 70
     0
  9
$LTSCALE
 40
5.0
  9
$ATTMODE
 70
     1
  9
$TEXTSIZE
 40
3.5
  9
$TRACEWID
 40
0.7
  9
$TEXTSTYLE
  7
ACA_ISO
  9
$CLAYER
  8
BEMASSUNG_-PSPAC_
  9
$CELTYPE
  6
ByLayer
  9
$CECOLOR
 62
   256
  9
$CELTSCALE
 40
1.0
  9
$DISPSILH
 70
     0
  9
$DIMSCALE
 40
1.0
  9
$DIMASZ
 40
3.5
  9
$DIMEXO
 40
0.1
  9
$DIMDLI
 40
7.0
  9
$DIMRND
 40
0.0
  9
$DIMDLE
 40
0.0
  9
$DIMEXE
 40
1.8
  9
$DIMTP
 40
0.0
  9
$DIMTM
 40
0.0
  9
$DIMTXT
 40
3.5
  9
$DIMCEN
 40
1.5
  9
$DIMTSZ
 40
0.0
  9
$DIMTOL
 70
     0
  9
$DIMLIM
 70
     0
  9
$DIMTIH
 70
     0
  9
$DIMTOH
 70
     0
  9
$DIMSE1
 70
     0
  9
$DIMSE2
 70
     0
  9
$DIMTAD
 70
     1
  9
$DIMZIN
 70
     8
  9
$DIMBLK
  1

  9
$DIMASO
 70
     1
  9
$DIMSHO
 70
     1
  9
$DIMPOST
  1

  9
$DIMAPOST
  1

  9
$DIMALT
 70
     0
  9
$DIMALTD
 70
     2
  9
$DIMALTF
 40
25.4
  9
$DIMLFAC
 40
1.0
  9
$DIMTOFL
 70
     1
  9
$DIMTVP
 40
0.0
  9
$DIMTIX
 70
     1
  9
$DIMSOXD
 70
     0
  9
$DIMSAH
 70
     0
  9
$DIMBLK1
  1

  9
$DIMBLK2
  1

  9
$DIMSTYLE
  2
ACA_CADIMENU
  9
$DIMCLRD
 70
     0
  9
$DIMCLRE
 70
     0
  9
$DIMCLRT
 70
     0
  9
$DIMTFAC
 40
0.5
  9
$DIMGAP
 40
1.0
  9
$DIMJUST
 70
     0
  9
$DIMSD1
 70
     0
  9
$DIMSD2
 70
     0
  9
$DIMTOLJ
 70
     1
  9
$DIMTZIN
 70
     8
  9
$DIMALTZ
 70
     8
  9
$DIMALTTZ
 70
     8
  9
$DIMUPT
 70
     0
  9
$DIMDEC
 70
     2
  9
$DIMTDEC
 70
     2
  9
$DIMALTU
 70
     2
  9
$DIMALTTD
 70
     2
  9
$DIMTXSTY
  7
STANDARD
  9
$DIMAUNIT
 70
     0
  9
$DIMADEC
 70
     0
  9
$DIMALTRND
 40
0.0
  9
$DIMAZIN
 70
     0
  9
$DIMDSEP
 70
    46
  9
$DIMATFIT
 70
     3
  9
$DIMFRAC
 70
     0
  9
$DIMLDRBLK
  1

  9
$DIMLUNIT
 70
     2
  9
$DIMLWD
 70
    -2
  9
$DIMLWE
 70
    -2
  9
$DIMTMOVE
 70
     2
  9
$LUNITS
 70
     2
  9
$LUPREC
 70
     2
  9
$SKETCHINC
 40
1.0
  9
$FILLETRAD
 40
1.5
  9
$AUNITS
 70
     0
  9
$AUPREC
 70
     0
  9
$MENU
  1
cadim
  9
$ELEVATION
 40
0.0
  9
$PELEVATION
 40
0.0
  9
$THICKNESS
 40
0.0
  9
$LIMCHECK
 70
     0
  9
$CHAMFERA
 40
2.0
  9
$CHAMFERB
 40
2.0
  9
$CHAMFERC
 40
0.0
  9
$CHAMFERD
 40
0.0
  9
$SKPOLY
 70
     0
  9
$TDCREATE
 40
2449504.411192130
  9
$TDUCREATE
 40
2449504.327858797
  9
$TDUPDATE
 40
2458261.681400463
  9
$TDUUPDATE
 40
2458261.598067129
  9
$TDINDWG
 40
0.2439888889
  9
$TDUSRTIMER
 40
0.2439888889
  9
$USRTIMER
 70
     1
  9
$ANGBASE
 50
0.0
  9
$ANGDIR
 70
     0
  9
$PDMODE
 70
     0
  9
$PDSIZE
 40
-2.0
  9
$PLINEWID
 40
0.0
  9
$SPLFRAME
 70
     0
  9
$SPLINETYPE
 70
     6
  9
$SPLINESEGS
 70
     8
  9
$HANDSEED
  5
198CE059C9C9F28
  9
$SURFTAB1
 70
    16
  9
$SURFTAB2
 70
    16
  9
$SURFTYPE
 70
     6
  9
$SURFU
 70
    12
  9
$SURFV
 70
    12
  9
$UCSBASE
  2

  9
$UCSNAME
  2

  9
$UCSORG
 10
0.0
 20
0.0
 30
0.0
  9
$UCSXDIR
 10
1.0
 20
0.0
 30
0.0
  9
$UCSYDIR
 10
0.0
 20
1.0
 30
0.0
  9
$UCSORTHOREF
  2

  9
$UCSORTHOVIEW
 70
     0
  9
$UCSORGTOP
 10
0.0
 20
0.0
 30
0.0
  9
$UCSORGBOTTOM
 10
0.0
 20
0.0
 30
0.0
  9
$UCSORGLEFT
 10
0.0
 20
0.0
 30
0.0
  9
$UCSORGRIGHT
 10
0.0
 20
0.0
 30
0.0
  9
$UCSORGFRONT
 10
0.0
 20
0.0
 30
0.0
  9
$UCSORGBACK
 10
0.0
 20
0.0
 30
0.0
  9
$PUCSBASE
  2

  9
$PUCSNAME
  2

  9
$PUCSORG
 10
0.0
 20
0.0
 30
0.0
  9
$PUCSXDIR
 10
1.0
 20
0.0
 30
0.0
  9
$PUCSYDIR
 10
0.0
 20
1.0
 30
0.0
  9
$PUCSORTHOREF
  2

  9
$PUCSORTHOVIEW
 70
     0
  9
$PUCSORGTOP
 10
0.0
 20
0.0
 30
0.0
  9
$PUCSORGBOTTOM
 10
0.0
 20
0.0
 30
0.0
  9
$PUCSORGLEFT
 10
0.0
 20
0.0
 30
0.0
  9
$PUCSORGRIGHT
 10
0.0
 20
0.0
 30
0.0
  9
$PUCSORGFRONT
 10
0.0
 20
0.0
 30
0.0
  9
$PUCSORGBACK
 10
0.0
 20
0.0
 30
0.0
  9
$USERI1
 70
     0
  9
$USERI2
 70
   100
  9
$USERI3
 70
     0
  9
$USERI4
 70
     0
  9
$USERI5
 70
     0
  9
$USERR1
 40
0.0
  9
$USERR2
 40
0.0
  9
$USERR3
 40
0.0
  9
$USERR4
 40
0.0
  9
$USERR5
 40
0.0
  9
$WORLDVIEW
 70
     1
  9
$SHADEDGE
 70
     3
  9
$SHADEDIF
 70
    70
  9
$TILEMODE
 70
     1
  9
$MAXACTVP
 70
    16
  9
$PINSBASE
 10
0.0
 20
0.0
 30
0.0
  9
$PLIMCHECK
 70
     0
  9
$PEXTMIN
 10
1.000000000000000E+20
 20
1.000000000000000E+20
 30
1.000000000000000E+20
  9
$PEXTMAX
 10
-1.000000000000000E+20
 20
-1.000000000000000E+20
 30
-1.000000000000000E+20
  9
$PLIMMIN
 10
-0.1979161059762549
 20
-0.2679166643638311
  9
$PLIMMAX
 10
11.4920836921752
 20
7.99874977802667
  9
$UNITMODE
 70
     0
  9
$VISRETAIN
 70
     0
  9
$PLINEGEN
 70
     0
  9
$PSLTSCALE
 70
     1
  9
$TREEDEPTH
 70
  3020
  9
$CMLSTYLE
  2
Standard
  9
$CMLJUST
 70
     0
  9
$CMLSCALE
 40
1.0
  9
$PROXYGRAPHICS
 70
     1
  9
$MEASUREMENT
 70
     0
  9
$CELWEIGHT
370
    -1
  9
$ENDCAPS
280
     0
  9
$JOINSTYLE
280
     0
  9
$LWDISPLAY
290
     0
  9
$INSUNITS
 70
     0
  9
$HYPERLINKBASE
  1

  9
$STYLESHEET
  1

  9
$XEDIT
290
     1
  9
$CEPSNTYPE
380
     0
  9
$PSTYLEMODE
290
     1
  9
$FINGERPRINTGUID
  2
{64E7D676-6020-7042-8AB7-2FEA890F7E8E}
  9
$VERSIONGUID
  2
{D16621C7-7702-7F42-9A0A-C00A0B923301}
  9
$EXTNAMES
290
     1
  9
$PSVPSCALE
 40
0.0
  9
$OLESTARTUP
290
     0
  0
ENDSEC
  0
SECTION
  2
CLASSES
  0
CLASS
  1
ACDBDICTIONARYWDFLT
  2
AcDbDictionaryWithDefault
  3
ObjectDBX Classes
 90
        0
280
     0
281
     0
  0
CLASS
  1
MATERIAL
  2
AcDbMaterial
  3
ObjectDBX Classes
 90
     1153
280
     0
281
     0
  0
CLASS
  1
VISUALSTYLE
  2
AcDbVisualStyle
  3
ObjectDBX Classes
 90
     4095
280
     0
281
     0
  0
CLASS
  1
SCALE
  2
AcDbScale
  3
ObjectDBX Classes
 90
     1153
280
     0
281
     0
  0
CLASS
  1
TABLESTYLE
  2
AcDbTableStyle
  3
ObjectDBX Classes
 90
     4095
280
     0
281
     0
  0
CLASS
  1
MLEADERSTYLE
  2
AcDbMLeaderStyle
  3
ACDB_MLEADERSTYLE_CLASS
 90
     4095
280
     0
281
     0
  0
CLASS
  1
ACDBSECTIONVIEWSTYLE
  2
AcDbSectionViewStyle
  3
ObjectDBX Classes
 90
     1025
280
     0
281
     0
  0
CLASS
  1
ACDBDETAILVIEWSTYLE
  2
AcDbDetailViewStyle
  3
ObjectDBX Classes
 90
     1025
280
     0
281
     0
  0
CLASS
  1
ACME_DOCUMENT
  2
AcMeDbDoc
  3
AcMeServices
 90
     1024
280
     0
281
     0
  0
CLASS
  1
AMGSETTINGSOBJ
  2
AmgSettingsObj
  3
"AcadM|Product Description: AutoCAD Mechanical|Company: Autodesk, Inc."
 90
     1024
280
     0
281
     0
  0
CLASS
  1
ACMESCOPE
  2
AcMeScope
  3
AcMeServices
 90
     1024
280
     0
281
     0
  0
CLASS
  1
ACMECOMMANDHISTORY
  2
AcMeCommandHistory
  3
AcMeServices
 90
     1024
280
     0
281
     0
  0
CLASS
  1
ACIMSYSVARMAN
  2
AcImSysVarManager
  3
AcMeServices
 90
     1024
280
     0
281
     0
  0
CLASS
  1
ACIMINTSYSVAR
  2
AcImIntSysVar
  3
AcMeServices
 90
     1024
280
     0
281
     0
  0
CLASS
  1
ACMESTATEMGR
  2
AcMeStateMgr
  3
AcMeServices
 90
     1024
280
     0
281
     0
  0
CLASS
  1
ACDBENTITYCACHE
  2
AcMeEntityCache
  3
AcMeServices
 90
     1024
280
     0
281
     0
  0
CLASS
  1
ACGREFMASTER
  2
AcGrefMaster
  3
AcAttribServices
 90
     1024
280
     0
281
     0
  0
CLASS
  1
ACME_DATABASE
  2
AcMeDbDatabase
  3
AcMeServices
 90
     1024
280
     0
281
     0
  0
CLASS
  1
ACRFINSADJUSTERMGR
  2
AcRfInsAdjusterMgr
  3
AcMeServices
 90
     1024
280
     0
281
     0
  0
CLASS
  1
ACGREFACADMASTER
  2
AcGrefacadMaster
  3
AcGrefServices
 90
     1024
280
     0
281
     0
  0
CLASS
  1
AMDTMENUSTATEMGR
  2
AmdtMenuStateMgr
  3
McadcomServices
 90
     1024
280
     0
281
     0
  0
CLASS
  1
AMDTMCOMMENUSTATE
  2
AmdtMcomMenuState
  3
McadcomServices
 90
     1024
280
     0
281
     0
  0
CLASS
  1
AMIMASTER
  2
AmiMaster
  3
AmiServices
 90
     1024
280
     0
281
     0
  0
CLASS
  1
MAPIAMMOUDLE
  2
MApiAmModule
  3
MApiAmServices
 90
     1024
280
     0
281
     0
  0
CLASS
  1
ACIMSTRSYSVAR
  2
AcImStrSysVar
  3
AcMeServices
 90
     1024
280
     0
281
     0
  0
CLASS
  1
AMDTAMMENUSTATE
  2
AmdtAmMenuState
  3
DesignerAssemblies
 90
     1024
280
     0
281
     0
  0
CLASS
  1
ACAMPROJECT
  2
AcAmProject
  3
DesignerAssemblies
 90
     1024
280
     0
281
     0
  0
CLASS
  1
ACAMGRCOMPDEF
  2
AcAmGrCompDef
  3
DesignerAssemblies
 90
     1024
280
     0
281
     0
  0
CLASS
  1
ACAMCOMPDEF
  2
AcAmCompDef
  3
DesignerAssemblies
 90
     1024
280
     0
281
     0
  0
CLASS
  1
ACAMCOMPDEFMGR
  2
AcAmCompDefMgr
  3
DesignerAssemblies
 90
     1024
280
     0
281
     0
  0
CLASS
  1
AMCONTEXTMGR
  2
AcAmContextMgr
  3
DesignerAssemblies
 90
     1024
280
     0
281
     0
  0
CLASS
  1
ACAMCONTEXTMODELER
  2
AcAmContextModeler
  3
DesignerAssemblies
 90
     1024
280
     0
281
     0
  0
CLASS
  1
ACMDATADICTIONARY
  2
AcmDataDictionary
  3
"AcmSymBB|Product Description: AutoCAD Mechanical|Company: Autodesk, Inc."
 90
     1024
280
     0
281
     0
  0
CLASS
  1
ACAMGRCOMPDEFSET
  2
AcAmGrCompDefSet
  3
DesignerAssemblies
 90
     1024
280
     0
281
     0
  0
CLASS
  1
AMDTBROWSERDBTAB
  2
AmdtBrowserDbTab
  3
McadcomServices
 90
     1024
280
     0
281
     0
  0
CLASS
  1
CBROWSERAPPOBJECT
  2
CBrowserAppObject
  3
McadcomServices
 90
     1024
280
     0
281
     0
  0
CLASS
  1
DM_PLACEHOLDER
  2
AcDmSelsetPlaceholder
  3
McadcomServices
 90
     1024
280
     0
281
     0
  0
CLASS
  1
EXACXREFPANELOBJECT
  2
ExAcXREFPanelObject
  3
EXAC_ESW
 90
     1025
280
     0
281
     0
  0
CLASS
  1
NPOCOLLECTION
  2
AcDbImpNonPersistentObjectsCollection
  3
ObjectDBX Classes
 90
     1153
280
     0
281
     0
  0
CLASS
  1
ACMSTANDARDANSI
  2
AcmStandardANSI
  3
"Amdt_StdImp|Product Description: AutoCAD Mechanical|Company: Autodesk, Inc."
 90
     1024
280
     0
281
     0
  0
CLASS
  1
ACMSURFSTANDARDANSI
  2
AcmSurfTextStdANSI
  3
"Amdt_StdImp|Product Description: AutoCAD Mechanical|Company: Autodesk, Inc."
 90
     1024
280
     0
281
     0
  0
CLASS
  1
ACMFCFSTANDARDANSI
  2
AcmFCFStdANSI
  3
"Amdt_StdImp|Product Description: AutoCAD Mechanical|Company: Autodesk, Inc."
 90
     1024
280
     0
281
     0
  0
CLASS
  1
ACMWELDSTANDARDANSI
  2
AcmWeldingStdANSI
  3
"Amdt_StdImp|Product Description: AutoCAD Mechanical|Company: Autodesk, Inc."
 90
     1024
280
     0
281
     0
  0
CLASS
  1
ACMIDSTANDARDANSI
  2
AcmIdStdANSI
  3
"Amdt_StdImp|Product Description: AutoCAD Mechanical|Company: Autodesk, Inc."
 90
     1024
280
     0
281
     0
  0
CLASS
  1
ACMDATUMSTANDARDANSI
  2
AcmDatumStdANSI
  3
"Amdt_StdImp|Product Description: AutoCAD Mechanical|Company: Autodesk, Inc."
 90
     1024
280
     0
281
     0
  0
CLASS
  1
ACMBOMSTANDARDANSI
  2
AcmBOMStdANSI
  3
"Amdt_StdImp|Product Description: AutoCAD Mechanical|Company: Autodesk, Inc."
 90
     1024
280
     0
281
     0
  0
CLASS
  1
ACMDETAILSTANDARDANSI
  2
AmdtDetailSymStdANSI
  3
"Amdt_StdImp|Product Description: AutoCAD Mechanical|Company: Autodesk, Inc."
 90
     1024
280
     0
281
     0
  0
CLASS
  1
ACMSECTIONSTANDARDANSI
  2
AmdtSectionSymStdANSI
  3
"Amdt_StdImp|Product Description: AutoCAD Mechanical|Company: Autodesk, Inc."
 90
     1024
280
     0
281
     0
  0
CLASS
  1
ACMCENTERLINESTANDARDANSI
  2
AmdtCenterLineStdANSI
  3
"Amdt_StdImp|Product Description: AutoCAD Mechanical|Company: Autodesk, Inc."
 90
     1024
280
     0
281
     0
  0
CLASS
  1
ACMTHREADLINESTANDARDANSI
  2
AmdtThreadLineStdANSI
  3
"Amdt_StdImp|Product Description: AutoCAD Mechanical|Company: Autodesk, Inc."
 90
     1024
280
     0
281
     0
  0
CLASS
  1
ACMNOTESTANDARDANSI
  2
AmdtNoteStdANSI
  3
"Amdt_StdImp|Product Description: AutoCAD Mechanical|Company: Autodesk, Inc."
 90
     1024
280
     0
281
     0
  0
CLASS
  1
ACMTAPERSTANDARDANSI
  2
AcmTaperStdANSI
  3
"Amdt_StdImp|Product Description: AutoCAD Mechanical|Company: Autodesk, Inc."
 90
     1024
280
     0
281
     0
  0
CLASS
  1
ACMANOOTATIONVIEWSTANDARDANSI
  2
AmdtAnViewStdANSI
  3
"Amdt_StdImp|Product Description: AutoCAD Mechanical|Company: Autodesk, Inc."
 90
     1024
280
     0
281
     0
  0
CLASS
  1
ACAMGLAYSTD
  2
AcAmgLayStd
  3
"AmgLay|Product Description: AutoCAD Mechanical|Company: Autodesk, Inc."
 90
     1024
280
     0
281
     0
  0
CLASS
  1
ACAMGDIMSTD
  2
AcAmgDimStd
  3
"AmgDim|Product Description: AutoCAD Mechanical|Company: Autodesk, Inc."
 90
     1024
280
     0
281
     0
  0
CLASS
  1
AMGOBJPROPCFG
  2
AmgObjPropCfg
  3
"AmgLay|Product Description: AutoCAD Mechanical|Company: Autodesk, Inc."
 90
     1024
280
     0
281
     0
  0
CLASS
  1
ACAMGHOLECHARTSTDANSI
  2
AcAmgHoleChartStdANSI
  3
AmgDim|Product Description: AutoCAD Mechanical|Company: Autodesk, Inc.
 90
     1024
280
     0
281
     0
  0
CLASS
  1
ACAMGTITLESTD
  2
AcAmgTitleStd
  3
"AmgTitle|Product Description: AutoCAD Mechanical|Company: Autodesk, Inc."
 90
     1024
280
     0
281
     0
  0
CLASS
  1
ACMSECTIONSTANDARDCUSTOM
  2
AmdtSectionSymStdCustom
  3
"Amdt_StdImp|Product Description: AutoCAD Mechanical|Company: Autodesk, Inc."
 90
     1024
280
     0
281
     0
  0
CLASS
  1
ACMDETAILTANDARDCUSTOM
  2
AmdtDetailSymStdCustom
  3
"Amdt_StdImp|Product Description: AutoCAD Mechanical|Company: Autodesk, Inc."
 90
     1024
280
     0
281
     0
  0
CLASS
  1
FIELD
  2
AcDbField
  3
ObjectDBX Classes
 90
     1152
280
     0
281
     0
  0
CLASS
  1
FIELDLIST
  2
AcDbFieldList
  3
ObjectDBX Classes
 90
     1152
280
     0
281
     0
  0
CLASS
  1
AMDTNOTETEMPLATEDB
  2
AmdtNoteTemplateDB
  3
AcmSymBB|Product Description: AutoCAD Mechanical|Company: Autodesk, Inc.
 90
     1024
280
     0
281
     0
  0
CLASS
  1
DICTIONARYVAR
  2
AcDbDictionaryVar
  3
ObjectDBX Classes
 90
        0
280
     0
281
     0
  0
CLASS
  1
CELLSTYLEMAP
  2
AcDbCellStyleMap
  3
ObjectDBX Classes
 90
     1152
280
     0
281
     0
  0
CLASS
  1
ACAMGFILTERDAT
  2
AcAmgFilterDat
  3
"AcadM|Product Description: AutoCAD Mechanical|Company: Autodesk, Inc."
 90
     1024
280
     0
281
     0
  0
CLASS
  1
ACDBPLACEHOLDER
  2
AcDbPlaceHolder
  3
ObjectDBX Classes
 90
        0
280
     0
281
     0
  0
CLASS
  1
LAYOUT
  2
AcDbLayout
  3
ObjectDBX Classes
 90
        0
280
     0
281
     0
  0
ENDSEC
  0
SECTION
  2
TABLES
  0
TABLE
  2
VPORT
  5
198CE059C9C9CB8
330
0
100
AcDbSymbolTable
 70
     1
  0
VPORT
  5
198CE059C9C9D5B
330
198CE059C9C9CB8
100
AcDbSymbolTableRecord
100
AcDbViewportTableRecord
  2
*ACTIVE
 70
     0
 10
0.0
 20
0.0
 11
1.0
 21
1.0
 12
196.0450757179002
 22
155.4813317786686
 13
0.0
 23
0.0
 14
1.0
 24
1.0
 15
10.0
 25
10.0
 16
0.0
 26
0.0
 36
1.0
 17
0.0
 27
0.0
 37
0.0
 40
227.9461818501079
 41
1.520561685055165
 42
50.0
 43
0.0
 44
0.0
 50
0.0
 51
0.0
 71
     0
 72
   100
 73
     1
 74
     3
 75
     1
 76
     1
 77
     0
 78
     0
281
     0
 65
     1
110
0.0
120
0.0
130
0.0
111
1.0
121
0.0
131
0.0
112
0.0
122
1.0
132
0.0
 79
     0
146
0.0
1001
ACAD_NAV_VCDISPLAY
1070
     3
  0
ENDTAB
  0
TABLE
  2
LTYPE
  5
198CE059C9C9CB5
330
0
100
AcDbSymbolTable
 70
    18
  0
LTYPE
  5
198CE059C9C9D0A
330
198CE059C9C9CB5
100
AcDbSymbolTableRecord
100
AcDbLinetypeTableRecord
  2
ByBlock
 70
     0
  3

 72
    65
 73
     0
 40
0.0
  0
LTYPE
  5
198CE059C9C9D0B
330
198CE059C9C9CB5
100
AcDbSymbolTableRecord
100
AcDbLinetypeTableRecord
  2
ByLayer
 70
     0
  3

 72
    65
 73
     0
 40
0.0
  0
LTYPE
  5
198CE059C9C9D0C
330
198CE059C9C9CB5
100
AcDbSymbolTableRecord
100
AcDbLinetypeTableRecord
  2
CONTINUOUS
 70
     0
  3
Solid line
 72
    65
 73
     0
 40
0.0
  0
LTYPE
  5
198CE059C9C9D46
330
198CE059C9C9CB5
100
AcDbSymbolTableRecord
100
AcDbLinetypeTableRecord
  2
DASHDOT
 70
     0
  3
__ . __ . __ . __ . __ . __ . __ . __ . __ . __
 72
    65
 73
     4
 40
1.0
 49
0.5
 74
     0
 49
-0.25
 74
     0
 49
0.0
 74
     0
 49
-0.25
 74
     0
  0
LTYPE
  5
198CE059C9C9D47
330
198CE059C9C9CB5
100
AcDbSymbolTableRecord
100
AcDbLinetypeTableRecord
  2
HIDDEN
 70
     0
  3
_ _ _ _ _ _ _ _ _ _ _ _ _ _ _ _ _ _ _ _ _ _ _
 72
    65
 73
     2
 40
0.375
 49
0.25
 74
     0
 49
-0.125
 74
     0
  0
LTYPE
  5
198CE059C9C9D48
330
198CE059C9C9CB5
100
AcDbSymbolTableRecord
100
AcDbLinetypeTableRecord
  2
STRICHPUNKT
 70
     0
  3
__ . __ . __ . __ . __ . __ . __ . __ . __ . __
 72
    65
 73
     4
 40
1.0
 49
0.5
 74
     0
 49
-0.25
 74
     0
 49
0.0
 74
     0
 49
-0.25
 74
     0
  0
LTYPE
  5
198CE059C9C9D88
330
198CE059C9C9CB5
100
AcDbSymbolTableRecord
100
AcDbLinetypeTableRecord
  2
PHANTOM2
 70
     0
  3
Phantom (.5x) ___ _ _ ___ _ _ ___ _ _ ___ _ _
 72
    65
 73
     6
 40
1.25
 49
0.625
 74
     0
 49
-0.125
 74
     0
 49
0.125
 74
     0
 49
-0.125
 74
     0
 49
0.125
 74
     0
 49
-0.125
 74
     0
  0
LTYPE
  5
198CE059C9C9D89
330
198CE059C9C9CB5
100
AcDbSymbolTableRecord
100
AcDbLinetypeTableRecord
  2
CENTER
 70
     0
  3
Center ____ _ ____ _ ____ _ ____ _ ____ _ ____
 72
    65
 73
     4
 40
2.0
 49
1.25
 74
     0
 49
-0.25
 74
     0
 49
0.25
 74
     0
 49
-0.25
 74
     0
  0
LTYPE
  5
198CE059C9C9DC8
330
198CE059C9C9CB5
100
AcDbSymbolTableRecord
100
AcDbLinetypeTableRecord
  2
Amconstr
 70
     0
  3
_______________________
 72
    65
 73
     2
 40
9999.0
 49
9999.0
 74
     0
 49
0.0
 74
     0
  0
LTYPE
  5
198CE059C9C9DCE
330
198CE059C9C9CB5
100
AcDbSymbolTableRecord
100
AcDbLinetypeTableRecord
  2
CENTER2
 70
     0
  3
Center (.5x) ___ _ ___ _ ___ _ ___ _ ___ _ ___
 72
    65
 73
     4
 40
1.125
 49
0.75
 74
     0
 49
-0.125
 74
     0
 49
0.125
 74
     0
 49
-0.125
 74
     0
  0
LTYPE
  5
198CE059C9C9DCF
330
198CE059C9C9CB5
100
AcDbSymbolTableRecord
100
AcDbLinetypeTableRecord
  2
HIDDEN2
 70
     0
  3
Hidden (.5x) _ _ _ _ _ _ _ _ _ _ _ _ _ _ _ _ _
 72
    65
 73
     2
 40
0.1875
 49
0.125
 74
     0
 49
-0.0625
 74
     0
  0
LTYPE
  5
198CE059C9C9DD0
330
198CE059C9C9CB5
100
AcDbSymbolTableRecord
100
AcDbLinetypeTableRecord
  2
Amzigzag2
 70
     0
  3
/\/-/\/-/\/-/\/-/\/-/\/
 72
    65
 73
     2
 40
0.4401
 49
0.0001
 74
     4
 75
   136
340
198CE059C9C9DCC
 46
0.0016
 50
0.0
 44
0.0
 45
0.0
 49
-0.4400000000000001
 74
     0
  0
LTYPE
  5
198CE059C9C9DE0
330
198CE059C9C9CB5
100
AcDbSymbolTableRecord
100
AcDbLinetypeTableRecord
  2
ACANSTGB
 70
     0
  3
__ . . __ . .
 72
    65
 73
     6
 40
0.35433070866
 49
0.15748031496
 74
     0
 49
-0.03937007874
 74
     0
 49
0.03937007874
 74
     0
 49
-0.03937007874
 74
     0
 49
0.03937007874
 74
     0
 49
-0.03937007874
 74
     0
  0
LTYPE
  5
198CE059C9C9DE1
330
198CE059C9C9CB5
100
AcDbSymbolTableRecord
100
AcDbLinetypeTableRecord
  2
ACANSTGL
 70
     0
  3
_ _ _ _ _
 72
    65
 73
     2
 40
0.11811023622
 49
0.07874015748
 74
     0
 49
-0.03937007874
 74
     0
  0
ENDTAB
  0
TABLE
  2
LAYER
  5
198CE059C9C9CB2
102
{ACAD_XDICTIONARY
360
198CE059C9C9E04
102
}
330
0
100
AcDbSymbolTable
 70
    18
  0
LAYER
  5
198CE059C9C9D04
330
198CE059C9C9CB2
100
AcDbSymbolTableRecord
100
AcDbLayerTableRecord
  2
0
 70
     0
 62
     7
  6
CONTINUOUS
370
    -3
390
198CE059C9C9CBF
  0
LAYER
  5
198CE059C9C9D60
330
198CE059C9C9CB2
100
AcDbSymbolTableRecord
100
AcDbLayerTableRecord
  2
UMRISS10
 70
     0
 62
     6
  6
CONTINUOUS
370
    -3
390
198CE059C9C9CBF
  0
LAYER
  5
198CE059C9C9D61
330
198CE059C9C9CB2
100
AcDbSymbolTableRecord
100
AcDbLayerTableRecord
  2
TEXT07
 70
     0
 62
     4
  6
CONTINUOUS
370
    -3
390
198CE059C9C9CBF
  0
LAYER
  5
198CE059C9C9D62
330
198CE059C9C9CB2
100
AcDbSymbolTableRecord
100
AcDbLayerTableRecord
  2
ACHSEN
 70
     0
 62
     1
  6
STRICHPUNKT
370
    -3
390
198CE059C9C9CBF
  0
LAYER
  5
198CE059C9C9D63
330
198CE059C9C9CB2
100
AcDbSymbolTableRecord
100
AcDbLayerTableRecord
  2
UMRISS03_-PSPAC_
 70
     0
 62
     2
  6
CONTINUOUS
370
    -3
390
198CE059C9C9CBF
  0
LAYER
  5
198CE059C9C9D65
330
198CE059C9C9CB2
100
AcDbSymbolTableRecord
100
AcDbLayerTableRecord
  2
UMRISS10_-PSPAC_
 70
     0
 62
     6
  6
CONTINUOUS
370
    -3
390
198CE059C9C9CBF
  0
LAYER
  5
198CE059C9C9D66
330
198CE059C9C9CB2
100
AcDbSymbolTableRecord
100
AcDbLayerTableRecord
  2
ACA_VARSAVE
 70
     0
 62
     9
  6
CONTINUOUS
370
    -3
390
198CE059C9C9CBF
  0
LAYER
  5
198CE059C9C9D67
330
198CE059C9C9CB2
100
AcDbSymbolTableRecord
100
AcDbLayerTableRecord
  2
BEMASSUNG_-PSPAC_
 70
     0
 62
     7
  6
CONTINUOUS
370
    -3
390
198CE059C9C9CBF
  0
LAYER
  5
198CE059C9C9D69
330
198CE059C9C9CB2
100
AcDbSymbolTableRecord
100
AcDbLayerTableRecord
  2
TEXT07_-PSPAC_
 70
     0
 62
     4
  6
CONTINUOUS
370
    -3
390
198CE059C9C9CBF
  0
LAYER
  5
198CE059C9C9D6B
330
198CE059C9C9CB2
100
AcDbSymbolTableRecord
100
AcDbLayerTableRecord
  2
DEFPOINTS
 70
     0
 62
     7
  6
CONTINUOUS
290
     0
370
    -3
390
198CE059C9C9CBF
  0
LAYER
  5
198CE059C9C9D6C
330
198CE059C9C9CB2
100
AcDbSymbolTableRecord
100
AcDbLayerTableRecord
  2
ACHSEN_-PSPAC_
 70
     0
 62
     1
  6
DASHDOT
370
    -3
390
198CE059C9C9CBF
  0
LAYER
  5
198CE059C9C9D6D
330
198CE059C9C9CB2
100
AcDbSymbolTableRecord
100
AcDbLayerTableRecord
  2
HILFSPUNKTE_-PSPAC_
 70
     0
 62
     9
  6
HIDDEN
370
    -3
390
198CE059C9C9CBF
  0
ENDTAB
  0
TABLE
  2
STYLE
  5
198CE059C9C9CB3
330
0
100
AcDbSymbolTable
 70
     7
  0
STYLE
  5
198CE059C9C9D05
330
198CE059C9C9CB3
100
AcDbSymbolTableRecord
100
AcDbTextStyleTableRecord
  2
STANDARD
 70
     0
 40
0.0
 41
1.0
 50
0.0
 71
     0
 42
3.5
  3
txt
  4

  0
STYLE
  5
198CE059C9C9D09
330
198CE059C9C9CB3
100
AcDbSymbolTableRecord
100
AcDbTextStyleTableRecord
  2
ACA_ISO
 70
     0
 40
0.0
 41
1.0
 50
0.0
 71
     0
 42
3.5
  3
iso8
  4

1001
AcadAnnotative
1000
AnnotativeData
1002
{
1070
     1
1070
     1
1002
}
  0
STYLE
  5
198CE059C9C9D44
330
198CE059C9C9CB3
100
AcDbSymbolTableRecord
100
AcDbTextStyleTableRecord
  2
_STYLE
 70
     0
 40
0.0
 41
1.0
 50
0.0
 71
     0
 42
3.0
  3
ISO.SHX
  4

  0
STYLE
  5
198CE059C9C9DCC
330
198CE059C9C9CB3
100
AcDbSymbolTableRecord
100
AcDbTextStyleTableRecord
  2

 70
     1
 40
0.0
 41
1.0
 50
0.0
 71
     0
 42
3.5
  3
genltshp.shx
  4

  0
STYLE
  5
198CE059C9C9DDF
330
198CE059C9C9CB3
100
AcDbSymbolTableRecord
100
AcDbTextStyleTableRecord
  2
ACANSGDT
 70
     0
 40
0.0
 41
1.0
 50
0.0
 71
     0
 42
3.5
  3
amgdt.shx
  4

  0
ENDTAB
  0
TABLE
  2
VIEW
  5
198CE059C9C9CB6
330
0
100
AcDbSymbolTable
 70
    15
  0
VIEW
  5
198CE059C9C9D49
330
198CE059C9C9CB6
100
AcDbSymbolTableRecord
100
AcDbViewTableRecord
  2
ACA_ALL
 70
     0
 40
297.0
 10
210.0
 20
148.5
 41
420.0
 11
0.0
 21
0.0
 31
1.0
 12
0.0
 22
0.0
 32
0.0
 42
50.0
 43
0.0
 44
0.0
 50
0.0
 71
     0
281
     0
 72
     0
  0
VIEW
  5
198CE059C9C9D4A
330
198CE059C9C9CB6
100
AcDbSymbolTableRecord
100
AcDbViewTableRecord
  2
ACA_OL
 70
     0
 40
108.9
 10
77.0
 20
242.55
 41
154.0
 11
0.0
 21
0.0
 31
1.0
 12
0.0
 22
0.0
 32
0.0
 42
50.0
 43
0.0
 44
0.0
 50
0.0
 71
     0
281
     0
 72
     0
  0
VIEW
  5
198CE059C9C9D4B
330
198CE059C9C9CB6
100
AcDbSymbolTableRecord
100
AcDbViewTableRecord
  2
ACA_OR
 70
     0
 40
108.9
 10
343.0
 20
242.55
 41
154.0
 11
0.0
 21
0.0
 31
1.0
 12
0.0
 22
0.0
 32
0.0
 42
50.0
 43
0.0
 44
0.0
 50
0.0
 71
     0
281
     0
 72
     0
  0
VIEW
  5
198CE059C9C9D4C
330
198CE059C9C9CB6
100
AcDbSymbolTableRecord
100
AcDbViewTableRecord
  2
ACA_UR
 70
     0
 40
108.9
 10
343.0
 20
54.45
 41
154.0
 11
0.0
 21
0.0
 31
1.0
 12
0.0
 22
0.0
 32
0.0
 42
50.0
 43
0.0
 44
0.0
 50
0.0
 71
     0
281
     0
 72
     0
  0
VIEW
  5
198CE059C9C9D4D
330
198CE059C9C9CB6
100
AcDbSymbolTableRecord
100
AcDbViewTableRecord
  2
ACA_UL
 70
     0
 40
108.9
 10
77.0
 20
54.45
 41
154.0
 11
0.0
 21
0.0
 31
1.0
 12
0.0
 22
0.0
 32
0.0
 42
50.0
 43
0.0
 44
0.0
 50
0.0
 71
     0
281
     0
 72
     0
  0
VIEW
  5
198CE059C9C9D4E
330
198CE059C9C9CB6
100
AcDbSymbolTableRecord
100
AcDbViewTableRecord
  2
ACA_ML
 70
     0
 40
118.8
 10
77.0
 20
148.5
 41
154.0
 11
0.0
 21
0.0
 31
1.0
 12
0.0
 22
0.0
 32
0.0
 42
50.0
 43
0.0
 44
0.0
 50
0.0
 71
     0
281
     0
 72
     0
  0
VIEW
  5
198CE059C9C9D4F
330
198CE059C9C9CB6
100
AcDbSymbolTableRecord
100
AcDbViewTableRecord
  2
ACA_OM
 70
     0
 40
108.9
 10
210.0
 20
242.55
 41
168.0
 11
0.0
 21
0.0
 31
1.0
 12
0.0
 22
0.0
 32
0.0
 42
50.0
 43
0.0
 44
0.0
 50
0.0
 71
     0
281
     0
 72
     0
  0
VIEW
  5
198CE059C9C9D50
330
198CE059C9C9CB6
100
AcDbSymbolTableRecord
100
AcDbViewTableRecord
  2
ACA_MM
 70
     0
 40
118.8
 10
210.0
 20
148.5
 41
168.0
 11
0.0
 21
0.0
 31
1.0
 12
0.0
 22
0.0
 32
0.0
 42
50.0
 43
0.0
 44
0.0
 50
0.0
 71
     0
281
     0
 72
     0
  0
VIEW
  5
198CE059C9C9D51
330
198CE059C9C9CB6
100
AcDbSymbolTableRecord
100
AcDbViewTableRecord
  2
ACA_UM
 70
     0
 40
108.9
 10
210.0
 20
54.45
 41
168.0
 11
0.0
 21
0.0
 31
1.0
 12
0.0
 22
0.0
 32
0.0
 42
50.0
 43
0.0
 44
0.0
 50
0.0
 71
     0
281
     0
 72
     0
  0
VIEW
  5
198CE059C9C9D52
330
198CE059C9C9CB6
100
AcDbSymbolTableRecord
100
AcDbViewTableRecord
  2
ACA_MR
 70
     0
 40
118.8
 10
343.0
 20
148.5
 41
154.0
 11
0.0
 21
0.0
 31
1.0
 12
0.0
 22
0.0
 32
0.0
 42
50.0
 43
0.0
 44
0.0
 50
0.0
 71
     0
281
     0
 72
     0
  0
VIEW
  5
198CE059C9C9D53
330
198CE059C9C9CB6
100
AcDbSymbolTableRecord
100
AcDbViewTableRecord
  2
ACA_KOPF
 70
     1
 40
122.5305410122164
 10
331.1498257839721
 20
65.0
 41
170.0
 11
0.0
 21
0.0
 31
1.0
 12
0.0
 22
0.0
 32
0.0
 42
50.0
 43
0.0
 44
0.0
 50
0.0
 71
     0
281
     0
 72
     0
  0
VIEW
  5
198CE059C9C9D54
330
198CE059C9C9CB6
100
AcDbSymbolTableRecord
100
AcDbViewTableRecord
  2
BTA2-106
 70
     0
 40
386.1
 10
212.7857142857143
 20
148.5
 41
551.5714285714286
 11
0.0
 21
0.0
 31
1.0
 12
0.0
 22
0.0
 32
0.0
 42
50.0
 43
0.0
 44
0.0
 50
0.0
 71
     0
281
     0
 72
     0
  0
ENDTAB
  0
TABLE
  2
UCS
  5
198CE059C9C9CB7
330
0
100
AcDbSymbolTable
 70
     6
  0
UCS
  5
198CE059C9C9D55
330
198CE059C9C9CB7
100
AcDbSymbolTableRecord
100
AcDbUCSTableRecord
  2
ACA_VORNE
 70
     0
 10
0.0
 20
0.0
 30
0.0
 11
1.0
 21
0.0
 31
0.0
 12
0.0
 22
0.0
 32
1.0
 79
     0
146
0.0
  0
UCS
  5
198CE059C9C9D56
330
198CE059C9C9CB7
100
AcDbSymbolTableRecord
100
AcDbUCSTableRecord
  2
ACA_RECHTS
 70
     0
 10
0.0
 20
0.0
 30
0.0
 11
0.0
 21
1.0
 31
0.0
 12
0.0
 22
0.0
 32
1.0
 79
     0
146
0.0
  0
UCS
  5
198CE059C9C9D57
330
198CE059C9C9CB7
100
AcDbSymbolTableRecord
100
AcDbUCSTableRecord
  2
ACA_LINKS
 70
     0
 10
0.0
 20
0.0
 30
0.0
 11
0.0
 21
-1.0
 31
0.0
 12
0.0
 22
0.0
 32
1.0
 79
     0
146
0.0
  0
UCS
  5
198CE059C9C9D58
330
198CE059C9C9CB7
100
AcDbSymbolTableRecord
100
AcDbUCSTableRecord
  2
ACA_HINTEN
 70
     0
 10
0.0
 20
0.0
 30
0.0
 11
-1.0
 21
0.0000000000000001
 31
0.0
 12
0.0
 22
-0.0000000000174533
 32
1.0
 79
     0
146
0.0
  0
UCS
  5
198CE059C9C9D59
330
198CE059C9C9CB7
100
AcDbSymbolTableRecord
100
AcDbUCSTableRecord
  2
ACA_OBEN
 70
     0
 10
0.0
 20
0.0
 30
0.0
 11
1.0
 21
0.0
 31
0.0
 12
0.0
 22
1.0
 32
0.0
 79
     0
146
0.0
  0
UCS
  5
198CE059C9C9D5A
330
198CE059C9C9CB7
100
AcDbSymbolTableRecord
100
AcDbUCSTableRecord
  2
ACA_UNTEN
 70
     0
 10
0.0
 20
0.0
 30
0.0
 11
1.0
 21
0.0
 31
0.0
 12
0.0
 22
-1.0
 32
0.0
 79
     0
146
0.0
  0
ENDTAB
  0
TABLE
  2
APPID
  5
198CE059C9C9CB9
330
0
100
AcDbSymbolTable
 70
    21
  0
APPID
  5
198CE059C9C9D06
330
198CE059C9C9CB9
100
AcDbSymbolTableRecord
100
AcDbRegAppTableRecord
  2
ACAD
 70
     0
  0
APPID
  5
198CE059C9C9D5C
330
198CE059C9C9CB9
100
AcDbSymbolTableRecord
100
AcDbRegAppTableRecord
  2
ACA_CADIMENU
 70
     0
  0
APPID
  5
198CE059C9C9D0D
330
198CE059C9C9CB9
100
AcDbSymbolTableRecord
100
AcDbRegAppTableRecord
  2
AcadAnnotative
 70
     0
  0
APPID
  5
198CE059C9C9D7A
330
198CE059C9C9CB9
100
AcDbSymbolTableRecord
100
AcDbRegAppTableRecord
  2
ACAD_PSEXT
 70
     0
  0
APPID
  5
198CE059C9C9D81
330
198CE059C9C9CB9
100
AcDbSymbolTableRecord
100
AcDbRegAppTableRecord
  2
MCAD_NO_VIS
 70
     0
  0
APPID
  5
198CE059C9C9D82
330
198CE059C9C9CB9
100
AcDbSymbolTableRecord
100
AcDbRegAppTableRecord
  2
ACAD_TEMP_GRAPHIC
 70
     0
  0
APPID
  5
198CE059C9C9D8E
330
198CE059C9C9CB9
100
AcDbSymbolTableRecord
100
AcDbRegAppTableRecord
  2
ACATTRIBSERVICES
 70
     0
  0
APPID
  5
198CE059C9C9DA6
330
198CE059C9C9CB9
100
AcDbSymbolTableRecord
100
AcDbRegAppTableRecord
  2
DESIGNERASSEMBLIES
 70
     0
  0
APPID
  5
198CE059C9C9DC2
330
198CE059C9C9CB9
100
AcDbSymbolTableRecord
100
AcDbRegAppTableRecord
  2
ACAD_DSTYLE_DIMJAG
 70
     0
  0
APPID
  5
198CE059C9C9DC3
330
198CE059C9C9CB9
100
AcDbSymbolTableRecord
100
AcDbRegAppTableRecord
  2
ACAD_DSTYLE_DIMBREAK
 70
     0
  0
APPID
  5
198CE059C9C9DFD
330
198CE059C9C9CB9
100
AcDbSymbolTableRecord
100
AcDbRegAppTableRecord
  2
GENIUS_GENSCREG_15
 70
     0
  0
APPID
  5
198CE059C9C9DFE
330
198CE059C9C9CB9
100
AcDbSymbolTableRecord
100
AcDbRegAppTableRecord
  2
GENIUS_GENOBJ-N-SDF_13
 70
     0
  0
APPID
  5
198CE059C9C9DFF
330
198CE059C9C9CB9
100
AcDbSymbolTableRecord
100
AcDbRegAppTableRecord
  2
GENIUS_GENODEF_13
 70
     0
  0
APPID
  5
198CE059C9C9E7B
330
198CE059C9C9CB9
100
AcDbSymbolTableRecord
100
AcDbRegAppTableRecord
  2
ACAD_NAV_VCDISPLAY
 70
     0
  0
APPID
  5
198CE059C9C9E8D
330
198CE059C9C9CB9
100
AcDbSymbolTableRecord
100
AcDbRegAppTableRecord
  2
ACAD_DSTYLE_DIMINSPECT
 70
     0
  0
APPID
  5
198CE059C9C9E9C
330
198CE059C9C9CB9
100
AcDbSymbolTableRecord
100
AcDbRegAppTableRecord
  2
GENIUS_GENDTOL_13
 70
     0
  0
APPID
  5
198CE059C9C9F14
330
198CE059C9C9CB9
100
AcDbSymbolTableRecord
100
AcDbRegAppTableRecord
  2
ACAD_MLEADERVER
 70
     0
  0
APPID
  5
198CE059C9C9F1D
330
198CE059C9C9CB9
100
AcDbSymbolTableRecord
100
AcDbRegAppTableRecord
  2
ACAD_DSTYLE_DIMARC_LENGTH_SYMBOL
 70
     0
  0
APPID
  5
198CE059C9C9F1E
330
198CE059C9C9CB9
100
AcDbSymbolTableRecord
100
AcDbRegAppTableRecord
  2
ACAD_DSTYLE_DIM_LINETYPE
 70
     0
  0
APPID
  5
198CE059C9C9F1F
330
198CE059C9C9CB9
100
AcDbSymbolTableRecord
100
AcDbRegAppTableRecord
  2
ACAD_DSTYLE_DIM_EXT1_LINETYPE
 70
     0
  0
APPID
  5
198CE059C9C9F20
330
198CE059C9C9CB9
100
AcDbSymbolTableRecord
100
AcDbRegAppTableRecord
  2
ACAD_DSTYLE_DIM_EXT2_LINETYPE
 70
     0
  0
ENDTAB
  0
TABLE
  2
DIMSTYLE
  5
198CE059C9C9CBA
330
0
100
AcDbSymbolTable
 70
     8
100
AcDbDimStyleTable
 71
     0
  0
DIMSTYLE
105
198CE059C9C9D07
102
{ACAD_REACTORS
330
542144B0D13
330
A369DA2F8E39
330
A369DA2F8FDC
330
A369DA2FA987
330
A369DA2FB49B
330
A369DA2FBA76
330
A369DA2FBC4B
330
A369DA2FC21C
330
A369DA2FC8B3
330
A369DA2FCA1F
330
A369DA2FCBA1
330
A369DA2FCE6D
330
A369DA2FD30D
330
A369DA2FD460
330
A369DA2FD864
330
A369DA2FDB8A
330
A369DA2FDDBE
330
A369DA2FDE9B
330
A369DA2FE133
330
A369DA2FEAB5
330
A369DA2FECE4
330
BB81D8BB3688
330
BB81D8BB4633
102
}
330
198CE059C9C9CBA
100
AcDbSymbolTableRecord
100
AcDbDimStyleTableRecord
  2
ACA_CADIMENU
 70
     0
 41
3.5
 42
0.1
 43
7.0
 44
1.8
 73
     0
 74
     0
 77
     1
 78
     8
140
3.5
141
1.5
146
0.5
147
1.0
172
     1
174
     1
271
     2
272
     2
279
     2
284
     8
285
     8
286
     8
340
198CE059C9C9D05
  0
DIMSTYLE
105
198CE059C9C9DC1
102
{ACAD_REACTORS
330
198CE059C9C9DB1
102
}
330
198CE059C9C9CBA
100
AcDbSymbolTableRecord
100
AcDbDimStyleTableRecord
  2
AM_ANSI
 70
     0
  4
mm
 41
0.12
 42
0.05
 43
0.5
 44
0.1
 47
0.1
 48
0.1
 78
     7
 79
     2
140
0.12
141
0.0
146
0.71
147
0.06
176
   256
177
   256
178
     2
274
     4
284
     7
340
198CE059C9C9D05
371
    -1
372
    -1
1001
ACAD_DSTYLE_DIMJAG
1070
   388
1040
1.5
1001
ACAD_DSTYLE_DIMBREAK
1070
   391
1040
0.125
1001
ACAD_DSTYLE_DIMARC_LENGTH_SYMBOL
1070
   379
1070
     1
1001
ACAD_DSTYLE_DIM_LINETYPE
1070
   380
1005
198CE059C9C9D0A
1001
ACAD_DSTYLE_DIM_EXT1_LINETYPE
1070
   381
1005
198CE059C9C9D0A
1001
ACAD_DSTYLE_DIM_EXT2_LINETYPE
1070
   382
1005
198CE059C9C9D0A
  0
DIMSTYLE
105
198CE059C9C9DD1
330
198CE059C9C9CBA
100
AcDbSymbolTableRecord
100
AcDbDimStyleTableRecord
  2
AM_ANSI$3
 70
     0
  4
mm
 41
0.12
 42
0.05
 43
0.5
 44
0.1
 47
0.1
 48
0.1
 78
     7
 79
     2
140
0.12
141
0.0
146
0.71
147
0.06
176
   256
177
   256
178
     2
274
     4
284
     7
288
     1
289
     0
340
198CE059C9C9D05
371
    -1
372
    -1
1001
ACAD_DSTYLE_DIMBREAK
1070
   391
1040
0.125
1001
ACAD_DSTYLE_DIMJAG
1070
   388
1040
1.5
1001
ACAD_DSTYLE_DIMARC_LENGTH_SYMBOL
1070
   379
1070
     1
1001
ACAD_DSTYLE_DIM_LINETYPE
1070
   380
1005
198CE059C9C9D0A
1001
ACAD_DSTYLE_DIM_EXT1_LINETYPE
1070
   381
1005
198CE059C9C9D0A
1001
ACAD_DSTYLE_DIM_EXT2_LINETYPE
1070
   382
1005
198CE059C9C9D0A
  0
DIMSTYLE
105
198CE059C9C9DD2
330
198CE059C9C9CBA
100
AcDbSymbolTableRecord
100
AcDbDimStyleTableRecord
  2
AM_ANSI$4
 70
     0
  4
mm
 41
0.12
 42
0.05
 43
0.5
 44
0.1
 47
0.1
 48
0.1
 78
     7
 79
     2
140
0.12
141
0.0
146
0.71
147
0.06
176
   256
177
   256
178
     2
274
     4
284
     7
288
     1
289
     0
340
198CE059C9C9D05
371
    -1
372
    -1
1001
ACAD_DSTYLE_DIMBREAK
1070
   391
1040
0.125
1001
ACAD_DSTYLE_DIMJAG
1070
   388
1040
1.5
1001
ACAD_DSTYLE_DIMARC_LENGTH_SYMBOL
1070
   379
1070
     1
1001
ACAD_DSTYLE_DIM_LINETYPE
1070
   380
1005
198CE059C9C9D0A
1001
ACAD_DSTYLE_DIM_EXT1_LINETYPE
1070
   381
1005
198CE059C9C9D0A
1001
ACAD_DSTYLE_DIM_EXT2_LINETYPE
1070
   382
1005
198CE059C9C9D0A
  0
DIMSTYLE
105
198CE059C9C9DD3
330
198CE059C9C9CBA
100
AcDbSymbolTableRecord
100
AcDbDimStyleTableRecord
  2
AM_ANSI$7
 70
     0
  4
mm
 41
0.12
 42
0.05
 43
0.5
 44
0.1
 47
0.1
 48
0.1
 78
     7
 79
     2
140
0.12
141
0.0
146
0.71
147
0.06
176
   256
177
   256
178
     2
274
     4
284
     7
340
198CE059C9C9D05
371
    -1
372
    -1
1001
ACAD_DSTYLE_DIMBREAK
1070
   391
1040
0.125
1001
ACAD_DSTYLE_DIMJAG
1070
   388
1040
1.5
1001
ACAD_DSTYLE_DIMARC_LENGTH_SYMBOL
1070
   379
1070
     1
1001
ACAD_DSTYLE_DIM_LINETYPE
1070
   380
1005
198CE059C9C9D0A
1001
ACAD_DSTYLE_DIM_EXT1_LINETYPE
1070
   381
1005
198CE059C9C9D0A
1001
ACAD_DSTYLE_DIM_EXT2_LINETYPE
1070
   382
1005
198CE059C9C9D0A
  0
DIMSTYLE
105
198CE059C9C9DD4
330
198CE059C9C9CBA
100
AcDbSymbolTableRecord
100
AcDbDimStyleTableRecord
  2
AM_ANSI$SF
 70
     0
  4
mm
 41
0.12
 42
0.05
 43
0.5
 44
0.1
 47
0.1
 48
0.1
 75
     1
 76
     1
 78
     7
 79
     2
140
0.12
141
0.0
146
0.71
147
0.06
176
   256
177
   256
178
     2
274
     4
284
     7
340
198CE059C9C9D05
371
    -1
372
    -1
1001
ACAD_DSTYLE_DIMBREAK
1070
   391
1040
0.125
1001
ACAD_DSTYLE_DIMJAG
1070
   388
1040
1.5
1001
ACAD_DSTYLE_DIMARC_LENGTH_SYMBOL
1070
   379
1070
     1
1001
ACAD_DSTYLE_DIM_LINETYPE
1070
   380
1005
198CE059C9C9D0A
1001
ACAD_DSTYLE_DIM_EXT1_LINETYPE
1070
   381
1005
198CE059C9C9D0A
1001
ACAD_DSTYLE_DIM_EXT2_LINETYPE
1070
   382
1005
198CE059C9C9D0A
  0
DIMSTYLE
105
198CE059C9C9DD9
330
198CE059C9C9CBA
100
AcDbSymbolTableRecord
100
AcDbDimStyleTableRecord
  2
AM_ANSI$SH
 70
     0
  4
mm
 41
0.12
 42
0.05
 43
0.5
 44
0.1
 47
0.1
 48
0.1
 75
     1
 76
     1
 78
     7
 79
     2
140
0.12
141
0.0
146
0.71
147
0.06
173
     1
176
   256
177
   256
178
     2
274
     4
284
     7
340
198CE059C9C9D05
343
198CE059C9C9DD5
371
    -1
372
    -1
1001
ACAD_DSTYLE_DIMBREAK
1070
   391
1040
0.125
1001
ACAD_DSTYLE_DIMJAG
1070
   388
1040
1.5
1001
ACAD_DSTYLE_DIMARC_LENGTH_SYMBOL
1070
   379
1070
     1
1001
ACAD_DSTYLE_DIM_LINETYPE
1070
   380
1005
198CE059C9C9D0A
1001
ACAD_DSTYLE_DIM_EXT1_LINETYPE
1070
   381
1005
198CE059C9C9D0A
1001
ACAD_DSTYLE_DIM_EXT2_LINETYPE
1070
   382
1005
198CE059C9C9D0A
  0
ENDTAB
  0
TABLE
  2
BLOCK_RECORD
  5
198CE053F9C9CB1
330
0
100
AcDbSymbolTable
 70
    39
  0
BLOCK_RECORD
  5
198CE059C9C9D1F
330
198CE053F9C9CB1
100
AcDbSymbolTableRecord
100
AcDbBlockTableRecord
  2
*Model_Space
340
198CE059C9C9D22
  0
BLOCK_RECORD
  5
198CE059C9C9E7C
330
198CE053F9C9CB1
100
AcDbSymbolTableRecord
100
AcDbBlockTableRecord
  2
*Paper_Space
340
198CE059C9C9E7D
  0
BLOCK_RECORD
  5
198CE059C9C9D23
330
198CE053F9C9CB1
100
AcDbSymbolTableRecord
100
AcDbBlockTableRecord
  2
ACA_CFG
340
0
102
{BLKREFS
331
6
102
}
  0
BLOCK_RECORD
  5
198CE059C9C9D24
330
198CE053F9C9CB1
100
AcDbSymbolTableRecord
100
AcDbBlockTableRecord
  2
ACA_SAVE_DONT_PURGE
340
0
102
{BLKREFS
331
8
102
}
  0
BLOCK_RECORD
  5
198CE059C9C9D28
330
198CE053F9C9CB1
100
AcDbSymbolTableRecord
100
AcDbBlockTableRecord
  2
*D5
340
0
  0
BLOCK_RECORD
  5
198CE059C9C9D29
330
198CE053F9C9CB1
100
AcDbSymbolTableRecord
100
AcDbBlockTableRecord
  2
*D6
340
0
  0
BLOCK_RECORD
  5
198CE059C9C9D2A
330
198CE053F9C9CB1
100
AcDbSymbolTableRecord
100
AcDbBlockTableRecord
  2
*D7
340
0
  0
BLOCK_RECORD
  5
198CE059C9C9D2C
330
198CE053F9C9CB1
100
AcDbSymbolTableRecord
100
AcDbBlockTableRecord
  2
*D9
340
0
  0
BLOCK_RECORD
  5
198CE059C9C9D2D
330
198CE053F9C9CB1
100
AcDbSymbolTableRecord
100
AcDbBlockTableRecord
  2
*D10
340
0
  0
BLOCK_RECORD
  5
198CE059C9C9D2E
330
198CE053F9C9CB1
100
AcDbSymbolTableRecord
100
AcDbBlockTableRecord
  2
*D11
340
0
  0
BLOCK_RECORD
  5
198CE059C9C9D30
330
198CE053F9C9CB1
100
AcDbSymbolTableRecord
100
AcDbBlockTableRecord
  2
*D13
340
0
  0
BLOCK_RECORD
  5
198CE059C9C9D31
330
198CE053F9C9CB1
100
AcDbSymbolTableRecord
100
AcDbBlockTableRecord
  2
*D14
340
0
  0
BLOCK_RECORD
  5
198CE059C9C9D32
330
198CE053F9C9CB1
100
AcDbSymbolTableRecord
100
AcDbBlockTableRecord
  2
*D15
340
0
  0
BLOCK_RECORD
  5
198CE059C9C9D33
330
198CE053F9C9CB1
100
AcDbSymbolTableRecord
100
AcDbBlockTableRecord
  2
*D16
340
0
  0
BLOCK_RECORD
  5
198CE059C9C9D34
330
198CE053F9C9CB1
100
AcDbSymbolTableRecord
100
AcDbBlockTableRecord
  2
*D17
340
0
  0
BLOCK_RECORD
  5
198CE059C9C9D35
330
198CE053F9C9CB1
100
AcDbSymbolTableRecord
100
AcDbBlockTableRecord
  2
*D18
340
0
  0
BLOCK_RECORD
  5
198CE059C9C9D36
330
198CE053F9C9CB1
100
AcDbSymbolTableRecord
100
AcDbBlockTableRecord
  2
*D19
340
0
  0
BLOCK_RECORD
  5
198CE059C9C9D37
330
198CE053F9C9CB1
100
AcDbSymbolTableRecord
100
AcDbBlockTableRecord
  2
*D20
340
0
  0
BLOCK_RECORD
  5
198CE059C9C9D38
330
198CE053F9C9CB1
100
AcDbSymbolTableRecord
100
AcDbBlockTableRecord
  2
*D21
340
0
  0
BLOCK_RECORD
  5
198CE059C9C9D39
330
198CE053F9C9CB1
100
AcDbSymbolTableRecord
100
AcDbBlockTableRecord
  2
*D22
340
0
  0
BLOCK_RECORD
  5
198CE059C9C9D3A
330
198CE053F9C9CB1
100
AcDbSymbolTableRecord
100
AcDbBlockTableRecord
  2
*D23
340
0
  0
BLOCK_RECORD
  5
198CE059C9C9D3B
330
198CE053F9C9CB1
100
AcDbSymbolTableRecord
100
AcDbBlockTableRecord
  2
*D24
340
0
  0
BLOCK_RECORD
  5
198CE059C9C9D3C
330
198CE053F9C9CB1
100
AcDbSymbolTableRecord
100
AcDbBlockTableRecord
  2
*D25
340
0
  0
BLOCK_RECORD
  5
198CE059C9C9D3D
330
198CE053F9C9CB1
100
AcDbSymbolTableRecord
100
AcDbBlockTableRecord
  2
*D26
340
0
  0
BLOCK_RECORD
  5
198CE059C9C9D3E
330
198CE053F9C9CB1
100
AcDbSymbolTableRecord
100
AcDbBlockTableRecord
  2
*D27
340
0
  0
BLOCK_RECORD
  5
198CE059C9C9D40
330
198CE053F9C9CB1
100
AcDbSymbolTableRecord
100
AcDbBlockTableRecord
  2
*D29
340
0
  0
BLOCK_RECORD
  5
198CE059C9C9D41
330
198CE053F9C9CB1
100
AcDbSymbolTableRecord
100
AcDbBlockTableRecord
  2
*D30
340
0
  0
BLOCK_RECORD
  5
198CE059C9C9D43
330
198CE053F9C9CB1
100
AcDbSymbolTableRecord
100
AcDbBlockTableRecord
  2
*X32
340
0
102
{BLKREFS
331
198CE053F9C9CAA
102
}
  0
BLOCK_RECORD
  5
198CE059C9C9DD5
330
198CE053F9C9CB1
100
AcDbSymbolTableRecord
100
AcDbBlockTableRecord
  2
GENAXEH
340
0
  0
BLOCK_RECORD
  5
198CE059C9C9DE3
330
198CE053F9C9CB1
100
AcDbSymbolTableRecord
100
AcDbBlockTableRecord
  2
_ACMFILLEDHALF
340
0
  0
BLOCK_RECORD
  5
198CE059C9C9E8E
330
198CE053F9C9CB1
100
AcDbSymbolTableRecord
100
AcDbBlockTableRecord
  2
*D37
340
0
  0
BLOCK_RECORD
  5
198CE059C9C9EA8
330
198CE053F9C9CB1
100
AcDbSymbolTableRecord
100
AcDbBlockTableRecord
  2
*D38
340
0
  0
ENDTAB
  0
ENDSEC
  0
SECTION
  2
BLOCKS
  0
BLOCK
  5
198CE059C9C9D73
330
198CE059C9C9D1F
100
AcDbEntity
  8
0
100
AcDbBlockBegin
  2
*Model_Space
 70
     0
 10
0.0
 20
0.0
 30
0.0
  3
*Model_Space
  1

  0
ENDBLK
  5
198CE059C9C9D74
330
198CE059C9C9D1F
100
AcDbEntity
  8
0
100
AcDbBlockEnd
  0
BLOCK
  5
198CE059C9C9E7E
330
198CE059C9C9E7C
100
AcDbEntity
 67
     1
  8
0
100
AcDbBlockBegin
  2
*Paper_Space
 70
     0
 10
0.0
 20
0.0
 30
0.0
  3
*Paper_Space
  1

  0
ENDBLK
  5
198CE059C9C9E7F
330
198CE059C9C9E7C
100
AcDbEntity
 67
     1
  8
0
100
AcDbBlockEnd
  0
BLOCK
  5
3
330
198CE059C9C9D23
100
AcDbEntity
  8
0
100
AcDbBlockBegin
  2
ACA_CFG
 70
     0
 10
0.0
 20
0.0
 30
0.0
  3
ACA_CFG
  1
ACA_CFG
  0
ENDBLK
  5
4
330
198CE059C9C9D23
100
AcDbEntity
  8
0
100
AcDbBlockEnd
  0
BLOCK
  5
5
330
198CE059C9C9D24
100
AcDbEntity
  8
0
100
AcDbBlockBegin
  2
ACA_SAVE_DONT_PURGE
 70
     0
 10
0.0
 20
0.0
 30
0.0
  3
ACA_SAVE_DONT_PURGE
  1
ACA_SAVE_DONT_PURGE
  0
INSERT
  5
6
330
198CE059C9C9D24
100
AcDbEntity
  8
ACA_VARSAVE
100
AcDbBlockReference
  2
ACA_CFG
 10
0.0
 20
0.0
 30
0.0
1001
ACA_CADIMENU
1000
ACA_CFG
1002
{
1000
ACA_V:LAY-GRCODE
1000
PSPAC
1002
}
1002
{
1000
ACA_V:LAY-GRDEL1
1000
_-
1002
}
1002
{
1000
ACA_V:LAY-GRDEL2
1000
_
1002
}
1002
{
1000
ACA_V:LAY-MLAST
1000
PSPAC
1002
}
1002
{
1000
ACA_V:LAY-PRE
1000

1002
}
1002
{
1000
ACA_V:LAY-PRELIST
1000
.nil.
1002
}
1002
{
1000
ACA_V:ZEIN
1070
     1
1002
}
1002
{
1000
ACA_V:EINH
1000
mm
1002
}
1002
{
1000
ACA_V:Mass
1040
1.0
1002
}
1002
{
1000
ACA_V:EIFA
1040
1.0
1002
}
1002
{
1000
ACA_V:PDIS
1000
 mm
1002
}
1002
{
1000
ACA_V:PARE
1000
 qmm
1002
}
1002
{
1000
ACA_V:FFA1
1040
1.0
1002
}
1002
{
1000
ACA_V:FDR1
1000
0.0
1002
}
1002
{
1000
ACA_V:FXF1
1040
1.0
1002
}
1002
{
1000
ACA_V:FYF1
1040
1.0
1002
}
1002
{
1000
ACA_V:FZF1
1040
1.0
1002
}
1002
{
1000
ACA_V:THT2
1040
2.5
1002
}
1002
{
1000
ACA_V:THT3
1040
3.5
1002
}
1002
{
1000
ACA_V:THT5
1040
5.0
1002
}
1002
{
1000
ACA_V:THT7
1040
7.0
1002
}
1002
{
1000
ACA_V:THT1
1040
10.0
1002
}
1002
{
1000
ACA_V:ZSi
1000
.nil.
1002
}
1002
{
1000
ACA_V:F-CADI
1000
CM1
1002
}
1002
{
1000
ACA_V:F-CAD1
1000
B
1002
}
1002
{
1000
ACA_V:F-CAD3
1000
A
1002
}
1002
{
1000
ACA_V:CMENU_VERS
1000
.nil.
1002
}
1002
{
1000
ACA_L:ABBI
1000
ABBIEGEKANT
1002
}
1002
{
1000
ACA_L:ACHS
1000
ACHSEN
1002
}
1002
{
1000
ACA_L:ATRI
1000
ATTRIBUTE
1002
}
1002
{
1000
ACA_L:AVER
1000
AVERDECKTE
1002
}
1002
{
1000
ACA_L:A-AL
1000
ABBIEGEKANT*,*ACHSEN*,*AVERDECKTE*,*AVERDECKTE*
1002
}
1002
{
1000
ACA_L:BEMA
1000
BEMASSUNG
1002
}
1002
{
1000
ACA_L:BEMT
1000
BEMTEXT
1002
}
1002
{
1000
ACA_L:B-AL
1000
BEM*
1002
}
1002
{
1000
ACA_L:HIKO
1000
HILFSKONSTR
1002
}
1002
{
1000
ACA_L:HILI
1000
HILFSLINIEN
1002
}
1002
{
1000
ACA_L:HIPU
1000
HILFSPUNKTE
1002
}
1002
{
1000
ACA_L:H-AL
1000
HILFS*
1002
}
1002
{
1000
ACA_L:KO03
1000
KOPF03
1002
}
1002
{
1000
ACA_L:KO05
1000
KOPF05
1002
}
1002
{
1000
ACA_L:KO07
1000
KOPF07
1002
}
1002
{
1000
ACA_L:KO10
1000
KOPF10
1002
}
1002
{
1000
ACA_L:K-AL
1000
KOPF*
1002
}
1002
{
1000
ACA_L:SCHR
1000
SCHRAFFUR
1002
}
1002
{
1000
ACA_L:TE02
1000
TEXT02
1002
}
1002
{
1000
ACA_L:TE03
1000
TEXT03
1002
}
1002
{
1000
ACA_L:TE05
1000
TEXT05
1002
}
1002
{
1000
ACA_L:TE07
1000
TEXT07
1002
}
1002
{
1000
ACA_L:TE10
1000
TEXT10
1002
}
1002
{
1000
ACA_L:T-AL
1000
TEXT*
1002
}
1002
{
1000
ACA_L:UM02
1000
UMRISS02
1002
}
1002
{
1000
ACA_L:UM03
1000
UMRISS03
1002
}
1002
{
1000
ACA_L:UM05
1000
UMRISS05
1002
}
1002
{
1000
ACA_L:UM07
1000
UMRISS07
1002
}
1002
{
1000
ACA_L:UM10
1000
UMRISS10
1002
}
1002
{
1000
ACA_L:U-AL
1000
UMRISS*
1002
}
1002
{
1000
ACA_L:2225
1000
S-FELD225
1002
}
1002
{
1000
ACA_L:2226
1000
S-FELD226
1002
}
1002
{
1000
ACA_L:2227
1000
S-FELD227
1002
}
1002
{
1000
ACA_L:2228
1000
S-FELD228
1002
}
1002
{
1000
ACA_L:2230
1000
S-*,*SCHRAFF*
1002
}
1002
{
1000
ACA_L:2239
1000
0
1002
}
1002
{
1000
ACA_L:2240
1000
*
1002
}
1002
{
1000
ACA_L:2241
1000
R-FELD241
1002
}
1002
{
1000
ACA_L:2242
1000
R-FELD242
1002
}
1002
{
1000
ACA_L:2243
1000
R-FELD243
1002
}
1002
{
1000
ACA_L:2244
1000
R-*
1002
}
1002
{
1000
ACA_L:GRA0
1000
SEIT0
1002
}
1002
{
1000
ACA_L:GRA1
1000
SEIT1
1002
}
1002
{
1000
ACA_L:GRA2
1000
SEIT2
1002
}
1002
{
1000
ACA_L:GRA3
1000
SEIT3
1002
}
1002
{
1000
ACA_L:GRA4
1000
SEIT4
1002
}
1002
{
1000
ACA_L:GRA5
1000
SEIT5
1002
}
1002
{
1000
ACA_L:GRA6
1000
SEIT6
1002
}
1002
{
1000
ACA_L:GRA7
1000
SEIT7
1002
}
1002
{
1000
ACA_L:GRA8
1000
SEIT8
1002
}
1002
{
1000
ACA_L:GRA9
1000
SEIT9
1002
}
1002
{
1000
ACA_L:GRB0
1000
GRUN0
1002
}
1002
{
1000
ACA_L:GRB1
1000
GRUN1
1002
}
1002
{
1000
ACA_L:GRB2
1000
GRUN2
1002
}
1002
{
1000
ACA_L:GRB3
1000
GRUN3
1002
}
1002
{
1000
ACA_L:GRB4
1000
GRUN4
1002
}
1002
{
1000
ACA_L:GRB5
1000
GRUN5
1002
}
1002
{
1000
ACA_L:GRB6
1000
GRUN6
1002
}
1002
{
1000
ACA_L:GRB7
1000
GRUN7
1002
}
1002
{
1000
ACA_L:GRB8
1000
GRUN8
1002
}
1002
{
1000
ACA_L:GRB9
1000
GRUN9
1002
}
1002
{
1000
ACA_L:GRC0
1000
AUFR0
1002
}
1002
{
1000
ACA_L:GRC1
1000
AUFR1
1002
}
1002
{
1000
ACA_L:GRC2
1000
AUFR2
1002
}
1002
{
1000
ACA_L:GRC3
1000
AUFR3
1002
}
1002
{
1000
ACA_L:GRC4
1000
AUFR4
1002
}
1002
{
1000
ACA_L:GRC5
1000
AUFR5
1002
}
1002
{
1000
ACA_L:GRC6
1000
AUFR6
1002
}
1002
{
1000
ACA_L:GRC7
1000
AUFR7
1002
}
1002
{
1000
ACA_L:GRC8
1000
AUFR8
1002
}
1002
{
1000
ACA_L:GRC9
1000
AUFR9
1002
}
1002
{
1000
ACA_L:GRD0
1000
TEIL0
1002
}
1002
{
1000
ACA_L:GRD1
1000
TEIL1
1002
}
1002
{
1000
ACA_L:GRD2
1000
TEIL2
1002
}
1002
{
1000
ACA_L:GRD3
1000
TEIL3
1002
}
1002
{
1000
ACA_L:GRD4
1000
TEIL4
1002
}
1002
{
1000
ACA_L:GRD5
1000
TEIL5
1002
}
1002
{
1000
ACA_L:GRD6
1000
TEIL6
1002
}
1002
{
1000
ACA_L:GRD7
1000
TEIL7
1002
}
1002
{
1000
ACA_L:GRD8
1000
TEIL8
1002
}
1002
{
1000
ACA_L:GRD9
1000
TEIL9
1002
}
  0
ENDBLK
  5
7
330
198CE059C9C9D24
100
AcDbEntity
  8
0
100
AcDbBlockEnd
  0
BLOCK
  5
A369DA2F8FD1
330
198CE059C9C9D28
100
AcDbEntity
  8
0
100
AcDbBlockBegin
  2
*D5
 70
     1
 10
0.0
 20
0.0
 30
0.0
  3
*D5
  1

  0
LINE
  5
A369DA2F8FD2
330
198CE059C9C9D28
100
AcDbEntity
  8
0
  6
ByBlock
 62
     0
100
AcDbLine
 10
146.6929534925985
 20
235.6204050010944
 30
0.0
 11
146.6929534925985
 21
253.1935282501536
 31
0.0
  0
LINE
  5
A369DA2F8FD3
330
198CE059C9C9D28
100
AcDbEntity
  8
0
  6
ByBlock
 62
     0
100
AcDbLine
 10
196.6929534925985
 20
233.6204050010945
 30
0.0
 11
196.6929534925985
 21
253.1935282501536
 31
0.0
  0
LINE
  5
A369DA2F8FD4
330
198CE059C9C9D28
100
AcDbEntity
  8
0
  6
ByBlock
 62
     0
100
AcDbLine
 10
150.1929534925985
 20
251.3935282501535
 30
0.0
 11
193.1929534925985
 21
251.3935282501535
 31
0.0
  0
SOLID
  5
A369DA2F8FD5
330
198CE059C9C9D28
100
AcDbEntity
  8
0
  6
ByBlock
 62
     0
100
AcDbTrace
 10
150.1929534925985
 20
251.9768615834869
 30
0.0
 11
150.1929534925985
 21
250.8101949168202
 31
0.0
 12
146.6929534925985
 22
251.3935282501535
 32
0.0
 13
146.6929534925985
 23
251.3935282501535
 33
0.0
  0
SOLID
  5
A369DA2F8FD6
330
198CE059C9C9D28
100
AcDbEntity
  8
0
  6
ByBlock
 62
     0
100
AcDbTrace
 10
193.1929534925985
 20
251.9768615834869
 30
0.0
 11
193.1929534925985
 21
250.8101949168202
 31
0.0
 12
196.6929534925985
 22
251.3935282501535
 32
0.0
 13
196.6929534925985
 23
251.3935282501535
 33
0.0
  0
TEXT
  5
A369DA2F8FD7
330
198CE059C9C9D28
100
AcDbEntity
  8
0
  6
ByBlock
 62
     0
100
AcDbText
 10
168.8596201592652
 20
253.1435282501536
 30
0.0
 40
3.5
  1
50
  7
ACA_ISO
 72
     1
 11
171.6929534925985
 21
254.8935282501536
 31
0.0
100
AcDbText
 73
     2
  0
POINT
  5
A369DA2F8FD8
330
198CE059C9C9D28
100
AcDbEntity
  8
DEFPOINTS
  6
ByBlock
 62
     0
100
AcDbPoint
 10
146.6929534925985
 20
235.5204050010944
 30
0.0
  0
POINT
  5
A369DA2F8FD9
330
198CE059C9C9D28
100
AcDbEntity
  8
DEFPOINTS
  6
ByBlock
 62
     0
100
AcDbPoint
 10
196.6929534925985
 20
233.5204050010944
 30
0.0
  0
POINT
  5
A369DA2F8FDA
330
198CE059C9C9D28
100
AcDbEntity
  8
DEFPOINTS
  6
ByBlock
 62
     0
100
AcDbPoint
 10
196.6929534925985
 20
251.3935282501535
 30
0.0
  0
ENDBLK
  5
A369DA2F8FDB
330
198CE059C9C9D28
100
AcDbEntity
  8
0
100
AcDbBlockEnd
  0
BLOCK
  5
A369DA2FA97C
330
198CE059C9C9D29
100
AcDbEntity
  8
0
100
AcDbBlockBegin
  2
*D6
 70
     1
 10
0.0
 20
0.0
 30
0.0
  3
*D6
  1

  0
LINE
  5
A369DA2FA97D
330
198CE059C9C9D29
100
AcDbEntity
  8
0
  6
ByBlock
 62
     0
100
AcDbLine
 10
327.2501651809125
 20
241.5204050010944
 30
0.0
 11
353.3694222419228
 21
241.5204050010944
 31
0.0
  0
LINE
  5
A369DA2FA97E
330
198CE059C9C9D29
100
AcDbEntity
  8
0
  6
ByBlock
 62
     0
100
AcDbLine
 10
327.2501651809125
 20
121.5204050010937
 30
0.0
 11
353.3694222419228
 21
121.5204050010937
 31
0.0
  0
LINE
  5
A369DA2FA97F
330
198CE059C9C9D29
100
AcDbEntity
  8
0
  6
ByBlock
 62
     0
100
AcDbLine
 10
351.5694222419228
 20
238.0204050010944
 30
0.0
 11
351.5694222419228
 21
125.0204050010937
 31
0.0
  0
SOLID
  5
A369DA2FA980
330
198CE059C9C9D29
100
AcDbEntity
  8
0
  6
ByBlock
 62
     0
100
AcDbTrace
 10
350.9860889085895
 20
238.0204050010944
 30
0.0
 11
352.1527555752562
 21
238.0204050010944
 31
0.0
 12
351.5694222419228
 22
241.5204050010944
 32
0.0
 13
351.5694222419228
 23
241.5204050010944
 33
0.0
  0
SOLID
  5
A369DA2FA981
330
198CE059C9C9D29
100
AcDbEntity
  8
0
  6
ByBlock
 62
     0
100
AcDbTrace
 10
350.9860889085895
 20
125.0204050010937
 30
0.0
 11
352.1527555752562
 21
125.0204050010937
 31
0.0
 12
351.5694222419228
 22
121.5204050010937
 32
0.0
 13
351.5694222419228
 23
121.5204050010937
 33
0.0
  0
TEXT
  5
A369DA2FA982
330
198CE059C9C9D29
100
AcDbEntity
  8
0
  6
ByBlock
 62
     0
100
AcDbText
 10
349.8194222419229
 20
177.3537383344274
 30
0.0
 40
3.5
  1
120
 50
90.0
  7
ACA_ISO
 72
     1
 11
348.0694222419228
 21
181.520405001094
 31
0.0
100
AcDbText
 73
     2
  0
POINT
  5
A369DA2FA983
330
198CE059C9C9D29
100
AcDbEntity
  8
DEFPOINTS
  6
ByBlock
 62
     0
100
AcDbPoint
 10
327.1501651809125
 20
241.5204050010944
 30
0.0
  0
POINT
  5
A369DA2FA984
330
198CE059C9C9D29
100
AcDbEntity
  8
DEFPOINTS
  6
ByBlock
 62
     0
100
AcDbPoint
 10
327.1501651809125
 20
121.5204050010937
 30
0.0
  0
POINT
  5
A369DA2FA985
330
198CE059C9C9D29
100
AcDbEntity
  8
DEFPOINTS
  6
ByBlock
 62
     0
100
AcDbPoint
 10
351.5694222419228
 20
121.5204050010937
 30
0.0
  0
ENDBLK
  5
A369DA2FA986
330
198CE059C9C9D29
100
AcDbEntity
  8
0
100
AcDbBlockEnd
  0
BLOCK
  5
A369DA2FA989
330
198CE059C9C9D2A
100
AcDbEntity
  8
0
100
AcDbBlockBegin
  2
*D7
 70
     1
 10
0.0
 20
0.0
 30
0.0
  3
*D7
  1

  0
LINE
  5
A369DA2FA98A
330
198CE059C9C9D2A
100
AcDbEntity
  8
0
  6
ByBlock
 62
     0
100
AcDbLine
 10
122.8005614035424
 20
238.091833572523
 30
0.0
 11
122.8005614035424
 21
253.1935282501536
 31
0.0
  0
LINE
  5
A369DA2FA98B
330
198CE059C9C9D2A
100
AcDbEntity
  8
0
  6
ByBlock
 62
     0
100
AcDbLine
 10
172.8005614035423
 20
235.5204050010944
 30
0.0
 11
172.8005614035423
 21
253.1935282501536
 31
0.0
  0
LINE
  5
A369DA2FA98C
330
198CE059C9C9D2A
100
AcDbEntity
  8
0
  6
ByBlock
 62
     0
100
AcDbLine
 10
126.3005614035424
 20
251.3935282501535
 30
0.0
 11
169.3005614035423
 21
251.3935282501535
 31
0.0
  0
SOLID
  5
A369DA2FA98D
330
198CE059C9C9D2A
100
AcDbEntity
  8
0
  6
ByBlock
 62
     0
100
AcDbTrace
 10
126.3005614035424
 20
251.9768615834869
 30
0.0
 11
126.3005614035424
 21
250.8101949168202
 31
0.0
 12
122.8005614035424
 22
251.3935282501535
 32
0.0
 13
122.8005614035424
 23
251.3935282501535
 33
0.0
  0
SOLID
  5
A369DA2FA98E
330
198CE059C9C9D2A
100
AcDbEntity
  8
0
  6
ByBlock
 62
     0
100
AcDbTrace
 10
169.3005614035423
 20
251.9768615834869
 30
0.0
 11
169.3005614035423
 21
250.8101949168202
 31
0.0
 12
172.8005614035423
 22
251.3935282501535
 32
0.0
 13
172.8005614035423
 23
251.3935282501535
 33
0.0
  0
TEXT
  5
A369DA2FA98F
330
198CE059C9C9D2A
100
AcDbEntity
  8
0
  6
ByBlock
 62
     0
100
AcDbText
 10
146.6338947368757
 20
253.1435282501536
 30
0.0
 40
3.5
  1
D
  7
ACA_ISO
 72
     1
 11
147.8005614035424
 21
254.8935282501536
 31
0.0
100
AcDbText
 73
     2
  0
POINT
  5
A369DA2FA990
330
198CE059C9C9D2A
100
AcDbEntity
  8
DEFPOINTS
  6
ByBlock
 62
     0
100
AcDbPoint
 10
122.8005614035424
 20
237.991833572523
 30
0.0
  0
POINT
  5
A369DA2FA991
330
198CE059C9C9D2A
100
AcDbEntity
  8
DEFPOINTS
  6
ByBlock
 62
     0
100
AcDbPoint
 10
172.8005614035423
 20
235.4204050010944
 30
0.0
  0
POINT
  5
A369DA2FA992
330
198CE059C9C9D2A
100
AcDbEntity
  8
DEFPOINTS
  6
ByBlock
 62
     0
100
AcDbPoint
 10
172.8005614035423
 20
251.3935282501535
 30
0.0
  0
ENDBLK
  5
A369DA2FA993
330
198CE059C9C9D2A
100
AcDbEntity
  8
0
100
AcDbBlockEnd
  0
BLOCK
  5
A369DA2FBEB4
330
198CE059C9C9D2C
100
AcDbEntity
  8
0
100
AcDbBlockBegin
  2
*D9
 70
     1
 10
0.0
 20
0.0
 30
0.0
  3
*D9
  1

  0
LINE
  5
A369DA2FBEB5
330
198CE059C9C9D2C
100
AcDbEntity
  8
0
  6
ByBlock
 62
     0
100
AcDbLine
 10
95.79900828454873
 20
158.9204050010944
 30
0.0
 11
95.79900828454873
 21
107.7474501598996
 31
0.0
  0
LINE
  5
A369DA2FBEB6
330
198CE059C9C9D2C
100
AcDbEntity
  8
0
  6
ByBlock
 62
     0
100
AcDbLine
 10
107.7990082845487
 20
158.9204050010944
 30
0.0
 11
107.7990082845487
 21
107.7474501598996
 31
0.0
  0
LINE
  5
A369DA2FBEB7
330
198CE059C9C9D2C
100
AcDbEntity
  8
0
  6
ByBlock
 62
     0
100
AcDbLine
 10
99.29900828454872
 20
109.5474501598996
 30
0.0
 11
104.2990082845487
 21
109.5474501598996
 31
0.0
  0
SOLID
  5
A369DA2FBEB8
330
198CE059C9C9D2C
100
AcDbEntity
  8
0
  6
ByBlock
 62
     0
100
AcDbTrace
 10
99.29900828454872
 20
110.1307834932329
 30
0.0
 11
99.29900828454872
 21
108.9641168265663
 31
0.0
 12
95.79900828454873
 22
109.5474501598996
 32
0.0
 13
95.79900828454873
 23
109.5474501598996
 33
0.0
  0
SOLID
  5
A369DA2FBEB9
330
198CE059C9C9D2C
100
AcDbEntity
  8
0
  6
ByBlock
 62
     0
100
AcDbTrace
 10
104.2990082845487
 20
110.1307834932329
 30
0.0
 11
104.2990082845487
 21
108.9641168265663
 31
0.0
 12
107.7990082845487
 22
109.5474501598996
 32
0.0
 13
107.7990082845487
 23
109.5474501598996
 33
0.0
  0
TEXT
  5
A369DA2FBEBA
330
198CE059C9C9D2C
100
AcDbEntity
  8
0
  6
ByBlock
 62
     0
100
AcDbText
 10
99.2765993312849
 20
111.3084691451449
 30
0.0
 40
3.5
  1
12
  7
ACA_ISO
 72
     1
 11
101.7765993312849
 21
113.0584691451449
 31
0.0
100
AcDbText
 73
     2
  0
POINT
  5
A369DA2FBEBB
330
198CE059C9C9D2C
100
AcDbEntity
  8
DEFPOINTS
  6
ByBlock
 62
     0
100
AcDbPoint
 10
95.79900828454873
 20
159.0204050010944
 30
0.0
  0
POINT
  5
A369DA2FBEBC
330
198CE059C9C9D2C
100
AcDbEntity
  8
DEFPOINTS
  6
ByBlock
 62
     0
100
AcDbPoint
 10
107.7990082845487
 20
159.0204050010944
 30
0.0
  0
POINT
  5
A369DA2FBEBD
330
198CE059C9C9D2C
100
AcDbEntity
  8
DEFPOINTS
  6
ByBlock
 62
     0
100
AcDbPoint
 10
107.7990082845487
 20
109.5474501598996
 30
0.0
  0
ENDBLK
  5
A369DA2FBEBE
330
198CE059C9C9D2C
100
AcDbEntity
  8
0
100
AcDbBlockEnd
  0
BLOCK
  5
A369DA2FC08D
330
198CE059C9C9D2D
100
AcDbEntity
  8
0
100
AcDbBlockBegin
  2
*D10
 70
     1
 10
0.0
 20
0.0
 30
0.0
  3
*D10
  1

  0
LINE
  5
A369DA2FC08E
330
198CE059C9C9D2D
100
AcDbEntity
  8
0
  6
ByBlock
 62
     0
100
AcDbLine
 10
107.7990082845487
 20
158.9204050010944
 30
0.0
 11
107.7990082845487
 21
107.7474501598996
 31
0.0
  0
LINE
  5
A369DA2FC08F
330
198CE059C9C9D2D
100
AcDbEntity
  8
0
  6
ByBlock
 62
     0
100
AcDbLine
 10
119.7990082845487
 20
158.9204050010944
 30
0.0
 11
119.7990082845487
 21
107.7474501598996
 31
0.0
  0
LINE
  5
A369DA2FC090
330
198CE059C9C9D2D
100
AcDbEntity
  8
0
  6
ByBlock
 62
     0
100
AcDbLine
 10
111.2990082845487
 20
109.5474501598996
 30
0.0
 11
116.2990082845487
 21
109.5474501598996
 31
0.0
  0
SOLID
  5
A369DA2FC091
330
198CE059C9C9D2D
100
AcDbEntity
  8
0
  6
ByBlock
 62
     0
100
AcDbTrace
 10
111.2990082845487
 20
110.1307834932329
 30
0.0
 11
111.2990082845487
 21
108.9641168265663
 31
0.0
 12
107.7990082845487
 22
109.5474501598996
 32
0.0
 13
107.7990082845487
 23
109.5474501598996
 33
0.0
  0
SOLID
  5
A369DA2FC092
330
198CE059C9C9D2D
100
AcDbEntity
  8
0
  6
ByBlock
 62
     0
100
AcDbTrace
 10
116.2990082845487
 20
110.1307834932329
 30
0.0
 11
116.2990082845487
 21
108.9641168265663
 31
0.0
 12
119.7990082845487
 22
109.5474501598996
 32
0.0
 13
119.7990082845487
 23
109.5474501598996
 33
0.0
  0
TEXT
  5
A369DA2FC093
330
198CE059C9C9D2D
100
AcDbEntity
  8
0
  6
ByBlock
 62
     0
100
AcDbText
 10
111.1818073548471
 20
111.3084691451449
 30
0.0
 40
3.5
  1
12
  7
ACA_ISO
 72
     1
 11
113.6818073548471
 21
113.0584691451449
 31
0.0
100
AcDbText
 73
     2
  0
POINT
  5
A369DA2FC094
330
198CE059C9C9D2D
100
AcDbEntity
  8
DEFPOINTS
  6
ByBlock
 62
     0
100
AcDbPoint
 10
107.7990082845487
 20
159.0204050010944
 30
0.0
  0
POINT
  5
A369DA2FC095
330
198CE059C9C9D2D
100
AcDbEntity
  8
DEFPOINTS
  6
ByBlock
 62
     0
100
AcDbPoint
 10
119.7990082845487
 20
159.0204050010944
 30
0.0
  0
POINT
  5
A369DA2FC096
330
198CE059C9C9D2D
100
AcDbEntity
  8
DEFPOINTS
  6
ByBlock
 62
     0
100
AcDbPoint
 10
119.7990082845487
 20
109.5474501598996
 30
0.0
  0
ENDBLK
  5
A369DA2FC097
330
198CE059C9C9D2D
100
AcDbEntity
  8
0
100
AcDbBlockEnd
  0
BLOCK
  5
A369DA2FC418
330
198CE059C9C9D2E
100
AcDbEntity
  8
0
100
AcDbBlockBegin
  2
*D11
 70
     1
 10
0.0
 20
0.0
 30
0.0
  3
*D11
  1

  0
LINE
  5
A369DA2FC419
330
198CE059C9C9D2E
100
AcDbEntity
  8
0
  6
ByBlock
 62
     0
100
AcDbLine
 10
119.7990082845487
 20
204.1204050010944
 30
0.0
 11
119.7990082845487
 21
253.1935282501536
 31
0.0
  0
LINE
  5
A369DA2FC41A
330
198CE059C9C9D2E
100
AcDbEntity
  8
0
  6
ByBlock
 62
     0
100
AcDbLine
 10
122.8005614035424
 20
238.191833572523
 30
0.0
 11
122.8005614035424
 21
253.1935282501536
 31
0.0
  0
LINE
  5
A369DA2FC41B
330
198CE059C9C9D2E
100
AcDbEntity
  8
0
  6
ByBlock
 62
     0
100
AcDbLine
 10
116.2990082845487
 20
251.3935282501535
 30
0.0
 11
112.7990082845487
 21
251.3935282501535
 31
0.0
  0
LINE
  5
A369DA2FC41C
330
198CE059C9C9D2E
100
AcDbEntity
  8
0
  6
ByBlock
 62
     0
100
AcDbLine
 10
126.3005614035424
 20
251.3935282501535
 30
0.0
 11
129.8005614035424
 21
251.3935282501535
 31
0.0
  0
SOLID
  5
A369DA2FC41D
330
198CE059C9C9D2E
100
AcDbEntity
  8
0
  6
ByBlock
 62
     0
100
AcDbTrace
 10
116.2990082845487
 20
251.9768615834869
 30
0.0
 11
116.2990082845487
 21
250.8101949168202
 31
0.0
 12
119.7990082845487
 22
251.3935282501535
 32
0.0
 13
119.7990082845487
 23
251.3935282501535
 33
0.0
  0
SOLID
  5
A369DA2FC41E
330
198CE059C9C9D2E
100
AcDbEntity
  8
0
  6
ByBlock
 62
     0
100
AcDbTrace
 10
126.3005614035424
 20
251.9768615834869
 30
0.0
 11
126.3005614035424
 21
250.8101949168202
 31
0.0
 12
122.8005614035424
 22
251.3935282501535
 32
0.0
 13
122.8005614035424
 23
251.3935282501535
 33
0.0
  0
LINE
  5
A369DA2FC41F
330
198CE059C9C9D2E
100
AcDbEntity
  8
0
  6
ByBlock
 62
     0
100
AcDbLine
 10
119.7990082845487
 20
251.3935282501535
 30
0.0
 11
122.8005614035424
 21
251.3935282501535
 31
0.0
  0
TEXT
  5
A369DA2FC420
330
198CE059C9C9D2E
100
AcDbEntity
  8
0
  6
ByBlock
 62
     0
100
AcDbText
 10
112.7918039691349
 20
253.0992514289368
 30
0.0
 40
3.5
  1
3
  7
ACA_ISO
 72
     1
 11
113.9584706358015
 21
254.8492514289368
 31
0.0
100
AcDbText
 73
     2
  0
POINT
  5
A369DA2FC421
330
198CE059C9C9D2E
100
AcDbEntity
  8
DEFPOINTS
  6
ByBlock
 62
     0
100
AcDbPoint
 10
119.7990082845487
 20
204.0204050010944
 30
0.0
  0
POINT
  5
A369DA2FC422
330
198CE059C9C9D2E
100
AcDbEntity
  8
DEFPOINTS
  6
ByBlock
 62
     0
100
AcDbPoint
 10
122.8005614035424
 20
238.091833572523
 30
0.0
  0
POINT
  5
A369DA2FC423
330
198CE059C9C9D2E
100
AcDbEntity
  8
DEFPOINTS
  6
ByBlock
 62
     0
100
AcDbPoint
 10
122.8005614035424
 20
251.3935282501535
 30
0.0
  0
ENDBLK
  5
A369DA2FC424
330
198CE059C9C9D2E
100
AcDbEntity
  8
0
100
AcDbBlockEnd
  0
BLOCK
  5
A369DA2FCA14
330
198CE059C9C9D30
100
AcDbEntity
  8
0
100
AcDbBlockBegin
  2
*D13
 70
     1
 10
0.0
 20
0.0
 30
0.0
  3
*D13
  1

  0
LINE
  5
A369DA2FCA15
330
198CE059C9C9D30
100
AcDbEntity
  8
0
  6
ByBlock
 62
     0
100
AcDbLine
 10
172.8005614035424
 20
128.3704050010944
 30
0.0
 11
172.8005614035424
 21
107.7474501598996
 31
0.0
  0
LINE
  5
A369DA2FCA16
330
198CE059C9C9D30
100
AcDbEntity
  8
0
  6
ByBlock
 62
     0
100
AcDbLine
 10
207.8005614035424
 20
148.9204050010943
 30
0.0
 11
207.8005614035424
 21
107.7474501598996
 31
0.0
  0
LINE
  5
A369DA2FCA17
330
198CE059C9C9D30
100
AcDbEntity
  8
0
  6
ByBlock
 62
     0
100
AcDbLine
 10
176.3005614035424
 20
109.5474501598996
 30
0.0
 11
204.3005614035424
 21
109.5474501598996
 31
0.0
  0
SOLID
  5
A369DA2FCA18
330
198CE059C9C9D30
100
AcDbEntity
  8
0
  6
ByBlock
 62
     0
100
AcDbTrace
 10
176.3005614035424
 20
110.1307834932329
 30
0.0
 11
176.3005614035424
 21
108.9641168265663
 31
0.0
 12
172.8005614035424
 22
109.5474501598996
 32
0.0
 13
172.8005614035424
 23
109.5474501598996
 33
0.0
  0
SOLID
  5
A369DA2FCA19
330
198CE059C9C9D30
100
AcDbEntity
  8
0
  6
ByBlock
 62
     0
100
AcDbTrace
 10
204.3005614035424
 20
110.1307834932329
 30
0.0
 11
204.3005614035424
 21
108.9641168265663
 31
0.0
 12
207.8005614035424
 22
109.5474501598996
 32
0.0
 13
207.8005614035424
 23
109.5474501598996
 33
0.0
  0
TEXT
  5
A369DA2FCA1A
330
198CE059C9C9D30
100
AcDbEntity
  8
0
  6
ByBlock
 62
     0
100
AcDbText
 10
187.4672280702091
 20
111.2974501598996
 30
0.0
 40
3.5
  1
35
  7
ACA_ISO
 72
     1
 11
190.3005614035424
 21
113.0474501598996
 31
0.0
100
AcDbText
 73
     2
  0
POINT
  5
A369DA2FCA1B
330
198CE059C9C9D30
100
AcDbEntity
  8
DEFPOINTS
  6
ByBlock
 62
     0
100
AcDbPoint
 10
172.8005614035424
 20
128.4704050010944
 30
0.0
  0
POINT
  5
A369DA2FCA1C
330
198CE059C9C9D30
100
AcDbEntity
  8
DEFPOINTS
  6
ByBlock
 62
     0
100
AcDbPoint
 10
207.8005614035424
 20
149.0204050010943
 30
0.0
  0
POINT
  5
A369DA2FCA1D
330
198CE059C9C9D30
100
AcDbEntity
  8
DEFPOINTS
  6
ByBlock
 62
     0
100
AcDbPoint
 10
207.8005614035424
 20
109.5474501598996
 30
0.0
  0
ENDBLK
  5
A369DA2FCA1E
330
198CE059C9C9D30
100
AcDbEntity
  8
0
100
AcDbBlockEnd
  0
BLOCK
  5
A369DA2FCB96
330
198CE059C9C9D31
100
AcDbEntity
  8
0
100
AcDbBlockBegin
  2
*D14
 70
     1
 10
0.0
 20
0.0
 30
0.0
  3
*D14
  1

  0
LINE
  5
A369DA2FCB97
330
198CE059C9C9D31
100
AcDbEntity
  8
0
  6
ByBlock
 62
     0
100
AcDbLine
 10
172.8005614035424
 20
127.1704050010944
 30
0.0
 11
172.8005614035424
 21
98.19305026509875
 31
0.0
  0
LINE
  5
A369DA2FCB98
330
198CE059C9C9D31
100
AcDbEntity
  8
0
  6
ByBlock
 62
     0
100
AcDbLine
 10
214.8005614035424
 20
137.4204050010944
 30
0.0
 11
214.8005614035424
 21
98.19305026509875
 31
0.0
  0
LINE
  5
A369DA2FCB99
330
198CE059C9C9D31
100
AcDbEntity
  8
0
  6
ByBlock
 62
     0
100
AcDbLine
 10
176.3005614035424
 20
99.99305026509874
 30
0.0
 11
211.3005614035424
 21
99.99305026509874
 31
0.0
  0
SOLID
  5
A369DA2FCB9A
330
198CE059C9C9D31
100
AcDbEntity
  8
0
  6
ByBlock
 62
     0
100
AcDbTrace
 10
176.3005614035424
 20
100.5763835984321
 30
0.0
 11
176.3005614035424
 21
99.40971693176543
 31
0.0
 12
172.8005614035424
 22
99.99305026509874
 32
0.0
 13
172.8005614035424
 23
99.99305026509874
 33
0.0
  0
SOLID
  5
A369DA2FCB9B
330
198CE059C9C9D31
100
AcDbEntity
  8
0
  6
ByBlock
 62
     0
100
AcDbTrace
 10
211.3005614035424
 20
100.5763835984321
 30
0.0
 11
211.3005614035424
 21
99.40971693176543
 31
0.0
 12
214.8005614035424
 22
99.99305026509874
 32
0.0
 13
214.8005614035424
 23
99.99305026509874
 33
0.0
  0
TEXT
  5
A369DA2FCB9C
330
198CE059C9C9D31
100
AcDbEntity
  8
0
  6
ByBlock
 62
     0
100
AcDbText
 10
190.9672280702091
 20
101.7430502650987
 30
0.0
 40
3.5
  1
42
  7
ACA_ISO
 72
     1
 11
193.8005614035424
 21
103.4930502650987
 31
0.0
100
AcDbText
 73
     2
  0
POINT
  5
A369DA2FCB9D
330
198CE059C9C9D31
100
AcDbEntity
  8
DEFPOINTS
  6
ByBlock
 62
     0
100
AcDbPoint
 10
172.8005614035424
 20
127.2704050010944
 30
0.0
  0
POINT
  5
A369DA2FCB9E
330
198CE059C9C9D31
100
AcDbEntity
  8
DEFPOINTS
  6
ByBlock
 62
     0
100
AcDbPoint
 10
214.8005614035424
 20
137.5204050010944
 30
0.0
  0
POINT
  5
A369DA2FCB9F
330
198CE059C9C9D31
100
AcDbEntity
  8
DEFPOINTS
  6
ByBlock
 62
     0
100
AcDbPoint
 10
214.8005614035424
 20
99.99305026509874
 30
0.0
  0
ENDBLK
  5
A369DA2FCBA0
330
198CE059C9C9D31
100
AcDbEntity
  8
0
100
AcDbBlockEnd
  0
BLOCK
  5
A369DA2FD001
330
198CE059C9C9D32
100
AcDbEntity
  8
0
100
AcDbBlockBegin
  2
*D15
 70
     1
 10
0.0
 20
0.0
 30
0.0
  3
*D15
  1

  0
LINE
  5
A369DA2FD002
330
198CE059C9C9D32
100
AcDbEntity
  8
0
  6
ByBlock
 62
     0
100
AcDbLine
 10
185.0005614035423
 20
152.5204050010944
 30
0.0
 11
197.4592016540208
 21
152.5204050010944
 31
0.0
  0
LINE
  5
A369DA2FD003
330
198CE059C9C9D32
100
AcDbEntity
  8
0
  6
ByBlock
 62
     0
100
AcDbLine
 10
202.7005614035424
 20
154.0204050010943
 30
0.0
 11
193.8592016540208
 21
154.0204050010943
 31
0.0
  0
LINE
  5
A369DA2FD004
330
198CE059C9C9D32
100
AcDbEntity
  8
0
  6
ByBlock
 62
     0
100
AcDbLine
 10
195.6592016540208
 20
149.0204050010944
 30
0.0
 11
195.6592016540208
 21
145.5204050010944
 31
0.0
  0
LINE
  5
A369DA2FD005
330
198CE059C9C9D32
100
AcDbEntity
  8
0
  6
ByBlock
 62
     0
100
AcDbLine
 10
195.6592016540208
 20
157.5204050010943
 30
0.0
 11
195.6592016540208
 21
161.0204050010943
 31
0.0
  0
SOLID
  5
A369DA2FD006
330
198CE059C9C9D32
100
AcDbEntity
  8
0
  6
ByBlock
 62
     0
100
AcDbTrace
 10
195.0758683206874
 20
149.0204050010944
 30
0.0
 11
196.2425349873541
 21
149.0204050010944
 31
0.0
 12
195.6592016540208
 22
152.5204050010944
 32
0.0
 13
195.6592016540208
 23
152.5204050010944
 33
0.0
  0
SOLID
  5
A369DA2FD007
330
198CE059C9C9D32
100
AcDbEntity
  8
0
  6
ByBlock
 62
     0
100
AcDbTrace
 10
195.0758683206874
 20
157.5204050010943
 30
0.0
 11
196.2425349873541
 21
157.5204050010943
 31
0.0
 12
195.6592016540208
 22
154.0204050010943
 32
0.0
 13
195.6592016540208
 23
154.0204050010943
 33
0.0
  0
LINE
  5
A369DA2FD008
330
198CE059C9C9D32
100
AcDbEntity
  8
0
  6
ByBlock
 62
     0
100
AcDbLine
 10
195.6592016540208
 20
152.5204050010944
 30
0.0
 11
195.6592016540208
 21
154.0204050010943
 31
0.0
  0
TEXT
  5
A369DA2FD009
330
198CE059C9C9D32
100
AcDbEntity
  8
0
  6
ByBlock
 62
     0
100
AcDbText
 10
193.7320742222271
 20
157.2934040288329
 30
0.0
 40
3.5
  1
1,5
 50
90.0
  7
ACA_ISO
 72
     1
 11
191.9820742222271
 21
160.6267373621663
 31
0.0
100
AcDbText
 73
     2
  0
POINT
  5
A369DA2FD00A
330
198CE059C9C9D32
100
AcDbEntity
  8
DEFPOINTS
  6
ByBlock
 62
     0
100
AcDbPoint
 10
184.9005614035424
 20
152.5204050010944
 30
0.0
  0
POINT
  5
A369DA2FD00B
330
198CE059C9C9D32
100
AcDbEntity
  8
DEFPOINTS
  6
ByBlock
 62
     0
100
AcDbPoint
 10
202.8005614035424
 20
154.0204050010943
 30
0.0
  0
POINT
  5
A369DA2FD00C
330
198CE059C9C9D32
100
AcDbEntity
  8
DEFPOINTS
  6
ByBlock
 62
     0
100
AcDbPoint
 10
195.6592016540208
 20
154.0204050010943
 30
0.0
  0
ENDBLK
  5
A369DA2FD00D
330
198CE059C9C9D32
100
AcDbEntity
  8
0
100
AcDbBlockEnd
  0
BLOCK
  5
A369DA2FD300
330
198CE059C9C9D33
100
AcDbEntity
  8
0
100
AcDbBlockBegin
  2
*D16
 70
     1
 10
0.0
 20
0.0
 30
0.0
  3
*D16
  1

  0
LINE
  5
A369DA2FD301
330
198CE059C9C9D33
100
AcDbEntity
  8
0
  6
ByBlock
 62
     0
100
AcDbLine
 10
160.6005614035424
 20
152.5204050010944
 30
0.0
 11
151.204518870365
 21
152.5204050010944
 31
0.0
  0
LINE
  5
A369DA2FD302
330
198CE059C9C9D33
100
AcDbEntity
  8
0
  6
ByBlock
 62
     0
100
AcDbLine
 10
137.9005614035424
 20
142.5204050010944
 30
0.0
 11
154.804518870365
 21
142.5204050010944
 31
0.0
  0
LINE
  5
A369DA2FD303
330
198CE059C9C9D33
100
AcDbEntity
  8
0
  6
ByBlock
 62
     0
100
AcDbLine
 10
153.004518870365
 20
156.0204050010944
 30
0.0
 11
153.004518870365
 21
159.5204050010944
 31
0.0
  0
LINE
  5
A369DA2FD304
330
198CE059C9C9D33
100
AcDbEntity
  8
0
  6
ByBlock
 62
     0
100
AcDbLine
 10
153.004518870365
 20
139.0204050010944
 30
0.0
 11
153.004518870365
 21
135.5204050010944
 31
0.0
  0
SOLID
  5
A369DA2FD305
330
198CE059C9C9D33
100
AcDbEntity
  8
0
  6
ByBlock
 62
     0
100
AcDbTrace
 10
152.4211855370317
 20
156.0204050010944
 30
0.0
 11
153.5878522036984
 21
156.0204050010944
 31
0.0
 12
153.004518870365
 22
152.5204050010944
 32
0.0
 13
153.004518870365
 23
152.5204050010944
 33
0.0
  0
SOLID
  5
A369DA2FD306
330
198CE059C9C9D33
100
AcDbEntity
  8
0
  6
ByBlock
 62
     0
100
AcDbTrace
 10
152.4211855370317
 20
139.0204050010944
 30
0.0
 11
153.5878522036984
 21
139.0204050010944
 31
0.0
 12
153.004518870365
 22
142.5204050010944
 32
0.0
 13
153.004518870365
 23
142.5204050010944
 33
0.0
  0
LINE
  5
A369DA2FD307
330
198CE059C9C9D33
100
AcDbEntity
  8
0
  6
ByBlock
 62
     0
100
AcDbLine
 10
153.004518870365
 20
152.5204050010944
 30
0.0
 11
153.004518870365
 21
142.5204050010944
 31
0.0
  0
TEXT
  5
A369DA2FD308
330
198CE059C9C9D33
100
AcDbEntity
  8
0
  6
ByBlock
 62
     0
100
AcDbText
 10
151.254518870365
 20
145.0204050010944
 30
0.0
 40
3.5
  1
10
 50
90.0
  7
ACA_ISO
 72
     1
 11
149.504518870365
 21
147.5204050010944
 31
0.0
100
AcDbText
 73
     2
  0
POINT
  5
A369DA2FD309
330
198CE059C9C9D33
100
AcDbEntity
  8
DEFPOINTS
  6
ByBlock
 62
     0
100
AcDbPoint
 10
160.7005614035424
 20
152.5204050010944
 30
0.0
  0
POINT
  5
A369DA2FD30A
330
198CE059C9C9D33
100
AcDbEntity
  8
DEFPOINTS
  6
ByBlock
 62
     0
100
AcDbPoint
 10
137.8005614035424
 20
142.5204050010944
 30
0.0
  0
POINT
  5
A369DA2FD30B
330
198CE059C9C9D33
100
AcDbEntity
  8
DEFPOINTS
  6
ByBlock
 62
     0
100
AcDbPoint
 10
153.004518870365
 20
142.5204050010944
 30
0.0
  0
ENDBLK
  5
A369DA2FD30C
330
198CE059C9C9D33
100
AcDbEntity
  8
0
100
AcDbBlockEnd
  0
BLOCK
  5
A369DA2FD572
330
198CE059C9C9D34
100
AcDbEntity
  8
0
100
AcDbBlockBegin
  2
*D17
 70
     1
 10
0.0
 20
0.0
 30
0.0
  3
*D17
  1

  0
LINE
  5
A369DA2FD573
330
198CE059C9C9D34
100
AcDbEntity
  8
0
  6
ByBlock
 62
     0
100
AcDbLine
 10
182.5005614035424
 20
210.5204050010944
 30
0.0
 11
197.8269146831282
 21
210.5204050010944
 31
0.0
  0
LINE
  5
A369DA2FD574
330
198CE059C9C9D34
100
AcDbEntity
  8
0
  6
ByBlock
 62
     0
100
AcDbLine
 10
202.7005614035424
 20
209.0204050010945
 30
0.0
 11
194.2269146831282
 21
209.0204050010945
 31
0.0
  0
LINE
  5
A369DA2FD575
330
198CE059C9C9D34
100
AcDbEntity
  8
0
  6
ByBlock
 62
     0
100
AcDbLine
 10
196.0269146831282
 20
214.0204050010944
 30
0.0
 11
196.0269146831282
 21
217.5204050010944
 31
0.0
  0
LINE
  5
A369DA2FD576
330
198CE059C9C9D34
100
AcDbEntity
  8
0
  6
ByBlock
 62
     0
100
AcDbLine
 10
196.0269146831282
 20
205.5204050010944
 30
0.0
 11
196.0269146831282
 21
202.0204050010944
 31
0.0
  0
SOLID
  5
A369DA2FD577
330
198CE059C9C9D34
100
AcDbEntity
  8
0
  6
ByBlock
 62
     0
100
AcDbTrace
 10
195.4435813497948
 20
214.0204050010944
 30
0.0
 11
196.6102480164615
 21
214.0204050010944
 31
0.0
 12
196.0269146831282
 22
210.5204050010944
 32
0.0
 13
196.0269146831282
 23
210.5204050010944
 33
0.0
  0
SOLID
  5
A369DA2FD578
330
198CE059C9C9D34
100
AcDbEntity
  8
0
  6
ByBlock
 62
     0
100
AcDbTrace
 10
195.4435813497948
 20
205.5204050010944
 30
0.0
 11
196.6102480164615
 21
205.5204050010944
 31
0.0
 12
196.0269146831282
 22
209.0204050010945
 32
0.0
 13
196.0269146831282
 23
209.0204050010945
 33
0.0
  0
LINE
  5
A369DA2FD579
330
198CE059C9C9D34
100
AcDbEntity
  8
0
  6
ByBlock
 62
     0
100
AcDbLine
 10
196.0269146831282
 20
210.5204050010944
 30
0.0
 11
196.0269146831282
 21
209.0204050010945
 31
0.0
  0
TEXT
  5
A369DA2FD57A
330
198CE059C9C9D34
100
AcDbEntity
  8
0
  6
ByBlock
 62
     0
100
AcDbText
 10
194.099786298241
 20
198.4508154196255
 30
0.0
 40
3.5
  1
1,5
 50
90.0
  7
ACA_ISO
 72
     1
 11
192.349786298241
 21
201.7841487529589
 31
0.0
100
AcDbText
 73
     2
  0
POINT
  5
A369DA2FD57B
330
198CE059C9C9D34
100
AcDbEntity
  8
DEFPOINTS
  6
ByBlock
 62
     0
100
AcDbPoint
 10
182.4005614035424
 20
210.5204050010944
 30
0.0
  0
POINT
  5
A369DA2FD57C
330
198CE059C9C9D34
100
AcDbEntity
  8
DEFPOINTS
  6
ByBlock
 62
     0
100
AcDbPoint
 10
202.8005614035424
 20
209.0204050010945
 30
0.0
  0
POINT
  5
A369DA2FD57D
330
198CE059C9C9D34
100
AcDbEntity
  8
DEFPOINTS
  6
ByBlock
 62
     0
100
AcDbPoint
 10
196.0269146831282
 20
209.0204050010945
 30
0.0
  0
ENDBLK
  5
A369DA2FD57E
330
198CE059C9C9D34
100
AcDbEntity
  8
0
100
AcDbBlockEnd
  0
BLOCK
  5
A369DA2FD857
330
198CE059C9C9D35
100
AcDbEntity
  8
0
100
AcDbBlockBegin
  2
*D18
 70
     1
 10
0.0
 20
0.0
 30
0.0
  3
*D18
  1

  0
LINE
  5
A369DA2FD858
330
198CE059C9C9D35
100
AcDbEntity
  8
0
  6
ByBlock
 62
     0
100
AcDbLine
 10
163.1005614035424
 20
210.5204050010944
 30
0.0
 11
151.5722309463789
 21
210.5204050010944
 31
0.0
  0
LINE
  5
A369DA2FD859
330
198CE059C9C9D35
100
AcDbEntity
  8
0
  6
ByBlock
 62
     0
100
AcDbLine
 10
140.9005614035424
 20
220.5204050010944
 30
0.0
 11
155.1722309463789
 21
220.5204050010944
 31
0.0
  0
LINE
  5
A369DA2FD85A
330
198CE059C9C9D35
100
AcDbEntity
  8
0
  6
ByBlock
 62
     0
100
AcDbLine
 10
153.3722309463789
 20
207.0204050010944
 30
0.0
 11
153.3722309463789
 21
203.5204050010944
 31
0.0
  0
LINE
  5
A369DA2FD85B
330
198CE059C9C9D35
100
AcDbEntity
  8
0
  6
ByBlock
 62
     0
100
AcDbLine
 10
153.3722309463789
 20
224.0204050010944
 30
0.0
 11
153.3722309463789
 21
227.5204050010944
 31
0.0
  0
SOLID
  5
A369DA2FD85C
330
198CE059C9C9D35
100
AcDbEntity
  8
0
  6
ByBlock
 62
     0
100
AcDbTrace
 10
152.7888976130455
 20
207.0204050010944
 30
0.0
 11
153.9555642797122
 21
207.0204050010944
 31
0.0
 12
153.3722309463789
 22
210.5204050010944
 32
0.0
 13
153.3722309463789
 23
210.5204050010944
 33
0.0
  0
SOLID
  5
A369DA2FD85D
330
198CE059C9C9D35
100
AcDbEntity
  8
0
  6
ByBlock
 62
     0
100
AcDbTrace
 10
152.7888976130455
 20
224.0204050010944
 30
0.0
 11
153.9555642797122
 21
224.0204050010944
 31
0.0
 12
153.3722309463789
 22
220.5204050010944
 32
0.0
 13
153.3722309463789
 23
220.5204050010944
 33
0.0
  0
LINE
  5
A369DA2FD85E
330
198CE059C9C9D35
100
AcDbEntity
  8
0
  6
ByBlock
 62
     0
100
AcDbLine
 10
153.3722309463789
 20
210.5204050010944
 30
0.0
 11
153.3722309463789
 21
220.5204050010944
 31
0.0
  0
TEXT
  5
A369DA2FD85F
330
198CE059C9C9D35
100
AcDbEntity
  8
0
  6
ByBlock
 62
     0
100
AcDbText
 10
151.6222309463789
 20
213.0204050010944
 30
0.0
 40
3.5
  1
10
 50
90.0
  7
ACA_ISO
 72
     1
 11
149.8722309463789
 21
215.5204050010944
 31
0.0
100
AcDbText
 73
     2
  0
POINT
  5
A369DA2FD860
330
198CE059C9C9D35
100
AcDbEntity
  8
DEFPOINTS
  6
ByBlock
 62
     0
100
AcDbPoint
 10
163.2005614035424
 20
210.5204050010944
 30
0.0
  0
POINT
  5
A369DA2FD861
330
198CE059C9C9D35
100
AcDbEntity
  8
DEFPOINTS
  6
ByBlock
 62
     0
100
AcDbPoint
 10
140.8005614035424
 20
220.5204050010944
 30
0.0
  0
POINT
  5
A369DA2FD862
330
198CE059C9C9D35
100
AcDbEntity
  8
DEFPOINTS
  6
ByBlock
 62
     0
100
AcDbPoint
 10
153.3722309463789
 20
220.5204050010944
 30
0.0
  0
ENDBLK
  5
A369DA2FD863
330
198CE059C9C9D35
100
AcDbEntity
  8
0
100
AcDbBlockEnd
  0
BLOCK
  5
A369DA2FDB7F
330
198CE059C9C9D36
100
AcDbEntity
  8
0
100
AcDbBlockBegin
  2
*D19
 70
     1
 10
0.0
 20
0.0
 30
0.0
  3
*D19
  1

  0
LINE
  5
A369DA2FDB80
330
198CE059C9C9D36
100
AcDbEntity
  8
0
  6
ByBlock
 62
     0
100
AcDbLine
 10
172.9005614035423
 20
241.5204050010944
 30
0.0
 11
197.8269146831282
 21
241.5204050010944
 31
0.0
  0
LINE
  5
A369DA2FDB81
330
198CE059C9C9D36
100
AcDbEntity
  8
0
  6
ByBlock
 62
     0
100
AcDbLine
 10
182.5005614035424
 20
210.5204050010944
 30
0.0
 11
197.8269146831282
 21
210.5204050010944
 31
0.0
  0
LINE
  5
A369DA2FDB82
330
198CE059C9C9D36
100
AcDbEntity
  8
0
  6
ByBlock
 62
     0
100
AcDbLine
 10
196.0269146831282
 20
238.0204050010944
 30
0.0
 11
196.0269146831282
 21
214.0204050010944
 31
0.0
  0
SOLID
  5
A369DA2FDB83
330
198CE059C9C9D36
100
AcDbEntity
  8
0
  6
ByBlock
 62
     0
100
AcDbTrace
 10
195.4435813497948
 20
238.0204050010944
 30
0.0
 11
196.6102480164615
 21
238.0204050010944
 31
0.0
 12
196.0269146831282
 22
241.5204050010944
 32
0.0
 13
196.0269146831282
 23
241.5204050010944
 33
0.0
  0
SOLID
  5
A369DA2FDB84
330
198CE059C9C9D36
100
AcDbEntity
  8
0
  6
ByBlock
 62
     0
100
AcDbTrace
 10
195.4435813497948
 20
214.0204050010944
 30
0.0
 11
196.6102480164615
 21
214.0204050010944
 31
0.0
 12
196.0269146831282
 22
210.5204050010944
 32
0.0
 13
196.0269146831282
 23
210.5204050010944
 33
0.0
  0
TEXT
  5
A369DA2FDB85
330
198CE059C9C9D36
100
AcDbEntity
  8
0
  6
ByBlock
 62
     0
100
AcDbText
 10
194.2769146831282
 20
223.9370716677611
 30
0.0
 40
3.5
  1
31
 50
90.0
  7
ACA_ISO
 72
     1
 11
192.5269146831282
 21
226.0204050010944
 31
0.0
100
AcDbText
 73
     2
  0
POINT
  5
A369DA2FDB86
330
198CE059C9C9D36
100
AcDbEntity
  8
DEFPOINTS
  6
ByBlock
 62
     0
100
AcDbPoint
 10
172.8005614035423
 20
241.5204050010944
 30
0.0
  0
POINT
  5
A369DA2FDB87
330
198CE059C9C9D36
100
AcDbEntity
  8
DEFPOINTS
  6
ByBlock
 62
     0
100
AcDbPoint
 10
182.4005614035424
 20
210.5204050010944
 30
0.0
  0
POINT
  5
A369DA2FDB88
330
198CE059C9C9D36
100
AcDbEntity
  8
DEFPOINTS
  6
ByBlock
 62
     0
100
AcDbPoint
 10
196.0269146831282
 20
210.5204050010944
 30
0.0
  0
ENDBLK
  5
A369DA2FDB89
330
198CE059C9C9D36
100
AcDbEntity
  8
0
100
AcDbBlockEnd
  0
BLOCK
  5
A369DA2FDDB3
330
198CE059C9C9D37
100
AcDbEntity
  8
0
100
AcDbBlockBegin
  2
*D20
 70
     1
 10
0.0
 20
0.0
 30
0.0
  3
*D20
  1

  0
LINE
  5
A369DA2FDDB4
330
198CE059C9C9D37
100
AcDbEntity
  8
0
  6
ByBlock
 62
     0
100
AcDbLine
 10
172.9005614035424
 20
121.5204050010944
 30
0.0
 11
197.4592016540208
 21
121.5204050010944
 31
0.0
  0
LINE
  5
A369DA2FDDB5
330
198CE059C9C9D37
100
AcDbEntity
  8
0
  6
ByBlock
 62
     0
100
AcDbLine
 10
195.5592016540208
 20
152.5204050010944
 30
0.0
 11
193.8592016540208
 21
152.5204050010944
 31
0.0
  0
LINE
  5
A369DA2FDDB6
330
198CE059C9C9D37
100
AcDbEntity
  8
0
  6
ByBlock
 62
     0
100
AcDbLine
 10
195.6592016540208
 20
125.0204050010944
 30
0.0
 11
195.6592016540208
 21
149.0204050010944
 31
0.0
  0
SOLID
  5
A369DA2FDDB7
330
198CE059C9C9D37
100
AcDbEntity
  8
0
  6
ByBlock
 62
     0
100
AcDbTrace
 10
195.0758683206874
 20
125.0204050010944
 30
0.0
 11
196.2425349873541
 21
125.0204050010944
 31
0.0
 12
195.6592016540208
 22
121.5204050010944
 32
0.0
 13
195.6592016540208
 23
121.5204050010944
 33
0.0
  0
SOLID
  5
A369DA2FDDB8
330
198CE059C9C9D37
100
AcDbEntity
  8
0
  6
ByBlock
 62
     0
100
AcDbTrace
 10
195.0758683206874
 20
149.0204050010944
 30
0.0
 11
196.2425349873541
 21
149.0204050010944
 31
0.0
 12
195.6592016540208
 22
152.5204050010944
 32
0.0
 13
195.6592016540208
 23
152.5204050010944
 33
0.0
  0
TEXT
  5
A369DA2FDDB9
330
198CE059C9C9D37
100
AcDbEntity
  8
0
  6
ByBlock
 62
     0
100
AcDbText
 10
193.9092016540208
 20
134.937071667761
 30
0.0
 40
3.5
  1
31
 50
90.0
  7
ACA_ISO
 72
     1
 11
192.1592016540208
 21
137.0204050010944
 31
0.0
100
AcDbText
 73
     2
  0
POINT
  5
A369DA2FDDBA
330
198CE059C9C9D37
100
AcDbEntity
  8
DEFPOINTS
  6
ByBlock
 62
     0
100
AcDbPoint
 10
172.8005614035424
 20
121.5204050010944
 30
0.0
  0
POINT
  5
A369DA2FDDBB
330
198CE059C9C9D37
100
AcDbEntity
  8
DEFPOINTS
  6
ByBlock
 62
     0
100
AcDbPoint
 10
195.6592016540208
 20
152.5204050010944
 30
0.0
  0
POINT
  5
A369DA2FDDBC
330
198CE059C9C9D37
100
AcDbEntity
  8
DEFPOINTS
  6
ByBlock
 62
     0
100
AcDbPoint
 10
195.6592016540208
 20
152.5204050010944
 30
0.0
  0
ENDBLK
  5
A369DA2FDDBD
330
198CE059C9C9D37
100
AcDbEntity
  8
0
100
AcDbBlockEnd
  0
BLOCK
  5
A369DA2FDE90
330
198CE059C9C9D38
100
AcDbEntity
  8
0
100
AcDbBlockBegin
  2
*D21
 70
     1
 10
0.0
 20
0.0
 30
0.0
  3
*D21
  1

  0
LINE
  5
A369DA2FDE91
330
198CE059C9C9D38
100
AcDbEntity
  8
0
  6
ByBlock
 62
     0
100
AcDbLine
 10
322.2501651809125
 20
204.020405001094
 30
0.0
 11
341.2349007256722
 21
204.020405001094
 31
0.0
  0
LINE
  5
A369DA2FDE92
330
198CE059C9C9D38
100
AcDbEntity
  8
0
  6
ByBlock
 62
     0
100
AcDbLine
 10
322.2501651809125
 20
159.020405001094
 30
0.0
 11
341.2349007256722
 21
159.020405001094
 31
0.0
  0
LINE
  5
A369DA2FDE93
330
198CE059C9C9D38
100
AcDbEntity
  8
0
  6
ByBlock
 62
     0
100
AcDbLine
 10
339.4349007256721
 20
200.5204050010941
 30
0.0
 11
339.4349007256721
 21
162.520405001094
 31
0.0
  0
SOLID
  5
A369DA2FDE94
330
198CE059C9C9D38
100
AcDbEntity
  8
0
  6
ByBlock
 62
     0
100
AcDbTrace
 10
338.8515673923389
 20
200.5204050010941
 30
0.0
 11
340.0182340590055
 21
200.5204050010941
 31
0.0
 12
339.4349007256721
 22
204.020405001094
 32
0.0
 13
339.4349007256721
 23
204.020405001094
 33
0.0
  0
SOLID
  5
A369DA2FDE95
330
198CE059C9C9D38
100
AcDbEntity
  8
0
  6
ByBlock
 62
     0
100
AcDbTrace
 10
338.8515673923389
 20
162.520405001094
 30
0.0
 11
340.0182340590055
 21
162.520405001094
 31
0.0
 12
339.4349007256721
 22
159.020405001094
 32
0.0
 13
339.4349007256721
 23
159.020405001094
 33
0.0
  0
TEXT
  5
A369DA2FDE96
330
198CE059C9C9D38
100
AcDbEntity
  8
0
  6
ByBlock
 62
     0
100
AcDbText
 10
337.6849007256721
 20
178.6870716677607
 30
0.0
 40
3.5
  1
45
 50
90.0
  7
ACA_ISO
 72
     1
 11
335.9349007256721
 21
181.520405001094
 31
0.0
100
AcDbText
 73
     2
  0
POINT
  5
A369DA2FDE97
330
198CE059C9C9D38
100
AcDbEntity
  8
DEFPOINTS
  6
ByBlock
 62
     0
100
AcDbPoint
 10
322.1501651809125
 20
204.020405001094
 30
0.0
  0
POINT
  5
A369DA2FDE98
330
198CE059C9C9D38
100
AcDbEntity
  8
DEFPOINTS
  6
ByBlock
 62
     0
100
AcDbPoint
 10
322.1501651809125
 20
159.020405001094
 30
0.0
  0
POINT
  5
A369DA2FDE99
330
198CE059C9C9D38
100
AcDbEntity
  8
DEFPOINTS
  6
ByBlock
 62
     0
100
AcDbPoint
 10
339.4349007256721
 20
159.020405001094
 30
0.0
  0
ENDBLK
  5
A369DA2FDE9A
330
198CE059C9C9D38
100
AcDbEntity
  8
0
100
AcDbBlockEnd
  0
BLOCK
  5
A369DA2FE42C
330
198CE059C9C9D39
100
AcDbEntity
  8
0
100
AcDbBlockBegin
  2
*D22
 70
     1
 10
0.0
 20
0.0
 30
0.0
  3
*D22
  1

  0
LINE
  5
A369DA2FE42D
330
198CE059C9C9D39
100
AcDbEntity
  8
0
  6
ByBlock
 62
     0
100
AcDbLine
 10
312.1501651809125
 20
158.920405001094
 30
0.0
 11
312.1501651809125
 21
145.5975693913168
 31
0.0
  0
LINE
  5
A369DA2FE42E
330
198CE059C9C9D39
100
AcDbEntity
  8
0
  6
ByBlock
 62
     0
100
AcDbLine
 10
322.1501651809125
 20
158.920405001094
 30
0.0
 11
322.1501651809125
 21
145.5975693913168
 31
0.0
  0
LINE
  5
A369DA2FE42F
330
198CE059C9C9D39
100
AcDbEntity
  8
0
  6
ByBlock
 62
     0
100
AcDbLine
 10
315.6501651809125
 20
147.3975693913168
 30
0.0
 11
318.6501651809125
 21
147.3975693913168
 31
0.0
  0
SOLID
  5
A369DA2FE430
330
198CE059C9C9D39
100
AcDbEntity
  8
0
  6
ByBlock
 62
     0
100
AcDbTrace
 10
315.6501651809125
 20
147.9809027246502
 30
0.0
 11
315.6501651809125
 21
146.8142360579835
 31
0.0
 12
312.1501651809125
 22
147.3975693913168
 32
0.0
 13
312.1501651809125
 23
147.3975693913168
 33
0.0
  0
SOLID
  5
A369DA2FE431
330
198CE059C9C9D39
100
AcDbEntity
  8
0
  6
ByBlock
 62
     0
100
AcDbTrace
 10
318.6501651809125
 20
147.9809027246502
 30
0.0
 11
318.6501651809125
 21
146.8142360579835
 31
0.0
 12
322.1501651809125
 22
147.3975693913168
 32
0.0
 13
322.1501651809125
 23
147.3975693913168
 33
0.0
  0
TEXT
  5
A369DA2FE432
330
198CE059C9C9D39
100
AcDbEntity
  8
0
  6
ByBlock
 62
     0
100
AcDbText
 10
333.2577723407849
 20
148.9548615506922
 30
0.0
 40
3.5
  1
10
  7
ACA_ISO
 72
     1
 11
335.7577723407849
 21
150.7048615506922
 31
0.0
100
AcDbText
 73
     2
  0
POINT
  5
A369DA2FE433
330
198CE059C9C9D39
100
AcDbEntity
  8
DEFPOINTS
  6
ByBlock
 62
     0
100
AcDbPoint
 10
312.1501651809125
 20
159.020405001094
 30
0.0
  0
POINT
  5
A369DA2FE434
330
198CE059C9C9D39
100
AcDbEntity
  8
DEFPOINTS
  6
ByBlock
 62
     0
100
AcDbPoint
 10
322.1501651809125
 20
159.020405001094
 30
0.0
  0
POINT
  5
A369DA2FE435
330
198CE059C9C9D39
100
AcDbEntity
  8
DEFPOINTS
  6
ByBlock
 62
     0
100
AcDbPoint
 10
322.1501651809125
 20
147.3975693913168
 30
0.0
  0
ENDBLK
  5
A369DA2FE436
330
198CE059C9C9D39
100
AcDbEntity
  8
0
100
AcDbBlockEnd
  0
BLOCK
  5
A369DA2FEE97
330
198CE059C9C9D3A
100
AcDbEntity
  8
0
100
AcDbBlockBegin
  2
*D23
 70
     1
 10
0.0
 20
0.0
 30
0.0
  3
*D23
  1

  0
LINE
  5
A369DA2FEE98
330
198CE059C9C9D3A
100
AcDbEntity
  8
0
  6
ByBlock
 62
     0
100
AcDbLine
 10
165.4552441871982
 20
238.191833572523
 30
0.0
 11
165.4552441871982
 21
265.3202661724737
 31
0.0
  0
LINE
  5
A369DA2FEE99
330
198CE059C9C9D3A
100
AcDbEntity
  8
0
  6
ByBlock
 62
     0
100
AcDbLine
 10
265.4552441871981
 20
233.7204050010945
 30
0.0
 11
265.4552441871981
 21
265.3202661724737
 31
0.0
  0
LINE
  5
A369DA2FEE9A
330
198CE059C9C9D3A
100
AcDbEntity
  8
0
  6
ByBlock
 62
     0
100
AcDbLine
 10
168.9552441871982
 20
263.5202661724737
 30
0.0
 11
261.9552441871981
 21
263.5202661724737
 31
0.0
  0
SOLID
  5
A369DA2FEE9B
330
198CE059C9C9D3A
100
AcDbEntity
  8
0
  6
ByBlock
 62
     0
100
AcDbTrace
 10
168.9552441871982
 20
264.1035995058071
 30
0.0
 11
168.9552441871982
 21
262.9369328391404
 31
0.0
 12
165.4552441871982
 22
263.5202661724737
 32
0.0
 13
165.4552441871982
 23
263.5202661724737
 33
0.0
  0
SOLID
  5
A369DA2FEE9C
330
198CE059C9C9D3A
100
AcDbEntity
  8
0
  6
ByBlock
 62
     0
100
AcDbTrace
 10
261.9552441871981
 20
264.1035995058071
 30
0.0
 11
261.9552441871981
 21
262.9369328391404
 31
0.0
 12
265.4552441871981
 22
263.5202661724737
 32
0.0
 13
265.4552441871981
 23
263.5202661724737
 33
0.0
  0
TEXT
  5
A369DA2FEE9D
330
198CE059C9C9D3A
100
AcDbEntity
  8
0
  6
ByBlock
 62
     0
100
AcDbText
 10
214.2885775205315
 20
265.2702661724737
 30
0.0
 40
3.5
  1
X
  7
ACA_ISO
 72
     1
 11
215.4552441871981
 21
267.0202661724737
 31
0.0
100
AcDbText
 73
     2
  0
POINT
  5
A369DA2FEE9E
330
198CE059C9C9D3A
100
AcDbEntity
  8
DEFPOINTS
  6
ByBlock
 62
     0
100
AcDbPoint
 10
165.4552441871982
 20
238.091833572523
 30
0.0
  0
POINT
  5
A369DA2FEE9F
330
198CE059C9C9D3A
100
AcDbEntity
  8
DEFPOINTS
  6
ByBlock
 62
     0
100
AcDbPoint
 10
265.4552441871981
 20
233.6204050010945
 30
0.0
  0
POINT
  5
A369DA2FEEA0
330
198CE059C9C9D3A
100
AcDbEntity
  8
DEFPOINTS
  6
ByBlock
 62
     0
100
AcDbPoint
 10
265.4552441871981
 20
263.5202661724737
 30
0.0
  0
ENDBLK
  5
A369DA2FEEA1
330
198CE059C9C9D3A
100
AcDbEntity
  8
0
100
AcDbBlockEnd
  0
BLOCK
  5
A369DA2FEF71
330
198CE059C9C9D3B
100
AcDbEntity
  8
0
100
AcDbBlockBegin
  2
*D24
 70
     1
 10
0.0
 20
0.0
 30
0.0
  3
*D24
  1

  0
LINE
  5
A369DA2FEF72
330
198CE059C9C9D3B
100
AcDbEntity
  8
0
  6
ByBlock
 62
     0
100
AcDbLine
 10
130.4557199895478
 20
208.9204050010944
 30
0.0
 11
130.4557199895478
 21
193.8854276873818
 31
0.0
  0
LINE
  5
A369DA2FEF73
330
198CE059C9C9D3B
100
AcDbEntity
  8
0
  6
ByBlock
 62
     0
100
AcDbLine
 10
137.0557199895478
 20
208.9204050010944
 30
0.0
 11
137.0557199895478
 21
193.8854276873818
 31
0.0
  0
LINE
  5
A369DA2FEF74
330
198CE059C9C9D3B
100
AcDbEntity
  8
0
  6
ByBlock
 62
     0
100
AcDbLine
 10
126.9557199895478
 20
195.6854276873818
 30
0.0
 11
123.4557199895478
 21
195.6854276873818
 31
0.0
  0
LINE
  5
A369DA2FEF75
330
198CE059C9C9D3B
100
AcDbEntity
  8
0
  6
ByBlock
 62
     0
100
AcDbLine
 10
140.5557199895478
 20
195.6854276873818
 30
0.0
 11
144.0557199895478
 21
195.6854276873818
 31
0.0
  0
SOLID
  5
A369DA2FEF76
330
198CE059C9C9D3B
100
AcDbEntity
  8
0
  6
ByBlock
 62
     0
100
AcDbTrace
 10
126.9557199895478
 20
196.2687610207152
 30
0.0
 11
126.9557199895478
 21
195.1020943540484
 31
0.0
 12
130.4557199895478
 22
195.6854276873818
 32
0.0
 13
130.4557199895478
 23
195.6854276873818
 33
0.0
  0
SOLID
  5
A369DA2FEF77
330
198CE059C9C9D3B
100
AcDbEntity
  8
0
  6
ByBlock
 62
     0
100
AcDbTrace
 10
140.5557199895478
 20
196.2687610207152
 30
0.0
 11
140.5557199895478
 21
195.1020943540484
 31
0.0
 12
137.0557199895478
 22
195.6854276873818
 32
0.0
 13
137.0557199895478
 23
195.6854276873818
 33
0.0
  0
LINE
  5
A369DA2FEF78
330
198CE059C9C9D3B
100
AcDbEntity
  8
0
  6
ByBlock
 62
     0
100
AcDbLine
 10
130.4557199895478
 20
195.6854276873818
 30
0.0
 11
137.0557199895478
 21
195.6854276873818
 31
0.0
  0
TEXT
  5
A369DA2FEF79
330
198CE059C9C9D3B
100
AcDbEntity
  8
0
  6
ByBlock
 62
     0
100
AcDbText
 10
140.0840474688664
 20
197.4354276873818
 30
0.0
 40
3.5
  1
í6,5
  7
ACA_ISO
 72
     1
 11
144.9173808021997
 21
199.1854276873818
 31
0.0
100
AcDbText
 73
     2
  0
POINT
  5
A369DA2FEF7A
330
198CE059C9C9D3B
100
AcDbEntity
  8
DEFPOINTS
  6
ByBlock
 62
     0
100
AcDbPoint
 10
130.4557199895478
 20
209.0204050010945
 30
0.0
  0
POINT
  5
A369DA2FEF7B
330
198CE059C9C9D3B
100
AcDbEntity
  8
DEFPOINTS
  6
ByBlock
 62
     0
100
AcDbPoint
 10
137.0557199895478
 20
209.0204050010945
 30
0.0
  0
POINT
  5
A369DA2FEF7C
330
198CE059C9C9D3B
100
AcDbEntity
  8
DEFPOINTS
  6
ByBlock
 62
     0
100
AcDbPoint
 10
137.0557199895478
 20
195.6854276873818
 30
0.0
  0
ENDBLK
  5
A369DA2FEF7D
330
198CE059C9C9D3B
100
AcDbEntity
  8
0
100
AcDbBlockEnd
  0
BLOCK
  5
BB81D8BB3309
330
198CE059C9C9D3C
100
AcDbEntity
  8
0
100
AcDbBlockBegin
  2
*D25
 70
     1
 10
0.0
 20
0.0
 30
0.0
  3
*D25
  1
ACA_SAVE_DONT_PURGE
  0
LINE
  5
BB81D8BB330A
330
198CE059C9C9D3C
100
AcDbEntity
  8
0
  6
ByBlock
 62
     0
100
AcDbLine
 10
303.031334671375
 20
241.6204050010938
 30
0.0
 11
303.031334671375
 21
256.1333448013956
 31
0.0
  0
LINE
  5
BB81D8BB330B
330
198CE059C9C9D3C
100
AcDbEntity
  8
0
  6
ByBlock
 62
     0
100
AcDbLine
 10
323.031334671375
 20
241.6204050010938
 30
0.0
 11
323.031334671375
 21
256.1333448013956
 31
0.0
  0
LINE
  5
BB81D8BB330C
330
198CE059C9C9D3C
100
AcDbEntity
  8
0
  6
ByBlock
 62
     0
100
AcDbLine
 10
306.531334671375
 20
254.3333448013956
 30
0.0
 11
319.531334671375
 21
254.3333448013956
 31
0.0
  0
SOLID
  5
BB81D8BB330D
330
198CE059C9C9D3C
100
AcDbEntity
  8
0
  6
ByBlock
 62
     0
100
AcDbTrace
 10
306.531334671375
 20
254.9166781347289
 30
0.0
 11
306.531334671375
 21
253.7500114680622
 31
0.0
 12
303.031334671375
 22
254.3333448013956
 32
0.0
 13
303.031334671375
 23
254.3333448013956
 33
0.0
  0
SOLID
  5
BB81D8BB330E
330
198CE059C9C9D3C
100
AcDbEntity
  8
0
  6
ByBlock
 62
     0
100
AcDbTrace
 10
319.531334671375
 20
254.9166781347289
 30
0.0
 11
319.531334671375
 21
253.7500114680622
 31
0.0
 12
323.031334671375
 22
254.3333448013956
 32
0.0
 13
323.031334671375
 23
254.3333448013956
 33
0.0
  0
TEXT
  5
BB81D8BB330F
330
198CE059C9C9D3C
100
AcDbEntity
  8
0
  6
ByBlock
 62
     0
100
AcDbText
 10
308.5178647055216
 20
256.8518681311352
 30
0.0
 40
3.5
  1
18
  7
ACA_ISO
 72
     1
 11
311.0178647055215
 21
258.6018681311352
 31
0.0
100
AcDbText
 73
     2
  0
POINT
  5
BB81D8BB3310
330
198CE059C9C9D3C
100
AcDbEntity
  8
DEFPOINTS
  6
ByBlock
 62
     0
100
AcDbPoint
 10
303.031334671375
 20
241.5204050010938
 30
0.0
  0
POINT
  5
BB81D8BB3311
330
198CE059C9C9D3C
100
AcDbEntity
  8
DEFPOINTS
  6
ByBlock
 62
     0
100
AcDbPoint
 10
323.031334671375
 20
241.5204050010938
 30
0.0
  0
POINT
  5
BB81D8BB3312
330
198CE059C9C9D3C
100
AcDbEntity
  8
DEFPOINTS
  6
ByBlock
 62
     0
100
AcDbPoint
 10
323.031334671375
 20
254.3333448013956
 30
0.0
  0
ENDBLK
  5
BB81D8BB3313
330
198CE059C9C9D3C
100
AcDbEntity
  8
0
100
AcDbBlockEnd
  0
BLOCK
  5
BB81D8BB4936
330
198CE059C9C9D3D
100
AcDbEntity
  8
0
100
AcDbBlockBegin
  2
*D26
 70
     1
 10
0.0
 20
0.0
 30
0.0
  3
*D26
  1
ACA_SAVE_DONT_PURGE
  0
LINE
  5
BB81D8BB4937
330
198CE059C9C9D3D
100
AcDbEntity
  8
0
  6
ByBlock
 62
     0
100
AcDbLine
 10
308.031334671375
 20
107.1532272192327
 30
0.0
 11
308.031334671375
 21
97.49673262424924
 31
0.0
  0
LINE
  5
BB81D8BB4938
330
198CE059C9C9D3D
100
AcDbEntity
  8
0
  6
ByBlock
 62
     0
100
AcDbLine
 10
318.031334671375
 20
107.1532272192327
 30
0.0
 11
318.031334671375
 21
97.49673262424924
 31
0.0
  0
LINE
  5
BB81D8BB4939
330
198CE059C9C9D3D
100
AcDbEntity
  8
0
  6
ByBlock
 62
     0
100
AcDbLine
 10
311.531334671375
 20
99.29673262424923
 30
0.0
 11
314.531334671375
 21
99.29673262424923
 31
0.0
  0
SOLID
  5
BB81D8BB493A
330
198CE059C9C9D3D
100
AcDbEntity
  8
0
  6
ByBlock
 62
     0
100
AcDbTrace
 10
311.531334671375
 20
99.88006595758257
 30
0.0
 11
311.531334671375
 21
98.7133992909159
 31
0.0
 12
308.031334671375
 22
99.29673262424923
 32
0.0
 13
308.031334671375
 23
99.29673262424923
 33
0.0
  0
SOLID
  5
BB81D8BB493B
330
198CE059C9C9D3D
100
AcDbEntity
  8
0
  6
ByBlock
 62
     0
100
AcDbTrace
 10
314.531334671375
 20
99.88006595758257
 30
0.0
 11
314.531334671375
 21
98.7133992909159
 31
0.0
 12
318.031334671375
 22
99.29673262424923
 32
0.0
 13
318.031334671375
 23
99.29673262424923
 33
0.0
  0
TEXT
  5
BB81D8BB493C
330
198CE059C9C9D3D
100
AcDbEntity
  8
0
  6
ByBlock
 62
     0
100
AcDbText
 10
321.8602432491683
 20
101.0467326242492
 30
0.0
 40
3.5
  1
í10x90ø
  7
ACA_ISO
 72
     1
 11
331.8602432491683
 21
102.7967326242492
 31
0.0
100
AcDbText
 73
     2
  0
POINT
  5
BB81D8BB493D
330
198CE059C9C9D3D
100
AcDbEntity
  8
DEFPOINTS
  6
ByBlock
 62
     0
100
AcDbPoint
 10
308.031334671375
 20
107.2532272192327
 30
0.0
  0
POINT
  5
BB81D8BB493E
330
198CE059C9C9D3D
100
AcDbEntity
  8
DEFPOINTS
  6
ByBlock
 62
     0
100
AcDbPoint
 10
318.031334671375
 20
107.2532272192327
 30
0.0
  0
POINT
  5
BB81D8BB493F
330
198CE059C9C9D3D
100
AcDbEntity
  8
DEFPOINTS
  6
ByBlock
 62
     0
100
AcDbPoint
 10
318.031334671375
 20
99.29673262424923
 30
0.0
  0
ENDBLK
  5
BB81D8BB4940
330
198CE059C9C9D3D
100
AcDbEntity
  8
0
100
AcDbBlockEnd
  0
BLOCK
  5
BB81D8BB4D8F
330
198CE059C9C9D3E
100
AcDbEntity
  8
0
100
AcDbBlockBegin
  2
*D27
 70
     1
 10
0.0
 20
0.0
 30
0.0
  3
*D27
  1
ACA_SAVE_DONT_PURGE
  0
LINE
  5
BB81D8BB4D90
330
198CE059C9C9D3E
100
AcDbEntity
  8
0
  6
ByBlock
 62
     0
100
AcDbLine
 10
310.031334671375
 20
134.4204050010937
 30
0.0
 11
310.031334671375
 21
107.379536749896
 31
0.0
  0
LINE
  5
BB81D8BB4D91
330
198CE059C9C9D3E
100
AcDbEntity
  8
0
  6
ByBlock
 62
     0
100
AcDbLine
 10
316.031334671375
 20
134.4204050010937
 30
0.0
 11
316.031334671375
 21
107.379536749896
 31
0.0
  0
LINE
  5
BB81D8BB4D92
330
198CE059C9C9D3E
100
AcDbEntity
  8
0
  6
ByBlock
 62
     0
100
AcDbLine
 10
306.531334671375
 20
109.179536749896
 30
0.0
 11
303.031334671375
 21
109.179536749896
 31
0.0
  0
LINE
  5
BB81D8BB4D93
330
198CE059C9C9D3E
100
AcDbEntity
  8
0
  6
ByBlock
 62
     0
100
AcDbLine
 10
319.531334671375
 20
109.179536749896
 30
0.0
 11
323.031334671375
 21
109.179536749896
 31
0.0
  0
SOLID
  5
BB81D8BB4D94
330
198CE059C9C9D3E
100
AcDbEntity
  8
0
  6
ByBlock
 62
     0
100
AcDbTrace
 10
306.531334671375
 20
109.7628700832293
 30
0.0
 11
306.531334671375
 21
108.5962034165627
 31
0.0
 12
310.031334671375
 22
109.179536749896
 32
0.0
 13
310.031334671375
 23
109.179536749896
 33
0.0
  0
SOLID
  5
BB81D8BB4D95
330
198CE059C9C9D3E
100
AcDbEntity
  8
0
  6
ByBlock
 62
     0
100
AcDbTrace
 10
319.531334671375
 20
109.7628700832293
 30
0.0
 11
319.531334671375
 21
108.5962034165627
 31
0.0
 12
316.031334671375
 22
109.179536749896
 32
0.0
 13
316.031334671375
 23
109.179536749896
 33
0.0
  0
LINE
  5
BB81D8BB4D96
330
198CE059C9C9D3E
100
AcDbEntity
  8
0
  6
ByBlock
 62
     0
100
AcDbLine
 10
310.031334671375
 20
109.179536749896
 30
0.0
 11
316.031334671375
 21
109.179536749896
 31
0.0
  0
TEXT
  5
BB81D8BB4D97
330
198CE059C9C9D3E
100
AcDbEntity
  8
0
  6
ByBlock
 62
     0
100
AcDbText
 10
323.0884855573827
 20
110.947145199556
 30
0.0
 40
3.5
  1
í5,4
  7
ACA_ISO
 72
     1
 11
328.0051522240494
 21
112.697145199556
 31
0.0
100
AcDbText
 73
     2
  0
POINT
  5
BB81D8BB4D98
330
198CE059C9C9D3E
100
AcDbEntity
  8
DEFPOINTS
  6
ByBlock
 62
     0
100
AcDbPoint
 10
310.031334671375
 20
134.5204050010937
 30
0.0
  0
POINT
  5
BB81D8BB4D99
330
198CE059C9C9D3E
100
AcDbEntity
  8
DEFPOINTS
  6
ByBlock
 62
     0
100
AcDbPoint
 10
316.031334671375
 20
134.5204050010937
 30
0.0
  0
POINT
  5
BB81D8BB4D9A
330
198CE059C9C9D3E
100
AcDbEntity
  8
DEFPOINTS
  6
ByBlock
 62
     0
100
AcDbPoint
 10
316.031334671375
 20
109.179536749896
 30
0.0
  0
ENDBLK
  5
BB81D8BB4D9B
330
198CE059C9C9D3E
100
AcDbEntity
  8
0
100
AcDbBlockEnd
  0
BLOCK
  5
19821BA6424BF46
330
198CE059C9C9D40
100
AcDbEntity
  8
0
100
AcDbBlockBegin
  2
*D29
 70
     1
 10
0.0
 20
0.0
 30
0.0
  3
*D29
  1
ACA_SAVE_DONT_PURGE
  0
LINE
  5
19821BA6424BF47
330
198CE059C9C9D40
100
AcDbEntity
  8
0
  6
ByBlock
 62
     0
100
AcDbLine
 10
168.7557199895477
 20
127.3704050010944
 30
0.0
 11
168.7557199895477
 21
107.7474501598996
 31
0.0
  0
LINE
  5
19821BA6424BF48
330
198CE059C9C9D40
100
AcDbEntity
  8
0
  6
ByBlock
 62
     0
100
AcDbLine
 10
133.7557199895477
 20
148.9204050010943
 30
0.0
 11
133.7557199895477
 21
107.7474501598996
 31
0.0
  0
LINE
  5
19821BA6424BF49
330
198CE059C9C9D40
100
AcDbEntity
  8
0
  6
ByBlock
 62
     0
100
AcDbLine
 10
165.2557199895477
 20
109.5474501598996
 30
0.0
 11
137.2557199895477
 21
109.5474501598996
 31
0.0
  0
SOLID
  5
19821BA6424BF4A
330
198CE059C9C9D40
100
AcDbEntity
  8
0
  6
ByBlock
 62
     0
100
AcDbTrace
 10
165.2557199895477
 20
110.1307834932329
 30
0.0
 11
165.2557199895477
 21
108.9641168265663
 31
0.0
 12
168.7557199895477
 22
109.5474501598996
 32
0.0
 13
168.7557199895477
 23
109.5474501598996
 33
0.0
  0
SOLID
  5
19821BA6424BF4B
330
198CE059C9C9D40
100
AcDbEntity
  8
0
  6
ByBlock
 62
     0
100
AcDbTrace
 10
137.2557199895477
 20
110.1307834932329
 30
0.0
 11
137.2557199895477
 21
108.9641168265663
 31
0.0
 12
133.7557199895477
 22
109.5474501598996
 32
0.0
 13
133.7557199895477
 23
109.5474501598996
 33
0.0
  0
TEXT
  5
19821BA6424BF4C
330
198CE059C9C9D40
100
AcDbEntity
  8
0
  6
ByBlock
 62
     0
100
AcDbText
 10
144.8390533228811
 20
111.2974501598996
 30
0.0
 40
3.5
  1
D-15
  7
ACA_ISO
 72
     1
 11
151.2557199895477
 21
113.0474501598996
 31
0.0
100
AcDbText
 73
     2
  0
POINT
  5
19821BA6424BF4D
330
198CE059C9C9D40
100
AcDbEntity
  8
DEFPOINTS
  6
ByBlock
 62
     0
100
AcDbPoint
 10
168.7557199895477
 20
127.4704050010944
 30
0.0
  0
POINT
  5
19821BA6424BF4E
330
198CE059C9C9D40
100
AcDbEntity
  8
DEFPOINTS
  6
ByBlock
 62
     0
100
AcDbPoint
 10
133.7557199895477
 20
149.0204050010943
 30
0.0
  0
POINT
  5
19821BA6424BF4F
330
198CE059C9C9D40
100
AcDbEntity
  8
DEFPOINTS
  6
ByBlock
 62
     0
100
AcDbPoint
 10
133.7557199895477
 20
109.5474501598996
 30
0.0
  0
ENDBLK
  5
19821BA6424BF50
330
198CE059C9C9D40
100
AcDbEntity
  8
0
100
AcDbBlockEnd
  0
BLOCK
  5
19821BA6424BF51
330
198CE059C9C9D41
100
AcDbEntity
  8
0
100
AcDbBlockBegin
  2
*D30
 70
     1
 10
0.0
 20
0.0
 30
0.0
  3
*D30
  1
ACA_SAVE_DONT_PURGE
  0
LINE
  5
19821BA6424BF52
330
198CE059C9C9D41
100
AcDbEntity
  8
0
  6
ByBlock
 62
     0
100
AcDbLine
 10
168.7557199895477
 20
127.2704050010944
 30
0.0
 11
168.7557199895477
 21
98.19305026509875
 31
0.0
  0
LINE
  5
19821BA6424BF53
330
198CE059C9C9D41
100
AcDbEntity
  8
0
  6
ByBlock
 62
     0
100
AcDbLine
 10
126.7557199895478
 20
135.4204050010944
 30
0.0
 11
126.7557199895478
 21
98.19305026509875
 31
0.0
  0
LINE
  5
19821BA6424BF54
330
198CE059C9C9D41
100
AcDbEntity
  8
0
  6
ByBlock
 62
     0
100
AcDbLine
 10
165.2557199895477
 20
99.99305026509874
 30
0.0
 11
130.2557199895478
 21
99.99305026509874
 31
0.0
  0
SOLID
  5
19821BA6424BF55
330
198CE059C9C9D41
100
AcDbEntity
  8
0
  6
ByBlock
 62
     0
100
AcDbTrace
 10
165.2557199895477
 20
100.5763835984321
 30
0.0
 11
165.2557199895477
 21
99.40971693176543
 31
0.0
 12
168.7557199895477
 22
99.99305026509874
 32
0.0
 13
168.7557199895477
 23
99.99305026509874
 33
0.0
  0
SOLID
  5
19821BA6424BF56
330
198CE059C9C9D41
100
AcDbEntity
  8
0
  6
ByBlock
 62
     0
100
AcDbTrace
 10
130.2557199895478
 20
100.5763835984321
 30
0.0
 11
130.2557199895478
 21
99.40971693176543
 31
0.0
 12
126.7557199895478
 22
99.99305026509874
 32
0.0
 13
126.7557199895478
 23
99.99305026509874
 33
0.0
  0
TEXT
  5
19821BA6424BF57
330
198CE059C9C9D41
100
AcDbEntity
  8
0
  6
ByBlock
 62
     0
100
AcDbText
 10
142.6723866562144
 20
101.7430502650987
 30
0.0
 40
3.5
  1
D-8
  7
ACA_ISO
 72
     1
 11
147.7557199895477
 21
103.4930502650987
 31
0.0
100
AcDbText
 73
     2
  0
POINT
  5
19821BA6424BF58
330
198CE059C9C9D41
100
AcDbEntity
  8
DEFPOINTS
  6
ByBlock
 62
     0
100
AcDbPoint
 10
168.7557199895477
 20
127.3704050010944
 30
0.0
  0
POINT
  5
19821BA6424BF59
330
198CE059C9C9D41
100
AcDbEntity
  8
DEFPOINTS
  6
ByBlock
 62
     0
100
AcDbPoint
 10
126.7557199895478
 20
135.5204050010944
 30
0.0
  0
POINT
  5
19821BA6424BF5A
330
198CE059C9C9D41
100
AcDbEntity
  8
DEFPOINTS
  6
ByBlock
 62
     0
100
AcDbPoint
 10
126.7557199895478
 20
99.99305026509874
 30
0.0
  0
ENDBLK
  5
19821BA6424BF5B
330
198CE059C9C9D41
100
AcDbEntity
  8
0
100
AcDbBlockEnd
  0
BLOCK
  5
198CE053F9C9261
330
198CE059C9C9D43
100
AcDbEntity
  8
0
100
AcDbBlockBegin
  2
*X32
 70
     1
 10
0.0
 20
0.0
 30
0.0
  3
*X32
  1
ACA_CFG
  0
LINE
  5
198CE053F9C9263
330
198CE059C9C9D43
100
AcDbEntity
  8
0
 62
     0
100
AcDbLine
 10
288.8110120303701
 20
252.9253428851528
 30
0.0
 11
290.1342366685362
 21
254.2485675233189
 31
0.0
  0
LINE
  5
198CE053F9C9264
330
198CE059C9C9D43
100
AcDbEntity
  8
0
 62
     0
100
AcDbLine
 10
288.5702825000796
 20
252.861390050159
 30
0.0
 11
289.9945654053656
 21
254.285672955445
 31
0.0
  0
LINE
  5
198CE053F9C9265
330
198CE059C9C9D43
100
AcDbEntity
  8
0
 62
     0
100
AcDbLine
 10
288.3295529697891
 20
252.7974372151651
 30
0.0
 11
289.854894142195
 21
254.322778387571
 31
0.0
  0
LINE
  5
198CE053F9C9266
330
198CE059C9C9D43
100
AcDbEntity
  8
0
 62
     0
100
AcDbLine
 10
288.0888234394987
 20
252.7334843801713
 30
0.0
 11
289.7152228790245
 21
254.3598838196971
 31
0.0
  0
LINE
  5
198CE053F9C9267
330
198CE059C9C9D43
100
AcDbEntity
  8
0
 62
     0
100
AcDbLine
 10
287.8480939092082
 20
252.6695315451775
 30
0.0
 11
289.5755516158538
 21
254.3969892518231
 31
0.0
  0
LINE
  5
198CE053F9C9268
330
198CE059C9C9D43
100
AcDbEntity
  8
0
 62
     0
100
AcDbLine
 10
287.6073643789177
 20
252.6055787101836
 30
0.0
 11
289.4358803526833
 21
254.4340946839492
 31
0.0
  0
LINE
  5
198CE053F9C9269
330
198CE059C9C9D43
100
AcDbEntity
  8
0
 62
     0
100
AcDbLine
 10
287.4795478584108
 20
252.6545388849733
 30
0.0
 11
289.2962090895127
 21
254.4712001160752
 31
0.0
  0
LINE
  5
198CE053F9C926A
330
198CE059C9C9D43
100
AcDbEntity
  8
0
 62
     0
100
AcDbLine
 10
287.4795478584108
 20
252.8313155802699
 30
0.0
 11
289.156537826342
 21
254.5083055482013
 31
0.0
  0
LINE
  5
198CE053F9C926B
330
198CE059C9C9D43
100
AcDbEntity
  8
0
 62
     0
100
AcDbLine
 10
287.4795478584108
 20
253.0080922755665
 30
0.0
 11
289.0168665631715
 21
254.5454109803273
 31
0.0
  0
LINE
  5
198CE053F9C926C
330
198CE059C9C9D43
100
AcDbEntity
  8
0
 62
     0
100
AcDbLine
 10
287.4795478584108
 20
253.1848689708632
 30
0.0
 11
288.8771953000009
 21
254.5825164124533
 31
0.0
  0
LINE
  5
198CE053F9C926D
330
198CE059C9C9D43
100
AcDbEntity
  8
0
 62
     0
100
AcDbLine
 10
287.4795478584108
 20
253.3616456661598
 30
0.0
 11
288.7375240368303
 21
254.6196218445794
 31
0.0
  0
LINE
  5
198CE053F9C926E
330
198CE059C9C9D43
100
AcDbEntity
  8
0
 62
     0
100
AcDbLine
 10
287.4795478584108
 20
253.5384223614565
 30
0.0
 11
288.5978527736597
 21
254.6567272767055
 31
0.0
  0
LINE
  5
198CE053F9C926F
330
198CE059C9C9D43
100
AcDbEntity
  8
0
 62
     0
100
AcDbLine
 10
287.4795478584108
 20
253.7151990567531
 30
0.0
 11
288.4581815104891
 21
254.6938327088315
 31
0.0
  0
LINE
  5
198CE053F9C9270
330
198CE059C9C9D43
100
AcDbEntity
  8
0
 62
     0
100
AcDbLine
 10
287.4795478584108
 20
253.8919757520497
 30
0.0
 11
288.3185102473186
 21
254.7309381409575
 31
0.0
  0
LINE
  5
198CE053F9C9271
330
198CE059C9C9D43
100
AcDbEntity
  8
0
 62
     0
100
AcDbLine
 10
287.4795478584108
 20
254.0687524473463
 30
0.0
 11
288.1788389841479
 21
254.7680435730836
 31
0.0
  0
LINE
  5
198CE053F9C9272
330
198CE059C9C9D43
100
AcDbEntity
  8
0
 62
     0
100
AcDbLine
 10
287.4795478584108
 20
254.245529142643
 30
0.0
 11
288.0391677209774
 21
254.8051490052096
 31
0.0
  0
LINE
  5
198CE053F9C9273
330
198CE059C9C9D43
100
AcDbEntity
  8
0
 62
     0
100
AcDbLine
 10
287.4795478584108
 20
254.4223058379396
 30
0.0
 11
287.8994964578068
 21
254.8422544373357
 31
0.0
  0
LINE
  5
198CE053F9C9274
330
198CE059C9C9D43
100
AcDbEntity
  8
0
 62
     0
100
AcDbLine
 10
287.4795478584108
 20
254.5990825332363
 30
0.0
 11
287.7598251946362
 21
254.8793598694617
 31
0.0
  0
LINE
  5
198CE053F9C9275
330
198CE059C9C9D43
100
AcDbEntity
  8
0
 62
     0
100
AcDbLine
 10
287.4795478584108
 20
254.7758592285329
 30
0.0
 11
287.6201539314656
 21
254.9164653015878
 31
0.0
  0
LINE
  5
198CE053F9C9276
330
198CE059C9C9D43
100
AcDbEntity
  8
0
 62
     0
100
AcDbLine
 10
287.4795478584108
 20
254.9526359238296
 30
0.0
 11
287.480482668295
 21
254.9535707337138
 31
0.0
  0
LINE
  5
198CE053F9C9277
330
198CE059C9C9D43
100
AcDbEntity
  8
0
 62
     0
100
AcDbLine
 10
289.0517415606606
 20
252.9892957201466
 30
0.0
 11
290.2739079317068
 21
254.2114620911929
 31
0.0
  0
LINE
  5
198CE053F9C9278
330
198CE059C9C9D43
100
AcDbEntity
  8
0
 62
     0
100
AcDbLine
 10
289.2924710909511
 20
253.0532485551404
 30
0.0
 11
290.4135791948774
 21
254.1743566590668
 31
0.0
  0
LINE
  5
198CE053F9C9279
330
198CE059C9C9D43
100
AcDbEntity
  8
0
 62
     0
100
AcDbLine
 10
289.5332006212415
 20
253.1172013901343
 30
0.0
 11
290.553250458048
 21
254.1372512269408
 31
0.0
  0
LINE
  5
198CE053F9C927A
330
198CE059C9C9D43
100
AcDbEntity
  8
0
 62
     0
100
AcDbLine
 10
289.7739301515319
 20
253.1811542251281
 30
0.0
 11
290.6929217212186
 21
254.1001457948147
 31
0.0
  0
LINE
  5
198CE053F9C927B
330
198CE059C9C9D43
100
AcDbEntity
  8
0
 62
     0
100
AcDbLine
 10
290.0146596818224
 20
253.2451070601219
 30
0.0
 11
290.8325929843892
 21
254.0630403626887
 31
0.0
  0
LINE
  5
198CE053F9C927C
330
198CE059C9C9D43
100
AcDbEntity
  8
0
 62
     0
100
AcDbLine
 10
290.2553892121129
 20
253.3090598951158
 30
0.0
 11
290.9722642475598
 21
254.0259349305626
 31
0.0
  0
LINE
  5
198CE053F9C927D
330
198CE059C9C9D43
100
AcDbEntity
  8
0
 62
     0
100
AcDbLine
 10
290.4961187424033
 20
253.3730127301096
 30
0.0
 11
291.1119355107303
 21
253.9888294984366
 31
0.0
  0
LINE
  5
198CE053F9C927E
330
198CE059C9C9D43
100
AcDbEntity
  8
0
 62
     0
100
AcDbLine
 10
290.7368482726938
 20
253.4369655651034
 30
0.0
 11
291.251606773901
 21
253.9517240663105
 31
0.0
  0
LINE
  5
198CE053F9C927F
330
198CE059C9C9D43
100
AcDbEntity
  8
0
 62
     0
100
AcDbLine
 10
290.9775778029843
 20
253.5009184000973
 30
0.0
 11
291.3912780370715
 21
253.9146186341845
 31
0.0
  0
LINE
  5
198CE053F9C9280
330
198CE059C9C9D43
100
AcDbEntity
  8
0
 62
     0
100
AcDbLine
 10
291.2183073332748
 20
253.5648712350911
 30
0.0
 11
291.5309493002421
 21
253.8775132020585
 31
0.0
  0
LINE
  5
198CE053F9C9281
330
198CE059C9C9D43
100
AcDbEntity
  8
0
 62
     0
100
AcDbLine
 10
291.4590368635653
 20
253.6288240700849
 30
0.0
 11
291.6706205634127
 21
253.8404077699324
 31
0.0
  0
LINE
  5
198CE053F9C9282
330
198CE059C9C9D43
100
AcDbEntity
  8
0
 62
     0
100
AcDbLine
 10
291.6997663938557
 20
253.6927769050787
 30
0.0
 11
291.8102918265833
 21
253.8033023378064
 31
0.0
  0
LINE
  5
198CE053F9C9283
330
198CE059C9C9D43
100
AcDbEntity
  8
0
 62
     0
100
AcDbLine
 10
291.9404959241461
 20
253.7567297400726
 30
0.0
 11
291.9499630897539
 21
253.7661969056803
 31
0.0
  0
LINE
  5
198CE053F9C9284
330
198CE059C9C9D43
100
AcDbEntity
  8
0
 62
     0
100
AcDbLine
 10
290.1345925919685
 20
253.2769687498932
 30
0.0
 11
288.8116254799712
 21
254.5999358618905
 31
0.0
  0
LINE
  5
198CE053F9C9285
330
198CE059C9C9D43
100
AcDbEntity
  8
0
 62
     0
100
AcDbLine
 10
289.994921328798
 20
253.2398633177672
 30
0.0
 11
288.5708959496808
 21
254.6638886968844
 31
0.0
  0
LINE
  5
198CE053F9C9286
330
198CE059C9C9D43
100
AcDbEntity
  8
0
 62
     0
100
AcDbLine
 10
289.8552500656273
 20
253.2027578856411
 30
0.0
 11
288.3301664193902
 21
254.7278415318782
 31
0.0
  0
LINE
  5
198CE053F9C9287
330
198CE059C9C9D43
100
AcDbEntity
  8
0
 62
     0
100
AcDbLine
 10
289.7155788024567
 20
253.1656524535151
 30
0.0
 11
288.0894368890998
 21
254.791794366872
 31
0.0
  0
LINE
  5
198CE053F9C9288
330
198CE059C9C9D43
100
AcDbEntity
  8
0
 62
     0
100
AcDbLine
 10
289.5759075392862
 20
253.128547021389
 30
0.0
 11
287.8487073588093
 21
254.8557472018659
 31
0.0
  0
LINE
  5
198CE053F9C9289
330
198CE059C9C9D43
100
AcDbEntity
  8
0
 62
     0
100
AcDbLine
 10
289.4362362761155
 20
253.091441589263
 30
0.0
 11
287.6079778285189
 21
254.9197000368597
 31
0.0
  0
LINE
  5
198CE053F9C928A
330
198CE059C9C9D43
100
AcDbEntity
  8
0
 62
     0
100
AcDbLine
 10
289.296565012945
 20
253.0543361571369
 30
0.0
 11
287.4795478584108
 21
254.8713533116712
 31
0.0
  0
LINE
  5
198CE053F9C928B
330
198CE059C9C9D43
100
AcDbEntity
  8
0
 62
     0
100
AcDbLine
 10
289.1568937497744
 20
253.0172307250109
 30
0.0
 11
287.4795478584108
 21
254.6945766163745
 31
0.0
  0
LINE
  5
198CE053F9C928C
330
198CE059C9C9D43
100
AcDbEntity
  8
0
 62
     0
100
AcDbLine
 10
289.0172224866038
 20
252.9801252928848
 30
0.0
 11
287.4795478584108
 21
254.5177999210779
 31
0.0
  0
LINE
  5
198CE053F9C928D
330
198CE059C9C9D43
100
AcDbEntity
  8
0
 62
     0
100
AcDbLine
 10
288.8775512234332
 20
252.9430198607588
 30
0.0
 11
287.4795478584108
 21
254.3410232257813
 31
0.0
  0
LINE
  5
198CE053F9C928E
330
198CE059C9C9D43
100
AcDbEntity
  8
0
 62
     0
100
AcDbLine
 10
288.7378799602626
 20
252.9059144286327
 30
0.0
 11
287.4795478584108
 21
254.1642465304847
 31
0.0
  0
LINE
  5
198CE053F9C928F
330
198CE059C9C9D43
100
AcDbEntity
  8
0
 62
     0
100
AcDbLine
 10
288.5982086970921
 20
252.8688089965067
 30
0.0
 11
287.4795478584108
 21
253.987469835188
 31
0.0
  0
LINE
  5
198CE053F9C9290
330
198CE059C9C9D43
100
AcDbEntity
  8
0
 62
     0
100
AcDbLine
 10
288.4585374339214
 20
252.8317035643806
 30
0.0
 11
287.4795478584108
 21
253.8106931398914
 31
0.0
  0
LINE
  5
198CE053F9C9291
330
198CE059C9C9D43
100
AcDbEntity
  8
0
 62
     0
100
AcDbLine
 10
288.3188661707509
 20
252.7945981322546
 30
0.0
 11
287.4795478584108
 21
253.6339164445947
 31
0.0
  0
LINE
  5
198CE053F9C9292
330
198CE059C9C9D43
100
AcDbEntity
  8
0
 62
     0
100
AcDbLine
 10
288.1791949075802
 20
252.7574927001285
 30
0.0
 11
287.4795478584108
 21
253.4571397492981
 31
0.0
  0
LINE
  5
198CE053F9C9293
330
198CE059C9C9D43
100
AcDbEntity
  8
0
 62
     0
100
AcDbLine
 10
288.0395236444097
 20
252.7203872680025
 30
0.0
 11
287.4795478584108
 21
253.2803630540015
 31
0.0
  0
LINE
  5
198CE053F9C9294
330
198CE059C9C9D43
100
AcDbEntity
  8
0
 62
     0
100
AcDbLine
 10
287.8998523812391
 20
252.6832818358764
 30
0.0
 11
287.4795478584108
 21
253.1035863587048
 31
0.0
  0
LINE
  5
198CE053F9C9295
330
198CE059C9C9D43
100
AcDbEntity
  8
0
 62
     0
100
AcDbLine
 10
287.7601811180685
 20
252.6461764037504
 30
0.0
 11
287.4795478584108
 21
252.9268096634082
 31
0.0
  0
LINE
  5
198CE053F9C9296
330
198CE059C9C9D43
100
AcDbEntity
  8
0
 62
     0
100
AcDbLine
 10
287.6205098548979
 20
252.6090709716243
 30
0.0
 11
287.4795478584108
 21
252.7500329681116
 31
0.0
  0
LINE
  5
198CE053F9C9297
330
198CE059C9C9D43
100
AcDbEntity
  8
0
 62
     0
100
AcDbLine
 10
287.4808385917273
 20
252.5719655394983
 30
0.0
 11
287.4795478584108
 21
252.5732562728149
 31
0.0
  0
LINE
  5
198CE053F9C9298
330
198CE059C9C9D43
100
AcDbEntity
  8
0
 62
     0
100
AcDbLine
 10
290.2742638551391
 20
253.3140741820193
 30
0.0
 11
289.0523550102616
 21
254.5359830268967
 31
0.0
  0
LINE
  5
198CE053F9C9299
330
198CE059C9C9D43
100
AcDbEntity
  8
0
 62
     0
100
AcDbLine
 10
290.4139351183097
 20
253.3511796141453
 30
0.0
 11
289.2930845405521
 21
254.4720301919029
 31
0.0
  0
LINE
  5
198CE053F9C929A
330
198CE059C9C9D43
100
AcDbEntity
  8
0
 62
     0
100
AcDbLine
 10
290.5536063814803
 20
253.3882850462714
 30
0.0
 11
289.5338140708426
 21
254.4080773569091
 31
0.0
  0
LINE
  5
198CE053F9C929B
330
198CE059C9C9D43
100
AcDbEntity
  8
0
 62
     0
100
AcDbLine
 10
290.6932776446508
 20
253.4253904783974
 30
0.0
 11
289.774543601133
 21
254.3441245219153
 31
0.0
  0
LINE
  5
198CE053F9C929C
330
198CE059C9C9D43
100
AcDbEntity
  8
0
 62
     0
100
AcDbLine
 10
290.8329489078214
 20
253.4624959105235
 30
0.0
 11
290.0152731314235
 21
254.2801716869214
 31
0.0
  0
LINE
  5
198CE053F9C929D
330
198CE059C9C9D43
100
AcDbEntity
  8
0
 62
     0
100
AcDbLine
 10
290.9726201709921
 20
253.4996013426495
 30
0.0
 11
290.256002661714
 21
254.2162188519276
 31
0.0
  0
LINE
  5
198CE053F9C929E
330
198CE059C9C9D43
100
AcDbEntity
  8
0
 62
     0
100
AcDbLine
 10
291.1122914341626
 20
253.5367067747756
 30
0.0
 11
290.4967321920044
 21
254.1522660169338
 31
0.0
  0
LINE
  5
198CE053F9C929F
330
198CE059C9C9D43
100
AcDbEntity
  8
0
 62
     0
100
AcDbLine
 10
291.2519626973332
 20
253.5738122069016
 30
0.0
 11
290.7374617222949
 21
254.0883131819399
 31
0.0
  0
LINE
  5
198CE053F9C92A0
330
198CE059C9C9D43
100
AcDbEntity
  8
0
 62
     0
100
AcDbLine
 10
291.3916339605038
 20
253.6109176390277
 30
0.0
 11
290.9781912525854
 21
254.0243603469461
 31
0.0
  0
LINE
  5
198CE053F9C92A1
330
198CE059C9C9D43
100
AcDbEntity
  8
0
 62
     0
100
AcDbLine
 10
291.5313052236744
 20
253.6480230711537
 30
0.0
 11
291.2189207828758
 21
253.9604075119523
 31
0.0
  0
LINE
  5
198CE053F9C92A2
330
198CE059C9C9D43
100
AcDbEntity
  8
0
 62
     0
100
AcDbLine
 10
291.6709764868449
 20
253.6851285032797
 30
0.0
 11
291.4596503131662
 21
253.8964546769585
 31
0.0
  0
LINE
  5
198CE053F9C92A3
330
198CE059C9C9D43
100
AcDbEntity
  8
0
 62
     0
100
AcDbLine
 10
291.8106477500156
 20
253.7222339354058
 30
0.0
 11
291.7003798434567
 21
253.8325018419647
 31
0.0
  0
LINE
  5
198CE053F9C92A4
330
198CE059C9C9D43
100
AcDbEntity
  8
0
 62
     0
100
AcDbLine
 10
291.9503190131862
 20
253.7593393675319
 30
0.0
 11
291.9411093737472
 21
253.7685490069709
 31
0.0
  0
ENDBLK
  5
198CE053F9C92A5
330
198CE059C9C9D43
100
AcDbEntity
  8
0
100
AcDbBlockEnd
  0
BLOCK
  5
198CE059C9C9DD7
330
198CE059C9C9DD5
100
AcDbEntity
  8
0
100
AcDbBlockBegin
  2
GENAXEH
 70
     0
 10
0.0
 20
0.0
 30
0.0
  3
GENAXEH
  1

  0
LINE
  5
198CE059C9C9DD6
330
198CE059C9C9DD5
100
AcDbEntity
  8
0
100
AcDbLine
 10
-1.0
 20
0.0
 30
0.0
 11
1.0
 21
0.0
 31
0.0
  0
ENDBLK
  5
198CE059C9C9DD8
330
198CE059C9C9DD5
100
AcDbEntity
  8
0
100
AcDbBlockEnd
  0
BLOCK
  5
198CE059C9C9DE4
330
198CE059C9C9DE3
100
AcDbEntity
  8
0
100
AcDbBlockBegin
  2
_ACMFILLEDHALF
 70
     0
 10
0.0
 20
0.0
 30
0.0
  3
_ACMFILLEDHALF
  1

  0
TRACE
  5
198CE059C9C9DE6
330
198CE059C9C9DE3
100
AcDbEntity
  8
BEMASSUNG_-PSPAC_
 62
     0
100
AcDbTrace
 10
-0.8
 20
0.0
 30
0.0
 11
-1.0
 21
0.166666666
 31
0.0
 12
0.0
 22
0.0
 32
0.0
 13
0.0
 23
0.0
 33
0.0
  0
LINE
  5
198CE059C9C9DE7
330
198CE059C9C9DE3
100
AcDbEntity
  8
BEMASSUNG_-PSPAC_
 62
     0
100
AcDbLine
 10
-1.0
 20
0.0
 30
0.0
 11
-0.8
 21
0.0
 31
0.0
  0
ENDBLK
  5
198CE059C9C9DE5
330
198CE059C9C9DE3
100
AcDbEntity
  8
0
100
AcDbBlockEnd
  0
BLOCK
  5
198CE059C9C9E8F
330
198CE059C9C9E8E
100
AcDbEntity
  8
0
100
AcDbBlockBegin
  2
*D37
 70
     1
 10
0.0
 20
0.0
 30
0.0
  3
*D37
  1

  0
LINE
  5
198CE059C9C9E9D
330
198CE059C9C9E8E
100
AcDbEntity
  8
BEMASSUNG_-PSPAC_
 62
     0
370
    -2
100
AcDbLine
 10
130.4557199895478
 20
208.9204050010944
 30
0.0
 11
130.4557199895478
 21
193.8854276873818
 31
0.0
  0
LINE
  5
198CE059C9C9E9E
330
198CE059C9C9E8E
100
AcDbEntity
  8
BEMASSUNG_-PSPAC_
 62
     0
370
    -2
100
AcDbLine
 10
137.0557199895478
 20
208.9204050010944
 30
0.0
 11
137.0557199895478
 21
193.8854276873818
 31
0.0
  0
LINE
  5
198CE059C9C9E9F
330
198CE059C9C9E8E
100
AcDbEntity
  8
BEMASSUNG_-PSPAC_
 62
     0
370
    -2
100
AcDbLine
 10
126.9557199895478
 20
195.6854276873818
 30
0.0
 11
123.4557199895478
 21
195.6854276873818
 31
0.0
  0
LINE
  5
198CE059C9C9EA0
330
198CE059C9C9E8E
100
AcDbEntity
  8
BEMASSUNG_-PSPAC_
 62
     0
370
    -2
100
AcDbLine
 10
140.5557199895478
 20
195.6854276873818
 30
0.0
 11
144.0557199895478
 21
195.6854276873818
 31
0.0
  0
MTEXT
  5
198CE059C9C9EA1
102
{ACAD_XDICTIONARY
360
198CE059C9C9F24
102
}
330
198CE059C9C9E8E
100
AcDbEntity
  8
BEMASSUNG_-PSPAC_
 62
     0
100
AcDbMText
 10
144.9173808021997
 20
199.1854276873818
 30
0.0
 40
3.5
 41
0.0
 71
     5
 72
     1
  1
\A1;\U+00F86,5
 73
     1
 44
1.0
1001
ACAD
1000
MTEXTBEGIN
1070
    73
1070
     1
1070
    44
1040
1.0
1070
    74
1070
     0
1000
MTEXTEND
  0
LINE
  5
198CE059C9C9EA2
330
198CE059C9C9E8E
100
AcDbEntity
  8
BEMASSUNG_-PSPAC_
 62
     0
370
    -2
100
AcDbLine
 10
130.4557199895478
 20
195.6854276873818
 30
0.0
 11
137.0557199895478
 21
195.6854276873818
 31
0.0
  0
SOLID
  5
198CE059C9C9EA3
330
198CE059C9C9E8E
100
AcDbEntity
  8
BEMASSUNG_-PSPAC_
 62
     0
100
AcDbTrace
 10
126.9557199895478
 20
196.2687610207152
 30
0.0
 11
126.9557199895478
 21
195.1020943540484
 31
0.0
 12
130.4557199895478
 22
195.6854276873818
 32
0.0
 13
130.4557199895478
 23
195.6854276873818
 33
0.0
  0
SOLID
  5
198CE059C9C9EA4
330
198CE059C9C9E8E
100
AcDbEntity
  8
BEMASSUNG_-PSPAC_
 62
     0
100
AcDbTrace
 10
140.5557199895478
 20
196.2687610207152
 30
0.0
 11
140.5557199895478
 21
195.1020943540484
 31
0.0
 12
137.0557199895478
 22
195.6854276873818
 32
0.0
 13
137.0557199895478
 23
195.6854276873818
 33
0.0
  0
POINT
  5
198CE059C9C9EA5
330
198CE059C9C9E8E
100
AcDbEntity
  8
DEFPOINTS
 62
     0
100
AcDbPoint
 10
130.4557199895478
 20
209.0204050010945
 30
0.0
  0
POINT
  5
198CE059C9C9EA6
330
198CE059C9C9E8E
100
AcDbEntity
  8
DEFPOINTS
 62
     0
100
AcDbPoint
 10
137.0557199895478
 20
209.0204050010945
 30
0.0
  0
POINT
  5
198CE059C9C9EA7
330
198CE059C9C9E8E
100
AcDbEntity
  8
DEFPOINTS
 62
     0
100
AcDbPoint
 10
137.0557199895478
 20
195.6854276873818
 30
0.0
  0
ENDBLK
  5
198CE059C9C9E90
330
198CE059C9C9E8E
100
AcDbEntity
  8
0
100
AcDbBlockEnd
  0
BLOCK
  5
198CE059C9C9EA9
330
198CE059C9C9EA8
100
AcDbEntity
  8
0
100
AcDbBlockBegin
  2
*D38
 70
     1
 10
0.0
 20
0.0
 30
0.0
  3
*D38
  1

  0
LINE
  5
198CE059C9C9EB6
330
198CE059C9C9EA8
100
AcDbEntity
  8
BEMASSUNG_-PSPAC_
 62
     0
370
    -2
100
AcDbLine
 10
310.031334671375
 20
134.4204050010937
 30
0.0
 11
310.031334671375
 21
107.379536749896
 31
0.0
  0
LINE
  5
198CE059C9C9EB7
330
198CE059C9C9EA8
100
AcDbEntity
  8
BEMASSUNG_-PSPAC_
 62
     0
370
    -2
100
AcDbLine
 10
316.031334671375
 20
134.4204050010937
 30
0.0
 11
316.031334671375
 21
107.379536749896
 31
0.0
  0
LINE
  5
198CE059C9C9EB8
330
198CE059C9C9EA8
100
AcDbEntity
  8
BEMASSUNG_-PSPAC_
 62
     0
370
    -2
100
AcDbLine
 10
306.531334671375
 20
109.179536749896
 30
0.0
 11
303.031334671375
 21
109.179536749896
 31
0.0
  0
LINE
  5
198CE059C9C9EB9
330
198CE059C9C9EA8
100
AcDbEntity
  8
BEMASSUNG_-PSPAC_
 62
     0
370
    -2
100
AcDbLine
 10
319.531334671375
 20
109.179536749896
 30
0.0
 11
323.031334671375
 21
109.179536749896
 31
0.0
  0
MTEXT
  5
198CE059C9C9EBA
102
{ACAD_XDICTIONARY
360
198CE059C9C9F26
102
}
330
198CE059C9C9EA8
100
AcDbEntity
  8
BEMASSUNG_-PSPAC_
 62
     0
100
AcDbMText
 10
328.0051522240494
 20
112.697145199556
 30
0.0
 40
3.5
 41
0.0
 71
     5
 72
     1
  1
\A1;\U+00F85,4
 73
     1
 44
1.0
1001
ACAD
1000
MTEXTBEGIN
1070
    73
1070
     1
1070
    44
1040
1.0
1070
    74
1070
     0
1000
MTEXTEND
  0
LINE
  5
198CE059C9C9EBB
330
198CE059C9C9EA8
100
AcDbEntity
  8
BEMASSUNG_-PSPAC_
 62
     0
370
    -2
100
AcDbLine
 10
310.031334671375
 20
109.179536749896
 30
0.0
 11
316.031334671375
 21
109.179536749896
 31
0.0
  0
SOLID
  5
198CE059C9C9EBC
330
198CE059C9C9EA8
100
AcDbEntity
  8
BEMASSUNG_-PSPAC_
 62
     0
100
AcDbTrace
 10
306.531334671375
 20
109.7628700832293
 30
0.0
 11
306.531334671375
 21
108.5962034165627
 31
0.0
 12
310.031334671375
 22
109.179536749896
 32
0.0
 13
310.031334671375
 23
109.179536749896
 33
0.0
  0
SOLID
  5
198CE059C9C9EBD
330
198CE059C9C9EA8
100
AcDbEntity
  8
BEMASSUNG_-PSPAC_
 62
     0
100
AcDbTrace
 10
319.531334671375
 20
109.7628700832293
 30
0.0
 11
319.531334671375
 21
108.5962034165627
 31
0.0
 12
316.031334671375
 22
109.179536749896
 32
0.0
 13
316.031334671375
 23
109.179536749896
 33
0.0
  0
POINT
  5
198CE059C9C9EBE
330
198CE059C9C9EA8
100
AcDbEntity
  8
DEFPOINTS
 62
     0
100
AcDbPoint
 10
310.031334671375
 20
134.5204050010937
 30
0.0
  0
POINT
  5
198CE059C9C9EBF
330
198CE059C9C9EA8
100
AcDbEntity
  8
DEFPOINTS
 62
     0
100
AcDbPoint
 10
316.031334671375
 20
134.5204050010937
 30
0.0
  0
POINT
  5
198CE059C9C9EC0
330
198CE059C9C9EA8
100
AcDbEntity
  8
DEFPOINTS
 62
     0
100
AcDbPoint
 10
316.031334671375
 20
109.179536749896
 30
0.0
  0
ENDBLK
  5
198CE059C9C9EAA
330
198CE059C9C9EA8
100
AcDbEntity
  8
0
100
AcDbBlockEnd
  0
ENDSEC
  0
SECTION
  2
ENTITIES
  0
INSERT
  5
8
330
198CE059C9C9D1F
100
AcDbEntity
  8
ACA_VARSAVE
100
AcDbBlockReference
  2
ACA_SAVE_DONT_PURGE
 10
0.0
 20
0.0
 30
0.0
  0
LINE
  5
940175368B
330
198CE059C9C9D1F
100
AcDbEntity
  8
UMRISS10_-PSPAC_
100
AcDbLine
 10
118.7557199895477
 20
204.0204050010943
 30
0.0
 11
115.754166870554
 21
204.0204050010944
 31
0.0
  0
LINE
  5
940175368D
330
198CE059C9C9D1F
100
AcDbEntity
  8
UMRISS10_-PSPAC_
100
AcDbLine
 10
118.7557199895477
 20
159.0204050010944
 30
0.0
 11
115.754166870554
 21
159.0204050010944
 31
0.0
  0
LINE
  5
9401753690
330
198CE059C9C9D1F
100
AcDbEntity
  8
UMRISS10_-PSPAC_
100
AcDbLine
 10
218.7557199895477
 20
233.5204050010938
 30
0.0
 11
218.7557199895477
 21
128.6273764461184
 31
0.0
  0
ARC
  5
940175369D
330
198CE059C9C9D1F
100
AcDbEntity
  8
UMRISS10_-PSPAC_
100
AcDbCircle
 10
210.8057199895478
 20
129.5204050010937
 30
0.0
 40
8.0
100
AcDbArc
 50
270.0
 51
353.5907960217825
  0
LINE
  5
94017536A2
330
198CE059C9C9D1F
100
AcDbEntity
  8
ACHSEN
100
AcDbLine
 10
168.7557199895477
 20
133.5204050010944
 30
0.0
 11
168.7557199895477
 21
139.5704050010944
 31
0.0
  0
LINE
  5
94017536A3
330
198CE059C9C9D1F
100
AcDbEntity
  8
UMRISS10_-PSPAC_
100
AcDbLine
 10
163.7057199895477
 20
140.0204050010944
 30
0.0
 11
163.7057199895477
 21
133.5204050010944
 31
0.0
  0
LINE
  5
94017536A4
330
198CE059C9C9D1F
100
AcDbEntity
  8
UMRISS10_-PSPAC_
100
AcDbLine
 10
173.8057199895477
 20
140.0204050010944
 30
0.0
 11
173.8057199895477
 21
133.5204050010944
 31
0.0
  0
LINE
  5
94017536A7
330
198CE059C9C9D1F
100
AcDbEntity
  8
ACHSEN
100
AcDbLine
 10
168.7557199895477
 20
133.5204050010944
 30
0.0
 11
174.8057199895477
 21
133.5204050010944
 31
0.0
  0
ARC
  5
94017536A8
330
198CE059C9C9D1F
100
AcDbEntity
  8
UMRISS10_-PSPAC_
100
AcDbCircle
 10
168.7557199895477
 20
133.5204050010944
 30
0.0
 40
5.049999999999997
100
AcDbArc
 50
180.0
 51
0.0
  0
LINE
  5
94017536AC
330
198CE059C9C9D1F
100
AcDbEntity
  8
ACHSEN
100
AcDbLine
 10
168.7557199895477
 20
133.5204050010944
 30
0.0
 11
168.7557199895477
 21
127.4704050010944
 31
0.0
  0
LINE
  5
94017536AD
330
198CE059C9C9D1F
100
AcDbEntity
  8
ACHSEN
100
AcDbLine
 10
168.7557199895477
 20
133.5204050010944
 30
0.0
 11
162.7057199895477
 21
133.5204050010944
 31
0.0
  0
LINE
  5
94017536B3
330
198CE059C9C9D1F
100
AcDbEntity
  8
ACHSEN
100
AcDbLine
 10
168.7557199895477
 20
152.5204050010944
 30
0.0
 11
180.8557199895477
 21
152.5204050010944
 31
0.0
  0
ARC
  5
94017536B5
330
198CE059C9C9D1F
100
AcDbEntity
  8
UMRISS10_-PSPAC_
100
AcDbCircle
 10
168.7557199895477
 20
152.5204050010944
 30
0.0
 40
11.1
100
AcDbArc
 50
309.0966646597915
 51
230.9033353402085
  0
LINE
  5
94017536E9
330
198CE059C9C9D1F
100
AcDbEntity
  8
ACHSEN
100
AcDbLine
 10
168.7557199895477
 20
154.6204050010944
 30
0.0
 11
168.7557199895477
 21
144.6204050010944
 31
0.0
  0
LINE
  5
94017536EA
330
198CE059C9C9D1F
100
AcDbEntity
  8
ACHSEN
100
AcDbLine
 10
168.7557199895477
 20
152.5204050010944
 30
0.0
 11
168.7557199895477
 21
140.4204050010944
 31
0.0
  0
LINE
  5
94017536EC
330
198CE059C9C9D1F
100
AcDbEntity
  8
ACHSEN
100
AcDbLine
 10
168.7557199895477
 20
152.5204050010944
 30
0.0
 11
156.6557199895477
 21
152.5204050010944
 31
0.0
  0
LINE
  5
94017536EE
330
198CE059C9C9D1F
100
AcDbEntity
  8
ACHSEN
100
AcDbLine
 10
168.7557199895477
 20
154.6204050010944
 30
0.0
 11
168.7557199895477
 21
164.6204050010943
 31
0.0
  0
LINE
  5
94017536EF
330
198CE059C9C9D1F
100
AcDbEntity
  8
ACHSEN
100
AcDbLine
 10
168.7557199895477
 20
152.5204050010944
 30
0.0
 11
168.7557199895477
 21
164.6204050010944
 31
0.0
  0
ARC
  5
94017536FD
330
198CE059C9C9D1F
100
AcDbEntity
  8
UMRISS10_-PSPAC_
100
AcDbCircle
 10
210.7557199895477
 20
233.5204050010938
 30
0.0
 40
8.0
100
AcDbArc
 50
0.0
 51
90.0
  0
ARC
  5
94017536FE
330
198CE059C9C9D1F
100
AcDbEntity
  8
UMRISS10_-PSPAC_
100
AcDbCircle
 10
168.7557199895477
 20
230.3204050010944
 30
0.0
 40
5.099999999999994
100
AcDbArc
 50
0.0
 51
180.0
  0
LINE
  5
94017536FF
330
198CE059C9C9D1F
100
AcDbEntity
  8
ACHSEN
100
AcDbLine
 10
168.7557199895477
 20
230.3204050010944
 30
0.0
 11
174.8557199895477
 21
230.3204050010944
 31
0.0
  0
LINE
  5
9401753700
330
198CE059C9C9D1F
100
AcDbEntity
  8
ACHSEN
100
AcDbLine
 10
168.7557199895477
 20
210.5204050010944
 30
0.0
 11
178.3557199895477
 21
210.5204050010944
 31
0.0
  0
ARC
  5
9401753705
330
198CE059C9C9D1F
100
AcDbEntity
  8
UMRISS10_-PSPAC_
100
AcDbCircle
 10
168.7557199895477
 20
210.5204050010944
 30
0.0
 40
8.600000000000022
100
AcDbArc
 50
126.371842409934
 51
53.62815759006553
  0
LINE
  5
9401753708
330
198CE059C9C9D1F
100
AcDbEntity
  8
UMRISS10_-PSPAC_
100
AcDbLine
 10
173.8557199895477
 20
230.3204050010944
 30
0.0
 11
173.8557199895477
 21
217.444998852
 31
0.0
  0
LINE
  5
940175372B
330
198CE059C9C9D1F
100
AcDbEntity
  8
UMRISS10_-PSPAC_
100
AcDbLine
 10
163.6557199895477
 20
230.3204050010944
 30
0.0
 11
163.6557199895477
 21
217.444998852
 31
0.0
  0
LINE
  5
940175372C
330
198CE059C9C9D1F
100
AcDbEntity
  8
ACHSEN
100
AcDbLine
 10
168.7557199895477
 20
210.5204050010944
 30
0.0
 11
168.7557199895477
 21
200.9204050010944
 31
0.0
  0
LINE
  5
9401753737
330
198CE059C9C9D1F
100
AcDbEntity
  8
ACHSEN
100
AcDbLine
 10
168.7557199895477
 20
210.5204050010944
 30
0.0
 11
159.1557199895477
 21
210.5204050010944
 31
0.0
  0
LINE
  5
9401753738
330
198CE059C9C9D1F
100
AcDbEntity
  8
ACHSEN
100
AcDbLine
 10
168.7557199895477
 20
210.5204050010944
 30
0.0
 11
168.7557199895477
 21
220.1204050010943
 31
0.0
  0
LINE
  5
9401753739
330
198CE059C9C9D1F
100
AcDbEntity
  8
ACHSEN
100
AcDbLine
 10
168.7557199895477
 20
230.3204050010944
 30
0.0
 11
168.7557199895477
 21
236.4204050010944
 31
0.0
  0
LINE
  5
940175373A
330
198CE059C9C9D1F
100
AcDbEntity
  8
ACHSEN
100
AcDbLine
 10
168.7557199895477
 20
230.3204050010944
 30
0.0
 11
168.7557199895477
 21
224.2204050010944
 31
0.0
  0
LINE
  5
940175373B
330
198CE059C9C9D1F
100
AcDbEntity
  8
ACHSEN
100
AcDbLine
 10
168.7557199895477
 20
230.3204050010944
 30
0.0
 11
162.6557199895477
 21
230.3204050010944
 31
0.0
  0
LINE
  5
9401753744
330
198CE059C9C9D1F
100
AcDbEntity
  8
UMRISS10_-PSPAC_
100
AcDbLine
 10
118.7557199895477
 20
239.0204050010944
 30
0.0
 11
118.7557199895477
 21
124.0204050010944
 31
0.0
  0
LINE
  5
9401757EAF
330
198CE059C9C9D1F
100
AcDbEntity
  8
UMRISS10_-PSPAC_
100
AcDbLine
 10
210.8057199895478
 20
121.5204050010944
 30
0.0
 11
120.2557199895478
 21
121.5204050010944
 31
0.0
  0
LINE
  5
9401757EB0
330
198CE059C9C9D1F
100
AcDbEntity
  8
UMRISS10_-PSPAC_
100
AcDbLine
 10
210.7557199895477
 20
241.5204050010944
 30
0.0
 11
120.2557199895478
 21
241.5204050010944
 31
0.0
  0
LINE
  5
94017599CC
330
198CE059C9C9D1F
100
AcDbEntity
  8
UMRISS10_-PSPAC_
100
AcDbLine
 10
218.7557199895477
 20
233.5204050010944
 30
0.0
 11
218.7557199895477
 21
128.627376446119
 31
0.0
  0
LINE
  5
94017599E3
330
198CE059C9C9D1F
100
AcDbEntity
  8
ACHSEN_-PSPAC_
100
AcDbLine
 10
126.7557199895478
 20
220.5204050010944
 30
0.0
 11
126.7557199895478
 21
230.5204050010944
 31
0.0
  0
LINE
  5
94017599E5
330
198CE059C9C9D1F
100
AcDbEntity
  8
ACHSEN_-PSPAC_
100
AcDbLine
 10
126.7557199895478
 20
220.5204050010944
 30
0.0
 11
126.7557199895478
 21
210.5204050010944
 31
0.0
  0
CIRCLE
  5
94017599E7
330
198CE059C9C9D1F
100
AcDbEntity
  8
UMRISS10_-PSPAC_
100
AcDbCircle
 10
126.7557199895478
 20
220.5204050010944
 30
0.0
 40
3.299999999999999
  0
CIRCLE
  5
940175B304
330
198CE059C9C9D1F
100
AcDbEntity
  8
UMRISS10_-PSPAC_
100
AcDbCircle
 10
126.7557199895478
 20
142.5204050010944
 30
0.0
 40
3.299999999999999
  0
LINE
  5
940175B306
330
198CE059C9C9D1F
100
AcDbEntity
  8
ACHSEN_-PSPAC_
100
AcDbLine
 10
126.7557199895478
 20
142.5204050010944
 30
0.0
 11
126.7557199895478
 21
149.5204050010944
 31
0.0
  0
LINE
  5
940175B307
330
198CE059C9C9D1F
100
AcDbEntity
  8
ACHSEN_-PSPAC_
100
AcDbLine
 10
126.7557199895478
 20
142.5204050010944
 30
0.0
 11
133.7557199895478
 21
142.5204050010944
 31
0.0
  0
LINE
  5
940175B308
330
198CE059C9C9D1F
100
AcDbEntity
  8
ACHSEN_-PSPAC_
100
AcDbLine
 10
126.7557199895478
 20
142.5204050010944
 30
0.0
 11
126.7557199895478
 21
135.5204050010944
 31
0.0
  0
LINE
  5
940175B309
330
198CE059C9C9D1F
100
AcDbEntity
  8
ACHSEN_-PSPAC_
100
AcDbLine
 10
126.7557199895478
 20
142.5204050010944
 30
0.0
 11
119.7557199895477
 21
142.5204050010944
 31
0.0
  0
LINE
  5
940175B6D7
330
198CE059C9C9D1F
100
AcDbEntity
  8
ACHSEN_-PSPAC_
100
AcDbLine
 10
126.7557199895478
 20
220.5204050010944
 30
0.0
 11
116.7557199895477
 21
220.5204050010944
 31
0.0
  0
LINE
  5
940175B6D8
330
198CE059C9C9D1F
100
AcDbEntity
  8
ACHSEN_-PSPAC_
100
AcDbLine
 10
126.7557199895478
 20
220.5204050010944
 30
0.0
 11
136.7557199895478
 21
220.5204050010944
 31
0.0
  0
CIRCLE
  5
940175C22C
330
198CE059C9C9D1F
100
AcDbEntity
  8
UMRISS10_-PSPAC_
100
AcDbCircle
 10
133.7557199895478
 20
209.0204050010945
 30
0.0
 40
3.299999999999999
  0
LINE
  5
940175C2AF
330
198CE059C9C9D1F
100
AcDbEntity
  8
ACHSEN_-PSPAC_
100
AcDbLine
 10
133.7557199895478
 20
209.0204050010945
 30
0.0
 11
127.7557199895478
 21
209.0204050010945
 31
0.0
  0
LINE
  5
940175C2B1
330
198CE059C9C9D1F
100
AcDbEntity
  8
ACHSEN_-PSPAC_
100
AcDbLine
 10
133.7557199895478
 20
209.0204050010945
 30
0.0
 11
139.7557199895478
 21
209.0204050010945
 31
0.0
  0
LINE
  5
940175C2B2
330
198CE059C9C9D1F
100
AcDbEntity
  8
ACHSEN_-PSPAC_
100
AcDbLine
 10
133.7557199895477
 20
154.0204050010943
 30
0.0
 11
127.7557199895478
 21
154.0204050010943
 31
0.0
  0
LINE
  5
940175C2B4
330
198CE059C9C9D1F
100
AcDbEntity
  8
ACHSEN_-PSPAC_
100
AcDbLine
 10
133.7557199895477
 20
154.0204050010943
 30
0.0
 11
139.7557199895477
 21
154.0204050010943
 31
0.0
  0
CIRCLE
  5
940175C2B7
330
198CE059C9C9D1F
100
AcDbEntity
  8
UMRISS10_-PSPAC_
100
AcDbCircle
 10
133.7557199895477
 20
154.0204050010943
 30
0.0
 40
3.299999999999999
  0
CIRCLE
  5
940175C3EA
330
198CE059C9C9D1F
100
AcDbEntity
  8
UMRISS10_-PSPAC_
100
AcDbCircle
 10
203.7557199895478
 20
209.0204050010945
 30
0.0
 40
3.299999999999999
  0
CIRCLE
  5
940175C661
330
198CE059C9C9D1F
100
AcDbEntity
  8
UMRISS10_-PSPAC_
100
AcDbCircle
 10
203.7557199895478
 20
154.0204050010943
 30
0.0
 40
3.299999999999999
  0
CIRCLE
  5
940175C879
330
198CE059C9C9D1F
100
AcDbEntity
  8
UMRISS10_-PSPAC_
100
AcDbCircle
 10
210.7557199895477
 20
220.5204050010944
 30
0.0
 40
3.299999999999999
  0
CIRCLE
  5
940175C87B
330
198CE059C9C9D1F
100
AcDbEntity
  8
UMRISS10_-PSPAC_
100
AcDbCircle
 10
210.7557199895477
 20
142.5204050010944
 30
0.0
 40
3.299999999999999
  0
LINE
  5
940175D96F
330
198CE059C9C9D1F
100
AcDbEntity
  8
UMRISS10_-PSPAC_
100
AcDbLine
 10
323.031334671375
 20
241.5204050010938
 30
0.0
 11
303.031334671375
 21
241.5204050010938
 31
0.0
  0
LINE
  5
940175D970
330
198CE059C9C9D1F
100
AcDbEntity
  8
UMRISS10_-PSPAC_
100
AcDbLine
 10
323.031334671375
 20
121.5204050010931
 30
0.0
 11
303.031334671375
 21
121.5204050010931
 31
0.0
  0
LINE
  5
940175D971
330
198CE059C9C9D1F
100
AcDbEntity
  8
UMRISS10_-PSPAC_
100
AcDbLine
 10
305.531334671375
 20
241.5204050010938
 30
0.0
 11
305.531334671375
 21
121.5204050010931
 31
0.0
  0
LINE
  5
940175D972
330
198CE059C9C9D1F
100
AcDbEntity
  8
UMRISS10_-PSPAC_
100
AcDbLine
 10
320.531334671375
 20
241.5204050010938
 30
0.0
 11
320.531334671375
 21
121.5204050010931
 31
0.0
  0
LINE
  5
940175D977
330
198CE059C9C9D1F
100
AcDbEntity
  8
UMRISS10_-PSPAC_
100
AcDbLine
 10
318.031334671375
 20
204.0204050010935
 30
0.0
 11
308.031334671375
 21
204.0204050010933
 31
0.0
  0
LINE
  5
940175D978
330
198CE059C9C9D1F
100
AcDbEntity
  8
UMRISS10_-PSPAC_
100
AcDbLine
 10
318.031334671375
 20
159.0204050010934
 30
0.0
 11
308.031334671375
 21
159.0204050010934
 31
0.0
  0
LINE
  5
940175D97B
330
198CE059C9C9D1F
100
AcDbEntity
  8
UMRISS10_-PSPAC_
100
AcDbLine
 10
308.031334671375
 20
204.0204050010935
 30
0.0
 11
308.031334671375
 21
159.0204050010934
 31
0.0
  0
LINE
  5
940175D97C
330
198CE059C9C9D1F
100
AcDbEntity
  8
UMRISS10_-PSPAC_
100
AcDbLine
 10
318.031334671375
 20
204.0204050010935
 30
0.0
 11
318.031334671375
 21
159.0204050010934
 31
0.0
  0
CIRCLE
  5
940175D987
330
198CE059C9C9D1F
100
AcDbEntity
  8
UMRISS10_-PSPAC_
100
AcDbCircle
 10
313.031334671375
 20
230.3204050010938
 30
0.0
 40
3.0
  0
CIRCLE
  5
940175D988
330
198CE059C9C9D1F
100
AcDbEntity
  8
UMRISS10_-PSPAC_
100
AcDbCircle
 10
313.031334671375
 20
230.3204050010938
 30
0.0
 40
5.0
  0
CIRCLE
  5
940175D989
330
198CE059C9C9D1F
100
AcDbEntity
  8
UMRISS10_-PSPAC_
100
AcDbCircle
 10
313.031334671375
 20
134.5204050010937
 30
0.0
 40
5.0
  0
CIRCLE
  5
940175D98A
330
198CE059C9C9D1F
100
AcDbEntity
  8
UMRISS10_-PSPAC_
100
AcDbCircle
 10
313.031334671375
 20
134.5204050010937
 30
0.0
 40
3.0
  0
LINE
  5
940175D98B
330
198CE059C9C9D1F
100
AcDbEntity
  8
ACHSEN_-PSPAC_
100
AcDbLine
 10
313.031334671375
 20
230.3204050010938
 30
0.0
 11
313.031334671375
 21
244.5459099040987
 31
0.0
  0
LINE
  5
940175D98C
330
198CE059C9C9D1F
100
AcDbEntity
  8
ACHSEN_-PSPAC_
100
AcDbLine
 10
313.031334671375
 20
230.3204050010938
 30
0.0
 11
306.031334671375
 21
230.3204050010938
 31
0.0
  0
LINE
  5
940175D98D
330
198CE059C9C9D1F
100
AcDbEntity
  8
ACHSEN_-PSPAC_
100
AcDbLine
 10
313.031334671375
 20
230.3204050010938
 30
0.0
 11
313.031334671375
 21
134.5204050010937
 31
0.0
  0
LINE
  5
940175D98E
330
198CE059C9C9D1F
100
AcDbEntity
  8
ACHSEN_-PSPAC_
100
AcDbLine
 10
313.031334671375
 20
230.3204050010938
 30
0.0
 11
320.031334671375
 21
230.3204050010938
 31
0.0
  0
LINE
  5
940175D990
330
198CE059C9C9D1F
100
AcDbEntity
  8
ACHSEN_-PSPAC_
100
AcDbLine
 10
313.031334671375
 20
134.5204050010937
 30
0.0
 11
306.031334671375
 21
134.5204050010937
 31
0.0
  0
LINE
  5
940175D991
330
198CE059C9C9D1F
100
AcDbEntity
  8
ACHSEN_-PSPAC_
100
AcDbLine
 10
313.031334671375
 20
134.5204050010937
 30
0.0
 11
313.031334671375
 21
117.2956346387949
 31
0.0
  0
LINE
  5
940175D992
330
198CE059C9C9D1F
100
AcDbEntity
  8
ACHSEN_-PSPAC_
100
AcDbLine
 10
313.031334671375
 20
134.5204050010937
 30
0.0
 11
320.031334671375
 21
134.5204050010937
 31
0.0
  0
LINE
  5
9401761207
330
198CE059C9C9D1F
100
AcDbEntity
  8
UMRISS10_-PSPAC_
100
AcDbLine
 10
323.031334671375
 20
241.5204050010938
 30
0.0
 11
323.031334671375
 21
121.5204050010931
 31
0.0
  0
LINE
  5
9401761208
330
198CE059C9C9D1F
100
AcDbEntity
  8
UMRISS10_-PSPAC_
100
AcDbLine
 10
303.031334671375
 20
241.5204050010938
 30
0.0
 11
303.031334671375
 21
121.5204050010931
 31
0.0
  0
LINE
  5
542144B02D1
330
198CE059C9C9D1F
100
AcDbEntity
  8
UMRISS10_-PSPAC_
100
AcDbLine
 10
118.7557199895477
 20
240.0204050010944
 30
0.0
 11
118.7557199895478
 21
123.0204050010944
 31
0.0
  0
DIMENSION
  5
542144B0D13
330
198CE059C9C9D1F
100
AcDbEntity
  8
BEMASSUNG_-PSPAC_
100
AcDbDimension
  2
*D25
 10
323.031334671375
 20
254.3333448013956
 30
0.0
 11
311.0178647055215
 21
258.6018681311352
 31
0.0
 70
   128
  1
18
 71
     5
 42
-1.0
  3
ACA_CADIMENU
100
AcDbAlignedDimension
 13
303.031334671375
 23
241.5204050010938
 33
0.0
 14
323.031334671375
 24
241.5204050010938
 34
0.0
100
AcDbRotatedDimension
  0
LINE
  5
1A172064B182
330
198CE059C9C9D1F
100
AcDbEntity
  8
ACHSEN_-PSPAC_
100
AcDbLine
 10
210.7557199895477
 20
220.5204050010944
 30
0.0
 11
215.7557199895478
 21
220.5204050010944
 31
0.0
  0
LINE
  5
1A172064B184
330
198CE059C9C9D1F
100
AcDbEntity
  8
ACHSEN_-PSPAC_
100
AcDbLine
 10
210.7557199895477
 20
220.5204050010944
 30
0.0
 11
210.7557199895477
 21
225.5204050010944
 31
0.0
  0
LINE
  5
1A172064B186
330
198CE059C9C9D1F
100
AcDbEntity
  8
ACHSEN_-PSPAC_
100
AcDbLine
 10
210.7557199895477
 20
220.5204050010944
 30
0.0
 11
205.7557199895478
 21
220.5204050010944
 31
0.0
  0
LINE
  5
1A172064B187
330
198CE059C9C9D1F
100
AcDbEntity
  8
ACHSEN_-PSPAC_
100
AcDbLine
 10
210.7557199895477
 20
220.5204050010944
 30
0.0
 11
210.7557199895477
 21
215.5204050010944
 31
0.0
  0
LINE
  5
1A172064B1A0
330
198CE059C9C9D1F
100
AcDbEntity
  8
ACHSEN_-PSPAC_
100
AcDbLine
 10
210.7557199895477
 20
142.5204050010944
 30
0.0
 11
215.7557199895478
 21
142.5204050010944
 31
0.0
  0
LINE
  5
1A172064B1A2
330
198CE059C9C9D1F
100
AcDbEntity
  8
ACHSEN_-PSPAC_
100
AcDbLine
 10
210.7557199895477
 20
142.5204050010944
 30
0.0
 11
210.7557199895477
 21
137.5204050010944
 31
0.0
  0
LINE
  5
1A172064B1A4
330
198CE059C9C9D1F
100
AcDbEntity
  8
ACHSEN_-PSPAC_
100
AcDbLine
 10
210.7557199895477
 20
142.5204050010944
 30
0.0
 11
205.7557199895478
 21
142.5204050010944
 31
0.0
  0
LINE
  5
1A172064B1A5
330
198CE059C9C9D1F
100
AcDbEntity
  8
ACHSEN_-PSPAC_
100
AcDbLine
 10
210.7557199895477
 20
142.5204050010944
 30
0.0
 11
210.7557199895477
 21
147.5204050010944
 31
0.0
  0
LINE
  5
1A172064B1D3
330
198CE059C9C9D1F
100
AcDbEntity
  8
ACHSEN_-PSPAC_
100
AcDbLine
 10
203.7557199895478
 20
154.0204050010943
 30
0.0
 11
203.7557199895478
 21
159.0204050010943
 31
0.0
  0
LINE
  5
1A172064B1D4
330
198CE059C9C9D1F
100
AcDbEntity
  8
ACHSEN_-PSPAC_
100
AcDbLine
 10
203.7557199895478
 20
154.0204050010943
 30
0.0
 11
208.7557199895477
 21
154.0204050010943
 31
0.0
  0
LINE
  5
1A172064B1D5
330
198CE059C9C9D1F
100
AcDbEntity
  8
ACHSEN_-PSPAC_
100
AcDbLine
 10
203.7557199895478
 20
154.0204050010943
 30
0.0
 11
203.7557199895478
 21
149.0204050010943
 31
0.0
  0
LINE
  5
1A172064B1D6
330
198CE059C9C9D1F
100
AcDbEntity
  8
ACHSEN_-PSPAC_
100
AcDbLine
 10
203.7557199895478
 20
154.0204050010943
 30
0.0
 11
198.7557199895477
 21
154.0204050010943
 31
0.0
  0
LINE
  5
1A172064B1D7
330
198CE059C9C9D1F
100
AcDbEntity
  8
ACHSEN_-PSPAC_
100
AcDbLine
 10
203.7557199895478
 20
209.0204050010945
 30
0.0
 11
203.7557199895478
 21
214.0204050010944
 31
0.0
  0
LINE
  5
1A172064B1D8
330
198CE059C9C9D1F
100
AcDbEntity
  8
ACHSEN_-PSPAC_
100
AcDbLine
 10
203.7557199895478
 20
209.0204050010945
 30
0.0
 11
208.7557199895477
 21
209.0204050010945
 31
0.0
  0
LINE
  5
1A172064B1D9
330
198CE059C9C9D1F
100
AcDbEntity
  8
ACHSEN_-PSPAC_
100
AcDbLine
 10
203.7557199895478
 20
209.0204050010945
 30
0.0
 11
203.7557199895478
 21
204.0204050010944
 31
0.0
  0
LINE
  5
1A172064B1DA
330
198CE059C9C9D1F
100
AcDbEntity
  8
ACHSEN_-PSPAC_
100
AcDbLine
 10
203.7557199895478
 20
209.0204050010945
 30
0.0
 11
198.7557199895477
 21
209.0204050010945
 31
0.0
  0
LINE
  5
1A172064B1EC
330
198CE059C9C9D1F
100
AcDbEntity
  8
ACHSEN_-PSPAC_
100
AcDbLine
 10
133.7557199895477
 20
209.0204050010945
 30
0.0
 11
133.7557199895477
 21
214.0204050010944
 31
0.0
  0
LINE
  5
1A172064B1ED
330
198CE059C9C9D1F
100
AcDbEntity
  8
ACHSEN_-PSPAC_
100
AcDbLine
 10
133.7557199895477
 20
209.0204050010945
 30
0.0
 11
133.7557199895477
 21
204.0204050010944
 31
0.0
  0
LINE
  5
1A172064B1EE
330
198CE059C9C9D1F
100
AcDbEntity
  8
ACHSEN_-PSPAC_
100
AcDbLine
 10
133.7557199895477
 20
154.0204050010943
 30
0.0
 11
133.7557199895477
 21
159.0204050010943
 31
0.0
  0
LINE
  5
1A172064B1EF
330
198CE059C9C9D1F
100
AcDbEntity
  8
ACHSEN_-PSPAC_
100
AcDbLine
 10
133.7557199895477
 20
154.0204050010943
 30
0.0
 11
133.7557199895477
 21
149.0204050010943
 31
0.0
  0
LINE
  5
A369DA2F8B3A
330
198CE059C9C9D1F
100
AcDbEntity
  8
ACHSEN_-PSPAC_
100
AcDbLine
 10
206.9187103150526
 20
181.5204050010944
 30
0.0
 11
225.0762234114345
 21
181.5204050010944
 31
0.0
  0
LINE
  5
A369DA2F8B3E
330
198CE059C9C9D1F
100
AcDbEntity
  8
ACHSEN_-PSPAC_
100
AcDbLine
 10
111.1298957293603
 20
181.5204050010943
 30
0.0
 11
206.9187103150526
 21
181.5204050010944
 31
0.0
  0
DIMENSION
  5
A369DA2F8E39
330
198CE059C9C9D1F
100
AcDbEntity
  8
BEMASSUNG_-PSPAC_
100
AcDbDimension
  2
*D7
 10
168.7557199895477
 20
251.3935282501535
 30
0.0
 11
143.7557199895477
 21
254.8935282501536
 31
0.0
 12
-4.044841413994674
 22
0.0
 32
0.0
  1
D
 71
     5
 42
-1.0
  3
ACA_CADIMENU
100
AcDbAlignedDimension
 13
118.7557199895477
 23
237.991833572523
 33
0.0
 14
168.7557199895477
 24
235.4204050010944
 34
0.0
100
AcDbRotatedDimension
  0
DIMENSION
  5
A369DA2F8FDC
330
198CE059C9C9D1F
100
AcDbEntity
  8
BEMASSUNG_-PSPAC_
100
AcDbDimension
  2
*D5
 10
218.7557199895477
 20
251.3935282501535
 30
0.0
 11
193.7557199895477
 21
254.8935282501536
 31
0.0
 12
22.06276649694917
 22
0.0
 32
0.0
 71
     5
 42
-1.0
  3
ACA_CADIMENU
100
AcDbAlignedDimension
 13
168.7557199895477
 23
235.5204050010944
 33
0.0
 14
218.7557199895477
 24
233.5204050010944
 34
0.0
100
AcDbRotatedDimension
  0
LINE
  5
A369DA2F926B
330
198CE059C9C9D1F
100
AcDbEntity
  8
ACHSEN_-PSPAC_
100
AcDbLine
 10
138.4395160554179
 20
230.3204050010944
 30
0.0
 11
110.8610569811379
 21
230.3204050010944
 31
0.0
  0
LINE
  5
A369DA2F926C
330
198CE059C9C9D1F
100
AcDbEntity
  8
ACHSEN_-PSPAC_
100
AcDbLine
 10
138.4395160554179
 20
134.5204050010944
 30
0.0
 11
110.8610569811379
 21
134.5204050010943
 31
0.0
  0
LINE
  5
A369DA2F9A6E
330
198CE059C9C9D1F
100
AcDbEntity
  8
UMRISS10_-PSPAC_
100
AcDbLine
 10
115.754166870554
 20
204.0204050010944
 30
0.0
 11
115.754166870554
 21
159.0204050010944
 31
0.0
  0
LINE
  5
A369DA2F9B8D
330
198CE059C9C9D1F
100
AcDbEntity
  8
HILFSPUNKTE_-PSPAC_
100
AcDbLine
 10
103.754166870554
 20
204.0204050010944
 30
0.0
 11
103.754166870554
 21
159.0204050010944
 31
0.0
  0
LINE
  5
A369DA2F9B8E
330
198CE059C9C9D1F
100
AcDbEntity
  8
HILFSPUNKTE_-PSPAC_
100
AcDbLine
 10
91.75416687055403
 20
204.0204050010944
 30
0.0
 11
91.75416687055403
 21
159.0204050010944
 31
0.0
  0
LINE
  5
A369DA2F9B8F
330
198CE059C9C9D1F
100
AcDbEntity
  8
HILFSPUNKTE_-PSPAC_
100
AcDbLine
 10
115.754166870554
 20
204.0204050010944
 30
0.0
 11
91.75416687055403
 21
204.0204050010944
 31
0.0
  0
LINE
  5
A369DA2F9B90
330
198CE059C9C9D1F
100
AcDbEntity
  8
HILFSPUNKTE_-PSPAC_
100
AcDbLine
 10
115.754166870554
 20
159.0204050010944
 30
0.0
 11
91.75416687055403
 21
159.0204050010944
 31
0.0
  0
DIMENSION
  5
A369DA2FA987
330
198CE059C9C9D1F
100
AcDbEntity
  8
BEMASSUNG_-PSPAC_
100
AcDbDimension
  2
*D6
 10
347.4505917323853
 20
121.5204050010931
 30
0.0
 11
343.9505917323854
 21
181.5204050010934
 31
0.0
 12
-4.118830509537474
 22
-0.0000000000005969
 32
0.0
 71
     5
 42
-1.0
  3
ACA_CADIMENU
100
AcDbAlignedDimension
 13
323.031334671375
 23
241.5204050010938
 33
0.0
 14
323.031334671375
 24
121.5204050010931
 34
0.0
 50
90.0
100
AcDbRotatedDimension
  0
DIMENSION
  5
A369DA2FB49B
330
198CE059C9C9D1F
100
AcDbEntity
  8
BEMASSUNG_-PSPAC_
100
AcDbDimension
  2
*D29
 10
133.7557199895477
 20
109.5474501598996
 30
0.0
 11
151.2557199895477
 21
113.0474501598996
 31
0.0
  1
D-15
 71
     5
 42
-1.0
  3
ACA_CADIMENU
100
AcDbAlignedDimension
 13
168.7557199895477
 23
127.4704050010944
 33
0.0
 14
133.7557199895477
 24
149.0204050010943
 34
0.0
100
AcDbRotatedDimension
  0
DIMENSION
  5
A369DA2FBA76
330
198CE059C9C9D1F
100
AcDbEntity
  8
BEMASSUNG_-PSPAC_
100
AcDbDimension
  2
*D9
 10
103.754166870554
 20
109.5474501598996
 30
0.0
 11
97.73175791729023
 21
113.0584691451449
 31
0.0
 12
-4.044841413994674
 22
0.0
 32
0.0
 70
   128
 71
     5
 42
-1.0
  3
ACA_CADIMENU
100
AcDbAlignedDimension
 13
91.75416687055403
 23
159.0204050010944
 33
0.0
 14
103.754166870554
 24
159.0204050010944
 34
0.0
100
AcDbRotatedDimension
  0
DIMENSION
  5
A369DA2FBC4B
330
198CE059C9C9D1F
100
AcDbEntity
  8
BEMASSUNG_-PSPAC_
100
AcDbDimension
  2
*D10
 10
115.754166870554
 20
109.5474501598996
 30
0.0
 11
109.6369659408524
 21
113.0584691451449
 31
0.0
 12
-4.044841413994674
 22
0.0
 32
0.0
 70
   128
 71
     5
 42
-1.0
  3
ACA_CADIMENU
100
AcDbAlignedDimension
 13
103.754166870554
 23
159.0204050010944
 33
0.0
 14
115.754166870554
 24
159.0204050010944
 34
0.0
100
AcDbRotatedDimension
  0
DIMENSION
  5
A369DA2FC21C
330
198CE059C9C9D1F
100
AcDbEntity
  8
BEMASSUNG_-PSPAC_
100
AcDbDimension
  2
*D11
 10
118.7557199895477
 20
251.3935282501535
 30
0.0
 11
109.9136292218068
 21
254.8492514289368
 31
0.0
 12
-4.044841413994674
 22
0.0
 32
0.0
 70
   128
 71
     5
 42
-1.0
  3
ACA_CADIMENU
100
AcDbAlignedDimension
 13
115.754166870554
 23
204.0204050010944
 33
0.0
 14
118.7557199895477
 24
238.091833572523
 34
0.0
100
AcDbRotatedDimension
  0
DIMENSION
  5
A369DA2FC8B3
330
198CE059C9C9D1F
100
AcDbEntity
  8
BEMASSUNG_-PSPAC_
100
AcDbDimension
  2
*D30
 10
126.7557199895478
 20
99.99305026509874
 30
0.0
 11
147.7557199895477
 21
103.4930502650987
 31
0.0
  1
D-8
 71
     5
 42
-1.0
  3
ACA_CADIMENU
100
AcDbAlignedDimension
 13
168.7557199895477
 23
127.3704050010944
 33
0.0
 14
126.7557199895478
 24
135.5204050010944
 34
0.0
100
AcDbRotatedDimension
  0
DIMENSION
  5
A369DA2FCA1F
330
198CE059C9C9D1F
100
AcDbEntity
  8
BEMASSUNG_-PSPAC_
100
AcDbDimension
  2
*D13
 10
203.7557199895478
 20
109.5474501598996
 30
0.0
 11
186.2557199895477
 21
113.0474501598996
 31
0.0
 12
-4.044841413994674
 22
0.0
 32
0.0
 71
     5
 42
-1.0
  3
ACA_CADIMENU
100
AcDbAlignedDimension
 13
168.7557199895477
 23
128.4704050010944
 33
0.0
 14
203.7557199895478
 24
149.0204050010943
 34
0.0
100
AcDbRotatedDimension
  0
DIMENSION
  5
A369DA2FCBA1
330
198CE059C9C9D1F
100
AcDbEntity
  8
BEMASSUNG_-PSPAC_
100
AcDbDimension
  2
*D14
 10
210.7557199895477
 20
99.99305026509874
 30
0.0
 11
189.7557199895477
 21
103.4930502650987
 31
0.0
 12
-4.044841413994674
 22
0.0
 32
0.0
 71
     5
 42
-1.0
  3
ACA_CADIMENU
100
AcDbAlignedDimension
 13
168.7557199895477
 23
127.2704050010944
 33
0.0
 14
210.7557199895477
 24
137.5204050010944
 34
0.0
100
AcDbRotatedDimension
  0
DIMENSION
  5
A369DA2FCE6D
330
198CE059C9C9D1F
100
AcDbEntity
  8
BEMASSUNG_-PSPAC_
100
AcDbDimension
  2
*D15
 10
191.6143602400261
 20
154.0204050010943
 30
0.0
 11
187.9372328082324
 21
160.6267373621663
 31
0.0
 12
-4.044841413994674
 22
0.0
 32
0.0
 70
   128
  1
1,5
 71
     5
 42
-1.0
  3
ACA_CADIMENU
100
AcDbAlignedDimension
 13
180.8557199895477
 23
152.5204050010944
 33
0.0
 14
198.7557199895477
 24
154.0204050010943
 34
0.0
 50
90.0
100
AcDbRotatedDimension
  0
DIMENSION
  5
A369DA2FD30D
330
198CE059C9C9D1F
100
AcDbEntity
  8
BEMASSUNG_-PSPAC_
100
AcDbDimension
  2
*D16
 10
148.9596774563703
 20
142.5204050010944
 30
0.0
 11
145.4596774563704
 21
147.5204050010944
 31
0.0
 12
-4.044841413994674
 22
0.0
 32
0.0
 71
     5
 42
-1.0
  3
ACA_CADIMENU
100
AcDbAlignedDimension
 13
156.6557199895477
 23
152.5204050010944
 33
0.0
 14
133.7557199895477
 24
142.5204050010944
 34
0.0
 50
90.0
100
AcDbRotatedDimension
  0
DIMENSION
  5
A369DA2FD460
330
198CE059C9C9D1F
100
AcDbEntity
  8
BEMASSUNG_-PSPAC_
100
AcDbDimension
  2
*D17
 10
191.9820732691335
 20
209.0204050010945
 30
0.0
 11
188.3049448842463
 21
201.7841487529589
 31
0.0
 12
-4.044841413994674
 22
0.0
 32
0.0
 70
   128
  1
1,5
 71
     5
 42
-1.0
  3
ACA_CADIMENU
100
AcDbAlignedDimension
 13
178.3557199895477
 23
210.5204050010944
 33
0.0
 14
198.7557199895477
 24
209.0204050010945
 34
0.0
 50
90.0
100
AcDbRotatedDimension
  0
DIMENSION
  5
A369DA2FD864
330
198CE059C9C9D1F
100
AcDbEntity
  8
BEMASSUNG_-PSPAC_
100
AcDbDimension
  2
*D18
 10
149.3273895323842
 20
220.5204050010944
 30
0.0
 11
145.8273895323842
 21
215.5204050010944
 31
0.0
 12
-4.044841413994674
 22
0.0
 32
0.0
 71
     5
 42
-1.0
  3
ACA_CADIMENU
100
AcDbAlignedDimension
 13
159.1557199895477
 23
210.5204050010944
 33
0.0
 14
136.7557199895478
 24
220.5204050010944
 34
0.0
 50
90.0
100
AcDbRotatedDimension
  0
DIMENSION
  5
A369DA2FDB8A
330
198CE059C9C9D1F
100
AcDbEntity
  8
BEMASSUNG_-PSPAC_
100
AcDbDimension
  2
*D19
 10
191.9820732691335
 20
210.5204050010944
 30
0.0
 11
188.4820732691335
 21
226.0204050010944
 31
0.0
 12
-4.044841413994674
 22
0.0
 32
0.0
 71
     5
 42
-1.0
  3
ACA_CADIMENU
100
AcDbAlignedDimension
 13
168.7557199895477
 23
241.5204050010944
 33
0.0
 14
178.3557199895477
 24
210.5204050010944
 34
0.0
 50
90.0
100
AcDbRotatedDimension
  0
DIMENSION
  5
A369DA2FDDBE
330
198CE059C9C9D1F
100
AcDbEntity
  8
BEMASSUNG_-PSPAC_
100
AcDbDimension
  2
*D20
 10
191.6143602400261
 20
152.5204050010944
 30
0.0
 11
188.1143602400261
 21
137.0204050010944
 31
0.0
 12
-4.044841413994674
 22
0.0
 32
0.0
 71
     5
 42
-1.0
  3
ACA_CADIMENU
100
AcDbAlignedDimension
 13
168.7557199895477
 23
121.5204050010944
 33
0.0
 14
191.6143602400261
 24
152.5204050010944
 34
0.0
 50
90.0
100
AcDbRotatedDimension
  0
DIMENSION
  5
A369DA2FDE9B
330
198CE059C9C9D1F
100
AcDbEntity
  8
BEMASSUNG_-PSPAC_
100
AcDbDimension
  2
*D21
 10
335.3160702161347
 20
159.0204050010934
 30
0.0
 11
331.8160702161347
 21
181.5204050010934
 31
0.0
 12
-4.118830509537474
 22
-0.0000000000005969
 32
0.0
 71
     5
 42
-1.0
  3
ACA_CADIMENU
100
AcDbAlignedDimension
 13
318.031334671375
 23
204.0204050010935
 33
0.0
 14
318.031334671375
 24
159.0204050010934
 34
0.0
 50
90.0
100
AcDbRotatedDimension
  0
DIMENSION
  5
A369DA2FE133
330
198CE059C9C9D1F
100
AcDbEntity
  8
BEMASSUNG_-PSPAC_
100
AcDbDimension
  2
*D22
 10
318.031334671375
 20
147.3975693913162
 30
0.0
 11
331.6389418312474
 21
150.7048615506915
 31
0.0
 12
-4.118830509537474
 22
-0.0000000000005969
 32
0.0
 70
   128
 71
     5
 42
-1.0
  3
ACA_CADIMENU
100
AcDbAlignedDimension
 13
308.031334671375
 23
159.0204050010934
 33
0.0
 14
318.031334671375
 24
159.0204050010934
 34
0.0
100
AcDbRotatedDimension
  0
LINE
  5
A369DA2FE2CB
330
198CE059C9C9D1F
100
AcDbEntity
  8
BEMASSUNG_-PSPAC_
100
AcDbLine
 10
337.4461233242658
 20
147.3975693913162
 30
0.0
 11
319.8698988638186
 21
147.3975693913162
 31
0.0
  0
DIMENSION
  5
A369DA2FEAB5
330
198CE059C9C9D1F
100
AcDbEntity
  8
BEMASSUNG_-PSPAC_
100
AcDbDimension
  2
*D37
 10
137.0557199895478
 20
195.6854276873818
 30
0.0
 11
144.9173808021997
 21
199.1854276873818
 31
0.0
 70
   160
  1
ø6,5
 71
     5
 42
6.600000000000022
  3
ACA_CADIMENU
100
AcDbAlignedDimension
 13
130.4557199895478
 23
209.0204050010945
 33
0.0
 14
137.0557199895478
 24
209.0204050010945
 34
0.0
100
AcDbRotatedDimension
1001
ACAD_DSTYLE_DIMINSPECT
1070
   396
1000
100%
1070
   395
1000

1070
   394
1070
    33
1070
   393
1070
     0
  0
LINE
  5
A369DA2FEBAD
330
198CE059C9C9D1F
100
AcDbEntity
  8
BEMASSUNG_-PSPAC_
100
AcDbLine
 10
144.0557199895478
 20
195.6854276873818
 30
0.0
 11
150.1717560915012
 21
195.6854276873818
 31
0.0
  0
LINE
  5
A369DA2FEBAE
330
198CE059C9C9D1F
100
AcDbEntity
  8
ACHSEN_-PSPAC_
100
AcDbLine
 10
296.706227221468
 20
181.5204050010938
 30
0.0
 11
327.5941013126563
 21
181.5204050010938
 31
0.0
  0
DIMENSION
  5
A369DA2FECE4
330
198CE059C9C9D1F
100
AcDbEntity
  8
BEMASSUNG_-PSPAC_
100
AcDbDimension
  2
*D23
 10
218.7557199895477
 20
263.5202661724737
 30
0.0
 11
168.7557199895477
 21
267.0202661724737
 31
0.0
 12
-46.69952419765041
 22
0.0
 32
0.0
  1
X
 71
     5
 42
-1.0
  3
ACA_CADIMENU
100
AcDbAlignedDimension
 13
118.7557199895477
 23
238.091833572523
 33
0.0
 14
218.7557199895477
 24
233.6204050010945
 34
0.0
100
AcDbRotatedDimension
  0
LINE
  5
A369DA2FEDB6
330
198CE059C9C9D1F
100
AcDbEntity
  8
UMRISS10
100
AcDbLine
 10
82.47286449343532
 20
77.20948333399043
 30
0.0
 11
82.47286449343532
 21
42.20948333399042
 31
0.0
  0
LINE
  5
A369DA2FEDB7
330
198CE059C9C9D1F
100
AcDbEntity
  8
UMRISS10
100
AcDbLine
 10
102.2205782087888
 20
77.20948333399043
 30
0.0
 11
102.2205782087888
 21
42.20948333399042
 31
0.0
  0
LINE
  5
A369DA2FEE93
330
198CE059C9C9D1F
100
AcDbEntity
  8
UMRISS10
100
AcDbLine
 10
62.47286449343531
 20
77.20948333399043
 30
0.0
 11
62.47286449343531
 21
42.20948333399042
 31
0.0
  0
TEXT
  5
A369DA2FEE94
330
198CE059C9C9D1F
100
AcDbEntity
  8
TEXT07_-PSPAC_
100
AcDbText
 10
69.97421340820295
 20
72.15095525416941
 30
0.0
 40
3.5
  1
D
 41
2.0
  7
ACA_ISO
100
AcDbText
  0
TEXT
  5
A369DA2FEE95
330
198CE059C9C9D1F
100
AcDbEntity
  8
TEXT07_-PSPAC_
100
AcDbText
 10
90.68036816158759
 20
72.15095525416941
 30
0.0
 40
3.5
  1
X
 41
2.0
  7
ACA_ISO
100
AcDbText
  0
TEXT
  5
A369DA2FEEA2
330
198CE059C9C9D1F
100
AcDbEntity
  8
TEXT07_-PSPAC_
100
AcDbText
 10
67.67693352850063
 20
64.92831622345375
 30
0.0
 40
3.5
  1
50
 41
2.0
  7
ACA_ISO
100
AcDbText
  0
TEXT
  5
A369DA2FEEA9
330
198CE059C9C9D1F
100
AcDbEntity
  8
TEXT07_-PSPAC_
100
AcDbText
 10
86.39770988457618
 20
64.85007339365752
 30
0.0
 40
3.5
  1
100
 41
2.0
  7
ACA_ISO
100
AcDbText
  0
TEXT
  5
A369DA2FEEAE
330
198CE059C9C9D1F
100
AcDbEntity
  8
TEXT07_-PSPAC_
100
AcDbText
 10
67.67693352850063
 20
57.92831622345374
 30
0.0
 40
3.5
  1
60
 41
2.0
  7
ACA_ISO
100
AcDbText
  0
TEXT
  5
A369DA2FEEAF
330
198CE059C9C9D1F
100
AcDbEntity
  8
TEXT07_-PSPAC_
100
AcDbText
 10
86.39770988457618
 20
57.85007339365752
 30
0.0
 40
3.5
  1
110
 41
2.0
  7
ACA_ISO
100
AcDbText
  0
TEXT
  5
A369DA2FEEB2
330
198CE059C9C9D1F
100
AcDbEntity
  8
TEXT07_-PSPAC_
100
AcDbText
 10
67.67693352850063
 20
50.92831622345375
 30
0.0
 40
3.5
  1
80
 41
2.0
  7
ACA_ISO
100
AcDbText
  0
TEXT
  5
A369DA2FEEB3
330
198CE059C9C9D1F
100
AcDbEntity
  8
TEXT07_-PSPAC_
100
AcDbText
 10
86.39770988457618
 20
50.85007339365753
 30
0.0
 40
3.5
  1
130
 41
2.0
  7
ACA_ISO
100
AcDbText
  0
TEXT
  5
A369DA2FEEB6
330
198CE059C9C9D1F
100
AcDbEntity
  8
TEXT07_-PSPAC_
100
AcDbText
 10
65.41369184224753
 20
43.92831622345374
 30
0.0
 40
3.5
  1
100
 41
2.0
  7
ACA_ISO
100
AcDbText
  0
TEXT
  5
A369DA2FEEB7
330
198CE059C9C9D1F
100
AcDbEntity
  8
TEXT07_-PSPAC_
100
AcDbText
 10
86.39770988457618
 20
43.85007339365752
 30
0.0
 40
3.5
  1
150
 41
2.0
  7
ACA_ISO
100
AcDbText
  0
LINE
  5
A369DA2FEF6F
330
198CE059C9C9D1F
100
AcDbEntity
  8
BEMASSUNG_-PSPAC_
100
AcDbLine
 10
319.8698988638186
 20
147.3975693913162
 30
0.0
 11
318.031334671375
 21
147.3975693913162
 31
0.0
  0
TEXT
  5
BB81D8BB324C
330
198CE059C9C9D1F
100
AcDbEntity
  8
BEMASSUNG_-PSPAC_
100
AcDbText
 10
314.2147471606955
 20
259.2408343665757
 30
0.0
 40
2.0
  1
+1,0
  7
ACA_ISO
100
AcDbText
  0
TEXT
  5
BB81D8BB324D
330
198CE059C9C9D1F
100
AcDbEntity
  8
BEMASSUNG_-PSPAC_
100
AcDbText
 10
314.2147471606955
 20
256.2408343665757
 30
0.0
 40
2.0
  1
 0
  7
ACA_ISO
100
AcDbText
  0
DIMENSION
  5
BB81D8BB3688
330
198CE059C9C9D1F
100
AcDbEntity
  8
BEMASSUNG_-PSPAC_
100
AcDbDimension
  2
*D38
 10
316.031334671375
 20
109.179536749896
 30
0.0
 11
328.0051522240494
 21
112.697145199556
 31
0.0
 70
   160
  1
ø5,4
 71
     5
 42
6.0
  3
ACA_CADIMENU
100
AcDbAlignedDimension
 13
310.031334671375
 23
134.5204050010937
 33
0.0
 14
316.031334671375
 24
134.5204050010937
 34
0.0
100
AcDbRotatedDimension
1001
ACAD_DSTYLE_DIMINSPECT
1070
   396
1000
100%
1070
   395
1000

1070
   394
1070
    33
1070
   393
1070
     0
  0
LINE
  5
BB81D8BB39D6
330
198CE059C9C9D1F
100
AcDbEntity
  8
BEMASSUNG_-PSPAC_
100
AcDbLine
 10
323.031334671375
 20
109.179536749896
 30
0.0
 11
333.1173385387772
 21
109.179536749896
 31
0.0
  0
LINE
  5
BB81D8BB3B43
330
198CE059C9C9D1F
100
AcDbEntity
  8
BEMASSUNG_-PSPAC_
100
AcDbLine
 10
308.031334671375
 20
134.5204050010937
 30
0.0
 11
308.031334671375
 21
110.3520728997827
 31
0.0
  0
LINE
  5
BB81D8BB3B44
330
198CE059C9C9D1F
100
AcDbEntity
  8
BEMASSUNG_-PSPAC_
100
AcDbLine
 10
318.031334671375
 20
134.5204050010937
 30
0.0
 11
318.031334671375
 21
110.3520728997827
 31
0.0
  0
LINE
  5
BB81D8BB3B46
330
198CE059C9C9D1F
100
AcDbEntity
  8
BEMASSUNG_-PSPAC_
100
AcDbLine
 10
308.031334671375
 20
110.3520728997827
 30
0.0
 11
308.031334671375
 21
107.2532272192327
 31
0.0
  0
LINE
  5
BB81D8BB3B47
330
198CE059C9C9D1F
100
AcDbEntity
  8
BEMASSUNG_-PSPAC_
100
AcDbLine
 10
318.031334671375
 20
110.3520728997827
 30
0.0
 11
318.031334671375
 21
107.2532272192327
 31
0.0
  0
DIMENSION
  5
BB81D8BB4633
330
198CE059C9C9D1F
100
AcDbEntity
  8
BEMASSUNG_-PSPAC_
100
AcDbDimension
  2
*D26
 10
318.031334671375
 20
99.29673262424923
 30
0.0
 11
331.8602432491683
 21
102.7967326242492
 31
0.0
 70
   128
  1
í10x90ø
 71
     5
 42
-1.0
  3
ACA_CADIMENU
100
AcDbAlignedDimension
 13
308.031334671375
 23
107.2532272192327
 33
0.0
 14
318.031334671375
 24
107.2532272192327
 34
0.0
100
AcDbRotatedDimension
  0
LINE
  5
BB81D8BB4A94
330
198CE059C9C9D1F
100
AcDbEntity
  8
BEMASSUNG_-PSPAC_
100
AcDbLine
 10
318.031334671375
 20
99.29673262424923
 30
0.0
 11
340.3246839843484
 21
99.29673262424923
 31
0.0
  0
ARC
  5
BB81D8BB4D9C
330
198CE059C9C9D1F
100
AcDbEntity
  8
UMRISS10_-PSPAC_
100
AcDbCircle
 10
120.2557199895478
 20
240.0204050010944
 30
0.0
 40
1.5
100
AcDbArc
 50
90.0
 51
180.0
  0
ARC
  5
BB81D8BB4D9D
330
198CE059C9C9D1F
100
AcDbEntity
  8
UMRISS10_-PSPAC_
100
AcDbCircle
 10
120.2557199895478
 20
123.0204050010944
 30
0.0
 40
1.5
100
AcDbArc
 50
180.0
 51
270.0
  0
LINE
  5
BB81D8BB4D9F
330
198CE059C9C9D1F
100
AcDbEntity
  8
UMRISS10_-PSPAC_
100
AcDbLine
 10
42.84760114464161
 20
77.20948333399043
 30
0.0
 11
42.84760114464161
 21
42.20948333399042
 31
0.0
  0
TEXT
  5
BB81D8BB4DA0
330
198CE059C9C9D1F
100
AcDbEntity
  8
TEXT07
100
AcDbText
 10
45.91236118673541
 20
72.39527452087052
 30
0.0
 40
3.0
  1
EDVNr.
 41
1.199999999999999
  7
_STYLE
100
AcDbText
  0
LINE
  5
BB81D8BB4DA2
330
198CE059C9C9D1F
100
AcDbEntity
  8
UMRISS10_-PSPAC_
100
AcDbLine
 10
42.84760114464161
 20
42.20948333399042
 30
0.0
 11
102.2205782087888
 21
42.20948333399042
 31
0.0
  0
LINE
  5
BB81D8BB4DA5
330
198CE059C9C9D1F
100
AcDbEntity
  8
UMRISS03_-PSPAC_
100
AcDbLine
 10
42.84760114464161
 20
49.20948333399043
 30
0.0
 11
102.2205782087888
 21
49.20948333399042
 31
0.0
  0
LINE
  5
BB81D8BB4DA6
330
198CE059C9C9D1F
100
AcDbEntity
  8
UMRISS03_-PSPAC_
100
AcDbLine
 10
42.84760114464161
 20
56.20948333399043
 30
0.0
 11
102.2205782087888
 21
56.20948333399042
 31
0.0
  0
LINE
  5
BB81D8BB4DA7
330
198CE059C9C9D1F
100
AcDbEntity
  8
UMRISS03_-PSPAC_
100
AcDbLine
 10
42.84760114464161
 20
63.20948333399043
 30
0.0
 11
102.2205782087888
 21
63.20948333399043
 31
0.0
  0
LINE
  5
BB81D8BB4DA8
330
198CE059C9C9D1F
100
AcDbEntity
  8
UMRISS10_-PSPAC_
100
AcDbLine
 10
42.84760114464161
 20
70.20948333399044
 30
0.0
 11
102.2205782087888
 21
70.20948333399044
 31
0.0
  0
LINE
  5
BB81D8BB4DA9
330
198CE059C9C9D1F
100
AcDbEntity
  8
UMRISS10_-PSPAC_
100
AcDbLine
 10
42.84760114464161
 20
77.20948333399043
 30
0.0
 11
102.2205782087888
 21
77.20948333399043
 31
0.0
  0
TEXT
  5
BB81D8BB4DAA
330
198CE059C9C9D1F
100
AcDbEntity
  8
TEXT07_-PSPAC_
100
AcDbText
 10
43.83121592739961
 20
64.92831622345375
 30
0.0
 40
3.5
  1
209970
 41
1.199999999999999
  7
ACA_ISO
100
AcDbText
  0
LINE
  5
BB81D8BB4DAB
330
198CE059C9C9D1F
100
AcDbEntity
  8
UMRISS10_-PSPAC_
100
AcDbLine
 10
161.7557199895477
 20
143.9058823793816
 30
0.0
 11
161.7557199895477
 21
140.0204050010944
 31
0.0
  0
LINE
  5
BB81D8BB4DAC
330
198CE059C9C9D1F
100
AcDbEntity
  8
UMRISS10_-PSPAC_
100
AcDbLine
 10
175.7557199895477
 20
143.9058823793817
 30
0.0
 11
175.7557199895478
 21
140.0204050010944
 31
0.0
  0
LINE
  5
BB81D8BB4DAD
330
198CE059C9C9D1F
100
AcDbEntity
  8
UMRISS10_-PSPAC_
100
AcDbLine
 10
161.7557199895477
 20
140.0204050010944
 30
0.0
 11
163.7057199895477
 21
140.0204050010944
 31
0.0
  0
LINE
  5
BB81D8BB4DAF
330
198CE059C9C9D1F
100
AcDbEntity
  8
UMRISS10_-PSPAC_
100
AcDbLine
 10
173.8057199895477
 20
140.0204050010944
 30
0.0
 11
175.7557199895477
 21
140.0204050010944
 31
0.0
  0
TEXT
  5
BB81D8BB4DB4
330
198CE059C9C9D1F
100
AcDbEntity
  8
TEXT07_-PSPAC_
100
AcDbText
 10
160.1539360875372
 20
136.967753522215
 30
0.0
 40
2.0
  1
a
  7
ACA_ISO
100
AcDbText
  0
CIRCLE
  5
BB81D8BB4DB5
330
198CE059C9C9D1F
100
AcDbEntity
  8
TEXT07_-PSPAC_
100
AcDbCircle
 10
160.5555348047737
 20
137.730159501277
 30
0.0
 40
1.803606050927941
  0
LINE
  5
198CE053F9C9CA5
330
198CE059C9C9D1F
100
AcDbEntity
  8
BEMASSUNG_-PSPAC_
100
AcDbLine
 10
87.27066719776169
 20
181.5204050010944
 30
0.0
 11
72.38997312073735
 21
181.5204050010945
 31
0.0
  0
LINE
  5
198CE053F9C9CA7
330
198CE059C9C9D1F
100
AcDbEntity
  8
BEMASSUNG_-PSPAC_
100
AcDbLine
 10
87.27066719776169
 20
182.7115032200083
 30
0.0
 11
87.27066719776169
 21
180.3293067821804
 31
0.0
  0
LINE
  5
198CE053F9C9CA8
330
198CE059C9C9D1F
100
AcDbEntity
  8
BEMASSUNG_-PSPAC_
100
AcDbLine
 10
91.75416687055403
 20
181.5204050010944
 30
0.0
 11
87.27066719776169
 21
180.3293067821804
 31
0.0
  0
LINE
  5
198CE053F9C9CA9
330
198CE059C9C9D1F
100
AcDbEntity
  8
BEMASSUNG_-PSPAC_
100
AcDbLine
 10
91.75416687055403
 20
181.5204050010944
 30
0.0
 11
87.27066719776169
 21
182.7115032200083
 31
0.0
  0
INSERT
  5
198CE053F9C9CAA
330
198CE059C9C9D1F
100
AcDbEntity
  8
BEMASSUNG_-PSPAC_
100
AcDbBlockReference
  2
*X32
 10
-200.2088806606491
 20
-72.24231585773797
 30
0.0
1001
ACAD
1000
HATCH
1002
{
1070
    16
1000
ANSI37,I
1040
1.0
1040
0.0
1002
}
  0
TEXT
  5
198CE053F9C9CAE
330
198CE059C9C9D1F
100
AcDbEntity
  8
BEMASSUNG_-PSPAC_
100
AcDbText
 10
75.59627239560988
 20
182.5536962539899
 30
0.0
 40
3.5
  1
max.
  7
ACA_ISO
100
AcDbText
  0
TEXT
  5
198CE053F9C9CAF
330
198CE059C9C9D1F
100
AcDbEntity
  8
BEMASSUNG_-PSPAC_
100
AcDbText
 10
73.67249396406916
 20
176.5560403164038
 30
0.0
 40
3.5
  1
1500N
  7
ACA_ISO
100
AcDbText
  0
VIEWPORT
  5
198CE059C9C9E83
102
{ACAD_XDICTIONARY
360
198CE059C9C9E84
102
}
330
198CE059C9C9E7C
100
AcDbEntity
 67
     1
  8
0
100
AcDbViewport
 10
5.647083793099471
 20
3.865416556831419
 30
0.0
 40
13.29903487824525
 41
8.746133096049151
 68
     1
 69
     1
 12
5.647083793099471
 22
3.865416556831419
 13
0.0
 23
0.0
 14
10.0
 24
10.0
 15
10.0
 25
10.0
 16
0.0
 26
0.0
 36
1.0
 17
0.0
 27
0.0
 37
0.0
 42
50.0
 43
0.0
 44
0.0
 45
8.746133096049151
 50
0.0
 51
0.0
 72
   100
 90
   819232
  1

281
     0
 71
     1
 74
     0
110
0.0
120
0.0
130
0.0
111
1.0
121
0.0
131
0.0
112
0.0
122
1.0
132
0.0
 79
     0
146
0.0
  0
ENDSEC
  0
SECTION
  2
OBJECTS
  0
DICTIONARY
  5
198CE059C9C9CBC
330
0
100
AcDbDictionary
281
     1
  3
ACAD_CIP_PREVIOUS_PRODUCT_INFO
350
198CE059C9C9D7B
  3
ACAD_COLOR
350
198CE059C9C9D12
  3
ACAD_DETAILVIEWSTYLE
350
198CE059C9C9D19
  3
ACAD_FIELDLIST
350
198CE059C9C9DEC
  3
ACAD_GROUP
350
198CE059C9C9CBD
  3
ACAD_LAYOUT
350
198CE059C9C9D11
  3
ACAD_MATERIAL
350
198CE059C9C9CC0
  3
ACAD_MLEADERSTYLE
350
198CE059C9C9D15
  3
ACAD_MLINESTYLE
350
198CE059C9C9D0E
  3
ACAD_PLOTSETTINGS
350
198CE059C9C9D10
  3
ACAD_PLOTSTYLENAME
350
198CE059C9C9CBE
  3
ACAD_SCALELIST
350
198CE059C9C9CF2
  3
ACAD_SECTIONVIEWSTYLE
350
198CE059C9C9D17
  3
ACAD_TABLESTYLE
350
198CE059C9C9D13
  3
ACAD_VISUALSTYLE
350
198CE059C9C9CD9
  3
ACDB_RECOMPOSE_DATA
350
198CE059C9C9ED2
  3
AcDbVariableDictionary
350
198CE059C9C9EC1
  3
AcDsDecomposeData
350
198CE059C9C9ED9
  3
AcmDictionary
350
198CE059C9C9DA7
  3
AMG
350
198CE059C9C9D7C
  3
AMGSNAPSETTINGS
350
198CE059C9C9E6D
  3
DWGPROPS
350
198CE059C9C9ED3
  0
DICTIONARY
  5
198CE059C9C9E04
330
198CE059C9C9CB2
100
AcDbDictionary
280
     1
281
     1
  3
ACAD_LAYERSTATES
360
198CE059C9C9E05
  0
DICTIONARY
  5
198CE059C9C9F24
330
198CE059C9C9EA1
100
AcDbDictionary
280
     1
281
     1
  3
ACAD_MTEXT_RT
360
198CE059C9C9F25
  0
DICTIONARY
  5
198CE059C9C9F26
330
198CE059C9C9EBA
100
AcDbDictionary
280
     1
281
     1
  3
ACAD_MTEXT_RT
360
198CE059C9C9F27
  0
DICTIONARY
  5
198CE059C9C9E84
330
198CE059C9C9E83
100
AcDbDictionary
280
     1
281
     1
  3
ACAD_XREC_ROUNDTRIP
360
198CE059C9C9F23
  3
ASDK_XREC_ANNOTATION_SCALE_INFO
360
198CE059C9C9E85
  0
XRECORD
  5
198CE059C9C9D7B
102
{ACAD_REACTORS
330
198CE059C9C9CBC
102
}
330
198CE059C9C9CBC
100
AcDbXrecord
280
     1
300
AMECH_PP
300
2017
300
PDSU_F_S
  0
DICTIONARY
  5
198CE059C9C9D12
102
{ACAD_REACTORS
330
198CE059C9C9CBC
102
}
330
198CE059C9C9CBC
100
AcDbDictionary
281
     1
  0
DICTIONARY
  5
198CE059C9C9D19
102
{ACAD_REACTORS
330
198CE059C9C9CBC
102
}
330
198CE059C9C9CBC
100
AcDbDictionary
281
     1
  3
Imperial24
350
198CE059C9C9D1A
  0
FIELDLIST
  5
198CE059C9C9DEC
102
{ACAD_REACTORS
330
198CE059C9C9CBC
102
}
330
198CE059C9C9CBC
100
AcDbIdSet
 90
        8
330
198CE059C9C9DEA
330
198CE059C9C9DEB
330
198CE059C9C9DED
330
198CE059C9C9DEE
330
198CE059C9C9DF2
330
198CE059C9C9DF3
330
198CE059C9C9DF4
330
198CE059C9C9DF5
100
AcDbFieldList
  0
DICTIONARY
  5
198CE059C9C9CBD
102
{ACAD_REACTORS
330
198CE059C9C9CBC
102
}
330
198CE059C9C9CBC
100
AcDbDictionary
281
     1
  0
DICTIONARY
  5
198CE059C9C9D11
102
{ACAD_REACTORS
330
198CE059C9C9CBC
102
}
330
198CE059C9C9CBC
100
AcDbDictionary
281
     1
  3
Layout1
350
198CE059C9C9E7D
  3
Model
350
198CE059C9C9D22
  0
DICTIONARY
  5
198CE059C9C9CC0
102
{ACAD_REACTORS
330
198CE059C9C9CBC
102
}
330
198CE059C9C9CBC
100
AcDbDictionary
281
     1
  3
ByBlock
350
198CE059C9C9CC9
  3
ByLayer
350
198CE059C9C9CC1
  3
Global
350
198CE059C9C9CD1
  0
DICTIONARY
  5
198CE059C9C9D15
102
{ACAD_REACTORS
330
198CE059C9C9CBC
102
}
330
198CE059C9C9CBC
100
AcDbDictionary
281
     1
  3
Standard
350
198CE059C9C9D16
  0
DICTIONARY
  5
198CE059C9C9D0E
102
{ACAD_REACTORS
330
198CE059C9C9CBC
102
}
330
198CE059C9C9CBC
100
AcDbDictionary
281
     1
  3
Standard
350
198CE059C9C9D0F
  0
DICTIONARY
  5
198CE059C9C9D10
102
{ACAD_REACTORS
330
198CE059C9C9CBC
102
}
330
198CE059C9C9CBC
100
AcDbDictionary
281
     1
  0
ACDBDICTIONARYWDFLT
  5
198CE059C9C9CBE
102
{ACAD_REACTORS
330
198CE059C9C9CBC
102
}
330
198CE059C9C9CBC
100
AcDbDictionary
281
     1
  3
Normal
350
198CE059C9C9CBF
100
AcDbDictionaryWithDefault
340
198CE059C9C9CBF
  0
DICTIONARY
  5
198CE059C9C9CF2
102
{ACAD_REACTORS
330
198CE059C9C9CBC
102
}
330
198CE059C9C9CBC
100
AcDbDictionary
281
     1
  3
A0
350
198CE059C9C9CF3
  3
A1
350
198CE059C9C9CF4
  3
A2
350
198CE059C9C9CF5
  3
A3
350
198CE059C9C9CF6
  3
A4
350
198CE059C9C9CF7
  3
A5
350
198CE059C9C9CF8
  3
A6
350
198CE059C9C9CF9
  3
A7
350
198CE059C9C9CFA
  3
A8
350
198CE059C9C9CFB
  3
A9
350
198CE059C9C9CFC
  3
B0
350
198CE059C9C9CFD
  3
B1
350
198CE059C9C9CFE
  3
B2
350
198CE059C9C9CFF
  3
B3
350
198CE059C9C9D00
  3
B4
350
198CE059C9C9D01
  3
B5
350
198CE059C9C9D02
  3
B6
350
198CE059C9C9D03
  0
DICTIONARY
  5
198CE059C9C9D17
102
{ACAD_REACTORS
330
198CE059C9C9CBC
102
}
330
198CE059C9C9CBC
100
AcDbDictionary
281
     1
  3
Imperial24
350
198CE059C9C9D18
  0
DICTIONARY
  5
198CE059C9C9D13
102
{ACAD_REACTORS
330
198CE059C9C9CBC
102
}
330
198CE059C9C9CBC
100
AcDbDictionary
281
     1
  3
Standard
350
198CE059C9C9D14
  0
DICTIONARY
  5
198CE059C9C9CD9
102
{ACAD_REACTORS
330
198CE059C9C9CBC
102
}
330
198CE059C9C9CBC
100
AcDbDictionary
281
     1
  3
2dWireframe
350
198CE059C9C9CDF
  3
Basic
350
198CE059C9C9CDE
  3
Brighten
350
198CE059C9C9CE5
  3
ColorChange
350
198CE059C9C9CE9
  3
Conceptual
350
198CE059C9C9CE2
  3
Dim
350
198CE059C9C9CE4
  3
EdgeColorOff
350
198CE059C9C9CF1
  3
Facepattern
350
198CE059C9C9CE8
  3
Flat
350
198CE059C9C9CDA
  3
FlatWithEdges
350
198CE059C9C9CDB
  3
Gouraud
350
198CE059C9C9CDC
  3
GouraudWithEdges
350
198CE059C9C9CDD
  3
Hidden
350
198CE059C9C9CE1
  3
JitterOff
350
198CE059C9C9CEF
  3
Linepattern
350
198CE059C9C9CE7
  3
OverhangOff
350
198CE059C9C9CF0
  3
Realistic
350
198CE059C9C9CE3
  3
Shaded
350
198CE059C9C9CEE
  3
Shaded with edges
350
198CE059C9C9CED
  3
Shades of Gray
350
198CE059C9C9CEA
  3
Sketchy
350
198CE059C9C9CEB
  3
Thicken
350
198CE059C9C9CE6
  3
Wireframe
350
198CE059C9C9CE0
  3
X-Ray
350
198CE059C9C9CEC
  0
XRECORD
  5
198CE059C9C9ED2
102
{ACAD_REACTORS
330
198CE059C9C9CBC
102
}
330
198CE059C9C9CBC
100
AcDbXrecord
280
     1
 90
        1
330
198CE059C9C9D14
  0
DICTIONARY
  5
198CE059C9C9EC1
102
{ACAD_REACTORS
330
198CE059C9C9CBC
102
}
330
198CE059C9C9CBC
100
AcDbDictionary
281
     1
  3
CANNOSCALE
350
198CE059C9C9EC7
  3
CMLEADERSTYLE
350
198CE059C9C9EC3
  3
CTABLESTYLE
350
198CE059C9C9EC2
  3
CVIEWDETAILSTYLE
350
198CE059C9C9EC4
  3
CVIEWSECTIONSTYLE
350
198CE059C9C9EC5
  3
DIMASSOC
350
198CE059C9C9ECE
  3
HIDETEXT
350
198CE059C9C9ECD
  3
INDEXCTL
350
198CE059C9C9ECC
  3
LAYEREVAL
350
198CE059C9C9EC9
  3
LAYERNOTIFY
350
198CE059C9C9ECA
  3
LIGHTINGUNITS
350
198CE059C9C9EC8
  3
MSLTSCALE
350
198CE059C9C9EC6
  3
SORTENTS
350
198CE059C9C9ECB
  3
XCLIPFRAME
350
198CE059C9C9ECF
  0
DICTIONARY
  5
198CE059C9C9ED9
102
{ACAD_REACTORS
330
198CE059C9C9CBC
102
}
330
198CE059C9C9CBC
100
AcDbDictionary
281
     1
  3
AcDsRecords
350
198CE059C9C9EDB
  3
AcDsSchemas
350
198CE059C9C9EDA
1001
ACAD
1070
     2
  0
DICTIONARY
  5
198CE059C9C9DA7
102
{ACAD_REACTORS
330
198CE059C9C9CBC
102
}
330
198CE059C9C9CBC
100
AcDbDictionary
281
     1
  3
AcmStdDictionary
350
198CE059C9C9DB0
  0
DICTIONARY
  5
198CE059C9C9D7C
102
{ACAD_REACTORS
330
198CE059C9C9CBC
102
}
330
198CE059C9C9CBC
100
AcDbDictionary
281
     1
  0
DICTIONARY
  5
198CE059C9C9E6D
102
{ACAD_REACTORS
330
198CE059C9C9CBC
102
}
330
198CE059C9C9CBC
100
AcDbDictionary
281
     1
  0
XRECORD
  5
198CE059C9C9ED3
102
{ACAD_REACTORS
330
198CE059C9C9CBC
102
}
330
198CE059C9C9CBC
100
AcDbXrecord
280
     1
  1
DWGPROPS COOKIE
  2

  3

  4

  6

  7

  8
mr
  9

300
=
301
=
302
=
303
=
304
=
305
=
306
=
307
=
308
=
309
=
 40
0.2439888888888889
 41
2449504.41119213
 42
2458261.681400463
  1

 90
        0
  0
DICTIONARY
  5
198CE059C9C9E05
102
{ACAD_REACTORS
330
198CE059C9C9E04
102
}
330
198CE059C9C9E04
100
AcDbDictionary
281
     1
  0
XRECORD
  5
198CE059C9C9F25
102
{ACAD_REACTORS
330
198CE059C9C9F24
102
}
330
198CE059C9C9F24
100
AcDbXrecord
280
     1
 40
5970.0
  1
\A1;ø6,5
  0
XRECORD
  5
198CE059C9C9F27
102
{ACAD_REACTORS
330
198CE059C9C9F26
102
}
330
198CE059C9C9F26
100
AcDbXrecord
280
     1
 40
5944.0
  1
\A1;ø5,4
  0
XRECORD
  5
198CE059C9C9F23
102
{ACAD_REACTORS
330
198CE059C9C9E84
102
}
330
198CE059C9C9E84
100
AcDbXrecord
280
     1
102
SHADEPLOT
 70
     0
  0
XRECORD
  5
198CE059C9C9E85
102
{ACAD_REACTORS
330
198CE059C9C9E84
102
}
330
198CE059C9C9E84
100
AcDbXrecord
280
     1
 90
        1
340
198CE059C9C9CF3
  0
ACDBDETAILVIEWSTYLE
  5
198CE059C9C9D1A
102
{ACAD_XDICTIONARY
360
198CE059C9C9F19
102
}
102
{ACAD_REACTORS
330
198CE059C9C9D19
330
198CE059C9C9DDD
102
}
330
198CE059C9C9D19
100
AcDbModelDocViewStyle
 70
     0
  3
Imperial24
290
     0
100
AcDbDetailViewStyle
 70
     0
 71
     0
 90
        3
 71
     1
340
198CE059C9C9D05
 40
0.24
340
0
 40
0.24
300

 40
0.36
280
     3
 71
     2
340
198CE059C9C9D0C
 90
       25
 71
     3
340
198CE059C9C9D05
 40
0.24
 90
        1
 40
0.75
 90
        1
300
%<\AcVar ViewType \f "%tc1">% %<\AcVar ViewDetailId>%\PVARIA %<\AcVar ViewScale \f "%sn">%
 71
     4
340
198CE059C9C9D0C
 90
       25
340
198CE059C9C9D0C
 90
       25
280
     0
  0
LAYOUT
  5
198CE059C9C9E7D
102
{ACAD_XDICTIONARY
360
198CE059C9C9F21
102
}
102
{ACAD_REACTORS
330
198CE059C9C9D11
102
}
330
198CE059C9C9D11
100
AcDbPlotSettings
  1

  2
C:\Users\Public\MuM\AutoCAD Mechanical 2017 - Deutsch (German)\plotters\Default Windows System Printer.pc3
  4
A4
  6

 40
6.805083274841308
 41
5.027099609375
 42
6.805068969726562
 43
5.027069091796875
 44
209.9733276367187
 45
296.9259948730469
 46
0.0
 47
0.0
 48
0.0
 49
0.0
140
0.0
141
0.0
142
1.0
143
1.0
 70
   688
 72
     0
 73
     1
 74
     5
  7
PPMON.ctb
 75
    16
147
1.0
148
0.0
149
0.0
100
AcDbLayout
  1
Layout1
 70
     1
 71
     1
 10
-0.1979161059762549
 20
-0.2679166643638311
 11
11.4920836921752
 21
7.99874977802667
 12
0.0
 22
0.0
 32
0.0
 14
1.000000000000000E+20
 24
1.000000000000000E+20
 34
1.000000000000000E+20
 15
-1.000000000000000E+20
 25
-1.000000000000000E+20
 35
-1.000000000000000E+20
146
0.0
 13
0.0
 23
0.0
 33
0.0
 16
1.0
 26
0.0
 36
0.0
 17
0.0
 27
1.0
 37
0.0
 76
     0
330
198CE059C9C9E7C
331
198CE059C9C9E83
1001
ACAD_PSEXT
1000
C:\Users\Public\MuM\AutoCAD Mechanical 2017 - Deutsch (German)\plotters\Default Windows System Printer.pc3
1000
Brother HL-2130 series
1000
USB001
1000
micke
1070
     0
  0
LAYOUT
  5
198CE059C9C9D22
102
{ACAD_XDICTIONARY
360
198CE059C9C9F1B
102
}
102
{ACAD_REACTORS
330
198CE059C9C9D11
102
}
330
198CE059C9C9D11
100
AcDbPlotSettings
  1

  2
C:\Users\Public\MuM\AutoCAD Mechanical 2017 - Deutsch (German)\plotters\Default Windows System Printer.pc3
  4

  6

 40
0.0
 41
0.0
 42
0.0
 43
0.0
 44
0.0
 45
0.0
 46
0.0
 47
0.0
 48
0.0
 49
0.0
140
0.0
141
0.0
142
1.0
143
1.0
 70
  1712
 72
     0
 73
     0
 74
     0
  7
PPMON.ctb
 75
     0
147
1.0
148
0.0
149
0.0
100
AcDbLayout
  1
Model
 70
     1
 71
     0
 10
0.0
 20
0.0
 11
12.0
 21
9.0
 12
0.0
 22
0.0
 32
0.0
 14
0.0
 24
0.0
 34
0.0
 15
0.0
 25
0.0
 35
0.0
146
0.0
 13
0.0
 23
0.0
 33
0.0
 16
1.0
 26
0.0
 36
0.0
 17
0.0
 27
1.0
 37
0.0
 76
     0
330
198CE059C9C9D1F
331
198CE059C9C9D5B
  0
MATERIAL
  5
198CE059C9C9CC9
102
{ACAD_XDICTIONARY
360
198CE059C9C9CCA
102
}
102
{ACAD_REACTORS
330
198CE059C9C9CC0
102
}
330
198CE059C9C9CC0
100
AcDbMaterial
  1
ByBlock
 72
     0
 43
0.0208333333333333
 43
0.0
 43
0.0
 43
0.0
 43
0.0
 43
0.0208333333333333
 43
0.0
 43
0.0
 43
0.0
 43
0.0
 43
1.0
 43
0.0
 43
0.0
 43
0.0
 43
0.0
 43
1.0
 77
     0
 47
0.0208333333333333
 47
0.0
 47
0.0
 47
0.0
 47
0.0
 47
0.0208333333333333
 47
0.0
 47
0.0
 47
0.0
 47
0.0
 47
1.0
 47
0.0
 47
0.0
 47
0.0
 47
0.0
 47
1.0
171
     0
 49
0.0208333333333333
 49
0.0
 49
0.0
 49
0.0
 49
0.0
 49
0.0208333333333333
 49
0.0
 49
0.0
 49
0.0
 49
0.0
 49
1.0
 49
0.0
 49
0.0
 49
0.0
 49
0.0
 49
1.0
175
     0
142
0.0208333333333333
142
0.0
142
0.0
142
0.0
142
0.0
142
0.0208333333333333
142
0.0
142
0.0
142
0.0
142
0.0
142
1.0
142
0.0
142
0.0
142
0.0
142
0.0
142
1.0
179
     0
144
0.0208333333333333
144
0.0
144
0.0
144
0.0
144
0.0
144
0.0208333333333333
144
0.0
144
0.0
144
0.0
144
0.0
144
1.0
144
0.0
144
0.0
144
0.0
144
0.0
144
1.0
147
0.0208333333333333
147
0.0
147
0.0
147
0.0
147
0.0
147
0.0208333333333333
147
0.0
147
0.0
147
0.0
147
0.0
147
1.0
147
0.0
147
0.0
147
0.0
147
0.0
147
1.0
  0
MATERIAL
  5
198CE059C9C9CC1
102
{ACAD_XDICTIONARY
360
198CE059C9C9CC2
102
}
102
{ACAD_REACTORS
330
198CE059C9C9CC0
102
}
330
198CE059C9C9CC0
100
AcDbMaterial
  1
ByLayer
 72
     0
 43
0.0208333333333333
 43
0.0
 43
0.0
 43
0.0
 43
0.0
 43
0.0208333333333333
 43
0.0
 43
0.0
 43
0.0
 43
0.0
 43
1.0
 43
0.0
 43
0.0
 43
0.0
 43
0.0
 43
1.0
 77
     0
 47
0.0208333333333333
 47
0.0
 47
0.0
 47
0.0
 47
0.0
 47
0.0208333333333333
 47
0.0
 47
0.0
 47
0.0
 47
0.0
 47
1.0
 47
0.0
 47
0.0
 47
0.0
 47
0.0
 47
1.0
171
     0
 49
0.0208333333333333
 49
0.0
 49
0.0
 49
0.0
 49
0.0
 49
0.0208333333333333
 49
0.0
 49
0.0
 49
0.0
 49
0.0
 49
1.0
 49
0.0
 49
0.0
 49
0.0
 49
0.0
 49
1.0
175
     0
142
0.0208333333333333
142
0.0
142
0.0
142
0.0
142
0.0
142
0.0208333333333333
142
0.0
142
0.0
142
0.0
142
0.0
142
1.0
142
0.0
142
0.0
142
0.0
142
0.0
142
1.0
179
     0
144
0.0208333333333333
144
0.0
144
0.0
144
0.0
144
0.0
144
0.0208333333333333
144
0.0
144
0.0
144
0.0
144
0.0
144
1.0
144
0.0
144
0.0
144
0.0
144
0.0
144
1.0
147
0.0208333333333333
147
0.0
147
0.0
147
0.0
147
0.0
147
0.0208333333333333
147
0.0
147
0.0
147
0.0
147
0.0
147
1.0
147
0.0
147
0.0
147
0.0
147
0.0
147
1.0
  0
MATERIAL
  5
198CE059C9C9CD1
102
{ACAD_XDICTIONARY
360
198CE059C9C9CD2
102
}
102
{ACAD_REACTORS
330
198CE059C9C9CC0
102
}
330
198CE059C9C9CC0
100
AcDbMaterial
  1
Global
 72
     0
 43
0.0208333333333333
 43
0.0
 43
0.0
 43
0.0
 43
0.0
 43
0.0208333333333333
 43
0.0
 43
0.0
 43
0.0
 43
0.0
 43
1.0
 43
0.0
 43
0.0
 43
0.0
 43
0.0
 43
1.0
 77
     0
 47
0.0208333333333333
 47
0.0
 47
0.0
 47
0.0
 47
0.0
 47
0.0208333333333333
 47
0.0
 47
0.0
 47
0.0
 47
0.0
 47
1.0
 47
0.0
 47
0.0
 47
0.0
 47
0.0
 47
1.0
171
     0
 49
0.0208333333333333
 49
0.0
 49
0.0
 49
0.0
 49
0.0
 49
0.0208333333333333
 49
0.0
 49
0.0
 49
0.0
 49
0.0
 49
1.0
 49
0.0
 49
0.0
 49
0.0
 49
0.0
 49
1.0
175
     0
142
0.0208333333333333
142
0.0
142
0.0
142
0.0
142
0.0
142
0.0208333333333333
142
0.0
142
0.0
142
0.0
142
0.0
142
1.0
142
0.0
142
0.0
142
0.0
142
0.0
142
1.0
179
     0
144
0.0208333333333333
144
0.0
144
0.0
144
0.0
144
0.0
144
0.0208333333333333
144
0.0
144
0.0
144
0.0
144
0.0
144
1.0
144
0.0
144
0.0
144
0.0
144
0.0
144
1.0
147
0.0208333333333333
147
0.0
147
0.0
147
0.0
147
0.0
147
0.0208333333333333
147
0.0
147
0.0
147
0.0
147
0.0
147
1.0
147
0.0
147
0.0
147
0.0
147
0.0
147
1.0
  0
MLEADERSTYLE
  5
198CE059C9C9D16
102
{ACAD_XDICTIONARY
360
198CE059C9C9F15
102
}
102
{ACAD_REACTORS
330
198CE059C9C9D15
102
}
330
198CE059C9C9D15
100
AcDbMLeaderStyle
170
     2
171
     1
172
     0
 90
        2
 40
0.0
 41
0.0
173
     1
 91
-1056964608
340
198CE059C9C9D0A
 92
       -2
290
     1
 42
0.09
291
     1
 43
0.36
  3
Standard
 44
0.18
300

342
198CE059C9C9D05
174
     1
178
     6
175
     1
176
     0
 93
-1056964608
 45
0.18
292
     0
297
     0
 46
0.18
 94
-1056964608
 47
1.0
 49
1.0
140
1.0
293
     1
141
0.0
294
     1
177
     0
142
1.0
295
     0
296
     0
143
0.125
1001
ACAD_MLEADERVER
1070
     2
  0
MLINESTYLE
  5
198CE059C9C9D0F
102
{ACAD_REACTORS
330
198CE059C9C9D0E
102
}
330
198CE059C9C9D0E
100
AcDbMlineStyle
  2
STANDARD
 70
     0
  3

 62
   256
 51
90.0
 52
90.0
 71
     2
 49
0.5
 62
   256
  6
BYLAYER
 49
-0.5
 62
   256
  6
BYLAYER
  0
ACDBPLACEHOLDER
  5
198CE059C9C9CBF
102
{ACAD_REACTORS
330
198CE059C9C9CBE
102
}
330
198CE059C9C9CBE
  0
SCALE
  5
198CE059C9C9CF3
102
{ACAD_REACTORS
330
198CE059C9C9CF2
102
}
330
198CE059C9C9CF2
100
AcDbScale
 70
     0
300
1:1
140
1.0
141
1.0
290
     1
  0
SCALE
  5
198CE059C9C9CF4
102
{ACAD_REACTORS
330
198CE059C9C9CF2
102
}
330
198CE059C9C9CF2
100
AcDbScale
 70
     0
300
1/128" = 1'-0"
140
0.0078125
141
12.0
290
     0
  0
SCALE
  5
198CE059C9C9CF5
102
{ACAD_REACTORS
330
198CE059C9C9CF2
102
}
330
198CE059C9C9CF2
100
AcDbScale
 70
     0
300
1/64" = 1'-0"
140
0.015625
141
12.0
290
     0
  0
SCALE
  5
198CE059C9C9CF6
102
{ACAD_REACTORS
330
198CE059C9C9CF2
102
}
330
198CE059C9C9CF2
100
AcDbScale
 70
     0
300
1/32" = 1'-0"
140
0.03125
141
12.0
290
     0
  0
SCALE
  5
198CE059C9C9CF7
102
{ACAD_REACTORS
330
198CE059C9C9CF2
102
}
330
198CE059C9C9CF2
100
AcDbScale
 70
     0
300
1/16" = 1'-0"
140
0.0625
141
12.0
290
     0
  0
SCALE
  5
198CE059C9C9CF8
102
{ACAD_REACTORS
330
198CE059C9C9CF2
102
}
330
198CE059C9C9CF2
100
AcDbScale
 70
     0
300
3/32" = 1'-0"
140
0.09375
141
12.0
290
     0
  0
SCALE
  5
198CE059C9C9CF9
102
{ACAD_REACTORS
330
198CE059C9C9CF2
102
}
330
198CE059C9C9CF2
100
AcDbScale
 70
     0
300
1/8" = 1'-0"
140
0.125
141
12.0
290
     0
  0
SCALE
  5
198CE059C9C9CFA
102
{ACAD_REACTORS
330
198CE059C9C9CF2
102
}
330
198CE059C9C9CF2
100
AcDbScale
 70
     0
300
3/16" = 1'-0"
140
0.1875
141
12.0
290
     0
  0
SCALE
  5
198CE059C9C9CFB
102
{ACAD_REACTORS
330
198CE059C9C9CF2
102
}
330
198CE059C9C9CF2
100
AcDbScale
 70
     0
300
1/4" = 1'-0"
140
0.25
141
12.0
290
     0
  0
SCALE
  5
198CE059C9C9CFC
102
{ACAD_REACTORS
330
198CE059C9C9CF2
102
}
330
198CE059C9C9CF2
100
AcDbScale
 70
     0
300
3/8" = 1'-0"
140
0.375
141
12.0
290
     0
  0
SCALE
  5
198CE059C9C9CFD
102
{ACAD_REACTORS
330
198CE059C9C9CF2
102
}
330
198CE059C9C9CF2
100
AcDbScale
 70
     0
300
1/2" = 1'-0"
140
0.5
141
12.0
290
     0
  0
SCALE
  5
198CE059C9C9CFE
102
{ACAD_REACTORS
330
198CE059C9C9CF2
102
}
330
198CE059C9C9CF2
100
AcDbScale
 70
     0
300
3/4" = 1'-0"
140
0.75
141
12.0
290
     0
  0
SCALE
  5
198CE059C9C9CFF
102
{ACAD_REACTORS
330
198CE059C9C9CF2
102
}
330
198CE059C9C9CF2
100
AcDbScale
 70
     0
300
1" = 1'-0"
140
1.0
141
12.0
290
     0
  0
SCALE
  5
198CE059C9C9D00
102
{ACAD_REACTORS
330
198CE059C9C9CF2
102
}
330
198CE059C9C9CF2
100
AcDbScale
 70
     0
300
1-1/2" = 1'-0"
140
1.5
141
12.0
290
     0
  0
SCALE
  5
198CE059C9C9D01
102
{ACAD_REACTORS
330
198CE059C9C9CF2
102
}
330
198CE059C9C9CF2
100
AcDbScale
 70
     0
300
3" = 1'-0"
140
3.0
141
12.0
290
     0
  0
SCALE
  5
198CE059C9C9D02
102
{ACAD_REACTORS
330
198CE059C9C9CF2
102
}
330
198CE059C9C9CF2
100
AcDbScale
 70
     0
300
6" = 1'-0"
140
6.0
141
12.0
290
     0
  0
SCALE
  5
198CE059C9C9D03
102
{ACAD_REACTORS
330
198CE059C9C9CF2
102
}
330
198CE059C9C9CF2
100
AcDbScale
 70
     0
300
1'-0" = 1'-0"
140
12.0
141
12.0
290
     0
  0
ACDBSECTIONVIEWSTYLE
  5
198CE059C9C9D18
102
{ACAD_XDICTIONARY
360
198CE059C9C9F17
102
}
102
{ACAD_REACTORS
330
198CE059C9C9D17
330
198CE059C9C9DDC
102
}
330
198CE059C9C9D17
100
AcDbModelDocViewStyle
 70
     0
  3
Imperial24
290
     0
100
AcDbSectionViewStyle
 70
     0
 71
     0
 90
       78
 71
     1
340
198CE059C9C9D05
 40
0.24
340
0
340
0
 40
0.24
300
I, O, Q, S, X, Z
 40
0.48
 90
        3
 40
0.18
 90
        1
 71
     2
340
198CE059C9C9D0C
 90
       25
340
198CE059C9C9D0C
 90
       50
 40
0.24
 40
0.0
 40
0.24
 71
     3
340
198CE059C9C9D05
 40
0.24
 90
        1
 40
0.75
 90
        1
300
%<\AcVar ViewType \f "%tc1">% %<\AcVar ViewSectionStartId>%-%<\AcVar ViewSectionEndId>%\PVARIA %<\AcVar ViewScale \f "%sn">%
 71
     4
300
ANSI31
 40
1.0
 90
        0
290
     0
290
     0
 90
        6
 40
0.0
 40
1.570796326794896
 40
0.2617993877991494
 40
1.308996938995747
 40
-0.2617993877991494
 40
1.832595714594046
  0
TABLESTYLE
  5
198CE059C9C9D14
102
{ACAD_XDICTIONARY
360
198CE059C9C9ED0
102
}
102
{ACAD_REACTORS
330
198CE059C9C9D13
102
}
330
198CE059C9C9D13
100
AcDbTableStyle
  3
Standard
 70
     0
 71
     0
 40
0.06
 41
0.06
280
     0
281
     0
  7
STANDARD
140
0.18
170
     2
 62
     0
 63
     7
283
     0
274
    -2
284
     1
 64
     0
275
    -2
285
     1
 65
     0
276
    -2
286
     1
 66
     0
277
    -2
287
     1
 67
     0
278
    -2
288
     1
 68
     0
279
    -2
289
     1
 69
     0
  7
STANDARD
140
0.25
170
     5
 62
     0
 63
     7
283
     0
274
    -2
284
     1
 64
     0
275
    -2
285
     1
 65
     0
276
    -2
286
     1
 66
     0
277
    -2
287
     1
 67
     0
278
    -2
288
     1
 68
     0
279
    -2
289
     1
 69
     0
  7
STANDARD
140
0.18
170
     5
 62
     0
 63
     7
283
     0
274
    -2
284
     1
 64
     0
275
    -2
285
     1
 65
     0
276
    -2
286
     1
 66
     0
277
    -2
287
     1
 67
     0
278
    -2
288
     1
 68
     0
279
    -2
289
     1
 69
     0
  0
VISUALSTYLE
  5
198CE059C9C9CDF
102
{ACAD_XDICTIONARY
360
198CE059C9C9EED
102
}
102
{ACAD_REACTORS
330
198CE059C9C9CD9
102
}
330
198CE059C9C9CD9
100
AcDbVisualStyle
  2
2dWireframe
 70
     4
 71
     0
 72
     2
 73
     0
 90
        0
 40
-0.6
 41
-30.0
 62
     5
 63
     7
 74
     1
 91
        4
 64
     7
 65
   257
 75
     1
175
     1
 42
1.0
 92
        0
 66
   257
 43
1.0
 76
     1
 77
     6
 78
     2
 67
     7
 79
     5
170
     0
171
     0
290
     0
174
     0
 93
        1
 44
0.0
173
     0
291
     0
 45
0.0
1001
ACAD
1000
AcDbSavedByObjectVersion
1070
     0
  0
VISUALSTYLE
  5
198CE059C9C9CDE
102
{ACAD_XDICTIONARY
360
198CE059C9C9EEB
102
}
102
{ACAD_REACTORS
330
198CE059C9C9CD9
102
}
330
198CE059C9C9CD9
100
AcDbVisualStyle
  2
Basic
 70
     7
 71
     1
 72
     0
 73
     1
 90
        0
 40
-0.6
 41
-30.0
 62
     5
 63
     7
 74
     0
 91
        4
 64
     7
 65
   257
 75
     1
175
     1
 42
1.0
 92
        8
 66
     7
 43
1.0
 76
     1
 77
     6
 78
     2
 67
     7
 79
     5
170
     0
171
     0
290
     0
174
     0
 93
        1
 44
0.0
173
     0
291
     1
 45
0.0
1001
ACAD
1000
AcDbSavedByObjectVersion
1070
     0
  0
VISUALSTYLE
  5
198CE059C9C9CE5
102
{ACAD_XDICTIONARY
360
198CE059C9C9EF9
102
}
102
{ACAD_REACTORS
330
198CE059C9C9CD9
102
}
330
198CE059C9C9CD9
100
AcDbVisualStyle
  2
Brighten
 70
    12
 71
     2
 72
     2
 73
     0
 90
        0
 40
-0.6
 41
-30.0
 62
     5
 63
     7
 74
     1
 91
        4
 64
     7
 65
   257
 75
     1
175
     1
 42
1.0
 92
        8
 66
     7
 43
1.0
 76
     1
 77
     6
 78
     2
 67
     7
 79
     5
170
     0
171
     0
290
     0
174
     0
 93
        1
 44
50.0
173
     0
291
     1
 45
0.0
1001
ACAD
1000
AcDbSavedByObjectVersion
1070
     0
  0
VISUALSTYLE
  5
198CE059C9C9CE9
102
{ACAD_XDICTIONARY
360
198CE059C9C9F01
102
}
102
{ACAD_REACTORS
330
198CE059C9C9CD9
102
}
330
198CE059C9C9CD9
100
AcDbVisualStyle
  2
ColorChange
 70
    16
 71
     2
 72
     2
 73
     3
 90
        0
 40
-0.6
 41
-30.0
 62
     5
 63
     8
 74
     1
 91
        4
 64
     7
 65
   257
 75
     1
175
     1
 42
1.0
 92
        8
 66
     8
 43
1.0
 76
     1
 77
     6
 78
     2
 67
     7
 79
     5
170
     0
171
     0
290
     0
174
     0
 93
        1
 44
0.0
173
     0
291
     1
 45
0.0
1001
ACAD
1000
AcDbSavedByObjectVersion
1070
     0
  0
VISUALSTYLE
  5
198CE059C9C9CE2
102
{ACAD_XDICTIONARY
360
198CE059C9C9EF3
102
}
102
{ACAD_REACTORS
330
198CE059C9C9CD9
102
}
330
198CE059C9C9CD9
100
AcDbVisualStyle
  2
Conceptual
 70
     9
 71
     3
 72
     2
 73
     0
 90
        0
 40
-0.6
 41
-30.0
 62
     5
 63
     7
 74
     2
 91
        2
 64
     7
 65
   257
 75
     1
175
     1
 42
179.0
 92
        8
 66
     7
 43
1.0
 76
     1
 77
     6
 78
     2
 67
     7
 79
     3
170
     0
171
     0
290
     0
174
     0
 93
        1
 44
0.0
173
     0
291
     0
 45
0.0
1001
ACAD
1000
AcDbSavedByObjectVersion
1070
     0
  0
VISUALSTYLE
  5
198CE059C9C9CE4
102
{ACAD_XDICTIONARY
360
198CE059C9C9EF7
102
}
102
{ACAD_REACTORS
330
198CE059C9C9CD9
102
}
330
198CE059C9C9CD9
100
AcDbVisualStyle
  2
Dim
 70
    11
 71
     2
 72
     2
 73
     0
 90
        0
 40
-0.6
 41
-30.0
 62
     5
 63
     7
 74
     1
 91
        4
 64
     7
 65
   257
 75
     1
175
     1
 42
1.0
 92
        8
 66
     7
 43
1.0
 76
     1
 77
     6
 78
     2
 67
     7
 79
     5
170
     0
171
     0
290
     0
174
     0
 93
        1
 44
-50.0
173
     0
291
     1
 45
0.0
1001
ACAD
1000
AcDbSavedByObjectVersion
1070
     0
  0
VISUALSTYLE
  5
198CE059C9C9CF1
102
{ACAD_XDICTIONARY
360
198CE059C9C9F11
102
}
102
{ACAD_REACTORS
330
198CE059C9C9CD9
102
}
330
198CE059C9C9CD9
100
AcDbVisualStyle
  2
EdgeColorOff
 70
    22
 71
     2
 72
     2
 73
     0
 90
        0
 40
-0.6
 41
-30.0
 62
     5
 63
     7
 74
     1
 91
        4
 64
     7
 65
   257
 75
     1
175
     1
 42
1.0
 92
        8
 66
     7
 43
1.0
 76
     1
 77
     6
 78
     2
 67
     7
 79
     5
170
     0
171
     0
290
     0
174
     0
 93
        1
 44
0.0
173
     0
291
     1
 45
0.0
1001
ACAD
1000
AcDbSavedByObjectVersion
1070
     0
  0
VISUALSTYLE
  5
198CE059C9C9CE8
102
{ACAD_XDICTIONARY
360
198CE059C9C9EFF
102
}
102
{ACAD_REACTORS
330
198CE059C9C9CD9
102
}
330
198CE059C9C9CD9
100
AcDbVisualStyle
  2
Facepattern
 70
    15
 71
     2
 72
     2
 73
     0
 90
        0
 40
-0.6
 41
-30.0
 62
     5
 63
     7
 74
     1
 91
        4
 64
     7
 65
   257
 75
     1
175
     1
 42
1.0
 92
        8
 66
     7
 43
1.0
 76
     1
 77
     6
 78
     2
 67
     7
 79
     5
170
     0
171
     0
290
     0
174
     0
 93
        1
 44
0.0
173
     0
291
     1
 45
0.0
1001
ACAD
1000
AcDbSavedByObjectVersion
1070
     0
  0
VISUALSTYLE
  5
198CE059C9C9CDA
102
{ACAD_XDICTIONARY
360
198CE059C9C9EE3
102
}
102
{ACAD_REACTORS
330
198CE059C9C9CD9
102
}
330
198CE059C9C9CD9
100
AcDbVisualStyle
  2
Flat
 70
     0
 71
     2
 72
     1
 73
     1
 90
        2
 40
-0.6
 41
30.0
 62
     5
 63
     7
 74
     0
 91
        0
 64
     7
 65
   257
 75
     1
175
     1
 42
1.0
 92
        8
 66
     7
 43
1.0
 76
     1
 77
     6
 78
     2
 67
     7
 79
     5
170
     0
171
     0
290
     0
174
     0
 93
       13
 44
0.0
173
     0
291
     1
 45
0.0
1001
ACAD
1000
AcDbSavedByObjectVersion
1070
     0
  0
VISUALSTYLE
  5
198CE059C9C9CDB
102
{ACAD_XDICTIONARY
360
198CE059C9C9EE5
102
}
102
{ACAD_REACTORS
330
198CE059C9C9CD9
102
}
330
198CE059C9C9CD9
100
AcDbVisualStyle
  2
FlatWithEdges
 70
     1
 71
     2
 72
     1
 73
     1
 90
        2
 40
-0.6
 41
30.0
 62
     5
 63
     7
 74
     1
 91
        0
 64
     7
 65
   257
 75
     1
175
     1
 42
1.0
 92
        0
 66
   257
 43
1.0
 76
     1
 77
     6
 78
     2
 67
     7
 79
     5
170
     0
171
     0
290
     0
174
     0
 93
       13
 44
0.0
173
     0
291
     1
 45
0.0
1001
ACAD
1000
AcDbSavedByObjectVersion
1070
     0
  0
VISUALSTYLE
  5
198CE059C9C9CDC
102
{ACAD_XDICTIONARY
360
198CE059C9C9EE7
102
}
102
{ACAD_REACTORS
330
198CE059C9C9CD9
102
}
330
198CE059C9C9CD9
100
AcDbVisualStyle
  2
Gouraud
 70
     2
 71
     2
 72
     2
 73
     1
 90
        2
 40
-0.6
 41
30.0
 62
     5
 63
     7
 74
     0
 91
        0
 64
     7
 65
   257
 75
     1
175
     1
 42
1.0
 92
        0
 66
     7
 43
1.0
 76
     1
 77
     6
 78
     2
 67
     7
 79
     5
170
     0
171
     0
290
     0
174
     0
 93
       13
 44
0.0
173
     0
291
     1
 45
0.0
1001
ACAD
1000
AcDbSavedByObjectVersion
1070
     0
  0
VISUALSTYLE
  5
198CE059C9C9CDD
102
{ACAD_XDICTIONARY
360
198CE059C9C9EE9
102
}
102
{ACAD_REACTORS
330
198CE059C9C9CD9
102
}
330
198CE059C9C9CD9
100
AcDbVisualStyle
  2
GouraudWithEdges
 70
     3
 71
     2
 72
     2
 73
     1
 90
        2
 40
-0.6
 41
30.0
 62
     5
 63
     7
 74
     1
 91
        0
 64
     7
 65
   257
 75
     1
175
     1
 42
1.0
 92
        0
 66
   257
 43
1.0
 76
     1
 77
     6
 78
     2
 67
     7
 79
     5
170
     0
171
     0
290
     0
174
     0
 93
       13
 44
0.0
173
     0
291
     1
 45
0.0
1001
ACAD
1000
AcDbSavedByObjectVersion
1070
     0
  0
VISUALSTYLE
  5
198CE059C9C9CE1
102
{ACAD_XDICTIONARY
360
198CE059C9C9EF1
102
}
102
{ACAD_REACTORS
330
198CE059C9C9CD9
102
}
330
198CE059C9C9CD9
100
AcDbVisualStyle
  2
Hidden
 70
     6
 71
     1
 72
     2
 73
     2
 90
        0
 40
-0.6
 41
-30.0
 62
     5
 63
     7
 74
     2
 91
        2
 64
     7
 65
   257
 75
     2
175
     1
 42
40.0
 92
        0
 66
   257
 43
1.0
 76
     1
 77
     6
 78
     2
 67
     7
 79
     3
170
     0
171
     0
290
     0
174
     0
 93
        1
 44
0.0
173
     0
291
     0
 45
0.0
1001
ACAD
1000
AcDbSavedByObjectVersion
1070
     0
  0
VISUALSTYLE
  5
198CE059C9C9CEF
102
{ACAD_XDICTIONARY
360
198CE059C9C9F0D
102
}
102
{ACAD_REACTORS
330
198CE059C9C9CD9
102
}
330
198CE059C9C9CD9
100
AcDbVisualStyle
  2
JitterOff
 70
    20
 71
     2
 72
     2
 73
     0
 90
        0
 40
-0.6
 41
-30.0
 62
     5
 63
     7
 74
     1
 91
        4
 64
     7
 65
   257
 75
     1
175
     1
 42
1.0
 92
       10
 66
     7
 43
1.0
 76
     1
 77
     6
 78
     2
 67
     7
 79
     5
170
     0
171
     0
290
     0
174
     0
 93
        1
 44
0.0
173
     0
291
     1
 45
0.0
1001
ACAD
1000
AcDbSavedByObjectVersion
1070
     0
  0
VISUALSTYLE
  5
198CE059C9C9CE7
102
{ACAD_XDICTIONARY
360
198CE059C9C9EFD
102
}
102
{ACAD_REACTORS
330
198CE059C9C9CD9
102
}
330
198CE059C9C9CD9
100
AcDbVisualStyle
  2
Linepattern
 70
    14
 71
     2
 72
     2
 73
     0
 90
        0
 40
-0.6
 41
-30.0
 62
     5
 63
     7
 74
     1
 91
        4
 64
     7
 65
   257
 75
     7
175
     7
 42
1.0
 92
        8
 66
     7
 43
1.0
 76
     1
 77
     6
 78
     2
 67
     7
 79
     5
170
     0
171
     0
290
     0
174
     0
 93
        1
 44
0.0
173
     0
291
     1
 45
0.0
1001
ACAD
1000
AcDbSavedByObjectVersion
1070
     0
  0
VISUALSTYLE
  5
198CE059C9C9CF0
102
{ACAD_XDICTIONARY
360
198CE059C9C9F0F
102
}
102
{ACAD_REACTORS
330
198CE059C9C9CD9
102
}
330
198CE059C9C9CD9
100
AcDbVisualStyle
  2
OverhangOff
 70
    21
 71
     2
 72
     2
 73
     0
 90
        0
 40
-0.6
 41
-30.0
 62
     5
 63
     7
 74
     1
 91
        4
 64
     7
 65
   257
 75
     1
175
     1
 42
1.0
 92
        9
 66
     7
 43
1.0
 76
     1
 77
     6
 78
     2
 67
     7
 79
     5
170
     0
171
     0
290
     0
174
     0
 93
        1
 44
0.0
173
     0
291
     1
 45
0.0
1001
ACAD
1000
AcDbSavedByObjectVersion
1070
     0
  0
VISUALSTYLE
  5
198CE059C9C9CE3
102
{ACAD_XDICTIONARY
360
198CE059C9C9EF5
102
}
102
{ACAD_REACTORS
330
198CE059C9C9CD9
102
}
330
198CE059C9C9CD9
100
AcDbVisualStyle
  2
Realistic
 70
     8
 71
     2
 72
     3
 73
     0
 90
        2
 40
-0.6
 41
30.0
 62
     5
 63
     7
 74
     0
 91
        0
 64
     7
 65
   257
 75
     1
175
     1
 42
1.0
 92
        8
 66
   257
 43
1.0
 76
     1
 77
     6
 78
     2
 67
     7
 79
     3
170
     0
171
     0
290
     0
174
     0
 93
       13
 44
0.0
173
     0
291
     0
 45
0.0
1001
ACAD
1000
AcDbSavedByObjectVersion
1070
     0
  0
VISUALSTYLE
  5
198CE059C9C9CEE
102
{ACAD_XDICTIONARY
360
198CE059C9C9F0B
102
}
102
{ACAD_REACTORS
330
198CE059C9C9CD9
102
}
330
198CE059C9C9CD9
100
AcDbVisualStyle
  2
Shaded
 70
    27
 71
     2
 72
     2
 73
     1
 90
        2
 40
-0.6
 41
30.0
 62
     5
 63
     7
 74
     0
 91
        4
 64
     7
 65
   257
 75
     1
175
     1
 42
1.0
 92
        8
 66
   257
 43
1.0
 76
     1
 77
     6
 78
     2
 67
     8
 79
     3
170
     0
171
     0
290
     0
174
     0
 93
        5
 44
0.0
173
     0
291
     0
 45
0.0
1001
ACAD
1000
AcDbSavedByObjectVersion
1070
     0
  0
VISUALSTYLE
  5
198CE059C9C9CED
102
{ACAD_XDICTIONARY
360
198CE059C9C9F09
102
}
102
{ACAD_REACTORS
330
198CE059C9C9CD9
102
}
330
198CE059C9C9CD9
100
AcDbVisualStyle
  2
Shaded with edges
 70
    26
 71
     2
 72
     2
 73
     1
 90
        2
 40
-0.6
 41
30.0
 62
     5
 63
     7
 74
     1
 91
        2
 64
     7
 65
   257
 75
     2
175
     1
 42
1.0
 92
        8
 66
   257
 43
1.0
 76
     1
 77
     6
 78
     2
 67
     7
 79
     3
170
     0
171
     0
290
     0
174
     0
 93
        5
 44
0.0
173
     0
291
     0
 45
0.0
1001
ACAD
1000
AcDbSavedByObjectVersion
1070
     0
  0
VISUALSTYLE
  5
198CE059C9C9CEA
102
{ACAD_XDICTIONARY
360
198CE059C9C9F03
102
}
102
{ACAD_REACTORS
330
198CE059C9C9CD9
102
}
330
198CE059C9C9CD9
100
AcDbVisualStyle
  2
Shades of Gray
 70
    23
 71
     2
 72
     2
 73
     3
 90
        0
 40
-0.6
 41
-30.0
 62
     5
 63
     7
 74
     2
 91
        2
 64
     7
 65
     7
 75
     1
175
     1
 42
40.0
 92
        8
 66
     7
 43
1.0
 76
     1
 77
     6
 78
     2
 67
     7
 79
     3
170
     0
171
     0
290
     0
174
     0
 93
        1
 44
0.0
173
     0
291
     0
 45
0.0
1001
ACAD
1000
AcDbSavedByObjectVersion
1070
     0
  0
VISUALSTYLE
  5
198CE059C9C9CEB
102
{ACAD_XDICTIONARY
360
198CE059C9C9F05
102
}
102
{ACAD_REACTORS
330
198CE059C9C9CD9
102
}
330
198CE059C9C9CD9
100
AcDbVisualStyle
  2
Sketchy
 70
    24
 71
     1
 72
     2
 73
     2
 90
        0
 40
-0.6
 41
-30.0
 62
     5
 63
     7
 74
     2
 91
        2
 64
     7
 65
     7
 75
     1
175
     1
 42
40.0
 92
       11
 66
     7
 43
1.0
 76
     1
 77
     6
 78
     2
 67
     7
 79
     6
170
     0
171
     0
290
     0
174
     0
 93
        1
 44
0.0
173
     0
291
     0
 45
0.0
1001
ACAD
1000
AcDbSavedByObjectVersion
1070
     0
  0
VISUALSTYLE
  5
198CE059C9C9CE6
102
{ACAD_XDICTIONARY
360
198CE059C9C9EFB
102
}
102
{ACAD_REACTORS
330
198CE059C9C9CD9
102
}
330
198CE059C9C9CD9
100
AcDbVisualStyle
  2
Thicken
 70
    13
 71
     2
 72
     2
 73
     0
 90
        0
 40
-0.6
 41
-30.0
 62
     5
 63
     7
 74
     1
 91
        4
 64
     7
 65
   257
 75
     1
175
     1
 42
1.0
 92
       12
 66
     7
 43
1.0
 76
     1
 77
     6
 78
     2
 67
     7
 79
     5
170
     0
171
     0
290
     0
174
     0
 93
        1
 44
0.0
173
     0
291
     1
 45
0.0
1001
ACAD
1000
AcDbSavedByObjectVersion
1070
     0
  0
VISUALSTYLE
  5
198CE059C9C9CE0
102
{ACAD_XDICTIONARY
360
198CE059C9C9EEF
102
}
102
{ACAD_REACTORS
330
198CE059C9C9CD9
102
}
330
198CE059C9C9CD9
100
AcDbVisualStyle
  2
Wireframe
 70
     5
 71
     0
 72
     2
 73
     0
 90
        0
 40
-0.6
 41
-30.0
 62
     5
 63
     7
 74
     1
 91
        4
 64
     7
 65
   257
 75
     1
175
     1
 42
1.0
 92
        0
 66
   257
 43
1.0
 76
     1
 77
     6
 78
     2
 67
     7
 79
     3
170
     0
171
     0
290
     0
174
     0
 93
        1
 44
0.0
173
     0
291
     0
 45
0.0
1001
ACAD
1000
AcDbSavedByObjectVersion
1070
     0
  0
VISUALSTYLE
  5
198CE059C9C9CEC
102
{ACAD_XDICTIONARY
360
198CE059C9C9F07
102
}
102
{ACAD_REACTORS
330
198CE059C9C9CD9
102
}
330
198CE059C9C9CD9
100
AcDbVisualStyle
  2
X-Ray
 70
    25
 71
     2
 72
     2
 73
     1
 90
        1
 40
0.5
 41
-30.0
 62
     5
 63
     7
 74
     1
 91
        0
 64
     7
 65
   257
 75
     1
175
     1
 42
1.0
 92
        8
 66
     7
 43
1.0
 76
     1
 77
     6
 78
     2
 67
     7
 79
     3
170
     0
171
     0
290
     0
174
     0
 93
       13
 44
0.0
173
     0
291
     0
 45
0.0
1001
ACAD
1000
AcDbSavedByObjectVersion
1070
     0
  0
DICTIONARYVAR
  5
198CE059C9C9EC7
102
{ACAD_REACTORS
330
198CE059C9C9EC1
102
}
330
198CE059C9C9EC1
100
DictionaryVariables
280
     0
  1
1:1
  0
DICTIONARYVAR
  5
198CE059C9C9EC3
102
{ACAD_REACTORS
330
198CE059C9C9EC1
102
}
330
198CE059C9C9EC1
100
DictionaryVariables
280
     0
  1
STANDARD
  0
DICTIONARYVAR
  5
198CE059C9C9EC2
102
{ACAD_REACTORS
330
198CE059C9C9EC1
102
}
330
198CE059C9C9EC1
100
DictionaryVariables
280
     0
  1
STANDARD
  0
DICTIONARYVAR
  5
198CE059C9C9EC4
102
{ACAD_REACTORS
330
198CE059C9C9EC1
102
}
330
198CE059C9C9EC1
100
DictionaryVariables
280
     0
  1
Imperial24
  0
DICTIONARYVAR
  5
198CE059C9C9EC5
102
{ACAD_REACTORS
330
198CE059C9C9EC1
102
}
330
198CE059C9C9EC1
100
DictionaryVariables
280
     0
  1
Imperial24
  0
DICTIONARYVAR
  5
198CE059C9C9ECE
102
{ACAD_REACTORS
330
198CE059C9C9EC1
102
}
330
198CE059C9C9EC1
100
DictionaryVariables
280
     0
  1
2
  0
DICTIONARYVAR
  5
198CE059C9C9ECD
102
{ACAD_REACTORS
330
198CE059C9C9EC1
102
}
330
198CE059C9C9EC1
100
DictionaryVariables
280
     0
  1
1
  0
DICTIONARYVAR
  5
198CE059C9C9ECC
102
{ACAD_REACTORS
330
198CE059C9C9EC1
102
}
330
198CE059C9C9EC1
100
DictionaryVariables
280
     0
  1
0
  0
DICTIONARYVAR
  5
198CE059C9C9EC9
102
{ACAD_REACTORS
330
198CE059C9C9EC1
102
}
330
198CE059C9C9EC1
100
DictionaryVariables
280
     0
  1
0
  0
DICTIONARYVAR
  5
198CE059C9C9ECA
102
{ACAD_REACTORS
330
198CE059C9C9EC1
102
}
330
198CE059C9C9EC1
100
DictionaryVariables
280
     0
  1
0
  0
DICTIONARYVAR
  5
198CE059C9C9EC8
102
{ACAD_REACTORS
330
198CE059C9C9EC1
102
}
330
198CE059C9C9EC1
100
DictionaryVariables
280
     0
  1
2
  0
DICTIONARYVAR
  5
198CE059C9C9EC6
102
{ACAD_REACTORS
330
198CE059C9C9EC1
102
}
330
198CE059C9C9EC1
100
DictionaryVariables
280
     0
  1
1
  0
DICTIONARYVAR
  5
198CE059C9C9ECB
102
{ACAD_REACTORS
330
198CE059C9C9EC1
102
}
330
198CE059C9C9EC1
100
DictionaryVariables
280
     0
  1
127
  0
DICTIONARYVAR
  5
198CE059C9C9ECF
102
{ACAD_REACTORS
330
198CE059C9C9EC1
102
}
330
198CE059C9C9EC1
100
DictionaryVariables
280
     0
  1
2
  0
DICTIONARY
  5
198CE059C9C9EDB
102
{ACAD_REACTORS
330
198CE059C9C9ED9
102
}
330
198CE059C9C9ED9
100
AcDbDictionary
281
     1
  0
DICTIONARY
  5
198CE059C9C9EDA
102
{ACAD_REACTORS
330
198CE059C9C9ED9
102
}
330
198CE059C9C9ED9
100
AcDbDictionary
281
     1
  3
998870080
350
198CE059C9C9ED4
  3
998870096
350
198CE059C9C9ED5
  3
998870112
350
198CE059C9C9ED6
  3
998870128
350
198CE059C9C9ED7
  3
998870144
350
198CE059C9C9ED8
  0
DICTIONARY
  5
198CE059C9C9DB0
102
{ACAD_REACTORS
330
198CE059C9C9DA7
102
}
330
198CE059C9C9DA7
100
AcDbDictionary
281
     1
  0
DICTIONARY
  5
198CE059C9C9F19
330
198CE059C9C9D1A
100
AcDbDictionary
280
     1
281
     1
  3
ACAD_XREC_ROUNDTRIP
360
198CE059C9C9F1A
  0
DICTIONARY
  5
198CE059C9C9F21
330
198CE059C9C9E7D
100
AcDbDictionary
280
     1
281
     1
  3
ACAD_XREC_ROUNDTRIP
360
198CE059C9C9F22
  0
DICTIONARY
  5
198CE059C9C9F1B
330
198CE059C9C9D22
100
AcDbDictionary
280
     1
281
     1
  3
ACAD_XREC_ROUNDTRIP
360
198CE059C9C9F1C
  0
DICTIONARY
  5
198CE059C9C9CCA
330
198CE059C9C9CC9
100
AcDbDictionary
280
     1
281
     1
  3
ACAD_XREC_ROUNDTRIP
360
198CE059C9C9EE1
  3
BUMPTILE
360
198CE059C9C9CCC
  3
DIFFUSETILE
360
198CE059C9C9CCB
  3
OPACITYTILE
360
198CE059C9C9CCF
  3
REFLECTIONTILE
360
198CE059C9C9CCE
  3
REFRACTIONTILE
360
198CE059C9C9CD0
  3
SPECULARTILE
360
198CE059C9C9CCD
  0
DICTIONARY
  5
198CE059C9C9CC2
330
198CE059C9C9CC1
100
AcDbDictionary
280
     1
281
     1
  3
ACAD_XREC_ROUNDTRIP
360
198CE059C9C9EE0
  3
BUMPTILE
360
198CE059C9C9CC4
  3
DIFFUSETILE
360
198CE059C9C9CC3
  3
OPACITYTILE
360
198CE059C9C9CC7
  3
REFLECTIONTILE
360
198CE059C9C9CC6
  3
REFRACTIONTILE
360
198CE059C9C9CC8
  3
SPECULARTILE
360
198CE059C9C9CC5
  0
DICTIONARY
  5
198CE059C9C9CD2
330
198CE059C9C9CD1
100
AcDbDictionary
280
     1
281
     1
  3
ACAD_XREC_ROUNDTRIP
360
198CE059C9C9EE2
  3
BUMPTILE
360
198CE059C9C9CD4
  3
DIFFUSETILE
360
198CE059C9C9CD3
  3
OPACITYTILE
360
198CE059C9C9CD7
  3
REFLECTIONTILE
360
198CE059C9C9CD6
  3
REFRACTIONTILE
360
198CE059C9C9CD8
  3
SPECULARTILE
360
198CE059C9C9CD5
  0
DICTIONARY
  5
198CE059C9C9F15
330
198CE059C9C9D16
100
AcDbDictionary
280
     1
281
     1
  3
ACAD_XREC_ROUNDTRIP
360
198CE059C9C9F16
  0
DICTIONARY
  5
198CE059C9C9F17
330
198CE059C9C9D18
100
AcDbDictionary
280
     1
281
     1
  3
ACAD_XREC_ROUNDTRIP
360
198CE059C9C9F18
  0
DICTIONARY
  5
198CE059C9C9ED0
330
198CE059C9C9D14
100
AcDbDictionary
280
     1
281
     1
  3
ACAD_ROUNDTRIP_2008_TABLESTYLE_CELLSTYLEMAP
360
198CE059C9C9ED1
  3
ACAD_XREC_ROUNDTRIP
360
198CE059C9C9F13
  0
DICTIONARY
  5
198CE059C9C9EED
330
198CE059C9C9CDF
100
AcDbDictionary
280
     1
281
     1
  3
ACAD_XREC_ROUNDTRIP
360
198CE059C9C9EEE
  0
DICTIONARY
  5
198CE059C9C9EEB
330
198CE059C9C9CDE
100
AcDbDictionary
280
     1
281
     1
  3
ACAD_XREC_ROUNDTRIP
360
198CE059C9C9EEC
  0
DICTIONARY
  5
198CE059C9C9EF9
330
198CE059C9C9CE5
100
AcDbDictionary
280
     1
281
     1
  3
ACAD_XREC_ROUNDTRIP
360
198CE059C9C9EFA
  0
DICTIONARY
  5
198CE059C9C9F01
330
198CE059C9C9CE9
100
AcDbDictionary
280
     1
281
     1
  3
ACAD_XREC_ROUNDTRIP
360
198CE059C9C9F02
  0
DICTIONARY
  5
198CE059C9C9EF3
330
198CE059C9C9CE2
100
AcDbDictionary
280
     1
281
     1
  3
ACAD_XREC_ROUNDTRIP
360
198CE059C9C9EF4
  0
DICTIONARY
  5
198CE059C9C9EF7
330
198CE059C9C9CE4
100
AcDbDictionary
280
     1
281
     1
  3
ACAD_XREC_ROUNDTRIP
360
198CE059C9C9EF8
  0
DICTIONARY
  5
198CE059C9C9F11
330
198CE059C9C9CF1
100
AcDbDictionary
280
     1
281
     1
  3
ACAD_XREC_ROUNDTRIP
360
198CE059C9C9F12
  0
DICTIONARY
  5
198CE059C9C9EFF
330
198CE059C9C9CE8
100
AcDbDictionary
280
     1
281
     1
  3
ACAD_XREC_ROUNDTRIP
360
198CE059C9C9F00
  0
DICTIONARY
  5
198CE059C9C9EE3
330
198CE059C9C9CDA
100
AcDbDictionary
280
     1
281
     1
  3
ACAD_XREC_ROUNDTRIP
360
198CE059C9C9EE4
  0
DICTIONARY
  5
198CE059C9C9EE5
330
198CE059C9C9CDB
100
AcDbDictionary
280
     1
281
     1
  3
ACAD_XREC_ROUNDTRIP
360
198CE059C9C9EE6
  0
DICTIONARY
  5
198CE059C9C9EE7
330
198CE059C9C9CDC
100
AcDbDictionary
280
     1
281
     1
  3
ACAD_XREC_ROUNDTRIP
360
198CE059C9C9EE8
  0
DICTIONARY
  5
198CE059C9C9EE9
330
198CE059C9C9CDD
100
AcDbDictionary
280
     1
281
     1
  3
ACAD_XREC_ROUNDTRIP
360
198CE059C9C9EEA
  0
DICTIONARY
  5
198CE059C9C9EF1
330
198CE059C9C9CE1
100
AcDbDictionary
280
     1
281
     1
  3
ACAD_XREC_ROUNDTRIP
360
198CE059C9C9EF2
  0
DICTIONARY
  5
198CE059C9C9F0D
330
198CE059C9C9CEF
100
AcDbDictionary
280
     1
281
     1
  3
ACAD_XREC_ROUNDTRIP
360
198CE059C9C9F0E
  0
DICTIONARY
  5
198CE059C9C9EFD
330
198CE059C9C9CE7
100
AcDbDictionary
280
     1
281
     1
  3
ACAD_XREC_ROUNDTRIP
360
198CE059C9C9EFE
  0
DICTIONARY
  5
198CE059C9C9F0F
330
198CE059C9C9CF0
100
AcDbDictionary
280
     1
281
     1
  3
ACAD_XREC_ROUNDTRIP
360
198CE059C9C9F10
  0
DICTIONARY
  5
198CE059C9C9EF5
330
198CE059C9C9CE3
100
AcDbDictionary
280
     1
281
     1
  3
ACAD_XREC_ROUNDTRIP
360
198CE059C9C9EF6
  0
DICTIONARY
  5
198CE059C9C9F0B
330
198CE059C9C9CEE
100
AcDbDictionary
280
     1
281
     1
  3
ACAD_XREC_ROUNDTRIP
360
198CE059C9C9F0C
  0
DICTIONARY
  5
198CE059C9C9F09
330
198CE059C9C9CED
100
AcDbDictionary
280
     1
281
     1
  3
ACAD_XREC_ROUNDTRIP
360
198CE059C9C9F0A
  0
DICTIONARY
  5
198CE059C9C9F03
330
198CE059C9C9CEA
100
AcDbDictionary
280
     1
281
     1
  3
ACAD_XREC_ROUNDTRIP
360
198CE059C9C9F04
  0
DICTIONARY
  5
198CE059C9C9F05
330
198CE059C9C9CEB
100
AcDbDictionary
280
     1
281
     1
  3
ACAD_XREC_ROUNDTRIP
360
198CE059C9C9F06
  0
DICTIONARY
  5
198CE059C9C9EFB
330
198CE059C9C9CE6
100
AcDbDictionary
280
     1
281
     1
  3
ACAD_XREC_ROUNDTRIP
360
198CE059C9C9EFC
  0
DICTIONARY
  5
198CE059C9C9EEF
330
198CE059C9C9CE0
100
AcDbDictionary
280
     1
281
     1
  3
ACAD_XREC_ROUNDTRIP
360
198CE059C9C9EF0
  0
DICTIONARY
  5
198CE059C9C9F07
330
198CE059C9C9CEC
100
AcDbDictionary
280
     1
281
     1
  3
ACAD_XREC_ROUNDTRIP
360
198CE059C9C9F08
  0
XRECORD
  5
198CE059C9C9ED4
102
{ACAD_REACTORS
330
198CE059C9C9EDA
102
}
330
198CE059C9C9EDA
100
AcDbXrecord
280
     1
  1
AcDb_Thumbnail_Schema
102
{ATTRRECORD
341
198CE059C9C9ED5
  2
AcDbDs::TreatedAsObjectData
280
     1
291
     1
102
ATTRRECORD}
102
{ATTRRECORD
341
198CE059C9C9ED6
  2
AcDbDs::Legacy
280
     1
291
     1
102
ATTRRECORD}
  2
AcDbDs::ID
280
    10
 91
        8
102
{ATTRRECORD
341
198CE059C9C9ED7
  2
AcDs:Indexable
280
     1
291
     1
102
ATTRRECORD}
102
{ATTRRECORD
341
198CE059C9C9ED8
  2
AcDbDs::HandleAttribute
280
     7
282
     1
102
ATTRRECORD}
  2
Thumbnail_Data
280
    15
 91
        0
  0
XRECORD
  5
198CE059C9C9ED5
102
{ACAD_REACTORS
330
198CE059C9C9EDA
102
}
330
198CE059C9C9EDA
100
AcDbXrecord
280
     1
  1
AcDbDs::TreatedAsObjectDataSchema
  2
AcDbDs::TreatedAsObjectData
280
     1
 91
        0
  0
XRECORD
  5
198CE059C9C9ED6
102
{ACAD_REACTORS
330
198CE059C9C9EDA
102
}
330
198CE059C9C9EDA
100
AcDbXrecord
280
     1
  1
AcDbDs::LegacySchema
  2
AcDbDs::Legacy
280
     1
 91
        0
  0
XRECORD
  5
198CE059C9C9ED7
102
{ACAD_REACTORS
330
198CE059C9C9EDA
102
}
330
198CE059C9C9EDA
100
AcDbXrecord
280
     1
  1
AcDbDs::IndexedPropertySchema
  2
AcDs:Indexable
280
     1
 91
        0
  0
XRECORD
  5
198CE059C9C9ED8
102
{ACAD_REACTORS
330
198CE059C9C9EDA
102
}
330
198CE059C9C9EDA
100
AcDbXrecord
280
     1
  1
AcDbDs::HandleAttributeSchema
  2
AcDbDs::HandleAttribute
280
     7
 91
        1
284
     1
  0
XRECORD
  5
198CE059C9C9F1A
102
{ACAD_REACTORS
330
198CE059C9C9F19
102
}
330
198CE059C9C9F19
100
AcDbXrecord
280
     1
102
DISPLAYNAME
  1
Imperial24
102
FLAGS
 90
        0
  0
XRECORD
  5
198CE059C9C9F22
102
{ACAD_REACTORS
330
198CE059C9C9F21
102
}
330
198CE059C9C9F21
100
AcDbXrecord
280
     1
102
SHADEPLOT
 70
     0
102
SHADEPLOTRESLEVEL
 70
     2
102
SHADEPLOTCUSTOMDPI
 70
   300
  0
XRECORD
  5
198CE059C9C9F1C
102
{ACAD_REACTORS
330
198CE059C9C9F1B
102
}
330
198CE059C9C9F1B
100
AcDbXrecord
280
     1
102
SHADEPLOT
 70
     0
102
SHADEPLOTRESLEVEL
 70
     2
102
SHADEPLOTCUSTOMDPI
 70
   300
  0
XRECORD
  5
198CE059C9C9EE1
102
{ACAD_REACTORS
330
198CE059C9C9CCA
102
}
330
198CE059C9C9CCA
100
AcDbXrecord
280
     1
102
MATERIAL
148
0.0
149
0.0
149
0.0
 93
        0
 94
      127
282
     0
 72
     0
 77
     0
171
     0
175
     0
179
     0
273
     0
  0
XRECORD
  5
198CE059C9C9CCC
102
{ACAD_REACTORS
330
198CE059C9C9CCA
102
}
330
198CE059C9C9CCA
100
AcDbXrecord
280
     1
270
     1
271
     1
  0
XRECORD
  5
198CE059C9C9CCB
102
{ACAD_REACTORS
330
198CE059C9C9CCA
102
}
330
198CE059C9C9CCA
100
AcDbXrecord
280
     1
270
     1
271
     1
  0
XRECORD
  5
198CE059C9C9CCF
102
{ACAD_REACTORS
330
198CE059C9C9CCA
102
}
330
198CE059C9C9CCA
100
AcDbXrecord
280
     1
270
     1
271
     1
  0
XRECORD
  5
198CE059C9C9CCE
102
{ACAD_REACTORS
330
198CE059C9C9CCA
102
}
330
198CE059C9C9CCA
100
AcDbXrecord
280
     1
270
     1
271
     1
  0
XRECORD
  5
198CE059C9C9CD0
102
{ACAD_REACTORS
330
198CE059C9C9CCA
102
}
330
198CE059C9C9CCA
100
AcDbXrecord
280
     1
270
     1
271
     1
  0
XRECORD
  5
198CE059C9C9CCD
102
{ACAD_REACTORS
330
198CE059C9C9CCA
102
}
330
198CE059C9C9CCA
100
AcDbXrecord
280
     1
270
     1
271
     1
  0
XRECORD
  5
198CE059C9C9EE0
102
{ACAD_REACTORS
330
198CE059C9C9CC2
102
}
330
198CE059C9C9CC2
100
AcDbXrecord
280
     1
102
MATERIAL
148
0.0
149
0.0
149
0.0
 93
        0
 94
      127
282
     0
 72
     0
 77
     0
171
     0
175
     0
179
     0
273
     0
  0
XRECORD
  5
198CE059C9C9CC4
102
{ACAD_REACTORS
330
198CE059C9C9CC2
102
}
330
198CE059C9C9CC2
100
AcDbXrecord
280
     1
270
     1
271
     1
  0
XRECORD
  5
198CE059C9C9CC3
102
{ACAD_REACTORS
330
198CE059C9C9CC2
102
}
330
198CE059C9C9CC2
100
AcDbXrecord
280
     1
270
     1
271
     1
  0
XRECORD
  5
198CE059C9C9CC7
102
{ACAD_REACTORS
330
198CE059C9C9CC2
102
}
330
198CE059C9C9CC2
100
AcDbXrecord
280
     1
270
     1
271
     1
  0
XRECORD
  5
198CE059C9C9CC6
102
{ACAD_REACTORS
330
198CE059C9C9CC2
102
}
330
198CE059C9C9CC2
100
AcDbXrecord
280
     1
270
     1
271
     1
  0
XRECORD
  5
198CE059C9C9CC8
102
{ACAD_REACTORS
330
198CE059C9C9CC2
102
}
330
198CE059C9C9CC2
100
AcDbXrecord
280
     1
270
     1
271
     1
  0
XRECORD
  5
198CE059C9C9CC5
102
{ACAD_REACTORS
330
198CE059C9C9CC2
102
}
330
198CE059C9C9CC2
100
AcDbXrecord
280
     1
270
     1
271
     1
  0
XRECORD
  5
198CE059C9C9EE2
102
{ACAD_REACTORS
330
198CE059C9C9CD2
102
}
330
198CE059C9C9CD2
100
AcDbXrecord
280
     1
102
MATERIAL
148
0.0
149
0.0
149
0.0
 93
        0
 94
      127
282
     0
 72
     0
 77
     0
171
     0
175
     0
179
     0
273
     0
  0
XRECORD
  5
198CE059C9C9CD4
102
{ACAD_REACTORS
330
198CE059C9C9CD2
102
}
330
198CE059C9C9CD2
100
AcDbXrecord
280
     1
270
     1
271
     1
  0
XRECORD
  5
198CE059C9C9CD3
102
{ACAD_REACTORS
330
198CE059C9C9CD2
102
}
330
198CE059C9C9CD2
100
AcDbXrecord
280
     1
270
     1
271
     1
  0
XRECORD
  5
198CE059C9C9CD7
102
{ACAD_REACTORS
330
198CE059C9C9CD2
102
}
330
198CE059C9C9CD2
100
AcDbXrecord
280
     1
270
     1
271
     1
  0
XRECORD
  5
198CE059C9C9CD6
102
{ACAD_REACTORS
330
198CE059C9C9CD2
102
}
330
198CE059C9C9CD2
100
AcDbXrecord
280
     1
270
     1
271
     1
  0
XRECORD
  5
198CE059C9C9CD8
102
{ACAD_REACTORS
330
198CE059C9C9CD2
102
}
330
198CE059C9C9CD2
100
AcDbXrecord
280
     1
270
     1
271
     1
  0
XRECORD
  5
198CE059C9C9CD5
102
{ACAD_REACTORS
330
198CE059C9C9CD2
102
}
330
198CE059C9C9CD2
100
AcDbXrecord
280
     1
270
     1
271
     1
  0
XRECORD
  5
198CE059C9C9F16
102
{ACAD_REACTORS
330
198CE059C9C9F15
102
}
330
198CE059C9C9F15
100
AcDbXrecord
280
     1
102
ACAD_ROUNDTRIP_2012_MLEADER_STYLE
298
     1
  0
XRECORD
  5
198CE059C9C9F18
102
{ACAD_REACTORS
330
198CE059C9C9F17
102
}
330
198CE059C9C9F17
100
AcDbXrecord
280
     1
102
DISPLAYNAME
  1
Imperial24
102
FLAGS
 90
        0
  0
CELLSTYLEMAP
  5
198CE059C9C9ED1
102
{ACAD_REACTORS
330
198CE059C9C9ED0
102
}
330
198CE059C9C9ED0
100
AcDbCellStyleMap
 90
        3
300
CELLSTYLE
  1
TABLEFORMAT_BEGIN
 90
        5
170
     1
 91
        0
 92
    32768
 62
   257
 93
        1
300
CONTENTFORMAT
  1
CONTENTFORMAT_BEGIN
 90
        0
 91
        0
 92
      512
 93
        0
300

 40
0.0
140
1.0
 94
        5
 62
     0
340
198CE059C9C9D05
144
0.25
309
CONTENTFORMAT_END
171
     0
 94
        0
309
TABLEFORMAT_END
  1
CELLSTYLE_BEGIN
 90
        1
 91
        1
300
_TITLE
309
CELLSTYLE_END
300
CELLSTYLE
  1
TABLEFORMAT_BEGIN
 90
        5
170
     1
 91
        0
 92
        0
 62
   257
 93
        1
300
CONTENTFORMAT
  1
CONTENTFORMAT_BEGIN
 90
        0
 91
        0
 92
      512
 93
        0
300

 40
0.0
140
1.0
 94
        5
 62
     0
340
198CE059C9C9D05
144
0.18
309
CONTENTFORMAT_END
171
     0
 94
        0
309
TABLEFORMAT_END
  1
CELLSTYLE_BEGIN
 90
        2
 91
        1
300
_HEADER
309
CELLSTYLE_END
300
CELLSTYLE
  1
TABLEFORMAT_BEGIN
 90
        5
170
     1
 91
        0
 92
        0
 62
   257
 93
        1
300
CONTENTFORMAT
  1
CONTENTFORMAT_BEGIN
 90
        0
 91
        0
 92
      512
 93
        0
300

 40
0.0
140
1.0
 94
        2
 62
     0
340
198CE059C9C9D05
144
0.18
309
CONTENTFORMAT_END
171
     0
 94
        0
309
TABLEFORMAT_END
  1
CELLSTYLE_BEGIN
 90
        3
 91
        2
300
_DATA
309
CELLSTYLE_END
  0
XRECORD
  5
198CE059C9C9F13
102
{ACAD_REACTORS
330
198CE059C9C9ED0
102
}
330
198CE059C9C9ED0
100
AcDbXrecord
280
     1
102
ACAD_ROUNDTRIP_PRE2007_TABLESTYLE
 90
      512
 91
        0
  1

 92
      512
 93
        0
  2

 94
      512
 95
        0
  3

  0
XRECORD
  5
198CE059C9C9EEE
102
{ACAD_REACTORS
330
198CE059C9C9EED
102
}
330
198CE059C9C9EED
100
AcDbXrecord
280
     1
102
RTVSPost2010Prop28
280
     1
102
RTVSPost2010PropOp28
 70
     1
102
RTVSPost2010Prop29
280
     1
102
RTVSPost2010PropOp29
 70
     1
102
RTVSPost2010Prop30
280
     0
102
RTVSPost2010PropOp30
 70
     1
102
RTVSPost2010Prop31
280
     0
102
RTVSPost2010PropOp31
 70
     1
102
RTVSPost2010Prop32
280
     0
102
RTVSPost2010PropOp32
 70
     1
102
RTVSPost2010Prop33
280
     0
102
RTVSPost2010PropOp33
 70
     1
102
RTVSPost2010Prop34
280
     0
102
RTVSPost2010PropOp34
 70
     1
102
RTVSPost2010Prop35
280
     0
102
RTVSPost2010PropOp35
 70
     1
102
RTVSPost2010Prop36
280
     0
102
RTVSPost2010PropOp36
 70
     1
102
RTVSPost2010Prop37
 90
       50
102
RTVSPost2010PropOp37
 70
     1
102
RTVSPost2010Prop38
140
0.0
102
RTVSPost2010PropOp38
 70
     1
102
RTVSPost2010Prop39
140
1.0
102
RTVSPost2010PropOp39
 70
     1
102
RTVSPost2010Prop40
 90
        0
102
RTVSPost2010PropOp40
 70
     1
102
RTVSPost2010Prop41ColorIndex
 90
       18
102
RTVSPost2010Prop41ColorRGB
 90
        0
102
RTVSPost2010PropOp41
 70
     1
102
RTVSPost2010Prop42
 90
       50
102
RTVSPost2010PropOp42
 70
     1
102
RTVSPost2010Prop43
 90
        3
102
RTVSPost2010PropOp43
 70
     1
102
RTVSPost2010Prop44ColorIndex
 90
        5
102
RTVSPost2010Prop44ColorRGB
 90
      255
102
RTVSPost2010PropOp44
 70
     1
102
RTVSPost2010Prop45
280
     0
102
RTVSPost2010PropOp45
 70
     1
102
RTVSPost2010Prop46
 90
       50
102
RTVSPost2010PropOp46
 70
     1
102
RTVSPost2010Prop47
 90
       50
102
RTVSPost2010PropOp47
 70
     1
102
RTVSPost2010Prop48
 90
       50
102
RTVSPost2010PropOp48
 70
     1
102
RTVSPost2010Prop49
280
     0
102
RTVSPost2010PropOp49
 70
     1
102
RTVSPost2010Prop50
 90
       50
102
RTVSPost2010PropOp50
 70
     1
102
RTVSPost2010Prop51ColorIndex
 90
      256
102
RTVSPost2010Prop51ColorRGB
 90
-16777216
102
RTVSPost2010PropOp51
 70
     0
102
RTVSPost2010Prop52
140
1.0
102
RTVSPost2010PropOp52
 70
     0
102
RTVSPost2010Prop53
 90
        2
102
RTVSPost2010PropOp53
 70
     1
102
RTVSPost2010Prop54
  1
strokes_ogs.tif
102
RTVSPost2010PropOp54
 70
     1
102
RTVSPost2010Prop55
280
     0
102
RTVSPost2010PropOp55
 70
     1
102
RTVSPost2010Prop56
140
1.0
102
RTVSPost2010PropOp56
 70
     1
102
RTVSPost2010Prop57
140
1.0
102
RTVSPost2010PropOp57
 70
     1
102
RTVSPropertyOp0
 70
     1
102
RTVSPropertyOp1
 70
     1
102
RTVSPropertyOp2
 70
     1
102
RTVSPropertyOp3
 70
     1
102
RTVSPropertyOp4
 70
     1
102
RTVSPropertyOp5
 70
     1
102
RTVSPropertyOp6
 70
     1
102
RTVSPropertyOp7
 70
     1
102
RTVSPropertyOp8
 70
     1
102
RTVSPropertyOp9
 70
     1
102
RTVSPropertyOp10
 70
     1
102
RTVSPropertyOp11
 70
     1
102
RTVSPropertyOp12
 70
     1
102
RTVSPropertyOp13
 70
     1
102
RTVSPropertyOp14
 70
     1
102
RTVSPropertyOp15
 70
     1
102
RTVSPropertyOp16
 70
     1
102
RTVSPropertyOp17
 70
     1
102
RTVSPropertyOp18
 70
     1
102
RTVSPropertyOp19
 70
     1
102
RTVSPropertyOp20
 70
     1
102
RTVSPropertyOp21
 70
     1
102
RTVSPropertyOp22
 70
     1
102
RTVSPropertyOp23
 70
     1
102
RTVSPropertyOp24
 70
     1
102
RTVSPropertyOp25
 70
     1
102
RTVSPropertyOp26
 70
     1
102
RTVSPropertyOp27
 70
     1
102
RTVSPropertyOp28
 70
     1
102
RTVSPropertyOp29
 70
     1
102
RTVSPropertyOp30
 70
     1
102
RTVSPropertyOp31
 70
     1
102
RTVSPropertyOp32
 70
     1
102
RTVSPropertyOp33
 70
     1
102
RTVSPropertyOp34
 70
     1
102
RTVSPropertyOp35
 70
     1
102
RTVSPropertyOp36
 70
     1
102
RTVSPropertyOp37
 70
     1
102
RTVSPropertyOp38
 70
     1
102
RTVSPropertyOp39
 70
     1
102
RTVSPropertyOp40
 70
     1
102
RTVSPropertyOp41
 70
     1
102
RTVSPropertyOp42
 70
     1
102
RTVSPropertyOp43
 70
     1
102
RTVSPropertyOp44
 70
     1
102
RTVSPropertyOp45
 70
     1
102
RTVSPropertyOp46
 70
     1
102
RTVSPropertyOp47
 70
     1
102
RTVSPropertyOp48
 70
     1
102
RTVSPropertyOp49
 70
     1
102
RTVSPropertyOp50
 70
     1
102
RTVSPropertyOp51
 70
     0
102
RTVSPropertyOp52
 70
     0
102
RTVSPropertyOp53
 70
     1
102
RTVSPropertyOp54
 70
     1
102
RTVSPropertyOp55
 70
     1
102
RTVSPropertyOp56
 70
     1
102
RTVSPropertyOp57
 70
     1
102
RTVSPropertyOp58
 70
     1
102
RTVSPropertyOp59
 70
     1
102
RTVSPropertyOp60
 70
     1
102
RTVSPropertyOp61
 70
     1
102
RTVSPropertyOp62
 70
     1
  0
XRECORD
  5
198CE059C9C9EEC
102
{ACAD_REACTORS
330
198CE059C9C9EEB
102
}
330
198CE059C9C9EEB
100
AcDbXrecord
280
     1
102
RTVSPost2010Prop28
280
     0
102
RTVSPost2010PropOp28
 70
     1
102
RTVSPost2010Prop29
280
     1
102
RTVSPost2010PropOp29
 70
     1
102
RTVSPost2010Prop30
280
     1
102
RTVSPost2010PropOp30
 70
     1
102
RTVSPost2010Prop31
280
     0
102
RTVSPost2010PropOp31
 70
     1
102
RTVSPost2010Prop32
280
     0
102
RTVSPost2010PropOp32
 70
     1
102
RTVSPost2010Prop33
280
     0
102
RTVSPost2010PropOp33
 70
     1
102
RTVSPost2010Prop34
280
     0
102
RTVSPost2010PropOp34
 70
     1
102
RTVSPost2010Prop35
280
     0
102
RTVSPost2010PropOp35
 70
     1
102
RTVSPost2010Prop36
280
     0
102
RTVSPost2010PropOp36
 70
     1
102
RTVSPost2010Prop37
 90
       50
102
RTVSPost2010PropOp37
 70
     1
102
RTVSPost2010Prop38
140
0.0
102
RTVSPost2010PropOp38
 70
     1
102
RTVSPost2010Prop39
140
1.0
102
RTVSPost2010PropOp39
 70
     1
102
RTVSPost2010Prop40
 90
        0
102
RTVSPost2010PropOp40
 70
     1
102
RTVSPost2010Prop41ColorIndex
 90
       18
102
RTVSPost2010Prop41ColorRGB
 90
        0
102
RTVSPost2010PropOp41
 70
     1
102
RTVSPost2010Prop42
 90
       50
102
RTVSPost2010PropOp42
 70
     1
102
RTVSPost2010Prop43
 90
        3
102
RTVSPost2010PropOp43
 70
     1
102
RTVSPost2010Prop44ColorIndex
 90
        5
102
RTVSPost2010Prop44ColorRGB
 90
      255
102
RTVSPost2010PropOp44
 70
     1
102
RTVSPost2010Prop45
280
     0
102
RTVSPost2010PropOp45
 70
     1
102
RTVSPost2010Prop46
 90
       50
102
RTVSPost2010PropOp46
 70
     1
102
RTVSPost2010Prop47
 90
       50
102
RTVSPost2010PropOp47
 70
     1
102
RTVSPost2010Prop48
 90
       50
102
RTVSPost2010PropOp48
 70
     1
102
RTVSPost2010Prop49
280
     0
102
RTVSPost2010PropOp49
 70
     1
102
RTVSPost2010Prop50
 90
       50
102
RTVSPost2010PropOp50
 70
     1
102
RTVSPost2010Prop51ColorIndex
 90
      256
102
RTVSPost2010Prop51ColorRGB
 90
-16777216
102
RTVSPost2010PropOp51
 70
     0
102
RTVSPost2010Prop52
140
1.0
102
RTVSPost2010PropOp52
 70
     0
102
RTVSPost2010Prop53
 90
        2
102
RTVSPost2010PropOp53
 70
     1
102
RTVSPost2010Prop54
  1
strokes_ogs.tif
102
RTVSPost2010PropOp54
 70
     1
102
RTVSPost2010Prop55
280
     0
102
RTVSPost2010PropOp55
 70
     1
102
RTVSPost2010Prop56
140
1.0
102
RTVSPost2010PropOp56
 70
     1
102
RTVSPost2010Prop57
140
1.0
102
RTVSPost2010PropOp57
 70
     1
102
RTVSPropertyOp0
 70
     1
102
RTVSPropertyOp1
 70
     1
102
RTVSPropertyOp2
 70
     1
102
RTVSPropertyOp3
 70
     1
102
RTVSPropertyOp4
 70
     1
102
RTVSPropertyOp5
 70
     1
102
RTVSPropertyOp6
 70
     1
102
RTVSPropertyOp7
 70
     1
102
RTVSPropertyOp8
 70
     1
102
RTVSPropertyOp9
 70
     1
102
RTVSPropertyOp10
 70
     1
102
RTVSPropertyOp11
 70
     1
102
RTVSPropertyOp12
 70
     1
102
RTVSPropertyOp13
 70
     1
102
RTVSPropertyOp14
 70
     1
102
RTVSPropertyOp15
 70
     1
102
RTVSPropertyOp16
 70
     1
102
RTVSPropertyOp17
 70
     1
102
RTVSPropertyOp18
 70
     1
102
RTVSPropertyOp19
 70
     1
102
RTVSPropertyOp20
 70
     1
102
RTVSPropertyOp21
 70
     1
102
RTVSPropertyOp22
 70
     1
102
RTVSPropertyOp23
 70
     1
102
RTVSPropertyOp24
 70
     1
102
RTVSPropertyOp25
 70
     1
102
RTVSPropertyOp26
 70
     1
102
RTVSPropertyOp27
 70
     1
102
RTVSPropertyOp28
 70
     1
102
RTVSPropertyOp29
 70
     1
102
RTVSPropertyOp30
 70
     1
102
RTVSPropertyOp31
 70
     1
102
RTVSPropertyOp32
 70
     1
102
RTVSPropertyOp33
 70
     1
102
RTVSPropertyOp34
 70
     1
102
RTVSPropertyOp35
 70
     1
102
RTVSPropertyOp36
 70
     1
102
RTVSPropertyOp37
 70
     1
102
RTVSPropertyOp38
 70
     1
102
RTVSPropertyOp39
 70
     1
102
RTVSPropertyOp40
 70
     1
102
RTVSPropertyOp41
 70
     1
102
RTVSPropertyOp42
 70
     1
102
RTVSPropertyOp43
 70
     1
102
RTVSPropertyOp44
 70
     1
102
RTVSPropertyOp45
 70
     1
102
RTVSPropertyOp46
 70
     1
102
RTVSPropertyOp47
 70
     1
102
RTVSPropertyOp48
 70
     1
102
RTVSPropertyOp49
 70
     1
102
RTVSPropertyOp50
 70
     1
102
RTVSPropertyOp51
 70
     0
102
RTVSPropertyOp52
 70
     0
102
RTVSPropertyOp53
 70
     1
102
RTVSPropertyOp54
 70
     1
102
RTVSPropertyOp55
 70
     1
102
RTVSPropertyOp56
 70
     1
102
RTVSPropertyOp57
 70
     1
102
RTVSPropertyOp58
 70
     1
102
RTVSPropertyOp59
 70
     1
102
RTVSPropertyOp60
 70
     1
102
RTVSPropertyOp61
 70
     1
102
RTVSPropertyOp62
 70
     1
  0
XRECORD
  5
198CE059C9C9EFA
102
{ACAD_REACTORS
330
198CE059C9C9EF9
102
}
330
198CE059C9C9EF9
100
AcDbXrecord
280
     1
102
RTVSPost2010Prop28
280
     0
102
RTVSPost2010PropOp28
 70
     1
102
RTVSPost2010Prop29
280
     1
102
RTVSPost2010PropOp29
 70
     1
102
RTVSPost2010Prop30
280
     1
102
RTVSPost2010PropOp30
 70
     1
102
RTVSPost2010Prop31
280
     0
102
RTVSPost2010PropOp31
 70
     1
102
RTVSPost2010Prop32
280
     0
102
RTVSPost2010PropOp32
 70
     1
102
RTVSPost2010Prop33
280
     0
102
RTVSPost2010PropOp33
 70
     1
102
RTVSPost2010Prop34
280
     0
102
RTVSPost2010PropOp34
 70
     1
102
RTVSPost2010Prop35
280
     0
102
RTVSPost2010PropOp35
 70
     1
102
RTVSPost2010Prop36
280
     0
102
RTVSPost2010PropOp36
 70
     1
102
RTVSPost2010Prop37
 90
       50
102
RTVSPost2010PropOp37
 70
     1
102
RTVSPost2010Prop38
140
0.0
102
RTVSPost2010PropOp38
 70
     1
102
RTVSPost2010Prop39
140
1.0
102
RTVSPost2010PropOp39
 70
     1
102
RTVSPost2010Prop40
 90
        0
102
RTVSPost2010PropOp40
 70
     1
102
RTVSPost2010Prop41ColorIndex
 90
       18
102
RTVSPost2010Prop41ColorRGB
 90
        0
102
RTVSPost2010PropOp41
 70
     1
102
RTVSPost2010Prop42
 90
       50
102
RTVSPost2010PropOp42
 70
     1
102
RTVSPost2010Prop43
 90
        3
102
RTVSPost2010PropOp43
 70
     1
102
RTVSPost2010Prop44ColorIndex
 90
        5
102
RTVSPost2010Prop44ColorRGB
 90
      255
102
RTVSPost2010PropOp44
 70
     1
102
RTVSPost2010Prop45
280
     0
102
RTVSPost2010PropOp45
 70
     1
102
RTVSPost2010Prop46
 90
       50
102
RTVSPost2010PropOp46
 70
     1
102
RTVSPost2010Prop47
 90
       50
102
RTVSPost2010PropOp47
 70
     1
102
RTVSPost2010Prop48
 90
       50
102
RTVSPost2010PropOp48
 70
     1
102
RTVSPost2010Prop49
280
     0
102
RTVSPost2010PropOp49
 70
     1
102
RTVSPost2010Prop50
 90
       50
102
RTVSPost2010PropOp50
 70
     1
102
RTVSPost2010Prop51ColorIndex
 90
      256
102
RTVSPost2010Prop51ColorRGB
 90
-16777216
102
RTVSPost2010PropOp51
 70
     0
102
RTVSPost2010Prop52
140
1.0
102
RTVSPost2010PropOp52
 70
     0
102
RTVSPost2010Prop53
 90
        2
102
RTVSPost2010PropOp53
 70
     1
102
RTVSPost2010Prop54
  1
strokes_ogs.tif
102
RTVSPost2010PropOp54
 70
     1
102
RTVSPost2010Prop55
280
     0
102
RTVSPost2010PropOp55
 70
     1
102
RTVSPost2010Prop56
140
1.0
102
RTVSPost2010PropOp56
 70
     1
102
RTVSPost2010Prop57
140
1.0
102
RTVSPost2010PropOp57
 70
     1
102
RTVSPropertyOp0
 70
     1
102
RTVSPropertyOp1
 70
     1
102
RTVSPropertyOp2
 70
     1
102
RTVSPropertyOp3
 70
     1
102
RTVSPropertyOp4
 70
     1
102
RTVSPropertyOp5
 70
     1
102
RTVSPropertyOp6
 70
     1
102
RTVSPropertyOp7
 70
     1
102
RTVSPropertyOp8
 70
     1
102
RTVSPropertyOp9
 70
     1
102
RTVSPropertyOp10
 70
     1
102
RTVSPropertyOp11
 70
     1
102
RTVSPropertyOp12
 70
     1
102
RTVSPropertyOp13
 70
     1
102
RTVSPropertyOp14
 70
     1
102
RTVSPropertyOp15
 70
     1
102
RTVSPropertyOp16
 70
     1
102
RTVSPropertyOp17
 70
     1
102
RTVSPropertyOp18
 70
     1
102
RTVSPropertyOp19
 70
     1
102
RTVSPropertyOp20
 70
     1
102
RTVSPropertyOp21
 70
     1
102
RTVSPropertyOp22
 70
     1
102
RTVSPropertyOp23
 70
     1
102
RTVSPropertyOp24
 70
     1
102
RTVSPropertyOp25
 70
     1
102
RTVSPropertyOp26
 70
     1
102
RTVSPropertyOp27
 70
     1
102
RTVSPropertyOp28
 70
     1
102
RTVSPropertyOp29
 70
     1
102
RTVSPropertyOp30
 70
     1
102
RTVSPropertyOp31
 70
     1
102
RTVSPropertyOp32
 70
     1
102
RTVSPropertyOp33
 70
     1
102
RTVSPropertyOp34
 70
     1
102
RTVSPropertyOp35
 70
     1
102
RTVSPropertyOp36
 70
     1
102
RTVSPropertyOp37
 70
     1
102
RTVSPropertyOp38
 70
     1
102
RTVSPropertyOp39
 70
     1
102
RTVSPropertyOp40
 70
     1
102
RTVSPropertyOp41
 70
     1
102
RTVSPropertyOp42
 70
     1
102
RTVSPropertyOp43
 70
     1
102
RTVSPropertyOp44
 70
     1
102
RTVSPropertyOp45
 70
     1
102
RTVSPropertyOp46
 70
     1
102
RTVSPropertyOp47
 70
     1
102
RTVSPropertyOp48
 70
     1
102
RTVSPropertyOp49
 70
     1
102
RTVSPropertyOp50
 70
     1
102
RTVSPropertyOp51
 70
     0
102
RTVSPropertyOp52
 70
     0
102
RTVSPropertyOp53
 70
     1
102
RTVSPropertyOp54
 70
     1
102
RTVSPropertyOp55
 70
     1
102
RTVSPropertyOp56
 70
     1
102
RTVSPropertyOp57
 70
     1
102
RTVSPropertyOp58
 70
     1
102
RTVSPropertyOp59
 70
     1
102
RTVSPropertyOp60
 70
     1
102
RTVSPropertyOp61
 70
     1
102
RTVSPropertyOp62
 70
     1
  0
XRECORD
  5
198CE059C9C9F02
102
{ACAD_REACTORS
330
198CE059C9C9F01
102
}
330
198CE059C9C9F01
100
AcDbXrecord
280
     1
102
RTVSPost2010Prop28
280
     0
102
RTVSPost2010PropOp28
 70
     1
102
RTVSPost2010Prop29
280
     1
102
RTVSPost2010PropOp29
 70
     1
102
RTVSPost2010Prop30
280
     1
102
RTVSPost2010PropOp30
 70
     1
102
RTVSPost2010Prop31
280
     0
102
RTVSPost2010PropOp31
 70
     1
102
RTVSPost2010Prop32
280
     0
102
RTVSPost2010PropOp32
 70
     1
102
RTVSPost2010Prop33
280
     0
102
RTVSPost2010PropOp33
 70
     1
102
RTVSPost2010Prop34
280
     0
102
RTVSPost2010PropOp34
 70
     1
102
RTVSPost2010Prop35
280
     0
102
RTVSPost2010PropOp35
 70
     1
102
RTVSPost2010Prop36
280
     0
102
RTVSPost2010PropOp36
 70
     1
102
RTVSPost2010Prop37
 90
       50
102
RTVSPost2010PropOp37
 70
     1
102
RTVSPost2010Prop38
140
0.0
102
RTVSPost2010PropOp38
 70
     1
102
RTVSPost2010Prop39
140
1.0
102
RTVSPost2010PropOp39
 70
     1
102
RTVSPost2010Prop40
 90
        0
102
RTVSPost2010PropOp40
 70
     1
102
RTVSPost2010Prop41ColorIndex
 90
       18
102
RTVSPost2010Prop41ColorRGB
 90
        0
102
RTVSPost2010PropOp41
 70
     1
102
RTVSPost2010Prop42
 90
       50
102
RTVSPost2010PropOp42
 70
     1
102
RTVSPost2010Prop43
 90
        3
102
RTVSPost2010PropOp43
 70
     1
102
RTVSPost2010Prop44ColorIndex
 90
        5
102
RTVSPost2010Prop44ColorRGB
 90
      255
102
RTVSPost2010PropOp44
 70
     1
102
RTVSPost2010Prop45
280
     0
102
RTVSPost2010PropOp45
 70
     1
102
RTVSPost2010Prop46
 90
       50
102
RTVSPost2010PropOp46
 70
     1
102
RTVSPost2010Prop47
 90
       50
102
RTVSPost2010PropOp47
 70
     1
102
RTVSPost2010Prop48
 90
       50
102
RTVSPost2010PropOp48
 70
     1
102
RTVSPost2010Prop49
280
     0
102
RTVSPost2010PropOp49
 70
     1
102
RTVSPost2010Prop50
 90
       50
102
RTVSPost2010PropOp50
 70
     1
102
RTVSPost2010Prop51ColorIndex
 90
      256
102
RTVSPost2010Prop51ColorRGB
 90
-16777216
102
RTVSPost2010PropOp51
 70
     0
102
RTVSPost2010Prop52
140
1.0
102
RTVSPost2010PropOp52
 70
     0
102
RTVSPost2010Prop53
 90
        2
102
RTVSPost2010PropOp53
 70
     1
102
RTVSPost2010Prop54
  1
strokes_ogs.tif
102
RTVSPost2010PropOp54
 70
     1
102
RTVSPost2010Prop55
280
     0
102
RTVSPost2010PropOp55
 70
     1
102
RTVSPost2010Prop56
140
1.0
102
RTVSPost2010PropOp56
 70
     1
102
RTVSPost2010Prop57
140
1.0
102
RTVSPost2010PropOp57
 70
     1
102
RTVSPropertyOp0
 70
     1
102
RTVSPropertyOp1
 70
     1
102
RTVSPropertyOp2
 70
     1
102
RTVSPropertyOp3
 70
     1
102
RTVSPropertyOp4
 70
     1
102
RTVSPropertyOp5
 70
     1
102
RTVSPropertyOp6
 70
     1
102
RTVSPropertyOp7
 70
     1
102
RTVSPropertyOp8
 70
     1
102
RTVSPropertyOp9
 70
     1
102
RTVSPropertyOp10
 70
     1
102
RTVSPropertyOp11
 70
     1
102
RTVSPropertyOp12
 70
     1
102
RTVSPropertyOp13
 70
     1
102
RTVSPropertyOp14
 70
     1
102
RTVSPropertyOp15
 70
     1
102
RTVSPropertyOp16
 70
     1
102
RTVSPropertyOp17
 70
     1
102
RTVSPropertyOp18
 70
     1
102
RTVSPropertyOp19
 70
     1
102
RTVSPropertyOp20
 70
     1
102
RTVSPropertyOp21
 70
     1
102
RTVSPropertyOp22
 70
     1
102
RTVSPropertyOp23
 70
     1
102
RTVSPropertyOp24
 70
     1
102
RTVSPropertyOp25
 70
     1
102
RTVSPropertyOp26
 70
     1
102
RTVSPropertyOp27
 70
     1
102
RTVSPropertyOp28
 70
     1
102
RTVSPropertyOp29
 70
     1
102
RTVSPropertyOp30
 70
     1
102
RTVSPropertyOp31
 70
     1
102
RTVSPropertyOp32
 70
     1
102
RTVSPropertyOp33
 70
     1
102
RTVSPropertyOp34
 70
     1
102
RTVSPropertyOp35
 70
     1
102
RTVSPropertyOp36
 70
     1
102
RTVSPropertyOp37
 70
     1
102
RTVSPropertyOp38
 70
     1
102
RTVSPropertyOp39
 70
     1
102
RTVSPropertyOp40
 70
     1
102
RTVSPropertyOp41
 70
     1
102
RTVSPropertyOp42
 70
     1
102
RTVSPropertyOp43
 70
     1
102
RTVSPropertyOp44
 70
     1
102
RTVSPropertyOp45
 70
     1
102
RTVSPropertyOp46
 70
     1
102
RTVSPropertyOp47
 70
     1
102
RTVSPropertyOp48
 70
     1
102
RTVSPropertyOp49
 70
     1
102
RTVSPropertyOp50
 70
     1
102
RTVSPropertyOp51
 70
     0
102
RTVSPropertyOp52
 70
     0
102
RTVSPropertyOp53
 70
     1
102
RTVSPropertyOp54
 70
     1
102
RTVSPropertyOp55
 70
     1
102
RTVSPropertyOp56
 70
     1
102
RTVSPropertyOp57
 70
     1
102
RTVSPropertyOp58
 70
     1
102
RTVSPropertyOp59
 70
     1
102
RTVSPropertyOp60
 70
     1
102
RTVSPropertyOp61
 70
     1
102
RTVSPropertyOp62
 70
     1
  0
XRECORD
  5
198CE059C9C9EF4
102
{ACAD_REACTORS
330
198CE059C9C9EF3
102
}
330
198CE059C9C9EF3
100
AcDbXrecord
280
     1
102
RTVSPost2010Prop28
280
     0
102
RTVSPost2010PropOp28
 70
     1
102
RTVSPost2010Prop29
280
     1
102
RTVSPost2010PropOp29
 70
     1
102
RTVSPost2010Prop30
280
     1
102
RTVSPost2010PropOp30
 70
     1
102
RTVSPost2010Prop31
280
     0
102
RTVSPost2010PropOp31
 70
     1
102
RTVSPost2010Prop32
280
     0
102
RTVSPost2010PropOp32
 70
     1
102
RTVSPost2010Prop33
280
     0
102
RTVSPost2010PropOp33
 70
     1
102
RTVSPost2010Prop34
280
     0
102
RTVSPost2010PropOp34
 70
     1
102
RTVSPost2010Prop35
280
     0
102
RTVSPost2010PropOp35
 70
     1
102
RTVSPost2010Prop36
280
     0
102
RTVSPost2010PropOp36
 70
     1
102
RTVSPost2010Prop37
 90
       50
102
RTVSPost2010PropOp37
 70
     1
102
RTVSPost2010Prop38
140
0.0
102
RTVSPost2010PropOp38
 70
     1
102
RTVSPost2010Prop39
140
1.0
102
RTVSPost2010PropOp39
 70
     1
102
RTVSPost2010Prop40
 90
        0
102
RTVSPost2010PropOp40
 70
     1
102
RTVSPost2010Prop41ColorIndex
 90
       18
102
RTVSPost2010Prop41ColorRGB
 90
        0
102
RTVSPost2010PropOp41
 70
     1
102
RTVSPost2010Prop42
 90
       50
102
RTVSPost2010PropOp42
 70
     1
102
RTVSPost2010Prop43
 90
        3
102
RTVSPost2010PropOp43
 70
     1
102
RTVSPost2010Prop44ColorIndex
 90
        5
102
RTVSPost2010Prop44ColorRGB
 90
      255
102
RTVSPost2010PropOp44
 70
     1
102
RTVSPost2010Prop45
280
     0
102
RTVSPost2010PropOp45
 70
     1
102
RTVSPost2010Prop46
 90
       50
102
RTVSPost2010PropOp46
 70
     1
102
RTVSPost2010Prop47
 90
       50
102
RTVSPost2010PropOp47
 70
     1
102
RTVSPost2010Prop48
 90
       50
102
RTVSPost2010PropOp48
 70
     1
102
RTVSPost2010Prop49
280
     0
102
RTVSPost2010PropOp49
 70
     1
102
RTVSPost2010Prop50
 90
       50
102
RTVSPost2010PropOp50
 70
     1
102
RTVSPost2010Prop51ColorIndex
 90
      256
102
RTVSPost2010Prop51ColorRGB
 90
-16777216
102
RTVSPost2010PropOp51
 70
     0
102
RTVSPost2010Prop52
140
1.0
102
RTVSPost2010PropOp52
 70
     0
102
RTVSPost2010Prop53
 90
        2
102
RTVSPost2010PropOp53
 70
     1
102
RTVSPost2010Prop54
  1
strokes_ogs.tif
102
RTVSPost2010PropOp54
 70
     1
102
RTVSPost2010Prop55
280
     0
102
RTVSPost2010PropOp55
 70
     1
102
RTVSPost2010Prop56
140
1.0
102
RTVSPost2010PropOp56
 70
     1
102
RTVSPost2010Prop57
140
1.0
102
RTVSPost2010PropOp57
 70
     1
102
RTVSPropertyOp0
 70
     1
102
RTVSPropertyOp1
 70
     1
102
RTVSPropertyOp2
 70
     1
102
RTVSPropertyOp3
 70
     1
102
RTVSPropertyOp4
 70
     1
102
RTVSPropertyOp5
 70
     1
102
RTVSPropertyOp6
 70
     1
102
RTVSPropertyOp7
 70
     1
102
RTVSPropertyOp8
 70
     1
102
RTVSPropertyOp9
 70
     1
102
RTVSPropertyOp10
 70
     1
102
RTVSPropertyOp11
 70
     1
102
RTVSPropertyOp12
 70
     1
102
RTVSPropertyOp13
 70
     1
102
RTVSPropertyOp14
 70
     1
102
RTVSPropertyOp15
 70
     1
102
RTVSPropertyOp16
 70
     1
102
RTVSPropertyOp17
 70
     1
102
RTVSPropertyOp18
 70
     1
102
RTVSPropertyOp19
 70
     1
102
RTVSPropertyOp20
 70
     1
102
RTVSPropertyOp21
 70
     1
102
RTVSPropertyOp22
 70
     1
102
RTVSPropertyOp23
 70
     1
102
RTVSPropertyOp24
 70
     1
102
RTVSPropertyOp25
 70
     1
102
RTVSPropertyOp26
 70
     1
102
RTVSPropertyOp27
 70
     1
102
RTVSPropertyOp28
 70
     1
102
RTVSPropertyOp29
 70
     1
102
RTVSPropertyOp30
 70
     1
102
RTVSPropertyOp31
 70
     1
102
RTVSPropertyOp32
 70
     1
102
RTVSPropertyOp33
 70
     1
102
RTVSPropertyOp34
 70
     1
102
RTVSPropertyOp35
 70
     1
102
RTVSPropertyOp36
 70
     1
102
RTVSPropertyOp37
 70
     1
102
RTVSPropertyOp38
 70
     1
102
RTVSPropertyOp39
 70
     1
102
RTVSPropertyOp40
 70
     1
102
RTVSPropertyOp41
 70
     1
102
RTVSPropertyOp42
 70
     1
102
RTVSPropertyOp43
 70
     1
102
RTVSPropertyOp44
 70
     1
102
RTVSPropertyOp45
 70
     1
102
RTVSPropertyOp46
 70
     1
102
RTVSPropertyOp47
 70
     1
102
RTVSPropertyOp48
 70
     1
102
RTVSPropertyOp49
 70
     1
102
RTVSPropertyOp50
 70
     1
102
RTVSPropertyOp51
 70
     0
102
RTVSPropertyOp52
 70
     0
102
RTVSPropertyOp53
 70
     1
102
RTVSPropertyOp54
 70
     1
102
RTVSPropertyOp55
 70
     1
102
RTVSPropertyOp56
 70
     1
102
RTVSPropertyOp57
 70
     1
102
RTVSPropertyOp58
 70
     1
102
RTVSPropertyOp59
 70
     1
102
RTVSPropertyOp60
 70
     1
102
RTVSPropertyOp61
 70
     1
102
RTVSPropertyOp62
 70
     1
  0
XRECORD
  5
198CE059C9C9EF8
102
{ACAD_REACTORS
330
198CE059C9C9EF7
102
}
330
198CE059C9C9EF7
100
AcDbXrecord
280
     1
102
RTVSPost2010Prop28
280
     0
102
RTVSPost2010PropOp28
 70
     1
102
RTVSPost2010Prop29
280
     1
102
RTVSPost2010PropOp29
 70
     1
102
RTVSPost2010Prop30
280
     1
102
RTVSPost2010PropOp30
 70
     1
102
RTVSPost2010Prop31
280
     0
102
RTVSPost2010PropOp31
 70
     1
102
RTVSPost2010Prop32
280
     0
102
RTVSPost2010PropOp32
 70
     1
102
RTVSPost2010Prop33
280
     0
102
RTVSPost2010PropOp33
 70
     1
102
RTVSPost2010Prop34
280
     0
102
RTVSPost2010PropOp34
 70
     1
102
RTVSPost2010Prop35
280
     0
102
RTVSPost2010PropOp35
 70
     1
102
RTVSPost2010Prop36
280
     0
102
RTVSPost2010PropOp36
 70
     1
102
RTVSPost2010Prop37
 90
       50
102
RTVSPost2010PropOp37
 70
     1
102
RTVSPost2010Prop38
140
0.0
102
RTVSPost2010PropOp38
 70
     1
102
RTVSPost2010Prop39
140
1.0
102
RTVSPost2010PropOp39
 70
     1
102
RTVSPost2010Prop40
 90
        0
102
RTVSPost2010PropOp40
 70
     1
102
RTVSPost2010Prop41ColorIndex
 90
       18
102
RTVSPost2010Prop41ColorRGB
 90
        0
102
RTVSPost2010PropOp41
 70
     1
102
RTVSPost2010Prop42
 90
       50
102
RTVSPost2010PropOp42
 70
     1
102
RTVSPost2010Prop43
 90
        3
102
RTVSPost2010PropOp43
 70
     1
102
RTVSPost2010Prop44ColorIndex
 90
        5
102
RTVSPost2010Prop44ColorRGB
 90
      255
102
RTVSPost2010PropOp44
 70
     1
102
RTVSPost2010Prop45
280
     0
102
RTVSPost2010PropOp45
 70
     1
102
RTVSPost2010Prop46
 90
       50
102
RTVSPost2010PropOp46
 70
     1
102
RTVSPost2010Prop47
 90
       50
102
RTVSPost2010PropOp47
 70
     1
102
RTVSPost2010Prop48
 90
       50
102
RTVSPost2010PropOp48
 70
     1
102
RTVSPost2010Prop49
280
     0
102
RTVSPost2010PropOp49
 70
     1
102
RTVSPost2010Prop50
 90
       50
102
RTVSPost2010PropOp50
 70
     1
102
RTVSPost2010Prop51ColorIndex
 90
      256
102
RTVSPost2010Prop51ColorRGB
 90
-16777216
102
RTVSPost2010PropOp51
 70
     0
102
RTVSPost2010Prop52
140
1.0
102
RTVSPost2010PropOp52
 70
     0
102
RTVSPost2010Prop53
 90
        2
102
RTVSPost2010PropOp53
 70
     1
102
RTVSPost2010Prop54
  1
strokes_ogs.tif
102
RTVSPost2010PropOp54
 70
     1
102
RTVSPost2010Prop55
280
     0
102
RTVSPost2010PropOp55
 70
     1
102
RTVSPost2010Prop56
140
1.0
102
RTVSPost2010PropOp56
 70
     1
102
RTVSPost2010Prop57
140
1.0
102
RTVSPost2010PropOp57
 70
     1
102
RTVSPropertyOp0
 70
     1
102
RTVSPropertyOp1
 70
     1
102
RTVSPropertyOp2
 70
     1
102
RTVSPropertyOp3
 70
     1
102
RTVSPropertyOp4
 70
     1
102
RTVSPropertyOp5
 70
     1
102
RTVSPropertyOp6
 70
     1
102
RTVSPropertyOp7
 70
     1
102
RTVSPropertyOp8
 70
     1
102
RTVSPropertyOp9
 70
     1
102
RTVSPropertyOp10
 70
     1
102
RTVSPropertyOp11
 70
     1
102
RTVSPropertyOp12
 70
     1
102
RTVSPropertyOp13
 70
     1
102
RTVSPropertyOp14
 70
     1
102
RTVSPropertyOp15
 70
     1
102
RTVSPropertyOp16
 70
     1
102
RTVSPropertyOp17
 70
     1
102
RTVSPropertyOp18
 70
     1
102
RTVSPropertyOp19
 70
     1
102
RTVSPropertyOp20
 70
     1
102
RTVSPropertyOp21
 70
     1
102
RTVSPropertyOp22
 70
     1
102
RTVSPropertyOp23
 70
     1
102
RTVSPropertyOp24
 70
     1
102
RTVSPropertyOp25
 70
     1
102
RTVSPropertyOp26
 70
     1
102
RTVSPropertyOp27
 70
     1
102
RTVSPropertyOp28
 70
     1
102
RTVSPropertyOp29
 70
     1
102
RTVSPropertyOp30
 70
     1
102
RTVSPropertyOp31
 70
     1
102
RTVSPropertyOp32
 70
     1
102
RTVSPropertyOp33
 70
     1
102
RTVSPropertyOp34
 70
     1
102
RTVSPropertyOp35
 70
     1
102
RTVSPropertyOp36
 70
     1
102
RTVSPropertyOp37
 70
     1
102
RTVSPropertyOp38
 70
     1
102
RTVSPropertyOp39
 70
     1
102
RTVSPropertyOp40
 70
     1
102
RTVSPropertyOp41
 70
     1
102
RTVSPropertyOp42
 70
     1
102
RTVSPropertyOp43
 70
     1
102
RTVSPropertyOp44
 70
     1
102
RTVSPropertyOp45
 70
     1
102
RTVSPropertyOp46
 70
     1
102
RTVSPropertyOp47
 70
     1
102
RTVSPropertyOp48
 70
     1
102
RTVSPropertyOp49
 70
     1
102
RTVSPropertyOp50
 70
     1
102
RTVSPropertyOp51
 70
     0
102
RTVSPropertyOp52
 70
     0
102
RTVSPropertyOp53
 70
     1
102
RTVSPropertyOp54
 70
     1
102
RTVSPropertyOp55
 70
     1
102
RTVSPropertyOp56
 70
     1
102
RTVSPropertyOp57
 70
     1
102
RTVSPropertyOp58
 70
     1
102
RTVSPropertyOp59
 70
     1
102
RTVSPropertyOp60
 70
     1
102
RTVSPropertyOp61
 70
     1
102
RTVSPropertyOp62
 70
     1
  0
XRECORD
  5
198CE059C9C9F12
102
{ACAD_REACTORS
330
198CE059C9C9F11
102
}
330
198CE059C9C9F11
100
AcDbXrecord
280
     1
102
RTVSPost2010Prop28
280
     0
102
RTVSPost2010PropOp28
 70
     0
102
RTVSPost2010Prop29
280
     1
102
RTVSPost2010PropOp29
 70
     0
102
RTVSPost2010Prop30
280
     1
102
RTVSPost2010PropOp30
 70
     0
102
RTVSPost2010Prop31
280
     0
102
RTVSPost2010PropOp31
 70
     0
102
RTVSPost2010Prop32
280
     0
102
RTVSPost2010PropOp32
 70
     0
102
RTVSPost2010Prop33
280
     0
102
RTVSPost2010PropOp33
 70
     0
102
RTVSPost2010Prop34
280
     0
102
RTVSPost2010PropOp34
 70
     0
102
RTVSPost2010Prop35
280
     0
102
RTVSPost2010PropOp35
 70
     0
102
RTVSPost2010Prop36
280
     0
102
RTVSPost2010PropOp36
 70
     0
102
RTVSPost2010Prop37
 90
       50
102
RTVSPost2010PropOp37
 70
     0
102
RTVSPost2010Prop38
140
0.0
102
RTVSPost2010PropOp38
 70
     0
102
RTVSPost2010Prop39
140
1.0
102
RTVSPost2010PropOp39
 70
     0
102
RTVSPost2010Prop40
 90
        0
102
RTVSPost2010PropOp40
 70
     0
102
RTVSPost2010Prop41ColorIndex
 90
       18
102
RTVSPost2010Prop41ColorRGB
 90
        0
102
RTVSPost2010PropOp41
 70
     0
102
RTVSPost2010Prop42
 90
       50
102
RTVSPost2010PropOp42
 70
     0
102
RTVSPost2010Prop43
 90
        3
102
RTVSPost2010PropOp43
 70
     0
102
RTVSPost2010Prop44ColorIndex
 90
        5
102
RTVSPost2010Prop44ColorRGB
 90
      255
102
RTVSPost2010PropOp44
 70
     0
102
RTVSPost2010Prop45
280
     0
102
RTVSPost2010PropOp45
 70
     0
102
RTVSPost2010Prop46
 90
       50
102
RTVSPost2010PropOp46
 70
     0
102
RTVSPost2010Prop47
 90
       50
102
RTVSPost2010PropOp47
 70
     0
102
RTVSPost2010Prop48
 90
       50
102
RTVSPost2010PropOp48
 70
     0
102
RTVSPost2010Prop49
280
     0
102
RTVSPost2010PropOp49
 70
     0
102
RTVSPost2010Prop50
 90
       50
102
RTVSPost2010PropOp50
 70
     0
102
RTVSPost2010Prop51ColorIndex
 90
      256
102
RTVSPost2010Prop51ColorRGB
 90
-16777216
102
RTVSPost2010PropOp51
 70
     0
102
RTVSPost2010Prop52
140
1.0
102
RTVSPost2010PropOp52
 70
     0
102
RTVSPost2010Prop53
 90
        2
102
RTVSPost2010PropOp53
 70
     0
102
RTVSPost2010Prop54
  1
strokes_ogs.tif
102
RTVSPost2010PropOp54
 70
     0
102
RTVSPost2010Prop55
280
     0
102
RTVSPost2010PropOp55
 70
     0
102
RTVSPost2010Prop56
140
1.0
102
RTVSPost2010PropOp56
 70
     0
102
RTVSPost2010Prop57
140
1.0
102
RTVSPost2010PropOp57
 70
     0
102
RTVSPropertyOp0
 70
     0
102
RTVSPropertyOp1
 70
     0
102
RTVSPropertyOp2
 70
     0
102
RTVSPropertyOp3
 70
     0
102
RTVSPropertyOp4
 70
     0
102
RTVSPropertyOp5
 70
     0
102
RTVSPropertyOp6
 70
     0
102
RTVSPropertyOp7
 70
     0
102
RTVSPropertyOp8
 70
     0
102
RTVSPropertyOp9
 70
     0
102
RTVSPropertyOp10
 70
     0
102
RTVSPropertyOp11
 70
     0
102
RTVSPropertyOp12
 70
     0
102
RTVSPropertyOp13
 70
     0
102
RTVSPropertyOp14
 70
     2
102
RTVSPropertyOp15
 70
     0
102
RTVSPropertyOp16
 70
     0
102
RTVSPropertyOp17
 70
     0
102
RTVSPropertyOp18
 70
     0
102
RTVSPropertyOp19
 70
     0
102
RTVSPropertyOp20
 70
     0
102
RTVSPropertyOp21
 70
     0
102
RTVSPropertyOp22
 70
     0
102
RTVSPropertyOp23
 70
     0
102
RTVSPropertyOp24
 70
     0
102
RTVSPropertyOp25
 70
     0
102
RTVSPropertyOp26
 70
     0
102
RTVSPropertyOp27
 70
     0
102
RTVSPropertyOp28
 70
     0
102
RTVSPropertyOp29
 70
     0
102
RTVSPropertyOp30
 70
     0
102
RTVSPropertyOp31
 70
     0
102
RTVSPropertyOp32
 70
     0
102
RTVSPropertyOp33
 70
     0
102
RTVSPropertyOp34
 70
     0
102
RTVSPropertyOp35
 70
     0
102
RTVSPropertyOp36
 70
     0
102
RTVSPropertyOp37
 70
     0
102
RTVSPropertyOp38
 70
     0
102
RTVSPropertyOp39
 70
     0
102
RTVSPropertyOp40
 70
     0
102
RTVSPropertyOp41
 70
     0
102
RTVSPropertyOp42
 70
     0
102
RTVSPropertyOp43
 70
     0
102
RTVSPropertyOp44
 70
     0
102
RTVSPropertyOp45
 70
     0
102
RTVSPropertyOp46
 70
     0
102
RTVSPropertyOp47
 70
     0
102
RTVSPropertyOp48
 70
     0
102
RTVSPropertyOp49
 70
     0
102
RTVSPropertyOp50
 70
     0
102
RTVSPropertyOp51
 70
     0
102
RTVSPropertyOp52
 70
     0
102
RTVSPropertyOp53
 70
     0
102
RTVSPropertyOp54
 70
     0
102
RTVSPropertyOp55
 70
     0
102
RTVSPropertyOp56
 70
     0
102
RTVSPropertyOp57
 70
     0
102
RTVSPropertyOp58
 70
     0
102
RTVSPropertyOp59
 70
     0
102
RTVSPropertyOp60
 70
     0
102
RTVSPropertyOp61
 70
     0
102
RTVSPropertyOp62
 70
     0
  0
XRECORD
  5
198CE059C9C9F00
102
{ACAD_REACTORS
330
198CE059C9C9EFF
102
}
330
198CE059C9C9EFF
100
AcDbXrecord
280
     1
102
RTVSPost2010Prop28
280
     0
102
RTVSPost2010PropOp28
 70
     1
102
RTVSPost2010Prop29
280
     1
102
RTVSPost2010PropOp29
 70
     1
102
RTVSPost2010Prop30
280
     1
102
RTVSPost2010PropOp30
 70
     1
102
RTVSPost2010Prop31
280
     0
102
RTVSPost2010PropOp31
 70
     1
102
RTVSPost2010Prop32
280
     0
102
RTVSPost2010PropOp32
 70
     1
102
RTVSPost2010Prop33
280
     0
102
RTVSPost2010PropOp33
 70
     1
102
RTVSPost2010Prop34
280
     0
102
RTVSPost2010PropOp34
 70
     1
102
RTVSPost2010Prop35
280
     0
102
RTVSPost2010PropOp35
 70
     1
102
RTVSPost2010Prop36
280
     0
102
RTVSPost2010PropOp36
 70
     1
102
RTVSPost2010Prop37
 90
       50
102
RTVSPost2010PropOp37
 70
     1
102
RTVSPost2010Prop38
140
0.0
102
RTVSPost2010PropOp38
 70
     1
102
RTVSPost2010Prop39
140
1.0
102
RTVSPost2010PropOp39
 70
     1
102
RTVSPost2010Prop40
 90
        0
102
RTVSPost2010PropOp40
 70
     1
102
RTVSPost2010Prop41ColorIndex
 90
       18
102
RTVSPost2010Prop41ColorRGB
 90
        0
102
RTVSPost2010PropOp41
 70
     1
102
RTVSPost2010Prop42
 90
       50
102
RTVSPost2010PropOp42
 70
     1
102
RTVSPost2010Prop43
 90
        3
102
RTVSPost2010PropOp43
 70
     1
102
RTVSPost2010Prop44ColorIndex
 90
        5
102
RTVSPost2010Prop44ColorRGB
 90
      255
102
RTVSPost2010PropOp44
 70
     1
102
RTVSPost2010Prop45
280
     0
102
RTVSPost2010PropOp45
 70
     1
102
RTVSPost2010Prop46
 90
       50
102
RTVSPost2010PropOp46
 70
     1
102
RTVSPost2010Prop47
 90
       50
102
RTVSPost2010PropOp47
 70
     1
102
RTVSPost2010Prop48
 90
       50
102
RTVSPost2010PropOp48
 70
     1
102
RTVSPost2010Prop49
280
     0
102
RTVSPost2010PropOp49
 70
     1
102
RTVSPost2010Prop50
 90
       50
102
RTVSPost2010PropOp50
 70
     1
102
RTVSPost2010Prop51ColorIndex
 90
      256
102
RTVSPost2010Prop51ColorRGB
 90
-16777216
102
RTVSPost2010PropOp51
 70
     0
102
RTVSPost2010Prop52
140
1.0
102
RTVSPost2010PropOp52
 70
     0
102
RTVSPost2010Prop53
 90
        2
102
RTVSPost2010PropOp53
 70
     1
102
RTVSPost2010Prop54
  1
strokes_ogs.tif
102
RTVSPost2010PropOp54
 70
     1
102
RTVSPost2010Prop55
280
     0
102
RTVSPost2010PropOp55
 70
     1
102
RTVSPost2010Prop56
140
1.0
102
RTVSPost2010PropOp56
 70
     1
102
RTVSPost2010Prop57
140
1.0
102
RTVSPost2010PropOp57
 70
     1
102
RTVSPropertyOp0
 70
     1
102
RTVSPropertyOp1
 70
     1
102
RTVSPropertyOp2
 70
     1
102
RTVSPropertyOp3
 70
     1
102
RTVSPropertyOp4
 70
     1
102
RTVSPropertyOp5
 70
     1
102
RTVSPropertyOp6
 70
     1
102
RTVSPropertyOp7
 70
     1
102
RTVSPropertyOp8
 70
     1
102
RTVSPropertyOp9
 70
     1
102
RTVSPropertyOp10
 70
     1
102
RTVSPropertyOp11
 70
     1
102
RTVSPropertyOp12
 70
     1
102
RTVSPropertyOp13
 70
     1
102
RTVSPropertyOp14
 70
     1
102
RTVSPropertyOp15
 70
     1
102
RTVSPropertyOp16
 70
     1
102
RTVSPropertyOp17
 70
     1
102
RTVSPropertyOp18
 70
     1
102
RTVSPropertyOp19
 70
     1
102
RTVSPropertyOp20
 70
     1
102
RTVSPropertyOp21
 70
     1
102
RTVSPropertyOp22
 70
     1
102
RTVSPropertyOp23
 70
     1
102
RTVSPropertyOp24
 70
     1
102
RTVSPropertyOp25
 70
     1
102
RTVSPropertyOp26
 70
     1
102
RTVSPropertyOp27
 70
     1
102
RTVSPropertyOp28
 70
     1
102
RTVSPropertyOp29
 70
     1
102
RTVSPropertyOp30
 70
     1
102
RTVSPropertyOp31
 70
     1
102
RTVSPropertyOp32
 70
     1
102
RTVSPropertyOp33
 70
     1
102
RTVSPropertyOp34
 70
     1
102
RTVSPropertyOp35
 70
     1
102
RTVSPropertyOp36
 70
     1
102
RTVSPropertyOp37
 70
     1
102
RTVSPropertyOp38
 70
     1
102
RTVSPropertyOp39
 70
     1
102
RTVSPropertyOp40
 70
     1
102
RTVSPropertyOp41
 70
     1
102
RTVSPropertyOp42
 70
     1
102
RTVSPropertyOp43
 70
     1
102
RTVSPropertyOp44
 70
     1
102
RTVSPropertyOp45
 70
     1
102
RTVSPropertyOp46
 70
     1
102
RTVSPropertyOp47
 70
     1
102
RTVSPropertyOp48
 70
     1
102
RTVSPropertyOp49
 70
     1
102
RTVSPropertyOp50
 70
     1
102
RTVSPropertyOp51
 70
     0
102
RTVSPropertyOp52
 70
     0
102
RTVSPropertyOp53
 70
     1
102
RTVSPropertyOp54
 70
     1
102
RTVSPropertyOp55
 70
     1
102
RTVSPropertyOp56
 70
     1
102
RTVSPropertyOp57
 70
     1
102
RTVSPropertyOp58
 70
     1
102
RTVSPropertyOp59
 70
     1
102
RTVSPropertyOp60
 70
     1
102
RTVSPropertyOp61
 70
     1
102
RTVSPropertyOp62
 70
     1
  0
XRECORD
  5
198CE059C9C9EE4
102
{ACAD_REACTORS
330
198CE059C9C9EE3
102
}
330
198CE059C9C9EE3
100
AcDbXrecord
280
     1
102
RTVSPost2010Prop28
280
     0
102
RTVSPost2010PropOp28
 70
     1
102
RTVSPost2010Prop29
280
     1
102
RTVSPost2010PropOp29
 70
     1
102
RTVSPost2010Prop30
280
     1
102
RTVSPost2010PropOp30
 70
     1
102
RTVSPost2010Prop31
280
     0
102
RTVSPost2010PropOp31
 70
     1
102
RTVSPost2010Prop32
280
     0
102
RTVSPost2010PropOp32
 70
     1
102
RTVSPost2010Prop33
280
     0
102
RTVSPost2010PropOp33
 70
     1
102
RTVSPost2010Prop34
280
     0
102
RTVSPost2010PropOp34
 70
     1
102
RTVSPost2010Prop35
280
     0
102
RTVSPost2010PropOp35
 70
     1
102
RTVSPost2010Prop36
280
     0
102
RTVSPost2010PropOp36
 70
     1
102
RTVSPost2010Prop37
 90
       50
102
RTVSPost2010PropOp37
 70
     1
102
RTVSPost2010Prop38
140
0.0
102
RTVSPost2010PropOp38
 70
     1
102
RTVSPost2010Prop39
140
1.0
102
RTVSPost2010PropOp39
 70
     1
102
RTVSPost2010Prop40
 90
        0
102
RTVSPost2010PropOp40
 70
     1
102
RTVSPost2010Prop41ColorIndex
 90
       18
102
RTVSPost2010Prop41ColorRGB
 90
        0
102
RTVSPost2010PropOp41
 70
     1
102
RTVSPost2010Prop42
 90
       50
102
RTVSPost2010PropOp42
 70
     1
102
RTVSPost2010Prop43
 90
        3
102
RTVSPost2010PropOp43
 70
     1
102
RTVSPost2010Prop44ColorIndex
 90
        5
102
RTVSPost2010Prop44ColorRGB
 90
      255
102
RTVSPost2010PropOp44
 70
     1
102
RTVSPost2010Prop45
280
     0
102
RTVSPost2010PropOp45
 70
     1
102
RTVSPost2010Prop46
 90
       50
102
RTVSPost2010PropOp46
 70
     1
102
RTVSPost2010Prop47
 90
       50
102
RTVSPost2010PropOp47
 70
     1
102
RTVSPost2010Prop48
 90
       50
102
RTVSPost2010PropOp48
 70
     1
102
RTVSPost2010Prop49
280
     0
102
RTVSPost2010PropOp49
 70
     1
102
RTVSPost2010Prop50
 90
       50
102
RTVSPost2010PropOp50
 70
     1
102
RTVSPost2010Prop51ColorIndex
 90
      256
102
RTVSPost2010Prop51ColorRGB
 90
-16777216
102
RTVSPost2010PropOp51
 70
     0
102
RTVSPost2010Prop52
140
1.0
102
RTVSPost2010PropOp52
 70
     0
102
RTVSPost2010Prop53
 90
        2
102
RTVSPost2010PropOp53
 70
     1
102
RTVSPost2010Prop54
  1
strokes_ogs.tif
102
RTVSPost2010PropOp54
 70
     1
102
RTVSPost2010Prop55
280
     0
102
RTVSPost2010PropOp55
 70
     1
102
RTVSPost2010Prop56
140
1.0
102
RTVSPost2010PropOp56
 70
     1
102
RTVSPost2010Prop57
140
1.0
102
RTVSPost2010PropOp57
 70
     1
102
RTVSPropertyOp0
 70
     1
102
RTVSPropertyOp1
 70
     1
102
RTVSPropertyOp2
 70
     1
102
RTVSPropertyOp3
 70
     1
102
RTVSPropertyOp4
 70
     1
102
RTVSPropertyOp5
 70
     1
102
RTVSPropertyOp6
 70
     1
102
RTVSPropertyOp7
 70
     1
102
RTVSPropertyOp8
 70
     1
102
RTVSPropertyOp9
 70
     1
102
RTVSPropertyOp10
 70
     1
102
RTVSPropertyOp11
 70
     1
102
RTVSPropertyOp12
 70
     1
102
RTVSPropertyOp13
 70
     1
102
RTVSPropertyOp14
 70
     1
102
RTVSPropertyOp15
 70
     1
102
RTVSPropertyOp16
 70
     1
102
RTVSPropertyOp17
 70
     1
102
RTVSPropertyOp18
 70
     1
102
RTVSPropertyOp19
 70
     1
102
RTVSPropertyOp20
 70
     1
102
RTVSPropertyOp21
 70
     1
102
RTVSPropertyOp22
 70
     1
102
RTVSPropertyOp23
 70
     1
102
RTVSPropertyOp24
 70
     1
102
RTVSPropertyOp25
 70
     1
102
RTVSPropertyOp26
 70
     1
102
RTVSPropertyOp27
 70
     1
102
RTVSPropertyOp28
 70
     1
102
RTVSPropertyOp29
 70
     1
102
RTVSPropertyOp30
 70
     1
102
RTVSPropertyOp31
 70
     1
102
RTVSPropertyOp32
 70
     1
102
RTVSPropertyOp33
 70
     1
102
RTVSPropertyOp34
 70
     1
102
RTVSPropertyOp35
 70
     1
102
RTVSPropertyOp36
 70
     1
102
RTVSPropertyOp37
 70
     1
102
RTVSPropertyOp38
 70
     1
102
RTVSPropertyOp39
 70
     1
102
RTVSPropertyOp40
 70
     1
102
RTVSPropertyOp41
 70
     1
102
RTVSPropertyOp42
 70
     1
102
RTVSPropertyOp43
 70
     1
102
RTVSPropertyOp44
 70
     1
102
RTVSPropertyOp45
 70
     1
102
RTVSPropertyOp46
 70
     1
102
RTVSPropertyOp47
 70
     1
102
RTVSPropertyOp48
 70
     1
102
RTVSPropertyOp49
 70
     1
102
RTVSPropertyOp50
 70
     1
102
RTVSPropertyOp51
 70
     0
102
RTVSPropertyOp52
 70
     0
102
RTVSPropertyOp53
 70
     1
102
RTVSPropertyOp54
 70
     1
102
RTVSPropertyOp55
 70
     1
102
RTVSPropertyOp56
 70
     1
102
RTVSPropertyOp57
 70
     1
102
RTVSPropertyOp58
 70
     1
102
RTVSPropertyOp59
 70
     1
102
RTVSPropertyOp60
 70
     1
102
RTVSPropertyOp61
 70
     1
102
RTVSPropertyOp62
 70
     1
  0
XRECORD
  5
198CE059C9C9EE6
102
{ACAD_REACTORS
330
198CE059C9C9EE5
102
}
330
198CE059C9C9EE5
100
AcDbXrecord
280
     1
102
RTVSPost2010Prop28
280
     0
102
RTVSPost2010PropOp28
 70
     1
102
RTVSPost2010Prop29
280
     1
102
RTVSPost2010PropOp29
 70
     1
102
RTVSPost2010Prop30
280
     1
102
RTVSPost2010PropOp30
 70
     1
102
RTVSPost2010Prop31
280
     0
102
RTVSPost2010PropOp31
 70
     1
102
RTVSPost2010Prop32
280
     0
102
RTVSPost2010PropOp32
 70
     1
102
RTVSPost2010Prop33
280
     0
102
RTVSPost2010PropOp33
 70
     1
102
RTVSPost2010Prop34
280
     0
102
RTVSPost2010PropOp34
 70
     1
102
RTVSPost2010Prop35
280
     0
102
RTVSPost2010PropOp35
 70
     1
102
RTVSPost2010Prop36
280
     0
102
RTVSPost2010PropOp36
 70
     1
102
RTVSPost2010Prop37
 90
       50
102
RTVSPost2010PropOp37
 70
     1
102
RTVSPost2010Prop38
140
0.0
102
RTVSPost2010PropOp38
 70
     1
102
RTVSPost2010Prop39
140
1.0
102
RTVSPost2010PropOp39
 70
     1
102
RTVSPost2010Prop40
 90
        0
102
RTVSPost2010PropOp40
 70
     1
102
RTVSPost2010Prop41ColorIndex
 90
       18
102
RTVSPost2010Prop41ColorRGB
 90
        0
102
RTVSPost2010PropOp41
 70
     1
102
RTVSPost2010Prop42
 90
       50
102
RTVSPost2010PropOp42
 70
     1
102
RTVSPost2010Prop43
 90
        3
102
RTVSPost2010PropOp43
 70
     1
102
RTVSPost2010Prop44ColorIndex
 90
        5
102
RTVSPost2010Prop44ColorRGB
 90
      255
102
RTVSPost2010PropOp44
 70
     1
102
RTVSPost2010Prop45
280
     0
102
RTVSPost2010PropOp45
 70
     1
102
RTVSPost2010Prop46
 90
       50
102
RTVSPost2010PropOp46
 70
     1
102
RTVSPost2010Prop47
 90
       50
102
RTVSPost2010PropOp47
 70
     1
102
RTVSPost2010Prop48
 90
       50
102
RTVSPost2010PropOp48
 70
     1
102
RTVSPost2010Prop49
280
     0
102
RTVSPost2010PropOp49
 70
     1
102
RTVSPost2010Prop50
 90
       50
102
RTVSPost2010PropOp50
 70
     1
102
RTVSPost2010Prop51ColorIndex
 90
      256
102
RTVSPost2010Prop51ColorRGB
 90
-16777216
102
RTVSPost2010PropOp51
 70
     0
102
RTVSPost2010Prop52
140
1.0
102
RTVSPost2010PropOp52
 70
     0
102
RTVSPost2010Prop53
 90
        2
102
RTVSPost2010PropOp53
 70
     1
102
RTVSPost2010Prop54
  1
strokes_ogs.tif
102
RTVSPost2010PropOp54
 70
     1
102
RTVSPost2010Prop55
280
     0
102
RTVSPost2010PropOp55
 70
     1
102
RTVSPost2010Prop56
140
1.0
102
RTVSPost2010PropOp56
 70
     1
102
RTVSPost2010Prop57
140
1.0
102
RTVSPost2010PropOp57
 70
     1
102
RTVSPropertyOp0
 70
     1
102
RTVSPropertyOp1
 70
     1
102
RTVSPropertyOp2
 70
     1
102
RTVSPropertyOp3
 70
     1
102
RTVSPropertyOp4
 70
     1
102
RTVSPropertyOp5
 70
     1
102
RTVSPropertyOp6
 70
     1
102
RTVSPropertyOp7
 70
     1
102
RTVSPropertyOp8
 70
     1
102
RTVSPropertyOp9
 70
     1
102
RTVSPropertyOp10
 70
     1
102
RTVSPropertyOp11
 70
     1
102
RTVSPropertyOp12
 70
     1
102
RTVSPropertyOp13
 70
     1
102
RTVSPropertyOp14
 70
     1
102
RTVSPropertyOp15
 70
     1
102
RTVSPropertyOp16
 70
     1
102
RTVSPropertyOp17
 70
     1
102
RTVSPropertyOp18
 70
     1
102
RTVSPropertyOp19
 70
     1
102
RTVSPropertyOp20
 70
     1
102
RTVSPropertyOp21
 70
     1
102
RTVSPropertyOp22
 70
     1
102
RTVSPropertyOp23
 70
     1
102
RTVSPropertyOp24
 70
     1
102
RTVSPropertyOp25
 70
     1
102
RTVSPropertyOp26
 70
     1
102
RTVSPropertyOp27
 70
     1
102
RTVSPropertyOp28
 70
     1
102
RTVSPropertyOp29
 70
     1
102
RTVSPropertyOp30
 70
     1
102
RTVSPropertyOp31
 70
     1
102
RTVSPropertyOp32
 70
     1
102
RTVSPropertyOp33
 70
     1
102
RTVSPropertyOp34
 70
     1
102
RTVSPropertyOp35
 70
     1
102
RTVSPropertyOp36
 70
     1
102
RTVSPropertyOp37
 70
     1
102
RTVSPropertyOp38
 70
     1
102
RTVSPropertyOp39
 70
     1
102
RTVSPropertyOp40
 70
     1
102
RTVSPropertyOp41
 70
     1
102
RTVSPropertyOp42
 70
     1
102
RTVSPropertyOp43
 70
     1
102
RTVSPropertyOp44
 70
     1
102
RTVSPropertyOp45
 70
     1
102
RTVSPropertyOp46
 70
     1
102
RTVSPropertyOp47
 70
     1
102
RTVSPropertyOp48
 70
     1
102
RTVSPropertyOp49
 70
     1
102
RTVSPropertyOp50
 70
     1
102
RTVSPropertyOp51
 70
     0
102
RTVSPropertyOp52
 70
     0
102
RTVSPropertyOp53
 70
     1
102
RTVSPropertyOp54
 70
     1
102
RTVSPropertyOp55
 70
     1
102
RTVSPropertyOp56
 70
     1
102
RTVSPropertyOp57
 70
     1
102
RTVSPropertyOp58
 70
     1
102
RTVSPropertyOp59
 70
     1
102
RTVSPropertyOp60
 70
     1
102
RTVSPropertyOp61
 70
     1
102
RTVSPropertyOp62
 70
     1
  0
XRECORD
  5
198CE059C9C9EE8
102
{ACAD_REACTORS
330
198CE059C9C9EE7
102
}
330
198CE059C9C9EE7
100
AcDbXrecord
280
     1
102
RTVSPost2010Prop28
280
     0
102
RTVSPost2010PropOp28
 70
     1
102
RTVSPost2010Prop29
280
     1
102
RTVSPost2010PropOp29
 70
     1
102
RTVSPost2010Prop30
280
     1
102
RTVSPost2010PropOp30
 70
     1
102
RTVSPost2010Prop31
280
     0
102
RTVSPost2010PropOp31
 70
     1
102
RTVSPost2010Prop32
280
     0
102
RTVSPost2010PropOp32
 70
     1
102
RTVSPost2010Prop33
280
     0
102
RTVSPost2010PropOp33
 70
     1
102
RTVSPost2010Prop34
280
     0
102
RTVSPost2010PropOp34
 70
     1
102
RTVSPost2010Prop35
280
     0
102
RTVSPost2010PropOp35
 70
     1
102
RTVSPost2010Prop36
280
     0
102
RTVSPost2010PropOp36
 70
     1
102
RTVSPost2010Prop37
 90
       50
102
RTVSPost2010PropOp37
 70
     1
102
RTVSPost2010Prop38
140
0.0
102
RTVSPost2010PropOp38
 70
     1
102
RTVSPost2010Prop39
140
1.0
102
RTVSPost2010PropOp39
 70
     1
102
RTVSPost2010Prop40
 90
        0
102
RTVSPost2010PropOp40
 70
     1
102
RTVSPost2010Prop41ColorIndex
 90
       18
102
RTVSPost2010Prop41ColorRGB
 90
        0
102
RTVSPost2010PropOp41
 70
     1
102
RTVSPost2010Prop42
 90
       50
102
RTVSPost2010PropOp42
 70
     1
102
RTVSPost2010Prop43
 90
        3
102
RTVSPost2010PropOp43
 70
     1
102
RTVSPost2010Prop44ColorIndex
 90
        5
102
RTVSPost2010Prop44ColorRGB
 90
      255
102
RTVSPost2010PropOp44
 70
     1
102
RTVSPost2010Prop45
280
     0
102
RTVSPost2010PropOp45
 70
     1
102
RTVSPost2010Prop46
 90
       50
102
RTVSPost2010PropOp46
 70
     1
102
RTVSPost2010Prop47
 90
       50
102
RTVSPost2010PropOp47
 70
     1
102
RTVSPost2010Prop48
 90
       50
102
RTVSPost2010PropOp48
 70
     1
102
RTVSPost2010Prop49
280
     0
102
RTVSPost2010PropOp49
 70
     1
102
RTVSPost2010Prop50
 90
       50
102
RTVSPost2010PropOp50
 70
     1
102
RTVSPost2010Prop51ColorIndex
 90
      256
102
RTVSPost2010Prop51ColorRGB
 90
-16777216
102
RTVSPost2010PropOp51
 70
     0
102
RTVSPost2010Prop52
140
1.0
102
RTVSPost2010PropOp52
 70
     0
102
RTVSPost2010Prop53
 90
        2
102
RTVSPost2010PropOp53
 70
     1
102
RTVSPost2010Prop54
  1
strokes_ogs.tif
102
RTVSPost2010PropOp54
 70
     1
102
RTVSPost2010Prop55
280
     0
102
RTVSPost2010PropOp55
 70
     1
102
RTVSPost2010Prop56
140
1.0
102
RTVSPost2010PropOp56
 70
     1
102
RTVSPost2010Prop57
140
1.0
102
RTVSPost2010PropOp57
 70
     1
102
RTVSPropertyOp0
 70
     1
102
RTVSPropertyOp1
 70
     1
102
RTVSPropertyOp2
 70
     1
102
RTVSPropertyOp3
 70
     1
102
RTVSPropertyOp4
 70
     1
102
RTVSPropertyOp5
 70
     1
102
RTVSPropertyOp6
 70
     1
102
RTVSPropertyOp7
 70
     1
102
RTVSPropertyOp8
 70
     1
102
RTVSPropertyOp9
 70
     1
102
RTVSPropertyOp10
 70
     1
102
RTVSPropertyOp11
 70
     1
102
RTVSPropertyOp12
 70
     1
102
RTVSPropertyOp13
 70
     1
102
RTVSPropertyOp14
 70
     1
102
RTVSPropertyOp15
 70
     1
102
RTVSPropertyOp16
 70
     1
102
RTVSPropertyOp17
 70
     1
102
RTVSPropertyOp18
 70
     1
102
RTVSPropertyOp19
 70
     1
102
RTVSPropertyOp20
 70
     1
102
RTVSPropertyOp21
 70
     1
102
RTVSPropertyOp22
 70
     1
102
RTVSPropertyOp23
 70
     1
102
RTVSPropertyOp24
 70
     1
102
RTVSPropertyOp25
 70
     1
102
RTVSPropertyOp26
 70
     1
102
RTVSPropertyOp27
 70
     1
102
RTVSPropertyOp28
 70
     1
102
RTVSPropertyOp29
 70
     1
102
RTVSPropertyOp30
 70
     1
102
RTVSPropertyOp31
 70
     1
102
RTVSPropertyOp32
 70
     1
102
RTVSPropertyOp33
 70
     1
102
RTVSPropertyOp34
 70
     1
102
RTVSPropertyOp35
 70
     1
102
RTVSPropertyOp36
 70
     1
102
RTVSPropertyOp37
 70
     1
102
RTVSPropertyOp38
 70
     1
102
RTVSPropertyOp39
 70
     1
102
RTVSPropertyOp40
 70
     1
102
RTVSPropertyOp41
 70
     1
102
RTVSPropertyOp42
 70
     1
102
RTVSPropertyOp43
 70
     1
102
RTVSPropertyOp44
 70
     1
102
RTVSPropertyOp45
 70
     1
102
RTVSPropertyOp46
 70
     1
102
RTVSPropertyOp47
 70
     1
102
RTVSPropertyOp48
 70
     1
102
RTVSPropertyOp49
 70
     1
102
RTVSPropertyOp50
 70
     1
102
RTVSPropertyOp51
 70
     0
102
RTVSPropertyOp52
 70
     0
102
RTVSPropertyOp53
 70
     1
102
RTVSPropertyOp54
 70
     1
102
RTVSPropertyOp55
 70
     1
102
RTVSPropertyOp56
 70
     1
102
RTVSPropertyOp57
 70
     1
102
RTVSPropertyOp58
 70
     1
102
RTVSPropertyOp59
 70
     1
102
RTVSPropertyOp60
 70
     1
102
RTVSPropertyOp61
 70
     1
102
RTVSPropertyOp62
 70
     1
  0
XRECORD
  5
198CE059C9C9EEA
102
{ACAD_REACTORS
330
198CE059C9C9EE9
102
}
330
198CE059C9C9EE9
100
AcDbXrecord
280
     1
102
RTVSPost2010Prop28
280
     0
102
RTVSPost2010PropOp28
 70
     1
102
RTVSPost2010Prop29
280
     1
102
RTVSPost2010PropOp29
 70
     1
102
RTVSPost2010Prop30
280
     1
102
RTVSPost2010PropOp30
 70
     1
102
RTVSPost2010Prop31
280
     0
102
RTVSPost2010PropOp31
 70
     1
102
RTVSPost2010Prop32
280
     0
102
RTVSPost2010PropOp32
 70
     1
102
RTVSPost2010Prop33
280
     0
102
RTVSPost2010PropOp33
 70
     1
102
RTVSPost2010Prop34
280
     0
102
RTVSPost2010PropOp34
 70
     1
102
RTVSPost2010Prop35
280
     0
102
RTVSPost2010PropOp35
 70
     1
102
RTVSPost2010Prop36
280
     0
102
RTVSPost2010PropOp36
 70
     1
102
RTVSPost2010Prop37
 90
       50
102
RTVSPost2010PropOp37
 70
     1
102
RTVSPost2010Prop38
140
0.0
102
RTVSPost2010PropOp38
 70
     1
102
RTVSPost2010Prop39
140
1.0
102
RTVSPost2010PropOp39
 70
     1
102
RTVSPost2010Prop40
 90
        0
102
RTVSPost2010PropOp40
 70
     1
102
RTVSPost2010Prop41ColorIndex
 90
       18
102
RTVSPost2010Prop41ColorRGB
 90
        0
102
RTVSPost2010PropOp41
 70
     1
102
RTVSPost2010Prop42
 90
       50
102
RTVSPost2010PropOp42
 70
     1
102
RTVSPost2010Prop43
 90
        3
102
RTVSPost2010PropOp43
 70
     1
102
RTVSPost2010Prop44ColorIndex
 90
        5
102
RTVSPost2010Prop44ColorRGB
 90
      255
102
RTVSPost2010PropOp44
 70
     1
102
RTVSPost2010Prop45
280
     0
102
RTVSPost2010PropOp45
 70
     1
102
RTVSPost2010Prop46
 90
       50
102
RTVSPost2010PropOp46
 70
     1
102
RTVSPost2010Prop47
 90
       50
102
RTVSPost2010PropOp47
 70
     1
102
RTVSPost2010Prop48
 90
       50
102
RTVSPost2010PropOp48
 70
     1
102
RTVSPost2010Prop49
280
     0
102
RTVSPost2010PropOp49
 70
     1
102
RTVSPost2010Prop50
 90
       50
102
RTVSPost2010PropOp50
 70
     1
102
RTVSPost2010Prop51ColorIndex
 90
      256
102
RTVSPost2010Prop51ColorRGB
 90
-16777216
102
RTVSPost2010PropOp51
 70
     0
102
RTVSPost2010Prop52
140
1.0
102
RTVSPost2010PropOp52
 70
     0
102
RTVSPost2010Prop53
 90
        2
102
RTVSPost2010PropOp53
 70
     1
102
RTVSPost2010Prop54
  1
strokes_ogs.tif
102
RTVSPost2010PropOp54
 70
     1
102
RTVSPost2010Prop55
280
     0
102
RTVSPost2010PropOp55
 70
     1
102
RTVSPost2010Prop56
140
1.0
102
RTVSPost2010PropOp56
 70
     1
102
RTVSPost2010Prop57
140
1.0
102
RTVSPost2010PropOp57
 70
     1
102
RTVSPropertyOp0
 70
     1
102
RTVSPropertyOp1
 70
     1
102
RTVSPropertyOp2
 70
     1
102
RTVSPropertyOp3
 70
     1
102
RTVSPropertyOp4
 70
     1
102
RTVSPropertyOp5
 70
     1
102
RTVSPropertyOp6
 70
     1
102
RTVSPropertyOp7
 70
     1
102
RTVSPropertyOp8
 70
     1
102
RTVSPropertyOp9
 70
     1
102
RTVSPropertyOp10
 70
     1
102
RTVSPropertyOp11
 70
     1
102
RTVSPropertyOp12
 70
     1
102
RTVSPropertyOp13
 70
     1
102
RTVSPropertyOp14
 70
     1
102
RTVSPropertyOp15
 70
     1
102
RTVSPropertyOp16
 70
     1
102
RTVSPropertyOp17
 70
     1
102
RTVSPropertyOp18
 70
     1
102
RTVSPropertyOp19
 70
     1
102
RTVSPropertyOp20
 70
     1
102
RTVSPropertyOp21
 70
     1
102
RTVSPropertyOp22
 70
     1
102
RTVSPropertyOp23
 70
     1
102
RTVSPropertyOp24
 70
     1
102
RTVSPropertyOp25
 70
     1
102
RTVSPropertyOp26
 70
     1
102
RTVSPropertyOp27
 70
     1
102
RTVSPropertyOp28
 70
     1
102
RTVSPropertyOp29
 70
     1
102
RTVSPropertyOp30
 70
     1
102
RTVSPropertyOp31
 70
     1
102
RTVSPropertyOp32
 70
     1
102
RTVSPropertyOp33
 70
     1
102
RTVSPropertyOp34
 70
     1
102
RTVSPropertyOp35
 70
     1
102
RTVSPropertyOp36
 70
     1
102
RTVSPropertyOp37
 70
     1
102
RTVSPropertyOp38
 70
     1
102
RTVSPropertyOp39
 70
     1
102
RTVSPropertyOp40
 70
     1
102
RTVSPropertyOp41
 70
     1
102
RTVSPropertyOp42
 70
     1
102
RTVSPropertyOp43
 70
     1
102
RTVSPropertyOp44
 70
     1
102
RTVSPropertyOp45
 70
     1
102
RTVSPropertyOp46
 70
     1
102
RTVSPropertyOp47
 70
     1
102
RTVSPropertyOp48
 70
     1
102
RTVSPropertyOp49
 70
     1
102
RTVSPropertyOp50
 70
     1
102
RTVSPropertyOp51
 70
     0
102
RTVSPropertyOp52
 70
     0
102
RTVSPropertyOp53
 70
     1
102
RTVSPropertyOp54
 70
     1
102
RTVSPropertyOp55
 70
     1
102
RTVSPropertyOp56
 70
     1
102
RTVSPropertyOp57
 70
     1
102
RTVSPropertyOp58
 70
     1
102
RTVSPropertyOp59
 70
     1
102
RTVSPropertyOp60
 70
     1
102
RTVSPropertyOp61
 70
     1
102
RTVSPropertyOp62
 70
     1
  0
XRECORD
  5
198CE059C9C9EF2
102
{ACAD_REACTORS
330
198CE059C9C9EF1
102
}
330
198CE059C9C9EF1
100
AcDbXrecord
280
     1
102
RTVSPost2010Prop28
280
     0
102
RTVSPost2010PropOp28
 70
     1
102
RTVSPost2010Prop29
280
     1
102
RTVSPost2010PropOp29
 70
     1
102
RTVSPost2010Prop30
280
     1
102
RTVSPost2010PropOp30
 70
     1
102
RTVSPost2010Prop31
280
     0
102
RTVSPost2010PropOp31
 70
     1
102
RTVSPost2010Prop32
280
     0
102
RTVSPost2010PropOp32
 70
     1
102
RTVSPost2010Prop33
280
     0
102
RTVSPost2010PropOp33
 70
     1
102
RTVSPost2010Prop34
280
     0
102
RTVSPost2010PropOp34
 70
     1
102
RTVSPost2010Prop35
280
     0
102
RTVSPost2010PropOp35
 70
     1
102
RTVSPost2010Prop36
280
     0
102
RTVSPost2010PropOp36
 70
     1
102
RTVSPost2010Prop37
 90
       50
102
RTVSPost2010PropOp37
 70
     1
102
RTVSPost2010Prop38
140
0.0
102
RTVSPost2010PropOp38
 70
     1
102
RTVSPost2010Prop39
140
1.0
102
RTVSPost2010PropOp39
 70
     1
102
RTVSPost2010Prop40
 90
        0
102
RTVSPost2010PropOp40
 70
     1
102
RTVSPost2010Prop41ColorIndex
 90
       18
102
RTVSPost2010Prop41ColorRGB
 90
        0
102
RTVSPost2010PropOp41
 70
     1
102
RTVSPost2010Prop42
 90
       50
102
RTVSPost2010PropOp42
 70
     1
102
RTVSPost2010Prop43
 90
        3
102
RTVSPost2010PropOp43
 70
     1
102
RTVSPost2010Prop44ColorIndex
 90
        5
102
RTVSPost2010Prop44ColorRGB
 90
      255
102
RTVSPost2010PropOp44
 70
     1
102
RTVSPost2010Prop45
280
     0
102
RTVSPost2010PropOp45
 70
     1
102
RTVSPost2010Prop46
 90
       50
102
RTVSPost2010PropOp46
 70
     1
102
RTVSPost2010Prop47
 90
       50
102
RTVSPost2010PropOp47
 70
     1
102
RTVSPost2010Prop48
 90
       50
102
RTVSPost2010PropOp48
 70
     1
102
RTVSPost2010Prop49
280
     0
102
RTVSPost2010PropOp49
 70
     1
102
RTVSPost2010Prop50
 90
       50
102
RTVSPost2010PropOp50
 70
     1
102
RTVSPost2010Prop51ColorIndex
 90
      256
102
RTVSPost2010Prop51ColorRGB
 90
-16777216
102
RTVSPost2010PropOp51
 70
     0
102
RTVSPost2010Prop52
140
1.0
102
RTVSPost2010PropOp52
 70
     0
102
RTVSPost2010Prop53
 90
        2
102
RTVSPost2010PropOp53
 70
     1
102
RTVSPost2010Prop54
  1
strokes_ogs.tif
102
RTVSPost2010PropOp54
 70
     1
102
RTVSPost2010Prop55
280
     0
102
RTVSPost2010PropOp55
 70
     1
102
RTVSPost2010Prop56
140
1.0
102
RTVSPost2010PropOp56
 70
     1
102
RTVSPost2010Prop57
140
1.0
102
RTVSPost2010PropOp57
 70
     1
102
RTVSPropertyOp0
 70
     1
102
RTVSPropertyOp1
 70
     1
102
RTVSPropertyOp2
 70
     1
102
RTVSPropertyOp3
 70
     1
102
RTVSPropertyOp4
 70
     1
102
RTVSPropertyOp5
 70
     1
102
RTVSPropertyOp6
 70
     1
102
RTVSPropertyOp7
 70
     1
102
RTVSPropertyOp8
 70
     1
102
RTVSPropertyOp9
 70
     1
102
RTVSPropertyOp10
 70
     1
102
RTVSPropertyOp11
 70
     1
102
RTVSPropertyOp12
 70
     1
102
RTVSPropertyOp13
 70
     1
102
RTVSPropertyOp14
 70
     1
102
RTVSPropertyOp15
 70
     1
102
RTVSPropertyOp16
 70
     1
102
RTVSPropertyOp17
 70
     1
102
RTVSPropertyOp18
 70
     1
102
RTVSPropertyOp19
 70
     1
102
RTVSPropertyOp20
 70
     1
102
RTVSPropertyOp21
 70
     1
102
RTVSPropertyOp22
 70
     1
102
RTVSPropertyOp23
 70
     1
102
RTVSPropertyOp24
 70
     1
102
RTVSPropertyOp25
 70
     1
102
RTVSPropertyOp26
 70
     1
102
RTVSPropertyOp27
 70
     1
102
RTVSPropertyOp28
 70
     1
102
RTVSPropertyOp29
 70
     1
102
RTVSPropertyOp30
 70
     1
102
RTVSPropertyOp31
 70
     1
102
RTVSPropertyOp32
 70
     1
102
RTVSPropertyOp33
 70
     1
102
RTVSPropertyOp34
 70
     1
102
RTVSPropertyOp35
 70
     1
102
RTVSPropertyOp36
 70
     1
102
RTVSPropertyOp37
 70
     1
102
RTVSPropertyOp38
 70
     1
102
RTVSPropertyOp39
 70
     1
102
RTVSPropertyOp40
 70
     1
102
RTVSPropertyOp41
 70
     1
102
RTVSPropertyOp42
 70
     1
102
RTVSPropertyOp43
 70
     1
102
RTVSPropertyOp44
 70
     1
102
RTVSPropertyOp45
 70
     1
102
RTVSPropertyOp46
 70
     1
102
RTVSPropertyOp47
 70
     1
102
RTVSPropertyOp48
 70
     1
102
RTVSPropertyOp49
 70
     1
102
RTVSPropertyOp50
 70
     1
102
RTVSPropertyOp51
 70
     0
102
RTVSPropertyOp52
 70
     0
102
RTVSPropertyOp53
 70
     1
102
RTVSPropertyOp54
 70
     1
102
RTVSPropertyOp55
 70
     1
102
RTVSPropertyOp56
 70
     1
102
RTVSPropertyOp57
 70
     1
102
RTVSPropertyOp58
 70
     1
102
RTVSPropertyOp59
 70
     1
102
RTVSPropertyOp60
 70
     1
102
RTVSPropertyOp61
 70
     1
102
RTVSPropertyOp62
 70
     1
  0
XRECORD
  5
198CE059C9C9F0E
102
{ACAD_REACTORS
330
198CE059C9C9F0D
102
}
330
198CE059C9C9F0D
100
AcDbXrecord
280
     1
102
RTVSPost2010Prop28
280
     0
102
RTVSPost2010PropOp28
 70
     0
102
RTVSPost2010Prop29
280
     1
102
RTVSPost2010PropOp29
 70
     0
102
RTVSPost2010Prop30
280
     1
102
RTVSPost2010PropOp30
 70
     0
102
RTVSPost2010Prop31
280
     0
102
RTVSPost2010PropOp31
 70
     0
102
RTVSPost2010Prop32
280
     0
102
RTVSPost2010PropOp32
 70
     0
102
RTVSPost2010Prop33
280
     0
102
RTVSPost2010PropOp33
 70
     0
102
RTVSPost2010Prop34
280
     0
102
RTVSPost2010PropOp34
 70
     0
102
RTVSPost2010Prop35
280
     0
102
RTVSPost2010PropOp35
 70
     0
102
RTVSPost2010Prop36
280
     0
102
RTVSPost2010PropOp36
 70
     0
102
RTVSPost2010Prop37
 90
       50
102
RTVSPost2010PropOp37
 70
     0
102
RTVSPost2010Prop38
140
0.0
102
RTVSPost2010PropOp38
 70
     0
102
RTVSPost2010Prop39
140
1.0
102
RTVSPost2010PropOp39
 70
     0
102
RTVSPost2010Prop40
 90
        0
102
RTVSPost2010PropOp40
 70
     0
102
RTVSPost2010Prop41ColorIndex
 90
       18
102
RTVSPost2010Prop41ColorRGB
 90
        0
102
RTVSPost2010PropOp41
 70
     0
102
RTVSPost2010Prop42
 90
       50
102
RTVSPost2010PropOp42
 70
     0
102
RTVSPost2010Prop43
 90
        3
102
RTVSPost2010PropOp43
 70
     0
102
RTVSPost2010Prop44ColorIndex
 90
        5
102
RTVSPost2010Prop44ColorRGB
 90
      255
102
RTVSPost2010PropOp44
 70
     0
102
RTVSPost2010Prop45
280
     0
102
RTVSPost2010PropOp45
 70
     0
102
RTVSPost2010Prop46
 90
       50
102
RTVSPost2010PropOp46
 70
     0
102
RTVSPost2010Prop47
 90
       50
102
RTVSPost2010PropOp47
 70
     0
102
RTVSPost2010Prop48
 90
       50
102
RTVSPost2010PropOp48
 70
     0
102
RTVSPost2010Prop49
280
     0
102
RTVSPost2010PropOp49
 70
     0
102
RTVSPost2010Prop50
 90
       50
102
RTVSPost2010PropOp50
 70
     0
102
RTVSPost2010Prop51ColorIndex
 90
      256
102
RTVSPost2010Prop51ColorRGB
 90
-16777216
102
RTVSPost2010PropOp51
 70
     0
102
RTVSPost2010Prop52
140
1.0
102
RTVSPost2010PropOp52
 70
     0
102
RTVSPost2010Prop53
 90
        2
102
RTVSPost2010PropOp53
 70
     0
102
RTVSPost2010Prop54
  1
strokes_ogs.tif
102
RTVSPost2010PropOp54
 70
     0
102
RTVSPost2010Prop55
280
     0
102
RTVSPost2010PropOp55
 70
     0
102
RTVSPost2010Prop56
140
1.0
102
RTVSPost2010PropOp56
 70
     0
102
RTVSPost2010Prop57
140
1.0
102
RTVSPost2010PropOp57
 70
     0
102
RTVSPropertyOp0
 70
     0
102
RTVSPropertyOp1
 70
     0
102
RTVSPropertyOp2
 70
     0
102
RTVSPropertyOp3
 70
     0
102
RTVSPropertyOp4
 70
     0
102
RTVSPropertyOp5
 70
     0
102
RTVSPropertyOp6
 70
     0
102
RTVSPropertyOp7
 70
     0
102
RTVSPropertyOp8
 70
     0
102
RTVSPropertyOp9
 70
     0
102
RTVSPropertyOp10
 70
     0
102
RTVSPropertyOp11
 70
     0
102
RTVSPropertyOp12
 70
     0
102
RTVSPropertyOp13
 70
     0
102
RTVSPropertyOp14
 70
     2
102
RTVSPropertyOp15
 70
     0
102
RTVSPropertyOp16
 70
     0
102
RTVSPropertyOp17
 70
     0
102
RTVSPropertyOp18
 70
     0
102
RTVSPropertyOp19
 70
     0
102
RTVSPropertyOp20
 70
     0
102
RTVSPropertyOp21
 70
     0
102
RTVSPropertyOp22
 70
     0
102
RTVSPropertyOp23
 70
     0
102
RTVSPropertyOp24
 70
     0
102
RTVSPropertyOp25
 70
     0
102
RTVSPropertyOp26
 70
     0
102
RTVSPropertyOp27
 70
     0
102
RTVSPropertyOp28
 70
     0
102
RTVSPropertyOp29
 70
     0
102
RTVSPropertyOp30
 70
     0
102
RTVSPropertyOp31
 70
     0
102
RTVSPropertyOp32
 70
     0
102
RTVSPropertyOp33
 70
     0
102
RTVSPropertyOp34
 70
     0
102
RTVSPropertyOp35
 70
     0
102
RTVSPropertyOp36
 70
     0
102
RTVSPropertyOp37
 70
     0
102
RTVSPropertyOp38
 70
     0
102
RTVSPropertyOp39
 70
     0
102
RTVSPropertyOp40
 70
     0
102
RTVSPropertyOp41
 70
     0
102
RTVSPropertyOp42
 70
     0
102
RTVSPropertyOp43
 70
     0
102
RTVSPropertyOp44
 70
     0
102
RTVSPropertyOp45
 70
     0
102
RTVSPropertyOp46
 70
     0
102
RTVSPropertyOp47
 70
     0
102
RTVSPropertyOp48
 70
     0
102
RTVSPropertyOp49
 70
     0
102
RTVSPropertyOp50
 70
     0
102
RTVSPropertyOp51
 70
     0
102
RTVSPropertyOp52
 70
     0
102
RTVSPropertyOp53
 70
     0
102
RTVSPropertyOp54
 70
     0
102
RTVSPropertyOp55
 70
     0
102
RTVSPropertyOp56
 70
     0
102
RTVSPropertyOp57
 70
     0
102
RTVSPropertyOp58
 70
     0
102
RTVSPropertyOp59
 70
     0
102
RTVSPropertyOp60
 70
     0
102
RTVSPropertyOp61
 70
     0
102
RTVSPropertyOp62
 70
     0
  0
XRECORD
  5
198CE059C9C9EFE
102
{ACAD_REACTORS
330
198CE059C9C9EFD
102
}
330
198CE059C9C9EFD
100
AcDbXrecord
280
     1
102
RTVSPost2010Prop28
280
     0
102
RTVSPost2010PropOp28
 70
     1
102
RTVSPost2010Prop29
280
     1
102
RTVSPost2010PropOp29
 70
     1
102
RTVSPost2010Prop30
280
     1
102
RTVSPost2010PropOp30
 70
     1
102
RTVSPost2010Prop31
280
     0
102
RTVSPost2010PropOp31
 70
     1
102
RTVSPost2010Prop32
280
     0
102
RTVSPost2010PropOp32
 70
     1
102
RTVSPost2010Prop33
280
     0
102
RTVSPost2010PropOp33
 70
     1
102
RTVSPost2010Prop34
280
     0
102
RTVSPost2010PropOp34
 70
     1
102
RTVSPost2010Prop35
280
     0
102
RTVSPost2010PropOp35
 70
     1
102
RTVSPost2010Prop36
280
     0
102
RTVSPost2010PropOp36
 70
     1
102
RTVSPost2010Prop37
 90
       50
102
RTVSPost2010PropOp37
 70
     1
102
RTVSPost2010Prop38
140
0.0
102
RTVSPost2010PropOp38
 70
     1
102
RTVSPost2010Prop39
140
1.0
102
RTVSPost2010PropOp39
 70
     1
102
RTVSPost2010Prop40
 90
        0
102
RTVSPost2010PropOp40
 70
     1
102
RTVSPost2010Prop41ColorIndex
 90
       18
102
RTVSPost2010Prop41ColorRGB
 90
        0
102
RTVSPost2010PropOp41
 70
     1
102
RTVSPost2010Prop42
 90
       50
102
RTVSPost2010PropOp42
 70
     1
102
RTVSPost2010Prop43
 90
        3
102
RTVSPost2010PropOp43
 70
     1
102
RTVSPost2010Prop44ColorIndex
 90
        5
102
RTVSPost2010Prop44ColorRGB
 90
      255
102
RTVSPost2010PropOp44
 70
     1
102
RTVSPost2010Prop45
280
     0
102
RTVSPost2010PropOp45
 70
     1
102
RTVSPost2010Prop46
 90
       50
102
RTVSPost2010PropOp46
 70
     1
102
RTVSPost2010Prop47
 90
       50
102
RTVSPost2010PropOp47
 70
     1
102
RTVSPost2010Prop48
 90
       50
102
RTVSPost2010PropOp48
 70
     1
102
RTVSPost2010Prop49
280
     0
102
RTVSPost2010PropOp49
 70
     1
102
RTVSPost2010Prop50
 90
       50
102
RTVSPost2010PropOp50
 70
     1
102
RTVSPost2010Prop51ColorIndex
 90
      256
102
RTVSPost2010Prop51ColorRGB
 90
-16777216
102
RTVSPost2010PropOp51
 70
     0
102
RTVSPost2010Prop52
140
1.0
102
RTVSPost2010PropOp52
 70
     0
102
RTVSPost2010Prop53
 90
        2
102
RTVSPost2010PropOp53
 70
     1
102
RTVSPost2010Prop54
  1
strokes_ogs.tif
102
RTVSPost2010PropOp54
 70
     1
102
RTVSPost2010Prop55
280
     0
102
RTVSPost2010PropOp55
 70
     1
102
RTVSPost2010Prop56
140
1.0
102
RTVSPost2010PropOp56
 70
     1
102
RTVSPost2010Prop57
140
1.0
102
RTVSPost2010PropOp57
 70
     1
102
RTVSPropertyOp0
 70
     1
102
RTVSPropertyOp1
 70
     1
102
RTVSPropertyOp2
 70
     1
102
RTVSPropertyOp3
 70
     1
102
RTVSPropertyOp4
 70
     1
102
RTVSPropertyOp5
 70
     1
102
RTVSPropertyOp6
 70
     1
102
RTVSPropertyOp7
 70
     1
102
RTVSPropertyOp8
 70
     1
102
RTVSPropertyOp9
 70
     1
102
RTVSPropertyOp10
 70
     1
102
RTVSPropertyOp11
 70
     1
102
RTVSPropertyOp12
 70
     1
102
RTVSPropertyOp13
 70
     1
102
RTVSPropertyOp14
 70
     1
102
RTVSPropertyOp15
 70
     1
102
RTVSPropertyOp16
 70
     1
102
RTVSPropertyOp17
 70
     1
102
RTVSPropertyOp18
 70
     1
102
RTVSPropertyOp19
 70
     1
102
RTVSPropertyOp20
 70
     1
102
RTVSPropertyOp21
 70
     1
102
RTVSPropertyOp22
 70
     1
102
RTVSPropertyOp23
 70
     1
102
RTVSPropertyOp24
 70
     1
102
RTVSPropertyOp25
 70
     1
102
RTVSPropertyOp26
 70
     1
102
RTVSPropertyOp27
 70
     1
102
RTVSPropertyOp28
 70
     1
102
RTVSPropertyOp29
 70
     1
102
RTVSPropertyOp30
 70
     1
102
RTVSPropertyOp31
 70
     1
102
RTVSPropertyOp32
 70
     1
102
RTVSPropertyOp33
 70
     1
102
RTVSPropertyOp34
 70
     1
102
RTVSPropertyOp35
 70
     1
102
RTVSPropertyOp36
 70
     1
102
RTVSPropertyOp37
 70
     1
102
RTVSPropertyOp38
 70
     1
102
RTVSPropertyOp39
 70
     1
102
RTVSPropertyOp40
 70
     1
102
RTVSPropertyOp41
 70
     1
102
RTVSPropertyOp42
 70
     1
102
RTVSPropertyOp43
 70
     1
102
RTVSPropertyOp44
 70
     1
102
RTVSPropertyOp45
 70
     1
102
RTVSPropertyOp46
 70
     1
102
RTVSPropertyOp47
 70
     1
102
RTVSPropertyOp48
 70
     1
102
RTVSPropertyOp49
 70
     1
102
RTVSPropertyOp50
 70
     1
102
RTVSPropertyOp51
 70
     0
102
RTVSPropertyOp52
 70
     0
102
RTVSPropertyOp53
 70
     1
102
RTVSPropertyOp54
 70
     1
102
RTVSPropertyOp55
 70
     1
102
RTVSPropertyOp56
 70
     1
102
RTVSPropertyOp57
 70
     1
102
RTVSPropertyOp58
 70
     1
102
RTVSPropertyOp59
 70
     1
102
RTVSPropertyOp60
 70
     1
102
RTVSPropertyOp61
 70
     1
102
RTVSPropertyOp62
 70
     1
  0
XRECORD
  5
198CE059C9C9F10
102
{ACAD_REACTORS
330
198CE059C9C9F0F
102
}
330
198CE059C9C9F0F
100
AcDbXrecord
280
     1
102
RTVSPost2010Prop28
280
     0
102
RTVSPost2010PropOp28
 70
     0
102
RTVSPost2010Prop29
280
     1
102
RTVSPost2010PropOp29
 70
     0
102
RTVSPost2010Prop30
280
     1
102
RTVSPost2010PropOp30
 70
     0
102
RTVSPost2010Prop31
280
     0
102
RTVSPost2010PropOp31
 70
     0
102
RTVSPost2010Prop32
280
     0
102
RTVSPost2010PropOp32
 70
     0
102
RTVSPost2010Prop33
280
     0
102
RTVSPost2010PropOp33
 70
     0
102
RTVSPost2010Prop34
280
     0
102
RTVSPost2010PropOp34
 70
     0
102
RTVSPost2010Prop35
280
     0
102
RTVSPost2010PropOp35
 70
     0
102
RTVSPost2010Prop36
280
     0
102
RTVSPost2010PropOp36
 70
     0
102
RTVSPost2010Prop37
 90
       50
102
RTVSPost2010PropOp37
 70
     0
102
RTVSPost2010Prop38
140
0.0
102
RTVSPost2010PropOp38
 70
     0
102
RTVSPost2010Prop39
140
1.0
102
RTVSPost2010PropOp39
 70
     0
102
RTVSPost2010Prop40
 90
        0
102
RTVSPost2010PropOp40
 70
     0
102
RTVSPost2010Prop41ColorIndex
 90
       18
102
RTVSPost2010Prop41ColorRGB
 90
        0
102
RTVSPost2010PropOp41
 70
     0
102
RTVSPost2010Prop42
 90
       50
102
RTVSPost2010PropOp42
 70
     0
102
RTVSPost2010Prop43
 90
        3
102
RTVSPost2010PropOp43
 70
     0
102
RTVSPost2010Prop44ColorIndex
 90
        5
102
RTVSPost2010Prop44ColorRGB
 90
      255
102
RTVSPost2010PropOp44
 70
     0
102
RTVSPost2010Prop45
280
     0
102
RTVSPost2010PropOp45
 70
     0
102
RTVSPost2010Prop46
 90
       50
102
RTVSPost2010PropOp46
 70
     0
102
RTVSPost2010Prop47
 90
       50
102
RTVSPost2010PropOp47
 70
     0
102
RTVSPost2010Prop48
 90
       50
102
RTVSPost2010PropOp48
 70
     0
102
RTVSPost2010Prop49
280
     0
102
RTVSPost2010PropOp49
 70
     0
102
RTVSPost2010Prop50
 90
       50
102
RTVSPost2010PropOp50
 70
     0
102
RTVSPost2010Prop51ColorIndex
 90
      256
102
RTVSPost2010Prop51ColorRGB
 90
-16777216
102
RTVSPost2010PropOp51
 70
     0
102
RTVSPost2010Prop52
140
1.0
102
RTVSPost2010PropOp52
 70
     0
102
RTVSPost2010Prop53
 90
        2
102
RTVSPost2010PropOp53
 70
     0
102
RTVSPost2010Prop54
  1
strokes_ogs.tif
102
RTVSPost2010PropOp54
 70
     0
102
RTVSPost2010Prop55
280
     0
102
RTVSPost2010PropOp55
 70
     0
102
RTVSPost2010Prop56
140
1.0
102
RTVSPost2010PropOp56
 70
     0
102
RTVSPost2010Prop57
140
1.0
102
RTVSPost2010PropOp57
 70
     0
102
RTVSPropertyOp0
 70
     0
102
RTVSPropertyOp1
 70
     0
102
RTVSPropertyOp2
 70
     0
102
RTVSPropertyOp3
 70
     0
102
RTVSPropertyOp4
 70
     0
102
RTVSPropertyOp5
 70
     0
102
RTVSPropertyOp6
 70
     0
102
RTVSPropertyOp7
 70
     0
102
RTVSPropertyOp8
 70
     0
102
RTVSPropertyOp9
 70
     0
102
RTVSPropertyOp10
 70
     0
102
RTVSPropertyOp11
 70
     0
102
RTVSPropertyOp12
 70
     0
102
RTVSPropertyOp13
 70
     0
102
RTVSPropertyOp14
 70
     2
102
RTVSPropertyOp15
 70
     0
102
RTVSPropertyOp16
 70
     0
102
RTVSPropertyOp17
 70
     0
102
RTVSPropertyOp18
 70
     0
102
RTVSPropertyOp19
 70
     0
102
RTVSPropertyOp20
 70
     0
102
RTVSPropertyOp21
 70
     0
102
RTVSPropertyOp22
 70
     0
102
RTVSPropertyOp23
 70
     0
102
RTVSPropertyOp24
 70
     0
102
RTVSPropertyOp25
 70
     0
102
RTVSPropertyOp26
 70
     0
102
RTVSPropertyOp27
 70
     0
102
RTVSPropertyOp28
 70
     0
102
RTVSPropertyOp29
 70
     0
102
RTVSPropertyOp30
 70
     0
102
RTVSPropertyOp31
 70
     0
102
RTVSPropertyOp32
 70
     0
102
RTVSPropertyOp33
 70
     0
102
RTVSPropertyOp34
 70
     0
102
RTVSPropertyOp35
 70
     0
102
RTVSPropertyOp36
 70
     0
102
RTVSPropertyOp37
 70
     0
102
RTVSPropertyOp38
 70
     0
102
RTVSPropertyOp39
 70
     0
102
RTVSPropertyOp40
 70
     0
102
RTVSPropertyOp41
 70
     0
102
RTVSPropertyOp42
 70
     0
102
RTVSPropertyOp43
 70
     0
102
RTVSPropertyOp44
 70
     0
102
RTVSPropertyOp45
 70
     0
102
RTVSPropertyOp46
 70
     0
102
RTVSPropertyOp47
 70
     0
102
RTVSPropertyOp48
 70
     0
102
RTVSPropertyOp49
 70
     0
102
RTVSPropertyOp50
 70
     0
102
RTVSPropertyOp51
 70
     0
102
RTVSPropertyOp52
 70
     0
102
RTVSPropertyOp53
 70
     0
102
RTVSPropertyOp54
 70
     0
102
RTVSPropertyOp55
 70
     0
102
RTVSPropertyOp56
 70
     0
102
RTVSPropertyOp57
 70
     0
102
RTVSPropertyOp58
 70
     0
102
RTVSPropertyOp59
 70
     0
102
RTVSPropertyOp60
 70
     0
102
RTVSPropertyOp61
 70
     0
102
RTVSPropertyOp62
 70
     0
  0
XRECORD
  5
198CE059C9C9EF6
102
{ACAD_REACTORS
330
198CE059C9C9EF5
102
}
330
198CE059C9C9EF5
100
AcDbXrecord
280
     1
102
RTVSPost2010Prop28
280
     0
102
RTVSPost2010PropOp28
 70
     1
102
RTVSPost2010Prop29
280
     1
102
RTVSPost2010PropOp29
 70
     1
102
RTVSPost2010Prop30
280
     1
102
RTVSPost2010PropOp30
 70
     1
102
RTVSPost2010Prop31
280
     0
102
RTVSPost2010PropOp31
 70
     1
102
RTVSPost2010Prop32
280
     0
102
RTVSPost2010PropOp32
 70
     1
102
RTVSPost2010Prop33
280
     0
102
RTVSPost2010PropOp33
 70
     1
102
RTVSPost2010Prop34
280
     0
102
RTVSPost2010PropOp34
 70
     1
102
RTVSPost2010Prop35
280
     0
102
RTVSPost2010PropOp35
 70
     1
102
RTVSPost2010Prop36
280
     0
102
RTVSPost2010PropOp36
 70
     1
102
RTVSPost2010Prop37
 90
       50
102
RTVSPost2010PropOp37
 70
     1
102
RTVSPost2010Prop38
140
0.0
102
RTVSPost2010PropOp38
 70
     1
102
RTVSPost2010Prop39
140
1.0
102
RTVSPost2010PropOp39
 70
     1
102
RTVSPost2010Prop40
 90
        0
102
RTVSPost2010PropOp40
 70
     1
102
RTVSPost2010Prop41ColorIndex
 90
       18
102
RTVSPost2010Prop41ColorRGB
 90
        0
102
RTVSPost2010PropOp41
 70
     1
102
RTVSPost2010Prop42
 90
       50
102
RTVSPost2010PropOp42
 70
     1
102
RTVSPost2010Prop43
 90
        3
102
RTVSPost2010PropOp43
 70
     1
102
RTVSPost2010Prop44ColorIndex
 90
        5
102
RTVSPost2010Prop44ColorRGB
 90
      255
102
RTVSPost2010PropOp44
 70
     1
102
RTVSPost2010Prop45
280
     0
102
RTVSPost2010PropOp45
 70
     1
102
RTVSPost2010Prop46
 90
       50
102
RTVSPost2010PropOp46
 70
     1
102
RTVSPost2010Prop47
 90
       50
102
RTVSPost2010PropOp47
 70
     1
102
RTVSPost2010Prop48
 90
       50
102
RTVSPost2010PropOp48
 70
     1
102
RTVSPost2010Prop49
280
     0
102
RTVSPost2010PropOp49
 70
     1
102
RTVSPost2010Prop50
 90
       50
102
RTVSPost2010PropOp50
 70
     1
102
RTVSPost2010Prop51ColorIndex
 90
      256
102
RTVSPost2010Prop51ColorRGB
 90
-16777216
102
RTVSPost2010PropOp51
 70
     0
102
RTVSPost2010Prop52
140
1.0
102
RTVSPost2010PropOp52
 70
     0
102
RTVSPost2010Prop53
 90
        2
102
RTVSPost2010PropOp53
 70
     1
102
RTVSPost2010Prop54
  1
strokes_ogs.tif
102
RTVSPost2010PropOp54
 70
     1
102
RTVSPost2010Prop55
280
     0
102
RTVSPost2010PropOp55
 70
     1
102
RTVSPost2010Prop56
140
1.0
102
RTVSPost2010PropOp56
 70
     1
102
RTVSPost2010Prop57
140
1.0
102
RTVSPost2010PropOp57
 70
     1
102
RTVSPropertyOp0
 70
     1
102
RTVSPropertyOp1
 70
     1
102
RTVSPropertyOp2
 70
     1
102
RTVSPropertyOp3
 70
     1
102
RTVSPropertyOp4
 70
     1
102
RTVSPropertyOp5
 70
     1
102
RTVSPropertyOp6
 70
     1
102
RTVSPropertyOp7
 70
     1
102
RTVSPropertyOp8
 70
     1
102
RTVSPropertyOp9
 70
     1
102
RTVSPropertyOp10
 70
     1
102
RTVSPropertyOp11
 70
     1
102
RTVSPropertyOp12
 70
     1
102
RTVSPropertyOp13
 70
     1
102
RTVSPropertyOp14
 70
     1
102
RTVSPropertyOp15
 70
     1
102
RTVSPropertyOp16
 70
     1
102
RTVSPropertyOp17
 70
     1
102
RTVSPropertyOp18
 70
     1
102
RTVSPropertyOp19
 70
     1
102
RTVSPropertyOp20
 70
     1
102
RTVSPropertyOp21
 70
     1
102
RTVSPropertyOp22
 70
     1
102
RTVSPropertyOp23
 70
     1
102
RTVSPropertyOp24
 70
     1
102
RTVSPropertyOp25
 70
     1
102
RTVSPropertyOp26
 70
     1
102
RTVSPropertyOp27
 70
     1
102
RTVSPropertyOp28
 70
     1
102
RTVSPropertyOp29
 70
     1
102
RTVSPropertyOp30
 70
     1
102
RTVSPropertyOp31
 70
     1
102
RTVSPropertyOp32
 70
     1
102
RTVSPropertyOp33
 70
     1
102
RTVSPropertyOp34
 70
     1
102
RTVSPropertyOp35
 70
     1
102
RTVSPropertyOp36
 70
     1
102
RTVSPropertyOp37
 70
     1
102
RTVSPropertyOp38
 70
     1
102
RTVSPropertyOp39
 70
     1
102
RTVSPropertyOp40
 70
     1
102
RTVSPropertyOp41
 70
     1
102
RTVSPropertyOp42
 70
     1
102
RTVSPropertyOp43
 70
     1
102
RTVSPropertyOp44
 70
     1
102
RTVSPropertyOp45
 70
     1
102
RTVSPropertyOp46
 70
     1
102
RTVSPropertyOp47
 70
     1
102
RTVSPropertyOp48
 70
     1
102
RTVSPropertyOp49
 70
     1
102
RTVSPropertyOp50
 70
     1
102
RTVSPropertyOp51
 70
     0
102
RTVSPropertyOp52
 70
     0
102
RTVSPropertyOp53
 70
     1
102
RTVSPropertyOp54
 70
     1
102
RTVSPropertyOp55
 70
     1
102
RTVSPropertyOp56
 70
     1
102
RTVSPropertyOp57
 70
     1
102
RTVSPropertyOp58
 70
     1
102
RTVSPropertyOp59
 70
     1
102
RTVSPropertyOp60
 70
     1
102
RTVSPropertyOp61
 70
     1
102
RTVSPropertyOp62
 70
     1
  0
XRECORD
  5
198CE059C9C9F0C
102
{ACAD_REACTORS
330
198CE059C9C9F0B
102
}
330
198CE059C9C9F0B
100
AcDbXrecord
280
     1
102
RTVSPost2010Prop28
280
     0
102
RTVSPost2010PropOp28
 70
     1
102
RTVSPost2010Prop29
280
     1
102
RTVSPost2010PropOp29
 70
     1
102
RTVSPost2010Prop30
280
     1
102
RTVSPost2010PropOp30
 70
     1
102
RTVSPost2010Prop31
280
     0
102
RTVSPost2010PropOp31
 70
     1
102
RTVSPost2010Prop32
280
     0
102
RTVSPost2010PropOp32
 70
     1
102
RTVSPost2010Prop33
280
     0
102
RTVSPost2010PropOp33
 70
     1
102
RTVSPost2010Prop34
280
     0
102
RTVSPost2010PropOp34
 70
     1
102
RTVSPost2010Prop35
280
     0
102
RTVSPost2010PropOp35
 70
     1
102
RTVSPost2010Prop36
280
     0
102
RTVSPost2010PropOp36
 70
     1
102
RTVSPost2010Prop37
 90
       50
102
RTVSPost2010PropOp37
 70
     1
102
RTVSPost2010Prop38
140
0.0
102
RTVSPost2010PropOp38
 70
     1
102
RTVSPost2010Prop39
140
1.0
102
RTVSPost2010PropOp39
 70
     1
102
RTVSPost2010Prop40
 90
        0
102
RTVSPost2010PropOp40
 70
     1
102
RTVSPost2010Prop41ColorIndex
 90
       18
102
RTVSPost2010Prop41ColorRGB
 90
        0
102
RTVSPost2010PropOp41
 70
     1
102
RTVSPost2010Prop42
 90
       50
102
RTVSPost2010PropOp42
 70
     1
102
RTVSPost2010Prop43
 90
        3
102
RTVSPost2010PropOp43
 70
     1
102
RTVSPost2010Prop44ColorIndex
 90
        5
102
RTVSPost2010Prop44ColorRGB
 90
      255
102
RTVSPost2010PropOp44
 70
     1
102
RTVSPost2010Prop45
280
     0
102
RTVSPost2010PropOp45
 70
     1
102
RTVSPost2010Prop46
 90
       50
102
RTVSPost2010PropOp46
 70
     1
102
RTVSPost2010Prop47
 90
       50
102
RTVSPost2010PropOp47
 70
     1
102
RTVSPost2010Prop48
 90
       50
102
RTVSPost2010PropOp48
 70
     1
102
RTVSPost2010Prop49
280
     0
102
RTVSPost2010PropOp49
 70
     1
102
RTVSPost2010Prop50
 90
       50
102
RTVSPost2010PropOp50
 70
     1
102
RTVSPost2010Prop51ColorIndex
 90
      256
102
RTVSPost2010Prop51ColorRGB
 90
-16777216
102
RTVSPost2010PropOp51
 70
     0
102
RTVSPost2010Prop52
140
1.0
102
RTVSPost2010PropOp52
 70
     0
102
RTVSPost2010Prop53
 90
        2
102
RTVSPost2010PropOp53
 70
     1
102
RTVSPost2010Prop54
  1
strokes_ogs.tif
102
RTVSPost2010PropOp54
 70
     1
102
RTVSPost2010Prop55
280
     0
102
RTVSPost2010PropOp55
 70
     1
102
RTVSPost2010Prop56
140
1.0
102
RTVSPost2010PropOp56
 70
     1
102
RTVSPost2010Prop57
140
1.0
102
RTVSPost2010PropOp57
 70
     1
102
RTVSPropertyOp0
 70
     1
102
RTVSPropertyOp1
 70
     1
102
RTVSPropertyOp2
 70
     1
102
RTVSPropertyOp3
 70
     1
102
RTVSPropertyOp4
 70
     1
102
RTVSPropertyOp5
 70
     1
102
RTVSPropertyOp6
 70
     1
102
RTVSPropertyOp7
 70
     1
102
RTVSPropertyOp8
 70
     1
102
RTVSPropertyOp9
 70
     1
102
RTVSPropertyOp10
 70
     1
102
RTVSPropertyOp11
 70
     1
102
RTVSPropertyOp12
 70
     1
102
RTVSPropertyOp13
 70
     1
102
RTVSPropertyOp14
 70
     1
102
RTVSPropertyOp15
 70
     1
102
RTVSPropertyOp16
 70
     1
102
RTVSPropertyOp17
 70
     1
102
RTVSPropertyOp18
 70
     1
102
RTVSPropertyOp19
 70
     1
102
RTVSPropertyOp20
 70
     1
102
RTVSPropertyOp21
 70
     1
102
RTVSPropertyOp22
 70
     1
102
RTVSPropertyOp23
 70
     1
102
RTVSPropertyOp24
 70
     1
102
RTVSPropertyOp25
 70
     1
102
RTVSPropertyOp26
 70
     1
102
RTVSPropertyOp27
 70
     1
102
RTVSPropertyOp28
 70
     1
102
RTVSPropertyOp29
 70
     1
102
RTVSPropertyOp30
 70
     1
102
RTVSPropertyOp31
 70
     1
102
RTVSPropertyOp32
 70
     1
102
RTVSPropertyOp33
 70
     1
102
RTVSPropertyOp34
 70
     1
102
RTVSPropertyOp35
 70
     1
102
RTVSPropertyOp36
 70
     1
102
RTVSPropertyOp37
 70
     1
102
RTVSPropertyOp38
 70
     1
102
RTVSPropertyOp39
 70
     1
102
RTVSPropertyOp40
 70
     1
102
RTVSPropertyOp41
 70
     1
102
RTVSPropertyOp42
 70
     1
102
RTVSPropertyOp43
 70
     1
102
RTVSPropertyOp44
 70
     1
102
RTVSPropertyOp45
 70
     1
102
RTVSPropertyOp46
 70
     1
102
RTVSPropertyOp47
 70
     1
102
RTVSPropertyOp48
 70
     1
102
RTVSPropertyOp49
 70
     1
102
RTVSPropertyOp50
 70
     1
102
RTVSPropertyOp51
 70
     0
102
RTVSPropertyOp52
 70
     0
102
RTVSPropertyOp53
 70
     1
102
RTVSPropertyOp54
 70
     1
102
RTVSPropertyOp55
 70
     1
102
RTVSPropertyOp56
 70
     1
102
RTVSPropertyOp57
 70
     1
102
RTVSPropertyOp58
 70
     1
102
RTVSPropertyOp59
 70
     1
102
RTVSPropertyOp60
 70
     1
102
RTVSPropertyOp61
 70
     1
102
RTVSPropertyOp62
 70
     1
  0
XRECORD
  5
198CE059C9C9F0A
102
{ACAD_REACTORS
330
198CE059C9C9F09
102
}
330
198CE059C9C9F09
100
AcDbXrecord
280
     1
102
RTVSPost2010Prop28
280
     0
102
RTVSPost2010PropOp28
 70
     1
102
RTVSPost2010Prop29
280
     1
102
RTVSPost2010PropOp29
 70
     1
102
RTVSPost2010Prop30
280
     1
102
RTVSPost2010PropOp30
 70
     1
102
RTVSPost2010Prop31
280
     0
102
RTVSPost2010PropOp31
 70
     1
102
RTVSPost2010Prop32
280
     0
102
RTVSPost2010PropOp32
 70
     1
102
RTVSPost2010Prop33
280
     0
102
RTVSPost2010PropOp33
 70
     1
102
RTVSPost2010Prop34
280
     0
102
RTVSPost2010PropOp34
 70
     1
102
RTVSPost2010Prop35
280
     0
102
RTVSPost2010PropOp35
 70
     1
102
RTVSPost2010Prop36
280
     0
102
RTVSPost2010PropOp36
 70
     1
102
RTVSPost2010Prop37
 90
       50
102
RTVSPost2010PropOp37
 70
     1
102
RTVSPost2010Prop38
140
0.0
102
RTVSPost2010PropOp38
 70
     1
102
RTVSPost2010Prop39
140
1.0
102
RTVSPost2010PropOp39
 70
     1
102
RTVSPost2010Prop40
 90
        0
102
RTVSPost2010PropOp40
 70
     1
102
RTVSPost2010Prop41ColorIndex
 90
       18
102
RTVSPost2010Prop41ColorRGB
 90
        0
102
RTVSPost2010PropOp41
 70
     1
102
RTVSPost2010Prop42
 90
       50
102
RTVSPost2010PropOp42
 70
     1
102
RTVSPost2010Prop43
 90
        3
102
RTVSPost2010PropOp43
 70
     1
102
RTVSPost2010Prop44ColorIndex
 90
        5
102
RTVSPost2010Prop44ColorRGB
 90
      255
102
RTVSPost2010PropOp44
 70
     1
102
RTVSPost2010Prop45
280
     0
102
RTVSPost2010PropOp45
 70
     1
102
RTVSPost2010Prop46
 90
       50
102
RTVSPost2010PropOp46
 70
     1
102
RTVSPost2010Prop47
 90
       50
102
RTVSPost2010PropOp47
 70
     1
102
RTVSPost2010Prop48
 90
       50
102
RTVSPost2010PropOp48
 70
     1
102
RTVSPost2010Prop49
280
     0
102
RTVSPost2010PropOp49
 70
     1
102
RTVSPost2010Prop50
 90
       50
102
RTVSPost2010PropOp50
 70
     1
102
RTVSPost2010Prop51ColorIndex
 90
      256
102
RTVSPost2010Prop51ColorRGB
 90
-16777216
102
RTVSPost2010PropOp51
 70
     0
102
RTVSPost2010Prop52
140
1.0
102
RTVSPost2010PropOp52
 70
     0
102
RTVSPost2010Prop53
 90
        2
102
RTVSPost2010PropOp53
 70
     1
102
RTVSPost2010Prop54
  1
strokes_ogs.tif
102
RTVSPost2010PropOp54
 70
     1
102
RTVSPost2010Prop55
280
     0
102
RTVSPost2010PropOp55
 70
     1
102
RTVSPost2010Prop56
140
1.0
102
RTVSPost2010PropOp56
 70
     1
102
RTVSPost2010Prop57
140
1.0
102
RTVSPost2010PropOp57
 70
     1
102
RTVSPropertyOp0
 70
     1
102
RTVSPropertyOp1
 70
     1
102
RTVSPropertyOp2
 70
     1
102
RTVSPropertyOp3
 70
     1
102
RTVSPropertyOp4
 70
     1
102
RTVSPropertyOp5
 70
     1
102
RTVSPropertyOp6
 70
     1
102
RTVSPropertyOp7
 70
     1
102
RTVSPropertyOp8
 70
     1
102
RTVSPropertyOp9
 70
     1
102
RTVSPropertyOp10
 70
     1
102
RTVSPropertyOp11
 70
     1
102
RTVSPropertyOp12
 70
     1
102
RTVSPropertyOp13
 70
     1
102
RTVSPropertyOp14
 70
     1
102
RTVSPropertyOp15
 70
     1
102
RTVSPropertyOp16
 70
     1
102
RTVSPropertyOp17
 70
     1
102
RTVSPropertyOp18
 70
     1
102
RTVSPropertyOp19
 70
     1
102
RTVSPropertyOp20
 70
     1
102
RTVSPropertyOp21
 70
     1
102
RTVSPropertyOp22
 70
     1
102
RTVSPropertyOp23
 70
     1
102
RTVSPropertyOp24
 70
     1
102
RTVSPropertyOp25
 70
     1
102
RTVSPropertyOp26
 70
     1
102
RTVSPropertyOp27
 70
     1
102
RTVSPropertyOp28
 70
     1
102
RTVSPropertyOp29
 70
     1
102
RTVSPropertyOp30
 70
     1
102
RTVSPropertyOp31
 70
     1
102
RTVSPropertyOp32
 70
     1
102
RTVSPropertyOp33
 70
     1
102
RTVSPropertyOp34
 70
     1
102
RTVSPropertyOp35
 70
     1
102
RTVSPropertyOp36
 70
     1
102
RTVSPropertyOp37
 70
     1
102
RTVSPropertyOp38
 70
     1
102
RTVSPropertyOp39
 70
     1
102
RTVSPropertyOp40
 70
     1
102
RTVSPropertyOp41
 70
     1
102
RTVSPropertyOp42
 70
     1
102
RTVSPropertyOp43
 70
     1
102
RTVSPropertyOp44
 70
     1
102
RTVSPropertyOp45
 70
     1
102
RTVSPropertyOp46
 70
     1
102
RTVSPropertyOp47
 70
     1
102
RTVSPropertyOp48
 70
     1
102
RTVSPropertyOp49
 70
     1
102
RTVSPropertyOp50
 70
     1
102
RTVSPropertyOp51
 70
     0
102
RTVSPropertyOp52
 70
     0
102
RTVSPropertyOp53
 70
     1
102
RTVSPropertyOp54
 70
     1
102
RTVSPropertyOp55
 70
     1
102
RTVSPropertyOp56
 70
     1
102
RTVSPropertyOp57
 70
     1
102
RTVSPropertyOp58
 70
     1
102
RTVSPropertyOp59
 70
     1
102
RTVSPropertyOp60
 70
     1
102
RTVSPropertyOp61
 70
     1
102
RTVSPropertyOp62
 70
     1
  0
XRECORD
  5
198CE059C9C9F04
102
{ACAD_REACTORS
330
198CE059C9C9F03
102
}
330
198CE059C9C9F03
100
AcDbXrecord
280
     1
102
RTVSPost2010Prop28
280
     0
102
RTVSPost2010PropOp28
 70
     1
102
RTVSPost2010Prop29
280
     1
102
RTVSPost2010PropOp29
 70
     1
102
RTVSPost2010Prop30
280
     1
102
RTVSPost2010PropOp30
 70
     1
102
RTVSPost2010Prop31
280
     0
102
RTVSPost2010PropOp31
 70
     1
102
RTVSPost2010Prop32
280
     0
102
RTVSPost2010PropOp32
 70
     1
102
RTVSPost2010Prop33
280
     0
102
RTVSPost2010PropOp33
 70
     1
102
RTVSPost2010Prop34
280
     0
102
RTVSPost2010PropOp34
 70
     1
102
RTVSPost2010Prop35
280
     0
102
RTVSPost2010PropOp35
 70
     1
102
RTVSPost2010Prop36
280
     0
102
RTVSPost2010PropOp36
 70
     1
102
RTVSPost2010Prop37
 90
       50
102
RTVSPost2010PropOp37
 70
     1
102
RTVSPost2010Prop38
140
0.0
102
RTVSPost2010PropOp38
 70
     1
102
RTVSPost2010Prop39
140
1.0
102
RTVSPost2010PropOp39
 70
     1
102
RTVSPost2010Prop40
 90
        0
102
RTVSPost2010PropOp40
 70
     1
102
RTVSPost2010Prop41ColorIndex
 90
       18
102
RTVSPost2010Prop41ColorRGB
 90
        0
102
RTVSPost2010PropOp41
 70
     1
102
RTVSPost2010Prop42
 90
       50
102
RTVSPost2010PropOp42
 70
     1
102
RTVSPost2010Prop43
 90
        3
102
RTVSPost2010PropOp43
 70
     1
102
RTVSPost2010Prop44ColorIndex
 90
        5
102
RTVSPost2010Prop44ColorRGB
 90
      255
102
RTVSPost2010PropOp44
 70
     1
102
RTVSPost2010Prop45
280
     0
102
RTVSPost2010PropOp45
 70
     1
102
RTVSPost2010Prop46
 90
       50
102
RTVSPost2010PropOp46
 70
     1
102
RTVSPost2010Prop47
 90
       50
102
RTVSPost2010PropOp47
 70
     1
102
RTVSPost2010Prop48
 90
       50
102
RTVSPost2010PropOp48
 70
     1
102
RTVSPost2010Prop49
280
     0
102
RTVSPost2010PropOp49
 70
     1
102
RTVSPost2010Prop50
 90
       50
102
RTVSPost2010PropOp50
 70
     1
102
RTVSPost2010Prop51ColorIndex
 90
      256
102
RTVSPost2010Prop51ColorRGB
 90
-16777216
102
RTVSPost2010PropOp51
 70
     0
102
RTVSPost2010Prop52
140
1.0
102
RTVSPost2010PropOp52
 70
     0
102
RTVSPost2010Prop53
 90
        2
102
RTVSPost2010PropOp53
 70
     1
102
RTVSPost2010Prop54
  1
strokes_ogs.tif
102
RTVSPost2010PropOp54
 70
     1
102
RTVSPost2010Prop55
280
     0
102
RTVSPost2010PropOp55
 70
     1
102
RTVSPost2010Prop56
140
1.0
102
RTVSPost2010PropOp56
 70
     1
102
RTVSPost2010Prop57
140
1.0
102
RTVSPost2010PropOp57
 70
     1
102
RTVSPropertyOp0
 70
     1
102
RTVSPropertyOp1
 70
     1
102
RTVSPropertyOp2
 70
     1
102
RTVSPropertyOp3
 70
     1
102
RTVSPropertyOp4
 70
     1
102
RTVSPropertyOp5
 70
     1
102
RTVSPropertyOp6
 70
     1
102
RTVSPropertyOp7
 70
     1
102
RTVSPropertyOp8
 70
     1
102
RTVSPropertyOp9
 70
     1
102
RTVSPropertyOp10
 70
     1
102
RTVSPropertyOp11
 70
     1
102
RTVSPropertyOp12
 70
     1
102
RTVSPropertyOp13
 70
     1
102
RTVSPropertyOp14
 70
     1
102
RTVSPropertyOp15
 70
     1
102
RTVSPropertyOp16
 70
     1
102
RTVSPropertyOp17
 70
     1
102
RTVSPropertyOp18
 70
     1
102
RTVSPropertyOp19
 70
     1
102
RTVSPropertyOp20
 70
     1
102
RTVSPropertyOp21
 70
     1
102
RTVSPropertyOp22
 70
     1
102
RTVSPropertyOp23
 70
     1
102
RTVSPropertyOp24
 70
     1
102
RTVSPropertyOp25
 70
     1
102
RTVSPropertyOp26
 70
     1
102
RTVSPropertyOp27
 70
     1
102
RTVSPropertyOp28
 70
     1
102
RTVSPropertyOp29
 70
     1
102
RTVSPropertyOp30
 70
     1
102
RTVSPropertyOp31
 70
     1
102
RTVSPropertyOp32
 70
     1
102
RTVSPropertyOp33
 70
     1
102
RTVSPropertyOp34
 70
     1
102
RTVSPropertyOp35
 70
     1
102
RTVSPropertyOp36
 70
     1
102
RTVSPropertyOp37
 70
     1
102
RTVSPropertyOp38
 70
     1
102
RTVSPropertyOp39
 70
     1
102
RTVSPropertyOp40
 70
     1
102
RTVSPropertyOp41
 70
     1
102
RTVSPropertyOp42
 70
     1
102
RTVSPropertyOp43
 70
     1
102
RTVSPropertyOp44
 70
     1
102
RTVSPropertyOp45
 70
     1
102
RTVSPropertyOp46
 70
     1
102
RTVSPropertyOp47
 70
     1
102
RTVSPropertyOp48
 70
     1
102
RTVSPropertyOp49
 70
     1
102
RTVSPropertyOp50
 70
     1
102
RTVSPropertyOp51
 70
     0
102
RTVSPropertyOp52
 70
     0
102
RTVSPropertyOp53
 70
     1
102
RTVSPropertyOp54
 70
     1
102
RTVSPropertyOp55
 70
     1
102
RTVSPropertyOp56
 70
     1
102
RTVSPropertyOp57
 70
     1
102
RTVSPropertyOp58
 70
     1
102
RTVSPropertyOp59
 70
     1
102
RTVSPropertyOp60
 70
     1
102
RTVSPropertyOp61
 70
     1
102
RTVSPropertyOp62
 70
     1
  0
XRECORD
  5
198CE059C9C9F06
102
{ACAD_REACTORS
330
198CE059C9C9F05
102
}
330
198CE059C9C9F05
100
AcDbXrecord
280
     1
102
RTVSPost2010Prop28
280
     0
102
RTVSPost2010PropOp28
 70
     1
102
RTVSPost2010Prop29
280
     1
102
RTVSPost2010PropOp29
 70
     1
102
RTVSPost2010Prop30
280
     1
102
RTVSPost2010PropOp30
 70
     1
102
RTVSPost2010Prop31
280
     0
102
RTVSPost2010PropOp31
 70
     1
102
RTVSPost2010Prop32
280
     0
102
RTVSPost2010PropOp32
 70
     1
102
RTVSPost2010Prop33
280
     0
102
RTVSPost2010PropOp33
 70
     1
102
RTVSPost2010Prop34
280
     0
102
RTVSPost2010PropOp34
 70
     1
102
RTVSPost2010Prop35
280
     0
102
RTVSPost2010PropOp35
 70
     1
102
RTVSPost2010Prop36
280
     0
102
RTVSPost2010PropOp36
 70
     1
102
RTVSPost2010Prop37
 90
       50
102
RTVSPost2010PropOp37
 70
     1
102
RTVSPost2010Prop38
140
0.0
102
RTVSPost2010PropOp38
 70
     1
102
RTVSPost2010Prop39
140
1.0
102
RTVSPost2010PropOp39
 70
     1
102
RTVSPost2010Prop40
 90
        0
102
RTVSPost2010PropOp40
 70
     1
102
RTVSPost2010Prop41ColorIndex
 90
       18
102
RTVSPost2010Prop41ColorRGB
 90
        0
102
RTVSPost2010PropOp41
 70
     1
102
RTVSPost2010Prop42
 90
       50
102
RTVSPost2010PropOp42
 70
     1
102
RTVSPost2010Prop43
 90
        3
102
RTVSPost2010PropOp43
 70
     1
102
RTVSPost2010Prop44ColorIndex
 90
        5
102
RTVSPost2010Prop44ColorRGB
 90
      255
102
RTVSPost2010PropOp44
 70
     1
102
RTVSPost2010Prop45
280
     0
102
RTVSPost2010PropOp45
 70
     1
102
RTVSPost2010Prop46
 90
       50
102
RTVSPost2010PropOp46
 70
     1
102
RTVSPost2010Prop47
 90
       50
102
RTVSPost2010PropOp47
 70
     1
102
RTVSPost2010Prop48
 90
       50
102
RTVSPost2010PropOp48
 70
     1
102
RTVSPost2010Prop49
280
     0
102
RTVSPost2010PropOp49
 70
     1
102
RTVSPost2010Prop50
 90
       50
102
RTVSPost2010PropOp50
 70
     1
102
RTVSPost2010Prop51ColorIndex
 90
      256
102
RTVSPost2010Prop51ColorRGB
 90
-16777216
102
RTVSPost2010PropOp51
 70
     0
102
RTVSPost2010Prop52
140
1.0
102
RTVSPost2010PropOp52
 70
     0
102
RTVSPost2010Prop53
 90
        2
102
RTVSPost2010PropOp53
 70
     1
102
RTVSPost2010Prop54
  1
strokes_ogs.tif
102
RTVSPost2010PropOp54
 70
     1
102
RTVSPost2010Prop55
280
     0
102
RTVSPost2010PropOp55
 70
     1
102
RTVSPost2010Prop56
140
1.0
102
RTVSPost2010PropOp56
 70
     1
102
RTVSPost2010Prop57
140
1.0
102
RTVSPost2010PropOp57
 70
     1
102
RTVSPropertyOp0
 70
     1
102
RTVSPropertyOp1
 70
     1
102
RTVSPropertyOp2
 70
     1
102
RTVSPropertyOp3
 70
     1
102
RTVSPropertyOp4
 70
     1
102
RTVSPropertyOp5
 70
     1
102
RTVSPropertyOp6
 70
     1
102
RTVSPropertyOp7
 70
     1
102
RTVSPropertyOp8
 70
     1
102
RTVSPropertyOp9
 70
     1
102
RTVSPropertyOp10
 70
     1
102
RTVSPropertyOp11
 70
     1
102
RTVSPropertyOp12
 70
     1
102
RTVSPropertyOp13
 70
     1
102
RTVSPropertyOp14
 70
     1
102
RTVSPropertyOp15
 70
     1
102
RTVSPropertyOp16
 70
     1
102
RTVSPropertyOp17
 70
     1
102
RTVSPropertyOp18
 70
     1
102
RTVSPropertyOp19
 70
     1
102
RTVSPropertyOp20
 70
     1
102
RTVSPropertyOp21
 70
     1
102
RTVSPropertyOp22
 70
     1
102
RTVSPropertyOp23
 70
     1
102
RTVSPropertyOp24
 70
     1
102
RTVSPropertyOp25
 70
     1
102
RTVSPropertyOp26
 70
     1
102
RTVSPropertyOp27
 70
     1
102
RTVSPropertyOp28
 70
     1
102
RTVSPropertyOp29
 70
     1
102
RTVSPropertyOp30
 70
     1
102
RTVSPropertyOp31
 70
     1
102
RTVSPropertyOp32
 70
     1
102
RTVSPropertyOp33
 70
     1
102
RTVSPropertyOp34
 70
     1
102
RTVSPropertyOp35
 70
     1
102
RTVSPropertyOp36
 70
     1
102
RTVSPropertyOp37
 70
     1
102
RTVSPropertyOp38
 70
     1
102
RTVSPropertyOp39
 70
     1
102
RTVSPropertyOp40
 70
     1
102
RTVSPropertyOp41
 70
     1
102
RTVSPropertyOp42
 70
     1
102
RTVSPropertyOp43
 70
     1
102
RTVSPropertyOp44
 70
     1
102
RTVSPropertyOp45
 70
     1
102
RTVSPropertyOp46
 70
     1
102
RTVSPropertyOp47
 70
     1
102
RTVSPropertyOp48
 70
     1
102
RTVSPropertyOp49
 70
     1
102
RTVSPropertyOp50
 70
     1
102
RTVSPropertyOp51
 70
     0
102
RTVSPropertyOp52
 70
     0
102
RTVSPropertyOp53
 70
     1
102
RTVSPropertyOp54
 70
     1
102
RTVSPropertyOp55
 70
     1
102
RTVSPropertyOp56
 70
     1
102
RTVSPropertyOp57
 70
     1
102
RTVSPropertyOp58
 70
     1
102
RTVSPropertyOp59
 70
     1
102
RTVSPropertyOp60
 70
     1
102
RTVSPropertyOp61
 70
     1
102
RTVSPropertyOp62
 70
     1
  0
XRECORD
  5
198CE059C9C9EFC
102
{ACAD_REACTORS
330
198CE059C9C9EFB
102
}
330
198CE059C9C9EFB
100
AcDbXrecord
280
     1
102
RTVSPost2010Prop28
280
     0
102
RTVSPost2010PropOp28
 70
     1
102
RTVSPost2010Prop29
280
     1
102
RTVSPost2010PropOp29
 70
     1
102
RTVSPost2010Prop30
280
     1
102
RTVSPost2010PropOp30
 70
     1
102
RTVSPost2010Prop31
280
     0
102
RTVSPost2010PropOp31
 70
     1
102
RTVSPost2010Prop32
280
     0
102
RTVSPost2010PropOp32
 70
     1
102
RTVSPost2010Prop33
280
     0
102
RTVSPost2010PropOp33
 70
     1
102
RTVSPost2010Prop34
280
     0
102
RTVSPost2010PropOp34
 70
     1
102
RTVSPost2010Prop35
280
     0
102
RTVSPost2010PropOp35
 70
     1
102
RTVSPost2010Prop36
280
     0
102
RTVSPost2010PropOp36
 70
     1
102
RTVSPost2010Prop37
 90
       50
102
RTVSPost2010PropOp37
 70
     1
102
RTVSPost2010Prop38
140
0.0
102
RTVSPost2010PropOp38
 70
     1
102
RTVSPost2010Prop39
140
1.0
102
RTVSPost2010PropOp39
 70
     1
102
RTVSPost2010Prop40
 90
        0
102
RTVSPost2010PropOp40
 70
     1
102
RTVSPost2010Prop41ColorIndex
 90
       18
102
RTVSPost2010Prop41ColorRGB
 90
        0
102
RTVSPost2010PropOp41
 70
     1
102
RTVSPost2010Prop42
 90
       50
102
RTVSPost2010PropOp42
 70
     1
102
RTVSPost2010Prop43
 90
        3
102
RTVSPost2010PropOp43
 70
     1
102
RTVSPost2010Prop44ColorIndex
 90
        5
102
RTVSPost2010Prop44ColorRGB
 90
      255
102
RTVSPost2010PropOp44
 70
     1
102
RTVSPost2010Prop45
280
     0
102
RTVSPost2010PropOp45
 70
     1
102
RTVSPost2010Prop46
 90
       50
102
RTVSPost2010PropOp46
 70
     1
102
RTVSPost2010Prop47
 90
       50
102
RTVSPost2010PropOp47
 70
     1
102
RTVSPost2010Prop48
 90
       50
102
RTVSPost2010PropOp48
 70
     1
102
RTVSPost2010Prop49
280
     0
102
RTVSPost2010PropOp49
 70
     1
102
RTVSPost2010Prop50
 90
       50
102
RTVSPost2010PropOp50
 70
     1
102
RTVSPost2010Prop51ColorIndex
 90
      256
102
RTVSPost2010Prop51ColorRGB
 90
-16777216
102
RTVSPost2010PropOp51
 70
     0
102
RTVSPost2010Prop52
140
1.0
102
RTVSPost2010PropOp52
 70
     0
102
RTVSPost2010Prop53
 90
        2
102
RTVSPost2010PropOp53
 70
     1
102
RTVSPost2010Prop54
  1
strokes_ogs.tif
102
RTVSPost2010PropOp54
 70
     1
102
RTVSPost2010Prop55
280
     0
102
RTVSPost2010PropOp55
 70
     1
102
RTVSPost2010Prop56
140
1.0
102
RTVSPost2010PropOp56
 70
     1
102
RTVSPost2010Prop57
140
1.0
102
RTVSPost2010PropOp57
 70
     1
102
RTVSPropertyOp0
 70
     1
102
RTVSPropertyOp1
 70
     1
102
RTVSPropertyOp2
 70
     1
102
RTVSPropertyOp3
 70
     1
102
RTVSPropertyOp4
 70
     1
102
RTVSPropertyOp5
 70
     1
102
RTVSPropertyOp6
 70
     1
102
RTVSPropertyOp7
 70
     1
102
RTVSPropertyOp8
 70
     1
102
RTVSPropertyOp9
 70
     1
102
RTVSPropertyOp10
 70
     1
102
RTVSPropertyOp11
 70
     1
102
RTVSPropertyOp12
 70
     1
102
RTVSPropertyOp13
 70
     1
102
RTVSPropertyOp14
 70
     1
102
RTVSPropertyOp15
 70
     1
102
RTVSPropertyOp16
 70
     1
102
RTVSPropertyOp17
 70
     1
102
RTVSPropertyOp18
 70
     1
102
RTVSPropertyOp19
 70
     1
102
RTVSPropertyOp20
 70
     1
102
RTVSPropertyOp21
 70
     1
102
RTVSPropertyOp22
 70
     1
102
RTVSPropertyOp23
 70
     1
102
RTVSPropertyOp24
 70
     1
102
RTVSPropertyOp25
 70
     1
102
RTVSPropertyOp26
 70
     1
102
RTVSPropertyOp27
 70
     1
102
RTVSPropertyOp28
 70
     1
102
RTVSPropertyOp29
 70
     1
102
RTVSPropertyOp30
 70
     1
102
RTVSPropertyOp31
 70
     1
102
RTVSPropertyOp32
 70
     1
102
RTVSPropertyOp33
 70
     1
102
RTVSPropertyOp34
 70
     1
102
RTVSPropertyOp35
 70
     1
102
RTVSPropertyOp36
 70
     1
102
RTVSPropertyOp37
 70
     1
102
RTVSPropertyOp38
 70
     1
102
RTVSPropertyOp39
 70
     1
102
RTVSPropertyOp40
 70
     1
102
RTVSPropertyOp41
 70
     1
102
RTVSPropertyOp42
 70
     1
102
RTVSPropertyOp43
 70
     1
102
RTVSPropertyOp44
 70
     1
102
RTVSPropertyOp45
 70
     1
102
RTVSPropertyOp46
 70
     1
102
RTVSPropertyOp47
 70
     1
102
RTVSPropertyOp48
 70
     1
102
RTVSPropertyOp49
 70
     1
102
RTVSPropertyOp50
 70
     1
102
RTVSPropertyOp51
 70
     0
102
RTVSPropertyOp52
 70
     0
102
RTVSPropertyOp53
 70
     1
102
RTVSPropertyOp54
 70
     1
102
RTVSPropertyOp55
 70
     1
102
RTVSPropertyOp56
 70
     1
102
RTVSPropertyOp57
 70
     1
102
RTVSPropertyOp58
 70
     1
102
RTVSPropertyOp59
 70
     1
102
RTVSPropertyOp60
 70
     1
102
RTVSPropertyOp61
 70
     1
102
RTVSPropertyOp62
 70
     1
  0
XRECORD
  5
198CE059C9C9EF0
102
{ACAD_REACTORS
330
198CE059C9C9EEF
102
}
330
198CE059C9C9EEF
100
AcDbXrecord
280
     1
102
RTVSPost2010Prop28
280
     0
102
RTVSPost2010PropOp28
 70
     1
102
RTVSPost2010Prop29
280
     1
102
RTVSPost2010PropOp29
 70
     1
102
RTVSPost2010Prop30
280
     1
102
RTVSPost2010PropOp30
 70
     1
102
RTVSPost2010Prop31
280
     0
102
RTVSPost2010PropOp31
 70
     1
102
RTVSPost2010Prop32
280
     0
102
RTVSPost2010PropOp32
 70
     1
102
RTVSPost2010Prop33
280
     0
102
RTVSPost2010PropOp33
 70
     1
102
RTVSPost2010Prop34
280
     0
102
RTVSPost2010PropOp34
 70
     1
102
RTVSPost2010Prop35
280
     0
102
RTVSPost2010PropOp35
 70
     1
102
RTVSPost2010Prop36
280
     0
102
RTVSPost2010PropOp36
 70
     1
102
RTVSPost2010Prop37
 90
       50
102
RTVSPost2010PropOp37
 70
     1
102
RTVSPost2010Prop38
140
0.0
102
RTVSPost2010PropOp38
 70
     1
102
RTVSPost2010Prop39
140
1.0
102
RTVSPost2010PropOp39
 70
     1
102
RTVSPost2010Prop40
 90
        0
102
RTVSPost2010PropOp40
 70
     1
102
RTVSPost2010Prop41ColorIndex
 90
       18
102
RTVSPost2010Prop41ColorRGB
 90
        0
102
RTVSPost2010PropOp41
 70
     1
102
RTVSPost2010Prop42
 90
       50
102
RTVSPost2010PropOp42
 70
     1
102
RTVSPost2010Prop43
 90
        3
102
RTVSPost2010PropOp43
 70
     1
102
RTVSPost2010Prop44ColorIndex
 90
        5
102
RTVSPost2010Prop44ColorRGB
 90
      255
102
RTVSPost2010PropOp44
 70
     1
102
RTVSPost2010Prop45
280
     0
102
RTVSPost2010PropOp45
 70
     1
102
RTVSPost2010Prop46
 90
       50
102
RTVSPost2010PropOp46
 70
     1
102
RTVSPost2010Prop47
 90
       50
102
RTVSPost2010PropOp47
 70
     1
102
RTVSPost2010Prop48
 90
       50
102
RTVSPost2010PropOp48
 70
     1
102
RTVSPost2010Prop49
280
     0
102
RTVSPost2010PropOp49
 70
     1
102
RTVSPost2010Prop50
 90
       50
102
RTVSPost2010PropOp50
 70
     1
102
RTVSPost2010Prop51ColorIndex
 90
      256
102
RTVSPost2010Prop51ColorRGB
 90
-16777216
102
RTVSPost2010PropOp51
 70
     0
102
RTVSPost2010Prop52
140
1.0
102
RTVSPost2010PropOp52
 70
     0
102
RTVSPost2010Prop53
 90
        2
102
RTVSPost2010PropOp53
 70
     1
102
RTVSPost2010Prop54
  1
strokes_ogs.tif
102
RTVSPost2010PropOp54
 70
     1
102
RTVSPost2010Prop55
280
     0
102
RTVSPost2010PropOp55
 70
     1
102
RTVSPost2010Prop56
140
1.0
102
RTVSPost2010PropOp56
 70
     1
102
RTVSPost2010Prop57
140
1.0
102
RTVSPost2010PropOp57
 70
     1
102
RTVSPropertyOp0
 70
     1
102
RTVSPropertyOp1
 70
     1
102
RTVSPropertyOp2
 70
     1
102
RTVSPropertyOp3
 70
     1
102
RTVSPropertyOp4
 70
     1
102
RTVSPropertyOp5
 70
     1
102
RTVSPropertyOp6
 70
     1
102
RTVSPropertyOp7
 70
     1
102
RTVSPropertyOp8
 70
     1
102
RTVSPropertyOp9
 70
     1
102
RTVSPropertyOp10
 70
     1
102
RTVSPropertyOp11
 70
     1
102
RTVSPropertyOp12
 70
     1
102
RTVSPropertyOp13
 70
     1
102
RTVSPropertyOp14
 70
     1
102
RTVSPropertyOp15
 70
     1
102
RTVSPropertyOp16
 70
     1
102
RTVSPropertyOp17
 70
     1
102
RTVSPropertyOp18
 70
     1
102
RTVSPropertyOp19
 70
     1
102
RTVSPropertyOp20
 70
     1
102
RTVSPropertyOp21
 70
     1
102
RTVSPropertyOp22
 70
     1
102
RTVSPropertyOp23
 70
     1
102
RTVSPropertyOp24
 70
     1
102
RTVSPropertyOp25
 70
     1
102
RTVSPropertyOp26
 70
     1
102
RTVSPropertyOp27
 70
     1
102
RTVSPropertyOp28
 70
     1
102
RTVSPropertyOp29
 70
     1
102
RTVSPropertyOp30
 70
     1
102
RTVSPropertyOp31
 70
     1
102
RTVSPropertyOp32
 70
     1
102
RTVSPropertyOp33
 70
     1
102
RTVSPropertyOp34
 70
     1
102
RTVSPropertyOp35
 70
     1
102
RTVSPropertyOp36
 70
     1
102
RTVSPropertyOp37
 70
     1
102
RTVSPropertyOp38
 70
     1
102
RTVSPropertyOp39
 70
     1
102
RTVSPropertyOp40
 70
     1
102
RTVSPropertyOp41
 70
     1
102
RTVSPropertyOp42
 70
     1
102
RTVSPropertyOp43
 70
     1
102
RTVSPropertyOp44
 70
     1
102
RTVSPropertyOp45
 70
     1
102
RTVSPropertyOp46
 70
     1
102
RTVSPropertyOp47
 70
     1
102
RTVSPropertyOp48
 70
     1
102
RTVSPropertyOp49
 70
     1
102
RTVSPropertyOp50
 70
     1
102
RTVSPropertyOp51
 70
     0
102
RTVSPropertyOp52
 70
     0
102
RTVSPropertyOp53
 70
     1
102
RTVSPropertyOp54
 70
     1
102
RTVSPropertyOp55
 70
     1
102
RTVSPropertyOp56
 70
     1
102
RTVSPropertyOp57
 70
     1
102
RTVSPropertyOp58
 70
     1
102
RTVSPropertyOp59
 70
     1
102
RTVSPropertyOp60
 70
     1
102
RTVSPropertyOp61
 70
     1
102
RTVSPropertyOp62
 70
     1
  0
XRECORD
  5
198CE059C9C9F08
102
{ACAD_REACTORS
330
198CE059C9C9F07
102
}
330
198CE059C9C9F07
100
AcDbXrecord
280
     1
102
RTVSPost2010Prop28
280
     0
102
RTVSPost2010PropOp28
 70
     1
102
RTVSPost2010Prop29
280
     1
102
RTVSPost2010PropOp29
 70
     1
102
RTVSPost2010Prop30
280
     1
102
RTVSPost2010PropOp30
 70
     1
102
RTVSPost2010Prop31
280
     0
102
RTVSPost2010PropOp31
 70
     1
102
RTVSPost2010Prop32
280
     0
102
RTVSPost2010PropOp32
 70
     1
102
RTVSPost2010Prop33
280
     0
102
RTVSPost2010PropOp33
 70
     1
102
RTVSPost2010Prop34
280
     0
102
RTVSPost2010PropOp34
 70
     1
102
RTVSPost2010Prop35
280
     0
102
RTVSPost2010PropOp35
 70
     1
102
RTVSPost2010Prop36
280
     0
102
RTVSPost2010PropOp36
 70
     1
102
RTVSPost2010Prop37
 90
       50
102
RTVSPost2010PropOp37
 70
     1
102
RTVSPost2010Prop38
140
0.0
102
RTVSPost2010PropOp38
 70
     1
102
RTVSPost2010Prop39
140
1.0
102
RTVSPost2010PropOp39
 70
     1
102
RTVSPost2010Prop40
 90
        0
102
RTVSPost2010PropOp40
 70
     1
102
RTVSPost2010Prop41ColorIndex
 90
       18
102
RTVSPost2010Prop41ColorRGB
 90
        0
102
RTVSPost2010PropOp41
 70
     1
102
RTVSPost2010Prop42
 90
       50
102
RTVSPost2010PropOp42
 70
     1
102
RTVSPost2010Prop43
 90
        3
102
RTVSPost2010PropOp43
 70
     1
102
RTVSPost2010Prop44ColorIndex
 90
        5
102
RTVSPost2010Prop44ColorRGB
 90
      255
102
RTVSPost2010PropOp44
 70
     1
102
RTVSPost2010Prop45
280
     0
102
RTVSPost2010PropOp45
 70
     1
102
RTVSPost2010Prop46
 90
       50
102
RTVSPost2010PropOp46
 70
     1
102
RTVSPost2010Prop47
 90
       50
102
RTVSPost2010PropOp47
 70
     1
102
RTVSPost2010Prop48
 90
       50
102
RTVSPost2010PropOp48
 70
     1
102
RTVSPost2010Prop49
280
     0
102
RTVSPost2010PropOp49
 70
     1
102
RTVSPost2010Prop50
 90
       50
102
RTVSPost2010PropOp50
 70
     1
102
RTVSPost2010Prop51ColorIndex
 90
      256
102
RTVSPost2010Prop51ColorRGB
 90
-16777216
102
RTVSPost2010PropOp51
 70
     0
102
RTVSPost2010Prop52
140
1.0
102
RTVSPost2010PropOp52
 70
     0
102
RTVSPost2010Prop53
 90
        2
102
RTVSPost2010PropOp53
 70
     1
102
RTVSPost2010Prop54
  1
strokes_ogs.tif
102
RTVSPost2010PropOp54
 70
     1
102
RTVSPost2010Prop55
280
     0
102
RTVSPost2010PropOp55
 70
     1
102
RTVSPost2010Prop56
140
1.0
102
RTVSPost2010PropOp56
 70
     1
102
RTVSPost2010Prop57
140
1.0
102
RTVSPost2010PropOp57
 70
     1
102
RTVSPropertyOp0
 70
     1
102
RTVSPropertyOp1
 70
     1
102
RTVSPropertyOp2
 70
     1
102
RTVSPropertyOp3
 70
     1
102
RTVSPropertyOp4
 70
     1
102
RTVSPropertyOp5
 70
     1
102
RTVSPropertyOp6
 70
     1
102
RTVSPropertyOp7
 70
     1
102
RTVSPropertyOp8
 70
     1
102
RTVSPropertyOp9
 70
     1
102
RTVSPropertyOp10
 70
     1
102
RTVSPropertyOp11
 70
     1
102
RTVSPropertyOp12
 70
     1
102
RTVSPropertyOp13
 70
     1
102
RTVSPropertyOp14
 70
     1
102
RTVSPropertyOp15
 70
     1
102
RTVSPropertyOp16
 70
     1
102
RTVSPropertyOp17
 70
     1
102
RTVSPropertyOp18
 70
     1
102
RTVSPropertyOp19
 70
     1
102
RTVSPropertyOp20
 70
     1
102
RTVSPropertyOp21
 70
     1
102
RTVSPropertyOp22
 70
     1
102
RTVSPropertyOp23
 70
     1
102
RTVSPropertyOp24
 70
     1
102
RTVSPropertyOp25
 70
     1
102
RTVSPropertyOp26
 70
     1
102
RTVSPropertyOp27
 70
     1
102
RTVSPropertyOp28
 70
     1
102
RTVSPropertyOp29
 70
     1
102
RTVSPropertyOp30
 70
     1
102
RTVSPropertyOp31
 70
     1
102
RTVSPropertyOp32
 70
     1
102
RTVSPropertyOp33
 70
     1
102
RTVSPropertyOp34
 70
     1
102
RTVSPropertyOp35
 70
     1
102
RTVSPropertyOp36
 70
     1
102
RTVSPropertyOp37
 70
     1
102
RTVSPropertyOp38
 70
     1
102
RTVSPropertyOp39
 70
     1
102
RTVSPropertyOp40
 70
     1
102
RTVSPropertyOp41
 70
     1
102
RTVSPropertyOp42
 70
     1
102
RTVSPropertyOp43
 70
     1
102
RTVSPropertyOp44
 70
     1
102
RTVSPropertyOp45
 70
     1
102
RTVSPropertyOp46
 70
     1
102
RTVSPropertyOp47
 70
     1
102
RTVSPropertyOp48
 70
     1
102
RTVSPropertyOp49
 70
     1
102
RTVSPropertyOp50
 70
     1
102
RTVSPropertyOp51
 70
     0
102
RTVSPropertyOp52
 70
     0
102
RTVSPropertyOp53
 70
     1
102
RTVSPropertyOp54
 70
     1
102
RTVSPropertyOp55
 70
     1
102
RTVSPropertyOp56
 70
     1
102
RTVSPropertyOp57
 70
     1
102
RTVSPropertyOp58
 70
     1
102
RTVSPropertyOp59
 70
     1
102
RTVSPropertyOp60
 70
     1
102
RTVSPropertyOp61
 70
     1
102
RTVSPropertyOp62
 70
     1
  0
ENDSEC
  0
EOF
